  0
SECTION
  2
HEADER
  9
$ACADVER
  1
AC1015
  9
$ACADMAINTVER
 70
     6
  9
$DWGCODEPAGE
  3
ANSI_1252
  9
$INSBASE
 10
0.0
 20
0.0
 30
0.0
  9
$EXTMIN
 10
0.0
 20
0.0
 30
0.0
  9
$EXTMAX
 10
297.0
 20
210.0
 30
0.0
  9
$LIMMIN
 10
0.0
 20
0.0
  9
$LIMMAX
 10
297.0
 20
210.0
  9
$ORTHOMODE
 70
     0
  9
$REGENMODE
 70
     1
  9
$FILLMODE
 70
     1
  9
$QTEXTMODE
 70
     0
  9
$MIRRTEXT
 70
     1
  9
$LTSCALE
 40
1.0
  9
$ATTMODE
 70
     1
  9
$TEXTSIZE
 40
2.0
  9
$TRACEWID
 40
1.0
  9
$TEXTSTYLE
  7
Standard
  9
$CLAYER
  8
0
  9
$CELTYPE
  6
ByLayer
  9
$CECOLOR
 62
   256
  9
$CELTSCALE
 40
1.0
  9
$DISPSILH
 70
     0
  9
$DIMSCALE
 40
1.0
  9
$DIMASZ
 40
3.0
  9
$DIMEXO
 40
0.0
  9
$DIMDLI
 40
3.75
  9
$DIMRND
 40
0.0
  9
$DIMDLE
 40
0.0
  9
$DIMEXE
 40
1.0
  9
$DIMTP
 40
0.0
  9
$DIMTM
 40
0.0
  9
$DIMTXT
 40
2.0
  9
$DIMCEN
 40
2.5
  9
$DIMTSZ
 40
0.0
  9
$DIMTOL
 70
     0
  9
$DIMLIM
 70
     0
  9
$DIMTIH
 70
     1
  9
$DIMTOH
 70
     1
  9
$DIMSE1
 70
     0
  9
$DIMSE2
 70
     0
  9
$DIMTAD
 70
     1
  9
$DIMZIN
 70
     0
  9
$DIMBLK
  1

  9
$DIMASO
 70
     1
  9
$DIMSHO
 70
     1
  9
$DIMPOST
  1

  9
$DIMAPOST
  1

  9
$DIMALT
 70
     0
  9
$DIMALTD
 70
     3
  9
$DIMALTF
 40
0.0393700787
  9
$DIMLFAC
 40
2.0
  9
$DIMTOFL
 70
     1
  9
$DIMTVP
 40
0.0
  9
$DIMTIX
 70
     0
  9
$DIMSOXD
 70
     0
  9
$DIMSAH
 70
     0
  9
$DIMBLK1
  1

  9
$DIMBLK2
  1

  9
$DIMSTYLE
  2
ISO-25
  9
$DIMCLRD
 70
     0
  9
$DIMCLRE
 70
     0
  9
$DIMCLRT
 70
     0
  9
$DIMTFAC
 40
1.0
  9
$DIMGAP
 40
1.524
  9
$DIMJUST
 70
     0
  9
$DIMSD1
 70
     0
  9
$DIMSD2
 70
     0
  9
$DIMTOLJ
 70
     0
  9
$DIMTZIN
 70
     0
  9
$DIMALTZ
 70
     0
  9
$DIMALTTZ
 70
     0
  9
$DIMUPT
 70
     0
  9
$DIMDEC
 70
     2
  9
$DIMTDEC
 70
     3
  9
$DIMALTU
 70
     2
  9
$DIMALTTD
 70
     3
  9
$DIMTXSTY
  7
Standard
  9
$DIMAUNIT
 70
     0
  9
$DIMADEC
 70
     2
  9
$DIMALTRND
 40
0.0
  9
$DIMAZIN
 70
     0
  9
$DIMDSEP
 70
    44
  9
$DIMATFIT
 70
     3
  9
$DIMFRAC
 70
     0
  9
$DIMLDRBLK
  1

  9
$DIMLUNIT
 70
     2
  9
$DIMLWD
 70
    -2
  9
$DIMLWE
 70
    -2
  9
$DIMTMOVE
 70
     0
  9
$LUNITS
 70
     2
  9
$LUPREC
 70
     2
  9
$SKETCHINC
 40
1.0
  9
$FILLETRAD
 40
10.0
  9
$AUNITS
 70
     0
  9
$AUPREC
 70
     2
  9
$MENU
  1
.
  9
$ELEVATION
 40
0.0
  9
$PELEVATION
 40
0.0
  9
$THICKNESS
 40
0.0
  9
$LIMCHECK
 70
     0
  9
$CHAMFERA
 40
0.0
  9
$CHAMFERB
 40
0.0
  9
$CHAMFERC
 40
0.0
  9
$CHAMFERD
 40
0.0
  9
$SKPOLY
 70
     0
  9
$TDCREATE
 40
2458166.427838183
  9
$TDUCREATE
 40
2458166.386171516
  9
$TDUPDATE
 40
2458166.427841609
  9
$TDUUPDATE
 40
2458166.386174942
  9
$TDINDWG
 40
0.0000000116
  9
$TDUSRTIMER
 40
0.0000000116
  9
$USRTIMER
 70
     1
  9
$ANGBASE
 50
0.0
  9
$ANGDIR
 70
     0
  9
$PDMODE
 70
     0
  9
$PDSIZE
 40
-1.0
  9
$PLINEWID
 40
0.0
  9
$SPLFRAME
 70
     0
  9
$SPLINETYPE
 70
     6
  9
$SPLINESEGS
 70
     8
  9
$HANDSEED
  5
2C3
  9
$SURFTAB1
 70
     6
  9
$SURFTAB2
 70
     6
  9
$SURFTYPE
 70
     6
  9
$SURFU
 70
     6
  9
$SURFV
 70
     6
  9
$UCSBASE
  2

  9
$UCSNAME
  2

  9
$UCSORG
 10
0.0
 20
0.0
 30
0.0
  9
$UCSXDIR
 10
1.0
 20
0.0
 30
0.0
  9
$UCSYDIR
 10
0.0
 20
1.0
 30
0.0
  9
$UCSORTHOREF
  2

  9
$UCSORTHOVIEW
 70
     0
  9
$UCSORGTOP
 10
0.0
 20
0.0
 30
0.0
  9
$UCSORGBOTTOM
 10
0.0
 20
0.0
 30
0.0
  9
$UCSORGLEFT
 10
0.0
 20
0.0
 30
0.0
  9
$UCSORGRIGHT
 10
0.0
 20
0.0
 30
0.0
  9
$UCSORGFRONT
 10
0.0
 20
0.0
 30
0.0
  9
$UCSORGBACK
 10
0.0
 20
0.0
 30
0.0
  9
$PUCSBASE
  2

  9
$PUCSNAME
  2

  9
$PUCSORG
 10
0.0
 20
0.0
 30
0.0
  9
$PUCSXDIR
 10
1.0
 20
0.0
 30
0.0
  9
$PUCSYDIR
 10
0.0
 20
1.0
 30
0.0
  9
$PUCSORTHOREF
  2

  9
$PUCSORTHOVIEW
 70
     0
  9
$PUCSORGTOP
 10
0.0
 20
0.0
 30
0.0
  9
$PUCSORGBOTTOM
 10
0.0
 20
0.0
 30
0.0
  9
$PUCSORGLEFT
 10
0.0
 20
0.0
 30
0.0
  9
$PUCSORGRIGHT
 10
0.0
 20
0.0
 30
0.0
  9
$PUCSORGFRONT
 10
0.0
 20
0.0
 30
0.0
  9
$PUCSORGBACK
 10
0.0
 20
0.0
 30
0.0
  9
$USERI1
 70
     0
  9
$USERI2
 70
     0
  9
$USERI3
 70
     0
  9
$USERI4
 70
     0
  9
$USERI5
 70
     0
  9
$USERR1
 40
0.0
  9
$USERR2
 40
0.0
  9
$USERR3
 40
0.0
  9
$USERR4
 40
0.0
  9
$USERR5
 40
0.0
  9
$WORLDVIEW
 70
     1
  9
$SHADEDGE
 70
     3
  9
$SHADEDIF
 70
    70
  9
$TILEMODE
 70
     1
  9
$MAXACTVP
 70
    64
  9
$PINSBASE
 10
0.0
 20
0.0
 30
0.0
  9
$PLIMCHECK
 70
     0
  9
$PEXTMIN
 10
1.0000000000E+20
 20
1.0000000000E+20
 30
1.0000000000E+20
  9
$PEXTMAX
 10
-1.0000000000E+20
 20
-1.0000000000E+20
 30
-1.0000000000E+20
  9
$PLIMMIN
 10
0.0
 20
0.0
  9
$PLIMMAX
 10
420.0
 20
297.0
  9
$UNITMODE
 70
     0
  9
$VISRETAIN
 70
     1
  9
$PLINEGEN
 70
     0
  9
$PSLTSCALE
 70
     1
  9
$TREEDEPTH
 70
  3020
  9
$CMLSTYLE
  2
Standard
  9
$CMLJUST
 70
     0
  9
$CMLSCALE
 40
20.0
  9
$PROXYGRAPHICS
 70
     1
  9
$MEASUREMENT
 70
     1
  9
$CELWEIGHT
370
    -1
  9
$ENDCAPS
280
     0
  9
$JOINSTYLE
280
     0
  9
$LWDISPLAY
290
     1
  9
$INSUNITS
 70
     4
  9
$HYPERLINKBASE
  1

  9
$STYLESHEET
  1

  9
$XEDIT
290
     1
  9
$CEPSNTYPE
380
     0
  9
$PSTYLEMODE
290
     1
  9
$FINGERPRINTGUID
  2
{5DA85A10-C3B4-4BBF-BC38-8B8700700FE8}
  9
$VERSIONGUID
  2
{FAEB1C32-E019-11D5-929B-00C0DF256EC4}
  9
$EXTNAMES
290
     1
  9
$PSVPSCALE
 40
0.0
  9
$OLESTARTUP
290
     0
  0
ENDSEC
  0
SECTION
  2
CLASSES
  0
CLASS
  1
ACDBDICTIONARYWDFLT
  2
AcDbDictionaryWithDefault
  3
ObjectDBX Classes
 90
        0
280
     0
281
     0
  0
CLASS
  1
VISUALSTYLE
  2
AcDbVisualStyle
  3
ObjectDBX Classes
 90
     4095
280
     0
281
     0
  0
CLASS
  1
MATERIAL
  2
AcDbMaterial
  3
ObjectDBX Classes
 90
     1153
280
     0
281
     0
  0
CLASS
  1
SCALE
  2
AcDbScale
  3
ObjectDBX Classes
 90
     1153
280
     0
281
     0
  0
CLASS
  1
TABLESTYLE
  2
AcDbTableStyle
  3
ObjectDBX Classes
 90
     4095
280
     0
281
     0
  0
CLASS
  1
MLEADERSTYLE
  2
AcDbMLeaderStyle
  3
ACDB_MLEADERSTYLE_CLASS
 90
     4095
280
     0
281
     0
  0
CLASS
  1
SUN
  2
AcDbSun
  3
SCENEOE
 90
     1153
280
     0
281
     0
  0
CLASS
  1
ACDBPLACEHOLDER
  2
AcDbPlaceHolder
  3
ObjectDBX Classes
 90
        0
280
     0
281
     0
  0
CLASS
  1
LAYOUT
  2
AcDbLayout
  3
ObjectDBX Classes
 90
        0
280
     0
281
     0
  0
ENDSEC
  0
SECTION
  2
TABLES
  0
TABLE
  2
VPORT
  5
8
330
0
100
AcDbSymbolTable
 70
     1
  0
VPORT
  5
29
330
8
100
AcDbSymbolTableRecord
100
AcDbViewportTableRecord
  2
*Active
 70
     0
 10
0.0
 20
0.0
 11
1.0
 21
1.0
 12
148.5
 22
105.0
 13
0.0
 23
0.0
 14
10.0
 24
10.0
 15
10.0
 25
10.0
 16
0.0
 26
0.0
 36
1.0
 17
0.0
 27
0.0
 37
0.0
 40
210.0
 41
1.4142857143
 42
50.0
 43
0.0
 44
0.0
 50
0.0
 51
0.0
 71
     0
 72
  2000
 73
     1
 74
     3
 75
     0
 76
     0
 77
     0
 78
     0
281
     0
 65
     1
110
0.0
120
0.0
130
0.0
111
1.0
121
0.0
131
0.0
112
0.0
122
1.0
132
0.0
 79
     0
146
0.0
  0
ENDTAB
  0
TABLE
  2
LTYPE
  5
5
330
0
100
AcDbSymbolTable
 70
     6
  0
LTYPE
  5
14
330
5
100
AcDbSymbolTableRecord
100
AcDbLinetypeTableRecord
  2
ByBlock
 70
     0
  3

 72
    65
 73
     0
 40
0.0
  0
LTYPE
  5
15
330
5
100
AcDbSymbolTableRecord
100
AcDbLinetypeTableRecord
  2
ByLayer
 70
     0
  3

 72
    65
 73
     0
 40
0.0
  0
LTYPE
  5
16
330
5
100
AcDbSymbolTableRecord
100
AcDbLinetypeTableRecord
  2
Continuous
 70
     0
  3
Solid line
 72
    65
 73
     0
 40
0.0
  0
LTYPE
  5
6E
330
5
100
AcDbSymbolTableRecord
100
AcDbLinetypeTableRecord
  2
HIDDEN
 70
     0
  3
Hidden __ __ __ __ __ __ __ __ __ __ __ __ __ __
 72
    65
 73
     2
 40
1.905
 49
1.27
 74
     0
 49
-0.635
 74
     0
  0
LTYPE
  5
6F
330
5
100
AcDbSymbolTableRecord
100
AcDbLinetypeTableRecord
  2
PHANTOM
 70
     0
  3
Phantom ______  __  __  ______  __  __  ______
 72
    65
 73
     6
 40
12.7
 49
6.35
 74
     0
 49
-1.27
 74
     0
 49
1.27
 74
     0
 49
-1.27
 74
     0
 49
1.27
 74
     0
 49
-1.27
 74
     0
  0
LTYPE
  5
70
330
5
100
AcDbSymbolTableRecord
100
AcDbLinetypeTableRecord
  2
CENTER
 70
     0
  3
Center ____ _ ____ _ ____ _ ____ _ ____ _ ____
 72
    65
 73
     4
 40
10.16
 49
6.35
 74
     0
 49
-1.27
 74
     0
 49
1.27
 74
     0
 49
-1.27
 74
     0
  0
LTYPE
  5
71
330
5
100
AcDbSymbolTableRecord
100
AcDbLinetypeTableRecord
  2
CENTERX2
 70
     0
  3
Center (2x) ________  __  ________  __  _____
 72
    65
 73
     4
 40
20.32
 49
12.7
 74
     0
 49
-2.54
 74
     0
 49
2.54
 74
     0
 49
-2.54
 74
     0
  0
LTYPE
  5
72
330
5
100
AcDbSymbolTableRecord
100
AcDbLinetypeTableRecord
  2
DOT2
 70
     0
  3
Dot (.5x) ........................................
 72
    65
 73
     2
 40
0.635
 49
0.0
 74
     0
 49
-0.635
 74
     0
  0
ENDTAB
  0
TABLE
  2
LAYER
  5
2
330
0
100
AcDbSymbolTable
 70
     5
  0
LAYER
  5
10
330
2
100
AcDbSymbolTableRecord
100
AcDbLayerTableRecord
  2
0
 70
     0
 62
     7
  6
Continuous
370
    -3
390
F
  0
LAYER
  5
73
330
2
100
AcDbSymbolTableRecord
100
AcDbLayerTableRecord
  2
FORMAT
 70
     0
 62
     7
  6
Continuous
370
    -3
390
F
  0
LAYER
  5
74
330
2
100
AcDbSymbolTableRecord
100
AcDbLayerTableRecord
  2
VERMASSUNG
 70
     0
 62
     7
  6
Continuous
370
    -3
390
F
  0
LAYER
  5
75
330
2
100
AcDbSymbolTableRecord
100
AcDbLayerTableRecord
  2
KOPF_DÜNN
 70
     0
 62
     7
  6
Continuous
370
    -3
390
F
  0
LAYER
  5
76
330
2
100
AcDbSymbolTableRecord
100
AcDbLayerTableRecord
  2
KOPF_DICK
 70
     0
 62
     7
  6
Continuous
370
    25
390
F
  0
ENDTAB
  0
TABLE
  2
STYLE
  5
3
330
0
100
AcDbSymbolTable
 70
     2
  0
STYLE
  5
11
330
3
100
AcDbSymbolTableRecord
100
AcDbTextStyleTableRecord
  2
Standard
 70
     0
 40
0.0
 41
1.0
 50
0.0
 71
     0
 42
2.0
  3
txt
  4

  0
STYLE
  5
77
330
3
100
AcDbSymbolTableRecord
100
AcDbTextStyleTableRecord
  2
SLDTEXTSTYLE0
 70
     0
 40
0.0
 41
0.7
 50
0.0
 71
     0
 42
2.0
  3
TXT
  4

  0
ENDTAB
  0
TABLE
  2
VIEW
  5
6
330
0
100
AcDbSymbolTable
 70
     0
  0
ENDTAB
  0
TABLE
  2
UCS
  5
7
330
0
100
AcDbSymbolTable
 70
     0
  0
ENDTAB
  0
TABLE
  2
APPID
  5
9
330
0
100
AcDbSymbolTable
 70
     1
  0
APPID
  5
12
330
9
100
AcDbSymbolTableRecord
100
AcDbRegAppTableRecord
  2
ACAD
 70
     0
  0
ENDTAB
  0
TABLE
  2
DIMSTYLE
  5
A
330
0
100
AcDbSymbolTable
 70
     4
100
AcDbDimStyleTable
  0
DIMSTYLE
105
27
330
A
100
AcDbSymbolTableRecord
100
AcDbDimStyleTableRecord
  2
ISO-25
 70
     0
 41
2.5
 42
0.625
 43
3.75
 44
1.25
 73
     0
 74
     0
 77
     1
 78
     8
140
2.5
141
2.5
143
0.0393700787
147
0.625
171
     3
172
     1
178
     0
271
     2
272
     2
274
     3
278
    44
283
     0
284
     8
340
11
  0
DIMSTYLE
105
1F4
102
{ACAD_REACTORS
330
1F3
102
}
330
A
100
AcDbSymbolTableRecord
100
AcDbDimStyleTableRecord
  2
SLDDIMSTYLE0
 70
     0
 41
3.0
 44
0.0
 45
0.000000001
 73
     0
 74
     0
 76
     1
 77
     1
 78
    12
 79
     3
140
2.0
147
0.5
173
     1
178
     0
271
     2
272
     3
276
     2
282
     1
284
    12
340
77
  0
DIMSTYLE
105
1FE
102
{ACAD_REACTORS
330
1FD
330
217
330
221
330
22B
102
}
330
A
100
AcDbSymbolTableRecord
100
AcDbDimStyleTableRecord
  2
SLDDIMSTYLE1
 70
     0
 41
3.0
 44
0.0
 45
0.000000001
 73
     0
 74
     0
 77
     1
 78
    12
 79
     3
140
2.0
147
0.5
173
     1
178
     0
271
     2
272
     3
276
     2
284
    12
340
77
  0
DIMSTYLE
105
20A
102
{ACAD_REACTORS
330
209
102
}
330
A
100
AcDbSymbolTableRecord
100
AcDbDimStyleTableRecord
  2
SLDDIMSTYLE2
 70
     0
 41
3.0
 44
0.0
 45
0.000000001
 73
     0
 74
     0
 77
     1
 78
    12
 79
     3
140
2.0
147
0.5
173
     1
178
     0
271
     1
272
     3
276
     2
284
    12
340
77
  0
ENDTAB
  0
TABLE
  2
BLOCK_RECORD
  5
1
330
0
100
AcDbSymbolTable
 70
     7
  0
BLOCK_RECORD
  5
1F
330
1
100
AcDbSymbolTableRecord
100
AcDbBlockTableRecord
  2
*Model_Space
340
22
  0
BLOCK_RECORD
  5
1B
330
1
100
AcDbSymbolTableRecord
100
AcDbBlockTableRecord
  2
*Paper_Space
340
1E
  0
BLOCK_RECORD
  5
23
330
1
100
AcDbSymbolTableRecord
100
AcDbBlockTableRecord
  2
*Paper_Space0
340
26
  0
BLOCK_RECORD
  5
1F5
330
1
100
AcDbSymbolTableRecord
100
AcDbBlockTableRecord
  2
_D
340
0
  0
BLOCK_RECORD
  5
1FF
330
1
100
AcDbSymbolTableRecord
100
AcDbBlockTableRecord
  2
_D_1
340
0
  0
BLOCK_RECORD
  5
20B
330
1
100
AcDbSymbolTableRecord
100
AcDbBlockTableRecord
  2
_D_2
340
0
  0
BLOCK_RECORD
  5
218
330
1
100
AcDbSymbolTableRecord
100
AcDbBlockTableRecord
  2
_D_3
340
0
  0
BLOCK_RECORD
  5
222
330
1
100
AcDbSymbolTableRecord
100
AcDbBlockTableRecord
  2
_D_4
340
0
  0
BLOCK_RECORD
  5
22C
330
1
100
AcDbSymbolTableRecord
100
AcDbBlockTableRecord
  2
_D_5
340
0
  0
ENDTAB
  0
ENDSEC
  0
SECTION
  2
BLOCKS
  0
BLOCK
  5
20
330
1F
100
AcDbEntity
  8
0
100
AcDbBlockBegin
  2
*Model_Space
 70
     0
 10
0.0
 20
0.0
 30
0.0
  3
*Model_Space
  1

  0
ENDBLK
  5
21
330
1F
100
AcDbEntity
  8
0
100
AcDbBlockEnd
  0
BLOCK
  5
1C
330
1B
100
AcDbEntity
 67
     1
  8
0
100
AcDbBlockBegin
  2
*Paper_Space
 70
     0
 10
0.0
 20
0.0
 30
0.0
  3
*Paper_Space
  1

  0
ENDBLK
  5
1D
330
1B
100
AcDbEntity
 67
     1
  8
0
100
AcDbBlockEnd
  0
BLOCK
  5
24
330
23
100
AcDbEntity
  8
0
100
AcDbBlockBegin
  2
*Paper_Space0
 70
     0
 10
0.0
 20
0.0
 30
0.0
  3
*Paper_Space0
  1

  0
ENDBLK
  5
25
330
23
100
AcDbEntity
  8
0
100
AcDbBlockEnd
  0
BLOCK
  5
1F6
330
1F5
100
AcDbEntity
  8
0
100
AcDbBlockBegin
  2
_D
 70
     0
 10
0.0
 20
0.0
 30
0.0
  3
_D
  1

  0
SOLID
  5
1F8
330
1F5
100
AcDbEntity
  8
VERMASSUNG
100
AcDbTrace
 10
227.237146957
 20
117.4290024005
 30
0.0
 11
226.787146957
 21
114.4290024005
 31
0.0
 12
227.687146957
 22
114.4290024005
 32
0.0
 13
227.687146957
 23
114.4290024005
 33
0.0
  0
LINE
  5
1F9
330
1F5
100
AcDbEntity
  8
VERMASSUNG
100
AcDbLine
 10
174.7978802134
 20
117.4290024005
 30
0.0
 11
228.237146957
 21
117.4290024005
 31
0.0
  0
LINE
  5
1FA
330
1F5
100
AcDbEntity
  8
VERMASSUNG
100
AcDbLine
 10
227.237146957
 20
117.4290024005
 30
0.0
 11
227.237146957
 21
106.4240023364
 31
0.0
  0
MTEXT
  5
1FB
330
1F5
100
AcDbEntity
  8
VERMASSUNG
100
AcDbMText
 10
224.6590116521
 20
106.4240023364
 30
0.0
 40
2.0
 41
0.0
 71
     1
 72
     1
  1
%%c
  7
SLDTEXTSTYLE0
 11
-7.044195017643634E-15
 21
1.0
 31
0.0
 73
     1
 44
1.0
  0
MTEXT
  5
1FC
330
1F5
100
AcDbEntity
  8
VERMASSUNG
100
AcDbMText
 10
224.4590117008
 20
110.0340023507
 30
0.0
 40
2.0
 41
0.0
 71
     1
 72
     1
  1
16
  7
SLDTEXTSTYLE0
 11
-7.044195017643634E-15
 21
1.0
 31
0.0
 73
     1
 44
1.0
  0
ENDBLK
  5
1F7
330
1F5
100
AcDbEntity
  8
0
100
AcDbBlockEnd
  0
BLOCK
  5
200
330
1FF
100
AcDbEntity
  8
0
100
AcDbBlockBegin
  2
_D_1
 70
     0
 10
0.0
 20
0.0
 30
0.0
  3
_D_1
  1

  0
SOLID
  5
202
330
1FF
100
AcDbEntity
  8
VERMASSUNG
100
AcDbTrace
 10
238.2978802134
 20
133.4290024005
 30
0.0
 11
237.8478802134
 21
130.4290024005
 31
0.0
 12
238.7478802134
 22
130.4290024005
 32
0.0
 13
238.7478802134
 23
130.4290024005
 33
0.0
  0
SOLID
  5
203
330
1FF
100
AcDbEntity
  8
VERMASSUNG
100
AcDbTrace
 10
238.2978802134
 20
85.4290024005
 30
0.0
 11
238.7478802134
 21
88.4290024005
 31
0.0
 12
237.8478802134
 22
88.4290024005
 32
0.0
 13
237.8478802134
 23
88.4290024005
 33
0.0
  0
LINE
  5
204
330
1FF
100
AcDbEntity
  8
VERMASSUNG
100
AcDbLine
 10
191.4308386904
 20
133.4290024005
 30
0.0
 11
239.2978802134
 21
133.4290024005
 31
0.0
  0
LINE
  5
205
330
1FF
100
AcDbEntity
  8
VERMASSUNG
100
AcDbLine
 10
191.4308386904
 20
85.4290024005
 30
0.0
 11
239.2978802134
 21
85.4290024005
 31
0.0
  0
LINE
  5
206
330
1FF
100
AcDbEntity
  8
VERMASSUNG
100
AcDbLine
 10
238.2978802134
 20
133.4290024005
 30
0.0
 11
238.2978802134
 21
85.4290024005
 31
0.0
  0
MTEXT
  5
207
330
1FF
100
AcDbEntity
  8
VERMASSUNG
100
AcDbMText
 10
235.7197449085
 20
106.1240023803
 30
0.0
 40
2.0
 41
0.0
 71
     1
 72
     1
  1
%%c
  7
SLDTEXTSTYLE0
 11
-7.044195017643634E-15
 21
1.0
 31
0.0
 73
     1
 44
1.0
  0
MTEXT
  5
208
330
1FF
100
AcDbEntity
  8
VERMASSUNG
100
AcDbMText
 10
235.5197449572
 20
109.7340023947
 30
0.0
 40
2.0
 41
0.0
 71
     1
 72
     1
  1
48
  7
SLDTEXTSTYLE0
 11
-7.044195017643634E-15
 21
1.0
 31
0.0
 73
     1
 44
1.0
  0
ENDBLK
  5
201
330
1FF
100
AcDbEntity
  8
0
100
AcDbBlockEnd
  0
BLOCK
  5
20C
330
20B
100
AcDbEntity
  8
0
100
AcDbBlockBegin
  2
_D_2
 70
     0
 10
0.0
 20
0.0
 30
0.0
  3
_D_2
  1

  0
SOLID
  5
20E
330
20B
100
AcDbEntity
  8
VERMASSUNG
100
AcDbTrace
 10
84.5390977444
 20
140.9040024005
 30
0.0
 11
84.0890977444
 21
137.9040024005
 31
0.0
 12
84.9890977444
 22
137.9040024005
 32
0.0
 13
84.9890977444
 23
137.9040024005
 33
0.0
  0
SOLID
  5
20F
330
20B
100
AcDbEntity
  8
VERMASSUNG
100
AcDbTrace
 10
84.5390977444
 20
77.9540024005
 30
0.0
 11
84.9890977444
 21
80.9540024005
 31
0.0
 12
84.0890977444
 22
80.9540024005
 32
0.0
 13
84.0890977444
 23
80.9540024005
 33
0.0
  0
LINE
  5
210
330
20B
100
AcDbEntity
  8
VERMASSUNG
100
AcDbLine
 10
157.532078018
 20
140.9040024005
 30
0.0
 11
83.5390977444
 21
140.9040024005
 31
0.0
  0
LINE
  5
211
330
20B
100
AcDbEntity
  8
VERMASSUNG
100
AcDbLine
 10
157.532078018
 20
77.9540024005
 30
0.0
 11
83.5390977444
 21
77.9540024005
 31
0.0
  0
LINE
  5
212
330
20B
100
AcDbEntity
  8
VERMASSUNG
100
AcDbLine
 10
84.5390977444
 20
140.9040024005
 30
0.0
 11
84.5390977444
 21
77.9540024005
 31
0.0
  0
MTEXT
  5
213
330
20B
100
AcDbEntity
  8
VERMASSUNG
100
AcDbMText
 10
81.7609624881
 20
101.3240037822
 30
0.0
 40
2.0
 41
0.0
 71
     1
 72
     1
  1
KM
  7
SLDTEXTSTYLE0
 11
-7.044195017643634E-15
 21
1.0
 31
0.0
 73
     1
 44
1.0
  0
MTEXT
  5
214
330
20B
100
AcDbEntity
  8
VERMASSUNG
100
AcDbMText
 10
81.9609624394
 20
104.7240035944
 30
0.0
 40
2.0
 41
0.0
 71
     1
 72
     1
  1
%%c
  7
SLDTEXTSTYLE0
 11
-7.044195017643634E-15
 21
1.0
 31
0.0
 73
     1
 44
1.0
  0
MTEXT
  5
215
330
20B
100
AcDbEntity
  8
VERMASSUNG
100
AcDbMText
 10
81.7609624881
 20
108.3340036087
 30
0.0
 40
2.0
 41
0.0
 71
     1
 72
     1
  1
63
  7
SLDTEXTSTYLE0
 11
-7.044195017643634E-15
 21
1.0
 31
0.0
 73
     1
 44
1.0
  0
MTEXT
  5
216
330
20B
100
AcDbEntity
  8
VERMASSUNG
100
AcDbMText
 10
81.7609624881
 20
112.3215035089
 30
0.0
 40
2.0
 41
0.0
 71
     1
 72
     1
  1
XMZ
  7
SLDTEXTSTYLE0
 11
-7.044195017643634E-15
 21
1.0
 31
0.0
 73
     1
 44
1.0
  0
ENDBLK
  5
20D
330
20B
100
AcDbEntity
  8
0
100
AcDbBlockEnd
  0
BLOCK
  5
219
330
218
100
AcDbEntity
  8
0
100
AcDbBlockBegin
  2
_D_3
 70
     0
 10
0.0
 20
0.0
 30
0.0
  3
_D_3
  1

  0
SOLID
  5
21B
330
218
100
AcDbEntity
  8
VERMASSUNG
100
AcDbTrace
 10
162.2978802134
 20
148.1637327098
 30
0.0
 11
165.2978802134
 21
147.7137327098
 31
0.0
 12
165.2978802134
 22
148.6137327098
 32
0.0
 13
165.2978802134
 23
148.6137327098
 33
0.0
  0
SOLID
  5
21C
330
218
100
AcDbEntity
  8
VERMASSUNG
100
AcDbTrace
 10
204.2978802134
 20
148.1637327098
 30
0.0
 11
201.2978802134
 21
148.6137327098
 31
0.0
 12
201.2978802134
 22
147.7137327098
 32
0.0
 13
201.2978802134
 23
147.7137327098
 33
0.0
  0
LINE
  5
21D
330
218
100
AcDbEntity
  8
VERMASSUNG
100
AcDbLine
 10
162.2978802134
 20
140.9040024005
 30
0.0
 11
162.2978802134
 21
149.1637327098
 31
0.0
  0
LINE
  5
21E
330
218
100
AcDbEntity
  8
VERMASSUNG
100
AcDbLine
 10
204.2978802134
 20
126.1548618789
 30
0.0
 11
204.2978802134
 21
149.1637327098
 31
0.0
  0
LINE
  5
21F
330
218
100
AcDbEntity
  8
VERMASSUNG
100
AcDbLine
 10
162.2978802134
 20
148.1637327098
 30
0.0
 11
204.2978802134
 21
148.1637327098
 31
0.0
  0
MTEXT
  5
220
330
218
100
AcDbEntity
  8
VERMASSUNG
100
AcDbMText
 10
181.7978802004
 20
150.7418683058
 30
0.0
 40
2.0
 41
0.0
 71
     1
 72
     1
  1
42
  7
SLDTEXTSTYLE0
 73
     1
 44
1.0
  0
ENDBLK
  5
21A
330
218
100
AcDbEntity
  8
0
100
AcDbBlockEnd
  0
BLOCK
  5
223
330
222
100
AcDbEntity
  8
0
100
AcDbBlockBegin
  2
_D_4
 70
     0
 10
0.0
 20
0.0
 30
0.0
  3
_D_4
  1

  0
SOLID
  5
225
330
222
100
AcDbEntity
  8
VERMASSUNG
100
AcDbTrace
 10
144.2978802134
 20
156.9040024005
 30
0.0
 11
147.2978802134
 21
156.4540024005
 31
0.0
 12
147.2978802134
 22
157.3540024005
 32
0.0
 13
147.2978802134
 23
157.3540024005
 33
0.0
  0
SOLID
  5
226
330
222
100
AcDbEntity
  8
VERMASSUNG
100
AcDbTrace
 10
204.2978802134
 20
156.9040024005
 30
0.0
 11
201.2978802134
 21
157.3540024005
 31
0.0
 12
201.2978802134
 22
156.4540024005
 32
0.0
 13
201.2978802134
 23
156.4540024005
 33
0.0
  0
LINE
  5
227
330
222
100
AcDbEntity
  8
VERMASSUNG
100
AcDbLine
 10
144.2978802134
 20
140.7040024005
 30
0.0
 11
144.2978802134
 21
157.9040024005
 31
0.0
  0
LINE
  5
228
330
222
100
AcDbEntity
  8
VERMASSUNG
100
AcDbLine
 10
204.2978802134
 20
126.1548618789
 30
0.0
 11
204.2978802134
 21
157.9040024005
 31
0.0
  0
LINE
  5
229
330
222
100
AcDbEntity
  8
VERMASSUNG
100
AcDbLine
 10
144.2978802134
 20
156.9040024005
 30
0.0
 11
204.2978802134
 21
156.9040024005
 31
0.0
  0
MTEXT
  5
22A
330
222
100
AcDbEntity
  8
VERMASSUNG
100
AcDbMText
 10
172.8978802634
 20
159.4821379965
 30
0.0
 40
2.0
 41
0.0
 71
     1
 72
     1
  1
60
  7
SLDTEXTSTYLE0
 73
     1
 44
1.0
  0
ENDBLK
  5
224
330
222
100
AcDbEntity
  8
0
100
AcDbBlockEnd
  0
BLOCK
  5
22D
330
22C
100
AcDbEntity
  8
0
100
AcDbBlockBegin
  2
_D_5
 70
     0
 10
0.0
 20
0.0
 30
0.0
  3
_D_5
  1

  0
SOLID
  5
22F
330
22C
100
AcDbEntity
  8
VERMASSUNG
100
AcDbTrace
 10
104.3478802134
 20
165.3947368421
 30
0.0
 11
107.3478802134
 21
164.9447368421
 31
0.0
 12
107.3478802134
 22
165.8447368421
 32
0.0
 13
107.3478802134
 23
165.8447368421
 33
0.0
  0
SOLID
  5
230
330
22C
100
AcDbEntity
  8
VERMASSUNG
100
AcDbTrace
 10
204.2978802134
 20
165.3947368421
 30
0.0
 11
201.2978802134
 21
165.8447368421
 31
0.0
 12
201.2978802134
 22
164.9447368421
 32
0.0
 13
201.2978802134
 23
164.9447368421
 33
0.0
  0
LINE
  5
231
330
22C
100
AcDbEntity
  8
VERMASSUNG
100
AcDbLine
 10
104.3478802134
 20
131.6320971243
 30
0.0
 11
104.3478802134
 21
166.3947368421
 31
0.0
  0
LINE
  5
232
330
22C
100
AcDbEntity
  8
VERMASSUNG
100
AcDbLine
 10
204.2978802134
 20
126.1548618789
 30
0.0
 11
204.2978802134
 21
166.3947368421
 31
0.0
  0
LINE
  5
233
330
22C
100
AcDbEntity
  8
VERMASSUNG
100
AcDbLine
 10
104.3478802134
 20
165.3947368421
 30
0.0
 11
204.2978802134
 21
165.3947368421
 31
0.0
  0
MTEXT
  5
234
330
22C
100
AcDbEntity
  8
VERMASSUNG
100
AcDbMText
 10
151.2228803572
 20
167.9728724381
 30
0.0
 40
2.0
 41
0.0
 71
     1
 72
     1
  1
99.95
  7
SLDTEXTSTYLE0
 73
     1
 44
1.0
  0
ENDBLK
  5
22E
330
22C
100
AcDbEntity
  8
0
100
AcDbBlockEnd
  0
ENDSEC
  0
SECTION
  2
ENTITIES
  0
MTEXT
  5
78
330
1F
100
AcDbEntity
  8
KOPF_DÜNN
100
AcDbMText
 10
13.8892156294
 20
23.8442973028
 30
0.0
 40
3.0
 41
0.0
 71
     1
 72
     1
  1
KY6.W16.K01.060
  7
SLDTEXTSTYLE0
 73
     1
 44
1.0
  0
MTEXT
  5
79
330
1F
100
AcDbEntity
  8
VERMASSUNG
100
AcDbMText
 10
13.9329988022
 20
28.8834360957
 30
0.0
 40
3.0
 41
0.0
 71
     1
 72
     1
  1
Flächenspannfutter Weldon_End mill adapter Weldon
  7
SLDTEXTSTYLE0
 73
     1
 44
1.0
  0
MTEXT
  5
7A
330
1F
100
AcDbEntity
  8
VERMASSUNG
100
AcDbMText
 10
98.8601118557
 20
13.8365368761
 30
0.0
 40
2.0
 41
0.0
 71
     1
 72
     1
  1
Datum: 16.02.2018
  7
SLDTEXTSTYLE0
 73
     1
 44
1.0
  0
MTEXT
  5
7B
330
1F
100
AcDbEntity
  8
VERMASSUNG
100
AcDbMText
 10
13.933048693
 20
18.0482802738
 30
0.0
 40
2.0
 41
0.0
 71
     1
 72
     1
  1
KM63 XMZ / Ø16
  7
SLDTEXTSTYLE0
 73
     1
 44
1.0
  0
MTEXT
  5
7C
330
1F
100
AcDbEntity
  8
VERMASSUNG
100
AcDbMText
 10
13.9808475933
 20
13.9090974274
 30
0.0
 40
2.0
 41
0.0
 71
     1
 72
     1
  1
Gewicht: 1098g
  7
SLDTEXTSTYLE0
 73
     1
 44
1.0
  0
SPLINE
  5
7D
330
1F
100
AcDbEntity
  8
0
  6
Continuous
 62
     7
370
    25
100
AcDbSpline
210
0.0
220
0.0
230
1.0
 70
     8
 71
     3
 72
     8
 73
     4
 74
     0
 42
0.000000001
 43
0.00000001
 40
0.0
 40
0.0
 40
0.0
 40
0.0
 40
1.0
 40
1.0
 40
1.0
 40
1.0
 10
371.27071473851
 20
105.0590015285719
 30
0.0
 10
371.2018763683233
 20
104.995906855253
 30
0.0
 10
371.1334450078672
 20
104.9321844771222
 30
0.0
 10
371.0654287332025
 20
104.8678390448488
 30
0.0
  0
SPLINE
  5
7E
330
1F
100
AcDbEntity
  8
0
  6
Continuous
 62
     7
370
    25
100
AcDbSpline
210
0.0
220
0.0
230
1.0
 70
     8
 71
     3
 72
     8
 73
     4
 74
     0
 42
0.000000001
 43
0.00000001
 40
0.0
 40
0.0
 40
0.0
 40
0.0
 40
1.0
 40
1.0
 40
1.0
 40
1.0
 10
371.5287419797708
 20
104.8897396986446
 30
0.0
 10
371.4420385456103
 20
104.9459006183138
 30
0.0
 10
371.3560404981265
 20
105.0023253546397
 30
0.0
 10
371.27071473851
 20
105.0590015285719
 30
0.0
  0
ARC
  5
7F
330
1F
100
AcDbEntity
  8
0
  6
Continuous
 62
     7
370
    25
100
AcDbCircle
 10
381.6598548481
 20
109.4290024005
 30
0.0
 40
11.10154736189901
100
AcDbArc
 50
204.1348482805
 51
335.8651517195
  0
SPLINE
  5
80
330
1F
100
AcDbEntity
  8
0
  6
Continuous
 62
     7
370
    25
100
AcDbSpline
210
0.0
220
0.0
230
1.0
 70
     8
 71
     3
 72
     8
 73
     4
 74
     0
 42
0.000000001
 43
0.00000001
 40
0.0
 40
0.0
 40
0.0
 40
0.0
 40
1.0
 40
1.0
 40
1.0
 40
1.0
 10
392.0489949577758
 20
105.0590015285719
 30
0.0
 10
391.9636691981594
 20
105.0023253546397
 30
0.0
 10
391.8776711506755
 20
104.9459006183138
 30
0.0
 10
391.7909677165151
 20
104.8897396986446
 30
0.0
  0
SPLINE
  5
81
330
1F
100
AcDbEntity
  8
0
  6
Continuous
 62
     7
370
    25
100
AcDbSpline
210
0.0
220
0.0
230
1.0
 70
     8
 71
     3
 72
     8
 73
     4
 74
     0
 42
0.000000001
 43
0.00000001
 40
0.0
 40
0.0
 40
0.0
 40
0.0
 40
1.0
 40
1.0
 40
1.0
 40
1.0
 10
392.2542809630834
 20
104.8678390448488
 30
0.0
 10
392.1862646884177
 20
104.9321844771231
 30
0.0
 10
392.1178333279607
 20
104.9959068552549
 30
0.0
 10
392.0489949577729
 20
105.0590015285746
 30
0.0
  0
ARC
  5
82
330
1F
100
AcDbEntity
  8
0
  6
Continuous
 62
     7
370
    25
100
AcDbCircle
 10
381.6598548481
 20
109.4290024005
 30
0.0
 40
11.53456006379122
100
AcDbArc
 50
203.2930774359
 51
336.7074733161
  0
ARC
  5
83
330
1F
100
AcDbEntity
  8
0
  6
Continuous
 62
     7
370
    25
100
AcDbCircle
 10
381.6598548481
 20
109.4290024005
 30
0.0
 40
11.10154736189899
100
AcDbArc
 50
29.4783538465
 51
150.5216461535
  0
SPLINE
  5
84
330
1F
100
AcDbEntity
  8
0
  6
Continuous
 62
     7
370
    25
100
AcDbSpline
210
0.0
220
0.0
230
1.0
 70
     8
 71
     3
 72
     8
 73
     4
 74
     0
 42
0.000000001
 43
0.00000001
 40
0.0
 40
0.0
 40
0.0
 40
0.0
 40
1.0
 40
1.0
 40
1.0
 40
1.0
 10
371.6839217988185
 20
114.707301649926
 30
0.0
 10
371.7868177126425
 20
114.7692702590169
 30
0.0
 10
371.8906573821973
 20
114.8308489111575
 30
0.0
 10
371.9954952704239
 20
114.892015102429
 30
0.0
  0
SPLINE
  5
85
330
1F
100
AcDbEntity
  8
0
  6
Continuous
 62
     7
370
    25
100
AcDbSpline
210
0.0
220
0.0
230
1.0
 70
     8
 71
     3
 72
     8
 73
     4
 74
     0
 42
0.000000001
 43
0.00000001
 40
0.0
 40
0.0
 40
0.0
 40
0.0
 40
1.0
 40
1.0
 40
1.0
 40
1.0
 10
371.4953854177046
 20
114.8814914707956
 30
0.0
 10
371.5579537260742
 20
114.8230410016881
 30
0.0
 10
371.6208003194379
 20
114.7649769911551
 30
0.0
 10
371.6839217988207
 20
114.7073016499239
 30
0.0
  0
ARC
  5
86
330
1F
100
AcDbEntity
  8
0
  6
Continuous
 62
     7
370
    25
100
AcDbCircle
 10
381.6598548481
 20
109.4290024005
 30
0.0
 40
11.53456006379119
100
AcDbArc
 50
28.2102805322
 51
151.7902347364
  0
SPLINE
  5
87
330
1F
100
AcDbEntity
  8
0
  6
Continuous
 62
     7
370
    25
100
AcDbSpline
210
0.0
220
0.0
230
1.0
 70
     8
 71
     3
 72
     8
 73
     4
 74
     0
 42
0.000000001
 43
0.00000001
 40
0.0
 40
0.0
 40
0.0
 40
0.0
 40
1.0
 40
1.0
 40
1.0
 40
1.0
 10
391.6357878974673
 20
114.707301649926
 30
0.0
 10
391.6989093768494
 20
114.7649769911564
 30
0.0
 10
391.7617559702124
 20
114.8230410016888
 30
0.0
 10
391.8243242785812
 20
114.8814914707956
 30
0.0
  0
SPLINE
  5
88
330
1F
100
AcDbEntity
  8
0
  6
Continuous
 62
     7
370
    25
100
AcDbSpline
210
0.0
220
0.0
230
1.0
 70
     8
 71
     3
 72
     8
 73
     4
 74
     0
 42
0.000000001
 43
0.00000001
 40
0.0
 40
0.0
 40
0.0
 40
0.0
 40
1.0
 40
1.0
 40
1.0
 40
1.0
 10
391.324214425862
 20
114.892015102429
 30
0.0
 10
391.4290523140886
 20
114.8308489111575
 30
0.0
 10
391.5328919836434
 20
114.7692702590169
 30
0.0
 10
391.6357878974673
 20
114.707301649926
 30
0.0
  0
LINE
  5
89
330
1F
100
AcDbEntity
  8
0
  6
Continuous
 62
     7
370
    25
100
AcDbLine
 10
371.6839217988
 20
114.7073016499
 30
0.0
 11
371.8923301203
 21
114.4590024005
 31
0.0
  0
LINE
  5
8A
330
1F
100
AcDbEntity
  8
0
  6
Continuous
 62
     7
370
    25
100
AcDbLine
 10
373.1425434307
 20
114.8920151024
 30
0.0
 11
371.9954952704
 21
114.8920151024
 31
0.0
  0
SPLINE
  5
8B
330
1F
100
AcDbEntity
  8
0
  6
Continuous
 62
     7
370
    25
100
AcDbSpline
210
0.0
220
0.0
230
1.0
 70
     8
 71
     3
 72
     8
 73
     4
 74
     0
 42
0.000000001
 43
0.00000001
 40
0.0000004089325119
 40
0.0000004089325119
 40
0.0000004089325119
 40
0.0000004089325119
 40
0.0015399868451459
 40
0.0015399868451459
 40
0.0015399868451459
 40
0.0015399868451459
 10
373.1425434307141
 20
114.892015102429
 30
0.0
 10
373.3543046895085
 20
114.8195602197755
 30
0.0
 10
373.5662250126987
 20
114.7472213497471
 30
0.0
 10
373.778342995913
 20
114.6750278043212
 30
0.0
  0
LINE
  5
8C
330
1F
100
AcDbEntity
  8
0
  6
Continuous
 62
     7
370
    25
100
AcDbLine
 10
373.7783429959
 20
114.6750278043
 30
0.0
 11
373.7864958019
 21
114.6598153901
 31
0.0
  0
LINE
  5
8D
330
1F
100
AcDbEntity
  8
0
  6
Continuous
 62
     7
370
    25
100
AcDbLine
 10
373.7841253146
 20
114.4590025699
 30
0.0
 11
373.7864967997
 21
114.6598155239
 31
0.0
  0
LINE
  5
8E
330
1F
100
AcDbEntity
  8
0
  6
Continuous
 62
     7
370
    25
100
AcDbLine
 10
373.7841253146
 20
114.4590024005
 30
0.0
 11
371.8923301203
 21
114.4590024005
 31
0.0
  0
SPLINE
  5
8F
330
1F
100
AcDbEntity
  8
0
  6
Continuous
 62
     7
370
    25
100
AcDbSpline
210
0.0
220
0.0
230
1.0
 70
     8
 71
     3
 72
     8
 73
     4
 74
     0
 42
0.000000001
 43
0.00000001
 40
0.0000004028655191
 40
0.0000004028655191
 40
0.0000004028655191
 40
0.0000004028655191
 40
0.0015137684369673
 40
0.0015137684369673
 40
0.0015137684369673
 40
0.0015137684369673
 10
373.2362601910009
 20
105.1067269967523
 30
0.0
 10
373.0295887034496
 20
105.0344330550377
 30
0.0
 10
372.8229697349089
 20
104.9621015690809
 30
0.0
 10
372.6163933601003
 20
104.8897396986446
 30
0.0
  0
LINE
  5
90
330
1F
100
AcDbEntity
  8
0
  6
Continuous
 62
     7
370
    25
100
AcDbLine
 10
372.6163933601
 20
104.8897396986
 30
0.0
 11
371.5287419798
 21
104.8897396986
 31
0.0
  0
LINE
  5
91
330
1F
100
AcDbEntity
  8
0
  6
Continuous
 62
     7
370
    25
100
AcDbLine
 10
371.4937698454
 20
105.3227524005
 30
0.0
 11
371.2707147385
 21
105.0590015286
 31
0.0
  0
LINE
  5
92
330
1F
100
AcDbEntity
  8
0
  6
Continuous
 62
     7
370
    25
100
AcDbLine
 10
373.2613796727
 20
105.3227524005
 30
0.0
 11
371.4939843028
 21
105.3227524005
 31
0.0
  0
LINE
  5
93
330
1F
100
AcDbEntity
  8
0
  6
Continuous
 62
     7
370
    25
100
AcDbLine
 10
373.2720370228
 20
105.1651713655
 30
0.0
 11
373.2613796761
 21
105.3227523249
 31
0.0
  0
SPLINE
  5
94
330
1F
100
AcDbEntity
  8
0
  6
Continuous
 62
     7
370
    25
100
AcDbSpline
210
0.0
220
0.0
230
1.0
 70
     8
 71
     3
 72
     8
 73
     4
 74
     0
 42
0.000000001
 43
0.00000001
 40
0.0006523765358417
 40
0.0006523765358417
 40
0.0006523765358417
 40
0.0006523765358417
 40
0.0009043636494504
 40
0.0009043636494504
 40
0.0009043636494504
 40
0.0009043636494504
 10
373.2731370660335
 20
105.1669650941974
 30
0.0
 10
373.2608200715168
 20
105.1468895132165
 30
0.0
 10
373.2485278741135
 20
105.1268101246951
 30
0.0
 10
373.2362601910009
 20
105.1067269967523
 30
0.0
  0
LINE
  5
95
330
1F
100
AcDbEntity
  8
0
  6
Continuous
 62
     7
370
    25
100
AcDbLine
 10
392.0489949578
 20
105.0590015286
 30
0.0
 11
391.8259398509
 21
105.3227524005
 31
0.0
  0
LINE
  5
96
330
1F
100
AcDbEntity
  8
0
  6
Continuous
 62
     7
370
    25
100
AcDbLine
 10
391.7909677165
 20
104.8897396986
 30
0.0
 11
390.7033163362
 21
104.8897396986
 31
0.0
  0
SPLINE
  5
97
330
1F
100
AcDbEntity
  8
0
  6
Continuous
 62
     7
370
    25
100
AcDbSpline
210
0.0
220
0.0
230
1.0
 70
     8
 71
     3
 72
     8
 73
     4
 74
     0
 42
0.000000001
 43
0.00000001
 40
0.0000004024872366
 40
0.0000004024872366
 40
0.0000004024872366
 40
0.0000004024872366
 40
0.0015137680586847
 40
0.0015137680586847
 40
0.0015137680586847
 40
0.0015137680586847
 10
390.7033163361855
 20
104.8897396986446
 30
0.0
 10
390.4967399613769
 20
104.9621015690809
 30
0.0
 10
390.2901209928363
 20
105.0344330550377
 30
0.0
 10
390.083449505285
 20
105.1067269967523
 30
0.0
  0
SPLINE
  5
98
330
1F
100
AcDbEntity
  8
0
  6
Continuous
 62
     7
370
    25
100
AcDbSpline
210
0.0
220
0.0
230
1.0
 70
     8
 71
     3
 72
     8
 73
     4
 74
     0
 42
0.000000001
 43
0.00000001
 40
0.0000002414707367
 40
0.0000002414707367
 40
0.0000002414707367
 40
0.0000002414707367
 40
0.0002447240690309
 40
0.0002447240690309
 40
0.0002447240690309
 40
0.0002447240690309
 10
390.083449505285
 20
105.1067269967523
 30
0.0
 10
390.0715471699299
 20
105.1262120226989
 30
0.0
 10
390.0596217587182
 20
105.1456935285233
 30
0.0
 10
390.0476730134233
 20
105.1651714520352
 30
0.0
  0
LINE
  5
99
330
1F
100
AcDbEntity
  8
0
  6
Continuous
 62
     7
370
    25
100
AcDbLine
 10
390.0583300058
 20
105.3227523249
 30
0.0
 11
390.0476726541
 21
105.165171397
 31
0.0
  0
LINE
  5
9A
330
1F
100
AcDbEntity
  8
0
  6
Continuous
 62
     7
370
    25
100
AcDbLine
 10
391.8259398509
 20
105.3227524005
 30
0.0
 11
390.0532214145
 21
105.3227524005
 31
0.0
  0
SPLINE
  5
9B
330
1F
100
AcDbEntity
  8
0
  6
Continuous
 62
     7
370
    25
100
AcDbSpline
210
0.0
220
0.0
230
1.0
 70
     8
 71
     3
 72
     8
 73
     4
 74
     0
 42
0.000000001
 43
0.00000001
 40
0.000000410413179
 40
0.000000410413179
 40
0.000000410413179
 40
0.000000410413179
 40
0.0015399883258131
 40
0.0015399883258131
 40
0.0015399883258131
 40
0.0015399883258131
 10
389.5413667003729
 20
114.6750278043212
 30
0.0
 10
389.7534846835871
 20
114.7472213497471
 30
0.0
 10
389.9654050067774
 20
114.8195602197755
 30
0.0
 10
390.1771662655718
 20
114.892015102429
 30
0.0
  0
LINE
  5
9C
330
1F
100
AcDbEntity
  8
0
  6
Continuous
 62
     7
370
    25
100
AcDbLine
 10
391.3242144259
 20
114.8920151024
 30
0.0
 11
390.1771662656
 21
114.8920151024
 31
0.0
  0
LINE
  5
9D
330
1F
100
AcDbEntity
  8
0
  6
Continuous
 62
     7
370
    25
100
AcDbLine
 10
391.427379576
 20
114.4590024005
 30
0.0
 11
391.6357878975
 21
114.7073016499
 31
0.0
  0
LINE
  5
9E
330
1F
100
AcDbEntity
  8
0
  6
Continuous
 62
     7
370
    25
100
AcDbLine
 10
391.4271895203
 20
114.4590024005
 30
0.0
 11
389.5355845824
 21
114.4590024005
 31
0.0
  0
LINE
  5
9F
330
1F
100
AcDbEntity
  8
0
  6
Continuous
 62
     7
370
    25
100
AcDbLine
 10
389.5332127954
 20
114.6598153353
 30
0.0
 11
389.5355843057
 21
114.4590025699
 31
0.0
  0
LINE
  5
A0
330
1F
100
AcDbEntity
  8
0
  6
Continuous
 62
     7
370
    25
100
AcDbLine
 10
389.5332137932
 20
114.6598152015
 30
0.0
 11
389.5413667004
 21
114.6750278043
 31
0.0
  0
ARC
  5
A1
330
1F
100
AcDbEntity
  8
0
  6
Continuous
 62
     7
370
    25
100
AcDbCircle
 10
381.6598548481
 20
109.4290024005
 30
0.0
 40
10.11875
100
AcDbArc
 50
206.6538426687
 51
333.3461573313
  0
ARC
  5
A2
330
1F
100
AcDbEntity
  8
0
  6
Continuous
 62
     7
370
    25
100
AcDbCircle
 10
381.6598548481
 20
109.4290024005
 30
0.0
 40
10.11875000000003
100
AcDbArc
 50
32.6761561262
 51
147.3238438738
  0
ARC
  5
A3
330
1F
100
AcDbEntity
  8
0
  6
Continuous
 62
     7
370
    25
100
AcDbCircle
 10
381.6598548481
 20
109.4290024005
 30
0.0
 40
9.467788105676675
100
AcDbArc
 50
33.6481949792
 51
146.3518050208
  0
ARC
  5
A4
330
1F
100
AcDbEntity
  8
0
  6
Continuous
 62
     7
370
    25
100
AcDbCircle
 10
381.6598548481
 20
109.4290024005
 30
0.0
 40
9.467788105676664
100
AcDbArc
 50
207.1630537883
 51
332.8369462117
  0
LINE
  5
A5
330
1F
100
AcDbEntity
  8
0
  6
Continuous
 62
     7
370
    25
100
AcDbLine
 10
391.8259398509
 20
105.3227524005
 30
0.0
 11
391.9860769812
 21
105.3227524005
 31
0.0
  0
SPLINE
  5
A6
330
1F
100
AcDbEntity
  8
0
  6
Continuous
 62
     7
370
    25
100
AcDbSpline
210
0.0
220
0.0
230
1.0
 70
     8
 71
     3
 72
     8
 73
     4
 74
     0
 42
0.000000001
 43
0.00000001
 40
0.0
 40
0.0
 40
0.0
 40
0.0
 40
1.0
 40
1.0
 40
1.0
 40
1.0
 10
392.4141645793202
 20
104.8702339123851
 30
0.0
 10
392.3608190738307
 20
104.8691608644603
 30
0.0
 10
392.3075237882151
 20
104.8683627711979
 30
0.0
 10
392.2542809632734
 20
104.8678390449601
 30
0.0
  0
SPLINE
  5
A7
330
1F
100
AcDbEntity
  8
0
  6
Continuous
 62
     7
370
    25
100
AcDbSpline
210
0.0
220
0.0
230
1.0
 70
     8
 71
     3
 72
     8
 73
     4
 74
     0
 42
0.000000001
 43
0.00000001
 40
0.0
 40
0.0
 40
0.0
 40
0.0
 40
1.0
 40
1.0
 40
1.0
 40
1.0
 10
371.0654287330125
 20
104.8678390449601
 30
0.0
 10
371.0121859080708
 20
104.8683627711979
 30
0.0
 10
370.9588906224551
 20
104.8691608644603
 30
0.0
 10
370.9055451169656
 20
104.8702339123851
 30
0.0
  0
LINE
  5
A8
330
1F
100
AcDbEntity
  8
0
  6
Continuous
 62
     7
370
    25
100
AcDbLine
 10
371.3336327151
 20
105.3227524005
 30
0.0
 11
371.4937698454
 21
105.3227524005
 31
0.0
  0
LINE
  5
A9
330
1F
100
AcDbEntity
  8
0
  6
Continuous
 62
     7
370
    25
100
AcDbLine
 10
371.8923301203
 20
114.4590024005
 30
0.0
 11
371.7689131366
 21
114.4590024005
 31
0.0
  0
SPLINE
  5
AA
330
1F
100
AcDbEntity
  8
0
  6
Continuous
 62
     7
370
    25
100
AcDbSpline
210
0.0
220
0.0
230
1.0
 70
     8
 71
     3
 72
     8
 73
     4
 74
     0
 42
0.000000001
 43
0.00000001
 40
0.0
 40
0.0
 40
0.0
 40
0.0
 40
1.0
 40
1.0
 40
1.0
 40
1.0
 10
371.3721639234632
 20
114.8794479174731
 30
0.0
 10
371.413279350505
 20
114.8803168551131
 30
0.0
 10
371.4543536451161
 20
114.880997892696
 30
0.0
 10
371.4953854176052
 20
114.8814914707575
 30
0.0
  0
SPLINE
  5
AB
330
1F
100
AcDbEntity
  8
0
  6
Continuous
 62
     7
370
    25
100
AcDbSpline
210
0.0
220
0.0
230
1.0
 70
     8
 71
     3
 72
     8
 73
     4
 74
     0
 42
0.000000001
 43
0.00000001
 40
0.0
 40
0.0
 40
0.0
 40
0.0
 40
1.0
 40
1.0
 40
1.0
 40
1.0
 10
391.8243242786807
 20
114.8814914707575
 30
0.0
 10
391.8653560511698
 20
114.880997892696
 30
0.0
 10
391.9064303457808
 20
114.8803168551131
 30
0.0
 10
391.9475457728227
 20
114.8794479174732
 30
0.0
  0
LINE
  5
AC
330
1F
100
AcDbEntity
  8
0
  6
Continuous
 62
     7
370
    25
100
AcDbLine
 10
391.5507965597
 20
114.4590024005
 30
0.0
 11
391.427379576
 21
114.4590024005
 31
0.0
  0
SPLINE
  5
AD
330
1F
100
AcDbEntity
  8
0
  6
Continuous
 62
     7
370
    25
100
AcDbSpline
210
0.0
220
0.0
230
1.0
 70
     8
 71
     3
 72
     9
 73
     5
 74
     0
 42
0.000000001
 43
0.00000001
 40
0.0
 40
0.0
 40
0.0
 40
0.0
 40
0.4897855395478374
 40
1.0
 40
1.0
 40
1.0
 40
1.0
 10
388.7654444127944
 20
114.6521192667745
 30
0.0
 10
388.8917990854212
 20
114.6534375785643
 30
0.0
 10
389.1497786753116
 20
114.6561291888373
 30
0.0
 10
389.4036730393653
 20
114.6585700881385
 30
0.0
 10
389.5332136153329
 20
114.6598154702584
 30
0.0
  0
ARC
  5
AE
330
1F
100
AcDbEntity
  8
0
  6
Continuous
 62
     7
370
    25
100
AcDbCircle
 10
381.6598548481
 20
109.4290024005
 30
0.0
 40
8.818750000000001
100
AcDbArc
 50
36.3185452201
 51
143.6814533294
  0
SPLINE
  5
AF
330
1F
100
AcDbEntity
  8
0
  6
Continuous
 62
     7
370
    25
100
AcDbSpline
210
0.0
220
0.0
230
1.0
 70
     8
 71
     3
 72
     9
 73
     5
 74
     0
 42
0.000000001
 43
0.00000001
 40
0.0
 40
0.0
 40
0.0
 40
0.0
 40
0.5102144635023922
 40
1.0
 40
1.0
 40
1.0
 40
1.0
 10
373.7864959798281
 20
114.6598156588627
 30
0.0
 10
373.9160365956281
 20
114.6585702753404
 30
0.0
 10
374.1699310362339
 20
114.6561293733053
 30
0.0
 10
374.4279107051616
 20
114.6534377599443
 30
0.0
 10
374.5542654157128
 20
114.6521194466503
 30
0.0
  0
SPLINE
  5
B0
330
1F
100
AcDbEntity
  8
0
  6
Continuous
 62
     7
370
    25
100
AcDbSpline
210
0.0
220
0.0
230
1.0
 70
     8
 71
     3
 72
     8
 73
     4
 74
     0
 42
0.000000001
 43
0.00000001
 40
0.0
 40
0.0
 40
0.0
 40
0.0
 40
1.0
 40
1.0
 40
1.0
 40
1.0
 10
374.5542651620382
 20
114.6521189773731
 30
0.0
 10
374.5465041040928
 20
114.641560742174
 30
0.0
 10
374.5387665789969
 20
114.6309852086477
 30
0.0
 10
374.5310526636274
 20
114.6203924818683
 30
0.0
  0
SPLINE
  5
B1
330
1F
100
AcDbEntity
  8
0
  6
Continuous
 62
     7
370
    25
100
AcDbSpline
210
0.0
220
0.0
230
1.0
 70
     8
 71
     3
 72
     8
 73
     4
 74
     0
 42
0.000000001
 43
0.00000001
 40
0.0
 40
0.0
 40
0.0
 40
0.0
 40
1.0
 40
1.0
 40
1.0
 40
1.0
 10
374.3594948308644
 20
114.4590027394051
 30
0.0
 10
374.4167552378988
 20
114.5129109163928
 30
0.0
 10
374.4739416290085
 20
114.5667078414759
 30
0.0
 10
374.5310526636274
 20
114.6203924818683
 30
0.0
  0
LINE
  5
B2
330
1F
100
AcDbEntity
  8
0
  6
Continuous
 62
     7
370
    25
100
AcDbLine
 10
374.3594955306
 20
114.4590024005
 30
0.0
 11
373.7841250379
 21
114.4590024005
 31
0.0
  0
SPLINE
  5
B3
330
1F
100
AcDbEntity
  8
0
  6
Continuous
 62
     7
370
    25
100
AcDbSpline
210
0.0
220
0.0
230
1.0
 70
     8
 71
     3
 72
     8
 73
     4
 74
     0
 42
0.000000001
 43
0.00000001
 40
0.0
 40
0.0
 40
0.0
 40
0.0
 40
1.0
 40
1.0
 40
1.0
 40
1.0
 10
388.7887724644395
 20
114.6202339675694
 30
0.0
 10
388.7810203517389
 20
114.630879644242
 30
0.0
 10
388.7732443930716
 20
114.6415079564362
 30
0.0
 10
388.7654446664682
 20
114.6521187974986
 30
0.0
  0
LINE
  5
B4
330
1F
100
AcDbEntity
  8
0
  6
Continuous
 62
     7
370
    25
100
AcDbLine
 10
389.5355845824
 20
114.4590024005
 30
0.0
 11
388.9601855659
 21
114.4590024005
 31
0.0
  0
SPLINE
  5
B5
330
1F
100
AcDbEntity
  8
0
  6
Continuous
 62
     7
370
    25
100
AcDbSpline
210
0.0
220
0.0
230
1.0
 70
     8
 71
     3
 72
     8
 73
     4
 74
     0
 42
0.000000001
 43
0.00000001
 40
0.0
 40
0.0
 40
0.0
 40
0.0
 40
1.0
 40
1.0
 40
1.0
 40
1.0
 10
388.7887724644395
 20
114.6202339675694
 30
0.0
 10
388.8458355921256
 20
114.5666020171536
 30
0.0
 10
388.9029739718559
 20
114.5128579307887
 30
0.0
 10
388.9601862653298
 20
114.4590027395385
 30
0.0
  0
ARC
  5
B6
330
1F
100
AcDbEntity
  8
0
  6
Continuous
 62
     7
370
    25
100
AcDbCircle
 10
381.6598548481
 20
109.4290024005
 30
0.0
 40
8.818750000000003
100
AcDbArc
 50
209.2047569376
 51
330.7952430624
  0
SPLINE
  5
B7
330
1F
100
AcDbEntity
  8
0
  6
Continuous
 62
     7
370
    25
100
AcDbSpline
210
0.0
220
0.0
230
1.0
 70
    24
 71
     3
 72
     8
 73
     4
 74
     0
 42
0.000000001
 43
0.00000001
 40
0.0
 40
0.0
 40
0.0
 40
0.0
 40
0.0001360402361218
 40
0.0001360402361218
 40
0.0001360402361218
 40
0.0001360402361218
 10
389.4009902506304
 20
105.1694619753288
 30
0.0
 10
389.3865512490735
 20
105.1550229737718
 30
0.0
 10
389.3720807948301
 20
105.1405525195285
 30
0.0
 10
389.3575791943895
 20
105.1260509190878
 30
0.0
  0
SPLINE
  5
B8
330
1F
100
AcDbEntity
  8
0
  6
Continuous
 62
     7
370
    25
100
AcDbSpline
210
0.0
220
0.0
230
1.0
 70
     8
 71
     3
 72
     9
 73
     5
 74
     0
 42
0.000000001
 43
0.00000001
 40
0.0
 40
0.0
 40
0.0
 40
0.0
 40
0.5086468810575882
 40
1.0
 40
1.0
 40
1.0
 40
1.0
 10
390.0476729737435
 20
105.1651713639005
 30
0.0
 10
389.9385065941449
 20
105.1658654824258
 30
0.0
 10
389.723885442096
 20
105.1672301197631
 30
0.0
 10
389.5073739323157
 20
105.1687264089524
 30
0.0
 10
389.4009903266982
 20
105.1694616153123
 30
0.0
  0
SPLINE
  5
B9
330
1F
100
AcDbEntity
  8
0
  6
Continuous
 62
     7
370
    25
100
AcDbSpline
210
0.0
220
0.0
230
1.0
 70
     8
 71
     3
 72
     9
 73
     5
 74
     0
 42
0.000000001
 43
0.00000001
 40
0.0
 40
0.0
 40
0.0
 40
0.0
 40
0.4913531182931429
 40
1.0
 40
1.0
 40
1.0
 40
1.0
 10
373.9187194000521
 20
105.1694615848477
 30
0.0
 10
373.8123357863446
 20
105.1687263783083
 30
0.0
 10
373.5958242598138
 20
105.1672300887519
 30
0.0
 10
373.3812030913142
 20
105.1658654510875
 30
0.0
 10
373.2720367032086
 20
105.1651713323949
 30
0.0
  0
SPLINE
  5
BA
330
1F
100
AcDbEntity
  8
0
  6
Continuous
 62
     7
370
    25
100
AcDbSpline
210
0.0
220
0.0
230
1.0
 70
    24
 71
     3
 72
     8
 73
     4
 74
     0
 42
0.000000001
 43
0.00000001
 40
0.0
 40
0.0
 40
0.0
 40
0.0
 40
0.0001360401404469
 40
0.0001360401404469
 40
0.0001360401404469
 40
0.0001360401404469
 10
373.9621305018964
 20
105.1260509190878
 30
0.0
 10
373.9476289116545
 20
105.1405525093297
 30
0.0
 10
373.9331584675662
 20
105.1550229534181
 30
0.0
 10
373.9187194761199
 20
105.1694619448644
 30
0.0
  0
LINE
  5
BB
330
1F
100
AcDbEntity
  8
0
  6
Continuous
 62
     7
370
    25
100
AcDbLine
 10
373.2613795541
 20
105.3227524005
 30
0.0
 11
373.7654294262
 21
105.3227524005
 31
0.0
  0
SPLINE
  5
BC
330
1F
100
AcDbEntity
  8
0
  6
Continuous
 62
     7
370
    25
100
AcDbSpline
210
0.0
220
0.0
230
1.0
 70
     8
 71
     3
 72
     8
 73
     4
 74
     0
 42
0.000000001
 43
0.00000001
 40
0.0
 40
0.0
 40
0.0
 40
0.0
 40
1.0
 40
1.0
 40
1.0
 40
1.0
 10
373.9187196813519
 20
105.1694617396323
 30
0.0
 10
373.8676509188283
 20
105.2205042313775
 30
0.0
 10
373.8165539592734
 20
105.271601203404
 30
0.0
 10
373.7654291178391
 20
105.3227523031452
 30
0.0
  0
SPLINE
  5
BD
330
1F
100
AcDbEntity
  8
0
  6
Continuous
 62
     7
370
    25
100
AcDbSpline
210
0.0
220
0.0
230
1.0
 70
     8
 71
     3
 72
     8
 73
     4
 74
     0
 42
0.000000001
 43
0.00000001
 40
0.0
 40
0.0
 40
0.0
 40
0.0
 40
1.0
 40
1.0
 40
1.0
 40
1.0
 10
389.5542805784469
 20
105.3227523031453
 30
0.0
 10
389.503155747183
 20
105.27160121359
 30
0.0
 10
389.452058797783
 20
105.2205042517184
 30
0.0
 10
389.4009900453985
 20
105.1694617700969
 30
0.0
  0
LINE
  5
BE
330
1F
100
AcDbEntity
  8
0
  6
Continuous
 62
     7
370
    25
100
AcDbLine
 10
389.5542802701
 20
105.3227524005
 30
0.0
 11
390.0583301278
 21
105.3227524005
 31
0.0
  0
CIRCLE
  5
BF
330
1F
100
AcDbEntity
  8
0
  6
Continuous
 62
     7
370
    25
100
AcDbCircle
 10
381.6598548481
 20
109.4290024005
 30
0.0
 40
12.47086902276413
  0
SPLINE
  5
C0
330
1F
100
AcDbEntity
  8
0
  6
Continuous
 62
     7
370
    25
100
AcDbSpline
210
0.0
220
0.0
230
1.0
 70
     8
 71
     3
 72
    23
 73
    19
 74
     0
 42
0.000000001
 43
0.00000001
 40
0.0
 40
0.0
 40
0.0
 40
0.0
 40
0.0521034701669907
 40
0.1035642834056676
 40
0.1544746865109883
 40
0.2049299526060848
 40
0.255027949139876
 40
0.3048686360127539
 40
0.3545535041153303
 40
0.4041849683381833
 40
0.4538657321677345
 40
0.5036981429676922
 40
0.5902048055368762
 40
0.6743008903280919
 40
0.7566325441978967
 40
0.8378852029845433
 40
0.9187688149194232
 40
1.0
 40
1.0
 40
1.0
 40
1.0
 10
370.8206027014854
 20
113.9194131132867
 30
0.0
 10
370.8338970564354
 20
113.9485810064487
 30
0.0
 10
370.860321790514
 20
114.0065570288538
 30
0.0
 10
370.8995327967344
 20
114.0894563298582
 30
0.0
 10
370.9379747515531
 20
114.1686383109041
 30
0.0
 10
370.9755623329718
 20
114.2438931276013
 30
0.0
 10
371.0122182194564
 20
114.3153127822461
 30
0.0
 10
371.0478680828595
 20
114.3829093895937
 30
0.0
 10
371.0824418320564
 20
114.4467157163865
 30
0.0
 10
371.1158735169339
 20
114.5067592385963
 30
0.0
 10
371.1481004281007
 20
114.5630660095718
 30
0.0
 10
371.1866057895049
 20
114.6284775808713
 30
0.0
 10
371.2292739593708
 20
114.6980496867403
 30
0.0
 10
371.2727748662461
 20
114.7648217560337
 30
0.0
 10
371.3091904185191
 20
114.8165504206376
 30
0.0
 10
371.3380892054678
 20
114.8529952846221
 30
0.0
 10
371.3599999548222
 20
114.8755820679619
 30
0.0
 10
371.3681034759494
 20
114.8781574604274
 30
0.0
 10
371.3721639234632
 20
114.8794479174731
 30
0.0
  0
SPLINE
  5
C1
330
1F
100
AcDbEntity
  8
0
  6
Continuous
 62
     7
370
    25
100
AcDbSpline
210
0.0
220
0.0
230
1.0
 70
     8
 71
     3
 72
     8
 73
     4
 74
     0
 42
0.000000001
 43
0.00000001
 40
0.0
 40
0.0
 40
0.0
 40
0.0
 40
1.0
 40
1.0
 40
1.0
 40
1.0
 10
370.6999647616227
 20
113.9172027558769
 30
0.0
 10
370.7401537752156
 20
113.9179330660944
 30
0.0
 10
370.7803160773057
 20
113.9185135919239
 30
0.0
 10
370.8204507877812
 20
113.9189445568736
 30
0.0
  0
SPLINE
  5
C2
330
1F
100
AcDbEntity
  8
0
  6
Continuous
 62
     7
370
    25
100
AcDbSpline
210
0.0
220
0.0
230
1.0
 70
     8
 71
     3
 72
    18
 73
    14
 74
     0
 42
0.000000001
 43
0.00000001
 40
0.0
 40
0.0
 40
0.0
 40
0.0
 40
0.0923645816205078
 40
0.1844372988294168
 40
0.2764543021108049
 40
0.3686515499648422
 40
0.4612630116255976
 40
0.5545189370655678
 40
0.6486442564287692
 40
0.7438571603357765
 40
0.8403678983473339
 40
0.9203923541258044
 40
1.0
 40
1.0
 40
1.0
 40
1.0
 10
370.7529037504221
 20
114.1840197627587
 30
0.0
 10
370.7547403300158
 20
114.1838144196763
 30
0.0
 10
370.7584076857641
 20
114.1834043823785
 30
0.0
 10
370.7612048623053
 20
114.1766060850438
 30
0.0
 10
370.7620084105555
 20
114.1652768813603
 30
0.0
 10
370.7606428305477
 20
114.1489784676927
 30
0.0
 10
370.7571811848626
 20
114.1278271005732
 30
0.0
 10
370.7516391311029
 20
114.1017891386351
 30
0.0
 10
370.7440532960668
 20
114.0708603941901
 30
0.0
 10
370.7344743014636
 20
114.035054821157
 30
0.0
 10
370.7236323258643
 20
113.9967988614037
 30
0.0
 10
370.7121428889043
 20
113.9575778523269
 30
0.0
 10
370.7040428957167
 20
113.930722856846
 30
0.0
 10
370.70000347393
 20
113.9173304191842
 30
0.0
  0
LINE
  5
C3
330
1F
100
AcDbEntity
  8
0
  6
Continuous
 62
     7
370
    25
100
AcDbLine
 10
370.7001483912
 20
114.1832720453
 30
0.0
 11
370.7529037504
 21
114.1840197628
 31
0.0
  0
SPLINE
  5
C4
330
1F
100
AcDbEntity
  8
0
  6
Continuous
 62
     7
370
    25
100
AcDbSpline
210
0.0
220
0.0
230
1.0
 70
     8
 71
     3
 72
    25
 73
    21
 74
     0
 42
0.000000001
 43
0.00000001
 40
0.0
 40
0.0
 40
0.0
 40
0.0
 40
0.0280056024285008
 40
0.0559514328341808
 40
0.0838901607636096
 40
0.1118745076904204
 40
0.1399569498904391
 40
0.16818942827142
 40
0.1966230730099245
 40
0.2253079499152465
 40
0.2542928341276835
 40
0.3799484016856903
 40
0.5057844887502226
 40
0.6313077644974833
 40
0.7532057173415155
 40
0.8039627394922012
 40
0.8536129947759964
 40
0.9025574087118212
 40
0.9512124407386955
 40
1.0
 40
1.0
 40
1.0
 40
1.0
 10
369.7891869833693
 20
111.6163401430711
 30
0.0
 10
369.7961646952539
 20
111.653643722175
 30
0.0
 10
369.810105226576
 20
111.7281712637994
 30
0.0
 10
369.8326237284963
 20
111.8394660538623
 30
0.0
 10
369.856254802692
 20
111.9501188111584
 30
0.0
 10
369.8811028412891
 20
112.0600983056298
 30
0.0
 10
369.9071210337312
 20
112.1693935827801
 30
0.0
 10
369.9343032354782
 20
112.2779894231341
 30
0.0
 10
369.9626310818023
 20
112.3858697178024
 30
0.0
 10
369.9920935761265
 20
112.4930288777983
 30
0.0
 10
370.0565048466528
 20
112.7172147527543
 30
0.0
 10
370.1616085601916
 20
113.0438866561344
 30
0.0
 10
370.3070711818249
 20
113.42983280997
 30
0.0
 10
370.4463350379761
 20
113.7519138155507
 30
0.0
 10
370.5434875135438
 20
113.9477419332204
 30
0.0
 10
370.6037907850445
 20
114.0571040544289
 30
0.0
 10
370.6386876802011
 20
114.1150473564756
 30
0.0
 10
370.6665828213046
 20
114.1555022602699
 30
0.0
 10
370.687941749021
 20
114.1801056206902
 30
0.0
 10
370.6960758228677
 20
114.1822156138807
 30
0.0
 10
370.7001483911829
 20
114.1832720453288
 30
0.0
  0
ARC
  5
C5
330
1F
100
AcDbEntity
  8
0
  6
Continuous
 62
     7
370
    25
100
AcDbCircle
 10
381.6598548481
 20
109.4290024005
 30
0.0
 40
12.07050959801136
100
AcDbArc
 50
169.5595567507
 51
190.4404432494
  0
SPLINE
  5
C6
330
1F
100
AcDbEntity
  8
0
  6
Continuous
 62
     7
370
    25
100
AcDbSpline
210
0.0
220
0.0
230
1.0
 70
     8
 71
     3
 72
    26
 73
    22
 74
     0
 42
0.000000001
 43
0.00000001
 40
0.0
 40
0.0
 40
0.0
 40
0.0
 40
0.0241214275655765
 40
0.0482078233550631
 40
0.0723095879210365
 40
0.0964771461131097
 40
0.1207606318218786
 40
0.1452095829274057
 40
0.1698726554215267
 40
0.1947973643381856
 40
0.2200298573586289
 40
0.2456147249583995
 40
0.3690974744028633
 40
0.4940700204039666
 40
0.6192566393622437
 40
0.7454654421861411
 40
0.7971580294157585
 40
0.8481837569726721
 40
0.8988139831107741
 40
0.9493262809200852
 40
1.0
 40
1.0
 40
1.0
 40
1.0
 10
370.7001483911829
 20
104.6747327557447
 30
0.0
 10
370.6982395765078
 20
104.6750169487245
 30
0.0
 10
370.694424719347
 20
104.6755849219481
 30
0.0
 10
370.6864678856974
 20
104.6816377418636
 30
0.0
 10
370.6768911610286
 20
104.6915127104049
 30
0.0
 10
370.6655453277857
 20
104.7055912827701
 30
0.0
 10
370.6524895473185
 20
104.7237860279894
 30
0.0
 10
370.6377330782039
 20
104.7461375030871
 30
0.0
 10
370.6213043755778
 20
104.7726544146098
 30
0.0
 10
370.6032337691025
 20
104.8033543256575
 30
0.0
 10
370.583553219418
 20
104.8382616748412
 30
0.0
 10
370.5353512528278
 20
104.9270309866898
 30
0.0
 10
370.447031978352
 20
105.1043135427027
 30
0.0
 10
370.3079722230851
 20
105.4253998491781
 30
0.0
 10
370.1622996060756
 20
105.8119821955657
 30
0.0
 10
370.0485576385387
 20
106.1657007692179
 30
0.0
 10
369.9688479092288
 20
106.4479702313345
 30
0.0
 10
369.9181947124824
 20
106.6424297152486
 30
0.0
 10
369.8712287927776
 20
106.8396714063581
 30
0.0
 10
369.827673299841
 20
107.0395587945557
 30
0.0
 10
369.8020293920358
 20
107.1742244265063
 30
0.0
 10
369.7891869833693
 20
107.2416646580025
 30
0.0
  0
LINE
  5
C7
330
1F
100
AcDbEntity
  8
0
  6
Continuous
 62
     7
370
    25
100
AcDbLine
 10
370.7529037504
 20
104.6739850383
 30
0.0
 11
370.7001483912
 21
104.6747327557
 31
0.0
  0
SPLINE
  5
C8
330
1F
100
AcDbEntity
  8
0
  6
Continuous
 62
     7
370
    25
100
AcDbSpline
210
0.0
220
0.0
230
1.0
 70
     8
 71
     3
 72
    14
 73
    10
 74
     0
 42
0.000000001
 43
0.00000001
 40
0.0
 40
0.0
 40
0.0
 40
0.0
 40
0.0789259589571462
 40
0.1582323961903981
 40
0.330877644075059
 40
0.5000645817723305
 40
0.6670803235527104
 40
0.8332687177870076
 40
1.0
 40
1.0
 40
1.0
 40
1.0
 10
370.69990689359
 20
104.9410085155545
 30
0.0
 10
370.7039214454242
 20
104.927705379188
 30
0.0
 10
370.7119699020377
 20
104.9010349760414
 30
0.0
 10
370.72687189931
 20
104.8502157069857
 30
0.0
 10
370.7427711876476
 20
104.7931684495325
 30
0.0
 10
370.755852234975
 20
104.7388574325024
 30
0.0
 10
370.762085164897
 20
104.7006897105606
 30
0.0
 10
370.7618940462825
 20
104.6772865765123
 30
0.0
 10
370.7559037717976
 20
104.6750867467923
 30
0.0
 10
370.7529037504221
 20
104.6739850383148
 30
0.0
  0
SPLINE
  5
C9
330
1F
100
AcDbEntity
  8
0
  6
Continuous
 62
     7
370
    25
100
AcDbSpline
210
0.0
220
0.0
230
1.0
 70
     8
 71
     3
 72
     8
 73
     4
 74
     0
 42
0.000000001
 43
0.00000001
 40
0.0
 40
0.0
 40
0.0
 40
0.0
 40
1.0
 40
1.0
 40
1.0
 40
1.0
 10
370.8472115847947
 20
104.9389474371691
 30
0.0
 10
370.798143669766
 20
104.939434490381
 30
0.0
 10
370.7490342322452
 20
104.9401455582559
 30
0.0
 10
370.6998848877199
 20
104.9410810514902
 30
0.0
  0
SPLINE
  5
CA
330
1F
100
AcDbEntity
  8
0
  6
Continuous
 62
     7
370
    25
100
AcDbSpline
210
0.0
220
0.0
230
1.0
 70
     8
 71
     3
 72
    13
 73
     9
 74
     0
 42
0.000000001
 43
0.00000001
 40
0.0
 40
0.0
 40
0.0
 40
0.0
 40
0.1666651380536976
 40
0.3328869540146011
 40
0.4989979369855639
 40
0.6653319948464096
 40
0.832222439950292
 40
1.0
 40
1.0
 40
1.0
 40
1.0
 10
370.9055451169656
 20
104.8702339123851
 30
0.0
 10
370.9037031543128
 20
104.8706487063508
 30
0.0
 10
370.9000241285486
 20
104.8714771909482
 30
0.0
 10
370.892509030301
 20
104.8774881130139
 30
0.0
 10
370.8835589298367
 20
104.8869816594387
 30
0.0
 10
370.8730077747023
 20
104.9003927477331
 30
0.0
 10
370.8610321856332
 20
104.9173147547197
 30
0.0
 10
370.8518236051769
 20
104.9317313037615
 30
0.0
 10
370.8472071102127
 20
104.9389586854811
 30
0.0
  0
SPLINE
  5
CB
330
1F
100
AcDbEntity
  8
0
  6
Continuous
 62
     7
370
    25
100
AcDbSpline
210
0.0
220
0.0
230
1.0
 70
     8
 71
     3
 72
    13
 73
     9
 74
     0
 42
0.000000001
 43
0.00000001
 40
0.0
 40
0.0
 40
0.0
 40
0.0
 40
0.1686717431976176
 40
0.3360976438050112
 40
0.5026076259545951
 40
0.6685363120001365
 40
0.8342210747535599
 40
1.0
 40
1.0
 40
1.0
 40
1.0
 10
392.4725039671912
 20
104.9389621352939
 30
0.0
 10
392.467865391069
 20
104.9317026839332
 30
0.0
 10
392.4586225002581
 20
104.9172374009439
 30
0.0
 10
392.4466046737033
 20
104.9002525215126
 30
0.0
 10
392.436038234327
 20
104.8868182278942
 30
0.0
 10
392.4270996022317
 20
104.8773399654158
 30
0.0
 10
392.4196209180944
 20
104.8713783560758
 30
0.0
 10
392.4159837033326
 20
104.8706154658562
 30
0.0
 10
392.4141645793202
 20
104.8702339123851
 30
0.0
  0
SPLINE
  5
CC
330
1F
100
AcDbEntity
  8
0
  6
Continuous
 62
     7
370
    25
100
AcDbSpline
210
0.0
220
0.0
230
1.0
 70
     8
 71
     3
 72
     8
 73
     4
 74
     0
 42
0.000000001
 43
0.00000001
 40
0.0
 40
0.0
 40
0.0
 40
0.0
 40
1.0
 40
1.0
 40
1.0
 40
1.0
 10
392.6198295791637
 20
104.9410811562367
 30
0.0
 10
392.5706786495554
 20
104.9401456259747
 30
0.0
 10
392.5215676294761
 20
104.9394345354626
 30
0.0
 10
392.4724981345684
 20
104.9389474739646
 30
0.0
  0
SPLINE
  5
CD
330
1F
100
AcDbEntity
  8
0
  6
Continuous
 62
     7
370
    25
100
AcDbSpline
210
0.0
220
0.0
230
1.0
 70
     8
 71
     3
 72
    18
 73
    14
 74
     0
 42
0.000000001
 43
0.00000001
 40
0.0
 40
0.0
 40
0.0
 40
0.0
 40
0.0923146492083614
 40
0.1843375917871727
 40
0.2763048505572403
 40
0.3684522564592561
 40
0.4610136522432117
 40
0.5542191634081761
 40
0.648293598500629
 40
0.743455030187018
 40
0.8399135943669072
 40
0.9201663187095083
 40
1.0
 40
1.0
 40
1.0
 40
1.0
 10
392.5668059458637
 20
104.6739850383148
 30
0.0
 10
392.5649693662703
 20
104.6741903813979
 30
0.0
 10
392.5613020105224
 20
104.6746004186971
 30
0.0
 10
392.5585048339782
 20
104.6813987160232
 30
0.0
 10
392.5577012857397
 20
104.6927279197403
 30
0.0
 10
392.5590668657038
 20
104.7090263332822
 30
0.0
 10
392.5625285115532
 20
104.7301777008745
 30
0.0
 10
392.5680705646926
 20
104.7562156610294
 30
0.0
 10
392.5756564020774
 20
104.7871444122244
 30
0.0
 10
392.5852353877596
 20
104.8229499596192
 30
0.0
 10
392.5960882343963
 20
104.861244256991
 30
0.0
 10
392.6076037919262
 20
104.9005526768474
 30
0.0
 10
392.6157355091
 20
104.9275097734691
 30
0.0
 10
392.6197907248733
 20
104.940953040258
 30
0.0
  0
LINE
  5
CE
330
1F
100
AcDbEntity
  8
0
  6
Continuous
 62
     7
370
    25
100
AcDbLine
 10
392.6195613051
 20
104.6747327557
 30
0.0
 11
392.5668059459
 21
104.6739850383
 31
0.0
  0
SPLINE
  5
CF
330
1F
100
AcDbEntity
  8
0
  6
Continuous
 62
     7
370
    25
100
AcDbSpline
210
0.0
220
0.0
230
1.0
 70
     8
 71
     3
 72
    25
 73
    21
 74
     0
 42
0.000000001
 43
0.00000001
 40
0.0
 40
0.0
 40
0.0
 40
0.0
 40
0.0280056024284644
 40
0.0559514328341146
 40
0.0838901607635225
 40
0.1118745076903239
 40
0.1399569498903393
 40
0.168189428271326
 40
0.1966230730098432
 40
0.2253079499151899
 40
0.2542928341276564
 40
0.3799484016843204
 40
0.505784488750134
 40
0.6313077644946906
 40
0.7532057173413932
 40
0.8039627394917982
 40
0.8536129947754353
 40
0.9025574087112554
 40
0.951212440738308
 40
1.0
 40
1.0
 40
1.0
 40
1.0
 10
393.5305227129166
 20
107.2416646580025
 30
0.0
 10
393.523545001032
 20
107.2043610788986
 30
0.0
 10
393.5096044697098
 20
107.1298335372744
 30
0.0
 10
393.4870859677897
 20
107.0185387472116
 30
0.0
 10
393.463454893594
 20
106.9078859899155
 30
0.0
 10
393.4386068549969
 20
106.7979064954442
 30
0.0
 10
393.4125886625547
 20
106.6886112182938
 30
0.0
 10
393.3854064608078
 20
106.5800153779398
 30
0.0
 10
393.3570786144836
 20
106.4721350832714
 30
0.0
 10
393.3276161201593
 20
106.3649759232755
 30
0.0
 10
393.2632048496334
 20
106.1407900483209
 30
0.0
 10
393.158101136095
 20
105.8141181449414
 30
0.0
 10
393.0126385144624
 20
105.4281719911073
 30
0.0
 10
392.8733746583108
 20
105.106090985525
 30
0.0
 10
392.7762221827433
 20
104.9102628678556
 30
0.0
 10
392.715918911241
 20
104.8009007466435
 30
0.0
 10
392.6810220160842
 20
104.7429574445965
 30
0.0
 10
392.6531268749807
 20
104.7025025408022
 30
0.0
 10
392.6317679472644
 20
104.6778991803823
 30
0.0
 10
392.623633873418
 20
104.6757891871925
 30
0.0
 10
392.6195613051029
 20
104.6747327557447
 30
0.0
  0
ARC
  5
D0
330
1F
100
AcDbEntity
  8
0
  6
Continuous
 62
     7
370
    25
100
AcDbCircle
 10
381.6598548481
 20
109.4290024005
 30
0.0
 40
12.07050959801141
100
AcDbArc
 50
349.5595567507
 51
10.4404432493
  0
SPLINE
  5
D1
330
1F
100
AcDbEntity
  8
0
  6
Continuous
 62
     7
370
    25
100
AcDbSpline
210
0.0
220
0.0
230
1.0
 70
     8
 71
     3
 72
    26
 73
    22
 74
     0
 42
0.000000001
 43
0.00000001
 40
0.0
 40
0.0
 40
0.0
 40
0.0
 40
0.0241214275654721
 40
0.0482078233548781
 40
0.0723095879207937
 40
0.0964771461128324
 40
0.1207606318215892
 40
0.1452095829271266
 40
0.1698726554212825
 40
0.1947973643379968
 40
0.2200298573585139
 40
0.24561472495838
 40
0.3690974744025406
 40
0.4940700204039573
 40
0.6192566393613755
 40
0.7454654421861023
 40
0.7971580294152084
 40
0.8481837569718568
 40
0.8988139831099585
 40
0.9493262809195422
 40
1.0
 40
1.0
 40
1.0
 40
1.0
 10
392.6195613051029
 20
114.1832720453288
 30
0.0
 10
392.6214701197781
 20
114.182987852349
 30
0.0
 10
392.6252849769388
 20
114.1824198791255
 30
0.0
 10
392.6332418105885
 20
114.1763670592099
 30
0.0
 10
392.6428185352572
 20
114.1664920906687
 30
0.0
 10
392.6541643685001
 20
114.1524135183034
 30
0.0
 10
392.6672201489674
 20
114.1342187730842
 30
0.0
 10
392.6819766180819
 20
114.1118672979865
 30
0.0
 10
392.698405320708
 20
114.0853503864638
 30
0.0
 10
392.7164759271834
 20
114.054650475416
 30
0.0
 10
392.7361564768678
 20
114.0197431262323
 30
0.0
 10
392.7843584434579
 20
113.9309738143842
 30
0.0
 10
392.8726777179336
 20
113.7536912583713
 30
0.0
 10
393.0117374732003
 20
113.4326049518966
 30
0.0
 10
393.15741009021
 20
113.0460226055084
 30
0.0
 10
393.2711520577466
 20
112.6923040318572
 30
0.0
 10
393.3508617870566
 20
112.410034569741
 30
0.0
 10
393.4015149838028
 20
112.2155750858278
 30
0.0
 10
393.4484809035076
 20
112.0183333947184
 30
0.0
 10
393.4920363964445
 20
111.8184460065197
 30
0.0
 10
393.51768030425
 20
111.683780374568
 30
0.0
 10
393.5305227129166
 20
111.6163401430711
 30
0.0
  0
LINE
  5
D2
330
1F
100
AcDbEntity
  8
0
  6
Continuous
 62
     7
370
    25
100
AcDbLine
 10
392.5668059459
 20
114.1840197628
 30
0.0
 11
392.6195613051
 21
114.1832720453
 31
0.0
  0
SPLINE
  5
D3
330
1F
100
AcDbEntity
  8
0
  6
Continuous
 62
     7
370
    25
100
AcDbSpline
210
0.0
220
0.0
230
1.0
 70
     8
 71
     3
 72
    14
 73
    10
 74
     0
 42
0.000000001
 43
0.00000001
 40
0.0
 40
0.0
 40
0.0
 40
0.0
 40
0.0786886761523906
 40
0.1577557070319908
 40
0.330498723137204
 40
0.4997814706279722
 40
0.6668917926617925
 40
0.833174298624784
 40
0.9999999999999999
 40
0.9999999999999999
 40
0.9999999999999999
 40
0.9999999999999999
 10
392.6197142326245
 20
113.9172882535939
 30
0.0
 10
392.6157162184624
 20
113.9305381697708
 30
0.0
 10
392.6077009666917
 20
113.9571017110172
 30
0.0
 10
392.5928270027231
 20
114.0078277689504
 30
0.0
 10
392.5769385312536
 20
114.0648362892211
 30
0.0
 10
392.563857455389
 20
114.1191473848896
 30
0.0
 10
392.5576245329494
 20
114.1573150862127
 30
0.0
 10
392.5578156496116
 20
114.1807182256408
 30
0.0
 10
392.5638059243575
 20
114.1829180546415
 30
0.0
 10
392.5668059458637
 20
114.1840197627587
 30
0.0
  0
SPLINE
  5
D4
330
1F
100
AcDbEntity
  8
0
  6
Continuous
 62
     7
370
    25
100
AcDbSpline
210
0.0
220
0.0
230
1.0
 70
     8
 71
     3
 72
     8
 73
     4
 74
     0
 42
0.000000001
 43
0.00000001
 40
0.0
 40
0.0
 40
0.0
 40
0.0
 40
1.0
 40
1.0
 40
1.0
 40
1.0
 10
392.4992588919578
 20
113.9189445935065
 30
0.0
 10
392.5393920104644
 20
113.9185136395592
 30
0.0
 10
392.579552718393
 20
113.9179331365468
 30
0.0
 10
392.619740135736
 20
113.9172028609872
 30
0.0
  0
SPLINE
  5
D5
330
1F
100
AcDbEntity
  8
0
  6
Continuous
 62
     7
370
    25
100
AcDbSpline
210
0.0
220
0.0
230
1.0
 70
     8
 71
     3
 72
    23
 73
    19
 74
     0
 42
0.000000001
 43
0.00000001
 40
0.0
 40
0.0
 40
0.0
 40
0.0
 40
0.0441204301561719
 40
0.0880778634030389
 40
0.1319898680064339
 40
0.1759746562181633
 40
0.2201501304179636
 40
0.264632945241185
 40
0.3095376220685568
 40
0.3549757475145112
 40
0.4010552803449985
 40
0.4478799826475656
 40
0.4955489822102321
 40
0.595368431235531
 40
0.6949131540650083
 40
0.7950014615104555
 40
0.8964389774310515
 40
1.0
 40
1.0
 40
1.0
 40
1.0
 10
391.9475457728227
 20
114.8794479174732
 30
0.0
 10
391.9495275969249
 20
114.8791691183111
 30
0.0
 10
391.9534839235507
 20
114.8786125499725
 30
0.0
 10
391.9623384093316
 20
114.8722023687554
 30
0.0
 10
391.9733064833195
 20
114.8616881417436
 30
0.0
 10
391.9865830287373
 20
114.8466612269616
 30
0.0
 10
392.00209240297
 20
114.8272112766054
 30
0.0
 10
392.0198240173638
 20
114.8032912390306
 30
0.0
 10
392.0397422951366
 20
114.7748877341647
 30
0.0
 10
392.0618109184588
 20
114.7419752028433
 30
0.0
 10
392.0859863457426
 20
114.7045280633253
 30
0.0
 10
392.1122192888932
 20
114.6625183353048
 30
0.0
 10
392.1505602464993
 20
114.5992340098893
 30
0.0
 10
392.2028953180026
 20
114.5091713021748
 30
0.0
 10
392.2712959973208
 20
114.3848250332826
 30
0.0
 10
392.343981053762
 20
114.2451119955424
 30
0.0
 10
392.420341294585
 20
114.0907759695205
 30
0.0
 10
392.4726301085653
 20
113.977053316761
 30
0.0
 10
392.4990453361305
 20
113.9196029842084
 30
0.0
  0
SPLINE
  5
D6
330
1F
100
AcDbEntity
  8
0
  6
Continuous
 62
     7
370
    25
100
AcDbSpline
210
0.0
220
0.0
230
1.0
 70
    11
 71
     3
 72
    39
 73
    35
 74
     0
 42
0.000000001
 43
0.00000001
 40
0.0
 40
0.0
 40
0.0
 40
0.0
 40
0.0310664058348413
 40
0.0621048158426138
 40
0.0931361551796939
 40
0.1235538293503726
 40
0.1538561545809849
 40
0.1850588072749156
 40
0.2160250992946587
 40
0.2471867223797568
 40
0.2784462884304475
 40
0.3100516090231247
 40
0.3419834369138969
 40
0.3734259894013238
 40
0.4048604886787081
 40
0.436874065183343
 40
0.4685120685926471
 40
0.499805535863323
 40
0.5309508213226204
 40
0.5618649784438111
 40
0.5930416446590877
 40
0.623374245013332
 40
0.6540913579072549
 40
0.6849496782718453
 40
0.7158160645166705
 40
0.7471731804043553
 40
0.7784514311866318
 40
0.810129591156098
 40
0.8419598919688388
 40
0.8735175891922303
 40
0.9050808037886594
 40
0.9370235169792582
 40
0.9687441590030581
 40
1.0
 40
1.0
 40
1.0
 40
1.0
 10
384.5639814129403
 20
97.99737221678338
 30
0.0
 10
384.753693241895
 20
98.03614079353086
 30
0.0
 10
385.0974340923437
 20
98.11257173931388
 30
0.0
 10
385.4803910795514
 20
98.20071127930711
 30
0.0
 10
385.7248315462664
 20
98.24766076595208
 30
0.0
 10
385.8058204830827
 20
98.23575184123833
 30
0.0
 10
385.725098037601
 20
98.16379393452286
 30
0.0
 10
385.4852358439813
 20
98.0392736683255
 30
0.0
 10
385.1085861098841
 20
97.88190467850032
 30
0.0
 10
384.6023431730562
 20
97.70988059380531
 30
0.0
 10
383.9850687793729
 20
97.54495618621966
 30
0.0
 10
383.272592965233
 20
97.40724361014117
 30
0.0
 10
382.4971277254605
 20
97.31561079763249
 30
0.0
 10
381.6866632918462
 20
97.282278219537
 30
0.0
 10
380.8741588188837
 20
97.31152566509029
 30
0.0
 10
380.0946458287466
 20
97.39985462207787
 30
0.0
 10
379.3763175294112
 20
97.5353601217127
 30
0.0
 10
378.7529454220111
 20
97.69913664320397
 30
0.0
 10
378.2398468274155
 20
97.87114278734929
 30
0.0
 10
377.8546447175541
 20
98.02995480182047
 30
0.0
 10
377.6052201123131
 20
98.15721376698593
 30
0.0
 10
377.5146180723667
 20
98.2328207239409
 30
0.0
 10
377.5828296433259
 20
98.24959012062081
 30
0.0
 10
377.8150455097286
 20
98.20680977840554
 30
0.0
 10
378.1922625469128
 20
98.11968309349567
 30
0.0
 10
378.7039674146805
 20
98.00495403818869
 30
0.0
 10
379.3274385454274
 20
97.88553189313615
 30
0.0
 10
380.0439832485602
 20
97.78090644308685
 30
0.0
 10
380.8223143611711
 20
97.71025795015997
 30
0.0
 10
381.6341458480211
 20
97.68417912572995
 30
0.0
 10
382.4479203700181
 20
97.70720469742068
 30
0.0
 10
383.2302942141836
 20
97.77543713555835
 30
0.0
 10
383.9523072489175
 20
97.87868431526809
 30
0.0
 10
384.3731127687666
 20
97.9583672389646
 30
0.0
 10
384.5639814129403
 20
97.99737221678336
 30
0.0
  0
SPLINE
  5
D7
330
1F
100
AcDbEntity
  8
0
  6
Continuous
 62
     7
370
    25
100
AcDbSpline
210
0.0
220
0.0
230
1.0
 70
    11
 71
     3
 72
    39
 73
    35
 74
     0
 42
0.000000001
 43
0.00000001
 40
0.0
 40
0.0
 40
0.0
 40
0.0
 40
0.0312651429934057
 40
0.0629601069329321
 40
0.0948697276489808
 40
0.1264264963751833
 40
0.1579651393672472
 40
0.1898765439016956
 40
0.221552335268876
 40
0.2527844076550827
 40
0.2838418966734154
 40
0.3148645781100674
 40
0.3459127639308091
 40
0.3763475365526575
 40
0.4066751324671412
 40
0.4379141187435632
 40
0.4688932367345488
 40
0.5000738678969536
 40
0.5313369410958942
 40
0.5629183719104849
 40
0.5948445736343699
 40
0.6262809966135365
 40
0.6577486436587271
 40
0.6897584692806508
 40
0.7214430019610059
 40
0.7527623343195418
 40
0.7839279690572818
 40
0.8148885765585865
 40
0.8460375004982862
 40
0.8763409566916784
 40
0.906758919146387
 40
0.9378312724751761
 40
0.9689189660506093
 40
1.0
 40
1.0
 40
1.0
 40
1.0
 10
384.5638771631535
 20
120.8606646367259
 30
0.0
 10
384.3728032268718
 20
120.8997285946066
 30
0.0
 10
383.9518686644322
 20
120.9794475891668
 30
0.0
 10
383.2304792592686
 20
121.0825630045171
 30
0.0
 10
382.4488232109781
 20
121.1507638769411
 30
0.0
 10
381.6357354912673
 20
121.173820769583
 30
0.0
 10
380.8234552744153
 20
121.1478364959368
 30
0.0
 10
380.0448248493658
 20
121.0772463306986
 30
0.0
 10
379.3281490594543
 20
120.9726307684594
 30
0.0
 10
378.7062737897928
 20
120.853458443443
 30
0.0
 10
378.1967628563069
 20
120.7395212757167
 30
0.0
 10
377.8216435100626
 20
120.6534069967703
 30
0.0
 10
377.5856829352117
 20
120.6093512754344
 30
0.0
 10
377.5142823920302
 20
120.6248810761456
 30
0.0
 10
377.604878821828
 20
120.7003899583295
 30
0.0
 10
377.8538551021874
 20
120.8275634861737
 30
0.0
 10
378.2387699220302
 20
120.986414164786
 30
0.0
 10
378.7515552288523
 20
121.158438425996
 30
0.0
 10
379.3740143517772
 20
121.3221115055307
 30
0.0
 10
380.0905144965838
 20
121.4575130789109
 30
0.0
 10
380.8686135306938
 20
121.5460307463937
 30
0.0
 10
381.6803362193408
 20
121.5757381548765
 30
0.0
 10
382.4917784070421
 20
121.5428517102264
 30
0.0
 10
383.2689042985241
 20
121.4513708021817
 30
0.0
 10
383.9833423876947
 20
121.3134866122202
 30
0.0
 10
384.6015653459301
 20
121.1483587873703
 30
0.0
 10
385.107932706656
 20
120.9763082500177
 30
0.0
 10
385.4844852280697
 20
120.8190247283075
 30
0.0
 10
385.724181039501
 20
120.6946209308235
 30
0.0
 10
385.8056477476953
 20
120.6224327573872
 30
0.0
 10
385.7255885052036
 20
120.6101602490092
 30
0.0
 10
385.4812424992497
 20
120.6570556595153
 30
0.0
 10
385.0982690658008
 20
120.7451892076608
 30
0.0
 10
384.753825934591
 20
120.8218307122707
 30
0.0
 10
384.5638771631534
 20
120.8606646367259
 30
0.0
  0
SPLINE
  5
D8
330
1F
100
AcDbEntity
  8
0
  6
Continuous
 62
     7
370
    25
100
AcDbSpline
210
0.0
220
0.0
230
1.0
 70
     8
 71
     3
 72
    23
 73
    19
 74
     0
 42
0.000000001
 43
0.00000001
 40
0.0
 40
0.0
 40
0.0
 40
0.0
 40
0.044979019359466
 40
0.090941237951009
 40
0.137925178636282
 40
0.1859669058272294
 40
0.2351001540380205
 40
0.2853564591175822
 40
0.3367652895359405
 40
0.3893541756690371
 40
0.4431488355251625
 40
0.4981732957797856
 40
0.5575109075833745
 40
0.626549353477444
 40
0.7053074128189553
 40
0.793797094601673
 40
0.8920262478454438
 40
1.0
 40
1.0
 40
1.0
 40
1.0
 10
371.7689131365856
 20
114.4590024005368
 30
0.0
 10
371.766751818976
 20
114.4585736112881
 30
0.0
 10
371.7623819393781
 20
114.4577066598594
 30
0.0
 10
371.752103963546
 20
114.4506146671259
 30
0.0
 10
371.7390458667105
 20
114.4390039822154
 30
0.0
 10
371.7229279805135
 20
114.422216841928
 30
0.0
 10
371.7038279548221
 20
114.4001468341603
 30
0.0
 10
371.6817251212445
 20
114.3725506769395
 30
0.0
 10
371.6566232803337
 20
114.3392424803325
 30
0.0
 10
371.6285299111121
 20
114.3000408745038
 30
0.0
 10
371.5974108684447
 20
114.2547956509984
 30
0.0
 10
371.56276957278
 20
114.2023965858866
 30
0.0
 10
371.5220467516693
 20
114.1396119759838
 30
0.0
 10
371.473325807926
 20
114.0618549800714
 30
0.0
 10
371.4155514770165
 20
113.9645704213838
 30
0.0
 10
371.3486408250129
 20
113.8448255880162
 30
0.0
 10
371.2726968614556
 20
113.7009053830213
 30
0.0
 10
371.2183356966705
 20
113.5901711781645
 30
0.0
 10
371.1898706325047
 20
113.5321875742617
 30
0.0
  0
LINE
  5
D9
330
1F
100
AcDbEntity
  8
0
  6
Continuous
 62
     7
370
    25
100
AcDbLine
 10
371.1898706325
 20
113.5327139062
 30
0.0
 11
370.8205308945
 21
113.9187984331
 31
0.0
  0
LINE
  5
DA
330
1F
100
AcDbEntity
  8
0
  6
Continuous
 62
     7
370
    25
100
AcDbLine
 10
392.4991462301
 20
113.9187390283
 30
0.0
 11
392.1298795484
 21
113.5327309233
 31
0.0
  0
SPLINE
  5
DB
330
1F
100
AcDbEntity
  8
0
  6
Continuous
 62
     7
370
    25
100
AcDbSpline
210
0.0
220
0.0
230
1.0
 70
     8
 71
     3
 72
    26
 73
    22
 74
     0
 42
0.000000001
 43
0.00000001
 40
0.0
 40
0.0
 40
0.0
 40
0.0
 40
0.0509383700767628
 40
0.0998291219221079
 40
0.1466727642999701
 40
0.1914698825156507
 40
0.2342211527556856
 40
0.2749273600181591
 40
0.3135894207662046
 40
0.3502084118761653
 40
0.3847856080956868
 40
0.4173225311895172
 40
0.4478210154209817
 40
0.4762832963152808
 40
0.5027121333383611
 40
0.5939161417344853
 40
0.6816167871683632
 40
0.7659330352466142
 40
0.8469987710196905
 40
0.9249646451472113
 40
1.0
 40
1.0
 40
1.0
 40
1.0
 10
392.1298795484495
 20
113.5319968440119
 30
0.0
 10
392.116421684247
 20
113.5596176251874
 30
0.0
 10
392.0900469344413
 20
113.613748888661
 30
0.0
 10
392.0516747546511
 20
113.6900569257614
 30
0.0
 10
392.0152085721501
 20
113.7608091053714
 30
0.0
 10
391.9806723225192
 20
113.8259809320712
 30
0.0
 10
391.948059870663
 20
113.885839177329
 30
0.0
 10
391.9173725868638
 20
113.9406043368704
 30
0.0
 10
391.8886099705765
 20
113.9905287281803
 30
0.0
 10
391.861771806059
 20
114.0358709587605
 30
0.0
 10
391.8368582257973
 20
114.0768968977134
 30
0.0
 10
391.8138675784633
 20
114.1138742825654
 30
0.0
 10
391.7928040748523
 20
114.1470703988049
 30
0.0
 10
391.7736516981929
 20
114.1767461301343
 30
0.0
 10
391.7419785706385
 20
114.2254196715907
 30
0.0
 10
391.700505238382
 20
114.2873190260871
 30
0.0
 10
391.6535118678261
 20
114.3526617926975
 30
0.0
 10
391.6148918750384
 20
114.4017785575638
 30
0.0
 10
391.5848445121916
 20
114.4352514008187
 30
0.0
 10
391.5625576681023
 20
114.4553653068071
 30
0.0
 10
391.5546665481362
 20
114.4578056161698
 30
0.0
 10
391.5507965597001
 20
114.4590024005368
 30
0.0
  0
SPLINE
  5
DC
330
1F
100
AcDbEntity
  8
0
  6
Continuous
 62
     7
370
    25
100
AcDbSpline
210
0.0
220
0.0
230
1.0
 70
     8
 71
     3
 72
     8
 73
     4
 74
     0
 42
0.000000001
 43
0.00000001
 40
0.0
 40
0.0
 40
0.0
 40
0.0
 40
1.0
 40
1.0
 40
1.0
 40
1.0
 10
389.4015352999433
 20
113.6520007270195
 30
0.0
 10
389.4651282802834
 20
113.5863319491727
 30
0.0
 10
389.5290847067187
 20
113.5219896515125
 30
0.0
 10
389.5932836264261
 20
113.4602524005368
 30
0.0
  0
SPLINE
  5
DD
330
1F
100
AcDbEntity
  8
0
  6
Continuous
 62
     7
370
    25
100
AcDbSpline
210
0.0
220
0.0
230
1.0
 70
     8
 71
     3
 72
    25
 73
    21
 74
     0
 42
0.000000001
 43
0.00000001
 40
0.0
 40
0.0
 40
0.0
 40
0.0
 40
0.0367725003254103
 40
0.074208401060063
 40
0.1123590542807964
 40
0.1512729822568881
 40
0.190995910016845
 40
0.2315708273504481
 40
0.2730380740418892
 40
0.3154354426077851
 40
0.3587982934432034
 40
0.4031596779810961
 40
0.4485504661847858
 40
0.494999475376923
 40
0.5532504315673752
 40
0.621829488573267
 40
0.7007739996560722
 40
0.7901076726660372
 40
0.8898461547533933
 40
1.0
 40
1.0
 40
1.0
 40
1.0
 10
388.9596141126318
 20
114.4590024005364
 30
0.0
 10
388.9598378866966
 20
114.4586777129027
 30
0.0
 10
388.9602894718595
 20
114.4580224800539
 30
0.0
 10
388.9650065117318
 20
114.4526601082661
 30
0.0
 10
388.9726591208145
 20
114.4439045145657
 30
0.0
 10
388.9835520999515
 20
114.4312802964738
 30
0.0
 10
388.9976006863673
 20
114.4147239583434
 30
0.0
 10
389.0148275839765
 20
114.3940667809656
 30
0.0
 10
389.035226136758
 20
114.3691790449978
 30
0.0
 10
389.0587969500501
 20
114.3399314988044
 30
0.0
 10
389.0855422986098
 20
114.3062085636079
 30
0.0
 10
389.1154501520421
 20
114.2679027484825
 30
0.0
 10
389.1485662443866
 20
114.2249318531445
 30
0.0
 10
389.1874921659606
 20
114.1735105714738
 30
0.0
 10
389.2363202456773
 20
114.1092943397847
 30
0.0
 10
389.2982408502783
 20
114.0263998106901
 30
0.0
 10
389.3726254085993
 20
113.9224540604756
 30
0.0
 10
389.4595998365879
 20
113.7943678502184
 30
0.0
 10
389.5590246865705
 20
113.6402780703121
 30
0.0
 10
389.6304438623
 20
113.5222138344416
 30
0.0
 10
389.6679254459808
 20
113.4602524005368
 30
0.0
  0
LINE
  5
DE
330
1F
100
AcDbEntity
  8
0
  6
Continuous
 62
     7
370
    25
100
AcDbLine
 10
389.667925446
 20
113.4602524005
 30
0.0
 11
389.5932836264
 21
113.4602524005
 31
0.0
  0
SPLINE
  5
DF
330
1F
100
AcDbEntity
  8
0
  6
Continuous
 62
     7
370
    25
100
AcDbSpline
210
0.0
220
0.0
230
1.0
 70
     8
 71
     3
 72
    23
 73
    19
 74
     0
 42
0.000000001
 43
0.00000001
 40
0.0
 40
0.0
 40
0.0
 40
0.0
 40
0.0511129009857221
 40
0.1016896331838983
 40
0.1518293139104713
 40
0.201633670189439
 40
0.2512064936754081
 40
0.3006530343006331
 40
0.3500793489716449
 40
0.3995916247932065
 40
0.4492954981442684
 40
0.4992953912354716
 40
0.5872572780521574
 40
0.6724255494349275
 40
0.7555067762540824
 40
0.8372616735271673
 40
0.9184882400167564
 40
1.0
 40
1.0
 40
1.0
 40
1.0
 10
389.4015979760687
 20
113.6522434431146
 30
0.0
 10
389.3855823921682
 20
113.6813720453456
 30
0.0
 10
389.3537192261052
 20
113.7393236939294
 30
0.0
 10
389.3066753876864
 20
113.8220815291476
 30
0.0
 10
389.2606968635114
 20
113.9011703876319
 30
0.0
 10
389.2159161967078
 20
113.976387375566
 30
0.0
 10
389.1724324322719
 20
114.0478504306117
 30
0.0
 10
389.1303464686873
 20
114.1155918348
 30
0.0
 10
389.0897520042899
 20
114.179665346545
 30
0.0
 10
389.0507370979397
 20
114.2401189456162
 30
0.0
 10
389.0133872754523
 20
114.2969964505445
 30
0.0
 10
388.9688590188602
 20
114.363710923605
 30
0.0
 10
388.920218758319
 20
114.4350312074695
 30
0.0
 10
388.8723796585632
 20
114.5036114599285
 30
0.0
 10
388.8347281464822
 20
114.5566277879707
 30
0.0
 10
388.8079054450948
 20
114.5939004440982
 30
0.0
 10
388.7911766142712
 20
114.6169378436783
 30
0.0
 10
388.7893282043074
 20
114.6194725689435
 30
0.0
 10
388.788402379687
 20
114.6207421525869
 30
0.0
  0
SPLINE
  5
E0
330
1F
100
AcDbEntity
  8
0
  6
Continuous
 62
     7
370
    25
100
AcDbSpline
210
0.0
220
0.0
230
1.0
 70
     8
 71
     3
 72
     8
 73
     4
 74
     0
 42
0.000000001
 43
0.00000001
 40
0.0
 40
0.0
 40
0.0
 40
0.0
 40
1.0
 40
1.0
 40
1.0
 40
1.0
 10
392.063747495215
 20
113.4602524005367
 30
0.0
 10
392.0856328668581
 20
113.4845734167343
 30
0.0
 10
392.1075182385013
 20
113.5085980150568
 30
0.0
 10
392.1294036101444
 20
113.5323048671453
 30
0.0
  0
LINE
  5
E1
330
1F
100
AcDbEntity
  8
0
  6
Continuous
 62
     7
370
    25
100
AcDbLine
 10
392.06358729
 20
113.4602524005
 30
0.0
 11
389.667925446
 21
113.4602524005
 31
0.0
  0
SPLINE
  5
E2
330
1F
100
AcDbEntity
  8
0
  6
Continuous
 62
     7
370
    25
100
AcDbSpline
210
0.0
220
0.0
230
1.0
 70
     8
 71
     3
 72
     8
 73
     4
 74
     0
 42
0.000000001
 43
0.00000001
 40
0.0
 40
0.0
 40
0.0
 40
0.0
 40
1.0
 40
1.0
 40
1.0
 40
1.0
 10
371.1902118603167
 20
113.5324084346254
 30
0.0
 10
371.2121286328043
 20
113.5086679860663
 30
0.0
 10
371.2340454052917
 20
113.4846088342797
 30
0.0
 10
371.2559621777793
 20
113.4602524005368
 30
0.0
  0
SPLINE
  5
E3
330
1F
100
AcDbEntity
  8
0
  6
Continuous
 62
     7
370
    25
100
AcDbSpline
210
0.0
220
0.0
230
1.0
 70
     8
 71
     3
 72
    26
 73
    22
 74
     0
 42
0.000000001
 43
0.00000001
 40
0.0
 40
0.0
 40
0.0
 40
0.0
 40
0.0524616032245984
 40
0.1026497911584775
 40
0.1505654136713723
 40
0.1962094561589203
 40
0.2395830674744455
 40
0.2806875955357221
 40
0.3195246332747494
 40
0.3560960787422642
 40
0.3904042149164026
 40
0.4224518174656405
 40
0.4522423030205674
 40
0.4797799375650286
 40
0.5050701364955548
 40
0.5966477315635087
 40
0.6842052596254289
 40
0.768002620409792
 40
0.84833623390995
 40
0.9255424426774792
 40
1.0
 40
1.0
 40
1.0
 40
1.0
 10
373.6516066922268
 20
113.4602672925545
 30
0.0
 10
373.6694681765151
 20
113.4900407525956
 30
0.0
 10
373.7044171204909
 20
113.5482974444889
 30
0.0
 10
373.755181953973
 20
113.6304964248535
 30
0.0
 10
373.8032519116146
 20
113.7065772937543
 30
0.0
 10
373.8485958843799
 20
113.7765286422205
 30
0.0
 10
373.8912218638837
 20
113.8406358041728
 30
0.0
 10
373.9311281623982
 20
113.899143643642
 30
0.0
 10
373.9683154914949
 20
113.9523322212675
 30
0.0
 10
374.0027843141491
 20
114.0004902614926
 30
0.0
 10
374.0345344025669
 20
114.0439149348096
 30
0.0
 10
374.0635688078906
 20
114.0829050257693
 30
0.0
 10
374.0898800946746
 20
114.1177591247547
 30
0.0
 10
374.1134967322368
 20
114.148764117683
 30
0.0
 10
374.1531447528968
 20
114.2010104976116
 30
0.0
 10
374.2046869306263
 20
114.2685438166663
 30
0.0
 10
374.2615175081442
 20
114.3407394127288
 30
0.0
 10
374.3056766202728
 20
114.3952217810525
 30
0.0
 10
374.3368530407184
 20
114.4324831750305
 30
0.0
 10
374.3563089867062
 20
114.454944032713
 30
0.0
 10
374.3584455498745
 20
114.4576660552938
 30
0.0
 10
374.3594944706463
 20
114.4590024005368
 30
0.0
  0
LINE
  5
E4
330
1F
100
AcDbEntity
  8
0
  6
Continuous
 62
     7
370
    25
100
AcDbLine
 10
373.6516066922
 20
113.4602524005
 30
0.0
 11
371.2559621778
 21
113.4602524005
 31
0.0
  0
LINE
  5
E5
330
1F
100
AcDbEntity
  8
0
  6
Continuous
 62
     7
370
    25
100
AcDbLine
 10
373.7264260699
 20
113.4602524005
 30
0.0
 11
373.6513064715
 21
113.4602524005
 31
0.0
  0
SPLINE
  5
E6
330
1F
100
AcDbEntity
  8
0
  6
Continuous
 62
     7
370
    25
100
AcDbSpline
210
0.0
220
0.0
230
1.0
 70
     8
 71
     3
 72
     8
 73
     4
 74
     0
 42
0.000000001
 43
0.00000001
 40
0.0
 40
0.0
 40
0.0
 40
0.0
 40
1.0
 40
1.0
 40
1.0
 40
1.0
 10
373.7264260698598
 20
113.4602524005367
 30
0.0
 10
373.7903348725197
 20
113.5222212639679
 30
0.0
 10
373.8541097918717
 20
113.5861973290845
 30
0.0
 10
373.9174698577526
 20
113.6517319854302
 30
0.0
  0
SPLINE
  5
E7
330
1F
100
AcDbEntity
  8
0
  6
Continuous
 62
     7
370
    25
100
AcDbSpline
210
0.0
220
0.0
230
1.0
 70
     8
 71
     3
 72
    24
 73
    20
 74
     0
 42
0.000000001
 43
0.00000001
 40
0.0
 40
0.0
 40
0.0
 40
0.0
 40
0.0410168309160251
 40
0.0818356321224298
 40
0.1225576684073127
 40
0.1632849263043688
 40
0.2041193531422725
 40
0.2451620975485173
 40
0.2865127793361656
 40
0.3282688142230838
 40
0.370524814367772
 40
0.4133720798884311
 40
0.456898190125439
 40
0.5011866971564671
 40
0.6001870884229382
 40
0.6987399491827955
 40
0.7976807785240759
 40
0.8978353515390326
 40
1.0
 40
1.0
 40
1.0
 40
1.0
 10
374.5310526636274
 20
114.6203924818683
 30
0.0
 10
374.530860475823
 20
114.6201286684782
 30
0.0
 10
374.5304770280991
 20
114.619602315392
 30
0.0
 10
374.5264282111205
 20
114.6140387982825
 30
0.0
 10
374.5198389402728
 20
114.6049645661946
 30
0.0
 10
374.5104779422169
 20
114.5920317213938
 30
0.0
 10
374.4984317132265
 20
114.5753160512852
 30
0.0
 10
374.4837096500186
 20
114.5547749514228
 30
0.0
 10
374.4663498057162
 20
114.5303926240778
 30
0.0
 10
374.4463904486421
 20
114.5021410513299
 30
0.0
 10
374.4238779035011
 20
114.4699907781364
 30
0.0
 10
374.3988639127792
 20
114.4339073179098
 30
0.0
 10
374.371408508756
 20
114.3938550962404
 30
0.0
 10
374.329481007088
 20
114.3319282692254
 30
0.0
 10
374.2702725894972
 20
114.2426123896886
 30
0.0
 10
374.1904929106681
 20
114.1180676702705
 30
0.0
 10
374.1045121487253
 20
113.9782829120306
 30
0.0
 10
374.0132273553339
 20
113.8238700838748
 30
0.0
 10
373.9500230021144
 20
113.7098240634703
 30
0.0
 10
373.9181068525722
 20
113.6522345200843
 30
0.0
  0
LINE
  5
E8
330
1F
100
AcDbEntity
  8
0
  6
Continuous
 62
     7
370
    25
100
AcDbLine
 10
370.847213946
 20
104.9389474028
 30
0.0
 11
371.271451361
 21
105.3877403014
 31
0.0
  0
SPLINE
  5
E9
330
1F
100
AcDbEntity
  8
0
  6
Continuous
 62
     7
370
    25
100
AcDbSpline
210
0.0
220
0.0
230
1.0
 70
     8
 71
     3
 72
    13
 73
     9
 74
     0
 42
0.000000001
 43
0.00000001
 40
0.0
 40
0.0
 40
0.0
 40
0.0
 40
0.1706413963213662
 40
0.3396133086180699
 40
0.5069741542807724
 40
0.6727840536225546
 40
0.8371048294100528
 40
1.0
 40
1.0
 40
1.0
 40
1.0
 10
371.2714513610206
 20
105.3877196590075
 30
0.0
 10
371.276457116686
 20
105.3807679249942
 30
0.0
 10
371.2864196537977
 20
105.3669324698244
 30
0.0
 10
371.2992940104753
 20
105.3508044493611
 30
0.0
 10
371.3105605104761
 20
105.3381359173202
 30
0.0
 10
371.320037719029
 20
105.3292799158358
 30
0.0
 10
371.3279194827722
 20
105.3237683407811
 30
0.0
 10
371.331733843737
 20
105.32309006225
 30
0.0
 10
371.3336327150693
 20
105.3227524005368
 30
0.0
  0
SPLINE
  5
EA
330
1F
100
AcDbEntity
  8
0
  6
Continuous
 62
     7
370
    25
100
AcDbSpline
210
0.0
220
0.0
230
1.0
 70
     8
 71
     3
 72
    13
 73
     9
 74
     0
 42
0.000000001
 43
0.00000001
 40
0.0
 40
0.0
 40
0.0
 40
0.0
 40
0.1620909846084687
 40
0.3259283018516087
 40
0.4915764692959173
 40
0.6590979120738922
 40
0.8285529848497148
 40
1.0
 40
1.0
 40
1.0
 40
1.0
 10
391.9860769812165
 20
105.3227524005368
 30
0.0
 10
391.9879537887435
 20
105.3230868455728
 30
0.0
 10
391.991727624109
 20
105.323759338882
 30
0.0
 10
391.999574224476
 20
105.329232162755
 30
0.0
 10
392.0090401266472
 20
105.3380511833572
 30
0.0
 10
392.0203212325716
 20
105.3507037377486
 30
0.0
 10
392.0332363894533
 20
105.3668560045934
 30
0.0
 10
392.0432325729898
 20
105.3807423852177
 30
0.0
 10
392.0482598693631
 20
105.3877261456392
 30
0.0
  0
LINE
  5
EB
330
1F
100
AcDbEntity
  8
0
  6
Continuous
 62
     7
370
    25
100
AcDbLine
 10
392.0482728372
 20
105.3877265137
 30
0.0
 11
392.4724950019
 21
104.9389474283
 31
0.0
  0
LINE
  5
EC
330
1F
100
AcDbEntity
  8
0
  6
Continuous
 62
     7
370
    25
100
AcDbLine
 10
389.5932836264
 20
105.3977524005
 30
0.0
 11
389.602004936
 21
105.3977524005
 31
0.0
  0
SPLINE
  5
ED
330
1F
100
AcDbEntity
  8
0
  6
Continuous
 62
     7
370
    25
100
AcDbSpline
210
0.0
220
0.0
230
1.0
 70
     8
 71
     3
 72
    13
 73
     9
 74
     0
 42
0.000000001
 43
0.00000001
 40
0.0
 40
0.0
 40
0.0
 40
0.0
 40
0.1705348597552374
 40
0.3393503086955696
 40
0.5065727670783337
 40
0.6723323000811858
 40
0.8367624445548165
 40
1.0
 40
1.0
 40
1.0
 40
1.0
 10
389.6020178158539
 20
105.3977522662213
 30
0.0
 10
389.5969821743644
 20
105.3897458066808
 30
0.0
 10
389.5869616630367
 20
105.3738136124038
 30
0.0
 10
389.5751581723455
 20
105.3551963416801
 30
0.0
 10
389.5658159049096
 20
105.3405575329135
 30
0.0
 10
389.5592204022423
 20
105.3303108707585
 30
0.0
 10
389.5550677519092
 20
105.3239283045209
 30
0.0
 10
389.5545423971631
 20
105.3231434162974
 30
0.0
 10
389.5542806758384
 20
105.3227524005368
 30
0.0
  0
SPLINE
  5
EE
330
1F
100
AcDbEntity
  8
0
  6
Continuous
 62
     7
370
    25
100
AcDbSpline
210
0.0
220
0.0
230
1.0
 70
     8
 71
     3
 72
     8
 73
     4
 74
     0
 42
0.000000001
 43
0.00000001
 40
0.0
 40
0.0
 40
0.0
 40
0.0
 40
1.0
 40
1.0
 40
1.0
 40
1.0
 10
392.048272910356
 20
105.3877267587064
 30
0.0
 10
392.0460894261149
 20
105.3905754242227
 30
0.0
 10
392.0439059418737
 20
105.3935162156202
 30
0.0
 10
392.0417224576326
 20
105.3965487128968
 30
0.0
  0
LINE
  5
EF
330
1F
100
AcDbEntity
  8
0
  6
Continuous
 62
     7
370
    25
100
AcDbLine
 10
392.0408197146
 20
105.3977524005
 30
0.0
 11
389.6020093552
 21
105.3977524005
 31
0.0
  0
SPLINE
  5
F0
330
1F
100
AcDbEntity
  8
0
  6
Continuous
 62
     7
370
    25
100
AcDbSpline
210
0.0
220
0.0
230
1.0
 70
     8
 71
     3
 72
     8
 73
     4
 74
     0
 42
0.000000001
 43
0.00000001
 40
0.0
 40
0.0
 40
0.0
 40
0.0
 40
1.0
 40
1.0
 40
1.0
 40
1.0
 10
371.2788900050626
 20
105.3977524005444
 30
0.0
 10
371.2764040863762
 20
105.3942907012324
 30
0.0
 10
371.2739181676897
 20
105.3909465493235
 30
0.0
 10
371.2714322490032
 20
105.3877205573831
 30
0.0
  0
LINE
  5
F1
330
1F
100
AcDbEntity
  8
0
  6
Continuous
 62
     7
370
    25
100
AcDbLine
 10
373.7161940617
 20
105.3977524005
 30
0.0
 11
371.2791064454
 21
105.3977524005
 31
0.0
  0
SPLINE
  5
F2
330
1F
100
AcDbEntity
  8
0
  6
Continuous
 62
     7
370
    25
100
AcDbSpline
210
0.0
220
0.0
230
1.0
 70
     8
 71
     3
 72
    13
 73
     9
 74
     0
 42
0.000000001
 43
0.00000001
 40
0.0
 40
0.0
 40
0.0
 40
0.0
 40
0.1631520625553472
 40
0.3275304253162191
 40
0.4932723215013645
 40
0.6605116276025231
 40
0.8293786586476746
 40
1.0
 40
1.0
 40
1.0
 40
1.0
 10
373.7654290204475
 20
105.3227524005368
 30
0.0
 10
373.7651714237885
 20
105.3231430157052
 30
0.0
 10
373.7646542942963
 20
105.3239271820237
 30
0.0
 10
373.7605080710652
 20
105.3303049265988
 30
0.0
 10
373.7539149145736
 20
105.340546964695
 30
0.0
 10
373.7445703555961
 20
105.3551836961164
 30
0.0
 10
373.7327600936167
 20
105.3738038008806
 30
0.0
 10
373.7227329890429
 20
105.3897420412601
 30
0.0
 10
373.7176935291634
 20
105.3977523419756
 30
0.0
  0
LINE
  5
F3
330
1F
100
AcDbEntity
  8
0
  6
Continuous
 62
     7
370
    25
100
AcDbLine
 10
373.7177039197
 20
105.3977524005
 30
0.0
 11
373.7264260699
 21
105.3977524005
 31
0.0
  0
SPLINE
  5
F4
330
1F
100
AcDbEntity
  8
0
  6
Continuous
 62
     7
370
    25
100
AcDbSpline
210
0.0
220
0.0
230
1.0
 70
     8
 71
     3
 72
    14
 73
    10
 74
     0
 42
0.000000001
 43
0.00000001
 40
0.0
 40
0.0
 40
0.0
 40
0.0
 40
0.0310276310570678
 40
0.0622853638080741
 40
0.124800308023939
 40
0.2498289632710313
 40
0.4998892480129489
 40
0.7606946229075205
 40
1.0
 40
1.0
 40
1.0
 40
1.0
 10
370.6997608536837
 20
104.9410142259214
 30
0.0
 10
370.7040900062907
 20
104.9457979921176
 30
0.0
 10
370.7127804166094
 20
104.9554010010408
 30
0.0
 10
370.7301806328104
 20
104.9746946918879
 30
0.0
 10
370.7606558101514
 20
105.008458547726
 30
0.0
 10
370.8214752498719
 20
105.0758751594751
 30
0.0
 10
370.9093647407216
 20
105.1733407338248
 30
0.0
 10
371.0121992458925
 20
105.2874823466174
 30
0.0
 10
371.0794032742912
 20
105.3622644861183
 30
0.0
 10
371.1115607220049
 20
105.3980480960926
 30
0.0
  0
LINE
  5
F5
330
1F
100
AcDbEntity
  8
0
  6
Continuous
 62
     7
370
    25
100
AcDbLine
 10
371.1112474923
 20
105.3977524005
 30
0.0
 11
371.2788900051
 21
105.3977524005
 31
0.0
  0
LINE
  5
F6
330
1F
100
AcDbEntity
  8
0
  6
Continuous
 62
     7
370
    25
100
AcDbLine
 10
392.0408197146
 20
105.3977524005
 30
0.0
 11
392.2084695863
 21
105.3977524005
 31
0.0
  0
SPLINE
  5
F7
330
1F
100
AcDbEntity
  8
0
  6
Continuous
 62
     7
370
    25
100
AcDbSpline
210
0.0
220
0.0
230
1.0
 70
     8
 71
     3
 72
    11
 73
     7
 74
     0
 42
0.000000001
 43
0.00000001
 40
0.0
 40
0.0
 40
0.0
 40
0.0
 40
0.2392771050480589
 40
0.5001130256950088
 40
0.7515027953458615
 40
1.0
 40
1.0
 40
1.0
 40
1.0
 10
392.2081810569364
 20
105.3980247748282
 30
0.0
 10
392.2403346924988
 20
105.3622514715123
 30
0.0
 10
392.3075389992583
 20
105.2874816979611
 30
0.0
 10
392.410563895235
 20
105.1730259146172
 30
0.0
 10
392.5156531581351
 20
105.0568684149958
 30
0.0
 10
392.5853257294214
 20
104.9794829665662
 30
0.0
 10
392.6199604370565
 20
104.9410141354022
 30
0.0
  0
LINE
  5
F8
330
1F
100
AcDbEntity
  8
0
  6
Continuous
 62
     7
370
    25
100
AcDbLine
 10
371.2559621778
 20
113.4602524005
 30
0.0
 11
371.1113922062
 21
113.4602524005
 31
0.0
  0
SPLINE
  5
F9
330
1F
100
AcDbEntity
  8
0
  6
Continuous
 62
     7
370
    25
100
AcDbSpline
210
0.0
220
0.0
230
1.0
 70
     8
 71
     3
 72
    11
 73
     7
 74
     0
 42
0.000000001
 43
0.00000001
 40
0.0
 40
0.0
 40
0.0
 40
0.0
 40
0.2392702279548267
 40
0.5001120575633039
 40
0.7515010343574877
 40
1.0
 40
1.0
 40
1.0
 40
1.0
 10
371.1116795712383
 20
113.4599810229263
 30
0.0
 10
371.0795213577391
 20
113.4957754566216
 30
0.0
 10
371.0123056808947
 20
113.5705914002418
 30
0.0
 10
370.9092642202976
 20
113.6851167392613
 30
0.0
 10
370.8041573864635
 20
113.8013460531154
 30
0.0
 10
370.7344741145135
 20
113.8787780594263
 30
0.0
 10
370.6998339091152
 20
113.9172702330564
 30
0.0
  0
SPLINE
  5
FA
330
1F
100
AcDbEntity
  8
0
  6
Continuous
 62
     7
370
    25
100
AcDbSpline
210
0.0
220
0.0
230
1.0
 70
     8
 71
     3
 72
    14
 73
    10
 74
     0
 42
0.000000001
 43
0.00000001
 40
0.0
 40
0.0
 40
0.0
 40
0.0
 40
0.0310294070696265
 40
0.0622870827662012
 40
0.124801913120711
 40
0.2498303412944048
 40
0.4998901702454032
 40
0.7607014797464787
 40
0.9999999999999999
 40
0.9999999999999999
 40
0.9999999999999999
 40
0.9999999999999999
 10
392.6198641718454
 20
113.9172701247802
 30
0.0
 10
392.6155341161321
 20
113.9124830940782
 30
0.0
 10
392.6068421505398
 20
113.9028738167603
 30
0.0
 10
392.5894390836319
 20
113.8835684453516
 30
0.0
 10
392.5589593288181
 20
113.8497843188256
 30
0.0
 10
392.4981306566538
 20
113.7823273320396
 30
0.0
 10
392.41022659944
 20
113.6848019209807
 30
0.0
 10
392.3073755239537
 20
113.5705908086885
 30
0.0
 10
392.2401601452639
 20
113.4957625189848
 30
0.0
 10
392.2079981286391
 20
113.4599577858365
 30
0.0
  0
LINE
  5
FB
330
1F
100
AcDbEntity
  8
0
  6
Continuous
 62
     7
370
    25
100
AcDbLine
 10
392.2083100956
 20
113.4602524005
 30
0.0
 11
392.0637474952
 21
113.4602524005
 31
0.0
  0
LINE
  5
FC
330
1F
100
AcDbEntity
  8
0
  6
Continuous
 62
     7
370
    25
100
AcDbLine
 10
369.7891869834
 20
107.241664658
 30
0.0
 11
370.2292496407
 21
107.3227524005
 31
0.0
  0
SPLINE
  5
FD
330
1F
100
AcDbEntity
  8
0
  6
Continuous
 62
     7
370
    25
100
AcDbSpline
210
0.0
220
0.0
230
1.0
 70
     8
 71
     3
 72
    25
 73
    21
 74
     0
 42
0.000000001
 43
0.00000001
 40
0.0
 40
0.0
 40
0.0
 40
0.0
 40
0.0274788604633948
 40
0.056041580374397
 40
0.0856946775776488
 40
0.1164439744520652
 40
0.1482946901229791
 40
0.1812515183576172
 40
0.21531869363882
 40
0.2505000474389724
 40
0.3330513345460837
 40
0.5015080140592555
 40
0.5771733427895557
 40
0.6489103136089254
 40
0.7167630290816648
 40
0.7807837094914061
 40
0.8410346307229359
 40
0.89759061515514
 40
0.9505422438476955
 40
0.9999999999999999
 40
0.9999999999999999
 40
0.9999999999999999
 40
0.9999999999999999
 10
370.2292496407317
 20
107.3227524005368
 30
0.0
 10
370.2359578080752
 20
107.2935701960193
 30
0.0
 10
370.2496387356319
 20
107.2340547418706
 30
0.0
 10
370.2724034642854
 20
107.1436642448119
 30
0.0
 10
370.2972811015274
 20
107.0505326356908
 30
0.0
 10
370.3244203395388
 20
106.9549465914154
 30
0.0
 10
370.3537817465942
 20
106.8571931218043
 30
0.0
 10
370.3853669167875
 20
106.7576124457384
 30
0.0
 10
370.4192137870236
 20
106.6566033061929
 30
0.0
 10
370.4709150148651
 20
106.5098364987554
 30
0.0
 10
370.5752740550493
 20
106.2455700882623
 30
0.0
 10
370.6961497874892
 20
105.9755944548914
 30
0.0
 10
370.8096475714375
 20
105.7581775601422
 30
0.0
 10
370.8809263271446
 20
105.6284674862972
 30
0.0
 10
370.9430044110869
 20
105.524591749616
 30
0.0
 10
370.9955896760318
 20
105.4447344688793
 30
0.0
 10
371.0388352567305
 20
105.3867213470864
 30
0.0
 10
371.072438760126
 20
105.3486235976363
 30
0.0
 10
371.0973804967443
 20
105.3266257855479
 30
0.0
 10
371.1063345062833
 20
105.32401382503
 30
0.0
 10
371.1106587703245
 20
105.3227524005368
 30
0.0
  0
LINE
  5
FE
330
1F
100
AcDbEntity
  8
0
  6
Continuous
 62
     7
370
    25
100
AcDbLine
 10
393.5305227129
 20
111.6163401431
 30
0.0
 11
393.0904600556
 21
111.5352524005
 31
0.0
  0
SPLINE
  5
FF
330
1F
100
AcDbEntity
  8
0
  6
Continuous
 62
     7
370
    25
100
AcDbSpline
210
0.0
220
0.0
230
1.0
 70
     8
 71
     3
 72
    25
 73
    21
 74
     0
 42
0.000000001
 43
0.00000001
 40
0.0
 40
0.0
 40
0.0
 40
0.0
 40
0.0274788604633835
 40
0.0560415803743757
 40
0.0856946775776175
 40
0.1164439744520234
 40
0.1482946901229275
 40
0.1812515183575572
 40
0.2153186936387509
 40
0.2505000474388949
 40
0.3330513345813443
 40
0.5015080140593063
 40
0.5771733427880285
 40
0.6489103136062581
 40
0.7167630290783021
 40
0.7807837094877967
 40
0.8410346307195359
 40
0.8975906151524101
 40
0.9505422438460975
 40
1.0
 40
1.0
 40
1.0
 40
1.0
 10
393.0904600555542
 20
111.5352524005368
 30
0.0
 10
393.0837518882107
 20
111.5644346050543
 30
0.0
 10
393.0700709606539
 20
111.623950059203
 30
0.0
 10
393.0473062320003
 20
111.7143405562617
 30
0.0
 10
393.0224285947584
 20
111.8074721653827
 30
0.0
 10
392.995289356747
 20
111.9030582096582
 30
0.0
 10
392.9659279496917
 20
112.0008116792693
 30
0.0
 10
392.9343427794984
 20
112.1003923553352
 30
0.0
 10
392.9004959092622
 20
112.2014014948807
 30
0.0
 10
392.8487946814084
 20
112.3481683023522
 30
0.0
 10
392.7444356412269
 20
112.6124347128435
 30
0.0
 10
392.6235599087851
 20
112.8824103462051
 30
0.0
 10
392.5100621248485
 20
113.0998272409282
 30
0.0
 10
392.4387833691417
 20
113.2295373147717
 30
0.0
 10
392.3767052851995
 20
113.3334130514528
 30
0.0
 10
392.3241200202546
 20
113.4132703321903
 30
0.0
 10
392.2808744395559
 20
113.4712834539845
 30
0.0
 10
392.2472709361604
 20
113.5093812034359
 30
0.0
 10
392.2223291995418
 20
113.5313790155254
 30
0.0
 10
392.2133751900026
 20
113.5339909760435
 30
0.0
 10
392.2090509259614
 20
113.5352524005368
 30
0.0
  0
SPLINE
  5
100
330
1F
100
AcDbEntity
  8
0
  6
Continuous
 62
     7
370
    25
100
AcDbSpline
210
0.0
220
0.0
230
1.0
 70
     8
 71
     3
 72
    25
 73
    21
 74
     0
 42
0.000000001
 43
0.00000001
 40
0.0
 40
0.0
 40
0.0
 40
0.0
 40
0.0288760384315855
 40
0.0583531183787362
 40
0.0884515256342754
 40
0.1191903155210541
 40
0.1505873770367557
 40
0.1826594973240215
 40
0.2154224255057506
 40
0.2488909351380474
 40
0.361059549884163
 40
0.4984670937677694
 40
0.5822694576839094
 40
0.6661128179770435
 40
0.7499973339301048
 40
0.8007710075466903
 40
0.8511237940268921
 40
0.9010896183608236
 40
0.9507031993409268
 40
1.0
 40
1.0
 40
1.0
 40
1.0
 10
371.1106587703245
 20
113.5352524005368
 30
0.0
 10
371.108370274708
 20
113.5348243356507
 30
0.0
 10
371.1037456494868
 20
113.533959295904
 30
0.0
 10
371.093438863432
 20
113.5268867276835
 30
0.0
 10
371.0806049364061
 20
113.5153210175538
 30
0.0
 10
371.06499202332
 20
113.4986180531967
 30
0.0
 10
371.0466697765509
 20
113.4766826826286
 30
0.0
 10
371.0256199380067
 20
113.4492846765202
 30
0.0
 10
371.0018446084271
 20
113.4162470735417
 30
0.0
 10
370.9547850797617
 20
113.347253149762
 30
0.0
 10
370.8670891319568
 20
113.2072240645065
 30
0.0
 10
370.7495373258808
 20
112.9879287765278
 30
0.0
 10
370.638015187981
 20
112.7509987134489
 30
0.0
 10
370.5465558647639
 20
112.5351568400512
 30
0.0
 10
370.4656742150362
 20
112.3335952190429
 30
0.0
 10
370.3995293129352
 20
112.1547271386711
 30
0.0
 10
370.3501787521588
 20
112.0033509375228
 30
0.0
 10
370.3052117352805
 20
111.849106782401
 30
0.0
 10
370.2644540213648
 20
111.6929509273251
 30
0.0
 10
370.2409593521471
 20
111.5877062203771
 30
0.0
 10
370.2292496407317
 20
111.5352524005368
 30
0.0
  0
LINE
  5
101
330
1F
100
AcDbEntity
  8
0
  6
Continuous
 62
     7
370
    25
100
AcDbLine
 10
369.7891869834
 20
111.6163401431
 30
0.0
 11
370.2292496407
 21
111.5352524005
 31
0.0
  0
SPLINE
  5
102
330
1F
100
AcDbEntity
  8
0
  6
Continuous
 62
     7
370
    25
100
AcDbSpline
210
0.0
220
0.0
230
1.0
 70
     8
 71
     3
 72
    25
 73
    21
 74
     0
 42
0.000000001
 43
0.00000001
 40
0.0
 40
0.0
 40
0.0
 40
0.0
 40
0.0288760384329379
 40
0.0583531183810567
 40
0.0884515256371788
 40
0.1191903155241519
 40
0.1505873770396599
 40
0.1826594973263453
 40
0.2154224255071077
 40
0.2488909351380524
 40
0.3610595498818108
 40
0.4984670937677609
 40
0.5822694576837939
 40
0.6661128179769302
 40
0.749997333930102
 40
0.8007710075450265
 40
0.851123794024394
 40
0.9010896183583234
 40
0.9507031993392587
 40
1.0
 40
1.0
 40
1.0
 40
1.0
 10
392.2090509259614
 20
105.3227524005368
 30
0.0
 10
392.2113394215781
 20
105.3231804654229
 30
0.0
 10
392.2159640467998
 20
105.3240455051697
 30
0.0
 10
392.226270832855
 20
105.3311180733907
 30
0.0
 10
392.2391047598813
 20
105.342683783521
 30
0.0
 10
392.2547176729674
 20
105.3593867478787
 30
0.0
 10
392.2730399197364
 20
105.3813221184472
 30
0.0
 10
392.2940897582803
 20
105.4087201245555
 30
0.0
 10
392.3178650878593
 20
105.4417577275333
 30
0.0
 10
392.3649246165241
 20
105.5107516513113
 30
0.0
 10
392.4526205643298
 20
105.6507807365654
 30
0.0
 10
392.5701723704044
 20
105.8700760245438
 30
0.0
 10
392.6816945083037
 20
106.1070060876248
 30
0.0
 10
392.7731538315208
 20
106.3228479610225
 30
0.0
 10
392.8540354812489
 20
106.5244095820291
 30
0.0
 10
392.9201803833499
 20
106.7032776623983
 30
0.0
 10
392.9695309441256
 20
106.8546538635439
 30
0.0
 10
393.0144979610039
 20
107.0088980186655
 30
0.0
 10
393.0552556749202
 20
107.165053873744
 30
0.0
 10
393.0787503441385
 20
107.2702985806947
 30
0.0
 10
393.0904600555542
 20
107.3227524005368
 30
0.0
  0
LINE
  5
103
330
1F
100
AcDbEntity
  8
0
  6
Continuous
 62
     7
370
    25
100
AcDbLine
 10
393.5305227129
 20
107.241664658
 30
0.0
 11
393.0904600556
 21
107.3227524005
 31
0.0
  0
SPLINE
  5
104
330
1F
100
AcDbEntity
  8
0
  6
Continuous
 62
     7
370
    25
100
AcDbSpline
210
0.0
220
0.0
230
1.0
 70
     8
 71
     3
 72
    16
 73
    12
 74
     0
 42
0.000000001
 43
0.00000001
 40
0.0
 40
0.0
 40
0.0
 40
0.0
 40
0.0870060742639604
 40
0.1851053914850239
 40
0.2943800223067333
 40
0.3925755183133773
 40
0.4909769450810653
 40
0.5895873034519303
 40
0.7549318943424994
 40
0.9066626834856446
 40
1.0
 40
1.0
 40
1.0
 40
1.0
 10
372.7619969598644
 20
111.5352524005368
 30
0.0
 10
372.7842846663538
 20
111.6132089880886
 30
0.0
 10
372.831701753838
 20
111.779061599871
 30
0.0
 10
372.9186639783899
 20
112.0355566131807
 30
0.0
 10
373.0154250081526
 20
112.2905633845114
 30
0.0
 10
373.1160815191014
 20
112.5306036882533
 30
0.0
 10
373.2136022657988
 20
112.7456191626778
 30
0.0
 10
373.3376941528841
 20
112.9842401202518
 30
0.0
 10
373.4683802710545
 20
113.2150623941747
 30
0.0
 10
373.5723437105793
 20
113.3937215026647
 30
0.0
 10
373.6068213062084
 20
113.4482157102319
 30
0.0
 10
373.6199525386356
 20
113.4689705248425
 30
0.0
  0
SPLINE
  5
105
330
1F
100
AcDbEntity
  8
0
  6
Continuous
 62
     7
370
    25
100
AcDbSpline
210
0.0
220
0.0
230
1.0
 70
     8
 71
     3
 72
    16
 73
    12
 74
     0
 42
0.000000001
 43
0.00000001
 40
0.0
 40
0.0
 40
0.0
 40
0.0
 40
0.0880318380383635
 40
0.1872877035540698
 40
0.2978506347678304
 40
0.3972038129749101
 40
0.4967653497774333
 40
0.5965382813961664
 40
0.7638322131148714
 40
0.9173518422854423
 40
1.0
 40
1.0
 40
1.0
 40
1.0
 10
390.5577127364214
 20
107.3227524005368
 30
0.0
 10
390.5354250373869
 20
107.2447958270846
 30
0.0
 10
390.4880079657605
 20
107.0789432452898
 30
0.0
 10
390.401045605483
 20
106.8224479753579
 30
0.0
 10
390.3042851411316
 20
106.5674422730695
 30
0.0
 10
390.2036266797973
 20
106.3273982816348
 30
0.0
 10
390.1061130555232
 20
106.1123962739115
 30
0.0
 10
389.9819884765532
 20
105.8737135042578
 30
0.0
 10
389.8515023317382
 20
105.6432693293798
 30
0.0
 10
389.7498524410228
 20
105.4684760818692
 30
0.0
 10
389.7167568566068
 20
105.4160864332849
 30
0.0
 10
389.7051748829746
 20
105.3977524005368
 30
0.0
  0
SPLINE
  5
106
330
1F
100
AcDbEntity
  8
0
  6
Continuous
 62
     7
370
    25
100
AcDbSpline
210
0.0
220
0.0
230
1.0
 70
     8
 71
     3
 72
    15
 73
    11
 74
     0
 42
0.000000001
 43
0.00000001
 40
0.0
 40
0.0
 40
0.0
 40
0.0
 40
0.021008364988088
 40
0.0995168300519284
 40
0.236096555320183
 40
0.3979398287450039
 40
0.548616077756246
 40
0.7000319392580724
 40
0.851781261027411
 40
1.0
 40
1.0
 40
1.0
 40
1.0
 10
373.6130818452575
 20
105.3977524005368
 30
0.0
 10
373.6102346845684
 20
105.4022339467515
 30
0.0
 10
373.5967476565872
 20
105.4234630749236
 30
0.0
 10
373.5493400236298
 20
105.5005979199914
 30
0.0
 10
373.4561949840497
 20
105.6565323385181
 30
0.0
 10
373.3197754654591
 20
105.9055478350858
 30
0.0
 10
373.1704524168579
 20
106.2151866158149
 30
0.0
 10
373.0172886857604
 20
106.5571510242034
 30
0.0
 10
372.8716547021762
 20
106.9282593451391
 30
0.0
 10
372.798261598391
 20
107.192290585861
 30
0.0
 10
372.7619969598644
 20
107.3227524005368
 30
0.0
  0
LINE
  5
107
330
1F
100
AcDbEntity
  8
0
  6
Continuous
 62
     7
370
    25
100
AcDbLine
 10
373.0782571172
 20
111.4603891059
 30
0.0
 11
372.7619969599
 21
111.5352524005
 31
0.0
  0
SPLINE
  5
108
330
1F
100
AcDbEntity
  8
0
  6
Continuous
 62
     7
370
    25
100
AcDbSpline
210
0.0
220
0.0
230
1.0
 70
     8
 71
     3
 72
    25
 73
    21
 74
     0
 42
0.000000001
 43
0.00000001
 40
0.0
 40
0.0
 40
0.0
 40
0.0
 40
0.0278040781436522
 40
0.055549721993219
 40
0.0833079149813089
 40
0.1111495445113076
 40
0.1391448641111913
 40
0.1673629793310927
 40
0.1958713754537566
 40
0.2247355016371065
 40
0.2540184217407993
 40
0.3796733112851029
 40
0.5056490307768108
 40
0.6297529978411118
 40
0.7535891429683279
 40
0.8038648317328723
 40
0.8533521433028843
 40
0.9023387809687056
 40
0.9511213072444032
 40
1.0
 40
1.0
 40
1.0
 40
1.0
 10
373.9458787588544
 20
113.7027506917193
 30
0.0
 10
373.9457339666735
 20
113.702489490033
 30
0.0
 10
373.9454446866135
 20
113.7019676356136
 30
0.0
 10
373.9418260754386
 20
113.6954312278542
 30
0.0
 10
373.9358842894453
 20
113.6846695340693
 30
0.0
 10
373.9274114562359
 20
113.6692624122361
 30
0.0
 10
373.9164962395407
 20
113.6493058570797
 30
0.0
 10
373.9031578260739
 20
113.6247517245823
 30
0.0
 10
373.887445689548
 20
113.5955872686603
 30
0.0
 10
373.8694076346138
 20
113.5617793996774
 30
0.0
 10
373.8269850904218
 20
113.4813633638106
 30
0.0
 10
373.7464617961865
 20
113.3243704766352
 30
0.0
 10
373.6130350844343
 20
113.0425840256435
 30
0.0
 10
373.4689582666979
 20
112.7047122888428
 30
0.0
 10
373.3532769973597
 20
112.3960219466536
 30
0.0
 10
373.2707613797612
 20
112.1499775381725
 30
0.0
 10
373.2178361304153
 20
111.9811376490005
 30
0.0
 10
373.1679798031277
 20
111.8098217276863
 30
0.0
 10
373.1209662768693
 20
111.6361529223029
 30
0.0
 10
373.0925028463562
 20
111.5190154929254
 30
0.0
 10
373.0782571172059
 20
111.4603891059366
 30
0.0
  0
LINE
  5
109
330
1F
100
AcDbEntity
  8
0
  6
Continuous
 62
     7
370
    25
100
AcDbLine
 10
373.0782571172
 20
107.3976156951
 30
0.0
 11
372.7619969599
 21
107.3227524005
 31
0.0
  0
SPLINE
  5
10A
330
1F
100
AcDbEntity
  8
0
  6
Continuous
 62
     7
370
    25
100
AcDbSpline
210
0.0
220
0.0
230
1.0
 70
     8
 71
     3
 72
    25
 73
    21
 74
     0
 42
0.000000001
 43
0.00000001
 40
0.0
 40
0.0
 40
0.0
 40
0.0
 40
0.0269822734731769
 40
0.0539275173136802
 40
0.0808923933113601
 40
0.107933439844806
 40
0.1351067198417023
 40
0.1624674833923036
 40
0.190069854784539
 40
0.2179665520622281
 40
0.2462086451089677
 40
0.3700054907647238
 40
0.4947546150766694
 40
0.621044168917856
 40
0.7446559260931477
 40
0.796706171775715
 40
0.847861451501886
 40
0.898521112282262
 40
0.9490962471824803
 40
1.0
 40
1.0
 40
1.0
 40
1.0
 10
373.0782571172059
 20
107.3976156951369
 30
0.0
 10
373.0860364192182
 20
107.3652252124759
 30
0.0
 10
373.101584347171
 20
107.3004886988447
 30
0.0
 10
373.1262661088859
 20
107.2038552358787
 30
0.0
 10
373.1518833375038
 20
107.1077697958549
 30
0.0
 10
373.1785245192232
 20
107.012261742941
 30
0.0
 10
373.2061492209248
 20
106.9173368530318
 30
0.0
 10
373.2347518600627
 20
106.8230061962053
 30
0.0
 10
373.2643163026846
 20
106.7292810458517
 30
0.0
 10
373.2948334242085
 20
106.6361639416705
 30
0.0
 10
373.3615708236705
 20
106.4398886397741
 30
0.0
 10
373.4687561804124
 20
106.1538096716124
 30
0.0
 10
373.6125362264198
 20
105.8165199056602
 30
0.0
 10
373.7457846947078
 20
105.5350106933887
 30
0.0
 10
373.8334558680904
 20
105.3640197715195
 30
0.0
 10
373.8843309041877
 20
105.2681069522417
 30
0.0
 10
373.9120000587841
 20
105.2168897489481
 30
0.0
 10
373.9316989769162
 20
105.1809069548206
 30
0.0
 10
373.9439464856159
 20
105.1587370665098
 30
0.0
 10
373.9452332787724
 20
105.1564175987747
 30
0.0
 10
373.9458787588544
 20
105.1552541093543
 30
0.0
  0
SPLINE
  5
10B
330
1F
100
AcDbEntity
  8
0
  6
Continuous
 62
     7
370
    25
100
AcDbSpline
210
0.0
220
0.0
230
1.0
 70
     8
 71
     3
 72
    15
 73
    11
 74
     0
 42
0.000000001
 43
0.00000001
 40
0.0
 40
0.0
 40
0.0
 40
0.0
 40
0.0210083649911719
 40
0.0995168300522061
 40
0.2360965553265369
 40
0.3979398287451847
 40
0.5486160777563958
 40
0.700031939258164
 40
0.8517812610277311
 40
1.0
 40
1.0
 40
1.0
 40
1.0
 10
389.706627851027
 20
113.4602524005368
 30
0.0
 10
389.7094750117166
 20
113.4557708543213
 30
0.0
 10
389.7229620396977
 20
113.4345417261489
 30
0.0
 10
389.7703696726588
 20
113.3574068810792
 30
0.0
 10
389.8635147122388
 20
113.2014724625524
 30
0.0
 10
389.9999342308285
 20
112.9524569659836
 30
0.0
 10
390.1492572794281
 20
112.6428181852587
 30
0.0
 10
390.3024210105256
 20
112.3008537768699
 30
0.0
 10
390.4480549941097
 20
111.9297454559342
 30
0.0
 10
390.5214480978949
 20
111.6657142152123
 30
0.0
 10
390.5577127364214
 20
111.5352524005368
 30
0.0
  0
LINE
  5
10C
330
1F
100
AcDbEntity
  8
0
  6
Continuous
 62
     7
370
    25
100
AcDbLine
 10
390.2414525791
 20
111.4603891059
 30
0.0
 11
390.5577127364
 21
111.5352524005
 31
0.0
  0
SPLINE
  5
10D
330
1F
100
AcDbEntity
  8
0
  6
Continuous
 62
     7
370
    25
100
AcDbSpline
210
0.0
220
0.0
230
1.0
 70
     8
 71
     3
 72
    14
 73
    10
 74
     0
 42
0.000000001
 43
0.00000001
 40
0.0
 40
0.0
 40
0.0
 40
0.0
 40
0.1400355976495432
 40
0.2837945783099463
 40
0.426731892501939
 40
0.570768718984323
 40
0.7165841437719639
 40
0.859307752595139
 40
1.0
 40
1.0
 40
1.0
 40
1.0
 10
390.24145257908
 20
111.4603891059366
 30
0.0
 10
390.2046895890896
 20
111.6059342991647
 30
0.0
 10
390.1301861241359
 20
111.9008945623441
 30
0.0
 10
389.9949985122983
 20
112.3189568028593
 30
0.0
 10
389.8511085637674
 20
112.7040244939068
 30
0.0
 10
389.706971925921
 20
113.0418321866805
 30
0.0
 10
389.5745762255329
 20
113.3217730626724
 30
0.0
 10
389.4636554518331
 20
113.5379135282783
 30
0.0
 10
389.4223199704629
 20
113.6139766768467
 30
0.0
 10
389.4018003642246
 20
113.6517356627383
 30
0.0
  0
LINE
  5
10E
330
1F
100
AcDbEntity
  8
0
  6
Continuous
 62
     7
370
    25
100
AcDbLine
 10
390.2414525791
 20
107.3976156951
 30
0.0
 11
390.5577127364
 21
107.3227524005
 31
0.0
  0
SPLINE
  5
10F
330
1F
100
AcDbEntity
  8
0
  6
Continuous
 62
     7
370
    25
100
AcDbSpline
210
0.0
220
0.0
230
1.0
 70
     8
 71
     3
 72
    25
 73
    21
 74
     0
 42
0.000000001
 43
0.00000001
 40
0.0
 40
0.0
 40
0.0
 40
0.0
 40
0.0278040781430709
 40
0.0555497219922032
 40
0.0833079149800047
 40
0.111149544509862
 40
0.1391448641097463
 40
0.16736297932979
 40
0.1958713754527314
 40
0.2247355016364904
 40
0.2540184217407176
 40
0.379673311282307
 40
0.5056490307767562
 40
0.629752997840675
 40
0.7535891429683552
 40
0.8038648317333889
 40
0.8533521433036539
 40
0.9023387809694757
 40
0.9511213072449197
 40
0.9999999999999999
 40
0.9999999999999999
 40
0.9999999999999999
 40
0.9999999999999999
 10
389.3738309374314
 20
105.1552541093543
 30
0.0
 10
389.3739757296123
 20
105.1555153110405
 30
0.0
 10
389.3742650096724
 20
105.1560371654599
 30
0.0
 10
389.3778836208473
 20
105.1625735732194
 30
0.0
 10
389.3838254068406
 20
105.1733352670043
 30
0.0
 10
389.39229824005
 20
105.1887423888376
 30
0.0
 10
389.4032134567452
 20
105.2086989439939
 30
0.0
 10
389.416551870212
 20
105.2332530764914
 30
0.0
 10
389.4322640067379
 20
105.2624175324133
 30
0.0
 10
389.4503020616721
 20
105.2962254013963
 30
0.0
 10
389.4927246058627
 20
105.3766414372605
 30
0.0
 10
389.5732479000984
 20
105.5336343244365
 30
0.0
 10
389.7066746118504
 20
105.8154207754276
 30
0.0
 10
389.8507514295873
 20
106.1532925122292
 30
0.0
 10
389.9664326989262
 20
106.4619828544199
 30
0.0
 10
390.0489483165251
 20
106.7080272629027
 30
0.0
 10
390.1018735658714
 20
106.8768671520755
 30
0.0
 10
390.1517298931589
 20
107.0481830733897
 30
0.0
 10
390.198743419417
 20
107.2218518787723
 30
0.0
 10
390.2272068499298
 20
107.3389893081488
 30
0.0
 10
390.24145257908
 20
107.3976156951369
 30
0.0
  0
ARC
  5
110
330
1F
100
AcDbEntity
  8
0
  6
Continuous
 62
     7
370
    25
100
AcDbCircle
 10
381.6598548481
 20
109.4290024005
 30
0.0
 40
11.62303852141071
100
AcDbArc
 50
169.5595567507
 51
190.4404432494
  0
ARC
  5
111
330
1F
100
AcDbEntity
  8
0
  6
Continuous
 62
     7
370
    25
100
AcDbCircle
 10
381.6598548481
 20
109.4290024005
 30
0.0
 40
9.143750000000008
100
AcDbArc
 50
166.6824039243
 51
193.3175960757
  0
ARC
  5
112
330
1F
100
AcDbEntity
  8
0
  6
Continuous
 62
     7
370
    25
100
AcDbCircle
 10
381.6598548481
 20
109.4290024005
 30
0.0
 40
8.81874999999997
100
AcDbArc
 50
166.6824039243
 51
193.3175960757
  0
ARC
  5
113
330
1F
100
AcDbEntity
  8
0
  6
Continuous
 62
     7
370
    25
100
AcDbCircle
 10
381.6598548481
 20
109.4290024005
 30
0.0
 40
9.143750000000008
100
AcDbArc
 50
346.6824039243
 51
13.3175960757
  0
ARC
  5
114
330
1F
100
AcDbEntity
  8
0
  6
Continuous
 62
     7
370
    25
100
AcDbCircle
 10
381.6598548481
 20
109.4290024005
 30
0.0
 40
8.818750000000026
100
AcDbArc
 50
346.6824039243
 51
13.3175960757
  0
ARC
  5
115
330
1F
100
AcDbEntity
  8
0
  6
Continuous
 62
     7
370
    25
100
AcDbCircle
 10
381.6598548481
 20
109.4290024005
 30
0.0
 40
11.62303852141071
100
AcDbArc
 50
349.5595567507
 51
10.4404432493
  0
CIRCLE
  5
116
330
1F
100
AcDbEntity
  8
0
  6
Continuous
 62
     7
370
    25
100
AcDbCircle
 10
381.6598548481
 20
109.4290024005
 30
0.0
 40
7.774999999999977
  0
CIRCLE
  5
117
330
1F
100
AcDbEntity
  8
0
  6
Continuous
 62
     7
370
    25
100
AcDbCircle
 10
381.6598548481
 20
109.4290024005
 30
0.0
 40
2.615470053837896
  0
CIRCLE
  5
118
330
1F
100
AcDbEntity
  8
0
  6
Continuous
 62
     7
370
    25
100
AcDbCircle
 10
381.6598548481
 20
109.4290024005
 30
0.0
 40
2.5
  0
CIRCLE
  5
119
330
1F
100
AcDbEntity
  8
0
  6
Continuous
 62
     7
370
    25
100
AcDbCircle
 10
381.6598548481
 20
109.4290024005
 30
0.0
 40
15.73749999999995
  0
CIRCLE
  5
11A
330
1F
100
AcDbEntity
  8
0
  6
Continuous
 62
     7
370
    25
100
AcDbCircle
 10
381.6598548481
 20
109.4290024005
 30
0.0
 40
13.42499999999995
  0
CIRCLE
  5
11B
330
1F
100
AcDbEntity
  8
0
  6
Continuous
 62
     7
370
    25
100
AcDbCircle
 10
381.6598548481
 20
109.4290024005
 30
0.0
 40
2.0
  0
LINE
  5
11C
330
1F
100
AcDbEntity
  8
0
  6
CENTER
 62
     7
370
    18
100
AcDbLine
 10
381.6598548481
 20
109.4290024005
 30
0.0
 11
381.6598548481
 21
128.9435024005
 31
0.0
  0
LINE
  5
11D
330
1F
100
AcDbEntity
  8
0
  6
CENTER
 62
     7
370
    18
100
AcDbLine
 10
381.6598548481
 20
109.4290024005
 30
0.0
 11
401.1743548481
 21
109.4290024005
 31
0.0
  0
LINE
  5
11E
330
1F
100
AcDbEntity
  8
0
  6
Continuous
 62
     7
370
    18
100
AcDbLine
 10
393.6598548481
 20
126.9435024005
 30
0.0
 11
381.6598548481
 21
126.9435024005
 31
0.0
  0
SOLID
  5
11F
330
1F
100
AcDbEntity
  8
0
  6
Continuous
 62
     7
370
    18
100
AcDbTrace
 10
381.6598548481
 20
126.9435024005
 30
0.0
 11
387.6598548481
 21
125.4435024005
 31
0.0
 12
387.6598548481
 22
128.4435024005
 32
0.0
 13
387.6598548481
 23
128.4435024005
 33
0.0
  0
LINE
  5
120
330
1F
100
AcDbEntity
  8
0
  6
Continuous
 62
     7
370
    18
100
AcDbLine
 10
411.1743548481
 20
109.4290024005
 30
0.0
 11
399.1743548481
 21
109.4290024005
 31
0.0
  0
SOLID
  5
121
330
1F
100
AcDbEntity
  8
0
  6
Continuous
 62
     7
370
    18
100
AcDbTrace
 10
399.1743548481
 20
109.4290024005
 30
0.0
 11
405.1743548481
 21
107.9290024005
 31
0.0
 12
405.1743548481
 22
110.9290024005
 32
0.0
 13
405.1743548481
 23
110.9290024005
 33
0.0
  0
MTEXT
  5
122
330
1F
100
AcDbEntity
  8
0
  6
Continuous
 62
     7
100
AcDbMText
 10
390.5101255248
 20
133.5926753329
 30
0.0
 40
3.5
 41
0.0
 71
     1
 72
     1
  1
A
  7
SLDTEXTSTYLE0
 73
     1
 44
1.0
  0
MTEXT
  5
123
330
1F
100
AcDbEntity
  8
0
  6
Continuous
 62
     7
100
AcDbMText
 10
408.0246255248
 20
107.2148278141
 30
0.0
 40
3.5
 41
0.0
 71
     1
 72
     1
  1
A
  7
SLDTEXTSTYLE0
 73
     1
 44
1.0
  0
LINE
  5
124
330
1F
100
AcDbEntity
  8
VERMASSUNG
  6
CENTERX2
370
    18
100
AcDbLine
 10
394.2972714638
 20
111.5352524005
 30
0.0
 11
387.5283217228
 21
111.5352524005
 31
0.0
  0
LINE
  5
125
330
1F
100
AcDbEntity
  8
VERMASSUNG
  6
CENTERX2
370
    18
100
AcDbLine
 10
394.2966188446
 20
107.3227524005
 30
0.0
 11
387.5267642607
 21
107.3227524005
 31
0.0
  0
LINE
  5
126
330
1F
100
AcDbEntity
  8
VERMASSUNG
  6
CENTERX2
370
    18
100
AcDbLine
 10
374.8684047265
 20
107.3227524005
 30
0.0
 11
368.0994549855
 21
107.3227524005
 31
0.0
  0
LINE
  5
127
330
1F
100
AcDbEntity
  8
VERMASSUNG
  6
CENTERX2
370
    18
100
AcDbLine
 10
374.8696605743
 20
111.5352524005
 30
0.0
 11
368.0998059905
 21
111.5352524005
 31
0.0
  0
LINE
  5
128
330
1F
100
AcDbEntity
  8
0
  6
Continuous
 62
     7
370
    25
100
AcDbLine
 10
157.532078018
 20
77.9540024005
 30
0.0
 11
162.2978802134
 21
77.9540024005
 31
0.0
  0
ARC
  5
129
330
1F
100
AcDbEntity
  8
0
  6
Continuous
 62
     7
370
    25
100
AcDbCircle
 10
144.4978802134
 20
78.1540024005
 30
0.0
 40
0.2000000000000028
100
AcDbArc
 50
180.0
 51
270.0
  0
LINE
  5
12A
330
1F
100
AcDbEntity
  8
0
  6
Continuous
 62
     7
370
    25
100
AcDbLine
 10
144.4978802134
 20
77.9540024005
 30
0.0
 11
150.8636824089
 21
77.9540024005
 31
0.0
  0
LINE
  5
12B
330
1F
100
AcDbEntity
  8
0
  6
Continuous
 62
     7
370
    25
100
AcDbLine
 10
150.8636824089
 20
77.9540024005
 30
0.0
 11
152.3228802134
 21
80.4814071363
 31
0.0
  0
LINE
  5
12C
330
1F
100
AcDbEntity
  8
0
  6
Continuous
 62
     7
370
    25
100
AcDbLine
 10
156.0728802134
 20
80.4814071363
 30
0.0
 11
157.532078018
 21
77.9540024005
 31
0.0
  0
ARC
  5
12D
330
1F
100
AcDbEntity
  8
0
  6
Continuous
 62
     7
370
    25
100
AcDbCircle
 10
153.3228802134
 20
80.5790024005
 30
0.0
 40
1.000000000000028
100
AcDbArc
 50
90.0
 51
180.0
  0
ARC
  5
12E
330
1F
100
AcDbEntity
  8
0
  6
Continuous
 62
     7
370
    25
100
AcDbCircle
 10
155.0728802134
 20
80.5790024005
 30
0.0
 40
1.000000000000028
100
AcDbArc
 50
0.0
 51
90.0
  0
LINE
  5
12F
330
1F
100
AcDbEntity
  8
0
  6
Continuous
 62
     7
370
    25
100
AcDbLine
 10
153.3228802134
 20
81.5790024005
 30
0.0
 11
155.0728802134
 21
81.5790024005
 31
0.0
  0
ARC
  5
130
330
1F
100
AcDbEntity
  8
0
  6
Continuous
 62
     7
370
    25
100
AcDbCircle
 10
165.2978802134
 20
82.4290024005
 30
0.0
 40
3.0
100
AcDbArc
 50
90.0
 51
180.0
  0
ARC
  5
131
330
1F
100
AcDbEntity
  8
0
  6
Continuous
 62
     7
370
    25
100
AcDbCircle
 10
143.8689453389
 20
83.8790024005
 30
0.0
 40
0.8000000000000115
100
AcDbArc
 50
57.576802718
 51
107.5
  0
LINE
  5
132
330
1F
100
AcDbEntity
  8
0
  6
Continuous
 62
     7
370
    25
100
AcDbLine
 10
143.1376981734
 20
84.487264355
 30
0.0
 11
143.6283806993
 21
84.6419759611
 31
0.0
  0
LINE
  5
133
330
1F
100
AcDbEntity
  8
0
  6
Continuous
 62
     7
370
    25
100
AcDbLine
 10
129.8114347454
 20
85.1564818798
 30
0.0
 11
143.1376981734
 21
84.487264355
 31
0.0
  0
LINE
  5
134
330
1F
100
AcDbEntity
  8
0
  6
Continuous
 62
     7
370
    25
100
AcDbLine
 10
105.8478802134
 20
86.359882273
 30
0.0
 11
113.902717077
 21
85.955384942
 31
0.0
  0
LINE
  5
135
330
1F
100
AcDbEntity
  8
0
  6
Continuous
 62
     7
370
    25
100
AcDbLine
 10
165.2978802134
 20
85.4290024005
 30
0.0
 11
191.4308386904
 21
85.4290024005
 31
0.0
  0
LINE
  5
136
330
1F
100
AcDbEntity
  8
0
  6
Continuous
 62
     7
370
    25
100
AcDbLine
 10
191.4308386904
 20
85.4290024005
 30
0.0
 11
203.1431167369
 21
90.8905273481
 31
0.0
  0
LINE
  5
137
330
1F
100
AcDbEntity
  8
0
  6
Continuous
 62
     7
370
    25
100
AcDbLine
 10
104.3478802134
 20
87.2259076767
 30
0.0
 11
105.8478802134
 21
86.359882273
 31
0.0
  0
ARC
  5
138
330
1F
100
AcDbEntity
  8
0
  6
Continuous
 62
     7
370
    25
100
AcDbCircle
 10
202.2978802134
 20
92.7031429222
 30
0.0
 40
2.000000000000013
100
AcDbArc
 50
295.0
 51
0.0
  0
LINE
  5
139
330
1F
100
AcDbEntity
  8
0
  6
Continuous
 62
     7
370
    25
100
AcDbLine
 10
175.7978802134
 20
116.9290024005
 30
0.0
 11
173.7978802134
 21
118.9290024005
 31
0.0
  0
LINE
  5
13A
330
1F
100
AcDbEntity
  8
0
  6
Continuous
 62
     7
370
    25
100
AcDbLine
 10
173.7978802134
 20
118.9290024005
 30
0.0
 11
173.7978802134
 21
132.4290024005
 31
0.0
  0
LINE
  5
13B
330
1F
100
AcDbEntity
  8
0
  6
Continuous
 62
     7
370
    25
100
AcDbLine
 10
173.7978802134
 20
132.4290024005
 30
0.0
 11
174.7978802134
 21
133.4290024005
 31
0.0
  0
LINE
  5
13C
330
1F
100
AcDbEntity
  8
0
  6
Continuous
 62
     7
370
    25
100
AcDbLine
 10
174.7978802134
 20
133.4290024005
 30
0.0
 11
177.7946017716
 21
133.4290024005
 31
0.0
  0
LINE
  5
13D
330
1F
100
AcDbEntity
  8
0
  6
Continuous
 62
     7
370
    25
100
AcDbLine
 10
177.7946017716
 20
133.4290024005
 30
0.0
 11
177.7946017716
 21
125.4290024005
 31
0.0
  0
LINE
  5
13E
330
1F
100
AcDbEntity
  8
0
  6
Continuous
 62
     7
370
    25
100
AcDbLine
 10
183.8011586553
 20
125.4290024005
 30
0.0
 11
177.7946017716
 21
125.4290024005
 31
0.0
  0
LINE
  5
13F
330
1F
100
AcDbEntity
  8
0
  6
Continuous
 62
     7
370
    25
100
AcDbLine
 10
183.8011586553
 20
125.4290024005
 30
0.0
 11
183.8011586553
 21
133.4290024005
 31
0.0
  0
LINE
  5
140
330
1F
100
AcDbEntity
  8
0
  6
Continuous
 62
     7
370
    25
100
AcDbLine
 10
183.8011586553
 20
133.4290024005
 30
0.0
 11
186.7978802134
 21
133.4290024005
 31
0.0
  0
LINE
  5
141
330
1F
100
AcDbEntity
  8
0
  6
Continuous
 62
     7
370
    25
100
AcDbLine
 10
186.7978802134
 20
133.4290024005
 30
0.0
 11
187.7978802134
 21
132.4290024005
 31
0.0
  0
LINE
  5
142
330
1F
100
AcDbEntity
  8
0
  6
Continuous
 62
     7
370
    25
100
AcDbLine
 10
187.7978802134
 20
132.4290024005
 30
0.0
 11
187.7978802134
 21
118.9290024005
 31
0.0
  0
LINE
  5
143
330
1F
100
AcDbEntity
  8
0
  6
Continuous
 62
     7
370
    25
100
AcDbLine
 10
187.7978802134
 20
118.9290024005
 30
0.0
 11
185.7978802134
 21
116.9290024005
 31
0.0
  0
LINE
  5
144
330
1F
100
AcDbEntity
  8
0
  6
Continuous
 62
     7
370
    25
100
AcDbLine
 10
185.7978802134
 20
116.9290024005
 30
0.0
 11
184.5478802134
 21
116.9290024005
 31
0.0
  0
LINE
  5
145
330
1F
100
AcDbEntity
  8
0
  6
Continuous
 62
     7
370
    25
100
AcDbLine
 10
180.7978802134
 20
119.09406591
 30
0.0
 11
184.5478802134
 21
116.9290024005
 31
0.0
  0
LINE
  5
146
330
1F
100
AcDbEntity
  8
0
  6
Continuous
 62
     7
370
    25
100
AcDbLine
 10
177.0478802134
 20
116.9290024005
 30
0.0
 11
180.7978802134
 21
119.09406591
 31
0.0
  0
LINE
  5
147
330
1F
100
AcDbEntity
  8
0
  6
Continuous
 62
     7
370
    25
100
AcDbLine
 10
177.0478802134
 20
116.9290024005
 30
0.0
 11
175.7978802134
 21
116.9290024005
 31
0.0
  0
LINE
  5
148
330
1F
100
AcDbEntity
  8
0
  6
Continuous
 62
     7
370
    25
100
AcDbLine
 10
184.5478802134
 20
116.9290024005
 30
0.0
 11
177.0478802134
 21
116.9290024005
 31
0.0
  0
LINE
  5
149
330
1F
100
AcDbEntity
  8
0
  6
Continuous
 62
     7
370
    25
100
AcDbLine
 10
183.7136970615
 20
125.4290024005
 30
0.0
 11
183.7136970615
 21
133.4290024005
 31
0.0
  0
LINE
  5
14A
330
1F
100
AcDbEntity
  8
0
  6
Continuous
 62
     7
370
    25
100
AcDbLine
 10
183.7136970615
 20
133.4290024005
 30
0.0
 11
183.8011586553
 21
133.4290024005
 31
0.0
  0
LINE
  5
14B
330
1F
100
AcDbEntity
  8
0
  6
Continuous
 62
     7
370
    25
100
AcDbLine
 10
180.6360636357
 20
125.4290024005
 30
0.0
 11
180.6360636357
 21
133.4290024005
 31
0.0
  0
LINE
  5
14C
330
1F
100
AcDbEntity
  8
0
  6
Continuous
 62
     7
370
    25
100
AcDbLine
 10
180.6360636357
 20
133.4290024005
 30
0.0
 11
177.7946017716
 21
133.4290024005
 31
0.0
  0
LINE
  5
14D
330
1F
100
AcDbEntity
  8
0
  6
Continuous
 62
     7
370
    25
100
AcDbLine
 10
180.6360636357
 20
133.4290024005
 30
0.0
 11
183.7136970615
 21
133.4290024005
 31
0.0
  0
LINE
  5
14E
330
1F
100
AcDbEntity
  8
0
  6
Continuous
 62
     7
370
    25
100
AcDbLine
 10
157.532078018
 20
77.9540024005
 30
0.0
 11
157.532078018
 21
104.5392951209
 31
0.0
  0
SPLINE
  5
14F
330
1F
100
AcDbEntity
  8
0
  6
Continuous
 62
     7
370
    25
100
AcDbSpline
210
0.0
220
0.0
230
1.0
 70
     8
 71
     3
 72
    20
 73
    16
 74
     0
 42
0.000000001
 43
0.00000001
 40
0.0
 40
0.0
 40
0.0
 40
0.0
 40
0.1249999999999998
 40
0.1249999999999998
 40
0.2499999999999997
 40
0.2499999999999997
 40
0.3749999999999995
 40
0.3749999999999995
 40
0.4999999999999993
 40
0.4999999999999993
 40
0.7499999999999997
 40
0.7499999999999997
 40
0.8749999999999998
 40
0.8749999999999998
 40
1.0
 40
1.0
 40
1.0
 40
1.0
 10
161.0853802134498
 20
109.429002400537
 30
0.0
 10
161.0853802134499
 20
109.1623343130557
 30
0.0
 10
161.0633331844062
 20
108.8940221377817
 30
0.0
 10
160.9743271467013
 20
108.3611791025483
 30
0.0
 10
160.9084481785019
 20
108.1018888925624
 30
0.0
 10
160.7362732707947
 20
107.5967619265409
 30
0.0
 10
160.6295666998877
 20
107.3501817106197
 30
0.0
 10
160.3768897970115
 20
106.8737650598799
 30
0.0
 10
160.2334325328168
 20
106.6483449981151
 30
0.0
 10
159.7551103405363
 20
106.0077373165014
 30
0.0
 10
159.3670833575707
 20
105.6249716013983
 30
0.0
 10
158.7252787091253
 20
105.1490693532266
 30
0.0
 10
158.5004740814782
 20
105.0054737170749
 30
0.0
 10
158.029165023856
 20
104.7481423316844
 30
0.0
 10
157.783468423967
 20
104.6350899531625
 30
0.0
 10
157.5320780180199
 20
104.5392951208518
 30
0.0
  0
LINE
  5
150
330
1F
100
AcDbEntity
  8
0
  6
Continuous
 62
     7
370
    25
100
AcDbLine
 10
162.2978802134
 20
77.9540024005
 30
0.0
 11
162.2978802134
 21
109.4290024005
 31
0.0
  0
LINE
  5
151
330
1F
100
AcDbEntity
  8
0
  6
Continuous
 62
     7
370
    25
100
AcDbLine
 10
162.2978802134
 20
140.9040024005
 30
0.0
 11
157.532078018
 21
140.9040024005
 31
0.0
  0
LINE
  5
152
330
1F
100
AcDbEntity
  8
0
  6
Continuous
 62
     7
370
    25
100
AcDbLine
 10
144.2978802134
 20
78.1540024005
 30
0.0
 11
144.2978802134
 21
109.4290024005
 31
0.0
  0
LINE
  5
153
330
1F
100
AcDbEntity
  8
0
  6
Continuous
 62
     7
370
    25
100
AcDbLine
 10
144.2978802134
 20
109.4290024005
 30
0.0
 11
144.4978802134
 21
109.4290024005
 31
0.0
  0
ARC
  5
154
330
1F
100
AcDbEntity
  8
0
  6
Continuous
 62
     7
370
    25
100
AcDbCircle
 10
144.4978802134
 20
140.7040024005
 30
0.0
 40
0.2000000000000171
100
AcDbArc
 50
90.0
 51
180.0
  0
SPLINE
  5
155
330
1F
100
AcDbEntity
  8
0
  6
Continuous
 62
     7
370
    25
100
AcDbSpline
210
0.0
220
0.0
230
1.0
 70
     8
 71
     3
 72
    14
 73
    10
 74
     0
 42
0.000000001
 43
0.00000001
 40
0.0
 40
0.0
 40
0.0
 40
0.0
 40
0.2499999999999999
 40
0.2499999999999999
 40
0.4999999999999998
 40
0.4999999999999998
 40
0.7499999999999999
 40
0.7499999999999999
 40
1.0
 40
1.0
 40
1.0
 40
1.0
 10
150.8636824088798
 20
106.1341043150201
 30
0.0
 10
150.6668065233548
 20
106.3616008829493
 30
0.0
 10
150.4906982019653
 20
106.6031876580204
 30
0.0
 10
150.1809618081921
 20
107.1153448923945
 30
0.0
 10
150.0464038066985
 20
107.3888776955027
 30
0.0
 10
149.8311616539894
 20
107.9489828300401
 30
0.0
 10
149.7495184164704
 20
108.2359553254501
 30
0.0
 10
149.6389953942004
 20
108.8239943104944
 30
0.0
 10
149.6103802134498
 20
109.1284377662651
 30
0.0
 10
149.6103802134498
 20
109.4290024005368
 30
0.0
  0
LINE
  5
156
330
1F
100
AcDbEntity
  8
0
  6
Continuous
 62
     7
370
    25
100
AcDbLine
 10
150.8636824089
 20
77.9540024005
 30
0.0
 11
150.8636824089
 21
106.134104315
 31
0.0
  0
LINE
  5
157
330
1F
100
AcDbEntity
  8
0
  6
Continuous
 62
     7
370
    25
100
AcDbLine
 10
150.8636824089
 20
140.9040024005
 30
0.0
 11
144.4978802134
 21
140.9040024005
 31
0.0
  0
ARC
  5
158
330
1F
100
AcDbEntity
  8
0
  6
Continuous
 62
     7
370
    25
100
AcDbCircle
 10
155.3478802134
 20
109.4290024005
 30
0.0
 40
3.737500000000011
100
AcDbArc
 50
180.0
 51
206.113804444
  0
SPLINE
  5
159
330
1F
100
AcDbEntity
  8
0
  6
Continuous
 62
     7
370
    25
100
AcDbSpline
210
0.0
220
0.0
230
1.0
 70
     8
 71
     3
 72
    10
 73
     6
 74
     0
 42
0.000000001
 43
0.00000001
 40
0.0
 40
0.0
 40
0.0
 40
0.0
 40
0.5
 40
0.5
 40
1.0
 40
1.0
 40
1.0
 40
1.0
 10
151.9918984059966
 20
107.7839211387012
 30
0.0
 10
151.8150132595732
 20
107.4854708233447
 30
0.0
 10
151.6294638846958
 20
107.2064781192172
 30
0.0
 10
151.2515149446482
 20
106.6611588250915
 30
0.0
 10
151.058728402469
 20
106.3958234392701
 30
0.0
 10
150.8636824088797
 20
106.1341043150201
 30
0.0
  0
SPLINE
  5
15A
330
1F
100
AcDbEntity
  8
0
  6
Continuous
 62
     7
370
    25
100
AcDbSpline
210
0.0
220
0.0
230
1.0
 70
     8
 71
     3
 72
     8
 73
     4
 74
     0
 42
0.000000001
 43
0.00000001
 40
0.0
 40
0.0
 40
0.0
 40
0.0
 40
1.0
 40
1.0
 40
1.0
 40
1.0
 10
157.5320780180195
 20
104.5392951208506
 30
0.0
 10
157.1836766133392
 20
104.9772704472646
 30
0.0
 10
156.8391082281063
 20
105.4203535858494
 30
0.0
 10
156.5007239287855
 20
105.8737446576979
 30
0.0
  0
ARC
  5
15B
330
1F
100
AcDbEntity
  8
0
  6
Continuous
 62
     7
370
    25
100
AcDbCircle
 10
155.3478802134
 20
109.4290024005
 30
0.0
 40
3.737500000000011
100
AcDbArc
 50
287.9660359156
 51
0.0
  0
SPLINE
  5
15C
330
1F
100
AcDbEntity
  8
0
  6
Continuous
 62
     7
370
    25
100
AcDbSpline
210
0.0
220
0.0
230
1.0
 70
     8
 71
     3
 72
     8
 73
     4
 74
     0
 42
0.000000001
 43
0.00000001
 40
0.0
 40
0.0
 40
0.0
 40
0.0
 40
1.0
 40
1.0
 40
1.0
 40
1.0
 10
152.3228802134499
 20
107.2339440300145
 30
0.0
 10
152.2045834540199
 20
107.3969682584729
 30
0.0
 10
152.0931549718485
 20
107.5773567574954
 30
0.0
 10
151.9918984059966
 20
107.7839211387012
 30
0.0
  0
LINE
  5
15D
330
1F
100
AcDbEntity
  8
0
  6
Continuous
 62
     7
370
    25
100
AcDbLine
 10
152.3228802134
 20
80.4814071363
 30
0.0
 11
152.3228802134
 21
107.23394403
 31
0.0
  0
SPLINE
  5
15E
330
1F
100
AcDbEntity
  8
0
  6
Continuous
 62
     7
370
    25
100
AcDbSpline
210
0.0
220
0.0
230
1.0
 70
     8
 71
     3
 72
     8
 73
     4
 74
     0
 42
0.000000001
 43
0.00000001
 40
0.0
 40
0.0
 40
0.0
 40
0.0
 40
1.0
 40
1.0
 40
1.0
 40
1.0
 10
156.5007239287858
 20
105.8737446576988
 30
0.0
 10
156.359185840504
 20
105.8278488866017
 30
0.0
 10
156.2165753717671
 20
105.7909080356644
 30
0.0
 10
156.0728802134501
 20
105.7624943547238
 30
0.0
  0
LINE
  5
15F
330
1F
100
AcDbEntity
  8
0
  6
Continuous
 62
     7
370
    25
100
AcDbLine
 10
156.0728802134
 20
80.4814071363
 30
0.0
 11
156.0728802134
 21
105.7624943547
 31
0.0
  0
SPLINE
  5
160
330
1F
100
AcDbEntity
  8
0
  6
Continuous
 62
     7
370
    25
100
AcDbSpline
210
0.0
220
0.0
230
1.0
 70
     8
 71
     3
 72
    14
 73
    10
 74
     0
 42
0.000000001
 43
0.00000001
 40
0.0
 40
0.0
 40
0.0
 40
0.0
 40
0.25
 40
0.25
 40
0.5
 40
0.5
 40
0.75
 40
0.75
 40
1.0
 40
1.0
 40
1.0
 40
1.0
 10
153.3228802134499
 20
106.2876203400418
 30
0.0
 10
153.1885321270934
 20
106.3742239016694
 30
0.0
 10
153.0653554532374
 20
106.4656922989928
 30
0.0
 10
152.8366088483194
 20
106.6568836856237
 30
0.0
 10
152.7346868843522
 20
106.7537455377646
 30
0.0
 10
152.5552634819235
 20
106.9416201525
 30
0.0
 10
152.4788221937407
 20
107.0318555038512
 30
0.0
 10
152.3615322208906
 20
107.1796618678286
 30
0.0
 10
152.3228802134498
 20
107.2339440300146
 30
0.0
 10
152.3228802134498
 20
107.2339440300146
 30
0.0
  0
SPLINE
  5
161
330
1F
100
AcDbEntity
  8
0
  6
Continuous
 62
     7
370
    25
100
AcDbSpline
210
0.0
220
0.0
230
1.0
 70
     8
 71
     3
 72
    14
 73
    10
 74
     0
 42
0.000000001
 43
0.00000001
 40
0.0
 40
0.0
 40
0.0
 40
0.0
 40
0.25
 40
0.25
 40
0.5
 40
0.5
 40
0.75
 40
0.75
 40
1.0
 40
1.0
 40
1.0
 40
1.0
 10
156.07288021345
 20
105.7624943547243
 30
0.0
 10
156.0728802134501
 20
105.7624943547244
 30
0.0
 10
156.046963690879
 20
105.757117623736
 30
0.0
 10
155.9475188443015
 20
105.7395730361355
 30
0.0
 10
155.8752204518892
 20
105.7277236324892
 30
0.0
 10
155.6905165573654
 20
105.7060798144889
 30
0.0
 10
155.5809392954894
 20
105.6967905538046
 30
0.0
 10
155.3376091172713
 20
105.6895350174469
 30
0.0
 10
155.2060728583511
 20
105.6918064236063
 30
0.0
 10
155.0728802134499
 20
105.7016331875395
 30
0.0
  0
SPLINE
  5
162
330
1F
100
AcDbEntity
  8
0
  6
Continuous
 62
     7
370
    25
100
AcDbSpline
210
0.0
220
0.0
230
1.0
 70
     8
 71
     3
 72
    10
 73
     6
 74
     0
 42
0.000000001
 43
0.00000001
 40
0.0
 40
0.0
 40
0.0
 40
0.0
 40
0.5
 40
0.5
 40
1.0
 40
1.0
 40
1.0
 40
1.0
 10
155.0728802134498
 20
105.7016331875396
 30
0.0
 10
154.7604163111617
 20
105.7246863299086
 30
0.0
 10
154.457527329164
 20
105.785921032315
 30
0.0
 10
153.8701841443599
 20
105.9820929962389
 30
0.0
 10
153.585716483788
 20
106.1181906313388
 30
0.0
 10
153.3228802134499
 20
106.2876203400418
 30
0.0
  0
ARC
  5
163
330
1F
100
AcDbEntity
  8
0
  6
Continuous
 62
     7
370
    25
100
AcDbCircle
 10
165.2978802134
 20
136.4290024005
 30
0.0
 40
3.000000000000028
100
AcDbArc
 50
180.0
 51
270.0
  0
LINE
  5
164
330
1F
100
AcDbEntity
  8
0
  6
Continuous
 62
     7
370
    25
100
AcDbLine
 10
144.2978802134
 20
136.2790024005
 30
0.0
 11
144.6319188995
 21
135.2195670401
 31
0.0
  0
LINE
  5
165
330
1F
100
AcDbEntity
  8
0
  6
Continuous
 62
     7
370
    25
100
AcDbLine
 10
144.2978802134
 20
136.2790024005
 30
0.0
 11
144.2978802134
 21
134.3037136672
 31
0.0
  0
ARC
  5
166
330
1F
100
AcDbEntity
  8
0
  6
Continuous
 62
     7
370
    25
100
AcDbCircle
 10
143.8689453389
 20
134.9790024005
 30
0.0
 40
0.7999999999999996
100
AcDbArc
 50
252.5
 51
17.5
  0
LINE
  5
167
330
1F
100
AcDbEntity
  8
0
  6
Continuous
 62
     7
370
    25
100
AcDbLine
 10
143.1376981734
 20
84.487264355
 30
0.0
 11
143.1376981734
 21
109.4290024005
 31
0.0
  0
LINE
  5
168
330
1F
100
AcDbEntity
  8
0
  6
Continuous
 62
     7
370
    25
100
AcDbLine
 10
143.6283806993
 20
134.2160288399
 30
0.0
 11
143.1376981734
 21
134.3707404461
 31
0.0
  0
SPLINE
  5
169
330
1F
100
AcDbEntity
  8
0
  6
Continuous
 62
     7
370
    25
100
AcDbSpline
210
0.0
220
0.0
230
1.0
 70
     8
 71
     3
 72
    23
 73
    19
 74
     0
 42
0.000000001
 43
0.00000001
 40
0.0
 40
0.0
 40
0.0
 40
0.0
 40
0.001446538067688
 40
0.0696020615250829
 40
0.1372543686877746
 40
0.2039589927303578
 40
0.2702907462898648
 40
0.336548158748303
 40
0.4028600427874645
 40
0.4678618153390194
 40
0.5326346827483702
 40
0.5993540732925736
 40
0.665518444110059
 40
0.7321132013640551
 40
0.7988840361125071
 40
0.866334810533243
 40
0.9345219374316793
 40
1.0
 40
1.0
 40
1.0
 40
1.0
 10
114.0577042777546
 20
132.8532605885517
 30
0.0
 10
114.0588485605178
 20
132.8529075663488
 30
0.0
 10
114.1139072147398
 20
132.8359214436677
 30
0.0
 10
114.5103118536805
 20
132.7186600023532
 30
0.0
 10
115.2263508683526
 20
132.5180554703589
 30
0.0
 10
116.2360355035368
 20
132.2774389899965
 30
0.0
 10
117.452012360569
 20
132.0501671113033
 30
0.0
 10
118.8562126642005
 20
131.8777775008191
 30
0.0
 10
120.373276688498
 20
131.7897092198932
 30
0.0
 10
121.9475745524292
 20
131.8207568746531
 30
0.0
 10
123.5133947746736
 20
131.9717801154658
 30
0.0
 10
125.0032518452304
 20
132.226116913735
 30
0.0
 10
126.3749320372921
 20
132.5438536924727
 30
0.0
 10
127.5608551310859
 20
132.8877701125852
 30
0.0
 10
128.5384544750739
 20
133.2156127128997
 30
0.0
 10
129.2579656266698
 20
133.4845371423818
 30
0.0
 10
129.7306006283708
 20
133.667126478004
 30
0.0
 10
129.7880717427241
 20
133.6903748705887
 30
0.0
 10
129.8162249008988
 20
133.7017634730389
 30
0.0
  0
LINE
  5
16A
330
1F
100
AcDbEntity
  8
0
  6
Continuous
 62
     7
370
    25
100
AcDbLine
 10
113.8983143282
 20
132.9023987621
 30
0.0
 11
105.8478802134
 21
132.4981225281
 31
0.0
  0
LINE
  5
16B
330
1F
100
AcDbEntity
  8
0
  6
Continuous
 62
     7
370
    25
100
AcDbLine
 10
105.8478802134
 20
86.359882273
 30
0.0
 11
105.8478802134
 21
100.306879366
 31
0.0
  0
SPLINE
  5
16C
330
1F
100
AcDbEntity
  8
0
  6
Continuous
 62
     7
370
    25
100
AcDbSpline
210
0.0
220
0.0
230
1.0
 70
     8
 71
     3
 72
     8
 73
     4
 74
     0
 42
0.000000001
 43
0.00000001
 40
0.0
 40
0.0
 40
0.0
 40
0.0
 40
1.0
 40
1.0
 40
1.0
 40
1.0
 10
111.6660546663968
 20
100.3114654242335
 30
0.0
 10
109.7266631820854
 20
100.3093193283839
 30
0.0
 10
107.787271697774
 20
100.3077231418592
 30
0.0
 10
105.8478802134626
 20
100.3066756893835
 30
0.0
  0
SPLINE
  5
16D
330
1F
100
AcDbEntity
  8
0
  6
Continuous
 62
     7
370
    25
100
AcDbSpline
210
0.0
220
0.0
230
1.0
 70
     8
 71
     3
 72
    13
 73
     9
 74
     0
 42
0.000000001
 43
0.00000001
 40
0.0
 40
0.0
 40
0.0
 40
0.0
 40
0.1686717431976176
 40
0.3360976438050112
 40
0.5026076259545951
 40
0.6685363120001365
 40
0.8342210747535599
 40
1.0
 40
1.0
 40
1.0
 40
1.0
 10
112.7495497158638
 20
100.4489218700512
 30
0.0
 10
112.6900459991994
 20
100.4344029673297
 30
0.0
 10
112.5714780719968
 20
100.405472401351
 30
0.0
 10
112.3915764266368
 20
100.3715026424885
 30
0.0
 10
112.2111777539273
 20
100.3446340552517
 30
0.0
 10
112.0300737893468
 20
100.325677530295
 30
0.0
 10
111.848337689032
 20
100.3137543116148
 30
0.0
 10
111.7268271802123
 20
100.3122285311756
 30
0.0
 10
111.6660546663968
 20
100.3114654242335
 30
0.0
  0
SPLINE
  5
16E
330
1F
100
AcDbEntity
  8
0
  6
Continuous
 62
     7
370
    25
100
AcDbSpline
210
0.0
220
0.0
230
1.0
 70
     8
 71
     3
 72
     8
 73
     4
 74
     0
 42
0.000000001
 43
0.00000001
 40
0.0
 40
0.0
 40
0.0
 40
0.0
 40
1.0
 40
1.0
 40
1.0
 40
1.0
 10
118.1417431323567
 20
100.4531599119366
 30
0.0
 10
116.3443484609189
 20
100.4512888514126
 30
0.0
 10
114.546953789481
 20
100.4498666703885
 30
0.0
 10
112.7495591180432
 20
100.4488925473925
 30
0.0
  0
SPLINE
  5
16F
330
1F
100
AcDbEntity
  8
0
  6
Continuous
 62
     7
370
    25
100
AcDbSpline
210
0.0
220
0.0
230
1.0
 70
     8
 71
     3
 72
    18
 73
    14
 74
     0
 42
0.000000001
 43
0.00000001
 40
0.0
 40
0.0
 40
0.0
 40
0.0
 40
0.0923146492083614
 40
0.1843375917871727
 40
0.2763048505572403
 40
0.3684522564592561
 40
0.4610136522432117
 40
0.5542191634081761
 40
0.648293598500629
 40
0.743455030187018
 40
0.8399135943669072
 40
0.9201663187095083
 40
1.0
 40
1.0
 40
1.0
 40
1.0
 10
120.338064780959
 20
99.91896767609296
 30
0.0
 10
120.2677479484732
 20
99.91937836225921
 30
0.0
 10
120.1273364788563
 20
99.92019843685752
 30
0.0
 10
119.9170038437988
 20
99.93379503150966
 30
0.0
 10
119.7075801486407
 20
99.956453438944
 30
0.0
 10
119.49904041672
 20
99.98905026602772
 30
0.0
 10
119.2913967390479
 20
100.0313530012122
 30
0.0
 10
119.0846484868184
 20
100.083428921522
 30
0.0
 10
118.8788063054923
 20
100.1452864239122
 30
0.0
 10
118.6738445697591
 20
100.2168975187017
 30
0.0
 10
118.482340457906
 20
100.2934861134453
 30
0.0
 10
118.3046038408263
 20
100.3721029531581
 30
0.0
 10
118.1962698642508
 20
100.4260171464014
 30
0.0
 10
118.1422446637682
 20
100.4529036799794
 30
0.0
  0
LINE
  5
170
330
1F
100
AcDbEntity
  8
0
  6
Continuous
 62
     7
370
    25
100
AcDbLine
 10
122.2529380602
 20
99.920463111
 30
0.0
 11
120.338064781
 21
99.9189676761
 31
0.0
  0
SPLINE
  5
171
330
1F
100
AcDbEntity
  8
0
  6
Continuous
 62
     7
370
    25
100
AcDbSpline
210
0.0
220
0.0
230
1.0
 70
     8
 71
     3
 72
    25
 73
    21
 74
     0
 42
0.000000001
 43
0.00000001
 40
0.0
 40
0.0
 40
0.0
 40
0.0
 40
0.0280056024284644
 40
0.0559514328341146
 40
0.0838901607635225
 40
0.1118745076903239
 40
0.1399569498903393
 40
0.168189428271326
 40
0.1966230730098432
 40
0.2253079499151899
 40
0.2542928341276564
 40
0.3799484016843204
 40
0.505784488750134
 40
0.6313077644946906
 40
0.7532057173413932
 40
0.8039627394917982
 40
0.8536129947754353
 40
0.9025574087112554
 40
0.951212440738308
 40
1.0
 40
1.0
 40
1.0
 40
1.0
 10
127.1928223666513
 20
105.0543269154683
 30
0.0
 10
127.1928649217775
 20
104.9797197572606
 30
0.0
 10
127.1929499412051
 20
104.830664674012
 30
0.0
 10
127.1805448844688
 20
104.6080750938865
 30
0.0
 10
127.1589478299174
 20
104.3867695792943
 30
0.0
 10
127.1272659220831
 20
104.1668105903516
 30
0.0
 10
127.0857395539107
 20
103.9482200360509
 30
0.0
 10
127.0343047246893
 20
103.731028355343
 30
0.0
 10
126.9729830202741
 20
103.5152677660061
 30
0.0
 10
126.9017608441643
 20
103.3009494460142
 30
0.0
 10
126.7309150048883
 20
102.8525776961052
 30
0.0
 10
126.3931785554555
 20
102.1992338893462
 30
0.0
 10
125.7816228479993
 20
101.4273415816779
 30
0.0
 10
125.0453894329551
 20
100.7831795705132
 30
0.0
 10
124.3588614119619
 20
100.3915233351746
 30
0.0
 10
123.810098609031
 20
100.1727990927503
 30
0.0
 10
123.4280030235848
 20
100.0569124886564
 30
0.0
 10
123.0408363247687
 20
99.97600268106774
 30
0.0
 10
122.6486679963325
 20
99.92679596022793
 30
0.0
 10
122.3849675879187
 20
99.92257597384828
 30
0.0
 10
122.2529380602484
 20
99.92046311095272
 30
0.0
  0
LINE
  5
172
330
1F
100
AcDbEntity
  8
0
  6
Continuous
 62
     7
370
    25
100
AcDbLine
 10
127.1928223667
 20
109.4290024005
 30
0.0
 11
127.1928223667
 21
105.0543269155
 31
0.0
  0
LINE
  5
173
330
1F
100
AcDbEntity
  8
0
  6
Continuous
 62
     7
370
    25
100
AcDbLine
 10
143.1376981734
 20
134.3707404461
 30
0.0
 11
129.8162249009
 21
133.701763473
 31
0.0
  0
SPLINE
  5
174
330
1F
100
AcDbEntity
  8
0
  6
Continuous
 62
     7
370
    25
100
AcDbSpline
210
0.0
220
0.0
230
1.0
 70
     8
 71
     3
 72
    20
 73
    16
 74
     0
 42
0.000000001
 43
0.00000001
 40
0.0
 40
0.0
 40
0.0
 40
0.0
 40
0.0829621378684852
 40
0.1658495135106163
 40
0.2487180070857355
 40
0.3299477216398521
 40
0.4108693994445732
 40
0.4941953814850558
 40
0.5768901676626222
 40
0.6601065810557772
 40
0.7435845489350849
 40
0.8279858465401881
 40
0.9132590745392877
 40
0.9972257035811797
 40
1.0
 40
1.0
 40
1.0
 40
1.0
 10
116.2102963081768
 20
86.56574203303002
 30
0.0
 10
116.5960421442481
 20
86.64266045963417
 30
0.0
 10
117.3671861973653
 20
86.79642799697176
 30
0.0
 10
118.7749343485351
 20
86.97234321835728
 30
0.0
 10
120.2827857164097
 20
87.06633950568632
 30
0.0
 10
121.8552746914276
 20
87.04249512381975
 30
0.0
 10
123.4225717226397
 20
86.89859007891913
 30
0.0
 10
124.9183477494212
 20
86.6495324761201
 30
0.0
 10
126.2986016250939
 20
86.33485178358147
 30
0.0
 10
127.4961958081495
 20
85.99059043160092
 30
0.0
 10
128.4830578379717
 20
85.6615432057812
 30
0.0
 10
129.2302960841697
 20
85.38308229757341
 30
0.0
 10
129.6774975135353
 20
85.21122650254189
 30
0.0
 10
129.8642521256853
 20
85.13737583094321
 30
0.0
 10
129.8131539117871
 20
85.15752712201649
 30
0.0
 10
129.811519601442
 20
85.15817163502302
 30
0.0
  0
SPLINE
  5
175
330
1F
100
AcDbEntity
  8
0
  6
Continuous
 62
     7
370
    25
100
AcDbSpline
210
0.0
220
0.0
230
1.0
 70
     8
 71
     3
 72
    11
 73
     7
 74
     0
 42
0.000000001
 43
0.00000001
 40
0.0
 40
0.0
 40
0.0
 40
0.0
 40
0.2435512231731388
 40
0.4981153923403536
 40
0.7509097881719451
 40
1.0
 40
1.0
 40
1.0
 40
1.0
 10
113.9028021904332
 20
85.95707982364691
 30
0.0
 10
113.9287531119585
 20
85.96531536018506
 30
0.0
 10
113.9818284087636
 20
85.98215882933455
 30
0.0
 10
114.4595233924261
 20
86.12306027147206
 30
0.0
 10
115.1708628406929
 20
86.32835082192027
 30
0.0
 10
115.8655274878676
 20
86.48700194011747
 30
0.0
 10
116.2102963081768
 20
86.56574203303002
 30
0.0
  0
LINE
  5
176
330
1F
100
AcDbEntity
  8
0
  6
Continuous
 62
     7
370
    25
100
AcDbLine
 10
127.1928223667
 20
105.0543269155
 30
0.0
 11
126.2978802134
 21
105.2165024005
 31
0.0
  0
LINE
  5
177
330
1F
100
AcDbEntity
  8
0
  6
Continuous
 62
     7
370
    25
100
AcDbLine
 10
126.2978802134
 20
105.2165024005
 30
0.0
 11
126.2978802134
 21
109.4290024005
 31
0.0
  0
SPLINE
  5
178
330
1F
100
AcDbEntity
  8
0
  6
Continuous
 62
     7
370
    25
100
AcDbSpline
210
0.0
220
0.0
230
1.0
 70
     8
 71
     3
 72
    10
 73
     6
 74
     0
 42
0.000000001
 43
0.00000001
 40
0.0
 40
0.0
 40
0.0
 40
0.0
 40
0.4224590728911322
 40
0.8503716470871803
 40
1.0
 40
1.0
 40
1.0
 40
1.0
 10
173.7978802683062
 20
133.4290024005368
 30
0.0
 10
173.8268360947542
 20
133.4200446267907
 30
0.0
 10
173.8851215368467
 20
133.402013443882
 30
0.0
 10
174.1847972312817
 20
133.3082006363537
 30
0.0
 10
174.4898467591958
 20
133.2222647928494
 30
0.0
 10
174.5688784888554
 20
133.2000006759423
 30
0.0
  0
SPLINE
  5
179
330
1F
100
AcDbEntity
  8
0
  6
Continuous
 62
     7
370
    25
100
AcDbSpline
210
0.0
220
0.0
230
1.0
 70
     8
 71
     3
 72
    11
 73
     7
 74
     0
 42
0.000000001
 43
0.00000001
 40
0.0
 40
0.0
 40
0.0
 40
0.0
 40
0.1502677776986611
 40
0.5770707111586026
 40
0.9997016235529016
 40
1.0
 40
1.0
 40
1.0
 40
1.0
 10
187.0272098982044
 20
133.1996727157823
 30
0.0
 10
187.1068928512367
 20
133.2221113809009
 30
0.0
 10
187.412897898212
 20
133.3082821930057
 30
0.0
 10
187.6967790359619
 20
133.3975983824091
 30
0.0
 10
187.7979456240756
 20
133.4289960400832
 30
0.0
 10
187.7978800242859
 20
133.4290023960527
 30
0.0
 10
187.7978799780053
 20
133.4290024005368
 30
0.0
  0
LINE
  5
17A
330
1F
100
AcDbEntity
  8
0
  6
Continuous
 62
     7
370
    25
100
AcDbLine
 10
173.7978802683
 20
133.4290024005
 30
0.0
 11
165.2978802134
 21
133.4290024005
 31
0.0
  0
LINE
  5
17B
330
1F
100
AcDbEntity
  8
0
  6
Continuous
 62
     7
370
    25
100
AcDbLine
 10
191.4308386904
 20
85.4290024005
 30
0.0
 11
191.4308386904
 21
109.4290024005
 31
0.0
  0
LINE
  5
17C
330
1F
100
AcDbEntity
  8
0
  6
Continuous
 62
     7
370
    25
100
AcDbLine
 10
191.4308386904
 20
133.4290024005
 30
0.0
 11
187.797879978
 21
133.4290024005
 31
0.0
  0
LINE
  5
17D
330
1F
100
AcDbEntity
  8
0
  6
Continuous
 62
     7
370
    25
100
AcDbLine
 10
203.1431167369
 20
127.967477453
 30
0.0
 11
191.4308386904
 21
133.4290024005
 31
0.0
  0
SPLINE
  5
17E
330
1F
100
AcDbEntity
  8
0
  6
Continuous
 62
     7
370
    25
100
AcDbSpline
210
0.0
220
0.0
230
1.0
 70
     8
 71
     3
 72
    25
 73
    21
 74
     0
 42
0.000000001
 43
0.00000001
 40
0.0
 40
0.0
 40
0.0
 40
0.0
 40
0.0288760384329379
 40
0.0583531183810567
 40
0.0884515256371788
 40
0.1191903155241519
 40
0.1505873770396599
 40
0.1826594973263453
 40
0.2154224255071077
 40
0.2488909351380524
 40
0.3610595498818108
 40
0.4984670937677609
 40
0.5822694576837939
 40
0.6661128179769302
 40
0.749997333930102
 40
0.8007710075450265
 40
0.851123794024394
 40
0.9010896183583234
 40
0.9507031993392587
 40
1.0
 40
1.0
 40
1.0
 40
1.0
 10
122.2978802134499
 20
101.2165024005369
 30
0.0
 10
122.3606675228066
 20
101.2173585303091
 30
0.0
 10
122.4875490306087
 20
101.2190886098026
 30
0.0
 10
122.6788755447571
 20
101.2332337462446
 30
0.0
 10
122.8727640274723
 20
101.2563651665054
 30
0.0
 10
123.068659923522
 20
101.2897710952207
 30
0.0
 10
123.2660040439465
 20
101.3336418363576
 30
0.0
 10
123.46417471713
 20
101.3884378485743
 30
0.0
 10
123.6625180504108
 20
101.4545130545299
 30
0.0
 10
124.013860705646
 20
101.5925009020859
 30
0.0
 10
124.5389841977132
 20
101.872559072594
 30
0.0
 10
125.0759759625494
 20
102.3111496485509
 30
0.0
 10
125.4880357036936
 20
102.7850097747129
 30
0.0
 10
125.774954289281
 20
103.2166935215083
 30
0.0
 10
125.9733809770972
 20
103.6198167635215
 30
0.0
 10
126.1054668510476
 20
103.9775529242598
 30
0.0
 10
126.1911007308667
 20
104.280305326551
 30
0.0
 10
126.2521829422141
 20
104.5887936367943
 30
0.0
 10
126.2906838855811
 20
104.9011053469514
 30
0.0
 10
126.2954865646744
 20
105.1115947608527
 30
0.0
 10
126.2978802134499
 20
105.2165024005369
 30
0.0
  0
SPLINE
  5
17F
330
1F
100
AcDbEntity
  8
0
  6
Continuous
 62
     7
370
    25
100
AcDbSpline
210
0.0
220
0.0
230
1.0
 70
     8
 71
     3
 72
    13
 73
     9
 74
     0
 42
0.000000001
 43
0.00000001
 40
0.0
 40
0.0
 40
0.0
 40
0.0
 40
0.1722808990514524
 40
0.3421751864020586
 40
0.509785360909649
 40
0.6752181678258066
 40
0.8385846213654179
 40
1.0
 40
1.0
 40
1.0
 40
1.0
 10
119.2978985823601
 20
101.3664972232867
 30
0.0
 10
119.3587698291175
 20
101.3502315068526
 30
0.0
 10
119.4796690716942
 20
101.3179254033701
 30
0.0
 10
119.6627448459394
 20
101.2805363240525
 30
0.0
 10
119.844852643282
 20
101.251404491824
 30
0.0
 10
120.025789485474
 20
101.231220173596
 30
0.0
 10
120.2051140739511
 20
101.218775848885
 30
0.0
 10
120.323947271232
 20
101.2172571755906
 30
0.0
 10
120.3830069341604
 20
101.2165024005369
 30
0.0
  0
LINE
  5
180
330
1F
100
AcDbEntity
  8
0
  6
Continuous
 62
     7
370
    25
100
AcDbLine
 10
120.338064781
 20
99.9189676761
 30
0.0
 11
120.3830069342
 21
101.2165024005
 31
0.0
  0
SPLINE
  5
181
330
1F
100
AcDbEntity
  8
0
  6
Continuous
 62
     7
370
    25
100
AcDbSpline
210
0.0
220
0.0
230
1.0
 70
     8
 71
     3
 72
    11
 73
     7
 74
     0
 42
0.000000001
 43
0.00000001
 40
0.0
 40
0.0
 40
0.0
 40
0.0
 40
0.2392771050480589
 40
0.5001130256950088
 40
0.7515027953458615
 40
1.0
 40
1.0
 40
1.0
 40
1.0
 10
118.9703795257269
 20
101.3670471491197
 30
0.0
 10
118.901560733468
 20
101.2955005424878
 30
0.0
 10
118.7577225905987
 20
101.1459609953854
 30
0.0
 10
118.5499824967278
 20
100.9170494286976
 30
0.0
 10
118.3419989178205
 20
100.6847344294549
 30
0.0
 10
118.2090023258954
 20
100.5299635325958
 30
0.0
 10
118.1428888182013
 20
100.4530258702676
 30
0.0
  0
SPLINE
  5
182
330
1F
100
AcDbEntity
  8
0
  6
Continuous
 62
     7
370
    25
100
AcDbSpline
210
0.0
220
0.0
230
1.0
 70
    24
 71
     3
 72
     9
 73
     5
 74
     0
 42
0.000000001
 43
0.00000001
 40
0.0
 40
0.0
 40
0.0
 40
0.0
 40
0.5090957280101628
 40
1.0
 40
1.0
 40
1.0
 40
1.0
 10
118.9725522105403
 20
101.3665024005368
 30
0.0
 10
119.0273009402863
 20
101.3665024005368
 30
0.0
 10
119.1348420700458
 20
101.3665024005368
 30
0.0
 10
119.2442642153325
 20
101.3665024005368
 30
0.0
 10
119.297980013904
 20
101.3665024005368
 30
0.0
  0
LINE
  5
183
330
1F
100
AcDbEntity
  8
0
  6
Continuous
 62
     7
370
    25
100
AcDbLine
 10
112.724030125
 20
101.3464506268
 30
0.0
 11
112.7494446166
 21
100.4488924561
 31
0.0
  0
SPLINE
  5
184
330
1F
100
AcDbEntity
  8
0
  6
Continuous
 62
     7
370
    25
100
AcDbSpline
210
0.0
220
0.0
230
1.0
 70
     8
 71
     3
 72
     8
 73
     4
 74
     0
 42
0.000000001
 43
0.00000001
 40
0.0
 40
0.0
 40
0.0
 40
0.0
 40
1.0
 40
1.0
 40
1.0
 40
1.0
 10
112.7240413161782
 20
101.3464511168761
 30
0.0
 10
112.7458441726602
 20
101.3521484479088
 30
0.0
 10
112.7675988820577
 20
101.3580300307038
 30
0.0
 10
112.7893023373757
 20
101.3640950252568
 30
0.0
  0
LINE
  5
185
330
1F
100
AcDbEntity
  8
0
  6
Continuous
 62
     7
370
    25
100
AcDbLine
 10
112.7978802135
 20
101.3665024005
 30
0.0
 11
118.971467374
 21
101.3665024005
 31
0.0
  0
LINE
  5
186
330
1F
100
AcDbEntity
  8
0
  6
Continuous
 62
     7
370
    25
100
AcDbLine
 10
120.3830069342
 20
101.2165024005
 30
0.0
 11
122.2978802134
 21
101.2165024005
 31
0.0
  0
SPLINE
  5
187
330
1F
100
AcDbEntity
  8
0
  6
Continuous
 62
     7
370
    25
100
AcDbSpline
210
0.0
220
0.0
230
1.0
 70
     8
 71
     3
 72
    13
 73
     9
 74
     0
 42
0.000000001
 43
0.00000001
 40
0.0
 40
0.0
 40
0.0
 40
0.0
 40
0.1620909846084687
 40
0.3259283018516087
 40
0.4915764692959173
 40
0.6590979120738922
 40
0.8285529848497148
 40
1.0
 40
1.0
 40
1.0
 40
1.0
 10
111.7127534927393
 20
101.2165024005369
 30
0.0
 10
111.7683052380889
 20
101.2171712906088
 30
0.0
 10
111.88000723108
 20
101.2185162772273
 30
0.0
 10
112.0478491803795
 20
101.2294619249734
 30
0.0
 10
112.2166337544185
 20
101.2470999661778
 30
0.0
 10
112.3859601196726
 20
101.2724050749606
 30
0.0
 10
112.5557125562401
 20
101.3047096086501
 30
0.0
 10
112.6677104611425
 20
101.3324823698986
 30
0.0
 10
112.7240366239285
 20
101.3464498907417
 30
0.0
  0
LINE
  5
188
330
1F
100
AcDbEntity
  8
0
  6
Continuous
 62
     7
370
    25
100
AcDbLine
 10
104.9342203919
 20
100.6890006566
 30
0.0
 11
105.8478802135
 21
101.2165024006
 31
0.0
  0
LINE
  5
189
330
1F
100
AcDbEntity
  8
0
  6
Continuous
 62
     7
370
    25
100
AcDbLine
 10
105.8478802135
 20
101.2165024005
 30
0.0
 11
111.7127534927
 21
101.2165024005
 31
0.0
  0
SPLINE
  5
18A
330
1F
100
AcDbEntity
  8
0
  6
Continuous
 62
     7
370
    25
100
AcDbSpline
210
0.0
220
0.0
230
1.0
 70
     8
 71
     3
 72
     8
 73
     4
 74
     0
 42
0.000000001
 43
0.00000001
 40
0.0
 40
0.0
 40
0.0
 40
0.0
 40
1.0
 40
1.0
 40
1.0
 40
1.0
 10
105.8478802129989
 20
100.3066756891609
 30
0.0
 10
105.5433269392891
 20
100.4353665537095
 30
0.0
 10
105.2387736655793
 20
100.562811309973
 30
0.0
 10
104.9342203918695
 20
100.6890006566125
 30
0.0
  0
LINE
  5
18B
330
1F
100
AcDbEntity
  8
0
  6
Continuous
 62
     7
370
    25
100
AcDbLine
 10
104.3478802134
 20
87.2259076767
 30
0.0
 11
104.3478802134
 21
100.3504769968
 31
0.0
  0
SPLINE
  5
18C
330
1F
100
AcDbEntity
  8
0
  6
Continuous
 62
     7
370
    25
100
AcDbSpline
210
0.0
220
0.0
230
1.0
 70
    24
 71
     3
 72
     8
 73
     4
 74
     0
 42
0.000000001
 43
0.00000001
 40
0.0
 40
0.0
 40
0.0
 40
0.0
 40
1.0
 40
1.0
 40
1.0
 40
1.0
 10
104.9342203918823
 20
100.6890006566071
 30
0.0
 10
104.737888366224
 20
100.5756483087427
 30
0.0
 10
104.5424273459838
 20
100.4627988360909
 30
0.0
 10
104.3478802134498
 20
100.3504769967524
 30
0.0
  0
LINE
  5
18D
330
1F
100
AcDbEntity
  8
0
  6
Continuous
 62
     7
370
    25
100
AcDbLine
 10
204.2978802134
 20
92.7031429235
 30
0.0
 11
204.2978802134
 21
109.4290024005
 31
0.0
  0
ARC
  5
18E
330
1F
100
AcDbEntity
  8
0
  6
Continuous
 62
     7
370
    25
100
AcDbCircle
 10
202.2978802134
 20
126.1548618789
 30
0.0
 40
2.000000000000013
100
AcDbArc
 50
0.0
 51
65.0
  0
ARC
  5
18F
330
1F
100
AcDbEntity
  8
0
  6
Continuous
 62
     7
370
    25
100
AcDbCircle
 10
137.4978802134
 20
126.8790024005
 30
0.0
 40
0.7999999999999972
100
AcDbArc
 50
0.0
 51
90.0
  0
ARC
  5
190
330
1F
100
AcDbEntity
  8
0
  6
Continuous
 62
     7
370
    25
100
AcDbCircle
 10
136.073120687
 20
126.8790024005
 30
0.0
 40
0.8000000000000119
100
AcDbArc
 50
90.0
 51
120.0
  0
LINE
  5
191
330
1F
100
AcDbEntity
  8
0
  6
Continuous
 62
     7
370
    25
100
AcDbLine
 10
136.073120687
 20
127.6790024005
 30
0.0
 11
137.4978802134
 21
127.6790024005
 31
0.0
  0
LINE
  5
192
330
1F
100
AcDbEntity
  8
0
  6
Continuous
 62
     7
370
    25
100
AcDbLine
 10
134.7978802134
 20
127.0665024005
 30
0.0
 11
134.7978802134
 21
109.4290024005
 31
0.0
  0
LINE
  5
193
330
1F
100
AcDbEntity
  8
0
  6
Continuous
 62
     7
370
    25
100
AcDbLine
 10
134.7978802134
 20
127.0665024005
 30
0.0
 11
135.673120687
 21
127.5718227236
 31
0.0
  0
LINE
  5
194
330
1F
100
AcDbEntity
  8
0
  6
Continuous
 62
     7
370
    25
100
AcDbLine
 10
105.0995462633
 20
100.784451593
 30
0.0
 11
104.9630774909
 21
100.7056613105
 31
0.0
  0
SPLINE
  5
195
330
1F
100
AcDbEntity
  8
0
  6
Continuous
 62
     7
370
    25
100
AcDbSpline
210
0.0
220
0.0
230
1.0
 70
     8
 71
     3
 72
    32
 73
    28
 74
     0
 42
0.000000001
 43
0.00000001
 40
0.0
 40
0.0
 40
0.0
 40
0.0
 40
0.1249999999999989
 40
0.1249999999999989
 40
0.1874999999999988
 40
0.1874999999999988
 40
0.2499999999999987
 40
0.2499999999999987
 40
0.3124999999999985
 40
0.3124999999999985
 40
0.3749999999999984
 40
0.3749999999999984
 40
0.4999999999999988
 40
0.4999999999999988
 40
0.5624999999999989
 40
0.5624999999999989
 40
0.624999999999999
 40
0.624999999999999
 40
0.7499999999999991
 40
0.7499999999999991
 40
0.8124999999999994
 40
0.8124999999999994
 40
0.8749999999999997
 40
0.8749999999999997
 40
0.9374999999999999
 40
0.9374999999999999
 40
1.0
 40
1.0
 40
1.0
 40
1.0
 10
118.7655105447905
 20
125.6016711547464
 30
0.0
 10
118.2814363008365
 20
125.602030547366
 30
0.0
 10
117.7980387302696
 20
125.6169897535473
 30
0.0
 10
117.0741333805336
 20
125.663973800056
 30
0.0
 10
116.8334709469967
 20
125.6837503551806
 30
0.0
 10
116.3621248379211
 20
125.7307144386796
 30
0.0
 10
116.1302890216308
 20
125.7579682878641
 30
0.0
 10
115.6745859350745
 20
125.8195962164767
 30
0.0
 10
115.4507176121332
 20
125.8539713172722
 30
0.0
 10
115.0113900201254
 20
125.9292907609252
 30
0.0
 10
114.794672627459
 20
125.9705087116735
 30
0.0
 10
114.1683306487861
 20
126.1007455308543
 30
0.0
 10
113.7839380144327
 20
126.1957854427535
 30
0.0
 10
113.2563962688129
 20
126.3420524047059
 30
0.0
 10
113.0887621172818
 20
126.3914210398965
 30
0.0
 10
112.7703573700413
 20
126.4898247473968
 30
0.0
 10
112.6207764955021
 20
126.5385080120293
 30
0.0
 10
112.2077564259537
 20
126.6781308151977
 30
0.0
 10
111.9762046547945
 20
126.7637174937783
 30
0.0
 10
111.6928951397049
 20
126.8726805416943
 30
0.0
 10
111.6093274579331
 20
126.9057291942688
 30
0.0
 10
111.4674026256089
 20
126.9627325905091
 30
0.0
 10
111.4084145141664
 20
126.9869292961195
 30
0.0
 10
111.3136986104565
 20
127.0261315764986
 30
0.0
 10
111.2779706433098
 20
127.0411387429956
 30
0.0
 10
111.2300063655923
 20
127.0613477407225
 30
0.0
 10
111.2178800581589
 20
127.0665024005368
 30
0.0
 10
111.2178800581589
 20
127.0665024005368
 30
0.0
  0
SPLINE
  5
196
330
1F
100
AcDbEntity
  8
0
  6
Continuous
 62
     7
370
    25
100
AcDbSpline
210
0.0
220
0.0
230
1.0
 70
     8
 71
     3
 72
    31
 73
    27
 74
     0
 42
0.000000001
 43
0.00000001
 40
0.0
 40
0.0
 40
0.0
 40
0.0
 40
0.0161756688075983
 40
0.0323169068532656
 40
0.0484425516008529
 40
0.0645714951500222
 40
0.0807226180246452
 40
0.0969147231634323
 40
0.1131664712589218
 40
0.1294963185367049
 40
0.1459224579705055
 40
0.1624627647969089
 40
0.1791347470353218
 40
0.1959555015440105
 40
0.2945754514600412
 40
0.3932796468915374
 40
0.4928175165152236
 40
0.5924284642440034
 40
0.6938854141933395
 40
0.7927106604376529
 40
0.8267659964728299
 40
0.86078943849786
 40
0.8949681865136672
 40
0.9294869120721324
 40
0.9645249088045725
 40
1.0
 40
1.0
 40
1.0
 40
1.0
 10
129.773829603534
 20
127.0665024005368
 30
0.0
 10
129.7730965030828
 20
127.0661560091089
 30
0.0
 10
129.7716318626233
 20
127.0654639635654
 30
0.0
 10
129.7585754829582
 20
127.059881601519
 30
0.0
 10
129.7375609224354
 20
127.0510148385249
 30
0.0
 10
129.7078137170948
 20
127.0385737378099
 30
0.0
 10
129.6695414044389
 20
127.0226830792549
 30
0.0
 10
129.6226887235185
 20
127.0033573354268
 30
0.0
 10
129.567270993479
 20
126.9806412459106
 30
0.0
 10
129.5032850296581
 20
126.9545722415237
 30
0.0
 10
129.4307315454713
 20
126.9251897942015
 30
0.0
 10
129.3496148481284
 20
126.8925355466934
 30
0.0
 10
129.2599211928618
 20
126.8566431003138
 30
0.0
 10
129.0028753513192
 20
126.7544051861633
 30
0.0
 10
128.4748392395409
 20
126.5478811326857
 30
0.0
 10
127.4962051487306
 20
126.210795113837
 30
0.0
 10
126.310326777416
 20
125.8676528770048
 30
0.0
 10
124.939943642105
 20
125.5705474490992
 30
0.0
 10
123.4540703379528
 20
125.3605345641465
 30
0.0
 10
122.233982400613
 20
125.3022903708335
 30
0.0
 10
121.3675445013373
 20
125.3159341214102
 30
0.0
 10
120.8393766121796
 20
125.3412901852852
 30
0.0
 10
120.3146253203414
 20
125.3833095906542
 30
0.0
 10
119.7936027457549
 20
125.4416015602143
 30
0.0
 10
119.276284560211
 20
125.5142416721706
 30
0.0
 10
118.9405803461375
 20
125.5731341517447
 30
0.0
 10
118.7716877623787
 20
125.6027629220199
 30
0.0
  0
LINE
  5
197
330
1F
100
AcDbEntity
  8
0
  6
Continuous
 62
     7
370
    25
100
AcDbLine
 10
129.7738296035
 20
127.0665024005
 30
0.0
 11
134.7978802134
 21
127.0665024005
 31
0.0
  0
LINE
  5
198
330
1F
100
AcDbEntity
  8
0
  6
Continuous
 62
     7
370
    25
100
AcDbLine
 10
126.9478802134
 20
113.4917758113
 30
0.0
 11
126.9478802134
 21
109.4290024005
 31
0.0
  0
SPLINE
  5
199
330
1F
100
AcDbEntity
  8
0
  6
Continuous
 62
     7
370
    25
100
AcDbSpline
210
0.0
220
0.0
230
1.0
 70
     8
 71
     3
 72
    25
 73
    21
 74
     0
 42
0.000000001
 43
0.00000001
 40
0.0
 40
0.0
 40
0.0
 40
0.0
 40
0.0278040781436522
 40
0.055549721993219
 40
0.0833079149813089
 40
0.1111495445113076
 40
0.1391448641111913
 40
0.1673629793310927
 40
0.1958713754537566
 40
0.2247355016371065
 40
0.2540184217407993
 40
0.3796733112851029
 40
0.5056490307768108
 40
0.6297529978411118
 40
0.7535891429683279
 40
0.8038648317328723
 40
0.8533521433028843
 40
0.9023387809687056
 40
0.9511213072444032
 40
1.0
 40
1.0
 40
1.0
 40
1.0
 10
122.2978802134499
 20
117.9764989829019
 30
0.0
 10
122.3665103143909
 20
117.9759765795293
 30
0.0
 10
122.5036262801837
 20
117.9749328706906
 30
0.0
 10
122.7088127740069
 20
117.9618600551718
 30
0.0
 10
122.9130963302316
 20
117.9403366676019
 30
0.0
 10
123.1164787254874
 20
117.9095224239354
 30
0.0
 10
123.3189544564822
 20
117.8696093136227
 30
0.0
 10
123.5205221793495
 20
117.8205010486278
 30
0.0
 10
123.7211738871883
 20
117.7621721367839
 30
0.0
 10
123.9209279451108
 20
117.6945563988182
 30
0.0
 10
124.3365363794804
 20
117.5337243270845
 30
0.0
 10
124.9393388567078
 20
117.2197385527337
 30
0.0
 10
125.6333944486443
 20
116.6561656507504
 30
0.0
 10
126.2001693066084
 20
115.9804221771488
 30
0.0
 10
126.5377535725755
 20
115.3630414927704
 30
0.0
 10
126.7262290044658
 20
114.8709526758083
 30
0.0
 10
126.8255037845701
 20
114.5332728974644
 30
0.0
 10
126.8958492560637
 20
114.190641054836
 30
0.0
 10
126.9398382649124
 20
113.843303444069
 30
0.0
 10
126.9451978047673
 20
113.6090285853141
 30
0.0
 10
126.9478802134498
 20
113.4917758113366
 30
0.0
  0
LINE
  5
19A
330
1F
100
AcDbEntity
  8
0
  6
Continuous
 62
     7
370
    25
100
AcDbLine
 10
120.3830069342
 20
117.9764989829
 30
0.0
 11
122.2978802134
 21
117.9764989829
 31
0.0
  0
SPLINE
  5
19B
330
1F
100
AcDbEntity
  8
0
  6
Continuous
 62
     7
370
    25
100
AcDbSpline
210
0.0
220
0.0
230
1.0
 70
     8
 71
     3
 72
    12
 73
     8
 74
     0
 42
0.000000001
 43
0.00000001
 40
0.0
 40
0.0
 40
0.0
 40
0.0
 40
0.1993047266787485
 40
0.3984909635174912
 40
0.5980263786482755
 40
0.7983761953931292
 40
1.0
 40
1.0
 40
1.0
 40
1.0
 10
119.3817963698486
 20
117.8743068097447
 30
0.0
 10
119.4472672124111
 20
117.8873365694198
 30
0.0
 10
119.5781699740756
 20
117.9133883423698
 30
0.0
 10
119.7770642556514
 20
117.941828797246
 30
0.0
 10
119.9775065061419
 20
117.9622596686519
 30
0.0
 10
120.1797044101011
 20
117.9746886994163
 30
0.0
 10
120.3150963920935
 20
117.9758942814434
 30
0.0
 10
120.3830069341604
 20
117.9764989829019
 30
0.0
  0
LINE
  5
19C
330
1F
100
AcDbEntity
  8
0
  6
Continuous
 62
     7
370
    25
100
AcDbLine
 10
113.9572100843
 20
117.8741407461
 30
0.0
 11
119.381013548
 21
117.8741407461
 31
0.0
  0
SPLINE
  5
19D
330
1F
100
AcDbEntity
  8
0
  6
Continuous
 62
     7
370
    25
100
AcDbSpline
210
0.0
220
0.0
230
1.0
 70
     8
 71
     3
 72
    24
 73
    20
 74
     0
 42
0.000000001
 43
0.00000001
 40
0.0
 40
0.0
 40
0.0
 40
0.0
 40
0.0410168309160251
 40
0.0818356321224298
 40
0.1225576684073127
 40
0.1632849263043688
 40
0.2041193531422725
 40
0.2451620975485173
 40
0.2865127793361656
 40
0.3282688142230838
 40
0.370524814367772
 40
0.4133720798884311
 40
0.456898190125439
 40
0.5011866971564671
 40
0.6001870884229382
 40
0.6987399491827955
 40
0.7976807785240759
 40
0.8978353515390326
 40
1.0
 40
1.0
 40
1.0
 40
1.0
 10
110.1852231772997
 20
119.8117825631998
 30
0.0
 10
110.2482489502357
 20
119.8112549364197
 30
0.0
 10
110.3739962069846
 20
119.8102022302473
 30
0.0
 10
110.5619021641525
 20
119.7990751960282
 30
0.0
 10
110.7484671469885
 20
119.7809267318525
 30
0.0
 10
110.9336910310281
 20
119.7550610422509
 30
0.0
 10
111.1175694900091
 20
119.7216297020337
 30
0.0
 10
111.3000996135737
 20
119.6805475023089
 30
0.0
 10
111.4812786580048
 20
119.6317828476189
 30
0.0
 10
111.6611042658921
 20
119.5752797021231
 30
0.0
 10
111.8395754710039
 20
119.510979155736
 30
0.0
 10
112.0166887390128
 20
119.4388122352829
 30
0.0
 10
112.1924531897596
 20
119.3587077919441
 30
0.0
 10
112.4374917914096
 20
119.2348541379141
 30
0.0
 10
112.741688336838
 20
119.0562223788405
 30
0.0
 10
113.0889956217812
 20
118.8071329400044
 30
0.0
 10
113.4081699380851
 20
118.5275634235246
 30
0.0
 10
113.7020818262052
 20
118.2187377672128
 30
0.0
 10
113.8716059148196
 20
117.9906457264038
 30
0.0
 10
113.9572100842732
 20
117.8754666396319
 30
0.0
  0
LINE
  5
19E
330
1F
100
AcDbEntity
  8
0
  6
Continuous
 62
     7
370
    25
100
AcDbLine
 10
107.3936814604
 20
119.8117825632
 30
0.0
 11
110.1852231773
 21
119.8117825632
 31
0.0
  0
SPLINE
  5
19F
330
1F
100
AcDbEntity
  8
0
  6
Continuous
 62
     7
370
    25
100
AcDbSpline
210
0.0
220
0.0
230
1.0
 70
     8
 71
     3
 72
     8
 73
     4
 74
     0
 42
0.000000001
 43
0.00000001
 40
0.0
 40
0.0
 40
0.0
 40
0.0
 40
1.0
 40
1.0
 40
1.0
 40
1.0
 10
107.3478773886911
 20
119.8752355542095
 30
0.0
 10
107.3631454125888
 20
119.8541190838114
 30
0.0
 10
107.3784134364865
 20
119.8329680167587
 30
0.0
 10
107.3936814603842
 20
119.8117825631998
 30
0.0
  0
LINE
  5
1A0
330
1F
100
AcDbEntity
  8
0
  6
Continuous
 62
     7
370
    25
100
AcDbLine
 10
107.3478802134
 20
127.0665024005
 30
0.0
 11
107.3478802134
 21
119.8752355542
 31
0.0
  0
LINE
  5
1A1
330
1F
100
AcDbEntity
  8
0
  6
Continuous
 62
     7
370
    25
100
AcDbLine
 10
107.3478802134
 20
127.0665024005
 30
0.0
 11
111.2178800582
 21
127.0665024005
 31
0.0
  0
LINE
  5
1A2
330
1F
100
AcDbEntity
  8
0
  6
Continuous
 62
     7
370
    25
100
AcDbLine
 10
138.2978802134
 20
124.9790024005
 30
0.0
 11
141.9978802134
 21
124.9790024005
 31
0.0
  0
LINE
  5
1A3
330
1F
100
AcDbEntity
  8
0
  6
Continuous
 62
     7
370
    25
100
AcDbLine
 10
138.2978802134
 20
124.9790024005
 30
0.0
 11
138.2978802134
 21
109.4290024005
 31
0.0
  0
ARC
  5
1A4
330
1F
100
AcDbEntity
  8
0
  6
Continuous
 62
     7
370
    25
100
AcDbCircle
 10
141.9978802134
 20
123.7790024005
 30
0.0
 40
1.200000000000017
100
AcDbArc
 50
0.0
 51
90.0
  0
LINE
  5
1A5
330
1F
100
AcDbEntity
  8
0
  6
Continuous
 62
     7
370
    25
100
AcDbLine
 10
155.6978802134
 20
117.7290024005
 30
0.0
 11
158.4031061953
 21
117.7290024005
 31
0.0
  0
ARC
  5
1A6
330
1F
100
AcDbEntity
  8
0
  6
Continuous
 62
     7
370
    25
100
AcDbCircle
 10
155.6978802134
 20
117.3290024005
 30
0.0
 40
0.4000000000000057
100
AcDbArc
 50
90.0
 51
180.0
  0
ARC
  5
1A7
330
1F
100
AcDbEntity
  8
0
  6
Continuous
 62
     7
370
    25
100
AcDbCircle
 10
203.9978802134
 20
117.7290024005
 30
0.0
 40
0.2999999999999972
100
AcDbArc
 50
270.0
 51
0.0
  0
LINE
  5
1A8
330
1F
100
AcDbEntity
  8
0
  6
Continuous
 62
     7
370
    25
100
AcDbLine
 10
204.2978802134
 20
117.7290024005
 30
0.0
 11
204.2978802134
 21
109.4290024005
 31
0.0
  0
ARC
  5
1A9
330
1F
100
AcDbEntity
  8
0
  6
Continuous
 62
     7
370
    25
100
AcDbCircle
 10
158.4031061953
 20
117.3290024005
 30
0.0
 40
0.4000000000000057
100
AcDbArc
 50
70.0
 51
90.0
  0
LINE
  5
1AA
330
1F
100
AcDbEntity
  8
0
  6
Continuous
 62
     7
370
    25
100
AcDbLine
 10
159.2978802134
 20
117.4290024005
 30
0.0
 11
159.2978802134
 21
109.4290024005
 31
0.0
  0
LINE
  5
1AB
330
1F
100
AcDbEntity
  8
0
  6
Continuous
 62
     7
370
    25
100
AcDbLine
 10
158.5399142527
 20
117.7048794489
 30
0.0
 11
159.2978802134
 21
117.4290024005
 31
0.0
  0
SPLINE
  5
1AC
330
1F
100
AcDbEntity
  8
0
  6
Continuous
 62
     7
370
    25
100
AcDbSpline
210
0.0
220
0.0
230
1.0
 70
     8
 71
     3
 72
    46
 73
    42
 74
     0
 42
0.000000001
 43
0.00000001
 40
0.0
 40
0.0
 40
0.0
 40
0.0
 40
0.0624999999999996
 40
0.0624999999999996
 40
0.1249999999999991
 40
0.1249999999999991
 40
0.1874999999999987
 40
0.1874999999999987
 40
0.2499999999999982
 40
0.2499999999999982
 40
0.3124999999999978
 40
0.3124999999999978
 40
0.3749999999999973
 40
0.3749999999999973
 40
0.4374999999999969
 40
0.4374999999999969
 40
0.4999999999999964
 40
0.4999999999999964
 40
0.562499999999996
 40
0.562499999999996
 40
0.5937499999999958
 40
0.5937499999999958
 40
0.6249999999999956
 40
0.6249999999999956
 40
0.687499999999996
 40
0.687499999999996
 40
0.7499999999999964
 40
0.7499999999999964
 40
0.7812499999999969
 40
0.7812499999999969
 40
0.8124999999999973
 40
0.8124999999999973
 40
0.8749999999999982
 40
0.8749999999999982
 40
0.9062499999999987
 40
0.9062499999999987
 40
0.9374999999999991
 40
0.9374999999999991
 40
0.9687499999999996
 40
0.9687499999999996
 40
1.0
 40
1.0
 40
1.0
 40
1.0
 10
174.7978802134498
 20
117.4290024005369
 30
0.0
 10
174.7978802134498
 20
117.4290024005369
 30
0.0
 10
174.8399664349767
 20
117.3972898809284
 30
0.0
 10
175.0071809082237
 20
117.2730490106732
 30
0.0
 10
175.1302183779322
 20
117.1821045368111
 30
0.0
 10
175.4438692476114
 20
116.9558633316313
 30
0.0
 10
175.6363197775584
 20
116.8192946580998
 30
0.0
 10
176.0715678944954
 20
116.5221499145207
 30
0.0
 10
176.3172698289466
 20
116.3594669016724
 30
0.0
 10
176.8566471710787
 20
116.0236052451408
 30
0.0
 10
177.1465631565638
 20
115.8525826582052
 30
0.0
 10
177.7710629536397
 20
115.519313542103
 30
0.0
 10
178.1092447843027
 20
115.3554280076624
 30
0.0
 10
178.8216541935491
 20
115.068082936197
 30
0.0
 10
179.1958001809646
 20
114.9440026352384
 30
0.0
 10
179.9939477519911
 20
114.76706146361
 30
0.0
 10
180.4040664830938
 20
114.7188118725188
 30
0.0
 10
181.2359511624348
 20
114.7222907123518
 30
0.0
 10
181.6385158805233
 20
114.7732739741912
 30
0.0
 10
182.2258488590042
 20
114.9064778258345
 30
0.0
 10
182.4201051592423
 20
114.9607208186627
 30
0.0
 10
182.7964902856842
 20
115.0825620847994
 30
0.0
 10
182.9785388242621
 20
115.1499443008475
 30
0.0
 10
183.5090861734757
 20
115.3658580293155
 30
0.0
 10
183.8446264045922
 20
115.5292782481157
 30
0.0
 10
184.4682067926551
 20
115.8634410132936
 30
0.0
 10
184.756417141651
 20
116.0340332083847
 30
0.0
 10
185.1571636067911
 20
116.2841067792923
 30
0.0
 10
185.2859970231423
 20
116.3669268085343
 30
0.0
 10
185.5290616031901
 20
116.5265850831315
 30
0.0
 10
185.6434539151193
 20
116.6035018310711
 30
0.0
 10
185.9655027033658
 20
116.8235782856019
 30
0.0
 10
186.1523333798436
 20
116.9561832757749
 30
0.0
 10
186.38675877233
 20
117.1252764568755
 30
0.0
 10
186.4575498604281
 20
117.1769154230561
 30
0.0
 10
186.5791416579707
 20
117.266175333521
 30
0.0
 10
186.6303016633329
 20
117.3040499263699
 30
0.0
 10
186.7130259949783
 20
117.3655119092445
 30
0.0
 10
186.744593437393
 20
117.3891028429288
 30
0.0
 10
186.7871325847278
 20
117.4209323834638
 30
0.0
 10
186.7978802134499
 20
117.4290024005369
 30
0.0
 10
186.7978802134499
 20
117.4290024005369
 30
0.0
  0
LINE
  5
1AD
330
1F
100
AcDbEntity
  8
0
  6
Continuous
 62
     7
370
    25
100
AcDbLine
 10
186.7978802134
 20
117.4290024005
 30
0.0
 11
203.9978802134
 21
117.4290024005
 31
0.0
  0
LINE
  5
1AE
330
1F
100
AcDbEntity
  8
0
  6
Continuous
 62
     7
370
    25
100
AcDbLine
 10
159.2978802134
 20
117.4290024005
 30
0.0
 11
174.7978802134
 21
117.4290024005
 31
0.0
  0
LINE
  5
1AF
330
1F
100
AcDbEntity
  8
0
  6
Continuous
 62
     7
370
    25
100
AcDbLine
 10
147.0228802134
 20
115.1790024005
 30
0.0
 11
147.8478802134
 21
115.1790024005
 31
0.0
  0
LINE
  5
1B0
330
1F
100
AcDbEntity
  8
0
  6
Continuous
 62
     7
370
    25
100
AcDbLine
 10
143.5978802134
 20
114.4290024005
 30
0.0
 11
143.5978802134
 21
109.4290024005
 31
0.0
  0
LINE
  5
1B1
330
1F
100
AcDbEntity
  8
0
  6
Continuous
 62
     7
370
    25
100
AcDbLine
 10
143.1978802134
 20
114.6599425082
 30
0.0
 11
143.5978802134
 21
114.4290024005
 31
0.0
  0
LINE
  5
1B2
330
1F
100
AcDbEntity
  8
0
  6
Continuous
 62
     7
370
    25
100
AcDbLine
 10
143.1978802134
 20
114.6599425082
 30
0.0
 11
143.1978802134
 21
109.4290024005
 31
0.0
  0
LINE
  5
1B3
330
1F
100
AcDbEntity
  8
0
  6
Continuous
 62
     7
370
    25
100
AcDbLine
 10
143.5978802134
 20
114.4290024005
 30
0.0
 11
147.0228802134
 21
114.4290024005
 31
0.0
  0
LINE
  5
1B4
330
1F
100
AcDbEntity
  8
0
  6
Continuous
 62
     7
370
    25
100
AcDbLine
 10
147.0228802134
 20
114.4290024005
 30
0.0
 11
147.0228802134
 21
109.4290024005
 31
0.0
  0
LINE
  5
1B5
330
1F
100
AcDbEntity
  8
0
  6
Continuous
 62
     7
370
    25
100
AcDbLine
 10
147.8478802134
 20
113.4290024005
 30
0.0
 11
155.2978802134
 21
113.4290024005
 31
0.0
  0
LINE
  5
1B6
330
1F
100
AcDbEntity
  8
0
  6
Continuous
 62
     7
370
    25
100
AcDbLine
 10
147.8478802134
 20
113.4290024005
 30
0.0
 11
147.8478802134
 21
109.4290024005
 31
0.0
  0
LINE
  5
1B7
330
1F
100
AcDbEntity
  8
0
  6
Continuous
 62
     7
370
    25
100
AcDbLine
 10
155.2978802134
 20
113.4290024005
 30
0.0
 11
155.2978802134
 21
109.4290024005
 31
0.0
  0
SPLINE
  5
1B8
330
1F
100
AcDbEntity
  8
0
  6
Continuous
 62
     7
370
    25
100
AcDbSpline
210
0.0
220
0.0
230
1.0
 70
     8
 71
     3
 72
    37
 73
    33
 74
     0
 42
0.000000001
 43
0.00000001
 40
0.0
 40
0.0
 40
0.0
 40
0.0
 40
0.0114878548102807
 40
0.0231559765621659
 40
0.0350076484354371
 40
0.0470460033795328
 40
0.0592740307999939
 40
0.0716945830965817
 40
0.0843103820274691
 40
0.0971240248798043
 40
0.1101379904320565
 40
0.1233546446979449
 40
0.1811510010973283
 40
0.2483631736114466
 40
0.288837341581929
 40
0.3232297457604656
 40
0.3515392131491971
 40
0.3737664266256212
 40
0.4399300285953863
 40
0.4987424063270028
 40
0.5023253005651628
 40
0.5613100074513707
 40
0.6252595444338116
 40
0.681865008384976
 40
0.7483890016987855
 40
0.7860781471964632
 40
0.8194856599799725
 40
0.8486127715281659
 40
0.8734622727747353
 40
0.9389926156604067
 40
0.9981523731393465
 40
1.0
 40
1.0
 40
1.0
 40
1.0
 10
129.1478802134499
 20
132.8926547038901
 30
0.0
 10
129.1469537621713
 20
132.8922111868817
 30
0.0
 10
129.1450863217793
 20
132.8913171932142
 30
0.0
 10
129.1298132614395
 20
132.8841252157559
 30
0.0
 10
129.1049115589756
 20
132.8726739721635
 30
0.0
 10
129.0690572870398
 20
132.856524213389
 30
0.0
 10
129.0220897762021
 20
132.8357965338353
 30
0.0
 10
128.9635468657813
 20
132.8104580148335
 30
0.0
 10
128.8930687262036
 20
132.780517594279
 30
0.0
 10
128.8102941619261
 20
132.745973620237
 30
0.0
 10
128.714877616808
 20
132.7068238786224
 30
0.0
 10
128.4853087834195
 20
132.6141252074612
 30
0.0
 10
128.0008905694469
 20
132.4254023169467
 30
0.0
 10
127.2218905979014
 20
132.1473125169755
 30
0.0
 10
126.4306721464813
 20
131.8967256496462
 30
0.0
 10
125.7996216532385
 20
131.7217088883163
 30
0.0
 10
125.2465836969021
 20
131.5818742477173
 30
0.0
 10
124.4536257680057
 20
131.4014634023712
 30
0.0
 10
123.3832914276725
 20
131.2123970807291
 30
0.0
 10
122.4023011482373
 20
131.1071102730195
 30
0.0
 10
121.4743339191177
 20
131.0500775010664
 30
0.0
 10
120.5018784253573
 20
131.0354829026967
 30
0.0
 10
119.1757482199239
 20
131.1136761191878
 30
0.0
 10
117.9057127354302
 20
131.2741558407821
 30
0.0
 10
116.9459367347606
 20
131.4592673789957
 30
0.0
 10
116.2472850874157
 20
131.6267569827258
 30
0.0
 10
115.8034769492606
 20
131.740380188934
 30
0.0
 10
115.4709398873306
 20
131.8335640238426
 30
0.0
 10
115.0837814770874
 20
131.9482288881012
 30
0.0
 10
114.7465335149757
 20
132.0555746971613
 30
0.0
 10
114.6488094486465
 20
132.093140270448
 30
0.0
 10
114.6479075283748
 20
132.0932716792644
 30
0.0
 10
114.6478802134499
 20
132.0932756590197
 30
0.0
  0
LINE
  5
1B9
330
1F
100
AcDbEntity
  8
0
  6
Continuous
 62
     7
370
    25
100
AcDbLine
 10
129.1478802134
 20
132.8926547039
 30
0.0
 11
129.1478802134
 21
127.5352284213
 31
0.0
  0
SPLINE
  5
1BA
330
1F
100
AcDbEntity
  8
0
  6
Continuous
 62
     7
370
    25
100
AcDbSpline
210
0.0
220
0.0
230
1.0
 70
     8
 71
     3
 72
    30
 73
    26
 74
     0
 42
0.000000001
 43
0.00000001
 40
0.0
 40
0.0
 40
0.0
 40
0.0
 40
0.0192411700742053
 40
0.0381353539376959
 40
0.0566868884861281
 40
0.074900355493136
 40
0.0927805967284113
 40
0.1103327298326389
 40
0.1275621649289901
 40
0.1444746219341827
 40
0.2455865830531986
 40
0.3577720192516811
 40
0.4505017408956453
 40
0.572012786861986
 40
0.6168069840199942
 40
0.659008849943276
 40
0.6986242498774691
 40
0.7356603299341561
 40
0.7701258931915088
 40
0.8073679165907853
 40
0.8483950324891414
 40
0.888136779882006
 40
0.9266264622110464
 40
0.9639007443615104
 40
1.0
 40
1.0
 40
1.0
 40
1.0
 10
119.9770616228378
 20
125.8711371109449
 30
0.0
 10
120.0600941027174
 20
125.86001000562
 30
0.0
 10
120.2246616937902
 20
125.8379564559539
 30
0.0
 10
120.4725432094708
 20
125.8099045666912
 30
0.0
 10
120.7178198849131
 20
125.7859530361653
 30
0.0
 10
120.9603777185244
 20
125.7664230839719
 30
0.0
 10
121.1998123956333
 20
125.7512307917953
 30
0.0
 10
121.4358255910404
 20
125.7403992305644
 30
0.0
 10
121.6681436363512
 20
125.7339186653113
 30
0.0
 10
122.2766944059752
 20
125.7282871737252
 30
0.0
 10
123.3150069031952
 20
125.7882605732099
 30
0.0
 10
124.6303584312965
 20
125.9876830463847
 30
0.0
 10
125.9099036441881
 20
126.2931644070685
 30
0.0
 10
126.8013441882782
 20
126.5731072099874
 30
0.0
 10
127.4190090571393
 20
126.8005563065028
 30
0.0
 10
127.7623321424226
 20
126.9308349670028
 30
0.0
 10
128.0540232273181
 20
127.0469259049607
 30
0.0
 10
128.2985685831439
 20
127.1482941343641
 30
0.0
 10
128.5109232635833
 20
127.2396321868817
 30
0.0
 10
128.701986238208
 20
127.3237072708289
 30
0.0
 10
128.8672336423804
 20
127.3987002247941
 30
0.0
 10
128.9967741926245
 20
127.4596887243398
 30
0.0
 10
129.0851405618471
 20
127.5029263861053
 30
0.0
 10
129.1382864071107
 20
127.5301564719841
 30
0.0
 10
129.1447166030519
 20
127.533555918114
 30
0.0
 10
129.1478802134499
 20
127.5352284212885
 30
0.0
  0
SPLINE
  5
1BB
330
1F
100
AcDbEntity
  8
0
  6
Continuous
 62
     7
370
    25
100
AcDbSpline
210
0.0
220
0.0
230
1.0
 70
     8
 71
     3
 72
    38
 73
    34
 74
     0
 42
0.000000001
 43
0.00000001
 40
0.0
 40
0.0
 40
0.0
 40
0.0
 40
0.1249999999999998
 40
0.1249999999999998
 40
0.2499999999999996
 40
0.2499999999999996
 40
0.3124999999999996
 40
0.3124999999999996
 40
0.3749999999999995
 40
0.3749999999999995
 40
0.4374999999999995
 40
0.4374999999999995
 40
0.4999999999999994
 40
0.4999999999999994
 40
0.5624999999999993
 40
0.5624999999999993
 40
0.6249999999999992
 40
0.6249999999999992
 40
0.6874999999999991
 40
0.6874999999999991
 40
0.7187499999999994
 40
0.7187499999999994
 40
0.7499999999999997
 40
0.7499999999999997
 40
0.78125
 40
0.78125
 40
0.8125000000000003
 40
0.8125000000000003
 40
0.8750000000000002
 40
0.8750000000000002
 40
0.9375000000000001
 40
0.9375000000000001
 40
1.0
 40
1.0
 40
1.0
 40
1.0
 10
114.6478802134499
 20
131.9650502854408
 30
0.0
 10
114.64788021345
 20
131.9650502854408
 30
0.0
 10
114.7096859710135
 20
131.9424062027788
 30
0.0
 10
114.959308516449
 20
131.8498218137227
 30
0.0
 10
115.1430361473872
 20
131.7814342337699
 30
0.0
 10
115.4994249839723
 20
131.6455921345681
 30
0.0
 10
115.6325854454778
 20
131.5943991495116
 30
0.0
 10
115.9236644561742
 20
131.4807105443992
 30
0.0
 10
116.0801544076835
 20
131.4187839368928
 30
0.0
 10
116.4135358489714
 20
131.2838988282024
 30
0.0
 10
116.5904396073345
 20
131.2109605739157
 30
0.0
 10
116.9636812548079
 20
131.0519846391198
 30
0.0
 10
117.161425245689
 20
130.9653448692432
 30
0.0
 10
117.5674486789421
 20
130.7784271966908
 30
0.0
 10
117.7755020723291
 20
130.6783922828818
 30
0.0
 10
118.1977963450633
 20
130.4591287327028
 30
0.0
 10
118.4121616481383
 20
130.3401255410382
 30
0.0
 10
118.8400039597177
 20
130.0698516907143
 30
0.0
 10
119.0564056108243
 20
129.9166028652026
 30
0.0
 10
119.3550380537044
 20
129.6505343416194
 30
0.0
 10
119.4502306431741
 20
129.5557620953467
 30
0.0
 10
119.6278558950309
 20
129.3500052381567
 30
0.0
 10
119.7104702056593
 20
129.2381466963861
 30
0.0
 10
119.8525504806809
 20
129.0046311921638
 30
0.0
 10
119.9129360299258
 20
128.8820701262079
 30
0.0
 10
120.0123865220807
 20
128.6255993629828
 30
0.0
 10
120.0516779611055
 20
128.490359349433
 30
0.0
 10
120.1383745472585
 20
128.0820773464686
 30
0.0
 10
120.1570828742532
 20
127.8058171686836
 30
0.0
 10
120.1535868536215
 20
127.249069390048
 30
0.0
 10
120.1311072334129
 20
126.9708391460572
 30
0.0
 10
120.0654795856308
 20
126.4194533258725
 30
0.0
 10
120.0219820419413
 20
126.14519965677
 30
0.0
 10
119.9725024948313
 20
125.8717701848084
 30
0.0
  0
LINE
  5
1BC
330
1F
100
AcDbEntity
  8
0
  6
Continuous
 62
     7
370
    25
100
AcDbLine
 10
114.6478802134
 20
131.9650502854
 30
0.0
 11
114.6478802134
 21
132.0932756589
 31
0.0
  0
SPLINE
  5
1BD
330
1F
100
AcDbEntity
  8
0
  6
Continuous
 62
     7
370
    25
100
AcDbSpline
210
0.0
220
0.0
230
1.0
 70
     8
 71
     3
 72
    14
 73
    10
 74
     0
 42
0.000000001
 43
0.00000001
 40
0.0
 40
0.0
 40
0.0
 40
0.0
 40
0.0003951392850831
 40
0.0003951392850831
 40
0.0003951392850831
 40
0.0008159035679249
 40
0.0008159035679249
 40
0.0008159035679249
 40
0.0012369936130997
 40
0.0012369936130997
 40
0.0012369936130997
 40
0.0012369936130997
 10
118.7757641631814
 20
125.6039753975371
 30
0.0
 10
118.9042734012881
 20
125.6328493652506
 30
0.0
 10
119.0328369090171
 20
125.6615375787269
 30
0.0
 10
119.1613872873005
 20
125.6900404227644
 30
0.0
 10
119.2982725349641
 20
125.7203913164551
 30
0.0
 10
119.4351681808639
 20
125.7505372814841
 30
0.0
 10
119.571988442213
 20
125.7804891010526
 30
0.0
 10
119.7089144311579
 20
125.8104640658325
 30
0.0
 10
119.8457915031221
 20
125.8402501152777
 30
0.0
 10
119.9825283523092
 20
125.8698725884464
 30
0.0
  0
LINE
  5
1BE
330
1F
100
AcDbEntity
  8
0
  6
Continuous
 62
     7
370
    25
100
AcDbLine
 10
111.2178800582
 20
127.0665024005
 30
0.0
 11
114.6478802134
 21
131.9650502854
 31
0.0
  0
LINE
  5
1BF
330
1F
100
AcDbEntity
  8
0
  6
Continuous
 62
     7
370
    25
100
AcDbLine
 10
186.7978802134
 20
117.4290024005
 30
0.0
 11
186.7978802134
 21
132.4290024131
 31
0.0
  0
LINE
  5
1C0
330
1F
100
AcDbEntity
  8
0
  6
Continuous
 62
     7
370
    25
100
AcDbLine
 10
174.7978802134
 20
132.4290024908
 30
0.0
 11
174.7978802134
 21
117.4290024005
 31
0.0
  0
LINE
  5
1C1
330
1F
100
AcDbEntity
  8
0
  6
Continuous
 62
     7
370
    25
100
AcDbLine
 10
113.8983183651
 20
132.9023881102
 30
0.0
 11
114.647908344
 21
132.0932767724
 31
0.0
  0
LINE
  5
1C2
330
1F
100
AcDbEntity
  8
0
  6
Continuous
 62
     7
370
    25
100
AcDbLine
 10
129.1478931616
 20
132.8926549597
 30
0.0
 11
129.8162233075
 21
133.7017667821
 31
0.0
  0
LINE
  5
1C3
330
1F
100
AcDbEntity
  8
0
  6
Continuous
 62
     7
370
    25
100
AcDbLine
 10
105.0995462633
 20
128.3645786119
 30
0.0
 11
107.3478802134
 21
127.0665024005
 31
0.0
  0
LINE
  5
1C4
330
1F
100
AcDbEntity
  8
0
  6
Continuous
 62
     7
370
    25
100
AcDbLine
 10
104.3478802134
 20
129.6665024005
 30
0.0
 11
105.0995462633
 21
128.3645786119
 31
0.0
  0
LINE
  5
1C5
330
1F
100
AcDbEntity
  8
0
  6
Continuous
 62
     7
370
    25
100
AcDbLine
 10
104.3478802134
 20
131.6320971243
 30
0.0
 11
104.3478802134
 21
129.6665024005
 31
0.0
  0
LINE
  5
1C6
330
1F
100
AcDbEntity
  8
0
  6
Continuous
 62
     7
370
    25
100
AcDbLine
 10
105.8478802134
 20
132.4981225281
 30
0.0
 11
104.3478802134
 21
131.6320971243
 31
0.0
  0
ARC
  5
1C7
330
1F
100
AcDbEntity
  8
0
  6
Continuous
 62
     7
370
    25
100
AcDbCircle
 10
153.3228802134
 20
138.2790024005
 30
0.0
 40
1.000000000000028
100
AcDbArc
 50
180.0
 51
270.0
  0
LINE
  5
1C8
330
1F
100
AcDbEntity
  8
0
  6
Continuous
 62
     7
370
    25
100
AcDbLine
 10
155.0728802134
 20
137.2790024005
 30
0.0
 11
153.3228802134
 21
137.2790024005
 31
0.0
  0
ARC
  5
1C9
330
1F
100
AcDbEntity
  8
0
  6
Continuous
 62
     7
370
    25
100
AcDbCircle
 10
155.0728802134
 20
138.2790024005
 30
0.0
 40
1.0
100
AcDbArc
 50
270.0
 51
0.0
  0
LINE
  5
1CA
330
1F
100
AcDbEntity
  8
0
  6
Continuous
 62
     7
370
    25
100
AcDbLine
 10
156.0728802134
 20
138.3765976647
 30
0.0
 11
156.0728802134
 21
138.2790024005
 31
0.0
  0
LINE
  5
1CB
330
1F
100
AcDbEntity
  8
0
  6
Continuous
 62
     7
370
    25
100
AcDbLine
 10
157.532078018
 20
140.9040024005
 30
0.0
 11
156.0728802134
 21
138.3765976647
 31
0.0
  0
LINE
  5
1CC
330
1F
100
AcDbEntity
  8
0
  6
Continuous
 62
     7
370
    25
100
AcDbLine
 10
173.7978802683
 20
133.4290024005
 30
0.0
 11
174.7978802134
 21
132.4290024908
 31
0.0
  0
LINE
  5
1CD
330
1F
100
AcDbEntity
  8
0
  6
Continuous
 62
     7
370
    25
100
AcDbLine
 10
129.7738293552
 20
127.0665036908
 30
0.0
 11
129.1478833417
 21
127.5352285462
 31
0.0
  0
LINE
  5
1CE
330
1F
100
AcDbEntity
  8
0
  6
Continuous
 62
     7
370
    25
100
AcDbLine
 10
152.3228802134
 20
138.3765976647
 30
0.0
 11
150.8636824089
 21
140.9040024005
 31
0.0
  0
LINE
  5
1CF
330
1F
100
AcDbEntity
  8
0
  6
Continuous
 62
     7
370
    25
100
AcDbLine
 10
152.3228802134
 20
138.2790024005
 30
0.0
 11
152.3228802134
 21
138.3765976647
 31
0.0
  0
LINE
  5
1D0
330
1F
100
AcDbEntity
  8
0
  6
Continuous
 62
     7
370
    25
100
AcDbLine
 10
147.0228802134
 20
114.4290024005
 30
0.0
 11
147.0228802134
 21
115.1790024005
 31
0.0
  0
LINE
  5
1D1
330
1F
100
AcDbEntity
  8
0
  6
Continuous
 62
     7
370
    25
100
AcDbLine
 10
147.8478802134
 20
115.1790024005
 30
0.0
 11
147.8478802134
 21
113.4290024005
 31
0.0
  0
LINE
  5
1D2
330
1F
100
AcDbEntity
  8
0
  6
Continuous
 62
     7
370
    25
100
AcDbLine
 10
155.2978802134
 20
113.4290024005
 30
0.0
 11
155.2978802134
 21
117.3290024005
 31
0.0
  0
LINE
  5
1D3
330
1F
100
AcDbEntity
  8
0
  6
Continuous
 62
     7
370
    25
100
AcDbLine
 10
143.1978802134
 20
123.7790024005
 30
0.0
 11
143.1978802134
 21
114.6599425082
 31
0.0
  0
LINE
  5
1D4
330
1F
100
AcDbEntity
  8
0
  6
Continuous
 62
     7
370
    25
100
AcDbLine
 10
138.2978802134
 20
126.8790024005
 30
0.0
 11
138.2978802134
 21
124.9790024005
 31
0.0
  0
LINE
  5
1D5
330
1F
100
AcDbEntity
  8
0
  6
Continuous
 62
     7
370
    25
100
AcDbLine
 10
144.2978802134
 20
140.7040024005
 30
0.0
 11
144.2978802134
 21
136.2790024005
 31
0.0
  0
LINE
  5
1D6
330
1F
100
AcDbEntity
  8
0
  6
Continuous
 62
     7
370
    25
100
AcDbLine
 10
162.2978802134
 20
136.4290024005
 30
0.0
 11
162.2978802134
 21
140.9040024005
 31
0.0
  0
LINE
  5
1D7
330
1F
100
AcDbEntity
  8
0
  6
Continuous
 62
     7
370
    25
100
AcDbLine
 10
186.7978800012
 20
132.4290024394
 30
0.0
 11
187.7978799109
 21
133.4290023469
 31
0.0
  0
LINE
  5
1D8
330
1F
100
AcDbEntity
  8
0
  6
Continuous
 62
     7
370
    25
100
AcDbLine
 10
204.2978802134
 20
117.7290024005
 30
0.0
 11
204.2978802134
 21
126.1548618789
 31
0.0
  0
SPLINE
  5
1D9
330
1F
100
AcDbEntity
  8
0
  6
Continuous
 62
     7
370
    25
100
AcDbSpline
210
0.0
220
0.0
230
1.0
 70
     8
 71
     3
 72
     9
 73
     5
 74
     0
 42
0.000000001
 43
0.00000001
 40
0.0
 40
0.0
 40
0.0
 40
0.0
 40
0.5102144635023922
 40
1.0
 40
1.0
 40
1.0
 40
1.0
 10
105.152243610121
 20
119.8906289171887
 30
0.0
 10
105.5271076544513
 20
119.8881381501441
 30
0.0
 10
106.2618262309436
 20
119.8832563460738
 30
0.0
 10
106.9908262790239
 20
119.877873119352
 30
0.0
 10
107.3478799586797
 20
119.8752364927639
 30
0.0
  0
LINE
  5
1DA
330
1F
100
AcDbEntity
  8
0
  6
Continuous
 62
     7
370
    25
100
AcDbLine
 10
105.0995462633
 20
119.9210532081
 30
0.0
 11
105.152243612
 21
119.8906283797
 31
0.0
  0
LINE
  5
1DB
330
1F
100
AcDbEntity
  8
0
  6
Continuous
 62
     7
370
    25
100
AcDbLine
 10
105.0995462633
 20
128.3645786119
 30
0.0
 11
105.0995462633
 21
119.9210532081
 31
0.0
  0
SPLINE
  5
1DC
330
1F
100
AcDbEntity
  8
0
  6
Continuous
 62
     7
370
    25
100
AcDbSpline
210
0.0
220
0.0
230
1.0
 70
    24
 71
     3
 72
     8
 73
     4
 74
     0
 42
0.000000001
 43
0.00000001
 40
0.0000004089325119
 40
0.0000004089325119
 40
0.0000004089325119
 40
0.0000004089325119
 40
0.0015399868451459
 40
0.0015399868451459
 40
0.0015399868451459
 40
0.0015399868451459
 10
104.3478802134499
 20
120.3550278043213
 30
0.0
 10
104.5988712894743
 20
120.2101180390144
 30
0.0
 10
104.8494604859773
 20
120.0654402989574
 30
0.0
 10
105.0995462632894
 20
119.9210532081057
 30
0.0
  0
LINE
  5
1DD
330
1F
100
AcDbEntity
  8
0
  6
Continuous
 62
     7
370
    25
100
AcDbLine
 10
104.3478802134
 20
129.6665024005
 30
0.0
 11
104.3478802134
 21
120.3550278043
 31
0.0
  0
SPLINE
  5
1DE
330
1F
100
AcDbEntity
  8
0
  6
Continuous
 62
     7
370
    25
100
AcDbSpline
210
0.0
220
0.0
230
1.0
 70
     8
 71
     3
 72
     8
 73
     4
 74
     0
 42
0.000000001
 43
0.00000001
 40
0.0
 40
0.0
 40
0.0
 40
0.0
 40
1.0
 40
1.0
 40
1.0
 40
1.0
 10
107.4775619562066
 20
119.4890030782734
 30
0.0
 10
107.4496137360871
 20
119.5968194322489
 30
0.0
 10
107.4216536479184
 20
119.7044132824152
 30
0.0
 10
107.3936814603842
 20
119.8117825631998
 30
0.0
  0
LINE
  5
1DF
330
1F
100
AcDbEntity
  8
0
  6
Continuous
 62
     7
370
    25
100
AcDbLine
 10
107.4775650948
 20
119.4890024005
 30
0.0
 11
105.8478794267
 21
119.4890024005
 31
0.0
  0
LINE
  5
1E0
330
1F
100
AcDbEntity
  8
0
  6
Continuous
 62
     7
370
    25
100
AcDbLine
 10
105.8478796266
 20
119.4890027394
 30
0.0
 11
105.1522431486
 21
119.8906286472
 31
0.0
  0
LINE
  5
1E1
330
1F
100
AcDbEntity
  8
0
  6
Continuous
 62
     7
370
    25
100
AcDbLine
 10
113.9018411107
 20
117.4915024005
 30
0.0
 11
113.6496694827
 21
117.4915024005
 31
0.0
  0
SPLINE
  5
1E2
330
1F
100
AcDbEntity
  8
0
  6
Continuous
 62
     7
370
    25
100
AcDbSpline
210
0.0
220
0.0
230
1.0
 70
     8
 71
     3
 72
    26
 73
    22
 74
     0
 42
0.000000001
 43
0.00000001
 40
0.0
 40
0.0
 40
0.0
 40
0.0
 40
0.0524616032245984
 40
0.1026497911584775
 40
0.1505654136713723
 40
0.1962094561589203
 40
0.2395830674744455
 40
0.2806875955357221
 40
0.3195246332747494
 40
0.3560960787422642
 40
0.3904042149164026
 40
0.4224518174656405
 40
0.4522423030205674
 40
0.4797799375650286
 40
0.5050701364955548
 40
0.5966477315635087
 40
0.6842052596254289
 40
0.768002620409792
 40
0.84833623390995
 40
0.9255424426774792
 40
1.0
 40
1.0
 40
1.0
 40
1.0
 10
113.6478629887805
 20
117.4915321845722
 30
0.0
 10
113.6122265897492
 20
117.5510791046544
 30
0.0
 10
113.5424980894107
 20
117.6675924884411
 30
0.0
 10
113.4290199286509
 20
117.8319904491703
 30
0.0
 10
113.3134943789258
 20
117.9841521869719
 30
0.0
 10
113.196372682916
 20
118.1240548839043
 30
0.0
 10
113.0790009824356
 20
118.2522692078089
 30
0.0
 10
112.9623800164054
 20
118.3692848867472
 30
0.0
 10
112.8474770959484
 20
118.4756620419983
 30
0.0
 10
112.7351528703
 20
118.5719781224486
 30
0.0
 10
112.6261838961264
 20
118.6588274690825
 30
0.0
 10
112.5212648557571
 20
118.736807651002
 30
0.0
 10
112.4210075282451
 20
118.8065158489728
 30
0.0
 10
112.3259701908474
 20
118.8685258348294
 30
0.0
 10
112.1558529916264
 20
118.9730185946865
 30
0.0
 10
111.9029162887627
 20
119.108085232796
 30
0.0
 10
111.5569133896672
 20
119.2524764249208
 30
0.0
 10
111.2089462232995
 20
119.3614411615683
 30
0.0
 10
110.862812336572
 20
119.4359639495242
 30
0.0
 10
110.5217683381147
 20
119.4808856648892
 30
0.0
 10
110.2960412559525
 20
119.4863297100509
 30
0.0
 10
110.1852231772997
 20
119.4890024005368
 30
0.0
  0
SPLINE
  5
1E3
330
1F
100
AcDbEntity
  8
0
  6
Continuous
 62
     7
370
    25
100
AcDbSpline
210
0.0
220
0.0
230
1.0
 70
     8
 71
     3
 72
     8
 73
     4
 74
     0
 42
0.000000001
 43
0.00000001
 40
0.0
 40
0.0
 40
0.0
 40
0.0
 40
1.0
 40
1.0
 40
1.0
 40
1.0
 10
113.9018411106824
 20
117.4915024005367
 30
0.0
 10
113.9308458171099
 20
117.615440127399
 30
0.0
 10
113.9498783367914
 20
117.7433922576323
 30
0.0
 10
113.958129928983
 20
117.8744615703238
 30
0.0
  0
LINE
  5
1E4
330
1F
100
AcDbEntity
  8
0
  6
Continuous
 62
     7
370
    25
100
AcDbLine
 10
110.1852231773
 20
119.4890024005
 30
0.0
 11
107.4775650948
 21
119.4890024005
 31
0.0
  0
LINE
  5
1E5
330
1F
100
AcDbEntity
  8
0
  6
Continuous
 62
     7
370
    25
100
AcDbLine
 10
126.9478802134
 20
113.4917758113
 30
0.0
 11
126.2978802134
 21
113.6415024005
 31
0.0
  0
SPLINE
  5
1E6
330
1F
100
AcDbEntity
  8
0
  6
Continuous
 62
     7
370
    25
100
AcDbSpline
210
0.0
220
0.0
230
1.0
 70
     8
 71
     3
 72
    26
 73
    22
 74
     0
 42
0.000000001
 43
0.00000001
 40
0.0
 40
0.0
 40
0.0
 40
0.0
 40
0.0305951519997827
 40
0.0629165828273272
 40
0.0969719833781277
 40
0.1327679186099648
 40
0.1703100320978399
 40
0.2096032067394201
 40
0.2506516922691944
 40
0.3342139324394213
 40
0.4179514152268007
 40
0.5018666942829891
 40
0.565985799281231
 40
0.6277248002646303
 40
0.6871502460518468
 40
0.7443367736274911
 40
0.7993681411680792
 40
0.8523383421216271
 40
0.9033527751812551
 40
0.952529426871455
 40
1.0
 40
1.0
 40
1.0
 40
1.0
 10
126.2978802134499
 20
113.6415024005369
 30
0.0
 10
126.2969720016053
 20
113.706037567924
 30
0.0
 10
126.2951043336248
 20
113.8387491885173
 30
0.0
 10
126.2795117445628
 20
114.0415632800414
 30
0.0
 10
126.2528678833773
 20
114.2532763209401
 30
0.0
 10
126.2127134542923
 20
114.4729883143197
 30
0.0
 10
126.1578153376355
 20
114.6997351851642
 30
0.0
 10
126.0865723689185
 20
114.9323661890544
 30
0.0
 10
125.968159975194
 20
115.2477645029626
 30
0.0
 10
125.7800290744237
 20
115.6322464059415
 30
0.0
 10
125.4960123293119
 20
116.0622740020098
 30
0.0
 10
125.1865854477534
 20
116.4207710460367
 30
0.0
 10
124.8706569168534
 20
116.7125522078748
 30
0.0
 10
124.5638839391442
 20
116.945025448275
 30
0.0
 10
124.2454435204971
 20
117.1418399233126
 30
0.0
 10
123.9194596309872
 20
117.3039373006672
 30
0.0
 10
123.5899175254499
 20
117.4323988347057
 30
0.0
 10
123.2603630020256
 20
117.5289718536151
 30
0.0
 10
122.9339631981967
 20
117.594813492233
 30
0.0
 10
122.6134745512076
 20
117.634370059194
 30
0.0
 10
122.4018329819689
 20
117.6391530978406
 30
0.0
 10
122.2978802134499
 20
117.6415024005369
 30
0.0
  0
SPLINE
  5
1E7
330
1F
100
AcDbEntity
  8
0
  6
Continuous
 62
     7
370
    25
100
AcDbSpline
210
0.0
220
0.0
230
1.0
 70
     8
 71
     3
 72
    13
 73
     9
 74
     0
 42
0.000000001
 43
0.00000001
 40
0.0
 40
0.0
 40
0.0
 40
0.0
 40
0.1603925272810556
 40
0.3231077919143947
 40
0.488290765366105
 40
0.6560800220784435
 40
0.8266077820764197
 40
1.0
 40
1.0
 40
1.0
 40
1.0
 10
120.3830069341604
 20
117.6415024005369
 30
0.0
 10
120.3239619839739
 20
117.6407469566468
 30
0.0
 10
120.2050170193809
 20
117.6392251288448
 30
0.0
 10
120.0257722822284
 20
117.6267815975579
 30
0.0
 10
119.8448421440275
 20
117.606598894546
 30
0.0
 10
119.6627105003487
 20
117.5774642085683
 30
0.0
 10
119.4795344860602
 20
117.5400471795369
 30
0.0
 10
119.3587874180777
 20
117.5077793707307
 30
0.0
 10
119.2979110419747
 20
117.4915110894571
 30
0.0
  0
SPLINE
  5
1E8
330
1F
100
AcDbEntity
  8
0
  6
Continuous
 62
     7
370
    25
100
AcDbSpline
210
0.0
220
0.0
230
1.0
 70
    24
 71
     3
 72
    10
 73
     6
 74
     0
 42
0.000000001
 43
0.00000001
 40
0.0
 40
0.0
 40
0.0
 40
0.0
 40
0.3215164130170099
 40
0.6546690893741098
 40
1.0
 40
1.0
 40
1.0
 40
1.0
 10
119.2980590483546
 20
117.4915024005368
 30
0.0
 10
119.2295162899977
 20
117.4915024005368
 30
0.0
 10
119.0899500862831
 20
117.4915024005368
 30
0.0
 10
118.8802783983765
 20
117.4915024005369
 30
0.0
 10
118.7405449411443
 20
117.4915024005368
 30
0.0
 10
118.6694241609859
 20
117.4915024005368
 30
0.0
  0
SPLINE
  5
1E9
330
1F
100
AcDbEntity
  8
0
  6
Continuous
 62
     7
370
    25
100
AcDbSpline
210
0.0
220
0.0
230
1.0
 70
     8
 71
     3
 72
     8
 73
     4
 74
     0
 42
0.000000001
 43
0.00000001
 40
0.0
 40
0.0
 40
0.0
 40
0.0
 40
1.0
 40
1.0
 40
1.0
 40
1.0
 10
119.3840624273568
 20
117.8698956416394
 30
0.0
 10
119.1147578858152
 20
117.7731869433385
 30
0.0
 10
118.878595151707
 20
117.6451673517653
 30
0.0
 10
118.6694004226714
 20
117.4916695984987
 30
0.0
  0
LINE
  5
1EA
330
1F
100
AcDbEntity
  8
0
  6
Continuous
 62
     7
370
    25
100
AcDbLine
 10
118.6699174823
 20
101.3665024005
 30
0.0
 11
118.8387037421
 21
101.3665024005
 31
0.0
  0
LINE
  5
1EB
330
1F
100
AcDbEntity
  8
0
  6
Continuous
 62
     7
370
    25
100
AcDbLine
 10
122.2978802134
 20
117.6415024005
 30
0.0
 11
120.3830069342
 21
117.6415024005
 31
0.0
  0
LINE
  5
1EC
330
1F
100
AcDbEntity
  8
0
  6
Continuous
 62
     7
370
    25
100
AcDbLine
 10
118.6696457875
 20
117.4915024005
 30
0.0
 11
113.9018411107
 21
117.4915024005
 31
0.0
  0
LINE
  5
1ED
330
1F
100
AcDbEntity
  8
0
  6
Continuous
 62
     7
370
    25
100
AcDbLine
 10
126.2978802134
 20
109.4290024005
 30
0.0
 11
126.2978802134
 21
113.6415024005
 31
0.0
  0
LINE
  5
1EE
330
1F
100
AcDbEntity
  8
VERMASSUNG
  6
CENTERX2
100
AcDbLine
 10
214.2928802134
 20
109.4290024005
 30
0.0
 11
94.3528802134
 21
109.4290024005
 31
0.0
  0
HATCH
  5
1EF
330
1F
100
AcDbEntity
  8
0
  6
Continuous
 62
     7
370
    18
100
AcDbHatch
 10
0.0
 20
0.0
 30
0.0
210
0.0
220
0.0
230
1.0
  2
ANSI31
 70
     0
 71
     0
 91
        1
 92
        0
 93
       44
 72
     1
 10
152.3228802134498
 20
138.2790024005368
 11
152.3228802134498
 21
138.3765976647285
 72
     1
 10
152.3228802134498
 20
138.3765976647285
 11
150.8636824088798
 21
140.9040024005369
 72
     1
 10
150.8636824088798
 20
140.9040024005369
 11
144.4978802134499
 21
140.9040024005369
 72
     2
 10
144.4978802134499
 20
140.7040024005368
 40
0.2000000000000028
 50
90.0
 51
180.0
 73
     1
 72
     1
 10
144.2978802134499
 20
140.7040024005368
 11
144.2978802134499
 21
136.2790024005369
 72
     1
 10
144.2978802134499
 20
136.2790024005369
 11
144.6319188994785
 21
135.2195670401403
 72
     2
 10
143.8689453388799
 20
134.9790024005368
 40
0.8000000000000049
 50
342.5000000000001
 51
467.5000000000003
 73
     0
 72
     1
 10
143.6283806992765
 20
134.2160288399383
 11
143.1376981734191
 21
134.3707404460652
 72
     1
 10
143.1376981734191
 20
134.3707404460652
 11
129.8162249008996
 21
133.701763473039
 72
     1
 10
129.816223307501
 20
133.7017667821074
 11
129.1478931615715
 21
132.8926549597163
 72
     1
 10
129.1478931615715
 20
132.8926549597163
 11
129.1478802134499
 21
127.5352284212884
 72
     1
 10
129.1478833416836
 20
127.5352285461689
 11
129.7738293552258
 21
127.0665036908289
 72
     1
 10
129.7738296035346
 20
127.0665024005368
 11
134.7978802134499
 21
127.0665024005368
 72
     1
 10
134.7978802134499
 20
127.0665024005368
 11
135.6731206870307
 21
127.5718227235644
 72
     2
 10
136.0731206870307
 20
126.8790024005368
 40
0.7999999999999937
 50
240.0000000000009
 51
270.0000000000008
 73
     0
 72
     1
 10
136.0731206870307
 20
127.6790024005368
 11
137.4978802134499
 21
127.6790024005368
 72
     2
 10
137.4978802134499
 20
126.8790024005368
 40
0.7999999999999977
 50
270.0000000000008
 51
360.0000000000008
 73
     0
 72
     1
 10
138.2978802134498
 20
126.8790024005368
 11
138.2978802134498
 21
124.9790024005369
 72
     1
 10
138.2978802134498
 20
124.9790024005369
 11
141.9978802134499
 21
124.9790024005369
 72
     2
 10
141.9978802134499
 20
123.7790024005369
 40
1.2
 50
270.0000000000008
 51
360.0000000000008
 73
     0
 72
     1
 10
143.1978802134499
 20
123.7790024005369
 11
143.1978802134499
 21
114.6599425082127
 72
     1
 10
143.1978802134499
 20
114.6599425082127
 11
143.5978802134499
 21
114.4290024005369
 72
     1
 10
143.5978802134499
 20
114.4290024005369
 11
147.0228802134499
 21
114.4290024005369
 72
     1
 10
147.0228802134499
 20
114.4290024005369
 11
147.0228802134499
 21
115.1790024005369
 72
     1
 10
147.0228802134499
 20
115.1790024005369
 11
147.8478802134499
 21
115.1790024005369
 72
     1
 10
147.8478802134499
 20
115.1790024005369
 11
147.8478802134499
 21
113.4290024005369
 72
     1
 10
147.8478802134499
 20
113.4290024005369
 11
155.2978802134498
 21
113.4290024005369
 72
     1
 10
155.2978802134498
 20
113.4290024005369
 11
155.2978802134499
 21
117.3290024005368
 72
     2
 10
155.6978802134499
 20
117.3290024005368
 40
0.4000000000000054
 50
180.0
 51
270.0000000000008
 73
     0
 72
     1
 10
155.6978802134499
 20
117.7290024005369
 11
158.4031061953301
 21
117.7290024005368
 72
     2
 10
158.4031061953301
 20
117.3290024005368
 40
0.3999999999999987
 50
270.0000000000008
 51
289.9999999999992
 73
     0
 72
     1
 10
158.5399142526604
 20
117.7048794488512
 11
159.2978802134499
 21
117.4290024005368
 72
     1
 10
159.2978802134499
 20
117.4290024005368
 11
174.7978802134492
 21
117.4290024005373
 72
     1
 10
174.7978802134498
 20
117.4290024005368
 11
174.7978802134498
 21
132.4290024908243
 72
     1
 10
174.7978802134498
 20
132.4290024908243
 11
173.7978802683062
 21
133.4290024005368
 72
     1
 10
173.7978802683062
 20
133.4290024005368
 11
165.2978802134498
 21
133.4290024005368
 72
     2
 10
165.2978802134498
 20
136.4290024005369
 40
3.0
 50
90.0
 51
180.0
 73
     0
 72
     1
 10
162.2978802134499
 20
136.4290024005369
 11
162.2978802134499
 21
140.9040024005369
 72
     1
 10
162.2978802134499
 20
140.9040024005369
 11
157.5320780180199
 21
140.9040024005369
 72
     1
 10
157.5320780180199
 20
140.9040024005369
 11
156.0728802134499
 21
138.3765976647285
 72
     1
 10
156.0728802134499
 20
138.3765976647285
 11
156.0728802134499
 21
138.2790024005368
 72
     2
 10
155.0728802134499
 20
138.2790024005368
 40
1.000000000000003
 50
0.0
 51
90.0
 73
     0
 72
     1
 10
155.0728802134499
 20
137.2790024005368
 11
153.3228802134499
 21
137.2790024005368
 72
     2
 10
153.3228802134499
 20
138.2790024005368
 40
1.000000000000003
 50
90.0
 51
180.0
 73
     0
 97
        0
 75
     0
 76
     1
 52
0.0
 41
1.0
 77
     0
 78
     1
 53
45.0
 43
0.0
 44
0.0
 45
-2.245064030267288
 46
2.245064030267288
 79
     0
 98
        1
 10
0.0
 20
0.0
  0
HATCH
  5
1F0
330
1F
100
AcDbEntity
  8
0
  6
Continuous
 62
     7
370
    18
100
AcDbHatch
 10
0.0
 20
0.0
 30
0.0
210
0.0
220
0.0
230
1.0
  2
ANSI31
 70
     0
 71
     0
 91
        1
 92
        0
 93
        8
 72
     1
 10
186.7978802134499
 20
117.4290024005368
 11
203.9978802134499
 21
117.4290024005368
 72
     2
 10
203.9978802134499
 20
117.7290024005368
 40
0.2999999999999973
 50
270.0000000000008
 51
360.0000000000008
 73
     1
 72
     1
 10
204.2978802134498
 20
117.7290024005368
 11
204.2978802134498
 21
126.1548618789218
 72
     2
 10
202.2978802134498
 20
126.1548618789218
 40
2.0
 50
0.0
 51
64.99999999999957
 73
     1
 72
     1
 10
203.1431167369313
 20
127.9674774529951
 11
191.4308386903926
 21
133.4290024005368
 72
     1
 10
191.4308386903926
 20
133.4290024005368
 11
187.7978799780053
 21
133.4290024005368
 72
     1
 10
187.7978799109461
 20
133.4290023469274
 11
186.7978800011809
 21
132.4290024394487
 72
     1
 10
186.7978802134499
 20
132.4290024131164
 11
186.7978802134499
 21
117.4290024005368
 97
        0
 75
     0
 76
     1
 52
0.0
 41
1.0
 77
     0
 78
     1
 53
45.0
 43
0.0
 44
0.0
 45
-2.245064030267288
 46
2.245064030267288
 79
     0
 98
        1
 10
0.0
 20
0.0
  0
HATCH
  5
1F1
330
1F
100
AcDbEntity
  8
0
  6
Continuous
 62
     7
370
    18
100
AcDbHatch
 10
0.0
 20
0.0
 30
0.0
210
0.0
220
0.0
230
1.0
  2
ANSI31
 70
     0
 71
     0
 91
        1
 92
        0
 93
        9
 72
     1
 10
114.647908344038
 20
132.0932767724198
 11
113.8983183651023
 21
132.9023881101873
 72
     1
 10
113.8983183651023
 20
132.9023881101873
 11
105.8478802134499
 21
132.4981225281192
 72
     1
 10
105.8478802134499
 20
132.4981225281192
 11
104.3478802134499
 21
131.6320971243348
 72
     1
 10
104.3478802134499
 20
131.6320971243348
 11
104.3478802134499
 21
129.6665024005369
 72
     1
 10
104.3478802134499
 20
129.6665024005369
 11
105.0995462632894
 21
128.3645786118902
 72
     1
 10
105.0995462632894
 20
128.3645786118902
 11
107.3478802134499
 21
127.0665024005368
 72
     1
 10
107.3478802134499
 20
127.0665024005368
 11
111.2178800581588
 21
127.0665024005369
 72
     1
 10
111.2178800581588
 20
127.0665024005369
 11
114.6478802134499
 21
131.9650502854408
 72
     1
 10
114.6478802134499
 20
131.9650502854408
 11
114.6478802134499
 21
132.0932756589265
 97
        0
 75
     0
 76
     1
 52
0.0
 41
1.0
 77
     0
 78
     1
 53
45.0
 43
0.0
 44
0.0
 45
-2.245064030267288
 46
2.245064030267288
 79
     0
 98
        1
 10
0.0
 20
0.0
  0
HATCH
  5
1F2
330
1F
100
AcDbEntity
  8
0
  6
Continuous
 62
     7
370
    18
100
AcDbHatch
 10
0.0
 20
0.0
 30
0.0
210
0.0
220
0.0
230
1.0
  2
ANSI31
 70
     0
 71
     0
 91
        1
 92
        0
 93
       15
 72
     1
 10
175.7978802134499
 20
116.9290024005368
 11
177.0478802134499
 21
116.9290024005368
 72
     1
 10
177.0478802134499
 20
116.9290024005368
 11
180.7978802134499
 21
119.0940659099979
 72
     1
 10
180.7978802134499
 20
119.0940659099979
 11
184.5478802134499
 21
116.9290024005368
 72
     1
 10
184.5478802134499
 20
116.9290024005368
 11
185.7978802134499
 21
116.9290024005368
 72
     1
 10
185.7978802134499
 20
116.9290024005368
 11
187.7978802134499
 21
118.9290024005368
 72
     1
 10
187.7978802134499
 20
118.9290024005368
 11
187.7978802134499
 21
132.4290024005368
 72
     1
 10
187.7978802134499
 20
132.4290024005368
 11
186.7978802134499
 21
133.4290024005368
 72
     1
 10
186.7978802134499
 20
133.4290024005368
 11
183.801158655327
 21
133.4290024005368
 72
     1
 10
183.801158655327
 20
133.4290024005368
 11
183.801158655327
 21
125.4290024005368
 72
     1
 10
183.801158655327
 20
125.4290024005368
 11
177.7946017715728
 21
125.4290024005368
 72
     1
 10
177.7946017715728
 20
125.4290024005368
 11
177.7946017715728
 21
133.4290024005368
 72
     1
 10
177.7946017715728
 20
133.4290024005368
 11
174.7978802134499
 21
133.4290024005368
 72
     1
 10
174.7978802134499
 20
133.4290024005368
 11
173.7978802134499
 21
132.4290024005368
 72
     1
 10
173.7978802134499
 20
132.4290024005368
 11
173.7978802134499
 21
118.9290024005368
 72
     1
 10
173.7978802134499
 20
118.9290024005368
 11
175.7978802134499
 21
116.9290024005368
 97
        0
 75
     0
 76
     1
 52
0.0
 41
1.0
 77
     0
 78
     1
 53
45.0
 43
0.0
 44
0.0
 45
-2.245064030267288
 46
2.245064030267288
 79
     0
 98
        1
 10
0.0
 20
0.0
  0
DIMENSION
  5
1F3
330
1F
100
AcDbEntity
  8
VERMASSUNG
100
AcDbDimension
  2
_D
 10
227.237146957
 20
101.4290024005
 30
0.0
 11
227.237146957
 21
109.4290024005
 31
0.0
 70
   160
  1
%%c<>
 71
     2
 42
-1.0
  3
SLDDIMSTYLE0
100
AcDbAlignedDimension
 13
174.7978802134
 23
117.4290024005
 33
0.0
 14
203.9978802134
 24
101.4290024005
 34
0.0
 50
90.0
100
AcDbRotatedDimension
  0
DIMENSION
  5
1FD
330
1F
100
AcDbEntity
  8
VERMASSUNG
100
AcDbDimension
  2
_D_1
 10
238.2978802134
 20
85.4290024005
 30
0.0
 11
238.2978802134
 21
109.4290024005
 31
0.0
 70
   160
  1
%%c<>
 71
     2
 42
-1.0
  3
SLDDIMSTYLE1
100
AcDbAlignedDimension
 13
191.4308386904
 23
133.4290024005
 33
0.0
 14
191.4308386904
 24
85.4290024005
 34
0.0
 50
90.0
100
AcDbRotatedDimension
  0
DIMENSION
  5
209
330
1F
100
AcDbEntity
  8
VERMASSUNG
100
AcDbDimension
  2
_D_2
 10
84.5390977444
 20
77.9540024005
 30
0.0
 11
84.5390977444
 21
109.4290024005
 31
0.0
 70
   160
  1
KM%%c<> XMZ
 71
     2
 42
-1.0
  3
SLDDIMSTYLE2
100
AcDbAlignedDimension
 13
157.532078018
 23
140.9040024005
 33
0.0
 14
157.532078018
 24
77.9540024005
 34
0.0
 50
90.0
100
AcDbRotatedDimension
  0
DIMENSION
  5
217
330
1F
100
AcDbEntity
  8
VERMASSUNG
100
AcDbDimension
  2
_D_3
 10
204.2978802134
 20
148.1637327098
 30
0.0
 11
183.2978802134
 21
148.1637327098
 31
0.0
 70
   160
  1
<>
 71
     2
 42
-1.0
  3
SLDDIMSTYLE1
100
AcDbAlignedDimension
 13
162.2978802134
 23
140.9040024005
 33
0.0
 14
204.2978802134
 24
126.1548618789
 34
0.0
100
AcDbRotatedDimension
  0
DIMENSION
  5
221
330
1F
100
AcDbEntity
  8
VERMASSUNG
100
AcDbDimension
  2
_D_4
 10
204.2978802134
 20
156.9040024005
 30
0.0
 11
174.2978802134
 21
156.9040024005
 31
0.0
 70
   160
  1
<>
 71
     2
 42
-1.0
  3
SLDDIMSTYLE1
100
AcDbAlignedDimension
 13
144.2978802134
 23
140.7040024005
 33
0.0
 14
204.2978802134
 24
126.1548618789
 34
0.0
100
AcDbRotatedDimension
  0
DIMENSION
  5
22B
330
1F
100
AcDbEntity
  8
VERMASSUNG
100
AcDbDimension
  2
_D_5
 10
204.2978802134
 20
165.3947368421
 30
0.0
 11
154.3228802134
 21
165.3947368421
 31
0.0
 70
   160
  1
<>
 71
     2
 42
-1.0
  3
SLDDIMSTYLE1
100
AcDbAlignedDimension
 13
104.3478802134
 23
131.6320971243
 33
0.0
 14
204.2978802134
 24
126.1548618789
 34
0.0
 50
0.0
100
AcDbRotatedDimension
  0
LINE
  5
235
330
1F
100
AcDbEntity
  8
0
  6
Continuous
 62
     7
370
    25
100
AcDbLine
 10
263.7689961811
 20
22.856831628
 30
0.0
 11
268.7485378818
 21
22.9589643506
 31
0.0
  0
LINE
  5
236
330
1F
100
AcDbEntity
  8
0
  6
Continuous
 62
     7
370
    25
100
AcDbLine
 10
277.4986002032
 20
38.1161591743
 30
0.0
 11
275.096869435
 21
42.4794097927
 31
0.0
  0
SPLINE
  5
237
330
1F
100
AcDbEntity
  8
0
  6
Continuous
 62
     7
370
    25
100
AcDbSpline
210
0.0
220
0.0
230
1.0
 70
     8
 71
     3
 72
    31
 73
    27
 74
     0
 42
0.000000001
 43
0.00000001
 40
0.0
 40
0.0
 40
0.0
 40
0.0
 40
0.0341579608222983
 40
0.0756637134285513
 40
0.1179112195752497
 40
0.1606846520028963
 40
0.2037465262797562
 40
0.2469002152297602
 40
0.2900118242910192
 40
0.3330405905607655
 40
0.3759798186039555
 40
0.4188417558444262
 40
0.4616482998369658
 40
0.5044259811910399
 40
0.5472035202624541
 40
0.5900048530540929
 40
0.6328563447796929
 40
0.6757884661888242
 40
0.718830502655869
 40
0.7620077196767598
 40
0.8053354749692625
 40
0.848808109607868
 40
0.8923802688952358
 40
0.9358866348708941
 40
0.9790980828729997
 40
1.0
 40
1.0
 40
1.0
 40
1.0
 10
268.8767502708822
 20
22.96911805703657
 30
0.0
 10
269.0592449708481
 20
22.98131872173025
 30
0.0
 10
269.4634911948039
 20
23.00834456211408
 30
0.0
 10
270.104370318456
 20
23.15638941870558
 30
0.0
 10
270.7935639307605
 20
23.39127153378936
 30
0.0
 10
271.4897359262918
 20
23.71502610267265
 30
0.0
 10
272.1840359159386
 20
24.12063376817046
 30
0.0
 10
272.8683124332407
 20
24.60359914119496
 30
0.0
 10
273.5350718930056
 20
25.15737105398289
 30
0.0
 10
274.1777475300096
 20
25.77531700392952
 30
0.0
 10
274.7904873400705
 20
26.45061914423397
 30
0.0
 10
275.3678164533694
 20
27.17625261538791
 30
0.0
 10
275.9045596145455
 20
27.94495131284092
 30
0.0
 10
276.3958258273603
 20
28.74922334598359
 30
0.0
 10
276.8370025496164
 20
29.58134363680499
 30
0.0
 10
277.2237990089394
 20
30.43341531746389
 30
0.0
 10
277.5522895239556
 20
31.29746846082756
 30
0.0
 10
277.8189258427792
 20
32.1655752610572
 30
0.0
 10
278.0205162162219
 20
33.02990830562533
 30
0.0
 10
278.1541323011785
 20
33.88270366644187
 30
0.0
 10
278.2172254722202
 20
34.71634966709422
 30
0.0
 10
278.206991933554
 20
35.52276120554608
 30
0.0
 10
278.1227845008719
 20
36.29459571500454
 30
0.0
 10
277.9579944609332
 20
37.01838186639235
 30
0.0
 10
277.7704671246717
 20
37.5851579596486
 30
0.0
 10
277.6086428445559
 20
37.88502318850593
 30
0.0
 10
277.5558857059264
 20
37.98278374358244
 30
0.0
  0
LINE
  5
238
330
1F
100
AcDbEntity
  8
0
  6
Continuous
 62
     7
370
    25
100
AcDbLine
 10
252.2153269515
 20
28.7516018697
 30
0.0
 11
261.4547230273
 21
23.417812048
 31
0.0
  0
LINE
  5
239
330
1F
100
AcDbEntity
  8
0
  6
Continuous
 62
     7
370
    25
100
AcDbLine
 10
273.4537478189
 20
44.2029847452
 30
0.0
 11
264.2143517432
 21
49.5367745668
 31
0.0
  0
LINE
  5
23A
330
1F
100
AcDbEntity
  8
0
  6
Continuous
 62
     7
370
    25
100
AcDbLine
 10
247.601103123
 20
27.0997602233
 30
0.0
 11
249.2860686481
 21
26.1270503304
 31
0.0
  0
LINE
  5
23B
330
1F
100
AcDbEntity
  8
0
  6
Continuous
 62
     7
370
    25
100
AcDbLine
 10
265.022289703
 20
53.3859382738
 30
0.0
 11
263.3373241779
 21
54.3586481667
 31
0.0
  0
LINE
  5
23C
330
1F
100
AcDbEntity
  8
0
  6
Continuous
 62
     7
370
    25
100
AcDbLine
 10
269.1196167695
 20
29.3435672423
 30
0.0
 11
269.1128624214
 21
29.5513929043
 31
0.0
  0
SPLINE
  5
23D
330
1F
100
AcDbEntity
  8
0
  6
Continuous
 62
     7
370
    25
100
AcDbSpline
210
0.0
220
0.0
230
1.0
 70
     8
 71
     3
 72
     9
 73
     5
 74
     0
 42
0.000000001
 43
0.00000001
 40
0.0
 40
0.0
 40
0.0
 40
0.0
 40
0.6845239885409189
 40
1.0
 40
1.0
 40
1.0
 40
1.0
 10
269.1282208477585
 20
29.26185680576692
 30
0.0
 10
269.1249848237285
 20
29.27953521786134
 30
0.0
 10
269.1202574159472
 20
29.30536106529746
 30
0.0
 10
269.119770408651
 20
29.33440467888083
 30
0.0
 10
269.1196167695316
 20
29.34356724225246
 30
0.0
  0
LINE
  5
23E
330
1F
100
AcDbEntity
  8
0
  6
Continuous
 62
     7
370
    25
100
AcDbLine
 10
272.6239484914
 20
34.7828296341
 30
0.0
 11
272.7178112474
 21
34.8089550009
 31
0.0
  0
LINE
  5
23F
330
1F
100
AcDbEntity
  8
0
  6
Continuous
 62
     7
370
    25
100
AcDbLine
 10
269.1128624214
 20
29.5513929043
 30
0.0
 11
269.1147377002
 21
29.6070153603
 31
0.0
  0
LINE
  5
240
330
1F
100
AcDbEntity
  8
0
  6
Continuous
 62
     7
370
    25
100
AcDbLine
 10
242.9928182956
 20
29.760066428
 30
0.0
 11
245.2434692456
 21
28.4607932903
 31
0.0
  0
LINE
  5
241
330
1F
100
AcDbEntity
  8
0
  6
Continuous
 62
     7
370
    25
100
AcDbLine
 10
260.9796903005
 20
55.7196812338
 30
0.0
 11
258.7290393504
 21
57.0189543714
 31
0.0
  0
LINE
  5
242
330
1F
100
AcDbEntity
  8
0
  6
Continuous
 62
     7
370
    25
100
AcDbLine
 10
251.9516504775
 20
56.7988364068
 30
0.0
 11
242.754437921
 21
61.3794890659
 31
0.0
  0
LINE
  5
243
330
1F
100
AcDbEntity
  8
0
  6
Continuous
 62
     7
370
    25
100
AcDbLine
 10
231.2280902094
 20
41.4131058044
 30
0.0
 11
239.7941905216
 21
35.7392162184
 31
0.0
  0
LINE
  5
244
330
1F
100
AcDbEntity
  8
0
  6
Continuous
 62
     7
370
    25
100
AcDbLine
 10
236.2075277577
 20
42.359595842
 30
0.0
 11
236.2075277577
 21
41.9942768253
 31
0.0
  0
LINE
  5
245
330
1F
100
AcDbEntity
  8
0
  6
Continuous
 62
     7
370
    25
100
AcDbLine
 10
240.1054942586
 20
61.7564575396
 30
0.0
 11
239.4659438061
 21
61.6692464742
 31
0.0
  0
LWPOLYLINE
  5
246
330
1F
100
AcDbEntity
  8
0
  6
Continuous
 62
     7
370
    25
100
AcDbPolyline
 90
        3
 70
   128
 43
0.0
 10
277.4986002032
 20
38.1161591743
 10
277.5437095597
 20
38.0319475851
 10
277.5570437033
 20
38.0061496535
  0
LINE
  5
247
330
1F
100
AcDbEntity
  8
0
  6
Continuous
 62
     7
370
    25
100
AcDbLine
 10
268.8598544262
 20
22.962727762
 30
0.0
 11
268.7485378818
 21
22.9589643506
 31
0.0
  0
LWPOLYLINE
  5
248
330
1F
100
AcDbEntity
  8
0
  6
Continuous
 62
     7
370
    25
100
AcDbPolyline
 90
       30
 70
   128
 43
0.0
 10
258.9689540489
 20
28.9119497257
 10
259.0062385278
 20
29.8510187719
 10
259.1177643072
 20
30.8248829886
 10
259.3025512944
 20
31.8249840221
 10
259.558975575
 20
32.8425329484
 10
259.8847836829
 20
33.8685875112
 10
260.2771124049
 20
34.8941307059
 10
260.7325139421
 20
35.9101500221
 10
261.2469862093
 20
36.9077166455
 10
261.8160080058
 20
37.8780639248
 10
262.4345787476
 20
38.8126644132
 10
263.0972624127
 20
39.7033048079
 10
263.7982353133
 20
40.5421581293
 10
264.5313372743
 20
41.321852504
 10
265.2901257694
 20
42.03553595
 10
266.0679325379
 20
42.6769365914
 10
266.857922186
 20
43.2404177763
 10
267.6531522563
 20
43.7210276119
 10
268.4466342382
 20
44.1145424815
 10
269.2313949838
 20
44.4175041625
 10
270.0005379872
 20
44.6272502166
 10
270.7473039921
 20
44.7419373879
 10
271.465130392
 20
44.7605578016
 10
272.1477089027
 20
44.6829478207
 10
272.7890409997
 20
44.5097894844
 10
273.3834906335
 20
44.2426045147
 10
273.9258337593
 20
43.8837409424
 10
274.4113042463
 20
43.4363524737
 10
274.8356357622
 20
42.9043707744
 10
275.096869435
 20
42.4794097927
  0
LWPOLYLINE
  5
249
330
1F
100
AcDbEntity
  8
0
  6
Continuous
 62
     7
370
    25
100
AcDbPolyline
 90
       13
 70
   128
 43
0.0
 10
263.7689961811
 20
22.856831628
 10
263.0972624127
 20
22.8870380237
 10
262.4345787476
 20
23.0125601447
 10
261.8160080058
 20
23.2329740565
 10
261.2469862093
 20
23.5463427537
 10
260.7325139421
 20
23.949912341
 10
260.2771124049
 20
24.4401362343
 10
259.8847836829
 20
25.0127063284
 10
259.558975575
 20
25.6625908567
 10
259.3025512944
 20
26.3840786106
 10
259.1177643072
 20
27.1708291298
 10
259.0062385278
 20
28.0159284225
 10
258.9689540489
 20
28.9119497257
  0
LINE
  5
24A
330
1F
100
AcDbEntity
  8
0
  6
Continuous
 62
     7
370
    25
100
AcDbLine
 10
252.1810485878
 20
28.7716177375
 30
0.0
 11
252.2153269515
 21
28.7516018697
 31
0.0
  0
ARC
  5
24B
330
1F
100
AcDbEntity
  8
0
  6
Continuous
 62
     7
370
    25
100
AcDbCircle
 10
275.0778647937
 20
29.3601934471
 30
0.0
 40
6.010341755834711
100
AcDbArc
 50
113.462434148
 51
178.7609278668
  0
ARC
  5
24C
330
1F
100
AcDbEntity
  8
0
  6
Continuous
 62
     7
370
    25
100
AcDbCircle
 10
268.6731941696
 20
33.1255096063
 30
0.0
 40
6.274486530515797
100
AcDbArc
 50
299.9790349482
 51
356.3727569007
  0
LINE
  5
24D
330
1F
100
AcDbEntity
  8
0
  6
Continuous
 62
     7
370
    25
100
AcDbLine
 10
269.0768938837
 20
29.2452526047
 30
0.0
 11
269.0689284386
 21
29.4901622959
 31
0.0
  0
LWPOLYLINE
  5
24E
330
1F
100
AcDbEntity
  8
0
  6
Continuous
 62
     7
370
    25
100
AcDbPolyline
 90
       39
 70
   128
 43
0.0
 10
246.0260862066
 20
33.3323829722
 10
246.064094286
 20
34.4154948431
 10
246.1778588904
 20
35.535091156
 10
246.3666028921
 20
36.6835239328
 10
246.6290369783
 20
37.8529482133
 10
246.9633684581
 20
39.0353756436
 10
247.3673135084
 20
40.2227290457
 10
247.838112775
 20
41.4068975916
 10
248.3725502215
 20
42.5797922096
 10
248.9669750981
 20
43.7334008401
 10
249.6173268804
 20
44.8598431665
 10
250.3191630061
 20
45.9514244453
 10
251.0676892228
 20
47.0006880697
 10
251.8577923375
 20
48.0004665052
 10
252.6840751448
 20
48.9439302512
 10
253.5408932953
 20
49.8246344938
 10
254.4223938521
 20
50.6365631299
 10
255.3225552727
 20
51.3741698636
 10
256.2352285418
 20
52.0324160931
 10
257.1541791756
 20
52.6068053291
 10
258.0731298093
 20
53.0934139108
 10
258.9858030784
 20
53.4889178081
 10
259.885964499
 20
53.7906153284
 10
260.7674650558
 20
53.9964455716
 10
261.6242832063
 20
54.1050025086
 10
262.4505660136
 20
54.1155445853
 10
263.2406691283
 20
54.0279997887
 10
263.9891953451
 20
53.8429661384
 10
264.6910314708
 20
53.5617076021
 10
265.341383253
 20
53.1861454606
 10
265.9358081297
 20
52.7188451842
 10
266.4702455761
 20
52.1629989077
 10
266.9410448427
 20
51.5224036246
 10
267.344989893
 20
50.8014352504
 10
267.6793213728
 20
50.0050187301
 10
267.941755459
 20
49.1385943961
 10
268.1304994608
 20
48.2080808051
 10
268.2442640651
 20
47.2198343086
 10
268.2450017015
 20
47.2099298741
  0
LWPOLYLINE
  5
24F
330
1F
100
AcDbEntity
  8
0
  6
Continuous
 62
     7
370
    25
100
AcDbPolyline
 90
       20
 70
   128
 43
0.0
 10
256.2459769098
 20
26.424757177
 10
256.2352285418
 20
26.4195746934
 10
255.3225552727
 20
26.0240707961
 10
254.4223938521
 20
25.7223732758
 10
253.5408932953
 20
25.5165430326
 10
252.6840751448
 20
25.4079860956
 10
251.8577923375
 20
25.3974440189
 10
251.0676892228
 20
25.4849888155
 10
250.3191630061
 20
25.6700224657
 10
249.6173268804
 20
25.9512810021
 10
248.9669750981
 20
26.3268431436
 10
248.3725502215
 20
26.79414342
 10
247.838112775
 20
27.3499896965
 10
247.3673135084
 20
27.9905849796
 10
246.9633684581
 20
28.7115533538
 10
246.6290369783
 20
29.5079698741
 10
246.3666028921
 20
30.3743942081
 10
246.1778588904
 20
31.304907799
 10
246.064094286
 20
32.2931542956
 10
246.0260862066
 20
33.3323829722
  0
SPLINE
  5
250
330
1F
100
AcDbEntity
  8
0
  6
Continuous
 62
     7
370
    25
100
AcDbSpline
210
0.0
220
0.0
230
1.0
 70
     8
 71
     3
 72
    25
 73
    21
 74
     0
 42
0.000000001
 43
0.00000001
 40
0.0
 40
0.0
 40
0.0
 40
0.0
 40
0.1249999999999998
 40
0.1249999999999998
 40
0.2499999999999997
 40
0.2499999999999997
 40
0.3749999999999995
 40
0.3749999999999995
 40
0.4999999999999993
 40
0.4999999999999993
 40
0.5624999999999996
 40
0.5624999999999996
 40
0.6249999999999998
 40
0.6875000000000001
 40
0.6875000000000001
 40
0.7500000000000003
 40
0.7500000000000003
 40
0.8750000000000001
 40
0.8750000000000001
 40
1.0
 40
1.0
 40
1.0
 40
1.0
 10
250.8596750517079
 20
49.76419756775942
 30
0.0
 10
250.888798349969
 20
49.65301204723023
 30
0.0
 10
250.9011873908282
 20
49.53776983480221
 30
0.0
 10
250.8942099057279
 20
49.29867426696641
 30
0.0
 10
250.8741923178759
 20
49.17390029709114
 30
0.0
 10
250.8039701601626
 20
48.92753138787872
 30
0.0
 10
250.753319505569
 20
48.80332024051759
 30
0.0
 10
250.6234047619138
 20
48.55969174520743
 30
0.0
 10
250.5457038139245
 20
48.44263465014927
 30
0.0
 10
250.4103302316984
 20
48.27397813229923
 30
0.0
 10
250.3616957343913
 20
48.21861111102707
 30
0.0
 10
250.2602563990093
 20
48.11289129963006
 30
0.0
 10
250.1543864162685
 20
48.01173034100961
 30
0.0
 10
250.039794623941
 20
47.91955601933282
 30
0.0
 10
249.9207119547228
 20
47.83201917659269
 30
0.0
 10
249.8587539416654
 20
47.79052070708051
 30
0.0
 10
249.6708902381448
 20
47.6764003853424
 30
0.0
 10
249.5415128017908
 20
47.61279295422781
 30
0.0
 10
249.2738295487288
 20
47.51152465325357
 30
0.0
 10
249.1379578622637
 20
47.47498374502878
 30
0.0
 10
249.0024405955361
 20
47.45381556067871
 30
0.0
  0
LWPOLYLINE
  5
251
330
1F
100
AcDbEntity
  8
0
  6
Continuous
 62
     7
370
    25
100
AcDbPolyline
 90
       16
 70
   128
 43
0.0
 10
250.8596750517
 20
49.7641975678
 10
251.7228185309
 20
50.6666421687
 10
252.6122071274
 20
51.4994707209
 10
253.5216102896
 20
52.2568489005
 10
254.4446572552
 20
52.9334709458
 10
255.3748816813
 20
53.524596827
 10
256.3057669435
 20
54.0260854517
 10
257.2307917884
 20
54.4344236754
 10
258.1434760169
 20
54.7467509122
 10
259.0374258815
 20
54.9608791749
 10
259.906378877
 20
55.0753084024
 10
260.7442476121
 20
55.0892369685
 10
261.5451624539
 20
55.0025672976
 10
262.303512648
 20
54.8159065482
 10
263.0139856233
 20
54.5305623595
 10
263.3373241779
 20
54.3586481667
  0
LWPOLYLINE
  5
252
330
1F
100
AcDbEntity
  8
0
  6
Continuous
 62
     7
370
    25
100
AcDbPolyline
 90
       22
 70
   128
 43
0.0
 10
247.601103123
 20
27.0997602233
 10
247.0320688271
 20
27.4796226196
 10
246.4592455472
 20
27.9860170995
 10
245.9485282523
 20
28.5802507569
 10
245.5034373323
 20
29.2582275211
 10
245.1270408126
 20
30.0152740774
 10
244.8219332058
 20
30.846172081
 10
244.590217628
 20
31.7451941264
 10
244.4334913017
 20
32.7061432274
 10
244.3528345462
 20
33.7223955324
 10
244.3488033311
 20
34.7869459833
 10
244.4214254436
 20
35.8924566014
 10
244.5702002973
 20
37.0313070682
 10
244.7941023826
 20
38.1956472527
 10
245.0915883356
 20
39.3774513225
 10
245.4606075765
 20
40.5685730662
 10
245.8986164444
 20
41.7608020451
 10
246.4025957309
 20
42.9459201885
 10
246.9690714914
 20
44.115758441
 10
247.5941389911
 20
45.2622530717
 10
248.2734896207
 20
46.3775012582
 10
249.0024405955
 20
47.4538155607
  0
ARC
  5
253
330
1F
100
AcDbEntity
  8
0
  6
Continuous
 62
     7
370
    25
100
AcDbCircle
 10
273.1038744202
 20
33.3142036932
 30
0.0
 40
1.580464953548104
100
AcDbArc
 50
4.6313819702
 51
106.4649473038
  0
ARC
  5
254
330
1F
100
AcDbEntity
  8
0
  6
Continuous
 62
     7
370
    25
100
AcDbCircle
 10
270.7419745588
 20
29.2558325792
 30
0.0
 40
1.658347701371265
100
AcDbArc
 50
178.9680926122
 51
297.7303406453
  0
LWPOLYLINE
  5
255
330
1F
100
AcDbEntity
  8
0
  6
Continuous
 62
     7
370
    25
100
AcDbPolyline
 90
       13
 70
   128
 43
0.0
 10
249.1970538069
 20
49.8884744072
 10
250.0278971008
 20
50.7777672376
 10
250.8867875169
 20
51.5970483258
 10
251.7670327864
 20
52.3399340294
 10
252.6617742483
 20
53.0006359604
 10
253.5640402908
 20
53.5740060869
 10
254.4668006724
 20
54.0555768461
 10
255.3630212996
 20
54.4415959534
 10
256.2457190355
 20
54.7290556403
 10
257.10801611
 20
54.9157160894
 10
257.9431937103
 20
55.0001228871
 10
258.744744332
 20
54.9816183558
 10
258.9976043121
 20
54.9533608148
  0
SPLINE
  5
256
330
1F
100
AcDbEntity
  8
0
  6
Continuous
 62
     7
370
    25
100
AcDbSpline
210
0.0
220
0.0
230
1.0
 70
     8
 71
     3
 72
    26
 73
    22
 74
     0
 42
0.000000001
 43
0.00000001
 40
0.0
 40
0.0
 40
0.0
 40
0.0
 40
0.1250000000000009
 40
0.1250000000000009
 40
0.2500000000000019
 40
0.2500000000000019
 40
0.3125000000000011
 40
0.3125000000000011
 40
0.3750000000000004
 40
0.3750000000000004
 40
0.4375000000000002
 40
0.4375000000000002
 40
0.5000000000000001
 40
0.5000000000000001
 40
0.5625
 40
0.5625
 40
0.6249999999999999
 40
0.6249999999999999
 40
0.7500000000000001
 40
0.7500000000000001
 40
1.0
 40
1.0
 40
1.0
 40
1.0
 10
247.8528605660804
 20
48.21631079463424
 30
0.0
 10
247.8292229698483
 20
48.32588665420723
 30
0.0
 10
247.8116551909666
 20
48.43677591257176
 30
0.0
 10
247.7928426080971
 20
48.66210587243471
 30
0.0
 10
247.7916628333297
 20
48.77778278575308
 30
0.0
 10
247.8077608365651
 20
48.94913829561263
 30
0.0
 10
247.8160795536653
 20
49.0059368077068
 30
0.0
 10
247.8398367029223
 20
49.11876302010388
 30
0.0
 10
247.8554590819713
 20
49.17521587377004
 30
0.0
 10
247.8943162943683
 20
49.28379899017864
 30
0.0
 10
247.9175422510708
 20
49.33617895040418
 30
0.0
 10
247.9725409005492
 20
49.4366357256763
 30
0.0
 10
248.0046191675718
 20
49.48491459344773
 30
0.0
 10
248.0750339161069
 20
49.57261156903148
 30
0.0
 10
248.1136123382335
 20
49.61260069700743
 30
0.0
 10
248.1973206018297
 20
49.68507938112303
 30
0.0
 10
248.2424493117717
 20
49.71741600549964
 30
0.0
 10
248.3817299539618
 20
49.80061577285329
 30
0.0
 10
248.4825190255234
 20
49.83944449548938
 30
0.0
 10
248.7855912967561
 20
49.91486078294457
 30
0.0
 10
248.9941153872411
 20
49.9147306365738
 30
0.0
 10
249.1970538069315
 20
49.88847440724758
 30
0.0
  0
LWPOLYLINE
  5
257
330
1F
100
AcDbEntity
  8
0
  6
Continuous
 62
     7
370
    25
100
AcDbPolyline
 90
       19
 70
   128
 43
0.0
 10
244.9158821713
 20
30.5604595872
 10
244.6908515949
 20
30.8732298001
 10
244.2908825606
 20
31.561682438
 10
243.961670656
 20
32.327668326
 10
243.705710803
 20
33.1653824649
 10
243.5249427848
 20
34.0684762656
 10
243.4207365461
 20
35.0301056613
 10
243.3938818103
 20
36.0429829748
 10
243.4445820952
 20
37.0994321487
 10
243.5724531704
 20
38.1914469173
 10
243.7765259691
 20
39.3107514824
 10
244.0552539322
 20
40.4488632309
 10
244.406524729
 20
41.5971570201
 10
244.8276762653
 20
42.746930543
 10
245.3155168578
 20
43.8894702785
 10
245.8663494226
 20
45.0161175267
 10
246.4759994931
 20
46.118334028
 10
247.1398468561
 20
47.1877666708
 10
247.8528605661
 20
48.2163107946
  0
LINE
  5
258
330
1F
100
AcDbEntity
  8
0
  6
Continuous
 62
     7
370
    25
100
AcDbLine
 10
246.3774685965
 20
27.9723899389
 30
0.0
 11
246.4914557826
 21
28.0262600871
 31
0.0
  0
LWPOLYLINE
  5
259
330
1F
100
AcDbEntity
  8
0
  6
Continuous
 62
     7
370
    25
100
AcDbPolyline
 90
       43
 70
   128
 43
0.0
 10
246.3774685965
 20
27.9723899389
 10
245.6707334684
 20
28.2395774928
 10
245.0145517068
 20
28.6008669071
 10
244.4133814334
 20
29.0538035691
 10
243.8713070196
 20
29.5953102115
 10
243.3920113377
 20
30.2217078194
 10
242.9787507392
 20
30.9287406259
 10
242.6343329308
 20
31.7116050257
 10
242.361097899
 20
32.564982211
 10
242.1609020121
 20
33.4830743079
 10
242.0351054077
 20
34.4596437668
 10
241.9845627524
 20
35.4880557414
 10
242.0096174347
 20
36.5613231649
 10
242.1100992322
 20
37.6721542217
 10
242.2853254682
 20
38.8130018871
 10
242.5341056494
 20
39.9761152027
 10
242.8547495549
 20
41.1535919365
 10
243.2450787188
 20
42.337432271
 10
243.7024412314
 20
43.5195931541
 10
244.2237297559
 20
44.6920429439
 10
244.8054026401
 20
45.8468159761
 10
245.4435079784
 20
46.9760666829
 10
246.133710461
 20
48.0721228961
 10
246.8713208286
 20
49.1275379718
 10
247.6513277307
 20
50.1351413837
 10
248.4684317737
 20
51.0880874393
 10
249.3170815244
 20
51.9799017903
 10
250.1915112271
 20
52.8045254193
 10
251.0857799763
 20
53.5563558048
 10
251.9938120792
 20
54.2302849853
 10
252.9094383344
 20
54.8217342626
 10
253.8264379455
 20
55.3266853099
 10
254.7385807855
 20
55.7417074725
 10
255.6396697245
 20
56.0639810754
 10
256.5235827332
 20
56.2913165806
 10
257.3843144759
 20
56.4221694628
 10
258.2160171117
 20
56.4556507031
 10
259.013040024
 20
56.3915328288
 10
259.7699682118
 20
56.2302514589
 10
260.4816590787
 20
55.9729023447
 10
261.1432773725
 20
55.6212339248
 10
261.7503280357
 20
55.1776354466
 10
262.0697286577
 20
54.8853790234
  0
LWPOLYLINE
  5
25A
330
1F
100
AcDbEntity
  8
0
  6
Continuous
 62
     7
370
    25
100
AcDbPolyline
 90
       25
 70
   128
 43
0.0
 10
239.7328358541
 20
37.047039881
 10
239.7706024206
 20
38.1232693889
 10
239.8836441363
 20
39.2357515076
 10
240.0711888116
 20
40.3768868562
 10
240.3319553262
 20
41.5388803231
 10
240.6641623803
 20
42.7137943146
 10
241.0655406631
 20
43.893602977
 10
241.5333483537
 20
45.0702470207
 10
242.0643898513
 20
46.2356887738
 10
242.6550376041
 20
47.3819670873
 10
243.3012568889
 20
48.5012517182
 10
243.9986333728
 20
49.5858968174
 10
244.7424032673
 20
50.628493159
 10
245.5274858698
 20
51.6219187529
 10
246.34851827
 20
52.559387495
 10
247.1998919843
 20
53.4344955232
 10
248.0757912667
 20
54.2412649622
 10
248.9702328372
 20
54.9741847588
 10
249.8771067527
 20
55.6282483276
 10
250.7902181449
 20
56.1989877512
 10
251.7033295371
 20
56.6825043006
 10
252.6102034526
 20
57.0754950675
 10
253.504645023
 20
57.3752755264
 10
254.3805443055
 20
57.579797873
 10
255.0892667992
 20
57.6761956332
  0
ARC
  5
25B
330
1F
100
AcDbEntity
  8
0
  6
Continuous
 62
     7
370
    25
100
AcDbCircle
 10
251.8906102795
 20
36.9380011844
 30
0.0
 40
12.15623180558598
100
AcDbArc
 50
180.8571235828
 51
191.8646627492
  0
SPLINE
  5
25C
330
1F
100
AcDbEntity
  8
0
  6
Continuous
 62
     7
370
    25
100
AcDbSpline
210
0.0
220
0.0
230
1.0
 70
     8
 71
     3
 72
    10
 73
     6
 74
     0
 42
0.000000001
 43
0.00000001
 40
0.0
 40
0.0
 40
0.0
 40
0.0
 40
0.5
 40
0.5
 40
1.0
 40
1.0
 40
1.0
 40
1.0
 10
248.5795486337117
 20
46.75325751381451
 30
0.0
 10
248.4755841429274
 20
46.8265958868849
 30
0.0
 10
248.3857758665
 20
46.9138316446783
 30
0.0
 10
248.2337334385014
 20
47.11476218587429
 30
0.0
 10
248.1718278501404
 20
47.22893295207127
 30
0.0
 10
248.12737814555
 20
47.35195063523137
 30
0.0
  0
SPLINE
  5
25D
330
1F
100
AcDbEntity
  8
0
  6
Continuous
 62
     7
370
    25
100
AcDbSpline
210
0.0
220
0.0
230
1.0
 70
     8
 71
     3
 72
    14
 73
    10
 74
     0
 42
0.000000001
 43
0.00000001
 40
0.0
 40
0.0
 40
0.0
 40
0.0
 40
0.25
 40
0.25
 40
0.5
 40
0.5
 40
0.75
 40
0.75
 40
1.0
 40
1.0
 40
1.0
 40
1.0
 10
248.12737814555
 20
47.35195063523136
 30
0.0
 10
248.1046573426848
 20
47.41483205488891
 30
0.0
 10
248.0827428323354
 20
47.48387848436232
 30
0.0
 10
248.0406317782726
 20
47.63153100098109
 30
0.0
 10
248.0211102243595
 20
47.70793078783941
 30
0.0
 10
247.9827639821857
 20
47.862263079235
 30
0.0
 10
247.964404389302
 20
47.93921567556666
 30
0.0
 10
247.9224009447203
 20
48.08460584308263
 30
0.0
 10
247.8986246237072
 20
48.15119674927566
 30
0.0
 10
247.8701631196051
 20
48.19169236450701
 30
0.0
  0
LINE
  5
25E
330
1F
100
AcDbEntity
  8
0
  6
Continuous
 62
     7
370
    25
100
AcDbLine
 10
247.8701631196
 20
48.1916923645
 30
0.0
 11
247.8528605661
 21
48.2163107946
 31
0.0
  0
LINE
  5
25F
330
1F
100
AcDbEntity
  8
0
  6
Continuous
 62
     7
370
    25
100
AcDbLine
 10
249.1970538069
 20
49.8884744072
 30
0.0
 11
249.2143563605
 21
49.8638559771
 31
0.0
  0
SPLINE
  5
260
330
1F
100
AcDbEntity
  8
0
  6
Continuous
 62
     7
370
    25
100
AcDbSpline
210
0.0
220
0.0
230
1.0
 70
     8
 71
     3
 72
    16
 73
    12
 74
     0
 42
0.000000001
 43
0.00000001
 40
0.0
 40
0.0
 40
0.0
 40
0.0
 40
0.1250000000000001
 40
0.1250000000000001
 40
0.2500000000000003
 40
0.2500000000000003
 40
0.5000000000000002
 40
0.5000000000000002
 40
0.7500000000000001
 40
0.7500000000000001
 40
1.0
 40
1.0
 40
1.0
 40
1.0
 10
249.2143563604562
 20
49.86385597712029
 30
0.0
 10
249.2285087668604
 20
49.84371964130749
 30
0.0
 10
249.2501671713341
 20
49.82692222063007
 30
0.0
 10
249.3025851003694
 20
49.80007669929859
 30
0.0
 10
249.3331779795077
 20
49.7898512147376
 30
0.0
 10
249.4322588283652
 20
49.76535077430491
 30
0.0
 10
249.5061413659811
 20
49.75709085190341
 30
0.0
 10
249.6592409583724
 20
49.74590488519849
 30
0.0
 10
249.7373249330201
 20
49.74330821344731
 30
0.0
 10
249.8966685667622
 20
49.74127921261361
 30
0.0
 10
249.9753214615937
 20
49.74191680127583
 30
0.0
 10
250.0510739293863
 20
49.74500990209086
 30
0.0
  0
SPLINE
  5
261
330
1F
100
AcDbEntity
  8
0
  6
Continuous
 62
     7
370
    25
100
AcDbSpline
210
0.0
220
0.0
230
1.0
 70
     8
 71
     3
 72
    10
 73
     6
 74
     0
 42
0.000000001
 43
0.00000001
 40
0.0
 40
0.0
 40
0.0
 40
0.0
 40
0.5
 40
0.5
 40
1.0
 40
1.0
 40
1.0
 40
1.0
 10
250.0510739293863
 20
49.74500990209086
 30
0.0
 10
250.1992682692871
 20
49.75106092652464
 30
0.0
 10
250.3414927350177
 20
49.7408986963115
 30
0.0
 10
250.6138841253585
 20
49.68984826037142
 30
0.0
 10
250.744011455227
 20
49.64848715772687
 30
0.0
 10
250.8620867974123
 20
49.59271328977459
 30
0.0
  0
ARC
  5
262
330
1F
100
AcDbEntity
  8
0
  6
Continuous
 62
     7
370
    25
100
AcDbCircle
 10
233.5503777368
 20
44.8742552906
 30
0.0
 40
4.16804212142505
100
AcDbArc
 50
211.8182858313
 51
236.1400299393
  0
SPLINE
  5
263
330
1F
100
AcDbEntity
  8
0
  6
Continuous
 62
     7
370
    25
100
AcDbSpline
210
0.0
220
0.0
230
1.0
 70
     8
 71
     3
 72
     8
 73
     4
 74
     0
 42
0.000000001
 43
0.00000001
 40
0.0
 40
0.0
 40
0.0
 40
0.0
 40
1.0
 40
1.0
 40
1.0
 40
1.0
 10
231.4391331282756
 20
41.75200887053592
 30
0.0
 10
230.9623598364514
 20
42.06010167846856
 30
0.0
 10
230.4855574596065
 20
42.36833112404132
 30
0.0
 10
230.0087250150808
 20
42.67669628026123
 30
0.0
  0
SPLINE
  5
264
330
1F
100
AcDbEntity
  8
0
  6
Continuous
 62
     7
370
    25
100
AcDbSpline
210
0.0
220
0.0
230
1.0
 70
     8
 71
     3
 72
    23
 73
    19
 74
     0
 42
0.000000001
 43
0.00000001
 40
0.0
 40
0.0
 40
0.0
 40
0.0
 40
0.0521034701669907
 40
0.1035642834056676
 40
0.1544746865109883
 40
0.2049299526060848
 40
0.255027949139876
 40
0.3048686360127539
 40
0.3545535041153303
 40
0.4041849683381833
 40
0.4538657321677345
 40
0.5036981429676922
 40
0.5902048055368762
 40
0.6743008903280919
 40
0.7566325441978967
 40
0.8378852029845433
 40
0.9187688149194232
 40
1.0
 40
1.0
 40
1.0
 40
1.0
 10
232.3196979318172
 20
41.57727817241582
 30
0.0
 10
232.3144289928775
 20
41.56735671018053
 30
0.0
 10
232.303956103378
 20
41.54763615944864
 30
0.0
 10
232.2847098076091
 20
41.52306833050337
 30
0.0
 10
232.2629140672997
 20
41.50237974821808
 30
0.0
 10
232.2382627760087
 20
41.48584881301723
 30
0.0
 10
232.2107662617875
 20
41.47333131308601
 30
0.0
 10
232.1803552066031
 20
41.46479669057891
 30
0.0
 10
232.1469848392044
 20
41.46018681304362
 30
0.0
 10
232.1106089346303
 20
41.45945208812251
 30
0.0
 10
232.0711806239906
 20
41.46254710257174
 30
0.0
 10
232.0183263440337
 20
41.47108410078527
 30
0.0
 10
231.9497785506069
 20
41.48868207580541
 30
0.0
 10
231.8620476023532
 20
41.52032044777444
 30
0.0
 10
231.7673136499284
 20
41.56250058090531
 30
0.0
 10
231.6652829543689
 20
41.61523613296715
 30
0.0
 10
231.5563792949955
 20
41.67754996042748
 30
0.0
 10
231.4782710050828
 20
41.7271537837339
 30
0.0
 10
231.4391331282756
 20
41.75200887053592
 30
0.0
  0
SPLINE
  5
265
330
1F
100
AcDbEntity
  8
0
  6
Continuous
 62
     7
370
    25
100
AcDbSpline
210
0.0
220
0.0
230
1.0
 70
     8
 71
     3
 72
     8
 73
     4
 74
     0
 42
0.000000001
 43
0.00000001
 40
0.0
 40
0.0
 40
0.0
 40
0.0
 40
1.0
 40
1.0
 40
1.0
 40
1.0
 10
233.793200958271
 20
40.62995803585962
 30
0.0
 10
233.3018336462297
 20
40.9458326558271
 30
0.0
 10
232.8104474463034
 20
41.26181867711659
 30
0.0
 10
232.3190417361594
 20
41.57791555795927
 30
0.0
  0
SPLINE
  5
266
330
1F
100
AcDbEntity
  8
0
  6
Continuous
 62
     7
370
    25
100
AcDbSpline
210
0.0
220
0.0
230
1.0
 70
     8
 71
     3
 72
    18
 73
    14
 74
     0
 42
0.000000001
 43
0.00000001
 40
0.0
 40
0.0
 40
0.0
 40
0.0
 40
0.0923645816205078
 40
0.1844372988294168
 40
0.2764543021108049
 40
0.3686515499648422
 40
0.4612630116255976
 40
0.5545189370655678
 40
0.6486442564287692
 40
0.7438571603357765
 40
0.8403678983473339
 40
0.9203923541258044
 40
1.0
 40
1.0
 40
1.0
 40
1.0
 10
234.6067650774706
 20
39.98565031131528
 30
0.0
 10
234.5832029808143
 20
40.00091948967153
 30
0.0
 10
234.5361532417713
 20
40.03140959704778
 30
0.0
 10
234.4637673280016
 20
40.08103182043864
 30
0.0
 10
234.3902930649012
 20
40.1333543901645
 30
0.0
 10
234.315597524813
 20
40.18866865693781
 30
0.0
 10
234.2397366450629
 20
40.24690704950837
 30
0.0
 10
234.1627212769598
 20
40.30810355609117
 30
0.0
 10
234.0845810756318
 20
40.37227437897894
 30
0.0
 10
234.0053428052018
 20
40.43943400160249
 30
0.0
 10
233.9300369991149
 20
40.50529319371406
 30
0.0
 10
233.8592043676063
 20
40.5688294865589
 30
0.0
 10
233.8152999972509
 20
40.60949023974096
 30
0.0
 10
233.7934051306709
 20
40.62976753238313
 30
0.0
  0
LINE
  5
267
330
1F
100
AcDbEntity
  8
0
  6
Continuous
 62
     7
370
    25
100
AcDbLine
 10
235.2464713457
 20
39.5738963819
 30
0.0
 11
234.6067650775
 21
39.9856503113
 31
0.0
  0
SPLINE
  5
268
330
1F
100
AcDbEntity
  8
0
  6
Continuous
 62
     7
370
    25
100
AcDbSpline
210
0.0
220
0.0
230
1.0
 70
     8
 71
     3
 72
    25
 73
    21
 74
     0
 42
0.000000001
 43
0.00000001
 40
0.0
 40
0.0
 40
0.0
 40
0.0
 40
0.0280056024285008
 40
0.0559514328341808
 40
0.0838901607636096
 40
0.1118745076904204
 40
0.1399569498904391
 40
0.16818942827142
 40
0.1966230730099245
 40
0.2253079499152465
 40
0.2542928341276835
 40
0.3799484016856903
 40
0.5057844887502226
 40
0.6313077644974833
 40
0.7532057173415155
 40
0.8039627394922012
 40
0.8536129947759964
 40
0.9025574087118212
 40
0.9512124407386955
 40
1.0
 40
1.0
 40
1.0
 40
1.0
 10
236.3488372024609
 20
40.28980249519235
 30
0.0
 10
236.3537862353608
 20
40.26218224512935
 30
0.0
 10
236.3636737384989
 20
40.20700069457324
 30
0.0
 10
236.3752108740393
 20
40.12784799739032
 30
0.0
 10
236.3842848549863
 20
40.05154980807433
 30
0.0
 10
236.3906538256422
 20
39.97835647414314
 30
0.0
 10
236.3943696776859
 20
39.90820876744357
 30
0.0
 10
236.3954054386029
 20
39.84112966974686
 30
0.0
 10
236.3937557543222
 20
39.77712043234548
 30
0.0
 10
236.3894080420005
 20
39.7161839051013
 30
0.0
 10
236.3745505624291
 20
39.59428991289101
 30
0.0
 10
236.3294622441772
 20
39.43938542808588
 30
0.0
 10
236.2161022564325
 20
39.30844283452446
 30
0.0
 10
236.054278853335
 20
39.25256535271618
 30
0.0
 10
235.8802517180583
 20
39.2724434984259
 30
0.0
 10
235.7288756206575
 20
39.31976450414022
 30
0.0
 10
235.6184602620995
 20
39.36468297124819
 30
0.0
 10
235.5013010064447
 20
39.42205830938315
 30
0.0
 10
235.3777516068706
 20
39.49072981354757
 30
0.0
 10
235.2902710921512
 20
39.54614906805969
 30
0.0
 10
235.2464713456579
 20
39.5738963819189
 30
0.0
  0
ARC
  5
269
330
1F
100
AcDbEntity
  8
0
  6
Continuous
 62
     7
370
    25
100
AcDbCircle
 10
247.5418355345
 20
42.0758530313
 30
0.0
 40
11.33460136834018
100
AcDbArc
 50
170.9338278112
 51
189.0661721888
  0
SPLINE
  5
26A
330
1F
100
AcDbEntity
  8
0
  6
Continuous
 62
     7
370
    25
100
AcDbSpline
210
0.0
220
0.0
230
1.0
 70
     8
 71
     3
 72
    26
 73
    22
 74
     0
 42
0.000000001
 43
0.00000001
 40
0.0
 40
0.0
 40
0.0
 40
0.0
 40
0.0241214275655765
 40
0.0482078233550631
 40
0.0723095879210365
 40
0.0964771461131097
 40
0.1207606318218786
 40
0.1452095829274057
 40
0.1698726554215267
 40
0.1947973643381856
 40
0.2200298573586289
 40
0.2456147249583995
 40
0.3690974744028633
 40
0.4940700204039666
 40
0.6192566393622437
 40
0.7454654421861411
 40
0.7971580294157585
 40
0.8481837569726721
 40
0.8988139831107741
 40
0.9493262809200852
 40
1.0
 40
1.0
 40
1.0
 40
1.0
 10
235.2464713456579
 20
47.33800677328347
 30
0.0
 10
235.2681863849585
 20
47.32368052097659
 30
0.0
 10
235.3115849266038
 20
47.29504882251376
 30
0.0
 10
235.3748845543341
 20
47.24706832722144
 30
0.0
 10
235.4367407790123
 20
47.19547765826437
 30
0.0
 10
235.4970420599677
 20
47.13990791054164
 30
0.0
 10
235.555830801889
 20
47.08045429510848
 30
0.0
 10
235.6131123387574
 20
47.01708817503491
 30
0.0
 10
235.6689066314103
 20
46.94981414892773
 30
0.0
 10
235.7232331979727
 20
46.87863136960768
 30
0.0
 10
235.776119605524
 20
46.80353006074121
 30
0.0
 10
235.8929200712239
 20
46.62426634462933
 30
0.0
 10
236.054793166312
 20
46.31395598158546
 30
0.0
 10
236.2179777436445
 20
45.84404194468677
 30
0.0
 10
236.3294896246952
 20
45.34507893682764
 30
0.0
 10
236.3766235516611
 20
44.93618358370706
 30
0.0
 10
236.3917445652302
 20
44.63189420301229
 30
0.0
 10
236.3937003213642
 20
44.43062738344063
 30
0.0
 10
236.3872231575681
 20
44.23496732208685
 30
0.0
 10
236.3730956290528
 20
44.04434770270836
 30
0.0
 10
236.3569319399276
 20
43.92278292302523
 30
0.0
 10
236.3488372024609
 20
43.86190356750698
 30
0.0
  0
LINE
  5
26B
330
1F
100
AcDbEntity
  8
0
  6
Continuous
 62
     7
370
    25
100
AcDbLine
 10
234.6067650775
 20
47.7509817863
 30
0.0
 11
235.2464713457
 21
47.3380067733
 31
0.0
  0
SPLINE
  5
26C
330
1F
100
AcDbEntity
  8
0
  6
Continuous
 62
     7
370
    25
100
AcDbSpline
210
0.0
220
0.0
230
1.0
 70
     8
 71
     3
 72
    14
 73
    10
 74
     0
 42
0.000000001
 43
0.00000001
 40
0.0
 40
0.0
 40
0.0
 40
0.0
 40
0.0789259589571462
 40
0.1582323961903981
 40
0.330877644075059
 40
0.5000645817723305
 40
0.6670803235527104
 40
0.8332687177870076
 40
1.0
 40
1.0
 40
1.0
 40
1.0
 10
233.7928123617232
 20
47.95956405657731
 30
0.0
 10
233.8145292427242
 20
47.96116723448267
 30
0.0
 10
233.8580676952685
 20
47.96438131873123
 30
0.0
 10
233.9496014238919
 20
47.96520214062531
 30
0.0
 10
234.0665226734118
 20
47.95726666188347
 30
0.0
 10
234.2073562220403
 20
47.93099181990016
 30
0.0
 10
234.3445688709434
 20
47.88803476095661
 30
0.0
 10
234.4784873622218
 20
47.82967884480978
 30
0.0
 10
234.5639593796688
 20
47.77724264147452
 30
0.0
 10
234.6067650774706
 20
47.75098178627436
 30
0.0
  0
SPLINE
  5
26D
330
1F
100
AcDbEntity
  8
0
  6
Continuous
 62
     7
370
    25
100
AcDbSpline
210
0.0
220
0.0
230
1.0
 70
     8
 71
     3
 72
     8
 73
     4
 74
     0
 42
0.000000001
 43
0.00000001
 40
0.0
 40
0.0
 40
0.0
 40
0.0
 40
1.0
 40
1.0
 40
1.0
 40
1.0
 10
231.9905087786149
 20
49.12195546798075
 30
0.0
 10
232.591267002311
 20
48.73468798482185
 30
0.0
 10
233.1919958651714
 20
48.34722063489856
 30
0.0
 10
233.7926965095183
 20
47.95955374230894
 30
0.0
  0
SPLINE
  5
26E
330
1F
100
AcDbEntity
  8
0
  6
Continuous
 62
     7
370
    25
100
AcDbSpline
210
0.0
220
0.0
230
1.0
 70
     8
 71
     3
 72
    13
 73
     9
 74
     0
 42
0.000000001
 43
0.00000001
 40
0.0
 40
0.0
 40
0.0
 40
0.0
 40
0.1666651380536976
 40
0.3328869540146011
 40
0.4989979369855639
 40
0.6653319948464096
 40
0.832222439950292
 40
1.0
 40
1.0
 40
1.0
 40
1.0
 10
231.6486802435805
 20
49.42302024706655
 30
0.0
 10
231.6689775861449
 20
49.40946035116317
 30
0.0
 10
231.7095182812163
 20
49.38237662809579
 30
0.0
 10
231.768660900352
 20
49.33719077045405
 30
0.0
 10
231.8264301093447
 20
49.28878251323955
 30
0.0
 10
231.8826821297204
 20
49.23674416353177
 30
0.0
 10
231.937616254107
 20
49.18143689116557
 30
0.0
 10
231.9728429997147
 20
49.14181126334744
 30
0.0
 10
231.9905030608365
 20
49.12194593099304
 30
0.0
  0
SPLINE
  5
26F
330
1F
100
AcDbEntity
  8
0
  6
Continuous
 62
     7
370
    25
100
AcDbSpline
210
0.0
220
0.0
230
1.0
 70
     8
 71
     3
 72
     8
 73
     4
 74
     0
 42
0.000000001
 43
0.00000001
 40
0.0
 40
0.0
 40
0.0
 40
0.0
 40
1.0
 40
1.0
 40
1.0
 40
1.0
 10
229.7046997277898
 20
50.67774209944602
 30
0.0
 10
230.35272980019
 20
50.25974678356127
 30
0.0
 10
231.000722777292
 20
49.84150602114364
 30
0.0
 10
231.6486802435805
 20
49.42302024706655
 30
0.0
  0
LWPOLYLINE
  5
270
330
1F
100
AcDbEntity
  8
0
  6
Continuous
 62
     7
370
    25
100
AcDbPolyline
 90
       21
 70
   128
 43
0.0
 10
229.7046997278
 20
50.6777420996
 10
230.0523576003
 20
51.6989225408
 10
230.4672081789
 20
52.7161443637
 10
230.9453494512
 20
53.7198397568
 10
231.4822841038
 20
54.7005681361
 10
232.0729618227
 20
55.6491049411
 10
232.7118267961
 20
56.5565283997
 10
233.3928699713
 20
57.4143034447
 10
234.1096855747
 20
58.2143619935
 10
234.8555313635
 20
58.9491788345
 10
235.623392042
 20
59.6118424086
 10
236.4060452464
 20
60.1961198173
 10
237.1961294769
 20
60.6965154492
 10
237.9862133386
 20
61.1083226699
 10
238.7688654403
 20
61.4276680926
 10
239.5367242926
 20
61.6515480096
 10
240.2825675488
 20
61.7778566455
 10
240.9993799369
 20
61.8054059633
 10
241.6804192446
 20
61.7339368388
 10
242.3192797344
 20
61.5641214981
 10
242.754437921
 20
61.3794890659
  0
SPLINE
  5
271
330
1F
100
AcDbEntity
  8
0
  6
Continuous
 62
     7
370
    25
100
AcDbSpline
210
0.0
220
0.0
230
1.0
 70
    11
 71
     3
 72
    39
 73
    35
 74
     0
 42
0.000000001
 43
0.00000001
 40
0.0
 40
0.0
 40
0.0
 40
0.0
 40
0.0310664058348413
 40
0.0621048158426138
 40
0.0931361551796939
 40
0.1235538293503726
 40
0.1538561545809849
 40
0.1850588072749156
 40
0.2160250992946587
 40
0.2471867223797568
 40
0.2784462884304475
 40
0.3100516090231247
 40
0.3419834369138969
 40
0.3734259894013238
 40
0.4048604886787081
 40
0.436874065183343
 40
0.4685120685926471
 40
0.499805535863323
 40
0.5309508213226204
 40
0.5618649784438111
 40
0.5930416446590877
 40
0.623374245013332
 40
0.6540913579072549
 40
0.6849496782718453
 40
0.7158160645166705
 40
0.7471731804043553
 40
0.7784514311866318
 40
0.810129591156098
 40
0.8419598919688388
 40
0.8735175891922303
 40
0.9050808037886594
 40
0.9370235169792582
 40
0.9687441590030581
 40
1.0
 40
1.0
 40
1.0
 40
1.0
 10
242.9132852089952
 20
59.68293247478743
 30
0.0
 10
243.1761708291933
 20
59.65439798749733
 30
0.0
 10
243.7030594396768
 20
59.56845549917573
 30
0.0
 10
244.4670715087529
 20
59.36808037910328
 30
0.0
 10
245.1742216968037
 20
59.12107827288376
 30
0.0
 10
245.7871327613992
 20
58.84309639473066
 30
0.0
 10
246.2842640870696
 20
58.54896269740193
 30
0.0
 10
246.6434558081431
 20
58.24745616920971
 30
0.0
 10
246.8651750769019
 20
57.94045866430729
 30
0.0
 10
246.9304269542841
 20
57.6299534029056
 30
0.0
 10
246.8435797431701
 20
57.31080891815678
 30
0.0
 10
246.6012341554118
 20
56.98148895258458
 30
0.0
 10
246.2212962926854
 20
56.64254823102693
 30
0.0
 10
245.7074903395256
 20
56.30470976661629
 30
0.0
 10
245.0815995286156
 20
55.97881186530545
 30
0.0
 10
244.3681285421237
 20
55.68216497206596
 30
0.0
 10
243.6042260658594
 20
55.42606166362901
 30
0.0
 10
242.8184329829577
 20
55.23703409563822
 30
0.0
 10
242.0368955279178
 20
55.12885817358497
 30
0.0
 10
241.2807825431654
 20
55.12119429021526
 30
0.0
 10
240.5784179567718
 20
55.21911632560141
 30
0.0
 10
239.9593976097291
 20
55.44076475910391
 30
0.0
 10
239.4503403447154
 20
55.77663284601564
 30
0.0
 10
239.0773967512815
 20
56.2164434121964
 30
0.0
 10
238.8487948000331
 20
56.72751805271905
 30
0.0
 10
238.7799484933138
 20
57.27870314048248
 30
0.0
 10
238.8645649065389
 20
57.83637506879424
 30
0.0
 10
239.1076736964738
 20
58.36645520971323
 30
0.0
 10
239.4898035392915
 20
58.83897955882595
 30
0.0
 10
240.0059391137019
 20
59.22510106971919
 30
0.0
 10
240.6329169742038
 20
59.50872525705232
 30
0.0
 10
241.3488244065676
 20
59.67846247577874
 30
0.0
 10
242.1172677987532
 20
59.74000131049006
 30
0.0
 10
242.6487965781257
 20
59.71164095823448
 30
0.0
 10
242.9132852089952
 20
59.68293247478743
 30
0.0
  0
LINE
  5
272
330
1F
100
AcDbEntity
  8
0
  6
Continuous
 62
     7
370
    25
100
AcDbLine
 10
233.6887482212
 20
43.243805448
 30
0.0
 11
234.0027944692
 21
43.0756549568
 31
0.0
  0
LINE
  5
273
330
1F
100
AcDbEntity
  8
0
  6
Continuous
 62
     7
370
    25
100
AcDbLine
 10
232.7017891822
 20
43.8135647735
 30
0.0
 11
233.6887482212
 21
43.243805448
 31
0.0
  0
ARC
  5
274
330
1F
100
AcDbEntity
  8
0
  6
Continuous
 62
     7
370
    25
100
AcDbCircle
 10
234.9256104239
 20
47.3849028068
 30
0.0
 40
4.46226719378039
100
AcDbArc
 50
267.6359980982
 51
287.0346845948
  0
SPLINE
  5
275
330
1F
100
AcDbEntity
  8
0
  6
Continuous
 62
     7
370
    25
100
AcDbSpline
210
0.0
220
0.0
230
1.0
 70
     8
 71
     3
 72
    16
 73
    12
 74
     0
 42
0.000000001
 43
0.00000001
 40
0.0
 40
0.0
 40
0.0
 40
0.0
 40
0.150516077399123
 40
0.2631372176921929
 40
0.3788385653419725
 40
0.4915726627001887
 40
0.608215717310718
 40
0.7115656327827979
 40
0.8179798858712685
 40
0.9203357686923436
 40
1.0
 40
1.0
 40
1.0
 40
1.0
 10
244.2517910038219
 20
56.68043684192462
 30
0.0
 10
244.0469579213064
 20
56.79282579459714
 30
0.0
 10
243.6888619068754
 20
56.98930790346294
 30
0.0
 10
243.0901267127633
 20
57.25346655525149
 30
0.0
 10
242.5139113625238
 20
57.46569839866761
 30
0.0
 10
241.9013511578484
 20
57.63765326189736
 30
0.0
 10
241.2999762417245
 20
57.74559018804826
 30
0.0
 10
240.7172812138161
 20
57.78432417815385
 30
0.0
 10
240.1826544881581
 20
57.74987463619004
 30
0.0
 10
239.7143558539533
 20
57.65885450926645
 30
0.0
 10
239.4555075383771
 20
57.54798277042228
 30
0.0
 10
239.3422181242683
 20
57.49945784837704
 30
0.0
  0
SPLINE
  5
276
330
1F
100
AcDbEntity
  8
0
  6
Continuous
 62
     7
370
    25
100
AcDbSpline
210
0.0
220
0.0
230
1.0
 70
     8
 71
     3
 72
    10
 73
     6
 74
     0
 42
0.000000001
 43
0.00000001
 40
0.0
 40
0.0
 40
0.0
 40
0.0
 40
0.3798174487108013
 40
0.9603712743694113
 40
1.0
 40
1.0
 40
1.0
 40
1.0
 10
245.3916714528685
 20
56.15220981914337
 30
0.0
 10
245.2620187945218
 20
56.22253852504245
 30
0.0
 10
244.9341910732192
 20
56.40036518660924
 30
0.0
 10
244.5262626695737
 20
56.57341748710748
 30
0.0
 10
244.2696298710019
 20
56.67262313370756
 30
0.0
 10
244.2532314238974
 20
56.67896222425751
 30
0.0
  0
SPLINE
  5
277
330
1F
100
AcDbEntity
  8
0
  6
Continuous
 62
     7
370
    25
100
AcDbSpline
210
0.0
220
0.0
230
1.0
 70
     8
 71
     3
 72
    25
 73
    21
 74
     0
 42
0.000000001
 43
0.00000001
 40
0.0
 40
0.0
 40
0.0
 40
0.0
 40
0.0472518850824184
 40
0.0895716062891791
 40
0.1269617174471109
 40
0.1594267795316113
 40
0.2428507986785796
 40
0.3183672329148801
 40
0.3935858504865805
 40
0.4205144069987585
 40
0.4483683803240027
 40
0.4771558265360878
 40
0.5451773843813972
 40
0.6363664733396127
 40
0.6968940131755876
 40
0.7498726472481345
 40
0.7959807077600497
 40
0.8771243680661452
 40
0.954302805361946
 40
1.0
 40
1.0
 40
1.0
 40
1.0
 10
242.8584062679501
 20
59.10907461226497
 30
0.0
 10
242.7180067003747
 20
59.12439051449633
 30
0.0
 10
242.4518625080722
 20
59.15342364115866
 30
0.0
 10
242.0790880763412
 20
59.16069128454426
 30
0.0
 10
241.7565227011756
 20
59.14730531095044
 30
0.0
 10
241.3273999119892
 20
59.10134721085414
 30
0.0
 10
240.8197785187917
 20
58.98432587170547
 30
0.0
 10
240.2769697436712
 20
58.74174252648673
 30
0.0
 10
239.936569140924
 20
58.48439218505362
 30
0.0
 10
239.7299433070339
 20
58.26958133430879
 30
0.0
 10
239.6119592874442
 20
58.12307962970075
 30
0.0
 10
239.4597892294774
 20
57.89332740906029
 30
0.0
 10
239.2931076569803
 20
57.52038607663186
 30
0.0
 10
239.224747345621
 20
57.05782699073675
 30
0.0
 10
239.2751015320278
 20
56.62949312471158
 30
0.0
 10
239.3805314072179
 20
56.30956721262978
 30
0.0
 10
239.5627301672259
 20
55.96910095154708
 30
0.0
 10
239.8636091822579
 20
55.63315308272232
 30
0.0
 10
240.2532938830309
 20
55.36009437092093
 30
0.0
 10
240.5462127287064
 20
55.26613870006143
 30
0.0
 10
240.6551486445859
 20
55.23119677942962
 30
0.0
  0
SPLINE
  5
278
330
1F
100
AcDbEntity
  8
0
  6
Continuous
 62
     7
370
    25
100
AcDbSpline
210
0.0
220
0.0
230
1.0
 70
     8
 71
     3
 72
    22
 73
    18
 74
     0
 42
0.000000001
 43
0.00000001
 40
0.0
 40
0.0
 40
0.0
 40
0.0
 40
0.0348562879617087
 40
0.0924900452669652
 40
0.1569277505321042
 40
0.228208503491038
 40
0.2894089375904951
 40
0.3420696583871873
 40
0.3861903398263957
 40
0.4217735598896699
 40
0.5236918781195811
 40
0.6145479354291316
 40
0.7067592505239202
 40
0.7559111228945055
 40
0.807136010923439
 40
0.8951490105125859
 40
1.0
 40
1.0
 40
1.0
 40
1.0
 10
246.1221506919017
 20
56.59193030665215
 30
0.0
 10
246.159786497286
 20
56.6271036851585
 30
0.0
 10
246.2596519031341
 20
56.72043512004387
 30
0.0
 10
246.3784762755968
 20
56.8757799946554
 30
0.0
 10
246.4748873635992
 20
57.0645085207959
 30
0.0
 10
246.5061640155809
 20
57.25048804644397
 30
0.0
 10
246.476757789043
 20
57.42229926569206
 30
0.0
 10
246.4082632653565
 20
57.56910715521855
 30
0.0
 10
246.3204505203749
 20
57.6903162916274
 30
0.0
 10
246.1661589373624
 20
57.85590118404443
 30
0.0
 10
245.8983327963979
 20
58.06606444883129
 30
0.0
 10
245.4467629741882
 20
58.32150896117809
 30
0.0
 10
244.9992001052032
 20
58.5281446997304
 30
0.0
 10
244.590306610725
 20
58.6866495185641
 30
0.0
 10
244.1682233639912
 20
58.82916684740068
 30
0.0
 10
243.5899103345387
 20
58.9924233559069
 30
0.0
 10
243.1160316167513
 20
59.06799169560055
 30
0.0
 10
242.8584062679501
 20
59.10907461226497
 30
0.0
  0
LINE
  5
279
330
1F
100
AcDbEntity
  8
0
  6
Continuous
 62
     7
370
    25
100
AcDbLine
 10
236.3488372025
 20
43.8619035675
 30
0.0
 11
236.343598659
 21
44.1579869863
 31
0.0
  0
LINE
  5
27A
330
1F
100
AcDbEntity
  8
0
  6
Continuous
 62
     7
370
    25
100
AcDbLine
 10
236.343598659
 20
44.1579869863
 30
0.0
 11
236.3866953964
 21
44.8095938152
 31
0.0
  0
LINE
  5
27B
330
1F
100
AcDbEntity
  8
0
  6
Continuous
 62
     7
370
    25
100
AcDbLine
 10
235.8640385394
 20
46.6387023189
 30
0.0
 11
235.5526354691
 21
46.9672715036
 31
0.0
  0
SPLINE
  5
27C
330
1F
100
AcDbEntity
  8
0
  6
Continuous
 62
     7
370
    25
100
AcDbSpline
210
0.0
220
0.0
230
1.0
 70
     8
 71
     3
 72
    24
 73
    20
 74
     0
 42
0.000000001
 43
0.00000001
 40
0.0
 40
0.0
 40
0.0
 40
0.0
 40
0.0208485373664272
 40
0.0823376247214632
 40
0.1455705549099646
 40
0.2075413813861011
 40
0.2714247518574422
 40
0.3315017366460747
 40
0.3933547140842038
 40
0.4529343674600938
 40
0.514180240079699
 40
0.5749476280820675
 40
0.6373706675511337
 40
0.7000294854399094
 40
0.764869753768216
 40
0.8126336564434572
 40
0.8609398673429536
 40
0.9190455624033324
 40
1.0
 40
1.0
 40
1.0
 40
1.0
 10
239.2554182310376
 20
56.85992634426766
 30
0.0
 10
239.2526988918244
 20
56.91277600973477
 30
0.0
 10
239.2419593407619
 20
57.12149645114533
 30
0.0
 10
239.3139798705951
 20
57.46457890047474
 30
0.0
 10
239.4760683428415
 20
57.87622760142327
 30
0.0
 10
239.7384045782167
 20
58.24556310407647
 30
0.0
 10
240.0799205333017
 20
58.55373429177548
 30
0.0
 10
240.4956931166734
 20
58.79744442016013
 30
0.0
 10
240.9614606029695
 20
58.96724585142973
 30
0.0
 10
241.4756919147554
 20
59.06467813820878
 30
0.0
 10
242.0171039416304
 20
59.08629229003075
 30
0.0
 10
242.5815045899944
 20
59.02988692518796
 30
0.0
 10
243.1483522872587
 20
58.89281330155604
 30
0.0
 10
243.7063097056274
 20
58.66697742369953
 30
0.0
 10
244.1789913726319
 20
58.36936742046378
 30
0.0
 10
244.5359854695875
 20
57.99844575742895
 30
0.0
 10
244.730827894046
 20
57.56612713436576
 30
0.0
 10
244.7598591389481
 20
57.06318498966592
 30
0.0
 10
244.6974850208016
 20
56.72944019598148
 30
0.0
 10
244.6611736671545
 20
56.53514926904722
 30
0.0
  0
SPLINE
  5
27D
330
1F
100
AcDbEntity
  8
0
  6
Continuous
 62
     7
370
    25
100
AcDbSpline
210
0.0
220
0.0
230
1.0
 70
     8
 71
     3
 72
    10
 73
     6
 74
     0
 42
0.000000001
 43
0.00000001
 40
0.0
 40
0.0
 40
0.0
 40
0.0
 40
0.294947504039395
 40
0.9798113369353982
 40
1.0
 40
1.0
 40
1.0
 40
1.0
 10
244.6639015421343
 20
56.53391071104267
 30
0.0
 10
244.7467264969603
 20
56.49514562167421
 30
0.0
 10
245.0218697974062
 20
56.36636855619524
 30
0.0
 10
245.2970060801818
 20
56.2250543483126
 30
0.0
 10
245.4456397212901
 20
56.13095640072694
 30
0.0
 10
245.4498957370019
 20
56.12826197475191
 30
0.0
  0
ARC
  5
27E
330
1F
100
AcDbEntity
  8
0
  6
Continuous
 62
     7
370
    25
100
AcDbCircle
 10
248.6739093884
 20
42.3207006412
 30
0.0
 40
12.46644230717959
100
AcDbArc
 50
171.5249591672
 51
179.8212373334
  0
SPLINE
  5
27F
330
1F
100
AcDbEntity
  8
0
  6
Continuous
 62
     7
370
    25
100
AcDbSpline
210
0.0
220
0.0
230
1.0
 70
     8
 71
     3
 72
    14
 73
    10
 74
     0
 42
0.000000001
 43
0.00000001
 40
0.0
 40
0.0
 40
0.0
 40
0.0
 40
0.0003951393068452
 40
0.0003951393068452
 40
0.0003951393068452
 40
0.0008163352168663
 40
0.0008163352168663
 40
0.0008163352168663
 40
0.0012378579337219
 40
0.0012378579337219
 40
0.0012378579337219
 40
0.0012378579337219
 10
244.2558237428343
 20
56.67915780606737
 30
0.0
 10
244.3012855570655
 20
56.66472094344234
 30
0.0
 10
244.3461731616866
 20
56.64985508287673
 30
0.0
 10
244.3904568543617
 20
56.63457129527126
 30
0.0
 10
244.437660146601
 20
56.61827985593357
 30
0.0
 10
244.4841859596602
 20
56.60151037784966
 30
0.0
 10
244.5299968689018
 20
56.58428156705438
 30
0.0
 10
244.5758432568909
 20
56.56703941322273
 30
0.0
 10
244.6209824924633
 20
56.54933370701823
 30
0.0
 10
244.6653760505057
 20
56.53119085032744
 30
0.0
  0
LINE
  5
280
330
1F
100
AcDbEntity
  8
0
  6
Continuous
 62
     7
370
    25
100
AcDbLine
 10
235.5526354691
 20
46.9672715036
 30
0.0
 11
234.9126992738
 21
47.3795032406
 31
0.0
  0
LINE
  5
281
330
1F
100
AcDbEntity
  8
0
  6
Continuous
 62
     7
370
    25
100
AcDbLine
 10
234.6067650775
 20
47.7509817863
 30
0.0
 11
234.9126992738
 21
47.3795032406
 31
0.0
  0
SPLINE
  5
282
330
1F
100
AcDbEntity
  8
0
  6
Continuous
 62
     7
370
    25
100
AcDbSpline
210
0.0
220
0.0
230
1.0
 70
     8
 71
     3
 72
    13
 73
     9
 74
     0
 42
0.000000001
 43
0.00000001
 40
0.0
 40
0.0
 40
0.0
 40
0.0
 40
0.1618322161663184
 40
0.3254505981945091
 40
0.4909687654257712
 40
0.6584964712936039
 40
0.8281395683834565
 40
1.0
 40
1.0
 40
1.0
 40
1.0
 10
234.9126992738126
 20
47.37950324063747
 30
0.0
 10
234.8931250083032
 20
47.39206479304918
 30
0.0
 10
234.8537604332503
 20
47.41732654156556
 30
0.0
 10
234.7922299139354
 20
47.45001849512981
 30
0.0
 10
234.7286749875957
 20
47.47896466830993
 30
0.0
 10
234.6630548940982
 20
47.503478424751
 30
0.0
 10
234.5956219913622
 20
47.52391562094856
 30
0.0
 10
234.5497325515832
 20
47.53351333548107
 30
0.0
 10
234.5266388548447
 20
47.53834335105466
 30
0.0
  0
SPLINE
  5
283
330
1F
100
AcDbEntity
  8
0
  6
Continuous
 62
     7
370
    25
100
AcDbSpline
210
0.0
220
0.0
230
1.0
 70
     8
 71
     3
 72
     9
 73
     5
 74
     0
 42
0.000000001
 43
0.00000001
 40
0.0
 40
0.0
 40
0.0
 40
0.0
 40
0.4907162487368334
 40
1.0
 40
1.0
 40
1.0
 40
1.0
 10
234.5266330275528
 20
47.53831535402364
 30
0.0
 10
234.5025359900119
 20
47.54641425109522
 30
0.0
 10
234.4534301419725
 20
47.5629184876931
 30
0.0
 10
234.4027187011895
 20
47.57771722919517
 30
0.0
 10
234.3768921883955
 20
47.58525398778132
 30
0.0
  0
SPLINE
  5
284
330
1F
100
AcDbEntity
  8
0
  6
Continuous
 62
     7
370
    25
100
AcDbSpline
210
0.0
220
0.0
230
1.0
 70
     8
 71
     3
 72
    14
 73
    10
 74
     0
 42
0.000000001
 43
0.00000001
 40
0.0
 40
0.0
 40
0.0
 40
0.0
 40
0.0310276310570678
 40
0.0622853638080741
 40
0.124800308023939
 40
0.2498289632710313
 40
0.4998892480129489
 40
0.7606946229075205
 40
1.0
 40
1.0
 40
1.0
 40
1.0
 10
233.7929802031199
 20
47.95934327288975
 30
0.0
 10
233.7989722478805
 20
47.95551235405107
 30
0.0
 10
233.8110007745566
 20
47.94782210618305
 30
0.0
 10
233.8350598030675
 20
47.93238471632437
 30
0.0
 10
233.8772921114588
 20
47.90531513936905
 30
0.0
 10
233.9618519306267
 20
47.8511048638794
 30
0.0
 10
234.0851377916766
 20
47.77210252528463
 30
0.0
 10
234.231264179552
 20
47.67849919616988
 30
0.0
 10
234.3296278219552
 20
47.61551831912382
 30
0.0
 10
234.3766952933982
 20
47.58538166944923
 30
0.0
  0
LINE
  5
285
330
1F
100
AcDbEntity
  8
0
  6
Continuous
 62
     7
370
    25
100
AcDbLine
 10
231.9904799364
 20
49.121974074
 30
0.0
 11
232.281446771
 21
48.9338956449
 31
0.0
  0
SPLINE
  5
286
330
1F
100
AcDbEntity
  8
0
  6
Continuous
 62
     7
370
    25
100
AcDbSpline
210
0.0
220
0.0
230
1.0
 70
     8
 71
     3
 72
     8
 73
     4
 74
     0
 42
0.000000001
 43
0.00000001
 40
0.0
 40
0.0
 40
0.0
 40
0.0
 40
1.0
 40
1.0
 40
1.0
 40
1.0
 10
232.3128357054151
 20
48.91367288057856
 30
0.0
 10
232.3023931995634
 20
48.92049830547593
 30
0.0
 10
232.2919272666736
 20
48.92724127226243
 30
0.0
 10
232.2814395018571
 20
48.93390035991539
 30
0.0
  0
SPLINE
  5
287
330
1F
100
AcDbEntity
  8
0
  6
Continuous
 62
     7
370
    25
100
AcDbSpline
210
0.0
220
0.0
230
1.0
 70
     8
 71
     3
 72
     8
 73
     4
 74
     0
 42
0.000000001
 43
0.00000001
 40
0.0
 40
0.0
 40
0.0
 40
0.0
 40
1.0
 40
1.0
 40
1.0
 40
1.0
 10
229.5268313265913
 20
50.79192853238765
 30
0.0
 10
229.5858310907613
 20
50.75318786546869
 30
0.0
 10
229.6451186542718
 20
50.7151258881694
 30
0.0
 10
229.7046997277602
 20
50.67774209970911
 30
0.0
  0
SPLINE
  5
288
330
1F
100
AcDbEntity
  8
0
  6
Continuous
 62
     7
370
    25
100
AcDbSpline
210
0.0
220
0.0
230
1.0
 70
     8
 71
     3
 72
     8
 73
     4
 74
     0
 42
0.000000001
 43
0.00000001
 40
0.0
 40
0.0
 40
0.0
 40
0.0
 40
1.0
 40
1.0
 40
1.0
 40
1.0
 10
229.5019815804918
 20
51.15513871032596
 30
0.0
 10
229.5094557925823
 20
51.03418086961413
 30
0.0
 10
229.5177518964724
 20
50.91310902720348
 30
0.0
 10
229.5268313265913
 20
50.79192853238765
 30
0.0
  0
LWPOLYLINE
  5
289
330
1F
100
AcDbEntity
  8
0
  6
Continuous
 62
     7
370
    25
100
AcDbPolyline
 90
       17
 70
   128
 43
0.0
 10
229.5019815805
 20
51.1551387103
 10
229.8580620136
 20
52.1677529927
 10
230.2821111639
 20
53.1745410936
 10
230.7698952835
 20
54.1654511433
 10
231.3165442887
 20
55.1305898001
 10
231.9166003828
 20
56.0603210261
 10
232.5640725478
 20
56.945362295
 10
233.2524963591
 20
57.776877269
 10
233.9749985265
 20
58.5465640223
 10
234.7243655187
 20
59.2467379279
 10
235.4931155831
 20
59.8704083817
 10
236.2735734447
 20
60.4113485977
 10
237.0579469367
 20
60.8641577763
 10
237.8384047983
 20
61.2243150269
 10
238.6071548626
 20
61.4882245048
 10
239.3565218548
 20
61.6532513121
 10
239.4659438061
 20
61.6692464742
  0
SPLINE
  5
28A
330
1F
100
AcDbEntity
  8
0
  6
Continuous
 62
     7
370
    25
100
AcDbSpline
210
0.0
220
0.0
230
1.0
 70
     8
 71
     3
 72
    10
 73
     6
 74
     0
 42
0.000000001
 43
0.00000001
 40
0.0
 40
0.0
 40
0.0
 40
0.0
 40
0.2409535266596745
 40
0.5031433103792522
 40
1.0
 40
1.0
 40
1.0
 40
1.0
 10
235.5526354691413
 20
40.26143008594553
 30
0.0
 10
235.6348737120642
 20
40.20975998824562
 30
0.0
 10
235.8065982033287
 20
40.10186588781576
 30
0.0
 10
236.0843145897218
 20
39.9721337417485
 30
0.0
 10
236.2052987108676
 20
39.99491329935847
 30
0.0
 10
236.2844925047135
 20
40.00982434365239
 30
0.0
  0
LINE
  5
28B
330
1F
100
AcDbEntity
  8
0
  6
Continuous
 62
     7
370
    25
100
AcDbLine
 10
230.7694620146
 20
49.9905024394
 30
0.0
 11
230.007582633
 21
50.4811373581
 31
0.0
  0
LINE
  5
28C
330
1F
100
AcDbEntity
  8
0
  6
Continuous
 62
     7
370
    25
100
AcDbLine
 10
230.007582633
 20
50.4811373581
 30
0.0
 11
229.5268313266
 21
50.7919285324
 31
0.0
  0
LINE
  5
28D
330
1F
100
AcDbEntity
  8
0
  6
Continuous
 62
     7
370
    25
100
AcDbLine
 10
234.6067650775
 20
39.9856503113
 30
0.0
 11
234.9126992738
 21
40.673661823
 31
0.0
  0
LINE
  5
28E
330
1F
100
AcDbEntity
  8
0
  6
Continuous
 62
     7
370
    25
100
AcDbLine
 10
234.9126992738
 20
40.673661823
 30
0.0
 11
235.5526354691
 21
40.2614300859
 31
0.0
  0
SPLINE
  5
28F
330
1F
100
AcDbEntity
  8
0
  6
Continuous
 62
     7
370
    25
100
AcDbSpline
210
0.0
220
0.0
230
1.0
 70
     8
 71
     3
 72
    13
 73
     9
 74
     0
 42
0.000000001
 43
0.00000001
 40
0.0
 40
0.0
 40
0.0
 40
0.0
 40
0.1722808990528107
 40
0.3421751864042707
 40
0.5097853609121838
 40
0.6752181678280992
 40
0.8385846213668761
 40
1.0
 40
1.0
 40
1.0
 40
1.0
 10
234.5266273430394
 20
40.95497131889077
 30
0.0
 10
234.5497818827616
 20
40.93684944968484
 30
0.0
 10
234.5957702017748
 20
40.90085675399063
 30
0.0
 10
234.6633168468438
 20
40.84985347400433
 30
0.0
 10
234.7289784521279
 20
40.8015283054324
 30
0.0
 10
234.7925007910148
 20
40.75609915847174
 30
0.0
 10
234.8539257520541
 20
40.71327735985311
 30
0.0
 10
234.8931867178839
 20
40.68681401052217
 30
0.0
 10
234.9126992738126
 20
40.67366182302575
 30
0.0
  0
SPLINE
  5
290
330
1F
100
AcDbEntity
  8
0
  6
Continuous
 62
     7
370
    25
100
AcDbSpline
210
0.0
220
0.0
230
1.0
 70
     8
 71
     3
 72
    11
 73
     7
 74
     0
 42
0.000000001
 43
0.00000001
 40
0.0
 40
0.0
 40
0.0
 40
0.0
 40
0.2392702279548267
 40
0.5001120575633039
 40
0.7515010343574877
 40
1.0
 40
1.0
 40
1.0
 40
1.0
 10
234.377227839701
 20
41.0022740090454
 30
0.0
 10
234.3301628399089
 20
40.97396221278161
 30
0.0
 10
234.2317896570586
 20
40.91478614727685
 30
0.0
 10
234.0854977620068
 20
40.82160016307801
 30
0.0
 10
233.9376589278118
 20
40.72622965537831
 30
0.0
 10
233.8413755804938
 20
40.66169646688613
 30
0.0
 10
233.7935122291585
 20
40.62961641608162
 30
0.0
  0
SPLINE
  5
291
330
1F
100
AcDbEntity
  8
0
  6
Continuous
 62
     7
370
    25
100
AcDbSpline
210
0.0
220
0.0
230
1.0
 70
     8
 71
     3
 72
     9
 73
     5
 74
     0
 42
0.000000001
 43
0.00000001
 40
0.0
 40
0.0
 40
0.0
 40
0.0
 40
0.5090786773556302
 40
1.0
 40
1.0
 40
1.0
 40
1.0
 10
234.3777892670323
 20
41.00160478787265
 30
0.0
 10
234.4034438890377
 20
40.99410932035386
 30
0.0
 10
234.4538381073512
 20
40.97938572682659
 30
0.0
 10
234.5026539874048
 20
40.96298613634232
 30
0.0
 10
234.5266187438067
 20
40.95493522769096
 30
0.0
  0
LINE
  5
292
330
1F
100
AcDbEntity
  8
0
  6
Continuous
 62
     7
370
    25
100
AcDbLine
 10
236.2077365094
 20
41.9254645953
 30
0.0
 11
234.5266208486
 21
40.9549771817
 31
0.0
  0
LINE
  5
293
330
1F
100
AcDbEntity
  8
0
  6
Continuous
 62
     7
370
    25
100
AcDbLine
 10
232.5201330516
 20
42.0787984595
 30
0.0
 11
232.3198369993
 21
41.5776411781
 31
0.0
  0
SPLINE
  5
294
330
1F
100
AcDbEntity
  8
0
  6
Continuous
 62
     7
370
    25
100
AcDbSpline
210
0.0
220
0.0
230
1.0
 70
     8
 71
     3
 72
     8
 73
     4
 74
     0
 42
0.000000001
 43
0.00000001
 40
0.0
 40
0.0
 40
0.0
 40
0.0
 40
1.0
 40
1.0
 40
1.0
 40
1.0
 10
232.5196897370073
 20
42.07958239075322
 30
0.0
 10
232.5458650715765
 20
42.10174976773148
 30
0.0
 10
232.571686111542
 20
42.1243819088231
 30
0.0
 10
232.5971436652504
 20
42.14746662891439
 30
0.0
  0
LINE
  5
295
330
1F
100
AcDbEntity
  8
0
  6
Continuous
 62
     7
370
    25
100
AcDbLine
 10
232.5971436653
 20
42.1474666289
 30
0.0
 11
234.3774080013
 21
41.0017138059
 31
0.0
  0
LINE
  5
296
330
1F
100
AcDbEntity
  8
0
  6
Continuous
 62
     7
370
    25
100
AcDbLine
 10
236.2075277577
 20
42.0234843346
 30
0.0
 11
236.1194425499
 21
42.131031887
 31
0.0
  0
LINE
  5
297
330
1F
100
AcDbEntity
  8
0
  6
Continuous
 62
     7
370
    25
100
AcDbLine
 10
234.2911201467
 20
43.1253784362
 30
0.0
 11
232.5971436653
 21
42.1474666289
 31
0.0
  0
LINE
  5
298
330
1F
100
AcDbEntity
  8
0
  6
Continuous
 62
     7
370
    25
100
AcDbLine
 10
234.4338141723
 20
43.1040860755
 30
0.0
 11
234.2915404608
 21
43.1248906914
 31
0.0
  0
LINE
  5
299
330
1F
100
AcDbEntity
  8
0
  6
Continuous
 62
     7
370
    25
100
AcDbLine
 10
236.1194876815
 20
42.1309674721
 30
0.0
 11
234.4338141723
 21
43.1040860755
 31
0.0
  0
LINE
  5
29A
330
1F
100
AcDbEntity
  8
0
  6
Continuous
 62
     7
370
    25
100
AcDbLine
 10
236.2075277577
 20
42.080137287
 30
0.0
 11
236.1194600453
 21
42.130983415
 31
0.0
  0
SPLINE
  5
29B
330
1F
100
AcDbEntity
  8
0
  6
Continuous
 62
     7
370
    25
100
AcDbSpline
210
0.0
220
0.0
230
1.0
 70
     8
 71
     3
 72
    19
 73
    15
 74
     0
 42
0.000000001
 43
0.00000001
 40
0.0
 40
0.0
 40
0.0
 40
0.0
 40
0.063776661886862
 40
0.1289474218640016
 40
0.1955669022766268
 40
0.2636862395843463
 40
0.333353266637559
 40
0.4046126987547166
 40
0.4775063198758862
 40
0.5520731658783065
 40
0.6283497028464434
 40
0.7063699986897237
 40
0.8377041195038064
 40
1.0
 40
1.0
 40
1.0
 40
1.0
 10
231.7356206310459
 20
42.24807047810509
 30
0.0
 10
231.7563080318664
 20
42.23471350242817
 30
0.0
 10
231.7981350407116
 20
42.20770758009729
 30
0.0
 10
231.858621339031
 20
42.17018946324493
 30
0.0
 10
231.9181023288564
 20
42.13467167568794
 30
0.0
 10
231.9761816814787
 20
42.10169181026608
 30
0.0
 10
232.0327133921379
 20
42.07148432096457
 30
0.0
 10
232.087459380759
 20
42.04436887440483
 30
0.0
 10
232.1401839463434
 20
42.02063468942619
 30
0.0
 10
232.1906289067686
 20
42.00059172433146
 30
0.0
 10
232.2385161078901
 20
41.98446941459741
 30
0.0
 10
232.2934833723364
 20
41.97019024612153
 30
0.0
 10
232.3563163256134
 20
41.96005150425218
 30
0.0
 10
232.3948238514607
 20
41.9665257729346
 30
0.0
 10
232.4161078237566
 20
41.97010424629119
 30
0.0
  0
LINE
  5
29C
330
1F
100
AcDbEntity
  8
0
  6
Continuous
 62
     7
370
    25
100
AcDbLine
 10
232.4407437547
 20
41.9961743935
 30
0.0
 11
232.5084182443
 21
42.067788651
 31
0.0
  0
SPLINE
  5
29D
330
1F
100
AcDbEntity
  8
0
  6
Continuous
 62
     7
370
    25
100
AcDbSpline
210
0.0
220
0.0
230
1.0
 70
     8
 71
     3
 72
     9
 73
     5
 74
     0
 42
0.000000001
 43
0.00000001
 40
0.0
 40
0.0
 40
0.0
 40
0.0
 40
0.5232344373744339
 40
1.0
 40
1.0
 40
1.0
 40
1.0
 10
234.1249429740049
 20
43.02944639639114
 30
0.0
 10
234.0559161693536
 20
43.05449169805074
 30
0.0
 10
233.9239928865559
 20
43.10235800781675
 30
0.0
 10
233.6825499412407
 20
43.23995484997148
 30
0.0
 10
233.5674382595755
 20
43.30555628583688
 30
0.0
  0
LINE
  5
29E
330
1F
100
AcDbEntity
  8
0
  6
Continuous
 62
     7
370
    25
100
AcDbLine
 10
229.8379371365
 20
43.0714457527
 30
0.0
 11
230.2894073061
 21
43.1837102863
 31
0.0
  0
LINE
  5
29F
330
1F
100
AcDbEntity
  8
0
  6
Continuous
 62
     7
370
    25
100
AcDbLine
 10
230.2894073061
 20
43.1837102863
 30
0.0
 11
231.735620631
 21
42.2480704781
 31
0.0
  0
SPLINE
  5
2A0
330
1F
100
AcDbEntity
  8
0
  6
Continuous
 62
     7
370
    25
100
AcDbSpline
210
0.0
220
0.0
230
1.0
 70
     8
 71
     3
 72
     8
 73
     4
 74
     0
 42
0.000000001
 43
0.00000001
 40
0.0
 40
0.0
 40
0.0
 40
0.0
 40
1.0
 40
1.0
 40
1.0
 40
1.0
 10
230.0087250150627
 20
42.67669628032177
 30
0.0
 10
229.9515997461387
 20
42.80848246411725
 30
0.0
 10
229.8946712544212
 20
42.94006668577787
 30
0.0
 10
229.8379371364718
 20
43.07144575267907
 30
0.0
  0
LINE
  5
2A1
330
1F
100
AcDbEntity
  8
0
  6
Continuous
 62
     7
370
    25
100
AcDbLine
 10
231.6271085166
 20
43.9559487576
 30
0.0
 11
230.2894073061
 21
43.1837102863
 31
0.0
  0
LINE
  5
2A2
330
1F
100
AcDbEntity
  8
0
  6
Continuous
 62
     7
370
    25
100
AcDbLine
 10
232.6101373135
 20
43.8581952242
 30
0.0
 11
231.6271080428
 21
43.9559488052
 31
0.0
  0
LINE
  5
2A3
330
1F
100
AcDbEntity
  8
0
  6
Continuous
 62
     7
370
    25
100
AcDbLine
 10
233.5674382596
 20
43.3055562858
 30
0.0
 11
232.6101365639
 21
43.8581947915
 31
0.0
  0
SPLINE
  5
2A4
330
1F
100
AcDbEntity
  8
0
  6
Continuous
 62
     7
370
    25
100
AcDbSpline
210
0.0
220
0.0
230
1.0
 70
     8
 71
     3
 72
     8
 73
     4
 74
     0
 42
0.000000001
 43
0.00000001
 40
0.0
 40
0.0
 40
0.0
 40
0.0
 40
1.0
 40
1.0
 40
1.0
 40
1.0
 10
229.8379371364738
 20
43.07144575267445
 30
0.0
 10
229.8347997987237
 20
43.10666205954696
 30
0.0
 10
229.8328073948257
 20
43.14230631577466
 30
0.0
 10
229.8320259974537
 20
43.17840321776954
 30
0.0
  0
LINE
  5
2A5
330
1F
100
AcDbEntity
  8
0
  6
Continuous
 62
     7
370
    25
100
AcDbLine
 10
230.6431115299
 20
43.6466329291
 30
0.0
 11
229.8320259975
 21
43.1784032178
 31
0.0
  0
SPLINE
  5
2A6
330
1F
100
AcDbEntity
  8
0
  6
Continuous
 62
     7
370
    25
100
AcDbSpline
210
0.0
220
0.0
230
1.0
 70
     8
 71
     3
 72
     8
 73
     4
 74
     0
 42
0.000000001
 43
0.00000001
 40
0.0000004089325119
 40
0.0000004089325119
 40
0.0000004089325119
 40
0.0000004089325119
 40
0.0015399868451459
 40
0.0015399868451459
 40
0.0015399868451459
 40
0.0015399868451459
 10
230.6431115299424
 20
43.64663292912565
 30
0.0
 10
230.8815880979657
 20
43.741009314942
 30
0.0
 10
231.1200350556344
 20
43.83543792687222
 30
0.0
 10
231.3584437944847
 20
43.92993130983467
 30
0.0
  0
LINE
  5
2A7
330
1F
100
AcDbEntity
  8
0
  6
Continuous
 62
     7
370
    25
100
AcDbLine
 10
231.3584437945
 20
43.9299313098
 30
0.0
 11
231.3828400252
 21
43.9349252396
 31
0.0
  0
LINE
  5
2A8
330
1F
100
AcDbEntity
  8
0
  6
Continuous
 62
     7
370
    25
100
AcDbLine
 10
231.6271083091
 20
43.955948739
 30
0.0
 11
231.3828405669
 21
43.9349256323
 31
0.0
  0
SPLINE
  5
2A9
330
1F
100
AcDbEntity
  8
0
  6
Continuous
 62
     7
370
    25
100
AcDbSpline
210
0.0
220
0.0
230
1.0
 70
     8
 71
     3
 72
     8
 73
     4
 74
     0
 42
0.000000001
 43
0.00000001
 40
0.0
 40
0.0
 40
0.0
 40
0.0
 40
1.0
 40
1.0
 40
1.0
 40
1.0
 10
232.6101357089927
 20
43.85819530242164
 30
0.0
 10
232.640743743116
 20
43.84325529461552
 30
0.0
 10
232.6712952440879
 20
43.82837833722215
 30
0.0
 10
232.7017891822025
 20
43.81356477354122
 30
0.0
  0
ARC
  5
2AA
330
1F
100
AcDbEntity
  8
0
  6
Continuous
 62
     7
370
    25
100
AcDbCircle
 10
233.4656534019
 20
49.3588197263
 30
0.0
 40
6.625581341068008
100
AcDbArc
 50
283.7327672817
 51
294.8489934469
  0
LWPOLYLINE
  5
2AB
330
1F
100
AcDbEntity
  8
0
  6
Continuous
 62
     7
370
    18
100
AcDbPolyline
 90
       26
 70
   128
 43
0.0
 10
265.0408103268
 20
27.6361583419
 10
265.0792321529
 20
28.4766603654
 10
265.1940471703
 20
29.3516691673
 10
265.383909278
 20
30.2509260694
 10
265.6465925164
 20
31.1638881067
 10
265.9790171646
 20
32.0798516342
 10
266.3772858475
 20
32.9880778168
 10
266.8367292291
 20
33.877918533
 10
267.3519607558
 20
34.738941214
 10
267.9169398089
 20
35.5610511561
 10
268.5250425257
 20
36.3346098719
 10
269.1691394577
 20
37.0505480927
 10
269.8416791574
 20
37.7004720975
 10
270.5347767117
 20
38.2767621215
 10
271.2403061854
 20
38.7726616911
 10
271.9499958906
 20
39.1823568373
 10
272.6555253644
 20
39.5010442591
 10
273.3486229187
 20
39.7249876378
 10
274.0211626183
 20
39.8515614421
 10
274.6652595504
 20
39.8792817098
 10
275.2733622671
 20
39.8078234461
 10
275.8383413203
 20
39.6380244339
 10
276.3535728469
 20
39.3718754113
 10
276.8130162285
 20
39.0124967323
 10
277.2112849115
 20
38.5641017833
 10
277.4986002032
 20
38.1161591743
  0
LWPOLYLINE
  5
2AC
330
1F
100
AcDbEntity
  8
0
  6
Continuous
 62
     7
370
    18
100
AcDbPolyline
 90
       12
 70
   128
 43
0.0
 10
268.7485378818
 20
22.9589643506
 10
268.5250425257
 20
22.9605156809
 10
267.9169398089
 20
23.0319739445
 10
267.3519607558
 20
23.2017729567
 10
266.8367292291
 20
23.4679219793
 10
266.3772858475
 20
23.8273006583
 10
265.9790171646
 20
24.2756956073
 10
265.6465925164
 20
24.8078498056
 10
265.383909278
 20
25.4175242316
 10
265.1940471703
 20
26.0975710101
 10
265.0792321529
 20
26.8400172146
 10
265.0408103268
 20
27.6361583419
  0
LWPOLYLINE
  5
2AD
330
1F
100
AcDbEntity
  8
0
  6
Continuous
 62
     7
370
    18
100
AcDbPolyline
 90
       57
 70
   128
 43
0.0
 10
266.0899372513
 20
27.7704272891
 10
266.1271199996
 20
28.5564612769
 10
266.2382006497
 20
29.3755407185
 10
266.4217822981
 20
30.2173652148
 10
266.6755562991
 20
31.0713483343
 10
266.9963312972
 20
31.9267507437
 10
267.3800733609
 20
32.7728152615
 10
267.8219567109
 20
33.5989021354
 10
268.3164244078
 20
34.3946228438
 10
268.8572582334
 20
35.1499707369
 10
269.4376568885
 20
35.8554468768
 10
270.0503215234
 20
36.5021794917
 10
270.6875475246
 20
37.0820355437
 10
271.3413214056
 20
37.5877230065
 10
272.0034215805
 20
38.0128825669
 10
272.6655217553
 20
38.3521675968
 10
273.3192956363
 20
38.6013113899
 10
273.9565216376
 20
38.7571808186
 10
274.5691862724
 20
38.8178157343
 10
275.1495849276
 20
38.7824536179
 10
275.6904187532
 20
38.6515391683
 10
276.1848864501
 20
38.4267187109
 10
276.6267698001
 20
38.1108194933
 10
277.0105118637
 20
37.7078141314
 10
277.3312868619
 20
37.2227706515
 10
277.5850608628
 20
36.6617887568
 10
277.7686425112
 20
36.0319231201
 10
277.8797231614
 20
35.3410946672
 10
277.9169059097
 20
34.5979909668
 10
277.8797231614
 20
33.811956979
 10
277.7686425112
 20
32.9928775374
 10
277.5850608628
 20
32.1510530411
 10
277.3312868619
 20
31.2970699216
 10
277.0105118637
 20
30.4416675122
 10
276.6267698001
 20
29.5956029944
 10
276.1848864501
 20
28.7695161205
 10
275.6904187532
 20
27.9737954122
 10
275.1495849276
 20
27.218447519
 10
274.5691862724
 20
26.5129713791
 10
273.9565216376
 20
25.8662387642
 10
273.3192956363
 20
25.2863827122
 10
272.6655217553
 20
24.7806952494
 10
272.0034215805
 20
24.355535689
 10
271.3413214056
 20
24.0162506591
 10
270.6875475246
 20
23.767106866
 10
270.0503215234
 20
23.6112374373
 10
269.4376568885
 20
23.5506025216
 10
268.8572582334
 20
23.5859646381
 10
268.3164244078
 20
23.7168790876
 10
267.8219567109
 20
23.941699545
 10
267.3800733609
 20
24.2575987626
 10
266.9963312972
 20
24.6606041245
 10
266.6755562991
 20
25.1456476044
 10
266.4217822981
 20
25.7066294991
 10
266.2382006497
 20
26.3364951358
 10
266.1271199996
 20
27.0273235887
 10
266.0899372513
 20
27.7704272891
  0
LWPOLYLINE
  5
2AE
330
1F
100
AcDbEntity
  8
0
  6
Continuous
 62
     7
370
    18
100
AcDbPolyline
 90
       10
 70
   128
 43
0.0
 10
249.7295579731
 20
34.2457395473
 10
249.766842452
 20
33.3497182441
 10
249.8783682314
 20
32.5046189514
 10
250.0631552187
 20
31.7178684322
 10
250.3195794992
 20
30.9963806783
 10
250.6453876072
 20
30.34649615
 10
251.0377163292
 20
29.7739260559
 10
251.4931178663
 20
29.2837021626
 10
252.0075901336
 20
28.8801325754
 10
252.1810485878
 20
28.7716177375
  0
LWPOLYLINE
  5
2AF
330
1F
100
AcDbEntity
  8
0
  6
Continuous
 62
     7
370
    18
100
AcDbPolyline
 90
       27
 70
   128
 43
0.0
 10
264.2143517432
 20
49.5367745668
 10
264.1440945578
 20
49.5763943363
 10
263.549644924
 20
49.8435793061
 10
262.908312827
 20
50.0167376423
 10
262.2257343162
 20
50.0943476232
 10
261.5079079163
 20
50.0757272096
 10
260.7611419114
 20
49.9610400382
 10
259.991998908
 20
49.7512939841
 10
259.2072381625
 20
49.4483323032
 10
258.4137561805
 20
49.0548174335
 10
257.6185261102
 20
48.5742075979
 10
256.8285364621
 20
48.010726413
 10
256.0507296936
 20
47.3693257716
 10
255.2919411986
 20
46.6556423256
 10
254.5588392376
 20
45.8759479509
 10
253.857866337
 20
45.0370946296
 10
253.1951826718
 20
44.1464542348
 10
252.5766119301
 20
43.2118537464
 10
252.0075901336
 20
42.2415064672
 10
251.4931178663
 20
41.2439398437
 10
251.0377163292
 20
40.2279205275
 10
250.6453876072
 20
39.2023773328
 10
250.3195794992
 20
38.1763227701
 10
250.0631552187
 20
37.1587738437
 10
249.8783682314
 20
36.1586728102
 10
249.766842452
 20
35.1848085935
 10
249.7295579731
 20
34.2457395473
  0
LWPOLYLINE
  5
2B0
330
1F
100
AcDbEntity
  8
0
  6
Continuous
 62
     7
370
    18
100
AcDbPolyline
 90
       10
 70
   128
 43
0.0
 10
272.6848609582
 20
34.8736080574
 10
273.0440071896
 20
34.9533639395
 10
273.4706681514
 20
34.9658846522
 10
273.8593281978
 20
34.8804619553
 10
274.1999212376
 20
34.6993082517
 10
274.4836260901
 20
34.4271153271
 10
274.7030949486
 20
34.0709328355
 10
274.8526436849
 20
33.6399857161
 10
274.9283990654
 20
33.1454352731
 10
274.9351113969
 20
32.7285538649
  0
LWPOLYLINE
  5
2B1
330
1F
100
AcDbEntity
  8
0
  6
Continuous
 62
     7
370
    18
100
AcDbPolyline
 90
       11
 70
   128
 43
0.0
 10
271.8084489239
 20
27.6904972928
 10
271.6497075189
 20
27.61607701
 10
271.1869943407
 20
27.458041424
 10
270.7454261991
 20
27.3965116242
 10
270.336439477
 20
27.4330812002
 10
269.9706267159
 20
27.5668030191
 10
269.6574622739
 20
27.7942137561
 10
269.4050569457
 20
28.1094235926
 10
269.2199478967
 20
28.5042687593
 10
269.106929354
 20
28.9685229738
 10
269.0768938837
 20
29.2452526047
  0
LWPOLYLINE
  5
2B2
330
1F
100
AcDbEntity
  8
0
  6
Continuous
 62
     7
370
    18
100
AcDbPolyline
 90
       34
 70
   128
 43
0.0
 10
247.6082376295
 20
34.2457395473
 10
247.6455925973
 20
35.241544603
 10
247.7573651472
 20
36.2726852618
 10
247.9426805076
 20
37.3310914498
 10
248.2000883344
 20
38.4084797036
 10
248.5275740625
 20
39.4964179993
 10
248.922574672
 20
40.5863917448
 10
249.3819987476
 20
41.6698704175
 10
249.9022506729
 20
42.7383743279
 10
250.4792587712
 20
43.7835409841
 10
251.108507172
 20
44.7971905399
 10
251.7850711531
 20
45.7713898133
 10
252.5036556843
 20
46.6985143739
 10
253.2586368672
 20
47.5713082152
 10
254.0441059504
 20
48.3829405419
 10
254.8539155734
 20
49.1270592306
 10
255.6817278779
 20
49.7978405436
 10
256.5210641103
 20
50.3900347078
 10
257.3653553264
 20
50.8990070008
 10
258.2079938028
 20
51.3207740243
 10
259.042384751
 20
51.6520348796
 10
259.8619979304
 20
51.8901970013
 10
260.6604187566
 20
52.0333964479
 10
261.4313985042
 20
52.0805124895
 10
262.1689032113
 20
52.0311763794
 10
262.8671609036
 20
51.8857742393
 10
263.5207067679
 20
51.6454440382
 10
264.1244259217
 20
51.3120666859
 10
264.6735934442
 20
50.888251312
 10
265.1639113548
 20
50.3773148465
 10
265.5915422511
 20
49.78325606
 10
265.9531393415
 20
49.1107242679
 10
266.2458726386
 20
48.3649829435
 10
266.2462720756
 20
48.3637719269
  0
LWPOLYLINE
  5
2B3
330
1F
100
AcDbEntity
  8
0
  6
Continuous
 62
     7
370
    18
100
AcDbPolyline
 90
       16
 70
   128
 43
0.0
 10
254.247247284
 20
27.5785992298
 10
254.0441059504
 20
27.5392339492
 10
253.2586368672
 20
27.4439829759
 10
252.5036556843
 20
27.4450940977
 10
251.7850711531
 20
27.5425586185
 10
251.108507172
 20
27.7356137463
 10
250.4792587712
 20
28.022748563
 10
249.9022506729
 20
28.4017158492
 10
249.3819987476
 20
28.8695496723
 10
248.922574672
 20
29.4225885981
 10
248.5275740625
 20
30.0565043473
 10
248.2000883344
 20
30.7663356696
 10
247.9426805076
 20
31.5465271726
 10
247.7573651472
 20
32.3909727998
 10
247.6455925973
 20
33.2930636193
 10
247.6082376295
 20
34.2457395473
  0
ARC
  5
2B4
330
1F
100
AcDbEntity
  8
0
  6
Continuous
 62
     7
370
    18
100
AcDbCircle
 10
268.9406980572
 20
32.9416301304
 30
0.0
 40
5.760238689947937
100
AcDbArc
 50
296.5302104743
 51
4.9815295742
  0
LWPOLYLINE
  5
2B5
330
1F
100
AcDbEntity
  8
0
  6
Continuous
 62
     7
370
    18
100
AcDbPolyline
 90
       30
 70
   128
 43
0.0
 10
239.7328358541
 20
36.9653990698
 10
239.7708439334
 20
38.0485109407
 10
239.8846085378
 20
39.1681072536
 10
240.0733525395
 20
40.3165400305
 10
240.3357866257
 20
41.4859643109
 10
240.6701181055
 20
42.6683917412
 10
241.0740631559
 20
43.8557451433
 10
241.5448624224
 20
45.0399136892
 10
242.0792998689
 20
46.2128083072
 10
242.6737247456
 20
47.3664169377
 10
243.3240765278
 20
48.4928592641
 10
244.0259126535
 20
49.5844405429
 10
244.7744388702
 20
50.6337041673
 10
245.564541985
 20
51.6334826028
 10
246.3908247923
 20
52.5769463488
 10
247.2476429427
 20
53.4576505914
 10
248.1291434996
 20
54.2695792275
 10
249.0293049202
 20
55.0071859612
 10
249.9419781893
 20
55.6654321907
 10
250.860928823
 20
56.2398214268
 10
251.7798794567
 20
56.7264300084
 10
252.6925527258
 20
57.1219339057
 10
253.5927141464
 20
57.423631426
 10
254.4742147033
 20
57.6294616692
 10
255.3310328537
 20
57.7380186062
 10
256.157315661
 20
57.7485606829
 10
256.9474187758
 20
57.6610158863
 10
257.6959449925
 20
57.4759822361
 10
258.3977811182
 20
57.1947236997
 10
258.7290393504
 20
57.0189543714
  0
LWPOLYLINE
  5
2B6
330
1F
100
AcDbEntity
  8
0
  6
Continuous
 62
     7
370
    18
100
AcDbPolyline
 90
       11
 70
   128
 43
0.0
 10
242.9928182956
 20
29.760066428
 10
242.6737247456
 20
29.9598592412
 10
242.0792998689
 20
30.4271595176
 10
241.5448624224
 20
30.9830057941
 10
241.0740631559
 20
31.6236010772
 10
240.6701181055
 20
32.3445694514
 10
240.3357866257
 20
33.1409859717
 10
240.0733525395
 20
34.0074103057
 10
239.8846085378
 20
34.9379238967
 10
239.7708439334
 20
35.9261703932
 10
239.7328358541
 20
36.9653990698
  0
LWPOLYLINE
  5
2B7
330
1F
100
AcDbEntity
  8
0
  6
Continuous
 62
     7
370
    18
100
AcDbPolyline
 90
       15
 70
   128
 43
0.0
 10
244.3569169557
 20
33.6297623435
 10
244.3496765156
 20
33.6645876988
 10
244.2070921945
 20
34.5685136477
 10
244.140091243
 20
35.5267247238
 10
244.1491917895
 20
36.5318109384
 10
244.234323458
 20
37.5759998108
 10
244.3948279128
 20
38.6512164735
 10
244.6294639491
 20
39.7491461163
 10
244.9364170916
 20
40.8612982864
 10
245.3133136261
 20
41.9790725461
 10
245.7572389557
 20
43.093824981
 10
246.26476014
 20
44.1969350451
 10
246.8319524424
 20
45.2798722246
 10
247.4544296805
 20
46.3342620055
 10
248.1273781455
 20
47.3519506352
  0
LWPOLYLINE
  5
2B8
330
1F
100
AcDbEntity
  8
0
  6
Continuous
 62
     7
370
    18
100
AcDbPolyline
 90
       19
 70
   128
 43
0.0
 10
244.86871303
 20
30.6998347947
 10
244.7199325973
 20
30.9116074661
 10
244.3215944129
 20
31.5977031536
 10
243.9937360372
 20
32.3610102799
 10
243.738840564
 20
33.1957478029
 10
243.5588384894
 20
34.0955936896
 10
243.455093091
 20
35.0537327974
 10
243.4283901032
 20
36.0629084895
 10
243.4789317656
 20
37.1154775945
 10
243.6063352921
 20
38.2034682933
 10
243.8096357695
 20
39.3186404951
 10
244.0872934653
 20
40.4525482452
 10
244.4372054898
 20
41.5966036916
 10
244.856721722
 20
42.7421421273
 10
245.3426648813
 20
43.8804876133
 10
245.8913545908
 20
45.003018688
 10
246.4986352515
 20
46.1012336628
 10
247.1599075154
 20
47.1668150115
 10
247.8701631196
 20
48.1916923645
  0
ARC
  5
2B9
330
1F
100
AcDbEntity
  8
0
  6
Continuous
 62
     7
370
    18
100
AcDbCircle
 10
261.0980778728
 20
40.1995524695
 30
0.0
 40
14.5997278647154
100
AcDbArc
 50
110.186167714
 51
139.1704721415
  0
LWPOLYLINE
  5
2BA
330
1F
100
AcDbEntity
  8
0
  6
Continuous
 62
     7
370
    18
100
AcDbPolyline
 90
       13
 70
   128
 43
0.0
 10
249.2143563605
 20
49.8638559771
 10
250.0422661096
 20
50.7497313446
 10
250.8980962348
 20
51.5658503615
 10
251.7751818418
 20
52.3058573891
 10
252.6666925063
 20
52.9639895213
 10
253.5656854669
 20
53.5351214642
 10
254.4651596928
 20
54.0148054494
 10
255.3581104055
 20
54.3993058723
 10
256.2375836288
 20
54.6856283832
 10
257.0967303447
 20
54.8715432063
 10
257.9288598304
 20
54.9556025044
 10
258.7274917637
 20
54.9371516544
 10
258.8533199779
 20
54.9245093462
  0
LINE
  5
2BB
330
1F
100
AcDbEntity
  8
0
  6
Continuous
 62
     7
370
    18
100
AcDbLine
 10
235.2464713457
 20
47.3380067733
 30
0.0
 11
235.5526354691
 21
46.9672715036
 31
0.0
  0
LINE
  5
2BC
330
1F
100
AcDbEntity
  8
0
  6
Continuous
 62
     7
370
    18
100
AcDbLine
 10
235.2464713457
 20
39.5738963819
 30
0.0
 11
235.5526354691
 21
40.2614300859
 31
0.0
  0
LINE
  5
2BD
330
1F
100
AcDbEntity
  8
0
  6
Continuous
 62
     7
370
    18
100
AcDbLine
 10
236.2885456229
 20
40.6862619749
 30
0.0
 11
235.5526427953
 21
40.2614343152
 31
0.0
  0
LINE
  5
2BE
330
1F
100
AcDbEntity
  8
0
  6
Continuous
 62
     7
370
    18
100
AcDbLine
 10
236.2219702477
 20
41.4294878681
 30
0.0
 11
234.9126992738
 21
40.673661823
 31
0.0
  0
LINE
  5
2BF
330
1F
100
AcDbEntity
  8
0
  6
Continuous
 62
     7
370
    18
100
AcDbLine
 10
231.735620631
 20
42.2480704781
 30
0.0
 11
231.4391331283
 21
41.7520088705
 31
0.0
  0
LINE
  5
2C0
330
1F
100
AcDbEntity
  8
0
  6
Continuous
 62
     7
370
    18
100
AcDbLine
 10
233.5674382596
 20
43.3055562858
 30
0.0
 11
231.7356808805
 21
42.2481052594
 31
0.0
  0
LINE
  5
2C1
330
1F
100
AcDbEntity
  8
0
  6
Continuous
 62
     7
370
    18
100
AcDbLine
 10
233.5674382596
 20
43.3055562858
 30
0.0
 11
233.6887482212
 21
43.243805448
 31
0.0
  0
OLE2FRAME
  5
2C2
330
1F
100
AcDbEntity
  8
0
100
AcDbOle2Frame
 70
     2
  3
Paintbrush-Bild
 10
13.8511154363
 20
38.264191557
 30
0.0
 11
51.6290888628
 21
31.9806341108
 31
0.0
 71
     2
 72
     0
 73
     1
 90
    12928
310
80552BED0767C5B32B40DDAF6807D121434000000000000000006FFBDDFB85D0
310
4940DDAF6807D121434000000000000000006FFBDDFB85D04940416F4BD60AFB
310
3F4000000000000000002BED0767C5B32B40416F4BD60AFB3F40000000000000
310
0000000000000100000000010000010000000100000000000100000000320000
310
D0CF11E0A1B11AE1000000000000000000000000000000003E000300FEFF0900
310
0600000000000000000000000100000001000000000000000010000002000000
310
01000000FEFFFFFF0000000000000000FFFFFFFFFFFFFFFFFFFFFFFFFFFFFFFF
310
FFFFFFFFFFFFFFFFFFFFFFFFFFFFFFFFFFFFFFFFFFFFFFFFFFFFFFFFFFFFFFFF
310
FFFFFFFFFFFFFFFFFFFFFFFFFFFFFFFFFFFFFFFFFFFFFFFFFFFFFFFFFFFFFFFF
310
FFFFFFFFFFFFFFFFFFFFFFFFFFFFFFFFFFFFFFFFFFFFFFFFFFFFFFFFFFFFFFFF
310
FFFFFFFFFFFFFFFFFFFFFFFFFFFFFFFFFFFFFFFFFFFFFFFFFFFFFFFFFFFFFFFF
310
FFFFFFFFFFFFFFFFFFFFFFFFFFFFFFFFFFFFFFFFFFFFFFFFFFFFFFFFFFFFFFFF
310
FFFFFFFFFFFFFFFFFFFFFFFFFFFFFFFFFFFFFFFFFFFFFFFFFFFFFFFFFFFFFFFF
310
FFFFFFFFFFFFFFFFFFFFFFFFFFFFFFFFFFFFFFFFFFFFFFFFFFFFFFFFFFFFFFFF
310
FFFFFFFFFFFFFFFFFFFFFFFFFFFFFFFFFFFFFFFFFFFFFFFFFFFFFFFFFFFFFFFF
310
FFFFFFFFFFFFFFFFFFFFFFFFFFFFFFFFFFFFFFFFFFFFFFFFFFFFFFFFFFFFFFFF
310
FFFFFFFFFFFFFFFFFFFFFFFFFFFFFFFFFFFFFFFFFFFFFFFFFFFFFFFFFFFFFFFF
310
FFFFFFFFFFFFFFFFFFFFFFFFFFFFFFFFFFFFFFFFFFFFFFFFFFFFFFFFFFFFFFFF
310
FFFFFFFFFFFFFFFFFFFFFFFFFFFFFFFFFFFFFFFFFFFFFFFFFFFFFFFFFFFFFFFF
310
FFFFFFFFFFFFFFFFFFFFFFFFFFFFFFFFFFFFFFFFFFFFFFFFFFFFFFFFFFFFFFFF
310
FDFFFFFFFEFFFFFFFEFFFFFFFEFFFFFF05000000060000000700000008000000
310
090000000A0000000B0000000C0000000D0000000E0000000F00000010000000
310
11000000120000001300000014000000150000001600000017000000FEFFFFFF
310
FFFFFFFFFFFFFFFFFFFFFFFFFFFFFFFFFFFFFFFFFFFFFFFFFFFFFFFFFFFFFFFF
310
FFFFFFFFFFFFFFFFFFFFFFFFFFFFFFFFFFFFFFFFFFFFFFFFFFFFFFFFFFFFFFFF
310
FFFFFFFFFFFFFFFFFFFFFFFFFFFFFFFFFFFFFFFFFFFFFFFFFFFFFFFFFFFFFFFF
310
FFFFFFFFFFFFFFFFFFFFFFFFFFFFFFFFFFFFFFFFFFFFFFFFFFFFFFFFFFFFFFFF
310
FFFFFFFFFFFFFFFFFFFFFFFFFFFFFFFFFFFFFFFFFFFFFFFFFFFFFFFFFFFFFFFF
310
FFFFFFFFFFFFFFFFFFFFFFFFFFFFFFFFFFFFFFFFFFFFFFFFFFFFFFFFFFFFFFFF
310
FFFFFFFFFFFFFFFFFFFFFFFFFFFFFFFFFFFFFFFFFFFFFFFFFFFFFFFFFFFFFFFF
310
FFFFFFFFFFFFFFFFFFFFFFFFFFFFFFFFFFFFFFFFFFFFFFFFFFFFFFFFFFFFFFFF
310
FFFFFFFFFFFFFFFFFFFFFFFFFFFFFFFFFFFFFFFFFFFFFFFFFFFFFFFFFFFFFFFF
310
FFFFFFFFFFFFFFFFFFFFFFFFFFFFFFFFFFFFFFFFFFFFFFFFFFFFFFFFFFFFFFFF
310
FFFFFFFFFFFFFFFFFFFFFFFFFFFFFFFFFFFFFFFFFFFFFFFFFFFFFFFFFFFFFFFF
310
FFFFFFFFFFFFFFFFFFFFFFFFFFFFFFFFFFFFFFFFFFFFFFFFFFFFFFFFFFFFFFFF
310
FFFFFFFFFFFFFFFFFFFFFFFFFFFFFFFFFFFFFFFFFFFFFFFFFFFFFFFFFFFFFFFF
310
52006F006F007400200045006E00740072007900000000000000000000000000
310
0000000000000000000000000000000000000000000000000000000000000000
310
16000500FFFFFFFFFFFFFFFF020000000A00030000000000C000000000000046
310
000000000000000000000000A066DDC506A7D30103000000C000000000000000
310
01004F006C006500000000000000000000000000000000000000000000000000
310
0000000000000000000000000000000000000000000000000000000000000000
310
0A000200FFFFFFFFFFFFFFFFFFFFFFFF00000000000000000000000000000000
310
0000000000000000000000000000000000000000000000001400000000000000
310
010043006F006D0070004F0062006A0000000000000000000000000000000000
310
0000000000000000000000000000000000000000000000000000000000000000
310
120002010100000003000000FFFFFFFF00000000000000000000000000000000
310
0000000000000000000000000000000000000000010000004D00000000000000
310
01004F006C006500310030004E00610074006900760065000000000000000000
310
0000000000000000000000000000000000000000000000000000000000000000
310
1A000200FFFFFFFFFFFFFFFFFFFFFFFF00000000000000000000000000000000
310
0000000000000000000000000000000000000000040000002426000000000000
310
FEFFFFFF02000000FEFFFFFFFFFFFFFFFFFFFFFFFFFFFFFFFFFFFFFFFFFFFFFF
310
FFFFFFFFFFFFFFFFFFFFFFFFFFFFFFFFFFFFFFFFFFFFFFFFFFFFFFFFFFFFFFFF
310
FFFFFFFFFFFFFFFFFFFFFFFFFFFFFFFFFFFFFFFFFFFFFFFFFFFFFFFFFFFFFFFF
310
FFFFFFFFFFFFFFFFFFFFFFFFFFFFFFFFFFFFFFFFFFFFFFFFFFFFFFFFFFFFFFFF
310
FFFFFFFFFFFFFFFFFFFFFFFFFFFFFFFFFFFFFFFFFFFFFFFFFFFFFFFFFFFFFFFF
310
FFFFFFFFFFFFFFFFFFFFFFFFFFFFFFFFFFFFFFFFFFFFFFFFFFFFFFFFFFFFFFFF
310
FFFFFFFFFFFFFFFFFFFFFFFFFFFFFFFFFFFFFFFFFFFFFFFFFFFFFFFFFFFFFFFF
310
FFFFFFFFFFFFFFFFFFFFFFFFFFFFFFFFFFFFFFFFFFFFFFFFFFFFFFFFFFFFFFFF
310
FFFFFFFFFFFFFFFFFFFFFFFFFFFFFFFFFFFFFFFFFFFFFFFFFFFFFFFFFFFFFFFF
310
FFFFFFFFFFFFFFFFFFFFFFFFFFFFFFFFFFFFFFFFFFFFFFFFFFFFFFFFFFFFFFFF
310
FFFFFFFFFFFFFFFFFFFFFFFFFFFFFFFFFFFFFFFFFFFFFFFFFFFFFFFFFFFFFFFF
310
FFFFFFFFFFFFFFFFFFFFFFFFFFFFFFFFFFFFFFFFFFFFFFFFFFFFFFFFFFFFFFFF
310
FFFFFFFFFFFFFFFFFFFFFFFFFFFFFFFFFFFFFFFFFFFFFFFFFFFFFFFFFFFFFFFF
310
FFFFFFFFFFFFFFFFFFFFFFFFFFFFFFFFFFFFFFFFFFFFFFFFFFFFFFFFFFFFFFFF
310
FFFFFFFFFFFFFFFFFFFFFFFFFFFFFFFFFFFFFFFFFFFFFFFFFFFFFFFFFFFFFFFF
310
FFFFFFFFFFFFFFFFFFFFFFFFFFFFFFFFFFFFFFFFFFFFFFFFFFFFFFFFFFFFFFFF
310
0100000200000000000000000000000000000000000000000000000000000000
310
0000000000000000000000000000000000000000000000000000000000000000
310
0100FEFF030A0000FFFFFFFF0A00030000000000C00000000000004607000000
310
5042727573680007000000504272757368000700000050427275736800F439B2
310
7100000000000000000000000000000000000000000000000000000000000000
310
0000000000000000000000000000000000000000000000000000000000000000
310
0000000000000000000000000000000000000000000000000000000000000000
310
0000000000000000000000000000000000000000000000000000000000000000
310
0000000000000000000000000000000000000000000000000000000000000000
310
0000000000000000000000000000000000000000000000000000000000000000
310
0000000000000000000000000000000000000000000000000000000000000000
310
0000000000000000000000000000000000000000000000000000000000000000
310
0000000000000000000000000000000000000000000000000000000000000000
310
0000000000000000000000000000000000000000000000000000000000000000
310
0000000000000000000000000000000000000000000000000000000000000000
310
0000000000000000000000000000000000000000000000000000000000000000
310
20260000424D0E260000000000003E00000028000000B40200006E0000000100
310
01000000000000000000130B0000130B00000200000002000000000000FFFFFF
310
FFFFFFFFFFFFFFFFFFFFFFFFFFFFFFFFFFFFFFFFFFFFFFFFFFFFFFFFFFFFFFFF
310
FFFFFFFFFFFFFFFFFFFFFFFFFFFFFFFFFFFFFFFFFFFFFFFFFFFFFFFFFFFFFFFF
310
FFFFFFFFFFFFFFFFFFFFFFFFFFFFFFFFFFFFFFFFFFFFFFFFF000FFFFFFFFFFFF
310
FFFFFFFFFFFFFFFFFFFFFFFFFFFFFFFFFFFFFFFFFFFFFFFFFFFFFFFFFFFFFFFF
310
FFFFFFFFFFFFFFFFFFFFFFFFFFFFFFFFFFFFFFFFFFFFFFFFFFFFFFFFFFFFFFFF
310
FFFFFFFFFFFFFFFFFFFFFFFFFFFFFFFFF000FFFFFFFFFFFFFFFFFFFFFFFFFFFF
310
FFFFFFFFFFFFFFFFFFFFFFFFFFFFFFFFFFFFFFFFFFFFFFFFFFFFFFFFFFFFFFFF
310
FFFFFFFFFFFFFFFFFFFFFFFFFFFFFFFFFFFFFFFFFFFFFFFFFFFFFFFFFFFFFFFF
310
FFFFFFFFFFFFFFFFF000FFFFFFFFFFFFFFFFFFFFFFFFFFFFFFFFFFFFFFFFFFFF
310
FFFFFFFFFFFFFFFFFFFFFFFFFFFFFFFFFFFFFFFFFFFFFFFFFFFFFFFFFFFFFFFF
310
FFFFFFFFFFFFFFFFFFFFFFFFFFFFFFFFFFFFFFFFFFFFFFFFFFFFFFFFFFFFFFFF
310
F000FFFFFFFFFFFFFFFFFFFFFFFFFFFFFFFFFFFFFFFFFFFFFFFFFFFFFFFFFFFF
310
FFFFFFFFFFFFFFFFFFFFFFFFFFFFFFFFFFFFFFFFFFFFFFFFFFFFFFFFFFFFFFFF
310
FFFFFFFFFFFFFFFFFFFFFFFFFFFFFFFFFFFFFFFFFFFFFFFFF000FFFFFFFFFFFF
310
FFFFFFFFFFFFFFFFFFFFFFFFFFFFFFFFFFFFFFFFFFFFFFFFFFFFFFFFFFFFFFFF
310
FFFFFFFFFFFFFFFFFFFFFFFFFFFFFFFFFFFFFFFFFFFFFFFFFFFFFFFFFFFFFFFF
310
FFFFFFFFFFFFFFFFFFFFFFFFFFFFFFFFF000FFFFFFFFFFFFFFFFFFFFFFFFFFFF
310
FFFFFFFFFFFFFFFFFFFFFFFFFFFFFFFFFFFFFFFFFFFFFFFFFFFFFFFFFFFFFFFF
310
FFFFFFFFFFFFFFFFFFFFFFFFFFFFFFFFFFFFFFFFFFFFFFFFFFFFFFFFFFFFFFFF
310
FFFFFFFFFFFFFFFFF000FFFFFFFFFFFFFFFFFFFFFFFFFFFFFFFFFFFFFFFFFFFF
310
FFFFFFFFFFFFFFFFFFFFFFFFFFFFFFFFFFFFFFFFFFFFFFFFFFFFFFFFFFFFFFFF
310
FFFFFFFFFFFFFFFFFFFFFFFFFFFFFFFFFFFFFFFFFFFFFFFFFFFFFFFFFFFFFFFF
310
F000FFFFFFFFFFFFFFFFFFFFFFFFFFFFFFFFFFFFFFFFFFFFFFFFFFFFFFFFFFFF
310
FFFFFFFFFFFFFFFFFFFFFFFFFFFFFFFFFFFFFFFFFFFFFFFFFFFFFFFFFFFFFFFF
310
FFFFFFFFFFFFFFFFFFFFFFFFFFFFFFFFFFFFFFFFFFFFFFFFF000FFFFFFFFFFFF
310
FFFFFFFFFFFFFFFFFFFFFFFFFFFFFFFFFFFFFFFFFFFFFFFFFFFFFFFFFFFFFFFF
310
FFFFFFFFFFFFFFFFFFFFFFFFFFFFFFFFFFFFFFFFFFFFFFFFFFFFFFFFFFFFFFFF
310
FFFFFFFFFFFFFFFFFFFFFFFFFFFFFFFFF000FFFFFFFFFFFFFFFFFFFFFFFFFFFF
310
FFFFFFFFFFFFFFFFFFFFFFFFFFFFFFFFFFFFFFFFFFFFFFFFFFFFFFFFFFFFFFFF
310
FFFFFFFFFFFFFFFFFFFFFFFFFFFFFFFFFFFFFFFFFFFFFFFFFFFFFFFFFFFFFFFF
310
FFFFFFFFFFFFFFFFF000FFFFFFFFFFFFFFFFFFFFFFFFFFFFFFFFFFFFFFFFFFFF
310
FFFFFFFFFFFFFFFFFFFFFFFFFFFFFFFFFFFFFFFFFFFFFFFFFFFFFFFFFFFFFFFF
310
FFFFFFFFFFFFFFFFFFFFFFFFFFFFFFFFFFFFFFFFFFFFFFFFFFFFFFFFFFFFFFFF
310
F000FFFFFFFFFFFFFFFFFFFFFFFFFFFFFFFFFFFFFFFFFFFFFFFFFFFFFFFFFFFF
310
FFFFFFFFFFFFFFFFFFFFFFFFFFFFFFFFFFFFFFFFFFFFFFFFFFFFFFFFFFFFFFFF
310
FFFFFFFFFFFFFFFFFFFFFFFFFFFFFFFFFFFFFFFFFFFFFFFFF000FFFFFFFFFFFF
310
FFFFFFFFFFFFFFFFFFFFFFFFFFFFFFFFFFFFFFFFFFFFFFFFFFFFFFFFFFFFFFFF
310
FFFFFFFFFFFFFFFFFFFFFFFFFFFFFFFFFFFFFFFFFFFFFFFFFFFFFFFFFFFFFFFF
310
FFFFFFFFFFFFFFFFFFFFFFFFFFFFFFFFF000FFFFFFFFFFFFFFFFFFFFFFFFFFFF
310
FFFFFFFFFFFFFFFFFFFFFFFFFFFFFFFFFFFFFFFFFFFFFFFFFFFFFFFFFFFFFFFF
310
FFFFFFFFFFFFFFFFFFFFFFFFFFFFFFFFFFFFFFFFFFFFFFFFFFFFFFFFFFFFFFFF
310
FFFFFFFFFFFFFFFFF000FFFFFFFFFFFFFFFFFFFFFFFFFFFFFFFFFFFFFFFFFFFF
310
FFFFFFFFFFFFFFFFFFFFFFFFFFFFFFFFFFFFFFFFFFFFFFFFFFFFFFFFFFFFFFFF
310
FFFFFFFFFFFFFFFFFFFFFFFFFFFFFFFFFFFFFFFFFFFFFFFFFFFFFFFFFFFFFFFF
310
F000FFFFFFFFFFFFFFFFFFFFFFFFFFFFFFFFFFFFFFFFFFFFFFFFFFFFFFFFFFFF
310
FFFFFFFFFFFFFFFFFFFFFFFFFFFFFFFFFFFFFFFFFFFFFFFFFFFFFFFFFFFFFFFF
310
FFFFFFFFFFFFFFFFFFFFFFFFFFFFFFFFFFFFFFFFFFFFFFFFF000FFFFFFFFFFFF
310
FFFFFFFFFFFFFFFFFFFFFFFFFFFFFFFFFFFFFFFFFFFFFFFFFFFFFFFFFFFFFFFF
310
FFFFFFFFFFFFFFFFFFFFFFFFFFFFFFFFFFFFFFFFFFFFFFFFFFFFFFFFFFFFFFFF
310
FFFFFFFFFFFFFFFFFFFFFFFFFFFFFFFFF000FFFFFFFFFFFFFFFFFFFFFFFFFFFF
310
FFFFFFFFFFFFFFFFFFFFFFFFFFFFFFFFFFFFFFFFFFFFFFFFFFFFFFFFFFFFFFFF
310
FFFFFFFFFFFFFFFFFFFFFFFFFFFFFFFFFFFFFFFFFFFFFFFFFFFFFFFFFFFFFFFF
310
FFFFFFFFFFFFFFFFF000FFFFF80003FFFFFFFFFFFFFFFFFFFFFFFFFFFFFFFFFF
310
FFFFF00007FFFFFFFFFF00007FFFFFF800000000000000007FFFFFFFFFFFFFFF
310
FFFFFFFC001FFFFFFFFFFFFFFC001FFFFFFFFFFFFFFFFFFFFFFFFFFE0007FFFF
310
F000FFFF8000007FFFFFFFF8000FFFFFC0007FFFFF80007FFFFF0000007FFFFF
310
FFF8000007FFFFF800000000000000007FFFFFF0001FFFFFFFFFFFC00001FFFF
310
FFFFFFFFC00001FFFFFFFF000000000003FFFFE000007FFFF000FFFE0000000F
310
FFFFFFF0000FFFFF80007FFFFF80007FFFFC0000001FFFFFFFC0000001FFFFF8
310
00000000000000007FFFFFF0001FFFFFFFFFFE0000003FFFFFFFFFFE0000003F
310
FFFFFF000000000003FFFF0000000FFFF000FFF800000003FFFFFFF00007FFFF
310
80007FFFFF80007FFFF000000007FFFFFF000000003FFFF80000000000000000
310
7FFFFFF0001FFFFFFFFFF80000000FFFFFFFFFF80000000FFFFFFF0000000000
310
03FFFC00000003FFF000FFE000000000FFFFFFF00007FFFF80003FFFFF80007F
310
FFC000000001FFFFFC000000001FFFF800000000000000007FFFFFF0001FFFFF
310
FFFFE000000003FFFFFFFFE000000003FFFFFF000000000003FFF000000000FF
310
F000FF80000000007FFFFFF00007FFFF80003FFFFF80007FFF8000000000FFFF
310
F80000000007FFF800000000000000007FFFFFF0001FFFFFFFFFC000000001FF
310
FFFFFFC000000001FFFFFF000000000003FFC0000000007FF000FF0000000000
310
3FFFFFE00007FFFF00003FFFFF80007FFE00000000003FFFF00000000003FFF8
310
00000000000000007FFFFFF0001FFFFFFFFF8000000000FFFFFFFF8000000000
310
FFFFFF000000000003FF80000000003FF000FE00000000001FFFFFE00003FFFF
310
00003FFFFF80007FFC00000000001FFFE00000000001FFF8000001FFFE000000
310
7FFFFFF0001FFFFFFFFE00000000003FFFFFFE00000000003FFFFF0000000000
310
03FF00000000001FF000FC00000000000FFFFFE00003FFFF00001FFFFF80007F
310
F800000000001FFFC00000000000FFF8000001FFFE0000007FFFFFF0001FFFFF
310
FFFC00000000001FFFFFFC00000000001FFFFF000000000003FE00000000000F
310
F000F8000000000007FFFFE00003FFFF00001FFFFF80007FF800000000000FFF
310
800000000000FFF8000001FFFE0000007FFFFFF0001FFFFFFFF800000000000F
310
FFFFF800000000000FFFFF000000000003FC000000000007F000F80000000000
310
03FFFFC00003FFFE00001FFFFF80007FF0000000000007FF0000000000007FF8
310
000001FFFE0000007FFFFFF0001FFFFFFFF0000000000007FFFFF00000000000
310
07FFFF000000000003F8000000000003F000F0000000000003FFFFC00001FFFE
310
00001FFFFF80007FE0000000000007FE0000000000003FF8000001FFFE000000
310
7FFFFFF0001FFFFFFFF0000000000007FFFFF0000000000007FFFF0000000000
310
03F800001F800003F000E00001FFF00001FFFFC00001FFFE00000FFFFF80007F
310
E00001FFE00003FE00001FFF00003FF8000001FFFE0000007FFFFFF0001FFFFF
310
FFE000003E000003FFFFE000003E000003FFFF000000000003F00001FFF80001
310
F000E00007FFFC0001FFFFC00001FFFE00000FFFFF80007FC0000FFFFC0003FC
310
0000FFFFC0001FF8000001FFFE0000007FFFFFF0001FFFFFFFC00003FFE00001
310
FFFFC00003FFE00001FFFF0001FFFFFFFFF00007FFFE0001F000E0000FFFFF00
310
00FFFF800001FFFC00000FFFFF80007FC0001FFFFE0001FC0001FFFFE0001FF8
310
000001FFFE0000007FFFFFF0001FFFFFFF80000FFFF80000FFFF80000FFFF800
310
00FFFF0003FFFFFFFFE0000FFFFF8000F000C0003FFFFF8000FFFF800000FFFC
310
000007FFFF80007F80003FFFFF0001FC0003FFFFF0001FF8000001FFFE000000
310
7FFFFFF0001FFFFFFF80003FFFFE0000FFFF80003FFFFE0000FFFF0003FFFFFF
310
FFE0003FFFFF8000F000C0003FFFFF8000FFFF800000FFFC000007FFFF80007F
310
80007FFFFF8001F80007FFFFF8000FF8000001FFFE0000007FFFFFF0001FFFFF
310
FF00007FFFFF00007FFF00007FFFFF00007FFF0003FFFFFFFFE0003FFFFFC000
310
F000C0007FFFFFC000FFFF000000FFFC000007FFFF80007F8000FFFFFF8000F8
310
000FFFFFF8000FF8000001FFFE0000007FFFFFF0001FFFFFFF0000FFFFFF8000
310
7FFF0000FFFFFF80007FFF0003FFFFFFFFC0007FFFFFC00070008000FFFFFFC0
310
00FFFF000000FFF8000007FFFF80007F8000FFFFFF8000F8000FFFFFF8000FF8
310
000001FFFE0000007FFFFFF0001FFFFFFE0001FFFFFFC0003FFE0001FFFFFFC0
310
003FFF0003FFFFFFFFC0007FFFFFE00070008000FFFFFFC0007FFF0000007FF8
310
000003FFFF80007F0001FFFFFF8000F8000FFFFFF8000FF8000001FFFE000000
310
7FFFFFF0001FFFFFFE0001FFFFFFC0003FFE0001FFFFFFC0003FFF0003FFFFFF
310
FFC000FFFFFFE00070008000FFFFFFC0007FFF0000007FF8000003FFFF80007F
310
0001FFFFFF8000F8001FFFFFF8000FF8000001FFFE0000007FFFFFF0001FFFFF
310
FE0003FFFFFFE0003FFE0003FFFFFFE0003FFF0003FFFFFFFFC000FFFFFFE000
310
70008000FFFFFFC0007FFE0000007FF8000003FFFF80007F0001FFFFFF8000F0
310
001FFFFFF8000FF8000001FFFE0000007FFFFFF0001FFFFFFC0003FFFFFFE000
310
1FFC0003FFFFFFE0001FFF0003FFFFFFFFC000FFFFFFC00070008000FFFFFF80
310
007FFE0000007FF0000003FFFF80007F0001FFFFFF0000F0001FFFFFF8000FF8
310
000001FFFE0000007FFFFFF0001FFFFFFC0007FFFFFFF0001FFC0007FFFFFFF0
310
001FFF0003FFFFFFFFC000FFFFFFC00070008001FFFFFF0000FFFE0000003FF0
310
000001FFFF80007F0001FFFFFF0000F8001FFFFFF0000FF8000001FFFE000000
310
7FFFFFF0001FFFFFFC0007FFFFFFF0001FFC0007FFFFFFF0001FFF0003FFFFFF
310
FFC001FFFFFF80007000FFFFFFFFFE0000FFFE0008003FF0008001FFFF80007F
310
FFFFFFFFFC0000FFFFFFFFFFE0000FF8000001FFFE0000007FFFFFF0001FFFFF
310
F8000FFFFFFFF8000FF8000FFFFFFFF8000FFF0003FFFFFFFFFFFFFFFFFF0000
310
7000FFFFFFFFFC0000FFFC0008003FF0008001FFFF80007FFFFFFFFFF80001FF
310
FFFFFFFF80000FF8000001FFFE0000007FFFFFF0001FFFFFF8000FFFFFFFF800
310
0FF8000FFFFFFFF8000FFF0003FFFFFFFFFFFFFFFFFE0000F000FFFFFFFFE000
310
00FFFC000C003FE000C001FFFF80007FFFFFFFFFC00001FFFFFFFFFE00001FF8
310
000001FFFE0000007FFFFFF0001FFFFFF8000FFFFFFFF8000FF8000FFFFFFFF8
310
000FFF0003FFFFFFFFFFFFFFFFF00000F000FFFFFFFE000001FFFC000C001FE0
310
00C000FFFF80007FFFFFFFFE000001FFFFFFFFE000001FF80FFFFFFFFFFFFFC0
310
7FFFFFF0001FFFFFF8000FFFFFFFF8000FF8000FFFFFFFF8000FFF0003FFFFFF
310
FFFFFFFFFF800000F000FFFFFFC0000001FFFC001C001FE001C000FFFF80007F
310
FFFFFF80000003FFFFFFF80000001FF80FFFFFFFFFFFFFC07FFFFFF0001FFFFF
310
F8001FFFFFFFFC000FF8001FFFFFFFFC000FFF0003FFFFFFFFFFFFFFF0000001
310
F000FFFFF800000001FFF8001C001FE001C000FFFF80007FFFFFF800000003FF
310
FFFF800000003FF80FFFFFFFFFFFFFC07FFFFFF0001FFFFFF8001FFFFFFFFC00
310
0FF8001FFFFFFFFC000FFF0003FFFFFFFFFFFFFE00000001F000FFFFC0000000
310
03FFF8001E001FC001E000FFFF80007FFFFF8000000007FFFFFC000000003FF8
310
0FFFFFFFFFFFFFC07FFFFFF0001FFFFFF8001FFFFFFFFC000FF8001FFFFFFFFC
310
000FFF0003FFFFFFFFFFFFE000000003F000FFFE0000000007FFF8001E000FC0
310
01E0007FFF80007FFFFE0000000007FFFFE0000000007FF80FFFFFFFFFFFFFC0
310
7FFFFFF0001FFFFFF0001FFFFFFFFC0007F0001FFFFFFFFC0007FF0003FFFFFF
310
FFFFFF0000000003F000FFF80000000007FFF8001E000FC003E0007FFF80007F
310
FFF0000000000FFFFF8000000000FFF80FFFFFFFFFFFFFC07FFFFFF0001FFFFF
310
F0001FFFFFFFFC0007F0001FFFFFFFFC0007FF0003FFFFFFFFFFFC0000000007
310
F000FFE0000000000FFFF0003E000FC003E0007FFF80007FFFC0000000001FFF
310
FE0000000001FFF80FFFFFFFFFFFFFC07FFFFFF0001FFFFFF0001FFFFFFFFC00
310
07F0001FFFFFFFFC0007FF0003FFFFFFFFFFF0000000000FF000FFC000000000
310
1FFFF0003F000F8003F0003FFF80007FFF80000000003FFFF80000000003FFF8
310
0FFFFFFFFFFFFFC07FFFFFF0001FFFFFF0001FFFFFFFFC0007F0001FFFFFFFFC
310
0007FF0003FFFFFFFFFFE0000000001FF000FF00000000007FFFF0003F000780
310
03F0003FFF80007FFF00000000007FFFF00000000007FFF80FFFFFFFFFFFFFC0
310
7FFFFFF0001FFFFFF0001FFFFFFFFC0007F0001FFFFFFFFC0007FF0003FFFFFF
310
FFFF80000000007FF000FE0000000000FFFFE0003F00078007F0003FFF80007F
310
FE0000000001FFFFE0000000001FFFF80FFFFFFFFFFFFFC07FFFFFF0001FFFFF
310
F0001FFFFFFFFC0007F0001FFFFFFFFC0007FF0003FFFFFFFFFF0000000000FF
310
F000FC0000000003FFFFE0007F00078007F0003FFF80007FFC0000000007FFFF
310
C0000000007FFFF80FFFFFFFFFFFFFC07FFFFFF0001FFFFFF8001FFFFFFFFC00
310
0FF8001FFFFFFFFC000FFF0003FFFFFFFFFE0000000003FFF000FC000000000F
310
FFFFE0007F80070007F8001FFF80007FF8000000001FFFFF8000000001FFFFF8
310
0FFFFFFFFFFFFFC07FFFFFF0001FFFFFF8001FFFFFFFFC000FF8001FFFFFFFFC
310
000FFF0003FFFFFFFFFC000000000FFFF000F8000000007FFFFFE0007F800700
310
07F8001FFF80007FF000000000FFFFFF800000000FFFFFF80FFFFFFFFFFFFFC0
310
7FFFFFF0001FFFFFF8000FFFFFFFF8000FF8000FFFFFFFF8000FFF0003FFFFFF
310
FFFC000000007FFFF000F800000007FFFFFFC0007F8003000FF8001FFF80007F
310
F000000007FFFFFF000000007FFFFFF80FFFFFFFFFFFFFC07FFFFFF0001FFFFF
310
F8000FFFFFFFF8000FF8000FFFFFFFF8000FFF0003FFFFFFFFF80000000FFFFF
310
F000F0000000FFFFFFFFC000FF8003000FF8001FFF80007FE0000000FFFFFFFF
310
0000000FFFFFFFF8000001FFFE0000007FFFFFF0001FFFFFF8000FFFFFFFF800
310
0FF8000FFFFFFFF8000FFF0003FFFFFFFFF8000000FFFFFFF000F000000FFFFF
310
FFFFC000FFC002000FF8000FFF80007FE000001FFFFFFFFE000001FFFFFFFFF8
310
000001FFFE0000007FFFFFF0001FFFFFF8000FFFFFFFF8000FF8000FFFFFFFF8
310
000FFF0003FFFFFFFFF000001FFFFFFFF000E00000FFFFFFFFFFC000FFC00200
310
0FFC000FFF80007FE00001FFFFFFFFFE00001FFFFFFFFFF8000001FFFE000000
310
7FFFFFF0001FFFFFFC000FFFFFFFF8001FFC000FFFFFFFF8001FFF0003FFFFFF
310
FFF00001FFFFFFFFF000E00007FFFFFFFFFF8000FFC000001FFC000FFF80007F
310
C0000FFFFFFFFFFE0000FFFFFFFFFFF8000001FFFE0000007FFFFFF0001FFFFF
310
FC0007FFFFFFF0001FFC0007FFFFFFF0001FFF0003FFFFFFFFF00007FFFFFFFF
310
F000E0001FFFFFFFFFFF8000FFC000001FFC000FFF80007FC0003FFFFFFFFFFE
310
0001FFFFFFFFFFF8000001FFFE0000007FFFFFF0001FFFFFFC0007FFFFFFF000
310
1FFC0007FFFFFFF0001FFF0003FFFFFFFFF0001FFFFFFFFFF000E0003FFFFF00
310
03FF8001FFE000001FFC0007FF80007FC0007FFFFF0007FC0003FFFFF0003FF8
310
000001FFFE0000007FFFFFF0001FFFFFFC0003FFFFFFE0001FFC0003FFFFFFE0
310
001FFF0003FFFFFFFFF0003FFFFFFFFFF000E0003FFFFF0001FF8001FFE00000
310
1FFE0007FF80007FC0007FFFFE0003FC0007FFFFE0003FF8000001FFFE000000
310
7FFFFFF0001FFFFFFE0003FFFFFFE0003FFE0003FFFFFFE0003FFF0003FFFFFF
310
FFF0003FFFFF8001F000E0003FFFFF0001FF0001FFE000001FFE0007FF80007F
310
C0007FFFFE0003FC0007FFFFE0003FF8000001FFFE0000007FFFFFF0001FFFFF
310
FE0001FFFFFFC0003FFE0001FFFFFFC0003FFF0003FFFFFFFFF0003FFFFF0001
310
F000E0003FFFFF0003FF0001FFE000003FFE0007FF80007FC0007FFFFE0003FC
310
0007FFFFE0003FF8000001FFFE0000007FFFFFF0001FFFFFFF0001FFFFFFC000
310
7FFF0001FFFFFFC0007FFF0003FFFFFFFFF0003FFFFF0001F000E0003FFFFE00
310
03FF0003FFF000003FFE0003FF80007FC0007FFFFC0003FE0007FFFFE0003FF8
310
000001FFFE0000007FFFFFF0001FFFFFFF0000FFFFFF80007FFF0000FFFFFF80
310
007FFF0003FFFFFFFFF0003FFFFF0001F000E0003FFFFE0003FF0003FFF00000
310
3FFF0003FF80007FC0007FFFFC0007FE0007FFFFC0003FF8000001FFFE000000
310
7FFFFFF0001FFFFFFF80007FFFFF0000FFFF80007FFFFF0000FFFF0003FFFFFF
310
FFF0003FFFFF0003F000E0003FFFFC0003FE0003FFF000003FFF0003FF80007F
310
E0003FFFF80007FE0003FFFFC0007FF8000001FFFE0000007FFFFFF0001FFFFF
310
FF80003FFFFE0000FFFF80003FFFFE0000FFFF0003FFFFFFFFF0001FFFFE0003
310
F000F0001FFFF80003FE0003FFF000007FFF0001FF80007FE0003FFFF00007FE
310
0001FFFF80007FF8000001FFFE0000007FFFFFF0001FFFFFFFC0000FFFF80001
310
FFFFC0000FFFF80001FFFF0003FFFFFFFFF0001FFFFC0003F000F0000FFFF000
310
07FE0007FFF800007FFF0001FF80007FE0001FFFE00007FF0000FFFE00007FF8
310
000001FFFE0000007FFFFFF0001FFFFFFFC00003FFE00001FFFFC00003FFE000
310
01FFFF0003FFFFFFFFF8000FFFF80003F000F00003FFC00007FC0007FFF80000
310
7FFF8001FF80007FF00007FF80000FFF00007FF80000FFF8000001FFFE000000
310
7F80000000000001FFE000003E000003FFFFE000003E000003FFFF0003FFFFFF
310
FFF80003FFE00007F000F800000000000FFC0007FFF800007FFF8001FF80007F
310
F000000000000FFF000000000000FFF8000001FFFE0000007F80000000000001
310
FFF0000000000007FFFFF0000000000007FFFF0003FFFFFFFFFC00007E000007
310
F000F800000000000FFC0007FFF80000FFFF8000FF80007FF800000000001FFF
310
800000000001FFF8000001FFFE0000007F80000000000001FFF800000000000F
310
FFFFF800000000000FFFFF0003FFFFFFFFFC00000000000FF000FC0000000000
310
1FFC0007FFFC0000FFFF8000FF80007FF800000000003FFFC00000000001FFF8
310
000001FFFE0000007F80000000000001FFF800000000000FFFFFF80000000000
310
0FFFFF0003FFFFFFFFFE00000000001FF000FE00000000003FF8000FFFFC0000
310
FFFF8000FF80007FFC00000000003FFFC00000000003FFF8000001FFFE000000
310
7F80000000000001FFFC00000000001FFFFFFC00000000001FFFFF0003FFFFFF
310
FFFF00000000001FF000FF00000000003FF8000FFFFC0000FFFFC000FF80007F
310
FE00000000007FFFE00000000007FFF8000001FFFE0000007F80000000000001
310
FFFE00000000003FFFFFFE00000000003FFFFF0003FFFFFFFFFF80000000003F
310
F000FF80000000007FF8000FFFFC0001FFFFC0007F80007FFF0000000000FFFF
310
F0000000000FFFF800000000000000007F80000000000001FFFF8000000000FF
310
FFFFFF8000000000FFFFFF0003FFFFFFFFFFC0000000007FF000FFC000000000
310
FFF8000FFFFE0001FFFFC0007F80007FFF8000000001FFFFF8000000001FFFF8
310
00000000000000007F80000000000001FFFFC000000001FFFFFFFFC000000001
310
FFFFFF0003FFFFFFFFFFE000000000FFF000FFE000000003FFF0001FFFFE0001
310
FFFFC0007F80007FFFC000000007FFFFFE000000003FFFF80000000000000000
310
7F80000000000001FFFFE000000003FFFFFFFFE000000003FFFFFF0003FFFFFF
310
FFFFF000000003FFF000FFF80000000FFFF0001FFFFE0001FFFFE0007F80007F
310
FFF00000000FFFFFFF00000000FFFFF800000000000000007F80000000000001
310
FFFFF80000000FFFFFFFFFF80000000FFFFFFF0003FFFFFFFFFFFC0000000FFF
310
F000FFFE0000003FFFF0001FFFFE0003FFFFE0003F80007FFFFC0000003FFFFF
310
FFC0000003FFFFF800000000000000007F80000000000001FFFFFE0000003FFF
310
FFFFFFFE0000003FFFFFFF0003FFFFFFFFFFFF0000003FFFF000FFFF800000FF
310
FFF0001FFFFF0003FFFFE0003F80007FFFFF000001FFFFFFFFF800001FFFFFF8
310
00000000000000007F80000000000001FFFFFFC00001FFFFFFFFFFFFC00001FF
310
FFFFFF0003FFFFFFFFFFFFC00000FFFFF000FFFFF8000FFFFFFFFFFFFFFFFFFF
310
FFFFFFFFFFFFFFFFFFFFF0001FFFFFFFFFFF0000FFFFFFF80000000000000000
310
7FFFFFFFFFFFFFFFFFFFFFFC001FFFFFFFFFFFFFFC001FFFFFFFFFFFFFFFFFFF
310
FFFFFFFC001FFFFFF000FFFFFFFFFFFFFFFFFFFFFFFFFFFFFFFFFFFFFFFFFFFF
310
FFFFFFFFFFFFFFFFFFFFFFFFFFFFFFFFFFFFFFFFFFFFFFFFFFFFFFFFFFFFFFFF
310
FFFFFFFFFFFFFFFFFFFFFFFFFFFFFFFFFFFFFFFFFFFFFFFFFFFFFFFFFFFFFFFF
310
F000FFFFFFFFFFFFFFFFFFFFFFFFFFFFFFFFFFFFFFFFFFFFFFFFFFFFFFFFFFFF
310
FFFFFFFFFFFFFFFFFFFFFFFFFFFFFFFFFFFFFFFFFFFFFFFFFFFFFFFFFFFFFFFF
310
FFFFFFFFFFFFFFFFFFFFFFFFFFFFFFFFFFFFFFFFFFFFFFFFF000FFFFFFFFFFFF
310
FFFFFFFFFFFFFFFFFFFFFFFFFFFFFFFFFFFFFFFFFFFFFFFFFFFFFFFFFFFFFFFF
310
FFFFFFFFFFFFFFFFFFFFFFFFFFFFFFFFFFFFFFFFFFFFFFFFFFFFFFFFFFFFFFFF
310
FFFFFFFFFFFFFFFFFFFFFFFFFFFFFFFFF000FFFFFFFFFFFFFFFFFFFFFFFFFFFF
310
FFFFFFFFFFFFFFFFFFFFFFFFFFFFFFFFFFFFFFFFFFFFFFFFFFFFFFFFFFFFFFFF
310
FFFFFFFFFFFFFFFFFFFFFFFFFFFFFFFFFFFFFFFFFFFFFFFFFFFFFFFFFFFFFFFF
310
FFFFFFFFFFFFFFFFF000FFFFFFFFFFFFFFFFFFFFFFFFFFFFFFFFFFFFFFFFFFFF
310
FFFFFFFFFFFFFFFFFFFFFFFFFFFFFFFFFFFFFFFFFFFFFFFFFFFFFFFFFFFFFFFF
310
FFFFFFFFFFFFFFFFFFFFFFFFFFFFFFFFFFFFFFFFFFFFFFFFFFFFFFFFFFFFFFFF
310
F000FFFFFFFFFFFFFFFFFFFFFFFFFFFFFFFFFFFFFFFFFFFFFFFFFFFFFFFFFFFF
310
FFFFFFFFFFFFFFFFFFFFFFFFFFFFFFFFFFFFFFFFFFFFFFFFFFFFFFFFFFFFFFFF
310
FFFFFFFFFFFFFFFFFFFFFFFFFFFFFFFFFFFFFFFFFFFFFFFFF000FFFFFFFFFFFF
310
FFFFFFFFFFFFFFFFFFFFFFFFFFFFFFFFFFFFFFFFFFFFFFFFFFFFFFFFFFFFFFFF
310
FFFFFFFFFFFFFFFFFFFFFFFFFFFFFFFFFFFFFFFFFFFFFFFFFFFFFFFFFFFFFFFF
310
FFFFFFFFFFFFFFFFFFFFFFFFFFFFFFFFF000FFFFFFFFFFFFFFFFFFFFFFFFFFFF
310
FFFFFFFFFFFFFFFFFFFFFFFFFFFFFFFFFFFFFFFFFFFFFFFFFFFFFFFFFFFFFFFF
310
FFFFFFFFFFFFFFFFFFFFFFFFFFFFFFFFFFFFFFFFFFFFFFFFFFFFFFFFFFFFFFFF
310
FFFFFFFFFFFFFFFFF000FFFFFFFFFFFFFFFFFFFFFFFFFFFFFFFFFFFFFFFFFFFF
310
FFFFFFFFFFFFFFFFFFFFFFFFFFFFFFFFFFFFFFFFFFFFFFFFFFFFFFFFFFFFFFFF
310
FFFFFFFFFFFFFFFFFFFFFFFFFFFFFFFFFFFFFFFFFFFFFFFFFFFFFFFFFFFFFFFF
310
F000FFFFFFFFFFFFFFFFFFFFFFFFFFFFFFFFFFFFFFFFFFFFFFFFFFFFFFFFFFFF
310
FFFFFFFFFFFFFFFFFFFFFFFFFFFFFFFFFFFFFFFFFFFFFFFFFFFFFFFFFFFFFFFF
310
FFFFFFFFFFFFFFFFFFFFFFFFFFFFFFFFFFFFFFFFFFFFFFFFF000FFFFFFFFFFFF
310
FFFFFFFFFFFFFFFFFFFFFFFFFFFFFFFFFFFFFFFFFFFFFFFFFFFFFFFFFFFFFFFF
310
FFFFFFFFFFFFFFFFFFFFFFFFFFFFFFFFFFFFFFFFFFFFFFFFFFFFFFFFFFFFFFFF
310
FFFFFFFFFFFFFFFFFFFFFFFFFFFFFFFFF000FFFFFFFFFFFFFFFFFFFFFFFFFFFF
310
FFFFFFFFFFFFFFFFFFFFFFFFFFFFFFFFFFFFFFFFFFFFFFFFFFFFFFFFFFFFFFFF
310
FFFFFFFFFFFFFFFFFFFFFFFFFFFFFFFFFFFFFFFFFFFFFFFFFFFFFFFFFFFFFFFF
310
FFFFFFFFFFFFFFFFF000FFFFFFFFFFFFFFFFFFFFFFFFFFFFFFFFFFFFFFFFFFFF
310
FFFFFFFFFFFFFFFFFFFFFFFFFFFFFFFFFFFFFFFFFFFFFFFFFFFFFFFFFFFFFFFF
310
FFFFFFFFFFFFFFFFFFFFFFFFFFFFFFFFFFFFFFFFFFFFFFFFFFFFFFFFFFFFFFFF
310
F000FFFFFFFFFFFFFFFFFFFFFFFFFFFFFFFFFFFFFFFFFFFFFFFFFFFFFFFFFFFF
310
FFFFFFFFFFFFFFFFFFFFFFFFFFFFFFFFFFFFFFFFFFFFFFFFFFFFFFFFFFFFFFFF
310
FFFFFFFFFFFFFFFFFFFFFFFFFFFFFFFFFFFFFFFFFFFFFFFFF000FFFFFFFFFFFF
310
FFFFFFFFFFFFFFFFFFFFFFFFFFFFFFFFFFFFFFFFFFFFFFFFFFFFFFFFFFFFFFFF
310
FFFFFFFFFFFFFFFFFFFFFFFFFFFFFFFFFFFFFFFFFFFFFFFFFFFFFFFFFFFFFFFF
310
FFFFFFFFFFFFFFFFFFFFFFFFFFFFFFFFF000FFFFFFFFFFFFFFFFFFFFFFFFFFFF
310
FFFFFFFFFFFFFFFFFFFFFFFFFFFFFFFFFFFFFFFFFFFFFFFFFFFFFFFFFFFFFFFF
310
FFFFFFFFFFFFFFFFFFFFFFFFFFFFFFFFFFFFFFFFFFFFFFFFFFFFFFFFFFFFFFFF
310
FFFFFFFFFFFFFFFFF000FFFFFFFFFFFFFFFFFFFFFFFFFFFFFFFFFFFFFFFFFFFF
310
FFFFFFFFFFFFFFFFFFFFFFFFFFFFFFFFFFFFFFFFFFFFFFFFFFFFFFFFFFFFFFFF
310
FFFFFFFFFFFFFFFFFFFFFFFFFFFFFFFFFFFFFFFFFFFFFFFFFFFFFFFFFFFFFFFF
310
F000FFFFFFFFFFFFFFFFFFFFFFFFFFFFFFFFFFFFFFFFFFFFFFFFFFFFFFFFFFFF
310
FFFFFFFFFFFFFFFFFFFFFFFFFFFFFFFFFFFFFFFFFFFFFFFFFFFFFFFFFFFFFFFF
310
FFFFFFFFFFFFFFFFFFFFFFFFFFFFFFFFFFFFFFFFFFFFFFFFF000FFFFFFFFFFFF
310
FFFFFFFFFFFFFFFFFFFFFFFFFFFFFFFFFFFFFFFFFFFFFFFFFFFFFFFFFFFFFFFF
310
FFFFFFFFFFFFFFFFFFFFFFFFFFFFFFFFFFFFFFFFFFFFFFFFFFFFFFFFFFFFFFFF
310
FFFFFFFFFFFFFFFFFFFFFFFFFFFFFFFFF000FFFFFFFFFFFFFFFFFFFFFFFFFFFF
310
FFFFFFFFFFFFFFFFFFFFFFFFFFFFFFFFFFFFFFFFFFFFFFFFFFFFFFFFFFFFFFFF
310
FFFFFFFFFFFFFFFFFFFFFFFFFFFFFFFFFFFFFFFFFFFFFFFFFFFFFFFFFFFFFFFF
310
FFFFFFFFFFFFFFFFF000FFFFFFFFFFFFFFFFFFFFFFFFFFFFFFFFFFFFFFFFFFFF
310
FFFFFFFFFFFFFFFFFFFFFFFFFFFFFFFFFFFFFFFFFFFFFFFFFFFFFFFFFFFFFFFF
310
FFFFFFFFFFFFFFFFFFFFFFFFFFFFFFFFFFFFFFFFFFFFFFFFFFFFFFFFFFFFFFFF
310
F000FFFFFFFFFFFFFFFFFFFFFFFFFFFFFFFFFFFFFFFFFFFFFFFFFFFFFFFFFFFF
310
FFFFFFFFFFFFFFFFFFFFFFFFFFFFFFFFFFFFFFFFFFFFFFFFFFFFFFFFFFFFFFFF
310
FFFFFFFFFFFFFFFFFFFFFFFFFFFFFFFFFFFFFFFFFFFFFFFFF000FFFFFFFFFFFF
310
FFFFFFFFFFFFFFFFFFFFFFFFFFFFFFFFFFFFFFFFFFFFFFFFFFFFFFFFFFFFFFFF
310
FFFFFFFFFFFFFFFFFFFFFFFFFFFFFFFFFFFFFFFFFFFFFFFFFFFFFFFFFFFFFFFF
310
FFFFFFFFFFFFFFFFFFFFFFFFFFFFFFFFF0000000000000000000000000000000
310
0000000000000000000000000000000000000000000000000000000000000000
310
0000000000000000000000000000000000000000000000000000000000000000
310
0000000000000000000000000000000000000000000000000000000000000000
310
0000000000000000000000000000000000000000000000000000000000000000
310
0000000000000000000000000000000000000000000000000000000000000000
310
0000000000000000000000000000000000000000000000000000000000000000
310
0000000000000000000000000000000000000000000000000000000000000000
310
0000000000000000000000000000000000000000000000000000000000000000
310
0000000000000000000000000000000000000000000000000000000000000000
310
0000000000000000000000000000000000000000000000000000000000000000
310
0000000000000000000000000000000000000000000000000000000000000000
310
0000000000000000000000000000000000000000000000000000000000000000
310
0000000000000000000000000000000000000000000000000000000000000000
310
0000000000000000000000000000000000000000000000000000000000000000
310
0000000000000000000000000000000000000000000000000000000000000000
  1
OLE
  0
ENDSEC
  0
SECTION
  2
OBJECTS
  0
DICTIONARY
  5
C
330
0
100
AcDbDictionary
281
     1
  3
ACAD_GROUP
350
D
  3
ACAD_LAYOUT
350
1A
  3
ACAD_MLINESTYLE
350
17
  3
ACAD_PLOTSETTINGS
350
19
  3
ACAD_PLOTSTYLENAME
350
E
  3
ACAD_SCALELIST
350
47
  0
DICTIONARY
  5
D
102
{ACAD_REACTORS
330
C
102
}
330
C
100
AcDbDictionary
281
     1
  0
DICTIONARY
  5
1A
102
{ACAD_REACTORS
330
C
102
}
330
C
100
AcDbDictionary
281
     1
  3
Layout1
350
1E
  3
Layout2
350
26
  3
Model
350
22
  0
DICTIONARY
  5
17
102
{ACAD_REACTORS
330
C
102
}
330
C
100
AcDbDictionary
281
     1
  3
Standard
350
18
  0
DICTIONARY
  5
19
102
{ACAD_REACTORS
330
C
102
}
330
C
100
AcDbDictionary
281
     1
  0
ACDBDICTIONARYWDFLT
  5
E
102
{ACAD_REACTORS
330
C
102
}
330
C
100
AcDbDictionary
281
     1
  3
Normal
350
F
100
AcDbDictionaryWithDefault
340
F
  0
DICTIONARY
  5
47
102
{ACAD_REACTORS
330
C
102
}
330
C
100
AcDbDictionary
281
     1
  3
A0
350
48
  3
A1
350
49
  3
A2
350
4A
  3
A3
350
4B
  3
A4
350
4C
  3
A5
350
4D
  3
A6
350
4E
  3
A7
350
4F
  3
A8
350
50
  3
A9
350
51
  3
B0
350
52
  3
B1
350
53
  3
B2
350
54
  3
B3
350
55
  3
B4
350
56
  3
B5
350
57
  3
B6
350
58
  3
B7
350
59
  3
B8
350
5A
  3
B9
350
5B
  3
C0
350
5C
  3
C1
350
5D
  3
C2
350
5E
  3
C3
350
5F
  3
C4
350
60
  3
C5
350
61
  3
C6
350
62
  3
C7
350
63
  3
C8
350
64
  3
C9
350
65
  3
D0
350
66
  3
D1
350
67
  3
D2
350
68
  0
LAYOUT
  5
1E
102
{ACAD_REACTORS
330
1A
102
}
330
1A
100
AcDbPlotSettings
  1

  2
none_device
  4

  6

 40
0.0
 41
0.0
 42
0.0
 43
0.0
 44
0.0
 45
0.0
 46
0.0
 47
0.0
 48
0.0
 49
0.0
140
0.0
141
0.0
142
1.0
143
1.0
 70
   688
 72
     1
 73
     0
 74
     5
  7

 75
    16
147
1.0
148
0.0
149
0.0
100
AcDbLayout
  1
Layout1
 70
     1
 71
     1
 10
0.0
 20
0.0
 11
420.0
 21
297.0
 12
0.0
 22
0.0
 32
0.0
 14
1.0000000000E+20
 24
1.0000000000E+20
 34
1.0000000000E+20
 15
-1.0000000000E+20
 25
-1.0000000000E+20
 35
-1.0000000000E+20
146
0.0
 13
0.0
 23
0.0
 33
0.0
 16
1.0
 26
0.0
 36
0.0
 17
0.0
 27
1.0
 37
0.0
 76
     0
330
1B
  0
LAYOUT
  5
26
102
{ACAD_REACTORS
330
1A
102
}
330
1A
100
AcDbPlotSettings
  1

  2
none_device
  4

  6

 40
0.0
 41
0.0
 42
0.0
 43
0.0
 44
0.0
 45
0.0
 46
0.0
 47
0.0
 48
0.0
 49
0.0
140
0.0
141
0.0
142
1.0
143
1.0
 70
   688
 72
     1
 73
     0
 74
     5
  7

 75
    16
147
1.0
148
0.0
149
0.0
100
AcDbLayout
  1
Layout2
 70
     1
 71
     2
 10
0.0
 20
0.0
 11
0.0
 21
0.0
 12
0.0
 22
0.0
 32
0.0
 14
0.0
 24
0.0
 34
0.0
 15
0.0
 25
0.0
 35
0.0
146
0.0
 13
0.0
 23
0.0
 33
0.0
 16
1.0
 26
0.0
 36
0.0
 17
0.0
 27
1.0
 37
0.0
 76
     0
330
23
  0
LAYOUT
  5
22
102
{ACAD_REACTORS
330
1A
102
}
330
1A
100
AcDbPlotSettings
  1

  2
none_device
  4
Letter_(8.50_x_11.00_Inches)
  6

 40
6.35
 41
6.35
 42
6.35000508
 43
6.35000508
 44
215.9
 45
279.4
 46
0.0
 47
0.0
 48
0.0
 49
0.0
140
0.0
141
0.0
142
1.0
143
1.0
 70
  1712
 72
     1
 73
     0
 74
     0
  7

 75
     0
147
1.0
148
0.0
149
0.0
100
AcDbLayout
  1
Model
 70
     1
 71
     0
 10
0.0
 20
0.0
 11
297.0
 21
210.0
 12
0.0
 22
0.0
 32
0.0
 14
0.0
 24
0.0
 34
0.0
 15
297.0
 25
210.0
 35
0.0
146
0.0
 13
0.0
 23
0.0
 33
0.0
 16
1.0
 26
0.0
 36
0.0
 17
0.0
 27
1.0
 37
0.0
 76
     0
330
1F
331
29
  0
MLINESTYLE
  5
18
102
{ACAD_REACTORS
330
17
102
}
330
17
100
AcDbMlineStyle
  2
Standard
 70
     0
  3

 62
   256
 51
90.0
 52
90.0
 71
     2
 49
0.5
 62
   256
  6
BYLAYER
 49
-0.5
 62
   256
  6
BYLAYER
  0
ACDBPLACEHOLDER
  5
F
102
{ACAD_REACTORS
330
E
102
}
330
E
  0
SCALE
  5
48
102
{ACAD_REACTORS
330
47
102
}
330
47
100
AcDbScale
 70
     0
300
1:1
140
1.0
141
1.0
290
     1
  0
SCALE
  5
49
102
{ACAD_REACTORS
330
47
102
}
330
47
100
AcDbScale
 70
     0
300
1:2
140
1.0
141
2.0
290
     0
  0
SCALE
  5
4A
102
{ACAD_REACTORS
330
47
102
}
330
47
100
AcDbScale
 70
     0
300
1:4
140
1.0
141
4.0
290
     0
  0
SCALE
  5
4B
102
{ACAD_REACTORS
330
47
102
}
330
47
100
AcDbScale
 70
     0
300
1:5
140
1.0
141
5.0
290
     0
  0
SCALE
  5
4C
102
{ACAD_REACTORS
330
47
102
}
330
47
100
AcDbScale
 70
     0
300
1:8
140
1.0
141
8.0
290
     0
  0
SCALE
  5
4D
102
{ACAD_REACTORS
330
47
102
}
330
47
100
AcDbScale
 70
     0
300
1:10
140
1.0
141
10.0
290
     0
  0
SCALE
  5
4E
102
{ACAD_REACTORS
330
47
102
}
330
47
100
AcDbScale
 70
     0
300
1:16
140
1.0
141
16.0
290
     0
  0
SCALE
  5
4F
102
{ACAD_REACTORS
330
47
102
}
330
47
100
AcDbScale
 70
     0
300
1:20
140
1.0
141
20.0
290
     0
  0
SCALE
  5
50
102
{ACAD_REACTORS
330
47
102
}
330
47
100
AcDbScale
 70
     0
300
1:30
140
1.0
141
30.0
290
     0
  0
SCALE
  5
51
102
{ACAD_REACTORS
330
47
102
}
330
47
100
AcDbScale
 70
     0
300
1:40
140
1.0
141
40.0
290
     0
  0
SCALE
  5
52
102
{ACAD_REACTORS
330
47
102
}
330
47
100
AcDbScale
 70
     0
300
1:50
140
1.0
141
50.0
290
     0
  0
SCALE
  5
53
102
{ACAD_REACTORS
330
47
102
}
330
47
100
AcDbScale
 70
     0
300
1:100
140
1.0
141
100.0
290
     0
  0
SCALE
  5
54
102
{ACAD_REACTORS
330
47
102
}
330
47
100
AcDbScale
 70
     0
300
2:1
140
2.0
141
1.0
290
     0
  0
SCALE
  5
55
102
{ACAD_REACTORS
330
47
102
}
330
47
100
AcDbScale
 70
     0
300
4:1
140
4.0
141
1.0
290
     0
  0
SCALE
  5
56
102
{ACAD_REACTORS
330
47
102
}
330
47
100
AcDbScale
 70
     0
300
8:1
140
8.0
141
1.0
290
     0
  0
SCALE
  5
57
102
{ACAD_REACTORS
330
47
102
}
330
47
100
AcDbScale
 70
     0
300
10:1
140
10.0
141
1.0
290
     0
  0
SCALE
  5
58
102
{ACAD_REACTORS
330
47
102
}
330
47
100
AcDbScale
 70
     0
300
100:1
140
100.0
141
1.0
290
     0
  0
SCALE
  5
59
102
{ACAD_REACTORS
330
47
102
}
330
47
100
AcDbScale
 70
     0
300
1/128" = 1'-0"
140
0.0078125
141
12.0
290
     0
  0
SCALE
  5
5A
102
{ACAD_REACTORS
330
47
102
}
330
47
100
AcDbScale
 70
     0
300
1/64" = 1'-0"
140
0.015625
141
12.0
290
     0
  0
SCALE
  5
5B
102
{ACAD_REACTORS
330
47
102
}
330
47
100
AcDbScale
 70
     0
300
1/32" = 1'-0"
140
0.03125
141
12.0
290
     0
  0
SCALE
  5
5C
102
{ACAD_REACTORS
330
47
102
}
330
47
100
AcDbScale
 70
     0
300
1/16" = 1'-0"
140
0.0625
141
12.0
290
     0
  0
SCALE
  5
5D
102
{ACAD_REACTORS
330
47
102
}
330
47
100
AcDbScale
 70
     0
300
3/32" = 1'-0"
140
0.09375
141
12.0
290
     0
  0
SCALE
  5
5E
102
{ACAD_REACTORS
330
47
102
}
330
47
100
AcDbScale
 70
     0
300
1/8" = 1'-0"
140
0.125
141
12.0
290
     0
  0
SCALE
  5
5F
102
{ACAD_REACTORS
330
47
102
}
330
47
100
AcDbScale
 70
     0
300
3/16" = 1'-0"
140
0.1875
141
12.0
290
     0
  0
SCALE
  5
60
102
{ACAD_REACTORS
330
47
102
}
330
47
100
AcDbScale
 70
     0
300
1/4" = 1'-0"
140
0.25
141
12.0
290
     0
  0
SCALE
  5
61
102
{ACAD_REACTORS
330
47
102
}
330
47
100
AcDbScale
 70
     0
300
3/8" = 1'-0"
140
0.375
141
12.0
290
     0
  0
SCALE
  5
62
102
{ACAD_REACTORS
330
47
102
}
330
47
100
AcDbScale
 70
     0
300
1/2" = 1'-0"
140
0.5
141
12.0
290
     0
  0
SCALE
  5
63
102
{ACAD_REACTORS
330
47
102
}
330
47
100
AcDbScale
 70
     0
300
3/4" = 1'-0"
140
0.75
141
12.0
290
     0
  0
SCALE
  5
64
102
{ACAD_REACTORS
330
47
102
}
330
47
100
AcDbScale
 70
     0
300
1" = 1'-0"
140
1.0
141
12.0
290
     0
  0
SCALE
  5
65
102
{ACAD_REACTORS
330
47
102
}
330
47
100
AcDbScale
 70
     0
300
1-1/2" = 1'-0"
140
1.5
141
12.0
290
     0
  0
SCALE
  5
66
102
{ACAD_REACTORS
330
47
102
}
330
47
100
AcDbScale
 70
     0
300
3" = 1'-0"
140
3.0
141
12.0
290
     0
  0
SCALE
  5
67
102
{ACAD_REACTORS
330
47
102
}
330
47
100
AcDbScale
 70
     0
300
6" = 1'-0"
140
6.0
141
12.0
290
     0
  0
SCALE
  5
68
102
{ACAD_REACTORS
330
47
102
}
330
47
100
AcDbScale
 70
     0
300
1'-0" = 1'-0"
140
12.0
141
12.0
290
     0
  0
ENDSEC
  0
EOF
