  0
SECTION
  2
HEADER
  9
$ACADVER
  1
AC1015
  9
$ACADMAINTVER
 70
     6
  9
$DWGCODEPAGE
  3
ANSI_1252
  9
$INSBASE
 10
0.0
 20
0.0
 30
0.0
  9
$EXTMIN
 10
0.0
 20
0.0
 30
0.0
  9
$EXTMAX
 10
297.0
 20
210.0
 30
0.0
  9
$LIMMIN
 10
0.0
 20
0.0
  9
$LIMMAX
 10
297.0
 20
210.0
  9
$ORTHOMODE
 70
     0
  9
$REGENMODE
 70
     1
  9
$FILLMODE
 70
     1
  9
$QTEXTMODE
 70
     0
  9
$MIRRTEXT
 70
     1
  9
$LTSCALE
 40
1.0
  9
$ATTMODE
 70
     1
  9
$TEXTSIZE
 40
2.0
  9
$TRACEWID
 40
1.0
  9
$TEXTSTYLE
  7
Standard
  9
$CLAYER
  8
0
  9
$CELTYPE
  6
ByLayer
  9
$CECOLOR
 62
   256
  9
$CELTSCALE
 40
1.0
  9
$DISPSILH
 70
     0
  9
$DIMSCALE
 40
1.0
  9
$DIMASZ
 40
3.0
  9
$DIMEXO
 40
0.0
  9
$DIMDLI
 40
3.75
  9
$DIMRND
 40
0.0
  9
$DIMDLE
 40
0.0
  9
$DIMEXE
 40
1.0
  9
$DIMTP
 40
0.0
  9
$DIMTM
 40
0.0
  9
$DIMTXT
 40
2.0
  9
$DIMCEN
 40
2.5
  9
$DIMTSZ
 40
0.0
  9
$DIMTOL
 70
     0
  9
$DIMLIM
 70
     0
  9
$DIMTIH
 70
     1
  9
$DIMTOH
 70
     1
  9
$DIMSE1
 70
     0
  9
$DIMSE2
 70
     0
  9
$DIMTAD
 70
     1
  9
$DIMZIN
 70
     0
  9
$DIMBLK
  1

  9
$DIMASO
 70
     1
  9
$DIMSHO
 70
     1
  9
$DIMPOST
  1

  9
$DIMAPOST
  1

  9
$DIMALT
 70
     0
  9
$DIMALTD
 70
     3
  9
$DIMALTF
 40
0.0393700787
  9
$DIMLFAC
 40
1.0
  9
$DIMTOFL
 70
     1
  9
$DIMTVP
 40
0.0
  9
$DIMTIX
 70
     0
  9
$DIMSOXD
 70
     0
  9
$DIMSAH
 70
     0
  9
$DIMBLK1
  1

  9
$DIMBLK2
  1

  9
$DIMSTYLE
  2
ISO-25
  9
$DIMCLRD
 70
     0
  9
$DIMCLRE
 70
     0
  9
$DIMCLRT
 70
     0
  9
$DIMTFAC
 40
1.0
  9
$DIMGAP
 40
1.524
  9
$DIMJUST
 70
     0
  9
$DIMSD1
 70
     0
  9
$DIMSD2
 70
     0
  9
$DIMTOLJ
 70
     0
  9
$DIMTZIN
 70
     0
  9
$DIMALTZ
 70
     0
  9
$DIMALTTZ
 70
     0
  9
$DIMUPT
 70
     0
  9
$DIMDEC
 70
     2
  9
$DIMTDEC
 70
     3
  9
$DIMALTU
 70
     2
  9
$DIMALTTD
 70
     3
  9
$DIMTXSTY
  7
Standard
  9
$DIMAUNIT
 70
     0
  9
$DIMADEC
 70
     2
  9
$DIMALTRND
 40
0.0
  9
$DIMAZIN
 70
     0
  9
$DIMDSEP
 70
    44
  9
$DIMATFIT
 70
     3
  9
$DIMFRAC
 70
     0
  9
$DIMLDRBLK
  1

  9
$DIMLUNIT
 70
     2
  9
$DIMLWD
 70
    -2
  9
$DIMLWE
 70
    -2
  9
$DIMTMOVE
 70
     0
  9
$LUNITS
 70
     2
  9
$LUPREC
 70
     2
  9
$SKETCHINC
 40
1.0
  9
$FILLETRAD
 40
10.0
  9
$AUNITS
 70
     0
  9
$AUPREC
 70
     2
  9
$MENU
  1
.
  9
$ELEVATION
 40
0.0
  9
$PELEVATION
 40
0.0
  9
$THICKNESS
 40
0.0
  9
$LIMCHECK
 70
     0
  9
$CHAMFERA
 40
10.0
  9
$CHAMFERB
 40
10.0
  9
$CHAMFERC
 40
20.0
  9
$CHAMFERD
 40
0.0
  9
$SKPOLY
 70
     0
  9
$TDCREATE
 40
2456072.560170729
  9
$TDUCREATE
 40
2456072.476837396
  9
$TDUPDATE
 40
2456072.560172164
  9
$TDUUPDATE
 40
2456072.476838831
  9
$TDINDWG
 40
0.0000000116
  9
$TDUSRTIMER
 40
0.0000000116
  9
$USRTIMER
 70
     1
  9
$ANGBASE
 50
0.0
  9
$ANGDIR
 70
     0
  9
$PDMODE
 70
     0
  9
$PDSIZE
 40
-1.0
  9
$PLINEWID
 40
0.0
  9
$SPLFRAME
 70
     0
  9
$SPLINETYPE
 70
     6
  9
$SPLINESEGS
 70
     8
  9
$HANDSEED
  5
2A0
  9
$SURFTAB1
 70
     6
  9
$SURFTAB2
 70
     6
  9
$SURFTYPE
 70
     6
  9
$SURFU
 70
     6
  9
$SURFV
 70
     6
  9
$UCSBASE
  2

  9
$UCSNAME
  2

  9
$UCSORG
 10
0.0
 20
0.0
 30
0.0
  9
$UCSXDIR
 10
1.0
 20
0.0
 30
0.0
  9
$UCSYDIR
 10
0.0
 20
1.0
 30
0.0
  9
$UCSORTHOREF
  2

  9
$UCSORTHOVIEW
 70
     0
  9
$UCSORGTOP
 10
0.0
 20
0.0
 30
0.0
  9
$UCSORGBOTTOM
 10
0.0
 20
0.0
 30
0.0
  9
$UCSORGLEFT
 10
0.0
 20
0.0
 30
0.0
  9
$UCSORGRIGHT
 10
0.0
 20
0.0
 30
0.0
  9
$UCSORGFRONT
 10
0.0
 20
0.0
 30
0.0
  9
$UCSORGBACK
 10
0.0
 20
0.0
 30
0.0
  9
$PUCSBASE
  2

  9
$PUCSNAME
  2

  9
$PUCSORG
 10
0.0
 20
0.0
 30
0.0
  9
$PUCSXDIR
 10
1.0
 20
0.0
 30
0.0
  9
$PUCSYDIR
 10
0.0
 20
1.0
 30
0.0
  9
$PUCSORTHOREF
  2

  9
$PUCSORTHOVIEW
 70
     0
  9
$PUCSORGTOP
 10
0.0
 20
0.0
 30
0.0
  9
$PUCSORGBOTTOM
 10
0.0
 20
0.0
 30
0.0
  9
$PUCSORGLEFT
 10
0.0
 20
0.0
 30
0.0
  9
$PUCSORGRIGHT
 10
0.0
 20
0.0
 30
0.0
  9
$PUCSORGFRONT
 10
0.0
 20
0.0
 30
0.0
  9
$PUCSORGBACK
 10
0.0
 20
0.0
 30
0.0
  9
$USERI1
 70
     0
  9
$USERI2
 70
     0
  9
$USERI3
 70
     0
  9
$USERI4
 70
     0
  9
$USERI5
 70
     0
  9
$USERR1
 40
0.0
  9
$USERR2
 40
0.0
  9
$USERR3
 40
0.0
  9
$USERR4
 40
0.0
  9
$USERR5
 40
0.0
  9
$WORLDVIEW
 70
     1
  9
$SHADEDGE
 70
     3
  9
$SHADEDIF
 70
    70
  9
$TILEMODE
 70
     1
  9
$MAXACTVP
 70
    64
  9
$PINSBASE
 10
0.0
 20
0.0
 30
0.0
  9
$PLIMCHECK
 70
     0
  9
$PEXTMIN
 10
1.0000000000E+20
 20
1.0000000000E+20
 30
1.0000000000E+20
  9
$PEXTMAX
 10
-1.0000000000E+20
 20
-1.0000000000E+20
 30
-1.0000000000E+20
  9
$PLIMMIN
 10
0.0
 20
0.0
  9
$PLIMMAX
 10
420.0
 20
297.0
  9
$UNITMODE
 70
     0
  9
$VISRETAIN
 70
     1
  9
$PLINEGEN
 70
     0
  9
$PSLTSCALE
 70
     1
  9
$TREEDEPTH
 70
  3020
  9
$CMLSTYLE
  2
Standard
  9
$CMLJUST
 70
     0
  9
$CMLSCALE
 40
20.0
  9
$PROXYGRAPHICS
 70
     1
  9
$MEASUREMENT
 70
     1
  9
$CELWEIGHT
370
    -1
  9
$ENDCAPS
280
     0
  9
$JOINSTYLE
280
     0
  9
$LWDISPLAY
290
     1
  9
$INSUNITS
 70
     4
  9
$HYPERLINKBASE
  1

  9
$STYLESHEET
  1

  9
$XEDIT
290
     1
  9
$CEPSNTYPE
380
     0
  9
$PSTYLEMODE
290
     1
  9
$FINGERPRINTGUID
  2
{AAE42A25-FBCF-44A5-9BB6-4C52D099F40F}
  9
$VERSIONGUID
  2
{FAEB1C32-E019-11D5-929B-00C0DF256EC4}
  9
$EXTNAMES
290
     1
  9
$PSVPSCALE
 40
0.0
  9
$OLESTARTUP
290
     0
  0
ENDSEC
  0
SECTION
  2
CLASSES
  0
CLASS
  1
ACDBDICTIONARYWDFLT
  2
AcDbDictionaryWithDefault
  3
ObjectDBX Classes
 90
        0
280
     0
281
     0
  0
CLASS
  1
VISUALSTYLE
  2
AcDbVisualStyle
  3
ObjectDBX Classes
 90
     4095
280
     0
281
     0
  0
CLASS
  1
MATERIAL
  2
AcDbMaterial
  3
ObjectDBX Classes
 90
     1153
280
     0
281
     0
  0
CLASS
  1
ACDBPLACEHOLDER
  2
AcDbPlaceHolder
  3
ObjectDBX Classes
 90
        0
280
     0
281
     0
  0
CLASS
  1
LAYOUT
  2
AcDbLayout
  3
ObjectDBX Classes
 90
        0
280
     0
281
     0
  0
ENDSEC
  0
SECTION
  2
TABLES
  0
TABLE
  2
VPORT
  5
8
330
0
100
AcDbSymbolTable
 70
     1
  0
VPORT
  5
29
330
8
100
AcDbSymbolTableRecord
100
AcDbViewportTableRecord
  2
*Active
 70
     0
 10
0.0
 20
0.0
 11
1.0
 21
1.0
 12
148.5
 22
105.0
 13
0.0
 23
0.0
 14
10.0
 24
10.0
 15
10.0
 25
10.0
 16
0.0
 26
0.0
 36
1.0
 17
0.0
 27
0.0
 37
0.0
 40
210.0
 41
1.4142857143
 42
50.0
 43
0.0
 44
0.0
 50
0.0
 51
0.0
 71
     0
 72
  2000
 73
     1
 74
     3
 75
     0
 76
     0
 77
     0
 78
     0
281
     0
 65
     1
110
0.0
120
0.0
130
0.0
111
1.0
121
0.0
131
0.0
112
0.0
122
1.0
132
0.0
 79
     0
146
0.0
  0
ENDTAB
  0
TABLE
  2
LTYPE
  5
5
330
0
100
AcDbSymbolTable
 70
     6
  0
LTYPE
  5
14
330
5
100
AcDbSymbolTableRecord
100
AcDbLinetypeTableRecord
  2
ByBlock
 70
     0
  3

 72
    65
 73
     0
 40
0.0
  0
LTYPE
  5
15
330
5
100
AcDbSymbolTableRecord
100
AcDbLinetypeTableRecord
  2
ByLayer
 70
     0
  3

 72
    65
 73
     0
 40
0.0
  0
LTYPE
  5
16
330
5
100
AcDbSymbolTableRecord
100
AcDbLinetypeTableRecord
  2
Continuous
 70
     0
  3
Solid line
 72
    65
 73
     0
 40
0.0
  0
LTYPE
  5
3F
330
5
100
AcDbSymbolTableRecord
100
AcDbLinetypeTableRecord
  2
HIDDEN
 70
     0
  3
Hidden __ __ __ __ __ __ __ __ __ __ __ __ __ __
 72
    65
 73
     2
 40
1.905
 49
1.27
 74
     0
 49
-0.635
 74
     0
  0
LTYPE
  5
40
330
5
100
AcDbSymbolTableRecord
100
AcDbLinetypeTableRecord
  2
PHANTOM
 70
     0
  3
Phantom ______  __  __  ______  __  __  ______
 72
    65
 73
     6
 40
12.7
 49
6.35
 74
     0
 49
-1.27
 74
     0
 49
1.27
 74
     0
 49
-1.27
 74
     0
 49
1.27
 74
     0
 49
-1.27
 74
     0
  0
LTYPE
  5
41
330
5
100
AcDbSymbolTableRecord
100
AcDbLinetypeTableRecord
  2
CENTER
 70
     0
  3
Center ____ _ ____ _ ____ _ ____ _ ____ _ ____
 72
    65
 73
     4
 40
10.16
 49
6.35
 74
     0
 49
-1.27
 74
     0
 49
1.27
 74
     0
 49
-1.27
 74
     0
  0
LTYPE
  5
42
330
5
100
AcDbSymbolTableRecord
100
AcDbLinetypeTableRecord
  2
CENTERX2
 70
     0
  3
Center (2x) ________  __  ________  __  _____
 72
    65
 73
     4
 40
20.32
 49
12.7
 74
     0
 49
-2.54
 74
     0
 49
2.54
 74
     0
 49
-2.54
 74
     0
  0
LTYPE
  5
43
330
5
100
AcDbSymbolTableRecord
100
AcDbLinetypeTableRecord
  2
DOT2
 70
     0
  3
Dot (.5x) ........................................
 72
    65
 73
     2
 40
0.635
 49
0.0
 74
     0
 49
-0.635
 74
     0
  0
ENDTAB
  0
TABLE
  2
LAYER
  5
2
330
0
100
AcDbSymbolTable
 70
     5
  0
LAYER
  5
10
330
2
100
AcDbSymbolTableRecord
100
AcDbLayerTableRecord
  2
0
 70
     0
 62
     7
  6
Continuous
370
    -3
390
F
  0
LAYER
  5
44
330
2
100
AcDbSymbolTableRecord
100
AcDbLayerTableRecord
  2
FORMAT
 70
     0
 62
     7
  6
Continuous
370
    -3
390
F
  0
LAYER
  5
45
330
2
100
AcDbSymbolTableRecord
100
AcDbLayerTableRecord
  2
VERMASSUNG
 70
     0
 62
     7
  6
Continuous
370
    -3
390
F
  0
LAYER
  5
46
330
2
100
AcDbSymbolTableRecord
100
AcDbLayerTableRecord
  2
KOPF_DÜNN
 70
     0
 62
     7
  6
Continuous
370
    -3
390
F
  0
LAYER
  5
47
330
2
100
AcDbSymbolTableRecord
100
AcDbLayerTableRecord
  2
KOPF_DICK
 70
     0
 62
     7
  6
Continuous
370
    15
390
F
  0
ENDTAB
  0
TABLE
  2
STYLE
  5
3
330
0
100
AcDbSymbolTable
 70
     2
  0
STYLE
  5
11
330
3
100
AcDbSymbolTableRecord
100
AcDbTextStyleTableRecord
  2
Standard
 70
     0
 40
0.0
 41
1.0
 50
0.0
 71
     0
 42
2.0
  3
txt
  4

  0
STYLE
  5
48
330
3
100
AcDbSymbolTableRecord
100
AcDbTextStyleTableRecord
  2
SLDTEXTSTYLE0
 70
     0
 40
0.0
 41
0.7
 50
0.0
 71
     0
 42
0.2
  3
TXT
  4

  0
ENDTAB
  0
TABLE
  2
VIEW
  5
6
330
0
100
AcDbSymbolTable
 70
     0
  0
ENDTAB
  0
TABLE
  2
UCS
  5
7
330
0
100
AcDbSymbolTable
 70
     0
  0
ENDTAB
  0
TABLE
  2
APPID
  5
9
330
0
100
AcDbSymbolTable
 70
     1
  0
APPID
  5
12
330
9
100
AcDbSymbolTableRecord
100
AcDbRegAppTableRecord
  2
ACAD
 70
     0
  0
ENDTAB
  0
TABLE
  2
DIMSTYLE
  5
A
330
0
100
AcDbSymbolTable
 70
     5
100
AcDbDimStyleTable
  0
DIMSTYLE
105
27
330
A
100
AcDbSymbolTableRecord
100
AcDbDimStyleTableRecord
  2
ISO-25
 70
     0
 41
2.5
 42
0.625
 43
3.75
 44
1.25
 73
     0
 74
     0
 77
     1
 78
     8
140
2.5
141
2.5
143
0.0393700787
147
0.625
171
     3
172
     1
178
     0
271
     2
272
     2
274
     3
278
    44
283
     0
284
     8
340
11
  0
DIMSTYLE
105
1D2
102
{ACAD_REACTORS
330
1D1
102
}
330
A
100
AcDbSymbolTableRecord
100
AcDbDimStyleTableRecord
  2
SLDDIMSTYLE0
 70
     0
 41
3.0
 44
0.0
 73
     0
 74
     0
 77
     1
 78
    12
 79
     3
140
2.0
147
0.5
173
     1
178
     0
179
     1
272
     3
276
     2
284
    12
340
48
  0
DIMSTYLE
105
1DC
102
{ACAD_REACTORS
330
1DB
330
1F3
102
}
330
A
100
AcDbSymbolTableRecord
100
AcDbDimStyleTableRecord
  2
SLDDIMSTYLE1
 70
     0
 41
3.0
 44
0.0
 45
0.000000001
 47
0.1
 48
0.1
 71
     1
 73
     0
 74
     0
 77
     1
 78
    12
 79
     3
140
2.0
147
0.5
173
     1
178
     0
271
     2
272
     1
276
     2
284
     8
340
48
  0
DIMSTYLE
105
1E9
102
{ACAD_REACTORS
330
1E8
330
1FF
102
}
330
A
100
AcDbSymbolTableRecord
100
AcDbDimStyleTableRecord
  2
SLDDIMSTYLE2
 70
     0
 41
3.0
 44
0.0
 45
0.000000001
 73
     0
 74
     0
 77
     1
 78
    12
 79
     3
140
2.0
147
0.5
173
     1
178
     0
271
     2
272
     3
276
     2
284
    12
340
48
  0
DIMSTYLE
105
285
102
{ACAD_REACTORS
330
284
102
}
330
A
100
AcDbSymbolTableRecord
100
AcDbDimStyleTableRecord
  2
SLDDIMSTYLE3
 70
     0
 41
3.0
 44
0.0
 45
0.000000001
 73
     0
 74
     0
 77
     1
 78
    12
 79
     3
140
2.0
147
0.5
172
     1
173
     1
178
     0
271
     2
272
     3
276
     2
284
    12
289
     0
340
48
  0
ENDTAB
  0
TABLE
  2
BLOCK_RECORD
  5
1
330
0
100
AcDbSymbolTable
 70
     8
  0
BLOCK_RECORD
  5
1F
330
1
100
AcDbSymbolTableRecord
100
AcDbBlockTableRecord
  2
*Model_Space
340
22
  0
BLOCK_RECORD
  5
1B
330
1
100
AcDbSymbolTableRecord
100
AcDbBlockTableRecord
  2
*Paper_Space
340
1E
  0
BLOCK_RECORD
  5
23
330
1
100
AcDbSymbolTableRecord
100
AcDbBlockTableRecord
  2
*Paper_Space0
340
26
  0
BLOCK_RECORD
  5
1D3
330
1
100
AcDbSymbolTableRecord
100
AcDbBlockTableRecord
  2
_D
340
0
  0
BLOCK_RECORD
  5
1DD
330
1
100
AcDbSymbolTableRecord
100
AcDbBlockTableRecord
  2
_D_1
340
0
  0
BLOCK_RECORD
  5
1EA
330
1
100
AcDbSymbolTableRecord
100
AcDbBlockTableRecord
  2
_D_2
340
0
  0
BLOCK_RECORD
  5
1F4
330
1
100
AcDbSymbolTableRecord
100
AcDbBlockTableRecord
  2
_D_3
340
0
  0
BLOCK_RECORD
  5
200
330
1
100
AcDbSymbolTableRecord
100
AcDbBlockTableRecord
  2
_D_4
340
0
  0
BLOCK_RECORD
  5
286
330
1
100
AcDbSymbolTableRecord
100
AcDbBlockTableRecord
  2
_D_5
340
0
  0
BLOCK_RECORD
  5
293
330
1
100
AcDbSymbolTableRecord
100
AcDbBlockTableRecord
  2
SW_CENTERMARKSYMBOL_0
340
0
102
{BLKREFS
331
29E
102
}
  0
ENDTAB
  0
ENDSEC
  0
SECTION
  2
BLOCKS
  0
BLOCK
  5
20
330
1F
100
AcDbEntity
  8
0
100
AcDbBlockBegin
  2
*Model_Space
 70
     0
 10
0.0
 20
0.0
 30
0.0
  3
*Model_Space
  1

  0
ENDBLK
  5
21
330
1F
100
AcDbEntity
  8
0
100
AcDbBlockEnd
  0
BLOCK
  5
1C
330
1B
100
AcDbEntity
 67
     1
  8
0
100
AcDbBlockBegin
  2
*Paper_Space
 70
     0
 10
0.0
 20
0.0
 30
0.0
  3
*Paper_Space
  1

  0
ENDBLK
  5
1D
330
1B
100
AcDbEntity
 67
     1
  8
0
100
AcDbBlockEnd
  0
BLOCK
  5
24
330
23
100
AcDbEntity
  8
0
100
AcDbBlockBegin
  2
*Paper_Space0
 70
     0
 10
0.0
 20
0.0
 30
0.0
  3
*Paper_Space0
  1

  0
ENDBLK
  5
25
330
23
100
AcDbEntity
  8
0
100
AcDbBlockEnd
  0
BLOCK
  5
1D4
330
1D3
100
AcDbEntity
  8
0
100
AcDbBlockBegin
  2
_D
 70
     0
 10
0.0
 20
0.0
 30
0.0
  3
_D
  1

  0
ARC
  5
1D6
330
1D3
100
AcDbEntity
  8
VERMASSUNG
100
AcDbCircle
 10
232.326484528
 20
97.0266136686
 30
0.0
 40
12.31008166355182
100
AcDbArc
 50
152.4789748189
 51
270.0
  0
SOLID
  5
1D7
330
1D3
100
AcDbEntity
  8
VERMASSUNG
100
AcDbTrace
 10
221.409395323
 20
102.7147833086
 30
0.0
 11
219.9292711315
 21
100.0668157148
 31
0.0
 12
220.7713208789
 22
99.7490859195
 32
0.0
 13
220.7713208789
 23
99.7490859195
 33
0.0
  0
SOLID
  5
1D8
330
1D3
100
AcDbEntity
  8
VERMASSUNG
100
AcDbTrace
 10
232.326484528
 20
84.716532005
 30
0.0
 11
229.4015438479
 21
85.5210331039
 31
0.0
 12
229.2942304014
 22
84.6274538829
 32
0.0
 13
229.2942304014
 23
84.6274538829
 33
0.0
  0
LINE
  5
1D9
330
1D3
100
AcDbEntity
  8
VERMASSUNG
100
AcDbLine
 10
232.326484528
 20
89.2969041772
 30
0.0
 11
232.326484528
 21
83.716532005
 31
0.0
  0
MTEXT
  5
1DA
330
1D3
100
AcDbEntity
  8
VERMASSUNG
100
AcDbMText
 10
221.8274131603
 20
95.5704962448
 30
0.1
 40
2.0
 41
0.0
 71
     1
 72
     1
  1
117.5°
  7
SLDTEXTSTYLE0
 11
0.5186163907821812
 21
-0.8550070404459041
 31
0.0
 73
     1
 44
1.0
  0
ENDBLK
  5
1D5
330
1D3
100
AcDbEntity
  8
0
100
AcDbBlockEnd
  0
BLOCK
  5
1DE
330
1DD
100
AcDbEntity
  8
0
100
AcDbBlockBegin
  2
_D_1
 70
     0
 10
0.0
 20
0.0
 30
0.0
  3
_D_1
  1

  0
SOLID
  5
1E0
330
1DD
100
AcDbEntity
  8
VERMASSUNG
100
AcDbTrace
 10
182.326484528
 20
79.2969041772
 30
0.0
 11
185.326484528
 21
78.8469041772
 31
0.0
 12
185.326484528
 22
79.7469041772
 32
0.0
 13
185.326484528
 23
79.7469041772
 33
0.0
  0
SOLID
  5
1E1
330
1DD
100
AcDbEntity
  8
VERMASSUNG
100
AcDbTrace
 10
232.326484528
 20
79.2969041772
 30
0.0
 11
229.326484528
 21
79.7469041772
 31
0.0
 12
229.326484528
 22
78.8469041772
 32
0.0
 13
229.326484528
 23
78.8469041772
 33
0.0
  0
LINE
  5
1E2
330
1DD
100
AcDbEntity
  8
VERMASSUNG
100
AcDbLine
 10
182.326484528
 20
104.589052068
 30
0.0
 11
182.326484528
 21
78.2969041772
 31
0.0
  0
LINE
  5
1E3
330
1DD
100
AcDbEntity
  8
VERMASSUNG
100
AcDbLine
 10
232.326484528
 20
97.289052068
 30
0.0
 11
232.326484528
 21
78.2969041772
 31
0.0
  0
LINE
  5
1E4
330
1DD
100
AcDbEntity
  8
VERMASSUNG
100
AcDbLine
 10
182.326484528
 20
79.2969041772
 30
0.0
 11
232.326484528
 21
79.2969041772
 31
0.0
  0
MTEXT
  5
1E5
330
1DD
100
AcDbEntity
  8
VERMASSUNG
100
AcDbMText
 10
202.776484341
 20
81.8750395403
 30
0.1
 40
2.0
 41
0.0
 71
     1
 72
     1
  1
50
  7
SLDTEXTSTYLE0
 73
     1
 44
1.0
  0
MTEXT
  5
1E6
330
1DD
100
AcDbEntity
  8
VERMASSUNG
100
AcDbMText
 10
208.563984443
 20
81.8750395403
 30
0.1
 40
2.0
 41
0.0
 71
     1
 72
     1
  1

  7
SLDTEXTSTYLE0
 73
     1
 44
1.0
  0
MTEXT
  5
1E7
330
1DD
100
AcDbEntity
  8
VERMASSUNG
100
AcDbMText
 10
208.5764847329
 20
81.3805056775
 30
0.1
 40
1.5
 41
0.0
 71
     1
 72
     1
  1
±0.1
  7
SLDTEXTSTYLE0
 73
     1
 44
1.0
  0
ENDBLK
  5
1DF
330
1DD
100
AcDbEntity
  8
0
100
AcDbBlockEnd
  0
BLOCK
  5
1EB
330
1EA
100
AcDbEntity
  8
0
100
AcDbBlockBegin
  2
_D_2
 70
     0
 10
0.0
 20
0.0
 30
0.0
  3
_D_2
  1

  0
SOLID
  5
1ED
330
1EA
100
AcDbEntity
  8
VERMASSUNG
100
AcDbTrace
 10
158.326484528
 20
72.3312776504
 30
0.0
 11
161.326484528
 21
71.8812776504
 31
0.0
 12
161.326484528
 22
72.7812776504
 32
0.0
 13
161.326484528
 23
72.7812776504
 33
0.0
  0
SOLID
  5
1EE
330
1EA
100
AcDbEntity
  8
VERMASSUNG
100
AcDbTrace
 10
232.326484528
 20
72.3312776504
 30
0.0
 11
229.326484528
 21
72.7812776504
 31
0.0
 12
229.326484528
 22
71.8812776504
 32
0.0
 13
229.326484528
 23
71.8812776504
 33
0.0
  0
LINE
  5
1EF
330
1EA
100
AcDbEntity
  8
VERMASSUNG
100
AcDbLine
 10
158.326484528
 20
111.6575470859
 30
0.0
 11
158.326484528
 21
71.3312776504
 31
0.0
  0
LINE
  5
1F0
330
1EA
100
AcDbEntity
  8
VERMASSUNG
100
AcDbLine
 10
232.326484528
 20
97.289052068
 30
0.0
 11
232.326484528
 21
71.3312776504
 31
0.0
  0
LINE
  5
1F1
330
1EA
100
AcDbEntity
  8
VERMASSUNG
100
AcDbLine
 10
158.326484528
 20
72.3312776504
 30
0.0
 11
232.326484528
 21
72.3312776504
 31
0.0
  0
MTEXT
  5
1F2
330
1EA
100
AcDbEntity
  8
VERMASSUNG
100
AcDbMText
 10
192.926484414
 20
74.9094130136
 30
0.1
 40
2.0
 41
0.0
 71
     1
 72
     1
  1
74
  7
SLDTEXTSTYLE0
 73
     1
 44
1.0
  0
ENDBLK
  5
1EC
330
1EA
100
AcDbEntity
  8
0
100
AcDbBlockEnd
  0
BLOCK
  5
1F5
330
1F4
100
AcDbEntity
  8
0
100
AcDbBlockBegin
  2
_D_3
 70
     0
 10
0.0
 20
0.0
 30
0.0
  3
_D_3
  1

  0
SOLID
  5
1F7
330
1F4
100
AcDbEntity
  8
VERMASSUNG
100
AcDbTrace
 10
243.1362710202
 20
97.289052068
 30
0.0
 11
243.5862710202
 21
100.289052068
 31
0.0
 12
242.6862710202
 22
100.289052068
 32
0.0
 13
242.6862710202
 23
100.289052068
 33
0.0
  0
SOLID
  5
1F8
330
1F4
100
AcDbEntity
  8
VERMASSUNG
100
AcDbTrace
 10
243.1362710202
 20
124.289052068
 30
0.0
 11
242.6862710202
 21
121.289052068
 31
0.0
 12
243.5862710202
 22
121.289052068
 32
0.0
 13
243.5862710202
 23
121.289052068
 33
0.0
  0
LINE
  5
1F9
330
1F4
100
AcDbEntity
  8
VERMASSUNG
100
AcDbLine
 10
232.326484528
 20
97.289052068
 30
0.0
 11
244.1362710202
 21
97.289052068
 31
0.0
  0
LINE
  5
1FA
330
1F4
100
AcDbEntity
  8
VERMASSUNG
100
AcDbLine
 10
232.326484528
 20
124.289052068
 30
0.0
 11
244.1362710202
 21
124.289052068
 31
0.0
  0
LINE
  5
1FB
330
1F4
100
AcDbEntity
  8
VERMASSUNG
100
AcDbLine
 10
243.1362710202
 20
97.289052068
 30
0.0
 11
243.1362710202
 21
124.289052068
 31
0.0
  0
MTEXT
  5
1FC
330
1F4
100
AcDbEntity
  8
VERMASSUNG
100
AcDbMText
 10
240.5581356571
 20
106.239051881
 30
0.1
 40
2.0
 41
0.0
 71
     1
 72
     1
  1
27
  7
SLDTEXTSTYLE0
 11
6.123233995736766E-17
 21
1.0
 31
0.0
 73
     1
 44
1.0
  0
MTEXT
  5
1FD
330
1F4
100
AcDbEntity
  8
VERMASSUNG
100
AcDbMText
 10
240.5581356571
 20
112.026551983
 30
0.1
 40
2.0
 41
0.0
 71
     1
 72
     1
  1

  7
SLDTEXTSTYLE0
 11
6.123233995736766E-17
 21
1.0
 31
0.0
 73
     1
 44
1.0
  0
MTEXT
  5
1FE
330
1F4
100
AcDbEntity
  8
VERMASSUNG
100
AcDbMText
 10
241.0526695198
 20
112.0390522729
 30
0.1
 40
1.5
 41
0.0
 71
     1
 72
     1
  1
±0.1
  7
SLDTEXTSTYLE0
 11
6.123233995736766E-17
 21
1.0
 31
0.0
 73
     1
 44
1.0
  0
ENDBLK
  5
1F6
330
1F4
100
AcDbEntity
  8
0
100
AcDbBlockEnd
  0
BLOCK
  5
201
330
200
100
AcDbEntity
  8
0
100
AcDbBlockBegin
  2
_D_4
 70
     0
 10
0.0
 20
0.0
 30
0.0
  3
_D_4
  1

  0
SOLID
  5
203
330
200
100
AcDbEntity
  8
VERMASSUNG
100
AcDbTrace
 10
150.8757100104
 20
104.289052068
 30
0.0
 11
151.3257100104
 21
107.289052068
 31
0.0
 12
150.4257100104
 22
107.289052068
 32
0.0
 13
150.4257100104
 23
107.289052068
 33
0.0
  0
SOLID
  5
204
330
200
100
AcDbEntity
  8
VERMASSUNG
100
AcDbTrace
 10
150.8757100104
 20
144.289052068
 30
0.0
 11
150.4257100104
 21
141.289052068
 31
0.0
 12
151.3257100104
 22
141.289052068
 32
0.0
 13
151.3257100104
 23
141.289052068
 33
0.0
  0
LINE
  5
205
330
200
100
AcDbEntity
  8
VERMASSUNG
100
AcDbLine
 10
182.626484528
 20
104.289052068
 30
0.0
 11
149.8757100104
 21
104.289052068
 31
0.0
  0
LINE
  5
206
330
200
100
AcDbEntity
  8
VERMASSUNG
100
AcDbLine
 10
182.626484528
 20
144.289052068
 30
0.0
 11
149.8757100104
 21
144.289052068
 31
0.0
  0
LINE
  5
207
330
200
100
AcDbEntity
  8
VERMASSUNG
100
AcDbLine
 10
150.8757100104
 20
104.289052068
 30
0.0
 11
150.8757100104
 21
144.289052068
 31
0.0
  0
MTEXT
  5
208
330
200
100
AcDbEntity
  8
VERMASSUNG
100
AcDbMText
 10
148.0975745214
 20
117.7840521286
 30
-3.0646233985
 40
2.0
 41
0.0
 71
     1
 72
     1
  1
PSC
  7
SLDTEXTSTYLE0
 11
6.123233995736766E-17
 21
1.0
 31
0.0
 73
     1
 44
1.0
  0
MTEXT
  5
209
330
200
100
AcDbEntity
  8
VERMASSUNG
100
AcDbMText
 10
148.2975745309
 20
122.3840522307
 30
-3.0646233985
 40
2.0
 41
0.0
 71
     1
 72
     1
  1
%%c
  7
SLDTEXTSTYLE0
 11
6.123233995736766E-17
 21
1.0
 31
0.0
 73
     1
 44
1.0
  0
MTEXT
  5
20A
330
200
100
AcDbEntity
  8
VERMASSUNG
100
AcDbMText
 10
148.0975745214
 20
125.9940527107
 30
-3.0646233985
 40
2.0
 41
0.0
 71
     1
 72
     1
  1
40
  7
SLDTEXTSTYLE0
 11
6.123233995736766E-17
 21
1.0
 31
0.0
 73
     1
 44
1.0
  0
ENDBLK
  5
202
330
200
100
AcDbEntity
  8
0
100
AcDbBlockEnd
  0
BLOCK
  5
287
330
286
100
AcDbEntity
  8
0
100
AcDbBlockBegin
  2
_D_5
 70
     0
 10
0.0
 20
0.0
 30
0.0
  3
_D_5
  1

  0
SOLID
  5
289
330
286
100
AcDbEntity
  8
VERMASSUNG
100
AcDbTrace
 10
75.080731036
 20
148.6047462907
 30
0.0
 11
73.9704424677
 21
151.427822502
 31
0.0
 12
73.1910196043
 22
150.977822502
 32
0.0
 13
73.1910196043
 23
150.977822502
 33
0.0
  0
SOLID
  5
28A
330
286
100
AcDbEntity
  8
VERMASSUNG
100
AcDbTrace
 10
102.580731036
 20
100.9733490825
 30
0.0
 11
103.6910196043
 21
98.1502728712
 31
0.0
 12
104.4704424677
 22
98.6002728712
 32
0.0
 13
104.4704424677
 23
98.6002728712
 33
0.0
  0
LINE
  5
28B
330
286
100
AcDbEntity
  8
VERMASSUNG
100
AcDbLine
 10
75.080731036
 20
148.6047462907
 30
0.0
 11
74.2147056322
 21
148.1047462907
 31
0.0
  0
LINE
  5
28C
330
286
100
AcDbEntity
  8
VERMASSUNG
100
AcDbLine
 10
102.580731036
 20
100.9733490825
 30
0.0
 11
103.4467564398
 21
101.4733490825
 31
0.0
  0
LINE
  5
28D
330
286
100
AcDbEntity
  8
VERMASSUNG
100
AcDbLine
 10
75.080731036
 20
148.6047462907
 30
0.0
 11
72.080731036
 21
153.8008987134
 31
0.0
  0
LINE
  5
28E
330
286
100
AcDbEntity
  8
VERMASSUNG
100
AcDbLine
 10
75.080731036
 20
148.6047462907
 30
0.0
 11
102.580731036
 21
100.9733490825
 31
0.0
  0
LINE
  5
28F
330
286
100
AcDbEntity
  8
VERMASSUNG
100
AcDbLine
 10
102.580731036
 20
100.9733490825
 30
0.0
 11
111.0358160152
 21
86.3287123163
 31
0.0
  0
MTEXT
  5
290
330
286
100
AcDbEntity
  8
VERMASSUNG
100
AcDbMText
 10
106.3635471094
 20
99.5775904069
 30
0.1
 40
2.0
 41
0.0
 71
     1
 72
     1
  1
%%c
  7
SLDTEXTSTYLE0
 11
0.5000000000000101
 21
-0.8660254037844328
 31
0.0
 73
     1
 44
1.0
  0
MTEXT
  5
291
330
286
100
AcDbEntity
  8
VERMASSUNG
100
AcDbMText
 10
108.3417522055
 20
96.5512386916
 30
0.1
 40
2.0
 41
0.0
 71
     1
 72
     1
  1
55
  7
SLDTEXTSTYLE0
 11
0.5000000000000101
 21
-0.8660254037844328
 31
0.0
 73
     1
 44
1.0
  0
MTEXT
  5
292
330
286
100
AcDbEntity
  8
VERMASSUNG
100
AcDbMText
 10
111.2355024894
 20
91.5391161755
 30
0.1
 40
2.0
 41
0.0
 71
     1
 72
     1
  1
min.
  7
SLDTEXTSTYLE0
 11
0.5000000000000101
 21
-0.8660254037844328
 31
0.0
 73
     1
 44
1.0
  0
ENDBLK
  5
288
330
286
100
AcDbEntity
  8
0
100
AcDbBlockEnd
  0
BLOCK
  5
294
330
293
100
AcDbEntity
  8
0
100
AcDbBlockBegin
  2
SW_CENTERMARKSYMBOL_0
 70
     0
 10
0.0
 20
0.0
 30
0.0
  3
SW_CENTERMARKSYMBOL_0
  1

  0
LINE
  5
296
330
293
100
AcDbEntity
  8
VERMASSUNG
 62
     0
100
AcDbLine
 10
0.0
 20
0.0
 30
0.0
 11
0.0
 21
2.5
 31
0.0
  0
LINE
  5
297
330
293
100
AcDbEntity
  8
VERMASSUNG
 62
     0
100
AcDbLine
 10
0.0
 20
0.0
 30
0.0
 11
-2.5
 21
0.0
 31
0.0
  0
LINE
  5
298
330
293
100
AcDbEntity
  8
VERMASSUNG
 62
     0
100
AcDbLine
 10
0.0
 20
0.0
 30
0.0
 11
0.0
 21
-2.5
 31
0.0
  0
LINE
  5
299
330
293
100
AcDbEntity
  8
VERMASSUNG
 62
     0
100
AcDbLine
 10
0.0
 20
0.0
 30
0.0
 11
2.5
 21
0.0
 31
0.0
  0
LINE
  5
29A
330
293
100
AcDbEntity
  8
VERMASSUNG
 62
     0
100
AcDbLine
 10
0.0
 20
5.0
 30
0.0
 11
0.0
 21
23.0
 31
0.0
  0
LINE
  5
29B
330
293
100
AcDbEntity
  8
VERMASSUNG
 62
     0
100
AcDbLine
 10
-5.0
 20
0.0
 30
0.0
 11
-23.0
 21
0.0
 31
0.0
  0
LINE
  5
29C
330
293
100
AcDbEntity
  8
VERMASSUNG
 62
     0
100
AcDbLine
 10
0.0
 20
-5.0
 30
0.0
 11
0.0
 21
-30.4218954003
 31
0.0
  0
LINE
  5
29D
330
293
100
AcDbEntity
  8
VERMASSUNG
 62
     0
100
AcDbLine
 10
5.0
 20
0.0
 30
0.0
 11
23.0
 21
0.0
 31
0.0
  0
ENDBLK
  5
295
330
293
100
AcDbEntity
  8
0
100
AcDbBlockEnd
  0
ENDSEC
  0
SECTION
  2
ENTITIES
  0
MTEXT
  5
49
330
1F
100
AcDbEntity
  8
KOPF_DÜNN
100
AcDbMText
 10
13.8892156294
 20
23.8442973028
 30
0.0
 40
3.0
 41
0.0
 71
     1
 72
     1
  1
PS4.KVD.LPA.050
  7
SLDTEXTSTYLE0
 73
     1
 44
1.0
  0
MTEXT
  5
4A
330
1F
100
AcDbEntity
  8
VERMASSUNG
100
AcDbMText
 10
13.9329988022
 20
28.8834360957
 30
0.0
 40
3.0
 41
0.0
 71
     1
 72
     1
  1
Klemmhalter links_Turning tool left 117.5° /35°
  7
SLDTEXTSTYLE0
 73
     1
 44
1.0
  0
MTEXT
  5
4B
330
1F
100
AcDbEntity
  8
VERMASSUNG
100
AcDbMText
 10
98.8601118557
 20
13.8365368179
 30
0.0
 40
2.0
 41
0.0
 71
     1
 72
     1
  1
Datum: 24.05.2012
  7
SLDTEXTSTYLE0
 73
     1
 44
1.0
  0
MTEXT
  5
4C
330
1F
100
AcDbEntity
  8
VERMASSUNG
100
AcDbMText
 10
13.933048693
 20
18.0482802738
 30
0.0
 40
2.0
 41
0.0
 71
     1
 72
     1
  1
PSC ø40 / VN..16 04..
  7
SLDTEXTSTYLE0
 73
     1
 44
1.0
  0
MTEXT
  5
4D
330
1F
100
AcDbEntity
  8
VERMASSUNG
100
AcDbMText
 10
13.9808475933
 20
13.9090973692
 30
0.0
 40
2.0
 41
0.0
 71
     1
 72
     1
  1
Gewicht: 434g
  7
SLDTEXTSTYLE0
 73
     1
 44
1.0
  0
LINE
  5
4E
330
1F
100
AcDbEntity
  8
0
  6
Continuous
 62
     7
370
    15
100
AcDbLine
 10
214.2337523965
 20
124.5545518486
 30
0.0
 11
215.2858228056
 21
123.3140286367
 31
0.0
  0
LINE
  5
4F
330
1F
100
AcDbEntity
  8
0
  6
Continuous
 62
     7
370
    15
100
AcDbLine
 10
217.5738029746
 20
125.254430257
 30
0.0
 11
216.4580822555
 21
126.5700058739
 31
0.0
  0
LINE
  5
50
330
1F
100
AcDbEntity
  8
0
  6
Continuous
 62
     7
370
    15
100
AcDbLine
 10
224.0256667701
 20
120.9080265562
 30
0.0
 11
223.6783691315
 21
121.3175325847
 31
0.0
  0
LINE
  5
51
330
1F
100
AcDbEntity
  8
0
  6
Continuous
 62
     7
370
    15
100
AcDbLine
 10
214.9077877966
 20
113.879326238
 30
0.0
 11
215.2550854353
 21
113.4698199767
 31
0.0
  0
LINE
  5
52
330
1F
100
AcDbEntity
  8
0
  6
Continuous
 62
     7
370
    15
100
AcDbLine
 10
224.4580463139
 20
122.3307864002
 30
0.0
 11
223.6607559589
 21
123.2708919288
 31
0.0
  0
LINE
  5
53
330
1F
100
AcDbEntity
  8
0
  6
Continuous
 62
     7
370
    15
100
AcDbLine
 10
212.9835263459
 20
114.2156845617
 30
0.0
 11
213.7808167008
 21
113.2755786839
 31
0.0
  0
LINE
  5
54
330
1F
100
AcDbEntity
  8
0
  6
Continuous
 62
     7
370
    15
100
AcDbLine
 10
220.8102197019
 20
130.9439185734
 30
0.0
 11
219.6991891233
 21
132.2539602133
 31
0.0
  0
LINE
  5
55
330
1F
100
AcDbEntity
  8
0
  6
Continuous
 62
     7
370
    15
100
AcDbLine
 10
215.6289369432
 20
108.7905219483
 30
0.0
 11
216.4939195482
 21
107.7706007945
 31
0.0
  0
LINE
  5
56
330
1F
100
AcDbEntity
  8
0
  6
Continuous
 62
     7
370
    15
100
AcDbLine
 10
221.2103456823
 20
103.4370432335
 30
0.0
 11
225.925047007
 21
105.5018654751
 31
0.0
  0
LINE
  5
57
330
1F
100
AcDbEntity
  8
0
  6
Continuous
 62
     7
370
    15
100
AcDbLine
 10
218.4835300414
 20
104.3240888703
 30
0.0
 11
218.5652554599
 21
104.2277230608
 31
0.0
  0
LINE
  5
58
330
1F
100
AcDbEntity
  8
0
  6
Continuous
 62
     7
370
    15
100
AcDbLine
 10
204.5591567276
 20
144.2890516209
 30
0.0
 11
182.6264845422
 21
144.2890516209
 31
0.0
  0
LINE
  5
59
330
1F
100
AcDbEntity
  8
0
  6
Continuous
 62
     7
370
    15
100
AcDbLine
 10
182.6264845422
 20
104.289052515
 30
0.0
 11
204.5591567276
 21
104.289052515
 31
0.0
  0
ARC
  5
5A
330
1F
100
AcDbEntity
  8
0
  6
Continuous
 62
     7
370
    15
100
AcDbCircle
 10
182.626484528
 20
104.589052068
 30
0.0
 40
0.3000000000000114
100
AcDbArc
 50
180.0
 51
270.0
  0
ARC
  5
5B
330
1F
100
AcDbEntity
  8
0
  6
Continuous
 62
     7
370
    15
100
AcDbCircle
 10
182.626484528
 20
143.989052068
 30
0.0
 40
0.3000000000000114
100
AcDbArc
 50
90.0
 51
180.0
  0
LWPOLYLINE
  5
5C
330
1F
100
AcDbEntity
  8
0
  6
Continuous
 62
     7
370
    15
100
AcDbPolyline
 90
        3
 70
   128
 43
0.0
 10
182.126484533
 20
110.1992320928
 10
182.2519394682
 20
110.1309298265
 10
182.326484528
 20
110.078191823
  0
LWPOLYLINE
  5
5D
330
1F
100
AcDbEntity
  8
0
  6
Continuous
 62
     7
370
    15
100
AcDbPolyline
 90
        3
 70
   128
 43
0.0
 10
182.326484528
 20
138.4999123129
 10
182.2519394682
 20
138.4471743095
 10
182.126484533
 20
138.3788720432
  0
ARC
  5
5E
330
1F
100
AcDbEntity
  8
0
  6
Continuous
 62
     7
370
    15
100
AcDbCircle
 10
204.55915754
 20
145.289052068
 30
0.0
 40
1.0
100
AcDbArc
 50
270.0
 51
330.0
  0
ARC
  5
5F
330
1F
100
AcDbEntity
  8
0
  6
Continuous
 62
     7
370
    15
100
AcDbCircle
 10
204.55915754
 20
103.289052068
 30
0.0
 40
1.0
100
AcDbArc
 50
15.0
 51
90.0
  0
LINE
  5
60
330
1F
100
AcDbEntity
  8
0
  6
Continuous
 62
     7
370
    15
100
AcDbLine
 10
211.7801085679
 20
144.7890526342
 30
0.0
 11
205.4251824138
 21
144.7890526342
 31
0.0
  0
LINE
  5
61
330
1F
100
AcDbEntity
  8
0
  6
Continuous
 62
     7
370
    15
100
AcDbLine
 10
205.5250835238
 20
103.5478706199
 30
0.0
 11
205.5842411337
 21
103.327093153
 31
0.0
  0
ARC
  5
62
330
1F
100
AcDbEntity
  8
0
  6
Continuous
 62
     7
370
    15
100
AcDbCircle
 10
216.431637651
 20
124.2845259438
 30
0.0
 40
1.474038120816969
100
AcDbArc
 50
359.6260910391
 51
175.8855990211
  0
ARC
  5
63
330
1F
100
AcDbEntity
  8
0
  6
Continuous
 62
     7
370
    15
100
AcDbCircle
 10
216.3580606987
 20
124.2226072926
 30
0.0
 40
1.405166296389848
100
AcDbArc
 50
182.5577682595
 51
229.3067194597
  0
LINE
  5
64
330
1F
100
AcDbEntity
  8
0
  6
Continuous
 62
     7
370
    15
100
AcDbLine
 10
215.0714845029
 20
124.1149276629
 30
0.0
 11
214.9542943207
 21
124.1598994256
 31
0.0
  0
ARC
  5
65
330
1F
100
AcDbEntity
  8
0
  6
Continuous
 62
     7
370
    15
100
AcDbCircle
 10
216.4760798135
 20
124.2352194228
 30
0.0
 40
1.401320205122979
100
AcDbArc
 50
1.9650499572
 51
175.9662343085
  0
ARC
  5
66
330
1F
100
AcDbEntity
  8
0
  6
Continuous
 62
     7
370
    15
100
AcDbCircle
 10
216.4055516189
 20
124.1745371127
 30
0.0
 40
1.335398201403134
100
AcDbArc
 50
182.5584167477
 51
225.9439885111
  0
LINE
  5
67
330
1F
100
AcDbEntity
  8
0
  6
Continuous
 62
     7
370
    15
100
AcDbLine
 10
215.0782310037
 20
124.3337943797
 30
0.0
 11
214.9613984493
 21
124.3902854421
 31
0.0
  0
LINE
  5
68
330
1F
100
AcDbEntity
  8
0
  6
Continuous
 62
     7
370
    15
100
AcDbLine
 10
215.2928114502
 20
124.1335771647
 30
0.0
 11
215.0714845029
 21
124.1149276629
 31
0.0
  0
ARC
  5
69
330
1F
100
AcDbEntity
  8
0
  6
Continuous
 62
     7
370
    15
100
AcDbCircle
 10
216.4760280856
 20
124.2297793705
 30
0.0
 40
1.180827162909888
100
AcDbArc
 50
3.4220043134
 51
175.7209377321
  0
ARC
  5
6A
330
1F
100
AcDbEntity
  8
0
  6
Continuous
 62
     7
370
    15
100
AcDbCircle
 10
216.4162289042
 20
124.1836550766
 30
0.0
 40
1.124533046741578
100
AcDbArc
 50
182.5523502382
 51
223.2051857806
  0
LINE
  5
6B
330
1F
100
AcDbEntity
  8
0
  6
Continuous
 62
     7
370
    15
100
AcDbLine
 10
215.2984925179
 20
124.317885984
 30
0.0
 11
215.0782310037
 21
124.3337943797
 31
0.0
  0
LINE
  5
6C
330
1F
100
AcDbEntity
  8
0
  6
Continuous
 62
     7
370
    15
100
AcDbLine
 10
215.1259296207
 20
124.3303492974
 30
0.0
 11
215.2928114502
 21
124.1335771647
 31
0.0
  0
LINE
  5
6D
330
1F
100
AcDbEntity
  8
0
  6
Continuous
 62
     7
370
    15
100
AcDbLine
 10
214.9542943207
 20
124.1598994256
 30
0.0
 11
213.9101438788
 21
125.3910852556
 31
0.0
  0
LINE
  5
6E
330
1F
100
AcDbEntity
  8
0
  6
Continuous
 62
     7
370
    15
100
AcDbLine
 10
214.9613984493
 20
124.3902854421
 30
0.0
 11
213.9079049794
 21
125.6324891892
 31
0.0
  0
LWPOLYLINE
  5
6F
330
1F
100
AcDbEntity
  8
0
  6
Continuous
 62
     7
370
    15
100
AcDbPolyline
 90
       47
 70
   128
 43
0.0
 10
216.1354572145
 20
112.6429154265
 10
216.7737149266
 20
112.2334343108
 10
217.4653746752
 20
111.9162640261
 10
218.197550681
 20
111.6973138141
 10
218.9566046564
 20
111.5806619364
 10
219.7283953992
 20
111.5684811684
 10
220.4985432891
 20
111.660998753
 10
221.2527096836
 20
111.856490812
 10
221.9768390624
 20
112.1513158741
 10
222.6574421493
 20
112.5399819302
 10
223.2818455068
 20
113.0152498099
 10
223.8384150533
 20
113.5682644981
 10
224.3167833058
 20
114.1887255671
 10
224.70803937
 20
114.8650753039
 10
225.0048928527
 20
115.5847129139
 10
225.2018191485
 20
116.3342338714
 10
225.2951413957
 20
117.0996767196
 10
225.2831310598
 20
117.8667819786
 10
225.1660004822
 20
118.6212599005
 10
224.945943859
 20
119.3490558962
 10
224.6270515589
 20
120.0366131688
 10
224.2152654199
 20
120.6711230061
 10
223.7182632653
 20
121.2407659932
 10
223.1452912656
 20
121.7349311064
 10
222.5070335535
 20
122.1444124549
 10
221.815373805
 20
122.4615825067
 10
221.0831977991
 20
122.6805328351
 10
220.3241475491
 20
122.7971849457
 10
219.5523568062
 20
122.8093658301
 10
218.782205191
 20
122.7168483619
 10
218.0280425219
 20
122.5213561865
 10
217.3039131431
 20
122.2265308916
 10
216.6233063308
 20
121.8378643698
 10
215.9989029733
 20
121.3625969558
 10
215.4423334269
 20
120.8095820348
 10
214.9639651743
 20
120.1891209657
 10
214.5727091102
 20
119.5127716946
 10
214.2758556274
 20
118.7931340846
 10
214.078933057
 20
118.0436126615
 10
213.9856070844
 20
117.2781698133
 10
213.9976211456
 20
116.5110645543
 10
214.1147479979
 20
115.7565866324
 10
214.3348083464
 20
115.0287906366
 10
214.6536969213
 20
114.341233364
 10
215.0654830603
 20
113.7067242253
 10
215.5624889402
 20
113.1370807725
 10
216.1354572145
 20
112.6429154265
  0
LWPOLYLINE
  5
70
330
1F
100
AcDbEntity
  8
0
  6
Continuous
 62
     7
370
    15
100
AcDbPolyline
 90
       31
 70
   128
 43
0.0
 10
218.4637934534
 20
114.8028918269
 10
218.8991420535
 20
114.5461336437
 10
219.3820626108
 20
114.3869808602
 10
219.8914513556
 20
114.3323885935
 10
220.4050459532
 20
114.3847438234
 10
220.9003978042
 20
114.5417573589
 10
221.3558592466
 20
114.7965672153
 10
221.7515260545
 20
115.1380375686
 10
222.070101705
 20
115.5512439745
 10
222.2976685134
 20
116.0181271571
 10
222.4242762295
 20
116.5182823042
 10
222.4443890719
 20
117.0298508095
 10
222.3571353225
 20
117.5304739463
 10
222.1663222281
 20
117.9982721533
 10
221.880294439
 20
118.4128005716
 10
221.5115465788
 20
118.7559421833
 10
221.0762017039
 20
119.0127003665
 10
220.5932811467
 20
119.1718536156
 10
220.0838924018
 20
119.2264454166
 10
219.5702978043
 20
119.1740906524
 10
219.0749459533
 20
119.0170771169
 10
218.6194807855
 20
118.7622672605
 10
218.2238177029
 20
118.4207969072
 10
217.9052383272
 20
118.0075909669
 10
217.677675244
 20
117.5407073188
 10
217.5510675279
 20
117.0405521716
 10
217.5309509603
 20
116.5289836663
 10
217.618208435
 20
116.0283605295
 10
217.8090178041
 20
115.5605627882
 10
218.0950493185
 20
115.1460339042
 10
218.4637934534
 20
114.8028918269
  0
SPLINE
  5
71
330
1F
100
AcDbEntity
  8
0
  6
Continuous
 62
     7
370
    15
100
AcDbSpline
210
0.0
220
0.0
230
1.0
 70
     8
 71
     3
 72
    11
 73
     7
 74
     0
 42
0.00000001
 43
0.00000001
 12
1.0
 22
0.0
 32
0.0
 13
1.0
 23
0.0
 33
0.0
 40
0.0
 40
0.0
 40
0.0
 40
0.0
 40
0.1208911034006115
 40
0.4766708961977817
 40
0.814366601233928
 40
1.0
 40
1.0
 40
1.0
 40
1.0
 10
220.2805206743784
 20
119.066008339347
 30
0.0
 10
220.3409099386431
 20
119.0240786473919
 30
0.0
 10
220.5790234466521
 20
118.8587508169786
 30
0.0
 10
221.0534234714166
 20
118.517076114334
 30
0.0
 10
221.6267315067138
 20
118.0796451075416
 30
0.0
 10
221.9515961085682
 20
117.8239995346966
 30
0.0
 10
222.0668309001036
 20
117.733317865701
 30
0.0
  0
SPLINE
  5
72
330
1F
100
AcDbEntity
  8
0
  6
Continuous
 62
     7
370
    15
100
AcDbSpline
210
0.0
220
0.0
230
1.0
 70
     8
 71
     3
 72
    11
 73
     7
 74
     0
 42
0.00000001
 43
0.00000001
 12
1.0
 22
0.0
 32
0.0
 13
1.0
 23
0.0
 33
0.0
 40
0.0
 40
0.0
 40
0.0
 40
0.0
 40
0.2164527073488799
 40
0.4403058572570431
 40
0.7518958427833288
 40
1.0
 40
1.0
 40
1.0
 40
1.0
 10
218.1682661739893
 20
118.1511333870605
 30
0.0
 10
218.3003769275191
 20
118.2286344588745
 30
0.0
 10
218.5691152551578
 20
118.3862863371131
 30
0.0
 10
219.0939813374109
 20
118.6480047997329
 30
0.0
 10
219.692736892497
 20
118.886612380954
 30
0.0
 10
220.099990955714
 20
119.0109093337321
 30
0.0
 10
220.2805206743784
 20
119.066008339347
 30
0.0
  0
SPLINE
  5
73
330
1F
100
AcDbEntity
  8
0
  6
Continuous
 62
     7
370
    15
100
AcDbSpline
210
0.0
220
0.0
230
1.0
 70
     8
 71
     3
 72
    11
 73
     7
 74
     0
 42
0.00000001
 43
0.00000001
 12
1.0
 22
0.0
 32
0.0
 13
1.0
 23
0.0
 33
0.0
 40
0.0
 40
0.0
 40
0.0
 40
0.0
 40
0.2164526695098219
 40
0.4403053624686413
 40
0.7518957174806544
 40
0.9999999999999999
 40
0.9999999999999999
 40
0.9999999999999999
 40
0.9999999999999999
 10
217.8423181740351
 20
115.9035679611281
 30
0.0
 10
217.852067329151
 20
116.0723582908947
 30
0.0
 10
217.8718989407766
 20
116.4157095071093
 30
0.0
 10
217.9348508857829
 20
117.0220409469676
 30
0.0
 10
218.0381241796391
 20
117.6303099748099
 30
0.0
 10
218.1282948576971
 20
117.9911696686049
 30
0.0
 10
218.1682661739893
 20
118.1511333870605
 30
0.0
  0
SPLINE
  5
74
330
1F
100
AcDbEntity
  8
0
  6
Continuous
 62
     7
370
    15
100
AcDbSpline
210
0.0
220
0.0
230
1.0
 70
     8
 71
     3
 72
    11
 73
     7
 74
     0
 42
0.00000001
 43
0.00000001
 12
1.0
 22
0.0
 32
0.0
 13
1.0
 23
0.0
 33
0.0
 40
0.0
 40
0.0
 40
0.0
 40
0.0
 40
0.1856345061404568
 40
0.5233289390449976
 40
0.8791084607625923
 40
1.0
 40
1.0
 40
1.0
 40
1.0
 10
219.6286283997603
 20
114.5708779531434
 30
0.0
 10
219.5133921960421
 20
114.661559228239
 30
0.0
 10
219.1885256532574
 20
114.9172020851283
 30
0.0
 10
218.6152216333433
 20
115.3546379096001
 30
0.0
 10
218.1408198783938
 20
115.696310996178
 30
0.0
 10
217.902707379272
 20
115.8616382729206
 30
0.0
 10
217.8423181740351
 20
115.9035679611281
 30
0.0
  0
SPLINE
  5
75
330
1F
100
AcDbEntity
  8
0
  6
Continuous
 62
     7
370
    15
100
AcDbSpline
210
0.0
220
0.0
230
1.0
 70
     8
 71
     3
 72
    11
 73
     7
 74
     0
 42
0.00000001
 43
0.00000001
 12
1.0
 22
0.0
 32
0.0
 13
1.0
 23
0.0
 33
0.0
 40
0.0
 40
0.0
 40
0.0
 40
0.0
 40
0.2164525514905134
 40
0.4403060320459654
 40
0.7518959555785477
 40
1.0
 40
1.0
 40
1.0
 40
1.0
 10
221.7408829001494
 20
115.4857524397686
 30
0.0
 10
221.583614772132
 20
115.4379153318359
 30
0.0
 10
221.2637012163075
 20
115.3406054732393
 30
0.0
 10
220.6961792329261
 20
115.1291829380311
 30
0.0
 10
220.1231397943626
 20
114.8602521330773
 30
0.0
 10
219.7805107702709
 20
114.6597552508006
 30
0.0
 10
219.6286283997603
 20
114.5708779531434
 30
0.0
  0
SPLINE
  5
76
330
1F
100
AcDbEntity
  8
0
  6
Continuous
 62
     7
370
    15
100
AcDbSpline
210
0.0
220
0.0
230
1.0
 70
     8
 71
     3
 72
    11
 73
     7
 74
     0
 42
0.00000001
 43
0.00000001
 12
1.0
 22
0.0
 32
0.0
 13
1.0
 23
0.0
 33
0.0
 40
0.0
 40
0.0
 40
0.0
 40
0.0
 40
0.2164525840874304
 40
0.4403053696057934
 40
0.7518958001073831
 40
1.0
 40
1.0
 40
1.0
 40
1.0
 10
222.0668309001036
 20
117.733317865701
 30
0.0
 10
222.0319244765822
 20
117.5941912730565
 30
0.0
 10
221.9609182293016
 20
117.3111815503745
 30
0.0
 10
221.855308930708
 20
116.7551467412842
 30
0.0
 10
221.7777525259222
 20
116.1165556140932
 30
0.0
 10
221.7522068940198
 20
115.6794948803215
 30
0.0
 10
221.7408829001494
 20
115.4857524397686
 30
0.0
  0
LINE
  5
77
330
1F
100
AcDbEntity
  8
0
  6
Continuous
 62
     7
370
    15
100
AcDbLine
 10
217.8555131523
 20
116.1049934762
 30
0.0
 11
218.2476260332
 21
115.8124566737
 31
0.0
  0
LINE
  5
78
330
1F
100
AcDbEntity
  8
0
  6
Continuous
 62
     7
370
    15
100
AcDbLine
 10
218.2476260332
 20
115.8124566737
 30
0.0
 11
219.1407792834
 21
115.146111204
 31
0.0
  0
LINE
  5
79
330
1F
100
AcDbEntity
  8
0
  6
Continuous
 62
     7
370
    15
100
AcDbLine
 10
219.1407792834
 20
115.146111204
 30
0.0
 11
219.6286283998
 21
114.5708779531
 31
0.0
  0
ARC
  5
7A
330
1F
100
AcDbEntity
  8
0
  6
Continuous
 62
     7
370
    15
100
AcDbCircle
 10
219.402761741
 20
117.4690990249
 30
0.0
 40
5.752500275693305
100
AcDbArc
 50
41.9900769033
 51
218.6115377678
  0
LINE
  5
7B
330
1F
100
AcDbEntity
  8
0
  6
Continuous
 62
     7
370
    15
100
AcDbLine
 10
221.2530375091
 20
116.0609856906
 30
0.0
 11
221.7408829001
 21
115.4857524398
 31
0.0
  0
LINE
  5
7C
330
1F
100
AcDbEntity
  8
0
  6
Continuous
 62
     7
370
    15
100
AcDbLine
 10
221.2530375091
 20
116.0609856906
 30
0.0
 11
221.4160077838
 21
117.1847684036
 31
0.0
  0
LINE
  5
7D
330
1F
100
AcDbEntity
  8
0
  6
Continuous
 62
     7
370
    15
100
AcDbLine
 10
221.4160077838
 20
117.1847684036
 30
0.0
 11
221.5534002153
 21
118.1321376662
 31
0.0
  0
LINE
  5
7E
330
1F
100
AcDbEntity
  8
0
  6
Continuous
 62
     7
370
    15
100
AcDbLine
 10
219.1407792834
 20
115.146111204
 30
0.0
 11
220.1969065336
 21
115.603548913
 31
0.0
  0
LINE
  5
7F
330
1F
100
AcDbEntity
  8
0
  6
Continuous
 62
     7
370
    15
100
AcDbLine
 10
220.1969065336
 20
115.603548913
 30
0.0
 11
221.2530375091
 21
116.0609856906
 31
0.0
  0
ARC
  5
80
330
1F
100
AcDbEntity
  8
0
  6
Continuous
 62
     7
370
    15
100
AcDbCircle
 10
219.3580236102
 20
117.301454602
 30
0.0
 40
1.857443837490686
100
AcDbArc
 50
215.6288177138
 51
233.2868245993
  0
ARC
  5
81
330
1F
100
AcDbEntity
  8
0
  6
Continuous
 62
     7
370
    15
100
AcDbCircle
 10
219.5337124562
 20
117.4662237516
 30
0.0
 40
1.903221693145103
100
AcDbArc
 50
351.4956998545
 51
32.1603423682
  0
ARC
  5
82
330
1F
100
AcDbEntity
  8
0
  6
Continuous
 62
     7
370
    15
100
AcDbCircle
 10
219.3837469357
 20
117.4910511655
 30
0.0
 40
2.055211250688737
100
AcDbArc
 50
293.3069824838
 51
351.4294335858
  0
ARC
  5
83
330
1F
100
AcDbEntity
  8
0
  6
Continuous
 62
     7
370
    15
100
AcDbCircle
 10
219.4026487447
 20
117.3911188885
 30
0.0
 40
1.95608073778533
100
AcDbArc
 50
233.8090616025
 51
293.9566604024
  0
ARC
  5
84
330
1F
100
AcDbEntity
  8
0
  6
Continuous
 62
     7
370
    15
100
AcDbCircle
 10
218.9910091757
 20
117.3421551335
 30
0.0
 40
5.602600518990622
100
AcDbArc
 50
202.4167146405
 51
250.3637009808
  0
LWPOLYLINE
  5
85
330
1F
100
AcDbEntity
  8
0
  6
Continuous
 62
     7
370
    15
100
AcDbPolyline
 90
       28
 70
   128
 43
0.0
 10
225.1086384622
 20
118.8503796893
 10
225.1041047839
 20
118.8749507728
 10
224.9095403222
 20
119.6276247228
 10
224.6147506503
 20
120.3440874542
 10
224.2249958781
 20
121.0115542362
 10
223.7472311226
 20
121.618113686
 10
223.1899835733
 20
122.152941507
 10
222.5631960301
 20
122.6064940874
 10
221.8780480889
 20
122.9706776521
 10
221.1467773286
 20
123.2389933157
 10
220.3824222652
 20
123.4066529741
 10
219.5986323623
 20
123.4706646955
 10
218.8093849091
 20
123.4298863292
 10
218.0287726788
 20
123.2850454708
 10
217.2707208065
 20
123.0387267151
 10
216.5487595467
 20
122.6953258465
 10
215.8757672278
 20
122.2609707347
 10
215.2637616364
 20
121.7434124282
 10
214.7236541478
 20
121.1518866203
 10
214.2650932638
 20
120.4969496193
 10
213.8962522713
 20
119.7902881267
 10
213.623721209
 20
119.0445129487
 10
213.4523578552
 20
118.2729326847
 10
213.3852225361
 20
117.4893155421
 10
213.4235129325
 20
116.707645795
 10
213.5665473161
 20
115.9418723273
 10
213.8117701379
 20
115.2056590381
 10
213.8117701379
 20
115.2056590381
  0
LWPOLYLINE
  5
86
330
1F
100
AcDbEntity
  8
0
  6
Continuous
 62
     7
370
    15
100
AcDbPolyline
 90
       43
 70
   128
 43
0.0
 10
213.7034684984
 20
121.8407407596
 10
213.2147402135
 20
121.1203348084
 10
212.8178421972
 20
120.3483394074
 10
212.5189509807
 20
119.5367602358
 10
212.322712001
 20
118.6982197414
 10
212.2321799962
 20
117.8457596998
 10
212.2487612633
 20
116.9926370221
 10
212.3721968947
 20
116.1521202612
 10
212.6005683658
 20
115.3372819262
 10
212.9303254751
 20
114.5607945236
 10
213.3563366351
 20
113.8347335818
 10
213.8719782797
 20
113.170391387
 10
214.4692317216
 20
112.5781009632
 10
215.1388042239
 20
112.0670730906
 10
215.8702873258
 20
111.6452556762
 10
216.6523039905
 20
111.319208956
 10
217.47268742
 20
111.0940030503
 10
218.3186822204
 20
110.9731425258
 10
219.1771306662
 20
110.9585049289
 10
220.0346850423
 20
111.0503184336
 10
220.8780013589
 20
111.2471553224
 10
221.6939665941
 20
111.5459552693
 10
222.4698961345
 20
111.942069112
 10
223.1937125889
 20
112.4293380144
 10
223.854169306
 20
113.0001838046
 10
224.4409844843
 20
113.6457272532
 10
224.9450386135
 20
114.3559287029
 10
225.3584899572
 20
115.1197445306
 10
225.6749123899
 20
115.9252938541
 10
225.8893773524
 20
116.7600485223
 10
225.9985544352
 20
117.6110268298
 10
226.0007411806
 20
118.4649932857
 10
225.8959115116
 20
119.3086672301
 10
225.6856896547
 20
120.1289272594
 10
225.373346415
 20
120.9130163497
 10
224.9637395708
 20
121.6487397632
 10
224.4632393686
 20
122.3246555037
 10
223.8796279399
 20
122.9302515003
 10
223.2219875423
 20
123.456109055
 10
222.5005403725
 20
123.8940499043
 10
221.7265070049
 20
124.2372629695
 10
220.9119313029
 20
124.4804104663
 10
220.0694755284
 20
124.6197108721
  0
SPLINE
  5
87
330
1F
100
AcDbEntity
  8
0
  6
Continuous
 62
     7
370
    15
100
AcDbSpline
210
0.0
220
0.0
230
1.0
 70
     8
 71
     3
 72
    14
 73
    10
 74
     0
 42
0.00000001
 43
0.00000001
 12
1.0
 22
0.0
 32
0.0
 13
1.0
 23
0.0
 33
0.0
 40
0.0
 40
0.0
 40
0.0
 40
0.0
 40
0.2406881646426007
 40
0.3654958444037767
 40
0.4913829638745237
 40
0.5985916321469994
 40
0.7015344546291238
 40
0.8683341537274736
 40
1.0
 40
1.0
 40
1.0
 40
1.0
 10
213.7034684983797
 20
121.8407407595679
 30
0.0
 10
213.9257983865914
 20
121.7959444774271
 30
0.0
 10
214.2634163594101
 20
121.72791930057
 30
0.0
 10
214.7472935422226
 20
121.8476476328565
 30
0.0
 10
215.0744672474806
 20
122.0462919906857
 30
0.0
 10
215.3054954219817
 20
122.3241625253482
 30
0.0
 10
215.4637700107491
 20
122.6788445896134
 30
0.0
 10
215.5187345450683
 20
123.0733343621434
 30
0.0
 10
215.4768226626213
 20
123.3489913087457
 30
0.0
 10
215.4583335486956
 20
123.4705953120157
 30
0.0
  0
SPLINE
  5
88
330
1F
100
AcDbEntity
  8
0
  6
Continuous
 62
     7
370
    15
100
AcDbSpline
210
0.0
220
0.0
230
1.0
 70
     8
 71
     3
 72
    14
 73
    10
 74
     0
 42
0.00000001
 43
0.00000001
 12
1.0
 22
0.0
 32
0.0
 13
1.0
 23
0.0
 33
0.0
 40
0.0
 40
0.0
 40
0.0
 40
0.0
 40
0.2547942147319861
 40
0.3869166064408246
 40
0.5201827852531975
 40
0.6336747376209164
 40
0.7426510967262558
 40
0.9192266591622135
 40
1.0
 40
1.0
 40
1.0
 40
1.0
 10
215.4887915221758
 20
123.4905634500921
 30
0.0
 10
215.6932292650778
 20
123.3804273723962
 30
0.0
 10
216.0036772781745
 20
123.2131807279871
 30
0.0
 10
216.5125463842015
 20
123.1738735029901
 30
0.0
 10
216.8902945182545
 20
123.2553932668663
 30
0.0
 10
217.1967735789476
 20
123.4391994183757
 30
0.0
 10
217.452337876681
 20
123.7161656457042
 30
0.0
 10
217.6028480236694
 20
124.0132347139567
 30
0.0
 10
217.637383538712
 20
124.2300983740117
 30
0.0
 10
217.6482230989046
 20
124.2981647310318
 30
0.0
  0
SPLINE
  5
89
330
1F
100
AcDbEntity
  8
0
  6
Continuous
 62
     7
370
    15
100
AcDbSpline
210
0.0
220
0.0
230
1.0
 70
     8
 71
     3
 72
    14
 73
    10
 74
     0
 42
0.00000001
 43
0.00000001
 12
1.0
 22
0.0
 32
0.0
 13
1.0
 23
0.0
 33
0.0
 40
0.0
 40
0.0
 40
0.0
 40
0.0
 40
0.2026621482335804
 40
0.3337207537324295
 40
0.4659129660531935
 40
0.5784902187575485
 40
0.6865873920144481
 40
0.8617403829871968
 40
1.0
 40
1.0
 40
1.0
 40
1.0
 10
217.8192400006361
 20
124.3645279191571
 30
0.0
 10
217.9526907205519
 20
124.2320570214764
 30
0.0
 10
218.1724420417759
 20
124.0139191589948
 30
0.0
 10
218.6062253381285
 20
123.836909152637
 30
0.0
 10
218.9900728029772
 20
123.7889908493026
 30
0.0
 10
219.3336629357143
 20
123.857871510577
 30
0.0
 10
219.6550806879812
 20
124.0269595248898
 30
0.0
 10
219.9096797945603
 20
124.2874668266003
 30
0.0
 10
220.0205610817254
 20
124.5180089477068
 30
0.0
 10
220.0694755283899
 20
124.6197108721264
 30
0.0
  0
LINE
  5
8A
330
1F
100
AcDbEntity
  8
0
  6
Continuous
 62
     7
370
    15
100
AcDbLine
 10
212.9061781434
 20
122.7808462881
 30
0.0
 11
213.7034684984
 21
121.8407407596
 31
0.0
  0
SPLINE
  5
8B
330
1F
100
AcDbEntity
  8
0
  6
Continuous
 62
     7
370
    15
100
AcDbSpline
210
0.0
220
0.0
230
1.0
 70
     8
 71
     3
 72
    16
 73
    12
 74
     0
 42
0.00000001
 43
0.00000001
 12
1.0
 22
0.0
 32
0.0
 13
1.0
 23
0.0
 33
0.0
 40
0.0
 40
0.0
 40
0.0
 40
0.0
 40
0.117270087095249
 40
0.223066727535028
 40
0.3296962791859485
 40
0.3991555086961297
 40
0.4688595369309829
 40
0.5507983186265781
 40
0.6793860108656106
 40
0.9317465530817997
 40
1.0
 40
1.0
 40
1.0
 40
1.0
 10
214.5517655281134
 20
124.1795758341924
 30
0.0
 10
214.5318295650041
 20
124.1294452222191
 30
0.0
 10
214.4939081294428
 20
124.0340886667734
 30
0.0
 10
214.3516281013033
 20
123.8385393444813
 30
0.0
 10
214.1912874993017
 20
123.6468895384229
 30
0.0
 10
214.0073262140268
 20
123.4600988044871
 30
0.0
 10
213.8254662428439
 20
123.2965642770836
 30
0.0
 10
213.6052726781218
 20
123.1232601815551
 30
0.0
 10
213.2977777043255
 20
122.9229670653599
 30
0.0
 10
213.0705241515483
 20
122.823529291708
 30
0.0
 10
212.9350239157827
 20
122.7883379468592
 30
0.0
 10
212.9061781434126
 20
122.7808462881386
 30
0.0
  0
SPLINE
  5
8C
330
1F
100
AcDbEntity
  8
0
  6
Continuous
 62
     7
370
    15
100
AcDbSpline
210
0.0
220
0.0
230
1.0
 70
     8
 71
     3
 72
    14
 73
    10
 74
     0
 42
0.00000001
 43
0.00000001
 12
1.0
 22
0.0
 32
0.0
 13
1.0
 23
0.0
 33
0.0
 40
0.0
 40
0.0
 40
0.0
 40
0.0
 40
0.3137450446048443
 40
0.4695533955902623
 40
0.6265908423721567
 40
0.7288840096773422
 40
0.8315404647973555
 40
0.9522137890536877
 40
1.0
 40
1.0
 40
1.0
 40
1.0
 10
216.7855240968771
 20
125.2973327373058
 30
0.0
 10
216.707320237137
 20
125.2140676919811
 30
0.0
 10
216.5902797020889
 20
125.0894525452608
 30
0.0
 10
216.3145444509867
 20
124.8976051978268
 30
0.0
 10
216.0847747718405
 20
124.7612603303422
 30
0.0
 10
215.8440999322289
 20
124.6423225748385
 30
0.0
 10
215.6233208705139
 20
124.5512354418781
 30
0.0
 10
215.4486679387602
 20
124.4901433877446
 30
0.0
 10
215.3690600255777
 20
124.4734155029833
 30
0.0
 10
215.346477982194
 20
124.4686703739591
 30
0.0
  0
SPLINE
  5
8D
330
1F
100
AcDbEntity
  8
0
  6
Continuous
 62
     7
370
    15
100
AcDbSpline
210
0.0
220
0.0
230
1.0
 70
     8
 71
     3
 72
    13
 73
     9
 74
     0
 42
0.00000001
 43
0.00000001
 12
1.0
 22
0.0
 32
0.0
 13
1.0
 23
0.0
 33
0.0
 40
0.0
 40
0.0
 40
0.0
 40
0.0
 40
0.4268111704150249
 40
0.5846766848191091
 40
0.7437868606346573
 40
0.8474324315463337
 40
0.951442875929152
 40
1.0
 40
1.0
 40
1.0
 40
1.0
 10
219.2721851734228
 20
125.5598164589048
 30
0.0
 10
219.1161691145042
 20
125.4760369562478
 30
0.0
 10
218.9024470790232
 20
125.3612697587969
 30
0.0
 10
218.4985081147477
 20
125.2382181608181
 30
0.0
 10
218.2229792910926
 20
125.1779468198037
 30
0.0
 10
217.9564355760786
 20
125.1445097136984
 30
0.0
 10
217.7666865101448
 20
125.1330591397914
 30
0.0
 10
217.6770325952048
 20
125.1382515968095
 30
0.0
 10
217.6484987703867
 20
125.1399041811839
 30
0.0
  0
LINE
  5
8E
330
1F
100
AcDbEntity
  8
0
  6
Continuous
 62
     7
370
    15
100
AcDbLine
 10
220.0694755284
 20
124.6197108721
 30
0.0
 11
219.2721851734
 21
125.5598164589
 31
0.0
  0
ARC
  5
8F
330
1F
100
AcDbEntity
  8
0
  6
Continuous
 62
     7
370
    15
100
AcDbCircle
 10
218.2175544019
 20
118.5458808754
 30
0.0
 40
6.79305894325853
100
AcDbArc
 50
141.4332917246
 51
219.6015060367
  0
ARC
  5
90
330
1F
100
AcDbEntity
  8
0
  6
Continuous
 62
     7
370
    15
100
AcDbCircle
 10
218.6307279407
 20
118.9783653033
 30
0.0
 40
6.612636894199553
100
AcDbArc
 50
40.4767873403
 51
84.4332830653
  0
SPLINE
  5
91
330
1F
100
AcDbEntity
  8
0
  6
Continuous
 62
     7
370
    15
100
AcDbSpline
210
0.0
220
0.0
230
1.0
 70
     8
 71
     3
 72
    10
 73
     6
 74
     0
 42
0.00000001
 43
0.00000001
 12
1.0
 22
0.0
 32
0.0
 13
1.0
 23
0.0
 33
0.0
 40
0.0
 40
0.0
 40
0.0
 40
0.0
 40
0.3401614919090448
 40
0.6905230892086235
 40
1.0
 40
1.0
 40
1.0
 40
1.0
 10
222.0492102769919
 20
128.961595213683
 30
0.0
 10
221.8502061434446
 20
129.3608634337414
 30
0.0
 10
221.4462305250079
 20
130.1713723575772
 30
0.0
 10
220.6296457931309
 20
131.2102550802194
 30
0.0
 10
219.9802832682448
 20
131.7799205805863
 30
0.0
 10
219.6757197944231
 20
132.0471046219483
 30
0.0
  0
SPLINE
  5
92
330
1F
100
AcDbEntity
  8
0
  6
Continuous
 62
     7
370
    15
100
AcDbSpline
210
0.0
220
0.0
230
1.0
 70
     8
 71
     3
 72
    14
 73
    10
 74
     0
 42
0.00000001
 43
0.00000001
 12
1.0
 22
0.0
 32
0.0
 13
1.0
 23
0.0
 33
0.0
 40
0.0
 40
0.0
 40
0.0
 40
0.0
 40
0.1271125480604814
 40
0.2544451932785024
 40
0.4212687389516805
 40
0.5883290049447382
 40
0.7932263975267047
 40
0.9982397250856863
 40
1.0
 40
1.0
 40
1.0
 40
1.0
 10
219.6757197944231
 20
132.0471046219483
 30
0.0
 10
219.3403180671408
 20
132.2936100917068
 30
0.0
 10
218.668933859787
 20
132.7870478588977
 30
0.0
 10
217.4672139491319
 20
133.3960657847123
 30
0.0
 10
216.1257072112088
 20
133.875963516077
 30
0.0
 10
214.5609153241879
 20
134.1948044330689
 30
0.0
 10
212.9240581468548
 20
134.2790623892191
 30
0.0
 10
211.8093044289125
 20
134.1522922980714
 30
0.0
 10
211.2690733900391
 20
134.0429456799445
 30
0.0
 10
211.264474373848
 20
134.0420148062423
 30
0.0
  0
SPLINE
  5
93
330
1F
100
AcDbEntity
  8
0
  6
Continuous
 62
     7
370
    15
100
AcDbSpline
210
0.0
220
0.0
230
1.0
 70
     8
 71
     3
 72
    14
 73
    10
 74
     0
 42
0.00000001
 43
0.00000001
 12
1.0
 22
0.0
 32
0.0
 13
1.0
 23
0.0
 33
0.0
 40
0.0
 40
0.0
 40
0.0
 40
0.0
 40
0.1271126399093334
 40
0.2544452984373337
 40
0.4212689345661106
 40
0.5883290234122256
 40
0.793226462416043
 40
0.9982398472026713
 40
1.0
 40
1.0
 40
1.0
 40
1.0
 10
207.6722980109759
 20
126.7901542323545
 30
0.0
 10
207.7103779143577
 20
127.200227864356
 30
0.0
 10
207.7866036334313
 20
128.0210849227126
 30
0.0
 10
208.0933266966681
 20
129.2907312430586
 30
0.0
 10
208.5618286760783
 20
130.5633296159381
 30
0.0
 10
209.2610738891849
 20
131.8737174298078
 30
0.0
 10
210.1523133085757
 20
133.0651638119496
 30
0.0
 10
210.8782380511845
 20
133.7445282011249
 30
0.0
 10
211.2612143013747
 20
134.0395038360523
 30
0.0
 10
211.264474373848
 20
134.0420148062423
 30
0.0
  0
SPLINE
  5
94
330
1F
100
AcDbEntity
  8
0
  6
Continuous
 62
     7
370
    15
100
AcDbSpline
210
0.0
220
0.0
230
1.0
 70
     8
 71
     3
 72
    10
 73
     6
 74
     0
 42
0.00000001
 43
0.00000001
 12
1.0
 22
0.0
 32
0.0
 13
1.0
 23
0.0
 33
0.0
 40
0.0
 40
0.0
 40
0.0
 40
0.0
 40
0.340161435184696
 40
0.6905232740617634
 40
1.0
 40
1.0
 40
1.0
 40
1.0
 10
208.3527427730866
 20
122.963168747434
 30
0.0
 10
208.1946563163585
 20
123.3803568841799
 30
0.0
 10
207.8737428723479
 20
124.2272433571543
 30
0.0
 10
207.6554732973298
 20
125.5281601135575
 30
0.0
 10
207.6669263250614
 20
126.3872329003955
 30
0.0
 10
207.6722980109759
 20
126.7901542323545
 30
0.0
  0
SPLINE
  5
95
330
1F
100
AcDbEntity
  8
0
  6
Continuous
 62
     7
370
    15
100
AcDbSpline
210
0.0
220
0.0
230
1.0
 70
     8
 71
     3
 72
    10
 73
     6
 74
     0
 42
0.00000001
 43
0.00000001
 12
1.0
 22
0.0
 32
0.0
 13
1.0
 23
0.0
 33
0.0
 40
0.0
 40
0.0
 40
0.0
 40
0.0
 40
0.1480668361099068
 40
0.9078077509562003
 40
1.0
 40
1.0
 40
1.0
 40
1.0
 10
206.8302222160406
 20
125.2972696402013
 30
0.0
 10
206.8491626132096
 20
125.2503090288496
 30
0.0
 10
206.9652874647153
 20
124.9623903558045
 30
0.0
 10
207.1185305130086
 20
124.5858259679227
 30
0.0
 10
207.2705144387357
 20
124.2555946602542
 30
0.0
 10
207.2869614330835
 20
124.2198585623429
 30
0.0
  0
ARC
  5
96
330
1F
100
AcDbEntity
  8
0
  6
Continuous
 62
     7
370
    15
100
AcDbCircle
 10
214.1291045114
 20
127.1765902221
 30
0.0
 40
7.536944248925028
100
AcDbArc
 50
42.350508249
 51
194.438922617
  0
ARC
  5
97
330
1F
100
AcDbEntity
  8
0
  6
Continuous
 62
     7
370
    15
100
AcDbCircle
 10
-138.0972523104
 20
-28.1597901492
 30
0.0
 40
392.928243134276
100
AcDbArc
 50
22.6722165149
 51
23.5702377445
  0
SPLINE
  5
98
330
1F
100
AcDbEntity
  8
0
  6
Continuous
 62
     7
370
    15
100
AcDbSpline
210
0.0
220
0.0
230
1.0
 70
     8
 71
     3
 72
     9
 73
     5
 74
     0
 42
0.00000001
 43
0.00000001
 12
1.0
 22
0.0
 32
0.0
 13
1.0
 23
0.0
 33
0.0
 40
0.0
 40
0.0
 40
0.0
 40
0.0
 40
0.8163754358834623
 40
1.0
 40
1.0
 40
1.0
 40
1.0
 10
224.4675048259802
 20
123.2977984200135
 30
0.0
 10
224.749012123386
 20
122.6118289689828
 30
0.0
 10
225.093837904555
 20
121.7715667307048
 30
0.0
 10
225.3474771774964
 20
120.9260551910557
 30
0.0
 10
225.3940515784331
 20
120.7707985031322
 30
0.0
  0
SPLINE
  5
99
330
1F
100
AcDbEntity
  8
0
  6
Continuous
 62
     7
370
    15
100
AcDbSpline
210
0.0
220
0.0
230
1.0
 70
     8
 71
     3
 72
    14
 73
    10
 74
     0
 42
0.00000001
 43
0.00000001
 12
1.0
 22
0.0
 32
0.0
 13
1.0
 23
0.0
 33
0.0
 40
0.0
 40
0.0
 40
0.0
 40
0.0
 40
0.0042988958375609
 40
0.170585796228012
 40
0.3368864372119922
 40
0.5005154547816575
 40
0.6641612439292827
 40
0.8320717565105822
 40
1.0
 40
1.0
 40
1.0
 40
1.0
 10
225.869163927228
 20
119.2216979998067
 30
0.0
 10
225.874837218326
 20
119.2032553175949
 30
0.0
 10
226.0999608118601
 20
118.4714256225841
 30
0.0
 10
226.3969974375533
 20
117.0306033272307
 30
0.0
 10
226.7426905717676
 20
114.9335111999674
 30
0.0
 10
226.9107497938067
 20
112.8891202291481
 30
0.0
 10
226.9333539096758
 20
110.8935421121446
 30
0.0
 10
226.8186897628028
 20
108.9412735980813
 30
0.0
 10
226.6283099157207
 20
107.6949361144545
 30
0.0
 10
226.5331149665423
 20
107.0717344718889
 30
0.0
  0
SPLINE
  5
9A
330
1F
100
AcDbEntity
  8
0
  6
Continuous
 62
     7
370
    15
100
AcDbSpline
210
0.0
220
0.0
230
1.0
 70
     8
 71
     3
 72
    15
 73
    11
 74
     0
 42
0.00000001
 43
0.00000001
 12
1.0
 22
0.0
 32
0.0
 13
1.0
 23
0.0
 33
0.0
 40
0.0
 40
0.0
 40
0.0
 40
0.0
 40
0.1220877140731328
 40
0.2441780741810411
 40
0.3704039908719263
 40
0.4966403314803392
 40
0.6208486815584293
 40
0.7450697825005513
 40
0.8725281894738502
 40
0.9999999999999999
 40
0.9999999999999999
 40
0.9999999999999999
 40
0.9999999999999999
 10
210.7710373220749
 20
117.2993718373493
 30
0.0
 10
211.0656262635728
 20
116.6231338906354
 30
0.0
 10
211.6548105312616
 20
115.2706433409491
 30
0.0
 10
212.6597421626742
 20
113.3351019502682
 30
0.0
 10
213.7496371306678
 20
111.4862204587456
 30
0.0
 10
214.9169967250414
 20
109.7558229730242
 30
0.0
 10
216.1351285443513
 20
108.1695132952346
 30
0.0
 10
217.4018653249476
 20
106.719290900556
 30
0.0
 10
218.7127206306236
 20
105.3912017858807
 30
0.0
 10
219.6108602605349
 20
104.6216052111501
 30
0.0
 10
220.0599536863871
 20
104.2367866921142
 30
0.0
  0
ARC
  5
9B
330
1F
100
AcDbEntity
  8
0
  6
Continuous
 62
     7
370
    15
100
AcDbCircle
 10
-151.8358361758
 20
-34.1761960976
 30
0.0
 40
392.9740352607558
100
AcDbArc
 50
22.6722684048
 51
23.570185004
  0
SPLINE
  5
9C
330
1F
100
AcDbEntity
  8
0
  6
Continuous
 62
     7
370
    15
100
AcDbSpline
210
0.0
220
0.0
230
1.0
 70
     8
 71
     3
 72
    16
 73
    12
 74
     0
 42
0.00000001
 43
0.00000001
 12
1.0
 22
0.0
 32
0.0
 13
1.0
 23
0.0
 33
0.0
 40
0.0
 40
0.0
 40
0.0
 40
0.0
 40
0.1232575564690716
 40
0.2465362358320007
 40
0.3688824558773443
 40
0.4876913149550742
 40
0.6024706661488567
 40
0.7153160231556872
 40
0.8294048353445234
 40
0.9470266492752503
 40
1.0
 40
1.0
 40
1.0
 40
1.0
 10
214.0364312199659
 20
124.8914978659615
 30
0.0
 10
213.981530502354
 20
125.0612078502191
 30
0.0
 10
213.8717196586844
 20
125.4006569022736
 30
0.0
 10
213.9300979509658
 20
125.9414513245016
 30
0.0
 10
214.1507571413672
 20
126.4234950258953
 30
0.0
 10
214.5177264027449
 20
126.792112440454
 30
0.0
 10
214.9744887363844
 20
127.0060259081668
 30
0.0
 10
215.4716037313419
 20
127.055435666533
 30
0.0
 10
215.9541744359092
 20
126.9340149358761
 30
0.0
 10
216.3234581068249
 20
126.7281591554613
 30
0.0
 10
216.4698319591358
 20
126.5308243873817
 30
0.0
 10
216.5152840880461
 20
126.469547833027
 30
0.0
  0
SPLINE
  5
9D
330
1F
100
AcDbEntity
  8
0
  6
Continuous
 62
     7
370
    15
100
AcDbSpline
210
0.0
220
0.0
230
1.0
 70
     8
 71
     3
 72
     9
 73
     5
 74
     0
 42
0.00000001
 43
0.00000001
 12
1.0
 22
0.0
 32
0.0
 13
1.0
 23
0.0
 33
0.0
 40
0.0
 40
0.0
 40
0.0
 40
0.0
 40
0.3014711815164132
 40
1.0
 40
1.0
 40
1.0
 40
1.0
 10
214.290719535739
 20
124.5129890612463
 30
0.0
 10
214.2568963748867
 20
124.5447166260353
 30
0.0
 10
214.1447026962665
 20
124.6499590728571
 30
0.0
 10
214.0809584282139
 20
124.7921637799401
 30
0.0
 10
214.0364312199659
 20
124.8914978659615
 30
0.0
  0
LINE
  5
9E
330
1F
100
AcDbEntity
  8
0
  6
Continuous
 62
     7
370
    15
100
AcDbLine
 10
209.6200828073
 20
118.6564918334
 30
0.0
 11
207.9101279942
 21
122.7974663216
 31
0.0
  0
ARC
  5
9F
330
1F
100
AcDbEntity
  8
0
  6
Continuous
 62
     7
370
    15
100
AcDbCircle
 10
173.7706360668
 20
108.688262768
 30
0.0
 40
36.9401479961876
100
AcDbArc
 50
22.4543782711
 51
24.8631901441
  0
SPLINE
  5
A0
330
1F
100
AcDbEntity
  8
0
  6
Continuous
 62
     7
370
    15
100
AcDbSpline
210
0.0
220
0.0
230
1.0
 70
     8
 71
     3
 72
    12
 73
     8
 74
     0
 42
0.00000001
 43
0.00000001
 12
1.0
 22
0.0
 32
0.0
 13
1.0
 23
0.0
 33
0.0
 40
0.0
 40
0.0
 40
0.0
 40
0.0
 40
0.2188996715533486
 40
0.4437468339735263
 40
0.6628055193115954
 40
0.8894870899423876
 40
1.0
 40
1.0
 40
1.0
 40
1.0
 10
220.0599536863871
 20
104.2367866921142
 30
0.0
 10
220.1932933616537
 20
104.1290086607617
 30
0.0
 10
220.4635955431176
 20
103.9105242754486
 30
0.0
 10
220.7923041052599
 20
103.6701790340089
 30
0.0
 10
221.0422786781252
 20
103.5069646115055
 30
0.0
 10
221.1853419611108
 20
103.4316056479924
 30
0.0
 10
221.1997546888701
 20
103.4457792023015
 30
0.0
 10
221.2044783500738
 20
103.4504244762376
 30
0.0
  0
SPLINE
  5
A1
330
1F
100
AcDbEntity
  8
0
  6
Continuous
 62
     7
370
    15
100
AcDbSpline
210
0.0
220
0.0
230
1.0
 70
     8
 71
     3
 72
     9
 73
     5
 74
     0
 42
0.00000001
 43
0.00000001
 12
1.0
 22
0.0
 32
0.0
 13
1.0
 23
0.0
 33
0.0
 40
0.0
 40
0.0
 40
0.0
 40
0.0
 40
0.1094368500839246
 40
1.0
 40
1.0
 40
1.0
 40
1.0
 10
215.6294361321039
 20
108.7909550133065
 30
0.0
 10
215.6190387262659
 20
108.8028643444857
 30
0.0
 10
215.5240304559249
 20
108.9116881197501
 30
0.0
 10
215.4150550601592
 20
109.0442575284328
 30
0.0
 10
215.3180055884428
 20
109.1623189586118
 30
0.0
  0
ARC
  5
A2
330
1F
100
AcDbEntity
  8
0
  6
Continuous
 62
     7
370
    15
100
AcDbCircle
 10
244.0444154328
 20
132.859347582
 30
0.0
 40
37.2391700783383
100
AcDbArc
 50
202.4201563772
 51
219.5199496388
  0
SPLINE
  5
A3
330
1F
100
AcDbEntity
  8
0
  6
Continuous
 62
     7
370
    15
100
AcDbSpline
210
0.0
220
0.0
230
1.0
 70
     8
 71
     3
 72
    12
 73
     8
 74
     0
 42
0.00000001
 43
0.00000001
 12
1.0
 22
0.0
 32
0.0
 13
1.0
 23
0.0
 33
0.0
 40
0.0
 40
0.0
 40
0.0
 40
0.0
 40
0.2188996626135404
 40
0.4437468167975666
 40
0.66280561609934
 40
0.8894871154212163
 40
1.0
 40
1.0
 40
1.0
 40
1.0
 10
226.5331149665423
 20
107.0717344718889
 30
0.0
 10
226.4978175252849
 20
106.8901011637702
 30
0.0
 10
226.4262636132686
 20
106.5218995807262
 30
0.0
 10
226.2925476560701
 20
106.07903635482
 30
0.0
 10
226.1458834289771
 20
105.7421071845115
 30
0.0
 10
226.0177991858852
 20
105.5480002675537
 30
0.0
 10
225.9435230960592
 20
105.5233330671316
 30
0.0
 10
225.9191796747751
 20
105.5152485805467
 30
0.0
  0
LINE
  5
A4
330
1F
100
AcDbEntity
  8
0
  6
Continuous
 62
     7
370
    15
100
AcDbLine
 10
217.1919793455
 20
106.9881277817
 30
0.0
 11
218.5153216688
 21
104.3038419175
 31
0.0
  0
LINE
  5
A5
330
1F
100
AcDbEntity
  8
0
  6
Continuous
 62
     7
370
    15
100
AcDbLine
 10
232.2875559894
 20
97.8631800699
 30
0.0
 11
226.7934233514
 21
109.0075303527
 31
0.0
  0
ARC
  5
A6
330
1F
100
AcDbEntity
  8
0
  6
Continuous
 62
     7
370
    15
100
AcDbCircle
 10
231.9209037198
 20
97.6934623427
 30
0.0
 40
0.4040272190387185
100
AcDbArc
 50
243.3528922297
 51
24.8386965044
  0
LINE
  5
A7
330
1F
100
AcDbEntity
  8
0
  6
Continuous
 62
     7
370
    15
100
AcDbLine
 10
218.6774574784
 20
104.1382155108
 30
0.0
 11
231.739699897
 21
97.3323485541
 31
0.0
  0
ARC
  5
A8
330
1F
100
AcDbEntity
  8
0
  6
Continuous
 62
     7
370
    15
100
AcDbCircle
 10
218.8490994526
 20
104.4684127012
 30
0.0
 40
0.3721439934004717
100
AcDbArc
 50
206.2458293604
 51
242.5338413513
  0
ARC
  5
A9
330
1F
100
AcDbEntity
  8
0
  6
Continuous
 62
     7
370
    15
100
AcDbCircle
 10
231.9214850367
 20
97.6928209192
 30
0.0
 40
0.3838280820625926
100
AcDbArc
 50
243.3529825435
 51
24.8379874012
  0
LINE
  5
AA
330
1F
100
AcDbEntity
  8
0
  6
Continuous
 62
     7
370
    15
100
AcDbLine
 10
232.2698087064
 20
97.8540493834
 30
0.0
 11
226.7909609346
 21
108.967396869
 31
0.0
  0
LINE
  5
AB
330
1F
100
AcDbEntity
  8
0
  6
Continuous
 62
     7
370
    15
100
AcDbLine
 10
217.24323934
 20
106.9292830962
 30
0.0
 11
218.533072677
 21
104.3129707414
 31
0.0
  0
ARC
  5
AC
330
1F
100
AcDbEntity
  8
0
  6
Continuous
 62
     7
370
    15
100
AcDbCircle
 10
218.8501488206
 20
104.4693010826
 30
0.0
 40
0.3535200933446389
100
AcDbArc
 50
206.245012953
 51
242.5348655714
  0
LINE
  5
AD
330
1F
100
AcDbEntity
  8
0
  6
Continuous
 62
     7
370
    15
100
AcDbLine
 10
218.687102255
 20
104.155625655
 30
0.0
 11
231.7493409483
 21
97.349760561
 31
0.0
  0
LINE
  5
AE
330
1F
100
AcDbEntity
  8
0
  6
Continuous
 62
     7
370
    15
100
AcDbLine
 10
219.0507874457
 20
104.8152572202
 30
0.0
 11
218.8322209386
 21
104.5313658851
 31
0.0
  0
LINE
  5
AF
330
1F
100
AcDbEntity
  8
0
  6
Continuous
 62
     7
370
    15
100
AcDbLine
 10
226.9478291837
 20
104.1358033853
 30
0.0
 11
226.1460573045
 21
105.7621198433
 31
0.0
  0
ARC
  5
B0
330
1F
100
AcDbEntity
  8
0
  6
Continuous
 62
     7
370
    15
100
AcDbCircle
 10
226.031189123
 20
103.7115162119
 30
0.0
 40
1.01007356493382
100
AcDbArc
 50
243.3531721564
 51
24.8381050558
  0
LINE
  5
B1
330
1F
100
AcDbEntity
  8
0
  6
Continuous
 62
     7
370
    15
100
AcDbLine
 10
222.9282744793
 20
104.1894159007
 30
0.0
 11
225.578181502
 21
102.8087245959
 31
0.0
  0
LINE
  5
B2
330
1F
100
AcDbEntity
  8
0
  6
Continuous
 62
     7
370
    15
100
AcDbLine
 10
229.5396924583
 20
100.146881743
 30
0.0
 11
231.8944633571
 21
97.7254989284
 31
0.0
  0
LINE
  5
B3
330
1F
100
AcDbEntity
  8
0
  6
Continuous
 62
     7
370
    15
100
AcDbLine
 10
229.5396924583
 20
100.146881743
 30
0.0
 11
228.3896692661
 21
102.4795989233
 31
0.0
  0
LINE
  5
B4
330
1F
100
AcDbEntity
  8
0
  6
Continuous
 62
     7
370
    15
100
AcDbLine
 10
227.2262015013
 20
101.3522888261
 30
0.0
 11
229.5396924583
 21
100.146881743
 31
0.0
  0
SPLINE
  5
B5
330
1F
100
AcDbEntity
  8
0
  6
Continuous
 62
     7
370
    15
100
AcDbSpline
210
0.0
220
0.0
230
1.0
 70
     8
 71
     3
 72
     9
 73
     5
 74
     0
 42
0.00000001
 43
0.00000001
 12
1.0
 22
0.0
 32
0.0
 13
1.0
 23
0.0
 33
0.0
 40
0.0
 40
0.0
 40
0.0
 40
0.0
 40
0.9630339438034532
 40
1.0
 40
1.0
 40
1.0
 40
1.0
 10
219.0507874456949
 20
104.81525722024
 30
0.0
 10
219.0959751270184
 20
104.8732844307236
 30
0.0
 10
219.1428973374081
 20
104.933539015577
 30
0.0
 10
219.2016612759714
 20
104.9902320025636
 30
0.0
 10
219.2038335470266
 20
104.9923277187064
 30
0.0
  0
ARC
  5
B6
330
1F
100
AcDbEntity
  8
0
  6
Continuous
 62
     7
370
    15
100
AcDbCircle
 10
225.8078075813
 20
103.9770291843
 30
0.0
 40
2.473694174689892
100
AcDbArc
 50
304.4299917043
 51
323.7615363068
  0
SPLINE
  5
B7
330
1F
100
AcDbEntity
  8
0
  6
Continuous
 62
     7
370
    15
100
AcDbSpline
210
0.0
220
0.0
230
1.0
 70
     8
 71
     3
 72
    14
 73
    10
 74
     0
 42
0.00000001
 43
0.00000001
 12
1.0
 22
0.0
 32
0.0
 13
1.0
 23
0.0
 33
0.0
 40
0.0
 40
0.0
 40
0.0
 40
0.0
 40
0.2234961830538013
 40
0.35676113389921
 40
0.453121231907647
 40
0.5344630690504893
 40
0.615731828130553
 40
0.7396137869291133
 40
1.0
 40
1.0
 40
1.0
 40
1.0
 10
228.3896692661352
 20
102.4795989232972
 30
0.0
 10
228.3618731796904
 20
102.5301746098686
 30
0.0
 10
228.3175030111152
 20
102.6109072606118
 30
0.0
 10
228.2325435453173
 20
102.6926253650426
 30
0.0
 10
228.1596875865084
 20
102.7292206838934
 30
0.0
 10
228.0910515564402
 20
102.7366407886616
 30
0.0
 10
228.0162958717966
 20
102.7183649418162
 30
0.0
 10
227.9096817204168
 20
102.6507182747357
 30
0.0
 10
227.8460900794353
 20
102.5696468984743
 30
0.0
 10
227.8029993740626
 20
102.5147116470054
 30
0.0
  0
SPLINE
  5
B8
330
1F
100
AcDbEntity
  8
0
  6
Continuous
 62
     7
370
    15
100
AcDbSpline
210
0.0
220
0.0
230
1.0
 70
     8
 71
     3
 72
    14
 73
    10
 74
     0
 42
0.00000001
 43
0.00000001
 12
1.0
 22
0.0
 32
0.0
 13
1.0
 23
0.0
 33
0.0
 40
0.0
 40
0.0
 40
0.0
 40
0.0
 40
0.2210592296993686
 40
0.3460807146397799
 40
0.4396015923481754
 40
0.5338891887348232
 40
0.6146556535257337
 40
0.7517246534842049
 40
1.0
 40
1.0
 40
1.0
 40
1.0
 10
227.2064313856669
 20
101.93668256578
 30
0.0
 10
227.1587391256792
 20
101.9017492383597
 30
0.0
 10
227.0840741979051
 20
101.8470591404397
 30
0.0
 10
227.0100031378871
 20
101.7547659052828
 30
0.0
 10
226.977889949632
 20
101.6770901305972
 30
0.0
 10
226.977465207798
 20
101.6050470379642
 30
0.0
 10
227.0065154256725
 20
101.5289886430528
 30
0.0
 10
227.0841784251851
 20
101.4349827586886
 30
0.0
 10
227.1705516709157
 20
101.3846913302954
 30
0.0
 10
227.2262015012808
 20
101.3522888260797
 30
0.0
  0
ELLIPSE
  5
B9
330
1F
100
AcDbEntity
  8
0
  6
Continuous
 62
     7
370
    15
100
AcDbEllipse
 10
207.0719303048
 20
124.289052068
 30
0.0
 11
1.195939561569958
 21
19.99755988885703
 31
0.0
210
0.0
220
0.0
230
1.0
 40
0.2612235458
 41
0.7918444671403905
 42
2.799869234790859
  0
SPLINE
  5
BA
330
1F
100
AcDbEntity
  8
0
  6
Continuous
 62
     7
370
    15
100
AcDbSpline
210
0.0
220
0.0
230
1.0
 70
     8
 71
     3
 72
    12
 73
     8
 74
     0
 42
0.00000001
 43
0.00000001
 12
1.0
 22
0.0
 32
0.0
 13
1.0
 23
0.0
 33
0.0
 40
0.0
 40
0.0
 40
0.0
 40
0.0
 40
0.4999999999999971
 40
0.4999999999999971
 40
0.7499999999999986
 40
0.7499999999999986
 40
1.0
 40
1.0
 40
1.0
 40
1.0
 10
188.9985789088399
 20
130.4272971950257
 30
0.0
 10
189.0172721419704
 20
130.3597145585853
 30
0.0
 10
189.0429274393821
 20
130.2932319891079
 30
0.0
 10
189.1030880620686
 20
130.2042369062104
 30
0.0
 10
189.1271603738229
 20
130.1762350092112
 30
0.0
 10
189.1855418941735
 20
130.133158608546
 30
0.0
 10
189.2210107218265
 20
130.1182650636183
 30
0.0
 10
189.2583865299753
 20
130.1182650636183
 30
0.0
  0
LINE
  5
BB
330
1F
100
AcDbEntity
  8
0
  6
Continuous
 62
     7
370
    15
100
AcDbLine
 10
189.2583864374
 20
130.1182652551
 30
0.0
 11
191.3945824472
 21
130.1182652551
 31
0.0
  0
SPLINE
  5
BC
330
1F
100
AcDbEntity
  8
0
  6
Continuous
 62
     7
370
    15
100
AcDbSpline
210
0.0
220
0.0
230
1.0
 70
     8
 71
     3
 72
    12
 73
     8
 74
     0
 42
0.00000001
 43
0.00000001
 12
1.0
 22
0.0
 32
0.0
 13
1.0
 23
0.0
 33
0.0
 40
0.0
 40
0.0
 40
0.0
 40
0.0
 40
0.2500000000000016
 40
0.2500000000000016
 40
0.5000000000000032
 40
0.5000000000000032
 40
1.0
 40
1.0
 40
1.0
 40
1.0
 10
191.3945825259769
 20
130.1182650636183
 30
0.0
 10
191.4320944120215
 20
130.1182650636183
 30
0.0
 10
191.4673817597263
 20
130.1330698779051
 30
0.0
 10
191.5263116079647
 20
130.1766617510309
 30
0.0
 10
191.5498373344338
 20
130.2041751771169
 30
0.0
 10
191.6100961222018
 20
130.2933069092305
 30
0.0
 10
191.6356908844912
 20
130.3596927598483
 30
0.0
 10
191.6543901471122
 20
130.4272971950257
 30
0.0
  0
ELLIPSE
  5
BD
330
1F
100
AcDbEntity
  8
0
  6
Continuous
 62
     7
370
    15
100
AcDbEllipse
 10
181.3775553555
 20
124.289052068
 30
0.0
 11
9.367417879781669
 21
19.74174915274993
 31
0.0
210
0.0
220
0.0
230
1.0
 40
0.3419987131
 41
5.185211263708395
 42
6.132113578252552
  0
SPLINE
  5
BE
330
1F
100
AcDbEntity
  8
0
  6
Continuous
 62
     7
370
    15
100
AcDbSpline
210
0.0
220
0.0
230
1.0
 70
     8
 71
     3
 72
    12
 73
     8
 74
     0
 42
0.00000001
 43
0.00000001
 12
1.0
 22
0.0
 32
0.0
 13
1.0
 23
0.0
 33
0.0
 40
0.0
 40
0.0
 40
0.0
 40
0.0
 40
0.4999999999999971
 40
0.4999999999999971
 40
0.7499999999999986
 40
0.7499999999999986
 40
1.0
 40
1.0
 40
1.0
 40
1.0
 10
191.6543901471122
 20
143.3238083511487
 30
0.0
 10
191.6356969139818
 20
143.3456021047766
 30
0.0
 10
191.61004161657
 20
143.3666222664862
 30
0.0
 10
191.5498809938835
 20
143.39432761245
 30
0.0
 10
191.5258086821292
 20
143.4029628286434
 30
0.0
 10
191.4674271617787
 20
143.4161774738699
 30
0.0
 10
191.4319583341256
 20
143.4207084482001
 30
0.0
 10
191.3945825259769
 20
143.4207084482001
 30
0.0
  0
LINE
  5
BF
330
1F
100
AcDbEntity
  8
0
  6
Continuous
 62
     7
370
    15
100
AcDbLine
 10
191.3945824472
 20
143.4207088041
 30
0.0
 11
189.2583864374
 21
143.4207088041
 31
0.0
  0
SPLINE
  5
C0
330
1F
100
AcDbEntity
  8
0
  6
Continuous
 62
     7
370
    15
100
AcDbSpline
210
0.0
220
0.0
230
1.0
 70
     8
 71
     3
 72
    12
 73
     8
 74
     0
 42
0.00000001
 43
0.00000001
 12
1.0
 22
0.0
 32
0.0
 13
1.0
 23
0.0
 33
0.0
 40
0.0
 40
0.0
 40
0.0
 40
0.0
 40
0.2500000000000007
 40
0.2500000000000007
 40
0.5000000000000013
 40
0.5000000000000013
 40
1.0
 40
1.0
 40
1.0
 40
1.0
 10
189.2583865299753
 20
143.4207084482001
 30
0.0
 10
189.2208746439306
 20
143.4207084482001
 30
0.0
 10
189.1855872962259
 20
143.4162049039376
 30
0.0
 10
189.1266574479875
 20
143.4028317044843
 30
0.0
 10
189.1031317215184
 20
143.3943468019131
 30
0.0
 10
189.0428729337503
 20
143.3665989980786
 30
0.0
 10
189.017278171461
 20
143.3456091343382
 30
0.0
 10
188.9985789088399
 20
143.3238083511487
 30
0.0
  0
ELLIPSE
  5
C1
330
1F
100
AcDbEntity
  8
0
  6
Continuous
 62
     7
370
    15
100
AcDbEllipse
 10
199.2754137004
 20
124.289052068
 30
0.0
 11
-9.367417879781584
 21
19.74174915274996
 31
0.0
210
0.0
220
0.0
230
1.0
 40
0.3419987131
 41
0.151071728927075
 42
1.097974043471207
  0
SPLINE
  5
C2
330
1F
100
AcDbEntity
  8
0
  6
Continuous
 62
     7
370
    15
100
AcDbSpline
210
0.0
220
0.0
230
1.0
 70
     8
 71
     3
 72
    12
 73
     8
 74
     0
 42
0.00000001
 43
0.00000001
 12
1.0
 22
0.0
 32
0.0
 13
1.0
 23
0.0
 33
0.0
 40
0.0
 40
0.0
 40
0.0
 40
0.0
 40
0.5
 40
0.5
 40
0.75
 40
0.75
 40
1.0
 40
1.0
 40
1.0
 40
1.0
 10
188.9985789088399
 20
105.2542957847848
 30
0.0
 10
189.0173821416916
 20
105.2323737865238
 30
0.0
 10
189.0429188007108
 20
105.2114799785138
 30
0.0
 10
189.1031449746593
 20
105.1837532523961
 30
0.0
 10
189.1270710520592
 20
105.1751801190206
 30
0.0
 10
189.1851319722406
 20
105.1620010132131
 30
0.0
 10
189.2209336708665
 20
105.1573956877334
 30
0.0
 10
189.2583865299753
 20
105.1573956877334
 30
0.0
  0
LINE
  5
C3
330
1F
100
AcDbEntity
  8
0
  6
Continuous
 62
     7
370
    15
100
AcDbLine
 10
189.2583864374
 20
105.1573953318
 30
0.0
 11
191.3945824472
 21
105.1573953318
 31
0.0
  0
SPLINE
  5
C4
330
1F
100
AcDbEntity
  8
0
  6
Continuous
 62
     7
370
    15
100
AcDbSpline
210
0.0
220
0.0
230
1.0
 70
     8
 71
     3
 72
    12
 73
     8
 74
     0
 42
0.00000001
 43
0.00000001
 12
1.0
 22
0.0
 32
0.0
 13
1.0
 23
0.0
 33
0.0
 40
0.0
 40
0.0
 40
0.0
 40
0.0
 40
0.2499999999999988
 40
0.2499999999999988
 40
0.4999999999999977
 40
0.4999999999999977
 40
1.0
 40
1.0
 40
1.0
 40
1.0
 10
191.3945825259769
 20
105.1573956877334
 30
0.0
 10
191.4320833488546
 20
105.1573956877334
 30
0.0
 10
191.4673617528906
 20
105.1618966555965
 30
0.0
 10
191.526279472943
 20
105.1752631768139
 30
0.0
 10
191.5498028543414
 20
105.1837444370587
 30
0.0
 10
191.6100584388073
 20
105.2114818327366
 30
0.0
 10
191.6355800912184
 20
105.2323658317897
 30
0.0
 10
191.6543901471122
 20
105.2542957847848
 30
0.0
  0
ELLIPSE
  5
C5
330
1F
100
AcDbEntity
  8
0
  6
Continuous
 62
     7
370
    15
100
AcDbEllipse
 10
181.3775553555
 20
124.289052068
 30
0.0
 11
-9.367417879781812
 21
19.74174915274993
 31
0.0
210
0.0
220
0.0
230
1.0
 40
0.3419987131
 41
3.29266438251689
 42
4.239566697060997
  0
SPLINE
  5
C6
330
1F
100
AcDbEntity
  8
0
  6
Continuous
 62
     7
370
    15
100
AcDbSpline
210
0.0
220
0.0
230
1.0
 70
     8
 71
     3
 72
    12
 73
     8
 74
     0
 42
0.00000001
 43
0.00000001
 12
1.0
 22
0.0
 32
0.0
 13
1.0
 23
0.0
 33
0.0
 40
0.0
 40
0.0
 40
0.0
 40
0.0
 40
0.5
 40
0.5
 40
0.75
 40
0.75
 40
1.0
 40
1.0
 40
1.0
 40
1.0
 10
191.6543901471122
 20
118.1508069409076
 30
0.0
 10
191.6355869142605
 20
118.21878726517
 30
0.0
 10
191.6100502552413
 20
118.2848776529668
 30
0.0
 10
191.5498240812929
 20
118.373942265414
 30
0.0
 10
191.5258980038929
 20
118.4017433524339
 30
0.0
 10
191.4678370837116
 20
118.4447024256588
 30
0.0
 10
191.4320353850856
 20
118.459839072315
 30
0.0
 10
191.3945825259769
 20
118.459839072315
 30
0.0
  0
LINE
  5
C7
330
1F
100
AcDbEntity
  8
0
  6
Continuous
 62
     7
370
    15
100
AcDbLine
 10
191.3945824472
 20
118.4598388809
 30
0.0
 11
189.2583864374
 21
118.4598388809
 31
0.0
  0
SPLINE
  5
C8
330
1F
100
AcDbEntity
  8
0
  6
Continuous
 62
     7
370
    15
100
AcDbSpline
210
0.0
220
0.0
230
1.0
 70
     8
 71
     3
 72
    12
 73
     8
 74
     0
 42
0.00000001
 43
0.00000001
 12
1.0
 22
0.0
 32
0.0
 13
1.0
 23
0.0
 33
0.0
 40
0.0
 40
0.0
 40
0.0
 40
0.0
 40
0.2499999999999992
 40
0.2499999999999992
 40
0.4999999999999984
 40
0.4999999999999984
 40
1.0
 40
1.0
 40
1.0
 40
1.0
 10
189.2583865299753
 20
118.459839072315
 30
0.0
 10
189.2208857070975
 20
118.459839072315
 30
0.0
 10
189.1856073030615
 20
118.4450427345619
 30
0.0
 10
189.1266895830092
 20
118.4014724734028
 30
0.0
 10
189.1031662016107
 20
118.3739706749013
 30
0.0
 10
189.0429106171448
 20
118.2848715116582
 30
0.0
 10
189.0173889647337
 20
118.2188119328758
 30
0.0
 10
188.9985789088399
 20
118.1508069409076
 30
0.0
  0
ELLIPSE
  5
C9
330
1F
100
AcDbEntity
  8
0
  6
Continuous
 62
     7
370
    15
100
AcDbEllipse
 10
199.2754137004
 20
124.289052068
 30
0.0
 11
9.367417879781643
 21
19.74174915274997
 31
0.0
210
0.0
220
0.0
230
1.0
 40
0.3419987131
 41
2.043618610118596
 42
2.990520924662725
  0
SPLINE
  5
CA
330
1F
100
AcDbEntity
  8
0
  6
Continuous
 62
     7
370
    15
100
AcDbSpline
210
0.0
220
0.0
230
1.0
 70
     8
 71
     3
 72
    10
 73
     6
 74
     0
 42
0.00000001
 43
0.00000001
 12
1.0
 22
0.0
 32
0.0
 13
1.0
 23
0.0
 33
0.0
 40
0.0
 40
0.0
 40
0.0
 40
0.0
 40
0.5
 40
0.5
 40
1.0
 40
1.0
 40
1.0
 40
1.0
 10
204.1945757947237
 20
105.5524718576782
 30
0.0
 10
204.2200423474431
 20
105.5130652464244
 30
0.0
 10
204.2623957639876
 20
105.4768248220885
 30
0.0
 10
204.3854729181918
 20
105.411358389947
 30
0.0
 10
204.4638727683408
 20
105.3835795011017
 30
0.0
 10
204.5591575399971
 20
105.362300201157
 30
0.0
  0
SPLINE
  5
CB
330
1F
100
AcDbEntity
  8
0
  6
Continuous
 62
     7
370
    15
100
AcDbSpline
210
0.0
220
0.0
230
1.0
 70
     8
 71
     3
 72
     8
 73
     4
 74
     0
 42
0.00000001
 43
0.00000001
 12
1.0
 22
0.0
 32
0.0
 13
1.0
 23
0.0
 33
0.0
 40
0.0
 40
0.0
 40
0.0
 40
0.0
 40
1.0
 40
1.0
 40
1.0
 40
1.0
 10
204.5591575399971
 20
138.9505192228254
 30
0.0
 10
204.3686855830594
 20
138.8609981746392
 30
0.0
 10
204.2454889968861
 20
138.7181339605597
 30
0.0
 10
204.1945757947237
 20
138.5603406620792
 30
0.0
  0
LINE
  5
CC
330
1F
100
AcDbEntity
  8
0
  6
Continuous
 62
     7
370
    15
100
AcDbLine
 10
182.326484528
 20
104.5890520054
 30
0.0
 11
182.326484528
 21
143.9890521306
 31
0.0
  0
SPLINE
  5
CD
330
1F
100
AcDbEntity
  8
0
  6
Continuous
 62
     7
370
    15
100
AcDbSpline
210
0.0
220
0.0
230
1.0
 70
     8
 71
     3
 72
    18
 73
    14
 74
     0
 42
0.00000001
 43
0.00000001
 12
1.0
 22
0.0
 32
0.0
 13
1.0
 23
0.0
 33
0.0
 40
0.0
 40
0.0
 40
0.0
 40
0.0
 40
0.2500000000000003
 40
0.2500000000000003
 40
0.5000000000000007
 40
0.5000000000000007
 40
0.6250000000000004
 40
0.6250000000000004
 40
0.7500000000000003
 40
0.7500000000000003
 40
0.8750000000000001
 40
0.8750000000000001
 40
1.0
 40
1.0
 40
1.0
 40
1.0
 10
181.0704002104121
 20
110.4578636852879
 30
0.0
 10
181.1046970298639
 20
110.4570020298061
 30
0.0
 10
181.142508309841
 20
110.457253632901
 30
0.0
 10
181.229080677021
 20
110.4596521455129
 30
0.0
 10
181.2774198071039
 20
110.4618231302448
 30
0.0
 10
181.3666921644264
 20
110.46591800854
 30
0.0
 10
181.3992336302023
 20
110.4674226264896
 30
0.0
 10
181.4754098300558
 20
110.4703856844577
 30
0.0
 10
181.5186258900503
 20
110.4718730227135
 30
0.0
 10
181.6243151920162
 20
110.4734984340372
 30
0.0
 10
181.6892862507308
 20
110.4734561929633
 30
0.0
 10
181.8229466390886
 20
110.4694340196423
 30
0.0
 10
181.8822530924249
 20
110.4658927928188
 30
0.0
 10
181.9315076391008
 20
110.4623260853827
 30
0.0
  0
SPLINE
  5
CE
330
1F
100
AcDbEntity
  8
0
  6
Continuous
 62
     7
370
    15
100
AcDbSpline
210
0.0
220
0.0
230
1.0
 70
     8
 71
     3
 72
    14
 73
    10
 74
     0
 42
0.00000001
 43
0.00000001
 12
1.0
 22
0.0
 32
0.0
 13
1.0
 23
0.0
 33
0.0
 40
0.0
 40
0.0
 40
0.0
 40
0.0
 40
0.1249999999999973
 40
0.1249999999999973
 40
0.2499999999999946
 40
0.2499999999999946
 40
0.4999999999999953
 40
0.4999999999999953
 40
1.0
 40
1.0
 40
1.0
 40
1.0
 10
181.93150763907
 20
110.4623260854017
 30
0.0
 10
181.9430344167874
 20
110.4614913879676
 30
0.0
 10
181.9563872244398
 20
110.4597509736875
 30
0.0
 10
181.98652979704
 20
110.4525033836871
 30
0.0
 10
182.0015903226546
 20
110.4471563494592
 30
0.0
 10
182.0369366765829
 20
110.4314090792307
 30
0.0
 10
182.0506687763118
 20
110.4215708050695
 30
0.0
 10
182.0840400220029
 20
110.395366819119
 30
0.0
 10
182.0949803898569
 20
110.3812789177184
 30
0.0
 10
182.1036335148701
 20
110.36850529423
 30
0.0
  0
LINE
  5
CF
330
1F
100
AcDbEntity
  8
0
  6
Continuous
 62
     7
370
    15
100
AcDbLine
 10
182.126484533
 20
118.7836071203
 30
0.0
 11
182.126484533
 21
110.1992320928
 31
0.0
  0
SPLINE
  5
D0
330
1F
100
AcDbEntity
  8
0
  6
Continuous
 62
     7
370
    15
100
AcDbSpline
210
0.0
220
0.0
230
1.0
 70
     8
 71
     3
 72
    16
 73
    12
 74
     0
 42
0.00000001
 43
0.00000001
 12
1.0
 22
0.0
 32
0.0
 13
1.0
 23
0.0
 33
0.0
 40
0.0
 40
0.0
 40
0.0
 40
0.0
 40
0.4999999999999998
 40
0.4999999999999998
 40
0.7499999999999991
 40
0.7499999999999991
 40
0.8749999999999996
 40
0.8749999999999996
 40
0.9374999999999998
 40
0.9374999999999998
 40
1.0
 40
1.0
 40
1.0
 40
1.0
 10
182.1264845279761
 20
118.7836073010039
 30
0.0
 10
182.1264845279761
 20
118.9011826820234
 30
0.0
 10
182.1226011028171
 20
119.0198784351246
 30
0.0
 10
182.0977857775425
 20
119.2006359131171
 30
0.0
 10
182.08694632983
 20
119.2622799898901
 30
0.0
 10
182.0537305477812
 20
119.3516169642314
 30
0.0
 10
182.0403488041524
 20
119.3818764956565
 30
0.0
 10
182.0048391542901
 20
119.4153927396439
 30
0.0
 10
181.9894221877894
 20
119.42353108545
 30
0.0
 10
181.9577211656408
 20
119.4235156760186
 30
0.0
 10
181.94357488069
 20
119.4164734386627
 30
0.0
 10
181.9315076391003
 20
119.4073323750531
 30
0.0
  0
SPLINE
  5
D1
330
1F
100
AcDbEntity
  8
0
  6
Continuous
 62
     7
370
    15
100
AcDbSpline
210
0.0
220
0.0
230
1.0
 70
     8
 71
     3
 72
    18
 73
    14
 74
     0
 42
0.00000001
 43
0.00000001
 12
1.0
 22
0.0
 32
0.0
 13
1.0
 23
0.0
 33
0.0
 40
0.0
 40
0.0
 40
0.0
 40
0.0
 40
0.1250000000000007
 40
0.1250000000000007
 40
0.2500000000000014
 40
0.2500000000000014
 40
0.3750000000000021
 40
0.3750000000000021
 40
0.5000000000000028
 40
0.5000000000000028
 40
0.7500000000000013
 40
0.7500000000000013
 40
1.0
 40
1.0
 40
1.0
 40
1.0
 10
181.9315076391065
 20
119.4073323750459
 30
0.0
 10
181.8828030554185
 20
119.3704381358554
 30
0.0
 10
181.824294572643
 20
119.3409068314294
 30
0.0
 10
181.6925677573732
 20
119.3316708581505
 30
0.0
 10
181.6278096858757
 20
119.3547340327075
 30
0.0
 10
181.522599083725
 20
119.422252154355
 30
0.0
 10
181.4793829352048
 20
119.4652632510055
 30
0.0
 10
181.4032046191209
 20
119.5555052730016
 30
0.0
 10
181.3703497868297
 20
119.6031361544769
 30
0.0
 10
181.2799818808687
 20
119.7502004538264
 30
0.0
 10
181.2305592230292
 20
119.854113779131
 30
0.0
 10
181.1429080974376
 20
120.0652477427713
 30
0.0
 10
181.104846550047
 20
120.1729704875301
 30
0.0
 10
181.0704002104131
 20
120.2823036034395
 30
0.0
  0
SPLINE
  5
D2
330
1F
100
AcDbEntity
  8
0
  6
Continuous
 62
     7
370
    15
100
AcDbSpline
210
0.0
220
0.0
230
1.0
 70
     8
 71
     3
 72
     8
 73
     4
 74
     0
 42
0.00000001
 43
0.00000001
 12
1.0
 22
0.0
 32
0.0
 13
1.0
 23
0.0
 33
0.0
 40
0.0
 40
0.0
 40
0.0
 40
0.0
 40
1.0
 40
1.0
 40
1.0
 40
1.0
 10
181.0051641844163
 20
120.5175073775684
 30
0.0
 10
181.0245903897153
 20
120.4379151059956
 30
0.0
 10
181.0460872141437
 20
120.3594733598628
 30
0.0
 10
181.0704002104131
 20
120.2823036034395
 30
0.0
  0
SPLINE
  5
D3
330
1F
100
AcDbEntity
  8
0
  6
Continuous
 62
     7
370
    15
100
AcDbSpline
210
0.0
220
0.0
230
1.0
 70
     8
 71
     3
 72
     8
 73
     4
 74
     0
 42
0.00000001
 43
0.00000001
 12
1.0
 22
0.0
 32
0.0
 13
1.0
 23
0.0
 33
0.0
 40
0.0
 40
0.0
 40
0.0
 40
0.0
 40
1.0
 40
1.0
 40
1.0
 40
1.0
 10
181.0704002104131
 20
128.295800532494
 30
0.0
 10
181.0460872141437
 20
128.2186307760707
 30
0.0
 10
181.0245903897153
 20
128.1401890299379
 30
0.0
 10
181.0051641844163
 20
128.0605967583652
 30
0.0
  0
SPLINE
  5
D4
330
1F
100
AcDbEntity
  8
0
  6
Continuous
 62
     7
370
    15
100
AcDbSpline
210
0.0
220
0.0
230
1.0
 70
     8
 71
     3
 72
    18
 73
    14
 74
     0
 42
0.00000001
 43
0.00000001
 12
1.0
 22
0.0
 32
0.0
 13
1.0
 23
0.0
 33
0.0
 40
0.0
 40
0.0
 40
0.0
 40
0.0
 40
0.2499999999999993
 40
0.2499999999999993
 40
0.4999999999999987
 40
0.4999999999999987
 40
0.624999999999999
 40
0.624999999999999
 40
0.7499999999999993
 40
0.7499999999999993
 40
0.8749999999999997
 40
0.8749999999999997
 40
1.0
 40
1.0
 40
1.0
 40
1.0
 10
181.0704002104131
 20
128.295800532494
 30
0.0
 10
181.1046985294258
 20
128.404663829087
 30
0.0
 10
181.1425129267377
 20
128.5116712523234
 30
0.0
 10
181.2291009878113
 20
128.7207060764617
 30
0.0
 10
181.27745109349
 20
128.8228761704512
 30
0.0
 10
181.3667676822897
 20
128.9695569420159
 30
0.0
 10
181.399328037778
 20
129.0173586405515
 30
0.0
 10
181.4755736715069
 20
129.1089141785769
 30
0.0
 10
181.5187330412869
 20
129.1525935705688
 30
0.0
 10
181.624461865305
 20
129.2219477878954
 30
0.0
 10
181.6894590423597
 20
129.2460641015613
 30
0.0
 10
181.8229435323139
 20
129.2378598795231
 30
0.0
 10
181.8822709257594
 20
129.2080690939312
 30
0.0
 10
181.9315076391008
 20
129.1707717608801
 30
0.0
  0
SPLINE
  5
D5
330
1F
100
AcDbEntity
  8
0
  6
Continuous
 62
     7
370
    15
100
AcDbSpline
210
0.0
220
0.0
230
1.0
 70
     8
 71
     3
 72
    16
 73
    12
 74
     0
 42
0.00000001
 43
0.00000001
 12
1.0
 22
0.0
 32
0.0
 13
1.0
 23
0.0
 33
0.0
 40
0.0
 40
0.0
 40
0.0
 40
0.0
 40
0.0625000000000001
 40
0.0625000000000001
 40
0.1250000000000001
 40
0.1250000000000001
 40
0.2500000000000001
 40
0.2500000000000001
 40
0.5000000000000001
 40
0.5000000000000001
 40
1.0
 40
1.0
 40
1.0
 40
1.0
 10
181.93150763907
 20
129.1707717608317
 30
0.0
 10
181.9435774723458
 20
129.1616287339859
 30
0.0
 10
181.9578531272791
 20
129.1545842862947
 30
0.0
 10
181.9893175394036
 20
129.1545772143961
 30
0.0
 10
182.004818064214
 20
129.1627051831931
 30
0.0
 10
182.0402569608208
 20
129.1961136442002
 30
0.0
 10
182.0538495769242
 20
129.2267808106624
 30
0.0
 10
182.086843895317
 20
129.3156018047442
 30
0.0
 10
182.0976312886358
 20
129.3765044502921
 30
0.0
 10
182.122684535915
 20
129.5585125276704
 30
0.0
 10
182.1264845279762
 20
129.677201242709
 30
0.0
 10
182.1264845279762
 20
129.7944968349296
 30
0.0
  0
LINE
  5
D6
330
1F
100
AcDbEntity
  8
0
  6
Continuous
 62
     7
370
    15
100
AcDbLine
 10
182.126484533
 20
138.3788720432
 30
0.0
 11
182.126484533
 21
129.7944970156
 31
0.0
  0
SPLINE
  5
D7
330
1F
100
AcDbEntity
  8
0
  6
Continuous
 62
     7
370
    15
100
AcDbSpline
210
0.0
220
0.0
230
1.0
 70
     8
 71
     3
 72
    16
 73
    12
 74
     0
 42
0.00000001
 43
0.00000001
 12
1.0
 22
0.0
 32
0.0
 13
1.0
 23
0.0
 33
0.0
 40
0.0
 40
0.0
 40
0.0
 40
0.0
 40
0.4999999999999998
 40
0.4999999999999998
 40
0.7500000000000003
 40
0.7500000000000003
 40
0.8750000000000007
 40
0.8750000000000007
 40
0.9375000000000003
 40
0.9375000000000003
 40
1.0
 40
1.0
 40
1.0
 40
1.0
 10
182.1264845279761
 20
138.2738639746269
 30
0.0
 10
182.1264845279761
 20
138.2582987471875
 30
0.0
 10
182.1226011028171
 20
138.2391273693395
 30
0.0
 10
182.0977857775425
 20
138.2003549873576
 30
0.0
 10
182.08694632983
 20
138.1857042111552
 30
0.0
 10
182.0537305477812
 20
138.1586599671755
 30
0.0
 10
182.0403488041524
 20
138.1486818680355
 30
0.0
 10
182.0048391542901
 20
138.1322073322485
 30
0.0
 10
181.9894221877894
 20
138.1264552414585
 30
0.0
 10
181.9577211656408
 20
138.1185347210319
 30
0.0
 10
181.94357488069
 20
138.1166518850131
 30
0.0
 10
181.9315076391003
 20
138.1157780505509
 30
0.0
  0
SPLINE
  5
D8
330
1F
100
AcDbEntity
  8
0
  6
Continuous
 62
     7
370
    15
100
AcDbSpline
210
0.0
220
0.0
230
1.0
 70
     8
 71
     3
 72
    18
 73
    14
 74
     0
 42
0.00000001
 43
0.00000001
 12
1.0
 22
0.0
 32
0.0
 13
1.0
 23
0.0
 33
0.0
 40
0.0
 40
0.0
 40
0.0
 40
0.0
 40
0.1249999999999999
 40
0.1249999999999999
 40
0.2499999999999999
 40
0.2499999999999999
 40
0.3749999999999998
 40
0.3749999999999998
 40
0.4999999999999998
 40
0.4999999999999998
 40
0.7499999999999999
 40
0.7499999999999999
 40
1.0
 40
1.0
 40
1.0
 40
1.0
 10
181.9315076391065
 20
138.1157780505507
 30
0.0
 10
181.8828035100897
 20
138.1122512009325
 30
0.0
 10
181.8242958408852
 20
138.1087509277349
 30
0.0
 10
181.6925701782543
 20
138.1047079438469
 30
0.0
 10
181.627812539634
 20
138.1045963692163
 30
0.0
 10
181.5226021230149
 20
138.1061285539778
 30
0.0
 10
181.4793860880747
 20
138.1075837061929
 30
0.0
 10
181.4032078665938
 20
138.1105089677226
 30
0.0
 10
181.3703530989097
 20
138.1120192982308
 30
0.0
 10
181.2799853800678
 20
138.1161612909192
 30
0.0
 10
181.2305630108784
 20
138.1183993759057
 30
0.0
 10
181.1429105487904
 20
138.1208506589522
 30
0.0
 10
181.104847812556
 20
138.1211058943132
 30
0.0
 10
181.0704002104126
 20
138.1202404506454
 30
0.0
  0
SPLINE
  5
D9
330
1F
100
AcDbEntity
  8
0
  6
Continuous
 62
     7
370
    15
100
AcDbSpline
210
0.0
220
0.0
230
1.0
 70
     8
 71
     3
 72
     8
 73
     4
 74
     0
 42
0.00000001
 43
0.00000001
 12
1.0
 22
0.0
 32
0.0
 13
1.0
 23
0.0
 33
0.0
 40
0.0
 40
0.0
 40
0.0
 40
0.0
 40
1.0
 40
1.0
 40
1.0
 40
1.0
 10
180.8314445500368
 20
121.342561263603
 30
0.0
 10
180.8821716327592
 20
121.0592101422838
 30
0.0
 10
180.9400589457462
 20
120.784253958144
 30
0.0
 10
181.0051641844165
 20
120.5175073775684
 30
0.0
  0
SPLINE
  5
DA
330
1F
100
AcDbEntity
  8
0
  6
Continuous
 62
     7
370
    15
100
AcDbSpline
210
0.0
220
0.0
230
1.0
 70
     8
 71
     3
 72
    24
 73
    20
 74
     0
 42
0.00000001
 43
0.00000001
 12
1.0
 22
0.0
 32
0.0
 13
1.0
 23
0.0
 33
0.0
 40
0.0
 40
0.0
 40
0.0
 40
0.0
 40
0.2499999999999904
 40
0.2499999999999904
 40
0.3749999999999856
 40
0.3749999999999856
 40
0.4374999999999832
 40
0.4374999999999832
 40
0.4687499999999825
 40
0.4687499999999825
 40
0.4999999999999818
 40
0.4999999999999818
 40
0.5624999999999828
 40
0.5624999999999828
 40
0.6249999999999839
 40
0.6249999999999839
 40
0.7499999999999889
 40
0.7499999999999889
 40
1.0
 40
1.0
 40
1.0
 40
1.0
 10
180.6264845279678
 20
121.3428536718962
 30
0.0
 10
180.6268875573417
 20
121.4361219645258
 30
0.0
 10
180.6289172970568
 20
121.5298795233748
 30
0.0
 10
180.6382260084766
 20
121.6714694090143
 30
0.0
 10
180.6421520015911
 20
121.7186498276235
 30
0.0
 10
180.6530813615071
 20
121.7892458743089
 30
0.0
 10
180.6572029896015
 20
121.8130257880737
 30
0.0
 10
180.6690975107839
 20
121.8464769351209
 30
0.0
 10
180.6743843227376
 20
121.8586318871905
 30
0.0
 10
180.6909522542525
 20
121.8665145261587
 30
0.0
 10
180.6988789630199
 20
121.8589509270567
 30
0.0
 10
180.7158713012451
 20
121.83515849583
 30
0.0
 10
180.7232690020361
 20
121.8149700179854
 30
0.0
 10
180.7373713923779
 20
121.7745203933656
 30
0.0
 10
180.7435245496701
 20
121.7536647189682
 30
0.0
 10
180.7608382831312
 20
121.6905396836671
 30
0.0
 10
180.7708433240198
 20
121.6475605717656
 30
0.0
 10
180.7991997802505
 20
121.5178349274767
 30
0.0
 10
180.8157483195968
 20
121.4302372003407
 30
0.0
 10
180.8314445500368
 20
121.342561263603
 30
0.0
  0
SPLINE
  5
DB
330
1F
100
AcDbEntity
  8
0
  6
Continuous
 62
     7
370
    15
100
AcDbSpline
210
0.0
220
0.0
230
1.0
 70
     8
 71
     3
 72
    16
 73
    12
 74
     0
 42
0.00000001
 43
0.00000001
 12
1.0
 22
0.0
 32
0.0
 13
1.0
 23
0.0
 33
0.0
 40
0.0
 40
0.0
 40
0.0
 40
0.0
 40
0.2500000000000003
 40
0.2500000000000003
 40
0.3750000000000003
 40
0.3750000000000003
 40
0.5000000000000002
 40
0.5000000000000002
 40
0.7500000000000001
 40
0.7500000000000001
 40
1.0
 40
1.0
 40
1.0
 40
1.0
 10
180.6264845279761
 20
127.2352504640361
 30
0.0
 10
180.5459477185806
 20
126.766177637173
 30
0.0
 10
180.4859103097784
 20
126.285813986993
 30
0.0
 10
180.4251723625311
 20
125.5486297078521
 30
0.0
 10
180.4098498814882
 20
125.300111304625
 30
0.0
 10
180.3892669297103
 20
124.7973278594113
 30
0.0
 10
180.3840673826738
 20
124.5424693063867
 30
0.0
 10
180.3840136721335
 20
123.7861919666659
 30
0.0
 10
180.4042110094026
 20
123.2875337673561
 30
0.0
 10
180.4848893164756
 20
122.3011107966119
 30
0.0
 10
180.5459356648169
 20
121.8119967038389
 30
0.0
 10
180.6264845279761
 20
121.3428536718975
 30
0.0
  0
SPLINE
  5
DC
330
1F
100
AcDbEntity
  8
0
  6
Continuous
 62
     7
370
    15
100
AcDbSpline
210
0.0
220
0.0
230
1.0
 70
     8
 71
     3
 72
    24
 73
    20
 74
     0
 42
0.00000001
 43
0.00000001
 12
1.0
 22
0.0
 32
0.0
 13
1.0
 23
0.0
 33
0.0
 40
0.0
 40
0.0
 40
0.0
 40
0.0
 40
0.2500000000000068
 40
0.2500000000000068
 40
0.3750000000000097
 40
0.3750000000000097
 40
0.4375000000000115
 40
0.4375000000000115
 40
0.5000000000000133
 40
0.5000000000000133
 40
0.5312500000000128
 40
0.5312500000000128
 40
0.5625000000000121
 40
0.5625000000000121
 40
0.6250000000000102
 40
0.6250000000000102
 40
0.7500000000000067
 40
0.7500000000000067
 40
1.0
 40
1.0
 40
1.0
 40
1.0
 10
180.8314445500369
 20
127.2355428723306
 30
0.0
 10
180.8156755051271
 20
127.1474602088396
 30
0.0
 10
180.7990613405666
 20
127.0595153923302
 30
0.0
 10
180.7705292130732
 20
126.9291680250671
 30
0.0
 10
180.7604415795193
 20
126.885906847265
 30
0.0
 10
180.7429537566703
 20
126.8224710714296
 30
0.0
 10
180.736743948744
 20
126.8015569478858
 30
0.0
 10
180.7224660891617
 20
126.7610821562008
 30
0.0
 10
180.7148949268098
 20
126.7406045127416
 30
0.0
 10
180.6974751016354
 20
126.7177581332047
 30
0.0
 10
180.6889910191808
 20
126.711206336161
 30
0.0
 10
180.6729549455633
 20
126.7217777113876
 30
0.0
 10
180.6681345732855
 20
126.7338687516715
 30
0.0
 10
180.6567276726796
 20
126.7675119948914
 30
0.0
 10
180.6527067109703
 20
126.7909196741882
 30
0.0
 10
180.641952699191
 20
126.8615082772493
 30
0.0
 10
180.6380808135683
 20
126.9084733047718
 30
0.0
 10
180.6289128487674
 20
127.0490501693779
 30
0.0
 10
180.6268845142543
 20
127.1426863989975
 30
0.0
 10
180.6264845279761
 20
127.2352504640361
 30
0.0
  0
SPLINE
  5
DD
330
1F
100
AcDbEntity
  8
0
  6
Continuous
 62
     7
370
    15
100
AcDbSpline
210
0.0
220
0.0
230
1.0
 70
     8
 71
     3
 72
     8
 73
     4
 74
     0
 42
0.00000001
 43
0.00000001
 12
1.0
 22
0.0
 32
0.0
 13
1.0
 23
0.0
 33
0.0
 40
0.0
 40
0.0
 40
0.0
 40
0.0
 40
1.0
 40
1.0
 40
1.0
 40
1.0
 10
181.0051641844165
 20
128.0605967583651
 30
0.0
 10
180.9400589457462
 20
127.7938501777896
 30
0.0
 10
180.8821716327592
 20
127.5188939936498
 30
0.0
 10
180.8314445500368
 20
127.2355428723306
 30
0.0
  0
LINE
  5
DE
330
1F
100
AcDbEntity
  8
0
  6
Continuous
 62
     7
370
    15
100
AcDbLine
 10
180.6264845054
 20
121.3428536157
 30
0.0
 11
180.6264845054
 21
120.1878483134
 31
0.0
  0
LINE
  5
DF
330
1F
100
AcDbEntity
  8
0
  6
Continuous
 62
     7
370
    15
100
AcDbLine
 10
159.8264836339
 20
128.1289716444
 30
0.0
 11
159.8264836339
 21
120.4491324915
 31
0.0
  0
LINE
  5
E0
330
1F
100
AcDbEntity
  8
0
  6
Continuous
 62
     7
370
    15
100
AcDbLine
 10
180.6264845054
 20
128.3902558225
 30
0.0
 11
180.6264845054
 21
127.2352505202
 31
0.0
  0
LINE
  5
E1
330
1F
100
AcDbEntity
  8
0
  6
Continuous
 62
     7
370
    15
100
AcDbLine
 10
158.3264843194
 20
127.6959588013
 30
0.0
 11
158.3264843194
 21
120.8821453347
 31
0.0
  0
SPLINE
  5
E2
330
1F
100
AcDbEntity
  8
0
  6
Continuous
 62
     7
370
    15
100
AcDbSpline
210
0.0
220
0.0
230
1.0
 70
     8
 71
     3
 72
     8
 73
     4
 74
     0
 42
0.00000001
 43
0.00000001
 12
1.0
 22
0.0
 32
0.0
 13
1.0
 23
0.0
 33
0.0
 40
0.0
 40
0.0
 40
0.0
 40
0.0
 40
1.0
 40
1.0
 40
1.0
 40
1.0
 10
204.8283979136212
 20
139.0711234947495
 30
0.0
 10
204.7347390210337
 20
139.0284771643236
 30
0.0
 10
204.6440595850142
 20
138.9904228400575
 30
0.0
 10
204.5591575399971
 20
138.9505192228254
 30
0.0
  0
SPLINE
  5
E3
330
1F
100
AcDbEntity
  8
0
  6
Continuous
 62
     7
370
    15
100
AcDbSpline
210
0.0
220
0.0
230
1.0
 70
     8
 71
     3
 72
     8
 73
     4
 74
     0
 42
0.00000001
 43
0.00000001
 12
1.0
 22
0.0
 32
0.0
 13
1.0
 23
0.0
 33
0.0
 40
0.0
 40
0.0
 40
0.0
 40
0.0
 40
1.0
 40
1.0
 40
1.0
 40
1.0
 10
204.5591575399971
 20
105.362300201157
 30
0.0
 10
204.6440595850143
 20
105.3433396049312
 30
0.0
 10
204.7347390210339
 20
105.3189746665208
 30
0.0
 10
204.8283979136214
 20
105.2831954886496
 30
0.0
  0
LINE
  5
E4
330
1F
100
AcDbEntity
  8
0
  6
Continuous
 62
     7
370
    15
100
AcDbLine
 10
180.8314445061
 20
138.1142367336
 30
0.0
 11
181.0704002255
 21
138.1202400389
 31
0.0
  0
LINE
  5
E5
330
1F
100
AcDbEntity
  8
0
  6
Continuous
 62
     7
370
    15
100
AcDbLine
 10
159.8264836339
 20
128.1289716444
 30
0.0
 11
159.8264836339
 21
137.7865825507
 31
0.0
  0
LINE
  5
E6
330
1F
100
AcDbEntity
  8
0
  6
Continuous
 62
     7
370
    15
100
AcDbLine
 10
159.8264836339
 20
137.7865825507
 30
0.0
 11
180.6264845054
 21
138.3091504413
 31
0.0
  0
LINE
  5
E7
330
1F
100
AcDbEntity
  8
0
  6
Continuous
 62
     7
370
    15
100
AcDbLine
 10
180.6264845054
 20
128.3902558225
 30
0.0
 11
180.6264845054
 21
138.3091504413
 31
0.0
  0
ARC
  5
E8
330
1F
100
AcDbEntity
  8
0
  6
Continuous
 62
     7
370
    15
100
AcDbCircle
 10
180.8264214389
 20
138.3141739637
 30
0.0
 40
0.2000000000000052
100
AcDbArc
 50
181.4391666667
 51
271.4391666667
  0
LINE
  5
E9
330
1F
100
AcDbEntity
  8
0
  6
Continuous
 62
     7
370
    15
100
AcDbLine
 10
159.8264836339
 20
110.7915215853
 30
0.0
 11
159.8264836339
 21
120.4491324915
 31
0.0
  0
LINE
  5
EA
330
1F
100
AcDbEntity
  8
0
  6
Continuous
 62
     7
370
    15
100
AcDbLine
 10
180.6264845054
 20
110.2689536947
 30
0.0
 11
180.6264845054
 21
120.1878483134
 31
0.0
  0
LINE
  5
EB
330
1F
100
AcDbEntity
  8
0
  6
Continuous
 62
     7
370
    15
100
AcDbLine
 10
159.8264836339
 20
110.7915215853
 30
0.0
 11
180.6264845054
 21
110.2689536947
 31
0.0
  0
ARC
  5
EC
330
1F
100
AcDbEntity
  8
0
  6
Continuous
 62
     7
370
    15
100
AcDbCircle
 10
180.8264214389
 20
110.2639301723
 30
0.0
 40
0.2000000000000063
100
AcDbArc
 50
88.5608333333
 51
178.5608333333
  0
LINE
  5
ED
330
1F
100
AcDbEntity
  8
0
  6
Continuous
 62
     7
370
    15
100
AcDbLine
 10
180.8314445061
 20
110.4638674023
 30
0.0
 11
181.0704002255
 21
110.457864097
 31
0.0
  0
LINE
  5
EE
330
1F
100
AcDbEntity
  8
0
  6
Continuous
 62
     7
370
    15
100
AcDbLine
 10
205.4251824138
 20
139.6747608396
 30
0.0
 11
205.4251824138
 21
144.7890526342
 31
0.0
  0
SPLINE
  5
EF
330
1F
100
AcDbEntity
  8
0
  6
Continuous
 62
     7
370
    15
100
AcDbSpline
210
0.0
220
0.0
230
1.0
 70
     8
 71
     3
 72
    10
 73
     6
 74
     0
 42
0.00000001
 43
0.00000001
 12
1.0
 22
0.0
 32
0.0
 13
1.0
 23
0.0
 33
0.0
 40
0.0
 40
0.0
 40
0.0
 40
0.0
 40
0.5
 40
0.5
 40
1.0
 40
1.0
 40
1.0
 40
1.0
 10
205.4251829437816
 20
139.6747608356767
 30
0.0
 10
205.3626635965657
 20
139.5448664701634
 30
0.0
 10
205.2803110915389
 20
139.4253115478147
 30
0.0
 10
205.078746140244
 20
139.2178796241148
 30
0.0
 10
204.9604266517531
 20
139.1312410237585
 30
0.0
 10
204.8283979136211
 20
139.0711234947494
 30
0.0
  0
SPLINE
  5
F0
330
1F
100
AcDbEntity
  8
0
  6
Continuous
 62
     7
370
    15
100
AcDbSpline
210
0.0
220
0.0
230
1.0
 70
     8
 71
     3
 72
    10
 73
     6
 74
     0
 42
0.00000001
 43
0.00000001
 12
1.0
 22
0.0
 32
0.0
 13
1.0
 23
0.0
 33
0.0
 40
0.0
 40
0.0
 40
0.0
 40
0.0
 40
0.5
 40
0.5
 40
1.0
 40
1.0
 40
1.0
 40
1.0
 10
204.8283979136214
 20
105.2831954886496
 30
0.0
 10
205.006408713124
 20
105.215192548593
 30
0.0
 10
205.1597435151651
 20
105.0970198614412
 30
0.0
 10
205.396854043591
 20
104.8058363104984
 30
0.0
 10
205.481283582129
 20
104.632515611505
 30
0.0
 10
205.5250833662862
 20
104.4472487459348
 30
0.0
  0
ELLIPSE
  5
F1
330
1F
100
AcDbEntity
  8
0
  6
Continuous
 62
     7
370
    15
100
AcDbEllipse
 10
262.435249773
 20
124.289052068
 30
0.0
 11
116.2588156647557
 21
4.392585877548199
 31
0.0
210
0.0
220
0.0
230
1.0
 40
0.1722352441
 41
1.984935773743546
 42
2.076793506343578
  0
LINE
  5
F2
330
1F
100
AcDbEntity
  8
0
  6
Continuous
 62
     7
370
    15
100
AcDbLine
 10
214.9598375527
 20
140.8525719034
 30
0.0
 11
224.8883322445
 21
127.1330886247
 31
0.0
  0
LINE
  5
F3
330
1F
100
AcDbEntity
  8
0
  6
Continuous
 62
     7
370
    15
100
AcDbLine
 10
224.8883322445
 20
127.1330886247
 30
0.0
 11
224.8883322445
 21
122.1909431933
 31
0.0
  0
ARC
  5
F4
330
1F
100
AcDbEntity
  8
0
  6
Continuous
 62
     7
370
    15
100
AcDbCircle
 10
210.3414456033
 20
116.815459961
 30
0.0
 40
2.064228602948114
100
AcDbArc
 50
111.4403409984
 51
240.3948073982
  0
LINE
  5
F5
330
1F
100
AcDbEntity
  8
0
  6
Continuous
 62
     7
370
    15
100
AcDbLine
 10
212.2293841658
 20
113.5057010415
 30
0.0
 11
209.3216740159
 21
115.0207160699
 31
0.0
  0
LINE
  5
F6
330
1F
100
AcDbEntity
  8
0
  6
Continuous
 62
     7
370
    15
100
AcDbLine
 10
219.4499299494
 20
102.363831802
 30
0.0
 11
217.1417289046
 21
107.0458101767
 31
0.0
  0
ARC
  5
F7
330
1F
100
AcDbEntity
  8
0
  6
Continuous
 62
     7
370
    15
100
AcDbCircle
 10
216.4899417577
 20
76.9226693758
 30
0.0
 40
25.61277563430408
100
AcDbArc
 50
83.3636779588
 51
92.1120241924
  0
LINE
  5
F8
330
1F
100
AcDbEntity
  8
0
  6
Continuous
 62
     7
370
    15
100
AcDbLine
 10
206.0719300626
 20
102.1707220661
 30
0.0
 11
215.546023157
 21
102.5180457818
 31
0.0
  0
SPLINE
  5
F9
330
1F
100
AcDbEntity
  8
0
  6
Continuous
 62
     7
370
    15
100
AcDbSpline
210
0.0
220
0.0
230
1.0
 70
     8
 71
     3
 72
     8
 73
     4
 74
     0
 42
0.00000001
 43
0.00000001
 12
1.0
 22
0.0
 32
0.0
 13
1.0
 23
0.0
 33
0.0
 40
0.0
 40
0.0
 40
0.0
 40
0.0
 40
1.0
 40
1.0
 40
1.0
 40
1.0
 10
205.5250833662862
 20
104.4472487459348
 30
0.0
 10
205.7046614029624
 20
103.687659158441
 30
0.0
 10
205.8871842467818
 20
102.9288834955677
 30
0.0
 10
206.0719295047143
 20
102.1707220928056
 30
0.0
  0
ARC
  5
FA
330
1F
100
AcDbEntity
  8
0
  6
Continuous
 62
     7
370
    15
100
AcDbCircle
 10
212.1236586504
 20
132.016293931
 30
0.0
 40
2.549545230029823
100
AcDbArc
 50
81.4117493356
 51
145.8906963151
  0
ELLIPSE
  5
FB
330
1F
100
AcDbEntity
  8
0
  6
Continuous
 62
     7
370
    15
100
AcDbEllipse
 10
226.7888249058
 20
124.289052068
 30
0.0
 11
-15.01361785357562
 21
20.49858484107698
 31
0.0
210
0.0
220
0.0
230
1.0
 40
0.0160435947
 41
5.641348765105109
 42
6.271435163618882
  0
LINE
  5
FC
330
1F
100
AcDbEntity
  8
0
  6
Continuous
 62
     7
370
    15
100
AcDbLine
 10
158.3264843194
 20
136.9205568644
 30
0.0
 11
159.8264836339
 21
137.7865825507
 31
0.0
  0
LINE
  5
FD
330
1F
100
AcDbEntity
  8
0
  6
Continuous
 62
     7
370
    15
100
AcDbLine
 10
158.3264843194
 20
127.6959588013
 30
0.0
 11
158.3264843194
 21
136.9205568644
 31
0.0
  0
LINE
  5
FE
330
1F
100
AcDbEntity
  8
0
  6
Continuous
 62
     7
370
    15
100
AcDbLine
 10
158.3264843194
 20
111.6575472715
 30
0.0
 11
159.8264836339
 21
110.7915215853
 31
0.0
  0
LINE
  5
FF
330
1F
100
AcDbEntity
  8
0
  6
Continuous
 62
     7
370
    15
100
AcDbLine
 10
158.3264843194
 20
111.6575472715
 30
0.0
 11
158.3264843194
 21
120.8821453347
 31
0.0
  0
LINE
  5
100
330
1F
100
AcDbEntity
  8
0
  6
Continuous
 62
     7
370
    15
100
AcDbLine
 10
208.2956154464
 20
116.4283989656
 30
0.0
 11
211.5004882781
 21
114.7585534218
 31
0.0
  0
SPLINE
  5
101
330
1F
100
AcDbEntity
  8
0
  6
Continuous
 62
     7
370
    15
100
AcDbSpline
210
0.0
220
0.0
230
1.0
 70
     8
 71
     3
 72
     9
 73
     5
 74
     0
 42
0.00000001
 43
0.00000001
 12
1.0
 22
0.0
 32
0.0
 13
1.0
 23
0.0
 33
0.0
 40
0.0
 40
0.0
 40
0.0
 40
0.0
 40
0.607205510755216
 40
1.0
 40
1.0
 40
1.0
 40
1.0
 10
206.071930062563
 20
102.1707220661357
 30
0.0
 10
205.9463749435647
 20
102.4050815194207
 30
0.0
 10
205.7395996149909
 20
102.7910454955932
 30
0.0
 10
205.6387619499296
 20
103.1787861388781
 30
0.0
 10
205.5991534707852
 20
103.3310885268167
 30
0.0
  0
LWPOLYLINE
  5
102
330
1F
100
AcDbEntity
  8
0
  6
Continuous
 62
     7
370
    15
100
AcDbPolyline
 90
        3
 70
   128
 43
0.0
 10
218.7163048057
 20
103.8519232261
 10
219.2531563906
 20
103.7705964136
 10
219.4439583091
 20
103.7388420391
  0
SPLINE
  5
103
330
1F
100
AcDbEntity
  8
0
  6
HIDDEN
 62
     7
370
     0
100
AcDbSpline
210
0.0
220
0.0
230
1.0
 70
     8
 71
     3
 72
    58
 73
    54
 74
     0
 42
0.00000001
 43
0.00000001
 12
1.0
 22
0.0
 32
0.0
 13
1.0
 23
0.0
 33
0.0
 40
-0.0625000000000001
 40
-0.0625000000000001
 40
0.0
 40
0.0
 40
0.0312499999999998
 40
0.0312499999999998
 40
0.0624999999999997
 40
0.0624999999999997
 40
0.0937499999999995
 40
0.0937499999999995
 40
0.1249999999999993
 40
0.1249999999999993
 40
0.187499999999999
 40
0.187499999999999
 40
0.2499999999999987
 40
0.2499999999999987
 40
0.2812499999999987
 40
0.2812499999999987
 40
0.3124999999999988
 40
0.3124999999999988
 40
0.3437499999999988
 40
0.3437499999999988
 40
0.3749999999999989
 40
0.3749999999999989
 40
0.4062499999999989
 40
0.4062499999999989
 40
0.437499999999999
 40
0.437499999999999
 40
0.4687499999999991
 40
0.4687499999999991
 40
0.4999999999999991
 40
0.4999999999999991
 40
0.5624999999999992
 40
0.5624999999999992
 40
0.6249999999999993
 40
0.6249999999999993
 40
0.6562499999999993
 40
0.6562499999999993
 40
0.6874999999999994
 40
0.6874999999999994
 40
0.7187499999999994
 40
0.7187499999999994
 40
0.7499999999999996
 40
0.7499999999999996
 40
0.7812499999999996
 40
0.7812499999999996
 40
0.8124999999999997
 40
0.8124999999999997
 40
0.8437499999999997
 40
0.8437499999999997
 40
0.8749999999999998
 40
0.8749999999999998
 40
0.9374999999999999
 40
0.9374999999999999
 40
1.0
 40
1.0
 40
1.03125
 40
1.03125
 10
196.326484527976
 20
124.0246159535188
 30
0.0
 10
196.3264845279761
 20
124.4212701251908
 30
0.0
 10
196.3135024903039
 20
124.5512622860313
 30
0.0
 10
196.2626516880456
 20
124.8069818984836
 30
0.0
 10
196.2241597839926
 20
124.9340405823447
 30
0.0
 10
196.1237444982662
 20
125.1762037800035
 30
0.0
 10
196.0623083589931
 20
125.2910455643882
 30
0.0
 10
195.9171748826823
 20
125.5083877619584
 30
0.0
 10
195.8327531938312
 20
125.6112294098062
 30
0.0
 10
195.5561530196664
 20
125.8877728905578
 30
0.0
 10
195.3331541083993
 20
126.0367555266899
 30
0.0
 10
194.8519195908136
 20
126.2362985902446
 30
0.0
 10
194.5886201753046
 20
126.2889090632761
 30
0.0
 10
194.1970567352643
 20
126.2891231220286
 30
0.0
 10
194.0644691246597
 20
126.276124272623
 30
0.0
 10
193.8079034190604
 20
126.2250741885966
 30
0.0
 10
193.6831936528799
 20
126.1873029497844
 30
0.0
 10
193.4409544678528
 20
126.0871110416719
 30
0.0
 10
193.3239378140791
 20
126.0245256478474
 30
0.0
 10
193.1072946092328
 20
125.8798205621368
 30
0.0
 10
193.0062878527744
 20
125.7972012207566
 30
0.0
 10
192.8194817571178
 20
125.6105571859666
 30
0.0
 10
192.7367682215859
 20
125.5096113380067
 30
0.0
 10
192.5918980922106
 20
125.293130134325
 30
0.0
 10
192.5292277961139
 20
125.1762129693166
 30
0.0
 10
192.4287998580777
 20
124.9340165001181
 30
0.0
 10
192.3909286791479
 20
124.8093555092146
 30
0.0
 10
192.3396662813722
 20
124.5529561601466
 30
0.0
 10
192.3265326407316
 20
124.4203452348488
 30
0.0
 10
192.3263887075928
 20
124.0286706225136
 30
0.0
 10
192.3787539648575
 20
123.7653866028531
 30
0.0
 10
192.5779146282082
 20
123.2838738889933
 30
0.0
 10
192.7267123015702
 20
123.0607528019483
 30
0.0
 10
193.0030129601563
 20
122.7839206534408
 30
0.0
 10
193.1057780072161
 20
122.6994134391565
 30
0.0
 10
193.3229952810105
 20
122.5540924974706
 30
0.0
 10
193.4377649744482
 20
122.4925702742085
 30
0.0
 10
193.6797515115929
 20
122.3919738709365
 30
0.0
 10
193.8068340844843
 20
122.3533459828479
 30
0.0
 10
194.0625087844875
 20
122.3022678727817
 30
0.0
 10
194.1924493018317
 20
122.2891787330146
 30
0.0
 10
194.456712669593
 20
122.288927214656
 30
0.0
 10
194.58692356324
 20
122.3018016847124
 30
0.0
 10
194.8426735086736
 20
122.3524205818444
 30
0.0
 10
194.9696908930409
 20
122.3907684006402
 30
0.0
 10
195.2120426207926
 20
122.4910025208336
 30
0.0
 10
195.326945400079
 20
122.5523467078236
 30
0.0
 10
195.544367565228
 20
122.6972517123527
 30
0.0
 10
195.6473039626727
 20
122.7815906044747
 30
0.0
 10
195.9241411198296
 20
123.0579917175165
 30
0.0
 10
196.0732963608937
 20
123.280835350559
 30
0.0
 10
196.273266946129
 20
123.7618986318095
 30
0.0
 10
196.326484527976
 20
124.0246159535188
 30
0.0
 10
196.3264845279761
 20
124.4212701251908
 30
0.0
  0
SPLINE
  5
104
330
1F
100
AcDbEntity
  8
0
  6
HIDDEN
 62
     7
370
     0
100
AcDbSpline
210
0.0
220
0.0
230
1.0
 70
     8
 71
     3
 72
    12
 73
     8
 74
     0
 42
0.00000001
 43
0.00000001
 12
1.0
 22
0.0
 32
0.0
 13
1.0
 23
0.0
 33
0.0
 40
0.0
 40
0.0
 40
0.0
 40
0.0
 40
0.4999999999999993
 40
0.4999999999999993
 40
0.7499999999999997
 40
0.7499999999999997
 40
1.0
 40
1.0
 40
1.0
 40
1.0
 10
188.9985789088399
 20
118.1508069409077
 30
0.0
 10
189.0172721419704
 20
118.2183895773481
 30
0.0
 10
189.0429274393821
 20
118.2848721468255
 30
0.0
 10
189.1030880620686
 20
118.3738672297231
 30
0.0
 10
189.1271603738229
 20
118.4018691267222
 30
0.0
 10
189.1855418941735
 20
118.4449455273874
 30
0.0
 10
189.2210107218265
 20
118.4598390723151
 30
0.0
 10
189.2583865299753
 20
118.4598390723151
 30
0.0
  0
LINE
  5
105
330
1F
100
AcDbEntity
  8
0
  6
HIDDEN
 62
     7
370
     0
100
AcDbLine
 10
189.2583864374
 20
118.4598388809
 30
0.0
 11
191.3945824472
 21
118.4598388809
 31
0.0
  0
SPLINE
  5
106
330
1F
100
AcDbEntity
  8
0
  6
HIDDEN
 62
     7
370
     0
100
AcDbSpline
210
0.0
220
0.0
230
1.0
 70
     8
 71
     3
 72
    12
 73
     8
 74
     0
 42
0.00000001
 43
0.00000001
 12
1.0
 22
0.0
 32
0.0
 13
1.0
 23
0.0
 33
0.0
 40
0.0
 40
0.0
 40
0.0
 40
0.0
 40
0.25
 40
0.25
 40
0.5
 40
0.5
 40
1.0
 40
1.0
 40
1.0
 40
1.0
 10
191.3945825259769
 20
118.4598390723151
 30
0.0
 10
191.4320944120215
 20
118.4598390723151
 30
0.0
 10
191.4673817597263
 20
118.4450342580284
 30
0.0
 10
191.5263116079647
 20
118.4014423849025
 30
0.0
 10
191.5498373344338
 20
118.3739289588165
 30
0.0
 10
191.6100961222018
 20
118.2847972267029
 30
0.0
 10
191.6356908844912
 20
118.2184113760851
 30
0.0
 10
191.6543901471122
 20
118.1508069409078
 30
0.0
  0
ELLIPSE
  5
107
330
1F
100
AcDbEntity
  8
0
  6
HIDDEN
 62
     7
370
     0
100
AcDbEllipse
 10
181.3775553555
 20
124.289052068
 30
0.0
 11
-9.367417879781785
 21
19.74174915274996
 31
0.0
210
0.0
220
0.0
230
1.0
 40
0.3419987131
 41
3.2926643825169
 42
4.239566697061006
  0
SPLINE
  5
108
330
1F
100
AcDbEntity
  8
0
  6
HIDDEN
 62
     7
370
     0
100
AcDbSpline
210
0.0
220
0.0
230
1.0
 70
     8
 71
     3
 72
    12
 73
     8
 74
     0
 42
0.00000001
 43
0.00000001
 12
1.0
 22
0.0
 32
0.0
 13
1.0
 23
0.0
 33
0.0
 40
0.0
 40
0.0
 40
0.0
 40
0.0
 40
0.5000000000000053
 40
0.5000000000000053
 40
0.7500000000000027
 40
0.7500000000000027
 40
1.0
 40
1.0
 40
1.0
 40
1.0
 10
191.6543901471122
 20
105.2542957847849
 30
0.0
 10
191.6356969139818
 20
105.2325020311569
 30
0.0
 10
191.61004161657
 20
105.2114818694473
 30
0.0
 10
191.5498809938835
 20
105.1837765234836
 30
0.0
 10
191.5258086821292
 20
105.1751413072902
 30
0.0
 10
191.4674271617786
 20
105.1619266620636
 30
0.0
 10
191.4319583341256
 20
105.1573956877334
 30
0.0
 10
191.3945825259769
 20
105.1573956877334
 30
0.0
  0
LINE
  5
109
330
1F
100
AcDbEntity
  8
0
  6
HIDDEN
 62
     7
370
     0
100
AcDbLine
 10
191.3945824472
 20
105.1573953318
 30
0.0
 11
189.2583864374
 21
105.1573953318
 31
0.0
  0
SPLINE
  5
10A
330
1F
100
AcDbEntity
  8
0
  6
HIDDEN
 62
     7
370
     0
100
AcDbSpline
210
0.0
220
0.0
230
1.0
 70
     8
 71
     3
 72
    12
 73
     8
 74
     0
 42
0.00000001
 43
0.00000001
 12
1.0
 22
0.0
 32
0.0
 13
1.0
 23
0.0
 33
0.0
 40
0.0
 40
0.0
 40
0.0
 40
0.0
 40
0.2500000000000027
 40
0.2500000000000027
 40
0.5000000000000053
 40
0.5000000000000053
 40
1.0
 40
1.0
 40
1.0
 40
1.0
 10
189.2583865299753
 20
105.1573956877334
 30
0.0
 10
189.2208746439306
 20
105.1573956877334
 30
0.0
 10
189.1855872962259
 20
105.161899231996
 30
0.0
 10
189.1266574479875
 20
105.1752724314493
 30
0.0
 10
189.1031317215184
 20
105.1837573340204
 30
0.0
 10
189.0428729337503
 20
105.211505137855
 30
0.0
 10
189.017278171461
 20
105.2324950015953
 30
0.0
 10
188.9985789088399
 20
105.2542957847849
 30
0.0
  0
ELLIPSE
  5
10B
330
1F
100
AcDbEntity
  8
0
  6
HIDDEN
 62
     7
370
     0
100
AcDbEllipse
 10
199.2754137004
 20
124.289052068
 30
0.0
 11
9.367417879781613
 21
19.74174915274996
 31
0.0
210
0.0
220
0.0
230
1.0
 40
0.3419987131
 41
2.04361861011859
 42
2.990520924662721
  0
SPLINE
  5
10C
330
1F
100
AcDbEntity
  8
0
  6
HIDDEN
 62
     7
370
     0
100
AcDbSpline
210
0.0
220
0.0
230
1.0
 70
     8
 71
     3
 72
    12
 73
     8
 74
     0
 42
0.00000001
 43
0.00000001
 12
1.0
 22
0.0
 32
0.0
 13
1.0
 23
0.0
 33
0.0
 40
0.0
 40
0.0
 40
0.0
 40
0.0
 40
0.4999999999999956
 40
0.4999999999999956
 40
0.7499999999999978
 40
0.7499999999999978
 40
1.0
 40
1.0
 40
1.0
 40
1.0
 10
188.9985789088399
 20
143.3238083511488
 30
0.0
 10
189.0172721419704
 20
143.3456021047767
 30
0.0
 10
189.0429274393821
 20
143.3666222664864
 30
0.0
 10
189.1030880620686
 20
143.3943276124501
 30
0.0
 10
189.1271603738229
 20
143.4029628286435
 30
0.0
 10
189.1855418941735
 20
143.41617747387
 30
0.0
 10
189.2210107218265
 20
143.4207084482002
 30
0.0
 10
189.2583865299753
 20
143.4207084482002
 30
0.0
  0
LINE
  5
10D
330
1F
100
AcDbEntity
  8
0
  6
HIDDEN
 62
     7
370
     0
100
AcDbLine
 10
189.2583864374
 20
143.4207088041
 30
0.0
 11
191.3945824472
 21
143.4207088041
 31
0.0
  0
SPLINE
  5
10E
330
1F
100
AcDbEntity
  8
0
  6
HIDDEN
 62
     7
370
     0
100
AcDbSpline
210
0.0
220
0.0
230
1.0
 70
     8
 71
     3
 72
    12
 73
     8
 74
     0
 42
0.00000001
 43
0.00000001
 12
1.0
 22
0.0
 32
0.0
 13
1.0
 23
0.0
 33
0.0
 40
0.0
 40
0.0
 40
0.0
 40
0.0
 40
0.2500000000000016
 40
0.2500000000000016
 40
0.5000000000000032
 40
0.5000000000000032
 40
1.0
 40
1.0
 40
1.0
 40
1.0
 10
191.3945825259769
 20
143.4207084482002
 30
0.0
 10
191.4320944120215
 20
143.4207084482002
 30
0.0
 10
191.4673817597263
 20
143.4162049039377
 30
0.0
 10
191.5263116079647
 20
143.4028317044844
 30
0.0
 10
191.5498373344338
 20
143.3943468019133
 30
0.0
 10
191.6100961222018
 20
143.3665989980787
 30
0.0
 10
191.6356908844912
 20
143.3456091343383
 30
0.0
 10
191.6543901471122
 20
143.3238083511488
 30
0.0
  0
ELLIPSE
  5
10F
330
1F
100
AcDbEntity
  8
0
  6
HIDDEN
 62
     7
370
     0
100
AcDbEllipse
 10
181.3775553555
 20
124.289052068
 30
0.0
 11
9.367417879781812
 21
19.74174915274993
 31
0.0
210
0.0
220
0.0
230
1.0
 40
0.3419987131
 41
5.185211263708412
 42
6.132113578252568
  0
SPLINE
  5
110
330
1F
100
AcDbEntity
  8
0
  6
HIDDEN
 62
     7
370
     0
100
AcDbSpline
210
0.0
220
0.0
230
1.0
 70
     8
 71
     3
 72
    12
 73
     8
 74
     0
 42
0.00000001
 43
0.00000001
 12
1.0
 22
0.0
 32
0.0
 13
1.0
 23
0.0
 33
0.0
 40
0.0
 40
0.0
 40
0.0
 40
0.0
 40
0.4999999999999916
 40
0.4999999999999916
 40
0.7499999999999958
 40
0.7499999999999958
 40
1.0
 40
1.0
 40
1.0
 40
1.0
 10
191.6543901471122
 20
130.4272971950261
 30
0.0
 10
191.6356969139818
 20
130.3597145585858
 30
0.0
 10
191.61004161657
 20
130.2932319891083
 30
0.0
 10
191.5498809938835
 20
130.2042369062108
 30
0.0
 10
191.5258086821292
 20
130.1762350092116
 30
0.0
 10
191.4674271617786
 20
130.1331586085465
 30
0.0
 10
191.4319583341256
 20
130.1182650636187
 30
0.0
 10
191.3945825259769
 20
130.1182650636187
 30
0.0
  0
LINE
  5
111
330
1F
100
AcDbEntity
  8
0
  6
HIDDEN
 62
     7
370
     0
100
AcDbLine
 10
191.3945824472
 20
130.1182652551
 30
0.0
 11
189.2583864374
 21
130.1182652551
 31
0.0
  0
SPLINE
  5
112
330
1F
100
AcDbEntity
  8
0
  6
HIDDEN
 62
     7
370
     0
100
AcDbSpline
210
0.0
220
0.0
230
1.0
 70
     8
 71
     3
 72
    12
 73
     8
 74
     0
 42
0.00000001
 43
0.00000001
 12
1.0
 22
0.0
 32
0.0
 13
1.0
 23
0.0
 33
0.0
 40
0.0
 40
0.0
 40
0.0
 40
0.0
 40
0.2499999999999986
 40
0.2499999999999986
 40
0.4999999999999971
 40
0.4999999999999971
 40
1.0
 40
1.0
 40
1.0
 40
1.0
 10
189.2583865299753
 20
130.1182650636187
 30
0.0
 10
189.2208746439306
 20
130.1182650636187
 30
0.0
 10
189.1855872962259
 20
130.1330698779055
 30
0.0
 10
189.1266574479875
 20
130.1766617510313
 30
0.0
 10
189.1031317215184
 20
130.2041751771173
 30
0.0
 10
189.0428729337503
 20
130.2933069092309
 30
0.0
 10
189.017278171461
 20
130.3596927598487
 30
0.0
 10
188.9985789088399
 20
130.4272971950261
 30
0.0
  0
ELLIPSE
  5
113
330
1F
100
AcDbEntity
  8
0
  6
HIDDEN
 62
     7
370
     0
100
AcDbEllipse
 10
199.2754137004
 20
124.289052068
 30
0.0
 11
-9.367417879781698
 21
19.74174915274996
 31
0.0
210
0.0
220
0.0
230
1.0
 40
0.3419987131
 41
0.151071728927058
 42
1.097974043471188
  0
LINE
  5
114
330
1F
100
AcDbEntity
  8
0
  6
HIDDEN
 62
     7
370
     0
100
AcDbLine
 10
182.326484528
 20
143.9890521306
 30
0.0
 11
182.326484528
 21
104.5890520054
 31
0.0
  0
LINE
  5
115
330
1F
100
AcDbEntity
  8
0
  6
HIDDEN
 62
     7
370
     0
100
AcDbLine
 10
182.326484528
 20
108.4890528309
 30
0.0
 11
182.326484528
 21
140.0759028929
 31
0.0
  0
SPLINE
  5
116
330
1F
100
AcDbEntity
  8
0
  6
HIDDEN
 62
     7
370
     0
100
AcDbSpline
210
0.0
220
0.0
230
1.0
 70
     8
 71
     3
 72
    18
 73
    14
 74
     0
 42
0.00000001
 43
0.00000001
 12
1.0
 22
0.0
 32
0.0
 13
1.0
 23
0.0
 33
0.0
 40
0.0
 40
0.0
 40
0.0
 40
0.0
 40
0.2499999999999993
 40
0.2499999999999993
 40
0.4999999999999987
 40
0.4999999999999987
 40
0.624999999999999
 40
0.624999999999999
 40
0.7499999999999993
 40
0.7499999999999993
 40
0.8749999999999997
 40
0.8749999999999997
 40
1.0
 40
1.0
 40
1.0
 40
1.0
 10
181.0704002104131
 20
134.1134919861181
 30
0.0
 10
181.1047012549458
 20
134.0054818003205
 30
0.0
 10
181.1425215262426
 20
133.8982047122925
 30
0.0
 10
181.2291398467035
 20
133.686708014976
 30
0.0
 10
181.277511181447
 20
133.5823216648063
 30
0.0
 10
181.3669141635654
 20
133.431446742162
 30
0.0
 10
181.3995114474426
 20
133.3821017391265
 30
0.0
 10
181.4758933513875
 20
133.2874961006562
 30
0.0
 10
181.5189317887283
 20
133.2425001659016
 30
0.0
 10
181.6247448215602
 20
133.1715723932438
 30
0.0
 10
181.6897832462913
 20
133.1476258493371
 30
0.0
 10
181.8229353180939
 20
133.159906513408
 30
0.0
 10
181.882304498557
 20
133.1932234714129
 30
0.0
 10
181.9315076391008
 20
133.2340583576376
 30
0.0
  0
SPLINE
  5
117
330
1F
100
AcDbEntity
  8
0
  6
HIDDEN
 62
     7
370
     0
100
AcDbSpline
210
0.0
220
0.0
230
1.0
 70
     8
 71
     3
 72
    16
 73
    12
 74
     0
 42
0.00000001
 43
0.00000001
 12
1.0
 22
0.0
 32
0.0
 13
1.0
 23
0.0
 33
0.0
 40
0.0
 40
0.0
 40
0.0
 40
0.0
 40
0.0625000000000008
 40
0.0625000000000008
 40
0.1250000000000017
 40
0.1250000000000017
 40
0.2500000000000033
 40
0.2500000000000033
 40
0.5000000000000021
 40
0.5000000000000021
 40
1.0
 40
1.0
 40
1.0
 40
1.0
 10
181.93150763907
 20
133.234058357667
 30
0.0
 10
181.9435774723458
 20
133.2440754066473
 30
0.0
 10
181.9578531272791
 20
133.253034513703
 30
0.0
 10
181.9893175394036
 20
133.2609049090972
 30
0.0
 10
182.004818064214
 20
133.2585474184549
 30
0.0
 10
182.0402569608208
 20
133.2415717262769
 30
0.0
 10
182.0538495769242
 20
133.2210232351093
 30
0.0
 10
182.086843895317
 20
133.1590809080956
 30
0.0
 10
182.0976312886358
 20
133.1126853578905
 30
0.0
 10
182.122684535915
 20
132.9697493291959
 30
0.0
 10
182.1264845279762
 20
132.8701866123105
 30
0.0
 10
182.1264845279762
 20
132.7684192076639
 30
0.0
  0
LINE
  5
118
330
1F
100
AcDbEntity
  8
0
  6
HIDDEN
 62
     7
370
     0
100
AcDbLine
 10
182.126484533
 20
115.8096850577
 30
0.0
 11
182.126484533
 21
132.7684190783
 31
0.0
  0
SPLINE
  5
119
330
1F
100
AcDbEntity
  8
0
  6
HIDDEN
 62
     7
370
     0
100
AcDbSpline
210
0.0
220
0.0
230
1.0
 70
     8
 71
     3
 72
    16
 73
    12
 74
     0
 42
0.00000001
 43
0.00000001
 12
1.0
 22
0.0
 32
0.0
 13
1.0
 23
0.0
 33
0.0
 40
0.0
 40
0.0
 40
0.0
 40
0.0
 40
0.5000000000000006
 40
0.5000000000000006
 40
0.7500000000000006
 40
0.7500000000000006
 40
0.8750000000000004
 40
0.8750000000000004
 40
0.9375000000000002
 40
0.9375000000000002
 40
1.0
 40
1.0
 40
1.0
 40
1.0
 10
182.1264845279761
 20
115.8096849282695
 30
0.0
 10
182.1264845279761
 20
115.7076747746895
 30
0.0
 10
182.1226011028171
 20
115.6081503994362
 30
0.0
 10
182.0977857775425
 20
115.4661653034256
 30
0.0
 10
182.08694632983
 20
115.4191720028551
 30
0.0
 10
182.0537305477812
 20
115.3568792724935
 30
0.0
 10
182.0403488041524
 20
115.3365978402084
 30
0.0
 10
182.0048391542901
 20
115.3195561320079
 30
0.0
 10
181.9894221877894
 20
115.3171698769918
 30
0.0
 10
181.9577211656408
 20
115.3251058068498
 30
0.0
 10
181.94357488069
 20
115.3340308802244
 30
0.0
 10
181.9315076391003
 20
115.3440457782963
 30
0.0
  0
SPLINE
  5
11A
330
1F
100
AcDbEntity
  8
0
  6
HIDDEN
 62
     7
370
     0
100
AcDbSpline
210
0.0
220
0.0
230
1.0
 70
     8
 71
     3
 72
    18
 73
    14
 74
     0
 42
0.00000001
 43
0.00000001
 12
1.0
 22
0.0
 32
0.0
 13
1.0
 23
0.0
 33
0.0
 40
0.0
 40
0.0
 40
0.0
 40
0.0
 40
0.125
 40
0.125
 40
0.25
 40
0.25
 40
0.375
 40
0.375
 40
0.5
 40
0.5
 40
0.75
 40
0.75
 40
1.0
 40
1.0
 40
1.0
 40
1.0
 10
181.9315076391065
 20
115.3440457783038
 30
0.0
 10
181.8828021469644
 20
115.3844676539852
 30
0.0
 10
181.8242920386375
 20
115.4174997754529
 30
0.0
 10
181.6925629203454
 20
115.4307769274058
 30
0.0
 10
181.6278039840048
 20
115.4078233404256
 30
0.0
 10
181.5225930111453
 20
115.338770143506
 30
0.0
 10
181.4793766357053
 20
115.2943024916651
 30
0.0
 10
181.4031981305934
 20
115.2011328322951
 30
0.0
 10
181.3703431692135
 20
115.1519904627343
 30
0.0
 10
181.2799748893798
 20
115.0007807277944
 30
0.0
 10
181.2305516550097
 20
114.8946259582662
 30
0.0
 10
181.1429031999615
 20
114.6810443426047
 30
0.0
 10
181.1048440277587
 20
114.5730719113695
 30
0.0
 10
181.0704002104131
 20
114.4646121498155
 30
0.0
  0
SPLINE
  5
11B
330
1F
100
AcDbEntity
  8
0
  6
HIDDEN
 62
     7
370
     0
100
AcDbSpline
210
0.0
220
0.0
230
1.0
 70
     8
 71
     3
 72
     8
 73
     4
 74
     0
 42
0.00000001
 43
0.00000001
 12
1.0
 22
0.0
 32
0.0
 13
1.0
 23
0.0
 33
0.0
 40
0.0
 40
0.0
 40
0.0
 40
0.0
 40
1.0
 40
1.0
 40
1.0
 40
1.0
 10
181.0704002104125
 20
114.464612149815
 30
0.0
 10
181.0460865065224
 20
114.3880509922649
 30
0.0
 10
181.0245898645663
 20
114.3116256211317
 30
0.0
 10
181.0051641844164
 20
114.23553275036
 30
0.0
  0
SPLINE
  5
11C
330
1F
100
AcDbEntity
  8
0
  6
HIDDEN
 62
     7
370
     0
100
AcDbSpline
210
0.0
220
0.0
230
1.0
 70
     8
 71
     3
 72
     8
 73
     4
 74
     0
 42
0.00000001
 43
0.00000001
 12
1.0
 22
0.0
 32
0.0
 13
1.0
 23
0.0
 33
0.0
 40
0.0
 40
0.0
 40
0.0
 40
0.0
 40
1.0
 40
1.0
 40
1.0
 40
1.0
 10
181.0051641844164
 20
110.4639880599616
 30
0.0
 10
181.0245896113097
 20
110.4604908563743
 30
0.0
 10
181.0460861652787
 20
110.4584745387321
 30
0.0
 10
181.0704002104131
 20
110.4578636852882
 30
0.0
  0
SPLINE
  5
11D
330
1F
100
AcDbEntity
  8
0
  6
HIDDEN
 62
     7
370
     0
100
AcDbSpline
210
0.0
220
0.0
230
1.0
 70
     8
 71
     3
 72
     8
 73
     4
 74
     0
 42
0.00000001
 43
0.00000001
 12
1.0
 22
0.0
 32
0.0
 13
1.0
 23
0.0
 33
0.0
 40
0.0
 40
0.0
 40
0.0
 40
0.0
 40
1.0
 40
1.0
 40
1.0
 40
1.0
 10
182.1036335148701
 20
110.36850529423
 30
0.0
 10
182.1225704470359
 20
110.3405508568286
 30
0.0
 10
182.1264845279762
 20
110.3204670054723
 30
0.0
 10
182.1264845279762
 20
110.3042401613069
 30
0.0
  0
LINE
  5
11E
330
1F
100
AcDbEntity
  8
0
  6
HIDDEN
 62
     7
370
     0
100
AcDbLine
 10
182.126484533
 20
110.1992320928
 30
0.0
 11
182.126484533
 21
110.3042405757
 31
0.0
  0
LINE
  5
11F
330
1F
100
AcDbEntity
  8
0
  6
HIDDEN
 62
     7
370
     0
100
AcDbLine
 10
182.126484533
 20
138.2738635602
 30
0.0
 11
182.126484533
 21
138.3788720432
 31
0.0
  0
SPLINE
  5
120
330
1F
100
AcDbEntity
  8
0
  6
HIDDEN
 62
     7
370
     0
100
AcDbSpline
210
0.0
220
0.0
230
1.0
 70
     8
 71
     3
 72
     8
 73
     4
 74
     0
 42
0.00000001
 43
0.00000001
 12
1.0
 22
0.0
 32
0.0
 13
1.0
 23
0.0
 33
0.0
 40
0.0
 40
0.0
 40
0.0
 40
0.0
 40
1.0
 40
1.0
 40
1.0
 40
1.0
 10
181.0704002104127
 20
138.1202404506454
 30
0.0
 10
181.0460861652785
 20
138.1196295972015
 30
0.0
 10
181.0245896113096
 20
138.1176132795593
 30
0.0
 10
181.0051641844164
 20
138.114116075972
 30
0.0
  0
SPLINE
  5
121
330
1F
100
AcDbEntity
  8
0
  6
HIDDEN
 62
     7
370
     0
100
AcDbSpline
210
0.0
220
0.0
230
1.0
 70
     8
 71
     3
 72
     8
 73
     4
 74
     0
 42
0.00000001
 43
0.00000001
 12
1.0
 22
0.0
 32
0.0
 13
1.0
 23
0.0
 33
0.0
 40
0.0
 40
0.0
 40
0.0
 40
0.0
 40
1.0
 40
1.0
 40
1.0
 40
1.0
 10
181.0051641844164
 20
134.3425713855736
 30
0.0
 10
181.0245898645663
 20
134.2664785148019
 30
0.0
 10
181.0460865065224
 20
134.1900531436687
 30
0.0
 10
181.0704002104125
 20
134.1134919861186
 30
0.0
  0
SPLINE
  5
122
330
1F
100
AcDbEntity
  8
0
  6
HIDDEN
 62
     7
370
     0
100
AcDbSpline
210
0.0
220
0.0
230
1.0
 70
     8
 71
     3
 72
    10
 73
     6
 74
     0
 42
0.00000001
 43
0.00000001
 12
1.0
 22
0.0
 32
0.0
 13
1.0
 23
0.0
 33
0.0
 40
0.0
 40
0.0
 40
0.0
 40
0.0
 40
0.4999999999999999
 40
0.4999999999999999
 40
1.0
 40
1.0
 40
1.0
 40
1.0
 10
205.5250833662862
 20
121.1352309881017
 30
0.0
 10
205.5036726591987
 20
121.6607337301089
 30
0.0
 10
205.4771711423927
 20
122.1860930666777
 30
0.0
 10
205.4377256734157
 20
123.2371936492969
 30
0.0
 10
205.4251829437817
 20
123.7629461975757
 30
0.0
 10
205.4251829437817
 20
124.2890520679668
 30
0.0
  0
LINE
  5
123
330
1F
100
AcDbEntity
  8
0
  6
HIDDEN
 62
     7
370
     0
100
AcDbLine
 10
205.4251824138
 20
144.7890526342
 30
0.0
 11
205.4251824138
 21
124.289052068
 31
0.0
  0
SPLINE
  5
124
330
1F
100
AcDbEntity
  8
0
  6
HIDDEN
 62
     7
370
     0
100
AcDbSpline
210
0.0
220
0.0
230
1.0
 70
     8
 71
     3
 72
    14
 73
    10
 74
     0
 42
0.00000001
 43
0.00000001
 12
1.0
 22
0.0
 32
0.0
 13
1.0
 23
0.0
 33
0.0
 40
0.0
 40
0.0
 40
0.0
 40
0.0
 40
0.2499999999999999
 40
0.2499999999999999
 40
0.4999999999999998
 40
0.4999999999999998
 40
0.7499999999999999
 40
0.7499999999999999
 40
1.0
 40
1.0
 40
1.0
 40
1.0
 10
205.5250833662862
 20
103.5813099796723
 30
0.0
 10
205.5036646222314
 20
103.6906091556832
 30
0.0
 10
205.4771544507848
 20
103.7998651294214
 30
0.0
 10
205.4377028098323
 20
104.0184831203116
 30
0.0
 10
205.4251684754992
 20
104.1278922133078
 30
0.0
 10
205.4251974389902
 20
104.3465668807343
 30
0.0
 10
205.4377438857876
 20
104.4558400535599
 30
0.0
 10
205.4771848926039
 20
104.6743129400469
 30
0.0
 10
205.5036786054243
 20
104.7835147059572
 30
0.0
 10
205.5250833662862
 20
104.8927425261752
 30
0.0
  0
LINE
  5
125
330
1F
100
AcDbEntity
  8
0
  6
HIDDEN
 62
     7
370
     0
100
AcDbLine
 10
224.8883322445
 20
122.1909431933
 30
0.0
 11
224.8883322445
 21
117.7230020712
 31
0.0
  0
ARC
  5
126
330
1F
100
AcDbEntity
  8
0
  6
HIDDEN
 62
     7
370
     0
100
AcDbCircle
 10
249.8002738322
 20
117.7079624868
 30
0.0
 40
24.91194612742108
100
AcDbArc
 50
179.9654099781
 51
195.2247434999
  0
LINE
  5
127
330
1F
100
AcDbEntity
  8
0
  6
HIDDEN
 62
     7
370
     0
100
AcDbLine
 10
211.3467250583
 20
118.6771220255
 30
0.0
 11
225.7626578776
 21
111.165938406
 31
0.0
  0
ARC
  5
128
330
1F
100
AcDbEntity
  8
0
  6
HIDDEN
 62
     7
370
     0
100
AcDbCircle
 10
210.403281278
 20
116.8347737324
 30
0.0
 40
2.069863135501838
100
AcDbArc
 50
62.8835754672
 51
113.229274212
  0
LINE
  5
129
330
1F
100
AcDbEntity
  8
0
  6
HIDDEN
 62
     7
370
     0
100
AcDbLine
 10
214.5541906921
 20
112.2943996179
 30
0.0
 11
212.2293841658
 21
113.5057010415
 31
0.0
  0
LINE
  5
12A
330
1F
100
AcDbEntity
  8
0
  6
HIDDEN
 62
     7
370
     0
100
AcDbLine
 10
217.1417289046
 20
107.0458101767
 30
0.0
 11
214.5541906921
 21
112.2943996179
 31
0.0
  0
LWPOLYLINE
  5
12B
330
1F
100
AcDbEntity
  8
0
  6
HIDDEN
 62
     7
370
     0
100
AcDbPolyline
 90
       36
 70
   128
 43
0.0
 10
216.2663043109
 20
117.504729862
 10
216.8272734253
 20
117.4736651319
 10
217.3882425396
 20
117.5458603266
 10
217.9301120905
 20
117.7188572201
 10
218.4344195394
 20
117.9867642659
 10
218.8840024737
 20
118.3404577623
 10
219.2635424999
 20
118.7678938459
 10
219.5601203112
 20
119.2545164104
 10
219.7636366455
 20
119.7837544332
 10
219.8671550123
 20
120.3375844943
 10
219.8671550123
 20
120.8971475444
 10
219.7636366455
 20
121.4433877922
 10
219.5601203112
 20
121.9577036991
 10
219.2635424999
 20
122.4225809292
 10
219.1915177373
 20
122.5110044197
 10
218.8840024737
 20
122.8221886285
 10
218.4344195394
 20
123.1429187774
 10
217.9301120905
 20
123.3738491155
 10
217.3882425396
 20
123.5071157298
 10
216.8272734253
 20
123.5381802853
 10
216.2663043109
 20
123.465984916
 10
215.7244384853
 20
123.2929882553
 10
215.2201273111
 20
123.025081326
 10
214.7705443768
 20
122.6713874803
 10
214.3910043506
 20
122.2439515131
 10
214.0944265393
 20
121.7573287158
 10
213.8909139303
 20
121.2280911586
 10
213.7873918382
 20
120.6742608647
 10
213.7873918382
 20
120.1146980475
 10
213.8909139303
 20
119.5684577997
 10
214.0944265393
 20
119.0541418928
 10
214.3910043506
 20
118.5892647791
 10
214.7705443768
 20
118.189656614
 10
215.2201273111
 20
117.8689268145
 10
215.7244384853
 20
117.6379960689
 10
216.2663043109
 20
117.504729862
  0
ARC
  5
12C
330
1F
100
AcDbEntity
  8
0
  6
HIDDEN
 62
     7
370
     0
100
AcDbCircle
 10
212.0349856437
 20
132.0385553907
 30
0.0
 40
2.463841809426563
100
AcDbArc
 50
145.162953567
 51
201.8802765323
  0
ARC
  5
12D
330
1F
100
AcDbEntity
  8
0
  6
HIDDEN
 62
     7
370
     0
100
AcDbCircle
 10
212.1508463179
 20
132.2218334396
 30
0.0
 40
2.342253526538414
100
AcDbArc
 50
22.5439583944
 51
81.3185269557
  0
LINE
  5
12E
330
1F
100
AcDbEntity
  8
0
  6
HIDDEN
 62
     7
370
     0
100
AcDbLine
 10
210.8553741691
 20
128.4401653993
 30
0.0
 11
209.7486276744
 21
131.1203594978
 31
0.0
  0
ARC
  5
12F
330
1F
100
AcDbEntity
  8
0
  6
HIDDEN
 62
     7
370
     0
100
AcDbCircle
 10
213.115949502
 20
129.4905246069
 30
0.0
 40
2.4926803446214
100
AcDbArc
 50
204.9215802288
 51
22.3808500725
  0
LINE
  5
130
330
1F
100
AcDbEntity
  8
0
  6
HIDDEN
 62
     7
370
     0
100
AcDbLine
 10
214.3141180841
 20
133.1198350253
 30
0.0
 11
215.4208645789
 21
130.4396409268
 31
0.0
  0
ELLIPSE
  5
131
330
1F
100
AcDbEntity
  8
0
  6
HIDDEN
 62
     7
370
     0
100
AcDbEllipse
 10
223.72095304
 20
124.289052068
 30
0.0
 11
-0.7745314052906734
 21
20.49956594690757
 31
0.0
210
0.0
220
0.0
230
1.0
 40
0.1722352441
 41
1.142784831412981
 42
1.564288885469426
  0
ELLIPSE
  5
132
330
1F
100
AcDbEntity
  8
0
  6
HIDDEN
 62
     7
370
     0
100
AcDbEllipse
 10
226.7888249058
 20
124.289052068
 30
0.0
 11
-15.01361785357562
 21
20.49858484107698
 31
0.0
210
0.0
220
0.0
230
1.0
 40
0.0160435947
 41
6.271435163618882
 42
7.420727436356488
  0
LINE
  5
133
330
1F
100
AcDbEntity
  8
0
  6
HIDDEN
 62
     7
370
     0
100
AcDbLine
 10
182.126484533
 20
110.3042405757
 30
0.0
 11
182.126484533
 21
118.7836071203
 31
0.0
  0
LINE
  5
134
330
1F
100
AcDbEntity
  8
0
  6
HIDDEN
 62
     7
370
     0
100
AcDbLine
 10
182.126484533
 20
129.7944970156
 30
0.0
 11
182.126484533
 21
138.2738635602
 31
0.0
  0
ARC
  5
135
330
1F
100
AcDbEntity
  8
0
  6
HIDDEN
 62
     7
370
     0
100
AcDbCircle
 10
211.9662494937
 20
132.1729229574
 30
0.0
 40
1.99438687982164
100
AcDbArc
 50
25.205476868
 51
202.0969816548
  0
CIRCLE
  5
136
330
1F
100
AcDbEntity
  8
0
  6
HIDDEN
 62
     7
370
     0
100
AcDbCircle
 10
170.826484528
 20
124.289052068
 30
0.0
 40
2.299999999999997
  0
LINE
  5
137
330
1F
100
AcDbEntity
  8
0
  6
HIDDEN
 62
     7
370
     0
100
AcDbLine
 10
210.1183534233
 20
131.4226835693
 30
0.0
 11
211.225099918
 21
128.7424894708
 31
0.0
  0
ARC
  5
138
330
1F
100
AcDbEntity
  8
0
  6
HIDDEN
 62
     7
370
     0
100
AcDbCircle
 10
211.3565234987
 20
132.8940292997
 30
0.0
 40
1.994260563446516
100
AcDbArc
 50
25.0653141949
 51
202.2371565864
  0
LINE
  5
139
330
1F
100
AcDbEntity
  8
0
  6
HIDDEN
 62
     7
370
     0
100
AcDbLine
 10
214.8774900106
 20
130.342069986
 30
0.0
 11
213.7707435159
 21
133.0222640845
 31
0.0
  0
ARC
  5
13A
330
1F
100
AcDbEntity
  8
0
  6
HIDDEN
 62
     7
370
     0
100
AcDbCircle
 10
213.0315515937
 20
129.5873606048
 30
0.0
 40
1.994260486843064
100
AcDbArc
 50
205.0653276524
 51
22.2371308703
  0
LINE
  5
13B
330
1F
100
AcDbEntity
  8
0
  6
HIDDEN
 62
     7
370
     0
100
AcDbLine
 10
159.3535170523
 20
133.8517456042
 30
0.0
 11
159.3535170523
 21
114.7263585317
 31
0.0
  0
LINE
  5
13C
330
1F
100
AcDbEntity
  8
0
  6
HIDDEN
 62
     7
370
     0
100
AcDbLine
 10
158.3264843194
 20
114.1334012809
 30
0.0
 11
158.3264843194
 21
134.4312368619
 31
0.0
  0
LINE
  5
13D
330
1F
100
AcDbEntity
  8
0
  6
HIDDEN
 62
     7
370
     0
100
AcDbLine
 10
214.2697237996
 20
131.0587054777
 30
0.0
 11
213.1629754422
 21
133.7389000418
 31
0.0
  0
LINE
  5
13E
330
1F
100
AcDbEntity
  8
0
  6
HIDDEN
 62
     7
370
     0
100
AcDbLine
 10
162.8535166947
 20
133.5199917394
 30
0.0
 11
162.8535166947
 21
115.0581123966
 31
0.0
  0
LINE
  5
13F
330
1F
100
AcDbEntity
  8
0
  6
HIDDEN
 62
     7
370
     0
100
AcDbLine
 10
166.2535165069
 20
133.2890516805
 30
0.0
 11
166.2535165069
 21
115.2890524554
 31
0.0
  0
ARC
  5
140
330
1F
100
AcDbEntity
  8
0
  6
HIDDEN
 62
     7
370
     0
100
AcDbCircle
 10
212.4237841767
 20
130.3039969924
 30
0.0
 40
1.994261264012082
100
AcDbArc
 50
205.0653308575
 51
22.2370939318
  0
LINE
  5
141
330
1F
100
AcDbEntity
  8
0
  6
HIDDEN
 62
     7
370
     0
100
AcDbLine
 10
161.4535172103
 20
133.2890516805
 30
0.0
 11
161.4535172103
 21
115.2890524554
 31
0.0
  0
LINE
  5
142
330
1F
100
AcDbEntity
  8
0
  6
HIDDEN
 62
     7
370
     0
100
AcDbLine
 10
162.4535173742
 20
133.2890516805
 30
0.0
 11
162.4535173742
 21
115.2890524554
 31
0.0
  0
SPLINE
  5
143
330
1F
100
AcDbEntity
  8
0
  6
HIDDEN
 62
     7
370
     0
100
AcDbSpline
210
0.0
220
0.0
230
1.0
 70
     8
 71
     3
 72
    14
 73
    10
 74
     0
 42
0.00000001
 43
0.00000001
 12
1.0
 22
0.0
 32
0.0
 13
1.0
 23
0.0
 33
0.0
 40
0.0
 40
0.0
 40
0.0
 40
0.0
 40
0.2499999999999999
 40
0.2499999999999999
 40
0.4999999999999999
 40
0.4999999999999999
 40
0.7499999999999999
 40
0.7499999999999999
 40
1.0
 40
1.0
 40
1.0
 40
1.0
 10
172.826484527976
 20
125.4248337371268
 30
0.0
 10
172.924708874479
 20
125.2518703073233
 30
0.0
 10
173.0000237124631
 20
125.0668377528989
 30
0.0
 10
173.1009904226574
 20
124.6838255387645
 30
0.0
 10
173.1263660089476
 20
124.4891069852988
 30
0.0
 10
173.1266022342139
 20
124.0917316840332
 30
0.0
 10
173.1008991648784
 20
123.8942393495579
 30
0.0
 10
173.0005790513619
 20
123.5130675149268
 30
0.0
 10
172.9246872232743
 20
123.3261957029543
 30
0.0
 10
172.8264845279806
 20
123.1532703988044
 30
0.0
  0
LINE
  5
144
330
1F
100
AcDbEntity
  8
0
  6
HIDDEN
 62
     7
370
     0
100
AcDbLine
 10
173.3264849154
 20
132.7890525299
 30
0.0
 11
173.3264849154
 21
115.789051606
 31
0.0
  0
SPLINE
  5
145
330
1F
100
AcDbEntity
  8
0
  6
HIDDEN
 62
     7
370
     0
100
AcDbSpline
210
0.0
220
0.0
230
1.0
 70
     8
 71
     3
 72
    14
 73
    10
 74
     0
 42
0.00000001
 43
0.00000001
 12
1.0
 22
0.0
 32
0.0
 13
1.0
 23
0.0
 33
0.0
 40
0.0
 40
0.0
 40
0.0
 40
0.0
 40
0.2499999999999999
 40
0.2499999999999999
 40
0.4999999999999999
 40
0.4999999999999999
 40
0.7499999999999999
 40
0.7499999999999999
 40
1.0
 40
1.0
 40
1.0
 40
1.0
 10
172.826484527976
 20
123.1532703988067
 30
0.0
 10
172.924708874479
 20
123.3262338286102
 30
0.0
 10
173.0000237124631
 20
123.5112663830347
 30
0.0
 10
173.1009904226574
 20
123.8942785971691
 30
0.0
 10
173.1263660089476
 20
124.0889971506348
 30
0.0
 10
173.1266022342139
 20
124.4863724519003
 30
0.0
 10
173.1008991648784
 20
124.6838647863757
 30
0.0
 10
173.0005790513619
 20
125.0650366210067
 30
0.0
 10
172.9246872232743
 20
125.2519084329793
 30
0.0
 10
172.8264845279806
 20
125.4248337371292
 30
0.0
  0
SPLINE
  5
146
330
1F
100
AcDbEntity
  8
0
  6
HIDDEN
 62
     7
370
     0
100
AcDbSpline
210
0.0
220
0.0
230
1.0
 70
     8
 71
     3
 72
    60
 73
    56
 74
     0
 42
0.00000001
 43
0.00000001
 12
1.0
 22
0.0
 32
0.0
 13
1.0
 23
0.0
 33
0.0
 40
0.0
 40
0.0
 40
0.0
 40
0.0
 40
0.0625000000000005
 40
0.0625000000000005
 40
0.125000000000001
 40
0.125000000000001
 40
0.1875000000000015
 40
0.1875000000000015
 40
0.2187500000000015
 40
0.2187500000000015
 40
0.2500000000000016
 40
0.2500000000000016
 40
0.3125000000000017
 40
0.3125000000000017
 40
0.3750000000000018
 40
0.3750000000000018
 40
0.4062500000000017
 40
0.4062500000000017
 40
0.4375000000000016
 40
0.4375000000000016
 40
0.4687500000000015
 40
0.4687500000000015
 40
0.5000000000000014
 40
0.5000000000000014
 40
0.5312500000000013
 40
0.5312500000000013
 40
0.5625000000000012
 40
0.5625000000000012
 40
0.5937500000000012
 40
0.5937500000000012
 40
0.6250000000000011
 40
0.6250000000000011
 40
0.656250000000001
 40
0.656250000000001
 40
0.6875000000000009
 40
0.6875000000000009
 40
0.7187500000000009
 40
0.7187500000000009
 40
0.7500000000000008
 40
0.7500000000000008
 40
0.7812500000000007
 40
0.7812500000000007
 40
0.8125000000000006
 40
0.8125000000000006
 40
0.8437500000000006
 40
0.8437500000000006
 40
0.8750000000000004
 40
0.8750000000000004
 40
0.9062500000000003
 40
0.9062500000000003
 40
0.9375000000000002
 40
0.9375000000000002
 40
0.9687500000000002
 40
0.9687500000000002
 40
1.0
 40
1.0
 40
1.0
 40
1.0
 10
172.826484527976
 20
123.1532703988067
 30
0.0
 10
172.7012946263974
 20
122.9328232741912
 30
0.0
 10
172.5444273078292
 20
122.7390895453708
 30
0.0
 10
172.1673897880104
 20
122.4033998466084
 30
0.0
 10
171.9556764815894
 20
122.2694224882956
 30
0.0
 10
171.4897864996406
 20
122.0722957436105
 30
0.0
 10
171.243947268589
 20
122.0130783313887
 30
0.0
 10
170.8644662154945
 20
121.985871595498
 30
0.0
 10
170.7367204868005
 20
121.9873648606398
 30
0.0
 10
170.4862542401324
 20
122.0108806664488
 30
0.0
 10
170.3624248573242
 20
122.032799885253
 30
0.0
 10
169.9952051832256
 20
122.1296364500979
 30
0.0
 10
169.7644361651398
 20
122.2334375715497
 30
0.0
 10
169.3445472037203
 20
122.5121560524777
 30
0.0
 10
169.1602888288327
 20
122.6837183439814
 30
0.0
 10
168.9295404413494
 20
122.9823657052482
 30
0.0
 10
168.8604935915604
 20
123.0888332457505
 30
0.0
 10
168.7419289277549
 20
123.3091165941435
 30
0.0
 10
168.6917205590053
 20
123.4237781105449
 30
0.0
 10
168.6098887066475
 20
123.6624587473217
 30
0.0
 10
168.5785378077648
 20
123.7865043741998
 30
0.0
 10
168.5371434297262
 20
124.0346194103081
 30
0.0
 10
168.526637654662
 20
124.1598571127966
 30
0.0
 10
168.5263347023262
 20
124.4127361683876
 30
0.0
 10
168.5368192319428
 20
124.5406158546242
 30
0.0
 10
168.5779593094042
 20
124.7890379158297
 30
0.0
 10
168.6085374299528
 20
124.910836842598
 30
0.0
 10
168.689820138304
 20
125.1496163720724
 30
0.0
 10
168.740821024866
 20
125.2666579343791
 30
0.0
 10
168.859388073229
 20
125.487483132305
 30
0.0
 10
168.9272768265008
 20
125.5924214958677
 30
0.0
 10
169.0804272642384
 20
125.7913988290971
 30
0.0
 10
169.1659834358109
 20
125.8854069542913
 30
0.0
 10
169.3486948067701
 20
126.055899639228
 30
0.0
 10
169.446502106452
 20
126.1333378342774
 30
0.0
 10
169.655305218369
 20
126.2725037301657
 30
0.0
 10
169.7668873936569
 20
126.3342855391726
 30
0.0
 10
169.9955331931559
 20
126.4373644097734
 30
0.0
 10
170.113488004127
 20
126.4793684449691
 30
0.0
 10
170.3568164491157
 20
126.5441045662659
 30
0.0
 10
170.4831603244588
 20
126.5667778288285
 30
0.0
 10
170.7342663054767
 20
126.5906606250097
 30
0.0
 10
170.8599482991996
 20
126.5922639262764
 30
0.0
 10
171.1115703689914
 20
126.5747971875055
 30
0.0
 10
171.2384679892772
 20
126.5553612968655
 30
0.0
 10
171.4836585555383
 20
126.4967681255419
 30
0.0
 10
171.6028477125718
 20
126.4577052743852
 30
0.0
 10
171.8345327369266
 20
126.3601955522615
 30
0.0
 10
171.9477075412771
 20
126.3011601979729
 30
0.0
 10
172.1597859582128
 20
126.1673564811334
 30
0.0
 10
172.2595747369137
 20
126.0923612649886
 30
0.0
 10
172.4468329239026
 20
125.9261662004678
 30
0.0
 10
172.534727960846
 20
125.8342720017263
 30
0.0
 10
172.6929490364779
 20
125.6389078040119
 30
0.0
 10
172.7638869927696
 20
125.5350618503395
 30
0.0
 10
172.826484527976
 20
125.4248337371268
 30
0.0
  0
SPLINE
  5
147
330
1F
100
AcDbEntity
  8
0
  6
HIDDEN
 62
     7
370
     0
100
AcDbSpline
210
0.0
220
0.0
230
1.0
 70
     8
 71
     3
 72
    60
 73
    56
 74
     0
 42
0.00000001
 43
0.00000001
 12
1.0
 22
0.0
 32
0.0
 13
1.0
 23
0.0
 33
0.0
 40
0.0
 40
0.0
 40
0.0
 40
0.0
 40
0.0625000000000005
 40
0.0625000000000005
 40
0.125000000000001
 40
0.125000000000001
 40
0.1875000000000015
 40
0.1875000000000015
 40
0.2187500000000015
 40
0.2187500000000015
 40
0.2500000000000016
 40
0.2500000000000016
 40
0.3125000000000017
 40
0.3125000000000017
 40
0.3750000000000018
 40
0.3750000000000018
 40
0.4062500000000017
 40
0.4062500000000017
 40
0.4375000000000016
 40
0.4375000000000016
 40
0.4687500000000015
 40
0.4687500000000015
 40
0.5000000000000014
 40
0.5000000000000014
 40
0.5312500000000013
 40
0.5312500000000013
 40
0.5625000000000012
 40
0.5625000000000012
 40
0.5937500000000012
 40
0.5937500000000012
 40
0.6250000000000011
 40
0.6250000000000011
 40
0.656250000000001
 40
0.656250000000001
 40
0.6875000000000009
 40
0.6875000000000009
 40
0.7187500000000009
 40
0.7187500000000009
 40
0.7500000000000008
 40
0.7500000000000008
 40
0.7812500000000007
 40
0.7812500000000007
 40
0.8125000000000006
 40
0.8125000000000006
 40
0.8437500000000006
 40
0.8437500000000006
 40
0.8750000000000004
 40
0.8750000000000004
 40
0.9062500000000003
 40
0.9062500000000003
 40
0.9375000000000002
 40
0.9375000000000002
 40
0.9687500000000002
 40
0.9687500000000002
 40
1.0
 40
1.0
 40
1.0
 40
1.0
 10
172.826484527976
 20
125.4248337371268
 30
0.0
 10
172.7012946263974
 20
125.6452808617424
 30
0.0
 10
172.5444273078292
 20
125.8390145905628
 30
0.0
 10
172.1673897880104
 20
126.1747042893252
 30
0.0
 10
171.9556764815894
 20
126.3086816476379
 30
0.0
 10
171.4897864996406
 20
126.5058083923231
 30
0.0
 10
171.243947268589
 20
126.5650258045449
 30
0.0
 10
170.8644662154945
 20
126.5922325404356
 30
0.0
 10
170.7367204868005
 20
126.5907392752937
 30
0.0
 10
170.4862542401324
 20
126.5672234694848
 30
0.0
 10
170.3624248573242
 20
126.5453042506806
 30
0.0
 10
169.9952051832256
 20
126.4484676858357
 30
0.0
 10
169.7644361651398
 20
126.3446665643839
 30
0.0
 10
169.3445472037203
 20
126.0659480834558
 30
0.0
 10
169.1602888288327
 20
125.8943857919521
 30
0.0
 10
168.9295404413494
 20
125.5957384306853
 30
0.0
 10
168.8604935915604
 20
125.4892708901831
 30
0.0
 10
168.7419289277549
 20
125.2689875417901
 30
0.0
 10
168.6917205590053
 20
125.1543260253887
 30
0.0
 10
168.6098887066475
 20
124.9156453886119
 30
0.0
 10
168.5785378077648
 20
124.7915997617338
 30
0.0
 10
168.5371434297262
 20
124.5434847256255
 30
0.0
 10
168.526637654662
 20
124.418247023137
 30
0.0
 10
168.5263347023262
 20
124.165367967546
 30
0.0
 10
168.5368192319428
 20
124.0374882813094
 30
0.0
 10
168.5779593094042
 20
123.7890662201039
 30
0.0
 10
168.6085374299528
 20
123.6672672933355
 30
0.0
 10
168.689820138304
 20
123.4284877638612
 30
0.0
 10
168.740821024866
 20
123.3114462015545
 30
0.0
 10
168.859388073229
 20
123.0906210036286
 30
0.0
 10
168.9272768265008
 20
122.9856826400658
 30
0.0
 10
169.0804272642384
 20
122.7867053068365
 30
0.0
 10
169.1659834358109
 20
122.6926971816423
 30
0.0
 10
169.3486948067701
 20
122.5222044967056
 30
0.0
 10
169.446502106452
 20
122.4447663016562
 30
0.0
 10
169.655305218369
 20
122.3056004057679
 30
0.0
 10
169.7668873936569
 20
122.2438185967609
 30
0.0
 10
169.9955331931559
 20
122.1407397261601
 30
0.0
 10
170.113488004127
 20
122.0987356909645
 30
0.0
 10
170.3568164491157
 20
122.0339995696677
 30
0.0
 10
170.4831603244588
 20
122.011326307105
 30
0.0
 10
170.7342663054767
 20
121.9874435109239
 30
0.0
 10
170.8599482991996
 20
121.9858402096572
 30
0.0
 10
171.1115703689914
 20
122.0033069484281
 30
0.0
 10
171.2384679892772
 20
122.022742839068
 30
0.0
 10
171.4836585555383
 20
122.0813360103917
 30
0.0
 10
171.6028477125718
 20
122.1203988615483
 30
0.0
 10
171.8345327369266
 20
122.2179085836721
 30
0.0
 10
171.9477075412771
 20
122.2769439379607
 30
0.0
 10
172.1597859582128
 20
122.4107476548002
 30
0.0
 10
172.2595747369137
 20
122.485742870945
 30
0.0
 10
172.4468329239026
 20
122.6519379354658
 30
0.0
 10
172.534727960846
 20
122.7438321342073
 30
0.0
 10
172.6929490364779
 20
122.9391963319217
 30
0.0
 10
172.7638869927696
 20
123.0430422855941
 30
0.0
 10
172.826484527976
 20
123.1532703988067
 30
0.0
  0
ARC
  5
148
330
1F
100
AcDbEntity
  8
0
  6
HIDDEN
 62
     7
370
     0
100
AcDbCircle
 10
209.0450681675
 20
118.3924404628
 30
0.0
 40
2.090305171740818
100
AcDbArc
 50
62.197094906
 51
239.8443370989
  0
LWPOLYLINE
  5
149
330
1F
100
AcDbEntity
  8
0
  6
HIDDEN
 62
     7
370
     0
100
AcDbPolyline
 90
       35
 70
   128
 43
0.0
 10
216.1326818732
 20
118.2926771889
 10
216.6936509875
 20
118.3648728493
 10
217.2355168132
 20
118.5378692771
 10
217.7398279873
 20
118.8057763229
 10
218.1894109217
 20
119.159470285
 10
218.5689509479
 20
119.5869063686
 10
218.8655287592
 20
120.073528933
 10
219.0690413682
 20
120.6027664903
 10
219.1725634603
 20
121.1565967842
 10
219.1725634603
 20
121.7161596014
 10
219.0690413682
 20
122.2623998492
 10
218.8655287592
 20
122.7767157561
 10
218.5689509479
 20
123.2415931026
 10
218.1894109217
 20
123.641200802
 10
217.7398279873
 20
123.9619309508
 10
217.2355168132
 20
124.1928613181
 10
216.6936509875
 20
124.3261279032
 10
216.1326818732
 20
124.3571924515
 10
215.5717127589
 20
124.2849971131
 10
215.0298469333
 20
124.1120003997
 10
214.5255357591
 20
123.8440935285
 10
214.0759528247
 20
123.4903997119
 10
213.6964127986
 20
123.0629635702
 10
213.3998331247
 20
122.5763410057
 10
213.1963205157
 20
122.0471032157
 10
213.0928002862
 20
121.4932729217
 10
213.0928002862
 20
120.9337101045
 10
213.1963205157
 20
120.3874698567
 10
213.3998331247
 20
119.8731539498
 10
213.6964127986
 20
119.4082768361
 10
214.0759528247
 20
119.0086691367
 10
214.5255357591
 20
118.6879388715
 10
215.0298469333
 20
118.4570085916
 10
215.5717127589
 20
118.3237419191
 10
216.1326818732
 20
118.2926771889
  0
LINE
  5
14A
330
1F
100
AcDbEntity
  8
0
  6
HIDDEN
 62
     7
370
     0
100
AcDbLine
 10
207.9950012831
 20
116.5850292618
 30
0.0
 11
208.2956154464
 21
116.4283989656
 31
0.0
  0
LINE
  5
14B
330
1F
100
AcDbEntity
  8
0
  6
HIDDEN
 62
     7
370
     0
100
AcDbLine
 10
211.5004882781
 20
114.7585534218
 30
0.0
 11
213.2275160966
 21
113.8587132755
 31
0.0
  0
LINE
  5
14C
330
1F
100
AcDbEntity
  8
0
  6
HIDDEN
 62
     7
370
     0
100
AcDbLine
 10
213.2275160966
 20
113.8587132755
 30
0.0
 11
214.5541906921
 21
112.2943996179
 31
0.0
  0
LINE
  5
14D
330
1F
100
AcDbEntity
  8
0
  6
HIDDEN
 62
     7
370
     0
100
AcDbLine
 10
209.5105853496
 20
132.139319061
 30
0.0
 11
210.6173318444
 21
129.4591254282
 31
0.0
  0
LINE
  5
14E
330
1F
100
AcDbEntity
  8
0
  6
HIDDEN
 62
     7
370
     0
100
AcDbLine
 10
224.8883322445
 20
127.1330886247
 30
0.0
 11
220.1872245041
 21
132.6762851986
 31
0.0
  0
LINE
  5
14F
330
1F
100
AcDbEntity
  8
0
  6
HIDDEN
 62
     7
370
     0
100
AcDbLine
 10
174.2264843179
 20
130.5390521611
 30
0.0
 11
174.2264843179
 21
118.0390519748
 31
0.0
  0
LINE
  5
150
330
1F
100
AcDbEntity
  8
0
  6
HIDDEN
 62
     7
370
     0
100
AcDbLine
 10
173.3264849154
 20
117.1390521067
 30
0.0
 11
173.3264849154
 21
131.4254910412
 31
0.0
  0
LINE
  5
151
330
1F
100
AcDbEntity
  8
0
  6
HIDDEN
 62
     7
370
     0
100
AcDbLine
 10
199.3111055909
 20
118.0390519748
 30
0.0
 11
199.3111055909
 21
130.5390521611
 31
0.0
  0
SPLINE
  5
152
330
1F
100
AcDbEntity
  8
0
  6
HIDDEN
 62
     7
370
     0
100
AcDbSpline
210
0.0
220
0.0
230
1.0
 70
     8
 71
     3
 72
    64
 73
    60
 74
     0
 42
0.00000001
 43
0.00000001
 12
1.0
 22
0.0
 32
0.0
 13
1.0
 23
0.0
 33
0.0
 40
-0.0312500000000001
 40
-0.0312500000000001
 40
0.0
 40
0.0
 40
0.0312499999999999
 40
0.0312499999999999
 40
0.0624999999999998
 40
0.0624999999999998
 40
0.0937499999999996
 40
0.0937499999999996
 40
0.1249999999999995
 40
0.1249999999999995
 40
0.1874999999999993
 40
0.1874999999999993
 40
0.2187499999999992
 40
0.2187499999999992
 40
0.2499999999999991
 40
0.2499999999999991
 40
0.2812499999999989
 40
0.2812499999999989
 40
0.3124999999999988
 40
0.3124999999999988
 40
0.3437499999999987
 40
0.3437499999999987
 40
0.3749999999999987
 40
0.3749999999999987
 40
0.4062499999999986
 40
0.4062499999999986
 40
0.4374999999999984
 40
0.4374999999999984
 40
0.4687499999999983
 40
0.4687499999999983
 40
0.4999999999999982
 40
0.4999999999999982
 40
0.5624999999999983
 40
0.5624999999999983
 40
0.5937499999999984
 40
0.5937499999999984
 40
0.6249999999999986
 40
0.6249999999999986
 40
0.6562499999999987
 40
0.6562499999999987
 40
0.6874999999999988
 40
0.6874999999999988
 40
0.7187499999999989
 40
0.7187499999999989
 40
0.749999999999999
 40
0.749999999999999
 40
0.7812499999999992
 40
0.7812499999999992
 40
0.8124999999999993
 40
0.8124999999999993
 40
0.8749999999999994
 40
0.8749999999999994
 40
0.9062499999999997
 40
0.9062499999999997
 40
0.9374999999999998
 40
0.9374999999999998
 40
0.9687499999999999
 40
0.9687499999999999
 40
1.0
 40
1.0
 40
1.03125
 40
1.03125
 10
199.9312172648483
 20
125.7179845775394
 30
0.0
 10
199.8677427189659
 20
125.5022014900146
 30
0.0
 10
199.8408025330038
 20
125.3874417348396
 30
0.0
 10
199.7955293757516
 20
125.1446152910492
 30
0.0
 10
199.7770704594513
 20
125.0150041191581
 30
0.0
 10
199.7498075538126
 20
124.7499539296831
 30
0.0
 10
199.7409068557991
 20
124.6149611400643
 30
0.0
 10
199.7323237105883
 20
124.3400479438499
 30
0.0
 10
199.7327766240674
 20
124.1994887747233
 30
0.0
 10
199.7482113882284
 20
123.7889155782868
 30
0.0
 10
199.7776501544581
 20
123.519020645908
 30
0.0
 10
199.8479988044992
 20
123.1584031416491
 30
0.0
 10
199.8761607488524
 20
123.0435343401453
 30
0.0
 10
199.9408335779991
 20
122.8324118081287
 30
0.0
 10
199.9769778996458
 20
122.7368520769927
 30
0.0
 10
200.0576332873833
 20
122.5653050225477
 30
0.0
 10
200.1025831190187
 20
122.4890059954275
 30
0.0
 10
200.1984601850452
 20
122.3626163039571
 30
0.0
 10
200.2496907604105
 20
122.3115803193437
 30
0.0
 10
200.3601436240692
 20
122.2343267350486
 30
0.0
 10
200.4189009889919
 20
122.2087833924289
 30
0.0
 10
200.5407664545797
 20
122.1850561598474
 30
0.0
 10
200.604690248405
 20
122.1865192632652
 30
0.0
 10
200.7383782465654
 20
122.2172394220304
 30
0.0
 10
200.8063650290988
 20
122.245975355343
 30
0.0
 10
200.9455039130215
 20
122.3292471373383
 30
0.0
 10
201.0175064814815
 20
122.3846855022528
 30
0.0
 10
201.1598011514492
 20
122.5178054253087
 30
0.0
 10
201.2303237691174
 20
122.5953003122633
 30
0.0
 10
201.3695743950724
 20
122.7719436475047
 30
0.0
 10
201.4379388964161
 20
122.8709115609699
 30
0.0
 10
201.6289730771481
 20
123.1881881101657
 30
0.0
 10
201.7425100859784
 20
123.4341589487376
 30
0.0
 10
201.8504454311997
 20
123.8257252928403
 30
0.0
 10
201.8764696045914
 20
123.9629847933141
 30
0.0
 10
201.9010111041839
 20
124.2378941563908
 30
0.0
 10
201.8998316902658
 20
124.3750820480298
 30
0.0
 10
201.8709628211843
 20
124.6489298295693
 30
0.0
 10
201.8429032265898
 20
124.7858612686562
 30
0.0
 10
201.7671990792315
 20
125.0464652823383
 30
0.0
 10
201.7191911655438
 20
125.1726718541714
 30
0.0
 10
201.6096645403878
 20
125.4126951963166
 30
0.0
 10
201.549129689554
 20
125.5247301298704
 30
0.0
 10
201.4201920842735
 20
125.7337855767471
 30
0.0
 10
201.3510399967265
 20
125.8315249815352
 30
0.0
 10
201.2117911029328
 20
126.0038891335884
 30
0.0
 10
201.1412581186388
 20
126.079422266297
 30
0.0
 10
200.9987875346676
 20
126.2086202702951
 30
0.0
 10
200.9270148473902
 20
126.2617637795056
 30
0.0
 10
200.7189923880161
 20
126.3799008385181
 30
0.0
 10
200.5846836684194
 20
126.4062591289332
 30
0.0
 10
200.4029689561173
 20
126.3633866771448
 30
0.0
 10
200.3444484581952
 20
126.3351928142344
 30
0.0
 10
200.2355287488437
 20
126.2534697580392
 30
0.0
 10
200.1848700055333
 20
126.2002230219149
 30
0.0
 10
200.0899199493271
 20
126.0689104034503
 30
0.0
 10
200.0458200993984
 20
125.9906539476632
 30
0.0
 10
199.9667426996928
 20
125.8155458761216
 30
0.0
 10
199.9312172648483
 20
125.7179845775394
 30
0.0
 10
199.8677427189659
 20
125.5022014900146
 30
0.0
  0
LINE
  5
153
330
1F
100
AcDbEntity
  8
0
  6
HIDDEN
 62
     7
370
     0
100
AcDbLine
 10
205.5991534708
 20
103.3310885268
 30
0.0
 11
205.5250835238
 21
103.5813106882
 31
0.0
  0
LINE
  5
154
330
1F
100
AcDbEntity
  8
0
  6
HIDDEN
 62
     7
370
     0
100
AcDbLine
 10
225.7626578776
 20
111.165938406
 30
0.0
 11
224.4359851448
 21
112.7302511322
 31
0.0
  0
LWPOLYLINE
  5
155
330
1F
100
AcDbEntity
  8
0
  6
HIDDEN
 62
     7
370
     0
100
AcDbPolyline
 90
       31
 70
   128
 43
0.0
 10
216.0700783698
 20
118.9533825691
 10
216.5819630591
 20
119.02558568
 10
217.0714736549
 20
119.2015073921
 10
217.517215815
 20
119.4734591718
 10
217.899717447
 20
119.8295559461
 10
218.2022482721
 20
120.2542334522
 10
218.411598411
 20
120.7289322938
 10
218.5186111001
 20
121.2329053978
 10
218.5186111001
 20
121.7441267527
 10
218.411598411
 20
122.240253464
 10
218.2022482721
 20
122.6996025962
 10
217.899717447
 20
123.1020982104
 10
217.517215815
 20
123.4301495442
 10
217.0714736549
 20
123.6694190029
 10
216.5819630591
 20
123.8094493765
 10
216.0700783698
 20
123.8441207115
 10
215.5581974057
 20
123.7719176879
 10
215.0686868099
 20
123.5959959176
 10
214.6229409246
 20
123.3240440797
 10
214.2404430179
 20
122.9679477128
 10
213.9379084674
 20
122.5432698575
 10
213.7285583285
 20
122.0685711323
 10
213.6215456394
 20
121.5645980283
 10
213.6215456394
 20
121.0533766734
 10
213.7285583285
 20
120.5572499621
 10
213.9379084674
 20
120.0979007135
 10
214.2404430179
 20
119.6954049828
 10
214.6229409246
 20
119.3673540565
 10
215.0686868099
 20
119.1280842486
 10
215.5581974057
 20
118.9880538459
 10
216.0700783698
 20
118.9533825691
  0
SPLINE
  5
156
330
1F
100
AcDbEntity
  8
0
  6
HIDDEN
 62
     7
370
     0
100
AcDbSpline
210
0.0
220
0.0
230
1.0
 70
     8
 71
     3
 72
    28
 73
    24
 74
     0
 42
0.00000001
 43
0.00000001
 12
1.0
 22
0.0
 32
0.0
 13
1.0
 23
0.0
 33
0.0
 40
0.0
 40
0.0
 40
0.0
 40
0.0
 40
0.1250000000000001
 40
0.1250000000000001
 40
0.2500000000000001
 40
0.2500000000000001
 40
0.3125000000000003
 40
0.3125000000000003
 40
0.3750000000000004
 40
0.3750000000000004
 40
0.5000000000000004
 40
0.5000000000000004
 40
0.5625000000000004
 40
0.5625000000000004
 40
0.6250000000000006
 40
0.6250000000000006
 40
0.6875000000000006
 40
0.6875000000000006
 40
0.7500000000000008
 40
0.7500000000000008
 40
0.8750000000000004
 40
0.8750000000000004
 40
1.0
 40
1.0
 40
1.0
 40
1.0
 10
212.1983676225321
 20
122.1997313859856
 30
0.0
 10
212.1448367321721
 20
122.2200439623803
 30
0.0
 10
212.0738760785862
 20
122.2659895466036
 30
0.0
 10
211.9312816096053
 20
122.4057593305227
 30
0.0
 10
211.8574446182003
 20
122.5014067634705
 30
0.0
 10
211.7587447011184
 20
122.6897284480452
 30
0.0
 10
211.7277736204468
 20
122.7599454787639
 30
0.0
 10
211.6716670794466
 20
122.9191958983624
 30
0.0
 10
211.6466603307826
 20
123.0082585624223
 30
0.0
 10
211.5868219411981
 20
123.301241994257
 30
0.0
 10
211.5668403415359
 20
123.5391280591891
 30
0.0
 10
211.5856517178604
 20
123.9312713431205
 30
0.0
 10
211.5994394470906
 20
124.0630638161815
 30
0.0
 10
211.6407976438583
 20
124.3287751450802
 30
0.0
 10
211.6678590217022
 20
124.4589104003691
 30
0.0
 10
211.7303221490003
 20
124.7084096872238
 30
0.0
 10
211.7656823432695
 20
124.827629515174
 30
0.0
 10
211.8393216648682
 20
125.0501070367173
 30
0.0
 10
211.8780673008183
 20
125.1549466765847
 30
0.0
 10
211.995979497849
 20
125.4521481855858
 30
0.0
 10
212.0740527749065
 20
125.6204625986771
 30
0.0
 10
212.2113126408683
 20
125.9177870624957
 30
0.0
 10
212.2710860586066
 20
126.0456941582107
 30
0.0
 10
212.2991181660882
 20
126.1498798474365
 30
0.0
  0
ARC
  5
157
330
1F
100
AcDbEntity
  8
0
  6
HIDDEN
 62
     7
370
     0
100
AcDbCircle
 10
213.6336760296
 20
124.2552694962
 30
0.0
 40
2.507059590107657
100
AcDbArc
 50
235.0747827188
 51
326.4071341728
  0
SPLINE
  5
158
330
1F
100
AcDbEntity
  8
0
  6
HIDDEN
 62
     7
370
     0
100
AcDbSpline
210
0.0
220
0.0
230
1.0
 70
     8
 71
     3
 72
    14
 73
    10
 74
     0
 42
0.00000001
 43
0.00000001
 12
1.0
 22
0.0
 32
0.0
 13
1.0
 23
0.0
 33
0.0
 40
0.0
 40
0.0
 40
0.0
 40
0.0
 40
0.25
 40
0.25
 40
0.5
 40
0.5
 40
0.75
 40
0.75
 40
1.0
 40
1.0
 40
1.0
 40
1.0
 10
216.1056900452989
 20
124.8069873587907
 30
0.0
 10
216.1520481650703
 20
124.6372780374794
 30
0.0
 10
216.1804958303397
 20
124.4646485312741
 30
0.0
 10
216.1970595992795
 20
124.113011222008
 30
0.0
 10
216.1844006351191
 20
123.9362860208617
 30
0.0
 10
216.1173892547298
 20
123.5980416824752
 30
0.0
 10
216.0620595973673
 20
123.4329468860544
 30
0.0
 10
215.9171538459642
 20
123.1319675803803
 30
0.0
 10
215.826351110574
 20
122.9924530536881
 30
0.0
 10
215.7220330123391
 20
122.8681438884703
 30
0.0
  0
ARC
  5
159
330
1F
100
AcDbEntity
  8
0
  6
HIDDEN
 62
     7
370
     0
100
AcDbCircle
 10
213.7647431193
 20
124.2378400477
 30
0.0
 40
2.409139595750674
100
AcDbArc
 50
13.6650263919
 51
127.4710468827
  0
LINE
  5
15A
330
1F
100
AcDbEntity
  8
0
  6
HIDDEN
 62
     7
370
     0
100
AcDbLine
 10
219.4499299494
 20
102.363831802
 30
0.0
 11
218.1232572166
 21
103.9281463909
 31
0.0
  0
LINE
  5
15B
330
1F
100
AcDbEntity
  8
0
  6
HIDDEN
 62
     7
370
     0
100
AcDbLine
 10
226.0919027595
 20
108.356859042
 30
0.0
 11
230.3403653769
 21
99.7392362642
 31
0.0
  0
LINE
  5
15C
330
1F
100
AcDbEntity
  8
0
  6
HIDDEN
 62
     7
370
     0
100
AcDbLine
 10
230.1244438259
 20
99.530023961
 30
0.0
 11
230.3403653769
 21
99.7392362642
 31
0.0
  0
LINE
  5
15D
330
1F
100
AcDbEntity
  8
0
  6
HIDDEN
 62
     7
370
     0
100
AcDbLine
 10
226.7553806869
 20
101.2854180026
 30
0.0
 11
230.1244438259
 21
99.530023961
 31
0.0
  0
LWPOLYLINE
  5
15E
330
1F
100
AcDbEntity
  8
0
  6
HIDDEN
 62
     7
370
     0
100
AcDbPolyline
 90
       31
 70
   128
 43
0.0
 10
220.7760923175
 20
106.9470899838
 10
221.2674990861
 20
107.0164045977
 10
221.737429556
 20
107.1852887708
 10
222.165346202
 20
107.4463627028
 10
222.5325443415
 20
107.7882158297
 10
222.822979149
 20
108.195906012
 10
223.02395111
 20
108.651617049
 10
223.1266834406
 20
109.1354307446
 10
223.1266834406
 20
109.6262032824
 10
223.02395111
 20
110.1024853724
 10
222.822979149
 20
110.5434600922
 10
222.5325443415
 20
110.9298565152
 10
222.165346202
 20
111.2447860378
 10
221.737429556
 20
111.4744846436
 10
221.2674990861
 20
111.6089136067
 10
220.7760923175
 20
111.6421981442
 10
220.2846855489
 20
111.5728835302
 10
219.8147550789
 20
111.4039984259
 10
219.3868421582
 20
111.1429244938
 10
219.0196402935
 20
110.8010722983
 10
218.7292092113
 20
110.3933811846
 10
218.5282335249
 20
109.9376701477
 10
218.4255011944
 20
109.4538564521
 10
218.4255011944
 20
108.9630839142
 10
218.5282335249
 20
108.4868027556
 10
218.7292092113
 20
108.0458271044
 10
219.0196402935
 20
107.6594306814
 10
219.3868421582
 20
107.3445020902
 10
219.8147550789
 20
107.114802553
 10
220.2846855489
 20
106.98037359
 10
220.7760923175
 20
106.9470899838
  0
LINE
  5
15F
330
1F
100
AcDbEntity
  8
0
  6
HIDDEN
 62
     7
370
     0
100
AcDbLine
 10
218.1232572166
 20
103.9281463909
 30
0.0
 11
218.7163048057
 21
103.8519232261
 31
0.0
  0
ARC
  5
160
330
1F
100
AcDbEntity
  8
0
  6
HIDDEN
 62
     7
370
     0
100
AcDbCircle
 10
215.2955864582
 20
79.2552667447
 30
0.0
 40
24.83252802696915
100
AcDbArc
 50
62.5171435285
 51
80.3834266659
  0
ARC
  5
161
330
1F
100
AcDbEntity
  8
0
  6
HIDDEN
 62
     7
370
     0
100
AcDbCircle
 10
248.0014771258
 20
119.1527721252
 30
0.0
 40
24.42501152944279
100
AcDbArc
 50
195.2450899615
 51
206.231710432
  0
LINE
  5
162
330
1F
100
AcDbEntity
  8
0
  6
HIDDEN
 62
     7
370
     0
100
AcDbLine
 10
213.2275160966
 20
113.8587132755
 30
0.0
 11
218.1232572166
 21
103.9281463909
 31
0.0
  0
LINE
  5
163
330
1F
100
AcDbEntity
  8
0
  6
HIDDEN
 62
     7
370
     0
100
AcDbLine
 10
224.4359851448
 20
112.7302511322
 30
0.0
 11
210.0200523255
 21
120.2414352174
 31
0.0
  0
SPLINE
  5
164
330
1F
100
AcDbEntity
  8
0
  6
HIDDEN
 62
     7
370
     0
100
AcDbSpline
210
0.0
220
0.0
230
1.0
 70
     8
 71
     3
 72
    20
 73
    16
 74
     0
 42
0.00000001
 43
0.00000001
 12
1.0
 22
0.0
 32
0.0
 13
1.0
 23
0.0
 33
0.0
 40
0.0
 40
0.0
 40
0.0
 40
0.0
 40
0.2499999999999983
 40
0.2499999999999983
 40
0.3749999999999986
 40
0.3749999999999986
 40
0.4999999999999989
 40
0.4999999999999989
 40
0.6249999999999991
 40
0.6249999999999991
 40
0.7499999999999994
 40
0.7499999999999994
 40
0.8749999999999997
 40
0.8749999999999997
 40
1.0
 40
1.0
 40
1.0
 40
1.0
 10
212.2991181660882
 20
126.1498798474365
 30
0.0
 10
212.6097475124895
 20
126.1558993573609
 30
0.0
 10
212.9271721963907
 20
126.1531382463613
 30
0.0
 10
213.424065017354
 20
126.1170036358228
 30
0.0
 10
213.5932130359008
 20
126.0994008332046
 30
0.0
 10
213.9392838305215
 20
126.0469782289988
 30
0.0
 10
214.1177160196739
 20
126.0115918158058
 30
0.0
 10
214.467552150612
 20
125.9199761692118
 30
0.0
 10
214.6400935605379
 20
125.8637681390456
 30
0.0
 10
214.9779523896722
 20
125.7264838228522
 30
0.0
 10
215.1446549131448
 20
125.6446124817108
 30
0.0
 10
215.4593302437361
 20
125.4549062722782
 30
0.0
 10
215.6075611156782
 20
125.3474526129068
 30
0.0
 10
215.8805047585251
 20
125.10057654424
 30
0.0
 10
216.0045890446873
 20
124.961191497358
 30
0.0
 10
216.1056900452989
 20
124.8069873587907
 30
0.0
  0
SPLINE
  5
165
330
1F
100
AcDbEntity
  8
0
  6
HIDDEN
 62
     7
370
     0
100
AcDbSpline
210
0.0
220
0.0
230
1.0
 70
     8
 71
     3
 72
    16
 73
    12
 74
     0
 42
0.00000001
 43
0.00000001
 12
1.0
 22
0.0
 32
0.0
 13
1.0
 23
0.0
 33
0.0
 40
0.0
 40
0.0
 40
0.0
 40
0.0
 40
0.1250000000000001
 40
0.1250000000000001
 40
0.2500000000000001
 40
0.2500000000000001
 40
0.5
 40
0.5
 40
0.75
 40
0.75
 40
1.0
 40
1.0
 40
1.0
 40
1.0
 10
215.7220330123391
 20
122.8681438884703
 30
0.0
 10
215.5965146466648
 20
122.7756802757146
 30
0.0
 10
215.4626779174676
 20
122.6980108036054
 30
0.0
 10
215.1824737171816
 20
122.5641202703935
 30
0.0
 10
215.0348659389597
 20
122.5077164947614
 30
0.0
 10
214.5864607126985
 20
122.3674689751345
 30
0.0
 10
214.2800459182899
 20
122.3111616037853
 30
0.0
 10
213.6601068448888
 20
122.2378926077889
 30
0.0
 10
213.3535115696407
 20
122.2217952631304
 30
0.0
 10
212.7619238296184
 20
122.2032589719299
 30
0.0
 10
212.4740507988244
 20
122.200731191393
 30
0.0
 10
212.1983676225321
 20
122.1997313859856
 30
0.0
  0
LWPOLYLINE
  5
166
330
1F
100
AcDbEntity
  8
0
  6
HIDDEN
 62
     7
370
     0
100
AcDbPolyline
 90
       29
 70
   128
 43
0.0
 10
214.2071240214
 20
124.289052068
 10
214.233450648
 20
123.821758114
 10
214.3111080495
 20
123.377896236
 10
214.4361995725
 20
122.9797234719
 10
214.6024592785
 20
122.6472059225
 10
214.8015462426
 20
122.3970174051
 10
215.0234766869
 20
122.2417035333
 10
215.2571231691
 20
122.1890521428
 10
215.4907696513
 20
122.2417035333
 10
215.7127038209
 20
122.3970174051
 10
215.9117870597
 20
122.6472059225
 10
216.0780467657
 20
122.9797234719
 10
216.2031420139
 20
123.377896236
 10
216.2807994155
 20
123.821758114
 10
216.307126042
 20
124.289052068
 10
216.2807994155
 20
124.756346022
 10
216.2031420139
 20
125.2002079
 10
216.0780467657
 20
125.5983806641
 10
215.9117870597
 20
125.9308982135
 10
215.7127038209
 20
126.1810867309
 10
215.4907696513
 20
126.3364006027
 10
215.2571231691
 20
126.3890519931
 10
215.0234766869
 20
126.3364006027
 10
214.8015462426
 20
126.1810867309
 10
214.6024592785
 20
125.9308982135
 10
214.4361995725
 20
125.5983806641
 10
214.3111080495
 20
125.2002079
 10
214.233450648
 20
124.756346022
 10
214.2071240214
 20
124.289052068
  0
LWPOLYLINE
  5
167
330
1F
100
AcDbEntity
  8
0
  6
HIDDEN
 62
     7
370
     0
100
AcDbPolyline
 90
       25
 70
   128
 43
0.0
 10
220.6458561687
 20
107.8342641431
 10
221.0664228169
 20
107.9046777177
 10
221.4583233563
 20
108.0802785891
 10
221.7948586313
 20
108.349101125
 10
222.0530920295
 20
108.6928262102
 10
222.2154215542
 20
109.0880301508
 10
222.2707905439
 20
109.5077790978
 10
222.2154215542
 20
109.9234684097
 10
222.0530920295
 20
110.3067700478
 10
221.7948586313
 20
110.6315622765
 10
221.4583233563
 20
110.875710352
 10
221.0664228169
 20
111.0225761968
 10
220.6458561687
 20
111.0621518182
 10
220.2252932457
 20
110.9917401063
 10
219.8333927063
 20
110.8161392349
 10
219.4968574313
 20
110.5473157677
 10
219.2386240331
 20
110.2035906824
 10
219.0762945084
 20
109.8083867418
 10
219.0209255187
 20
109.3886377948
 10
219.0762945084
 20
108.9729484829
 10
219.2386240331
 20
108.5896468448
 10
219.4968574313
 20
108.2648555475
 10
219.8333927063
 20
108.0207074719
 10
220.2252932457
 20
107.8738416272
 10
220.6458561687
 20
107.8342641431
  0
LINE
  5
168
330
1F
100
AcDbEntity
  8
0
  6
HIDDEN
 62
     7
370
     0
100
AcDbLine
 10
180.6264845054
 20
110.3688156891
 30
0.0
 11
180.6264845054
 21
110.2689536947
 31
0.0
  0
SPLINE
  5
169
330
1F
100
AcDbEntity
  8
0
  6
HIDDEN
 62
     7
370
     0
100
AcDbSpline
210
0.0
220
0.0
230
1.0
 70
     8
 71
     3
 72
    24
 73
    20
 74
     0
 42
0.00000001
 43
0.00000001
 12
1.0
 22
0.0
 32
0.0
 13
1.0
 23
0.0
 33
0.0
 40
0.0
 40
0.0
 40
0.0
 40
0.0
 40
0.2499999999999974
 40
0.2499999999999974
 40
0.3749999999999962
 40
0.3749999999999962
 40
0.4374999999999956
 40
0.4374999999999956
 40
0.4687499999999953
 40
0.4687499999999953
 40
0.4999999999999951
 40
0.4999999999999951
 40
0.5624999999999947
 40
0.5624999999999947
 40
0.6249999999999942
 40
0.6249999999999942
 40
0.749999999999996
 40
0.749999999999996
 40
1.0
 40
1.0
 40
1.0
 40
1.0
 10
180.626484527976
 20
110.3688156796594
 30
0.0
 10
180.6268874386118
 20
110.3992399164974
 30
0.0
 10
180.6289314179524
 20
110.4320980170515
 30
0.0
 10
180.6381686607785
 20
110.4881233842051
 30
0.0
 10
180.6420557237591
 20
110.5077344373905
 30
0.0
 10
180.6529596151657
 20
110.5420087208201
 30
0.0
 10
180.6571016609161
 20
110.5540711462923
 30
0.0
 10
180.6689967346688
 20
110.5763903109918
 30
0.0
 10
180.6742437989776
 20
110.585356823352
 30
0.0
 10
180.6911108653567
 20
110.6030063878784
 30
0.0
 10
180.6989332728819
 20
110.6071506720181
 30
0.0
 10
180.7158820735035
 20
110.6136382131922
 30
0.0
 10
180.7233384247215
 20
110.6130413318205
 30
0.0
 10
180.7373983279139
 20
110.6112950678485
 30
0.0
 10
180.7435307130499
 20
110.60946437995
 30
0.0
 10
180.760825475573
 20
110.6028979703772
 30
0.0
 10
180.770842793982
 20
110.5970327552185
 30
0.0
 10
180.7992141282248
 20
110.5782880711882
 30
0.0
 10
180.8157495658692
 20
110.5641239231015
 30
0.0
 10
180.8314445500337
 20
110.5499675368092
 30
0.0
  0
LINE
  5
16A
330
1F
100
AcDbEntity
  8
0
  6
HIDDEN
 62
     7
370
     0
100
AcDbLine
 10
159.8264836339
 20
114.6314409288
 30
0.0
 11
159.8264836339
 21
110.7915215853
 31
0.0
  0
LINE
  5
16B
330
1F
100
AcDbEntity
  8
0
  6
HIDDEN
 62
     7
370
     0
100
AcDbLine
 10
158.3264843194
 20
115.064453772
 30
0.0
 11
158.3264843194
 21
111.6575472715
 31
0.0
  0
SPLINE
  5
16C
330
1F
100
AcDbEntity
  8
0
  6
HIDDEN
 62
     7
370
     0
100
AcDbSpline
210
0.0
220
0.0
230
1.0
 70
     8
 71
     3
 72
     8
 73
     4
 74
     0
 42
0.00000001
 43
0.00000001
 12
1.0
 22
0.0
 32
0.0
 13
1.0
 23
0.0
 33
0.0
 40
0.0
 40
0.0
 40
0.0
 40
0.0
 40
1.0
 40
1.0
 40
1.0
 40
1.0
 10
180.8314445500337
 20
110.5499675368092
 30
0.0
 10
180.8821716932403
 20
110.504213235484
 30
0.0
 10
180.9400590228012
 20
110.4757090896205
 30
0.0
 10
181.0051641844165
 20
110.4639880599616
 30
0.0
  0
LINE
  5
16D
330
1F
100
AcDbEntity
  8
0
  6
HIDDEN
 62
     7
370
     0
100
AcDbLine
 10
180.6264845054
 20
114.3701565179
 30
0.0
 11
180.6264845054
 21
113.3150136757
 31
0.0
  0
SPLINE
  5
16E
330
1F
100
AcDbEntity
  8
0
  6
HIDDEN
 62
     7
370
     0
100
AcDbSpline
210
0.0
220
0.0
230
1.0
 70
     8
 71
     3
 72
    16
 73
    12
 74
     0
 42
0.00000001
 43
0.00000001
 12
1.0
 22
0.0
 32
0.0
 13
1.0
 23
0.0
 33
0.0
 40
0.0
 40
0.0
 40
0.0
 40
0.0
 40
0.2500000000000006
 40
0.2500000000000006
 40
0.3750000000000005
 40
0.3750000000000005
 40
0.5000000000000004
 40
0.5000000000000004
 40
0.7500000000000002
 40
0.7500000000000002
 40
1.0
 40
1.0
 40
1.0
 40
1.0
 10
180.6264845279759
 20
113.3150140757203
 30
0.0
 10
180.5459471960768
 20
112.9260068917763
 30
0.0
 10
180.4859098520495
 20
112.569506450152
 30
0.0
 10
180.4251721448959
 20
112.0830040649647
 30
0.0
 10
180.409849769783
 20
111.9289251241112
 30
0.0
 10
180.3892669604787
 20
111.6374555656186
 30
0.0
 10
180.384067363453
 20
111.4998856817197
 30
0.0
 10
180.3840137102727
 20
111.1216408465305
 30
0.0
 10
180.4042112537501
 20
110.9117597779784
 30
0.0
 10
180.4848893421075
 20
110.5751804790666
 30
0.0
 10
180.5459355067146
 20
110.448895987148
 30
0.0
 10
180.6264845279722
 20
110.3688156796556
 30
0.0
  0
LINE
  5
16F
330
1F
100
AcDbEntity
  8
0
  6
HIDDEN
 62
     7
370
     0
100
AcDbLine
 10
159.8264836339
 20
137.7865825507
 30
0.0
 11
159.8264836339
 21
133.9466632071
 31
0.0
  0
LINE
  5
170
330
1F
100
AcDbEntity
  8
0
  6
HIDDEN
 62
     7
370
     0
100
AcDbLine
 10
158.3264843194
 20
136.9205568644
 30
0.0
 11
158.3264843194
 21
133.513650364
 31
0.0
  0
LINE
  5
171
330
1F
100
AcDbEntity
  8
0
  6
HIDDEN
 62
     7
370
     0
100
AcDbLine
 10
180.6264845054
 20
138.3091504413
 30
0.0
 11
180.6264845054
 21
138.2092884469
 31
0.0
  0
SPLINE
  5
172
330
1F
100
AcDbEntity
  8
0
  6
HIDDEN
 62
     7
370
     0
100
AcDbSpline
210
0.0
220
0.0
230
1.0
 70
     8
 71
     3
 72
    24
 73
    20
 74
     0
 42
0.00000001
 43
0.00000001
 12
1.0
 22
0.0
 32
0.0
 13
1.0
 23
0.0
 33
0.0
 40
0.0
 40
0.0
 40
0.0
 40
0.0
 40
0.2499999999999963
 40
0.2499999999999963
 40
0.3749999999999937
 40
0.3749999999999937
 40
0.4374999999999925
 40
0.4374999999999925
 40
0.4999999999999913
 40
0.4999999999999913
 40
0.5312499999999899
 40
0.5312499999999899
 40
0.5624999999999885
 40
0.5624999999999885
 40
0.6249999999999882
 40
0.6249999999999882
 40
0.7499999999999921
 40
0.7499999999999921
 40
1.0
 40
1.0
 40
1.0
 40
1.0
 10
180.8314445500365
 20
138.0281365991268
 30
0.0
 10
180.8156779617381
 20
138.0139156281385
 30
0.0
 10
180.7990664287834
 20
137.9996853378037
 30
0.0
 10
180.7705400808255
 20
137.9808882825822
 30
0.0
 10
180.7604546470355
 20
137.9749998622409
 30
0.0
 10
180.7429718765006
 20
137.9684624674386
 30
0.0
 10
180.736764220055
 20
137.9666512534374
 30
0.0
 10
180.7224927198098
 20
137.9650454509309
 30
0.0
 10
180.7149226493068
 20
137.9644926735448
 30
0.0
 10
180.6975263198715
 20
137.9716914182576
 30
0.0
 10
180.6890670469114
 20
137.9767831670053
 30
0.0
 10
180.6730060823638
 20
137.9945980994845
 30
0.0
 10
180.6681728465176
 20
138.0031205143468
 30
0.0
 10
180.6567469267823
 20
138.0250169509956
 30
0.0
 10
180.6527255708998
 20
138.0367574738015
 30
0.0
 10
180.6419650758687
 20
138.0708077377548
 30
0.0
 10
180.6380907668078
 20
138.0903827267835
 30
0.0
 10
180.6289178946807
 20
138.1462310354648
 30
0.0
 10
180.6268855239659
 20
138.1790087964936
 30
0.0
 10
180.6264845279761
 20
138.2092884562815
 30
0.0
  0
LINE
  5
173
330
1F
100
AcDbEntity
  8
0
  6
HIDDEN
 62
     7
370
     0
100
AcDbLine
 10
180.6264845054
 20
135.2630904603
 30
0.0
 11
180.6264845054
 21
134.207947618
 31
0.0
  0
SPLINE
  5
174
330
1F
100
AcDbEntity
  8
0
  6
HIDDEN
 62
     7
370
     0
100
AcDbSpline
210
0.0
220
0.0
230
1.0
 70
     8
 71
     3
 72
    16
 73
    12
 74
     0
 42
0.00000001
 43
0.00000001
 12
1.0
 22
0.0
 32
0.0
 13
1.0
 23
0.0
 33
0.0
 40
0.0
 40
0.0
 40
0.0
 40
0.0
 40
0.2499999999999997
 40
0.2499999999999997
 40
0.3749999999999997
 40
0.3749999999999997
 40
0.4999999999999998
 40
0.4999999999999998
 40
0.7499999999999999
 40
0.7499999999999999
 40
1.0
 40
1.0
 40
1.0
 40
1.0
 10
180.6264845279759
 20
138.2092884562817
 30
0.0
 10
180.5459471960766
 20
138.1292197701293
 30
0.0
 10
180.4859098520493
 20
138.005355278639
 30
0.0
 10
180.4251721448957
 20
137.7546744547069
 30
0.0
 10
180.4098497697827
 20
137.6602358503974
 30
0.0
 10
180.3892669604786
 20
137.4489247827787
 30
0.0
 10
180.3840673634529
 20
137.3316353280251
 30
0.0
 10
180.3840137102728
 20
136.9535996562699
 30
0.0
 10
180.4042112537505
 20
136.6648225025258
 30
0.0
 10
180.4848893421085
 20
136.014982639387
 30
0.0
 10
180.5459355067159
 20
135.6521537054943
 30
0.0
 10
180.626484527974
 20
135.2630900602226
 30
0.0
  0
SPLINE
  5
175
330
1F
100
AcDbEntity
  8
0
  6
HIDDEN
 62
     7
370
     0
100
AcDbSpline
210
0.0
220
0.0
230
1.0
 70
     8
 71
     3
 72
     8
 73
     4
 74
     0
 42
0.00000001
 43
0.00000001
 12
1.0
 22
0.0
 32
0.0
 13
1.0
 23
0.0
 33
0.0
 40
0.0
 40
0.0
 40
0.0
 40
0.0
 40
1.0
 40
1.0
 40
1.0
 40
1.0
 10
181.0051641844165
 20
138.1141160759719
 30
0.0
 10
180.9400590228024
 20
138.1023950463133
 30
0.0
 10
180.8821716932424
 20
138.0738909004506
 30
0.0
 10
180.8314445500364
 20
138.0281365991268
 30
0.0
  0
LWPOLYLINE
  5
176
330
1F
100
AcDbEntity
  8
0
  6
HIDDEN
 62
     7
370
     0
100
AcDbPolyline
 90
       25
 70
   128
 43
0.0
 10
218.7791392771
 20
110.0353602978
 10
219.1997022001
 20
110.1057720098
 10
219.5916064648
 20
110.2813728812
 10
219.9281417398
 20
110.5501963484
 10
220.1863714127
 20
110.8939214337
 10
220.3487046627
 20
111.2891253742
 10
220.4040736524
 20
111.7088743213
 10
220.3487046627
 20
112.1245636332
 10
220.1863714127
 20
112.5078652712
 10
219.9281417398
 20
112.8326574999
 10
219.5916064648
 20
113.0768055755
 10
219.1997022001
 20
113.2236714202
 10
218.7791392771
 20
113.2632470417
 10
218.3585763542
 20
113.1928353297
 10
217.9666720895
 20
113.0172344583
 10
217.6301368145
 20
112.7484109911
 10
217.3719071416
 20
112.4046859058
 10
217.2095738916
 20
112.0094819653
 10
217.1542049018
 20
111.5897330183
 10
217.2095738916
 20
111.1740437063
 10
217.3719071416
 20
110.7907420683
 10
217.6301368145
 20
110.4659507709
 10
217.9666720895
 20
110.2218026954
 10
218.3585763542
 20
110.0749359193
 10
218.7791392771
 20
110.0353602978
  0
SPLINE
  5
177
330
1F
100
AcDbEntity
  8
0
  6
HIDDEN
 62
     7
370
     0
100
AcDbSpline
210
0.0
220
0.0
230
1.0
 70
     8
 71
     3
 72
    12
 73
     8
 74
     0
 42
0.00000001
 43
0.00000001
 12
1.0
 22
0.0
 32
0.0
 13
1.0
 23
0.0
 33
0.0
 40
0.0
 40
0.0
 40
0.0
 40
0.0
 40
0.2500000000000001
 40
0.2500000000000001
 40
0.5000000000000002
 40
0.5000000000000002
 40
1.0
 40
1.0
 40
1.0
 40
1.0
 10
205.5250833662862
 20
104.8927425261752
 30
0.0
 10
205.5657855008393
 20
105.1004442362834
 30
0.0
 10
205.6255330853654
 20
105.3085306555272
 30
0.0
 10
205.7800564061691
 20
105.7254110462125
 30
0.0
 10
205.8749055948958
 20
105.9343177428336
 30
0.0
 10
206.2031801789043
 20
106.5584626907836
 30
0.0
 10
206.480328833453
 20
106.9723747977232
 30
0.0
 10
206.7961262485897
 20
107.3848386931423
 30
0.0
  0
LINE
  5
178
330
1F
100
AcDbEntity
  8
0
  6
HIDDEN
 62
     7
370
     0
100
AcDbLine
 10
229.500357118
 20
100.2658991801
 30
0.0
 11
230.1244438259
 21
99.530023961
 31
0.0
  0
LINE
  5
179
330
1F
100
AcDbEntity
  8
0
  6
HIDDEN
 62
     7
370
     0
100
AcDbLine
 10
230.3403653769
 20
99.7392362642
 30
0.0
 11
229.604672697
 21
100.6067110884
 31
0.0
  0
LINE
  5
17A
330
1F
100
AcDbEntity
  8
0
  6
HIDDEN
 62
     7
370
     0
100
AcDbLine
 10
158.3264843194
 20
133.513650364
 30
0.0
 11
158.3264843194
 21
126.1392659235
 31
0.0
  0
LINE
  5
17B
330
1F
100
AcDbEntity
  8
0
  6
HIDDEN
 62
     7
370
     0
100
AcDbLine
 10
158.3264843194
 20
122.4388382125
 30
0.0
 11
158.3264843194
 21
115.064453772
 31
0.0
  0
SPLINE
  5
17C
330
1F
100
AcDbEntity
  8
0
  6
HIDDEN
 62
     7
370
     0
100
AcDbSpline
210
0.0
220
0.0
230
1.0
 70
     8
 71
     3
 72
    24
 73
    20
 74
     0
 42
0.00000001
 43
0.00000001
 12
1.0
 22
0.0
 32
0.0
 13
1.0
 23
0.0
 33
0.0
 40
0.0
 40
0.0
 40
0.0
 40
0.0
 40
0.2500000000000105
 40
0.2500000000000105
 40
0.375000000000014
 40
0.375000000000014
 40
0.4375000000000146
 40
0.4375000000000146
 40
0.5000000000000152
 40
0.5000000000000152
 40
0.5312500000000155
 40
0.5312500000000155
 40
0.5625000000000159
 40
0.5625000000000159
 40
0.6250000000000149
 40
0.6250000000000149
 40
0.7500000000000109
 40
0.7500000000000109
 40
1.0
 40
1.0
 40
1.0
 40
1.0
 10
180.8314445500365
 20
113.4964583411685
 30
0.0
 10
180.815675672679
 20
113.4225996492389
 30
0.0
 10
180.799061690829
 20
113.3488882605031
 30
0.0
 10
180.7705300248239
 20
113.2373414368811
 30
0.0
 10
180.7604426100052
 20
113.1999698637526
 30
0.0
 10
180.7429550495509
 20
113.1430703661149
 30
0.0
 10
180.7367454877676
 20
113.1239672659696
 30
0.0
 10
180.722467934115
 20
113.085093751734
 30
0.0
 10
180.7148963863196
 20
113.0651690923007
 30
0.0
 10
180.6974788026413
 20
113.0350968742733
 30
0.0
 10
180.6889963059963
 20
113.0234154954702
 30
0.0
 10
180.6729579941245
 20
113.0161539847216
 30
0.0
 10
180.6681374459209
 20
113.0197322317314
 30
0.0
 10
180.656728221373
 20
113.031493086963
 30
0.0
 10
180.6527077409155
 20
113.0431587370136
 30
0.0
 10
180.6419538860952
 20
113.0796940671271
 30
0.0
 10
180.638081204813
 20
113.1070898004507
 30
0.0
 10
180.6289130549754
 20
113.1918157922067
 30
0.0
 10
180.6268845496063
 20
113.2526479143788
 30
0.0
 10
180.6264845279761
 20
113.3150140757204
 30
0.0
  0
SPLINE
  5
17D
330
1F
100
AcDbEntity
  8
0
  6
HIDDEN
 62
     7
370
     0
100
AcDbSpline
210
0.0
220
0.0
230
1.0
 70
     8
 71
     3
 72
    24
 73
    20
 74
     0
 42
0.00000001
 43
0.00000001
 12
1.0
 22
0.0
 32
0.0
 13
1.0
 23
0.0
 33
0.0
 40
0.0
 40
0.0
 40
0.0
 40
0.0
 40
0.2500000000000025
 40
0.2500000000000025
 40
0.3750000000000033
 40
0.3750000000000033
 40
0.4375000000000037
 40
0.4375000000000037
 40
0.4687500000000058
 40
0.4687500000000058
 40
0.500000000000008
 40
0.500000000000008
 40
0.5625000000000074
 40
0.5625000000000074
 40
0.6250000000000068
 40
0.6250000000000068
 40
0.7500000000000066
 40
0.7500000000000066
 40
1.0
 40
1.0
 40
1.0
 40
1.0
 10
180.6264845279725
 20
135.263090060224
 30
0.0
 10
180.6268891975483
 20
135.3261808687166
 30
0.0
 10
180.6289326443626
 20
135.3873665912191
 30
0.0
 10
180.6383322096169
 20
135.4728663237208
 30
0.0
 10
180.6422831031456
 20
135.5004467071618
 30
0.0
 10
180.6534354114426
 20
135.5369007892734
 30
0.0
 10
180.6576569523691
 20
135.5487592109679
 30
0.0
 10
180.6698646739326
 20
135.5593792623433
 30
0.0
 10
180.6756554441847
 20
135.5622126295656
 30
0.0
 10
180.6925769572946
 20
135.5508980425676
 30
0.0
 10
180.6999830732445
 20
135.5391171568139
 30
0.0
 10
180.7164403264877
 20
135.5090763155841
 30
0.0
 10
180.7238968443987
 20
135.489363361971
 30
0.0
 10
180.7378047736733
 20
135.4509612959109
 30
0.0
 10
180.7438967195683
 20
135.4320796459995
 30
0.0
 10
180.7610910119194
 20
135.3757787354679
 30
0.0
 10
180.7710759621229
 20
135.3387026576583
 30
0.0
 10
180.7993220072219
 20
135.2280439867683
 30
0.0
 10
180.815801544183
 20
135.1549149263598
 30
0.0
 10
180.8314445500427
 20
135.0816457947359
 30
0.0
  0
SPLINE
  5
17E
330
1F
100
AcDbEntity
  8
0
  6
HIDDEN
 62
     7
370
     0
100
AcDbSpline
210
0.0
220
0.0
230
1.0
 70
     8
 71
     3
 72
     8
 73
     4
 74
     0
 42
0.00000001
 43
0.00000001
 12
1.0
 22
0.0
 32
0.0
 13
1.0
 23
0.0
 33
0.0
 40
0.0
 40
0.0
 40
0.0
 40
0.0
 40
1.0
 40
1.0
 40
1.0
 40
1.0
 10
181.0051641844165
 20
114.23553275036
 30
0.0
 10
180.9400590228024
 20
113.9805075151543
 30
0.0
 10
180.8821716932424
 20
113.7340554990131
 30
0.0
 10
180.8314445500364
 20
113.4964583411685
 30
0.0
  0
SPLINE
  5
17F
330
1F
100
AcDbEntity
  8
0
  6
HIDDEN
 62
     7
370
     0
100
AcDbSpline
210
0.0
220
0.0
230
1.0
 70
     8
 71
     3
 72
     8
 73
     4
 74
     0
 42
0.00000001
 43
0.00000001
 12
1.0
 22
0.0
 32
0.0
 13
1.0
 23
0.0
 33
0.0
 40
0.0
 40
0.0
 40
0.0
 40
0.0
 40
1.0
 40
1.0
 40
1.0
 40
1.0
 10
180.8314445500426
 20
135.0816457947359
 30
0.0
 10
180.8821716932471
 20
134.8440486369003
 30
0.0
 10
180.9400590228051
 20
134.5975966207688
 30
0.0
 10
181.0051641844165
 20
134.3425713855736
 30
0.0
  0
LINE
  5
180
330
1F
100
AcDbEntity
  8
0
  6
HIDDEN
 62
     7
370
     0
100
AcDbLine
 10
159.8264836339
 20
121.7340237654
 30
0.0
 11
159.8264836339
 21
114.6314409288
 31
0.0
  0
LINE
  5
181
330
1F
100
AcDbEntity
  8
0
  6
HIDDEN
 62
     7
370
     0
100
AcDbLine
 10
159.8264836339
 20
133.9466632071
 30
0.0
 11
159.8264836339
 21
126.8440803706
 31
0.0
  0
LWPOLYLINE
  5
182
330
1F
100
AcDbEntity
  8
0
  6
HIDDEN
 62
     7
370
     0
100
AcDbPolyline
 90
       31
 70
   128
 43
0.0
 10
214.215267506
 20
124.289052068
 10
214.2425850598
 20
123.7692728482
 10
214.3233381776
 20
123.2722104487
 10
214.4539990095
 20
122.819588958
 10
214.6288566855
 20
122.4311899586
 10
214.84026691
 20
122.1239885508
 10
215.0789984135
 20
121.9114106807
 10
215.3346092073
 20
121.8027472223
 10
215.5959308712
 20
121.8027472223
 10
215.851541665
 20
121.9114106807
 10
216.0902694432
 20
122.1239885508
 10
216.3016833929
 20
122.4311899586
 10
216.4765410689
 20
122.819588958
 10
216.6072019009
 20
123.2722104487
 10
216.6879512934
 20
123.7692728482
 10
216.7152688471
 20
124.289052068
 10
216.6879512934
 20
124.8088312877
 10
216.6072019009
 20
125.3058936872
 10
216.4765410689
 20
125.7585151779
 10
216.3016833929
 20
126.1469141773
 10
216.0902694432
 20
126.4541155851
 10
215.851541665
 20
126.6666934553
 10
215.5959308712
 20
126.7753569136
 10
215.3346092073
 20
126.7753569136
 10
215.0789984135
 20
126.6666934553
 10
214.84026691
 20
126.4541155851
 10
214.6288566855
 20
126.1469141773
 10
214.4539990095
 20
125.7585151779
 10
214.3233381776
 20
125.3058936872
 10
214.2425850598
 20
124.8088312877
 10
214.215267506
 20
124.289052068
  0
SPLINE
  5
183
330
1F
100
AcDbEntity
  8
0
  6
HIDDEN
 62
     7
370
     0
100
AcDbSpline
210
0.0
220
0.0
230
1.0
 70
     8
 71
     3
 72
    16
 73
    12
 74
     0
 42
0.00000001
 43
0.00000001
 12
1.0
 22
0.0
 32
0.0
 13
1.0
 23
0.0
 33
0.0
 40
0.0
 40
0.0
 40
0.0
 40
0.0
 40
0.2500000000000013
 40
0.2500000000000013
 40
0.3750000000000014
 40
0.3750000000000014
 40
0.4999999999999999
 40
0.4999999999999999
 40
0.75
 40
0.75
 40
1.0
 40
1.0
 40
1.0
 40
1.0
 10
221.299098738365
 20
121.9551595121552
 30
0.0
 10
221.2607046978388
 20
121.8675821358271
 30
0.0
 10
221.2209779444383
 20
121.8152427143863
 30
0.0
 10
221.157839048461
 20
121.7872386349645
 30
0.0
 10
221.1360777744306
 20
121.7866155374783
 30
0.0
 10
221.0924512119894
 20
121.8029129710921
 30
0.0
 10
221.0704570029074
 20
121.8196839894682
 30
0.0
 10
221.0038447723976
 20
121.8959162252197
 30
0.0
 10
220.9580144381344
 20
121.9830408400754
 30
0.0
 10
220.870932519103
 20
122.2201393187997
 30
0.0
 10
220.8286145730292
 20
122.3722358857267
 30
0.0
 10
220.7907141621847
 20
122.5546088782966
 30
0.0
  0
ELLIPSE
  5
184
330
1F
100
AcDbEntity
  8
0
  6
HIDDEN
 62
     7
370
     0
100
AcDbEllipse
 10
221.0589889919
 20
124.289052068
 30
0.0
 11
-0.08617317532667812
 21
2.499951391311754
 31
0.0
210
0.0
220
0.0
230
1.0
 40
0.1809121544
 41
3.501941148277378
 42
8.614466412142216
  0
LINE
  5
185
330
1F
100
AcDbEntity
  8
0
  6
HIDDEN
 62
     7
370
     0
100
AcDbLine
 10
180.6264845054
 20
134.207947618
 30
0.0
 11
180.6264845054
 21
114.3701565179
 31
0.0
  0
LINE
  5
186
330
1F
100
AcDbEntity
  8
0
  6
HIDDEN
 62
     7
370
     0
100
AcDbLine
 10
182.126484533
 20
132.7684190783
 30
0.0
 11
182.126484533
 21
115.8096850577
 31
0.0
  0
ELLIPSE
  5
187
330
1F
100
AcDbEntity
  8
0
  6
HIDDEN
 62
     7
370
     0
100
AcDbEllipse
 10
256.6997147529
 20
122.289052068
 30
0.0
 11
27.01848097676435
 21
24.48515609964307
 31
0.0
210
0.0
220
0.0
230
1.0
 40
0.1868161121
 41
2.823832904029127
 42
2.851908811574157
  0
SPLINE
  5
188
330
1F
100
AcDbEntity
  8
0
  6
HIDDEN
 62
     7
370
     0
100
AcDbSpline
210
0.0
220
0.0
230
1.0
 70
     8
 71
     3
 72
     8
 73
     4
 74
     0
 42
0.00000001
 43
0.00000001
 12
1.0
 22
0.0
 32
0.0
 13
1.0
 23
0.0
 33
0.0
 40
0.0
 40
0.0
 40
0.0
 40
0.0
 40
1.0
 40
1.0
 40
1.0
 40
1.0
 10
206.7356946884946
 20
109.5317012457938
 30
0.0
 10
206.7561271473628
 20
108.7889816945218
 30
0.0
 10
206.7762671223206
 20
108.0735431961903
 30
0.0
 10
206.7961262485897
 20
107.3848386931423
 30
0.0
  0
ELLIPSE
  5
189
330
1F
100
AcDbEntity
  8
0
  6
HIDDEN
 62
     7
370
     0
100
AcDbEllipse
 10
187.3276753301
 20
122.289052068
 30
0.0
 11
45.41018437336083
 21
-24.90708844896612
 31
0.0
210
0.0
220
0.0
230
1.0
 40
0.0474201264
 41
0.406739688694552
 42
0.6112769497007728
  0
ELLIPSE
  5
18A
330
1F
100
AcDbEntity
  8
0
  6
HIDDEN
 62
     7
370
     0
100
AcDbEllipse
 10
219.3344974952
 20
122.289052068
 30
0.0
 11
-12.90536801158976
 21
24.98953538665845
 31
0.0
210
0.0
220
0.0
230
1.0
 40
0.0560442098
 41
2.077388097695338
 42
2.591601042907806
  0
SPLINE
  5
18B
330
1F
100
AcDbEntity
  8
0
  6
HIDDEN
 62
     7
370
     0
100
AcDbSpline
210
0.0
220
0.0
230
1.0
 70
     8
 71
     3
 72
    18
 73
    14
 74
     0
 42
0.00000001
 43
0.00000001
 12
1.0
 22
0.0
 32
0.0
 13
1.0
 23
0.0
 33
0.0
 40
0.0
 40
0.0
 40
0.0
 40
0.0
 40
0.2500000000000003
 40
0.2500000000000003
 40
0.3749999999999998
 40
0.3749999999999998
 40
0.4999999999999994
 40
0.4999999999999994
 40
0.7499999999999999
 40
0.7499999999999999
 40
0.8750000000000003
 40
0.8750000000000003
 40
1.0
 40
1.0
 40
1.0
 40
1.0
 10
225.1926418561594
 20
103.1280839116639
 30
0.0
 10
224.2784584831745
 20
103.7130731276134
 30
0.0
 10
223.2968457121339
 20
104.2730067143781
 30
0.0
 10
221.7199200022061
 20
105.0418424747947
 30
0.0
 10
221.1767954417772
 20
105.2862961678815
 30
0.0
 10
220.0540630041296
 20
105.7457869810757
 30
0.0
 10
219.4725911575846
 20
105.961205251636
 30
0.0
 10
217.7093560008981
 20
106.5422946104882
 30
0.0
 10
216.4980567003024
 20
106.8482517484164
 30
0.0
 10
214.6256356046727
 20
107.1646087994142
 30
0.0
 10
213.9905776258041
 20
107.2463588092492
 30
0.0
 10
212.7076774637476
 20
107.3565933947457
 30
0.0
 10
212.0641853857971
 20
107.3848386931423
 30
0.0
 10
211.4185670261582
 20
107.3848386931423
 30
0.0
  0
LINE
  5
18C
330
1F
100
AcDbEntity
  8
0
  6
HIDDEN
 62
     7
370
     0
100
AcDbLine
 10
211.4185672818
 20
107.3848395335
 30
0.0
 11
206.7961264966
 21
107.3848395335
 31
0.0
  0
SPLINE
  5
18D
330
1F
100
AcDbEntity
  8
0
  6
HIDDEN
 62
     7
370
     0
100
AcDbSpline
210
0.0
220
0.0
230
1.0
 70
     8
 71
     3
 72
     8
 73
     4
 74
     0
 42
0.00000001
 43
0.00000001
 12
1.0
 22
0.0
 32
0.0
 13
1.0
 23
0.0
 33
0.0
 40
0.0000137051794235
 40
0.0000137051794235
 40
0.0000137051794235
 40
0.0000137051794235
 40
0.0027147144718019
 40
0.0027147144718019
 40
0.0027147144718019
 40
0.0027147144718019
 10
159.8264845279761
 20
121.734023830905
 30
0.0
 10
160.7264806634709
 20
121.7210522637067
 30
0.0
 10
161.6264808420662
 20
121.7084174063946
 30
0.0
 10
162.526484527976
 20
121.6961073881388
 30
0.0
  0
SPLINE
  5
18E
330
1F
100
AcDbEntity
  8
0
  6
HIDDEN
 62
     7
370
     0
100
AcDbSpline
210
0.0
220
0.0
230
1.0
 70
     8
 71
     3
 72
     8
 73
     4
 74
     0
 42
0.00000001
 43
0.00000001
 12
1.0
 22
0.0
 32
0.0
 13
1.0
 23
0.0
 33
0.0
 40
0.0000137050638847
 40
0.0000137050638847
 40
0.0000137050638847
 40
0.0000137050638847
 40
0.0027147143562631
 40
0.0027147143562631
 40
0.0027147143562631
 40
0.0027147143562631
 10
162.526484527976
 20
126.8819967477947
 30
0.0
 10
161.6264808420662
 20
126.869686729539
 30
0.0
 10
160.7264806634709
 20
126.8570518722269
 30
0.0
 10
159.8264845279761
 20
126.8440803050285
 30
0.0
  0
SPLINE
  5
18F
330
1F
100
AcDbEntity
  8
0
  6
HIDDEN
 62
     7
370
     0
100
AcDbSpline
210
0.0
220
0.0
230
1.0
 70
     8
 71
     3
 72
    10
 73
     6
 74
     0
 42
0.00000001
 43
0.00000001
 12
1.0
 22
0.0
 32
0.0
 13
1.0
 23
0.0
 33
0.0
 40
0.0
 40
0.0
 40
0.0
 40
0.0
 40
0.5
 40
0.5
 40
1.0
 40
1.0
 40
1.0
 40
1.0
 10
158.3264845279752
 20
122.4388382543167
 30
0.0
 10
158.5636264886911
 20
122.2832234397878
 30
0.0
 10
158.8089692474545
 20
122.1513144103685
 30
0.0
 10
159.3102328361875
 20
121.919657533731
 30
0.0
 10
159.5662674054379
 20
121.8202119176082
 30
0.0
 10
159.8264845279761
 20
121.734023830905
 30
0.0
  0
SPLINE
  5
190
330
1F
100
AcDbEntity
  8
0
  6
HIDDEN
 62
     7
370
     0
100
AcDbSpline
210
0.0
220
0.0
230
1.0
 70
     8
 71
     3
 72
    10
 73
     6
 74
     0
 42
0.00000001
 43
0.00000001
 12
1.0
 22
0.0
 32
0.0
 13
1.0
 23
0.0
 33
0.0
 40
0.0
 40
0.0
 40
0.0
 40
0.0
 40
0.5
 40
0.5
 40
1.0
 40
1.0
 40
1.0
 40
1.0
 10
159.8264845279761
 20
126.8440803050285
 30
0.0
 10
159.5662674054381
 20
126.7578922183255
 30
0.0
 10
159.3102328361879
 20
126.6584466022027
 30
0.0
 10
158.8089692474551
 20
126.4267897255654
 30
0.0
 10
158.5636264886918
 20
126.2948806961462
 30
0.0
 10
158.326484527976
 20
126.1392658816175
 30
0.0
  0
LINE
  5
191
330
1F
100
AcDbEntity
  8
0
  6
HIDDEN
 62
     7
370
     0
100
AcDbLine
 10
158.3264843194
 20
122.4388382125
 30
0.0
 11
158.3264843194
 21
126.1392659235
 31
0.0
  0
LINE
  5
192
330
1F
100
AcDbEntity
  8
0
  6
HIDDEN
 62
     7
370
     0
100
AcDbLine
 10
162.5264846353
 20
121.6961072951
 30
0.0
 11
162.5264846353
 21
126.8819968409
 31
0.0
  0
SPLINE
  5
193
330
1F
100
AcDbEntity
  8
0
  6
HIDDEN
 62
     7
370
     0
100
AcDbSpline
210
0.0
220
0.0
230
1.0
 70
     8
 71
     3
 72
    22
 73
    18
 74
     0
 42
0.00000001
 43
0.00000001
 12
1.0
 22
0.0
 32
0.0
 13
1.0
 23
0.0
 33
0.0
 40
0.0
 40
0.0
 40
0.0
 40
0.0
 40
0.125
 40
0.125
 40
0.25
 40
0.25
 40
0.375
 40
0.375
 40
0.5
 40
0.5
 40
0.625
 40
0.625
 40
0.75
 40
0.75
 40
0.875
 40
0.875
 40
1.0
 40
1.0
 40
1.0
 40
1.0
 10
162.526484527976
 20
121.6961073881388
 30
0.0
 10
162.7074208860522
 20
121.8877272474454
 30
0.0
 10
162.8865163348291
 20
122.0813691118325
 30
0.0
 10
163.2373563233411
 20
122.4760243652168
 30
0.0
 10
163.4095494312458
 20
122.6770358958844
 30
0.0
 10
163.735280936865
 20
123.0932470111181
 30
0.0
 10
163.8913571720334
 20
123.3092628514049
 30
0.0
 10
164.1427363859224
 20
123.7745856145696
 30
0.0
 10
164.2366015162413
 20
124.0301248075924
 30
0.0
 10
164.2328735993791
 20
124.564455442693
 30
0.0
 10
164.1355009568917
 20
124.8198763086938
 30
0.0
 10
163.8836801478978
 20
125.2799050246415
 30
0.0
 10
163.7287108924253
 20
125.49374202557
 30
0.0
 10
163.4038981347
 20
125.9077806082637
 30
0.0
 10
163.2330050705721
 20
126.1070730802996
 30
0.0
 10
162.8843708310445
 20
126.4990479727338
 30
0.0
 10
162.706362980516
 20
126.6914972587231
 30
0.0
 10
162.526484527976
 20
126.8819967477947
 30
0.0
  0
SPLINE
  5
194
330
1F
100
AcDbEntity
  8
0
  6
HIDDEN
 62
     7
370
     0
100
AcDbSpline
210
0.0
220
0.0
230
1.0
 70
     8
 71
     3
 72
    62
 73
    58
 74
     0
 42
0.00000001
 43
0.00000001
 12
1.0
 22
0.0
 32
0.0
 13
1.0
 23
0.0
 33
0.0
 40
-0.0312499999999999
 40
-0.0312499999999999
 40
0.0
 40
0.0
 40
0.0312500000000003
 40
0.0312500000000003
 40
0.0625000000000006
 40
0.0625000000000006
 40
0.0937500000000009
 40
0.0937500000000009
 40
0.1250000000000012
 40
0.1250000000000012
 40
0.1875000000000015
 40
0.1875000000000015
 40
0.2500000000000018
 40
0.2500000000000018
 40
0.2812500000000018
 40
0.2812500000000018
 40
0.3125000000000018
 40
0.3125000000000018
 40
0.3437500000000018
 40
0.3437500000000018
 40
0.3750000000000018
 40
0.3750000000000018
 40
0.4375000000000019
 40
0.4375000000000019
 40
0.4687500000000018
 40
0.4687500000000018
 40
0.5000000000000018
 40
0.5000000000000018
 40
0.5625000000000014
 40
0.5625000000000014
 40
0.5937500000000013
 40
0.5937500000000013
 40
0.6250000000000011
 40
0.6250000000000011
 40
0.656250000000001
 40
0.656250000000001
 40
0.6875000000000008
 40
0.6875000000000008
 40
0.7187500000000007
 40
0.7187500000000007
 40
0.7500000000000004
 40
0.7500000000000004
 40
0.7812500000000004
 40
0.7812500000000004
 40
0.8125000000000004
 40
0.8125000000000004
 40
0.8437500000000003
 40
0.8437500000000003
 40
0.8750000000000003
 40
0.8750000000000003
 40
0.9062500000000002
 40
0.9062500000000002
 40
0.9375000000000002
 40
0.9375000000000002
 40
0.9687500000000001
 40
0.9687500000000001
 40
1.0
 40
1.0
 40
1.03125
 40
1.03125
 10
168.7802566559043
 20
125.7770311066231
 30
0.0
 10
169.0077570024926
 20
126.0263776484838
 30
0.0
 10
169.13221953141
 20
126.1379753259406
 30
0.0
 10
169.4013137975618
 20
126.3366261217591
 30
0.0
 10
169.5471268891511
 20
126.4239663665478
 30
0.0
 10
169.8482937674405
 20
126.56816211919
 30
0.0
 10
170.0046294945049
 20
126.6259817897042
 30
0.0
 10
170.3287527938393
 20
126.7132354017553
 30
0.0
 10
170.4954180055498
 20
126.7420374512371
 30
0.0
 10
170.9934342721817
 20
126.7828167565049
 30
0.0
 10
171.3341052209746
 20
126.7493734963637
 30
0.0
 10
171.9731161363961
 20
126.5669208519049
 30
0.0
 10
172.2795707434599
 20
126.4154962915921
 30
0.0
 10
172.6761266527224
 20
126.1149983860078
 30
0.0
 10
172.8004758435719
 20
126.0007372008124
 30
0.0
 10
173.0229399376211
 20
125.7510773302399
 30
0.0
 10
173.1205052760983
 20
125.6169107222408
 30
0.0
 10
173.2877608797371
 20
125.3294416277421
 30
0.0
 10
173.3578465352562
 20
125.1741747778422
 30
0.0
 10
173.4619018959778
 20
124.8571953577552
 30
0.0
 10
173.4968776586451
 20
124.6945426062507
 30
0.0
 10
173.5487421781692
 20
124.1936055860482
 30
0.0
 10
173.5094360703978
 20
123.8534509847378
 30
0.0
 10
173.346716277937
 20
123.3769563526407
 30
0.0
 10
173.2764357800507
 20
123.2258889928133
 30
0.0
 10
173.1051026349207
 20
122.9385944223724
 30
0.0
 10
173.003710393739
 20
122.802736644075
 30
0.0
 10
172.6671108065158
 20
122.4339282490768
 30
0.0
 10
172.3918780403511
 20
122.2315031397457
 30
0.0
 10
171.9420948130052
 20
122.0144264131369
 30
0.0
 10
171.7832950145016
 20
121.9551241410627
 30
0.0
 10
171.4607332936219
 20
121.8671516232622
 30
0.0
 10
171.2968741816547
 20
121.8380318594159
 30
0.0
 10
170.9640414083008
 20
121.8091752443057
 30
0.0
 10
170.79398911686
 20
121.8097987675197
 30
0.0
 10
170.4617134528403
 20
121.8410552113241
 30
0.0
 10
170.2979988410916
 20
121.871373906376
 30
0.0
 10
169.9755333555172
 20
121.9620909453789
 30
0.0
 10
169.8170222569907
 20
122.0228598540807
 30
0.0
 10
169.5184685507928
 20
122.1703705288777
 30
0.0
 10
169.3766424215907
 20
122.2575055567416
 30
0.0
 10
169.1087206830324
 20
122.4600910233137
 30
0.0
 10
168.9846272526399
 20
122.5744291899558
 30
0.0
 10
168.7634930647217
 20
122.8226156279086
 30
0.0
 10
168.6650360626231
 20
122.9576482447624
 30
0.0
 10
168.4956775488881
 20
123.2496526428171
 30
0.0
 10
168.4275107111822
 20
123.4017883892527
 30
0.0
 10
168.3237767448557
 20
123.7181973376928
 30
0.0
 10
168.2881081829865
 20
123.884693807047
 30
0.0
 10
168.253894418334
 20
124.2179556831575
 30
0.0
 10
168.2547528211631
 20
124.3846181369793
 30
0.0
 10
168.2925496011127
 20
124.7180063361969
 30
0.0
 10
168.3298923565667
 20
124.8837619086764
 30
0.0
 10
168.4371419396352
 20
125.1996532251391
 30
0.0
 10
168.5079031561743
 20
125.3529325582112
 30
0.0
 10
168.680026306275
 20
125.6423096006977
 30
0.0
 10
168.7802566559043
 20
125.7770311066231
 30
0.0
 10
169.0077570024926
 20
126.0263776484838
 30
0.0
  0
CIRCLE
  5
195
330
1F
100
AcDbEntity
  8
0
  6
HIDDEN
 62
     7
370
     0
100
AcDbCircle
 10
170.826484528
 20
124.289052068
 30
0.0
 40
2.299999999999997
  0
CIRCLE
  5
196
330
1F
100
AcDbEntity
  8
0
  6
HIDDEN
 62
     7
370
     0
100
AcDbCircle
 10
194.326484528
 20
124.289052068
 30
0.0
 40
2.0
  0
LINE
  5
197
330
1F
100
AcDbEntity
  8
0
  6
HIDDEN
 62
     7
370
     0
100
AcDbLine
 10
206.7356948374
 20
109.5317010495
 30
0.0
 11
224.3715636996
 21
109.5317010495
 31
0.0
  0
SPLINE
  5
198
330
1F
100
AcDbEntity
  8
0
  6
HIDDEN
 62
     7
370
     0
100
AcDbSpline
210
0.0
220
0.0
230
1.0
 70
     8
 71
     3
 72
     8
 73
     4
 74
     0
 42
0.00000001
 43
0.00000001
 12
1.0
 22
0.0
 32
0.0
 13
1.0
 23
0.0
 33
0.0
 40
0.0
 40
0.0
 40
0.0
 40
0.0
 40
1.0
 40
1.0
 40
1.0
 40
1.0
 10
206.7356946884946
 20
109.5317012457938
 30
0.0
 10
206.1341910403499
 20
113.3740586416889
 30
0.0
 10
205.6839553210154
 20
117.2358899949613
 30
0.0
 10
205.5250833662862
 20
121.1352309881017
 30
0.0
  0
LINE
  5
199
330
1F
100
AcDbEntity
  8
0
  6
HIDDEN
 62
     7
370
     0
100
AcDbLine
 10
223.2556269137
 20
111.7011853221
 30
0.0
 11
224.3715636996
 21
109.5317010495
 31
0.0
  0
ELLIPSE
  5
19A
330
1F
100
AcDbEntity
  8
0
  6
HIDDEN
 62
     7
370
     0
100
AcDbEllipse
 10
246.6254345358
 20
123.2224321637
 30
0.0
 11
-17.4577339390948
 21
20.58486436131485
 31
0.0
210
0.0
220
0.0
230
1.0
 40
0.9632873408
 41
0.8858048658270324
 42
1.334113086112544
  0
LINE
  5
19B
330
1F
100
AcDbEntity
  8
0
  6
HIDDEN
 62
     7
370
     0
100
AcDbLine
 10
220.1852389244
 20
124.289052068
 30
0.0
 11
220.2243432967
 21
123.2224321884
 31
0.0
  0
LINE
  5
19C
330
1F
100
AcDbEntity
  8
0
  6
HIDDEN
 62
     7
370
     0
100
AcDbLine
 10
182.326484528
 20
108.4890528309
 30
0.0
 11
182.4193777484
 21
108.5819448071
 31
0.0
  0
LINE
  5
19D
330
1F
100
AcDbEntity
  8
0
  6
HIDDEN
 62
     7
370
     0
100
AcDbLine
 10
182.4193777484
 20
139.9961593288
 30
0.0
 11
182.326484528
 21
140.089051305
 31
0.0
  0
ARC
  5
19E
330
1F
100
AcDbEntity
  8
0
  6
HIDDEN
 62
     7
370
     0
100
AcDbCircle
 10
181.7122709656
 20
109.289052068
 30
0.0
 40
1.0
100
AcDbArc
 50
315.0
 51
0.0
  0
ARC
  5
19F
330
1F
100
AcDbEntity
  8
0
  6
HIDDEN
 62
     7
370
     0
100
AcDbCircle
 10
181.7122709656
 20
109.289052068
 30
0.0
 40
1.000000000000004
100
AcDbArc
 50
0.0
 51
52.1052014664
  0
ARC
  5
1A0
330
1F
100
AcDbEntity
  8
0
  6
HIDDEN
 62
     7
370
     0
100
AcDbCircle
 10
181.7122709656
 20
139.289052068
 30
0.0
 40
1.000000000000008
100
AcDbArc
 50
351.8087250651
 51
45.0
  0
ARC
  5
1A1
330
1F
100
AcDbEntity
  8
0
  6
HIDDEN
 62
     7
370
     0
100
AcDbCircle
 10
181.7122709656
 20
139.289052068
 30
0.0
 40
1.000000000000006
100
AcDbArc
 50
307.8947985336
 51
351.8087250651
  0
LINE
  5
1A2
330
1F
100
AcDbEntity
  8
0
  6
HIDDEN
 62
     7
370
     0
100
AcDbLine
 10
182.7122709638
 20
109.2890524032
 30
0.0
 11
182.7122709638
 21
139.2890517327
 31
0.0
  0
LINE
  5
1A3
330
1F
100
AcDbEntity
  8
0
  6
HIDDEN
 62
     7
370
     0
100
AcDbLine
 10
182.7122709638
 20
109.2890524032
 30
0.0
 11
182.7122709638
 21
139.2890517327
 31
0.0
  0
LINE
  5
1A4
330
1F
100
AcDbEntity
  8
0
  6
HIDDEN
 62
     7
370
     0
100
AcDbLine
 10
213.4698667196
 20
133.5160755279
 30
0.0
 11
212.862098646
 21
134.232710554
 31
0.0
  0
LINE
  5
1A5
330
1F
100
AcDbEntity
  8
0
  6
HIDDEN
 62
     7
370
     0
100
AcDbLine
 10
158.3264843194
 20
114.1334012809
 30
0.0
 11
159.3535170523
 21
114.7263585317
 31
0.0
  0
LINE
  5
1A6
330
1F
100
AcDbEntity
  8
0
  6
HIDDEN
 62
     7
370
     0
100
AcDbLine
 10
159.3535170523
 20
133.8517456042
 30
0.0
 11
158.3264843194
 21
134.444702855
 31
0.0
  0
ARC
  5
1A7
330
1F
100
AcDbEntity
  8
0
  6
HIDDEN
 62
     7
370
     0
100
AcDbCircle
 10
164.8393029976
 20
115.289052068
 30
0.0
 40
1.000000000000018
100
AcDbArc
 50
270.0
 51
315.0
  0
ARC
  5
1A8
330
1F
100
AcDbEntity
  8
0
  6
HIDDEN
 62
     7
370
     0
100
AcDbCircle
 10
164.8393029976
 20
133.289052068
 30
0.0
 40
1.000000000000028
100
AcDbArc
 50
45.0
 51
90.0
  0
LINE
  5
1A9
330
1F
100
AcDbEntity
  8
0
  6
HIDDEN
 62
     7
370
     0
100
AcDbLine
 10
163.8264842896
 20
114.2890522915
 30
0.0
 11
164.8393031774
 21
114.2890522915
 31
0.0
  0
LINE
  5
1AA
330
1F
100
AcDbEntity
  8
0
  6
HIDDEN
 62
     7
370
     0
100
AcDbLine
 10
164.8393031774
 20
134.2890518444
 30
0.0
 11
163.8264842896
 21
134.2890518444
 31
0.0
  0
ARC
  5
1AB
330
1F
100
AcDbEntity
  8
0
  6
HIDDEN
 62
     7
370
     0
100
AcDbCircle
 10
163.826484528
 20
115.289052068
 30
0.0
 40
1.000000000000008
100
AcDbArc
 50
193.3524261238
 51
270.0
  0
ARC
  5
1AC
330
1F
100
AcDbEntity
  8
0
  6
HIDDEN
 62
     7
370
     0
100
AcDbCircle
 10
163.826484528
 20
133.289052068
 30
0.0
 40
1.000000000000004
100
AcDbArc
 50
90.0
 51
166.6475738762
  0
LINE
  5
1AD
330
1F
100
AcDbEntity
  8
0
  6
HIDDEN
 62
     7
370
     0
100
AcDbLine
 10
165.5464098422
 20
114.5819448593
 30
0.0
 11
166.2535165069
 21
115.2890524554
 31
0.0
  0
LINE
  5
1AE
330
1F
100
AcDbEntity
  8
0
  6
HIDDEN
 62
     7
370
     0
100
AcDbLine
 10
166.2535165069
 20
133.2890516805
 30
0.0
 11
165.5464098422
 21
133.9961592766
 31
0.0
  0
LINE
  5
1AF
330
1F
100
AcDbEntity
  8
0
  6
HIDDEN
 62
     7
370
     0
100
AcDbLine
 10
210.9182086406
 20
128.9653144504
 30
0.0
 11
211.5259767143
 21
128.2486789587
 31
0.0
  0
LINE
  5
1B0
330
1F
100
AcDbEntity
  8
0
  6
HIDDEN
 62
     7
370
     0
100
AcDbLine
 10
159.3535170523
 20
114.7263585317
 30
0.0
 11
161.4535172103
 21
115.2890524554
 31
0.0
  0
LINE
  5
1B1
330
1F
100
AcDbEntity
  8
0
  6
HIDDEN
 62
     7
370
     0
100
AcDbLine
 10
161.4535172103
 20
133.2890516805
 30
0.0
 11
159.3535170523
 21
133.8517456042
 31
0.0
  0
LINE
  5
1B2
330
1F
100
AcDbEntity
  8
0
  6
HIDDEN
 62
     7
370
     0
100
AcDbLine
 10
162.8535166947
 20
133.5199917394
 30
0.0
 11
162.4535173742
 21
133.2890516805
 31
0.0
  0
LINE
  5
1B3
330
1F
100
AcDbEntity
  8
0
  6
HIDDEN
 62
     7
370
     0
100
AcDbLine
 10
162.4535173742
 20
115.2890524554
 30
0.0
 11
162.8535166947
 21
115.0581123966
 31
0.0
  0
ARC
  5
1B4
330
1F
100
AcDbEntity
  8
0
  6
HIDDEN
 62
     7
370
     0
100
AcDbCircle
 10
172.826484528
 20
115.789052068
 30
0.0
 40
0.5
100
AcDbArc
 50
270.0
 51
0.0
  0
ARC
  5
1B5
330
1F
100
AcDbEntity
  8
0
  6
HIDDEN
 62
     7
370
     0
100
AcDbCircle
 10
172.826484528
 20
132.789052068
 30
0.0
 40
0.5
100
AcDbArc
 50
0.0
 51
90.0
  0
LINE
  5
1B6
330
1F
100
AcDbEntity
  8
0
  6
HIDDEN
 62
     7
370
     0
100
AcDbLine
 10
161.4535172103
 20
115.2890524554
 30
0.0
 11
162.4535173742
 21
115.2890524554
 31
0.0
  0
LINE
  5
1B7
330
1F
100
AcDbEntity
  8
0
  6
HIDDEN
 62
     7
370
     0
100
AcDbLine
 10
162.4535173742
 20
133.2890516805
 30
0.0
 11
161.4535172103
 21
133.2890516805
 31
0.0
  0
LINE
  5
1B8
330
1F
100
AcDbEntity
  8
0
  6
HIDDEN
 62
     7
370
     0
100
AcDbLine
 10
166.2535165069
 20
115.2890524554
 30
0.0
 11
172.8264848334
 21
115.2890524554
 31
0.0
  0
LINE
  5
1B9
330
1F
100
AcDbEntity
  8
0
  6
HIDDEN
 62
     7
370
     0
100
AcDbLine
 10
172.8264848334
 20
133.2890516805
 30
0.0
 11
166.2535165069
 21
133.2890516805
 31
0.0
  0
LINE
  5
1BA
330
1F
100
AcDbEntity
  8
0
  6
HIDDEN
 62
     7
370
     0
100
AcDbLine
 10
207.4059434799
 20
117.0549513499
 30
0.0
 11
208.7326143501
 21
115.490638158
 31
0.0
  0
LINE
  5
1BB
330
1F
100
AcDbEntity
  8
0
  6
HIDDEN
 62
     7
370
     0
100
AcDbLine
 10
219.1915177373
 20
122.5110044197
 30
0.0
 11
218.4969261853
 21
123.3300165932
 31
0.0
  0
LINE
  5
1BC
330
1F
100
AcDbEntity
  8
0
  6
HIDDEN
 62
     7
370
     0
100
AcDbLine
 10
213.7684375612
 20
119.3198533456
 30
0.0
 11
214.4630291132
 21
118.5008408229
 31
0.0
  0
LINE
  5
1BD
330
1F
100
AcDbEntity
  8
0
  6
HIDDEN
 62
     7
370
     0
100
AcDbLine
 10
173.3264849154
 20
117.1390521067
 30
0.0
 11
174.2264843179
 21
118.0390519748
 31
0.0
  0
LINE
  5
1BE
330
1F
100
AcDbEntity
  8
0
  6
HIDDEN
 62
     7
370
     0
100
AcDbLine
 10
174.2264843179
 20
130.5390521611
 30
0.0
 11
173.3264849154
 21
131.4390520292
 31
0.0
  0
LINE
  5
1BF
330
1F
100
AcDbEntity
  8
0
  6
HIDDEN
 62
     7
370
     0
100
AcDbLine
 10
174.2264843179
 20
118.0390519748
 30
0.0
 11
199.3111055909
 21
118.0390519748
 31
0.0
  0
LINE
  5
1C0
330
1F
100
AcDbEntity
  8
0
  6
HIDDEN
 62
     7
370
     0
100
AcDbLine
 10
199.3111055909
 20
130.5390521611
 30
0.0
 11
174.2264843179
 21
130.5390521611
 31
0.0
  0
LINE
  5
1C1
330
1F
100
AcDbEntity
  8
0
  6
HIDDEN
 62
     7
370
     0
100
AcDbLine
 10
199.3111055909
 20
118.0390519748
 30
0.0
 11
203.0664850591
 21
124.289052068
 31
0.0
  0
LINE
  5
1C2
330
1F
100
AcDbEntity
  8
0
  6
HIDDEN
 62
     7
370
     0
100
AcDbLine
 10
203.0664850591
 20
124.289052068
 30
0.0
 11
199.3111055909
 21
130.5390521611
 31
0.0
  0
LINE
  5
1C3
330
1F
100
AcDbEntity
  8
0
  6
HIDDEN
 62
     7
370
     0
100
AcDbLine
 10
217.976726648
 20
123.0157530826
 30
0.0
 11
215.6082541315
 21
125.8084788878
 31
0.0
  0
LINE
  5
1C4
330
1F
100
AcDbEntity
  8
0
  6
HIDDEN
 62
     7
370
     0
100
AcDbLine
 10
211.9387966214
 20
122.4048741587
 30
0.0
 11
214.1634300915
 21
119.781750227
 31
0.0
  0
LINE
  5
1C5
330
1F
100
AcDbEntity
  8
0
  6
HIDDEN
 62
     7
370
     0
100
AcDbLine
 10
200.5664036242
 20
122.1890521428
 30
0.0
 11
215.2571231691
 21
122.1890521428
 31
0.0
  0
LINE
  5
1C6
330
1F
100
AcDbEntity
  8
0
  6
HIDDEN
 62
     7
370
     0
100
AcDbLine
 10
215.2571231691
 20
126.3890519931
 30
0.0
 11
200.5661875574
 21
126.3890519931
 31
0.0
  0
LINE
  5
1C7
330
1F
100
AcDbEntity
  8
0
  6
HIDDEN
 62
     7
370
     0
100
AcDbLine
 10
221.9042443303
 20
110.5154291454
 30
0.0
 11
220.0375274388
 21
112.7165243688
 31
0.0
  0
LINE
  5
1C8
330
1F
100
AcDbEntity
  8
0
  6
HIDDEN
 62
     7
370
     0
100
AcDbLine
 10
217.5207511155
 20
110.5820829707
 30
0.0
 11
219.387468007
 21
108.3809877473
 31
0.0
  0
LINE
  5
1C9
330
1F
100
AcDbEntity
  8
0
  6
HIDDEN
 62
     7
370
     0
100
AcDbLine
 10
215.4652700392
 20
121.7890521238
 30
0.0
 11
221.14429256
 21
121.7890521238
 31
0.0
  0
LINE
  5
1CA
330
1F
100
AcDbEntity
  8
0
  6
HIDDEN
 62
     7
370
     0
100
AcDbLine
 10
220.9756374923
 20
126.7890520121
 30
0.0
 11
215.4652700392
 21
126.7890520121
 31
0.0
  0
LINE
  5
1CB
330
1F
100
AcDbEntity
  8
0
  6
HIDDEN
 62
     7
370
     0
100
AcDbLine
 10
214.2641768424
 20
124.9815321953
 30
0.0
 11
214.2482102481
 21
124.8707353679
 31
0.0
  0
LINE
  5
1CC
330
1F
100
AcDbEntity
  8
0
  6
HIDDEN
 62
     7
370
     0
100
AcDbLine
 10
214.2482102481
 20
123.707368768
 30
0.0
 11
214.2641768424
 21
123.5965719406
 31
0.0
  0
LINE
  5
1CD
330
1F
100
AcDbEntity
  8
VERMASSUNG
  6
CENTERX2
100
AcDbLine
 10
155.7515916591
 20
124.289052068
 30
0.0
 11
232.326484528
 21
124.289052068
 31
0.0
  0
LINE
  5
1CE
330
1F
100
AcDbEntity
  8
VERMASSUNG
  6
CENTERX2
100
AcDbLine
 10
232.326484528
 20
97.289052068
 30
0.0
 11
232.326484528
 21
124.289052068
 31
0.0
  0
LINE
  5
1CF
330
1F
100
AcDbEntity
  8
VERMASSUNG
  6
CENTERX2
100
AcDbLine
 10
232.326484528
 20
97.289052068
 30
0.0
 11
239.8002176973
 21
97.289052068
 31
0.0
  0
LINE
  5
1D0
330
1F
100
AcDbEntity
  8
VERMASSUNG
100
AcDbLine
 10
232.326484528
 20
97.289052068
 30
0.0
 11
232.326484528
 21
89.2969041772
 31
0.0
  0
DIMENSION
  5
1D1
330
1F
100
AcDbEntity
  8
VERMASSUNG
100
AcDbDimension
  2
_D
 10
232.326484528
 20
89.2969041772
 30
0.0
 11
221.8012780372
 21
90.642403546
 31
0.0
 70
   162
  1
<>
 71
     1
 42
-1.0
  3
SLDDIMSTYLE0
100
AcDb2LineAngularDimension
 13
231.7396994525
 23
97.332348374
 33
0.0
 14
218.6774573547
 24
104.1382146205
 34
0.0
 15
232.326484528
 25
97.289052068
 35
0.0
 16
221.8012780372
 26
90.642403546
 36
0.0
  0
DIMENSION
  5
1DB
330
1F
100
AcDbEntity
  8
VERMASSUNG
100
AcDbDimension
  2
_D_1
 10
232.326484528
 20
79.2969041772
 30
0.0
 11
207.326484528
 21
79.2969041772
 31
0.0
 70
   160
  1
<>
 71
     2
 42
-1.0
  3
SLDDIMSTYLE1
100
AcDbAlignedDimension
 13
182.326484528
 23
104.589052068
 33
0.0
 14
232.326484528
 24
97.289052068
 34
0.0
100
AcDbRotatedDimension
  0
DIMENSION
  5
1E8
330
1F
100
AcDbEntity
  8
VERMASSUNG
100
AcDbDimension
  2
_D_2
 10
232.326484528
 20
72.3312776504
 30
0.0
 11
195.326484528
 21
72.3312776504
 31
0.0
 70
   160
  1
<>
 71
     2
 42
-1.0
  3
SLDDIMSTYLE2
100
AcDbAlignedDimension
 13
158.326484528
 23
111.6575470859
 33
0.0
 14
232.326484528
 24
97.289052068
 34
0.0
100
AcDbRotatedDimension
  0
DIMENSION
  5
1F3
330
1F
100
AcDbEntity
  8
VERMASSUNG
100
AcDbDimension
  2
_D_3
 10
243.1362710202
 20
124.289052068
 30
0.0
 11
243.1362710202
 21
110.789052068
 31
0.0
 70
   160
  1
<>
 71
     2
 42
-1.0
  3
SLDDIMSTYLE1
100
AcDbAlignedDimension
 13
232.326484528
 23
97.289052068
 33
0.0
 14
232.326484528
 24
124.289052068
 34
0.0
 50
90.0
100
AcDbRotatedDimension
  0
DIMENSION
  5
1FF
330
1F
100
AcDbEntity
  8
VERMASSUNG
100
AcDbDimension
  2
_D_4
 10
150.8757100104
 20
144.289052068
 30
0.0
 11
150.8757100104
 21
124.289052068
 31
0.0
 70
   160
  1
PSC%%c<>
 71
     2
 42
-1.0
  3
SLDDIMSTYLE2
100
AcDbAlignedDimension
 13
182.626484528
 23
104.289052068
 33
0.0
 14
182.626484528
 24
144.289052068
 34
0.0
 50
90.0
100
AcDbRotatedDimension
  0
ARC
  5
20B
330
1F
100
AcDbEntity
  8
0
  6
Continuous
 62
     7
370
    15
100
AcDbCircle
 10
102.5852137079
 20
124.289052068
 30
0.0
 40
2.00000000000001
100
AcDbArc
 50
288.7560245113
 51
71.2439754887
  0
LINE
  5
20C
330
1F
100
AcDbEntity
  8
0
  6
Continuous
 62
     7
370
    15
100
AcDbLine
 10
66.6662614512
 20
125.7465319668
 30
0.0
 11
66.4416860509
 21
125.6222285756
 31
0.0
  0
LINE
  5
20D
330
1F
100
AcDbEntity
  8
0
  6
Continuous
 62
     7
370
    15
100
AcDbLine
 10
72.6972996908
 20
127.0306156675
 30
0.0
 11
66.6793018299
 21
125.7514508634
 31
0.0
  0
SPLINE
  5
20E
330
1F
100
AcDbEntity
  8
0
  6
Continuous
 62
     7
370
    15
100
AcDbSpline
210
0.0
220
0.0
230
1.0
 70
     8
 71
     3
 72
    26
 73
    22
 74
     0
 42
0.00000001
 43
0.00000001
 12
1.0
 22
0.0
 32
0.0
 13
1.0
 23
0.0
 33
0.0
 40
0.0
 40
0.0
 40
0.0
 40
0.0
 40
0.0198992304473084
 40
0.0660755825867458
 40
0.1105754268355957
 40
0.1537304290424149
 40
0.1959263165333253
 40
0.2379392450561134
 40
0.2811592697008873
 40
0.3286074364412374
 40
0.3865512303415083
 40
0.457625593334552
 40
0.5193425820965337
 40
0.5834416909905435
 40
0.6439567512064835
 40
0.7030300833570633
 40
0.7618131480613974
 40
0.8210229666768233
 40
0.8815871394333079
 40
0.9451789502844985
 40
1.0
 40
1.0
 40
1.0
 40
1.0
 10
64.54549652513569
 20
122.7726612432763
 30
0.0
 10
64.48604853359856
 20
122.7382110931033
 30
0.0
 10
64.2886509163978
 20
122.6238190441793
 30
0.0
 10
64.0037707555049
 20
122.3682211913357
 30
0.0
 10
63.7002416908505
 20
122.0268074107895
 30
0.0
 10
63.46064408891425
 20
121.6592943597007
 30
0.0
 10
63.27790759621828
 20
121.2806622251472
 30
0.0
 10
63.14645304056555
 20
120.8964428943593
 30
0.0
 10
63.05747351648203
 20
120.5041209427689
 30
0.0
 10
63.00240388316071
 20
120.0797169158251
 30
0.0
 10
62.98021258951147
 20
119.5851850451998
 30
0.0
 10
62.99664960798777
 20
119.0332968735808
 30
0.0
 10
63.04903550646745
 20
118.4255118959861
 30
0.0
 10
63.12809387916088
 20
117.8164383082487
 30
0.0
 10
63.23242814066604
 20
117.1927769785708
 30
0.0
 10
63.35574149763878
 20
116.5787011172853
 30
0.0
 10
63.49675567572713
 20
115.9752577984162
 30
0.0
 10
63.65442428107859
 20
115.3868636879917
 30
0.0
 10
63.83029278726254
 20
114.8166197991126
 30
0.0
 10
64.01257105663555
 20
114.2995230733951
 30
0.0
 10
64.14737371753795
 20
113.9876519011304
 30
0.0
 10
64.20978267666405
 20
113.8432663592413
 30
0.0
  0
SPLINE
  5
20F
330
1F
100
AcDbEntity
  8
0
  6
Continuous
 62
     7
370
    15
100
AcDbSpline
210
0.0
220
0.0
230
1.0
 70
     8
 71
     3
 72
    16
 73
    12
 74
     0
 42
0.00000001
 43
0.00000001
 12
1.0
 22
0.0
 32
0.0
 13
1.0
 23
0.0
 33
0.0
 40
0.0
 40
0.0
 40
0.0
 40
0.0
 40
0.0913282871046225
 40
0.2305405761020677
 40
0.3515630806158563
 40
0.4708651447793657
 40
0.5907275855804273
 40
0.7120558053967141
 40
0.8352678876720843
 40
0.959919690899038
 40
1.0
 40
1.0
 40
1.0
 40
1.0
 10
64.20978267666405
 20
113.8432663592413
 30
0.0
 10
64.2525806355814
 20
113.752063677414
 30
0.0
 10
64.36061579552585
 20
113.5218401675124
 30
0.0
 10
64.55066855586608
 20
113.1842303720348
 30
0.0
 10
64.80026136977999
 20
112.822597583135
 30
0.0
 10
65.09006584624159
 20
112.4892539075979
 30
0.0
 10
65.43539923420302
 20
112.1829827867602
 30
0.0
 10
65.83508202403395
 20
111.917930634678
 30
0.0
 10
66.28303253741957
 20
111.7165506507678
 30
0.0
 10
66.65386826080345
 20
111.5989786845777
 30
0.0
 10
66.8745224730488
 20
111.5783497164965
 30
0.0
 10
66.92820896383827
 20
111.5733305650667
 30
0.0
  0
LINE
  5
210
330
1F
100
AcDbEntity
  8
0
  6
Continuous
 62
     7
370
    15
100
AcDbLine
 10
67.0035194325
 20
111.5645742702
 30
0.0
 11
68.9300942886
 21
111.9740805316
 31
0.0
  0
LINE
  5
211
330
1F
100
AcDbEntity
  8
0
  6
Continuous
 62
     7
370
    15
100
AcDbLine
 10
66.5391098427
 20
123.2227781747
 30
0.0
 11
64.6125349867
 21
122.8132720298
 31
0.0
  0
SPLINE
  5
212
330
1F
100
AcDbEntity
  8
0
  6
Continuous
 62
     7
370
    15
100
AcDbSpline
210
0.0
220
0.0
230
1.0
 70
     8
 71
     3
 72
    21
 73
    17
 74
     0
 42
0.00000001
 43
0.00000001
 12
1.0
 22
0.0
 32
0.0
 13
1.0
 23
0.0
 33
0.0
 40
0.0
 40
0.0
 40
0.0
 40
0.0
 40
0.0427815844268798
 40
0.1199632233421232
 40
0.1953457690537733
 40
0.2699051451700332
 40
0.3440610592562751
 40
0.4180415491515188
 40
0.4920032177450319
 40
0.5660489553263544
 40
0.6403321536870096
 40
0.7150846588215597
 40
0.7907144472096531
 40
0.8680840842836235
 40
0.9494341524290036
 40
1.0
 40
1.0
 40
1.0
 40
1.0
 10
82.17442144629067
 20
117.8436916979864
 30
0.0
 10
82.17458228550107
 20
117.9205692526394
 30
0.0
 10
82.17503329240927
 20
118.1361404939195
 30
0.0
 10
82.14337969882413
 20
118.5568716784499
 30
0.0
 10
82.08600363116797
 20
119.0832284366287
 30
0.0
 10
82.00418718877862
 20
119.6410299422755
 30
0.0
 10
81.90197816879306
 20
120.2155067251575
 30
0.0
 10
81.78143667774853
 20
120.7948723556968
 30
0.0
 10
81.64561847944677
 20
121.3652029545272
 30
0.0
 10
81.49765698080648
 20
121.9129887120901
 30
0.0
 10
81.34085663417434
 20
122.4254661570305
 30
0.0
 10
81.17794834449982
 20
122.8913965932075
 30
0.0
 10
81.01157363445739
 20
123.3025951856307
 30
0.0
 10
80.83751655582405
 20
123.6540062186413
 30
0.0
 10
80.68561172133565
 20
123.9070725132437
 30
0.0
 10
80.5592444624191
 20
124.03388965601
 30
0.0
 10
80.51080551919048
 20
124.082501048166
 30
0.0
  0
LINE
  5
213
330
1F
100
AcDbEntity
  8
0
  6
Continuous
 62
     7
370
    15
100
AcDbLine
 10
66.8850384372
 20
124.2264692937
 30
0.0
 11
66.3269787746
 21
123.3371632134
 31
0.0
  0
LINE
  5
214
330
1F
100
AcDbEntity
  8
0
  6
Continuous
 62
     7
370
    15
100
AcDbLine
 10
68.7828279751
 20
111.7833037588
 30
0.0
 11
69.9208184796
 21
111.0188686016
 31
0.0
  0
LINE
  5
215
330
1F
100
AcDbEntity
  8
0
  6
Continuous
 62
     7
370
    15
100
AcDbLine
 10
70.1532710063
 20
110.9561496141
 30
0.0
 11
74.5761200505
 21
111.8962545606
 31
0.0
  0
LINE
  5
216
330
1F
100
AcDbEntity
  8
0
  6
Continuous
 62
     7
370
    15
100
AcDbLine
 10
74.6895998436
 20
111.9575560751
 30
0.0
 11
76.4270091149
 21
113.5502471316
 31
0.0
  0
LINE
  5
217
330
1F
100
AcDbEntity
  8
0
  6
Continuous
 62
     7
370
    15
100
AcDbLine
 10
73.0047423112
 20
125.1750801184
 30
0.0
 11
72.3627667594
 21
125.3900270403
 31
0.0
  0
LINE
  5
218
330
1F
100
AcDbEntity
  8
0
  6
Continuous
 62
     7
370
    15
100
AcDbLine
 10
77.8745321276
 20
134.7390631872
 30
0.0
 11
75.1815626117
 21
134.1666546377
 31
0.0
  0
LINE
  5
219
330
1F
100
AcDbEntity
  8
0
  6
Continuous
 62
     7
370
    15
100
AcDbLine
 10
73.3764098677
 20
132.3682754028
 30
0.0
 11
72.3751067835
 21
127.3379439681
 31
0.0
  0
LINE
  5
21A
330
1F
100
AcDbEntity
  8
0
  6
Continuous
 62
     7
370
    15
100
AcDbLine
 10
88.7596633747
 20
97.2893177259
 30
0.0
 11
93.3449111598
 21
98.2639430749
 31
0.0
  0
LINE
  5
21B
330
1F
100
AcDbEntity
  8
0
  6
Continuous
 62
     7
370
    15
100
AcDbLine
 10
86.4889711792
 20
102.7368581581
 30
0.0
 11
86.9534375797
 21
102.1917233902
 31
0.0
  0
LINE
  5
21C
330
1F
100
AcDbEntity
  8
0
  6
Continuous
 62
     7
370
    15
100
AcDbLine
 10
93.3672764058
 20
98.4143535334
 30
0.0
 11
96.0509000997
 21
98.9847755718
 31
0.0
  0
LINE
  5
21D
330
1F
100
AcDbEntity
  8
0
  6
Continuous
 62
     7
370
    15
100
AcDbLine
 10
96.0642459522
 20
98.9956217545
 30
0.0
 11
96.2828511092
 21
99.3439848262
 31
0.0
  0
ARC
  5
21E
330
1F
100
AcDbEntity
  8
0
  6
Continuous
 62
     7
370
    15
100
AcDbCircle
 10
103.3920346815
 20
124.2865411715
 30
0.0
 40
2.548794706100948
100
AcDbArc
 50
283.6642115677
 51
77.5401251735
  0
LWPOLYLINE
  5
21F
330
1F
100
AcDbEntity
  8
0
  6
Continuous
 62
     7
370
    15
100
AcDbPolyline
 90
        3
 70
   128
 43
0.0
 10
103.2371466699
 20
122.0154871425
 10
103.1731573584
 20
122.0373604174
 10
103.1434109154
 20
122.0484305832
  0
LWPOLYLINE
  5
220
330
1F
100
AcDbEntity
  8
0
  6
Continuous
 62
     7
370
    15
100
AcDbPolyline
 90
       28
 70
   128
 43
0.0
 10
104.0083544048
 20
122.3057186889
 10
103.6062298062
 20
122.2997591558
 10
103.2137537095
 20
122.4010429305
 10
102.8520857635
 20
122.6041096688
 10
102.5407232064
 20
122.898012256
 10
102.2964512649
 20
123.2669059846
 10
102.1324388402
 20
123.6909039744
 10
102.0575279089
 20
124.1471482517
 10
102.075757617
 20
124.6110425873
 10
102.1861435565
 20
125.0575783506
 10
102.3827364388
 20
125.4626826576
 10
102.6549368816
 20
125.8045162267
 10
102.9880709666
 20
126.0646508035
 10
103.3641790691
 20
126.2290622999
 10
103.7629853654
 20
126.2888873189
 10
104.1629902738
 20
126.2409008068
 10
104.5426290202
 20
126.0876895121
 10
104.8814348596
 20
125.8375133348
 10
105.1611426937
 20
125.5038591062
 10
105.3666762727
 20
125.1047143905
 10
105.4869509953
 20
124.6615970467
 10
105.5154848563
 20
124.1983957316
 10
105.4507393109
 20
123.7400817063
 10
105.2962049561
 20
123.3113627841
 10
105.060211541
 20
122.9353514227
 10
104.7554846573
 20
122.6323183819
 10
104.3984491098
 20
122.4186003401
 10
104.0083544048
 20
122.3057186889
  0
ARC
  5
221
330
1F
100
AcDbEntity
  8
0
  6
Continuous
 62
     7
370
    15
100
AcDbCircle
 10
64.7166007284
 20
124.1314648876
 30
0.0
 40
2.531722458000866
100
AcDbArc
 50
5.8078502759
 51
39.6377952802
  0
LWPOLYLINE
  5
222
330
1F
100
AcDbEntity
  8
0
  6
Continuous
 62
     7
370
    15
100
AcDbPolyline
 90
       12
 70
   128
 43
0.0
 10
66.4774618762
 20
124.3337943797
 10
66.4142697769
 20
124.7123095982
 10
66.3769703078
 20
125.0539020711
 10
66.3684356677
 20
125.3322554712
 10
66.3893215078
 20
125.5259256304
 10
66.4380222279
 20
125.6199921208
 10
66.510784598
 20
125.6072080887
 10
66.6020039189
 20
125.4885584076
 10
66.7046505677
 20
125.2731837758
 10
66.810817616
 20
124.9776768109
 10
66.9123261887
 20
124.6248031402
 10
66.9926490354
 20
124.2832705084
  0
LINE
  5
223
330
1F
100
AcDbEntity
  8
0
  6
Continuous
 62
     7
370
    15
100
AcDbLine
 10
66.6026372182
 20
123.7870218192
 30
0.0
 11
66.5227669942
 21
124.1149276629
 31
0.0
  0
LINE
  5
224
330
1F
100
AcDbEntity
  8
0
  6
Continuous
 62
     7
370
    15
100
AcDbLine
 10
66.5587011444
 20
124.1335771647
 30
0.0
 11
66.5227669942
 21
124.1149276629
 31
0.0
  0
LWPOLYLINE
  5
225
330
1F
100
AcDbEntity
  8
0
  6
Continuous
 62
     7
370
    15
100
AcDbPolyline
 90
       11
 70
   128
 43
0.0
 10
66.5205485838
 20
124.317885984
 10
66.4631586241
 20
124.6671909484
 10
66.4325032103
 20
124.9760802329
 10
66.4314377772
 20
125.2157987055
 10
66.4600591826
 20
125.3640306841
 10
66.5157038438
 20
125.4069769948
 10
66.5931917447
 20
125.3406397027
 10
66.6853107232
 20
125.1711942332
 10
66.7834832984
 20
124.9144145131
 10
66.8785713333
 20
124.5942045953
 10
66.9458631146
 20
124.3149159345
  0
LINE
  5
226
330
1F
100
AcDbEntity
  8
0
  6
Continuous
 62
     7
370
    15
100
AcDbLine
 10
66.6342314052
 20
123.8267923199
 30
0.0
 11
66.5587011444
 21
124.1335771647
 31
0.0
  0
LINE
  5
227
330
1F
100
AcDbEntity
  8
0
  6
Continuous
 62
     7
370
    15
100
AcDbLine
 10
66.5205485838
 20
124.317885984
 30
0.0
 11
66.4774618762
 21
124.3337943797
 31
0.0
  0
LINE
  5
228
330
1F
100
AcDbEntity
  8
0
  6
Continuous
 62
     7
370
    15
100
AcDbLine
 10
66.868000822
 20
124.1993210806
 30
0.0
 11
66.5587011444
 21
124.1335771647
 31
0.0
  0
LINE
  5
229
330
1F
100
AcDbEntity
  8
0
  6
Continuous
 62
     7
370
    15
100
AcDbLine
 10
66.9257707613
 20
124.4040183246
 30
0.0
 11
66.5205485838
 21
124.317885984
 31
0.0
  0
LWPOLYLINE
  5
22A
330
1F
100
AcDbEntity
  8
0
  6
Continuous
 62
     7
370
    15
100
AcDbPolyline
 90
       26
 70
   128
 43
0.0
 10
66.9392432737
 20
111.5627209383
 10
67.0185565668
 20
111.5684811684
 10
67.1377230155
 20
111.660998753
 10
67.232120009
 20
111.856490812
 10
67.2999892103
 20
112.1513158741
 10
67.3400658834
 20
112.5399819302
 10
67.3516031074
 20
113.0152498099
 10
67.3343866783
 20
113.5682644981
 10
67.288736971
 20
114.1887255671
 10
67.2155052143
 20
114.8650753039
 10
67.1160548645
 20
115.5847129139
 10
66.9922373908
 20
116.3342338714
 10
66.8463606107
 20
117.0996767196
 10
66.6811421233
 20
117.8667819786
 10
66.4996590185
 20
118.6212599005
 10
66.3052919972
 20
119.3490558962
 10
66.1016620415
 20
120.0366131688
 10
65.8925614971
 20
120.6711230061
 10
65.6818870175
 20
121.2407659932
 10
65.4735613334
 20
121.7349311064
 10
65.27146806
 20
122.1444124549
 10
65.0793678778
 20
122.4615825067
 10
64.9008426535
 20
122.6805328351
 10
64.7392153459
 20
122.7971849457
 10
64.5974978524
 20
122.8093658301
 10
64.5529042649
 20
122.7887224832
  0
LWPOLYLINE
  5
22B
330
1F
100
AcDbEntity
  8
0
  6
Continuous
 62
     7
370
    15
100
AcDbPolyline
 90
       25
 70
   128
 43
0.0
 10
68.9300942886
 20
111.9740805316
 10
68.9451314228
 20
111.9779874298
 10
69.0642978716
 20
112.070504083
 10
69.1586948651
 20
112.2659970733
 10
69.2265640664
 20
112.5608221355
 10
69.2666407394
 20
112.9494881916
 10
69.2781779635
 20
113.4247560712
 10
69.2609615343
 20
113.9777707594
 10
69.215311827
 20
114.5982318285
 10
69.1420800703
 20
115.2745806339
 10
69.0426297205
 20
115.9942191753
 10
68.9188122469
 20
116.7437405984
 10
68.7729354667
 20
117.5091829809
 10
68.6077169794
 20
118.2762882399
 10
68.4262338745
 20
119.0307661618
 10
68.2318668532
 20
119.7585621576
 10
68.0282368976
 20
120.4461191974
 10
67.8191363531
 20
121.0806290346
 10
67.6084618735
 20
121.6502722545
 10
67.4001361894
 20
122.1444371349
 10
67.1980410534
 20
122.5539185998
 10
67.0059427339
 20
122.8710886517
 10
66.8274175095
 20
123.0900389801
 10
66.665790202
 20
123.2066910907
 10
66.5391098427
 20
123.2227781747
  0
LWPOLYLINE
  5
22C
330
1F
100
AcDbEntity
  8
0
  6
Continuous
 62
     7
370
    15
100
AcDbPolyline
 90
       31
 70
   128
 43
0.0
 10
64.0268727857
 20
114.8028918269
 10
64.1599271166
 20
114.5461336437
 10
64.2808090615
 20
114.3869808602
 10
64.384239884
 20
114.3323885935
 10
64.465695219
 20
114.3847438234
 10
64.5216155517
 20
114.5417573589
 10
64.5495589542
 20
114.7965672153
 10
64.5483016687
 20
115.1380375686
 10
64.5179014372
 20
115.5512439745
 10
64.4596844631
 20
116.0181271571
 10
64.3761951196
 20
116.5182823042
 10
64.2710841912
 20
117.0298508095
 10
64.1489449608
 20
117.5304739463
 10
64.0151139068
 20
117.9982721533
 10
63.8754415977
 20
118.4128005716
 10
63.7360319215
 20
118.7559421833
 10
63.6029794532
 20
119.0127003665
 10
63.4820956456
 20
119.1718536156
 10
63.3786666858
 20
119.2264454166
 10
63.2972113508
 20
119.1740906524
 10
63.2412891555
 20
119.0170771169
 10
63.2133457529
 20
118.7622672605
 10
63.2146030384
 20
118.4207969072
 10
63.2450032699
 20
118.0075909669
 10
63.303220244
 20
117.5407073188
 10
63.3867095875
 20
117.0405521716
 10
63.491820516
 20
116.5289836663
 10
63.6139597463
 20
116.0283605295
 10
63.7477908003
 20
115.5605627882
 10
63.8874631095
 20
115.1460339042
 10
64.0268727857
 20
114.8028918269
  0
SPLINE
  5
22D
330
1F
100
AcDbEntity
  8
0
  6
Continuous
 62
     7
370
    15
100
AcDbSpline
210
0.0
220
0.0
230
1.0
 70
     8
 71
     3
 72
     9
 73
     5
 74
     0
 42
0.00000001
 43
0.00000001
 12
1.0
 22
0.0
 32
0.0
 13
1.0
 23
0.0
 33
0.0
 40
0.0
 40
0.0
 40
0.0
 40
0.0
 40
0.5497677315910255
 40
0.9999999999999999
 40
0.9999999999999999
 40
0.9999999999999999
 40
0.9999999999999999
 10
63.45976998087471
 20
118.1511333870605
 30
0.0
 10
63.54502575422161
 20
118.2290374856806
 30
0.0
 10
63.70010174076629
 20
118.3707411436866
 30
0.0
 10
63.77193164737044
 20
118.5049334864353
 30
0.0
 10
63.80427178916042
 20
118.5653512093142
 30
0.0
  0
SPLINE
  5
22E
330
1F
100
AcDbEntity
  8
0
  6
Continuous
 62
     7
370
    15
100
AcDbSpline
210
0.0
220
0.0
230
1.0
 70
     8
 71
     3
 72
    11
 73
     7
 74
     0
 42
0.00000001
 43
0.00000001
 12
1.0
 22
0.0
 32
0.0
 13
1.0
 23
0.0
 33
0.0
 40
0.0
 40
0.0
 40
0.0
 40
0.0
 40
0.2164526695098219
 40
0.4403053624686413
 40
0.7518957174806544
 40
0.9999999999999999
 40
0.9999999999999999
 40
0.9999999999999999
 40
0.9999999999999999
 10
63.87874779280726
 20
115.9035679611281
 30
0.0
 10
63.91982652651411
 20
116.0723582908947
 30
0.0
 10
64.00338838220988
 20
116.4157095071093
 30
0.0
 10
64.01336149905813
 20
117.0220409469676
 30
0.0
 10
63.82581708966341
 20
117.6303099748099
 30
0.0
 10
63.57219629519635
 20
117.9911696686049
 30
0.0
 10
63.4597699808747
 20
118.1511333870605
 30
0.0
  0
SPLINE
  5
22F
330
1F
100
AcDbEntity
  8
0
  6
Continuous
 62
     7
370
    15
100
AcDbSpline
210
0.0
220
0.0
230
1.0
 70
     8
 71
     3
 72
    11
 73
     7
 74
     0
 42
0.00000001
 43
0.00000001
 12
1.0
 22
0.0
 32
0.0
 13
1.0
 23
0.0
 33
0.0
 40
0.0
 40
0.0
 40
0.0
 40
0.0
 40
0.1856345061404568
 40
0.5233289390449976
 40
0.8791084607625923
 40
1.0
 40
1.0
 40
1.0
 40
1.0
 10
64.48403109785622
 20
114.5708779531434
 30
0.0
 10
64.50899778573887
 20
114.661559228239
 30
0.0
 10
64.5793822770318
 20
114.9172020851283
 30
0.0
 10
64.51713782342128
 20
115.3546379096001
 30
0.0
 10
64.18979216781236
 20
115.696310996178
 30
0.0
 10
63.94167447739797
 20
115.8616382729206
 30
0.0
 10
63.87874779280727
 20
115.9035679611281
 30
0.0
  0
LINE
  5
230
330
1F
100
AcDbEntity
  8
0
  6
Continuous
 62
     7
370
    15
100
AcDbLine
 10
63.9326378423
 20
118.2516445133
 30
0.0
 11
63.4597699809
 21
118.1511333871
 31
0.0
  0
LINE
  5
231
330
1F
100
AcDbEntity
  8
0
  6
Continuous
 62
     7
370
    15
100
AcDbLine
 10
64.4584122765
 20
116.0267800751
 30
0.0
 11
63.8787477928
 21
115.9035679611
 31
0.0
  0
LWPOLYLINE
  5
232
330
1F
100
AcDbEntity
  8
0
  6
Continuous
 62
     7
370
    15
100
AcDbPolyline
 90
       30
 70
   128
 43
0.0
 10
68.6389796155
 20
111.9122025284
 10
68.688224228
 20
111.8612237933
 10
68.852751674
 20
111.7451288464
 10
68.9973264652
 20
111.7334863829
 10
69.1193669754
 20
111.8265040877
 10
69.216697635
 20
112.0225214126
 10
69.2875805962
 20
112.3180412414
 10
69.3307492602
 20
112.7077894944
 10
69.3454362172
 20
113.1848110544
 10
69.3313769716
 20
113.7405945646
 10
69.2888229805
 20
114.3652205082
 10
69.2185323405
 20
115.047543748
 10
69.1217641997
 20
115.7753872412
 10
69.0002396422
 20
116.535763229
 10
68.8561305123
 20
117.3151023413
 10
68.6920072603
 20
118.0994971382
 10
68.5107998269
 20
118.8749507728
 10
68.3157417643
 20
119.6276247228
 10
68.1103124934
 20
120.3440874542
 10
67.8981777
 20
121.0115542362
 10
67.6831260043
 20
121.618113686
 10
67.46899073
 20
122.152941507
 10
67.2595958876
 20
122.6064940874
 10
67.0586779433
 20
122.9706776521
 10
66.869822489
 20
123.2389933157
 10
66.6963971871
 20
123.4066529741
 10
66.5415014791
 20
123.4706646955
 10
66.4078939426
 20
123.4298863292
 10
66.2979624885
 20
123.2850454708
 10
66.2479951697
 20
123.1608999387
  0
LWPOLYLINE
  5
233
330
1F
100
AcDbEntity
  8
0
  6
Continuous
 62
     7
370
    15
100
AcDbPolyline
 90
       28
 70
   128
 43
0.0
 10
69.9208184796
 20
111.0188686016
 10
70.0053117889
 20
110.9731425258
 10
70.1631728279
 20
110.9585049289
 10
70.2982444036
 20
111.0503184336
 10
70.4084273147
 20
111.2471553224
 10
70.4920060652
 20
111.5459552693
 10
70.5476823914
 20
111.942069112
 10
70.5745901632
 20
112.4293380144
 10
70.5723121482
 20
113.0001838046
 10
70.5408800113
 20
113.6457272532
 10
70.4807854908
 20
114.3559287029
 10
70.3929636347
 20
115.1197445306
 10
70.2787778991
 20
115.9252938541
 10
70.1400071102
 20
116.7600485223
 10
69.9788063484
 20
117.6110268298
 10
69.7976845967
 20
118.4649932857
 10
69.5994600373
 20
119.3086672301
 10
69.3872116226
 20
120.1289272594
 10
69.164243685
 20
120.9130163497
 10
68.9340226072
 20
121.6487397632
 10
68.7001283931
 20
122.3246555037
 10
68.4662006515
 20
122.9302515003
 10
68.2358752656
 20
123.456109055
 10
68.0127359646
 20
123.8940499043
 10
67.8002509939
 20
124.2372629695
 10
67.6017284113
 20
124.4804104663
 10
67.420252757
 20
124.6197108721
 10
67.420252757
 20
124.6197108721
  0
SPLINE
  5
234
330
1F
100
AcDbEntity
  8
0
  6
Continuous
 62
     7
370
    15
100
AcDbSpline
210
0.0
220
0.0
230
1.0
 70
     8
 71
     3
 72
    14
 73
    10
 74
     0
 42
0.00000001
 43
0.00000001
 12
1.0
 22
0.0
 32
0.0
 13
1.0
 23
0.0
 33
0.0
 40
0.0
 40
0.0
 40
0.0
 40
0.0
 40
0.2005388762904544
 40
0.3319464844853934
 40
0.4644907182421129
 40
0.5773677586983873
 40
0.6857527894734006
 40
0.8613722043474643
 40
1.0
 40
1.0
 40
1.0
 40
1.0
 10
66.97104421433514
 20
124.3597603042746
 30
0.0
 10
66.88745051388278
 20
124.2290784595181
 30
0.0
 10
66.74908016144255
 20
124.0127643973502
 30
0.0
 10
66.65354585907339
 20
123.8369415774175
 30
0.0
 10
66.6558770259118
 20
123.7889835550497
 30
0.0
 10
66.74944567724815
 20
123.8578732225425
 30
0.0
 10
66.92114952518136
 20
124.0269587523016
 30
0.0
 10
67.15485434445384
 20
124.2874670016646
 30
0.0
 10
67.33901268769505
 20
124.518009001295
 30
0.0
 10
67.42025275703972
 20
124.6197108721264
 30
0.0
  0
SPLINE
  5
235
330
1F
100
AcDbEntity
  8
0
  6
Continuous
 62
     7
370
    15
100
AcDbSpline
210
0.0
220
0.0
230
1.0
 70
    11
 71
     3
 72
    26
 73
    22
 74
     0
 42
0.00000001
 43
0.00000001
 12
1.0
 22
0.0
 32
0.0
 13
1.0
 23
0.0
 33
0.0
 40
0.0
 40
0.0
 40
0.0
 40
0.0
 40
0.0456331036737901
 40
0.0911463433657483
 40
0.1396862535517233
 40
0.1952351764161549
 40
0.2567868652740819
 40
0.3195023591779406
 40
0.3782718119590185
 40
0.4320412019567649
 40
0.4825625190859937
 40
0.5316191144062681
 40
0.5803374307347499
 40
0.6295791027735513
 40
0.6804005293601346
 40
0.734211374101773
 40
0.7923203771784962
 40
0.854491283201329
 40
0.9168150182237859
 40
0.9638624282002705
 40
1.0
 40
1.0
 40
1.0
 40
1.0
 10
74.26734191354817
 20
112.3484275030807
 30
0.0
 10
74.26492817574923
 20
112.3876081449525
 30
0.0
 10
74.26010704029045
 20
112.4658665133263
 30
0.0
 10
74.12333580902276
 20
112.5576168138043
 30
0.0
 10
73.90365857359043
 20
112.6191780359039
 30
0.0
 10
73.59204713072701
 20
112.6354878256249
 30
0.0
 10
73.21180881070467
 20
112.586074840852
 30
0.0
 10
72.81986005450015
 20
112.4626855108843
 30
0.0
 10
72.48784469702652
 20
112.2884967798434
 30
0.0
 10
72.25873356258235
 20
112.1043851248173
 30
0.0
 10
72.14045731293209
 20
111.9407315788323
 30
0.0
 10
72.12908856685164
 20
111.8139011979924
 30
0.0
 10
72.21932862517481
 20
111.7323839345034
 30
0.0
 10
72.40319788806686
 20
111.6985054379465
 30
0.0
 10
72.66893841007202
 20
111.7097096001947
 30
0.0
 10
73.00155752389642
 20
111.7615545895267
 30
0.0
 10
73.37839356990867
 20
111.8502493902687
 30
0.0
 10
73.75820163563735
 20
111.9717391703272
 30
0.0
 10
74.05423369709158
 20
112.1100862681634
 30
0.0
 10
74.22455806435349
 20
112.2415379205898
 30
0.0
 10
74.25438456076105
 20
112.3160553333094
 30
0.0
 10
74.26734191354817
 20
112.3484275030807
 30
0.0
  0
LWPOLYLINE
  5
236
330
1F
100
AcDbEntity
  8
0
  6
Continuous
 62
     7
370
    15
100
AcDbPolyline
 90
       26
 70
   128
 43
0.0
 10
74.5761200505
 20
111.8962545606
 10
74.5860209408
 20
111.8986098754
 10
74.7210934478
 20
111.9904243114
 10
74.8312754276
 20
112.1872612002
 10
74.9148551094
 20
112.4860602158
 10
74.9705323669
 20
112.8821749899
 10
74.9974401387
 20
113.3694438922
 10
74.9951602611
 20
113.9402887511
 10
74.9637290555
 20
114.5858321997
 10
74.9036354664
 20
115.2960345807
 10
74.8158126789
 20
116.0598494771
 10
74.7016278746
 20
116.8653992663
 10
74.5628561544
 20
117.7001539345
 10
74.4016553926
 20
118.5511322419
 10
74.2205345723
 20
119.4050986978
 10
74.0223081502
 20
120.2487726423
 10
73.8100606668
 20
121.0690329044
 10
73.5870927292
 20
121.8531217619
 10
73.3568716514
 20
122.5888454082
 10
73.1229774373
 20
123.2647611487
 10
72.8890496957
 20
123.8703571162
 10
72.6587243098
 20
124.3962146636
 10
72.4355850088
 20
124.8341555201
 10
72.2231000381
 20
125.1773685526
 10
72.0245774555
 20
125.4205160967
 10
71.8431018012
 20
125.5598164589
  0
LINE
  5
237
330
1F
100
AcDbEntity
  8
0
  6
Continuous
 62
     7
370
    15
100
AcDbLine
 10
67.420252757
 20
124.6197108721
 30
0.0
 11
71.8431018012
 21
125.5598164589
 31
0.0
  0
LINE
  5
238
330
1F
100
AcDbEntity
  8
0
  6
Continuous
 62
     7
370
    15
100
AcDbLine
 10
71.8431018012
 20
125.5598164589
 30
0.0
 11
72.3622340429
 21
125.3884456546
 31
0.0
  0
ARC
  5
239
330
1F
100
AcDbEntity
  8
0
  6
Continuous
 62
     7
370
    15
100
AcDbCircle
 10
-121.9473882365
 20
66.8265301966
 30
0.0
 40
210.4020400493758
100
AcDbArc
 50
12.9121506166
 51
15.9529019314
  0
SPLINE
  5
23A
330
1F
100
AcDbEntity
  8
0
  6
Continuous
 62
     7
370
    15
100
AcDbSpline
210
0.0
220
0.0
230
1.0
 70
     8
 71
     3
 72
    10
 73
     6
 74
     0
 42
0.00000001
 43
0.00000001
 12
1.0
 22
0.0
 32
0.0
 13
1.0
 23
0.0
 33
0.0
 40
0.0
 40
0.0
 40
0.0
 40
0.0
 40
0.4116164130190567
 40
0.8227990243119065
 40
1.0
 40
1.0
 40
1.0
 40
1.0
 10
84.61251125660246
 20
111.7554926040486
 30
0.0
 10
84.3266429505505
 20
111.9755573864795
 30
0.0
 10
83.75520761449073
 20
112.4154550255011
 30
0.0
 10
83.31192218017443
 20
113.2009470983198
 30
0.0
 10
83.1754810376788
 20
113.6938553609592
 30
0.0
 10
83.13438964065617
 20
113.8423024403766
 30
0.0
  0
ARC
  5
23B
330
1F
100
AcDbEntity
  8
0
  6
Continuous
 62
     7
370
    15
100
AcDbCircle
 10
-139.4064648169
 20
62.6240479491
 30
0.0
 40
229.3434117102759
100
AcDbArc
 50
10.7900555658
 51
12.370153841
  0
SPLINE
  5
23C
330
1F
100
AcDbEntity
  8
0
  6
Continuous
 62
     7
370
    15
100
AcDbSpline
210
0.0
220
0.0
230
1.0
 70
     8
 71
     3
 72
    13
 73
     9
 74
     0
 42
0.00000001
 43
0.00000001
 12
1.0
 22
0.0
 32
0.0
 13
1.0
 23
0.0
 33
0.0
 40
0.0
 40
0.0
 40
0.0
 40
0.0
 40
0.1665845645496674
 40
0.3376952223861086
 40
0.5044008913522774
 40
0.6769075019388242
 40
0.8353099958580904
 40
1.0
 40
1.0
 40
1.0
 40
1.0
 10
82.09794822138255
 20
107.0717344718889
 30
0.0
 10
82.25523715135706
 20
106.8899944546997
 30
0.0
 10
82.57408854272218
 20
106.5215765542353
 30
0.0
 10
83.1518078847131
 20
106.0803551848213
 30
0.0
 10
83.79784222716358
 20
105.7372373827109
 30
0.0
 10
84.48032471984783
 20
105.5321769055477
 30
0.0
 10
85.18922785046114
 20
105.4553973192906
 30
0.0
 10
85.64816555870388
 20
105.5244291692243
 30
0.0
 10
85.88209996920531
 20
105.5596167880014
 30
0.0
  0
SPLINE
  5
23D
330
1F
100
AcDbEntity
  8
0
  6
Continuous
 62
     7
370
    15
100
AcDbSpline
210
0.0
220
0.0
230
1.0
 70
     8
 71
     3
 72
    15
 73
    11
 74
     0
 42
0.00000001
 43
0.00000001
 12
1.0
 22
0.0
 32
0.0
 13
1.0
 23
0.0
 33
0.0
 40
0.0
 40
0.0
 40
0.0
 40
0.0
 40
0.1220877525599496
 40
0.2441780785522893
 40
0.3704039951845871
 40
0.496640342097377
 40
0.6208486993514726
 40
0.7450697876613301
 40
0.8725281641961457
 40
1.0
 40
1.0
 40
1.0
 40
1.0
 10
73.96688886907404
 20
123.2977984200135
 30
0.0
 10
74.14071273610234
 20
122.611515114427
 30
0.0
 10
74.48836413411347
 20
121.2389340373993
 30
0.0
 10
75.19844548786276
 20
119.1412928849456
 30
0.0
 10
76.04639141758388
 20
117.0305040232967
 30
0.0
 10
77.03366860139784
 20
114.9335373314663
 30
0.0
 10
78.13440514979156
 20
112.8891132827673
 30
0.0
 10
79.34675458429518
 20
110.8935440185718
 30
0.0
 10
80.66207996818814
 20
108.9412731163174
 30
0.0
 10
81.6193086244028
 20
107.6949359538609
 30
0.0
 10
82.09794822138255
 20
107.0717344718889
 30
0.0
  0
SPLINE
  5
23E
330
1F
100
AcDbEntity
  8
0
  6
Continuous
 62
     7
370
    15
100
AcDbSpline
210
0.0
220
0.0
230
1.0
 70
     8
 71
     3
 72
    10
 73
     6
 74
     0
 42
0.00000001
 43
0.00000001
 12
1.0
 22
0.0
 32
0.0
 13
1.0
 23
0.0
 33
0.0
 40
0.0
 40
0.0
 40
0.0
 40
0.0
 40
0.3401614919090448
 40
0.6905230892086235
 40
1.0
 40
1.0
 40
1.0
 40
1.0
 10
73.2535060214669
 20
128.961595213683
 30
0.0
 10
73.24897041176379
 20
129.3608634337414
 30
0.0
 10
73.23976318725974
 20
130.1713723575772
 30
0.0
 10
73.27178846408678
 20
131.2102550802194
 30
0.0
 10
73.31287984305727
 20
131.7799205805863
 30
0.0
 10
73.33215248760288
 20
132.0471046219483
 30
0.0
  0
ARC
  5
23F
330
1F
100
AcDbEntity
  8
0
  6
Continuous
 62
     7
370
    15
100
AcDbCircle
 10
100.6189942515
 20
129.5315865876
 30
0.0
 40
27.3714237158524
100
AcDbArc
 50
181.1932320826
 51
193.1645257504
  0
SPLINE
  5
240
330
1F
100
AcDbEntity
  8
0
  6
Continuous
 62
     7
370
    15
100
AcDbSpline
210
0.0
220
0.0
230
1.0
 70
     8
 71
     3
 72
    13
 73
     9
 74
     0
 42
0.00000001
 43
0.00000001
 12
1.0
 22
0.0
 32
0.0
 13
1.0
 23
0.0
 33
0.0
 40
0.0
 40
0.0
 40
0.0
 40
0.0
 40
0.0497704960312224
 40
0.2402950444401128
 40
0.4277588103666764
 40
0.6152418207722848
 40
0.8076107956052413
 40
1.0
 40
1.0
 40
1.0
 40
1.0
 10
74.7309049310953
 20
111.9954208570436
 30
0.0
 10
74.80894679082381
 20
111.831904401912
 30
0.0
 10
75.185737734195
 20
111.0424368059313
 30
0.0
 10
76.0105031999066
 20
109.7617203411212
 30
0.0
 10
77.19296686321239
 20
108.1679456327127
 30
0.0
 10
78.51640184895248
 20
106.7197211440601
 30
0.0
 10
79.95528878926662
 20
105.3910930611997
 30
0.0
 10
81.00750656189595
 20
104.6215689683195
 30
0.0
 10
81.53364310961669
 20
104.2367866921142
 30
0.0
  0
LINE
  5
241
330
1F
100
AcDbEntity
  8
0
  6
Continuous
 62
     7
370
    15
100
AcDbLine
 10
75.2696163672
 20
112.2090141016
 30
0.0
 11
75.1206839177
 21
112.3527330073
 31
0.0
  0
SPLINE
  5
242
330
1F
100
AcDbEntity
  8
0
  6
Continuous
 62
     7
370
    15
100
AcDbSpline
210
0.0
220
0.0
230
1.0
 70
     8
 71
     3
 72
    23
 73
    19
 74
     0
 42
0.00000001
 43
0.00000001
 12
1.0
 22
0.0
 32
0.0
 13
1.0
 23
0.0
 33
0.0
 40
0.0
 40
0.0
 40
0.0
 40
0.0
 40
0.0288114656009252
 40
0.0922485899042258
 40
0.1530257009610644
 40
0.2138145354507811
 40
0.275490588883984
 40
0.3371826437874325
 40
0.40235329608248
 40
0.4675353701036363
 40
0.5363911575277363
 40
0.6052499221786078
 40
0.6759131798565455
 40
0.7465764403565723
 40
0.8174850682944338
 40
0.8883920951897554
 40
0.9441981184140551
 40
1.0
 40
1.0
 40
1.0
 40
1.0
 10
74.21231192525929
 20
121.7221265851423
 30
0.0
 10
74.25293397572752
 20
121.5974895157761
 30
0.0
 10
74.38299771238772
 20
121.1984263768826
 30
0.0
 10
74.62373227288091
 20
120.4457232840582
 30
0.0
 10
74.92391202712881
 20
119.5037291631036
 30
0.0
 10
75.22513004039897
 20
118.543525726491
 30
0.0
 10
75.51886462347626
 20
117.5823731102239
 30
0.0
 10
75.79808586178468
 20
116.6236753404692
 30
0.0
 10
76.04617301508948
 20
115.6966087950971
 30
0.0
 10
76.25302775478212
 20
114.8063842585111
 30
0.0
 10
76.39620614242322
 20
113.9959799199843
 30
0.0
 10
76.46495798681667
 20
113.2806641387596
 30
0.0
 10
76.44322808302384
 20
112.7001516794917
 30
0.0
 10
76.33111574548272
 20
112.2686743145616
 30
0.0
 10
76.12761085650311
 20
112.009190588139
 30
0.0
 10
75.86558782073186
 20
111.9350461020868
 30
0.0
 10
75.57418443554864
 20
112.0018185528129
 30
0.0
 10
75.37113654501867
 20
112.1399506273082
 30
0.0
 10
75.26961636718815
 20
112.2090141015962
 30
0.0
  0
SPLINE
  5
243
330
1F
100
AcDbEntity
  8
0
  6
Continuous
 62
     7
370
    15
100
AcDbSpline
210
0.0
220
0.0
230
1.0
 70
     8
 71
     3
 72
    13
 73
     9
 74
     0
 42
0.00000001
 43
0.00000001
 12
1.0
 22
0.0
 32
0.0
 13
1.0
 23
0.0
 33
0.0
 40
0.0
 40
0.0
 40
0.0
 40
0.0
 40
0.0452129414201664
 40
0.2288341981448191
 40
0.4181416760458534
 40
0.6135087008556664
 40
0.8120467021764514
 40
1.0
 40
1.0
 40
1.0
 40
1.0
 10
72.69687314507073
 20
127.0155391848549
 30
0.0
 10
72.69982800093263
 20
127.0206533887035
 30
0.0
 10
72.71478327812879
 20
127.0465376753719
 30
0.0
 10
72.73660664680459
 20
126.9293578383419
 30
0.0
 10
72.7625736473856
 20
126.6662865818421
 30
0.0
 10
72.78419610691661
 20
126.2532831887448
 30
0.0
 10
72.80231172363364
 20
125.7560985713541
 30
0.0
 10
72.80732966960178
 20
125.4091062196386
 30
0.0
 10
72.80976993021076
 20
125.2403615235254
 30
0.0
  0
SPLINE
  5
244
330
1F
100
AcDbEntity
  8
0
  6
Continuous
 62
     7
370
    15
100
AcDbSpline
210
0.0
220
0.0
230
1.0
 70
     8
 71
     3
 72
    13
 73
     9
 74
     0
 42
0.00000001
 43
0.00000001
 12
1.0
 22
0.0
 32
0.0
 13
1.0
 23
0.0
 33
0.0
 40
0.0
 40
0.0
 40
0.0
 40
0.0
 40
0.1665845832344627
 40
0.3376952595430305
 40
0.5044008536719738
 40
0.6769075308291432
 40
0.8353099751265851
 40
1.0
 40
1.0
 40
1.0
 40
1.0
 10
81.53364310961669
 20
104.2367866921142
 30
0.0
 10
81.7056409410676
 20
104.1289411998937
 30
0.0
 10
82.05430977467087
 20
103.9103200599369
 30
0.0
 10
82.67222041162317
 20
103.6710127906455
 30
0.0
 10
83.35328692538052
 20
103.5038859520144
 30
0.0
 10
84.06186214830937
 20
103.4299139925021
 30
0.0
 10
84.78795017472336
 20
103.4394608348298
 30
0.0
 10
85.24905764728236
 20
103.5193962314889
 30
0.0
 10
85.48409810279017
 20
103.5601417261079
 30
0.0
  0
LINE
  5
245
330
1F
100
AcDbEntity
  8
0
  6
Continuous
 62
     7
370
    15
100
AcDbLine
 10
85.8820999692
 20
105.559616788
 30
0.0
 11
85.4840981028
 21
103.5601417261
 31
0.0
  0
ARC
  5
246
330
1F
100
AcDbEntity
  8
0
  6
Continuous
 62
     7
370
    15
100
AcDbCircle
 10
81.5965672751
 20
129.5026986872
 30
0.0
 40
2.533940289871064
100
AcDbArc
 50
163.5964637488
 51
196.196679505
  0
LINE
  5
247
330
1F
100
AcDbEntity
  8
0
  6
Continuous
 62
     7
370
    15
100
AcDbLine
 10
80.3516378346
 20
124.6549186198
 30
0.0
 11
79.1631994489
 21
128.7958929042
 31
0.0
  0
SPLINE
  5
248
330
1F
100
AcDbEntity
  8
0
  6
Continuous
 62
     7
370
    15
100
AcDbSpline
210
0.0
220
0.0
230
1.0
 70
     8
 71
     3
 72
    12
 73
     8
 74
     0
 42
0.00000001
 43
0.00000001
 12
1.0
 22
0.0
 32
0.0
 13
1.0
 23
0.0
 33
0.0
 40
0.0
 40
0.0
 40
0.0
 40
0.0
 40
0.2041496488143274
 40
0.4150449667961148
 40
0.6835541054024988
 40
0.9596499606465945
 40
1.0
 40
1.0
 40
1.0
 40
1.0
 10
73.33215248760288
 20
132.0471046219483
 30
0.0
 10
73.3710203801914
 20
132.290007607798
 30
0.0
 10
73.45004046806584
 20
132.7838397661297
 30
0.0
 10
73.79471677716873
 20
133.3934383901004
 30
0.0
 10
74.33009799660769
 20
133.8602291746438
 30
0.0
 10
74.82067913742347
 20
134.1221265770827
 30
0.0
 10
75.14399979397716
 20
134.1472754824409
 30
0.0
 10
75.18522643473452
 20
134.1504822212175
 30
0.0
  0
LINE
  5
249
330
1F
100
AcDbEntity
  8
0
  6
Continuous
 62
     7
370
    15
100
AcDbLine
 10
72.3190467524
 20
126.950215521
 30
0.0
 11
72.3987027722
 21
127.3330226268
 31
0.0
  0
LWPOLYLINE
  5
24A
330
1F
100
AcDbEntity
  8
0
  6
Continuous
 62
     7
370
    15
100
AcDbPolyline
 90
       10
 70
   128
 43
0.0
 10
79.7766579035
 20
131.2451241265
 10
79.5365228969
 20
131.9667449879
 10
79.2949098813
 20
132.6226484689
 10
79.055298278
 20
133.2033895614
 10
78.8211367744
 20
133.7006059202
 10
78.5957995522
 20
134.1071384686
 10
78.3825294766
 20
134.4171319815
 10
78.1843989807
 20
134.6261235612
 10
78.0042597744
 20
134.7311031732
 10
77.8745321276
 20
134.7390631872
  0
SPLINE
  5
24B
330
1F
100
AcDbEntity
  8
0
  6
Continuous
 62
     7
370
    15
100
AcDbSpline
210
0.0
220
0.0
230
1.0
 70
     8
 71
     3
 72
    10
 73
     6
 74
     0
 42
0.00000001
 43
0.00000001
 12
1.0
 22
0.0
 32
0.0
 13
1.0
 23
0.0
 33
0.0
 40
0.0
 40
0.0
 40
0.0
 40
0.0
 40
0.1480676326264769
 40
0.9078076180516007
 40
1.0
 40
1.0
 40
1.0
 40
1.0
 10
79.77665790345972
 20
131.2451241264955
 30
0.0
 10
79.73561548516065
 20
131.2020131203019
 30
0.0
 10
79.48398304305125
 20
130.9376980964835
 30
0.0
 10
79.27967612455566
 20
130.5829409380611
 30
0.0
 10
79.176890152041
 20
130.2538932097083
 30
0.0
 10
79.16576710518902
 20
130.2182851086274
 30
0.0
  0
LINE
  5
24C
330
1F
100
AcDbEntity
  8
0
  6
Continuous
 62
     7
370
    15
100
AcDbLine
 10
79.3010407778
 20
128.855724326
 30
0.0
 11
79.7766579035
 21
131.2451241265
 31
0.0
  0
SPLINE
  5
24D
330
1F
100
AcDbEntity
  8
0
  6
Continuous
 62
     7
370
    15
100
AcDbSpline
210
0.0
220
0.0
230
1.0
 70
     8
 71
     3
 72
    12
 73
     8
 74
     0
 42
0.00000001
 43
0.00000001
 12
1.0
 22
0.0
 32
0.0
 13
1.0
 23
0.0
 33
0.0
 40
0.0
 40
0.0
 40
0.0
 40
0.0
 40
0.025291117776753
 40
0.1809473215971039
 40
0.4350290622685197
 40
0.8930450638749806
 40
1.0
 40
1.0
 40
1.0
 40
1.0
 10
79.40594308998888
 20
128.7753660890177
 30
0.0
 10
79.4026361375906
 20
128.7731300443163
 30
0.0
 10
79.37897628260119
 20
128.7571320839546
 30
0.0
 10
79.34185766035431
 20
128.7451233788621
 30
0.0
 10
79.29721189960556
 20
128.7527952292053
 30
0.0
 10
79.2915477258261
 20
128.8013513369889
 30
0.0
 10
79.29952970523912
 20
128.8470694136548
 30
0.0
 10
79.30104077782934
 20
128.8557243260458
 30
0.0
  0
SPLINE
  5
24E
330
1F
100
AcDbEntity
  8
0
  6
Continuous
 62
     7
370
    15
100
AcDbSpline
210
0.0
220
0.0
230
1.0
 70
     8
 71
     3
 72
    10
 73
     6
 74
     0
 42
0.00000001
 43
0.00000001
 12
1.0
 22
0.0
 32
0.0
 13
1.0
 23
0.0
 33
0.0
 40
0.0
 40
0.0
 40
0.0
 40
0.0
 40
0.1169381708202187
 40
0.7028091243371045
 40
1.0
 40
1.0
 40
1.0
 40
1.0
 10
79.36918751325909
 20
128.1540658983305
 30
0.0
 10
79.37563815020617
 20
128.1590947468194
 30
0.0
 10
79.41440706947677
 20
128.1893185871456
 30
0.0
 10
79.4646418006531
 20
128.2141552440315
 30
0.0
 10
79.5046554081669
 20
128.2296057177216
 30
0.0
 10
79.51812182542389
 20
128.234805511953
 30
0.0
  0
LINE
  5
24F
330
1F
100
AcDbEntity
  8
0
  6
Continuous
 62
     7
370
    15
100
AcDbLine
 10
84.1076324413
 20
112.2014648008
 30
0.0
 11
83.0944973695
 21
114.015380359
 31
0.0
  0
LINE
  5
250
330
1F
100
AcDbEntity
  8
0
  6
Continuous
 62
     7
370
    15
100
AcDbLine
 10
88.7016792385
 20
97.8631800699
 30
0.0
 11
84.8636083956
 21
110.5961710873
 31
0.0
  0
LWPOLYLINE
  5
251
330
1F
100
AcDbEntity
  8
0
  6
Continuous
 62
     7
370
    15
100
AcDbPolyline
 90
        9
 70
   128
 43
0.0
 10
88.7157505913
 20
97.3323485541
 10
88.7448990961
 20
97.293951987
 10
88.7672595618
 20
97.29392591
 10
88.7806129303
 20
97.332270323
 10
88.7836340243
 20
97.4051798421
 10
88.7760230234
 20
97.5054218161
 10
88.7585352447
 20
97.623044132
 10
88.7329061715
 20
97.7463773179
 10
88.7016792385
 20
97.8631800699
  0
LINE
  5
252
330
1F
100
AcDbEntity
  8
0
  6
Continuous
 62
     7
370
    15
100
AcDbLine
 10
85.2558642345
 20
103.5269251752
 30
0.0
 11
88.7157505913
 21
97.3323485541
 31
0.0
  0
LWPOLYLINE
  5
253
330
1F
100
AcDbEntity
  8
0
  6
Continuous
 62
     7
370
    15
100
AcDbPolyline
 90
        9
 70
   128
 43
0.0
 10
88.7137879963
 20
97.349760561
 10
88.7414790759
 20
97.313284381
 10
88.7627215179
 20
97.313258304
 10
88.7754072191
 20
97.3496860552
 10
88.778277257
 20
97.4189503777
 10
88.7710468068
 20
97.5141781109
 10
88.7544334164
 20
97.6259200561
 10
88.7300857994
 20
97.7430878865
 10
88.7004202068
 20
97.8540493834
  0
LINE
  5
254
330
1F
100
AcDbEntity
  8
0
  6
Continuous
 62
     7
370
    15
100
AcDbLine
 10
88.7004202068
 20
97.8540493834
 30
0.0
 11
84.8733928705
 21
110.550403102
 31
0.0
  0
LINE
  5
255
330
1F
100
AcDbEntity
  8
0
  6
Continuous
 62
     7
370
    15
100
AcDbLine
 10
84.0923112537
 20
112.2149987805
 30
0.0
 11
83.09996563
 21
113.9916931006
 31
0.0
  0
LINE
  5
256
330
1F
100
AcDbEntity
  8
0
  6
Continuous
 62
     7
370
    15
100
AcDbLine
 10
85.2630428689
 20
103.5279701191
 30
0.0
 11
88.7137879963
 21
97.349760561
 31
0.0
  0
LINE
  5
257
330
1F
100
AcDbEntity
  8
0
  6
Continuous
 62
     7
370
    15
100
AcDbLine
 10
93.2869270163
 20
98.8378035563
 30
0.0
 11
89.3168920429
 21
112.0085916209
 31
0.0
  0
ARC
  5
258
330
1F
100
AcDbEntity
  8
0
  6
Continuous
 62
     7
370
    15
100
AcDbCircle
 10
92.3792586569
 20
98.4562310557
 30
0.0
 40
0.9846113060653832
100
AcDbArc
 50
348.7381427521
 51
22.8012797056
  0
LINE
  5
259
330
1F
100
AcDbEntity
  8
0
  6
Continuous
 62
     7
370
    15
100
AcDbLine
 10
86.4058189745
 20
104.1358033853
 30
0.0
 11
85.7149161584
 21
106.4279074508
 31
0.0
  0
LWPOLYLINE
  5
25A
330
1F
100
AcDbEntity
  8
0
  6
Continuous
 62
     7
370
    15
100
AcDbPolyline
 90
        9
 70
   128
 43
0.0
 10
86.4409973564
 20
102.8087245959
 10
86.5138686913
 20
102.7127369034
 10
86.5697699318
 20
102.7126679855
 10
86.6031531895
 20
102.8085290181
 10
86.6107059828
 20
102.9908056098
 10
86.5916783641
 20
103.2414077508
 10
86.5479590556
 20
103.5354654032
 10
86.4838863908
 20
103.8437965053
 10
86.4058189745
 20
104.1358033853
  0
LINE
  5
25B
330
1F
100
AcDbEntity
  8
0
  6
Continuous
 62
     7
370
    15
100
AcDbLine
 10
85.6252470239
 20
104.2692432838
 30
0.0
 11
86.4409973564
 21
102.8087245959
 31
0.0
  0
ARC
  5
25C
330
1F
100
AcDbEntity
  8
0
  6
Continuous
 62
     7
370
    15
100
AcDbCircle
 10
87.9480282253
 20
111.5983430729
 30
0.0
 40
1.429017852334071
100
AcDbArc
 50
16.6834758266
 51
19.5612548498
  0
ARC
  5
25D
330
1F
100
AcDbEntity
  8
0
  6
Continuous
 62
     7
370
    15
100
AcDbCircle
 10
94.8438337215
 20
99.2251364009
 30
0.0
 40
1.23076503427787
100
AcDbArc
 50
348.7381106143
 51
22.8012895223
  0
LINE
  5
25E
330
1F
100
AcDbEntity
  8
0
  6
Continuous
 62
     7
370
    15
100
AcDbLine
 10
93.2041519972
 20
99.1124133306
 30
0.0
 11
89.2962264024
 21
112.0771509322
 31
0.0
  0
LINE
  5
25F
330
1F
100
AcDbEntity
  8
0
  6
Continuous
 62
     7
370
    15
100
AcDbLine
 10
95.9784199203
 20
99.7021025705
 30
0.0
 11
92.0704940053
 21
112.6668401721
 31
0.0
  0
ARC
  5
260
330
1F
100
AcDbEntity
  8
0
  6
Continuous
 62
     7
370
    15
100
AcDbCircle
 10
95.704331988
 20
99.4170847083
 30
0.0
 40
0.5831191699318348
100
AcDbArc
 50
352.7984479654
 51
21.0547500688
  0
LINE
  5
261
330
1F
100
AcDbEntity
  8
0
  6
Continuous
 62
     7
370
    15
100
AcDbLine
 10
92.1161660644
 20
112.6765482786
 30
0.0
 11
92.3530314303
 21
112.5500551152
 31
0.0
  0
LINE
  5
262
330
1F
100
AcDbEntity
  8
0
  6
Continuous
 62
     7
370
    15
100
AcDbLine
 10
93.0086431744
 20
110.3750304046
 30
0.0
 11
96.2485206964
 21
99.626576035
 31
0.0
  0
LINE
  5
263
330
1F
100
AcDbEntity
  8
0
  6
Continuous
 62
     7
370
    15
100
AcDbLine
 10
92.2647418174
 20
112.7081284958
 30
0.0
 11
92.3530314303
 21
112.5500551152
 31
0.0
  0
LINE
  5
264
330
1F
100
AcDbEntity
  8
0
  6
Continuous
 62
     7
370
    15
100
AcDbLine
 10
96.213353956
 20
99.7432428139
 30
0.0
 11
100.2756535726
 21
100.6067110884
 31
0.0
  0
LINE
  5
265
330
1F
100
AcDbEntity
  8
0
  6
Continuous
 62
     7
370
    15
100
AcDbLine
 10
109.3307316023
 20
111.7011853221
 30
0.0
 11
109.3307316023
 21
109.5317010495
 31
0.0
  0
ARC
  5
266
330
1F
100
AcDbEntity
  8
0
  6
Continuous
 62
     7
370
    15
100
AcDbCircle
 10
87.830731036
 20
122.289052068
 30
0.0
 40
25.00000000000001
100
AcDbArc
 50
299.8543513594
 51
329.316582891
  0
LINE
  5
267
330
1F
100
AcDbEntity
  8
0
  6
Continuous
 62
     7
370
    15
100
AcDbLine
 10
99.6620777714
 20
100.2658991801
 30
0.0
 11
96.2694158497
 21
99.5447667974
 31
0.0
  0
ARC
  5
268
330
1F
100
AcDbEntity
  8
0
  6
Continuous
 62
     7
370
    15
100
AcDbCircle
 10
87.830731036
 20
122.289052068
 30
0.0
 40
25.00000000000001
100
AcDbArc
 50
298.245720351
 51
299.8543513594
  0
ARC
  5
269
330
1F
100
AcDbEntity
  8
0
  6
Continuous
 62
     7
370
    15
100
AcDbCircle
 10
217.3040045591
 20
145.4058252592
 30
0.0
 40
129.1374982330097
100
AcDbArc
 50
194.6568447776
 51
195.7396991313
  0
ARC
  5
26A
330
1F
100
AcDbEntity
  8
0
  6
Continuous
 62
     7
370
    15
100
AcDbCircle
 10
85.1733691087
 20
101.4826457941
 30
0.0
 40
1.0488788513902
100
AcDbArc
 50
57.1529855777
 51
99.195339938
  0
LINE
  5
26B
330
1F
100
AcDbEntity
  8
0
  6
Continuous
 62
     7
370
    15
100
AcDbLine
 10
85.7422786484
 20
102.363831802
 30
0.0
 11
85.8881714939
 21
102.3948429811
 31
0.0
  0
LINE
  5
26C
330
1F
100
AcDbEntity
  8
0
  6
Continuous
 62
     7
370
    15
100
AcDbLine
 10
109.3307316023
 20
123.2224321884
 30
0.0
 11
109.3307316023
 21
111.7011853221
 31
0.0
  0
LINE
  5
26D
330
1F
100
AcDbEntity
  8
0
  6
Continuous
 62
     7
370
    15
100
AcDbLine
 10
85.0093049648
 20
111.165938406
 30
0.0
 11
92.3688201419
 21
112.7302511322
 31
0.0
  0
ARC
  5
26E
330
1F
100
AcDbEntity
  8
0
  6
Continuous
 62
     7
370
    15
100
AcDbCircle
 10
225.5991705238
 20
147.8906259921
 30
0.0
 40
145.3073053091256
100
AcDbArc
 50
191.9824796604
 51
194.6395962862
  0
SPLINE
  5
26F
330
1F
100
AcDbEntity
  8
0
  6
Continuous
 62
     7
370
    15
100
AcDbSpline
210
0.0
220
0.0
230
1.0
 70
     8
 71
     3
 72
    16
 73
    12
 74
     0
 42
0.00000001
 43
0.00000001
 12
1.0
 22
0.0
 32
0.0
 13
1.0
 23
0.0
 33
0.0
 40
0.0
 40
0.0
 40
0.0
 40
0.0
 40
0.2500000000000013
 40
0.2500000000000013
 40
0.3750000000000014
 40
0.3750000000000014
 40
0.4999999999999999
 40
0.4999999999999999
 40
0.75
 40
0.75
 40
1.0
 40
1.0
 40
1.0
 40
1.0
 10
103.3686819625347
 20
121.9551595121552
 30
0.0
 10
103.6099050501651
 20
121.8675821358271
 30
0.0
 10
103.8572333420975
 20
121.8152427143863
 30
0.0
 10
104.2367086167486
 20
121.7872386349645
 30
0.0
 10
104.365336804369
 20
121.7866155374783
 30
0.0
 10
104.6180545264384
 20
121.8029129710921
 30
0.0
 10
104.7429449244028
 20
121.8196839894682
 30
0.0
 10
105.1131865741255
 20
121.8959162252197
 30
0.0
 10
105.3566802723785
 20
121.9830408400754
 30
0.0
 10
105.8011905810455
 20
122.2201393187997
 30
0.0
 10
106.0078881900212
 20
122.3722358857267
 30
0.0
 10
106.1888694995914
 20
122.5546088782966
 30
0.0
  0
SPLINE
  5
270
330
1F
100
AcDbEntity
  8
0
  6
Continuous
 62
     7
370
    15
100
AcDbSpline
210
0.0
220
0.0
230
1.0
 70
     8
 71
     3
 72
    10
 73
     6
 74
     0
 42
0.00000001
 43
0.00000001
 12
1.0
 22
0.0
 32
0.0
 13
1.0
 23
0.0
 33
0.0
 40
0.0
 40
0.0
 40
0.0
 40
0.0
 40
0.5
 40
0.5
 40
1.0
 40
1.0
 40
1.0
 40
1.0
 10
75.28340784231018
 20
139.6747608356767
 30
0.0
 10
75.29974761497759
 20
139.5448664701634
 30
0.0
 10
75.31031442256182
 20
139.4253115478147
 30
0.0
 10
75.3180700851038
 20
139.2178796241148
 30
0.0
 10
75.31515667993646
 20
139.1312410237585
 30
0.0
 10
75.30413473227804
 20
139.0711234947494
 30
0.0
  0
ARC
  5
271
330
1F
100
AcDbEntity
  8
0
  6
Continuous
 62
     7
370
    15
100
AcDbCircle
 10
88.830731036
 20
124.289052068
 30
0.0
 40
20.50000000000001
100
AcDbArc
 50
126.1012913634
 51
131.364351757
  0
LINE
  5
272
330
1F
100
AcDbEntity
  8
0
  6
Continuous
 62
     7
370
    15
100
AcDbLine
 10
76.7518320772
 20
140.8525719034
 30
0.0
 11
81.4577710534
 21
127.1330886247
 31
0.0
  0
LINE
  5
273
330
1F
100
AcDbEntity
  8
0
  6
Continuous
 62
     7
370
    15
100
AcDbLine
 10
81.4577710534
 20
127.1330886247
 30
0.0
 11
83.4579469356
 21
117.7230020712
 31
0.0
  0
LINE
  5
274
330
1F
100
AcDbEntity
  8
0
  6
Continuous
 62
     7
370
    15
100
AcDbLine
 10
85.7422786484
 20
102.363831802
 30
0.0
 11
85.5509312077
 21
102.9986380326
 31
0.0
  0
LINE
  5
275
330
1F
100
AcDbEntity
  8
0
  6
Continuous
 62
     7
370
    15
100
AcDbLine
 10
83.3717241603
 20
102.1707220661
 30
0.0
 11
85.0057573243
 21
102.5180457818
 31
0.0
  0
LINE
  5
276
330
1F
100
AcDbEntity
  8
0
  6
Continuous
 62
     7
370
    15
100
AcDbLine
 10
83.0048231128
 20
103.6047204125
 30
0.0
 11
83.3717241603
 21
102.1707220661
 31
0.0
  0
ARC
  5
277
330
1F
100
AcDbEntity
  8
0
  6
Continuous
 62
     7
370
    15
100
AcDbCircle
 10
71.1003893095
 20
127.4575774196
 30
0.0
 40
8.420254355101141
100
AcDbArc
 50
0.6443933377
 51
11.4086199692
  0
LINE
  5
278
330
1F
100
AcDbEntity
  8
0
  6
Continuous
 62
     7
370
    15
100
AcDbLine
 10
82.8626353013
 20
115.0093334454
 30
0.0
 11
85.0093049648
 21
111.165938406
 31
0.0
  0
LINE
  5
279
330
1F
100
AcDbEntity
  8
0
  6
Continuous
 62
     7
370
    15
100
AcDbLine
 10
81.4577710534
 20
127.1330886247
 30
0.0
 11
107.5364604312
 21
132.6762851986
 31
0.0
  0
ARC
  5
27A
330
1F
100
AcDbEntity
  8
0
  6
Continuous
 62
     7
370
    15
100
AcDbCircle
 10
88.830731036
 20
124.289052068
 30
0.0
 40
20.50000000000001
100
AcDbArc
 50
0.0
 51
24.1504033451
  0
LINE
  5
27B
330
1F
100
AcDbEntity
  8
0
  6
Continuous
 62
     7
370
    15
100
AcDbLine
 10
109.3307316023
 20
124.289052068
 30
0.0
 11
109.3307316023
 21
123.2224321884
 31
0.0
  0
ELLIPSE
  5
27C
330
1F
100
AcDbEntity
  8
0
  6
Continuous
 62
     7
370
    15
100
AcDbEllipse
 10
104.2647496844
 20
124.289052068
 30
0.0
 11
2.588061012854908
 21
-0.4672453265140462
 31
0.0
210
0.0
220
0.0
230
1.0
 40
0.9489529951
 41
5.704468264120782
 42
10.8169935279857
  0
ARC
  5
27D
330
1F
100
AcDbEntity
  8
0
  6
Continuous
 62
     7
370
    15
100
AcDbCircle
 10
88.830731036
 20
124.289052068
 30
0.0
 40
20.50000000000001
100
AcDbArc
 50
24.1504033451
 51
126.1012913634
  0
LWPOLYLINE
  5
27E
330
1F
100
AcDbEntity
  8
0
  6
Continuous
 62
     7
370
    15
100
AcDbPolyline
 90
        3
 70
   128
 43
0.0
 10
79.3690645787
 20
128.1475659653
 10
79.4282650295
 20
128.0037353008
 10
79.5150316971
 20
127.8232896893
  0
SPLINE
  5
27F
330
1F
100
AcDbEntity
  8
0
  6
Continuous
 62
     7
370
    15
100
AcDbSpline
210
0.0
220
0.0
230
1.0
 70
     8
 71
     3
 72
     8
 73
     4
 74
     0
 42
0.00000001
 43
0.00000001
 12
1.0
 22
0.0
 32
0.0
 13
1.0
 23
0.0
 33
0.0
 40
0.0
 40
0.0
 40
0.0
 40
0.0
 40
1.0
 40
1.0
 40
1.0
 40
1.0
 10
75.30413473227806
 20
139.0711234947495
 30
0.0
 10
75.29631595413585
 20
139.0284771643236
 30
0.0
 10
75.27074801762558
 20
138.9904228400575
 30
0.0
 10
75.22773942142975
 20
138.9505192228254
 30
0.0
  0
SPLINE
  5
280
330
1F
100
AcDbEntity
  8
0
  6
Continuous
 62
     7
370
    15
100
AcDbSpline
210
0.0
220
0.0
230
1.0
 70
     8
 71
     3
 72
     8
 73
     4
 74
     0
 42
0.00000001
 43
0.00000001
 12
1.0
 22
0.0
 32
0.0
 13
1.0
 23
0.0
 33
0.0
 40
0.0
 40
0.0
 40
0.0
 40
0.0
 40
1.0
 40
1.0
 40
1.0
 40
1.0
 10
75.22773942142975
 20
138.9505192228254
 30
0.0
 10
75.13125256435917
 20
138.8609981746392
 30
0.0
 10
74.97965440032291
 20
138.7181339605597
 30
0.0
 10
74.81893879294283
 20
138.5603406620792
 30
0.0
  0
ARC
  5
281
330
1F
100
AcDbEntity
  8
0
  6
Continuous
 62
     7
370
    15
100
AcDbCircle
 10
88.830731036
 20
124.289052068
 30
0.0
 40
20.00000000000001
100
AcDbArc
 50
134.4743278279
 51
174.4343040968
  0
ARC
  5
282
330
1F
100
AcDbEntity
  8
0
  6
Continuous
 62
     7
370
    15
100
AcDbCircle
 10
88.830731036
 20
124.289052068
 30
0.0
 40
19.99999999999999
100
AcDbArc
 50
219.2525981776
 51
235.4978880391
  0
CIRCLE
  5
283
330
1F
100
AcDbEntity
  8
VERMASSUNG
  6
CENTERX2
100
AcDbCircle
 10
88.830731036
 20
124.7890476866
 30
0.0
 40
27.5
  0
DIMENSION
  5
284
330
1F
100
AcDbEntity
  8
VERMASSUNG
100
AcDbDimension
  2
_D_5
 10
102.580731036
 20
100.9733490825
 30
0.0
 11
107.5833161524
 21
92.3086174917
 31
0.0
 70
   160
  1
%%c<> min. 
 71
     2
 42
-1.0
  3
SLDDIMSTYLE3
100
AcDbAlignedDimension
 13
75.080731036
 23
148.6047462907
 33
0.0
 14
102.580731036
 24
100.9733490825
 34
0.0
 50
-60.0
100
AcDbRotatedDimension
  0
INSERT
  5
29E
330
1F
100
AcDbEntity
  8
VERMASSUNG
100
AcDbBlockReference
  2
SW_CENTERMARKSYMBOL_0
 10
88.830731036
 20
124.289052068
 30
0.0
  0
OLE2FRAME
  5
29F
330
1F
100
AcDbEntity
  8
0
100
AcDbOle2Frame
 70
     2
  3
Paintbrush-Bild
 10
13.8511154363
 20
38.264191557
 30
0.0
 11
51.6290888628
 21
31.9806341108
 31
0.0
 71
     2
 72
     0
 73
     1
 90
    12928
310
80552BED0767C5B32B40DDAF6807D121434000000000000000006FFBDDFB85D0
310
4940DDAF6807D121434000000000000000006FFBDDFB85D04940416F4BD60AFB
310
3F4000000000000000002BED0767C5B32B40416F4BD60AFB3F40000000000000
310
0000000000000100000000010000010000000100000000000100000000320000
310
D0CF11E0A1B11AE1000000000000000000000000000000003E000300FEFF0900
310
0600000000000000000000000100000001000000000000000010000002000000
310
01000000FEFFFFFF0000000000000000FFFFFFFFFFFFFFFFFFFFFFFFFFFFFFFF
310
FFFFFFFFFFFFFFFFFFFFFFFFFFFFFFFFFFFFFFFFFFFFFFFFFFFFFFFFFFFFFFFF
310
FFFFFFFFFFFFFFFFFFFFFFFFFFFFFFFFFFFFFFFFFFFFFFFFFFFFFFFFFFFFFFFF
310
FFFFFFFFFFFFFFFFFFFFFFFFFFFFFFFFFFFFFFFFFFFFFFFFFFFFFFFFFFFFFFFF
310
FFFFFFFFFFFFFFFFFFFFFFFFFFFFFFFFFFFFFFFFFFFFFFFFFFFFFFFFFFFFFFFF
310
FFFFFFFFFFFFFFFFFFFFFFFFFFFFFFFFFFFFFFFFFFFFFFFFFFFFFFFFFFFFFFFF
310
FFFFFFFFFFFFFFFFFFFFFFFFFFFFFFFFFFFFFFFFFFFFFFFFFFFFFFFFFFFFFFFF
310
FFFFFFFFFFFFFFFFFFFFFFFFFFFFFFFFFFFFFFFFFFFFFFFFFFFFFFFFFFFFFFFF
310
FFFFFFFFFFFFFFFFFFFFFFFFFFFFFFFFFFFFFFFFFFFFFFFFFFFFFFFFFFFFFFFF
310
FFFFFFFFFFFFFFFFFFFFFFFFFFFFFFFFFFFFFFFFFFFFFFFFFFFFFFFFFFFFFFFF
310
FFFFFFFFFFFFFFFFFFFFFFFFFFFFFFFFFFFFFFFFFFFFFFFFFFFFFFFFFFFFFFFF
310
FFFFFFFFFFFFFFFFFFFFFFFFFFFFFFFFFFFFFFFFFFFFFFFFFFFFFFFFFFFFFFFF
310
FFFFFFFFFFFFFFFFFFFFFFFFFFFFFFFFFFFFFFFFFFFFFFFFFFFFFFFFFFFFFFFF
310
FFFFFFFFFFFFFFFFFFFFFFFFFFFFFFFFFFFFFFFFFFFFFFFFFFFFFFFFFFFFFFFF
310
FDFFFFFFFEFFFFFFFEFFFFFFFEFFFFFF05000000060000000700000008000000
310
090000000A0000000B0000000C0000000D0000000E0000000F00000010000000
310
11000000120000001300000014000000150000001600000017000000FEFFFFFF
310
FFFFFFFFFFFFFFFFFFFFFFFFFFFFFFFFFFFFFFFFFFFFFFFFFFFFFFFFFFFFFFFF
310
FFFFFFFFFFFFFFFFFFFFFFFFFFFFFFFFFFFFFFFFFFFFFFFFFFFFFFFFFFFFFFFF
310
FFFFFFFFFFFFFFFFFFFFFFFFFFFFFFFFFFFFFFFFFFFFFFFFFFFFFFFFFFFFFFFF
310
FFFFFFFFFFFFFFFFFFFFFFFFFFFFFFFFFFFFFFFFFFFFFFFFFFFFFFFFFFFFFFFF
310
FFFFFFFFFFFFFFFFFFFFFFFFFFFFFFFFFFFFFFFFFFFFFFFFFFFFFFFFFFFFFFFF
310
FFFFFFFFFFFFFFFFFFFFFFFFFFFFFFFFFFFFFFFFFFFFFFFFFFFFFFFFFFFFFFFF
310
FFFFFFFFFFFFFFFFFFFFFFFFFFFFFFFFFFFFFFFFFFFFFFFFFFFFFFFFFFFFFFFF
310
FFFFFFFFFFFFFFFFFFFFFFFFFFFFFFFFFFFFFFFFFFFFFFFFFFFFFFFFFFFFFFFF
310
FFFFFFFFFFFFFFFFFFFFFFFFFFFFFFFFFFFFFFFFFFFFFFFFFFFFFFFFFFFFFFFF
310
FFFFFFFFFFFFFFFFFFFFFFFFFFFFFFFFFFFFFFFFFFFFFFFFFFFFFFFFFFFFFFFF
310
FFFFFFFFFFFFFFFFFFFFFFFFFFFFFFFFFFFFFFFFFFFFFFFFFFFFFFFFFFFFFFFF
310
FFFFFFFFFFFFFFFFFFFFFFFFFFFFFFFFFFFFFFFFFFFFFFFFFFFFFFFFFFFFFFFF
310
FFFFFFFFFFFFFFFFFFFFFFFFFFFFFFFFFFFFFFFFFFFFFFFFFFFFFFFFFFFFFFFF
310
52006F006F007400200045006E00740072007900000000000000000000000000
310
0000000000000000000000000000000000000000000000000000000000000000
310
16000500FFFFFFFFFFFFFFFF020000000A00030000000000C000000000000046
310
000000000000000000000000B0EEE815A039CD0103000000C000000000000000
310
01004F006C006500000000000000000000000000000000000000000000000000
310
0000000000000000000000000000000000000000000000000000000000000000
310
0A000200FFFFFFFFFFFFFFFFFFFFFFFF00000000000000000000000000000000
310
0000000000000000000000000000000000000000000000001400000000000000
310
010043006F006D0070004F0062006A0000000000000000000000000000000000
310
0000000000000000000000000000000000000000000000000000000000000000
310
120002010100000003000000FFFFFFFF00000000000000000000000000000000
310
0000000000000000000000000000000000000000010000004D00000000000000
310
01004F006C006500310030004E00610074006900760065000000000000000000
310
0000000000000000000000000000000000000000000000000000000000000000
310
1A000200FFFFFFFFFFFFFFFFFFFFFFFF00000000000000000000000000000000
310
0000000000000000000000000000000000000000040000002426000000000000
310
FEFFFFFF02000000FEFFFFFFFFFFFFFFFFFFFFFFFFFFFFFFFFFFFFFFFFFFFFFF
310
FFFFFFFFFFFFFFFFFFFFFFFFFFFFFFFFFFFFFFFFFFFFFFFFFFFFFFFFFFFFFFFF
310
FFFFFFFFFFFFFFFFFFFFFFFFFFFFFFFFFFFFFFFFFFFFFFFFFFFFFFFFFFFFFFFF
310
FFFFFFFFFFFFFFFFFFFFFFFFFFFFFFFFFFFFFFFFFFFFFFFFFFFFFFFFFFFFFFFF
310
FFFFFFFFFFFFFFFFFFFFFFFFFFFFFFFFFFFFFFFFFFFFFFFFFFFFFFFFFFFFFFFF
310
FFFFFFFFFFFFFFFFFFFFFFFFFFFFFFFFFFFFFFFFFFFFFFFFFFFFFFFFFFFFFFFF
310
FFFFFFFFFFFFFFFFFFFFFFFFFFFFFFFFFFFFFFFFFFFFFFFFFFFFFFFFFFFFFFFF
310
FFFFFFFFFFFFFFFFFFFFFFFFFFFFFFFFFFFFFFFFFFFFFFFFFFFFFFFFFFFFFFFF
310
FFFFFFFFFFFFFFFFFFFFFFFFFFFFFFFFFFFFFFFFFFFFFFFFFFFFFFFFFFFFFFFF
310
FFFFFFFFFFFFFFFFFFFFFFFFFFFFFFFFFFFFFFFFFFFFFFFFFFFFFFFFFFFFFFFF
310
FFFFFFFFFFFFFFFFFFFFFFFFFFFFFFFFFFFFFFFFFFFFFFFFFFFFFFFFFFFFFFFF
310
FFFFFFFFFFFFFFFFFFFFFFFFFFFFFFFFFFFFFFFFFFFFFFFFFFFFFFFFFFFFFFFF
310
FFFFFFFFFFFFFFFFFFFFFFFFFFFFFFFFFFFFFFFFFFFFFFFFFFFFFFFFFFFFFFFF
310
FFFFFFFFFFFFFFFFFFFFFFFFFFFFFFFFFFFFFFFFFFFFFFFFFFFFFFFFFFFFFFFF
310
FFFFFFFFFFFFFFFFFFFFFFFFFFFFFFFFFFFFFFFFFFFFFFFFFFFFFFFFFFFFFFFF
310
FFFFFFFFFFFFFFFFFFFFFFFFFFFFFFFFFFFFFFFFFFFFFFFFFFFFFFFFFFFFFFFF
310
0100000200000000000000000000000000000000000000000000000000000000
310
0000000000000000000000000000000000000000000000000000000000000000
310
0100FEFF030A0000FFFFFFFF0A00030000000000C00000000000004607000000
310
5042727573680007000000504272757368000700000050427275736800F439B2
310
7100000000000000000000000000000000000000000000000000000000000000
310
0000000000000000000000000000000000000000000000000000000000000000
310
0000000000000000000000000000000000000000000000000000000000000000
310
0000000000000000000000000000000000000000000000000000000000000000
310
0000000000000000000000000000000000000000000000000000000000000000
310
0000000000000000000000000000000000000000000000000000000000000000
310
0000000000000000000000000000000000000000000000000000000000000000
310
0000000000000000000000000000000000000000000000000000000000000000
310
0000000000000000000000000000000000000000000000000000000000000000
310
0000000000000000000000000000000000000000000000000000000000000000
310
0000000000000000000000000000000000000000000000000000000000000000
310
0000000000000000000000000000000000000000000000000000000000000000
310
20260000424D0E260000000000003E00000028000000B40200006E0000000100
310
01000000000000000000130B0000130B00000200000002000000000000FFFFFF
310
FFFFFFFFFFFFFFFFFFFFFFFFFFFFFFFFFFFFFFFFFFFFFFFFFFFFFFFFFFFFFFFF
310
FFFFFFFFFFFFFFFFFFFFFFFFFFFFFFFFFFFFFFFFFFFFFFFFFFFFFFFFFFFFFFFF
310
FFFFFFFFFFFFFFFFFFFFFFFFFFFFFFFFFFFFFFFFFFFFFFFFF000FFFFFFFFFFFF
310
FFFFFFFFFFFFFFFFFFFFFFFFFFFFFFFFFFFFFFFFFFFFFFFFFFFFFFFFFFFFFFFF
310
FFFFFFFFFFFFFFFFFFFFFFFFFFFFFFFFFFFFFFFFFFFFFFFFFFFFFFFFFFFFFFFF
310
FFFFFFFFFFFFFFFFFFFFFFFFFFFFFFFFF000FFFFFFFFFFFFFFFFFFFFFFFFFFFF
310
FFFFFFFFFFFFFFFFFFFFFFFFFFFFFFFFFFFFFFFFFFFFFFFFFFFFFFFFFFFFFFFF
310
FFFFFFFFFFFFFFFFFFFFFFFFFFFFFFFFFFFFFFFFFFFFFFFFFFFFFFFFFFFFFFFF
310
FFFFFFFFFFFFFFFFF000FFFFFFFFFFFFFFFFFFFFFFFFFFFFFFFFFFFFFFFFFFFF
310
FFFFFFFFFFFFFFFFFFFFFFFFFFFFFFFFFFFFFFFFFFFFFFFFFFFFFFFFFFFFFFFF
310
FFFFFFFFFFFFFFFFFFFFFFFFFFFFFFFFFFFFFFFFFFFFFFFFFFFFFFFFFFFFFFFF
310
F000FFFFFFFFFFFFFFFFFFFFFFFFFFFFFFFFFFFFFFFFFFFFFFFFFFFFFFFFFFFF
310
FFFFFFFFFFFFFFFFFFFFFFFFFFFFFFFFFFFFFFFFFFFFFFFFFFFFFFFFFFFFFFFF
310
FFFFFFFFFFFFFFFFFFFFFFFFFFFFFFFFFFFFFFFFFFFFFFFFF000FFFFFFFFFFFF
310
FFFFFFFFFFFFFFFFFFFFFFFFFFFFFFFFFFFFFFFFFFFFFFFFFFFFFFFFFFFFFFFF
310
FFFFFFFFFFFFFFFFFFFFFFFFFFFFFFFFFFFFFFFFFFFFFFFFFFFFFFFFFFFFFFFF
310
FFFFFFFFFFFFFFFFFFFFFFFFFFFFFFFFF000FFFFFFFFFFFFFFFFFFFFFFFFFFFF
310
FFFFFFFFFFFFFFFFFFFFFFFFFFFFFFFFFFFFFFFFFFFFFFFFFFFFFFFFFFFFFFFF
310
FFFFFFFFFFFFFFFFFFFFFFFFFFFFFFFFFFFFFFFFFFFFFFFFFFFFFFFFFFFFFFFF
310
FFFFFFFFFFFFFFFFF000FFFFFFFFFFFFFFFFFFFFFFFFFFFFFFFFFFFFFFFFFFFF
310
FFFFFFFFFFFFFFFFFFFFFFFFFFFFFFFFFFFFFFFFFFFFFFFFFFFFFFFFFFFFFFFF
310
FFFFFFFFFFFFFFFFFFFFFFFFFFFFFFFFFFFFFFFFFFFFFFFFFFFFFFFFFFFFFFFF
310
F000FFFFFFFFFFFFFFFFFFFFFFFFFFFFFFFFFFFFFFFFFFFFFFFFFFFFFFFFFFFF
310
FFFFFFFFFFFFFFFFFFFFFFFFFFFFFFFFFFFFFFFFFFFFFFFFFFFFFFFFFFFFFFFF
310
FFFFFFFFFFFFFFFFFFFFFFFFFFFFFFFFFFFFFFFFFFFFFFFFF000FFFFFFFFFFFF
310
FFFFFFFFFFFFFFFFFFFFFFFFFFFFFFFFFFFFFFFFFFFFFFFFFFFFFFFFFFFFFFFF
310
FFFFFFFFFFFFFFFFFFFFFFFFFFFFFFFFFFFFFFFFFFFFFFFFFFFFFFFFFFFFFFFF
310
FFFFFFFFFFFFFFFFFFFFFFFFFFFFFFFFF000FFFFFFFFFFFFFFFFFFFFFFFFFFFF
310
FFFFFFFFFFFFFFFFFFFFFFFFFFFFFFFFFFFFFFFFFFFFFFFFFFFFFFFFFFFFFFFF
310
FFFFFFFFFFFFFFFFFFFFFFFFFFFFFFFFFFFFFFFFFFFFFFFFFFFFFFFFFFFFFFFF
310
FFFFFFFFFFFFFFFFF000FFFFFFFFFFFFFFFFFFFFFFFFFFFFFFFFFFFFFFFFFFFF
310
FFFFFFFFFFFFFFFFFFFFFFFFFFFFFFFFFFFFFFFFFFFFFFFFFFFFFFFFFFFFFFFF
310
FFFFFFFFFFFFFFFFFFFFFFFFFFFFFFFFFFFFFFFFFFFFFFFFFFFFFFFFFFFFFFFF
310
F000FFFFFFFFFFFFFFFFFFFFFFFFFFFFFFFFFFFFFFFFFFFFFFFFFFFFFFFFFFFF
310
FFFFFFFFFFFFFFFFFFFFFFFFFFFFFFFFFFFFFFFFFFFFFFFFFFFFFFFFFFFFFFFF
310
FFFFFFFFFFFFFFFFFFFFFFFFFFFFFFFFFFFFFFFFFFFFFFFFF000FFFFFFFFFFFF
310
FFFFFFFFFFFFFFFFFFFFFFFFFFFFFFFFFFFFFFFFFFFFFFFFFFFFFFFFFFFFFFFF
310
FFFFFFFFFFFFFFFFFFFFFFFFFFFFFFFFFFFFFFFFFFFFFFFFFFFFFFFFFFFFFFFF
310
FFFFFFFFFFFFFFFFFFFFFFFFFFFFFFFFF000FFFFFFFFFFFFFFFFFFFFFFFFFFFF
310
FFFFFFFFFFFFFFFFFFFFFFFFFFFFFFFFFFFFFFFFFFFFFFFFFFFFFFFFFFFFFFFF
310
FFFFFFFFFFFFFFFFFFFFFFFFFFFFFFFFFFFFFFFFFFFFFFFFFFFFFFFFFFFFFFFF
310
FFFFFFFFFFFFFFFFF000FFFFFFFFFFFFFFFFFFFFFFFFFFFFFFFFFFFFFFFFFFFF
310
FFFFFFFFFFFFFFFFFFFFFFFFFFFFFFFFFFFFFFFFFFFFFFFFFFFFFFFFFFFFFFFF
310
FFFFFFFFFFFFFFFFFFFFFFFFFFFFFFFFFFFFFFFFFFFFFFFFFFFFFFFFFFFFFFFF
310
F000FFFFFFFFFFFFFFFFFFFFFFFFFFFFFFFFFFFFFFFFFFFFFFFFFFFFFFFFFFFF
310
FFFFFFFFFFFFFFFFFFFFFFFFFFFFFFFFFFFFFFFFFFFFFFFFFFFFFFFFFFFFFFFF
310
FFFFFFFFFFFFFFFFFFFFFFFFFFFFFFFFFFFFFFFFFFFFFFFFF000FFFFFFFFFFFF
310
FFFFFFFFFFFFFFFFFFFFFFFFFFFFFFFFFFFFFFFFFFFFFFFFFFFFFFFFFFFFFFFF
310
FFFFFFFFFFFFFFFFFFFFFFFFFFFFFFFFFFFFFFFFFFFFFFFFFFFFFFFFFFFFFFFF
310
FFFFFFFFFFFFFFFFFFFFFFFFFFFFFFFFF000FFFFFFFFFFFFFFFFFFFFFFFFFFFF
310
FFFFFFFFFFFFFFFFFFFFFFFFFFFFFFFFFFFFFFFFFFFFFFFFFFFFFFFFFFFFFFFF
310
FFFFFFFFFFFFFFFFFFFFFFFFFFFFFFFFFFFFFFFFFFFFFFFFFFFFFFFFFFFFFFFF
310
FFFFFFFFFFFFFFFFF000FFFFF80003FFFFFFFFFFFFFFFFFFFFFFFFFFFFFFFFFF
310
FFFFF00007FFFFFFFFFF00007FFFFFF800000000000000007FFFFFFFFFFFFFFF
310
FFFFFFFC001FFFFFFFFFFFFFFC001FFFFFFFFFFFFFFFFFFFFFFFFFFE0007FFFF
310
F000FFFF8000007FFFFFFFF8000FFFFFC0007FFFFF80007FFFFF0000007FFFFF
310
FFF8000007FFFFF800000000000000007FFFFFF0001FFFFFFFFFFFC00001FFFF
310
FFFFFFFFC00001FFFFFFFF000000000003FFFFE000007FFFF000FFFE0000000F
310
FFFFFFF0000FFFFF80007FFFFF80007FFFFC0000001FFFFFFFC0000001FFFFF8
310
00000000000000007FFFFFF0001FFFFFFFFFFE0000003FFFFFFFFFFE0000003F
310
FFFFFF000000000003FFFF0000000FFFF000FFF800000003FFFFFFF00007FFFF
310
80007FFFFF80007FFFF000000007FFFFFF000000003FFFF80000000000000000
310
7FFFFFF0001FFFFFFFFFF80000000FFFFFFFFFF80000000FFFFFFF0000000000
310
03FFFC00000003FFF000FFE000000000FFFFFFF00007FFFF80003FFFFF80007F
310
FFC000000001FFFFFC000000001FFFF800000000000000007FFFFFF0001FFFFF
310
FFFFE000000003FFFFFFFFE000000003FFFFFF000000000003FFF000000000FF
310
F000FF80000000007FFFFFF00007FFFF80003FFFFF80007FFF8000000000FFFF
310
F80000000007FFF800000000000000007FFFFFF0001FFFFFFFFFC000000001FF
310
FFFFFFC000000001FFFFFF000000000003FFC0000000007FF000FF0000000000
310
3FFFFFE00007FFFF00003FFFFF80007FFE00000000003FFFF00000000003FFF8
310
00000000000000007FFFFFF0001FFFFFFFFF8000000000FFFFFFFF8000000000
310
FFFFFF000000000003FF80000000003FF000FE00000000001FFFFFE00003FFFF
310
00003FFFFF80007FFC00000000001FFFE00000000001FFF8000001FFFE000000
310
7FFFFFF0001FFFFFFFFE00000000003FFFFFFE00000000003FFFFF0000000000
310
03FF00000000001FF000FC00000000000FFFFFE00003FFFF00001FFFFF80007F
310
F800000000001FFFC00000000000FFF8000001FFFE0000007FFFFFF0001FFFFF
310
FFFC00000000001FFFFFFC00000000001FFFFF000000000003FE00000000000F
310
F000F8000000000007FFFFE00003FFFF00001FFFFF80007FF800000000000FFF
310
800000000000FFF8000001FFFE0000007FFFFFF0001FFFFFFFF800000000000F
310
FFFFF800000000000FFFFF000000000003FC000000000007F000F80000000000
310
03FFFFC00003FFFE00001FFFFF80007FF0000000000007FF0000000000007FF8
310
000001FFFE0000007FFFFFF0001FFFFFFFF0000000000007FFFFF00000000000
310
07FFFF000000000003F8000000000003F000F0000000000003FFFFC00001FFFE
310
00001FFFFF80007FE0000000000007FE0000000000003FF8000001FFFE000000
310
7FFFFFF0001FFFFFFFF0000000000007FFFFF0000000000007FFFF0000000000
310
03F800001F800003F000E00001FFF00001FFFFC00001FFFE00000FFFFF80007F
310
E00001FFE00003FE00001FFF00003FF8000001FFFE0000007FFFFFF0001FFFFF
310
FFE000003E000003FFFFE000003E000003FFFF000000000003F00001FFF80001
310
F000E00007FFFC0001FFFFC00001FFFE00000FFFFF80007FC0000FFFFC0003FC
310
0000FFFFC0001FF8000001FFFE0000007FFFFFF0001FFFFFFFC00003FFE00001
310
FFFFC00003FFE00001FFFF0001FFFFFFFFF00007FFFE0001F000E0000FFFFF00
310
00FFFF800001FFFC00000FFFFF80007FC0001FFFFE0001FC0001FFFFE0001FF8
310
000001FFFE0000007FFFFFF0001FFFFFFF80000FFFF80000FFFF80000FFFF800
310
00FFFF0003FFFFFFFFE0000FFFFF8000F000C0003FFFFF8000FFFF800000FFFC
310
000007FFFF80007F80003FFFFF0001FC0003FFFFF0001FF8000001FFFE000000
310
7FFFFFF0001FFFFFFF80003FFFFE0000FFFF80003FFFFE0000FFFF0003FFFFFF
310
FFE0003FFFFF8000F000C0003FFFFF8000FFFF800000FFFC000007FFFF80007F
310
80007FFFFF8001F80007FFFFF8000FF8000001FFFE0000007FFFFFF0001FFFFF
310
FF00007FFFFF00007FFF00007FFFFF00007FFF0003FFFFFFFFE0003FFFFFC000
310
F000C0007FFFFFC000FFFF000000FFFC000007FFFF80007F8000FFFFFF8000F8
310
000FFFFFF8000FF8000001FFFE0000007FFFFFF0001FFFFFFF0000FFFFFF8000
310
7FFF0000FFFFFF80007FFF0003FFFFFFFFC0007FFFFFC00070008000FFFFFFC0
310
00FFFF000000FFF8000007FFFF80007F8000FFFFFF8000F8000FFFFFF8000FF8
310
000001FFFE0000007FFFFFF0001FFFFFFE0001FFFFFFC0003FFE0001FFFFFFC0
310
003FFF0003FFFFFFFFC0007FFFFFE00070008000FFFFFFC0007FFF0000007FF8
310
000003FFFF80007F0001FFFFFF8000F8000FFFFFF8000FF8000001FFFE000000
310
7FFFFFF0001FFFFFFE0001FFFFFFC0003FFE0001FFFFFFC0003FFF0003FFFFFF
310
FFC000FFFFFFE00070008000FFFFFFC0007FFF0000007FF8000003FFFF80007F
310
0001FFFFFF8000F8001FFFFFF8000FF8000001FFFE0000007FFFFFF0001FFFFF
310
FE0003FFFFFFE0003FFE0003FFFFFFE0003FFF0003FFFFFFFFC000FFFFFFE000
310
70008000FFFFFFC0007FFE0000007FF8000003FFFF80007F0001FFFFFF8000F0
310
001FFFFFF8000FF8000001FFFE0000007FFFFFF0001FFFFFFC0003FFFFFFE000
310
1FFC0003FFFFFFE0001FFF0003FFFFFFFFC000FFFFFFC00070008000FFFFFF80
310
007FFE0000007FF0000003FFFF80007F0001FFFFFF0000F0001FFFFFF8000FF8
310
000001FFFE0000007FFFFFF0001FFFFFFC0007FFFFFFF0001FFC0007FFFFFFF0
310
001FFF0003FFFFFFFFC000FFFFFFC00070008001FFFFFF0000FFFE0000003FF0
310
000001FFFF80007F0001FFFFFF0000F8001FFFFFF0000FF8000001FFFE000000
310
7FFFFFF0001FFFFFFC0007FFFFFFF0001FFC0007FFFFFFF0001FFF0003FFFFFF
310
FFC001FFFFFF80007000FFFFFFFFFE0000FFFE0008003FF0008001FFFF80007F
310
FFFFFFFFFC0000FFFFFFFFFFE0000FF8000001FFFE0000007FFFFFF0001FFFFF
310
F8000FFFFFFFF8000FF8000FFFFFFFF8000FFF0003FFFFFFFFFFFFFFFFFF0000
310
7000FFFFFFFFFC0000FFFC0008003FF0008001FFFF80007FFFFFFFFFF80001FF
310
FFFFFFFF80000FF8000001FFFE0000007FFFFFF0001FFFFFF8000FFFFFFFF800
310
0FF8000FFFFFFFF8000FFF0003FFFFFFFFFFFFFFFFFE0000F000FFFFFFFFE000
310
00FFFC000C003FE000C001FFFF80007FFFFFFFFFC00001FFFFFFFFFE00001FF8
310
000001FFFE0000007FFFFFF0001FFFFFF8000FFFFFFFF8000FF8000FFFFFFFF8
310
000FFF0003FFFFFFFFFFFFFFFFF00000F000FFFFFFFE000001FFFC000C001FE0
310
00C000FFFF80007FFFFFFFFE000001FFFFFFFFE000001FF80FFFFFFFFFFFFFC0
310
7FFFFFF0001FFFFFF8000FFFFFFFF8000FF8000FFFFFFFF8000FFF0003FFFFFF
310
FFFFFFFFFF800000F000FFFFFFC0000001FFFC001C001FE001C000FFFF80007F
310
FFFFFF80000003FFFFFFF80000001FF80FFFFFFFFFFFFFC07FFFFFF0001FFFFF
310
F8001FFFFFFFFC000FF8001FFFFFFFFC000FFF0003FFFFFFFFFFFFFFF0000001
310
F000FFFFF800000001FFF8001C001FE001C000FFFF80007FFFFFF800000003FF
310
FFFF800000003FF80FFFFFFFFFFFFFC07FFFFFF0001FFFFFF8001FFFFFFFFC00
310
0FF8001FFFFFFFFC000FFF0003FFFFFFFFFFFFFE00000001F000FFFFC0000000
310
03FFF8001E001FC001E000FFFF80007FFFFF8000000007FFFFFC000000003FF8
310
0FFFFFFFFFFFFFC07FFFFFF0001FFFFFF8001FFFFFFFFC000FF8001FFFFFFFFC
310
000FFF0003FFFFFFFFFFFFE000000003F000FFFE0000000007FFF8001E000FC0
310
01E0007FFF80007FFFFE0000000007FFFFE0000000007FF80FFFFFFFFFFFFFC0
310
7FFFFFF0001FFFFFF0001FFFFFFFFC0007F0001FFFFFFFFC0007FF0003FFFFFF
310
FFFFFF0000000003F000FFF80000000007FFF8001E000FC003E0007FFF80007F
310
FFF0000000000FFFFF8000000000FFF80FFFFFFFFFFFFFC07FFFFFF0001FFFFF
310
F0001FFFFFFFFC0007F0001FFFFFFFFC0007FF0003FFFFFFFFFFFC0000000007
310
F000FFE0000000000FFFF0003E000FC003E0007FFF80007FFFC0000000001FFF
310
FE0000000001FFF80FFFFFFFFFFFFFC07FFFFFF0001FFFFFF0001FFFFFFFFC00
310
07F0001FFFFFFFFC0007FF0003FFFFFFFFFFF0000000000FF000FFC000000000
310
1FFFF0003F000F8003F0003FFF80007FFF80000000003FFFF80000000003FFF8
310
0FFFFFFFFFFFFFC07FFFFFF0001FFFFFF0001FFFFFFFFC0007F0001FFFFFFFFC
310
0007FF0003FFFFFFFFFFE0000000001FF000FF00000000007FFFF0003F000780
310
03F0003FFF80007FFF00000000007FFFF00000000007FFF80FFFFFFFFFFFFFC0
310
7FFFFFF0001FFFFFF0001FFFFFFFFC0007F0001FFFFFFFFC0007FF0003FFFFFF
310
FFFF80000000007FF000FE0000000000FFFFE0003F00078007F0003FFF80007F
310
FE0000000001FFFFE0000000001FFFF80FFFFFFFFFFFFFC07FFFFFF0001FFFFF
310
F0001FFFFFFFFC0007F0001FFFFFFFFC0007FF0003FFFFFFFFFF0000000000FF
310
F000FC0000000003FFFFE0007F00078007F0003FFF80007FFC0000000007FFFF
310
C0000000007FFFF80FFFFFFFFFFFFFC07FFFFFF0001FFFFFF8001FFFFFFFFC00
310
0FF8001FFFFFFFFC000FFF0003FFFFFFFFFE0000000003FFF000FC000000000F
310
FFFFE0007F80070007F8001FFF80007FF8000000001FFFFF8000000001FFFFF8
310
0FFFFFFFFFFFFFC07FFFFFF0001FFFFFF8001FFFFFFFFC000FF8001FFFFFFFFC
310
000FFF0003FFFFFFFFFC000000000FFFF000F8000000007FFFFFE0007F800700
310
07F8001FFF80007FF000000000FFFFFF800000000FFFFFF80FFFFFFFFFFFFFC0
310
7FFFFFF0001FFFFFF8000FFFFFFFF8000FF8000FFFFFFFF8000FFF0003FFFFFF
310
FFFC000000007FFFF000F800000007FFFFFFC0007F8003000FF8001FFF80007F
310
F000000007FFFFFF000000007FFFFFF80FFFFFFFFFFFFFC07FFFFFF0001FFFFF
310
F8000FFFFFFFF8000FF8000FFFFFFFF8000FFF0003FFFFFFFFF80000000FFFFF
310
F000F0000000FFFFFFFFC000FF8003000FF8001FFF80007FE0000000FFFFFFFF
310
0000000FFFFFFFF8000001FFFE0000007FFFFFF0001FFFFFF8000FFFFFFFF800
310
0FF8000FFFFFFFF8000FFF0003FFFFFFFFF8000000FFFFFFF000F000000FFFFF
310
FFFFC000FFC002000FF8000FFF80007FE000001FFFFFFFFE000001FFFFFFFFF8
310
000001FFFE0000007FFFFFF0001FFFFFF8000FFFFFFFF8000FF8000FFFFFFFF8
310
000FFF0003FFFFFFFFF000001FFFFFFFF000E00000FFFFFFFFFFC000FFC00200
310
0FFC000FFF80007FE00001FFFFFFFFFE00001FFFFFFFFFF8000001FFFE000000
310
7FFFFFF0001FFFFFFC000FFFFFFFF8001FFC000FFFFFFFF8001FFF0003FFFFFF
310
FFF00001FFFFFFFFF000E00007FFFFFFFFFF8000FFC000001FFC000FFF80007F
310
C0000FFFFFFFFFFE0000FFFFFFFFFFF8000001FFFE0000007FFFFFF0001FFFFF
310
FC0007FFFFFFF0001FFC0007FFFFFFF0001FFF0003FFFFFFFFF00007FFFFFFFF
310
F000E0001FFFFFFFFFFF8000FFC000001FFC000FFF80007FC0003FFFFFFFFFFE
310
0001FFFFFFFFFFF8000001FFFE0000007FFFFFF0001FFFFFFC0007FFFFFFF000
310
1FFC0007FFFFFFF0001FFF0003FFFFFFFFF0001FFFFFFFFFF000E0003FFFFF00
310
03FF8001FFE000001FFC0007FF80007FC0007FFFFF0007FC0003FFFFF0003FF8
310
000001FFFE0000007FFFFFF0001FFFFFFC0003FFFFFFE0001FFC0003FFFFFFE0
310
001FFF0003FFFFFFFFF0003FFFFFFFFFF000E0003FFFFF0001FF8001FFE00000
310
1FFE0007FF80007FC0007FFFFE0003FC0007FFFFE0003FF8000001FFFE000000
310
7FFFFFF0001FFFFFFE0003FFFFFFE0003FFE0003FFFFFFE0003FFF0003FFFFFF
310
FFF0003FFFFF8001F000E0003FFFFF0001FF0001FFE000001FFE0007FF80007F
310
C0007FFFFE0003FC0007FFFFE0003FF8000001FFFE0000007FFFFFF0001FFFFF
310
FE0001FFFFFFC0003FFE0001FFFFFFC0003FFF0003FFFFFFFFF0003FFFFF0001
310
F000E0003FFFFF0003FF0001FFE000003FFE0007FF80007FC0007FFFFE0003FC
310
0007FFFFE0003FF8000001FFFE0000007FFFFFF0001FFFFFFF0001FFFFFFC000
310
7FFF0001FFFFFFC0007FFF0003FFFFFFFFF0003FFFFF0001F000E0003FFFFE00
310
03FF0003FFF000003FFE0003FF80007FC0007FFFFC0003FE0007FFFFE0003FF8
310
000001FFFE0000007FFFFFF0001FFFFFFF0000FFFFFF80007FFF0000FFFFFF80
310
007FFF0003FFFFFFFFF0003FFFFF0001F000E0003FFFFE0003FF0003FFF00000
310
3FFF0003FF80007FC0007FFFFC0007FE0007FFFFC0003FF8000001FFFE000000
310
7FFFFFF0001FFFFFFF80007FFFFF0000FFFF80007FFFFF0000FFFF0003FFFFFF
310
FFF0003FFFFF0003F000E0003FFFFC0003FE0003FFF000003FFF0003FF80007F
310
E0003FFFF80007FE0003FFFFC0007FF8000001FFFE0000007FFFFFF0001FFFFF
310
FF80003FFFFE0000FFFF80003FFFFE0000FFFF0003FFFFFFFFF0001FFFFE0003
310
F000F0001FFFF80003FE0003FFF000007FFF0001FF80007FE0003FFFF00007FE
310
0001FFFF80007FF8000001FFFE0000007FFFFFF0001FFFFFFFC0000FFFF80001
310
FFFFC0000FFFF80001FFFF0003FFFFFFFFF0001FFFFC0003F000F0000FFFF000
310
07FE0007FFF800007FFF0001FF80007FE0001FFFE00007FF0000FFFE00007FF8
310
000001FFFE0000007FFFFFF0001FFFFFFFC00003FFE00001FFFFC00003FFE000
310
01FFFF0003FFFFFFFFF8000FFFF80003F000F00003FFC00007FC0007FFF80000
310
7FFF8001FF80007FF00007FF80000FFF00007FF80000FFF8000001FFFE000000
310
7F80000000000001FFE000003E000003FFFFE000003E000003FFFF0003FFFFFF
310
FFF80003FFE00007F000F800000000000FFC0007FFF800007FFF8001FF80007F
310
F000000000000FFF000000000000FFF8000001FFFE0000007F80000000000001
310
FFF0000000000007FFFFF0000000000007FFFF0003FFFFFFFFFC00007E000007
310
F000F800000000000FFC0007FFF80000FFFF8000FF80007FF800000000001FFF
310
800000000001FFF8000001FFFE0000007F80000000000001FFF800000000000F
310
FFFFF800000000000FFFFF0003FFFFFFFFFC00000000000FF000FC0000000000
310
1FFC0007FFFC0000FFFF8000FF80007FF800000000003FFFC00000000001FFF8
310
000001FFFE0000007F80000000000001FFF800000000000FFFFFF80000000000
310
0FFFFF0003FFFFFFFFFE00000000001FF000FE00000000003FF8000FFFFC0000
310
FFFF8000FF80007FFC00000000003FFFC00000000003FFF8000001FFFE000000
310
7F80000000000001FFFC00000000001FFFFFFC00000000001FFFFF0003FFFFFF
310
FFFF00000000001FF000FF00000000003FF8000FFFFC0000FFFFC000FF80007F
310
FE00000000007FFFE00000000007FFF8000001FFFE0000007F80000000000001
310
FFFE00000000003FFFFFFE00000000003FFFFF0003FFFFFFFFFF80000000003F
310
F000FF80000000007FF8000FFFFC0001FFFFC0007F80007FFF0000000000FFFF
310
F0000000000FFFF800000000000000007F80000000000001FFFF8000000000FF
310
FFFFFF8000000000FFFFFF0003FFFFFFFFFFC0000000007FF000FFC000000000
310
FFF8000FFFFE0001FFFFC0007F80007FFF8000000001FFFFF8000000001FFFF8
310
00000000000000007F80000000000001FFFFC000000001FFFFFFFFC000000001
310
FFFFFF0003FFFFFFFFFFE000000000FFF000FFE000000003FFF0001FFFFE0001
310
FFFFC0007F80007FFFC000000007FFFFFE000000003FFFF80000000000000000
310
7F80000000000001FFFFE000000003FFFFFFFFE000000003FFFFFF0003FFFFFF
310
FFFFF000000003FFF000FFF80000000FFFF0001FFFFE0001FFFFE0007F80007F
310
FFF00000000FFFFFFF00000000FFFFF800000000000000007F80000000000001
310
FFFFF80000000FFFFFFFFFF80000000FFFFFFF0003FFFFFFFFFFFC0000000FFF
310
F000FFFE0000003FFFF0001FFFFE0003FFFFE0003F80007FFFFC0000003FFFFF
310
FFC0000003FFFFF800000000000000007F80000000000001FFFFFE0000003FFF
310
FFFFFFFE0000003FFFFFFF0003FFFFFFFFFFFF0000003FFFF000FFFF800000FF
310
FFF0001FFFFF0003FFFFE0003F80007FFFFF000001FFFFFFFFF800001FFFFFF8
310
00000000000000007F80000000000001FFFFFFC00001FFFFFFFFFFFFC00001FF
310
FFFFFF0003FFFFFFFFFFFFC00000FFFFF000FFFFF8000FFFFFFFFFFFFFFFFFFF
310
FFFFFFFFFFFFFFFFFFFFF0001FFFFFFFFFFF0000FFFFFFF80000000000000000
310
7FFFFFFFFFFFFFFFFFFFFFFC001FFFFFFFFFFFFFFC001FFFFFFFFFFFFFFFFFFF
310
FFFFFFFC001FFFFFF000FFFFFFFFFFFFFFFFFFFFFFFFFFFFFFFFFFFFFFFFFFFF
310
FFFFFFFFFFFFFFFFFFFFFFFFFFFFFFFFFFFFFFFFFFFFFFFFFFFFFFFFFFFFFFFF
310
FFFFFFFFFFFFFFFFFFFFFFFFFFFFFFFFFFFFFFFFFFFFFFFFFFFFFFFFFFFFFFFF
310
F000FFFFFFFFFFFFFFFFFFFFFFFFFFFFFFFFFFFFFFFFFFFFFFFFFFFFFFFFFFFF
310
FFFFFFFFFFFFFFFFFFFFFFFFFFFFFFFFFFFFFFFFFFFFFFFFFFFFFFFFFFFFFFFF
310
FFFFFFFFFFFFFFFFFFFFFFFFFFFFFFFFFFFFFFFFFFFFFFFFF000FFFFFFFFFFFF
310
FFFFFFFFFFFFFFFFFFFFFFFFFFFFFFFFFFFFFFFFFFFFFFFFFFFFFFFFFFFFFFFF
310
FFFFFFFFFFFFFFFFFFFFFFFFFFFFFFFFFFFFFFFFFFFFFFFFFFFFFFFFFFFFFFFF
310
FFFFFFFFFFFFFFFFFFFFFFFFFFFFFFFFF000FFFFFFFFFFFFFFFFFFFFFFFFFFFF
310
FFFFFFFFFFFFFFFFFFFFFFFFFFFFFFFFFFFFFFFFFFFFFFFFFFFFFFFFFFFFFFFF
310
FFFFFFFFFFFFFFFFFFFFFFFFFFFFFFFFFFFFFFFFFFFFFFFFFFFFFFFFFFFFFFFF
310
FFFFFFFFFFFFFFFFF000FFFFFFFFFFFFFFFFFFFFFFFFFFFFFFFFFFFFFFFFFFFF
310
FFFFFFFFFFFFFFFFFFFFFFFFFFFFFFFFFFFFFFFFFFFFFFFFFFFFFFFFFFFFFFFF
310
FFFFFFFFFFFFFFFFFFFFFFFFFFFFFFFFFFFFFFFFFFFFFFFFFFFFFFFFFFFFFFFF
310
F000FFFFFFFFFFFFFFFFFFFFFFFFFFFFFFFFFFFFFFFFFFFFFFFFFFFFFFFFFFFF
310
FFFFFFFFFFFFFFFFFFFFFFFFFFFFFFFFFFFFFFFFFFFFFFFFFFFFFFFFFFFFFFFF
310
FFFFFFFFFFFFFFFFFFFFFFFFFFFFFFFFFFFFFFFFFFFFFFFFF000FFFFFFFFFFFF
310
FFFFFFFFFFFFFFFFFFFFFFFFFFFFFFFFFFFFFFFFFFFFFFFFFFFFFFFFFFFFFFFF
310
FFFFFFFFFFFFFFFFFFFFFFFFFFFFFFFFFFFFFFFFFFFFFFFFFFFFFFFFFFFFFFFF
310
FFFFFFFFFFFFFFFFFFFFFFFFFFFFFFFFF000FFFFFFFFFFFFFFFFFFFFFFFFFFFF
310
FFFFFFFFFFFFFFFFFFFFFFFFFFFFFFFFFFFFFFFFFFFFFFFFFFFFFFFFFFFFFFFF
310
FFFFFFFFFFFFFFFFFFFFFFFFFFFFFFFFFFFFFFFFFFFFFFFFFFFFFFFFFFFFFFFF
310
FFFFFFFFFFFFFFFFF000FFFFFFFFFFFFFFFFFFFFFFFFFFFFFFFFFFFFFFFFFFFF
310
FFFFFFFFFFFFFFFFFFFFFFFFFFFFFFFFFFFFFFFFFFFFFFFFFFFFFFFFFFFFFFFF
310
FFFFFFFFFFFFFFFFFFFFFFFFFFFFFFFFFFFFFFFFFFFFFFFFFFFFFFFFFFFFFFFF
310
F000FFFFFFFFFFFFFFFFFFFFFFFFFFFFFFFFFFFFFFFFFFFFFFFFFFFFFFFFFFFF
310
FFFFFFFFFFFFFFFFFFFFFFFFFFFFFFFFFFFFFFFFFFFFFFFFFFFFFFFFFFFFFFFF
310
FFFFFFFFFFFFFFFFFFFFFFFFFFFFFFFFFFFFFFFFFFFFFFFFF000FFFFFFFFFFFF
310
FFFFFFFFFFFFFFFFFFFFFFFFFFFFFFFFFFFFFFFFFFFFFFFFFFFFFFFFFFFFFFFF
310
FFFFFFFFFFFFFFFFFFFFFFFFFFFFFFFFFFFFFFFFFFFFFFFFFFFFFFFFFFFFFFFF
310
FFFFFFFFFFFFFFFFFFFFFFFFFFFFFFFFF000FFFFFFFFFFFFFFFFFFFFFFFFFFFF
310
FFFFFFFFFFFFFFFFFFFFFFFFFFFFFFFFFFFFFFFFFFFFFFFFFFFFFFFFFFFFFFFF
310
FFFFFFFFFFFFFFFFFFFFFFFFFFFFFFFFFFFFFFFFFFFFFFFFFFFFFFFFFFFFFFFF
310
FFFFFFFFFFFFFFFFF000FFFFFFFFFFFFFFFFFFFFFFFFFFFFFFFFFFFFFFFFFFFF
310
FFFFFFFFFFFFFFFFFFFFFFFFFFFFFFFFFFFFFFFFFFFFFFFFFFFFFFFFFFFFFFFF
310
FFFFFFFFFFFFFFFFFFFFFFFFFFFFFFFFFFFFFFFFFFFFFFFFFFFFFFFFFFFFFFFF
310
F000FFFFFFFFFFFFFFFFFFFFFFFFFFFFFFFFFFFFFFFFFFFFFFFFFFFFFFFFFFFF
310
FFFFFFFFFFFFFFFFFFFFFFFFFFFFFFFFFFFFFFFFFFFFFFFFFFFFFFFFFFFFFFFF
310
FFFFFFFFFFFFFFFFFFFFFFFFFFFFFFFFFFFFFFFFFFFFFFFFF000FFFFFFFFFFFF
310
FFFFFFFFFFFFFFFFFFFFFFFFFFFFFFFFFFFFFFFFFFFFFFFFFFFFFFFFFFFFFFFF
310
FFFFFFFFFFFFFFFFFFFFFFFFFFFFFFFFFFFFFFFFFFFFFFFFFFFFFFFFFFFFFFFF
310
FFFFFFFFFFFFFFFFFFFFFFFFFFFFFFFFF000FFFFFFFFFFFFFFFFFFFFFFFFFFFF
310
FFFFFFFFFFFFFFFFFFFFFFFFFFFFFFFFFFFFFFFFFFFFFFFFFFFFFFFFFFFFFFFF
310
FFFFFFFFFFFFFFFFFFFFFFFFFFFFFFFFFFFFFFFFFFFFFFFFFFFFFFFFFFFFFFFF
310
FFFFFFFFFFFFFFFFF000FFFFFFFFFFFFFFFFFFFFFFFFFFFFFFFFFFFFFFFFFFFF
310
FFFFFFFFFFFFFFFFFFFFFFFFFFFFFFFFFFFFFFFFFFFFFFFFFFFFFFFFFFFFFFFF
310
FFFFFFFFFFFFFFFFFFFFFFFFFFFFFFFFFFFFFFFFFFFFFFFFFFFFFFFFFFFFFFFF
310
F000FFFFFFFFFFFFFFFFFFFFFFFFFFFFFFFFFFFFFFFFFFFFFFFFFFFFFFFFFFFF
310
FFFFFFFFFFFFFFFFFFFFFFFFFFFFFFFFFFFFFFFFFFFFFFFFFFFFFFFFFFFFFFFF
310
FFFFFFFFFFFFFFFFFFFFFFFFFFFFFFFFFFFFFFFFFFFFFFFFF000FFFFFFFFFFFF
310
FFFFFFFFFFFFFFFFFFFFFFFFFFFFFFFFFFFFFFFFFFFFFFFFFFFFFFFFFFFFFFFF
310
FFFFFFFFFFFFFFFFFFFFFFFFFFFFFFFFFFFFFFFFFFFFFFFFFFFFFFFFFFFFFFFF
310
FFFFFFFFFFFFFFFFFFFFFFFFFFFFFFFFF000FFFFFFFFFFFFFFFFFFFFFFFFFFFF
310
FFFFFFFFFFFFFFFFFFFFFFFFFFFFFFFFFFFFFFFFFFFFFFFFFFFFFFFFFFFFFFFF
310
FFFFFFFFFFFFFFFFFFFFFFFFFFFFFFFFFFFFFFFFFFFFFFFFFFFFFFFFFFFFFFFF
310
FFFFFFFFFFFFFFFFF000FFFFFFFFFFFFFFFFFFFFFFFFFFFFFFFFFFFFFFFFFFFF
310
FFFFFFFFFFFFFFFFFFFFFFFFFFFFFFFFFFFFFFFFFFFFFFFFFFFFFFFFFFFFFFFF
310
FFFFFFFFFFFFFFFFFFFFFFFFFFFFFFFFFFFFFFFFFFFFFFFFFFFFFFFFFFFFFFFF
310
F000FFFFFFFFFFFFFFFFFFFFFFFFFFFFFFFFFFFFFFFFFFFFFFFFFFFFFFFFFFFF
310
FFFFFFFFFFFFFFFFFFFFFFFFFFFFFFFFFFFFFFFFFFFFFFFFFFFFFFFFFFFFFFFF
310
FFFFFFFFFFFFFFFFFFFFFFFFFFFFFFFFFFFFFFFFFFFFFFFFF000FFFFFFFFFFFF
310
FFFFFFFFFFFFFFFFFFFFFFFFFFFFFFFFFFFFFFFFFFFFFFFFFFFFFFFFFFFFFFFF
310
FFFFFFFFFFFFFFFFFFFFFFFFFFFFFFFFFFFFFFFFFFFFFFFFFFFFFFFFFFFFFFFF
310
FFFFFFFFFFFFFFFFFFFFFFFFFFFFFFFFF0000000000000000000000000000000
310
0000000000000000000000000000000000000000000000000000000000000000
310
0000000000000000000000000000000000000000000000000000000000000000
310
0000000000000000000000000000000000000000000000000000000000000000
310
0000000000000000000000000000000000000000000000000000000000000000
310
0000000000000000000000000000000000000000000000000000000000000000
310
0000000000000000000000000000000000000000000000000000000000000000
310
0000000000000000000000000000000000000000000000000000000000000000
310
0000000000000000000000000000000000000000000000000000000000000000
310
0000000000000000000000000000000000000000000000000000000000000000
310
0000000000000000000000000000000000000000000000000000000000000000
310
0000000000000000000000000000000000000000000000000000000000000000
310
0000000000000000000000000000000000000000000000000000000000000000
310
0000000000000000000000000000000000000000000000000000000000000000
310
0000000000000000000000000000000000000000000000000000000000000000
310
0000000000000000000000000000000000000000000000000000000000000000
  1
OLE
  0
ENDSEC
  0
SECTION
  2
OBJECTS
  0
DICTIONARY
  5
C
330
0
100
AcDbDictionary
281
     1
  3
ACAD_GROUP
350
D
  3
ACAD_LAYOUT
350
1A
  3
ACAD_MLINESTYLE
350
17
  3
ACAD_PLOTSETTINGS
350
19
  3
ACAD_PLOTSTYLENAME
350
E
  0
DICTIONARY
  5
D
102
{ACAD_REACTORS
330
C
102
}
330
C
100
AcDbDictionary
281
     1
  0
DICTIONARY
  5
1A
102
{ACAD_REACTORS
330
C
102
}
330
C
100
AcDbDictionary
281
     1
  3
Layout1
350
1E
  3
Layout2
350
26
  3
Model
350
22
  0
DICTIONARY
  5
17
102
{ACAD_REACTORS
330
C
102
}
330
C
100
AcDbDictionary
281
     1
  3
Standard
350
18
  0
DICTIONARY
  5
19
102
{ACAD_REACTORS
330
C
102
}
330
C
100
AcDbDictionary
281
     1
  0
ACDBDICTIONARYWDFLT
  5
E
102
{ACAD_REACTORS
330
C
102
}
330
C
100
AcDbDictionary
281
     1
  3
Normal
350
F
100
AcDbDictionaryWithDefault
340
F
  0
LAYOUT
  5
1E
102
{ACAD_REACTORS
330
1A
102
}
330
1A
100
AcDbPlotSettings
  1

  2
none_device
  4

  6

 40
0.0
 41
0.0
 42
0.0
 43
0.0
 44
0.0
 45
0.0
 46
0.0
 47
0.0
 48
0.0
 49
0.0
140
0.0
141
0.0
142
1.0
143
1.0
 70
   688
 72
     0
 73
     0
 74
     5
  7

 75
    16
147
1.0
148
0.0
149
0.0
100
AcDbLayout
  1
Layout1
 70
     1
 71
     1
 10
0.0
 20
0.0
 11
420.0
 21
297.0
 12
0.0
 22
0.0
 32
0.0
 14
1.0000000000E+20
 24
1.0000000000E+20
 34
1.0000000000E+20
 15
-1.0000000000E+20
 25
-1.0000000000E+20
 35
-1.0000000000E+20
146
0.0
 13
0.0
 23
0.0
 33
0.0
 16
1.0
 26
0.0
 36
0.0
 17
0.0
 27
1.0
 37
0.0
 76
     0
330
1B
  0
LAYOUT
  5
26
102
{ACAD_REACTORS
330
1A
102
}
330
1A
100
AcDbPlotSettings
  1

  2
none_device
  4

  6

 40
0.0
 41
0.0
 42
0.0
 43
0.0
 44
0.0
 45
0.0
 46
0.0
 47
0.0
 48
0.0
 49
0.0
140
0.0
141
0.0
142
1.0
143
1.0
 70
   688
 72
     0
 73
     0
 74
     5
  7

 75
    16
147
1.0
148
0.0
149
0.0
100
AcDbLayout
  1
Layout2
 70
     1
 71
     2
 10
0.0
 20
0.0
 11
0.0
 21
0.0
 12
0.0
 22
0.0
 32
0.0
 14
0.0
 24
0.0
 34
0.0
 15
0.0
 25
0.0
 35
0.0
146
0.0
 13
0.0
 23
0.0
 33
0.0
 16
1.0
 26
0.0
 36
0.0
 17
0.0
 27
1.0
 37
0.0
 76
     0
330
23
  0
LAYOUT
  5
22
102
{ACAD_REACTORS
330
1A
102
}
330
1A
100
AcDbPlotSettings
  1

  2
none_device
  4

  6

 40
0.0
 41
0.0
 42
0.0
 43
0.0
 44
0.0
 45
0.0
 46
0.0
 47
0.0
 48
0.0
 49
0.0
140
0.0
141
0.0
142
1.0
143
1.0
 70
  1712
 72
     0
 73
     0
 74
     0
  7

 75
     0
147
1.0
148
0.0
149
0.0
100
AcDbLayout
  1
Model
 70
     1
 71
     0
 10
0.0
 20
0.0
 11
297.0
 21
210.0
 12
0.0
 22
0.0
 32
0.0
 14
0.0
 24
0.0
 34
0.0
 15
297.0
 25
210.0
 35
0.0
146
0.0
 13
0.0
 23
0.0
 33
0.0
 16
1.0
 26
0.0
 36
0.0
 17
0.0
 27
1.0
 37
0.0
 76
     0
330
1F
331
29
  0
MLINESTYLE
  5
18
102
{ACAD_REACTORS
330
17
102
}
330
17
100
AcDbMlineStyle
  2
Standard
 70
     0
  3

 62
   256
 51
90.0
 52
90.0
 71
     2
 49
0.5
 62
   256
  6
BYLAYER
 49
-0.5
 62
   256
  6
BYLAYER
  0
ACDBPLACEHOLDER
  5
F
102
{ACAD_REACTORS
330
E
102
}
330
E
  0
ENDSEC
  0
EOF
