  0
SECTION
  2
HEADER
  9
$ACADVER
  1
AC1015
  9
$ACADMAINTVER
 70
     6
  9
$DWGCODEPAGE
  3
ANSI_1252
  9
$INSBASE
 10
0.0
 20
0.0
 30
0.0
  9
$EXTMIN
 10
0.0
 20
0.0
 30
0.0
  9
$EXTMAX
 10
297.0
 20
210.0
 30
0.0
  9
$LIMMIN
 10
0.0
 20
0.0
  9
$LIMMAX
 10
297.0
 20
210.0
  9
$ORTHOMODE
 70
     0
  9
$REGENMODE
 70
     1
  9
$FILLMODE
 70
     1
  9
$QTEXTMODE
 70
     0
  9
$MIRRTEXT
 70
     1
  9
$LTSCALE
 40
1.0
  9
$ATTMODE
 70
     1
  9
$TEXTSIZE
 40
2.0
  9
$TRACEWID
 40
1.0
  9
$TEXTSTYLE
  7
Standard
  9
$CLAYER
  8
0
  9
$CELTYPE
  6
ByLayer
  9
$CECOLOR
 62
   256
  9
$CELTSCALE
 40
1.0
  9
$DISPSILH
 70
     0
  9
$DIMSCALE
 40
1.0
  9
$DIMASZ
 40
3.0
  9
$DIMEXO
 40
0.0
  9
$DIMDLI
 40
3.75
  9
$DIMRND
 40
0.0
  9
$DIMDLE
 40
0.0
  9
$DIMEXE
 40
1.0
  9
$DIMTP
 40
0.0
  9
$DIMTM
 40
0.0
  9
$DIMTXT
 40
2.0
  9
$DIMCEN
 40
2.5
  9
$DIMTSZ
 40
0.0
  9
$DIMTOL
 70
     0
  9
$DIMLIM
 70
     0
  9
$DIMTIH
 70
     1
  9
$DIMTOH
 70
     1
  9
$DIMSE1
 70
     0
  9
$DIMSE2
 70
     0
  9
$DIMTAD
 70
     1
  9
$DIMZIN
 70
     0
  9
$DIMBLK
  1

  9
$DIMASO
 70
     1
  9
$DIMSHO
 70
     1
  9
$DIMPOST
  1

  9
$DIMAPOST
  1

  9
$DIMALT
 70
     0
  9
$DIMALTD
 70
     3
  9
$DIMALTF
 40
0.0393700787
  9
$DIMLFAC
 40
1.0
  9
$DIMTOFL
 70
     1
  9
$DIMTVP
 40
0.0
  9
$DIMTIX
 70
     0
  9
$DIMSOXD
 70
     0
  9
$DIMSAH
 70
     0
  9
$DIMBLK1
  1

  9
$DIMBLK2
  1

  9
$DIMSTYLE
  2
ISO-25
  9
$DIMCLRD
 70
     0
  9
$DIMCLRE
 70
     0
  9
$DIMCLRT
 70
     0
  9
$DIMTFAC
 40
1.0
  9
$DIMGAP
 40
1.524
  9
$DIMJUST
 70
     0
  9
$DIMSD1
 70
     0
  9
$DIMSD2
 70
     0
  9
$DIMTOLJ
 70
     0
  9
$DIMTZIN
 70
     0
  9
$DIMALTZ
 70
     0
  9
$DIMALTTZ
 70
     0
  9
$DIMUPT
 70
     0
  9
$DIMDEC
 70
     2
  9
$DIMTDEC
 70
     3
  9
$DIMALTU
 70
     2
  9
$DIMALTTD
 70
     3
  9
$DIMTXSTY
  7
Standard
  9
$DIMAUNIT
 70
     0
  9
$DIMADEC
 70
     2
  9
$DIMALTRND
 40
0.0
  9
$DIMAZIN
 70
     0
  9
$DIMDSEP
 70
    44
  9
$DIMATFIT
 70
     3
  9
$DIMFRAC
 70
     0
  9
$DIMLDRBLK
  1

  9
$DIMLUNIT
 70
     2
  9
$DIMLWD
 70
    -2
  9
$DIMLWE
 70
    -2
  9
$DIMTMOVE
 70
     0
  9
$LUNITS
 70
     2
  9
$LUPREC
 70
     2
  9
$SKETCHINC
 40
1.0
  9
$FILLETRAD
 40
10.0
  9
$AUNITS
 70
     0
  9
$AUPREC
 70
     2
  9
$MENU
  1
.
  9
$ELEVATION
 40
0.0
  9
$PELEVATION
 40
0.0
  9
$THICKNESS
 40
0.0
  9
$LIMCHECK
 70
     0
  9
$CHAMFERA
 40
10.0
  9
$CHAMFERB
 40
10.0
  9
$CHAMFERC
 40
20.0
  9
$CHAMFERD
 40
0.0
  9
$SKPOLY
 70
     0
  9
$TDCREATE
 40
2456050.465415312
  9
$TDUCREATE
 40
2456050.382081979
  9
$TDUPDATE
 40
2456050.465417118
  9
$TDUUPDATE
 40
2456050.382083785
  9
$TDINDWG
 40
0.0000000116
  9
$TDUSRTIMER
 40
0.0000000116
  9
$USRTIMER
 70
     1
  9
$ANGBASE
 50
0.0
  9
$ANGDIR
 70
     0
  9
$PDMODE
 70
     0
  9
$PDSIZE
 40
-1.0
  9
$PLINEWID
 40
0.0
  9
$SPLFRAME
 70
     0
  9
$SPLINETYPE
 70
     6
  9
$SPLINESEGS
 70
     8
  9
$HANDSEED
  5
260
  9
$SURFTAB1
 70
     6
  9
$SURFTAB2
 70
     6
  9
$SURFTYPE
 70
     6
  9
$SURFU
 70
     6
  9
$SURFV
 70
     6
  9
$UCSBASE
  2

  9
$UCSNAME
  2

  9
$UCSORG
 10
0.0
 20
0.0
 30
0.0
  9
$UCSXDIR
 10
1.0
 20
0.0
 30
0.0
  9
$UCSYDIR
 10
0.0
 20
1.0
 30
0.0
  9
$UCSORTHOREF
  2

  9
$UCSORTHOVIEW
 70
     0
  9
$UCSORGTOP
 10
0.0
 20
0.0
 30
0.0
  9
$UCSORGBOTTOM
 10
0.0
 20
0.0
 30
0.0
  9
$UCSORGLEFT
 10
0.0
 20
0.0
 30
0.0
  9
$UCSORGRIGHT
 10
0.0
 20
0.0
 30
0.0
  9
$UCSORGFRONT
 10
0.0
 20
0.0
 30
0.0
  9
$UCSORGBACK
 10
0.0
 20
0.0
 30
0.0
  9
$PUCSBASE
  2

  9
$PUCSNAME
  2

  9
$PUCSORG
 10
0.0
 20
0.0
 30
0.0
  9
$PUCSXDIR
 10
1.0
 20
0.0
 30
0.0
  9
$PUCSYDIR
 10
0.0
 20
1.0
 30
0.0
  9
$PUCSORTHOREF
  2

  9
$PUCSORTHOVIEW
 70
     0
  9
$PUCSORGTOP
 10
0.0
 20
0.0
 30
0.0
  9
$PUCSORGBOTTOM
 10
0.0
 20
0.0
 30
0.0
  9
$PUCSORGLEFT
 10
0.0
 20
0.0
 30
0.0
  9
$PUCSORGRIGHT
 10
0.0
 20
0.0
 30
0.0
  9
$PUCSORGFRONT
 10
0.0
 20
0.0
 30
0.0
  9
$PUCSORGBACK
 10
0.0
 20
0.0
 30
0.0
  9
$USERI1
 70
     0
  9
$USERI2
 70
     0
  9
$USERI3
 70
     0
  9
$USERI4
 70
     0
  9
$USERI5
 70
     0
  9
$USERR1
 40
0.0
  9
$USERR2
 40
0.0
  9
$USERR3
 40
0.0
  9
$USERR4
 40
0.0
  9
$USERR5
 40
0.0
  9
$WORLDVIEW
 70
     1
  9
$SHADEDGE
 70
     3
  9
$SHADEDIF
 70
    70
  9
$TILEMODE
 70
     1
  9
$MAXACTVP
 70
    64
  9
$PINSBASE
 10
0.0
 20
0.0
 30
0.0
  9
$PLIMCHECK
 70
     0
  9
$PEXTMIN
 10
1.0000000000E+20
 20
1.0000000000E+20
 30
1.0000000000E+20
  9
$PEXTMAX
 10
-1.0000000000E+20
 20
-1.0000000000E+20
 30
-1.0000000000E+20
  9
$PLIMMIN
 10
0.0
 20
0.0
  9
$PLIMMAX
 10
420.0
 20
297.0
  9
$UNITMODE
 70
     0
  9
$VISRETAIN
 70
     1
  9
$PLINEGEN
 70
     0
  9
$PSLTSCALE
 70
     1
  9
$TREEDEPTH
 70
  3020
  9
$CMLSTYLE
  2
Standard
  9
$CMLJUST
 70
     0
  9
$CMLSCALE
 40
20.0
  9
$PROXYGRAPHICS
 70
     1
  9
$MEASUREMENT
 70
     1
  9
$CELWEIGHT
370
    -1
  9
$ENDCAPS
280
     0
  9
$JOINSTYLE
280
     0
  9
$LWDISPLAY
290
     1
  9
$INSUNITS
 70
     4
  9
$HYPERLINKBASE
  1

  9
$STYLESHEET
  1

  9
$XEDIT
290
     1
  9
$CEPSNTYPE
380
     0
  9
$PSTYLEMODE
290
     1
  9
$FINGERPRINTGUID
  2
{4F34767A-69B3-46F7-A821-F7BFA12FD442}
  9
$VERSIONGUID
  2
{FAEB1C32-E019-11D5-929B-00C0DF256EC4}
  9
$EXTNAMES
290
     1
  9
$PSVPSCALE
 40
0.0
  9
$OLESTARTUP
290
     0
  0
ENDSEC
  0
SECTION
  2
CLASSES
  0
CLASS
  1
ACDBDICTIONARYWDFLT
  2
AcDbDictionaryWithDefault
  3
ObjectDBX Classes
 90
        0
280
     0
281
     0
  0
CLASS
  1
VISUALSTYLE
  2
AcDbVisualStyle
  3
ObjectDBX Classes
 90
     4095
280
     0
281
     0
  0
CLASS
  1
MATERIAL
  2
AcDbMaterial
  3
ObjectDBX Classes
 90
     1153
280
     0
281
     0
  0
CLASS
  1
ACDBPLACEHOLDER
  2
AcDbPlaceHolder
  3
ObjectDBX Classes
 90
        0
280
     0
281
     0
  0
CLASS
  1
LAYOUT
  2
AcDbLayout
  3
ObjectDBX Classes
 90
        0
280
     0
281
     0
  0
ENDSEC
  0
SECTION
  2
TABLES
  0
TABLE
  2
VPORT
  5
8
330
0
100
AcDbSymbolTable
 70
     1
  0
VPORT
  5
29
330
8
100
AcDbSymbolTableRecord
100
AcDbViewportTableRecord
  2
*Active
 70
     0
 10
0.0
 20
0.0
 11
1.0
 21
1.0
 12
148.5
 22
105.0
 13
0.0
 23
0.0
 14
10.0
 24
10.0
 15
10.0
 25
10.0
 16
0.0
 26
0.0
 36
1.0
 17
0.0
 27
0.0
 37
0.0
 40
210.0
 41
1.4142857143
 42
50.0
 43
0.0
 44
0.0
 50
0.0
 51
0.0
 71
     0
 72
  2000
 73
     1
 74
     3
 75
     0
 76
     0
 77
     0
 78
     0
281
     0
 65
     1
110
0.0
120
0.0
130
0.0
111
1.0
121
0.0
131
0.0
112
0.0
122
1.0
132
0.0
 79
     0
146
0.0
  0
ENDTAB
  0
TABLE
  2
LTYPE
  5
5
330
0
100
AcDbSymbolTable
 70
     6
  0
LTYPE
  5
14
330
5
100
AcDbSymbolTableRecord
100
AcDbLinetypeTableRecord
  2
ByBlock
 70
     0
  3

 72
    65
 73
     0
 40
0.0
  0
LTYPE
  5
15
330
5
100
AcDbSymbolTableRecord
100
AcDbLinetypeTableRecord
  2
ByLayer
 70
     0
  3

 72
    65
 73
     0
 40
0.0
  0
LTYPE
  5
16
330
5
100
AcDbSymbolTableRecord
100
AcDbLinetypeTableRecord
  2
Continuous
 70
     0
  3
Solid line
 72
    65
 73
     0
 40
0.0
  0
LTYPE
  5
3F
330
5
100
AcDbSymbolTableRecord
100
AcDbLinetypeTableRecord
  2
HIDDEN
 70
     0
  3
Hidden __ __ __ __ __ __ __ __ __ __ __ __ __ __
 72
    65
 73
     2
 40
1.905
 49
1.27
 74
     0
 49
-0.635
 74
     0
  0
LTYPE
  5
40
330
5
100
AcDbSymbolTableRecord
100
AcDbLinetypeTableRecord
  2
PHANTOM
 70
     0
  3
Phantom ______  __  __  ______  __  __  ______
 72
    65
 73
     6
 40
12.7
 49
6.35
 74
     0
 49
-1.27
 74
     0
 49
1.27
 74
     0
 49
-1.27
 74
     0
 49
1.27
 74
     0
 49
-1.27
 74
     0
  0
LTYPE
  5
41
330
5
100
AcDbSymbolTableRecord
100
AcDbLinetypeTableRecord
  2
CENTER
 70
     0
  3
Center ____ _ ____ _ ____ _ ____ _ ____ _ ____
 72
    65
 73
     4
 40
10.16
 49
6.35
 74
     0
 49
-1.27
 74
     0
 49
1.27
 74
     0
 49
-1.27
 74
     0
  0
LTYPE
  5
42
330
5
100
AcDbSymbolTableRecord
100
AcDbLinetypeTableRecord
  2
CENTERX2
 70
     0
  3
Center (2x) ________  __  ________  __  _____
 72
    65
 73
     4
 40
20.32
 49
12.7
 74
     0
 49
-2.54
 74
     0
 49
2.54
 74
     0
 49
-2.54
 74
     0
  0
LTYPE
  5
43
330
5
100
AcDbSymbolTableRecord
100
AcDbLinetypeTableRecord
  2
DOT2
 70
     0
  3
Dot (.5x) ........................................
 72
    65
 73
     2
 40
0.635
 49
0.0
 74
     0
 49
-0.635
 74
     0
  0
ENDTAB
  0
TABLE
  2
LAYER
  5
2
330
0
100
AcDbSymbolTable
 70
     5
  0
LAYER
  5
10
330
2
100
AcDbSymbolTableRecord
100
AcDbLayerTableRecord
  2
0
 70
     0
 62
     7
  6
Continuous
370
    -3
390
F
  0
LAYER
  5
44
330
2
100
AcDbSymbolTableRecord
100
AcDbLayerTableRecord
  2
FORMAT
 70
     0
 62
     7
  6
Continuous
370
    -3
390
F
  0
LAYER
  5
45
330
2
100
AcDbSymbolTableRecord
100
AcDbLayerTableRecord
  2
VERMASSUNG
 70
     0
 62
     7
  6
Continuous
370
    -3
390
F
  0
LAYER
  5
46
330
2
100
AcDbSymbolTableRecord
100
AcDbLayerTableRecord
  2
KOPF_DÜNN
 70
     0
 62
     7
  6
Continuous
370
    -3
390
F
  0
LAYER
  5
47
330
2
100
AcDbSymbolTableRecord
100
AcDbLayerTableRecord
  2
KOPF_DICK
 70
     0
 62
     7
  6
Continuous
370
    15
390
F
  0
ENDTAB
  0
TABLE
  2
STYLE
  5
3
330
0
100
AcDbSymbolTable
 70
     2
  0
STYLE
  5
11
330
3
100
AcDbSymbolTableRecord
100
AcDbTextStyleTableRecord
  2
Standard
 70
     0
 40
0.0
 41
1.0
 50
0.0
 71
     0
 42
2.0
  3
txt
  4

  0
STYLE
  5
48
330
3
100
AcDbSymbolTableRecord
100
AcDbTextStyleTableRecord
  2
SLDTEXTSTYLE0
 70
     0
 40
0.0
 41
0.7
 50
0.0
 71
     0
 42
0.2
  3
TXT
  4

  0
ENDTAB
  0
TABLE
  2
VIEW
  5
6
330
0
100
AcDbSymbolTable
 70
     0
  0
ENDTAB
  0
TABLE
  2
UCS
  5
7
330
0
100
AcDbSymbolTable
 70
     0
  0
ENDTAB
  0
TABLE
  2
APPID
  5
9
330
0
100
AcDbSymbolTable
 70
     1
  0
APPID
  5
12
330
9
100
AcDbSymbolTableRecord
100
AcDbRegAppTableRecord
  2
ACAD
 70
     0
  0
ENDTAB
  0
TABLE
  2
DIMSTYLE
  5
A
330
0
100
AcDbSymbolTable
 70
     5
100
AcDbDimStyleTable
  0
DIMSTYLE
105
27
330
A
100
AcDbSymbolTableRecord
100
AcDbDimStyleTableRecord
  2
ISO-25
 70
     0
 41
2.5
 42
0.625
 43
3.75
 44
1.25
 73
     0
 74
     0
 77
     1
 78
     8
140
2.5
141
2.5
143
0.0393700787
147
0.625
171
     3
172
     1
178
     0
271
     2
272
     2
274
     3
278
    44
283
     0
284
     8
340
11
  0
DIMSTYLE
105
1BC
102
{ACAD_REACTORS
330
1BB
330
1E9
102
}
330
A
100
AcDbSymbolTableRecord
100
AcDbDimStyleTableRecord
  2
SLDDIMSTYLE0
 70
     0
 41
3.0
 44
0.0
 45
0.000000001
 73
     0
 74
     0
 77
     1
 78
    12
 79
     3
140
2.0
147
0.5
173
     1
178
     0
271
     2
272
     3
276
     2
284
    12
340
48
  0
DIMSTYLE
105
1C7
102
{ACAD_REACTORS
330
1C6
330
1D3
102
}
330
A
100
AcDbSymbolTableRecord
100
AcDbDimStyleTableRecord
  2
SLDDIMSTYLE1
 70
     0
 41
3.0
 44
0.0
 45
0.000000001
 47
0.1
 48
0.1
 71
     1
 73
     0
 74
     0
 77
     1
 78
    12
 79
     3
140
2.0
147
0.5
173
     1
178
     0
271
     2
272
     1
276
     2
284
     8
340
48
  0
DIMSTYLE
105
1E0
102
{ACAD_REACTORS
330
1DF
102
}
330
A
100
AcDbSymbolTableRecord
100
AcDbDimStyleTableRecord
  2
SLDDIMSTYLE2
 70
     0
 41
3.0
 44
0.0
 73
     0
 74
     0
 77
     1
 78
    12
 79
     3
140
2.0
147
0.5
173
     1
178
     0
179
     1
272
     3
276
     2
284
    12
340
48
  0
DIMSTYLE
105
245
102
{ACAD_REACTORS
330
244
102
}
330
A
100
AcDbSymbolTableRecord
100
AcDbDimStyleTableRecord
  2
SLDDIMSTYLE3
 70
     0
 41
3.0
 44
0.0
 45
0.000000001
 73
     0
 74
     0
 77
     1
 78
    12
 79
     3
140
2.0
147
0.5
172
     1
173
     1
178
     0
271
     2
272
     3
276
     2
284
    12
289
     0
340
48
  0
ENDTAB
  0
TABLE
  2
BLOCK_RECORD
  5
1
330
0
100
AcDbSymbolTable
 70
     8
  0
BLOCK_RECORD
  5
1F
330
1
100
AcDbSymbolTableRecord
100
AcDbBlockTableRecord
  2
*Model_Space
340
22
  0
BLOCK_RECORD
  5
1B
330
1
100
AcDbSymbolTableRecord
100
AcDbBlockTableRecord
  2
*Paper_Space
340
1E
  0
BLOCK_RECORD
  5
23
330
1
100
AcDbSymbolTableRecord
100
AcDbBlockTableRecord
  2
*Paper_Space0
340
26
  0
BLOCK_RECORD
  5
1BD
330
1
100
AcDbSymbolTableRecord
100
AcDbBlockTableRecord
  2
_D
340
0
  0
BLOCK_RECORD
  5
1C8
330
1
100
AcDbSymbolTableRecord
100
AcDbBlockTableRecord
  2
_D_1
340
0
  0
BLOCK_RECORD
  5
1D4
330
1
100
AcDbSymbolTableRecord
100
AcDbBlockTableRecord
  2
_D_2
340
0
  0
BLOCK_RECORD
  5
1E1
330
1
100
AcDbSymbolTableRecord
100
AcDbBlockTableRecord
  2
_D_3
340
0
  0
BLOCK_RECORD
  5
1EA
330
1
100
AcDbSymbolTableRecord
100
AcDbBlockTableRecord
  2
_D_4
340
0
  0
BLOCK_RECORD
  5
246
330
1
100
AcDbSymbolTableRecord
100
AcDbBlockTableRecord
  2
_D_5
340
0
  0
BLOCK_RECORD
  5
253
330
1
100
AcDbSymbolTableRecord
100
AcDbBlockTableRecord
  2
SW_CENTERMARKSYMBOL_0
340
0
102
{BLKREFS
331
25E
102
}
  0
ENDTAB
  0
ENDSEC
  0
SECTION
  2
BLOCKS
  0
BLOCK
  5
20
330
1F
100
AcDbEntity
  8
0
100
AcDbBlockBegin
  2
*Model_Space
 70
     0
 10
0.0
 20
0.0
 30
0.0
  3
*Model_Space
  1

  0
ENDBLK
  5
21
330
1F
100
AcDbEntity
  8
0
100
AcDbBlockEnd
  0
BLOCK
  5
1C
330
1B
100
AcDbEntity
 67
     1
  8
0
100
AcDbBlockBegin
  2
*Paper_Space
 70
     0
 10
0.0
 20
0.0
 30
0.0
  3
*Paper_Space
  1

  0
ENDBLK
  5
1D
330
1B
100
AcDbEntity
 67
     1
  8
0
100
AcDbBlockEnd
  0
BLOCK
  5
24
330
23
100
AcDbEntity
  8
0
100
AcDbBlockBegin
  2
*Paper_Space0
 70
     0
 10
0.0
 20
0.0
 30
0.0
  3
*Paper_Space0
  1

  0
ENDBLK
  5
25
330
23
100
AcDbEntity
  8
0
100
AcDbBlockEnd
  0
BLOCK
  5
1BE
330
1BD
100
AcDbEntity
  8
0
100
AcDbBlockBegin
  2
_D
 70
     0
 10
0.0
 20
0.0
 30
0.0
  3
_D
  1

  0
SOLID
  5
1C0
330
1BD
100
AcDbEntity
  8
VERMASSUNG
100
AcDbTrace
 10
154.7602974833
 20
79.1101742208
 30
0.0
 11
157.7602974833
 21
78.6601742208
 31
0.0
 12
157.7602974833
 22
79.5601742208
 32
0.0
 13
157.7602974833
 23
79.5601742208
 33
0.0
  0
SOLID
  5
1C1
330
1BD
100
AcDbEntity
  8
VERMASSUNG
100
AcDbTrace
 10
228.7602974833
 20
79.1101742208
 30
0.0
 11
225.7602974833
 21
79.5601742208
 31
0.0
 12
225.7602974833
 22
78.6601742208
 32
0.0
 13
225.7602974833
 23
78.6601742208
 33
0.0
  0
LINE
  5
1C2
330
1BD
100
AcDbEntity
  8
VERMASSUNG
100
AcDbLine
 10
154.7602974833
 20
108.9263601189
 30
0.0
 11
154.7602974833
 21
78.1101742208
 31
0.0
  0
LINE
  5
1C3
330
1BD
100
AcDbEntity
  8
VERMASSUNG
100
AcDbLine
 10
228.7602974833
 20
94.5578651009
 30
0.0
 11
228.7602974833
 21
78.1101742208
 31
0.0
  0
LINE
  5
1C4
330
1BD
100
AcDbEntity
  8
VERMASSUNG
100
AcDbLine
 10
154.7602974833
 20
79.1101742208
 30
0.0
 11
228.7602974833
 21
79.1101742208
 31
0.0
  0
MTEXT
  5
1C5
330
1BD
100
AcDbEntity
  8
VERMASSUNG
100
AcDbMText
 10
189.3602973693
 20
81.6883095839
 30
0.1
 40
2.0
 41
0.0
 71
     1
 72
     1
  1
74
  7
SLDTEXTSTYLE0
 73
     1
 44
1.0
  0
ENDBLK
  5
1BF
330
1BD
100
AcDbEntity
  8
0
100
AcDbBlockEnd
  0
BLOCK
  5
1C9
330
1C8
100
AcDbEntity
  8
0
100
AcDbBlockBegin
  2
_D_1
 70
     0
 10
0.0
 20
0.0
 30
0.0
  3
_D_1
  1

  0
SOLID
  5
1CB
330
1C8
100
AcDbEntity
  8
VERMASSUNG
100
AcDbTrace
 10
178.7602974833
 20
87.3634260254
 30
0.0
 11
181.7602974833
 21
86.9134260254
 31
0.0
 12
181.7602974833
 22
87.8134260254
 32
0.0
 13
181.7602974833
 23
87.8134260254
 33
0.0
  0
SOLID
  5
1CC
330
1C8
100
AcDbEntity
  8
VERMASSUNG
100
AcDbTrace
 10
228.7602974833
 20
87.3634260254
 30
0.0
 11
225.7602974833
 21
87.8134260254
 31
0.0
 12
225.7602974833
 22
86.9134260254
 32
0.0
 13
225.7602974833
 23
86.9134260254
 33
0.0
  0
LINE
  5
1CD
330
1C8
100
AcDbEntity
  8
VERMASSUNG
100
AcDbLine
 10
178.7602974833
 20
101.8578651009
 30
0.0
 11
178.7602974833
 21
86.3634260254
 31
0.0
  0
LINE
  5
1CE
330
1C8
100
AcDbEntity
  8
VERMASSUNG
100
AcDbLine
 10
228.7602974833
 20
94.5578651009
 30
0.0
 11
228.7602974833
 21
86.3634260254
 31
0.0
  0
LINE
  5
1CF
330
1C8
100
AcDbEntity
  8
VERMASSUNG
100
AcDbLine
 10
178.7602974833
 20
87.3634260254
 30
0.0
 11
228.7602974833
 21
87.3634260254
 31
0.0
  0
MTEXT
  5
1D0
330
1C8
100
AcDbEntity
  8
VERMASSUNG
100
AcDbMText
 10
199.2102972962
 20
89.9415613885
 30
0.1
 40
2.0
 41
0.0
 71
     1
 72
     1
  1
50
  7
SLDTEXTSTYLE0
 73
     1
 44
1.0
  0
MTEXT
  5
1D1
330
1C8
100
AcDbEntity
  8
VERMASSUNG
100
AcDbMText
 10
204.9977973983
 20
89.9415613885
 30
0.1
 40
2.0
 41
0.0
 71
     1
 72
     1
  1

  7
SLDTEXTSTYLE0
 73
     1
 44
1.0
  0
MTEXT
  5
1D2
330
1C8
100
AcDbEntity
  8
VERMASSUNG
100
AcDbMText
 10
205.0102976881
 20
89.4470275257
 30
0.1
 40
1.5
 41
0.0
 71
     1
 72
     1
  1
±0.1
  7
SLDTEXTSTYLE0
 73
     1
 44
1.0
  0
ENDBLK
  5
1CA
330
1C8
100
AcDbEntity
  8
0
100
AcDbBlockEnd
  0
BLOCK
  5
1D5
330
1D4
100
AcDbEntity
  8
0
100
AcDbBlockBegin
  2
_D_2
 70
     0
 10
0.0
 20
0.0
 30
0.0
  3
_D_2
  1

  0
SOLID
  5
1D7
330
1D4
100
AcDbEntity
  8
VERMASSUNG
100
AcDbTrace
 10
248.9826025396
 20
94.5578651009
 30
0.0
 11
249.4326025396
 21
97.5578651009
 31
0.0
 12
248.5326025396
 22
97.5578651009
 32
0.0
 13
248.5326025396
 23
97.5578651009
 33
0.0
  0
SOLID
  5
1D8
330
1D4
100
AcDbEntity
  8
VERMASSUNG
100
AcDbTrace
 10
248.9826025396
 20
121.5578651009
 30
0.0
 11
248.5326025396
 21
118.5578651009
 31
0.0
 12
249.4326025396
 22
118.5578651009
 32
0.0
 13
249.4326025396
 23
118.5578651009
 33
0.0
  0
LINE
  5
1D9
330
1D4
100
AcDbEntity
  8
VERMASSUNG
100
AcDbLine
 10
228.7602974833
 20
94.5578651009
 30
0.0
 11
249.9826025396
 21
94.5578651009
 31
0.0
  0
LINE
  5
1DA
330
1D4
100
AcDbEntity
  8
VERMASSUNG
100
AcDbLine
 10
228.7602974833
 20
121.5578651009
 30
0.0
 11
249.9826025396
 21
121.5578651009
 31
0.0
  0
LINE
  5
1DB
330
1D4
100
AcDbEntity
  8
VERMASSUNG
100
AcDbLine
 10
248.9826025396
 20
94.5578651009
 30
0.0
 11
248.9826025396
 21
121.5578651009
 31
0.0
  0
MTEXT
  5
1DC
330
1D4
100
AcDbEntity
  8
VERMASSUNG
100
AcDbMText
 10
246.4044671765
 20
103.5078649139
 30
0.1
 40
2.0
 41
0.0
 71
     1
 72
     1
  1
27
  7
SLDTEXTSTYLE0
 11
6.123233995736766E-17
 21
1.0
 31
0.0
 73
     1
 44
1.0
  0
MTEXT
  5
1DD
330
1D4
100
AcDbEntity
  8
VERMASSUNG
100
AcDbMText
 10
246.4044671765
 20
109.295365016
 30
0.1
 40
2.0
 41
0.0
 71
     1
 72
     1
  1

  7
SLDTEXTSTYLE0
 11
6.123233995736766E-17
 21
1.0
 31
0.0
 73
     1
 44
1.0
  0
MTEXT
  5
1DE
330
1D4
100
AcDbEntity
  8
VERMASSUNG
100
AcDbMText
 10
246.8990010393
 20
109.3078653058
 30
0.1
 40
1.5
 41
0.0
 71
     1
 72
     1
  1
±0.1
  7
SLDTEXTSTYLE0
 11
6.123233995736766E-17
 21
1.0
 31
0.0
 73
     1
 44
1.0
  0
ENDBLK
  5
1D6
330
1D4
100
AcDbEntity
  8
0
100
AcDbBlockEnd
  0
BLOCK
  5
1E2
330
1E1
100
AcDbEntity
  8
0
100
AcDbBlockBegin
  2
_D_3
 70
     0
 10
0.0
 20
0.0
 30
0.0
  3
_D_3
  1

  0
ARC
  5
1E4
330
1E1
100
AcDbEntity
  8
VERMASSUNG
100
AcDbCircle
 10
228.9056829178
 20
94.5578651009
 30
0.0
 40
13.02594499121363
100
AcDbArc
 50
0.0
 51
107.4530903395
  0
SOLID
  5
1E5
330
1E1
100
AcDbEntity
  8
VERMASSUNG
100
AcDbTrace
 10
241.931627909
 20
94.5578651009
 30
0.0
 11
242.0399295987
 21
97.589493499
 31
0.0
 12
241.1456879405
 22
97.4878477572
 32
0.0
 13
241.1456879405
 23
97.4878477572
 33
0.0
  0
SOLID
  5
1E6
330
1E1
100
AcDbEntity
  8
VERMASSUNG
100
AcDbTrace
 10
224.9988781377
 20
106.9841324135
 30
0.0
 11
228.0296956147
 21
107.1131495488
 31
0.0
 12
227.8584565663
 22
107.9967089346
 32
0.0
 13
227.8584565663
 23
107.9967089346
 33
0.0
  0
LINE
  5
1E7
330
1E1
100
AcDbEntity
  8
VERMASSUNG
100
AcDbLine
 10
239.9951061187
 20
94.5578651009
 30
0.0
 11
242.931627909
 21
94.5578651009
 31
0.0
  0
MTEXT
  5
1E8
330
1E1
100
AcDbEntity
  8
VERMASSUNG
100
AcDbMText
 10
234.5903859033
 20
109.7411281054
 30
0.1
 40
2.0
 41
0.0
 71
     1
 72
     1
  1
107.5°
  7
SLDTEXTSTYLE0
 11
0.8062024758120011
 21
-0.5916397282084763
 31
0.0
 73
     1
 44
1.0
  0
ENDBLK
  5
1E3
330
1E1
100
AcDbEntity
  8
0
100
AcDbBlockEnd
  0
BLOCK
  5
1EB
330
1EA
100
AcDbEntity
  8
0
100
AcDbBlockBegin
  2
_D_4
 70
     0
 10
0.0
 20
0.0
 30
0.0
  3
_D_4
  1

  0
SOLID
  5
1ED
330
1EA
100
AcDbEntity
  8
VERMASSUNG
100
AcDbTrace
 10
144.7602974833
 20
141.5578651009
 30
0.0
 11
144.3102974833
 21
138.5578651009
 31
0.0
 12
145.2102974833
 22
138.5578651009
 32
0.0
 13
145.2102974833
 23
138.5578651009
 33
0.0
  0
SOLID
  5
1EE
330
1EA
100
AcDbEntity
  8
VERMASSUNG
100
AcDbTrace
 10
144.7602974833
 20
101.5578651009
 30
0.0
 11
145.2102974833
 21
104.5578651009
 31
0.0
 12
144.3102974833
 22
104.5578651009
 32
0.0
 13
144.3102974833
 23
104.5578651009
 33
0.0
  0
LINE
  5
1EF
330
1EA
100
AcDbEntity
  8
VERMASSUNG
100
AcDbLine
 10
179.0602974833
 20
141.5578651009
 30
0.0
 11
143.7602974833
 21
141.5578651009
 31
0.0
  0
LINE
  5
1F0
330
1EA
100
AcDbEntity
  8
VERMASSUNG
100
AcDbLine
 10
179.0602974833
 20
101.5578651009
 30
0.0
 11
143.7602974833
 21
101.5578651009
 31
0.0
  0
LINE
  5
1F1
330
1EA
100
AcDbEntity
  8
VERMASSUNG
100
AcDbLine
 10
144.7602974833
 20
141.5578651009
 30
0.0
 11
144.7602974833
 21
101.5578651009
 31
0.0
  0
MTEXT
  5
1F2
330
1EA
100
AcDbEntity
  8
VERMASSUNG
100
AcDbMText
 10
141.9821619942
 20
115.0528651616
 30
0.4000236906
 40
2.0
 41
0.0
 71
     1
 72
     1
  1
PSC
  7
SLDTEXTSTYLE0
 11
-7.044195017643634E-15
 21
1.0
 31
0.0
 73
     1
 44
1.0
  0
MTEXT
  5
1F3
330
1EA
100
AcDbEntity
  8
VERMASSUNG
100
AcDbMText
 10
142.1821620037
 20
119.6528652637
 30
0.4000236906
 40
2.0
 41
0.0
 71
     1
 72
     1
  1
%%c
  7
SLDTEXTSTYLE0
 11
-7.044195017643634E-15
 21
1.0
 31
0.0
 73
     1
 44
1.0
  0
MTEXT
  5
1F4
330
1EA
100
AcDbEntity
  8
VERMASSUNG
100
AcDbMText
 10
141.9821619942
 20
123.2628657436
 30
0.4000236906
 40
2.0
 41
0.0
 71
     1
 72
     1
  1
40
  7
SLDTEXTSTYLE0
 11
-7.044195017643634E-15
 21
1.0
 31
0.0
 73
     1
 44
1.0
  0
ENDBLK
  5
1EC
330
1EA
100
AcDbEntity
  8
0
100
AcDbBlockEnd
  0
BLOCK
  5
247
330
246
100
AcDbEntity
  8
0
100
AcDbBlockBegin
  2
_D_5
 70
     0
 10
0.0
 20
0.0
 30
0.0
  3
_D_5
  1

  0
SOLID
  5
249
330
246
100
AcDbEntity
  8
VERMASSUNG
100
AcDbTrace
 10
62.5681668118
 20
102.0390859264
 30
0.0
 11
60.1286484167
 21
100.2359636344
 31
0.0
 12
60.7650445198
 22
99.5995675313
 32
0.0
 13
60.7650445198
 23
99.5995675313
 33
0.0
  0
SOLID
  5
24A
330
246
100
AcDbEntity
  8
VERMASSUNG
100
AcDbTrace
 10
97.9235058711
 20
137.3944249858
 30
0.0
 11
100.3630242662
 21
139.1975472778
 31
0.0
 12
99.7266281632
 22
139.8339433808
 32
0.0
 13
99.7266281632
 23
139.8339433808
 33
0.0
  0
LINE
  5
24B
330
246
100
AcDbEntity
  8
VERMASSUNG
100
AcDbLine
 10
62.5681668118
 20
102.0390859264
 30
0.0
 11
61.8610600306
 21
102.7461927076
 31
0.0
  0
LINE
  5
24C
330
246
100
AcDbEntity
  8
VERMASSUNG
100
AcDbLine
 10
97.9235058711
 20
137.3944249858
 30
0.0
 11
97.2163990899
 21
138.1015317669
 31
0.0
  0
LINE
  5
24D
330
246
100
AcDbEntity
  8
VERMASSUNG
100
AcDbLine
 10
62.5681668118
 20
102.0390859264
 30
0.0
 11
58.3255261247
 21
97.7964452393
 31
0.0
  0
LINE
  5
24E
330
246
100
AcDbEntity
  8
VERMASSUNG
100
AcDbLine
 10
62.5681668118
 20
102.0390859264
 30
0.0
 11
97.9235058711
 21
137.3944249858
 31
0.0
  0
LINE
  5
24F
330
246
100
AcDbEntity
  8
VERMASSUNG
100
AcDbLine
 10
97.9235058711
 20
137.3944249858
 30
0.0
 11
109.9691476632
 21
149.4400667778
 31
0.0
  0
MTEXT
  5
250
330
246
100
AcDbEntity
  8
VERMASSUNG
100
AcDbMText
 10
98.3809863228
 20
141.4979395982
 30
0.1
 40
2.0
 41
0.0
 71
     1
 72
     1
  1
%%c
  7
SLDTEXTSTYLE0
 11
0.7071067811865464
 21
0.7071067811865487
 31
0.0
 73
     1
 44
1.0
  0
MTEXT
  5
251
330
246
100
AcDbEntity
  8
VERMASSUNG
100
AcDbMText
 10
100.79222045
 20
144.1920164513
 30
0.1
 40
2.0
 41
0.0
 71
     1
 72
     1
  1
50
  7
SLDTEXTSTYLE0
 11
0.7071067811865464
 21
0.7071067811865487
 31
0.0
 73
     1
 44
1.0
  0
MTEXT
  5
252
330
246
100
AcDbEntity
  8
VERMASSUNG
100
AcDbMText
 10
104.8846013476
 20
148.2843973489
 30
0.1
 40
2.0
 41
0.0
 71
     1
 72
     1
  1
min.
  7
SLDTEXTSTYLE0
 11
0.7071067811865464
 21
0.7071067811865487
 31
0.0
 73
     1
 44
1.0
  0
ENDBLK
  5
248
330
246
100
AcDbEntity
  8
0
100
AcDbBlockEnd
  0
BLOCK
  5
254
330
253
100
AcDbEntity
  8
0
100
AcDbBlockBegin
  2
SW_CENTERMARKSYMBOL_0
 70
     0
 10
0.0
 20
0.0
 30
0.0
  3
SW_CENTERMARKSYMBOL_0
  1

  0
LINE
  5
256
330
253
100
AcDbEntity
  8
VERMASSUNG
 62
     0
100
AcDbLine
 10
0.0
 20
0.0
 30
0.0
 11
0.0
 21
2.5
 31
0.0
  0
LINE
  5
257
330
253
100
AcDbEntity
  8
VERMASSUNG
 62
     0
100
AcDbLine
 10
0.0
 20
0.0
 30
0.0
 11
-2.5
 21
0.0
 31
0.0
  0
LINE
  5
258
330
253
100
AcDbEntity
  8
VERMASSUNG
 62
     0
100
AcDbLine
 10
0.0
 20
0.0
 30
0.0
 11
0.0
 21
-2.5
 31
0.0
  0
LINE
  5
259
330
253
100
AcDbEntity
  8
VERMASSUNG
 62
     0
100
AcDbLine
 10
0.0
 20
0.0
 30
0.0
 11
2.5
 21
0.0
 31
0.0
  0
LINE
  5
25A
330
253
100
AcDbEntity
  8
VERMASSUNG
 62
     0
100
AcDbLine
 10
0.0
 20
5.0
 30
0.0
 11
0.0
 21
22.5
 31
0.0
  0
LINE
  5
25B
330
253
100
AcDbEntity
  8
VERMASSUNG
 62
     0
100
AcDbLine
 10
-5.0
 20
0.0
 30
0.0
 11
-22.5
 21
0.0
 31
0.0
  0
LINE
  5
25C
330
253
100
AcDbEntity
  8
VERMASSUNG
 62
     0
100
AcDbLine
 10
0.0
 20
-5.0
 30
0.0
 11
0.0
 21
-22.5
 31
0.0
  0
LINE
  5
25D
330
253
100
AcDbEntity
  8
VERMASSUNG
 62
     0
100
AcDbLine
 10
5.0
 20
0.0
 30
0.0
 11
22.5
 21
0.0
 31
0.0
  0
ENDBLK
  5
255
330
253
100
AcDbEntity
  8
0
100
AcDbBlockEnd
  0
ENDSEC
  0
SECTION
  2
ENTITIES
  0
MTEXT
  5
49
330
1F
100
AcDbEntity
  8
KOPF_DÜNN
100
AcDbMText
 10
13.8892156294
 20
23.8442973028
 30
0.0
 40
3.0
 41
0.0
 71
     1
 72
     1
  1
PS4.PDF.LHA.050
  7
SLDTEXTSTYLE0
 73
     1
 44
1.0
  0
MTEXT
  5
4A
330
1F
100
AcDbEntity
  8
VERMASSUNG
100
AcDbMText
 10
13.9329988022
 20
28.8834360957
 30
0.0
 40
3.0
 41
0.0
 71
     1
 72
     1
  1
Klemmhalter links_Turning tool left 107.5° /55°
  7
SLDTEXTSTYLE0
 73
     1
 44
1.0
  0
MTEXT
  5
4B
330
1F
100
AcDbEntity
  8
VERMASSUNG
100
AcDbMText
 10
98.8601118557
 20
13.8365368179
 30
0.0
 40
2.0
 41
0.0
 71
     1
 72
     1
  1
Datum: 02.05.2012
  7
SLDTEXTSTYLE0
 73
     1
 44
1.0
  0
MTEXT
  5
4C
330
1F
100
AcDbEntity
  8
VERMASSUNG
100
AcDbMText
 10
13.933048693
 20
18.0482802738
 30
0.0
 40
2.0
 41
0.0
 71
     1
 72
     1
  1
PSC ø40 / DN..15 06..
  7
SLDTEXTSTYLE0
 73
     1
 44
1.0
  0
MTEXT
  5
4D
330
1F
100
AcDbEntity
  8
VERMASSUNG
100
AcDbMText
 10
13.9808475933
 20
13.9090973692
 30
0.0
 40
2.0
 41
0.0
 71
     1
 72
     1
  1
Gewicht: 388g
  7
SLDTEXTSTYLE0
 73
     1
 44
1.0
  0
ARC
  5
4E
330
1F
100
AcDbEntity
  8
0
  6
Continuous
 62
     7
370
    15
100
AcDbCircle
 10
179.0602974833
 20
101.8578651009
 30
0.0
 40
0.3000000000000114
100
AcDbArc
 50
180.0
 51
270.0
  0
ARC
  5
4F
330
1F
100
AcDbEntity
  8
0
  6
Continuous
 62
     7
370
    15
100
AcDbCircle
 10
179.0602974833
 20
141.2578651009
 30
0.0
 40
0.3000000000000114
100
AcDbArc
 50
90.0
 51
180.0
  0
LINE
  5
50
330
1F
100
AcDbEntity
  8
0
  6
Continuous
 62
     7
370
    15
100
AcDbLine
 10
200.9929704953
 20
141.5578651009
 30
0.0
 11
179.0602974833
 21
141.5578651009
 31
0.0
  0
LINE
  5
51
330
1F
100
AcDbEntity
  8
0
  6
Continuous
 62
     7
370
    15
100
AcDbLine
 10
179.0602974833
 20
101.5578651009
 30
0.0
 11
200.9929704953
 21
101.5578651009
 31
0.0
  0
LWPOLYLINE
  5
52
330
1F
100
AcDbEntity
  8
0
  6
Continuous
 62
     7
370
    15
100
AcDbPolyline
 90
        3
 70
   128
 43
0.0
 10
178.5602974833
 20
107.4680448221
 10
178.6857524267
 20
107.3997427071
 10
178.7602974833
 20
107.347004949
  0
LWPOLYLINE
  5
53
330
1F
100
AcDbEntity
  8
0
  6
Continuous
 62
     7
370
    15
100
AcDbPolyline
 90
        3
 70
   128
 43
0.0
 10
178.7602974833
 20
135.7687252529
 10
178.6857524267
 20
135.7159874948
 10
178.5602974833
 20
135.6476853798
  0
ARC
  5
54
330
1F
100
AcDbEntity
  8
0
  6
Continuous
 62
     7
370
    15
100
AcDbCircle
 10
200.9929704953
 20
142.5578651009
 30
0.0
 40
1.0
100
AcDbArc
 50
270.0
 51
330.0
  0
ARC
  5
55
330
1F
100
AcDbEntity
  8
0
  6
Continuous
 62
     7
370
    15
100
AcDbCircle
 10
200.9929704953
 20
100.5578651009
 30
0.0
 40
1.0
100
AcDbArc
 50
15.0
 51
90.0
  0
LINE
  5
56
330
1F
100
AcDbEntity
  8
0
  6
Continuous
 62
     7
370
    15
100
AcDbLine
 10
213.0578971871
 20
142.0578651009
 30
0.0
 11
201.8589958991
 21
142.0578651009
 31
0.0
  0
LINE
  5
57
330
1F
100
AcDbEntity
  8
0
  6
Continuous
 62
     7
370
    15
100
AcDbLine
 10
201.9588963216
 20
100.816684146
 30
0.0
 11
201.9793046573
 21
100.7405192001
 31
0.0
  0
LINE
  5
58
330
1F
100
AcDbEntity
  8
0
  6
Continuous
 62
     7
370
    15
100
AcDbLine
 10
216.7862269808
 20
103.6421532267
 30
0.0
 11
217.1131601983
 21
103.159391622
 31
0.0
  0
LINE
  5
59
330
1F
100
AcDbEntity
  8
0
  6
Continuous
 62
     7
370
    15
100
AcDbLine
 10
224.4334505613
 20
108.745982789
 30
0.0
 11
223.7696948196
 21
109.8426081978
 31
0.0
  0
LINE
  5
5A
330
1F
100
AcDbEntity
  8
0
  6
Continuous
 62
     7
370
    15
100
AcDbLine
 10
214.0039451787
 20
99.2972015595
 30
0.0
 11
214.2653163123
 21
98.8653767055
 31
0.0
  0
LINE
  5
5B
330
1F
100
AcDbEntity
  8
0
  6
Continuous
 62
     7
370
    15
100
AcDbLine
 10
178.7602974833
 20
101.8578651009
 30
0.0
 11
178.7602974833
 21
141.2578651001
 31
0.0
  0
SPLINE
  5
5C
330
1F
100
AcDbEntity
  8
0
  6
Continuous
 62
     7
370
    15
100
AcDbSpline
210
0.0
220
0.0
230
1.0
 70
     8
 71
     3
 72
    12
 73
     8
 74
     0
 42
0.00000001
 43
0.00000001
 12
1.0
 22
0.0
 32
0.0
 13
1.0
 23
0.0
 33
0.0
 40
0.0
 40
0.0
 40
0.0
 40
0.0
 40
0.500000000000001
 40
0.500000000000001
 40
0.7500000000000004
 40
0.7500000000000004
 40
1.0
 40
1.0
 40
1.0
 40
1.0
 10
185.432391864116
 20
127.6961102279963
 30
0.0
 10
185.4510850972464
 20
127.6285275915559
 30
0.0
 10
185.4767403946582
 20
127.5620450220785
 30
0.0
 10
185.5369010173447
 20
127.473049939181
 30
0.0
 10
185.560973329099
 20
127.4450480421818
 30
0.0
 10
185.6193548494496
 20
127.4019716415166
 30
0.0
 10
185.6548236771026
 20
127.3870780965889
 30
0.0
 10
185.6921994852513
 20
127.3870780965889
 30
0.0
  0
LINE
  5
5D
330
1F
100
AcDbEntity
  8
0
  6
Continuous
 62
     7
370
    15
100
AcDbLine
 10
185.6921994853
 20
127.3870780966
 30
0.0
 11
187.8283954813
 21
127.3870780966
 31
0.0
  0
SPLINE
  5
5E
330
1F
100
AcDbEntity
  8
0
  6
Continuous
 62
     7
370
    15
100
AcDbSpline
210
0.0
220
0.0
230
1.0
 70
     8
 71
     3
 72
    12
 73
     8
 74
     0
 42
0.00000001
 43
0.00000001
 12
1.0
 22
0.0
 32
0.0
 13
1.0
 23
0.0
 33
0.0
 40
0.0
 40
0.0
 40
0.0
 40
0.0
 40
0.2499999999999997
 40
0.2499999999999997
 40
0.4999999999999994
 40
0.4999999999999994
 40
1.0
 40
1.0
 40
1.0
 40
1.0
 10
187.828395481253
 20
127.3870780965889
 30
0.0
 10
187.8659073672976
 20
127.3870780965889
 30
0.0
 10
187.9011947150024
 20
127.4018829108757
 30
0.0
 10
187.9601245632408
 20
127.4454747840015
 30
0.0
 10
187.9836502897098
 20
127.4729882100875
 30
0.0
 10
188.0439090774779
 20
127.5621199422011
 30
0.0
 10
188.0695038397673
 20
127.6285057928189
 30
0.0
 10
188.0882031023883
 20
127.6961102279963
 30
0.0
  0
ELLIPSE
  5
5F
330
1F
100
AcDbEntity
  8
0
  6
Continuous
 62
     7
370
    15
100
AcDbEllipse
 10
177.8113683108
 20
121.5578651009
 30
0.0
 11
9.367417879781698
 21
19.7417491527499
 31
0.0
210
0.0
220
0.0
230
1.0
 40
0.3419987131
 41
5.185211263708396
 42
6.13211357825256
  0
SPLINE
  5
60
330
1F
100
AcDbEntity
  8
0
  6
Continuous
 62
     7
370
    15
100
AcDbSpline
210
0.0
220
0.0
230
1.0
 70
     8
 71
     3
 72
    12
 73
     8
 74
     0
 42
0.00000001
 43
0.00000001
 12
1.0
 22
0.0
 32
0.0
 13
1.0
 23
0.0
 33
0.0
 40
0.0
 40
0.0
 40
0.0
 40
0.0
 40
0.4999999999999971
 40
0.4999999999999971
 40
0.7499999999999986
 40
0.7499999999999986
 40
1.0
 40
1.0
 40
1.0
 40
1.0
 10
188.0882031023883
 20
140.5926213841192
 30
0.0
 10
188.0695098692578
 20
140.6144151377472
 30
0.0
 10
188.0438545718461
 20
140.6354352994568
 30
0.0
 10
187.9836939491596
 20
140.6631406454206
 30
0.0
 10
187.9596216374053
 20
140.671775861614
 30
0.0
 10
187.9012401170547
 20
140.6849905068405
 30
0.0
 10
187.8657712894017
 20
140.6895214811707
 30
0.0
 10
187.828395481253
 20
140.6895214811707
 30
0.0
  0
LINE
  5
61
330
1F
100
AcDbEntity
  8
0
  6
Continuous
 62
     7
370
    15
100
AcDbLine
 10
187.8283954813
 20
140.6895214812
 30
0.0
 11
185.6921994853
 21
140.6895214812
 31
0.0
  0
SPLINE
  5
62
330
1F
100
AcDbEntity
  8
0
  6
Continuous
 62
     7
370
    15
100
AcDbSpline
210
0.0
220
0.0
230
1.0
 70
     8
 71
     3
 72
    12
 73
     8
 74
     0
 42
0.00000001
 43
0.00000001
 12
1.0
 22
0.0
 32
0.0
 13
1.0
 23
0.0
 33
0.0
 40
0.0
 40
0.0
 40
0.0
 40
0.0
 40
0.250000000000002
 40
0.250000000000002
 40
0.500000000000004
 40
0.500000000000004
 40
1.0
 40
1.0
 40
1.0
 40
1.0
 10
185.6921994852513
 20
140.6895214811707
 30
0.0
 10
185.6546875992067
 20
140.6895214811707
 30
0.0
 10
185.619400251502
 20
140.6850179369081
 30
0.0
 10
185.5604704032635
 20
140.6716447374549
 30
0.0
 10
185.5369446767945
 20
140.6631598348837
 30
0.0
 10
185.4766858890264
 20
140.6354120310492
 30
0.0
 10
185.4510911267371
 20
140.6144221673088
 30
0.0
 10
185.432391864116
 20
140.5926213841192
 30
0.0
  0
ELLIPSE
  5
63
330
1F
100
AcDbEntity
  8
0
  6
Continuous
 62
     7
370
    15
100
AcDbEllipse
 10
195.7092266557
 20
121.5578651009
 30
0.0
 11
-9.367417879781556
 21
19.74174915274993
 31
0.0
210
0.0
220
0.0
230
1.0
 40
0.3419987131
 41
0.1510717289270736
 42
1.097974043471211
  0
SPLINE
  5
64
330
1F
100
AcDbEntity
  8
0
  6
Continuous
 62
     7
370
    15
100
AcDbSpline
210
0.0
220
0.0
230
1.0
 70
     8
 71
     3
 72
    12
 73
     8
 74
     0
 42
0.00000001
 43
0.00000001
 12
1.0
 22
0.0
 32
0.0
 13
1.0
 23
0.0
 33
0.0
 40
0.0
 40
0.0
 40
0.0
 40
0.0
 40
0.5
 40
0.5
 40
0.75
 40
0.75
 40
1.0
 40
1.0
 40
1.0
 40
1.0
 10
185.432391864116
 20
102.5231088177554
 30
0.0
 10
185.4511950969677
 20
102.5011868194943
 30
0.0
 10
185.4767317559869
 20
102.4802930114844
 30
0.0
 10
185.5369579299353
 20
102.4525662853666
 30
0.0
 10
185.5608840073353
 20
102.4439931519912
 30
0.0
 10
185.6189449275166
 20
102.4308140461836
 30
0.0
 10
185.6547466261426
 20
102.426208720704
 30
0.0
 10
185.6921994852513
 20
102.426208720704
 30
0.0
  0
LINE
  5
65
330
1F
100
AcDbEntity
  8
0
  6
Continuous
 62
     7
370
    15
100
AcDbLine
 10
185.6921994853
 20
102.4262087207
 30
0.0
 11
187.8283954813
 21
102.4262087207
 31
0.0
  0
SPLINE
  5
66
330
1F
100
AcDbEntity
  8
0
  6
Continuous
 62
     7
370
    15
100
AcDbSpline
210
0.0
220
0.0
230
1.0
 70
     8
 71
     3
 72
    12
 73
     8
 74
     0
 42
0.00000001
 43
0.00000001
 12
1.0
 22
0.0
 32
0.0
 13
1.0
 23
0.0
 33
0.0
 40
0.0
 40
0.0
 40
0.0
 40
0.0
 40
0.2500000000000027
 40
0.2500000000000027
 40
0.5000000000000053
 40
0.5000000000000053
 40
1.0
 40
1.0
 40
1.0
 40
1.0
 10
187.828395481253
 20
102.426208720704
 30
0.0
 10
187.8658963041307
 20
102.426208720704
 30
0.0
 10
187.9011747081667
 20
102.4307096885671
 30
0.0
 10
187.9600924282191
 20
102.4440762097844
 30
0.0
 10
187.9836158096174
 20
102.4525574700293
 30
0.0
 10
188.0438713940834
 20
102.4802948657072
 30
0.0
 10
188.0693930464945
 20
102.5011788647602
 30
0.0
 10
188.0882031023883
 20
102.5231088177554
 30
0.0
  0
ELLIPSE
  5
67
330
1F
100
AcDbEntity
  8
0
  6
Continuous
 62
     7
370
    15
100
AcDbEllipse
 10
177.8113683108
 20
121.5578651009
 30
0.0
 11
-9.367417879781783
 21
19.74174915274993
 31
0.0
210
0.0
220
0.0
230
1.0
 40
0.3419987131
 41
3.292664382516888
 42
4.239566697060996
  0
SPLINE
  5
68
330
1F
100
AcDbEntity
  8
0
  6
Continuous
 62
     7
370
    15
100
AcDbSpline
210
0.0
220
0.0
230
1.0
 70
     8
 71
     3
 72
    12
 73
     8
 74
     0
 42
0.00000001
 43
0.00000001
 12
1.0
 22
0.0
 32
0.0
 13
1.0
 23
0.0
 33
0.0
 40
0.0
 40
0.0
 40
0.0
 40
0.0
 40
0.5
 40
0.5
 40
0.75
 40
0.75
 40
1.0
 40
1.0
 40
1.0
 40
1.0
 10
188.0882031023883
 20
115.4196199738782
 30
0.0
 10
188.0693998695366
 20
115.4876002981406
 30
0.0
 10
188.0438632105174
 20
115.5536906859374
 30
0.0
 10
187.983637036569
 20
115.6427552983846
 30
0.0
 10
187.959710959169
 20
115.6705563854045
 30
0.0
 10
187.9016500389877
 20
115.7135154586294
 30
0.0
 10
187.8658483403617
 20
115.7286521052856
 30
0.0
 10
187.828395481253
 20
115.7286521052856
 30
0.0
  0
LINE
  5
69
330
1F
100
AcDbEntity
  8
0
  6
Continuous
 62
     7
370
    15
100
AcDbLine
 10
187.8283954813
 20
115.7286521053
 30
0.0
 11
185.6921994853
 21
115.7286521053
 31
0.0
  0
SPLINE
  5
6A
330
1F
100
AcDbEntity
  8
0
  6
Continuous
 62
     7
370
    15
100
AcDbSpline
210
0.0
220
0.0
230
1.0
 70
     8
 71
     3
 72
    12
 73
     8
 74
     0
 42
0.00000001
 43
0.00000001
 12
1.0
 22
0.0
 32
0.0
 13
1.0
 23
0.0
 33
0.0
 40
0.0
 40
0.0
 40
0.0
 40
0.0
 40
0.25
 40
0.25
 40
0.5
 40
0.5
 40
1.0
 40
1.0
 40
1.0
 40
1.0
 10
185.6921994852513
 20
115.7286521052856
 30
0.0
 10
185.6546986623736
 20
115.7286521052856
 30
0.0
 10
185.6194202583376
 20
115.7138557675325
 30
0.0
 10
185.5605025382852
 20
115.6702855063734
 30
0.0
 10
185.5369791568868
 20
115.6427837078718
 30
0.0
 10
185.4767235724209
 20
115.5536845446288
 30
0.0
 10
185.4512019200098
 20
115.4876249658464
 30
0.0
 10
185.432391864116
 20
115.4196199738782
 30
0.0
  0
ELLIPSE
  5
6B
330
1F
100
AcDbEntity
  8
0
  6
Continuous
 62
     7
370
    15
100
AcDbEllipse
 10
195.7092266557
 20
121.5578651009
 30
0.0
 11
9.367417879781669
 21
19.74174915274993
 31
0.0
210
0.0
220
0.0
230
1.0
 40
0.3419987131
 41
2.043618610118598
 42
2.990520924662735
  0
SPLINE
  5
6C
330
1F
100
AcDbEntity
  8
0
  6
Continuous
 62
     7
370
    15
100
AcDbSpline
210
0.0
220
0.0
230
1.0
 70
     8
 71
     3
 72
    10
 73
     6
 74
     0
 42
0.00000001
 43
0.00000001
 12
1.0
 22
0.0
 32
0.0
 13
1.0
 23
0.0
 33
0.0
 40
0.0
 40
0.0
 40
0.0
 40
0.0
 40
0.5
 40
0.5
 40
1.0
 40
1.0
 40
1.0
 40
1.0
 10
200.6179923621142
 20
138.3038532833149
 30
0.0
 10
200.6446539325756
 20
138.363017150351
 30
0.0
 10
200.6900985309601
 20
138.4177771682383
 30
0.0
 10
200.8176182123278
 20
138.5146045954111
 30
0.0
 10
200.8979546450763
 20
138.5553005643668
 30
0.0
 10
200.9929704952731
 20
138.5860238972977
 30
0.0
  0
ELLIPSE
  5
6D
330
1F
100
AcDbEntity
  8
0
  6
Continuous
 62
     7
370
    15
100
AcDbEllipse
 10
202.724302605
 20
121.5578651009
 30
0.0
 11
0.9999649288125453
 21
19.99826732264189
 31
0.0
210
0.0
220
0.0
230
1.0
 40
0.263265937
 41
0.5916345652338068
 42
2.925350369403695
  0
SPLINE
  5
6E
330
1F
100
AcDbEntity
  8
0
  6
Continuous
 62
     7
370
    15
100
AcDbSpline
210
0.0
220
0.0
230
1.0
 70
     8
 71
     3
 72
     8
 73
     4
 74
     0
 42
0.00000001
 43
0.00000001
 12
1.0
 22
0.0
 32
0.0
 13
1.0
 23
0.0
 33
0.0
 40
0.0
 40
0.0
 40
0.0
 40
0.0
 40
1.0
 40
1.0
 40
1.0
 40
1.0
 10
200.9929704952732
 20
101.9688107867953
 30
0.0
 10
200.8031631086638
 20
101.9924093898855
 30
0.0
 10
200.6712626696936
 20
102.0326646122329
 30
0.0
 10
200.6179923621142
 20
102.08182998724
 30
0.0
  0
ELLIPSE
  5
6F
330
1F
100
AcDbEntity
  8
0
  6
Continuous
 62
     7
370
    15
100
AcDbEllipse
 10
199.5276643562
 20
112.2257592141
 30
0.0
 11
-0.07015558194842697
 21
2.493831804543646
 31
0.0
210
0.0
220
0.0
230
1.0
 40
0.2406917832
 41
0.0
 42
6.283185307179586
  0
SPLINE
  5
70
330
1F
100
AcDbEntity
  8
0
  6
Continuous
 62
     7
370
    15
100
AcDbSpline
210
0.0
220
0.0
230
1.0
 70
     8
 71
     3
 72
    18
 73
    14
 74
     0
 42
0.00000001
 43
0.00000001
 12
1.0
 22
0.0
 32
0.0
 13
1.0
 23
0.0
 33
0.0
 40
0.0
 40
0.0
 40
0.0
 40
0.0
 40
0.25
 40
0.25
 40
0.5
 40
0.5
 40
0.625
 40
0.625
 40
0.75
 40
0.75
 40
0.875
 40
0.875
 40
1.0
 40
1.0
 40
1.0
 40
1.0
 10
177.5042131656882
 20
107.7266767182585
 30
0.0
 10
177.5385099851399
 20
107.7258150627766
 30
0.0
 10
177.5763212651171
 20
107.7260666658716
 30
0.0
 10
177.6628936322971
 20
107.7284651784834
 30
0.0
 10
177.71123276238
 20
107.7306361632154
 30
0.0
 10
177.8005051197025
 20
107.7347310415106
 30
0.0
 10
177.8330465854784
 20
107.7362356594602
 30
0.0
 10
177.9092227853318
 20
107.7391987174283
 30
0.0
 10
177.9524388453264
 20
107.7406860556841
 30
0.0
 10
178.0581281472924
 20
107.7423114670078
 30
0.0
 10
178.1230992060069
 20
107.7422692259339
 30
0.0
 10
178.2567595943647
 20
107.7382470526129
 30
0.0
 10
178.316066047701
 20
107.7347058257894
 30
0.0
 10
178.3653205943768
 20
107.7311391183533
 30
0.0
  0
SPLINE
  5
71
330
1F
100
AcDbEntity
  8
0
  6
Continuous
 62
     7
370
    15
100
AcDbSpline
210
0.0
220
0.0
230
1.0
 70
     8
 71
     3
 72
    14
 73
    10
 74
     0
 42
0.00000001
 43
0.00000001
 12
1.0
 22
0.0
 32
0.0
 13
1.0
 23
0.0
 33
0.0
 40
0.0
 40
0.0
 40
0.0
 40
0.0
 40
0.1250000000000024
 40
0.1250000000000024
 40
0.2500000000000048
 40
0.2500000000000048
 40
0.5000000000000032
 40
0.5000000000000032
 40
1.0
 40
1.0
 40
1.0
 40
1.0
 10
178.365320594346
 20
107.7311391183722
 30
0.0
 10
178.3768473720634
 20
107.7303044209382
 30
0.0
 10
178.3902001797159
 20
107.728564006658
 30
0.0
 10
178.4203427523161
 20
107.7213164166577
 30
0.0
 10
178.4354032779306
 20
107.7159693824298
 30
0.0
 10
178.4707496318589
 20
107.7002221122014
 30
0.0
 10
178.4844817315878
 20
107.6903838380401
 30
0.0
 10
178.5178529772789
 20
107.6641798520896
 30
0.0
 10
178.5287933451329
 20
107.650091950689
 30
0.0
 10
178.5374464701462
 20
107.6373183272007
 30
0.0
  0
LINE
  5
72
330
1F
100
AcDbEntity
  8
0
  6
Continuous
 62
     7
370
    15
100
AcDbLine
 10
178.5602974833
 20
116.052420334
 30
0.0
 11
178.5602974833
 21
107.4680448221
 31
0.0
  0
SPLINE
  5
73
330
1F
100
AcDbEntity
  8
0
  6
Continuous
 62
     7
370
    15
100
AcDbSpline
210
0.0
220
0.0
230
1.0
 70
     8
 71
     3
 72
    16
 73
    12
 74
     0
 42
0.00000001
 43
0.00000001
 12
1.0
 22
0.0
 32
0.0
 13
1.0
 23
0.0
 33
0.0
 40
0.0
 40
0.0
 40
0.0
 40
0.0
 40
0.4999999999999968
 40
0.4999999999999968
 40
0.7499999999999961
 40
0.7499999999999961
 40
0.8749999999999981
 40
0.8749999999999981
 40
0.9374999999999991
 40
0.9374999999999991
 40
1.0
 40
1.0
 40
1.0
 40
1.0
 10
178.5602974832521
 20
116.0524203339744
 30
0.0
 10
178.5602974832521
 20
116.1699957149939
 30
0.0
 10
178.5564140580932
 20
116.2886914680952
 30
0.0
 10
178.5315987328185
 20
116.4694489460877
 30
0.0
 10
178.520759285106
 20
116.5310930228606
 30
0.0
 10
178.4875435030572
 20
116.6204299972019
 30
0.0
 10
178.4741617594285
 20
116.650689528627
 30
0.0
 10
178.4386521095662
 20
116.6842057726145
 30
0.0
 10
178.4232351430654
 20
116.6923441184206
 30
0.0
 10
178.3915341209168
 20
116.6923287089892
 30
0.0
 10
178.377387835966
 20
116.6852864716333
 30
0.0
 10
178.3653205943764
 20
116.6761454080237
 30
0.0
  0
SPLINE
  5
74
330
1F
100
AcDbEntity
  8
0
  6
Continuous
 62
     7
370
    15
100
AcDbSpline
210
0.0
220
0.0
230
1.0
 70
     8
 71
     3
 72
    18
 73
    14
 74
     0
 42
0.00000001
 43
0.00000001
 12
1.0
 22
0.0
 32
0.0
 13
1.0
 23
0.0
 33
0.0
 40
0.0
 40
0.0
 40
0.0
 40
0.0
 40
0.1250000000000004
 40
0.1250000000000004
 40
0.2500000000000007
 40
0.2500000000000007
 40
0.3750000000000011
 40
0.3750000000000011
 40
0.5000000000000014
 40
0.5000000000000014
 40
0.7500000000000007
 40
0.7500000000000007
 40
1.0
 40
1.0
 40
1.0
 40
1.0
 10
178.3653205943825
 20
116.6761454080165
 30
0.0
 10
178.3166160106946
 20
116.6392511688259
 30
0.0
 10
178.2581075279191
 20
116.6097198644
 30
0.0
 10
178.1263807126493
 20
116.6004838911212
 30
0.0
 10
178.0616226411518
 20
116.6235470656781
 30
0.0
 10
177.9564120390011
 20
116.6910651873255
 30
0.0
 10
177.9131958904809
 20
116.7340762839761
 30
0.0
 10
177.837017574397
 20
116.8243183059722
 30
0.0
 10
177.8041627421058
 20
116.8719491874475
 30
0.0
 10
177.7137948361448
 20
117.019013486797
 30
0.0
 10
177.6643721783053
 20
117.1229268121016
 30
0.0
 10
177.5767210527136
 20
117.3340607757419
 30
0.0
 10
177.5386595053231
 20
117.4417835205007
 30
0.0
 10
177.5042131656892
 20
117.5511166364101
 30
0.0
  0
SPLINE
  5
75
330
1F
100
AcDbEntity
  8
0
  6
Continuous
 62
     7
370
    15
100
AcDbSpline
210
0.0
220
0.0
230
1.0
 70
     8
 71
     3
 72
     8
 73
     4
 74
     0
 42
0.00000001
 43
0.00000001
 12
1.0
 22
0.0
 32
0.0
 13
1.0
 23
0.0
 33
0.0
 40
0.0
 40
0.0
 40
0.0
 40
0.0
 40
1.0
 40
1.0
 40
1.0
 40
1.0
 10
177.4389771396924
 20
117.7863204105389
 30
0.0
 10
177.4584033449914
 20
117.7067281389661
 30
0.0
 10
177.4799001694198
 20
117.6282863928334
 30
0.0
 10
177.5042131656892
 20
117.5511166364101
 30
0.0
  0
SPLINE
  5
76
330
1F
100
AcDbEntity
  8
0
  6
Continuous
 62
     7
370
    15
100
AcDbSpline
210
0.0
220
0.0
230
1.0
 70
     8
 71
     3
 72
     8
 73
     4
 74
     0
 42
0.00000001
 43
0.00000001
 12
1.0
 22
0.0
 32
0.0
 13
1.0
 23
0.0
 33
0.0
 40
0.0
 40
0.0
 40
0.0
 40
0.0
 40
1.0
 40
1.0
 40
1.0
 40
1.0
 10
177.5042131656892
 20
125.5646135654646
 30
0.0
 10
177.4799001694198
 20
125.4874438090413
 30
0.0
 10
177.4584033449914
 20
125.4090020629086
 30
0.0
 10
177.4389771396924
 20
125.3294097913358
 30
0.0
  0
SPLINE
  5
77
330
1F
100
AcDbEntity
  8
0
  6
Continuous
 62
     7
370
    15
100
AcDbSpline
210
0.0
220
0.0
230
1.0
 70
     8
 71
     3
 72
    18
 73
    14
 74
     0
 42
0.00000001
 43
0.00000001
 12
1.0
 22
0.0
 32
0.0
 13
1.0
 23
0.0
 33
0.0
 40
0.0
 40
0.0
 40
0.0
 40
0.0
 40
0.2500000000000007
 40
0.2500000000000007
 40
0.5000000000000013
 40
0.5000000000000013
 40
0.625000000000001
 40
0.625000000000001
 40
0.7500000000000007
 40
0.7500000000000007
 40
0.8750000000000003
 40
0.8750000000000003
 40
1.0
 40
1.0
 40
1.0
 40
1.0
 10
177.5042131656892
 20
125.5646135654646
 30
0.0
 10
177.5385114847018
 20
125.6734768620577
 30
0.0
 10
177.5763258820138
 20
125.780484285294
 30
0.0
 10
177.6629139430874
 20
125.9895191094323
 30
0.0
 10
177.711264048766
 20
126.0916892034218
 30
0.0
 10
177.8005806375658
 20
126.2383699749866
 30
0.0
 10
177.8331409930541
 20
126.2861716735221
 30
0.0
 10
177.909386626783
 20
126.3777272115475
 30
0.0
 10
177.952545996563
 20
126.4214066035395
 30
0.0
 10
178.0582748205811
 20
126.490760820866
 30
0.0
 10
178.1232719976358
 20
126.514877134532
 30
0.0
 10
178.25675648759
 20
126.5066729124937
 30
0.0
 10
178.3160838810355
 20
126.4768821269018
 30
0.0
 10
178.3653205943769
 20
126.4395847938507
 30
0.0
  0
SPLINE
  5
78
330
1F
100
AcDbEntity
  8
0
  6
Continuous
 62
     7
370
    15
100
AcDbSpline
210
0.0
220
0.0
230
1.0
 70
     8
 71
     3
 72
    16
 73
    12
 74
     0
 42
0.00000001
 43
0.00000001
 12
1.0
 22
0.0
 32
0.0
 13
1.0
 23
0.0
 33
0.0
 40
0.0
 40
0.0
 40
0.0
 40
0.0
 40
0.0624999999999994
 40
0.0624999999999994
 40
0.1249999999999989
 40
0.1249999999999989
 40
0.2500000000000001
 40
0.2500000000000001
 40
0.5000000000000011
 40
0.5000000000000011
 40
1.0
 40
1.0
 40
1.0
 40
1.0
 10
178.3653205943461
 20
126.4395847938024
 30
0.0
 10
178.3773904276219
 20
126.4304417669566
 30
0.0
 10
178.3916660825552
 20
126.4233973192653
 30
0.0
 10
178.4231304946796
 20
126.4233902473667
 30
0.0
 10
178.43863101949
 20
126.4315182161637
 30
0.0
 10
178.4740699160969
 20
126.4649266771709
 30
0.0
 10
178.4876625322003
 20
126.495593843633
 30
0.0
 10
178.5206568505931
 20
126.5844148377148
 30
0.0
 10
178.5314442439119
 20
126.6453174832627
 30
0.0
 10
178.556497491191
 20
126.827325560641
 30
0.0
 10
178.5602974832522
 20
126.9460142756797
 30
0.0
 10
178.5602974832523
 20
127.0633098679002
 30
0.0
  0
LINE
  5
79
330
1F
100
AcDbEntity
  8
0
  6
Continuous
 62
     7
370
    15
100
AcDbLine
 10
178.5602974833
 20
135.6476853798
 30
0.0
 11
178.5602974833
 21
127.0633098679
 31
0.0
  0
SPLINE
  5
7A
330
1F
100
AcDbEntity
  8
0
  6
Continuous
 62
     7
370
    15
100
AcDbSpline
210
0.0
220
0.0
230
1.0
 70
     8
 71
     3
 72
    12
 73
     8
 74
     0
 42
0.00000001
 43
0.00000001
 12
1.0
 22
0.0
 32
0.0
 13
1.0
 23
0.0
 33
0.0
 40
0.0
 40
0.0
 40
0.0
 40
0.0
 40
0.4999999999999951
 40
0.4999999999999951
 40
0.7499999999999976
 40
0.7499999999999976
 40
1.0
 40
1.0
 40
1.0
 40
1.0
 10
178.5199581533845
 20
135.4564726038081
 30
0.0
 10
178.5098353013034
 20
135.4455388591704
 30
0.0
 10
178.4974725169573
 20
135.4334735723479
 30
0.0
 10
178.462637913784
 20
135.4121242320037
 30
0.0
 10
178.447280692541
 20
135.4039045557746
 30
0.0
 10
178.4046116504012
 20
135.3895652561451
 30
0.0
 10
178.3821874360414
 20
135.3858124751218
 30
0.0
 10
178.3653205943764
 20
135.3845910835214
 30
0.0
  0
SPLINE
  5
7B
330
1F
100
AcDbEntity
  8
0
  6
Continuous
 62
     7
370
    15
100
AcDbSpline
210
0.0
220
0.0
230
1.0
 70
     8
 71
     3
 72
    18
 73
    14
 74
     0
 42
0.00000001
 43
0.00000001
 12
1.0
 22
0.0
 32
0.0
 13
1.0
 23
0.0
 33
0.0
 40
0.0
 40
0.0
 40
0.0
 40
0.0
 40
0.1250000000000002
 40
0.1250000000000002
 40
0.2500000000000003
 40
0.2500000000000003
 40
0.3750000000000005
 40
0.3750000000000005
 40
0.5000000000000007
 40
0.5000000000000007
 40
0.7500000000000003
 40
0.7500000000000003
 40
1.0
 40
1.0
 40
1.0
 40
1.0
 10
178.3653205943826
 20
135.3845910835213
 30
0.0
 10
178.3166164653658
 20
135.3810642339031
 30
0.0
 10
178.2581087961613
 20
135.3775639607054
 30
0.0
 10
178.1263831335304
 20
135.3735209768175
 30
0.0
 10
178.0616254949101
 20
135.3734094021869
 30
0.0
 10
177.956415078291
 20
135.3749415869484
 30
0.0
 10
177.9131990433508
 20
135.3763967391635
 30
0.0
 10
177.8370208218698
 20
135.3793220006932
 30
0.0
 10
177.8041660541857
 20
135.3808323312014
 30
0.0
 10
177.7137983353439
 20
135.3849743238898
 30
0.0
 10
177.6643759661545
 20
135.3872124088763
 30
0.0
 10
177.5767235040665
 20
135.3896636919228
 30
0.0
 10
177.538660767832
 20
135.3899189272838
 30
0.0
 10
177.5042131656886
 20
135.3890534836159
 30
0.0
  0
SPLINE
  5
7C
330
1F
100
AcDbEntity
  8
0
  6
Continuous
 62
     7
370
    15
100
AcDbSpline
210
0.0
220
0.0
230
1.0
 70
     8
 71
     3
 72
     8
 73
     4
 74
     0
 42
0.00000001
 43
0.00000001
 12
1.0
 22
0.0
 32
0.0
 13
1.0
 23
0.0
 33
0.0
 40
0.0
 40
0.0
 40
0.0
 40
0.0
 40
1.0
 40
1.0
 40
1.0
 40
1.0
 10
177.2652575053129
 20
118.6113742965735
 30
0.0
 10
177.3159845880353
 20
118.3280231752544
 30
0.0
 10
177.3738719010223
 20
118.0530669911146
 30
0.0
 10
177.4389771396925
 20
117.786320410539
 30
0.0
  0
SPLINE
  5
7D
330
1F
100
AcDbEntity
  8
0
  6
Continuous
 62
     7
370
    15
100
AcDbSpline
210
0.0
220
0.0
230
1.0
 70
     8
 71
     3
 72
    24
 73
    20
 74
     0
 42
0.00000001
 43
0.00000001
 12
1.0
 22
0.0
 32
0.0
 13
1.0
 23
0.0
 33
0.0
 40
0.0
 40
0.0
 40
0.0
 40
0.0
 40
0.2499999999999958
 40
0.2499999999999958
 40
0.3749999999999939
 40
0.3749999999999939
 40
0.4374999999999931
 40
0.4374999999999931
 40
0.4687499999999922
 40
0.4687499999999922
 40
0.4999999999999913
 40
0.4999999999999913
 40
0.5624999999999926
 40
0.5624999999999926
 40
0.6249999999999937
 40
0.6249999999999937
 40
0.7499999999999961
 40
0.7499999999999961
 40
1.0
 40
1.0
 40
1.0
 40
1.0
 10
177.0602974832439
 20
118.6116667048668
 30
0.0
 10
177.0607005126178
 20
118.7049349974964
 30
0.0
 10
177.0627302523329
 20
118.7986925563454
 30
0.0
 10
177.0720389637527
 20
118.9402824419849
 30
0.0
 10
177.0759649568673
 20
118.9874628605942
 30
0.0
 10
177.0868943167833
 20
119.0580589072796
 30
0.0
 10
177.0910159448776
 20
119.0818388210443
 30
0.0
 10
177.10291046606
 20
119.1152899680915
 30
0.0
 10
177.1081972780138
 20
119.1274449201611
 30
0.0
 10
177.1247652095287
 20
119.1353275591291
 30
0.0
 10
177.132691918296
 20
119.1277639600271
 30
0.0
 10
177.1496842565212
 20
119.1039715288004
 30
0.0
 10
177.1570819573122
 20
119.0837830509559
 30
0.0
 10
177.171184347654
 20
119.0433334263361
 30
0.0
 10
177.1773375049463
 20
119.0224777519386
 30
0.0
 10
177.1946512384073
 20
118.9593527166376
 30
0.0
 10
177.2046562792959
 20
118.9163736047361
 30
0.0
 10
177.2330127355266
 20
118.7866479604472
 30
0.0
 10
177.2495612748729
 20
118.6990502333113
 30
0.0
 10
177.2652575053129
 20
118.6113742965735
 30
0.0
  0
SPLINE
  5
7E
330
1F
100
AcDbEntity
  8
0
  6
Continuous
 62
     7
370
    15
100
AcDbSpline
210
0.0
220
0.0
230
1.0
 70
     8
 71
     3
 72
    16
 73
    12
 74
     0
 42
0.00000001
 43
0.00000001
 12
1.0
 22
0.0
 32
0.0
 13
1.0
 23
0.0
 33
0.0
 40
0.0
 40
0.0
 40
0.0
 40
0.0
 40
0.2499999999999999
 40
0.2499999999999999
 40
0.3749999999999999
 40
0.3749999999999999
 40
0.5
 40
0.5
 40
0.75
 40
0.75
 40
1.0
 40
1.0
 40
1.0
 40
1.0
 10
177.0602974832521
 20
124.5040634970067
 30
0.0
 10
176.9797606738566
 20
124.0349906701436
 30
0.0
 10
176.9197232650544
 20
123.5546270199636
 30
0.0
 10
176.8589853178072
 20
122.8174427408227
 30
0.0
 10
176.8436628367643
 20
122.5689243375956
 30
0.0
 10
176.8230798849864
 20
122.0661408923819
 30
0.0
 10
176.8178803379498
 20
121.8112823393573
 30
0.0
 10
176.8178266274096
 20
121.0550049996365
 30
0.0
 10
176.8380239646787
 20
120.5563468003267
 30
0.0
 10
176.9187022717517
 20
119.5699238295824
 30
0.0
 10
176.979748620093
 20
119.0808097368095
 30
0.0
 10
177.0602974832521
 20
118.611666704868
 30
0.0
  0
SPLINE
  5
7F
330
1F
100
AcDbEntity
  8
0
  6
Continuous
 62
     7
370
    15
100
AcDbSpline
210
0.0
220
0.0
230
1.0
 70
     8
 71
     3
 72
    24
 73
    20
 74
     0
 42
0.00000001
 43
0.00000001
 12
1.0
 22
0.0
 32
0.0
 13
1.0
 23
0.0
 33
0.0
 40
0.0
 40
0.0
 40
0.0
 40
0.0
 40
0.249999999999998
 40
0.249999999999998
 40
0.3749999999999979
 40
0.3749999999999979
 40
0.4374999999999973
 40
0.4374999999999973
 40
0.4999999999999967
 40
0.4999999999999967
 40
0.5312499999999963
 40
0.5312499999999963
 40
0.5624999999999959
 40
0.5624999999999959
 40
0.6249999999999963
 40
0.6249999999999963
 40
0.7499999999999972
 40
0.7499999999999972
 40
1.0
 40
1.0
 40
1.0
 40
1.0
 10
177.2652575053079
 20
124.504355905273
 30
0.0
 10
177.2494884603984
 20
124.4162732417845
 30
0.0
 10
177.232874295838
 20
124.3283284252774
 30
0.0
 10
177.2043421683447
 20
124.1979810580181
 30
0.0
 10
177.1942545347908
 20
124.1547198802172
 30
0.0
 10
177.1767667119417
 20
124.0912841043839
 30
0.0
 10
177.1705569040152
 20
124.0703699808409
 30
0.0
 10
177.1562790444323
 20
124.0298951891577
 30
0.0
 10
177.1487078820804
 20
124.0094175456988
 30
0.0
 10
177.131288056903
 20
123.9865711661673
 30
0.0
 10
177.122803974445
 20
123.9800193691309
 30
0.0
 10
177.106767900832
 20
123.9905907443717
 30
0.0
 10
177.1019475285563
 20
124.0026817846548
 30
0.0
 10
177.0905406279534
 20
124.0363250278745
 30
0.0
 10
177.0865196662442
 20
124.0597327071707
 30
0.0
 10
177.0757656544662
 20
124.1303213102301
 30
0.0
 10
177.0718937688437
 20
124.1772863377512
 30
0.0
 10
177.0627258040434
 20
124.3178632023535
 30
0.0
 10
177.0606974695303
 20
124.4114994319706
 30
0.0
 10
177.0602974832521
 20
124.5040634970067
 30
0.0
  0
SPLINE
  5
80
330
1F
100
AcDbEntity
  8
0
  6
Continuous
 62
     7
370
    15
100
AcDbSpline
210
0.0
220
0.0
230
1.0
 70
     8
 71
     3
 72
     8
 73
     4
 74
     0
 42
0.00000001
 43
0.00000001
 12
1.0
 22
0.0
 32
0.0
 13
1.0
 23
0.0
 33
0.0
 40
0.0
 40
0.0
 40
0.0
 40
0.0
 40
1.0
 40
1.0
 40
1.0
 40
1.0
 10
177.4389771396925
 20
125.3294097913357
 30
0.0
 10
177.3738719010202
 20
125.0626632107514
 30
0.0
 10
177.3159845880314
 20
124.7877070266022
 30
0.0
 10
177.2652575053078
 20
124.5043559052731
 30
0.0
  0
LINE
  5
81
330
1F
100
AcDbEntity
  8
0
  6
Continuous
 62
     7
370
    15
100
AcDbLine
 10
177.0602974833
 20
118.6116667049
 30
0.0
 11
177.0602974833
 21
117.4566614355
 31
0.0
  0
LINE
  5
82
330
1F
100
AcDbEntity
  8
0
  6
Continuous
 62
     7
370
    15
100
AcDbLine
 10
156.2602974833
 20
125.397784567
 30
0.0
 11
156.2602974833
 21
117.7179456348
 31
0.0
  0
LINE
  5
83
330
1F
100
AcDbEntity
  8
0
  6
Continuous
 62
     7
370
    15
100
AcDbLine
 10
177.0602974833
 20
125.6590687664
 30
0.0
 11
177.0602974833
 21
124.504063497
 31
0.0
  0
LINE
  5
84
330
1F
100
AcDbEntity
  8
0
  6
Continuous
 62
     7
370
    15
100
AcDbLine
 10
154.7602974833
 20
124.9647718652
 30
0.0
 11
154.7602974833
 21
118.1509583367
 31
0.0
  0
LINE
  5
85
330
1F
100
AcDbEntity
  8
0
  6
Continuous
 62
     7
370
    15
100
AcDbLine
 10
177.2652575053
 20
135.3830500857
 30
0.0
 11
177.5042131657
 21
135.3890534836
 31
0.0
  0
LINE
  5
86
330
1F
100
AcDbEntity
  8
0
  6
Continuous
 62
     7
370
    15
100
AcDbLine
 10
156.2602974833
 20
108.0603347151
 30
0.0
 11
156.2602974833
 21
117.7179456348
 31
0.0
  0
LINE
  5
87
330
1F
100
AcDbEntity
  8
0
  6
Continuous
 62
     7
370
    15
100
AcDbLine
 10
177.0602974833
 20
107.5377663164
 30
0.0
 11
177.0602974833
 21
117.4566614355
 31
0.0
  0
LINE
  5
88
330
1F
100
AcDbEntity
  8
0
  6
Continuous
 62
     7
370
    15
100
AcDbLine
 10
156.2602974833
 20
108.0603347151
 30
0.0
 11
177.0602974833
 21
107.5377663164
 31
0.0
  0
ARC
  5
89
330
1F
100
AcDbEntity
  8
0
  6
Continuous
 62
     7
370
    15
100
AcDbCircle
 10
177.2602343942
 20
107.5327432052
 30
0.0
 40
0.2000000000000063
100
AcDbArc
 50
88.5608333333
 51
178.5608333333
  0
LINE
  5
8A
330
1F
100
AcDbEntity
  8
0
  6
Continuous
 62
     7
370
    15
100
AcDbLine
 10
177.0602974833
 20
125.6590687664
 30
0.0
 11
177.0602974833
 21
135.5779638855
 31
0.0
  0
ARC
  5
8B
330
1F
100
AcDbEntity
  8
0
  6
Continuous
 62
     7
370
    15
100
AcDbCircle
 10
177.2602343942
 20
135.5829869966
 30
0.0
 40
0.2000000000000066
100
AcDbArc
 50
181.4391666667
 51
271.4391666667
  0
LINE
  5
8C
330
1F
100
AcDbEntity
  8
0
  6
Continuous
 62
     7
370
    15
100
AcDbLine
 10
156.2602974833
 20
125.397784567
 30
0.0
 11
156.2602974833
 21
135.0553954868
 31
0.0
  0
LINE
  5
8D
330
1F
100
AcDbEntity
  8
0
  6
Continuous
 62
     7
370
    15
100
AcDbLine
 10
156.2602974833
 20
135.0553954868
 30
0.0
 11
177.0602974833
 21
135.5779638855
 31
0.0
  0
LINE
  5
8E
330
1F
100
AcDbEntity
  8
0
  6
Continuous
 62
     7
370
    15
100
AcDbLine
 10
177.2652575053
 20
107.7326801162
 30
0.0
 11
177.5042131657
 21
107.7266767183
 31
0.0
  0
LINE
  5
8F
330
1F
100
AcDbEntity
  8
0
  6
Continuous
 62
     7
370
    15
100
AcDbLine
 10
154.7602974833
 20
108.9263601189
 30
0.0
 11
156.2602974833
 21
108.0603347151
 31
0.0
  0
LINE
  5
90
330
1F
100
AcDbEntity
  8
0
  6
Continuous
 62
     7
370
    15
100
AcDbLine
 10
154.7602974833
 20
108.9263601189
 30
0.0
 11
154.7602974833
 21
118.1509583367
 31
0.0
  0
LINE
  5
91
330
1F
100
AcDbEntity
  8
0
  6
Continuous
 62
     7
370
    15
100
AcDbLine
 10
154.7602974833
 20
134.189370083
 30
0.0
 11
156.2602974833
 21
135.0553954868
 31
0.0
  0
LINE
  5
92
330
1F
100
AcDbEntity
  8
0
  6
Continuous
 62
     7
370
    15
100
AcDbLine
 10
154.7602974833
 20
124.9647718652
 30
0.0
 11
154.7602974833
 21
134.189370083
 31
0.0
  0
SPLINE
  5
93
330
1F
100
AcDbEntity
  8
0
  6
Continuous
 62
     7
370
    15
100
AcDbSpline
210
0.0
220
0.0
230
1.0
 70
     8
 71
     3
 72
     8
 73
     4
 74
     0
 42
0.00000001
 43
0.00000001
 12
1.0
 22
0.0
 32
0.0
 13
1.0
 23
0.0
 33
0.0
 40
0.0
 40
0.0
 40
0.0
 40
0.0
 40
1.0
 40
1.0
 40
1.0
 40
1.0
 10
200.9929704952732
 20
138.5860238972977
 30
0.0
 10
201.0919074781367
 20
138.6180151267337
 30
0.0
 10
201.1995348099292
 20
138.6525801289451
 30
0.0
 10
201.3071102525313
 20
138.696493487082
 30
0.0
  0
SPLINE
  5
94
330
1F
100
AcDbEntity
  8
0
  6
Continuous
 62
     7
370
    15
100
AcDbSpline
210
0.0
220
0.0
230
1.0
 70
     8
 71
     3
 72
     8
 73
     4
 74
     0
 42
0.00000001
 43
0.00000001
 12
1.0
 22
0.0
 32
0.0
 13
1.0
 23
0.0
 33
0.0
 40
0.0
 40
0.0
 40
0.0
 40
0.0
 40
1.0
 40
1.0
 40
1.0
 40
1.0
 10
201.3071102525313
 20
101.8935953182776
 30
0.0
 10
201.1995449466225
 20
101.9335781555316
 30
0.0
 10
201.0919267926629
 20
101.9565076281719
 30
0.0
 10
200.9929704952731
 20
101.9688107867954
 30
0.0
  0
LINE
  5
95
330
1F
100
AcDbEntity
  8
0
  6
Continuous
 62
     7
370
    15
100
AcDbLine
 10
201.8589958991
 20
139.2022416956
 30
0.0
 11
201.8589958991
 21
142.0578651009
 31
0.0
  0
SPLINE
  5
96
330
1F
100
AcDbEntity
  8
0
  6
Continuous
 62
     7
370
    15
100
AcDbSpline
210
0.0
220
0.0
230
1.0
 70
     8
 71
     3
 72
     8
 73
     4
 74
     0
 42
0.00000001
 43
0.00000001
 12
1.0
 22
0.0
 32
0.0
 13
1.0
 23
0.0
 33
0.0
 40
0.0
 40
0.0
 40
0.0
 40
0.0
 40
1.0
 40
1.0
 40
1.0
 40
1.0
 10
201.3071102525313
 20
138.6964934870821
 30
0.0
 10
201.5440259511796
 20
138.7932048151634
 30
0.0
 10
201.7400514832961
 20
138.9786887507529
 30
0.0
 10
201.8589958990576
 20
139.2022416956486
 30
0.0
  0
SPLINE
  5
97
330
1F
100
AcDbEntity
  8
0
  6
Continuous
 62
     7
370
    15
100
AcDbSpline
210
0.0
220
0.0
230
1.0
 70
     8
 71
     3
 72
    12
 73
     8
 74
     0
 42
0.00000001
 43
0.00000001
 12
1.0
 22
0.0
 32
0.0
 13
1.0
 23
0.0
 33
0.0
 40
0.0
 40
0.0
 40
0.0
 40
0.0
 40
0.2500000000000003
 40
0.2500000000000003
 40
0.5000000000000006
 40
0.5000000000000006
 40
1.0
 40
1.0
 40
1.0
 40
1.0
 10
201.9588963215622
 20
101.1524418575895
 30
0.0
 10
201.9376916124219
 20
101.2359762703735
 30
0.0
 10
201.9072539024033
 20
101.3155891678639
 30
0.0
 10
201.8287611005919
 20
101.4664757260155
 30
0.0
 10
201.7799481757054
 20
101.538430199096
 30
0.0
 10
201.6126874220446
 20
101.7309021632184
 30
0.0
 10
201.4692360216878
 20
101.8333319444315
 30
0.0
 10
201.3071102525313
 20
101.8935953182776
 30
0.0
  0
LWPOLYLINE
  5
98
330
1F
100
AcDbEntity
  8
0
  6
Continuous
 62
     7
370
    15
100
AcDbPolyline
 90
       37
 70
   128
 43
0.0
 10
213.4549530201
 20
121.4232048186
 10
214.0593922219
 20
121.3818714854
 10
214.6454658443
 20
121.2370639462
 10
215.195366337
 20
120.993182105
 10
215.6923852518
 20
120.6576361879
 10
216.1214209204
 20
120.240621588
 10
216.4694373112
 20
119.7548090827
 10
216.7258601221
 20
119.2149598393
 10
216.882898076
 20
118.6374769039
 10
216.9357796539
 20
118.0399068032
 10
216.882898076
 20
117.4404064023
 10
216.7258601221
 20
116.8571912175
 10
216.4694373112
 20
116.3079819472
 10
216.1214209204
 20
115.809466037
 10
215.6923852518
 20
115.3767906407
 10
215.195366337
 20
115.0231023813
 10
214.6454658443
 20
114.7591478974
 10
214.0593922219
 20
114.5929473126
 10
213.4549530201
 20
114.5295505475
 10
212.8505138184
 20
114.5708838808
 10
212.2644401959
 20
114.7156914199
 10
211.7145397032
 20
114.9595732612
 10
211.2175207885
 20
115.2951191783
 10
210.7884851199
 20
115.7121337782
 10
210.4404687291
 20
116.1979462835
 10
210.1840459181
 20
116.7377955268
 10
210.0270079643
 20
117.3152784623
 10
209.9741263863
 20
117.912848563
 10
210.0270079643
 20
118.5123489639
 10
210.1840459181
 20
119.0955641487
 10
210.4404687291
 20
119.644773419
 10
210.7884851199
 20
120.1432893291
 10
211.2175207885
 20
120.5759647254
 10
211.7145397032
 20
120.9296529849
 10
212.2644401959
 20
121.1936074687
 10
212.8505138184
 20
121.3598080535
 10
213.4549530201
 20
121.4232048186
  0
SPLINE
  5
99
330
1F
100
AcDbEntity
  8
0
  6
Continuous
 62
     7
370
    15
100
AcDbSpline
210
0.0
220
0.0
230
1.0
 70
     8
 71
     3
 72
     8
 73
     4
 74
     0
 42
0.00000001
 43
0.00000001
 12
1.0
 22
0.0
 32
0.0
 13
1.0
 23
0.0
 33
0.0
 40
0.0
 40
0.0
 40
0.0
 40
0.0
 40
1.0
 40
1.0
 40
1.0
 40
1.0
 10
202.2211076145184
 20
100.1231669770348
 30
0.0
 10
202.1334250234582
 20
100.4661831782757
 30
0.0
 10
202.0460081196905
 20
100.809271250766
 30
0.0
 10
201.9588963215622
 20
101.1524418575895
 30
0.0
  0
ELLIPSE
  5
9A
330
1F
100
AcDbEntity
  8
0
  6
Continuous
 62
     7
370
    15
100
AcDbEllipse
 10
270.4983711398
 20
121.5578651009
 30
0.0
 11
195.0441159362921
 21
3.598319842585183
 31
0.0
210
0.0
220
0.0
230
1.0
 40
0.1034726254
 41
1.861547295108006
 42
1.92850522171807
  0
LINE
  5
9B
330
1F
100
AcDbEntity
  8
0
  6
Continuous
 62
     7
370
    15
100
AcDbLine
 10
214.2280314957
 20
139.8610051861
 30
0.0
 11
223.9152417937
 21
109.0491598413
 31
0.0
  0
LINE
  5
9C
330
1F
100
AcDbEntity
  8
0
  6
Continuous
 62
     7
370
    15
100
AcDbLine
 10
223.9152417937
 20
109.0491598413
 30
0.0
 11
209.5057831427
 21
113.3673527938
 31
0.0
  0
ARC
  5
9D
330
1F
100
AcDbEntity
  8
0
  6
Continuous
 62
     7
370
    15
100
AcDbCircle
 10
208.8710581451
 20
111.385406668
 30
0.0
 40
2.081102176307278
100
AcDbArc
 50
72.2421588933
 51
252.0270386975
  0
LINE
  5
9E
330
1F
100
AcDbEntity
  8
0
  6
Continuous
 62
     7
370
    15
100
AcDbLine
 10
208.2288963115
 20
109.4058576164
 30
0.0
 11
211.2047000536
 21
108.5140756933
 31
0.0
  0
LINE
  5
9F
330
1F
100
AcDbEntity
  8
0
  6
Continuous
 62
     7
370
    15
100
AcDbLine
 10
211.2047000536
 20
108.5140756933
 30
0.0
 11
214.1127241169
 21
99.264602941
 31
0.0
  0
LINE
  5
A0
330
1F
100
AcDbEntity
  8
0
  6
Continuous
 62
     7
370
    15
100
AcDbLine
 10
214.1127241169
 20
99.264602941
 30
0.0
 11
213.2503834661
 21
99.5230271755
 31
0.0
  0
ARC
  5
A1
330
1F
100
AcDbEntity
  8
0
  6
Continuous
 62
     7
370
    15
100
AcDbCircle
 10
208.3990134088
 20
83.305351239
 30
0.0
 40
16.92775248555899
100
AcDbArc
 50
73.3459253563
 51
91.0729574473
  0
LINE
  5
A2
330
1F
100
AcDbEntity
  8
0
  6
Continuous
 62
     7
370
    15
100
AcDbLine
 10
208.0820320065
 20
100.2301356395
 30
0.0
 11
202.2211076145
 21
100.123166977
 31
0.0
  0
ELLIPSE
  5
A3
330
1F
100
AcDbEntity
  8
0
  6
Continuous
 62
     7
370
    15
100
AcDbEllipse
 10
219.7158723346
 20
121.5578651009
 30
0.0
 11
-6.672029803933612
 21
20.49782756633783
 31
0.0
210
0.0
220
0.0
230
1.0
 40
0.0447296713
 41
5.801434024697499
 42
6.268626856334468
  0
LWPOLYLINE
  5
A4
330
1F
100
AcDbEntity
  8
0
  6
Continuous
 62
     7
370
    15
100
AcDbPolyline
 90
        3
 70
   128
 43
0.0
 10
207.2651438802
 20
110.9981231707
 10
206.8386640159
 20
111.1803881122
 10
206.7833348602
 20
111.2130157027
  0
LINE
  5
A5
330
1F
100
AcDbEntity
  8
0
  6
Continuous
 62
     7
370
    15
100
AcDbLine
 10
210.2409476222
 20
110.1063412476
 30
0.0
 11
207.2651438802
 21
110.9981231707
 31
0.0
  0
LINE
  5
A6
330
1F
100
AcDbEntity
  8
0
  6
Continuous
 62
     7
370
    15
100
AcDbLine
 10
210.2409476222
 20
110.1063412476
 30
0.0
 11
211.2047000536
 21
108.5140756933
 31
0.0
  0
SPLINE
  5
A7
330
1F
100
AcDbEntity
  8
0
  6
Continuous
 62
     7
370
    15
100
AcDbSpline
210
0.0
220
0.0
230
1.0
 70
     8
 71
     3
 72
     9
 73
     5
 74
     0
 42
0.00000001
 43
0.00000001
 12
1.0
 22
0.0
 32
0.0
 13
1.0
 23
0.0
 33
0.0
 40
0.0
 40
0.0
 40
0.0
 40
0.0
 40
0.5644855446350969
 40
0.9999999999999999
 40
0.9999999999999999
 40
0.9999999999999999
 40
0.9999999999999999
 10
202.2211076145202
 20
100.1231669770313
 30
0.0
 10
202.1649223538225
 20
100.2394073210561
 30
0.0
 10
202.0653887851924
 20
100.4453299441057
 30
0.0
 10
202.0082949297905
 20
100.6517329969473
 30
0.0
 10
201.9834297304504
 20
100.7416245100912
 30
0.0
  0
LINE
  5
A8
330
1F
100
AcDbEntity
  8
0
  6
Continuous
 62
     7
370
    15
100
AcDbLine
 10
209.6304218486
 20
112.5563049583
 30
0.0
 11
210.5733481354
 21
109.5571650586
 31
0.0
  0
LWPOLYLINE
  5
A9
330
1F
100
AcDbEntity
  8
0
  6
Continuous
 62
     7
370
    15
100
AcDbPolyline
 90
        3
 70
   128
 43
0.0
 10
209.2878605532
 20
113.4200201046
 10
209.2852789537
 20
113.3170148525
 10
209.3293798744
 20
113.0536720729
  0
LINE
  5
AA
330
1F
100
AcDbEntity
  8
0
  6
Continuous
 62
     7
370
    15
100
AcDbLine
 10
209.3293798744
 20
113.0536720729
 30
0.0
 11
210.2723061612
 21
110.0545321731
 31
0.0
  0
CIRCLE
  5
AB
330
1F
100
AcDbEntity
  8
0
  6
Continuous
 62
     7
370
    15
100
AcDbCircle
 10
213.3858710211
 20
117.9954663632
 30
0.0
 40
3.466176730597327
  0
CIRCLE
  5
AC
330
1F
100
AcDbEntity
  8
0
  6
Continuous
 62
     7
370
    15
100
AcDbCircle
 10
213.4159728842
 20
117.9892111108
 30
0.0
 40
1.98265094957115
  0
SPLINE
  5
AD
330
1F
100
AcDbEntity
  8
0
  6
Continuous
 62
     7
370
    15
100
AcDbSpline
210
0.0
220
0.0
230
1.0
 70
     8
 71
     3
 72
    11
 73
     7
 74
     0
 42
0.00000001
 43
0.00000001
 12
1.0
 22
0.0
 32
0.0
 13
1.0
 23
0.0
 33
0.0
 40
0.0
 40
0.0
 40
0.0
 40
0.0
 40
0.1081100880371181
 40
0.4711580666043557
 40
0.8135808430835948
 40
1.0
 40
1.0
 40
1.0
 40
1.0
 10
214.7700132094529
 20
119.1152336374063
 30
0.0
 10
214.7128113773769
 20
119.1399557659813
 30
0.0
 10
214.4635182254008
 20
119.2476980730425
 30
0.0
 10
213.9998430238979
 20
119.4347665924722
 30
0.0
 10
213.506846332536
 20
119.6024733079857
 30
0.0
 10
213.2536371452472
 20
119.6772910582104
 30
0.0
 10
213.1643797693905
 20
119.7036646512228
 30
0.0
  0
SPLINE
  5
AE
330
1F
100
AcDbEntity
  8
0
  6
Continuous
 62
     7
370
    15
100
AcDbSpline
210
0.0
220
0.0
230
1.0
 70
     8
 71
     3
 72
    11
 73
     7
 74
     0
 42
0.00000001
 43
0.00000001
 12
1.0
 22
0.0
 32
0.0
 13
1.0
 23
0.0
 33
0.0
 40
0.0
 40
0.0
 40
0.0
 40
0.0
 40
0.216449995351189
 40
0.4402998152333219
 40
0.7518914760010333
 40
1.0
 40
1.0
 40
1.0
 40
1.0
 10
213.1643797693905
 20
119.7036646512228
 30
0.0
 10
213.0667018048878
 20
119.6382058712234
 30
0.0
 10
212.8680065374052
 20
119.5050504572336
 30
0.0
 10
212.5110852080158
 20
119.2384376741011
 30
0.0
 10
212.1443474809169
 20
118.9257853659656
 30
0.0
 10
211.9205278698685
 20
118.7077397559717
 30
0.0
 10
211.8213112627444
 20
118.6110826957591
 30
0.0
  0
SPLINE
  5
AF
330
1F
100
AcDbEntity
  8
0
  6
Continuous
 62
     7
370
    15
100
AcDbSpline
210
0.0
220
0.0
230
1.0
 70
     8
 71
     3
 72
    11
 73
     7
 74
     0
 42
0.00000001
 43
0.00000001
 12
1.0
 22
0.0
 32
0.0
 13
1.0
 23
0.0
 33
0.0
 40
0.0
 40
0.0
 40
0.0
 40
0.0
 40
0.2164499953511754
 40
0.4402998152332911
 40
0.7518914760010272
 40
0.9999999999999999
 40
0.9999999999999999
 40
0.9999999999999999
 40
0.9999999999999999
 10
211.8213112627444
 20
118.6110826957591
 30
0.0
 10
211.8336179565444
 20
118.5053168429407
 30
0.0
 10
211.8586520758452
 20
118.2901692963752
 30
0.0
 10
211.9169175167979
 20
117.8713992610955
 30
0.0
 10
211.9955528770573
 20
117.3955270481038
 30
0.0
 10
212.0567487734185
 20
117.0730292264196
 30
0.0
 10
212.0838761961606
 20
116.930069726479
 30
0.0
  0
SPLINE
  5
B0
330
1F
100
AcDbEntity
  8
0
  6
Continuous
 62
     7
370
    15
100
AcDbSpline
210
0.0
220
0.0
230
1.0
 70
     8
 71
     3
 72
    11
 73
     7
 74
     0
 42
0.00000001
 43
0.00000001
 12
1.0
 22
0.0
 32
0.0
 13
1.0
 23
0.0
 33
0.0
 40
0.0
 40
0.0
 40
0.0
 40
0.0
 40
0.1864191569163818
 40
0.5288419333956547
 40
0.8918899119628735
 40
1.0
 40
1.0
 40
1.0
 40
1.0
 10
212.0838761961606
 20
116.930069726479
 30
0.0
 10
212.1731335720173
 20
116.9036961334666
 30
0.0
 10
212.4263427593061
 20
116.828878383242
 30
0.0
 10
212.9193394506678
 20
116.6611716677284
 30
0.0
 10
213.3830146521708
 20
116.4741031482987
 30
0.0
 10
213.6323078041469
 20
116.3663608412375
 30
0.0
 10
213.689509636223
 20
116.3416387126626
 30
0.0
  0
SPLINE
  5
B1
330
1F
100
AcDbEntity
  8
0
  6
Continuous
 62
     7
370
    15
100
AcDbSpline
210
0.0
220
0.0
230
1.0
 70
     8
 71
     3
 72
    11
 73
     7
 74
     0
 42
0.00000001
 43
0.00000001
 12
1.0
 22
0.0
 32
0.0
 13
1.0
 23
0.0
 33
0.0
 40
0.0
 40
0.0
 40
0.0
 40
0.0
 40
0.2164499953511941
 40
0.4402998152333309
 40
0.7518914760010598
 40
1.0
 40
1.0
 40
1.0
 40
1.0
 10
213.689509636223
 20
116.3416387126626
 30
0.0
 10
213.7758299954907
 20
116.4258619834242
 30
0.0
 10
213.9514217675061
 20
116.5971878847923
 30
0.0
 10
214.2890852190628
 20
116.8956176102482
 30
0.0
 10
214.6674323318952
 20
117.1890894479547
 30
0.0
 10
214.9204280914744
 20
117.3589316243676
 30
0.0
 10
215.0325781428691
 20
117.4342206681262
 30
0.0
  0
SPLINE
  5
B2
330
1F
100
AcDbEntity
  8
0
  6
Continuous
 62
     7
370
    15
100
AcDbSpline
210
0.0
220
0.0
230
1.0
 70
     8
 71
     3
 72
    11
 73
     7
 74
     0
 42
0.00000001
 43
0.00000001
 12
1.0
 22
0.0
 32
0.0
 13
1.0
 23
0.0
 33
0.0
 40
0.0
 40
0.0
 40
0.0
 40
0.0
 40
0.2164499953512024
 40
0.4402998152333401
 40
0.75189147600108
 40
0.9999999999999999
 40
0.9999999999999999
 40
0.9999999999999999
 40
0.9999999999999999
 10
215.0325781428691
 20
117.4342206681262
 30
0.0
 10
215.0089138438341
 20
117.5587510117069
 30
0.0
 10
214.9607762290662
 20
117.8120690456506
 30
0.0
 10
214.8832529102806
 20
118.2626560232539
 30
0.0
 10
214.816226935755
 20
118.7193477658165
 30
0.0
 10
214.7842071879244
 20
118.9936421539198
 30
0.0
 10
214.7700132094529
 20
119.1152336374063
 30
0.0
  0
LINE
  5
B3
330
1F
100
AcDbEntity
  8
0
  6
Continuous
 62
     7
370
    15
100
AcDbLine
 10
214.6424726071
 20
118.0787343284
 30
0.0
 11
215.0325781429
 21
117.4342206681
 31
0.0
  0
LINE
  5
B4
330
1F
100
AcDbEntity
  8
0
  6
Continuous
 62
     7
370
    15
100
AcDbLine
 10
214.6424726071
 20
118.0787343284
 30
0.0
 11
214.5111901404
 21
118.919240813
 31
0.0
  0
LINE
  5
B5
330
1F
100
AcDbEntity
  8
0
  6
Continuous
 62
     7
370
    15
100
AcDbLine
 10
214.5111901404
 20
118.919240813
 30
0.0
 11
214.4604377978
 21
119.2441712792
 31
0.0
  0
LINE
  5
B6
330
1F
100
AcDbEntity
  8
0
  6
Continuous
 62
     7
370
    15
100
AcDbLine
 10
211.986156724
 20
117.4674300207
 30
0.0
 11
212.4965873804
 21
117.2803678798
 31
0.0
  0
LINE
  5
B7
330
1F
100
AcDbEntity
  8
0
  6
Continuous
 62
     7
370
    15
100
AcDbLine
 10
212.4965873804
 20
117.2803678798
 30
0.0
 11
213.2994041005
 21
116.9861523729
 31
0.0
  0
LINE
  5
B8
330
1F
100
AcDbEntity
  8
0
  6
Continuous
 62
     7
370
    15
100
AcDbLine
 10
213.2994041005
 20
116.9861523729
 30
0.0
 11
213.6895096362
 21
116.3416387127
 31
0.0
  0
LINE
  5
B9
330
1F
100
AcDbEntity
  8
0
  6
Continuous
 62
     7
370
    15
100
AcDbLine
 10
213.2994041005
 20
116.9861523729
 30
0.0
 11
213.9709383538
 21
117.5324433507
 31
0.0
  0
LINE
  5
BA
330
1F
100
AcDbEntity
  8
0
  6
Continuous
 62
     7
370
    15
100
AcDbLine
 10
213.9709383538
 20
117.5324433507
 30
0.0
 11
214.6424726071
 21
118.0787343284
 31
0.0
  0
LWPOLYLINE
  5
BB
330
1F
100
AcDbEntity
  8
0
  6
Continuous
 62
     7
370
    15
100
AcDbPolyline
 90
        3
 70
   128
 43
0.0
 10
214.4125573832
 20
119.2635404074
 10
214.4688967864
 20
119.1071042947
 10
214.5111901404
 20
118.919240813
  0
ARC
  5
BC
330
1F
100
AcDbEntity
  8
0
  6
Continuous
 62
     7
370
    15
100
AcDbCircle
 10
213.0330844907
 20
118.6964322288
 30
0.0
 40
1.494804327292669
100
AcDbArc
 50
308.85922951
 51
8.5721867676
  0
ARC
  5
BD
330
1F
100
AcDbEntity
  8
0
  6
Continuous
 62
     7
370
    15
100
AcDbCircle
 10
213.0117119505
 20
118.7051475515
 30
0.0
 40
1.515041397302395
100
AcDbArc
 50
250.1227038882
 51
309.2818303983
  0
ARC
  5
BE
330
1F
100
AcDbEntity
  8
0
  6
Continuous
 62
     7
370
    15
100
AcDbCircle
 10
212.9959912854
 20
118.6473273438
 30
0.0
 40
1.455328978768252
100
AcDbArc
 50
223.8502405222
 51
249.9307687666
  0
ELLIPSE
  5
BF
330
1F
100
AcDbEntity
  8
0
  6
Continuous
 62
     7
370
    15
100
AcDbEllipse
 10
219.0610049978
 20
104.4740832264
 30
0.0
 11
1.997919256371518
 21
1.237404163304348
 31
0.0
210
0.0
220
0.0
230
1.0
 40
0.9806947386
 41
4.554496613076363
 42
6.323145573067614
  0
ELLIPSE
  5
C0
330
1F
100
AcDbEntity
  8
0
  6
Continuous
 62
     7
370
    15
100
AcDbEllipse
 10
219.0610049978
 20
104.4740832264
 30
0.0
 11
1.997919256371518
 21
1.237404163304348
 31
0.0
210
0.0
220
0.0
230
1.0
 40
0.9806947386
 41
2.83007088981525
 42
4.554496613076376
  0
SPLINE
  5
C1
330
1F
100
AcDbEntity
  8
0
  6
Continuous
 62
     7
370
    15
100
AcDbSpline
210
0.0
220
0.0
230
1.0
 70
     8
 71
     3
 72
     9
 73
     5
 74
     0
 42
0.00000001
 43
0.00000001
 12
1.0
 22
0.0
 32
0.0
 13
1.0
 23
0.0
 33
0.0
 40
0.0
 40
0.0
 40
0.0
 40
0.0
 40
0.9449552960968218
 40
1.0
 40
1.0
 40
1.0
 40
1.0
 10
216.8077087948466
 20
103.505847064968
 30
0.0
 10
216.8694670479203
 20
103.4364633505319
 30
0.0
 10
216.9348227883757
 20
103.3630379570528
 30
0.0
 10
217.0159913938929
 20
103.2997602825922
 30
0.0
 10
217.0204592957498
 20
103.2962771817378
 30
0.0
  0
LINE
  5
C2
330
1F
100
AcDbEntity
  8
0
  6
Continuous
 62
     7
370
    15
100
AcDbLine
 10
217.1227738186
 20
103.1453104708
 30
0.0
 11
216.8394580729
 21
103.2322101644
 31
0.0
  0
LINE
  5
C3
330
1F
100
AcDbEntity
  8
0
  6
Continuous
 62
     7
370
    15
100
AcDbLine
 10
209.955214765
 20
112.5378093548
 30
0.0
 11
214.2274970308
 21
98.9490777805
 31
0.0
  0
ARC
  5
C4
330
1F
100
AcDbEntity
  8
0
  6
Continuous
 62
     7
370
    15
100
AcDbCircle
 10
210.3410614204
 20
112.6528816417
 30
0.0
 40
0.4026403764246593
100
AcDbArc
 50
73.2885949299
 51
196.6063279791
  0
LINE
  5
C5
330
1F
100
AcDbEntity
  8
0
  6
Continuous
 62
     7
370
    15
100
AcDbLine
 10
224.2128600135
 20
108.9161449662
 30
0.0
 11
210.4568411335
 21
113.0385166126
 31
0.0
  0
ARC
  5
C6
330
1F
100
AcDbEntity
  8
0
  6
Continuous
 62
     7
370
    15
100
AcDbCircle
 10
224.1031279752
 20
108.5459971333
 30
0.0
 40
0.3860706391892503
100
AcDbArc
 50
17.5297083813
 51
73.487299346
  0
LINE
  5
C7
330
1F
100
AcDbEntity
  8
0
  6
Continuous
 62
     7
370
    15
100
AcDbLine
 10
228.7435521086
 20
95.0735501397
 30
0.0
 11
224.4712698428
 21
108.662281714
 31
0.0
  0
ARC
  5
C8
330
1F
100
AcDbEntity
  8
0
  6
Continuous
 62
     7
370
    15
100
AcDbCircle
 10
228.3577054532
 20
94.9584778528
 30
0.0
 40
0.4026403764246634
100
AcDbArc
 50
253.2885949299
 51
16.6063279791
  0
LINE
  5
C9
330
1F
100
AcDbEntity
  8
0
  6
Continuous
 62
     7
370
    15
100
AcDbLine
 10
214.4859068601
 20
98.6952145283
 30
0.0
 11
228.2419257401
 21
94.5728428819
 31
0.0
  0
ARC
  5
CA
330
1F
100
AcDbEntity
  8
0
  6
Continuous
 62
     7
370
    15
100
AcDbCircle
 10
214.5956388985
 20
99.0653623612
 30
0.0
 40
0.3860706391893216
100
AcDbArc
 50
197.5297083813
 51
253.487299346
  0
ARC
  5
CB
330
1F
100
AcDbEntity
  8
0
  6
Continuous
 62
     7
370
    15
100
AcDbCircle
 10
228.3579968811
 20
94.9580603669
 30
0.0
 40
0.3825083576034114
100
AcDbArc
 50
253.2885949299
 51
16.6063279791
  0
LINE
  5
CC
330
1F
100
AcDbEntity
  8
0
  6
Continuous
 62
     7
370
    15
100
AcDbLine
 10
228.7245512037
 20
95.0673790396
 30
0.0
 11
224.4522689376
 21
108.6561106138
 31
0.0
  0
ARC
  5
CD
330
1F
100
AcDbEntity
  8
0
  6
Continuous
 62
     7
370
    15
100
AcDbCircle
 10
224.1025341624
 20
108.5456402613
 30
0.0
 40
0.3667671083423564
100
AcDbArc
 50
17.5297084465
 51
73.4872991965
  0
LINE
  5
CE
330
1F
100
AcDbEntity
  8
0
  6
Continuous
 62
     7
370
    15
100
AcDbLine
 10
224.2067796001
 20
108.8972807034
 30
0.0
 11
210.4507607201
 21
113.0196523498
 31
0.0
  0
ARC
  5
CF
330
1F
100
AcDbEntity
  8
0
  6
Continuous
 62
     7
370
    15
100
AcDbCircle
 10
210.3407699926
 20
112.6532991275
 30
0.0
 40
0.3825083576034384
100
AcDbArc
 50
73.2885949299
 51
196.6063279791
  0
LINE
  5
D0
330
1F
100
AcDbEntity
  8
0
  6
Continuous
 62
     7
370
    15
100
AcDbLine
 10
209.9742156699
 20
112.5439804549
 30
0.0
 11
214.2464979358
 21
98.9552488806
 31
0.0
  0
ARC
  5
D1
330
1F
100
AcDbEntity
  8
0
  6
Continuous
 62
     7
370
    15
100
AcDbCircle
 10
214.59623271
 20
99.0657192323
 30
0.0
 40
0.3667671072299719
100
AcDbArc
 50
197.5297083814
 51
253.4872993459
  0
LINE
  5
D2
330
1F
100
AcDbEntity
  8
0
  6
Continuous
 62
     7
370
    15
100
AcDbLine
 10
214.4919872736
 20
98.714078791
 30
0.0
 11
228.2480061536
 21
94.5917071446
 31
0.0
  0
LINE
  5
D3
330
1F
100
AcDbEntity
  8
0
  6
Continuous
 62
     7
370
    15
100
AcDbLine
 10
210.3123000401
 20
112.6991198695
 30
0.0
 11
209.9742156699
 21
112.5439804549
 31
0.0
  0
LINE
  5
D4
330
1F
100
AcDbEntity
  8
0
  6
Continuous
 62
     7
370
    15
100
AcDbLine
 10
210.3123000401
 20
112.6991198695
 30
0.0
 11
210.4507607201
 21
113.0196523498
 31
0.0
  0
LINE
  5
D5
330
1F
100
AcDbEntity
  8
0
  6
Continuous
 62
     7
370
    15
100
AcDbLine
 10
211.7751388674
 20
111.3026657562
 30
0.0
 11
210.3123000401
 21
112.6991198695
 31
0.0
  0
LINE
  5
D6
330
1F
100
AcDbEntity
  8
0
  6
Continuous
 62
     7
370
    15
100
AcDbLine
 10
224.0683189201
 20
108.576748223
 30
0.0
 11
224.2067796001
 21
108.8972807034
 31
0.0
  0
LINE
  5
D7
330
1F
100
AcDbEntity
  8
0
  6
Continuous
 62
     7
370
    15
100
AcDbLine
 10
223.6978409349
 20
108.2760685665
 30
0.0
 11
224.0683189201
 21
108.576748223
 31
0.0
  0
LINE
  5
D8
330
1F
100
AcDbEntity
  8
0
  6
Continuous
 62
     7
370
    15
100
AcDbLine
 10
212.4145211804
 20
111.1110571562
 30
0.0
 11
211.7751388674
 21
111.3026657562
 31
0.0
  0
LINE
  5
D9
330
1F
100
AcDbEntity
  8
0
  6
Continuous
 62
     7
370
    15
100
AcDbLine
 10
214.5845823059
 20
99.1103882952
 30
0.0
 11
214.2464979358
 21
98.9552488806
 31
0.0
  0
LINE
  5
DA
330
1F
100
AcDbEntity
  8
0
  6
Continuous
 62
     7
370
    15
100
AcDbLine
 10
211.7751388674
 20
111.3026657562
 30
0.0
 11
211.9737153408
 21
110.6710589882
 31
0.0
  0
LINE
  5
DB
330
1F
100
AcDbEntity
  8
0
  6
Continuous
 62
     7
370
    15
100
AcDbLine
 10
214.9029009129
 20
99.4972431752
 30
0.0
 11
214.5845823059
 21
99.1103882952
 31
0.0
  0
LINE
  5
DC
330
1F
100
AcDbEntity
  8
0
  6
Continuous
 62
     7
370
    15
100
AcDbLine
 10
209.3637525924
 20
113.4044925816
 30
0.0
 11
210.5733481354
 21
109.5571650586
 31
0.0
  0
ARC
  5
DD
330
1F
100
AcDbEntity
  8
0
  6
Continuous
 62
     7
370
    15
100
AcDbCircle
 10
214.3190604738
 20
108.7409377033
 30
0.0
 40
1.006600941061654
100
AcDbArc
 50
73.2885949299
 51
196.6063279791
  0
LINE
  5
DE
330
1F
100
AcDbEntity
  8
0
  6
Continuous
 62
     7
370
    15
100
AcDbLine
 10
212.5528329757
 20
110.5402806791
 30
0.0
 11
212.5511910912
 21
110.538641803
 31
0.0
  0
SPLINE
  5
DF
330
1F
100
AcDbEntity
  8
0
  6
Continuous
 62
     7
370
    15
100
AcDbSpline
210
0.0
220
0.0
230
1.0
 70
     8
 71
     3
 72
    14
 73
    10
 74
     0
 42
0.00000001
 43
0.00000001
 12
1.0
 22
0.0
 32
0.0
 13
1.0
 23
0.0
 33
0.0
 40
0.0
 40
0.0
 40
0.0
 40
0.0
 40
0.2210591904779539
 40
0.3460797326519238
 40
0.439601624413147
 40
0.5338897453199846
 40
0.6146561933587559
 40
0.7517253237593833
 40
1.0
 40
1.0
 40
1.0
 40
1.0
 10
212.552832975686
 20
110.5402806791445
 30
0.0
 10
212.593291663388
 20
110.5832773778887
 30
0.0
 10
212.6566318565419
 20
110.6505909601658
 30
0.0
 10
212.7117463891839
 20
110.7547552055627
 30
0.0
 10
212.7280028844828
 20
110.8369304737056
 30
0.0
 10
212.7138042548578
 20
110.907815695706
 30
0.0
 10
212.6694026652222
 20
110.9772905348801
 30
0.0
 10
212.5728991863677
 20
111.0555802615566
 30
0.0
 10
212.4765794208473
 20
111.0893192990863
 30
0.0
 10
212.4145211804189
 20
111.1110571562283
 30
0.0
  0
SPLINE
  5
E0
330
1F
100
AcDbEntity
  8
0
  6
Continuous
 62
     7
370
    15
100
AcDbSpline
210
0.0
220
0.0
230
1.0
 70
     8
 71
     3
 72
    14
 73
    10
 74
     0
 42
0.00000001
 43
0.00000001
 12
1.0
 22
0.0
 32
0.0
 13
1.0
 23
0.0
 33
0.0
 40
0.0
 40
0.0
 40
0.0
 40
0.0
 40
0.2234968253973635
 40
0.3567622963774605
 40
0.4531212562341322
 40
0.5344619041500398
 40
0.6157317558035391
 40
0.7396161778922132
 40
1.0
 40
1.0
 40
1.0
 40
1.0
 10
211.9737153407708
 20
110.6710589881884
 30
0.0
 10
211.9937377825972
 20
110.6159453392433
 30
0.0
 10
212.0256990970918
 20
110.5279688235838
 30
0.0
 10
212.0978286408357
 20
110.4322723431519
 30
0.0
 10
212.1647052780161
 20
110.3836404016661
 30
0.0
 10
212.2317683021536
 20
110.3648408465887
 30
0.0
 10
212.3087662959021
 20
110.3706856658537
 30
0.0
 10
212.4248180927181
 20
110.4205373861265
 30
0.0
 10
212.5001473017433
 20
110.4909378072133
 30
0.0
 10
212.5511910912278
 20
110.5386418030481
 30
0.0
  0
LINE
  5
E1
330
1F
100
AcDbEntity
  8
0
  6
Continuous
 62
     7
370
    15
100
AcDbLine
 10
213.3544438353
 20
108.4532569859
 30
0.0
 11
215.7454858429
 21
100.8481349452
 31
0.0
  0
LINE
  5
E2
330
1F
100
AcDbEntity
  8
0
  6
Continuous
 62
     7
370
    15
100
AcDbLine
 10
222.3072564576
 20
107.3978826796
 30
0.0
 11
214.6085097567
 21
109.7050251305
 31
0.0
  0
ARC
  5
E3
330
1F
100
AcDbEntity
  8
0
  6
Continuous
 62
     7
370
    15
100
AcDbCircle
 10
222.0329263616
 20
106.4725130974
 30
0.0
 40
0.965176597973215
100
AcDbArc
 50
17.5297083813
 51
73.487299346
  0
LINE
  5
E4
330
1F
100
AcDbEntity
  8
0
  6
Continuous
 62
     7
370
    15
100
AcDbLine
 10
225.3443230384
 20
99.1581025085
 30
0.0
 11
222.9532810308
 21
106.7632245493
 31
0.0
  0
ARC
  5
E5
330
1F
100
AcDbEntity
  8
0
  6
Continuous
 62
     7
370
    15
100
AcDbCircle
 10
224.3797064
 20
98.8704217907
 30
0.0
 40
1.006600941035671
100
AcDbArc
 50
253.2885949153
 51
16.6063280002
  0
LINE
  5
E6
330
1F
100
AcDbEntity
  8
0
  6
Continuous
 62
     7
370
    15
100
AcDbLine
 10
216.3915104161
 20
100.2134768148
 30
0.0
 11
224.0902571169
 21
97.9063343637
 31
0.0
  0
ARC
  5
E7
330
1F
100
AcDbEntity
  8
0
  6
Continuous
 62
     7
370
    15
100
AcDbCircle
 10
216.665840512
 20
101.138846397
 30
0.0
 40
0.9651765979731959
100
AcDbArc
 50
197.5297083813
 51
253.487299346
  0
LWPOLYLINE
  5
E8
330
1F
100
AcDbEntity
  8
0
  6
Continuous
 62
     7
370
    15
100
AcDbPolyline
 90
       32
 70
   128
 43
0.0
 10
218.5650100976
 20
101.3721898525
 10
219.0728459791
 20
101.2746281365
 10
219.5920033365
 20
101.2806879708
 10
220.1012278068
 20
101.3901212651
 10
220.5796716802
 20
101.5984478075
 10
221.0077474083
 20
101.8971386848
 10
221.3679295207
 20
102.2739654574
 10
221.6454721191
 20
102.7135007931
 10
221.8290125772
 20
103.1977500635
 10
221.9110367269
 20
103.7068880465
 10
221.8881864899
 20
104.2200705734
 10
221.7613973576
 20
104.7162878912
 10
221.535860092
 20
105.1752248045
 10
221.2208082153
 20
105.5780923823
 10
220.8291399882
 20
105.9083971786
 10
220.3768903541
 20
106.1526164762
 10
219.882574466
 20
106.3007519083
 10
219.3664296746
 20
106.346738793
 10
218.8495870081
 20
106.2886944219
 10
218.3532060662
 20
106.1289951381
 10
217.8976087429
 20
105.8741790494
 10
217.5014472461
 20
105.5346783561
 10
217.1809404741
 20
105.1243922566
 10
216.9492100118
 20
104.6601179121
 10
216.8157429315
 20
104.1608627687
 10
216.7860033912
 20
103.6470663907
 10
216.8612089311
 20
103.1397636621
 10
217.0382806277
 20
102.6597236163
 10
217.3099691448
 20
102.2265991492
 10
217.6651515226
 20
101.8581224272
 10
218.0892865529
 20
101.5693789308
 10
218.5650100976
 20
101.3721898525
  0
LINE
  5
E9
330
1F
100
AcDbEntity
  8
0
  6
Continuous
 62
     7
370
    15
100
AcDbLine
 10
221.2033466539
 20
105.4381584145
 30
0.0
 11
221.1525079676
 21
105.6462478484
 31
0.0
  0
ARC
  5
EA
330
1F
100
AcDbEntity
  8
0
  6
Continuous
 62
     7
370
    15
100
AcDbCircle
 10
218.6169216657
 20
104.8707069264
 30
0.0
 40
2.506108444151157
100
AcDbArc
 50
226.2053007726
 51
250.9586009864
  0
LINE
  5
EB
330
1F
100
AcDbEntity
  8
0
  6
Continuous
 62
     7
370
    15
100
AcDbLine
 10
224.0683189201
 20
108.576748223
 30
0.0
 11
224.4522689376
 21
108.6561106138
 31
0.0
  0
LINE
  5
EC
330
1F
100
AcDbEntity
  8
0
  6
Continuous
 62
     7
370
    15
100
AcDbLine
 10
228.3406011859
 20
94.9880166487
 30
0.0
 11
228.7245512037
 21
95.0673790396
 31
0.0
  0
LINE
  5
ED
330
1F
100
AcDbEntity
  8
0
  6
Continuous
 62
     7
370
    15
100
AcDbLine
 10
226.756382465
 20
96.5850088019
 30
0.0
 11
228.3406011859
 21
94.9880166487
 31
0.0
  0
LINE
  5
EE
330
1F
100
AcDbEntity
  8
0
  6
Continuous
 62
     7
370
    15
100
AcDbLine
 10
226.756382465
 20
96.5850088019
 30
0.0
 11
226.5578059917
 21
97.2166155699
 31
0.0
  0
ARC
  5
EF
330
1F
100
AcDbEntity
  8
0
  6
Continuous
 62
     7
370
    15
100
AcDbCircle
 10
223.4398899102
 20
109.6427123977
 30
0.0
 40
0.3856547797628046
100
AcDbArc
 50
31.2201862128
 51
61.8728233494
  0
SPLINE
  5
F0
330
1F
100
AcDbEntity
  8
0
  6
Continuous
 62
     7
370
    15
100
AcDbSpline
210
0.0
220
0.0
230
1.0
 70
     8
 71
     3
 72
    11
 73
     7
 74
     0
 42
0.00000001
 43
0.00000001
 12
1.0
 22
0.0
 32
0.0
 13
1.0
 23
0.0
 33
0.0
 40
0.0
 40
0.0
 40
0.0
 40
0.0
 40
0.3280455501580035
 40
0.6557028173711913
 40
0.9906967996087618
 40
1.0
 40
1.0
 40
1.0
 40
1.0
 10
223.6978409349374
 20
108.276068566517
 30
0.0
 10
223.6421876913488
 20
108.2285726390543
 30
0.0
 10
223.5309470767473
 20
108.1336370015004
 30
0.0
 10
223.3590124091002
 20
107.958536430375
 30
0.0
 10
223.2556975894402
 20
107.8397116498745
 30
0.0
 10
223.2090903613497
 20
107.7817428338116
 30
0.0
 10
223.2078309947197
 20
107.7801764674878
 30
0.0
  0
SPLINE
  5
F1
330
1F
100
AcDbEntity
  8
0
  6
Continuous
 62
     7
370
    15
100
AcDbSpline
210
0.0
220
0.0
230
1.0
 70
     8
 71
     3
 72
    11
 73
     7
 74
     0
 42
0.00000001
 43
0.00000001
 12
1.0
 22
0.0
 32
0.0
 13
1.0
 23
0.0
 33
0.0
 40
0.0
 40
0.0
 40
0.0
 40
0.0
 40
0.3280455501579974
 40
0.6557028173712002
 40
0.9906967996087659
 40
1.0
 40
1.0
 40
1.0
 40
1.0
 10
214.9029009128693
 20
99.49724317523163
 30
0.0
 10
214.9524753844824
 20
99.55478215826987
 30
0.0
 10
215.0515656501199
 20
99.66979201976224
 30
0.0
 10
215.2261271198478
 20
99.8405527144476
 30
0.0
 10
215.3412890084453
 20
99.939804335726
 30
0.0
 10
215.3965344277917
 20
99.98350154640507
 30
0.0
 10
215.3980272056384
 20
99.98468228190914
 30
0.0
  0
LINE
  5
F2
330
1F
100
AcDbEntity
  8
0
  6
Continuous
 62
     7
370
    15
100
AcDbLine
 10
228.3406011859
 20
94.9880166487
 30
0.0
 11
228.2480061536
 21
94.5917071446
 31
0.0
  0
LINE
  5
F3
330
1F
100
AcDbEntity
  8
0
  6
Continuous
 62
     7
370
    15
100
AcDbLine
 10
214.5845823059
 20
99.1103882952
 30
0.0
 11
214.4919872736
 21
98.714078791
 31
0.0
  0
LINE
  5
F4
330
1F
100
AcDbEntity
  8
0
  6
Continuous
 62
     7
370
    15
100
AcDbLine
 10
226.117000152
 20
96.7766174018
 30
0.0
 11
226.756382465
 21
96.5850088019
 31
0.0
  0
LINE
  5
F5
330
1F
100
AcDbEntity
  8
0
  6
Continuous
 62
     7
370
    15
100
AcDbLine
 10
225.9786883567
 20
97.3473938789
 30
0.0
 11
225.9803302412
 21
97.349032755
 31
0.0
  0
SPLINE
  5
F6
330
1F
100
AcDbEntity
  8
0
  6
Continuous
 62
     7
370
    15
100
AcDbSpline
210
0.0
220
0.0
230
1.0
 70
     8
 71
     3
 72
    14
 73
    10
 74
     0
 42
0.00000001
 43
0.00000001
 12
1.0
 22
0.0
 32
0.0
 13
1.0
 23
0.0
 33
0.0
 40
0.0
 40
0.0
 40
0.0
 40
0.0
 40
0.2234968253973698
 40
0.3567622963774697
 40
0.4531212562341506
 40
0.5344619041500395
 40
0.6157317558035392
 40
0.7396161778921981
 40
1.0
 40
1.0
 40
1.0
 40
1.0
 10
226.5578059916589
 20
97.21661556988258
 30
0.0
 10
226.5377835498325
 20
97.27172921882773
 30
0.0
 10
226.5058222353379
 20
97.35970573448722
 30
0.0
 10
226.433692691594
 20
97.45540221491906
 30
0.0
 10
226.3668160544136
 20
97.50403415640487
 30
0.0
 10
226.2997530302761
 20
97.52283371148232
 30
0.0
 10
226.2227550365277
 20
97.51698889221733
 30
0.0
 10
226.1067032397116
 20
97.46713717194449
 30
0.0
 10
226.0313740306864
 20
97.39673675085771
 30
0.0
 10
225.9803302412019
 20
97.34903275502295
 30
0.0
  0
SPLINE
  5
F7
330
1F
100
AcDbEntity
  8
0
  6
Continuous
 62
     7
370
    15
100
AcDbSpline
210
0.0
220
0.0
230
1.0
 70
     8
 71
     3
 72
    14
 73
    10
 74
     0
 42
0.00000001
 43
0.00000001
 12
1.0
 22
0.0
 32
0.0
 13
1.0
 23
0.0
 33
0.0
 40
0.0
 40
0.0
 40
0.0
 40
0.0
 40
0.2210591904779549
 40
0.3460797326519311
 40
0.4396016244131462
 40
0.5338897453199741
 40
0.6146561933587539
 40
0.7517253237593718
 40
1.0
 40
1.0
 40
1.0
 40
1.0
 10
225.9786883567437
 20
97.34739387892652
 30
0.0
 10
225.9382296690418
 20
97.30439718018225
 30
0.0
 10
225.8748894758878
 20
97.2370835979052
 30
0.0
 10
225.8197749432458
 20
97.13291935250831
 30
0.0
 10
225.8035184479469
 20
97.05074408436542
 30
0.0
 10
225.8177170775719
 20
96.97985886236505
 30
0.0
 10
225.8621186672075
 20
96.91038402319096
 30
0.0
 10
225.9586221460619
 20
96.83209429651437
 30
0.0
 10
226.0549419115823
 20
96.79835525898473
 30
0.0
 10
226.1170001520107
 20
96.77661740184267
 30
0.0
  0
LINE
  5
F8
330
1F
100
AcDbEntity
  8
0
  6
HIDDEN
 62
     7
370
     0
100
AcDbLine
 10
178.7602974833
 20
141.2578651001
 30
0.0
 11
178.7602974833
 21
101.8578651009
 31
0.0
  0
SPLINE
  5
F9
330
1F
100
AcDbEntity
  8
0
  6
HIDDEN
 62
     7
370
     0
100
AcDbSpline
210
0.0
220
0.0
230
1.0
 70
     8
 71
     3
 72
    68
 73
    64
 74
     0
 42
0.00000001
 43
0.00000001
 12
1.0
 22
0.0
 32
0.0
 13
1.0
 23
0.0
 33
0.0
 40
-0.0624999999999998
 40
-0.0624999999999998
 40
0.0
 40
0.0
 40
0.0312500000000001
 40
0.0312500000000001
 40
0.0625000000000003
 40
0.0625000000000003
 40
0.0937500000000004
 40
0.0937500000000004
 40
0.1250000000000006
 40
0.1250000000000006
 40
0.1562500000000007
 40
0.1562500000000007
 40
0.1875000000000009
 40
0.1875000000000009
 40
0.218750000000001
 40
0.218750000000001
 40
0.250000000000001
 40
0.250000000000001
 40
0.2812500000000011
 40
0.2812500000000011
 40
0.312500000000001
 40
0.312500000000001
 40
0.343750000000001
 40
0.343750000000001
 40
0.3750000000000009
 40
0.3750000000000009
 40
0.4062500000000009
 40
0.4062500000000009
 40
0.4375000000000009
 40
0.4375000000000009
 40
0.4687500000000009
 40
0.4687500000000009
 40
0.5000000000000009
 40
0.5000000000000009
 40
0.5312500000000009
 40
0.5312500000000009
 40
0.562500000000001
 40
0.562500000000001
 40
0.593750000000001
 40
0.593750000000001
 40
0.625000000000001
 40
0.625000000000001
 40
0.6562500000000011
 40
0.6562500000000011
 40
0.6875000000000011
 40
0.6875000000000011
 40
0.7187500000000011
 40
0.7187500000000011
 40
0.7500000000000011
 40
0.7500000000000011
 40
0.7812500000000012
 40
0.7812500000000012
 40
0.812500000000001
 40
0.812500000000001
 40
0.8437500000000008
 40
0.8437500000000008
 40
0.8750000000000007
 40
0.8750000000000007
 40
0.9062500000000004
 40
0.9062500000000004
 40
0.9375000000000002
 40
0.9375000000000002
 40
1.0
 40
1.0
 40
1.03125
 40
1.03125
 10
193.090967995929
 20
131.309193879831
 30
0.0
 10
192.5949622269141
 20
131.309193879831
 30
0.0
 10
192.4324224844915
 20
131.2949103643965
 30
0.0
 10
192.112695274794
 20
131.2388850694997
 30
0.0
 10
191.9538386982087
 20
131.1964515022378
 30
0.0
 10
191.6511667999798
 20
131.085521495735
 30
0.0
 10
191.5076389843837
 20
131.017552337763
 30
0.0
 10
191.2360072054365
 20
130.8564515590926
 30
0.0
 10
191.1075225731134
 20
130.7625368398411
 30
0.0
 10
190.8771658171529
 20
130.5565668219349
 30
0.0
 10
190.77373831719
 20
130.4437802664796
 30
0.0
 10
190.5909732406348
 20
130.19758988776
 30
0.0
 10
190.5134068649133
 20
130.0661541346408
 30
0.0
 10
190.3886716719171
 20
129.7927088993159
 30
0.0
 10
190.3405913285743
 20
129.6486722097669
 30
0.0
 10
190.276307819763
 20
129.3523521026459
 30
0.0
 10
190.2603884922066
 20
129.2026108266099
 30
0.0
 10
190.2602072450203
 20
128.8999571125743
 30
0.0
 10
190.2764712743009
 20
128.7454522810055
 30
0.0
 10
190.3403114921001
 20
128.4451250972787
 30
0.0
 10
190.3875450366871
 20
128.2984143609286
 30
0.0
 10
190.5128502029154
 20
128.0121677150212
 30
0.0
 10
190.5910579805406
 20
127.8733527156142
 30
0.0
 10
190.7719098630388
 20
127.6152840226125
 30
0.0
 10
190.8752820266986
 20
127.4943217920582
 30
0.0
 10
191.1084185625758
 20
127.2702422663605
 30
0.0
 10
191.2345085995601
 20
127.1706222875327
 30
0.0
 10
191.5050507358833
 20
126.9956521213922
 30
0.0
 10
191.6512456964703
 20
126.9196859589585
 30
0.0
 10
191.9538710454201
 20
126.7978500578252
 30
0.0
 10
192.1096935439691
 20
126.7517677415433
 30
0.0
 10
192.4303267162477
 20
126.6893441140886
 30
0.0
 10
192.5961318968556
 20
126.6733344955522
 30
0.0
 10
192.9225857129655
 20
126.6732150618591
 30
0.0
 10
193.0849253152541
 20
126.6885888305582
 30
0.0
 10
193.4077873029086
 20
126.7508839008822
 30
0.0
 10
193.5655280133339
 20
126.7975191881242
 30
0.0
 10
193.8664803460063
 20
126.9183823624575
 30
0.0
 10
194.0119998239462
 20
126.9935623170779
 30
0.0
 10
194.2852030798368
 20
127.1698517859474
 30
0.0
 10
194.411033727768
 20
127.2694387103691
 30
0.0
 10
194.6417135513439
 20
127.4905735066173
 30
0.0
 10
194.7473310292829
 20
127.6135522385087
 30
0.0
 10
194.9288754166069
 20
127.8722104679705
 30
0.0
 10
195.0057938736003
 20
128.0084236349078
 30
0.0
 10
195.1316216687249
 20
128.2944580422489
 30
0.0
 10
195.1798819380107
 20
128.4438483102669
 30
0.0
 10
195.2437567068089
 20
128.7431210029538
 30
0.0
 10
195.2601468672746
 20
128.8946118890035
 30
0.0
 10
195.2604460522351
 20
129.2011870284883
 30
0.0
 10
195.2443566833202
 20
129.351144460727
 30
0.0
 10
195.1810412764057
 20
129.6447609030237
 30
0.0
 10
195.133027608915
 20
129.7899368369404
 30
0.0
 10
195.0077720699051
 20
130.0652204369747
 30
0.0
 10
194.9311016222567
 20
130.1951518041815
 30
0.0
 10
194.7498918380419
 20
130.4401254579999
 30
0.0
 10
194.6445287919546
 20
130.5554418944822
 30
0.0
 10
194.4143471736404
 20
130.7615372592375
 30
0.0
 10
194.2886818337645
 20
130.8537333301551
 30
0.0
 10
194.0155535993192
 20
131.0162948071688
 30
0.0
 10
193.8704338645994
 20
131.0850143928371
 30
0.0
 10
193.4194836143463
 20
131.2507015421826
 30
0.0
 10
193.090967995929
 20
131.309193879831
 30
0.0
 10
192.5949622269141
 20
131.309193879831
 30
0.0
  0
SPLINE
  5
FA
330
1F
100
AcDbEntity
  8
0
  6
HIDDEN
 62
     7
370
     0
100
AcDbSpline
210
0.0
220
0.0
230
1.0
 70
     8
 71
     3
 72
    58
 73
    54
 74
     0
 42
0.00000001
 43
0.00000001
 12
1.0
 22
0.0
 32
0.0
 13
1.0
 23
0.0
 33
0.0
 40
-0.0625000000000003
 40
-0.0625000000000003
 40
0.0
 40
0.0
 40
0.03125
 40
0.03125
 40
0.0624999999999999
 40
0.0624999999999999
 40
0.0937499999999999
 40
0.0937499999999999
 40
0.1249999999999999
 40
0.1249999999999999
 40
0.1875000000000002
 40
0.1875000000000002
 40
0.2500000000000004
 40
0.2500000000000004
 40
0.2812500000000003
 40
0.2812500000000003
 40
0.3125000000000003
 40
0.3125000000000003
 40
0.3437500000000002
 40
0.3437500000000002
 40
0.3750000000000002
 40
0.3750000000000002
 40
0.4062500000000002
 40
0.4062500000000002
 40
0.4375000000000002
 40
0.4375000000000002
 40
0.4687500000000001
 40
0.4687500000000001
 40
0.5000000000000001
 40
0.5000000000000001
 40
0.5624999999999999
 40
0.5624999999999999
 40
0.6249999999999998
 40
0.6249999999999998
 40
0.6562499999999998
 40
0.6562499999999998
 40
0.6874999999999997
 40
0.6874999999999997
 40
0.7187499999999997
 40
0.7187499999999997
 40
0.7499999999999997
 40
0.7499999999999997
 40
0.7812499999999997
 40
0.7812499999999997
 40
0.8124999999999996
 40
0.8124999999999996
 40
0.8437499999999996
 40
0.8437499999999996
 40
0.8749999999999996
 40
0.8749999999999996
 40
0.9374999999999997
 40
0.9374999999999997
 40
1.0
 40
1.0
 40
1.03125
 40
1.03125
 10
192.7602974832521
 20
121.2934289864894
 30
0.0
 10
192.7602974832521
 20
121.6900831581614
 30
0.0
 10
192.74731544558
 20
121.8200753190019
 30
0.0
 10
192.6964646433217
 20
122.0757949314542
 30
0.0
 10
192.6579727392687
 20
122.2028536153153
 30
0.0
 10
192.5575574535423
 20
122.4450168129741
 30
0.0
 10
192.4961213142692
 20
122.5598585973589
 30
0.0
 10
192.3509878379584
 20
122.777200794929
 30
0.0
 10
192.2665661491073
 20
122.8800424427768
 30
0.0
 10
191.9899659749424
 20
123.1565859235284
 30
0.0
 10
191.7669670636754
 20
123.3055685596605
 30
0.0
 10
191.2857325460897
 20
123.5051116232152
 30
0.0
 10
191.0224331305807
 20
123.5577220962466
 30
0.0
 10
190.6308696905404
 20
123.5579361549991
 30
0.0
 10
190.4982820799357
 20
123.5449373055936
 30
0.0
 10
190.2417163743364
 20
123.4938872215672
 30
0.0
 10
190.1170066081559
 20
123.456115982755
 30
0.0
 10
189.8747674231289
 20
123.3559240746425
 30
0.0
 10
189.7577507693552
 20
123.293338680818
 30
0.0
 10
189.5411075645089
 20
123.1486335951074
 30
0.0
 10
189.4401008080505
 20
123.0660142537272
 30
0.0
 10
189.2532947123939
 20
122.8793702189372
 30
0.0
 10
189.170581176862
 20
122.7784243709773
 30
0.0
 10
189.0257110474867
 20
122.5619431672956
 30
0.0
 10
188.96304075139
 20
122.4450260022872
 30
0.0
 10
188.8626128133538
 20
122.2028295330887
 30
0.0
 10
188.824741634424
 20
122.0781685421852
 30
0.0
 10
188.7734792366483
 20
121.8217691931172
 30
0.0
 10
188.7603455960076
 20
121.6891582678194
 30
0.0
 10
188.7602016628689
 20
121.2974836554842
 30
0.0
 10
188.8125669201336
 20
121.0341996358237
 30
0.0
 10
189.0117275834843
 20
120.5526869219638
 30
0.0
 10
189.1605252568463
 20
120.3295658349189
 30
0.0
 10
189.4368259154324
 20
120.0527336864114
 30
0.0
 10
189.5395909624922
 20
119.9682264721271
 30
0.0
 10
189.7568082362866
 20
119.8229055304412
 30
0.0
 10
189.8715779297243
 20
119.7613833071791
 30
0.0
 10
190.113564466869
 20
119.6607869039071
 30
0.0
 10
190.2406470397604
 20
119.6221590158185
 30
0.0
 10
190.4963217397635
 20
119.5710809057524
 30
0.0
 10
190.6262622571078
 20
119.5579917659852
 30
0.0
 10
190.8905256248691
 20
119.5577402476266
 30
0.0
 10
191.020736518516
 20
119.570614717683
 30
0.0
 10
191.2764864639497
 20
119.621233614815
 30
0.0
 10
191.403503848317
 20
119.6595814336108
 30
0.0
 10
191.6458555760687
 20
119.7598155538042
 30
0.0
 10
191.760758355355
 20
119.8211597407942
 30
0.0
 10
191.978180520504
 20
119.9660647453233
 30
0.0
 10
192.0811169179487
 20
120.0504036374453
 30
0.0
 10
192.3579540751057
 20
120.3268047504871
 30
0.0
 10
192.5071093161698
 20
120.5496483835296
 30
0.0
 10
192.7070799014051
 20
121.0307116647801
 30
0.0
 10
192.7602974832521
 20
121.2934289864894
 30
0.0
 10
192.7602974832521
 20
121.6900831581614
 30
0.0
  0
SPLINE
  5
FB
330
1F
100
AcDbEntity
  8
0
  6
HIDDEN
 62
     7
370
     0
100
AcDbSpline
210
0.0
220
0.0
230
1.0
 70
     8
 71
     3
 72
    12
 73
     8
 74
     0
 42
0.00000001
 43
0.00000001
 12
1.0
 22
0.0
 32
0.0
 13
1.0
 23
0.0
 33
0.0
 40
0.0
 40
0.0
 40
0.0
 40
0.0
 40
0.4999999999999977
 40
0.4999999999999977
 40
0.7499999999999988
 40
0.7499999999999988
 40
1.0
 40
1.0
 40
1.0
 40
1.0
 10
185.432391864116
 20
115.4196199738783
 30
0.0
 10
185.4510850972464
 20
115.4872026103187
 30
0.0
 10
185.4767403946582
 20
115.5536851797961
 30
0.0
 10
185.5369010173446
 20
115.6426802626937
 30
0.0
 10
185.560973329099
 20
115.6706821596928
 30
0.0
 10
185.6193548494495
 20
115.713758560358
 30
0.0
 10
185.6548236771026
 20
115.7286521052857
 30
0.0
 10
185.6921994852513
 20
115.7286521052857
 30
0.0
  0
LINE
  5
FC
330
1F
100
AcDbEntity
  8
0
  6
HIDDEN
 62
     7
370
     0
100
AcDbLine
 10
185.6921994853
 20
115.7286521053
 30
0.0
 11
187.8283954813
 21
115.7286521053
 31
0.0
  0
SPLINE
  5
FD
330
1F
100
AcDbEntity
  8
0
  6
HIDDEN
 62
     7
370
     0
100
AcDbSpline
210
0.0
220
0.0
230
1.0
 70
     8
 71
     3
 72
    12
 73
     8
 74
     0
 42
0.00000001
 43
0.00000001
 12
1.0
 22
0.0
 32
0.0
 13
1.0
 23
0.0
 33
0.0
 40
0.0
 40
0.0
 40
0.0
 40
0.0
 40
0.2499999999999986
 40
0.2499999999999986
 40
0.4999999999999971
 40
0.4999999999999971
 40
1.0
 40
1.0
 40
1.0
 40
1.0
 10
187.8283954812529
 20
115.7286521052857
 30
0.0
 10
187.8659073672976
 20
115.7286521052857
 30
0.0
 10
187.9011947150024
 20
115.713847290999
 30
0.0
 10
187.9601245632408
 20
115.6702554178731
 30
0.0
 10
187.9836502897098
 20
115.6427419917871
 30
0.0
 10
188.0439090774779
 20
115.5536102596735
 30
0.0
 10
188.0695038397673
 20
115.4872244090557
 30
0.0
 10
188.0882031023883
 20
115.4196199738783
 30
0.0
  0
ELLIPSE
  5
FE
330
1F
100
AcDbEntity
  8
0
  6
HIDDEN
 62
     7
370
     0
100
AcDbEllipse
 10
177.8113683108
 20
121.5578651009
 30
0.0
 11
-9.367417879781755
 21
19.74174915274993
 31
0.0
210
0.0
220
0.0
230
1.0
 40
0.3419987131
 41
3.292664382516897
 42
4.239566697061003
  0
SPLINE
  5
FF
330
1F
100
AcDbEntity
  8
0
  6
HIDDEN
 62
     7
370
     0
100
AcDbSpline
210
0.0
220
0.0
230
1.0
 70
     8
 71
     3
 72
    12
 73
     8
 74
     0
 42
0.00000001
 43
0.00000001
 12
1.0
 22
0.0
 32
0.0
 13
1.0
 23
0.0
 33
0.0
 40
0.0
 40
0.0
 40
0.0
 40
0.0
 40
0.4999999999999973
 40
0.4999999999999973
 40
0.7499999999999987
 40
0.7499999999999987
 40
1.0
 40
1.0
 40
1.0
 40
1.0
 10
188.0882031023883
 20
102.5231088177554
 30
0.0
 10
188.0695098692578
 20
102.5013150641275
 30
0.0
 10
188.0438545718461
 20
102.4802949024179
 30
0.0
 10
187.9836939491596
 20
102.4525895564542
 30
0.0
 10
187.9596216374053
 20
102.4439543402608
 30
0.0
 10
187.9012401170547
 20
102.4307396950342
 30
0.0
 10
187.8657712894017
 20
102.426208720704
 30
0.0
 10
187.8283954812529
 20
102.426208720704
 30
0.0
  0
LINE
  5
100
330
1F
100
AcDbEntity
  8
0
  6
HIDDEN
 62
     7
370
     0
100
AcDbLine
 10
187.8283954813
 20
102.4262087207
 30
0.0
 11
185.6921994853
 21
102.4262087207
 31
0.0
  0
SPLINE
  5
101
330
1F
100
AcDbEntity
  8
0
  6
HIDDEN
 62
     7
370
     0
100
AcDbSpline
210
0.0
220
0.0
230
1.0
 70
     8
 71
     3
 72
    12
 73
     8
 74
     0
 42
0.00000001
 43
0.00000001
 12
1.0
 22
0.0
 32
0.0
 13
1.0
 23
0.0
 33
0.0
 40
0.0
 40
0.0
 40
0.0
 40
0.0
 40
0.2500000000000008
 40
0.2500000000000008
 40
0.5000000000000016
 40
0.5000000000000016
 40
1.0
 40
1.0
 40
1.0
 40
1.0
 10
185.6921994852513
 20
102.426208720704
 30
0.0
 10
185.6546875992067
 20
102.426208720704
 30
0.0
 10
185.6194002515019
 20
102.4307122649665
 30
0.0
 10
185.5604704032635
 20
102.4440854644198
 30
0.0
 10
185.5369446767944
 20
102.452570366991
 30
0.0
 10
185.4766858890264
 20
102.4803181708256
 30
0.0
 10
185.4510911267371
 20
102.5013080345659
 30
0.0
 10
185.432391864116
 20
102.5231088177554
 30
0.0
  0
ELLIPSE
  5
102
330
1F
100
AcDbEntity
  8
0
  6
HIDDEN
 62
     7
370
     0
100
AcDbEllipse
 10
195.7092266557
 20
121.5578651009
 30
0.0
 11
9.367417879781641
 21
19.74174915274993
 31
0.0
210
0.0
220
0.0
230
1.0
 40
0.3419987131
 41
2.043618610118594
 42
2.990520924662733
  0
SPLINE
  5
103
330
1F
100
AcDbEntity
  8
0
  6
HIDDEN
 62
     7
370
     0
100
AcDbSpline
210
0.0
220
0.0
230
1.0
 70
     8
 71
     3
 72
    12
 73
     8
 74
     0
 42
0.00000001
 43
0.00000001
 12
1.0
 22
0.0
 32
0.0
 13
1.0
 23
0.0
 33
0.0
 40
0.0
 40
0.0
 40
0.0
 40
0.0
 40
0.5000000000000023
 40
0.5000000000000023
 40
0.7500000000000011
 40
0.7500000000000011
 40
1.0
 40
1.0
 40
1.0
 40
1.0
 10
185.432391864116
 20
140.5926213841194
 30
0.0
 10
185.4510850972464
 20
140.6144151377473
 30
0.0
 10
185.4767403946582
 20
140.6354352994569
 30
0.0
 10
185.5369010173447
 20
140.6631406454206
 30
0.0
 10
185.560973329099
 20
140.6717758616141
 30
0.0
 10
185.6193548494496
 20
140.6849905068406
 30
0.0
 10
185.6548236771026
 20
140.6895214811708
 30
0.0
 10
185.6921994852513
 20
140.6895214811708
 30
0.0
  0
LINE
  5
104
330
1F
100
AcDbEntity
  8
0
  6
HIDDEN
 62
     7
370
     0
100
AcDbLine
 10
185.6921994853
 20
140.6895214812
 30
0.0
 11
187.8283954813
 21
140.6895214812
 31
0.0
  0
SPLINE
  5
105
330
1F
100
AcDbEntity
  8
0
  6
HIDDEN
 62
     7
370
     0
100
AcDbSpline
210
0.0
220
0.0
230
1.0
 70
     8
 71
     3
 72
    12
 73
     8
 74
     0
 42
0.00000001
 43
0.00000001
 12
1.0
 22
0.0
 32
0.0
 13
1.0
 23
0.0
 33
0.0
 40
0.0
 40
0.0
 40
0.0
 40
0.0
 40
0.2500000000000003
 40
0.2500000000000003
 40
0.5000000000000006
 40
0.5000000000000006
 40
1.0
 40
1.0
 40
1.0
 40
1.0
 10
187.828395481253
 20
140.6895214811708
 30
0.0
 10
187.8659073672976
 20
140.6895214811708
 30
0.0
 10
187.9011947150023
 20
140.6850179369083
 30
0.0
 10
187.9601245632407
 20
140.671644737455
 30
0.0
 10
187.9836502897098
 20
140.6631598348838
 30
0.0
 10
188.0439090774779
 20
140.6354120310493
 30
0.0
 10
188.0695038397672
 20
140.6144221673089
 30
0.0
 10
188.0882031023883
 20
140.5926213841194
 30
0.0
  0
ELLIPSE
  5
106
330
1F
100
AcDbEntity
  8
0
  6
HIDDEN
 62
     7
370
     0
100
AcDbEllipse
 10
177.8113683108
 20
121.5578651009
 30
0.0
 11
9.367417879781812
 21
19.74174915274993
 31
0.0
210
0.0
220
0.0
230
1.0
 40
0.3419987131
 41
5.185211263708415
 42
6.132113578252573
  0
SPLINE
  5
107
330
1F
100
AcDbEntity
  8
0
  6
HIDDEN
 62
     7
370
     0
100
AcDbSpline
210
0.0
220
0.0
230
1.0
 70
     8
 71
     3
 72
    12
 73
     8
 74
     0
 42
0.00000001
 43
0.00000001
 12
1.0
 22
0.0
 32
0.0
 13
1.0
 23
0.0
 33
0.0
 40
0.0
 40
0.0
 40
0.0
 40
0.0
 40
0.5000000000000008
 40
0.5000000000000008
 40
0.7500000000000003
 40
0.7500000000000003
 40
1.0
 40
1.0
 40
1.0
 40
1.0
 10
188.0882031023883
 20
127.6961102279967
 30
0.0
 10
188.0695098692579
 20
127.6285275915563
 30
0.0
 10
188.0438545718461
 20
127.5620450220789
 30
0.0
 10
187.9836939491596
 20
127.4730499391814
 30
0.0
 10
187.9596216374053
 20
127.4450480421822
 30
0.0
 10
187.9012401170547
 20
127.4019716415171
 30
0.0
 10
187.8657712894017
 20
127.3870780965893
 30
0.0
 10
187.8283954812529
 20
127.3870780965893
 30
0.0
  0
LINE
  5
108
330
1F
100
AcDbEntity
  8
0
  6
HIDDEN
 62
     7
370
     0
100
AcDbLine
 10
187.8283954813
 20
127.3870780966
 30
0.0
 11
185.6921994853
 21
127.3870780966
 31
0.0
  0
SPLINE
  5
109
330
1F
100
AcDbEntity
  8
0
  6
HIDDEN
 62
     7
370
     0
100
AcDbSpline
210
0.0
220
0.0
230
1.0
 70
     8
 71
     3
 72
    12
 73
     8
 74
     0
 42
0.00000001
 43
0.00000001
 12
1.0
 22
0.0
 32
0.0
 13
1.0
 23
0.0
 33
0.0
 40
0.0
 40
0.0
 40
0.0
 40
0.0
 40
0.2499999999999973
 40
0.2499999999999973
 40
0.4999999999999947
 40
0.4999999999999947
 40
1.0
 40
1.0
 40
1.0
 40
1.0
 10
185.6921994852513
 20
127.3870780965893
 30
0.0
 10
185.6546875992067
 20
127.3870780965893
 30
0.0
 10
185.6194002515019
 20
127.4018829108761
 30
0.0
 10
185.5604704032635
 20
127.4454747840019
 30
0.0
 10
185.5369446767944
 20
127.4729882100879
 30
0.0
 10
185.4766858890264
 20
127.5621199422015
 30
0.0
 10
185.4510911267371
 20
127.6285057928193
 30
0.0
 10
185.432391864116
 20
127.6961102279967
 30
0.0
  0
ELLIPSE
  5
10A
330
1F
100
AcDbEntity
  8
0
  6
HIDDEN
 62
     7
370
     0
100
AcDbEllipse
 10
195.7092266557
 20
121.5578651009
 30
0.0
 11
-9.367417879781694
 21
19.74174915274993
 31
0.0
210
0.0
220
0.0
230
1.0
 40
0.3419987131
 41
0.1510717289270571
 42
1.09797404347119
  0
LINE
  5
10B
330
1F
100
AcDbEntity
  8
0
  6
HIDDEN
 62
     7
370
     0
100
AcDbLine
 10
178.7602974833
 20
105.7578651009
 30
0.0
 11
178.7602974833
 21
137.3578651009
 31
0.0
  0
SPLINE
  5
10C
330
1F
100
AcDbEntity
  8
0
  6
HIDDEN
 62
     7
370
     0
100
AcDbSpline
210
0.0
220
0.0
230
1.0
 70
     8
 71
     3
 72
    18
 73
    14
 74
     0
 42
0.00000001
 43
0.00000001
 12
1.0
 22
0.0
 32
0.0
 13
1.0
 23
0.0
 33
0.0
 40
0.0
 40
0.0
 40
0.0
 40
0.0
 40
0.2499999999999993
 40
0.2499999999999993
 40
0.4999999999999987
 40
0.4999999999999987
 40
0.624999999999999
 40
0.624999999999999
 40
0.7499999999999993
 40
0.7499999999999993
 40
0.8749999999999997
 40
0.8749999999999997
 40
1.0
 40
1.0
 40
1.0
 40
1.0
 10
177.5042131656892
 20
131.3823050190886
 30
0.0
 10
177.5385142102219
 20
131.2742948332911
 30
0.0
 10
177.5763344815187
 20
131.1670177452631
 30
0.0
 10
177.6629528019795
 20
130.9555210479465
 30
0.0
 10
177.711324136723
 20
130.8511346977769
 30
0.0
 10
177.8007271188415
 20
130.7002597751326
 30
0.0
 10
177.8333244027187
 20
130.650914772097
 30
0.0
 10
177.9097063066636
 20
130.5563091336267
 30
0.0
 10
177.9527447440043
 20
130.5113131988721
 30
0.0
 10
178.0585577768362
 20
130.4403854262143
 30
0.0
 10
178.1235962015673
 20
130.4164388823077
 30
0.0
 10
178.2567482733699
 20
130.4287195463785
 30
0.0
 10
178.3161174538331
 20
130.4620365043833
 30
0.0
 10
178.3653205943769
 20
130.5028713906081
 30
0.0
  0
SPLINE
  5
10D
330
1F
100
AcDbEntity
  8
0
  6
HIDDEN
 62
     7
370
     0
100
AcDbSpline
210
0.0
220
0.0
230
1.0
 70
     8
 71
     3
 72
    16
 73
    12
 74
     0
 42
0.00000001
 43
0.00000001
 12
1.0
 22
0.0
 32
0.0
 13
1.0
 23
0.0
 33
0.0
 40
0.0
 40
0.0
 40
0.0
 40
0.0
 40
0.0624999999999991
 40
0.0624999999999991
 40
0.1249999999999981
 40
0.1249999999999981
 40
0.2500000000000002
 40
0.2500000000000002
 40
0.5000000000000001
 40
0.5000000000000001
 40
1.0
 40
1.0
 40
1.0
 40
1.0
 10
178.3653205943461
 20
130.5028713906375
 30
0.0
 10
178.3773904276219
 20
130.5128884396178
 30
0.0
 10
178.3916660825552
 20
130.5218475466735
 30
0.0
 10
178.4231304946797
 20
130.5297179420677
 30
0.0
 10
178.43863101949
 20
130.5273604514254
 30
0.0
 10
178.4740699160969
 20
130.5103847592474
 30
0.0
 10
178.4876625322003
 20
130.4898362680798
 30
0.0
 10
178.5206568505931
 20
130.4278939410661
 30
0.0
 10
178.5314442439119
 20
130.381498390861
 30
0.0
 10
178.556497491191
 20
130.2385623621665
 30
0.0
 10
178.5602974832523
 20
130.138999645281
 30
0.0
 10
178.5602974832523
 20
130.0372322406344
 30
0.0
  0
LINE
  5
10E
330
1F
100
AcDbEntity
  8
0
  6
HIDDEN
 62
     7
370
     0
100
AcDbLine
 10
178.5602974833
 20
113.0784979612
 30
0.0
 11
178.5602974833
 21
130.0372322406
 31
0.0
  0
SPLINE
  5
10F
330
1F
100
AcDbEntity
  8
0
  6
HIDDEN
 62
     7
370
     0
100
AcDbSpline
210
0.0
220
0.0
230
1.0
 70
     8
 71
     3
 72
    16
 73
    12
 74
     0
 42
0.00000001
 43
0.00000001
 12
1.0
 22
0.0
 32
0.0
 13
1.0
 23
0.0
 33
0.0
 40
0.0
 40
0.0
 40
0.0
 40
0.0
 40
0.4999999999999973
 40
0.4999999999999973
 40
0.7499999999999936
 40
0.7499999999999936
 40
0.874999999999996
 40
0.874999999999996
 40
0.937499999999998
 40
0.937499999999998
 40
1.0
 40
1.0
 40
1.0
 40
1.0
 10
178.5602974832521
 20
113.0784979612402
 30
0.0
 10
178.5602974832521
 20
112.9764878076601
 30
0.0
 10
178.5564140580932
 20
112.8769634324069
 30
0.0
 10
178.5315987328186
 20
112.7349783363962
 30
0.0
 10
178.520759285106
 20
112.6879850358258
 30
0.0
 10
178.4875435030572
 20
112.6256923054642
 30
0.0
 10
178.4741617594285
 20
112.6054108731791
 30
0.0
 10
178.4386521095662
 20
112.5883691649786
 30
0.0
 10
178.4232351430655
 20
112.5859829099625
 30
0.0
 10
178.3915341209168
 20
112.5939188398205
 30
0.0
 10
178.3773878359661
 20
112.6028439131951
 30
0.0
 10
178.3653205943764
 20
112.612858811267
 30
0.0
  0
SPLINE
  5
110
330
1F
100
AcDbEntity
  8
0
  6
HIDDEN
 62
     7
370
     0
100
AcDbSpline
210
0.0
220
0.0
230
1.0
 70
     8
 71
     3
 72
    18
 73
    14
 74
     0
 42
0.00000001
 43
0.00000001
 12
1.0
 22
0.0
 32
0.0
 13
1.0
 23
0.0
 33
0.0
 40
0.0
 40
0.0
 40
0.0
 40
0.0
 40
0.125
 40
0.125
 40
0.25
 40
0.25
 40
0.375
 40
0.375
 40
0.5
 40
0.5
 40
0.75
 40
0.75
 40
1.0
 40
1.0
 40
1.0
 40
1.0
 10
178.3653205943826
 20
112.6128588112744
 30
0.0
 10
178.3166151022405
 20
112.6532806869558
 30
0.0
 10
178.2581049939136
 20
112.6863128084236
 30
0.0
 10
178.1263758756215
 20
112.6995899603764
 30
0.0
 10
178.0616169392809
 20
112.6766363733963
 30
0.0
 10
177.9564059664214
 20
112.6075831764767
 30
0.0
 10
177.9131895909814
 20
112.5631155246358
 30
0.0
 10
177.8370110858695
 20
112.4699458652657
 30
0.0
 10
177.8041561244896
 20
112.4208034957049
 30
0.0
 10
177.7137878446558
 20
112.2695937607651
 30
0.0
 10
177.6643646102857
 20
112.1634389912368
 30
0.0
 10
177.5767161552376
 20
111.9498573755753
 30
0.0
 10
177.5386569830347
 20
111.8418849443401
 30
0.0
 10
177.5042131656892
 20
111.7334251827861
 30
0.0
  0
SPLINE
  5
111
330
1F
100
AcDbEntity
  8
0
  6
HIDDEN
 62
     7
370
     0
100
AcDbSpline
210
0.0
220
0.0
230
1.0
 70
     8
 71
     3
 72
     8
 73
     4
 74
     0
 42
0.00000001
 43
0.00000001
 12
1.0
 22
0.0
 32
0.0
 13
1.0
 23
0.0
 33
0.0
 40
0.0
 40
0.0
 40
0.0
 40
0.0
 40
1.0
 40
1.0
 40
1.0
 40
1.0
 10
177.5042131656886
 20
111.7334251827856
 30
0.0
 10
177.4798994617985
 20
111.6568640252355
 30
0.0
 10
177.4584028198424
 20
111.5804386541023
 30
0.0
 10
177.4389771396924
 20
111.5043457833306
 30
0.0
  0
SPLINE
  5
112
330
1F
100
AcDbEntity
  8
0
  6
HIDDEN
 62
     7
370
     0
100
AcDbSpline
210
0.0
220
0.0
230
1.0
 70
     8
 71
     3
 72
     8
 73
     4
 74
     0
 42
0.00000001
 43
0.00000001
 12
1.0
 22
0.0
 32
0.0
 13
1.0
 23
0.0
 33
0.0
 40
0.0
 40
0.0
 40
0.0
 40
0.0
 40
1.0
 40
1.0
 40
1.0
 40
1.0
 10
177.4389771396924
 20
107.7328010929322
 30
0.0
 10
177.4584025665858
 20
107.7293038893449
 30
0.0
 10
177.4798991205548
 20
107.7272875717026
 30
0.0
 10
177.5042131656892
 20
107.7266767182588
 30
0.0
  0
SPLINE
  5
113
330
1F
100
AcDbEntity
  8
0
  6
HIDDEN
 62
     7
370
     0
100
AcDbSpline
210
0.0
220
0.0
230
1.0
 70
     8
 71
     3
 72
     8
 73
     4
 74
     0
 42
0.00000001
 43
0.00000001
 12
1.0
 22
0.0
 32
0.0
 13
1.0
 23
0.0
 33
0.0
 40
0.0
 40
0.0
 40
0.0
 40
0.0
 40
1.0
 40
1.0
 40
1.0
 40
1.0
 10
178.5374464701462
 20
107.6373183272007
 30
0.0
 10
178.556383402312
 20
107.6093638897992
 30
0.0
 10
178.5602974832523
 20
107.5892800384429
 30
0.0
 10
178.5602974832523
 20
107.5730531942774
 30
0.0
  0
LINE
  5
114
330
1F
100
AcDbEntity
  8
0
  6
HIDDEN
 62
     7
370
     0
100
AcDbLine
 10
178.5602974833
 20
107.4680448221
 30
0.0
 11
178.5602974833
 21
107.5730531943
 31
0.0
  0
LINE
  5
115
330
1F
100
AcDbEntity
  8
0
  6
HIDDEN
 62
     7
370
     0
100
AcDbLine
 10
178.5602974833
 20
135.5426770076
 30
0.0
 11
178.5602974833
 21
135.6476853798
 31
0.0
  0
SPLINE
  5
116
330
1F
100
AcDbEntity
  8
0
  6
HIDDEN
 62
     7
370
     0
100
AcDbSpline
210
0.0
220
0.0
230
1.0
 70
     8
 71
     3
 72
    10
 73
     6
 74
     0
 42
0.00000001
 43
0.00000001
 12
1.0
 22
0.0
 32
0.0
 13
1.0
 23
0.0
 33
0.0
 40
0.0
 40
0.0
 40
0.0
 40
0.0
 40
0.5
 40
0.5
 40
1.0
 40
1.0
 40
1.0
 40
1.0
 10
178.5602974832521
 20
135.5426770075975
 30
0.0
 10
178.5602974832521
 20
135.5325508074774
 30
0.0
 10
178.5582889042066
 20
135.5207902149236
 30
0.0
 10
178.5471056763012
 20
135.4928090001733
 30
0.0
 10
178.5388045426267
 20
135.4768286858357
 30
0.0
 10
178.5199581533845
 20
135.4564726038081
 30
0.0
  0
SPLINE
  5
117
330
1F
100
AcDbEntity
  8
0
  6
HIDDEN
 62
     7
370
     0
100
AcDbSpline
210
0.0
220
0.0
230
1.0
 70
     8
 71
     3
 72
     8
 73
     4
 74
     0
 42
0.00000001
 43
0.00000001
 12
1.0
 22
0.0
 32
0.0
 13
1.0
 23
0.0
 33
0.0
 40
0.0
 40
0.0
 40
0.0
 40
0.0
 40
1.0
 40
1.0
 40
1.0
 40
1.0
 10
177.5042131656888
 20
135.389053483616
 30
0.0
 10
177.4798991205546
 20
135.3884426301721
 30
0.0
 10
177.4584025665856
 20
135.3864263125298
 30
0.0
 10
177.4389771396924
 20
135.3829291089426
 30
0.0
  0
SPLINE
  5
118
330
1F
100
AcDbEntity
  8
0
  6
HIDDEN
 62
     7
370
     0
100
AcDbSpline
210
0.0
220
0.0
230
1.0
 70
     8
 71
     3
 72
     8
 73
     4
 74
     0
 42
0.00000001
 43
0.00000001
 12
1.0
 22
0.0
 32
0.0
 13
1.0
 23
0.0
 33
0.0
 40
0.0
 40
0.0
 40
0.0
 40
0.0
 40
1.0
 40
1.0
 40
1.0
 40
1.0
 10
177.4389771396924
 20
131.6113844185441
 30
0.0
 10
177.4584028198424
 20
131.5352915477724
 30
0.0
 10
177.4798994617985
 20
131.4588661766392
 30
0.0
 10
177.5042131656886
 20
131.3823050190892
 30
0.0
  0
SPLINE
  5
119
330
1F
100
AcDbEntity
  8
0
  6
HIDDEN
 62
     7
370
     0
100
AcDbSpline
210
0.0
220
0.0
230
1.0
 70
     8
 71
     3
 72
    62
 73
    58
 74
     0
 42
0.00000001
 43
0.00000001
 12
1.0
 22
0.0
 32
0.0
 13
1.0
 23
0.0
 33
0.0
 40
-0.0312500000000002
 40
-0.0312500000000002
 40
0.0
 40
0.0
 40
0.03125
 40
0.03125
 40
0.0624999999999999
 40
0.0624999999999999
 40
0.0937499999999999
 40
0.0937499999999999
 40
0.1249999999999999
 40
0.1249999999999999
 40
0.1874999999999998
 40
0.1874999999999998
 40
0.2187499999999998
 40
0.2187499999999998
 40
0.2499999999999997
 40
0.2499999999999997
 40
0.2812499999999996
 40
0.2812499999999996
 40
0.3124999999999995
 40
0.3124999999999995
 40
0.3437499999999994
 40
0.3437499999999994
 40
0.3749999999999993
 40
0.3749999999999993
 40
0.4062499999999995
 40
0.4062499999999995
 40
0.4374999999999996
 40
0.4374999999999996
 40
0.4687499999999998
 40
0.4687499999999998
 40
0.4999999999999999
 40
0.4999999999999999
 40
0.5624999999999997
 40
0.5624999999999997
 40
0.5937499999999998
 40
0.5937499999999998
 40
0.6249999999999999
 40
0.6249999999999999
 40
0.6874999999999997
 40
0.6874999999999997
 40
0.7187499999999997
 40
0.7187499999999997
 40
0.7499999999999996
 40
0.7499999999999996
 40
0.7812499999999996
 40
0.7812499999999996
 40
0.8124999999999996
 40
0.8124999999999996
 40
0.8749999999999996
 40
0.8749999999999996
 40
0.9062499999999997
 40
0.9062499999999997
 40
0.9374999999999998
 40
0.9374999999999998
 40
0.9687499999999998
 40
0.9687499999999998
 40
1.0
 40
1.0
 40
1.03125
 40
1.03125
 10
192.6204559374503
 20
121.2997780085915
 30
0.0
 10
192.9001390290537
 20
121.2997780085915
 30
0.0
 10
193.0374229860113
 20
121.285091209224
 30
0.0
 10
193.3071587408627
 20
121.2279987428432
 30
0.0
 10
193.4410407599583
 20
121.1848439548437
 30
0.0
 10
193.6947873183563
 20
121.0739056461954
 30
0.0
 10
193.8149729800989
 20
121.0064600118212
 30
0.0
 10
194.0424355716127
 20
120.8486533957611
 30
0.0
 10
194.1492507770743
 20
120.7582020776424
 30
0.0
 10
194.437495374399
 20
120.4644941000455
 30
0.0
 10
194.5936160733002
 20
120.2313743515505
 30
0.0
 10
194.7513315341424
 20
119.8619393149479
 30
0.0
 10
194.79224076325
 20
119.7332016958196
 30
0.0
 10
194.8466176682723
 20
119.4746676509925
 30
0.0
 10
194.8602051361619
 20
119.3459530204846
 30
0.0
 10
194.8603889011495
 20
119.0897852302288
 30
0.0
 10
194.8465028649433
 20
118.9614834618762
 30
0.0
 10
194.7924157803927
 20
118.7176121993974
 30
0.0
 10
194.7524070243477
 20
118.6006171753183
 30
0.0
 10
194.6460607497654
 20
118.3760414947053
 30
0.0
 10
194.5808614748479
 20
118.2711389788157
 30
0.0
 10
194.4291540708097
 20
118.0773107883252
 30
0.0
 10
194.3413533961697
 20
117.9870785032612
 30
0.0
 10
194.1480154868064
 20
117.8256570394659
 30
0.0
 10
194.0430671007948
 20
117.7545320382067
 30
0.0
 10
193.8163390908487
 20
117.630145230891
 30
0.0
 10
193.6935673398667
 20
117.57679260025
 30
0.0
 10
193.4408888676413
 20
117.492139137713
 30
0.0
 10
193.3099078961407
 20
117.460075575009
 30
0.0
 10
193.0381195248919
 20
117.4165755772691
 30
0.0
 10
192.8988859145576
 20
117.4056507438384
 30
0.0
 10
192.4857021317593
 20
117.4055163902667
 30
0.0
 10
192.2076263870445
 20
117.4493942175773
 30
0.0
 10
191.8275575590133
 20
117.5765595989181
 30
0.0
 10
191.7047893170711
 20
117.629897308224
 30
0.0
 10
191.4781031511848
 20
117.7541719128939
 30
0.0
 10
191.3729350426394
 20
117.8253596753686
 30
0.0
 10
191.0818485469093
 20
118.0683947696243
 30
0.0
 10
190.9279180246812
 20
118.2635302130997
 30
0.0
 10
190.7684864219314
 20
118.5998765637644
 30
0.0
 10
190.7284852243759
 20
118.7166589844172
 30
0.0
 10
190.6743260034465
 20
118.9600064000678
 30
0.0
 10
190.6603030968971
 20
119.0881848260736
 30
0.0
 10
190.6602918730604
 20
119.3448050414605
 30
0.0
 10
190.6738328262594
 20
119.4736233999135
 30
0.0
 10
190.7280509128693
 20
119.7321141334222
 30
0.0
 10
190.7689308674756
 20
119.8610577591206
 30
0.0
 10
190.9268989446514
 20
120.2313914571061
 30
0.0
 10
191.0829269020063
 20
120.4643589559463
 30
0.0
 10
191.3716740213315
 20
120.7585177257597
 30
0.0
 10
191.4788888560605
 20
120.8491993716736
 30
0.0
 10
191.7057422630104
 20
121.0065034083484
 30
0.0
 10
191.8257597752503
 20
121.0738837631499
 30
0.0
 10
192.0795779827044
 20
121.1848553026747
 30
0.0
 10
192.2134450267558
 20
121.2279987814085
 30
0.0
 10
192.48311226865
 20
121.2850803945126
 30
0.0
 10
192.6204559374503
 20
121.2997780085915
 30
0.0
 10
192.9001390290537
 20
121.2997780085915
 30
0.0
  0
SPLINE
  5
11A
330
1F
100
AcDbEntity
  8
0
  6
HIDDEN
 62
     7
370
     0
100
AcDbSpline
210
0.0
220
0.0
230
1.0
 70
     8
 71
     3
 72
    16
 73
    12
 74
     0
 42
0.00000001
 43
0.00000001
 12
1.0
 22
0.0
 32
0.0
 13
1.0
 23
0.0
 33
0.0
 40
0.0
 40
0.0
 40
0.0
 40
0.0
 40
0.5000000000000016
 40
0.5000000000000016
 40
0.7500000000000017
 40
0.7500000000000017
 40
0.875000000000001
 40
0.875000000000001
 40
0.9375000000000006
 40
0.9375000000000006
 40
1.0
 40
1.0
 40
1.0
 40
1.0
 10
193.1822587454099
 20
114.0313913255229
 30
0.0
 10
192.8866889355747
 20
114.0495618099819
 30
0.0
 10
192.6087723000325
 20
114.1377664572216
 30
0.0
 10
192.2098452381648
 20
114.3457063530441
 30
0.0
 10
192.082518258357
 20
114.4269658379915
 30
0.0
 10
191.8977992026878
 20
114.5654770202743
 30
0.0
 10
191.8374552022771
 20
114.6143808961597
 30
0.0
 10
191.7472571413696
 20
114.6916963990921
 30
0.0
 10
191.717201991386
 20
114.7182053409904
 30
0.0
 10
191.6554591346019
 20
114.7725228905189
 30
0.0
 10
191.623853557601
 20
114.8010905844978
 30
0.0
 10
191.5872776100534
 20
114.8281005929525
 30
0.0
  0
SPLINE
  5
11B
330
1F
100
AcDbEntity
  8
0
  6
HIDDEN
 62
     7
370
     0
100
AcDbSpline
210
0.0
220
0.0
230
1.0
 70
     8
 71
     3
 72
    54
 73
    50
 74
     0
 42
0.00000001
 43
0.00000001
 12
1.0
 22
0.0
 32
0.0
 13
1.0
 23
0.0
 33
0.0
 40
0.0
 40
0.0
 40
0.0
 40
0.0
 40
0.0078125000000001
 40
0.0078125000000001
 40
0.0156250000000003
 40
0.0156250000000003
 40
0.0312500000000006
 40
0.0312500000000006
 40
0.0625000000000012
 40
0.0625000000000012
 40
0.1250000000000017
 40
0.1250000000000017
 40
0.2500000000000019
 40
0.2500000000000019
 40
0.3125000000000021
 40
0.3125000000000021
 40
0.3750000000000023
 40
0.3750000000000023
 40
0.4062500000000023
 40
0.4062500000000023
 40
0.4375000000000022
 40
0.4375000000000022
 40
0.5000000000000022
 40
0.5000000000000022
 40
0.5625000000000022
 40
0.5625000000000022
 40
0.6250000000000021
 40
0.6250000000000021
 40
0.6875000000000022
 40
0.6875000000000022
 40
0.7500000000000023
 40
0.7500000000000023
 40
0.7656250000000024
 40
0.7656250000000024
 40
0.7734375000000022
 40
0.7734375000000022
 40
0.781250000000002
 40
0.781250000000002
 40
0.7890625000000019
 40
0.7890625000000019
 40
0.7968750000000017
 40
0.7968750000000017
 40
0.8125000000000018
 40
0.8125000000000018
 40
0.8750000000000014
 40
0.8750000000000014
 40
0.9375000000000008
 40
0.9375000000000008
 40
1.0
 40
1.0
 40
1.0
 40
1.0
 10
191.579258859933
 20
114.9237050611421
 30
0.0
 10
191.6010351534045
 20
114.9125167988359
 30
0.0
 10
191.6201688465371
 20
114.9059823579791
 30
0.0
 10
191.657388835047
 20
114.8953756205139
 30
0.0
 10
191.6752195057067
 20
114.8915847496407
 30
0.0
 10
191.7276207428653
 20
114.8821728294712
 30
0.0
 10
191.7615066111782
 20
114.8784565016802
 30
0.0
 10
191.8638672571809
 20
114.870515814975
 30
0.0
 10
191.9328837908567
 20
114.8698892530324
 30
0.0
 10
192.1435956827184
 20
114.877688082435
 30
0.0
 10
192.2890092177671
 20
114.8961147152555
 30
0.0
 10
192.7448031825432
 20
114.9910820998186
 30
0.0
 10
193.0794156264164
 20
115.1085827485712
 30
0.0
 10
193.5942136669945
 20
115.3930828123708
 30
0.0
 10
193.7657756479615
 20
115.5050898034237
 30
0.0
 10
194.0965930333357
 20
115.7669748341199
 30
0.0
 10
194.2531466101026
 20
115.9153741417329
 30
0.0
 10
194.4552933135703
 20
116.1543332199113
 30
0.0
 10
194.5156442903541
 20
116.2346642432817
 30
0.0
 10
194.6227542325651
 20
116.3966323936624
 30
0.0
 10
194.6698062661371
 20
116.4790875067991
 30
0.0
 10
194.7855843874051
 20
116.7183718269538
 30
0.0
 10
194.8313163941754
 20
116.87161407257
 30
0.0
 10
194.868596407775
 20
117.1466913054909
 30
0.0
 10
194.8610848584973
 20
117.2722483235431
 30
0.0
 10
194.8073837486641
 20
117.4923865915008
 30
0.0
 10
194.7617126057129
 20
117.5879538006494
 30
0.0
 10
194.6400925649178
 20
117.7554497968769
 30
0.0
 10
194.5647374653581
 20
117.8259787496375
 30
0.0
 10
194.3934104622027
 20
117.9414988713661
 30
0.0
 10
194.2958685427946
 20
117.9881876001757
 30
0.0
 10
194.1670306488656
 20
118.0257261217337
 30
0.0
 10
194.1408488858181
 20
118.0322120621069
 30
0.0
 10
194.103507178602
 20
118.0377908680923
 30
0.0
 10
194.0914058532116
 20
118.0389742802903
 30
0.0
 10
194.0701517722273
 20
118.0377293334466
 30
0.0
 10
194.0608446992609
 20
118.0353103907071
 30
0.0
 10
194.054777704087
 20
118.0200784401575
 30
0.0
 10
194.0595529565702
 20
118.0064074954119
 30
0.0
 10
194.0771675945779
 20
117.9753982644371
 30
0.0
 10
194.0889134994712
 20
117.9584905784102
 30
0.0
 10
194.126063136375
 20
117.9062586071522
 30
0.0
 10
194.1532249519073
 20
117.8698686284519
 30
0.0
 10
194.2869198426403
 20
117.6844582265232
 30
0.0
 10
194.3901649810911
 20
117.5224943584368
 30
0.0
 10
194.5673761932785
 20
117.1827114018278
 30
0.0
 10
194.6435724747691
 20
117.003904240835
 30
0.0
 10
194.7663178805934
 20
116.6257835239018
 30
0.0
 10
194.8128928240181
 20
116.4254051918226
 30
0.0
 10
194.8383794812369
 20
116.2193449789011
 30
0.0
  0
LWPOLYLINE
  5
11C
330
1F
100
AcDbEntity
  8
0
  6
HIDDEN
 62
     7
370
     0
100
AcDbPolyline
 90
       22
 70
   128
 43
0.0
 10
193.1822587454
 20
114.0313913255
 10
192.7081468925
 20
113.9922805899
 10
192.2367142483
 20
114.0531695128
 10
191.7921804132
 20
114.2109299582
 10
191.3973830754
 20
114.4574570677
 10
191.0726047374
 20
114.7800856426
 10
190.8345307126
 20
115.1622408122
 10
190.6953919271
 20
115.5842895588
 10
190.6623365616
 20
116.0245493535
 10
190.7370628178
 20
116.4604020845
 10
190.9157316742
 20
116.8694560505
 10
191.1891641138
 20
117.2306963226
 10
191.5433126911
 20
117.5255643747
 10
191.959983212
 20
117.7389115181
 10
192.4177694511
 20
117.8597771574
 10
192.8931528849
 20
117.8819518847
 10
193.3617109434
 20
117.8042964855
 10
193.7993717066
 20
117.6308004643
 10
194.1836505866
 20
117.3703770865
 10
194.4948054613
 20
117.0364054641
 10
194.716850915
 20
116.6460432109
 10
194.8383794812
 20
116.2193449789
  0
SPLINE
  5
11D
330
1F
100
AcDbEntity
  8
0
  6
HIDDEN
 62
     7
370
     0
100
AcDbSpline
210
0.0
220
0.0
230
1.0
 70
     8
 71
     3
 72
    24
 73
    20
 74
     0
 42
0.00000001
 43
0.00000001
 12
1.0
 22
0.0
 32
0.0
 13
1.0
 23
0.0
 33
0.0
 40
0.0
 40
0.0
 40
0.0
 40
0.0
 40
0.1250000000000004
 40
0.1250000000000004
 40
0.2500000000000008
 40
0.2500000000000008
 40
0.3750000000000012
 40
0.3750000000000012
 40
0.5000000000000016
 40
0.5000000000000016
 40
0.625000000000002
 40
0.625000000000002
 40
0.7500000000000023
 40
0.7500000000000023
 40
0.812500000000002
 40
0.812500000000002
 40
0.8750000000000016
 40
0.8750000000000016
 40
1.0
 40
1.0
 40
1.0
 40
1.0
 10
194.8383794812369
 20
116.2193449789012
 30
0.0
 10
194.7154840093722
 20
116.188261002353
 30
0.0
 10
194.5950869608358
 20
116.144065751808
 30
0.0
 10
194.3630902932125
 20
116.007832666669
 30
0.0
 10
194.2578265566822
 20
115.9163863387426
 30
0.0
 10
194.0723673569685
 20
115.7004391343778
 30
0.0
 10
193.9937186826991
 20
115.58192531873
 30
0.0
 10
193.8356586749132
 20
115.345191695924
 30
0.0
 10
193.7579714832313
 20
115.2303465461157
 30
0.0
 10
193.5952918111531
 20
115.0156242268982
 30
0.0
 10
193.509267694799
 20
114.9145883971504
 30
0.0
 10
193.3451956661202
 20
114.7264583241693
 30
0.0
 10
193.2669252542531
 20
114.6383955808872
 30
0.0
 10
193.1818476400692
 20
114.5049682934471
 30
0.0
 10
193.1595985652655
 20
114.4610632776692
 30
0.0
 10
193.1293936921848
 20
114.3727746368676
 30
0.0
 10
193.1215140246797
 20
114.3279913227889
 30
0.0
 10
193.1187016243955
 20
114.1971349240324
 30
0.0
 10
193.1433371093019
 20
114.1124454663352
 30
0.0
 10
193.18225874541
 20
114.0313913255229
 30
0.0
  0
LINE
  5
11E
330
1F
100
AcDbEntity
  8
0
  6
HIDDEN
 62
     7
370
     0
100
AcDbLine
 10
178.5602974833
 20
107.5730531943
 30
0.0
 11
178.5602974833
 21
116.052420334
 31
0.0
  0
LINE
  5
11F
330
1F
100
AcDbEntity
  8
0
  6
HIDDEN
 62
     7
370
     0
100
AcDbLine
 10
178.5602974833
 20
127.0633098679
 30
0.0
 11
178.5602974833
 21
135.5426770076
 31
0.0
  0
CIRCLE
  5
120
330
1F
100
AcDbEntity
  8
0
  6
HIDDEN
 62
     7
370
     0
100
AcDbCircle
 10
167.2602974833
 20
121.5578651009
 30
0.0
 40
2.299999999999997
  0
SPLINE
  5
121
330
1F
100
AcDbEntity
  8
0
  6
HIDDEN
 62
     7
370
     0
100
AcDbSpline
210
0.0
220
0.0
230
1.0
 70
     8
 71
     3
 72
    10
 73
     6
 74
     0
 42
0.00000001
 43
0.00000001
 12
1.0
 22
0.0
 32
0.0
 13
1.0
 23
0.0
 33
0.0
 40
0.0
 40
0.0
 40
0.0
 40
0.0
 40
0.5
 40
0.5
 40
1.0
 40
1.0
 40
1.0
 40
1.0
 10
201.9588963215622
 20
118.4040440210722
 30
0.0
 10
201.9374855100289
 20
118.9295493265904
 30
0.0
 10
201.9109837247088
 20
119.4549139665256
 30
0.0
 10
201.8715382868436
 20
120.5060178628703
 30
0.0
 10
201.8589958990576
 20
121.031768206381
 30
0.0
 10
201.8589958990576
 20
121.5578651009374
 30
0.0
  0
LINE
  5
122
330
1F
100
AcDbEntity
  8
0
  6
HIDDEN
 62
     7
370
     0
100
AcDbLine
 10
201.8589958991
 20
142.0578651009
 30
0.0
 11
201.8589958991
 21
121.5578651009
 31
0.0
  0
SPLINE
  5
123
330
1F
100
AcDbEntity
  8
0
  6
HIDDEN
 62
     7
370
     0
100
AcDbSpline
210
0.0
220
0.0
230
1.0
 70
     8
 71
     3
 72
    14
 73
    10
 74
     0
 42
0.00000001
 43
0.00000001
 12
1.0
 22
0.0
 32
0.0
 13
1.0
 23
0.0
 33
0.0
 40
0.0
 40
0.0
 40
0.0
 40
0.0
 40
0.2499999999999999
 40
0.2499999999999999
 40
0.4999999999999998
 40
0.4999999999999998
 40
0.7499999999999999
 40
0.7499999999999999
 40
1.0
 40
1.0
 40
1.0
 40
1.0
 10
201.9588963215622
 20
100.821650880981
 30
0.0
 10
201.9374843605564
 20
100.912908818699
 30
0.0
 10
201.9109838695735
 20
101.0041303989113
 30
0.0
 10
201.8715352353738
 20
101.1866703907517
 30
0.0
 10
201.8589990979461
 20
101.2779827332107
 30
0.0
 10
201.8589927014833
 20
101.460554572751
 30
0.0
 10
201.871515956091
 20
101.5518293675767
 30
0.0
 10
201.9109567846962
 20
101.7343799319846
 30
0.0
 10
201.9374788408703
 20
101.825679984732
 30
0.0
 10
201.9588963215622
 20
101.9169614473933
 30
0.0
  0
ELLIPSE
  5
124
330
1F
100
AcDbEntity
  8
0
  6
HIDDEN
 62
     7
370
     0
100
AcDbEllipse
 10
219.7158723346
 20
121.5578651009
 30
0.0
 11
-6.672029803933612
 21
20.49782756633783
 31
0.0
210
0.0
220
0.0
230
1.0
 40
0.0447296713
 41
6.268626856334468
 42
7.839423183129048
  0
SPLINE
  5
125
330
1F
100
AcDbEntity
  8
0
  6
HIDDEN
 62
     7
370
     0
100
AcDbSpline
210
0.0
220
0.0
230
1.0
 70
     8
 71
     3
 72
    38
 73
    34
 74
     0
 42
0.00000001
 43
0.00000001
 12
1.0
 22
0.0
 32
0.0
 13
1.0
 23
0.0
 33
0.0
 40
0.0
 40
0.0
 40
0.0
 40
0.0
 40
0.0625
 40
0.0625
 40
0.1250000000000001
 40
0.1250000000000001
 40
0.1875000000000001
 40
0.1875000000000001
 40
0.2500000000000001
 40
0.2500000000000001
 40
0.3125
 40
0.3125
 40
0.375
 40
0.375
 40
0.4374999999999999
 40
0.4374999999999999
 40
0.4999999999999999
 40
0.4999999999999999
 40
0.5624999999999999
 40
0.5624999999999999
 40
0.6249999999999999
 40
0.6249999999999999
 40
0.6875
 40
0.6875
 40
0.75
 40
0.75
 40
0.8125
 40
0.8125
 40
0.875
 40
0.875
 40
0.9375000000000001
 40
0.9375000000000001
 40
1.0
 40
1.0
 40
1.0
 40
1.0
 10
214.8094068899293
 20
121.5578651009374
 30
0.0
 10
214.8781101416005
 20
121.8709807090742
 30
0.0
 10
214.9115387411357
 20
122.185674701454
 30
0.0
 10
214.9100444163644
 20
122.8180892461038
 30
0.0
 10
214.8737786016644
 20
123.1388576905435
 30
0.0
 10
214.7335899239849
 20
123.7535528741323
 30
0.0
 10
214.6303094261814
 20
124.0506901745034
 30
0.0
 10
214.3541393989241
 20
124.6238816182107
 30
0.0
 10
214.1863975767836
 20
124.8891599765926
 30
0.0
 10
213.7938046532114
 20
125.3782149378102
 30
0.0
 10
213.5659416003363
 20
125.6036185933044
 30
0.0
 10
213.0723145364971
 20
125.9914819483759
 30
0.0
 10
212.8048645661155
 20
126.1569477378794
 30
0.0
 10
212.2279766422625
 20
126.4288916281449
 30
0.0
 10
211.9292686913975
 20
126.5303676668222
 30
0.0
 10
211.312057743155
 20
126.6675280584773
 30
0.0
 10
210.990509102561
 20
126.7025379587853
 30
0.0
 10
210.3574683971349
 20
126.702115796003
 30
0.0
 10
210.0422497234256
 20
126.6678837235193
 30
0.0
 10
209.4177747413174
 20
126.5293828139853
 30
0.0
 10
209.1192009376275
 20
126.4276088603023
 30
0.0
 10
208.5484217197155
 20
126.1605914103466
 30
0.0
 10
208.2743252283131
 20
125.9929968348485
 30
0.0
 10
207.7794819230771
 20
125.6071708203001
 30
0.0
 10
207.5551308250091
 20
125.387753572587
 30
0.0
 10
207.1564889502213
 20
124.8934970635062
 30
0.0
 10
206.9897255310114
 20
124.6280682315753
 30
0.0
 10
206.7197025146608
 20
124.0608794292095
 30
0.0
 10
206.6165720352401
 20
123.755842225065
 30
0.0
 10
206.4864161486602
 20
123.1391325242207
 30
0.0
 10
206.4572517533808
 20
122.8226971318298
 30
0.0
 10
206.4727781831433
 20
122.183579746831
 30
0.0
 10
206.516883206224
 20
121.8685238854115
 30
0.0
 10
206.5963871518493
 20
121.5578651009374
 30
0.0
  0
LINE
  5
126
330
1F
100
AcDbEntity
  8
0
  6
HIDDEN
 62
     7
370
     0
100
AcDbLine
 10
155.7873295153
 20
131.120558405
 30
0.0
 11
155.7873295153
 21
111.9951717968
 31
0.0
  0
LINE
  5
127
330
1F
100
AcDbEntity
  8
0
  6
HIDDEN
 62
     7
370
     0
100
AcDbLine
 10
154.7602974833
 20
111.4022145767
 30
0.0
 11
154.7602974833
 21
131.7008913515
 31
0.0
  0
LINE
  5
128
330
1F
100
AcDbEntity
  8
0
  6
HIDDEN
 62
     7
370
     0
100
AcDbLine
 10
159.2873295153
 20
130.7888052086
 30
0.0
 11
159.2873295153
 21
112.3269249933
 31
0.0
  0
LINE
  5
129
330
1F
100
AcDbEntity
  8
0
  6
HIDDEN
 62
     7
370
     0
100
AcDbLine
 10
162.6873295153
 20
130.5578651009
 30
0.0
 11
162.6873295153
 21
112.5578651009
 31
0.0
  0
LINE
  5
12A
330
1F
100
AcDbEntity
  8
0
  6
HIDDEN
 62
     7
370
     0
100
AcDbLine
 10
157.8873295153
 20
130.5578651009
 30
0.0
 11
157.8873295153
 21
112.5578651009
 31
0.0
  0
LINE
  5
12B
330
1F
100
AcDbEntity
  8
0
  6
HIDDEN
 62
     7
370
     0
100
AcDbLine
 10
158.8873295153
 20
130.5578651009
 30
0.0
 11
158.8873295153
 21
112.5578651009
 31
0.0
  0
SPLINE
  5
12C
330
1F
100
AcDbEntity
  8
0
  6
HIDDEN
 62
     7
370
     0
100
AcDbSpline
210
0.0
220
0.0
230
1.0
 70
     8
 71
     3
 72
    14
 73
    10
 74
     0
 42
0.00000001
 43
0.00000001
 12
1.0
 22
0.0
 32
0.0
 13
1.0
 23
0.0
 33
0.0
 40
0.0
 40
0.0
 40
0.0
 40
0.0
 40
0.25
 40
0.25
 40
0.5
 40
0.5
 40
0.75
 40
0.75
 40
1.0
 40
1.0
 40
1.0
 40
1.0
 10
169.2602974832521
 20
122.6936467700974
 30
0.0
 10
169.3585218297551
 20
122.5206833402939
 30
0.0
 10
169.4338366677392
 20
122.3356507858695
 30
0.0
 10
169.5348033779335
 20
121.952638571735
 30
0.0
 10
169.5601789642237
 20
121.7579200182694
 30
0.0
 10
169.56041518949
 20
121.3605447170038
 30
0.0
 10
169.5347121201545
 20
121.1630523825284
 30
0.0
 10
169.434392006638
 20
120.7818805478974
 30
0.0
 10
169.3585001785504
 20
120.5950087359248
 30
0.0
 10
169.2602974832567
 20
120.4220834317749
 30
0.0
  0
LINE
  5
12D
330
1F
100
AcDbEntity
  8
0
  6
HIDDEN
 62
     7
370
     0
100
AcDbLine
 10
169.7602974833
 20
130.057865096
 30
0.0
 11
169.7602974833
 21
113.0578651009
 31
0.0
  0
SPLINE
  5
12E
330
1F
100
AcDbEntity
  8
0
  6
HIDDEN
 62
     7
370
     0
100
AcDbSpline
210
0.0
220
0.0
230
1.0
 70
     8
 71
     3
 72
    14
 73
    10
 74
     0
 42
0.00000001
 43
0.00000001
 12
1.0
 22
0.0
 32
0.0
 13
1.0
 23
0.0
 33
0.0
 40
0.0
 40
0.0
 40
0.0
 40
0.0
 40
0.2500000000000001
 40
0.2500000000000001
 40
0.5
 40
0.5
 40
0.75
 40
0.75
 40
1.0
 40
1.0
 40
1.0
 40
1.0
 10
169.2602974832521
 20
120.4220834317773
 30
0.0
 10
169.3585218297551
 20
120.5950468615808
 30
0.0
 10
169.4338366677392
 20
120.7800794160052
 30
0.0
 10
169.5348033779335
 20
121.1630916301397
 30
0.0
 10
169.5601789642237
 20
121.3578101836053
 30
0.0
 10
169.56041518949
 20
121.7551854848709
 30
0.0
 10
169.5347121201545
 20
121.9526778193463
 30
0.0
 10
169.434392006638
 20
122.3338496539773
 30
0.0
 10
169.3585001785504
 20
122.5207214659499
 30
0.0
 10
169.2602974832567
 20
122.6936467700998
 30
0.0
  0
SPLINE
  5
12F
330
1F
100
AcDbEntity
  8
0
  6
HIDDEN
 62
     7
370
     0
100
AcDbSpline
210
0.0
220
0.0
230
1.0
 70
     8
 71
     3
 72
    60
 73
    56
 74
     0
 42
0.00000001
 43
0.00000001
 12
1.0
 22
0.0
 32
0.0
 13
1.0
 23
0.0
 33
0.0
 40
0.0
 40
0.0
 40
0.0
 40
0.0
 40
0.0625
 40
0.0625
 40
0.125
 40
0.125
 40
0.1875
 40
0.1875
 40
0.21875
 40
0.21875
 40
0.25
 40
0.25
 40
0.3124999999999999
 40
0.3124999999999999
 40
0.3749999999999999
 40
0.3749999999999999
 40
0.4062499999999999
 40
0.4062499999999999
 40
0.4374999999999999
 40
0.4374999999999999
 40
0.4687499999999999
 40
0.4687499999999999
 40
0.4999999999999999
 40
0.4999999999999999
 40
0.53125
 40
0.53125
 40
0.5625
 40
0.5625
 40
0.59375
 40
0.59375
 40
0.625
 40
0.625
 40
0.65625
 40
0.65625
 40
0.6875
 40
0.6875
 40
0.71875
 40
0.71875
 40
0.75
 40
0.75
 40
0.78125
 40
0.78125
 40
0.8125
 40
0.8125
 40
0.84375
 40
0.84375
 40
0.875
 40
0.875
 40
0.90625
 40
0.90625
 40
0.9375
 40
0.9375
 40
0.96875
 40
0.96875
 40
1.0
 40
1.0
 40
1.0
 40
1.0
 10
169.2602974832521
 20
120.4220834317773
 30
0.0
 10
169.1351075816735
 20
120.2016363071617
 30
0.0
 10
168.9782402631052
 20
120.0079025783414
 30
0.0
 10
168.6012027432864
 20
119.672212879579
 30
0.0
 10
168.3894894368654
 20
119.5382355212662
 30
0.0
 10
167.9235994549167
 20
119.3411087765811
 30
0.0
 10
167.6777602238651
 20
119.2818913643592
 30
0.0
 10
167.2982791707706
 20
119.2546846284686
 30
0.0
 10
167.1705334420766
 20
119.2561778936104
 30
0.0
 10
166.9200671954085
 20
119.2796936994194
 30
0.0
 10
166.7962378126003
 20
119.3016129182236
 30
0.0
 10
166.4290181385016
 20
119.3984494830685
 30
0.0
 10
166.1982491204159
 20
119.5022506045203
 30
0.0
 10
165.7783601589964
 20
119.7809690854483
 30
0.0
 10
165.5941017841088
 20
119.952531376952
 30
0.0
 10
165.3633533966255
 20
120.2511787382188
 30
0.0
 10
165.2943065468365
 20
120.3576462787211
 30
0.0
 10
165.175741883031
 20
120.5779296271141
 30
0.0
 10
165.1255335142814
 20
120.6925911435155
 30
0.0
 10
165.0437016619236
 20
120.9312717802922
 30
0.0
 10
165.0123507630409
 20
121.0553174071703
 30
0.0
 10
164.9709563850023
 20
121.3034324432787
 30
0.0
 10
164.960450609938
 20
121.4286701457672
 30
0.0
 10
164.9601476576022
 20
121.6815492013582
 30
0.0
 10
164.9706321872188
 20
121.8094288875948
 30
0.0
 10
165.0117722646803
 20
122.0578509488003
 30
0.0
 10
165.0423503852288
 20
122.1796498755686
 30
0.0
 10
165.1236330935801
 20
122.418429405043
 30
0.0
 10
165.174633980142
 20
122.5354709673496
 30
0.0
 10
165.2932010285051
 20
122.7562961652755
 30
0.0
 10
165.3610897817769
 20
122.8612345288383
 30
0.0
 10
165.5142402195145
 20
123.0602118620677
 30
0.0
 10
165.599796391087
 20
123.1542199872619
 30
0.0
 10
165.7825077620462
 20
123.3247126721986
 30
0.0
 10
165.8803150617281
 20
123.402150867248
 30
0.0
 10
166.0891181736451
 20
123.5413167631363
 30
0.0
 10
166.2007003489329
 20
123.6030985721432
 30
0.0
 10
166.429346148432
 20
123.706177442744
 30
0.0
 10
166.5473009594031
 20
123.7481814779397
 30
0.0
 10
166.7906294043918
 20
123.8129175992365
 30
0.0
 10
166.9169732797349
 20
123.8355908617991
 30
0.0
 10
167.1680792607527
 20
123.8594736579803
 30
0.0
 10
167.2937612544757
 20
123.861076959247
 30
0.0
 10
167.5453833242675
 20
123.8436102204761
 30
0.0
 10
167.6722809445533
 20
123.8241743298361
 30
0.0
 10
167.9174715108144
 20
123.7655811585125
 30
0.0
 10
168.0366606678479
 20
123.7265183073558
 30
0.0
 10
168.2683456922027
 20
123.629008585232
 30
0.0
 10
168.3815204965532
 20
123.5699732309434
 30
0.0
 10
168.5935989134889
 20
123.436169514104
 30
0.0
 10
168.6933876921898
 20
123.3611742979592
 30
0.0
 10
168.8806458791787
 20
123.1949792334384
 30
0.0
 10
168.9685409161221
 20
123.1030850346969
 30
0.0
 10
169.126761991754
 20
122.9077208369825
 30
0.0
 10
169.1976999480457
 20
122.80387488331
 30
0.0
 10
169.2602974832521
 20
122.6936467700974
 30
0.0
  0
SPLINE
  5
130
330
1F
100
AcDbEntity
  8
0
  6
HIDDEN
 62
     7
370
     0
100
AcDbSpline
210
0.0
220
0.0
230
1.0
 70
     8
 71
     3
 72
    60
 73
    56
 74
     0
 42
0.00000001
 43
0.00000001
 12
1.0
 22
0.0
 32
0.0
 13
1.0
 23
0.0
 33
0.0
 40
0.0
 40
0.0
 40
0.0
 40
0.0
 40
0.0625000000000008
 40
0.0625000000000008
 40
0.1250000000000016
 40
0.1250000000000016
 40
0.1875000000000024
 40
0.1875000000000024
 40
0.2187500000000027
 40
0.2187500000000027
 40
0.2500000000000029
 40
0.2500000000000029
 40
0.3125000000000029
 40
0.3125000000000029
 40
0.3750000000000028
 40
0.3750000000000028
 40
0.4062500000000027
 40
0.4062500000000027
 40
0.4375000000000026
 40
0.4375000000000026
 40
0.4687500000000024
 40
0.4687500000000024
 40
0.5000000000000022
 40
0.5000000000000022
 40
0.5312500000000022
 40
0.5312500000000022
 40
0.562500000000002
 40
0.562500000000002
 40
0.5937500000000019
 40
0.5937500000000019
 40
0.6250000000000018
 40
0.6250000000000018
 40
0.6562500000000016
 40
0.6562500000000016
 40
0.6875000000000014
 40
0.6875000000000014
 40
0.7187500000000013
 40
0.7187500000000013
 40
0.7500000000000011
 40
0.7500000000000011
 40
0.781250000000001
 40
0.781250000000001
 40
0.8125000000000009
 40
0.8125000000000009
 40
0.8437500000000008
 40
0.8437500000000008
 40
0.8750000000000006
 40
0.8750000000000006
 40
0.9062500000000004
 40
0.9062500000000004
 40
0.9375000000000003
 40
0.9375000000000003
 40
0.9687500000000001
 40
0.9687500000000001
 40
1.0
 40
1.0
 40
1.0
 40
1.0
 10
169.2602974832522
 20
122.6936467700974
 30
0.0
 10
169.1351075816735
 20
122.914093894713
 30
0.0
 10
168.9782402631052
 20
123.1078276235333
 30
0.0
 10
168.6012027432865
 20
123.4435173222958
 30
0.0
 10
168.3894894368654
 20
123.5774946806085
 30
0.0
 10
167.9235994549167
 20
123.7746214252936
 30
0.0
 10
167.6777602238651
 20
123.8338388375155
 30
0.0
 10
167.2982791707706
 20
123.8610455734062
 30
0.0
 10
167.1705334420766
 20
123.8595523082643
 30
0.0
 10
166.9200671954085
 20
123.8360365024554
 30
0.0
 10
166.7962378126003
 20
123.8141172836511
 30
0.0
 10
166.4290181385016
 20
123.7172807188063
 30
0.0
 10
166.1982491204159
 20
123.6134795973544
 30
0.0
 10
165.7783601589964
 20
123.3347611164264
 30
0.0
 10
165.5941017841088
 20
123.1631988249227
 30
0.0
 10
165.3633533966255
 20
122.8645514636559
 30
0.0
 10
165.2943065468365
 20
122.7580839231536
 30
0.0
 10
165.175741883031
 20
122.5378005747607
 30
0.0
 10
165.1255335142814
 20
122.4231390583593
 30
0.0
 10
165.0437016619236
 20
122.1844584215825
 30
0.0
 10
165.0123507630409
 20
122.0604127947044
 30
0.0
 10
164.9709563850023
 20
121.812297758596
 30
0.0
 10
164.960450609938
 20
121.6870600561076
 30
0.0
 10
164.9601476576022
 20
121.4341810005165
 30
0.0
 10
164.9706321872188
 20
121.3063013142799
 30
0.0
 10
165.0117722646803
 20
121.0578792530745
 30
0.0
 10
165.0423503852288
 20
120.9360803263061
 30
0.0
 10
165.1236330935801
 20
120.6973007968318
 30
0.0
 10
165.174633980142
 20
120.5802592345251
 30
0.0
 10
165.2932010285051
 20
120.3594340365992
 30
0.0
 10
165.3610897817769
 20
120.2544956730364
 30
0.0
 10
165.5142402195145
 20
120.055518339807
 30
0.0
 10
165.599796391087
 20
119.9615102146129
 30
0.0
 10
165.7825077620462
 20
119.7910175296761
 30
0.0
 10
165.8803150617281
 20
119.7135793346268
 30
0.0
 10
166.0891181736451
 20
119.5744134387385
 30
0.0
 10
166.2007003489329
 20
119.5126316297315
 30
0.0
 10
166.429346148432
 20
119.4095527591307
 30
0.0
 10
166.5473009594031
 20
119.3675487239351
 30
0.0
 10
166.7906294043918
 20
119.3028126026383
 30
0.0
 10
166.9169732797349
 20
119.2801393400756
 30
0.0
 10
167.1680792607528
 20
119.2562565438945
 30
0.0
 10
167.2937612544757
 20
119.2546532426278
 30
0.0
 10
167.5453833242675
 20
119.2721199813987
 30
0.0
 10
167.6722809445533
 20
119.2915558720386
 30
0.0
 10
167.9174715108144
 20
119.3501490433623
 30
0.0
 10
168.0366606678479
 20
119.3892118945189
 30
0.0
 10
168.2683456922027
 20
119.4867216166427
 30
0.0
 10
168.3815204965532
 20
119.5457569709313
 30
0.0
 10
168.5935989134889
 20
119.6795606877708
 30
0.0
 10
168.6933876921898
 20
119.7545559039155
 30
0.0
 10
168.8806458791787
 20
119.9207509684364
 30
0.0
 10
168.9685409161221
 20
120.0126451671779
 30
0.0
 10
169.126761991754
 20
120.2080093648922
 30
0.0
 10
169.1976999480457
 20
120.3118553185647
 30
0.0
 10
169.2602974832521
 20
120.4220834317773
 30
0.0
  0
LINE
  5
131
330
1F
100
AcDbEntity
  8
0
  6
HIDDEN
 62
     7
370
     0
100
AcDbLine
 10
170.6602974833
 20
127.8078651009
 30
0.0
 11
170.6602974833
 21
115.3078651009
 31
0.0
  0
LINE
  5
132
330
1F
100
AcDbEntity
  8
0
  6
HIDDEN
 62
     7
370
     0
100
AcDbLine
 10
169.7602974833
 20
114.4078651009
 30
0.0
 11
169.7602974833
 21
128.7078651009
 31
0.0
  0
LINE
  5
133
330
1F
100
AcDbEntity
  8
0
  6
HIDDEN
 62
     7
370
     0
100
AcDbLine
 10
195.7449186143
 20
115.3078651009
 30
0.0
 11
195.7449186143
 21
127.8078651009
 31
0.0
  0
SPLINE
  5
134
330
1F
100
AcDbEntity
  8
0
  6
HIDDEN
 62
     7
370
     0
100
AcDbSpline
210
0.0
220
0.0
230
1.0
 70
     8
 71
     3
 72
    62
 73
    58
 74
     0
 42
0.00000001
 43
0.00000001
 12
1.0
 22
0.0
 32
0.0
 13
1.0
 23
0.0
 33
0.0
 40
-0.0312500000000002
 40
-0.0312500000000002
 40
0.0
 40
0.0
 40
0.0312499999999998
 40
0.0312499999999998
 40
0.0624999999999996
 40
0.0624999999999996
 40
0.0937499999999995
 40
0.0937499999999995
 40
0.1249999999999993
 40
0.1249999999999993
 40
0.187499999999999
 40
0.187499999999999
 40
0.2187499999999987
 40
0.2187499999999987
 40
0.2499999999999985
 40
0.2499999999999985
 40
0.2812499999999983
 40
0.2812499999999983
 40
0.3124999999999981
 40
0.3124999999999981
 40
0.3437499999999979
 40
0.3437499999999979
 40
0.3749999999999977
 40
0.3749999999999977
 40
0.4062499999999976
 40
0.4062499999999976
 40
0.4374999999999974
 40
0.4374999999999974
 40
0.4687499999999972
 40
0.4687499999999972
 40
0.499999999999997
 40
0.499999999999997
 40
0.562499999999997
 40
0.562499999999997
 40
0.5937499999999971
 40
0.5937499999999971
 40
0.6249999999999972
 40
0.6249999999999972
 40
0.6874999999999976
 40
0.6874999999999976
 40
0.7187499999999979
 40
0.7187499999999979
 40
0.749999999999998
 40
0.749999999999998
 40
0.7812499999999981
 40
0.7812499999999981
 40
0.8124999999999983
 40
0.8124999999999983
 40
0.8749999999999989
 40
0.8749999999999989
 40
0.9062499999999992
 40
0.9062499999999992
 40
0.9374999999999994
 40
0.9374999999999994
 40
0.9687499999999998
 40
0.9687499999999998
 40
1.0
 40
1.0
 40
1.03125
 40
1.03125
 10
192.9001390290539
 20
125.7101243824638
 30
0.0
 10
192.6204559374505
 20
125.7101243824638
 30
0.0
 10
192.483171980493
 20
125.6991713450167
 30
0.0
 10
192.2134362256415
 20
125.6561881902664
 30
0.0
 10
192.079554206546
 20
125.6235835128519
 30
0.0
 10
191.825807648148
 20
125.5384853077805
 30
0.0
 10
191.7056219864054
 20
125.4862534359019
 30
0.0
 10
191.4781593948915
 20
125.3616249292242
 30
0.0
 10
191.3713441894299
 20
125.289115636065
 30
0.0
 10
191.0830995921053
 20
125.0482325185235
 30
0.0
 10
190.9269788932041
 20
124.8500523662185
 30
0.0
 10
190.7692634323618
 20
124.5175758098349
 30
0.0
 10
190.7283542032542
 20
124.398859361233
 30
0.0
 10
190.673977298232
 20
124.1537768242108
 30
0.0
 10
190.6603898303424
 20
124.0285121911349
 30
0.0
 10
190.6602060653547
 20
123.7723906610651
 30
0.0
 10
190.6740921015609
 20
123.6405643227757
 30
0.0
 10
190.7281791861116
 20
123.3833130726419
 30
0.0
 10
190.7681879421566
 20
123.2565084587132
 30
0.0
 10
190.8745342167389
 20
123.007006470913
 30
0.0
 10
190.9397334916564
 20
122.8872690076287
 30
0.0
 10
191.0914408956946
 20
122.6611421264954
 30
0.0
 10
191.1792415703346
 20
122.5531903151884
 30
0.0
 10
191.3725794796979
 20
122.356351504672
 30
0.0
 10
191.4775278657095
 20
122.2676093466051
 30
0.0
 10
191.7042558756556
 20
122.1101243792677
 30
0.0
 10
191.8270276266376
 20
122.0412373296823
 30
0.0
 10
192.0797060988629
 20
121.9308739826007
 30
0.0
 10
192.2106870703636
 20
121.8884385918761
 30
0.0
 10
192.4824754416124
 20
121.8306627556599
 30
0.0
 10
192.6217090519467
 20
121.8160122487051
 30
0.0
 10
193.034892834745
 20
121.815832643513
 30
0.0
 10
193.3129685794597
 20
121.8751409046231
 30
0.0
 10
193.693037407491
 20
122.0409366522121
 30
0.0
 10
193.8158056494331
 20
122.1098061484762
 30
0.0
 10
194.0424918153195
 20
122.267157712392
 30
0.0
 10
194.1476599238648
 20
122.3559889568416
 30
0.0
 10
194.438746419595
 20
122.6523479933687
 30
0.0
 10
194.5926769418231
 20
122.881985781454
 30
0.0
 10
194.7521085445728
 20
123.2556963307402
 30
0.0
 10
194.7921097421283
 20
123.3822849367819
 30
0.0
 10
194.8462689630578
 20
123.6390286200061
 30
0.0
 10
194.8602918696072
 20
123.7707658306179
 30
0.0
 10
194.8603030934439
 20
124.0273888714444
 30
0.0
 10
194.8467621402449
 20
124.1527689642523
 30
0.0
 10
194.792544053635
 20
124.3978461784656
 30
0.0
 10
194.7516640990287
 20
124.5167736156812
 30
0.0
 10
194.5936960218529
 20
124.8500853575224
 30
0.0
 10
194.437668064498
 20
125.0481253983961
 30
0.0
 10
194.1489209451728
 20
125.2893726521128
 30
0.0
 10
194.0417061104438
 20
125.3620587272088
 30
0.0
 10
193.8148527034939
 20
125.4862850877331
 30
0.0
 10
193.694835191254
 20
125.5384684890863
 30
0.0
 10
193.4410169837998
 20
125.6235922502241
 30
0.0
 10
193.3071499397485
 20
125.6561882021477
 30
0.0
 10
193.0374826978542
 20
125.6991632201045
 30
0.0
 10
192.9001390290539
 20
125.7101243824638
 30
0.0
 10
192.6204559374505
 20
125.7101243824638
 30
0.0
  0
LWPOLYLINE
  5
135
330
1F
100
AcDbEntity
  8
0
  6
HIDDEN
 62
     7
370
     0
100
AcDbPolyline
 90
       37
 70
   128
 43
0.0
 10
212.9762756298
 20
122.21405265
 10
213.5807148315
 20
122.1727193167
 10
214.166788454
 20
122.0279117776
 10
214.7166889467
 20
121.7840299363
 10
215.2137078615
 20
121.4484840192
 10
215.6427435301
 20
121.0314694193
 10
215.9907599208
 20
120.545656914
 10
216.2471827318
 20
120.0058076707
 10
216.4042206856
 20
119.4283247352
 10
216.4571022636
 20
118.8307546345
 10
216.4042206856
 20
118.2312542336
 10
216.2471827318
 20
117.6480390488
 10
215.9907599208
 20
117.0988297785
 10
215.6427435301
 20
116.6003138684
 10
215.2137078615
 20
116.1676384721
 10
214.7166889467
 20
115.8139502126
 10
214.166788454
 20
115.5499957288
 10
213.5807148315
 20
115.383795144
 10
212.9762756298
 20
115.3203983789
 10
212.3718364281
 20
115.3617317121
 10
211.7857628056
 20
115.5065392513
 10
211.2358623129
 20
115.7504210925
 10
210.7388433981
 20
116.0859670096
 10
210.3098077295
 20
116.5029816096
 10
209.9617913388
 20
116.9887941148
 10
209.7053685278
 20
117.5286433582
 10
209.5483305739
 20
118.1061262936
 10
209.495448996
 20
118.7036963943
 10
209.5483305739
 20
119.3031967953
 10
209.7053685278
 20
119.88641198
 10
209.9617913388
 20
120.4356212503
 10
210.3098077295
 20
120.9341371605
 10
210.7388433981
 20
121.3668125568
 10
211.2358623129
 20
121.7205008162
 10
211.7857628056
 20
121.9844553001
 10
212.3718364281
 20
122.1506558849
 10
212.9762756298
 20
122.21405265
  0
ARC
  5
136
330
1F
100
AcDbEntity
  8
0
  6
HIDDEN
 62
     7
370
     0
100
AcDbCircle
 10
207.9158505199
 20
112.9674773496
 30
0.0
 40
2.08823547287043
100
AcDbArc
 50
72.5507506841
 51
237.1575114395
  0
LINE
  5
137
330
1F
100
AcDbEntity
  8
0
  6
HIDDEN
 62
     7
370
     0
100
AcDbLine
 10
222.9514893624
 20
110.6414253956
 30
0.0
 11
223.9152417937
 21
109.0491598413
 31
0.0
  0
LINE
  5
138
330
1F
100
AcDbEntity
  8
0
  6
HIDDEN
 62
     7
370
     0
100
AcDbLine
 10
201.9834297305
 20
100.7416245101
 30
0.0
 11
201.9588963216
 21
100.821650881
 31
0.0
  0
SPLINE
  5
139
330
1F
100
AcDbEntity
  8
0
  6
HIDDEN
 62
     7
370
     0
100
AcDbSpline
210
0.0
220
0.0
230
1.0
 70
     8
 71
     3
 72
    42
 73
    38
 74
     0
 42
0.00000001
 43
0.00000001
 12
1.0
 22
0.0
 32
0.0
 13
1.0
 23
0.0
 33
0.0
 40
0.0
 40
0.0
 40
0.0
 40
0.0
 40
0.1250000000000038
 40
0.1250000000000038
 40
0.1875000000000054
 40
0.1875000000000054
 40
0.2500000000000069
 40
0.2500000000000069
 40
0.3125000000000084
 40
0.3125000000000084
 40
0.3750000000000099
 40
0.3750000000000099
 40
0.4062500000000102
 40
0.4062500000000102
 40
0.4375000000000104
 40
0.4375000000000104
 40
0.4687500000000107
 40
0.4687500000000107
 40
0.5000000000000109
 40
0.5000000000000109
 40
0.5156250000000103
 40
0.5156250000000103
 40
0.5312500000000099
 40
0.5312500000000099
 40
0.5625000000000088
 40
0.5625000000000088
 40
0.6250000000000075
 40
0.6250000000000075
 40
0.6875000000000064
 40
0.6875000000000064
 40
0.7500000000000052
 40
0.7500000000000052
 40
0.812500000000004
 40
0.812500000000004
 40
0.8750000000000027
 40
0.8750000000000027
 40
1.0
 40
1.0
 40
1.0
 40
1.0
 10
211.2309254153905
 20
115.9164322105609
 30
0.0
 10
211.2892741761506
 20
115.8200311859066
 30
0.0
 10
211.4128022160816
 20
115.7084736520304
 30
0.0
 10
211.6589902724734
 20
115.5362330210336
 30
0.0
 10
211.7520953586729
 20
115.4779030181776
 30
0.0
 10
211.9568611818529
 20
115.3641585974918
 30
0.0
 10
212.0687508870096
 20
115.3085208978736
 30
0.0
 10
212.3135648569274
 20
115.2033404073208
 30
0.0
 10
212.4463709582804
 20
115.1537136902585
 30
0.0
 10
212.7397696787084
 20
115.0662426686743
 30
0.0
 10
212.9015250496188
 20
115.0278699138008
 30
0.0
 10
213.1723981636328
 20
114.9898210259095
 30
0.0
 10
213.2673390570887
 20
114.9804221195708
 30
0.0
 10
213.4705980507469
 20
114.9716997191841
 30
0.0
 10
213.5790875189043
 20
114.9724065094963
 30
0.0
 10
213.8094175161183
 20
114.9901262270674
 30
0.0
 10
213.9338242586304
 20
115.0074929857247
 30
0.0
 10
214.1914831701977
 20
115.0671228252304
 30
0.0
 10
214.327279217678
 20
115.1106775481021
 30
0.0
 10
214.5196488075428
 20
115.1938498029153
 30
0.0
 10
214.5833787424105
 20
115.2251094016366
 30
0.0
 10
214.7030020881635
 20
115.2908131705149
 30
0.0
 10
214.7594067051292
 20
115.325381671779
 30
0.0
 10
214.9199867517474
 20
115.4333971557332
 30
0.0
 10
215.0126168700997
 20
115.5092585865132
 30
0.0
 10
215.2512958124273
 20
115.7318661022054
 30
0.0
 10
215.3646851365065
 20
115.8762849461415
 30
0.0
 10
215.5524324761246
 20
116.1593581799547
 30
0.0
 10
215.6225466331003
 20
116.2940157095717
 30
0.0
 10
215.7362991884889
 20
116.552493043358
 30
0.0
 10
215.7794991768384
 20
116.6763631151714
 30
0.0
 10
215.8468809734476
 20
116.9137670145992
 30
0.0
 10
215.8708785861732
 20
117.0272915651462
 30
0.0
 10
215.9030696166057
 20
117.2395649414361
 30
0.0
 10
215.9113816363209
 20
117.3388145707567
 30
0.0
 10
215.9157265359314
 20
117.6125022914983
 30
0.0
 10
215.8930330803967
 20
117.7649485769161
 30
0.0
 10
215.8349182597454
 20
117.8609630969403
 30
0.0
  0
ELLIPSE
  5
13A
330
1F
100
AcDbEntity
  8
0
  6
HIDDEN
 62
     7
370
     0
100
AcDbEllipse
 10
215.621788112
 20
112.3193633741
 30
0.0
 11
3.44041209672173
 21
-1.586775504002205
 31
0.0
210
0.0
220
0.0
230
1.0
 40
0.1360681752
 41
3.340251500733451
 42
6.481844154323098
  0
LINE
  5
13B
330
1F
100
AcDbEntity
  8
0
  6
HIDDEN
 62
     7
370
     0
100
AcDbLine
 10
214.1127241169
 20
99.264602941
 30
0.0
 11
213.1489716855
 21
100.8568684953
 31
0.0
  0
ELLIPSE
  5
13C
330
1F
100
AcDbEntity
  8
0
  6
HIDDEN
 62
     7
370
     0
100
AcDbEllipse
 10
210.6847308989
 20
122.5532058372
 30
0.0
 11
-2.220506159017987
 21
3.6686138007381
 31
-3.552713678800501E-15
210
-4.289880804380683E-16
220
7.087535361501762E-16
230
1.0
 40
0.9794128731
 41
1.271238015689466
 42
3.941714814948905
  0
LINE
  5
13D
330
1F
100
AcDbEntity
  8
0
  6
HIDDEN
 62
     7
370
     0
100
AcDbLine
 10
215.8349182597
 20
117.8609630969
 30
0.0
 11
215.3967522182
 21
118.5848800204
 31
0.0
  0
ELLIPSE
  5
13E
330
1F
100
AcDbEntity
  8
0
  6
HIDDEN
 62
     7
370
     0
100
AcDbEllipse
 10
212.0645126728
 20
120.2735965522
 30
0.0
 11
3.738204015186995
 21
1.921056458613734
 31
0.0
210
0.0
220
0.0
230
1.0
 40
0.8435555064
 41
3.985897569496354
 42
5.261021410734737
  0
LINE
  5
13F
330
1F
100
AcDbEntity
  8
0
  6
HIDDEN
 62
     7
370
     0
100
AcDbLine
 10
210.7927593738
 20
116.640349134
 30
0.0
 11
211.2309254154
 21
115.9164322106
 31
0.0
  0
LWPOLYLINE
  5
140
330
1F
100
AcDbEntity
  8
0
  6
HIDDEN
 62
     7
370
     0
100
AcDbPolyline
 90
       41
 70
   128
 43
0.0
 10
212.9323107038
 20
122.9760548196
 10
213.5857362066
 20
122.9370571983
 10
214.223072205
 20
122.7971730396
 10
214.8286253714
 20
122.559846756
 10
215.3874849771
 20
122.230922108
 10
215.8858900441
 20
121.8184983123
 10
216.3115681852
 20
121.3327306113
 10
216.6540377921
 20
120.7855802181
 10
216.9048661264
 20
120.1905197912
 10
217.057876962
 20
119.5622016932
 10
217.1093026643
 20
118.9160972011
 10
217.057876962
 20
118.2681155516
 10
216.9048661264
 20
117.6342122035
 10
216.6540377921
 20
117.029995961
 10
216.3115681852
 20
116.4703446333
 10
215.8858900441
 20
115.9690386936
 10
215.3874849771
 20
115.5384219576
 10
214.8286253714
 20
115.1890976387
 10
214.223072205
 20
114.9296672609
 10
213.5857362066
 20
114.7665188611
 10
212.9323107038
 20
114.7036696943
 10
212.278885201
 20
114.7426673157
 10
211.6415492026
 20
114.8825514743
 10
211.0359960362
 20
115.119877758
 10
210.4771364304
 20
115.448802406
 10
209.9787313635
 20
115.8612262017
 10
209.5530532223
 20
116.3469939027
 10
209.2105836155
 20
116.8941442959
 10
208.9597552812
 20
117.4892047228
 10
208.8067444456
 20
118.1175228207
 10
208.7553187432
 20
118.7636273129
 10
208.8067444456
 20
119.4116089624
 10
208.9597552812
 20
120.0455123105
 10
209.2105836155
 20
120.649728553
 10
209.5530532223
 20
121.2093798806
 10
209.9787313635
 20
121.7106858204
 10
210.4771364304
 20
122.1413025564
 10
211.0359960362
 20
122.4906268753
 10
211.6415492026
 20
122.7500572531
 10
212.278885201
 20
122.9132056529
 10
212.9323107038
 20
122.9760548196
  0
LINE
  5
141
330
1F
100
AcDbEntity
  8
0
  6
HIDDEN
 62
     7
370
     0
100
AcDbLine
 10
218.3286050865
 20
112.0268005706
 30
0.0
 11
219.9046217484
 21
108.2313755571
 31
0.0
  0
LINE
  5
142
330
1F
100
AcDbEntity
  8
0
  6
HIDDEN
 62
     7
370
     0
100
AcDbLine
 10
219.5807729047
 20
108.7664230878
 30
0.0
 11
219.9046217484
 21
108.2313755571
 31
0.0
  0
LINE
  5
143
330
1F
100
AcDbEntity
  8
0
  6
HIDDEN
 62
     7
370
     0
100
AcDbLine
 10
217.0812192028
 20
114.2341241818
 30
0.0
 11
215.3967522182
 21
118.5848800204
 31
0.0
  0
LINE
  5
144
330
1F
100
AcDbEntity
  8
0
  6
HIDDEN
 62
     7
370
     0
100
AcDbLine
 10
218.3286050865
 20
112.0268005706
 30
0.0
 11
219.037145464
 21
110.8561841339
 31
0.0
  0
SPLINE
  5
145
330
1F
100
AcDbEntity
  8
0
  6
HIDDEN
 62
     7
370
     0
100
AcDbSpline
210
0.0
220
0.0
230
1.0
 70
     8
 71
     3
 72
     8
 73
     4
 74
     0
 42
0.00000001
 43
0.00000001
 12
1.0
 22
0.0
 32
0.0
 13
1.0
 23
0.0
 33
0.0
 40
0.0
 40
0.0
 40
0.0
 40
0.0
 40
1.0
 40
1.0
 40
1.0
 40
1.0
 10
177.2652575053098
 20
107.8187805697798
 30
0.0
 10
177.3159846485164
 20
107.7730262684546
 30
0.0
 10
177.3738719780773
 20
107.744522122591
 30
0.0
 10
177.4389771396925
 20
107.7328010929322
 30
0.0
  0
LINE
  5
146
330
1F
100
AcDbEntity
  8
0
  6
HIDDEN
 62
     7
370
     0
100
AcDbLine
 10
177.0602974833
 20
111.6389699818
 30
0.0
 11
177.0602974833
 21
110.5838271087
 31
0.0
  0
LINE
  5
147
330
1F
100
AcDbEntity
  8
0
  6
HIDDEN
 62
     7
370
     0
100
AcDbLine
 10
156.2602974833
 20
111.9002541812
 30
0.0
 11
156.2602974833
 21
108.0603347151
 31
0.0
  0
LINE
  5
148
330
1F
100
AcDbEntity
  8
0
  6
HIDDEN
 62
     7
370
     0
100
AcDbLine
 10
177.0602974833
 20
107.6376287126
 30
0.0
 11
177.0602974833
 21
107.5377663164
 31
0.0
  0
SPLINE
  5
149
330
1F
100
AcDbEntity
  8
0
  6
HIDDEN
 62
     7
370
     0
100
AcDbSpline
210
0.0
220
0.0
230
1.0
 70
     8
 71
     3
 72
    16
 73
    12
 74
     0
 42
0.00000001
 43
0.00000001
 12
1.0
 22
0.0
 32
0.0
 13
1.0
 23
0.0
 33
0.0
 40
0.0
 40
0.0
 40
0.0
 40
0.0
 40
0.25
 40
0.25
 40
0.375
 40
0.375
 40
0.5
 40
0.5
 40
0.75
 40
0.75
 40
1.0
 40
1.0
 40
1.0
 40
1.0
 10
177.060297483252
 20
110.5838271086909
 30
0.0
 10
176.9797601513525
 20
110.1948199247454
 30
0.0
 10
176.9197228073251
 20
109.8383194831197
 30
0.0
 10
176.8589851001715
 20
109.3518170979309
 30
0.0
 10
176.8436627250586
 20
109.197738157077
 30
0.0
 10
176.8230799157545
 20
108.9062685985836
 30
0.0
 10
176.8178803187289
 20
108.7686987146844
 30
0.0
 10
176.817826665549
 20
108.3904538794947
 30
0.0
 10
176.838024209027
 20
108.1805728109426
 30
0.0
 10
176.9187022973857
 20
107.8439935120315
 30
0.0
 10
176.9797484619936
 20
107.7177090201137
 30
0.0
 10
177.0602974832521
 20
107.6376287126223
 30
0.0
  0
SPLINE
  5
14A
330
1F
100
AcDbEntity
  8
0
  6
HIDDEN
 62
     7
370
     0
100
AcDbSpline
210
0.0
220
0.0
230
1.0
 70
     8
 71
     3
 72
    24
 73
    20
 74
     0
 42
0.00000001
 43
0.00000001
 12
1.0
 22
0.0
 32
0.0
 13
1.0
 23
0.0
 33
0.0
 40
0.0
 40
0.0
 40
0.0
 40
0.0
 40
0.2499999999999828
 40
0.2499999999999828
 40
0.3749999999999751
 40
0.3749999999999751
 40
0.4374999999999715
 40
0.4374999999999715
 40
0.4687499999999717
 40
0.4687499999999717
 40
0.499999999999972
 40
0.499999999999972
 40
0.5624999999999752
 40
0.5624999999999752
 40
0.6249999999999786
 40
0.6249999999999786
 40
0.7499999999999849
 40
0.7499999999999849
 40
1.0
 40
1.0
 40
1.0
 40
1.0
 10
177.060297483252
 20
107.6376287126222
 30
0.0
 10
177.0607003938875
 20
107.6680529494604
 30
0.0
 10
177.0627443732278
 20
107.7009110500149
 30
0.0
 10
177.0719816160532
 20
107.7569364171687
 30
0.0
 10
177.0758686790336
 20
107.7765474703542
 30
0.0
 10
177.0867725704391
 20
107.8108217537833
 30
0.0
 10
177.0909146161894
 20
107.8228841792555
 30
0.0
 10
177.1028096899396
 20
107.8452033439534
 30
0.0
 10
177.1080567542466
 20
107.8541698563123
 30
0.0
 10
177.124923820622
 20
107.8718194208404
 30
0.0
 10
177.1327462281513
 20
107.8759637049854
 30
0.0
 10
177.1496950287759
 20
107.8824512461629
 30
0.0
 10
177.157151379994
 20
107.8818543647912
 30
0.0
 10
177.1712112831873
 20
107.8801081008197
 30
0.0
 10
177.1773436683235
 20
107.8782774129213
 30
0.0
 10
177.1946384308474
 20
107.8717110033487
 30
0.0
 10
177.2046557492566
 20
107.8658457881899
 30
0.0
 10
177.2330270835002
 20
107.8471011041593
 30
0.0
 10
177.249562521145
 20
107.8329369560723
 30
0.0
 10
177.2652575053098
 20
107.8187805697798
 30
0.0
  0
LINE
  5
14B
330
1F
100
AcDbEntity
  8
0
  6
HIDDEN
 62
     7
370
     0
100
AcDbLine
 10
154.7602974833
 20
112.3332668831
 30
0.0
 11
154.7602974833
 21
108.9263601189
 31
0.0
  0
SPLINE
  5
14C
330
1F
100
AcDbEntity
  8
0
  6
HIDDEN
 62
     7
370
     0
100
AcDbSpline
210
0.0
220
0.0
230
1.0
 70
     8
 71
     3
 72
     8
 73
     4
 74
     0
 42
0.00000001
 43
0.00000001
 12
1.0
 22
0.0
 32
0.0
 13
1.0
 23
0.0
 33
0.0
 40
0.0
 40
0.0
 40
0.0
 40
0.0
 40
1.0
 40
1.0
 40
1.0
 40
1.0
 10
177.4389771396925
 20
135.3829291089425
 30
0.0
 10
177.3738719780784
 20
135.3712080792839
 30
0.0
 10
177.3159846485185
 20
135.3427039334212
 30
0.0
 10
177.2652575053124
 20
135.2969496320974
 30
0.0
  0
LINE
  5
14D
330
1F
100
AcDbEntity
  8
0
  6
HIDDEN
 62
     7
370
     0
100
AcDbLine
 10
177.0602974833
 20
135.5779638855
 30
0.0
 11
177.0602974833
 21
135.4781014893
 31
0.0
  0
SPLINE
  5
14E
330
1F
100
AcDbEntity
  8
0
  6
HIDDEN
 62
     7
370
     0
100
AcDbSpline
210
0.0
220
0.0
230
1.0
 70
     8
 71
     3
 72
    24
 73
    20
 74
     0
 42
0.00000001
 43
0.00000001
 12
1.0
 22
0.0
 32
0.0
 13
1.0
 23
0.0
 33
0.0
 40
0.0
 40
0.0
 40
0.0
 40
0.0
 40
0.2499999999999954
 40
0.2499999999999954
 40
0.3749999999999941
 40
0.3749999999999941
 40
0.4374999999999946
 40
0.4374999999999946
 40
0.4999999999999952
 40
0.4999999999999952
 40
0.5312499999999951
 40
0.5312499999999951
 40
0.562499999999995
 40
0.562499999999995
 40
0.6249999999999948
 40
0.6249999999999948
 40
0.7499999999999966
 40
0.7499999999999966
 40
1.0
 40
1.0
 40
1.0
 40
1.0
 10
177.2652575053125
 20
135.2969496320974
 30
0.0
 10
177.2494909170142
 20
135.2827286611091
 30
0.0
 10
177.2328793840595
 20
135.2684983707743
 30
0.0
 10
177.2043530361015
 20
135.2497013155528
 30
0.0
 10
177.1942676023115
 20
135.2438128952116
 30
0.0
 10
177.1767848317766
 20
135.2372755004092
 30
0.0
 10
177.1705771753311
 20
135.235464286408
 30
0.0
 10
177.1563056750859
 20
135.2338584839016
 30
0.0
 10
177.1487356045828
 20
135.2333057065155
 30
0.0
 10
177.1313392751475
 20
135.2405044512283
 30
0.0
 10
177.1228800021876
 20
135.2455961999759
 30
0.0
 10
177.10681903764
 20
135.263411132455
 30
0.0
 10
177.1019858017938
 20
135.2719335473173
 30
0.0
 10
177.0905598820584
 20
135.293829983966
 30
0.0
 10
177.086538526176
 20
135.305570506772
 30
0.0
 10
177.0757780311449
 20
135.3396207707254
 30
0.0
 10
177.071903722084
 20
135.3591957597541
 30
0.0
 10
177.0627308499568
 20
135.4150440684353
 30
0.0
 10
177.060698479242
 20
135.4478218294641
 30
0.0
 10
177.0602974832522
 20
135.4781014892521
 30
0.0
  0
LINE
  5
14F
330
1F
100
AcDbEntity
  8
0
  6
HIDDEN
 62
     7
370
     0
100
AcDbLine
 10
156.2602974833
 20
135.0553954868
 30
0.0
 11
156.2602974833
 21
131.2154760207
 31
0.0
  0
LINE
  5
150
330
1F
100
AcDbEntity
  8
0
  6
HIDDEN
 62
     7
370
     0
100
AcDbLine
 10
154.7602974833
 20
134.189370083
 30
0.0
 11
154.7602974833
 21
130.7824633188
 31
0.0
  0
LINE
  5
151
330
1F
100
AcDbEntity
  8
0
  6
HIDDEN
 62
     7
370
     0
100
AcDbLine
 10
177.0602974833
 20
132.5319030932
 30
0.0
 11
177.0602974833
 21
131.47676022
 31
0.0
  0
SPLINE
  5
152
330
1F
100
AcDbEntity
  8
0
  6
HIDDEN
 62
     7
370
     0
100
AcDbSpline
210
0.0
220
0.0
230
1.0
 70
     8
 71
     3
 72
    16
 73
    12
 74
     0
 42
0.00000001
 43
0.00000001
 12
1.0
 22
0.0
 32
0.0
 13
1.0
 23
0.0
 33
0.0
 40
0.0
 40
0.0
 40
0.0
 40
0.0
 40
0.2499999999999997
 40
0.2499999999999997
 40
0.3749999999999996
 40
0.3749999999999996
 40
0.4999999999999994
 40
0.4999999999999994
 40
0.7499999999999997
 40
0.7499999999999997
 40
1.0
 40
1.0
 40
1.0
 40
1.0
 10
177.060297483252
 20
135.4781014892523
 30
0.0
 10
176.9797601513525
 20
135.3980328030997
 30
0.0
 10
176.9197228073251
 20
135.274168311609
 30
0.0
 10
176.8589851001715
 20
135.0234874876762
 30
0.0
 10
176.8436627250586
 20
134.9290488833663
 30
0.0
 10
176.8230799157544
 20
134.7177378157469
 30
0.0
 10
176.8178803187289
 20
134.6004483609929
 30
0.0
 10
176.817826665549
 20
134.2224126892363
 30
0.0
 10
176.838024209027
 20
133.9336355354912
 30
0.0
 10
176.9187022973857
 20
133.2837956723501
 30
0.0
 10
176.9797484619935
 20
132.9209667384561
 30
0.0
 10
177.0602974832521
 20
132.5319030931831
 30
0.0
  0
LINE
  5
153
330
1F
100
AcDbEntity
  8
0
  6
HIDDEN
 62
     7
370
     0
100
AcDbLine
 10
215.300628904
 20
106.2868446708
 30
0.0
 11
212.1480659754
 21
113.8789701128
 31
0.0
  0
ARC
  5
154
330
1F
100
AcDbEntity
  8
0
  6
HIDDEN
 62
     7
370
     0
100
AcDbCircle
 10
218.3647019115
 20
105.4547699667
 30
0.0
 40
3.175042001081851
100
AcDbArc
 50
164.8072357946
 51
60.9870227258
  0
LINE
  5
155
330
1F
100
AcDbEntity
  8
0
  6
HIDDEN
 62
     7
370
     0
100
AcDbLine
 10
226.7364772126
 20
96.8841266978
 30
0.0
 11
227.1071781796
 21
97.423763459
 31
0.0
  0
ELLIPSE
  5
156
330
1F
100
AcDbEntity
  8
0
  6
HIDDEN
 62
     7
370
     0
100
AcDbEllipse
 10
169.9490375779
 20
119.7578651009
 30
0.0
 11
237.858677971088
 21
4.388194929981977
 31
0.0
210
0.0
220
0.0
230
1.0
 40
0.1034726254
 41
4.950277995051382
 42
4.951549472251465
  0
LINE
  5
157
330
1F
100
AcDbEntity
  8
0
  6
HIDDEN
 62
     7
370
     0
100
AcDbLine
 10
226.4420906051
 20
96.8732176292
 30
0.0
 11
213.1489716855
 21
100.8568684953
 31
0.0
  0
LINE
  5
158
330
1F
100
AcDbEntity
  8
0
  6
HIDDEN
 62
     7
370
     0
100
AcDbLine
 10
210.2409476222
 20
110.1063412476
 30
0.0
 11
213.1489716855
 21
100.8568684953
 31
0.0
  0
LINE
  5
159
330
1F
100
AcDbEntity
  8
0
  6
HIDDEN
 62
     7
370
     0
100
AcDbLine
 10
212.1480659754
 20
113.8789701128
 30
0.0
 11
208.5420307114
 21
114.9596183481
 31
0.0
  0
LINE
  5
15A
330
1F
100
AcDbEntity
  8
0
  6
HIDDEN
 62
     7
370
     0
100
AcDbLine
 10
222.9514893624
 20
110.6414253956
 30
0.0
 11
218.3286050865
 21
112.0268005706
 31
0.0
  0
LINE
  5
15B
330
1F
100
AcDbEntity
  8
0
  6
HIDDEN
 62
     7
370
     0
100
AcDbLine
 10
222.9514893624
 20
110.6414253956
 30
0.0
 11
227.1070891935
 21
97.423822456
 31
0.0
  0
LINE
  5
15C
330
1F
100
AcDbEntity
  8
0
  6
HIDDEN
 62
     7
370
     0
100
AcDbLine
 10
212.20643076
 20
113.7825426143
 30
0.0
 11
212.1480659754
 21
113.8789701128
 31
0.0
  0
LWPOLYLINE
  5
15D
330
1F
100
AcDbEntity
  8
0
  6
HIDDEN
 62
     7
370
     0
100
AcDbPolyline
 90
       29
 70
   128
 43
0.0
 10
192.7602974833
 20
128.6594089635
 10
193.2275914446
 20
128.61059145
 10
193.6714533354
 20
128.4665868233
 10
194.0696260672
 20
128.2346160767
 10
194.4021435964
 20
127.9263111922
 10
194.6523321058
 20
127.557131864
 10
194.8076460988
 20
127.1455902852
 10
194.8602974833
 20
126.7123228689
 10
194.8076460988
 20
126.2790554527
 10
194.6523321058
 20
125.8675138738
 10
194.4021435964
 20
125.4983345456
 10
194.0696260672
 20
125.1900296611
 10
193.6714533354
 20
124.9580589146
 10
193.2275914446
 20
124.8140542879
 10
192.7602974833
 20
124.7652367743
 10
192.2930035219
 20
124.8140542879
 10
191.8491416311
 20
124.9580589146
 10
191.4509688993
 20
125.1900296611
 10
191.1184513701
 20
125.4983345456
 10
190.8682628607
 20
125.8675138738
 10
190.7129488677
 20
126.2790554527
 10
190.6602974833
 20
126.7123228689
 10
190.7129488677
 20
127.1455902852
 10
190.8682628607
 20
127.557131864
 10
191.1184513701
 20
127.9263111922
 10
191.4509688993
 20
128.2346160767
 10
191.8491416311
 20
128.4665868233
 10
192.2930035219
 20
128.61059145
 10
192.7602974833
 20
128.6594089635
  0
SPLINE
  5
15E
330
1F
100
AcDbEntity
  8
0
  6
HIDDEN
 62
     7
370
     0
100
AcDbSpline
210
0.0
220
0.0
230
1.0
 70
     8
 71
     3
 72
    10
 73
     6
 74
     0
 42
0.00000001
 43
0.00000001
 12
1.0
 22
0.0
 32
0.0
 13
1.0
 23
0.0
 33
0.0
 40
0.0
 40
0.0
 40
0.0
 40
0.0
 40
0.5
 40
0.5
 40
1.0
 40
1.0
 40
1.0
 40
1.0
 10
214.8565791110577
 20
107.6383947888309
 30
0.0
 10
214.8527175669717
 20
107.4623322536363
 30
0.0
 10
214.8621195602257
 20
107.2996444937214
 30
0.0
 10
214.9021023887461
 20
107.0172411098762
 30
0.0
 10
214.9320750993849
 20
106.8957515942772
 30
0.0
 10
214.9767800603748
 20
106.8218922013713
 30
0.0
  0
ARC
  5
15F
330
1F
100
AcDbEntity
  8
0
  6
HIDDEN
 62
     7
370
     0
100
AcDbCircle
 10
217.7852926882
 20
106.4124401934
 30
0.0
 40
3.174953210221036
100
AcDbArc
 50
157.2858961055
 51
68.5083624149
  0
SPLINE
  5
160
330
1F
100
AcDbEntity
  8
0
  6
HIDDEN
 62
     7
370
     0
100
AcDbSpline
210
0.0
220
0.0
230
1.0
 70
     8
 71
     3
 72
    10
 73
     6
 74
     0
 42
0.00000001
 43
0.00000001
 12
1.0
 22
0.0
 32
0.0
 13
1.0
 23
0.0
 33
0.0
 40
0.0
 40
0.0
 40
0.0
 40
0.0
 40
0.5
 40
0.5
 40
1.0
 40
1.0
 40
1.0
 40
1.0
 10
219.58077290473
 20
108.7664230877514
 30
0.0
 10
219.5361203968551
 20
108.8401958201359
 30
0.0
 10
219.4477444162463
 20
108.937153776357
 30
0.0
 10
219.2297756886479
 20
109.1443905230006
 30
0.0
 10
219.0984195741014
 20
109.2555597364226
 30
0.0
 10
218.9484857762185
 20
109.3666422391594
 30
0.0
  0
LINE
  5
161
330
1F
100
AcDbEntity
  8
0
  6
HIDDEN
 62
     7
370
     0
100
AcDbLine
 10
215.300628904
 20
106.2868446708
 30
0.0
 11
214.9767800604
 21
106.8218922014
 31
0.0
  0
SPLINE
  5
162
330
1F
100
AcDbEntity
  8
0
  6
HIDDEN
 62
     7
370
     0
100
AcDbSpline
210
0.0
220
0.0
230
1.0
 70
     8
 71
     3
 72
    10
 73
     6
 74
     0
 42
0.00000001
 43
0.00000001
 12
1.0
 22
0.0
 32
0.0
 13
1.0
 23
0.0
 33
0.0
 40
0.0
 40
0.0
 40
0.0
 40
0.0
 40
0.5
 40
0.5
 40
1.0
 40
1.0
 40
1.0
 40
1.0
 10
201.9588963215622
 20
101.9169614473933
 30
0.0
 10
202.0397309562036
 20
102.2614792639327
 30
0.0
 10
202.1965297096742
 20
102.6073498974195
 30
0.0
 10
202.6302548409948
 20
103.2988289742088
 30
0.0
 10
202.9049602557238
 20
103.6427451759225
 30
0.0
 10
203.2181188378119
 20
103.9854492473268
 30
0.0
  0
SPLINE
  5
163
330
1F
100
AcDbEntity
  8
0
  6
HIDDEN
 62
     7
370
     0
100
AcDbSpline
210
0.0
220
0.0
230
1.0
 70
     8
 71
     3
 72
    31
 73
    27
 74
     0
 42
0.00000001
 43
0.00000001
 12
1.0
 22
0.0
 32
0.0
 13
1.0
 23
0.0
 33
0.0
 40
0.0
 40
0.0
 40
0.0
 40
0.0
 40
0.0307628961326215
 40
0.0614982808157989
 40
0.0922192097434727
 40
0.1229387570405161
 40
0.1536699985951826
 40
0.1844259953803134
 40
0.2152197768694805
 40
0.2460643246528086
 40
0.2769725563543031
 40
0.3079573099481002
 40
0.339031328565319
 40
0.3702072458762496
 40
0.4014975721246687
 40
0.432914680882269
 40
0.4644707965817835
 40
0.4961779828775616
 40
0.5595635063130908
 40
0.6226372097858454
 40
0.6854959580929416
 40
0.7482376116262552
 40
0.8109605788539557
 40
0.873763356085485
 40
0.9367440651838475
 40
1.0
 40
1.0
 40
1.0
 40
1.0
 10
227.1070328534275
 20
97.42391553837726
 30
0.0
 10
227.0776193967652
 20
97.49163447123165
 30
0.0
 10
227.0188187880781
 20
97.62701177547734
 30
0.0
 10
226.9272957192629
 20
97.84122072812316
 30
0.0
 10
226.833408250124
 20
98.06343297765777
 30
0.0
 10
226.7369139941163
 20
98.29445672856016
 30
0.0
 10
226.6378779332592
 20
98.53407536969358
 30
0.0
 10
226.5362827268929
 20
98.78234676612128
 30
0.0
 10
226.4321331046856
 20
99.0392551958869
 30
0.0
 10
226.3254278825177
 20
99.30480465315757
 30
0.0
 10
226.2161674674379
 20
99.57899382490467
 30
0.0
 10
226.1043518441521
 20
99.8618228048346
 30
0.0
 10
225.9899811087738
 20
100.1532913100937
 30
0.0
 10
225.8730553476364
 20
100.4533990977533
 30
0.0
 10
225.7535745823281
 20
100.7621461002547
 30
0.0
 10
225.6315391090222
 20
101.0795314724866
 30
0.0
 10
225.5069481844238
 20
101.4055573020864
 30
0.0
 10
225.3376855476475
 20
101.8510783984113
 30
0.0
 10
225.1215735141274
 20
102.4246527458182
 30
0.0
 10
224.8556646463882
 20
103.1379029383592
 30
0.0
 10
224.5837949327735
 20
103.8744813963878
 30
0.0
 10
224.3059609721772
 20
104.6344100178252
 30
0.0
 10
224.0221909081498
 20
105.4175679026882
 30
0.0
 10
223.7323870865147
 20
106.2243860877133
 30
0.0
 10
223.4369260008407
 20
107.0532202968323
 30
0.0
 10
223.2357859017143
 20
107.6230167755925
 30
0.0
 10
223.1349965856749
 20
107.9085361604658
 30
0.0
  0
SPLINE
  5
164
330
1F
100
AcDbEntity
  8
0
  6
HIDDEN
 62
     7
370
     0
100
AcDbSpline
210
0.0
220
0.0
230
1.0
 70
     8
 71
     3
 72
    42
 73
    38
 74
     0
 42
0.00000001
 43
0.00000001
 12
1.0
 22
0.0
 32
0.0
 13
1.0
 23
0.0
 33
0.0
 40
0.0
 40
0.0
 40
0.0
 40
0.0
 40
0.0325150529869396
 40
0.0647951479477736
 40
0.0968405078013665
 40
0.128651360404612
 40
0.1602279386942426
 40
0.1915704808335825
 40
0.2226792303643933
 40
0.2535544363641015
 40
0.2841963536085415
 40
0.3146052427404992
 40
0.3447813704442563
 40
0.3747250096264014
 40
0.4044364396031542
 40
0.4339159462944804
 40
0.463163822425268
 40
0.4921803677338664
 40
0.520965889188299
 40
0.5495207012104565
 40
0.5778451259086256
 40
0.6059394933186857
 40
0.6338041416543526
 40
0.6614394175668497
 40
0.6888456764143994
 40
0.7160232825419839
 40
0.7429726095717571
 40
0.7696940407046367
 40
0.7961879690334962
 40
0.8224547978684906
 40
0.8484949410750339
 40
0.8743088234249541
 40
0.8998968809614403
 40
0.9252595613783395
 40
0.9503973244144406
 40
0.9753106422634011
 40
1.0
 40
1.0
 40
1.0
 40
1.0
 10
222.9499020962318
 20
107.0005941306578
 30
0.0
 10
222.9994296290417
 20
106.8585726253008
 30
0.0
 10
223.098126802231
 20
106.575555880562
 30
0.0
 10
223.2440088080053
 20
106.1586598349476
 30
0.0
 10
223.3876209471635
 20
105.7493987379396
 30
0.0
 10
223.5288489728427
 20
105.3482487308295
 30
0.0
 10
223.6677231649762
 20
104.9551435702537
 30
0.0
 10
223.8042355010533
 20
104.5701514841066
 30
0.0
 10
223.9383881087955
 20
104.1932960189101
 30
0.0
 10
224.0701804263248
 20
103.8246037416845
 30
0.0
 10
224.1996126044436
 20
103.4640918284089
 30
0.0
 10
224.3266846051686
 20
103.1117715822088
 30
0.0
 10
224.4513964405654
 20
102.7676477317609
 30
0.0
 10
224.5737481094765
 20
102.4317188482463
 30
0.0
 10
224.6937396142815
 20
102.1039774662613
 30
0.0
 10
224.8113709564579
 20
101.7844102831428
 30
0.0
 10
224.9266421377564
 20
101.4729983372448
 30
0.0
 10
225.0395531598893
 20
101.1697171912477
 30
0.0
 10
225.1501040246124
 20
100.8745371133435
 30
0.0
 10
225.2582947337031
 20
100.5874232579518
 30
0.0
 10
225.3641252889644
 20
100.308335845303
 30
0.0
 10
225.4675956922258
 20
100.0372303398348
 30
0.0
 10
225.5687059453317
 20
99.77405762726038
 30
0.0
 10
225.6674560501821
 20
99.51876418995802
 30
0.0
 10
225.7638460085755
 20
99.27129228130347
 30
0.0
 10
225.8578758227833
 20
99.03158009597207
 30
0.0
 10
225.9495454934262
 20
98.79956194653866
 30
0.0
 10
226.038855027291
 20
98.57516840771974
 30
0.0
 10
226.1258044085208
 20
98.35832657014116
 30
0.0
 10
226.2103937047528
 20
98.14895988032718
 30
0.0
 10
226.2926226760808
 20
97.94698949441516
 30
0.0
 10
226.3724922155493
 20
97.75233004432614
 30
0.0
 10
226.4499990431141
 20
97.56490597432233
 30
0.0
 10
226.5251552485446
 20
97.38459210040165
 30
0.0
 10
226.5979163185482
 20
97.21143323586706
 30
0.0
 10
226.6684461752804
 20
97.04483612923828
 30
0.0
 10
226.7137806216533
 20
96.93883116788352
 30
0.0
 10
226.7363455004844
 20
96.88606799771486
 30
0.0
  0
SPLINE
  5
165
330
1F
100
AcDbEntity
  8
0
  6
HIDDEN
 62
     7
370
     0
100
AcDbSpline
210
0.0
220
0.0
230
1.0
 70
     8
 71
     3
 72
     8
 73
     4
 74
     0
 42
0.00000001
 43
0.00000001
 12
1.0
 22
0.0
 32
0.0
 13
1.0
 23
0.0
 33
0.0
 40
0.0
 40
0.0
 40
0.0
 40
0.0
 40
1.0
 40
1.0
 40
1.0
 40
1.0
 10
203.2181188378119
 20
103.9854492473267
 30
0.0
 10
203.1919884362097
 20
104.934867600993
 30
0.0
 10
203.1654031913301
 20
105.9394289159886
 30
0.0
 10
203.1383389402577
 20
107.0005142787643
 30
0.0
  0
ELLIPSE
  5
166
330
1F
100
AcDbEntity
  8
0
  6
HIDDEN
 62
     7
370
     0
100
AcDbEllipse
 10
151.011702294
 20
119.7578651009
 30
0.0
 11
78.3323478835614
 21
-24.79521835240394
 31
0.0
210
0.0
220
0.0
230
1.0
 40
0.0407660087
 41
0.2862490822381993
 42
0.7087319281145438
  0
SPLINE
  5
167
330
1F
100
AcDbEntity
  8
0
  6
HIDDEN
 62
     7
370
     0
100
AcDbSpline
210
0.0
220
0.0
230
1.0
 70
     8
 71
     3
 72
    10
 73
     6
 74
     0
 42
0.00000001
 43
0.00000001
 12
1.0
 22
0.0
 32
0.0
 13
1.0
 23
0.0
 33
0.0
 40
0.0
 40
0.0
 40
0.0
 40
0.0
 40
0.5
 40
0.5
 40
1.0
 40
1.0
 40
1.0
 40
1.0
 10
205.8090489539779
 20
103.9854492473267
 30
0.0
 10
206.7383393679466
 20
103.9854492473267
 30
0.0
 10
207.6476602505431
 20
103.8970079680863
 30
0.0
 10
209.4301810367191
 20
103.5654567931961
 30
0.0
 10
210.3074601080212
 20
103.319285474468
 30
0.0
 10
211.1385705003995
 20
103.0120632941758
 30
0.0
  0
LINE
  5
168
330
1F
100
AcDbEntity
  8
0
  6
HIDDEN
 62
     7
370
     0
100
AcDbLine
 10
203.2181188378
 20
103.9854492473
 30
0.0
 11
205.809048954
 21
103.9854492473
 31
0.0
  0
LWPOLYLINE
  5
169
330
1F
100
AcDbEntity
  8
0
  6
HIDDEN
 62
     7
370
     0
100
AcDbPolyline
 90
       16
 70
   128
 43
0.0
 10
217.0812192028
 20
114.2341241818
 10
217.162459043
 20
113.8731171019
 10
217.1395400226
 20
113.4853950983
 10
217.0134638126
 20
113.0879034832
 10
216.7897405484
 20
112.6980145475
 10
216.4781480102
 20
112.3327683086
 10
216.0923042872
 20
112.0081277797
 10
215.6490726014
 20
111.7382813098
 10
215.1678243045
 20
111.5350224844
 10
214.6695922563
 20
111.4072346897
 10
214.176151588
 20
111.3605028654
 10
213.7090680248
 20
111.3968694164
 10
213.2887553595
 20
111.51474495
 10
212.9335832726
 20
111.7089777398
 10
212.6590744885
 20
111.9710788808
 10
212.4772263585
 20
112.2895932954
  0
ELLIPSE
  5
16A
330
1F
100
AcDbEntity
  8
0
  6
HIDDEN
 62
     7
370
     0
100
AcDbEllipse
 10
216.3831549519
 20
109.753303719
 30
0.0
 11
-1.091603625900518
 21
2.745937317723829
 31
0.0
210
0.0
220
0.0
230
1.0
 40
0.8456084473
 41
2.064901711759858
 42
4.254226082303003
  0
LINE
  5
16B
330
1F
100
AcDbEntity
  8
0
  6
HIDDEN
 62
     7
370
     0
100
AcDbLine
 10
154.7602974833
 20
119.7076512873
 30
0.0
 11
154.7602974833
 21
112.3332668831
 31
0.0
  0
LINE
  5
16C
330
1F
100
AcDbEntity
  8
0
  6
HIDDEN
 62
     7
370
     0
100
AcDbLine
 10
154.7602974833
 20
130.7824633188
 30
0.0
 11
154.7602974833
 21
123.4080789146
 31
0.0
  0
SPLINE
  5
16D
330
1F
100
AcDbEntity
  8
0
  6
HIDDEN
 62
     7
370
     0
100
AcDbSpline
210
0.0
220
0.0
230
1.0
 70
     8
 71
     3
 72
    24
 73
    20
 74
     0
 42
0.00000001
 43
0.00000001
 12
1.0
 22
0.0
 32
0.0
 13
1.0
 23
0.0
 33
0.0
 40
0.0
 40
0.0
 40
0.0
 40
0.0
 40
0.2500000000000058
 40
0.2500000000000058
 40
0.3750000000000082
 40
0.3750000000000082
 40
0.4375000000000099
 40
0.4375000000000099
 40
0.5000000000000117
 40
0.5000000000000117
 40
0.5312500000000125
 40
0.5312500000000125
 40
0.5625000000000133
 40
0.5625000000000133
 40
0.6250000000000093
 40
0.6250000000000093
 40
0.7500000000000053
 40
0.7500000000000053
 40
1.0
 40
1.0
 40
1.0
 40
1.0
 10
177.2652575053125
 20
110.7652713741391
 30
0.0
 10
177.2494886279551
 20
110.6914126822095
 30
0.0
 10
177.2328746461051
 20
110.6177012934737
 30
0.0
 10
177.2043429801
 20
110.5061544698517
 30
0.0
 10
177.1942555652813
 20
110.4687828967232
 30
0.0
 10
177.176768004827
 20
110.4118833990855
 30
0.0
 10
177.1705584430437
 20
110.3927802989402
 30
0.0
 10
177.156280889391
 20
110.3539067847046
 30
0.0
 10
177.1487093415956
 20
110.3339821252712
 30
0.0
 10
177.1312917579173
 20
110.3039099072438
 30
0.0
 10
177.1228092612722
 20
110.2922285284408
 30
0.0
 10
177.1067709494005
 20
110.2849670176923
 30
0.0
 10
177.101950401197
 20
110.2885452647021
 30
0.0
 10
177.0905411766491
 20
110.3003061199337
 30
0.0
 10
177.0865206961916
 20
110.3119717699843
 30
0.0
 10
177.0757668413713
 20
110.3485071000978
 30
0.0
 10
177.0718941600891
 20
110.3759028334214
 30
0.0
 10
177.0627260102515
 20
110.4606288251774
 30
0.0
 10
177.0606975048824
 20
110.5214609473494
 30
0.0
 10
177.0602974832521
 20
110.583827108691
 30
0.0
  0
SPLINE
  5
16E
330
1F
100
AcDbEntity
  8
0
  6
HIDDEN
 62
     7
370
     0
100
AcDbSpline
210
0.0
220
0.0
230
1.0
 70
     8
 71
     3
 72
    24
 73
    20
 74
     0
 42
0.00000001
 43
0.00000001
 12
1.0
 22
0.0
 32
0.0
 13
1.0
 23
0.0
 33
0.0
 40
0.0
 40
0.0
 40
0.0
 40
0.0
 40
0.2499999999999984
 40
0.2499999999999984
 40
0.3749999999999994
 40
0.3749999999999994
 40
0.4375000000000012
 40
0.4375000000000012
 40
0.4687499999999999
 40
0.4687499999999999
 40
0.4999999999999988
 40
0.4999999999999988
 40
0.5624999999999999
 40
0.5624999999999999
 40
0.6250000000000011
 40
0.6250000000000011
 40
0.7500000000000008
 40
0.7500000000000008
 40
1.0
 40
1.0
 40
1.0
 40
1.0
 10
177.0602974832485
 20
132.5319030931859
 30
0.0
 10
177.0607021528241
 20
132.5949939016795
 30
0.0
 10
177.0627455996384
 20
132.6561796241828
 30
0.0
 10
177.0721451648922
 20
132.7416793566859
 30
0.0
 10
177.0760960584209
 20
132.7692597401275
 30
0.0
 10
177.0872483667172
 20
132.8057138222402
 30
0.0
 10
177.0914699076436
 20
132.8175722439348
 30
0.0
 10
177.1036776292059
 20
132.8281922953122
 30
0.0
 10
177.109468399456
 20
132.8310256625365
 30
0.0
 10
177.1263899125657
 20
132.8197110755441
 30
0.0
 10
177.133796028517
 20
132.80793018979
 30
0.0
 10
177.1502532817617
 20
132.7778893485598
 30
0.0
 10
177.1577097996728
 20
132.7581763949464
 30
0.0
 10
177.1716177289479
 20
132.7197743288858
 30
0.0
 10
177.1777096748431
 20
132.7008926789741
 30
0.0
 10
177.1949039671945
 20
132.6445917684418
 30
0.0
 10
177.2048889173982
 20
132.6075156906317
 30
0.0
 10
177.2331349624975
 20
132.4968570197404
 30
0.0
 10
177.2496144994589
 20
132.4237279593311
 30
0.0
 10
177.2652575053187
 20
132.3504588277063
 30
0.0
  0
SPLINE
  5
16F
330
1F
100
AcDbEntity
  8
0
  6
HIDDEN
 62
     7
370
     0
100
AcDbSpline
210
0.0
220
0.0
230
1.0
 70
     8
 71
     3
 72
     8
 73
     4
 74
     0
 42
0.00000001
 43
0.00000001
 12
1.0
 22
0.0
 32
0.0
 13
1.0
 23
0.0
 33
0.0
 40
0.0
 40
0.0
 40
0.0
 40
0.0
 40
1.0
 40
1.0
 40
1.0
 40
1.0
 10
177.4389771396925
 20
111.5043457833306
 30
0.0
 10
177.3738719780785
 20
111.2493205481249
 30
0.0
 10
177.3159846485185
 20
111.0028685319837
 30
0.0
 10
177.2652575053125
 20
110.7652713741391
 30
0.0
  0
SPLINE
  5
170
330
1F
100
AcDbEntity
  8
0
  6
HIDDEN
 62
     7
370
     0
100
AcDbSpline
210
0.0
220
0.0
230
1.0
 70
     8
 71
     3
 72
     8
 73
     4
 74
     0
 42
0.00000001
 43
0.00000001
 12
1.0
 22
0.0
 32
0.0
 13
1.0
 23
0.0
 33
0.0
 40
0.0
 40
0.0
 40
0.0
 40
0.0
 40
1.0
 40
1.0
 40
1.0
 40
1.0
 10
177.2652575053187
 20
132.3504588277064
 30
0.0
 10
177.3159846485232
 20
132.1128616698708
 30
0.0
 10
177.3738719780811
 20
131.8664096537393
 30
0.0
 10
177.4389771396925
 20
131.6113844185441
 30
0.0
  0
LINE
  5
171
330
1F
100
AcDbEntity
  8
0
  6
HIDDEN
 62
     7
370
     0
100
AcDbLine
 10
156.2602974833
 20
131.2154760207
 30
0.0
 11
156.2602974833
 21
124.112893338
 31
0.0
  0
LINE
  5
172
330
1F
100
AcDbEntity
  8
0
  6
HIDDEN
 62
     7
370
     0
100
AcDbLine
 10
156.2602974833
 20
119.0028368639
 30
0.0
 11
156.2602974833
 21
111.9002541812
 31
0.0
  0
LINE
  5
173
330
1F
100
AcDbEntity
  8
0
  6
HIDDEN
 62
     7
370
     0
100
AcDbLine
 10
177.0602974833
 20
131.47676022
 30
0.0
 11
177.0602974833
 21
111.6389699818
 31
0.0
  0
LINE
  5
174
330
1F
100
AcDbEntity
  8
0
  6
HIDDEN
 62
     7
370
     0
100
AcDbLine
 10
210.7927593738
 20
116.640349134
 30
0.0
 11
212.4772263585
 21
112.2895932954
 31
0.0
  0
LINE
  5
175
330
1F
100
AcDbEntity
  8
0
  6
HIDDEN
 62
     7
370
     0
100
AcDbLine
 10
178.5602974833
 20
130.0372322406
 30
0.0
 11
178.5602974833
 21
113.0784979612
 31
0.0
  0
SPLINE
  5
176
330
1F
100
AcDbEntity
  8
0
  6
HIDDEN
 62
     7
370
     0
100
AcDbSpline
210
0.0
220
0.0
230
1.0
 70
     8
 71
     3
 72
     8
 73
     4
 74
     0
 42
0.00000001
 43
0.00000001
 12
1.0
 22
0.0
 32
0.0
 13
1.0
 23
0.0
 33
0.0
 40
0.0000137051794234
 40
0.0000137051794234
 40
0.0000137051794234
 40
0.0000137051794234
 40
0.0027147144718019
 40
0.0027147144718019
 40
0.0027147144718019
 40
0.0027147144718019
 10
156.2602974832521
 20
119.0028368638756
 30
0.0
 10
157.1602936187469
 20
118.9898652966773
 30
0.0
 10
158.0602937973423
 20
118.9772304393652
 30
0.0
 10
158.9602974832522
 20
118.9649204211094
 30
0.0
  0
SPLINE
  5
177
330
1F
100
AcDbEntity
  8
0
  6
HIDDEN
 62
     7
370
     0
100
AcDbSpline
210
0.0
220
0.0
230
1.0
 70
     8
 71
     3
 72
     8
 73
     4
 74
     0
 42
0.00000001
 43
0.00000001
 12
1.0
 22
0.0
 32
0.0
 13
1.0
 23
0.0
 33
0.0
 40
0.0000137050638847
 40
0.0000137050638847
 40
0.0000137050638847
 40
0.0000137050638847
 40
0.0027147143562632
 40
0.0027147143562632
 40
0.0027147143562632
 40
0.0027147143562632
 10
158.9602974832522
 20
124.1508097807653
 30
0.0
 10
158.0602937973423
 20
124.1384997625096
 30
0.0
 10
157.1602936187469
 20
124.1258649051975
 30
0.0
 10
156.2602974832521
 20
124.1128933379991
 30
0.0
  0
SPLINE
  5
178
330
1F
100
AcDbEntity
  8
0
  6
HIDDEN
 62
     7
370
     0
100
AcDbSpline
210
0.0
220
0.0
230
1.0
 70
     8
 71
     3
 72
    10
 73
     6
 74
     0
 42
0.00000001
 43
0.00000001
 12
1.0
 22
0.0
 32
0.0
 13
1.0
 23
0.0
 33
0.0
 40
0.0
 40
0.0
 40
0.0
 40
0.0
 40
0.5
 40
0.5
 40
1.0
 40
1.0
 40
1.0
 40
1.0
 10
156.2602974832521
 20
124.1128933379991
 30
0.0
 10
156.0000803607141
 20
124.0267052512961
 30
0.0
 10
155.7440457914639
 20
123.9272596351733
 30
0.0
 10
155.2427822027312
 20
123.6956027585359
 30
0.0
 10
154.9974394439679
 20
123.5636937291168
 30
0.0
 10
154.7602974832521
 20
123.4080789145881
 30
0.0
  0
SPLINE
  5
179
330
1F
100
AcDbEntity
  8
0
  6
HIDDEN
 62
     7
370
     0
100
AcDbSpline
210
0.0
220
0.0
230
1.0
 70
     8
 71
     3
 72
    10
 73
     6
 74
     0
 42
0.00000001
 43
0.00000001
 12
1.0
 22
0.0
 32
0.0
 13
1.0
 23
0.0
 33
0.0
 40
0.0
 40
0.0
 40
0.0
 40
0.0
 40
0.5
 40
0.5
 40
1.0
 40
1.0
 40
1.0
 40
1.0
 10
154.7602974832521
 20
119.7076512872867
 30
0.0
 10
154.9974394439679
 20
119.552036472758
 30
0.0
 10
155.2427822027312
 20
119.4201274433388
 30
0.0
 10
155.7440457914639
 20
119.1884705667015
 30
0.0
 10
156.0000803607141
 20
119.0890249505787
 30
0.0
 10
156.2602974832521
 20
119.0028368638756
 30
0.0
  0
LINE
  5
17A
330
1F
100
AcDbEntity
  8
0
  6
HIDDEN
 62
     7
370
     0
100
AcDbLine
 10
154.7602974833
 20
119.7076512873
 30
0.0
 11
154.7602974833
 21
123.4080789146
 31
0.0
  0
LINE
  5
17B
330
1F
100
AcDbEntity
  8
0
  6
HIDDEN
 62
     7
370
     0
100
AcDbLine
 10
158.9602974833
 20
118.9649204211
 30
0.0
 11
158.9602974833
 21
124.1508097808
 31
0.0
  0
SPLINE
  5
17C
330
1F
100
AcDbEntity
  8
0
  6
HIDDEN
 62
     7
370
     0
100
AcDbSpline
210
0.0
220
0.0
230
1.0
 70
     8
 71
     3
 72
    22
 73
    18
 74
     0
 42
0.00000001
 43
0.00000001
 12
1.0
 22
0.0
 32
0.0
 13
1.0
 23
0.0
 33
0.0
 40
0.0
 40
0.0
 40
0.0
 40
0.0
 40
0.125
 40
0.125
 40
0.25
 40
0.25
 40
0.375
 40
0.375
 40
0.5
 40
0.5
 40
0.625
 40
0.625
 40
0.75
 40
0.75
 40
0.875
 40
0.875
 40
1.0
 40
1.0
 40
1.0
 40
1.0
 10
158.9602974832522
 20
118.9649204211094
 30
0.0
 10
159.1412338413283
 20
119.156540280416
 30
0.0
 10
159.3203292901052
 20
119.3501821448031
 30
0.0
 10
159.6711692786172
 20
119.7448373981874
 30
0.0
 10
159.8433623865218
 20
119.9458489288549
 30
0.0
 10
160.1690938921411
 20
120.3620600440887
 30
0.0
 10
160.3251701273095
 20
120.5780758843755
 30
0.0
 10
160.5765493411985
 20
121.0433986475402
 30
0.0
 10
160.6704144715173
 20
121.298937840563
 30
0.0
 10
160.6666865546552
 20
121.8332684756636
 30
0.0
 10
160.5693139121678
 20
122.0886893416643
 30
0.0
 10
160.3174931031739
 20
122.548718057612
 30
0.0
 10
160.1625238477014
 20
122.7625550585406
 30
0.0
 10
159.8377110899761
 20
123.1765936412343
 30
0.0
 10
159.6668180258482
 20
123.3758861132702
 30
0.0
 10
159.3181837863206
 20
123.7678610057043
 30
0.0
 10
159.1401759357921
 20
123.9603102916937
 30
0.0
 10
158.9602974832522
 20
124.1508097807653
 30
0.0
  0
LWPOLYLINE
  5
17D
330
1F
100
AcDbEntity
  8
0
  6
HIDDEN
 62
     7
370
     0
100
AcDbPolyline
 90
       32
 70
   128
 43
0.0
 10
192.7602974833
 20
129.1203170452
 10
193.2635437835
 20
129.0728682752
 10
193.746187121
 20
128.9324645237
 10
194.188468021
 20
128.7048539365
 10
194.5722794513
 20
128.399354918
 10
194.881908127
 20
128.0284746338
 10
195.1046778136
 20
127.6073969664
 10
195.2314682941
 20
127.1533608848
 10
195.2570887512
 20
126.6849546798
 10
195.1804902804
 20
126.2213549562
 10
195.0048088322
 20
125.7815415413
 10
194.7372368256
 20
125.383520448
 10
194.3887286901
 20
125.0435867066
 10
193.9735523896
 20
124.7756572443
 10
193.5087052907
 20
124.5907011249
 10
193.0132182882
 20
124.4962904736
 10
192.5073766783
 20
124.4962904736
 10
192.0118896758
 20
124.5907011249
 10
191.5470425769
 20
124.7756572443
 10
191.1318662764
 20
125.0435867066
 10
190.7833581409
 20
125.383520448
 10
190.5157861343
 20
125.7815415413
 10
190.3401046861
 20
126.2213549562
 10
190.2635062153
 20
126.6849546798
 10
190.2891266724
 20
127.1533608848
 10
190.4159171529
 20
127.6073969664
 10
190.6386868395
 20
128.0284746338
 10
190.9483155152
 20
128.399354918
 10
191.3321269455
 20
128.7048539365
 10
191.7744078455
 20
128.9324645237
 10
192.257051183
 20
129.0728682752
 10
192.7602974833
 20
129.1203170452
  0
SPLINE
  5
17E
330
1F
100
AcDbEntity
  8
0
  6
HIDDEN
 62
     7
370
     0
100
AcDbSpline
210
0.0
220
0.0
230
1.0
 70
     8
 71
     3
 72
    62
 73
    58
 74
     0
 42
0.00000001
 43
0.00000001
 12
1.0
 22
0.0
 32
0.0
 13
1.0
 23
0.0
 33
0.0
 40
-0.0312499999999999
 40
-0.0312499999999999
 40
0.0
 40
0.0
 40
0.0312499999999998
 40
0.0312499999999998
 40
0.0624999999999997
 40
0.0624999999999997
 40
0.0937499999999995
 40
0.0937499999999995
 40
0.1249999999999994
 40
0.1249999999999994
 40
0.1874999999999994
 40
0.1874999999999994
 40
0.2499999999999994
 40
0.2499999999999994
 40
0.2812499999999996
 40
0.2812499999999996
 40
0.3124999999999997
 40
0.3124999999999997
 40
0.3437499999999998
 40
0.3437499999999998
 40
0.3749999999999999
 40
0.3749999999999999
 40
0.4375000000000002
 40
0.4375000000000002
 40
0.4687500000000004
 40
0.4687500000000004
 40
0.5000000000000006
 40
0.5000000000000006
 40
0.5625000000000007
 40
0.5625000000000007
 40
0.5937500000000007
 40
0.5937500000000007
 40
0.6250000000000006
 40
0.6250000000000006
 40
0.6562500000000006
 40
0.6562500000000006
 40
0.6875000000000006
 40
0.6875000000000006
 40
0.7187500000000004
 40
0.7187500000000004
 40
0.7500000000000004
 40
0.7500000000000004
 40
0.7812500000000004
 40
0.7812500000000004
 40
0.8125000000000003
 40
0.8125000000000003
 40
0.8437500000000003
 40
0.8437500000000003
 40
0.8750000000000002
 40
0.8750000000000002
 40
0.9062500000000002
 40
0.9062500000000002
 40
0.9375000000000002
 40
0.9375000000000002
 40
0.9687500000000001
 40
0.9687500000000001
 40
1.0
 40
1.0
 40
1.03125
 40
1.03125
 10
165.2140696111804
 20
123.0458441395937
 30
0.0
 10
165.4415699577686
 20
123.2951906814544
 30
0.0
 10
165.5660324866861
 20
123.4067883589113
 30
0.0
 10
165.8351267528379
 20
123.6054391547297
 30
0.0
 10
165.9809398444272
 20
123.6927793995184
 30
0.0
 10
166.2821067227166
 20
123.8369751521606
 30
0.0
 10
166.438442449781
 20
123.8947948226749
 30
0.0
 10
166.7625657491154
 20
123.9820484347259
 30
0.0
 10
166.9292309608259
 20
124.0108504842077
 30
0.0
 10
167.4272472274578
 20
124.0516297894755
 30
0.0
 10
167.7679181762508
 20
124.0181865293343
 30
0.0
 10
168.4069290916722
 20
123.8357338848755
 30
0.0
 10
168.7133836987361
 20
123.6843093245627
 30
0.0
 10
169.1099396079985
 20
123.3838114189784
 30
0.0
 10
169.234288798848
 20
123.269550233783
 30
0.0
 10
169.4567528928971
 20
123.0198903632105
 30
0.0
 10
169.5543182313744
 20
122.8857237552114
 30
0.0
 10
169.7215738350132
 20
122.5982546607127
 30
0.0
 10
169.7916594905323
 20
122.4429878108128
 30
0.0
 10
169.8957148512538
 20
122.1260083907258
 30
0.0
 10
169.9306906139212
 20
121.9633556392213
 30
0.0
 10
169.9825551334453
 20
121.4624186190187
 30
0.0
 10
169.9432490256739
 20
121.1222640177084
 30
0.0
 10
169.7805292332131
 20
120.6457693856113
 30
0.0
 10
169.7102487353268
 20
120.4947020257838
 30
0.0
 10
169.5389155901968
 20
120.207407455343
 30
0.0
 10
169.4375233490151
 20
120.0715496770456
 30
0.0
 10
169.1009237617919
 20
119.7027412820474
 30
0.0
 10
168.8256909956272
 20
119.5003161727163
 30
0.0
 10
168.3759077682813
 20
119.2832394461075
 30
0.0
 10
168.2171079697777
 20
119.2239371740333
 30
0.0
 10
167.894546248898
 20
119.1359646562327
 30
0.0
 10
167.7306871369308
 20
119.1068448923865
 30
0.0
 10
167.3978543635769
 20
119.0779882772763
 30
0.0
 10
167.2278020721361
 20
119.0786118004903
 30
0.0
 10
166.8955264081164
 20
119.1098682442947
 30
0.0
 10
166.7318117963677
 20
119.1401869393465
 30
0.0
 10
166.4093463107933
 20
119.2309039783495
 30
0.0
 10
166.2508352122668
 20
119.2916728870513
 30
0.0
 10
165.9522815060689
 20
119.4391835618483
 30
0.0
 10
165.8104553768668
 20
119.5263185897122
 30
0.0
 10
165.5425336383085
 20
119.7289040562842
 30
0.0
 10
165.4184402079159
 20
119.8432422229264
 30
0.0
 10
165.1973060199978
 20
120.0914286608792
 30
0.0
 10
165.0988490178991
 20
120.226461277733
 30
0.0
 10
164.9294905041641
 20
120.5184656757877
 30
0.0
 10
164.8613236664582
 20
120.6706014222233
 30
0.0
 10
164.7575897001318
 20
120.9870103706633
 30
0.0
 10
164.7219211382626
 20
121.1535068400176
 30
0.0
 10
164.6877073736101
 20
121.4867687161281
 30
0.0
 10
164.6885657764392
 20
121.6534311699499
 30
0.0
 10
164.7263625563888
 20
121.9868193691675
 30
0.0
 10
164.7637053118428
 20
122.152574941647
 30
0.0
 10
164.8709548949112
 20
122.4684662581097
 30
0.0
 10
164.9417161114503
 20
122.6217455911818
 30
0.0
 10
165.113839261551
 20
122.9111226336683
 30
0.0
 10
165.2140696111804
 20
123.0458441395937
 30
0.0
 10
165.4415699577686
 20
123.2951906814544
 30
0.0
  0
CIRCLE
  5
17F
330
1F
100
AcDbEntity
  8
0
  6
HIDDEN
 62
     7
370
     0
100
AcDbCircle
 10
167.2602974833
 20
121.5578651009
 30
0.0
 40
2.299999999999997
  0
CIRCLE
  5
180
330
1F
100
AcDbEntity
  8
0
  6
HIDDEN
 62
     7
370
     0
100
AcDbCircle
 10
190.7602974833
 20
121.5578651009
 30
0.0
 40
2.000000000000014
  0
LINE
  5
181
330
1F
100
AcDbEntity
  8
0
  6
HIDDEN
 62
     7
370
     0
100
AcDbLine
 10
222.9495992171
 20
107.0005142788
 30
0.0
 11
203.1383389403
 21
107.0005142788
 31
0.0
  0
LINE
  5
182
330
1F
100
AcDbEntity
  8
0
  6
HIDDEN
 62
     7
370
     0
100
AcDbLine
 10
223.1355029552
 20
107.91125336
 30
0.0
 11
222.9520792431
 21
106.9987326708
 31
0.0
  0
SPLINE
  5
183
330
1F
100
AcDbEntity
  8
0
  6
HIDDEN
 62
     7
370
     0
100
AcDbSpline
210
0.0
220
0.0
230
1.0
 70
     8
 71
     3
 72
     8
 73
     4
 74
     0
 42
0.00000001
 43
0.00000001
 12
1.0
 22
0.0
 32
0.0
 13
1.0
 23
0.0
 33
0.0
 40
0.0
 40
0.0
 40
0.0
 40
0.0
 40
1.0
 40
1.0
 40
1.0
 40
1.0
 10
203.1383389402577
 20
107.0005142787643
 30
0.0
 10
202.5525876317711
 20
110.776185701143
 30
0.0
 10
202.1150474135655
 20
114.5714836726491
 30
0.0
 10
201.9588963215622
 20
118.4040440210722
 30
0.0
  0
LINE
  5
184
330
1F
100
AcDbEntity
  8
0
  6
HIDDEN
 62
     7
370
     0
100
AcDbLine
 10
223.1349965853
 20
107.9085361603
 30
0.0
 11
218.7019774211
 21
121.5578651009
 31
0.0
  0
LINE
  5
185
330
1F
100
AcDbEntity
  8
0
  6
HIDDEN
 62
     7
370
     0
100
AcDbLine
 10
178.7602974833
 20
105.7578651009
 30
0.0
 11
178.8531907021
 21
105.8507583198
 31
0.0
  0
LINE
  5
186
330
1F
100
AcDbEntity
  8
0
  6
HIDDEN
 62
     7
370
     0
100
AcDbLine
 10
178.8531907021
 20
137.2649718821
 30
0.0
 11
178.7602974833
 21
137.3578651009
 31
0.0
  0
ARC
  5
187
330
1F
100
AcDbEntity
  8
0
  6
HIDDEN
 62
     7
370
     0
100
AcDbCircle
 10
178.1460839209
 20
106.5578651009
 30
0.0
 40
1.000000000000028
100
AcDbArc
 50
315.0
 51
0.0
  0
ARC
  5
188
330
1F
100
AcDbEntity
  8
0
  6
HIDDEN
 62
     7
370
     0
100
AcDbCircle
 10
178.1460839209
 20
106.5578651009
 30
0.0
 40
1.0
100
AcDbArc
 50
0.0
 51
52.1052014664
  0
ARC
  5
189
330
1F
100
AcDbEntity
  8
0
  6
HIDDEN
 62
     7
370
     0
100
AcDbCircle
 10
178.1460839209
 20
136.5578651009
 30
0.0
 40
1.000000000000028
100
AcDbArc
 50
351.8087250651
 51
45.0
  0
ARC
  5
18A
330
1F
100
AcDbEntity
  8
0
  6
HIDDEN
 62
     7
370
     0
100
AcDbCircle
 10
178.1460839209
 20
136.5578651009
 30
0.0
 40
1.000000000000006
100
AcDbArc
 50
307.8947985336
 51
351.8087250651
  0
LINE
  5
18B
330
1F
100
AcDbEntity
  8
0
  6
HIDDEN
 62
     7
370
     0
100
AcDbLine
 10
179.1460839209
 20
106.5578651009
 30
0.0
 11
179.1460839209
 21
136.5578651009
 31
0.0
  0
LINE
  5
18C
330
1F
100
AcDbEntity
  8
0
  6
HIDDEN
 62
     7
370
     0
100
AcDbLine
 10
179.1460839209
 20
106.5578651009
 30
0.0
 11
179.1460839209
 21
136.5578651009
 31
0.0
  0
LINE
  5
18D
330
1F
100
AcDbEntity
  8
0
  6
HIDDEN
 62
     7
370
     0
100
AcDbLine
 10
190.6602974833
 20
119.2174296077
 30
0.0
 11
190.6602974833
 21
115.9387661997
 31
0.0
  0
LINE
  5
18E
330
1F
100
AcDbEntity
  8
0
  6
HIDDEN
 62
     7
370
     0
100
AcDbLine
 10
194.8602974833
 20
117.1586980354
 30
0.0
 11
194.8602974833
 21
119.2166183178
 31
0.0
  0
LINE
  5
18F
330
1F
100
AcDbEntity
  8
0
  6
HIDDEN
 62
     7
370
     0
100
AcDbLine
 10
199.5538707937
 20
114.6905315339
 30
0.0
 11
194.4526250228
 21
117.9009616196
 31
0.0
  0
LINE
  5
190
330
1F
100
AcDbEntity
  8
0
  6
HIDDEN
 62
     7
370
     0
100
AcDbLine
 10
192.1557958426
 20
114.3839232488
 30
0.0
 11
199.5014579186
 21
109.7609868943
 31
0.0
  0
LINE
  5
191
330
1F
100
AcDbEntity
  8
0
  6
HIDDEN
 62
     7
370
     0
100
AcDbLine
 10
154.7602974833
 20
111.4022145767
 30
0.0
 11
155.7873295153
 21
111.9951717968
 31
0.0
  0
LINE
  5
192
330
1F
100
AcDbEntity
  8
0
  6
HIDDEN
 62
     7
370
     0
100
AcDbLine
 10
155.7873295153
 20
131.120558405
 30
0.0
 11
154.7602974833
 21
131.7135156252
 31
0.0
  0
LINE
  5
193
330
1F
100
AcDbEntity
  8
0
  6
HIDDEN
 62
     7
370
     0
100
AcDbLine
 10
160.2602974833
 20
111.5578651009
 30
0.0
 11
161.2731159529
 21
111.5578651009
 31
0.0
  0
LINE
  5
194
330
1F
100
AcDbEntity
  8
0
  6
HIDDEN
 62
     7
370
     0
100
AcDbLine
 10
161.2731159529
 20
131.5578651009
 30
0.0
 11
160.2602974833
 21
131.5578651009
 31
0.0
  0
ARC
  5
195
330
1F
100
AcDbEntity
  8
0
  6
HIDDEN
 62
     7
370
     0
100
AcDbCircle
 10
160.2602974833
 20
112.5578651009
 30
0.0
 40
1.0
100
AcDbArc
 50
193.3524261238
 51
270.0
  0
ARC
  5
196
330
1F
100
AcDbEntity
  8
0
  6
HIDDEN
 62
     7
370
     0
100
AcDbCircle
 10
160.2602974833
 20
130.5578651009
 30
0.0
 40
1.0
100
AcDbArc
 50
90.0
 51
166.6475738762
  0
ARC
  5
197
330
1F
100
AcDbEntity
  8
0
  6
HIDDEN
 62
     7
370
     0
100
AcDbCircle
 10
161.2731159529
 20
112.5578651009
 30
0.0
 40
1.0
100
AcDbArc
 50
270.0
 51
315.0
  0
ARC
  5
198
330
1F
100
AcDbEntity
  8
0
  6
HIDDEN
 62
     7
370
     0
100
AcDbCircle
 10
161.2731159529
 20
130.5578651009
 30
0.0
 40
1.000000000000008
100
AcDbArc
 50
45.0
 51
90.0
  0
LINE
  5
199
330
1F
100
AcDbEntity
  8
0
  6
HIDDEN
 62
     7
370
     0
100
AcDbLine
 10
161.9802227341
 20
111.8507583198
 30
0.0
 11
162.6873295153
 21
112.5578651009
 31
0.0
  0
LINE
  5
19A
330
1F
100
AcDbEntity
  8
0
  6
HIDDEN
 62
     7
370
     0
100
AcDbLine
 10
162.6873295153
 20
130.5578651009
 30
0.0
 11
161.9802227341
 21
131.2649718821
 31
0.0
  0
LINE
  5
19B
330
1F
100
AcDbEntity
  8
0
  6
HIDDEN
 62
     7
370
     0
100
AcDbLine
 10
155.7873295153
 20
111.9951717968
 30
0.0
 11
157.8873295153
 21
112.5578651009
 31
0.0
  0
LINE
  5
19C
330
1F
100
AcDbEntity
  8
0
  6
HIDDEN
 62
     7
370
     0
100
AcDbLine
 10
157.8873295153
 20
130.5578651009
 30
0.0
 11
155.7873295153
 21
131.120558405
 31
0.0
  0
LINE
  5
19D
330
1F
100
AcDbEntity
  8
0
  6
HIDDEN
 62
     7
370
     0
100
AcDbLine
 10
159.2873295153
 20
130.7888052086
 30
0.0
 11
158.8873295153
 21
130.5578651009
 31
0.0
  0
LINE
  5
19E
330
1F
100
AcDbEntity
  8
0
  6
HIDDEN
 62
     7
370
     0
100
AcDbLine
 10
158.8873295153
 20
112.5578651009
 30
0.0
 11
159.2873295153
 21
112.3269249933
 31
0.0
  0
ARC
  5
19F
330
1F
100
AcDbEntity
  8
0
  6
HIDDEN
 62
     7
370
     0
100
AcDbCircle
 10
169.2602974833
 20
113.0578651009
 30
0.0
 40
0.5
100
AcDbArc
 50
270.0
 51
0.0
  0
ARC
  5
1A0
330
1F
100
AcDbEntity
  8
0
  6
HIDDEN
 62
     7
370
     0
100
AcDbCircle
 10
169.2602974833
 20
130.0578651009
 30
0.0
 40
0.5
100
AcDbArc
 50
0.0
 51
90.0
  0
LINE
  5
1A1
330
1F
100
AcDbEntity
  8
0
  6
HIDDEN
 62
     7
370
     0
100
AcDbLine
 10
157.8873295153
 20
112.5578651009
 30
0.0
 11
158.8873295153
 21
112.5578651009
 31
0.0
  0
LINE
  5
1A2
330
1F
100
AcDbEntity
  8
0
  6
HIDDEN
 62
     7
370
     0
100
AcDbLine
 10
158.8873295153
 20
130.5578651009
 30
0.0
 11
157.8873295153
 21
130.5578651009
 31
0.0
  0
LINE
  5
1A3
330
1F
100
AcDbEntity
  8
0
  6
HIDDEN
 62
     7
370
     0
100
AcDbLine
 10
162.6873295153
 20
112.5578651009
 30
0.0
 11
169.2602974833
 21
112.5578651009
 31
0.0
  0
LINE
  5
1A4
330
1F
100
AcDbEntity
  8
0
  6
HIDDEN
 62
     7
370
     0
100
AcDbLine
 10
169.2602974833
 20
130.5578651009
 30
0.0
 11
162.6873295153
 21
130.5578651009
 31
0.0
  0
LINE
  5
1A5
330
1F
100
AcDbEntity
  8
0
  6
HIDDEN
 62
     7
370
     0
100
AcDbLine
 10
169.7602974833
 20
114.4078651009
 30
0.0
 11
170.6602974833
 21
115.3078651009
 31
0.0
  0
LINE
  5
1A6
330
1F
100
AcDbEntity
  8
0
  6
HIDDEN
 62
     7
370
     0
100
AcDbLine
 10
170.6602974833
 20
127.8078651009
 30
0.0
 11
169.7602974833
 21
128.7078651009
 31
0.0
  0
LINE
  5
1A7
330
1F
100
AcDbEntity
  8
0
  6
HIDDEN
 62
     7
370
     0
100
AcDbLine
 10
195.7449186143
 20
115.3078651009
 30
0.0
 11
199.5002974833
 21
121.5578651009
 31
0.0
  0
LINE
  5
1A8
330
1F
100
AcDbEntity
  8
0
  6
HIDDEN
 62
     7
370
     0
100
AcDbLine
 10
199.5002974833
 20
121.5578651009
 30
0.0
 11
195.7449186143
 21
127.8078651009
 31
0.0
  0
LINE
  5
1A9
330
1F
100
AcDbEntity
  8
0
  6
HIDDEN
 62
     7
370
     0
100
AcDbLine
 10
170.6602974833
 20
115.3078651009
 30
0.0
 11
195.7449186143
 21
115.3078651009
 31
0.0
  0
LINE
  5
1AA
330
1F
100
AcDbEntity
  8
0
  6
HIDDEN
 62
     7
370
     0
100
AcDbLine
 10
195.7449186143
 20
127.8078651009
 30
0.0
 11
170.6602974833
 21
127.8078651009
 31
0.0
  0
LINE
  5
1AB
330
1F
100
AcDbEntity
  8
0
  6
HIDDEN
 62
     7
370
     0
100
AcDbLine
 10
209.9820359774
 20
116.9548985836
 30
0.0
 11
210.4607133677
 21
116.1640507523
 31
0.0
  0
LINE
  5
1AC
330
1F
100
AcDbEntity
  8
0
  6
HIDDEN
 62
     7
370
     0
100
AcDbLine
 10
216.4491926725
 20
119.7887046139
 30
0.0
 11
215.9705152822
 21
120.5795524452
 31
0.0
  0
LINE
  5
1AD
330
1F
100
AcDbEntity
  8
0
  6
HIDDEN
 62
     7
370
     0
100
AcDbLine
 10
206.1070435044
 20
111.891474601
 30
0.0
 11
207.0707959357
 21
110.2992090467
 31
0.0
  0
LINE
  5
1AE
330
1F
100
AcDbEntity
  8
0
  6
HIDDEN
 62
     7
370
     0
100
AcDbLine
 10
219.0536306177
 20
110.8253294843
 30
0.0
 11
215.8540286653
 21
117.824365785
 31
0.0
  0
LINE
  5
1AF
330
1F
100
AcDbEntity
  8
0
  6
HIDDEN
 62
     7
370
     0
100
AcDbLine
 10
207.0916433161
 20
120.3784135202
 30
0.0
 11
209.3392231209
 21
116.6650699401
 31
0.0
  0
LINE
  5
1B0
330
1F
100
AcDbEntity
  8
0
  6
HIDDEN
 62
     7
370
     0
100
AcDbLine
 10
216.5253982867
 20
121.0146545739
 30
0.0
 11
214.303446116
 21
124.6856574058
 31
0.0
  0
LINE
  5
1B1
330
1F
100
AcDbEntity
  8
0
  6
HIDDEN
 62
     7
370
     0
100
AcDbLine
 10
190.6602974833
 20
126.7123228689
 30
0.0
 11
190.6602974833
 21
123.8991118841
 31
0.0
  0
LINE
  5
1B2
330
1F
100
AcDbEntity
  8
0
  6
HIDDEN
 62
     7
370
     0
100
AcDbLine
 10
194.8602974833
 20
123.8978899733
 30
0.0
 11
194.8602974833
 21
126.7123228689
 31
0.0
  0
LINE
  5
1B3
330
1F
100
AcDbEntity
  8
0
  6
HIDDEN
 62
     7
370
     0
100
AcDbLine
 10
221.0908177212
 20
107.1084659675
 30
0.0
 11
220.5054583269
 21
108.0755686903
 31
0.0
  0
LINE
  5
1B4
330
1F
100
AcDbEntity
  8
0
  6
HIDDEN
 62
     7
370
     0
100
AcDbLine
 10
215.0302772482
 20
104.7615994454
 30
0.0
 11
215.6156366425
 21
103.7944967227
 31
0.0
  0
LINE
  5
1B5
330
1F
100
AcDbEntity
  8
0
  6
HIDDEN
 62
     7
370
     0
100
AcDbLine
 10
212.5055418123
 20
112.2224479179
 30
0.0
 11
214.9569698761
 21
106.8600202589
 31
0.0
  0
LINE
  5
1B6
330
1F
100
AcDbEntity
  8
0
  6
HIDDEN
 62
     7
370
     0
100
AcDbLine
 10
190.2602974833
 20
129.0497785769
 30
0.0
 11
190.2602974833
 21
126.8023574088
 31
0.0
  0
LINE
  5
1B7
330
1F
100
AcDbEntity
  8
0
  6
HIDDEN
 62
     7
370
     0
100
AcDbLine
 10
195.2602974833
 20
126.8023574088
 30
0.0
 11
195.2602974833
 21
129.0499897645
 31
0.0
  0
LINE
  5
1B8
330
1F
100
AcDbEntity
  8
VERMASSUNG
  6
CENTERX2
100
AcDbLine
 10
152.4554311009
 20
121.5578651009
 30
0.0
 11
228.7602974833
 21
121.5578651009
 31
0.0
  0
LINE
  5
1B9
330
1F
100
AcDbEntity
  8
VERMASSUNG
  6
CENTERX2
100
AcDbLine
 10
228.7602974833
 20
94.5578651009
 30
0.0
 11
228.7602974833
 21
121.5578651009
 31
0.0
  0
LINE
  5
1BA
330
1F
100
AcDbEntity
  8
VERMASSUNG
  6
CENTERX2
100
AcDbLine
 10
228.7602974833
 20
94.5578651009
 30
0.0
 11
239.9951061187
 21
94.5578651009
 31
0.0
  0
DIMENSION
  5
1BB
330
1F
100
AcDbEntity
  8
VERMASSUNG
100
AcDbDimension
  2
_D
 10
228.7602974833
 20
79.1101742208
 30
0.0
 11
191.7602974833
 21
79.1101742208
 31
0.0
 70
   160
  1
<>
 71
     2
 42
-1.0
  3
SLDDIMSTYLE0
100
AcDbAlignedDimension
 13
154.7602974833
 23
108.9263601189
 33
0.0
 14
228.7602974833
 24
94.5578651009
 34
0.0
 50
0.0
100
AcDbRotatedDimension
  0
DIMENSION
  5
1C6
330
1F
100
AcDbEntity
  8
VERMASSUNG
100
AcDbDimension
  2
_D_1
 10
228.7602974833
 20
87.3634260254
 30
0.0
 11
203.7602974833
 21
87.3634260254
 31
0.0
 70
   160
  1
<>
 71
     2
 42
-1.0
  3
SLDDIMSTYLE1
100
AcDbAlignedDimension
 13
178.7602974833
 23
101.8578651009
 33
0.0
 14
228.7602974833
 24
94.5578651009
 34
0.0
100
AcDbRotatedDimension
  0
DIMENSION
  5
1D3
330
1F
100
AcDbEntity
  8
VERMASSUNG
100
AcDbDimension
  2
_D_2
 10
248.9826025396
 20
121.5578651009
 30
0.0
 11
248.9826025396
 21
108.0578651009
 31
0.0
 70
   160
  1
<>
 71
     2
 42
-1.0
  3
SLDDIMSTYLE1
100
AcDbAlignedDimension
 13
228.7602974833
 23
94.5578651009
 33
0.0
 14
228.7602974833
 24
121.5578651009
 34
0.0
 50
90.0
100
AcDbRotatedDimension
  0
DIMENSION
  5
1DF
330
1F
100
AcDbEntity
  8
VERMASSUNG
100
AcDbDimension
  2
_D_3
 10
228.7435521086
 20
95.0735501397
 30
0.0
 11
236.6123494721
 21
105.0594142026
 31
0.0
 70
   162
  1
<>
 71
     1
 42
-1.0
  3
SLDDIMSTYLE2
100
AcDb2LineAngularDimension
 13
239.9951061187
 23
94.5578651009
 33
0.0
 14
228.7602974833
 24
94.5578651009
 34
0.0
 15
224.4712698428
 25
108.662281714
 35
0.0
 16
236.6123494721
 26
105.0594142026
 36
0.0
  0
DIMENSION
  5
1E9
330
1F
100
AcDbEntity
  8
VERMASSUNG
100
AcDbDimension
  2
_D_4
 10
144.7602974833
 20
101.5578651009
 30
0.0
 11
144.7602974833
 21
121.5578651009
 31
0.0
 70
   160
  1
PSC%%c<>
 71
     2
 42
-1.0
  3
SLDDIMSTYLE0
100
AcDbAlignedDimension
 13
179.0602974833
 23
141.5578651009
 33
0.0
 14
179.0602974833
 24
101.5578651009
 34
0.0
 50
90.0
100
AcDbRotatedDimension
  0
LINE
  5
1F5
330
1F
100
AcDbEntity
  8
0
  6
Continuous
 62
     7
370
    15
100
AcDbLine
 10
86.3970682786
 20
95.9786603181
 30
0.0
 11
89.083271736
 21
96.4523104904
 31
0.0
  0
LINE
  5
1F6
330
1F
100
AcDbEntity
  8
0
  6
Continuous
 62
     7
370
    15
100
AcDbLine
 10
89.0931297854
 20
96.4596716641
 30
0.0
 11
89.3319013358
 21
96.8047155021
 31
0.0
  0
LINE
  5
1F7
330
1F
100
AcDbEntity
  8
0
  6
Continuous
 62
     7
370
    15
100
AcDbLine
 10
80.193574022
 20
94.5562047838
 30
0.0
 11
86.4128458143
 21
95.6528296648
 31
0.0
  0
LINE
  5
1F8
330
1F
100
AcDbEntity
  8
0
  6
Continuous
 62
     7
370
    15
100
AcDbLine
 10
79.1649271796
 20
97.8778915433
 30
0.0
 11
79.6322846382
 21
97.3099077074
 31
0.0
  0
LINE
  5
1F9
330
1F
100
AcDbEntity
  8
0
  6
Continuous
 62
     7
370
    15
100
AcDbLine
 10
76.3114301317
 20
110.6059353752
 30
0.0
 11
76.2987459839
 21
110.5558330147
 31
0.0
  0
LINE
  5
1FA
330
1F
100
AcDbEntity
  8
0
  6
Continuous
 62
     7
370
    15
100
AcDbLine
 10
76.2900371865
 20
110.5516439257
 30
0.0
 11
75.998795388
 21
109.7268590657
 31
0.0
  0
LINE
  5
1FB
330
1F
100
AcDbEntity
  8
0
  6
Continuous
 62
     7
370
    15
100
AcDbLine
 10
75.3176940435
 20
113.1098277821
 30
0.0
 11
75.007628353
 21
113.0551544903
 31
0.0
  0
LINE
  5
1FC
330
1F
100
AcDbEntity
  8
0
  6
Continuous
 62
     7
370
    15
100
AcDbLine
 10
86.5100311876
 20
110.6414252846
 30
0.0
 11
77.4798443836
 21
109.0491598426
 31
0.0
  0
LINE
  5
1FD
330
1F
100
AcDbEntity
  8
0
  6
Continuous
 62
     7
370
    15
100
AcDbLine
 10
71.0130107419
 20
139.8610060988
 30
0.0
 11
77.4798443836
 21
109.0491598426
 31
0.0
  0
ARC
  5
1FE
330
1F
100
AcDbEntity
  8
0
  6
Continuous
 62
     7
370
    15
100
AcDbCircle
 10
80.2458363415
 20
121.5578651009
 30
0.0
 40
20.50000000000001
100
AcDbArc
 50
0.0
 51
116.7681774716
  0
LINE
  5
1FF
330
1F
100
AcDbEntity
  8
0
  6
Continuous
 62
     7
370
    15
100
AcDbLine
 10
100.7458369077
 20
107.9085364891
 30
0.0
 11
100.7458369077
 21
121.5578651009
 31
0.0
  0
SPLINE
  5
200
330
1F
100
AcDbEntity
  8
0
  6
Continuous
 62
     7
370
    15
100
AcDbSpline
210
0.0
220
0.0
230
1.0
 70
     8
 71
     3
 72
    31
 73
    27
 74
     0
 42
0.00000001
 43
0.00000001
 12
1.0
 22
0.0
 32
0.0
 13
1.0
 23
0.0
 33
0.0
 40
0.0
 40
0.0
 40
0.0
 40
0.0
 40
0.0307628961326215
 40
0.0614982808157989
 40
0.0922192097434727
 40
0.1229387570405161
 40
0.1536699985951826
 40
0.1844259953803134
 40
0.2152197768694805
 40
0.2460643246528086
 40
0.2769725563543031
 40
0.3079573099481002
 40
0.339031328565319
 40
0.3702072458762496
 40
0.4014975721246687
 40
0.432914680882269
 40
0.4644707965817835
 40
0.4961779828775616
 40
0.5595635063130908
 40
0.6226372097858454
 40
0.6854959580929416
 40
0.7482376116262552
 40
0.8109605788539557
 40
0.873763356085485
 40
0.9367440651838475
 40
1.0
 40
1.0
 40
1.0
 40
1.0
 10
89.28468804207562
 20
97.42391553837726
 30
0.0
 10
89.43470841162103
 20
97.49163447123165
 30
0.0
 10
89.73461498656178
 20
97.62701177547734
 30
0.0
 10
90.17847265030551
 20
97.84122072812316
 30
0.0
 10
90.61758076349531
 20
98.06343297765777
 30
0.0
 10
91.05153289233243
 20
98.29445672856016
 30
0.0
 10
91.48043758866686
 20
98.53407536969358
 30
0.0
 10
91.90426548000184
 20
98.78234676612128
 30
0.0
 10
92.32302417875627
 20
99.0392551958869
 30
0.0
 10
92.73671139809316
 20
99.30480465315757
 30
0.0
 10
93.14532753017806
 20
99.57899382490467
 30
0.0
 10
93.54887226889818
 20
99.8618228048346
 30
0.0
 10
93.94734552835246
 20
100.1532913100937
 30
0.0
 10
94.34074715820802
 20
100.4533990977533
 30
0.0
 10
94.7290771656135
 20
100.7621461002547
 30
0.0
 10
95.11233511183694
 20
101.0795314724866
 30
0.0
 10
95.49052231665544
 20
101.4055573020864
 30
0.0
 10
95.98723618724046
 20
101.8510783984113
 30
0.0
 10
96.59030947292982
 20
102.4246527458182
 30
0.0
 10
97.28301413428333
 20
103.1379029383592
 30
0.0
 10
97.94305103987315
 20
103.8744813963878
 30
0.0
 10
98.57034515910772
 20
104.6344100178252
 30
0.0
 10
99.16512137357483
 20
105.4175679026882
 30
0.0
 10
99.72652365643053
 20
106.2243860877133
 30
0.0
 10
100.2577371810078
 20
107.0532202968323
 30
0.0
 10
100.5829003048672
 20
107.6230167755925
 30
0.0
 10
100.7458363330255
 20
107.9085361604658
 30
0.0
  0
LINE
  5
201
330
1F
100
AcDbEntity
  8
0
  6
Continuous
 62
     7
370
    15
100
AcDbLine
 10
86.5100311876
 20
110.6414252846
 30
0.0
 11
86.5964318455
 21
110.2297611488
 31
0.0
  0
LINE
  5
202
330
1F
100
AcDbEntity
  8
0
  6
Continuous
 62
     7
370
    15
100
AcDbLine
 10
100.7458369077
 20
107.9112531571
 30
0.0
 11
100.7458369077
 21
106.9987330539
 31
0.0
  0
SPLINE
  5
203
330
1F
100
AcDbEntity
  8
0
  6
Continuous
 62
     7
370
    15
100
AcDbSpline
210
0.0
220
0.0
230
1.0
 70
     8
 71
     3
 72
    42
 73
    38
 74
     0
 42
0.00000001
 43
0.00000001
 12
1.0
 22
0.0
 32
0.0
 13
1.0
 23
0.0
 33
0.0
 40
0.0
 40
0.0
 40
0.0
 40
0.0
 40
0.0325150529869396
 40
0.0647951479477736
 40
0.0968405078013665
 40
0.128651360404612
 40
0.1602279386942426
 40
0.1915704808335825
 40
0.2226792303643933
 40
0.2535544363641015
 40
0.2841963536085415
 40
0.3146052427404992
 40
0.3447813704442563
 40
0.3747250096264014
 40
0.4044364396031542
 40
0.4339159462944804
 40
0.463163822425268
 40
0.4921803677338664
 40
0.520965889188299
 40
0.5495207012104565
 40
0.5778451259086256
 40
0.6059394933186857
 40
0.6338041416543526
 40
0.6614394175668497
 40
0.6888456764143994
 40
0.7160232825419839
 40
0.7429726095717571
 40
0.7696940407046367
 40
0.7961879690334962
 40
0.8224547978684906
 40
0.8484949410750339
 40
0.8743088234249541
 40
0.8998968809614403
 40
0.9252595613783395
 40
0.9503973244144406
 40
0.9753106422634011
 40
1.0
 40
1.0
 40
1.0
 40
1.0
 10
100.7458837225997
 20
107.0005941306578
 30
0.0
 10
100.6605088854515
 20
106.8585726253008
 30
0.0
 10
100.4903761408962
 20
106.575555880562
 30
0.0
 10
100.2252702145924
 20
106.1586598349476
 30
0.0
 10
99.95438939526433
 20
105.7493987379396
 30
0.0
 10
99.67721601487148
 20
105.3482487308295
 30
0.0
 10
99.39421666997606
 20
104.9551435702537
 30
0.0
 10
99.10559425675213
 20
104.5701514841066
 30
0.0
 10
98.81161849793823
 20
104.1932960189101
 30
0.0
 10
98.51253816050394
 20
103.8246037416845
 30
0.0
 10
98.2086041325579
 20
103.4640918284089
 30
0.0
 10
97.90006313526563
 20
103.1117715822088
 30
0.0
 10
97.58715922491118
 20
102.7676477317609
 30
0.0
 10
97.27013324063249
 20
102.4317188482463
 30
0.0
 10
96.94922280577703
 20
102.1039774662613
 30
0.0
 10
96.62466219182397
 20
101.7844102831428
 30
0.0
 10
96.29668222774734
 20
101.4729983372448
 30
0.0
 10
95.9655102061959
 20
101.1697171912477
 30
0.0
 10
95.63136979917844
 20
100.8745371133435
 30
0.0
 10
95.29448097970071
 20
100.5874232579518
 30
0.0
 10
94.95505995009678
 20
100.308335845303
 30
0.0
 10
94.61331907666516
 20
100.0372303398348
 30
0.0
 10
94.26946683048476
 20
99.77405762726038
 30
0.0
 10
93.9237077343369
 20
99.51876418995802
 30
0.0
 10
93.57624231518744
 20
99.27129228130347
 30
0.0
 10
93.22726706349235
 20
99.03158009597207
 30
0.0
 10
92.87697439389854
 20
98.79956194653866
 30
0.0
 10
92.52555262657212
 20
98.57516840771974
 30
0.0
 10
92.17318591751352
 20
98.35832657014116
 30
0.0
 10
91.82005440105046
 20
98.14895988032718
 30
0.0
 10
91.46633357407117
 20
97.94698949441516
 30
0.0
 10
91.11219649626257
 20
97.75233004432614
 30
0.0
 10
90.75780563936772
 20
97.56490597432233
 30
0.0
 10
90.40334288248037
 20
97.38459210040165
 30
0.0
 10
90.04889904028227
 20
97.21143323586706
 30
0.0
 10
89.6948806877899
 20
97.04483612923828
 30
0.0
 10
89.45756512538956
 20
96.93883116788352
 30
0.0
 10
89.33944309371694
 20
96.88606799771486
 30
0.0
  0
LWPOLYLINE
  5
204
330
1F
100
AcDbEntity
  8
0
  6
Continuous
 62
     7
370
    15
100
AcDbPolyline
 90
       37
 70
   128
 43
0.0
 10
74.1815852762
 20
121.4232048206
 10
74.2533827961
 20
121.3818714879
 10
74.3414654226
 20
121.2370639388
 10
74.4431565345
 20
120.993182105
 10
74.5553674006
 20
120.6576361857
 10
74.6746870519
 20
120.2406215435
 10
74.7974912465
 20
119.7548091132
 10
74.9200481751
 20
119.2149599502
 10
75.0386339442
 20
118.6374768568
 10
75.1496457324
 20
118.0399067654
 10
75.2497098238
 20
117.4404065078
 10
75.3357863815
 20
116.8571913569
 10
75.4052597859
 20
116.3079820527
 10
75.4560196602
 20
115.8094660333
 10
75.4865228028
 20
115.3767907946
 10
75.4958430135
 20
115.0231024204
 10
75.4836967044
 20
114.7591479076
 10
75.4504531451
 20
114.5929473406
 10
75.3971228206
 20
114.5295503503
 10
75.3253253006
 20
114.5708838431
 10
75.2372426742
 20
114.715691465
 10
75.1355515622
 20
114.9595731823
 10
75.0233406962
 20
115.2951193927
 10
74.9040210449
 20
115.7121339767
 10
74.7812168502
 20
116.1979462905
 10
74.6586599217
 20
116.7377953371
 10
74.5400741526
 20
117.3152786633
 10
74.4290623643
 20
117.912848522
 10
74.328998273
 20
118.5123490123
 10
74.2429217153
 20
119.0955641633
 10
74.1734483109
 20
119.6447734675
 10
74.1226884366
 20
120.1432893705
 10
74.092185294
 20
120.5759647256
 10
74.0828650833
 20
120.9296529833
 10
74.0950113923
 20
121.193607467
 10
74.1282549516
 20
121.3598080486
 10
74.1815852762
 20
121.4232048206
  0
SPLINE
  5
205
330
1F
100
AcDbEntity
  8
0
  6
Continuous
 62
     7
370
    15
100
AcDbSpline
210
0.0
220
0.0
230
1.0
 70
     8
 71
     3
 72
     8
 73
     4
 74
     0
 42
0.00000001
 43
0.00000001
 12
1.0
 22
0.0
 32
0.0
 13
1.0
 23
0.0
 33
0.0
 40
0.0
 40
0.0
 40
0.0
 40
0.0
 40
1.0
 40
1.0
 40
1.0
 40
1.0
 10
76.73841746683063
 20
100.1231669770348
 30
0.0
 10
76.66857647530223
 20
100.4661831782757
 30
0.0
 10
76.5987511665791
 20
100.809271250766
 30
0.0
 10
76.5289438674201
 20
101.1524418575895
 30
0.0
  0
SPLINE
  5
206
330
1F
100
AcDbEntity
  8
0
  6
Continuous
 62
     7
370
    15
100
AcDbSpline
210
0.0
220
0.0
230
1.0
 70
     8
 71
     3
 72
    12
 73
     8
 74
     0
 42
0.00000001
 43
0.00000001
 12
1.0
 22
0.0
 32
0.0
 13
1.0
 23
0.0
 33
0.0
 40
0.0
 40
0.0
 40
0.0
 40
0.0
 40
0.2500000000000003
 40
0.2500000000000003
 40
0.5000000000000006
 40
0.5000000000000006
 40
1.0
 40
1.0
 40
1.0
 40
1.0
 10
76.5289438674201
 20
101.1524418575895
 30
0.0
 10
76.51195141052742
 20
101.2359762703735
 30
0.0
 10
76.49466502468135
 20
101.3155891678639
 30
0.0
 10
76.45968245913969
 20
101.4664757260155
 30
0.0
 10
76.44178535362566
 20
101.538430199096
 30
0.0
 10
76.38999634275598
 20
101.7309021632184
 30
0.0
 10
76.35662526654515
 20
101.8333319444315
 30
0.0
 10
76.32869623171744
 20
101.8935953182776
 30
0.0
  0
SPLINE
  5
207
330
1F
100
AcDbEntity
  8
0
  6
Continuous
 62
     7
370
    15
100
AcDbSpline
210
0.0
220
0.0
230
1.0
 70
     8
 71
     3
 72
     8
 73
     4
 74
     0
 42
0.00000001
 43
0.00000001
 12
1.0
 22
0.0
 32
0.0
 13
1.0
 23
0.0
 33
0.0
 40
0.0
 40
0.0
 40
0.0
 40
0.0
 40
1.0
 40
1.0
 40
1.0
 40
1.0
 10
69.83935231629101
 20
138.6964934870821
 30
0.0
 10
69.84758447878463
 20
138.7932048151634
 30
0.0
 10
69.83579960633571
 20
138.9786887507529
 30
0.0
 10
69.80907560913425
 20
139.2022416956486
 30
0.0
  0
ARC
  5
208
330
1F
100
AcDbEntity
  8
0
  6
Continuous
 62
     7
370
    15
100
AcDbCircle
 10
80.2458363415
 20
121.5578651009
 30
0.0
 40
20.49999999999999
100
AcDbArc
 50
116.7681774716
 51
120.6045840713
  0
LWPOLYLINE
  5
209
330
1F
100
AcDbEntity
  8
0
  6
Continuous
 62
     7
370
    15
100
AcDbPolyline
 90
        6
 70
   128
 43
0.0
 10
75.1805716955
 20
113.3673524438
 10
75.1170140521
 20
113.4502951009
 10
75.0707394273
 20
113.4297547816
 10
75.0440691427
 20
113.3067624597
 10
75.0383401119
 20
113.0874862848
 10
75.0389384867
 20
113.0606753705
  0
ARC
  5
20A
330
1F
100
AcDbEntity
  8
0
  6
Continuous
 62
     7
370
    15
100
AcDbCircle
 10
88.7848595579
 20
113.7504525407
 30
0.0
 40
13.75998479154768
100
AcDbArc
 50
185.7879556736
 51
197.9185825794
  0
ARC
  5
20B
330
1F
100
AcDbEntity
  8
0
  6
Continuous
 62
     7
370
    15
100
AcDbCircle
 10
77.3310217617
 20
99.808807809
 30
0.0
 40
0.4215610585442173
100
AcDbArc
 50
34.0404769668
 51
88.0907284026
  0
LINE
  5
20C
330
1F
100
AcDbEntity
  8
0
  6
Continuous
 62
     7
370
    15
100
AcDbLine
 10
77.3450668731
 20
100.2301348327
 30
0.0
 11
76.7384175506
 21
100.1231668471
 31
0.0
  0
LINE
  5
20D
330
1F
100
AcDbEntity
  8
0
  6
Continuous
 62
     7
370
    15
100
AcDbLine
 10
77.4798443836
 20
109.0491598426
 30
0.0
 11
75.1805716955
 21
113.3673524438
 31
0.0
  0
SPLINE
  5
20E
330
1F
100
AcDbEntity
  8
0
  6
Continuous
 62
     7
370
    15
100
AcDbSpline
210
0.0
220
0.0
230
1.0
 70
     8
 71
     3
 72
     8
 73
     4
 74
     0
 42
0.00000001
 43
0.00000001
 12
1.0
 22
0.0
 32
0.0
 13
1.0
 23
0.0
 33
0.0
 40
0.0
 40
0.0
 40
0.0
 40
0.0
 40
1.0
 40
1.0
 40
1.0
 40
1.0
 10
69.75575493063461
 20
138.5860238972977
 30
0.0
 10
69.8076851029175
 20
138.6180151267337
 30
0.0
 10
69.8356143684521
 20
138.6525801289451
 30
0.0
 10
69.83935231629125
 20
138.696493487082
 30
0.0
  0
SPLINE
  5
20F
330
1F
100
AcDbEntity
  8
0
  6
Continuous
 62
     7
370
    15
100
AcDbSpline
210
0.0
220
0.0
230
1.0
 70
     8
 71
     3
 72
     8
 73
     4
 74
     0
 42
0.00000001
 43
0.00000001
 12
1.0
 22
0.0
 32
0.0
 13
1.0
 23
0.0
 33
0.0
 40
0.0
 40
0.0
 40
0.0
 40
0.0
 40
1.0
 40
1.0
 40
1.0
 40
1.0
 10
76.32869623171744
 20
101.8935953182776
 30
0.0
 10
76.31016620289714
 20
101.9335781555316
 30
0.0
 10
76.27210926741606
 20
101.9565076281719
 30
0.0
 10
76.21235756036808
 20
101.9688107867954
 30
0.0
  0
SPLINE
  5
210
330
1F
100
AcDbEntity
  8
0
  6
Continuous
 62
     7
370
    15
100
AcDbSpline
210
0.0
220
0.0
230
1.0
 70
     8
 71
     3
 72
     8
 73
     4
 74
     0
 42
0.00000001
 43
0.00000001
 12
1.0
 22
0.0
 32
0.0
 13
1.0
 23
0.0
 33
0.0
 40
0.0
 40
0.0
 40
0.0
 40
0.0
 40
1.0
 40
1.0
 40
1.0
 40
1.0
 10
76.21235756036792
 20
101.9688107867953
 30
0.0
 10
76.0977482261529
 20
101.9924093898855
 30
0.0
 10
75.90840718140275
 20
102.0326646122329
 30
0.0
 10
75.69786357879462
 20
102.08182998724
 30
0.0
  0
SPLINE
  5
211
330
1F
100
AcDbEntity
  8
0
  6
Continuous
 62
     7
370
    15
100
AcDbSpline
210
0.0
220
0.0
230
1.0
 70
     8
 71
     3
 72
    10
 73
     6
 74
     0
 42
0.00000001
 43
0.00000001
 12
1.0
 22
0.0
 32
0.0
 13
1.0
 23
0.0
 33
0.0
 40
0.0
 40
0.0
 40
0.0
 40
0.0
 40
0.5
 40
0.5
 40
1.0
 40
1.0
 40
1.0
 40
1.0
 10
69.3109435758461
 20
138.3038532833149
 30
0.0
 10
69.40154870928886
 20
138.363017150351
 30
0.0
 10
69.48704545081657
 20
138.4177771682383
 30
0.0
 10
69.64030938320526
 20
138.5146045954111
 30
0.0
 10
69.7058828875672
 20
138.5553005643668
 30
0.0
 10
69.75575493063461
 20
138.5860238972977
 30
0.0
  0
ELLIPSE
  5
212
330
1F
100
AcDbEntity
  8
0
  6
Continuous
 62
     7
370
    15
100
AcDbEllipse
 10
69.777282306
 20
112.2257592141
 30
0.0
 11
-1.795482621286553
 21
2.111692994981851
 31
0.0
210
0.0
220
0.0
230
1.0
 40
0.7389313757
 41
0.0
 42
6.283185307179586
  0
ARC
  5
213
330
1F
100
AcDbEntity
  8
0
  6
Continuous
 62
     7
370
    15
100
AcDbCircle
 10
80.2458363415
 20
121.5578651009
 30
0.0
 40
20.00000000000003
100
AcDbArc
 50
123.143966919
 51
256.856033081
  0
LINE
  5
214
330
1F
100
AcDbEntity
  8
0
  6
Continuous
 62
     7
370
    15
100
AcDbLine
 10
86.1359021456
 20
97.2483044444
 30
0.0
 11
83.5714788937
 21
109.4667443959
 31
0.0
  0
ARC
  5
215
330
1F
100
AcDbEntity
  8
0
  6
Continuous
 62
     7
370
    15
100
AcDbCircle
 10
85.3220571323
 20
96.736851736
 30
0.0
 40
3.771962223471201
100
AcDbArc
 50
355.6737333328
 51
15.5127194486
  0
LINE
  5
216
330
1F
100
AcDbEntity
  8
0
  6
Continuous
 62
     7
370
    15
100
AcDbLine
 10
88.9566109345
 20
97.7456716774
 30
0.0
 11
86.3921881483
 21
109.964111629
 31
0.0
  0
ARC
  5
217
330
1F
100
AcDbEntity
  8
0
  6
Continuous
 62
     7
370
    15
100
AcDbCircle
 10
87.0066996525
 20
97.0130522266
 30
0.0
 40
2.334516450700019
100
AcDbArc
 50
354.8800033298
 51
17.2392511957
  0
LINE
  5
218
330
1F
100
AcDbEntity
  8
0
  6
Continuous
 62
     7
370
    15
100
AcDbLine
 10
86.6719155402
 20
109.9233541591
 30
0.0
 11
89.2363392577
 21
97.7049151389
 31
0.0
  0
ARC
  5
219
330
1F
100
AcDbEntity
  8
0
  6
Continuous
 62
     7
370
    15
100
AcDbCircle
 10
83.2027682388
 20
109.4034776478
 30
0.0
 40
3.238318980528177
100
AcDbArc
 50
9.9695632636
 51
21.4859732066
  0
ARC
  5
21A
330
1F
100
AcDbEntity
  8
0
  6
Continuous
 62
     7
370
    15
100
AcDbCircle
 10
84.5218796172
 20
109.5508387076
 30
0.0
 40
2.182068338044175
100
AcDbArc
 50
9.8294906651
 51
21.9818394846
  0
LINE
  5
21B
330
1F
100
AcDbEntity
  8
0
  6
Continuous
 62
     7
370
    15
100
AcDbLine
 10
86.4090082996
 20
110.623612809
 30
0.0
 11
86.5453171373
 21
110.367614585
 31
0.0
  0
LWPOLYLINE
  5
21C
330
1F
100
AcDbEntity
  8
0
  6
Continuous
 62
     7
370
    15
100
AcDbPolyline
 90
       37
 70
   128
 43
0.0
 10
75.2253864721
 20
114.7405167995
 10
75.1222243362
 20
114.9961546017
 10
75.0089480371
 20
115.3423448978
 10
74.8889997431
 20
115.768568865
 10
74.7660237194
 20
116.2618759973
 10
74.6437564322
 20
116.8072775891
 10
74.5259129272
 20
117.3882016866
 10
74.4160741397
 20
117.9869969329
 10
74.3175769986
 20
118.5854697088
 10
74.2334147745
 20
119.1654354753
 10
74.1661444136
 20
119.7092723288
 10
74.117810169
 20
120.2004560456
 10
74.0898802706
 20
120.6240623561
 10
74.0832036191
 20
120.9672200331
 10
74.097982777
 20
121.2195024546
 10
74.1337693126
 20
121.3732441957
 10
74.1894749754
 20
121.4237738733
 10
74.263408018
 20
121.3695561583
 10
74.3533216246
 20
121.2122384296
 10
74.4564837606
 20
120.9566006856
 10
74.5697600597
 20
120.6104104477
 10
74.6897083537
 20
120.1841864223
 10
74.8126843774
 20
119.6908791736
 10
74.9349516646
 20
119.1454776982
 10
75.0527951696
 20
118.5645538336
 10
75.1626339571
 20
117.9657583544
 10
75.2611310982
 20
117.3672855785
 10
75.3452933223
 20
116.787319812
 10
75.4125636832
 20
116.2434828421
 10
75.4608979278
 20
115.7522991253
 10
75.4888278262
 20
115.3286931059
 10
75.4955044777
 20
114.9855351961
 10
75.4807253198
 20
114.7332529491
 10
75.4449387842
 20
114.5795111498
 10
75.3892331214
 20
114.5289813122
 10
75.3153000788
 20
114.5831991872
 10
75.2253864721
 20
114.7405167995
  0
LWPOLYLINE
  5
21D
330
1F
100
AcDbEntity
  8
0
  6
Continuous
 62
     7
370
    15
100
AcDbPolyline
 90
       28
 70
   128
 43
0.0
 10
75.0385156662
 20
116.1273143208
 10
74.9585374088
 20
116.3338509342
 10
74.8694387094
 20
116.628936301
 10
74.7760223986
 20
116.9966625003
 10
74.6833250687
 20
117.4172053999
 10
74.5963432656
 20
117.8678938141
 10
74.5197671295
 20
118.3244302357
 10
74.4577247479
 20
118.7622033013
 10
74.4135600344
 20
119.1576121329
 10
74.3896548466
 20
119.4893403864
 10
74.3872972035
 20
119.7395043401
 10
74.406615162
 20
119.8946177447
 10
74.4465661065
 20
119.9463183712
 10
74.5049968191
 20
119.8918188876
 10
74.578757567
 20
119.7340576165
 10
74.6638716028
 20
119.4815391628
 10
74.7557503001
 20
119.1478772508
 10
74.8494408854
 20
118.7510593282
 10
74.9398918652
 20
118.3124783403
 10
75.0222273
 20
117.8557780059
 10
75.0920085066
 20
117.4055792345
 10
75.145473873
 20
116.9861520594
 10
75.1797404901
 20
116.62010876
 10
75.1929610797
 20
116.3271817332
 10
75.18442318
 20
116.1231634161
 10
75.15458733
 20
116.0190527281
 10
75.1050614581
 20
116.0204613535
 10
75.0385156662
 20
116.1273143208
  0
LINE
  5
21E
330
1F
100
AcDbEntity
  8
0
  6
Continuous
 62
     7
370
    15
100
AcDbLine
 10
74.8478506521
 20
118.7485305546
 30
0.0
 11
74.7766682708
 21
118.6110827094
 31
0.0
  0
LINE
  5
21F
330
1F
100
AcDbEntity
  8
0
  6
Continuous
 62
     7
370
    15
100
AcDbLine
 10
74.7766682708
 20
118.6110827094
 30
0.0
 11
74.9202106909
 21
118.3932300611
 31
0.0
  0
LINE
  5
220
330
1F
100
AcDbEntity
  8
0
  6
Continuous
 62
     7
370
    15
100
AcDbLine
 10
75.1324577087
 20
117.0902185096
 30
0.0
 11
75.1010986806
 21
116.9300696766
 31
0.0
  0
LINE
  5
221
330
1F
100
AcDbEntity
  8
0
  6
Continuous
 62
     7
370
    15
100
AcDbLine
 10
75.150665065
 20
116.9388096733
 30
0.0
 11
75.1010986806
 21
116.9300696766
 31
0.0
  0
LINE
  5
222
330
1F
100
AcDbEntity
  8
0
  6
Continuous
 62
     7
370
    15
100
AcDbLine
 10
74.8759235085
 20
118.6285841232
 30
0.0
 11
74.7766682708
 21
118.6110827094
 31
0.0
  0
ELLIPSE
  5
223
330
1F
100
AcDbEntity
  8
0
  6
Continuous
 62
     7
370
    15
100
AcDbEllipse
 10
77.7889027225
 20
104.4740832264
 30
0.0
 11
-0.4087880550088557
 21
2.316979695793151
 31
0.0
210
0.0
220
0.0
230
1.0
 40
0.104426044
 41
1.743310430552435
 42
2.775892124566746
  0
LINE
  5
224
330
1F
100
AcDbEntity
  8
0
  6
Continuous
 62
     7
370
    15
100
AcDbLine
 10
75.0582923011
 20
112.5378094567
 30
0.0
 11
77.9103144833
 21
98.9490782796
 31
0.0
  0
LWPOLYLINE
  5
225
330
1F
100
AcDbEntity
  8
0
  6
Continuous
 62
     7
370
    15
100
AcDbPolyline
 90
        9
 70
   128
 43
0.0
 10
75.0235404649
 20
113.0385164125
 10
75.0092409381
 20
113.0551461084
 10
74.999955652
 20
113.0426617293
 10
74.9963714571
 20
113.0019852845
 10
74.9987528489
 20
112.936124946
 10
75.0069238075
 20
112.8499468742
 10
75.0202803702
 20
112.7498203842
 10
75.0378358007
 20
112.6431466965
 10
75.0582923011
 20
112.5378094567
  0
LINE
  5
226
330
1F
100
AcDbEntity
  8
0
  6
Continuous
 62
     7
370
    15
100
AcDbLine
 10
77.21854577
 20
108.9161446272
 30
0.0
 11
75.0235404649
 21
113.0385164125
 31
0.0
  0
ARC
  5
227
330
1F
100
AcDbEntity
  8
0
  6
Continuous
 62
     7
370
    15
100
AcDbCircle
 10
76.0622798369
 20
108.4494110046
 30
0.0
 40
1.246912660306823
100
AcDbArc
 50
9.8295903577
 51
21.9817595046
  0
LINE
  5
228
330
1F
100
AcDbEntity
  8
0
  6
Continuous
 62
     7
370
    15
100
AcDbLine
 10
80.1429097938
 20
95.0735507487
 30
0.0
 11
77.290887648
 21
108.6622819258
 31
0.0
  0
LWPOLYLINE
  5
229
330
1F
100
AcDbEntity
  8
0
  6
Continuous
 62
     7
370
    15
100
AcDbPolyline
 90
        9
 70
   128
 43
0.0
 10
80.1776616009
 20
94.5728437929
 10
80.1919612732
 20
94.556214097
 10
80.2012464247
 20
94.5686975448
 10
80.2048307979
 20
94.6093739895
 10
80.2024494679
 20
94.6752352594
 10
80.1942784438
 20
94.7614123998
 10
80.1809216373
 20
94.8615388898
 10
80.1633662505
 20
94.9682125775
 10
80.1429097938
 20
95.0735507487
  0
LINE
  5
22A
330
1F
100
AcDbEntity
  8
0
  6
Continuous
 62
     7
370
    15
100
AcDbLine
 10
77.9826563613
 20
98.6952146469
 30
0.0
 11
80.1776616009
 21
94.5728437929
 31
0.0
  0
ARC
  5
22B
330
1F
100
AcDbEntity
  8
0
  6
Continuous
 62
     7
370
    15
100
AcDbCircle
 10
79.1388989036
 20
99.1619408231
 30
0.0
 40
1.246888182709499
100
AcDbArc
 50
189.8293945352
 51
201.9818445283
  0
LWPOLYLINE
  5
22C
330
1F
100
AcDbEntity
  8
0
  6
Continuous
 62
     7
370
    15
100
AcDbPolyline
 90
        9
 70
   128
 43
0.0
 10
80.1749842595
 20
94.5917068003
 10
80.1885689453
 20
94.5759097068
 10
80.1973898434
 20
94.5877691685
 10
80.2007949952
 20
94.6264116047
 10
80.1985327326
 20
94.6889797179
 10
80.1907702572
 20
94.7708485602
 10
80.1780812927
 20
94.86596826
 10
80.1614036773
 20
94.9673091946
 10
80.1419700456
 20
95.0673798053
  0
LINE
  5
22D
330
1F
100
AcDbEntity
  8
0
  6
Continuous
 62
     7
370
    15
100
AcDbLine
 10
80.1419700456
 20
95.0673798053
 30
0.0
 11
77.2899479435
 21
108.6561109824
 31
0.0
  0
ARC
  5
22E
330
1F
100
AcDbEntity
  8
0
  6
Continuous
 62
     7
370
    15
100
AcDbCircle
 10
76.1227762584
 20
108.4538851803
 30
0.0
 40
1.184561107527287
100
AcDbArc
 50
9.8295627462
 51
21.9818003176
  0
LINE
  5
22F
330
1F
100
AcDbEntity
  8
0
  6
Continuous
 62
     7
370
    15
100
AcDbLine
 10
77.2212230896
 20
108.8972806884
 30
0.0
 11
75.0262180173
 21
113.0196524738
 31
0.0
  0
LWPOLYLINE
  5
230
330
1F
100
AcDbEntity
  8
0
  6
Continuous
 62
     7
370
    15
100
AcDbPolyline
 90
        9
 70
   128
 43
0.0
 10
75.0262180173
 20
113.0196524738
 10
75.0126332805
 20
113.0354504986
 10
75.0038122588
 20
113.0235901056
 10
75.0004073434
 20
112.9849476693
 10
75.002669526
 20
112.9223804875
 10
75.0104320996
 20
112.8405107139
 10
75.0231209041
 20
112.7453910141
 10
75.0397985631
 20
112.6440510107
 10
75.0592320056
 20
112.5439804001
  0
LINE
  5
231
330
1F
100
AcDbEntity
  8
0
  6
Continuous
 62
     7
370
    15
100
AcDbLine
 10
75.0592320056
 20
112.5439804001
 30
0.0
 11
77.9112541878
 21
98.955249223
 31
0.0
  0
ARC
  5
232
330
1F
100
AcDbEntity
  8
0
  6
Continuous
 62
     7
370
    15
100
AcDbCircle
 10
79.0784019038
 20
99.1574681947
 30
0.0
 40
1.184536324287549
100
AcDbArc
 50
189.829435141
 51
201.9819279228
  0
LINE
  5
233
330
1F
100
AcDbEntity
  8
0
  6
Continuous
 62
     7
370
    15
100
AcDbLine
 10
77.9799790417
 20
98.714079517
 30
0.0
 11
80.1749842595
 21
94.5917068003
 31
0.0
  0
LINE
  5
234
330
1F
100
AcDbEntity
  8
0
  6
Continuous
 62
     7
370
    15
100
AcDbLine
 10
86.3621814006
 20
96.1701756297
 30
0.0
 11
83.5101594512
 21
109.7589068068
 31
0.0
  0
ARC
  5
235
330
1F
100
AcDbEntity
  8
0
  6
Continuous
 62
     7
370
    15
100
AcDbCircle
 10
84.9083550335
 20
95.7666465799
 30
0.0
 40
1.508789846092999
100
AcDbArc
 50
355.6737316974
 51
15.5127095005
  0
LINE
  5
236
330
1F
100
AcDbEntity
  8
0
  6
Continuous
 62
     7
370
    15
100
AcDbLine
 10
78.3309862546
 20
99.4384659408
 30
0.0
 11
78.1439858784
 21
99.1103889374
 31
0.0
  0
LINE
  5
237
330
1F
100
AcDbEntity
  8
0
  6
Continuous
 62
     7
370
    15
100
AcDbLine
 10
79.0599081029
 20
99.1581024556
 30
0.0
 11
77.4637343657
 21
106.7632248579
 31
0.0
  0
LINE
  5
238
330
1F
100
AcDbEntity
  8
0
  6
Continuous
 62
     7
370
    15
100
AcDbLine
 10
76.1412942612
 20
108.4532568185
 30
0.0
 11
77.7374677655
 21
100.8481344162
 31
0.0
  0
LWPOLYLINE
  5
239
330
1F
100
AcDbEntity
  8
0
  6
Continuous
 62
     7
370
    15
100
AcDbPolyline
 90
        9
 70
   128
 43
0.0
 10
76.0544144378
 20
109.7050251393
 10
76.0186656208
 20
109.746599379
 10
75.9954524056
 20
109.7153879656
 10
75.9864916854
 20
109.613697785
 10
75.9924446993
 20
109.4490455417
 10
76.0128723287
 20
109.2335998966
 10
76.0462644339
 20
108.9832846029
 10
76.0901530103
 20
108.7165994523
 10
76.1412942612
 20
108.4532568185
  0
LINE
  5
23A
330
1F
100
AcDbEntity
  8
0
  6
Continuous
 62
     7
370
    15
100
AcDbLine
 10
77.2828796708
 20
107.3978830083
 30
0.0
 11
76.0544144378
 21
109.7050251393
 31
0.0
  0
ARC
  5
23B
330
1F
100
AcDbEntity
  8
0
  6
Continuous
 62
     7
370
    15
100
AcDbCircle
 10
74.3921627833
 20
106.2310352894
 30
0.0
 40
3.117335035390618
100
AcDbArc
 50
9.829649147
 51
21.981634236
  0
LWPOLYLINE
  5
23C
330
1F
100
AcDbEntity
  8
0
  6
Continuous
 62
     7
370
    15
100
AcDbPolyline
 90
        9
 70
   128
 43
0.0
 10
79.146787577
 20
97.9063341348
 10
79.1825368597
 20
97.864759895
 10
79.2057497256
 20
97.8959722398
 10
79.2147106786
 20
97.9976614891
 10
79.2087573155
 20
98.1623137323
 10
79.1883296861
 20
98.3777603088
 10
79.1549376973
 20
98.6280756025
 10
79.1110492374
 20
98.8947598217
 10
79.0599081029
 20
99.1581024556
  0
LINE
  5
23D
330
1F
100
AcDbEntity
  8
0
  6
Continuous
 62
     7
370
    15
100
AcDbLine
 10
77.9183224604
 20
100.2134771971
 30
0.0
 11
79.146787577
 21
97.9063341348
 31
0.0
  0
ARC
  5
23E
330
1F
100
AcDbEntity
  8
0
  6
Continuous
 62
     7
370
    15
100
AcDbCircle
 10
80.8090283527
 20
101.3803225637
 30
0.0
 40
3.117323958925662
100
AcDbArc
 50
189.8296579139
 51
201.9816697887
  0
LWPOLYLINE
  5
23F
330
1F
100
AcDbEntity
  8
0
  6
Continuous
 62
     7
370
    15
100
AcDbPolyline
 90
       32
 70
   128
 43
0.0
 10
77.9459783171
 20
101.3721896289
 10
78.0173802578
 20
101.2746280013
 10
78.0717189719
 20
101.280687186
 10
78.1067702283
 20
101.3901213138
 10
78.121098859
 20
101.5984469978
 10
78.1141183634
 20
101.8971389113
 10
78.0861141921
 20
102.2739650635
 10
78.0382332687
 20
102.71350089
 10
77.9724355617
 20
103.1977495132
 10
77.8914149214
 20
103.7068886636
 10
77.7984882534
 20
104.220069754
 10
77.6974600104
 20
104.7162877349
 10
77.5924664286
 20
105.1752248733
 10
77.4878060275
 20
105.5780926673
 10
77.3877633565
 20
105.9083973943
 10
77.2964341395
 20
106.1526162504
 10
77.2175576367
 20
106.3007514877
 10
77.1543632091
 20
106.3467383338
 10
77.1094376051
 20
106.2886945857
 10
77.0846201868
 20
106.1289951159
 10
77.0809272599
 20
105.8741787402
 10
77.0985099317
 20
105.5346781342
 10
77.1366480567
 20
105.1243914245
 10
77.1937805057
 20
104.6601178078
 10
77.267568262
 20
104.1608618526
 10
77.3549905808
 20
103.6470660893
 10
77.4524681565
 20
103.1397635071
 10
77.5560102721
 20
102.6597244619
 10
77.6613777799
 20
102.22659986
 10
77.7642572594
 20
101.8581220834
 10
77.8604365715
 20
101.5693785576
 10
77.9459783171
 20
101.3721896289
  0
LWPOLYLINE
  5
240
330
1F
100
AcDbEntity
  8
0
  6
Continuous
 62
     7
370
    15
100
AcDbPolyline
 90
        3
 70
   128
 43
0.0
 10
79.6723395416
 20
97.2522309004
 10
79.6520105742
 20
97.2875913559
 10
79.601353029
 20
97.3580552219
  0
ARC
  5
241
330
1F
100
AcDbEntity
  8
0
  6
Continuous
 62
     7
370
    15
100
AcDbCircle
 10
82.2815516583
 20
109.546037603
 30
0.0
 40
1.246912349328107
100
AcDbArc
 50
9.829512743
 51
21.9817263205
  0
LINE
  5
242
330
1F
100
AcDbEntity
  8
0
  6
Continuous
 62
     7
370
    15
100
AcDbLine
 10
83.4378175733
 20
110.0127704395
 30
0.0
 11
83.3954980426
 21
110.092249508
 31
0.0
  0
CIRCLE
  5
243
330
1F
100
AcDbEntity
  8
VERMASSUNG
  6
CENTERX2
100
AcDbCircle
 10
80.2458363415
 20
119.7167554561
 30
0.0
 40
25.00000000000002
  0
DIMENSION
  5
244
330
1F
100
AcDbEntity
  8
VERMASSUNG
100
AcDbDimension
  2
_D_5
 10
97.9235058711
 20
137.3944249858
 30
0.0
 11
105.0865755332
 21
144.5574946478
 31
0.0
 70
   160
  1
%%c<> min. 
 71
     2
 42
-1.0
  3
SLDDIMSTYLE3
100
AcDbAlignedDimension
 13
62.5681668118
 23
102.0390859264
 33
0.0
 14
97.9235058711
 24
137.3944249858
 34
0.0
 50
45.0
100
AcDbRotatedDimension
  0
INSERT
  5
25E
330
1F
100
AcDbEntity
  8
VERMASSUNG
100
AcDbBlockReference
  2
SW_CENTERMARKSYMBOL_0
 10
80.2458363415
 20
121.5578651009
 30
0.0
  0
OLE2FRAME
  5
25F
330
1F
100
AcDbEntity
  8
0
100
AcDbOle2Frame
 70
     2
  3
Paintbrush-Bild
 10
13.8511154363
 20
38.264191557
 30
0.0
 11
51.6290888628
 21
31.9806341108
 31
0.0
 71
     2
 72
     0
 73
     1
 90
    12928
310
80552BED0767C5B32B40DDAF6807D121434000000000000000006FFBDDFB85D0
310
4940DDAF6807D121434000000000000000006FFBDDFB85D04940416F4BD60AFB
310
3F4000000000000000002BED0767C5B32B40416F4BD60AFB3F40000000000000
310
0000000000000100000000010000010000000100000000000100000000320000
310
D0CF11E0A1B11AE1000000000000000000000000000000003E000300FEFF0900
310
0600000000000000000000000100000001000000000000000010000002000000
310
01000000FEFFFFFF0000000000000000FFFFFFFFFFFFFFFFFFFFFFFFFFFFFFFF
310
FFFFFFFFFFFFFFFFFFFFFFFFFFFFFFFFFFFFFFFFFFFFFFFFFFFFFFFFFFFFFFFF
310
FFFFFFFFFFFFFFFFFFFFFFFFFFFFFFFFFFFFFFFFFFFFFFFFFFFFFFFFFFFFFFFF
310
FFFFFFFFFFFFFFFFFFFFFFFFFFFFFFFFFFFFFFFFFFFFFFFFFFFFFFFFFFFFFFFF
310
FFFFFFFFFFFFFFFFFFFFFFFFFFFFFFFFFFFFFFFFFFFFFFFFFFFFFFFFFFFFFFFF
310
FFFFFFFFFFFFFFFFFFFFFFFFFFFFFFFFFFFFFFFFFFFFFFFFFFFFFFFFFFFFFFFF
310
FFFFFFFFFFFFFFFFFFFFFFFFFFFFFFFFFFFFFFFFFFFFFFFFFFFFFFFFFFFFFFFF
310
FFFFFFFFFFFFFFFFFFFFFFFFFFFFFFFFFFFFFFFFFFFFFFFFFFFFFFFFFFFFFFFF
310
FFFFFFFFFFFFFFFFFFFFFFFFFFFFFFFFFFFFFFFFFFFFFFFFFFFFFFFFFFFFFFFF
310
FFFFFFFFFFFFFFFFFFFFFFFFFFFFFFFFFFFFFFFFFFFFFFFFFFFFFFFFFFFFFFFF
310
FFFFFFFFFFFFFFFFFFFFFFFFFFFFFFFFFFFFFFFFFFFFFFFFFFFFFFFFFFFFFFFF
310
FFFFFFFFFFFFFFFFFFFFFFFFFFFFFFFFFFFFFFFFFFFFFFFFFFFFFFFFFFFFFFFF
310
FFFFFFFFFFFFFFFFFFFFFFFFFFFFFFFFFFFFFFFFFFFFFFFFFFFFFFFFFFFFFFFF
310
FFFFFFFFFFFFFFFFFFFFFFFFFFFFFFFFFFFFFFFFFFFFFFFFFFFFFFFFFFFFFFFF
310
FDFFFFFFFEFFFFFFFEFFFFFFFEFFFFFF05000000060000000700000008000000
310
090000000A0000000B0000000C0000000D0000000E0000000F00000010000000
310
11000000120000001300000014000000150000001600000017000000FEFFFFFF
310
FFFFFFFFFFFFFFFFFFFFFFFFFFFFFFFFFFFFFFFFFFFFFFFFFFFFFFFFFFFFFFFF
310
FFFFFFFFFFFFFFFFFFFFFFFFFFFFFFFFFFFFFFFFFFFFFFFFFFFFFFFFFFFFFFFF
310
FFFFFFFFFFFFFFFFFFFFFFFFFFFFFFFFFFFFFFFFFFFFFFFFFFFFFFFFFFFFFFFF
310
FFFFFFFFFFFFFFFFFFFFFFFFFFFFFFFFFFFFFFFFFFFFFFFFFFFFFFFFFFFFFFFF
310
FFFFFFFFFFFFFFFFFFFFFFFFFFFFFFFFFFFFFFFFFFFFFFFFFFFFFFFFFFFFFFFF
310
FFFFFFFFFFFFFFFFFFFFFFFFFFFFFFFFFFFFFFFFFFFFFFFFFFFFFFFFFFFFFFFF
310
FFFFFFFFFFFFFFFFFFFFFFFFFFFFFFFFFFFFFFFFFFFFFFFFFFFFFFFFFFFFFFFF
310
FFFFFFFFFFFFFFFFFFFFFFFFFFFFFFFFFFFFFFFFFFFFFFFFFFFFFFFFFFFFFFFF
310
FFFFFFFFFFFFFFFFFFFFFFFFFFFFFFFFFFFFFFFFFFFFFFFFFFFFFFFFFFFFFFFF
310
FFFFFFFFFFFFFFFFFFFFFFFFFFFFFFFFFFFFFFFFFFFFFFFFFFFFFFFFFFFFFFFF
310
FFFFFFFFFFFFFFFFFFFFFFFFFFFFFFFFFFFFFFFFFFFFFFFFFFFFFFFFFFFFFFFF
310
FFFFFFFFFFFFFFFFFFFFFFFFFFFFFFFFFFFFFFFFFFFFFFFFFFFFFFFFFFFFFFFF
310
FFFFFFFFFFFFFFFFFFFFFFFFFFFFFFFFFFFFFFFFFFFFFFFFFFFFFFFFFFFFFFFF
310
52006F006F007400200045006E00740072007900000000000000000000000000
310
0000000000000000000000000000000000000000000000000000000000000000
310
16000500FFFFFFFFFFFFFFFF020000000A00030000000000C000000000000046
310
000000000000000000000000706516614328CD0103000000C000000000000000
310
01004F006C006500000000000000000000000000000000000000000000000000
310
0000000000000000000000000000000000000000000000000000000000000000
310
0A000200FFFFFFFFFFFFFFFFFFFFFFFF00000000000000000000000000000000
310
0000000000000000000000000000000000000000000000001400000000000000
310
010043006F006D0070004F0062006A0000000000000000000000000000000000
310
0000000000000000000000000000000000000000000000000000000000000000
310
120002010100000003000000FFFFFFFF00000000000000000000000000000000
310
0000000000000000000000000000000000000000010000004D00000000000000
310
01004F006C006500310030004E00610074006900760065000000000000000000
310
0000000000000000000000000000000000000000000000000000000000000000
310
1A000200FFFFFFFFFFFFFFFFFFFFFFFF00000000000000000000000000000000
310
0000000000000000000000000000000000000000040000002426000000000000
310
FEFFFFFF02000000FEFFFFFFFFFFFFFFFFFFFFFFFFFFFFFFFFFFFFFFFFFFFFFF
310
FFFFFFFFFFFFFFFFFFFFFFFFFFFFFFFFFFFFFFFFFFFFFFFFFFFFFFFFFFFFFFFF
310
FFFFFFFFFFFFFFFFFFFFFFFFFFFFFFFFFFFFFFFFFFFFFFFFFFFFFFFFFFFFFFFF
310
FFFFFFFFFFFFFFFFFFFFFFFFFFFFFFFFFFFFFFFFFFFFFFFFFFFFFFFFFFFFFFFF
310
FFFFFFFFFFFFFFFFFFFFFFFFFFFFFFFFFFFFFFFFFFFFFFFFFFFFFFFFFFFFFFFF
310
FFFFFFFFFFFFFFFFFFFFFFFFFFFFFFFFFFFFFFFFFFFFFFFFFFFFFFFFFFFFFFFF
310
FFFFFFFFFFFFFFFFFFFFFFFFFFFFFFFFFFFFFFFFFFFFFFFFFFFFFFFFFFFFFFFF
310
FFFFFFFFFFFFFFFFFFFFFFFFFFFFFFFFFFFFFFFFFFFFFFFFFFFFFFFFFFFFFFFF
310
FFFFFFFFFFFFFFFFFFFFFFFFFFFFFFFFFFFFFFFFFFFFFFFFFFFFFFFFFFFFFFFF
310
FFFFFFFFFFFFFFFFFFFFFFFFFFFFFFFFFFFFFFFFFFFFFFFFFFFFFFFFFFFFFFFF
310
FFFFFFFFFFFFFFFFFFFFFFFFFFFFFFFFFFFFFFFFFFFFFFFFFFFFFFFFFFFFFFFF
310
FFFFFFFFFFFFFFFFFFFFFFFFFFFFFFFFFFFFFFFFFFFFFFFFFFFFFFFFFFFFFFFF
310
FFFFFFFFFFFFFFFFFFFFFFFFFFFFFFFFFFFFFFFFFFFFFFFFFFFFFFFFFFFFFFFF
310
FFFFFFFFFFFFFFFFFFFFFFFFFFFFFFFFFFFFFFFFFFFFFFFFFFFFFFFFFFFFFFFF
310
FFFFFFFFFFFFFFFFFFFFFFFFFFFFFFFFFFFFFFFFFFFFFFFFFFFFFFFFFFFFFFFF
310
FFFFFFFFFFFFFFFFFFFFFFFFFFFFFFFFFFFFFFFFFFFFFFFFFFFFFFFFFFFFFFFF
310
0100000200000000000000000000000000000000000000000000000000000000
310
0000000000000000000000000000000000000000000000000000000000000000
310
0100FEFF030A0000FFFFFFFF0A00030000000000C00000000000004607000000
310
5042727573680007000000504272757368000700000050427275736800F439B2
310
7100000000000000000000000000000000000000000000000000000000000000
310
0000000000000000000000000000000000000000000000000000000000000000
310
0000000000000000000000000000000000000000000000000000000000000000
310
0000000000000000000000000000000000000000000000000000000000000000
310
0000000000000000000000000000000000000000000000000000000000000000
310
0000000000000000000000000000000000000000000000000000000000000000
310
0000000000000000000000000000000000000000000000000000000000000000
310
0000000000000000000000000000000000000000000000000000000000000000
310
0000000000000000000000000000000000000000000000000000000000000000
310
0000000000000000000000000000000000000000000000000000000000000000
310
0000000000000000000000000000000000000000000000000000000000000000
310
0000000000000000000000000000000000000000000000000000000000000000
310
20260000424D0E260000000000003E00000028000000B40200006E0000000100
310
01000000000000000000130B0000130B00000200000002000000000000FFFFFF
310
FFFFFFFFFFFFFFFFFFFFFFFFFFFFFFFFFFFFFFFFFFFFFFFFFFFFFFFFFFFFFFFF
310
FFFFFFFFFFFFFFFFFFFFFFFFFFFFFFFFFFFFFFFFFFFFFFFFFFFFFFFFFFFFFFFF
310
FFFFFFFFFFFFFFFFFFFFFFFFFFFFFFFFFFFFFFFFFFFFFFFFF000FFFFFFFFFFFF
310
FFFFFFFFFFFFFFFFFFFFFFFFFFFFFFFFFFFFFFFFFFFFFFFFFFFFFFFFFFFFFFFF
310
FFFFFFFFFFFFFFFFFFFFFFFFFFFFFFFFFFFFFFFFFFFFFFFFFFFFFFFFFFFFFFFF
310
FFFFFFFFFFFFFFFFFFFFFFFFFFFFFFFFF000FFFFFFFFFFFFFFFFFFFFFFFFFFFF
310
FFFFFFFFFFFFFFFFFFFFFFFFFFFFFFFFFFFFFFFFFFFFFFFFFFFFFFFFFFFFFFFF
310
FFFFFFFFFFFFFFFFFFFFFFFFFFFFFFFFFFFFFFFFFFFFFFFFFFFFFFFFFFFFFFFF
310
FFFFFFFFFFFFFFFFF000FFFFFFFFFFFFFFFFFFFFFFFFFFFFFFFFFFFFFFFFFFFF
310
FFFFFFFFFFFFFFFFFFFFFFFFFFFFFFFFFFFFFFFFFFFFFFFFFFFFFFFFFFFFFFFF
310
FFFFFFFFFFFFFFFFFFFFFFFFFFFFFFFFFFFFFFFFFFFFFFFFFFFFFFFFFFFFFFFF
310
F000FFFFFFFFFFFFFFFFFFFFFFFFFFFFFFFFFFFFFFFFFFFFFFFFFFFFFFFFFFFF
310
FFFFFFFFFFFFFFFFFFFFFFFFFFFFFFFFFFFFFFFFFFFFFFFFFFFFFFFFFFFFFFFF
310
FFFFFFFFFFFFFFFFFFFFFFFFFFFFFFFFFFFFFFFFFFFFFFFFF000FFFFFFFFFFFF
310
FFFFFFFFFFFFFFFFFFFFFFFFFFFFFFFFFFFFFFFFFFFFFFFFFFFFFFFFFFFFFFFF
310
FFFFFFFFFFFFFFFFFFFFFFFFFFFFFFFFFFFFFFFFFFFFFFFFFFFFFFFFFFFFFFFF
310
FFFFFFFFFFFFFFFFFFFFFFFFFFFFFFFFF000FFFFFFFFFFFFFFFFFFFFFFFFFFFF
310
FFFFFFFFFFFFFFFFFFFFFFFFFFFFFFFFFFFFFFFFFFFFFFFFFFFFFFFFFFFFFFFF
310
FFFFFFFFFFFFFFFFFFFFFFFFFFFFFFFFFFFFFFFFFFFFFFFFFFFFFFFFFFFFFFFF
310
FFFFFFFFFFFFFFFFF000FFFFFFFFFFFFFFFFFFFFFFFFFFFFFFFFFFFFFFFFFFFF
310
FFFFFFFFFFFFFFFFFFFFFFFFFFFFFFFFFFFFFFFFFFFFFFFFFFFFFFFFFFFFFFFF
310
FFFFFFFFFFFFFFFFFFFFFFFFFFFFFFFFFFFFFFFFFFFFFFFFFFFFFFFFFFFFFFFF
310
F000FFFFFFFFFFFFFFFFFFFFFFFFFFFFFFFFFFFFFFFFFFFFFFFFFFFFFFFFFFFF
310
FFFFFFFFFFFFFFFFFFFFFFFFFFFFFFFFFFFFFFFFFFFFFFFFFFFFFFFFFFFFFFFF
310
FFFFFFFFFFFFFFFFFFFFFFFFFFFFFFFFFFFFFFFFFFFFFFFFF000FFFFFFFFFFFF
310
FFFFFFFFFFFFFFFFFFFFFFFFFFFFFFFFFFFFFFFFFFFFFFFFFFFFFFFFFFFFFFFF
310
FFFFFFFFFFFFFFFFFFFFFFFFFFFFFFFFFFFFFFFFFFFFFFFFFFFFFFFFFFFFFFFF
310
FFFFFFFFFFFFFFFFFFFFFFFFFFFFFFFFF000FFFFFFFFFFFFFFFFFFFFFFFFFFFF
310
FFFFFFFFFFFFFFFFFFFFFFFFFFFFFFFFFFFFFFFFFFFFFFFFFFFFFFFFFFFFFFFF
310
FFFFFFFFFFFFFFFFFFFFFFFFFFFFFFFFFFFFFFFFFFFFFFFFFFFFFFFFFFFFFFFF
310
FFFFFFFFFFFFFFFFF000FFFFFFFFFFFFFFFFFFFFFFFFFFFFFFFFFFFFFFFFFFFF
310
FFFFFFFFFFFFFFFFFFFFFFFFFFFFFFFFFFFFFFFFFFFFFFFFFFFFFFFFFFFFFFFF
310
FFFFFFFFFFFFFFFFFFFFFFFFFFFFFFFFFFFFFFFFFFFFFFFFFFFFFFFFFFFFFFFF
310
F000FFFFFFFFFFFFFFFFFFFFFFFFFFFFFFFFFFFFFFFFFFFFFFFFFFFFFFFFFFFF
310
FFFFFFFFFFFFFFFFFFFFFFFFFFFFFFFFFFFFFFFFFFFFFFFFFFFFFFFFFFFFFFFF
310
FFFFFFFFFFFFFFFFFFFFFFFFFFFFFFFFFFFFFFFFFFFFFFFFF000FFFFFFFFFFFF
310
FFFFFFFFFFFFFFFFFFFFFFFFFFFFFFFFFFFFFFFFFFFFFFFFFFFFFFFFFFFFFFFF
310
FFFFFFFFFFFFFFFFFFFFFFFFFFFFFFFFFFFFFFFFFFFFFFFFFFFFFFFFFFFFFFFF
310
FFFFFFFFFFFFFFFFFFFFFFFFFFFFFFFFF000FFFFFFFFFFFFFFFFFFFFFFFFFFFF
310
FFFFFFFFFFFFFFFFFFFFFFFFFFFFFFFFFFFFFFFFFFFFFFFFFFFFFFFFFFFFFFFF
310
FFFFFFFFFFFFFFFFFFFFFFFFFFFFFFFFFFFFFFFFFFFFFFFFFFFFFFFFFFFFFFFF
310
FFFFFFFFFFFFFFFFF000FFFFFFFFFFFFFFFFFFFFFFFFFFFFFFFFFFFFFFFFFFFF
310
FFFFFFFFFFFFFFFFFFFFFFFFFFFFFFFFFFFFFFFFFFFFFFFFFFFFFFFFFFFFFFFF
310
FFFFFFFFFFFFFFFFFFFFFFFFFFFFFFFFFFFFFFFFFFFFFFFFFFFFFFFFFFFFFFFF
310
F000FFFFFFFFFFFFFFFFFFFFFFFFFFFFFFFFFFFFFFFFFFFFFFFFFFFFFFFFFFFF
310
FFFFFFFFFFFFFFFFFFFFFFFFFFFFFFFFFFFFFFFFFFFFFFFFFFFFFFFFFFFFFFFF
310
FFFFFFFFFFFFFFFFFFFFFFFFFFFFFFFFFFFFFFFFFFFFFFFFF000FFFFFFFFFFFF
310
FFFFFFFFFFFFFFFFFFFFFFFFFFFFFFFFFFFFFFFFFFFFFFFFFFFFFFFFFFFFFFFF
310
FFFFFFFFFFFFFFFFFFFFFFFFFFFFFFFFFFFFFFFFFFFFFFFFFFFFFFFFFFFFFFFF
310
FFFFFFFFFFFFFFFFFFFFFFFFFFFFFFFFF000FFFFFFFFFFFFFFFFFFFFFFFFFFFF
310
FFFFFFFFFFFFFFFFFFFFFFFFFFFFFFFFFFFFFFFFFFFFFFFFFFFFFFFFFFFFFFFF
310
FFFFFFFFFFFFFFFFFFFFFFFFFFFFFFFFFFFFFFFFFFFFFFFFFFFFFFFFFFFFFFFF
310
FFFFFFFFFFFFFFFFF000FFFFF80003FFFFFFFFFFFFFFFFFFFFFFFFFFFFFFFFFF
310
FFFFF00007FFFFFFFFFF00007FFFFFF800000000000000007FFFFFFFFFFFFFFF
310
FFFFFFFC001FFFFFFFFFFFFFFC001FFFFFFFFFFFFFFFFFFFFFFFFFFE0007FFFF
310
F000FFFF8000007FFFFFFFF8000FFFFFC0007FFFFF80007FFFFF0000007FFFFF
310
FFF8000007FFFFF800000000000000007FFFFFF0001FFFFFFFFFFFC00001FFFF
310
FFFFFFFFC00001FFFFFFFF000000000003FFFFE000007FFFF000FFFE0000000F
310
FFFFFFF0000FFFFF80007FFFFF80007FFFFC0000001FFFFFFFC0000001FFFFF8
310
00000000000000007FFFFFF0001FFFFFFFFFFE0000003FFFFFFFFFFE0000003F
310
FFFFFF000000000003FFFF0000000FFFF000FFF800000003FFFFFFF00007FFFF
310
80007FFFFF80007FFFF000000007FFFFFF000000003FFFF80000000000000000
310
7FFFFFF0001FFFFFFFFFF80000000FFFFFFFFFF80000000FFFFFFF0000000000
310
03FFFC00000003FFF000FFE000000000FFFFFFF00007FFFF80003FFFFF80007F
310
FFC000000001FFFFFC000000001FFFF800000000000000007FFFFFF0001FFFFF
310
FFFFE000000003FFFFFFFFE000000003FFFFFF000000000003FFF000000000FF
310
F000FF80000000007FFFFFF00007FFFF80003FFFFF80007FFF8000000000FFFF
310
F80000000007FFF800000000000000007FFFFFF0001FFFFFFFFFC000000001FF
310
FFFFFFC000000001FFFFFF000000000003FFC0000000007FF000FF0000000000
310
3FFFFFE00007FFFF00003FFFFF80007FFE00000000003FFFF00000000003FFF8
310
00000000000000007FFFFFF0001FFFFFFFFF8000000000FFFFFFFF8000000000
310
FFFFFF000000000003FF80000000003FF000FE00000000001FFFFFE00003FFFF
310
00003FFFFF80007FFC00000000001FFFE00000000001FFF8000001FFFE000000
310
7FFFFFF0001FFFFFFFFE00000000003FFFFFFE00000000003FFFFF0000000000
310
03FF00000000001FF000FC00000000000FFFFFE00003FFFF00001FFFFF80007F
310
F800000000001FFFC00000000000FFF8000001FFFE0000007FFFFFF0001FFFFF
310
FFFC00000000001FFFFFFC00000000001FFFFF000000000003FE00000000000F
310
F000F8000000000007FFFFE00003FFFF00001FFFFF80007FF800000000000FFF
310
800000000000FFF8000001FFFE0000007FFFFFF0001FFFFFFFF800000000000F
310
FFFFF800000000000FFFFF000000000003FC000000000007F000F80000000000
310
03FFFFC00003FFFE00001FFFFF80007FF0000000000007FF0000000000007FF8
310
000001FFFE0000007FFFFFF0001FFFFFFFF0000000000007FFFFF00000000000
310
07FFFF000000000003F8000000000003F000F0000000000003FFFFC00001FFFE
310
00001FFFFF80007FE0000000000007FE0000000000003FF8000001FFFE000000
310
7FFFFFF0001FFFFFFFF0000000000007FFFFF0000000000007FFFF0000000000
310
03F800001F800003F000E00001FFF00001FFFFC00001FFFE00000FFFFF80007F
310
E00001FFE00003FE00001FFF00003FF8000001FFFE0000007FFFFFF0001FFFFF
310
FFE000003E000003FFFFE000003E000003FFFF000000000003F00001FFF80001
310
F000E00007FFFC0001FFFFC00001FFFE00000FFFFF80007FC0000FFFFC0003FC
310
0000FFFFC0001FF8000001FFFE0000007FFFFFF0001FFFFFFFC00003FFE00001
310
FFFFC00003FFE00001FFFF0001FFFFFFFFF00007FFFE0001F000E0000FFFFF00
310
00FFFF800001FFFC00000FFFFF80007FC0001FFFFE0001FC0001FFFFE0001FF8
310
000001FFFE0000007FFFFFF0001FFFFFFF80000FFFF80000FFFF80000FFFF800
310
00FFFF0003FFFFFFFFE0000FFFFF8000F000C0003FFFFF8000FFFF800000FFFC
310
000007FFFF80007F80003FFFFF0001FC0003FFFFF0001FF8000001FFFE000000
310
7FFFFFF0001FFFFFFF80003FFFFE0000FFFF80003FFFFE0000FFFF0003FFFFFF
310
FFE0003FFFFF8000F000C0003FFFFF8000FFFF800000FFFC000007FFFF80007F
310
80007FFFFF8001F80007FFFFF8000FF8000001FFFE0000007FFFFFF0001FFFFF
310
FF00007FFFFF00007FFF00007FFFFF00007FFF0003FFFFFFFFE0003FFFFFC000
310
F000C0007FFFFFC000FFFF000000FFFC000007FFFF80007F8000FFFFFF8000F8
310
000FFFFFF8000FF8000001FFFE0000007FFFFFF0001FFFFFFF0000FFFFFF8000
310
7FFF0000FFFFFF80007FFF0003FFFFFFFFC0007FFFFFC00070008000FFFFFFC0
310
00FFFF000000FFF8000007FFFF80007F8000FFFFFF8000F8000FFFFFF8000FF8
310
000001FFFE0000007FFFFFF0001FFFFFFE0001FFFFFFC0003FFE0001FFFFFFC0
310
003FFF0003FFFFFFFFC0007FFFFFE00070008000FFFFFFC0007FFF0000007FF8
310
000003FFFF80007F0001FFFFFF8000F8000FFFFFF8000FF8000001FFFE000000
310
7FFFFFF0001FFFFFFE0001FFFFFFC0003FFE0001FFFFFFC0003FFF0003FFFFFF
310
FFC000FFFFFFE00070008000FFFFFFC0007FFF0000007FF8000003FFFF80007F
310
0001FFFFFF8000F8001FFFFFF8000FF8000001FFFE0000007FFFFFF0001FFFFF
310
FE0003FFFFFFE0003FFE0003FFFFFFE0003FFF0003FFFFFFFFC000FFFFFFE000
310
70008000FFFFFFC0007FFE0000007FF8000003FFFF80007F0001FFFFFF8000F0
310
001FFFFFF8000FF8000001FFFE0000007FFFFFF0001FFFFFFC0003FFFFFFE000
310
1FFC0003FFFFFFE0001FFF0003FFFFFFFFC000FFFFFFC00070008000FFFFFF80
310
007FFE0000007FF0000003FFFF80007F0001FFFFFF0000F0001FFFFFF8000FF8
310
000001FFFE0000007FFFFFF0001FFFFFFC0007FFFFFFF0001FFC0007FFFFFFF0
310
001FFF0003FFFFFFFFC000FFFFFFC00070008001FFFFFF0000FFFE0000003FF0
310
000001FFFF80007F0001FFFFFF0000F8001FFFFFF0000FF8000001FFFE000000
310
7FFFFFF0001FFFFFFC0007FFFFFFF0001FFC0007FFFFFFF0001FFF0003FFFFFF
310
FFC001FFFFFF80007000FFFFFFFFFE0000FFFE0008003FF0008001FFFF80007F
310
FFFFFFFFFC0000FFFFFFFFFFE0000FF8000001FFFE0000007FFFFFF0001FFFFF
310
F8000FFFFFFFF8000FF8000FFFFFFFF8000FFF0003FFFFFFFFFFFFFFFFFF0000
310
7000FFFFFFFFFC0000FFFC0008003FF0008001FFFF80007FFFFFFFFFF80001FF
310
FFFFFFFF80000FF8000001FFFE0000007FFFFFF0001FFFFFF8000FFFFFFFF800
310
0FF8000FFFFFFFF8000FFF0003FFFFFFFFFFFFFFFFFE0000F000FFFFFFFFE000
310
00FFFC000C003FE000C001FFFF80007FFFFFFFFFC00001FFFFFFFFFE00001FF8
310
000001FFFE0000007FFFFFF0001FFFFFF8000FFFFFFFF8000FF8000FFFFFFFF8
310
000FFF0003FFFFFFFFFFFFFFFFF00000F000FFFFFFFE000001FFFC000C001FE0
310
00C000FFFF80007FFFFFFFFE000001FFFFFFFFE000001FF80FFFFFFFFFFFFFC0
310
7FFFFFF0001FFFFFF8000FFFFFFFF8000FF8000FFFFFFFF8000FFF0003FFFFFF
310
FFFFFFFFFF800000F000FFFFFFC0000001FFFC001C001FE001C000FFFF80007F
310
FFFFFF80000003FFFFFFF80000001FF80FFFFFFFFFFFFFC07FFFFFF0001FFFFF
310
F8001FFFFFFFFC000FF8001FFFFFFFFC000FFF0003FFFFFFFFFFFFFFF0000001
310
F000FFFFF800000001FFF8001C001FE001C000FFFF80007FFFFFF800000003FF
310
FFFF800000003FF80FFFFFFFFFFFFFC07FFFFFF0001FFFFFF8001FFFFFFFFC00
310
0FF8001FFFFFFFFC000FFF0003FFFFFFFFFFFFFE00000001F000FFFFC0000000
310
03FFF8001E001FC001E000FFFF80007FFFFF8000000007FFFFFC000000003FF8
310
0FFFFFFFFFFFFFC07FFFFFF0001FFFFFF8001FFFFFFFFC000FF8001FFFFFFFFC
310
000FFF0003FFFFFFFFFFFFE000000003F000FFFE0000000007FFF8001E000FC0
310
01E0007FFF80007FFFFE0000000007FFFFE0000000007FF80FFFFFFFFFFFFFC0
310
7FFFFFF0001FFFFFF0001FFFFFFFFC0007F0001FFFFFFFFC0007FF0003FFFFFF
310
FFFFFF0000000003F000FFF80000000007FFF8001E000FC003E0007FFF80007F
310
FFF0000000000FFFFF8000000000FFF80FFFFFFFFFFFFFC07FFFFFF0001FFFFF
310
F0001FFFFFFFFC0007F0001FFFFFFFFC0007FF0003FFFFFFFFFFFC0000000007
310
F000FFE0000000000FFFF0003E000FC003E0007FFF80007FFFC0000000001FFF
310
FE0000000001FFF80FFFFFFFFFFFFFC07FFFFFF0001FFFFFF0001FFFFFFFFC00
310
07F0001FFFFFFFFC0007FF0003FFFFFFFFFFF0000000000FF000FFC000000000
310
1FFFF0003F000F8003F0003FFF80007FFF80000000003FFFF80000000003FFF8
310
0FFFFFFFFFFFFFC07FFFFFF0001FFFFFF0001FFFFFFFFC0007F0001FFFFFFFFC
310
0007FF0003FFFFFFFFFFE0000000001FF000FF00000000007FFFF0003F000780
310
03F0003FFF80007FFF00000000007FFFF00000000007FFF80FFFFFFFFFFFFFC0
310
7FFFFFF0001FFFFFF0001FFFFFFFFC0007F0001FFFFFFFFC0007FF0003FFFFFF
310
FFFF80000000007FF000FE0000000000FFFFE0003F00078007F0003FFF80007F
310
FE0000000001FFFFE0000000001FFFF80FFFFFFFFFFFFFC07FFFFFF0001FFFFF
310
F0001FFFFFFFFC0007F0001FFFFFFFFC0007FF0003FFFFFFFFFF0000000000FF
310
F000FC0000000003FFFFE0007F00078007F0003FFF80007FFC0000000007FFFF
310
C0000000007FFFF80FFFFFFFFFFFFFC07FFFFFF0001FFFFFF8001FFFFFFFFC00
310
0FF8001FFFFFFFFC000FFF0003FFFFFFFFFE0000000003FFF000FC000000000F
310
FFFFE0007F80070007F8001FFF80007FF8000000001FFFFF8000000001FFFFF8
310
0FFFFFFFFFFFFFC07FFFFFF0001FFFFFF8001FFFFFFFFC000FF8001FFFFFFFFC
310
000FFF0003FFFFFFFFFC000000000FFFF000F8000000007FFFFFE0007F800700
310
07F8001FFF80007FF000000000FFFFFF800000000FFFFFF80FFFFFFFFFFFFFC0
310
7FFFFFF0001FFFFFF8000FFFFFFFF8000FF8000FFFFFFFF8000FFF0003FFFFFF
310
FFFC000000007FFFF000F800000007FFFFFFC0007F8003000FF8001FFF80007F
310
F000000007FFFFFF000000007FFFFFF80FFFFFFFFFFFFFC07FFFFFF0001FFFFF
310
F8000FFFFFFFF8000FF8000FFFFFFFF8000FFF0003FFFFFFFFF80000000FFFFF
310
F000F0000000FFFFFFFFC000FF8003000FF8001FFF80007FE0000000FFFFFFFF
310
0000000FFFFFFFF8000001FFFE0000007FFFFFF0001FFFFFF8000FFFFFFFF800
310
0FF8000FFFFFFFF8000FFF0003FFFFFFFFF8000000FFFFFFF000F000000FFFFF
310
FFFFC000FFC002000FF8000FFF80007FE000001FFFFFFFFE000001FFFFFFFFF8
310
000001FFFE0000007FFFFFF0001FFFFFF8000FFFFFFFF8000FF8000FFFFFFFF8
310
000FFF0003FFFFFFFFF000001FFFFFFFF000E00000FFFFFFFFFFC000FFC00200
310
0FFC000FFF80007FE00001FFFFFFFFFE00001FFFFFFFFFF8000001FFFE000000
310
7FFFFFF0001FFFFFFC000FFFFFFFF8001FFC000FFFFFFFF8001FFF0003FFFFFF
310
FFF00001FFFFFFFFF000E00007FFFFFFFFFF8000FFC000001FFC000FFF80007F
310
C0000FFFFFFFFFFE0000FFFFFFFFFFF8000001FFFE0000007FFFFFF0001FFFFF
310
FC0007FFFFFFF0001FFC0007FFFFFFF0001FFF0003FFFFFFFFF00007FFFFFFFF
310
F000E0001FFFFFFFFFFF8000FFC000001FFC000FFF80007FC0003FFFFFFFFFFE
310
0001FFFFFFFFFFF8000001FFFE0000007FFFFFF0001FFFFFFC0007FFFFFFF000
310
1FFC0007FFFFFFF0001FFF0003FFFFFFFFF0001FFFFFFFFFF000E0003FFFFF00
310
03FF8001FFE000001FFC0007FF80007FC0007FFFFF0007FC0003FFFFF0003FF8
310
000001FFFE0000007FFFFFF0001FFFFFFC0003FFFFFFE0001FFC0003FFFFFFE0
310
001FFF0003FFFFFFFFF0003FFFFFFFFFF000E0003FFFFF0001FF8001FFE00000
310
1FFE0007FF80007FC0007FFFFE0003FC0007FFFFE0003FF8000001FFFE000000
310
7FFFFFF0001FFFFFFE0003FFFFFFE0003FFE0003FFFFFFE0003FFF0003FFFFFF
310
FFF0003FFFFF8001F000E0003FFFFF0001FF0001FFE000001FFE0007FF80007F
310
C0007FFFFE0003FC0007FFFFE0003FF8000001FFFE0000007FFFFFF0001FFFFF
310
FE0001FFFFFFC0003FFE0001FFFFFFC0003FFF0003FFFFFFFFF0003FFFFF0001
310
F000E0003FFFFF0003FF0001FFE000003FFE0007FF80007FC0007FFFFE0003FC
310
0007FFFFE0003FF8000001FFFE0000007FFFFFF0001FFFFFFF0001FFFFFFC000
310
7FFF0001FFFFFFC0007FFF0003FFFFFFFFF0003FFFFF0001F000E0003FFFFE00
310
03FF0003FFF000003FFE0003FF80007FC0007FFFFC0003FE0007FFFFE0003FF8
310
000001FFFE0000007FFFFFF0001FFFFFFF0000FFFFFF80007FFF0000FFFFFF80
310
007FFF0003FFFFFFFFF0003FFFFF0001F000E0003FFFFE0003FF0003FFF00000
310
3FFF0003FF80007FC0007FFFFC0007FE0007FFFFC0003FF8000001FFFE000000
310
7FFFFFF0001FFFFFFF80007FFFFF0000FFFF80007FFFFF0000FFFF0003FFFFFF
310
FFF0003FFFFF0003F000E0003FFFFC0003FE0003FFF000003FFF0003FF80007F
310
E0003FFFF80007FE0003FFFFC0007FF8000001FFFE0000007FFFFFF0001FFFFF
310
FF80003FFFFE0000FFFF80003FFFFE0000FFFF0003FFFFFFFFF0001FFFFE0003
310
F000F0001FFFF80003FE0003FFF000007FFF0001FF80007FE0003FFFF00007FE
310
0001FFFF80007FF8000001FFFE0000007FFFFFF0001FFFFFFFC0000FFFF80001
310
FFFFC0000FFFF80001FFFF0003FFFFFFFFF0001FFFFC0003F000F0000FFFF000
310
07FE0007FFF800007FFF0001FF80007FE0001FFFE00007FF0000FFFE00007FF8
310
000001FFFE0000007FFFFFF0001FFFFFFFC00003FFE00001FFFFC00003FFE000
310
01FFFF0003FFFFFFFFF8000FFFF80003F000F00003FFC00007FC0007FFF80000
310
7FFF8001FF80007FF00007FF80000FFF00007FF80000FFF8000001FFFE000000
310
7F80000000000001FFE000003E000003FFFFE000003E000003FFFF0003FFFFFF
310
FFF80003FFE00007F000F800000000000FFC0007FFF800007FFF8001FF80007F
310
F000000000000FFF000000000000FFF8000001FFFE0000007F80000000000001
310
FFF0000000000007FFFFF0000000000007FFFF0003FFFFFFFFFC00007E000007
310
F000F800000000000FFC0007FFF80000FFFF8000FF80007FF800000000001FFF
310
800000000001FFF8000001FFFE0000007F80000000000001FFF800000000000F
310
FFFFF800000000000FFFFF0003FFFFFFFFFC00000000000FF000FC0000000000
310
1FFC0007FFFC0000FFFF8000FF80007FF800000000003FFFC00000000001FFF8
310
000001FFFE0000007F80000000000001FFF800000000000FFFFFF80000000000
310
0FFFFF0003FFFFFFFFFE00000000001FF000FE00000000003FF8000FFFFC0000
310
FFFF8000FF80007FFC00000000003FFFC00000000003FFF8000001FFFE000000
310
7F80000000000001FFFC00000000001FFFFFFC00000000001FFFFF0003FFFFFF
310
FFFF00000000001FF000FF00000000003FF8000FFFFC0000FFFFC000FF80007F
310
FE00000000007FFFE00000000007FFF8000001FFFE0000007F80000000000001
310
FFFE00000000003FFFFFFE00000000003FFFFF0003FFFFFFFFFF80000000003F
310
F000FF80000000007FF8000FFFFC0001FFFFC0007F80007FFF0000000000FFFF
310
F0000000000FFFF800000000000000007F80000000000001FFFF8000000000FF
310
FFFFFF8000000000FFFFFF0003FFFFFFFFFFC0000000007FF000FFC000000000
310
FFF8000FFFFE0001FFFFC0007F80007FFF8000000001FFFFF8000000001FFFF8
310
00000000000000007F80000000000001FFFFC000000001FFFFFFFFC000000001
310
FFFFFF0003FFFFFFFFFFE000000000FFF000FFE000000003FFF0001FFFFE0001
310
FFFFC0007F80007FFFC000000007FFFFFE000000003FFFF80000000000000000
310
7F80000000000001FFFFE000000003FFFFFFFFE000000003FFFFFF0003FFFFFF
310
FFFFF000000003FFF000FFF80000000FFFF0001FFFFE0001FFFFE0007F80007F
310
FFF00000000FFFFFFF00000000FFFFF800000000000000007F80000000000001
310
FFFFF80000000FFFFFFFFFF80000000FFFFFFF0003FFFFFFFFFFFC0000000FFF
310
F000FFFE0000003FFFF0001FFFFE0003FFFFE0003F80007FFFFC0000003FFFFF
310
FFC0000003FFFFF800000000000000007F80000000000001FFFFFE0000003FFF
310
FFFFFFFE0000003FFFFFFF0003FFFFFFFFFFFF0000003FFFF000FFFF800000FF
310
FFF0001FFFFF0003FFFFE0003F80007FFFFF000001FFFFFFFFF800001FFFFFF8
310
00000000000000007F80000000000001FFFFFFC00001FFFFFFFFFFFFC00001FF
310
FFFFFF0003FFFFFFFFFFFFC00000FFFFF000FFFFF8000FFFFFFFFFFFFFFFFFFF
310
FFFFFFFFFFFFFFFFFFFFF0001FFFFFFFFFFF0000FFFFFFF80000000000000000
310
7FFFFFFFFFFFFFFFFFFFFFFC001FFFFFFFFFFFFFFC001FFFFFFFFFFFFFFFFFFF
310
FFFFFFFC001FFFFFF000FFFFFFFFFFFFFFFFFFFFFFFFFFFFFFFFFFFFFFFFFFFF
310
FFFFFFFFFFFFFFFFFFFFFFFFFFFFFFFFFFFFFFFFFFFFFFFFFFFFFFFFFFFFFFFF
310
FFFFFFFFFFFFFFFFFFFFFFFFFFFFFFFFFFFFFFFFFFFFFFFFFFFFFFFFFFFFFFFF
310
F000FFFFFFFFFFFFFFFFFFFFFFFFFFFFFFFFFFFFFFFFFFFFFFFFFFFFFFFFFFFF
310
FFFFFFFFFFFFFFFFFFFFFFFFFFFFFFFFFFFFFFFFFFFFFFFFFFFFFFFFFFFFFFFF
310
FFFFFFFFFFFFFFFFFFFFFFFFFFFFFFFFFFFFFFFFFFFFFFFFF000FFFFFFFFFFFF
310
FFFFFFFFFFFFFFFFFFFFFFFFFFFFFFFFFFFFFFFFFFFFFFFFFFFFFFFFFFFFFFFF
310
FFFFFFFFFFFFFFFFFFFFFFFFFFFFFFFFFFFFFFFFFFFFFFFFFFFFFFFFFFFFFFFF
310
FFFFFFFFFFFFFFFFFFFFFFFFFFFFFFFFF000FFFFFFFFFFFFFFFFFFFFFFFFFFFF
310
FFFFFFFFFFFFFFFFFFFFFFFFFFFFFFFFFFFFFFFFFFFFFFFFFFFFFFFFFFFFFFFF
310
FFFFFFFFFFFFFFFFFFFFFFFFFFFFFFFFFFFFFFFFFFFFFFFFFFFFFFFFFFFFFFFF
310
FFFFFFFFFFFFFFFFF000FFFFFFFFFFFFFFFFFFFFFFFFFFFFFFFFFFFFFFFFFFFF
310
FFFFFFFFFFFFFFFFFFFFFFFFFFFFFFFFFFFFFFFFFFFFFFFFFFFFFFFFFFFFFFFF
310
FFFFFFFFFFFFFFFFFFFFFFFFFFFFFFFFFFFFFFFFFFFFFFFFFFFFFFFFFFFFFFFF
310
F000FFFFFFFFFFFFFFFFFFFFFFFFFFFFFFFFFFFFFFFFFFFFFFFFFFFFFFFFFFFF
310
FFFFFFFFFFFFFFFFFFFFFFFFFFFFFFFFFFFFFFFFFFFFFFFFFFFFFFFFFFFFFFFF
310
FFFFFFFFFFFFFFFFFFFFFFFFFFFFFFFFFFFFFFFFFFFFFFFFF000FFFFFFFFFFFF
310
FFFFFFFFFFFFFFFFFFFFFFFFFFFFFFFFFFFFFFFFFFFFFFFFFFFFFFFFFFFFFFFF
310
FFFFFFFFFFFFFFFFFFFFFFFFFFFFFFFFFFFFFFFFFFFFFFFFFFFFFFFFFFFFFFFF
310
FFFFFFFFFFFFFFFFFFFFFFFFFFFFFFFFF000FFFFFFFFFFFFFFFFFFFFFFFFFFFF
310
FFFFFFFFFFFFFFFFFFFFFFFFFFFFFFFFFFFFFFFFFFFFFFFFFFFFFFFFFFFFFFFF
310
FFFFFFFFFFFFFFFFFFFFFFFFFFFFFFFFFFFFFFFFFFFFFFFFFFFFFFFFFFFFFFFF
310
FFFFFFFFFFFFFFFFF000FFFFFFFFFFFFFFFFFFFFFFFFFFFFFFFFFFFFFFFFFFFF
310
FFFFFFFFFFFFFFFFFFFFFFFFFFFFFFFFFFFFFFFFFFFFFFFFFFFFFFFFFFFFFFFF
310
FFFFFFFFFFFFFFFFFFFFFFFFFFFFFFFFFFFFFFFFFFFFFFFFFFFFFFFFFFFFFFFF
310
F000FFFFFFFFFFFFFFFFFFFFFFFFFFFFFFFFFFFFFFFFFFFFFFFFFFFFFFFFFFFF
310
FFFFFFFFFFFFFFFFFFFFFFFFFFFFFFFFFFFFFFFFFFFFFFFFFFFFFFFFFFFFFFFF
310
FFFFFFFFFFFFFFFFFFFFFFFFFFFFFFFFFFFFFFFFFFFFFFFFF000FFFFFFFFFFFF
310
FFFFFFFFFFFFFFFFFFFFFFFFFFFFFFFFFFFFFFFFFFFFFFFFFFFFFFFFFFFFFFFF
310
FFFFFFFFFFFFFFFFFFFFFFFFFFFFFFFFFFFFFFFFFFFFFFFFFFFFFFFFFFFFFFFF
310
FFFFFFFFFFFFFFFFFFFFFFFFFFFFFFFFF000FFFFFFFFFFFFFFFFFFFFFFFFFFFF
310
FFFFFFFFFFFFFFFFFFFFFFFFFFFFFFFFFFFFFFFFFFFFFFFFFFFFFFFFFFFFFFFF
310
FFFFFFFFFFFFFFFFFFFFFFFFFFFFFFFFFFFFFFFFFFFFFFFFFFFFFFFFFFFFFFFF
310
FFFFFFFFFFFFFFFFF000FFFFFFFFFFFFFFFFFFFFFFFFFFFFFFFFFFFFFFFFFFFF
310
FFFFFFFFFFFFFFFFFFFFFFFFFFFFFFFFFFFFFFFFFFFFFFFFFFFFFFFFFFFFFFFF
310
FFFFFFFFFFFFFFFFFFFFFFFFFFFFFFFFFFFFFFFFFFFFFFFFFFFFFFFFFFFFFFFF
310
F000FFFFFFFFFFFFFFFFFFFFFFFFFFFFFFFFFFFFFFFFFFFFFFFFFFFFFFFFFFFF
310
FFFFFFFFFFFFFFFFFFFFFFFFFFFFFFFFFFFFFFFFFFFFFFFFFFFFFFFFFFFFFFFF
310
FFFFFFFFFFFFFFFFFFFFFFFFFFFFFFFFFFFFFFFFFFFFFFFFF000FFFFFFFFFFFF
310
FFFFFFFFFFFFFFFFFFFFFFFFFFFFFFFFFFFFFFFFFFFFFFFFFFFFFFFFFFFFFFFF
310
FFFFFFFFFFFFFFFFFFFFFFFFFFFFFFFFFFFFFFFFFFFFFFFFFFFFFFFFFFFFFFFF
310
FFFFFFFFFFFFFFFFFFFFFFFFFFFFFFFFF000FFFFFFFFFFFFFFFFFFFFFFFFFFFF
310
FFFFFFFFFFFFFFFFFFFFFFFFFFFFFFFFFFFFFFFFFFFFFFFFFFFFFFFFFFFFFFFF
310
FFFFFFFFFFFFFFFFFFFFFFFFFFFFFFFFFFFFFFFFFFFFFFFFFFFFFFFFFFFFFFFF
310
FFFFFFFFFFFFFFFFF000FFFFFFFFFFFFFFFFFFFFFFFFFFFFFFFFFFFFFFFFFFFF
310
FFFFFFFFFFFFFFFFFFFFFFFFFFFFFFFFFFFFFFFFFFFFFFFFFFFFFFFFFFFFFFFF
310
FFFFFFFFFFFFFFFFFFFFFFFFFFFFFFFFFFFFFFFFFFFFFFFFFFFFFFFFFFFFFFFF
310
F000FFFFFFFFFFFFFFFFFFFFFFFFFFFFFFFFFFFFFFFFFFFFFFFFFFFFFFFFFFFF
310
FFFFFFFFFFFFFFFFFFFFFFFFFFFFFFFFFFFFFFFFFFFFFFFFFFFFFFFFFFFFFFFF
310
FFFFFFFFFFFFFFFFFFFFFFFFFFFFFFFFFFFFFFFFFFFFFFFFF000FFFFFFFFFFFF
310
FFFFFFFFFFFFFFFFFFFFFFFFFFFFFFFFFFFFFFFFFFFFFFFFFFFFFFFFFFFFFFFF
310
FFFFFFFFFFFFFFFFFFFFFFFFFFFFFFFFFFFFFFFFFFFFFFFFFFFFFFFFFFFFFFFF
310
FFFFFFFFFFFFFFFFFFFFFFFFFFFFFFFFF000FFFFFFFFFFFFFFFFFFFFFFFFFFFF
310
FFFFFFFFFFFFFFFFFFFFFFFFFFFFFFFFFFFFFFFFFFFFFFFFFFFFFFFFFFFFFFFF
310
FFFFFFFFFFFFFFFFFFFFFFFFFFFFFFFFFFFFFFFFFFFFFFFFFFFFFFFFFFFFFFFF
310
FFFFFFFFFFFFFFFFF000FFFFFFFFFFFFFFFFFFFFFFFFFFFFFFFFFFFFFFFFFFFF
310
FFFFFFFFFFFFFFFFFFFFFFFFFFFFFFFFFFFFFFFFFFFFFFFFFFFFFFFFFFFFFFFF
310
FFFFFFFFFFFFFFFFFFFFFFFFFFFFFFFFFFFFFFFFFFFFFFFFFFFFFFFFFFFFFFFF
310
F000FFFFFFFFFFFFFFFFFFFFFFFFFFFFFFFFFFFFFFFFFFFFFFFFFFFFFFFFFFFF
310
FFFFFFFFFFFFFFFFFFFFFFFFFFFFFFFFFFFFFFFFFFFFFFFFFFFFFFFFFFFFFFFF
310
FFFFFFFFFFFFFFFFFFFFFFFFFFFFFFFFFFFFFFFFFFFFFFFFF000FFFFFFFFFFFF
310
FFFFFFFFFFFFFFFFFFFFFFFFFFFFFFFFFFFFFFFFFFFFFFFFFFFFFFFFFFFFFFFF
310
FFFFFFFFFFFFFFFFFFFFFFFFFFFFFFFFFFFFFFFFFFFFFFFFFFFFFFFFFFFFFFFF
310
FFFFFFFFFFFFFFFFFFFFFFFFFFFFFFFFF0000000000000000000000000000000
310
0000000000000000000000000000000000000000000000000000000000000000
310
0000000000000000000000000000000000000000000000000000000000000000
310
0000000000000000000000000000000000000000000000000000000000000000
310
0000000000000000000000000000000000000000000000000000000000000000
310
0000000000000000000000000000000000000000000000000000000000000000
310
0000000000000000000000000000000000000000000000000000000000000000
310
0000000000000000000000000000000000000000000000000000000000000000
310
0000000000000000000000000000000000000000000000000000000000000000
310
0000000000000000000000000000000000000000000000000000000000000000
310
0000000000000000000000000000000000000000000000000000000000000000
310
0000000000000000000000000000000000000000000000000000000000000000
310
0000000000000000000000000000000000000000000000000000000000000000
310
0000000000000000000000000000000000000000000000000000000000000000
310
0000000000000000000000000000000000000000000000000000000000000000
310
0000000000000000000000000000000000000000000000000000000000000000
  1
OLE
  0
ENDSEC
  0
SECTION
  2
OBJECTS
  0
DICTIONARY
  5
C
330
0
100
AcDbDictionary
281
     1
  3
ACAD_GROUP
350
D
  3
ACAD_LAYOUT
350
1A
  3
ACAD_MLINESTYLE
350
17
  3
ACAD_PLOTSETTINGS
350
19
  3
ACAD_PLOTSTYLENAME
350
E
  0
DICTIONARY
  5
D
102
{ACAD_REACTORS
330
C
102
}
330
C
100
AcDbDictionary
281
     1
  0
DICTIONARY
  5
1A
102
{ACAD_REACTORS
330
C
102
}
330
C
100
AcDbDictionary
281
     1
  3
Layout1
350
1E
  3
Layout2
350
26
  3
Model
350
22
  0
DICTIONARY
  5
17
102
{ACAD_REACTORS
330
C
102
}
330
C
100
AcDbDictionary
281
     1
  3
Standard
350
18
  0
DICTIONARY
  5
19
102
{ACAD_REACTORS
330
C
102
}
330
C
100
AcDbDictionary
281
     1
  0
ACDBDICTIONARYWDFLT
  5
E
102
{ACAD_REACTORS
330
C
102
}
330
C
100
AcDbDictionary
281
     1
  3
Normal
350
F
100
AcDbDictionaryWithDefault
340
F
  0
LAYOUT
  5
1E
102
{ACAD_REACTORS
330
1A
102
}
330
1A
100
AcDbPlotSettings
  1

  2
none_device
  4

  6

 40
0.0
 41
0.0
 42
0.0
 43
0.0
 44
0.0
 45
0.0
 46
0.0
 47
0.0
 48
0.0
 49
0.0
140
0.0
141
0.0
142
1.0
143
1.0
 70
   688
 72
     0
 73
     0
 74
     5
  7

 75
    16
147
1.0
148
0.0
149
0.0
100
AcDbLayout
  1
Layout1
 70
     1
 71
     1
 10
0.0
 20
0.0
 11
420.0
 21
297.0
 12
0.0
 22
0.0
 32
0.0
 14
1.0000000000E+20
 24
1.0000000000E+20
 34
1.0000000000E+20
 15
-1.0000000000E+20
 25
-1.0000000000E+20
 35
-1.0000000000E+20
146
0.0
 13
0.0
 23
0.0
 33
0.0
 16
1.0
 26
0.0
 36
0.0
 17
0.0
 27
1.0
 37
0.0
 76
     0
330
1B
  0
LAYOUT
  5
26
102
{ACAD_REACTORS
330
1A
102
}
330
1A
100
AcDbPlotSettings
  1

  2
none_device
  4

  6

 40
0.0
 41
0.0
 42
0.0
 43
0.0
 44
0.0
 45
0.0
 46
0.0
 47
0.0
 48
0.0
 49
0.0
140
0.0
141
0.0
142
1.0
143
1.0
 70
   688
 72
     0
 73
     0
 74
     5
  7

 75
    16
147
1.0
148
0.0
149
0.0
100
AcDbLayout
  1
Layout2
 70
     1
 71
     2
 10
0.0
 20
0.0
 11
0.0
 21
0.0
 12
0.0
 22
0.0
 32
0.0
 14
0.0
 24
0.0
 34
0.0
 15
0.0
 25
0.0
 35
0.0
146
0.0
 13
0.0
 23
0.0
 33
0.0
 16
1.0
 26
0.0
 36
0.0
 17
0.0
 27
1.0
 37
0.0
 76
     0
330
23
  0
LAYOUT
  5
22
102
{ACAD_REACTORS
330
1A
102
}
330
1A
100
AcDbPlotSettings
  1

  2
none_device
  4

  6

 40
0.0
 41
0.0
 42
0.0
 43
0.0
 44
0.0
 45
0.0
 46
0.0
 47
0.0
 48
0.0
 49
0.0
140
0.0
141
0.0
142
1.0
143
1.0
 70
  1712
 72
     0
 73
     0
 74
     0
  7

 75
     0
147
1.0
148
0.0
149
0.0
100
AcDbLayout
  1
Model
 70
     1
 71
     0
 10
0.0
 20
0.0
 11
297.0
 21
210.0
 12
0.0
 22
0.0
 32
0.0
 14
0.0
 24
0.0
 34
0.0
 15
297.0
 25
210.0
 35
0.0
146
0.0
 13
0.0
 23
0.0
 33
0.0
 16
1.0
 26
0.0
 36
0.0
 17
0.0
 27
1.0
 37
0.0
 76
     0
330
1F
331
29
  0
MLINESTYLE
  5
18
102
{ACAD_REACTORS
330
17
102
}
330
17
100
AcDbMlineStyle
  2
Standard
 70
     0
  3

 62
   256
 51
90.0
 52
90.0
 71
     2
 49
0.5
 62
   256
  6
BYLAYER
 49
-0.5
 62
   256
  6
BYLAYER
  0
ACDBPLACEHOLDER
  5
F
102
{ACAD_REACTORS
330
E
102
}
330
E
  0
ENDSEC
  0
EOF
