  0
SECTION
  2
HEADER
  9
$ACADVER
  1
AC1015
  9
$ACADMAINTVER
 70
     6
  9
$DWGCODEPAGE
  3
ANSI_1252
  9
$INSBASE
 10
0.0
 20
0.0
 30
0.0
  9
$EXTMIN
 10
0.0
 20
0.0
 30
0.0
  9
$EXTMAX
 10
297.0
 20
210.0
 30
0.0
  9
$LIMMIN
 10
0.0
 20
0.0
  9
$LIMMAX
 10
297.0
 20
210.0
  9
$ORTHOMODE
 70
     0
  9
$REGENMODE
 70
     1
  9
$FILLMODE
 70
     1
  9
$QTEXTMODE
 70
     0
  9
$MIRRTEXT
 70
     1
  9
$LTSCALE
 40
1.0
  9
$ATTMODE
 70
     1
  9
$TEXTSIZE
 40
2.0
  9
$TRACEWID
 40
1.0
  9
$TEXTSTYLE
  7
Standard
  9
$CLAYER
  8
0
  9
$CELTYPE
  6
ByLayer
  9
$CECOLOR
 62
   256
  9
$CELTSCALE
 40
1.0
  9
$DISPSILH
 70
     0
  9
$DIMSCALE
 40
1.0
  9
$DIMASZ
 40
3.0
  9
$DIMEXO
 40
0.0
  9
$DIMDLI
 40
3.75
  9
$DIMRND
 40
0.0
  9
$DIMDLE
 40
0.0
  9
$DIMEXE
 40
1.0
  9
$DIMTP
 40
0.0
  9
$DIMTM
 40
0.0
  9
$DIMTXT
 40
2.0
  9
$DIMCEN
 40
2.5
  9
$DIMTSZ
 40
0.0
  9
$DIMTOL
 70
     0
  9
$DIMLIM
 70
     0
  9
$DIMTIH
 70
     1
  9
$DIMTOH
 70
     1
  9
$DIMSE1
 70
     0
  9
$DIMSE2
 70
     0
  9
$DIMTAD
 70
     1
  9
$DIMZIN
 70
     0
  9
$DIMBLK
  1

  9
$DIMASO
 70
     1
  9
$DIMSHO
 70
     1
  9
$DIMPOST
  1

  9
$DIMAPOST
  1

  9
$DIMALT
 70
     0
  9
$DIMALTD
 70
     3
  9
$DIMALTF
 40
0.0393700787
  9
$DIMLFAC
 40
1.0
  9
$DIMTOFL
 70
     1
  9
$DIMTVP
 40
0.0
  9
$DIMTIX
 70
     0
  9
$DIMSOXD
 70
     0
  9
$DIMSAH
 70
     0
  9
$DIMBLK1
  1

  9
$DIMBLK2
  1

  9
$DIMSTYLE
  2
ISO-25
  9
$DIMCLRD
 70
     0
  9
$DIMCLRE
 70
     0
  9
$DIMCLRT
 70
     0
  9
$DIMTFAC
 40
1.0
  9
$DIMGAP
 40
1.524
  9
$DIMJUST
 70
     0
  9
$DIMSD1
 70
     0
  9
$DIMSD2
 70
     0
  9
$DIMTOLJ
 70
     0
  9
$DIMTZIN
 70
     0
  9
$DIMALTZ
 70
     0
  9
$DIMALTTZ
 70
     0
  9
$DIMUPT
 70
     0
  9
$DIMDEC
 70
     2
  9
$DIMTDEC
 70
     3
  9
$DIMALTU
 70
     2
  9
$DIMALTTD
 70
     3
  9
$DIMTXSTY
  7
Standard
  9
$DIMAUNIT
 70
     0
  9
$DIMADEC
 70
     2
  9
$DIMALTRND
 40
0.0
  9
$DIMAZIN
 70
     0
  9
$DIMDSEP
 70
    44
  9
$DIMATFIT
 70
     3
  9
$DIMFRAC
 70
     0
  9
$DIMLDRBLK
  1

  9
$DIMLUNIT
 70
     2
  9
$DIMLWD
 70
    -2
  9
$DIMLWE
 70
    -2
  9
$DIMTMOVE
 70
     0
  9
$LUNITS
 70
     2
  9
$LUPREC
 70
     2
  9
$SKETCHINC
 40
1.0
  9
$FILLETRAD
 40
10.0
  9
$AUNITS
 70
     0
  9
$AUPREC
 70
     2
  9
$MENU
  1
.
  9
$ELEVATION
 40
0.0
  9
$PELEVATION
 40
0.0
  9
$THICKNESS
 40
0.0
  9
$LIMCHECK
 70
     0
  9
$CHAMFERA
 40
10.0
  9
$CHAMFERB
 40
10.0
  9
$CHAMFERC
 40
20.0
  9
$CHAMFERD
 40
0.0
  9
$SKPOLY
 70
     0
  9
$TDCREATE
 40
2456056.558794861
  9
$TDUCREATE
 40
2456056.475461528
  9
$TDUPDATE
 40
2456056.558796308
  9
$TDUUPDATE
 40
2456056.475462975
  9
$TDINDWG
 40
0.0000000116
  9
$TDUSRTIMER
 40
0.0000000116
  9
$USRTIMER
 70
     1
  9
$ANGBASE
 50
0.0
  9
$ANGDIR
 70
     0
  9
$PDMODE
 70
     0
  9
$PDSIZE
 40
-1.0
  9
$PLINEWID
 40
0.0
  9
$SPLFRAME
 70
     0
  9
$SPLINETYPE
 70
     6
  9
$SPLINESEGS
 70
     8
  9
$HANDSEED
  5
284
  9
$SURFTAB1
 70
     6
  9
$SURFTAB2
 70
     6
  9
$SURFTYPE
 70
     6
  9
$SURFU
 70
     6
  9
$SURFV
 70
     6
  9
$UCSBASE
  2

  9
$UCSNAME
  2

  9
$UCSORG
 10
0.0
 20
0.0
 30
0.0
  9
$UCSXDIR
 10
1.0
 20
0.0
 30
0.0
  9
$UCSYDIR
 10
0.0
 20
1.0
 30
0.0
  9
$UCSORTHOREF
  2

  9
$UCSORTHOVIEW
 70
     0
  9
$UCSORGTOP
 10
0.0
 20
0.0
 30
0.0
  9
$UCSORGBOTTOM
 10
0.0
 20
0.0
 30
0.0
  9
$UCSORGLEFT
 10
0.0
 20
0.0
 30
0.0
  9
$UCSORGRIGHT
 10
0.0
 20
0.0
 30
0.0
  9
$UCSORGFRONT
 10
0.0
 20
0.0
 30
0.0
  9
$UCSORGBACK
 10
0.0
 20
0.0
 30
0.0
  9
$PUCSBASE
  2

  9
$PUCSNAME
  2

  9
$PUCSORG
 10
0.0
 20
0.0
 30
0.0
  9
$PUCSXDIR
 10
1.0
 20
0.0
 30
0.0
  9
$PUCSYDIR
 10
0.0
 20
1.0
 30
0.0
  9
$PUCSORTHOREF
  2

  9
$PUCSORTHOVIEW
 70
     0
  9
$PUCSORGTOP
 10
0.0
 20
0.0
 30
0.0
  9
$PUCSORGBOTTOM
 10
0.0
 20
0.0
 30
0.0
  9
$PUCSORGLEFT
 10
0.0
 20
0.0
 30
0.0
  9
$PUCSORGRIGHT
 10
0.0
 20
0.0
 30
0.0
  9
$PUCSORGFRONT
 10
0.0
 20
0.0
 30
0.0
  9
$PUCSORGBACK
 10
0.0
 20
0.0
 30
0.0
  9
$USERI1
 70
     0
  9
$USERI2
 70
     0
  9
$USERI3
 70
     0
  9
$USERI4
 70
     0
  9
$USERI5
 70
     0
  9
$USERR1
 40
0.0
  9
$USERR2
 40
0.0
  9
$USERR3
 40
0.0
  9
$USERR4
 40
0.0
  9
$USERR5
 40
0.0
  9
$WORLDVIEW
 70
     1
  9
$SHADEDGE
 70
     3
  9
$SHADEDIF
 70
    70
  9
$TILEMODE
 70
     1
  9
$MAXACTVP
 70
    64
  9
$PINSBASE
 10
0.0
 20
0.0
 30
0.0
  9
$PLIMCHECK
 70
     0
  9
$PEXTMIN
 10
1.0000000000E+20
 20
1.0000000000E+20
 30
1.0000000000E+20
  9
$PEXTMAX
 10
-1.0000000000E+20
 20
-1.0000000000E+20
 30
-1.0000000000E+20
  9
$PLIMMIN
 10
0.0
 20
0.0
  9
$PLIMMAX
 10
420.0
 20
297.0
  9
$UNITMODE
 70
     0
  9
$VISRETAIN
 70
     1
  9
$PLINEGEN
 70
     0
  9
$PSLTSCALE
 70
     1
  9
$TREEDEPTH
 70
  3020
  9
$CMLSTYLE
  2
Standard
  9
$CMLJUST
 70
     0
  9
$CMLSCALE
 40
20.0
  9
$PROXYGRAPHICS
 70
     1
  9
$MEASUREMENT
 70
     1
  9
$CELWEIGHT
370
    -1
  9
$ENDCAPS
280
     0
  9
$JOINSTYLE
280
     0
  9
$LWDISPLAY
290
     1
  9
$INSUNITS
 70
     4
  9
$HYPERLINKBASE
  1

  9
$STYLESHEET
  1

  9
$XEDIT
290
     1
  9
$CEPSNTYPE
380
     0
  9
$PSTYLEMODE
290
     1
  9
$FINGERPRINTGUID
  2
{6A08E54B-9841-4FB8-99CA-A61CA84B356E}
  9
$VERSIONGUID
  2
{FAEB1C32-E019-11D5-929B-00C0DF256EC4}
  9
$EXTNAMES
290
     1
  9
$PSVPSCALE
 40
0.0
  9
$OLESTARTUP
290
     0
  0
ENDSEC
  0
SECTION
  2
CLASSES
  0
CLASS
  1
ACDBDICTIONARYWDFLT
  2
AcDbDictionaryWithDefault
  3
ObjectDBX Classes
 90
        0
280
     0
281
     0
  0
CLASS
  1
VISUALSTYLE
  2
AcDbVisualStyle
  3
ObjectDBX Classes
 90
     4095
280
     0
281
     0
  0
CLASS
  1
MATERIAL
  2
AcDbMaterial
  3
ObjectDBX Classes
 90
     1153
280
     0
281
     0
  0
CLASS
  1
ACDBPLACEHOLDER
  2
AcDbPlaceHolder
  3
ObjectDBX Classes
 90
        0
280
     0
281
     0
  0
CLASS
  1
LAYOUT
  2
AcDbLayout
  3
ObjectDBX Classes
 90
        0
280
     0
281
     0
  0
ENDSEC
  0
SECTION
  2
TABLES
  0
TABLE
  2
VPORT
  5
8
330
0
100
AcDbSymbolTable
 70
     1
  0
VPORT
  5
29
330
8
100
AcDbSymbolTableRecord
100
AcDbViewportTableRecord
  2
*Active
 70
     0
 10
0.0
 20
0.0
 11
1.0
 21
1.0
 12
148.5
 22
105.0
 13
0.0
 23
0.0
 14
10.0
 24
10.0
 15
10.0
 25
10.0
 16
0.0
 26
0.0
 36
1.0
 17
0.0
 27
0.0
 37
0.0
 40
210.0
 41
1.4142857143
 42
50.0
 43
0.0
 44
0.0
 50
0.0
 51
0.0
 71
     0
 72
  2000
 73
     1
 74
     3
 75
     0
 76
     0
 77
     0
 78
     0
281
     0
 65
     1
110
0.0
120
0.0
130
0.0
111
1.0
121
0.0
131
0.0
112
0.0
122
1.0
132
0.0
 79
     0
146
0.0
  0
ENDTAB
  0
TABLE
  2
LTYPE
  5
5
330
0
100
AcDbSymbolTable
 70
     6
  0
LTYPE
  5
14
330
5
100
AcDbSymbolTableRecord
100
AcDbLinetypeTableRecord
  2
ByBlock
 70
     0
  3

 72
    65
 73
     0
 40
0.0
  0
LTYPE
  5
15
330
5
100
AcDbSymbolTableRecord
100
AcDbLinetypeTableRecord
  2
ByLayer
 70
     0
  3

 72
    65
 73
     0
 40
0.0
  0
LTYPE
  5
16
330
5
100
AcDbSymbolTableRecord
100
AcDbLinetypeTableRecord
  2
Continuous
 70
     0
  3
Solid line
 72
    65
 73
     0
 40
0.0
  0
LTYPE
  5
3F
330
5
100
AcDbSymbolTableRecord
100
AcDbLinetypeTableRecord
  2
HIDDEN
 70
     0
  3
Hidden __ __ __ __ __ __ __ __ __ __ __ __ __ __
 72
    65
 73
     2
 40
1.905
 49
1.27
 74
     0
 49
-0.635
 74
     0
  0
LTYPE
  5
40
330
5
100
AcDbSymbolTableRecord
100
AcDbLinetypeTableRecord
  2
PHANTOM
 70
     0
  3
Phantom ______  __  __  ______  __  __  ______
 72
    65
 73
     6
 40
12.7
 49
6.35
 74
     0
 49
-1.27
 74
     0
 49
1.27
 74
     0
 49
-1.27
 74
     0
 49
1.27
 74
     0
 49
-1.27
 74
     0
  0
LTYPE
  5
41
330
5
100
AcDbSymbolTableRecord
100
AcDbLinetypeTableRecord
  2
CENTER
 70
     0
  3
Center ____ _ ____ _ ____ _ ____ _ ____ _ ____
 72
    65
 73
     4
 40
10.16
 49
6.35
 74
     0
 49
-1.27
 74
     0
 49
1.27
 74
     0
 49
-1.27
 74
     0
  0
LTYPE
  5
42
330
5
100
AcDbSymbolTableRecord
100
AcDbLinetypeTableRecord
  2
CENTERX2
 70
     0
  3
Center (2x) ________  __  ________  __  _____
 72
    65
 73
     4
 40
20.32
 49
12.7
 74
     0
 49
-2.54
 74
     0
 49
2.54
 74
     0
 49
-2.54
 74
     0
  0
LTYPE
  5
43
330
5
100
AcDbSymbolTableRecord
100
AcDbLinetypeTableRecord
  2
DOT2
 70
     0
  3
Dot (.5x) ........................................
 72
    65
 73
     2
 40
0.635
 49
0.0
 74
     0
 49
-0.635
 74
     0
  0
ENDTAB
  0
TABLE
  2
LAYER
  5
2
330
0
100
AcDbSymbolTable
 70
     5
  0
LAYER
  5
10
330
2
100
AcDbSymbolTableRecord
100
AcDbLayerTableRecord
  2
0
 70
     0
 62
     7
  6
Continuous
370
    -3
390
F
  0
LAYER
  5
44
330
2
100
AcDbSymbolTableRecord
100
AcDbLayerTableRecord
  2
FORMAT
 70
     0
 62
     7
  6
Continuous
370
    -3
390
F
  0
LAYER
  5
45
330
2
100
AcDbSymbolTableRecord
100
AcDbLayerTableRecord
  2
VERMASSUNG
 70
     0
 62
     7
  6
Continuous
370
    -3
390
F
  0
LAYER
  5
46
330
2
100
AcDbSymbolTableRecord
100
AcDbLayerTableRecord
  2
KOPF_DÜNN
 70
     0
 62
     7
  6
Continuous
370
    -3
390
F
  0
LAYER
  5
47
330
2
100
AcDbSymbolTableRecord
100
AcDbLayerTableRecord
  2
KOPF_DICK
 70
     0
 62
     7
  6
Continuous
370
    15
390
F
  0
ENDTAB
  0
TABLE
  2
STYLE
  5
3
330
0
100
AcDbSymbolTable
 70
     2
  0
STYLE
  5
11
330
3
100
AcDbSymbolTableRecord
100
AcDbTextStyleTableRecord
  2
Standard
 70
     0
 40
0.0
 41
1.0
 50
0.0
 71
     0
 42
2.0
  3
txt
  4

  0
STYLE
  5
48
330
3
100
AcDbSymbolTableRecord
100
AcDbTextStyleTableRecord
  2
SLDTEXTSTYLE0
 70
     0
 40
0.0
 41
0.7
 50
0.0
 71
     0
 42
0.2
  3
TXT
  4

  0
ENDTAB
  0
TABLE
  2
VIEW
  5
6
330
0
100
AcDbSymbolTable
 70
     0
  0
ENDTAB
  0
TABLE
  2
UCS
  5
7
330
0
100
AcDbSymbolTable
 70
     0
  0
ENDTAB
  0
TABLE
  2
APPID
  5
9
330
0
100
AcDbSymbolTable
 70
     1
  0
APPID
  5
12
330
9
100
AcDbSymbolTableRecord
100
AcDbRegAppTableRecord
  2
ACAD
 70
     0
  0
ENDTAB
  0
TABLE
  2
DIMSTYLE
  5
A
330
0
100
AcDbSymbolTable
 70
     4
100
AcDbDimStyleTable
  0
DIMSTYLE
105
27
330
A
100
AcDbSymbolTableRecord
100
AcDbDimStyleTableRecord
  2
ISO-25
 70
     0
 41
2.5
 42
0.625
 43
3.75
 44
1.25
 73
     0
 74
     0
 77
     1
 78
     8
140
2.5
141
2.5
143
0.0393700787
147
0.625
171
     3
172
     1
178
     0
271
     2
272
     2
274
     3
278
    44
283
     0
284
     8
340
11
  0
DIMSTYLE
105
178
102
{ACAD_REACTORS
330
177
330
18F
330
199
330
1A3
330
221
330
22B
330
235
102
}
330
A
100
AcDbSymbolTableRecord
100
AcDbDimStyleTableRecord
  2
SLDDIMSTYLE0
 70
     0
 41
3.0
 44
0.0
 45
0.000000001
 73
     0
 74
     0
 77
     1
 78
    12
 79
     3
140
2.0
147
0.5
173
     1
178
     0
271
     2
272
     3
276
     2
284
    12
340
48
  0
DIMSTYLE
105
183
102
{ACAD_REACTORS
330
182
102
}
330
A
100
AcDbSymbolTableRecord
100
AcDbDimStyleTableRecord
  2
SLDDIMSTYLE1
 70
     0
 41
3.0
 44
0.0
 45
0.000000001
 73
     0
 74
     0
 77
     1
 78
    12
 79
     3
140
2.0
147
0.5
172
     1
173
     1
178
     0
271
     2
272
     3
276
     2
284
    12
289
     0
340
48
  0
DIMSTYLE
105
26F
102
{ACAD_REACTORS
330
26E
102
}
330
A
100
AcDbSymbolTableRecord
100
AcDbDimStyleTableRecord
  2
SLDDIMSTYLE2
 70
     0
 41
3.0
 44
0.0
 45
0.000000001
 73
     0
 74
     0
 77
     1
 78
    12
 79
     3
140
2.0
141
0.0
147
0.5
173
     1
178
     0
271
     2
272
     3
276
     2
284
    12
340
48
  0
ENDTAB
  0
TABLE
  2
BLOCK_RECORD
  5
1
330
0
100
AcDbSymbolTable
 70
    11
  0
BLOCK_RECORD
  5
1F
330
1
100
AcDbSymbolTableRecord
100
AcDbBlockTableRecord
  2
*Model_Space
340
22
  0
BLOCK_RECORD
  5
1B
330
1
100
AcDbSymbolTableRecord
100
AcDbBlockTableRecord
  2
*Paper_Space
340
1E
  0
BLOCK_RECORD
  5
23
330
1
100
AcDbSymbolTableRecord
100
AcDbBlockTableRecord
  2
*Paper_Space0
340
26
  0
BLOCK_RECORD
  5
179
330
1
100
AcDbSymbolTableRecord
100
AcDbBlockTableRecord
  2
_D
340
0
  0
BLOCK_RECORD
  5
184
330
1
100
AcDbSymbolTableRecord
100
AcDbBlockTableRecord
  2
_D_1
340
0
  0
BLOCK_RECORD
  5
190
330
1
100
AcDbSymbolTableRecord
100
AcDbBlockTableRecord
  2
_D_2
340
0
  0
BLOCK_RECORD
  5
19A
330
1
100
AcDbSymbolTableRecord
100
AcDbBlockTableRecord
  2
_D_3
340
0
  0
BLOCK_RECORD
  5
1A4
330
1
100
AcDbSymbolTableRecord
100
AcDbBlockTableRecord
  2
_D_4
340
0
  0
BLOCK_RECORD
  5
222
330
1
100
AcDbSymbolTableRecord
100
AcDbBlockTableRecord
  2
_D_5
340
0
  0
BLOCK_RECORD
  5
22C
330
1
100
AcDbSymbolTableRecord
100
AcDbBlockTableRecord
  2
_D_6
340
0
  0
BLOCK_RECORD
  5
236
330
1
100
AcDbSymbolTableRecord
100
AcDbBlockTableRecord
  2
_D_7
340
0
  0
BLOCK_RECORD
  5
270
330
1
100
AcDbSymbolTableRecord
100
AcDbBlockTableRecord
  2
_D_8
340
0
  0
BLOCK_RECORD
  5
277
330
1
100
AcDbSymbolTableRecord
100
AcDbBlockTableRecord
  2
SW_CENTERMARKSYMBOL_0
340
0
102
{BLKREFS
331
282
102
}
  0
ENDTAB
  0
ENDSEC
  0
SECTION
  2
BLOCKS
  0
BLOCK
  5
20
330
1F
100
AcDbEntity
  8
0
100
AcDbBlockBegin
  2
*Model_Space
 70
     0
 10
0.0
 20
0.0
 30
0.0
  3
*Model_Space
  1

  0
ENDBLK
  5
21
330
1F
100
AcDbEntity
  8
0
100
AcDbBlockEnd
  0
BLOCK
  5
1C
330
1B
100
AcDbEntity
 67
     1
  8
0
100
AcDbBlockBegin
  2
*Paper_Space
 70
     0
 10
0.0
 20
0.0
 30
0.0
  3
*Paper_Space
  1

  0
ENDBLK
  5
1D
330
1B
100
AcDbEntity
 67
     1
  8
0
100
AcDbBlockEnd
  0
BLOCK
  5
24
330
23
100
AcDbEntity
  8
0
100
AcDbBlockBegin
  2
*Paper_Space0
 70
     0
 10
0.0
 20
0.0
 30
0.0
  3
*Paper_Space0
  1

  0
ENDBLK
  5
25
330
23
100
AcDbEntity
  8
0
100
AcDbBlockEnd
  0
BLOCK
  5
17A
330
179
100
AcDbEntity
  8
0
100
AcDbBlockBegin
  2
_D
 70
     0
 10
0.0
 20
0.0
 30
0.0
  3
_D
  1

  0
SOLID
  5
17C
330
179
100
AcDbEntity
  8
VERMASSUNG
100
AcDbTrace
 10
243.6430344882
 20
172.8655868646
 30
0.0
 11
243.1930344882
 21
169.8655868646
 31
0.0
 12
244.0930344882
 22
169.8655868646
 32
0.0
 13
244.0930344882
 23
169.8655868646
 33
0.0
  0
SOLID
  5
17D
330
179
100
AcDbEntity
  8
VERMASSUNG
100
AcDbTrace
 10
243.6430344882
 20
152.8655868646
 30
0.0
 11
244.0930344882
 21
155.8655868646
 31
0.0
 12
243.1930344882
 22
155.8655868646
 32
0.0
 13
243.1930344882
 23
155.8655868646
 33
0.0
  0
LINE
  5
17E
330
179
100
AcDbEntity
  8
VERMASSUNG
100
AcDbLine
 10
234.857407481
 20
172.8655868646
 30
0.0
 11
244.6430344882
 21
172.8655868646
 31
0.0
  0
LINE
  5
17F
330
179
100
AcDbEntity
  8
VERMASSUNG
100
AcDbLine
 10
233.3400430893
 20
152.8655868646
 30
0.0
 11
244.6430344882
 21
152.8655868646
 31
0.0
  0
LINE
  5
180
330
179
100
AcDbEntity
  8
VERMASSUNG
100
AcDbLine
 10
243.6430344882
 20
172.8655868646
 30
0.0
 11
243.6430344882
 21
152.8655868646
 31
0.0
  0
MTEXT
  5
181
330
179
100
AcDbEntity
  8
VERMASSUNG
100
AcDbMText
 10
241.0648991251
 20
160.5655868135
 30
0.1
 40
2.0
 41
0.0
 71
     1
 72
     1
  1
20
  7
SLDTEXTSTYLE0
 11
-7.044195017643634E-15
 21
1.0
 31
0.0
 73
     1
 44
1.0
  0
ENDBLK
  5
17B
330
179
100
AcDbEntity
  8
0
100
AcDbBlockEnd
  0
BLOCK
  5
185
330
184
100
AcDbEntity
  8
0
100
AcDbBlockBegin
  2
_D_1
 70
     0
 10
0.0
 20
0.0
 30
0.0
  3
_D_1
  1

  0
SOLID
  5
187
330
184
100
AcDbEntity
  8
VERMASSUNG
100
AcDbTrace
 10
243.765144633
 20
172.8655868646
 30
0.0
 11
243.315144633
 21
169.8655868646
 31
0.0
 12
244.215144633
 22
169.8655868646
 32
0.0
 13
244.215144633
 23
169.8655868646
 33
0.0
  0
SOLID
  5
188
330
184
100
AcDbEntity
  8
VERMASSUNG
100
AcDbTrace
 10
243.765144633
 20
173.8655868646
 30
0.0
 11
244.215144633
 21
176.8655868646
 31
0.0
 12
243.315144633
 22
176.8655868646
 32
0.0
 13
243.315144633
 23
176.8655868646
 33
0.0
  0
LINE
  5
189
330
184
100
AcDbEntity
  8
VERMASSUNG
100
AcDbLine
 10
234.857407481
 20
172.8655868646
 30
0.0
 11
244.765144633
 21
172.8655868646
 31
0.0
  0
LINE
  5
18A
330
184
100
AcDbEntity
  8
VERMASSUNG
100
AcDbLine
 10
233.3400430893
 20
173.8655868646
 30
0.0
 11
244.765144633
 21
173.8655868646
 31
0.0
  0
LINE
  5
18B
330
184
100
AcDbEntity
  8
VERMASSUNG
100
AcDbLine
 10
243.765144633
 20
172.8655868646
 30
0.0
 11
243.765144633
 21
166.8655868646
 31
0.0
  0
LINE
  5
18C
330
184
100
AcDbEntity
  8
VERMASSUNG
100
AcDbLine
 10
243.765144633
 20
172.8655868646
 30
0.0
 11
243.765144633
 21
173.8655868646
 31
0.0
  0
LINE
  5
18D
330
184
100
AcDbEntity
  8
VERMASSUNG
100
AcDbLine
 10
243.765144633
 20
173.8655868646
 30
0.0
 11
243.765144633
 21
183.1428868474
 31
0.0
  0
MTEXT
  5
18E
330
184
100
AcDbEntity
  8
VERMASSUNG
100
AcDbMText
 10
241.1870092699
 20
180.3428867144
 30
0.1
 40
2.0
 41
0.0
 71
     1
 72
     1
  1
1
  7
SLDTEXTSTYLE0
 11
6.123233995736766E-17
 21
1.0
 31
0.0
 73
     1
 44
1.0
  0
ENDBLK
  5
186
330
184
100
AcDbEntity
  8
0
100
AcDbBlockEnd
  0
BLOCK
  5
191
330
190
100
AcDbEntity
  8
0
100
AcDbBlockBegin
  2
_D_2
 70
     0
 10
0.0
 20
0.0
 30
0.0
  3
_D_2
  1

  0
SOLID
  5
193
330
190
100
AcDbEntity
  8
VERMASSUNG
100
AcDbTrace
 10
251.9743938027
 20
172.8655868646
 30
0.0
 11
252.4243938027
 21
175.8655868646
 31
0.0
 12
251.5243938027
 22
175.8655868646
 32
0.0
 13
251.5243938027
 23
175.8655868646
 33
0.0
  0
SOLID
  5
194
330
190
100
AcDbEntity
  8
VERMASSUNG
100
AcDbTrace
 10
251.9743938027
 20
193.8655868646
 30
0.0
 11
251.5243938027
 21
190.8655868646
 31
0.0
 12
252.4243938027
 22
190.8655868646
 32
0.0
 13
252.4243938027
 23
190.8655868646
 33
0.0
  0
LINE
  5
195
330
190
100
AcDbEntity
  8
VERMASSUNG
100
AcDbLine
 10
234.857407481
 20
172.8655868646
 30
0.0
 11
252.9743938027
 21
172.8655868646
 31
0.0
  0
LINE
  5
196
330
190
100
AcDbEntity
  8
VERMASSUNG
100
AcDbLine
 10
232.3400430893
 20
193.8655868646
 30
0.0
 11
252.9743938027
 21
193.8655868646
 31
0.0
  0
LINE
  5
197
330
190
100
AcDbEntity
  8
VERMASSUNG
100
AcDbLine
 10
251.9743938027
 20
172.8655868646
 30
0.0
 11
251.9743938027
 21
193.8655868646
 31
0.0
  0
MTEXT
  5
198
330
190
100
AcDbEntity
  8
VERMASSUNG
100
AcDbMText
 10
249.3962584396
 20
181.2655867066
 30
0.1
 40
2.0
 41
0.0
 71
     1
 72
     1
  1
21
  7
SLDTEXTSTYLE0
 11
6.123233995736766E-17
 21
1.0
 31
0.0
 73
     1
 44
1.0
  0
ENDBLK
  5
192
330
190
100
AcDbEntity
  8
0
100
AcDbBlockEnd
  0
BLOCK
  5
19B
330
19A
100
AcDbEntity
  8
0
100
AcDbBlockBegin
  2
_D_3
 70
     0
 10
0.0
 20
0.0
 30
0.0
  3
_D_3
  1

  0
SOLID
  5
19D
330
19A
100
AcDbEntity
  8
VERMASSUNG
100
AcDbTrace
 10
251.9743938027
 20
137.8655868646
 30
0.0
 11
252.4243938027
 21
140.8655868646
 31
0.0
 12
251.5243938027
 22
140.8655868646
 32
0.0
 13
251.5243938027
 23
140.8655868646
 33
0.0
  0
SOLID
  5
19E
330
19A
100
AcDbEntity
  8
VERMASSUNG
100
AcDbTrace
 10
251.9743938027
 20
172.8655868646
 30
0.0
 11
251.5243938027
 21
169.8655868646
 31
0.0
 12
252.4243938027
 22
169.8655868646
 32
0.0
 13
252.4243938027
 23
169.8655868646
 33
0.0
  0
LINE
  5
19F
330
19A
100
AcDbEntity
  8
VERMASSUNG
100
AcDbLine
 10
233.3400430893
 20
137.8655868646
 30
0.0
 11
252.9743938027
 21
137.8655868646
 31
0.0
  0
LINE
  5
1A0
330
19A
100
AcDbEntity
  8
VERMASSUNG
100
AcDbLine
 10
234.857407481
 20
172.8655868646
 30
0.0
 11
252.9743938027
 21
172.8655868646
 31
0.0
  0
LINE
  5
1A1
330
19A
100
AcDbEntity
  8
VERMASSUNG
100
AcDbLine
 10
251.9743938027
 20
137.8655868646
 30
0.0
 11
251.9743938027
 21
172.8655868646
 31
0.0
  0
MTEXT
  5
1A2
330
19A
100
AcDbEntity
  8
VERMASSUNG
100
AcDbMText
 10
249.3962584396
 20
153.0655868135
 30
0.1
 40
2.0
 41
0.0
 71
     1
 72
     1
  1
35
  7
SLDTEXTSTYLE0
 11
6.123233995736766E-17
 21
1.0
 31
0.0
 73
     1
 44
1.0
  0
ENDBLK
  5
19C
330
19A
100
AcDbEntity
  8
0
100
AcDbBlockEnd
  0
BLOCK
  5
1A5
330
1A4
100
AcDbEntity
  8
0
100
AcDbBlockBegin
  2
_D_4
 70
     0
 10
0.0
 20
0.0
 30
0.0
  3
_D_4
  1

  0
SOLID
  5
1A7
330
1A4
100
AcDbEntity
  8
VERMASSUNG
100
AcDbTrace
 10
146.7990489091
 20
192.8655868646
 30
0.0
 11
146.3490489091
 21
189.8655868646
 31
0.0
 12
147.2490489091
 22
189.8655868646
 32
0.0
 13
147.2490489091
 23
189.8655868646
 33
0.0
  0
SOLID
  5
1A8
330
1A4
100
AcDbEntity
  8
VERMASSUNG
100
AcDbTrace
 10
146.7990489091
 20
152.8655868646
 30
0.0
 11
147.2490489091
 21
155.8655868646
 31
0.0
 12
146.3490489091
 22
155.8655868646
 32
0.0
 13
146.3490489091
 23
155.8655868646
 33
0.0
  0
LINE
  5
1A9
330
1A4
100
AcDbEntity
  8
VERMASSUNG
100
AcDbLine
 10
178.6400430893
 20
192.8655868646
 30
0.0
 11
145.7990489091
 21
192.8655868646
 31
0.0
  0
LINE
  5
1AA
330
1A4
100
AcDbEntity
  8
VERMASSUNG
100
AcDbLine
 10
178.6400430893
 20
152.8655868646
 30
0.0
 11
145.7990489091
 21
152.8655868646
 31
0.0
  0
LINE
  5
1AB
330
1A4
100
AcDbEntity
  8
VERMASSUNG
100
AcDbLine
 10
146.7990489091
 20
192.8655868646
 30
0.0
 11
146.7990489091
 21
152.8655868646
 31
0.0
  0
MTEXT
  5
1AC
330
1A4
100
AcDbEntity
  8
VERMASSUNG
100
AcDbMText
 10
144.02091342
 20
166.3605869252
 30
0.1
 40
2.0
 41
0.0
 71
     1
 72
     1
  1
PSC
  7
SLDTEXTSTYLE0
 11
-7.044195017643634E-15
 21
1.0
 31
0.0
 73
     1
 44
1.0
  0
MTEXT
  5
1AD
330
1A4
100
AcDbEntity
  8
VERMASSUNG
100
AcDbMText
 10
144.2209134295
 20
170.9605870273
 30
0.1
 40
2.0
 41
0.0
 71
     1
 72
     1
  1
%%c
  7
SLDTEXTSTYLE0
 11
-7.044195017643634E-15
 21
1.0
 31
0.0
 73
     1
 44
1.0
  0
MTEXT
  5
1AE
330
1A4
100
AcDbEntity
  8
VERMASSUNG
100
AcDbMText
 10
144.02091342
 20
174.5705875073
 30
0.1
 40
2.0
 41
0.0
 71
     1
 72
     1
  1
40
  7
SLDTEXTSTYLE0
 11
-7.044195017643634E-15
 21
1.0
 31
0.0
 73
     1
 44
1.0
  0
ENDBLK
  5
1A6
330
1A4
100
AcDbEntity
  8
0
100
AcDbBlockEnd
  0
BLOCK
  5
223
330
222
100
AcDbEntity
  8
0
100
AcDbBlockBegin
  2
_D_5
 70
     0
 10
0.0
 20
0.0
 30
0.0
  3
_D_5
  1

  0
SOLID
  5
225
330
222
100
AcDbEntity
  8
VERMASSUNG
100
AcDbTrace
 10
244.9753728889
 20
118.4477816749
 30
0.0
 11
244.5253728889
 21
115.4477816749
 31
0.0
 12
245.4253728889
 22
115.4477816749
 32
0.0
 13
245.4253728889
 23
115.4477816749
 33
0.0
  0
SOLID
  5
226
330
222
100
AcDbEntity
  8
VERMASSUNG
100
AcDbTrace
 10
244.9753728889
 20
58.4477816749
 30
0.0
 11
245.4253728889
 21
61.4477816749
 31
0.0
 12
244.5253728889
 22
61.4477816749
 32
0.0
 13
244.5253728889
 23
61.4477816749
 33
0.0
  0
LINE
  5
227
330
222
100
AcDbEntity
  8
VERMASSUNG
100
AcDbLine
 10
232.3400430893
 20
118.4477816749
 30
0.0
 11
245.9753728889
 21
118.4477816749
 31
0.0
  0
LINE
  5
228
330
222
100
AcDbEntity
  8
VERMASSUNG
100
AcDbLine
 10
232.3400430893
 20
58.4477816749
 30
0.0
 11
245.9753728889
 21
58.4477816749
 31
0.0
  0
LINE
  5
229
330
222
100
AcDbEntity
  8
VERMASSUNG
100
AcDbLine
 10
244.9753728889
 20
118.4477816749
 30
0.0
 11
244.9753728889
 21
58.4477816749
 31
0.0
  0
MTEXT
  5
22A
330
222
100
AcDbEntity
  8
VERMASSUNG
100
AcDbMText
 10
242.3972375257
 20
86.1477816238
 30
7.1
 40
2.0
 41
0.0
 71
     1
 72
     1
  1
60
  7
SLDTEXTSTYLE0
 11
-7.044195017643634E-15
 21
1.0
 31
0.0
 73
     1
 44
1.0
  0
ENDBLK
  5
224
330
222
100
AcDbEntity
  8
0
100
AcDbBlockEnd
  0
BLOCK
  5
22D
330
22C
100
AcDbEntity
  8
0
100
AcDbBlockBegin
  2
_D_6
 70
     0
 10
0.0
 20
0.0
 30
0.0
  3
_D_6
  1

  0
SOLID
  5
22F
330
22C
100
AcDbEntity
  8
VERMASSUNG
100
AcDbTrace
 10
178.3400430893
 20
45.9565938553
 30
0.0
 11
181.3400430893
 21
45.5065938553
 31
0.0
 12
181.3400430893
 22
46.4065938553
 32
0.0
 13
181.3400430893
 23
46.4065938553
 33
0.0
  0
SOLID
  5
230
330
22C
100
AcDbEntity
  8
VERMASSUNG
100
AcDbTrace
 10
233.3400430893
 20
45.9565938553
 30
0.0
 11
230.3400430893
 21
46.4065938553
 31
0.0
 12
230.3400430893
 22
45.5065938553
 32
0.0
 13
230.3400430893
 23
45.5065938553
 33
0.0
  0
LINE
  5
231
330
22C
100
AcDbEntity
  8
VERMASSUNG
100
AcDbLine
 10
178.3400430893
 20
68.7477816749
 30
0.0
 11
178.3400430893
 21
44.9565938553
 31
0.0
  0
LINE
  5
232
330
22C
100
AcDbEntity
  8
VERMASSUNG
100
AcDbLine
 10
233.3400430893
 20
59.4477816749
 30
0.0
 11
233.3400430893
 21
44.9565938553
 31
0.0
  0
LINE
  5
233
330
22C
100
AcDbEntity
  8
VERMASSUNG
100
AcDbLine
 10
178.3400430893
 20
45.9565938553
 30
0.0
 11
233.3400430893
 21
45.9565938553
 31
0.0
  0
MTEXT
  5
234
330
22C
100
AcDbEntity
  8
VERMASSUNG
100
AcDbMText
 10
203.5400430383
 20
48.5347292184
 30
7.1
 40
2.0
 41
0.0
 71
     1
 72
     1
  1
55
  7
SLDTEXTSTYLE0
 73
     1
 44
1.0
  0
ENDBLK
  5
22E
330
22C
100
AcDbEntity
  8
0
100
AcDbBlockEnd
  0
BLOCK
  5
237
330
236
100
AcDbEntity
  8
0
100
AcDbBlockBegin
  2
_D_7
 70
     0
 10
0.0
 20
0.0
 30
0.0
  3
_D_7
  1

  0
SOLID
  5
239
330
236
100
AcDbEntity
  8
VERMASSUNG
100
AcDbTrace
 10
154.3400430893
 20
39.9565938553
 30
0.0
 11
157.3400430893
 21
39.5065938553
 31
0.0
 12
157.3400430893
 22
40.4065938553
 32
0.0
 13
157.3400430893
 23
40.4065938553
 33
0.0
  0
SOLID
  5
23A
330
236
100
AcDbEntity
  8
VERMASSUNG
100
AcDbTrace
 10
233.3400430893
 20
39.9565938553
 30
0.0
 11
230.3400430893
 21
40.4065938553
 31
0.0
 12
230.3400430893
 22
39.5065938553
 32
0.0
 13
230.3400430893
 23
39.5065938553
 33
0.0
  0
LINE
  5
23B
330
236
100
AcDbEntity
  8
VERMASSUNG
100
AcDbLine
 10
154.3400430893
 20
75.8162766928
 30
0.0
 11
154.3400430893
 21
38.9565938553
 31
0.0
  0
LINE
  5
23C
330
236
100
AcDbEntity
  8
VERMASSUNG
100
AcDbLine
 10
233.3400430893
 20
59.4477816749
 30
0.0
 11
233.3400430893
 21
38.9565938553
 31
0.0
  0
LINE
  5
23D
330
236
100
AcDbEntity
  8
VERMASSUNG
100
AcDbLine
 10
154.3400430893
 20
39.9565938553
 30
0.0
 11
233.3400430893
 21
39.9565938553
 31
0.0
  0
MTEXT
  5
23E
330
236
100
AcDbEntity
  8
VERMASSUNG
100
AcDbMText
 10
191.5400430383
 20
42.5347292184
 30
7.1
 40
2.0
 41
0.0
 71
     1
 72
     1
  1
79
  7
SLDTEXTSTYLE0
 73
     1
 44
1.0
  0
ENDBLK
  5
238
330
236
100
AcDbEntity
  8
0
100
AcDbBlockEnd
  0
BLOCK
  5
271
330
270
100
AcDbEntity
  8
0
100
AcDbBlockBegin
  2
_D_8
 70
     0
 10
0.0
 20
0.0
 30
0.0
  3
_D_8
  1

  0
SOLID
  5
273
330
270
100
AcDbEntity
  8
VERMASSUNG
100
AcDbTrace
 10
111.9476861897
 20
113.3803176507
 30
0.0
 11
114.574093598
 21
114.8983703921
 31
0.0
 12
114.0131115385
 22
115.6021453056
 32
0.0
 13
114.0131115385
 23
115.6021453056
 33
0.0
  0
LINE
  5
274
330
270
100
AcDbEntity
  8
VERMASSUNG
100
AcDbLine
 10
111.9476861897
 20
113.3803176507
 30
0.0
 11
119.8938789102
 21
119.7142625971
 31
0.0
  0
LINE
  5
275
330
270
100
AcDbEntity
  8
VERMASSUNG
100
AcDbLine
 10
111.9476861897
 20
113.3803176507
 30
0.0
 11
80.6688011422
 21
88.4477816749
 31
0.0
  0
MTEXT
  5
276
330
270
100
AcDbEntity
  8
VERMASSUNG
100
AcDbMText
 10
113.2832372613
 20
117.7398741121
 30
-15.4
 40
2.0
 41
0.0
 71
     1
 72
     1
  1
R40
  7
SLDTEXTSTYLE0
 11
0.7819721261877451
 21
0.6233133993950533
 31
0.0
 73
     1
 44
1.0
  0
ENDBLK
  5
272
330
270
100
AcDbEntity
  8
0
100
AcDbBlockEnd
  0
BLOCK
  5
278
330
277
100
AcDbEntity
  8
0
100
AcDbBlockBegin
  2
SW_CENTERMARKSYMBOL_0
 70
     0
 10
0.0
 20
0.0
 30
0.0
  3
SW_CENTERMARKSYMBOL_0
  1

  0
LINE
  5
27A
330
277
100
AcDbEntity
  8
VERMASSUNG
 62
     0
100
AcDbLine
 10
0.0
 20
0.0
 30
0.0
 11
0.0
 21
2.5
 31
0.0
  0
LINE
  5
27B
330
277
100
AcDbEntity
  8
VERMASSUNG
 62
     0
100
AcDbLine
 10
0.0
 20
0.0
 30
0.0
 11
-2.5
 21
0.0
 31
0.0
  0
LINE
  5
27C
330
277
100
AcDbEntity
  8
VERMASSUNG
 62
     0
100
AcDbLine
 10
0.0
 20
0.0
 30
0.0
 11
0.0
 21
-2.5
 31
0.0
  0
LINE
  5
27D
330
277
100
AcDbEntity
  8
VERMASSUNG
 62
     0
100
AcDbLine
 10
0.0
 20
0.0
 30
0.0
 11
2.5
 21
0.0
 31
0.0
  0
LINE
  5
27E
330
277
100
AcDbEntity
  8
VERMASSUNG
 62
     0
100
AcDbLine
 10
0.0
 20
5.0
 30
0.0
 11
0.0
 21
42.5
 31
0.0
  0
LINE
  5
27F
330
277
100
AcDbEntity
  8
VERMASSUNG
 62
     0
100
AcDbLine
 10
-5.0
 20
0.0
 30
0.0
 11
-42.5
 21
0.0
 31
0.0
  0
LINE
  5
280
330
277
100
AcDbEntity
  8
VERMASSUNG
 62
     0
100
AcDbLine
 10
0.0
 20
-5.0
 30
0.0
 11
0.0
 21
-42.5
 31
0.0
  0
LINE
  5
281
330
277
100
AcDbEntity
  8
VERMASSUNG
 62
     0
100
AcDbLine
 10
5.0
 20
0.0
 30
0.0
 11
42.5
 21
0.0
 31
0.0
  0
ENDBLK
  5
279
330
277
100
AcDbEntity
  8
0
100
AcDbBlockEnd
  0
ENDSEC
  0
SECTION
  2
ENTITIES
  0
MTEXT
  5
49
330
1F
100
AcDbEntity
  8
KOPF_DÜNN
100
AcDbMText
 10
13.8892156294
 20
23.8442973028
 30
0.0
 40
3.0
 41
0.0
 71
     1
 72
     1
  1
PS4.V20.N11.055
  7
SLDTEXTSTYLE0
 73
     1
 44
1.0
  0
MTEXT
  5
4A
330
1F
100
AcDbEntity
  8
VERMASSUNG
100
AcDbMText
 10
13.9329988022
 20
28.8834360957
 30
0.0
 40
3.0
 41
0.0
 71
     1
 72
     1
  1
Werkzeughalter radial / Tool holder radial
  7
SLDTEXTSTYLE0
 73
     1
 44
1.0
  0
MTEXT
  5
4B
330
1F
100
AcDbEntity
  8
VERMASSUNG
100
AcDbMText
 10
98.8601118557
 20
13.8365368179
 30
0.0
 40
2.0
 41
0.0
 71
     1
 72
     1
  1
Datum: 08.05.2012
  7
SLDTEXTSTYLE0
 73
     1
 44
1.0
  0
MTEXT
  5
4C
330
1F
100
AcDbEntity
  8
VERMASSUNG
100
AcDbMText
 10
13.933048693
 20
18.0482802738
 30
0.0
 40
2.0
 41
0.0
 71
     1
 72
     1
  1
PSC ø40 / 20x20
  7
SLDTEXTSTYLE0
 73
     1
 44
1.0
  0
MTEXT
  5
4D
330
1F
100
AcDbEntity
  8
VERMASSUNG
100
AcDbMText
 10
13.9808475933
 20
13.9090973692
 30
0.0
 40
2.0
 41
0.0
 71
     1
 72
     1
  1
Gewicht: 913g
  7
SLDTEXTSTYLE0
 73
     1
 44
1.0
  0
LINE
  5
4E
330
1F
100
AcDbEntity
  8
0
  6
Continuous
 62
     7
370
    15
100
AcDbLine
 10
199.3438629268
 20
193.8655868646
 30
0.0
 11
199.3362377874
 21
193.7784311218
 31
0.0
  0
LINE
  5
4F
330
1F
100
AcDbEntity
  8
0
  6
Continuous
 62
     7
370
    15
100
AcDbLine
 10
199.3362377874
 20
151.9527426073
 30
0.0
 11
200.5687042162
 21
137.8655868646
 31
0.0
  0
ARC
  5
50
330
1F
100
AcDbEntity
  8
0
  6
Continuous
 62
     7
370
    15
100
AcDbCircle
 10
198.3400430893
 20
151.8655868646
 30
0.0
 40
1.000000000000028
100
AcDbArc
 50
5.0
 51
90.0
  0
ARC
  5
51
330
1F
100
AcDbEntity
  8
0
  6
Continuous
 62
     7
370
    15
100
AcDbCircle
 10
198.3400430893
 20
193.8655868646
 30
0.0
 40
1.000000000000008
100
AcDbArc
 50
270.0
 51
355.0
  0
LINE
  5
52
330
1F
100
AcDbEntity
  8
0
  6
Continuous
 62
     7
370
    15
100
AcDbLine
 10
192.3339128598
 20
152.8655868646
 30
0.0
 11
198.3400430893
 21
152.8655868646
 31
0.0
  0
LINE
  5
53
330
1F
100
AcDbEntity
  8
0
  6
Continuous
 62
     7
370
    15
100
AcDbLine
 10
178.6400430893
 20
152.8655868646
 30
0.0
 11
188.3400430893
 21
152.8655868646
 31
0.0
  0
LINE
  5
54
330
1F
100
AcDbEntity
  8
0
  6
Continuous
 62
     7
370
    15
100
AcDbLine
 10
198.3400430893
 20
192.8655868646
 30
0.0
 11
178.6400430893
 21
192.8655868646
 31
0.0
  0
ARC
  5
55
330
1F
100
AcDbEntity
  8
0
  6
Continuous
 62
     7
370
    15
100
AcDbCircle
 10
178.6400430893
 20
153.1655868646
 30
0.0
 40
0.3000000000000114
100
AcDbArc
 50
180.0
 51
270.0
  0
ARC
  5
56
330
1F
100
AcDbEntity
  8
0
  6
Continuous
 62
     7
370
    15
100
AcDbCircle
 10
178.6400430893
 20
192.5655868646
 30
0.0
 40
0.3000000000000114
100
AcDbArc
 50
90.0
 51
180.0
  0
LWPOLYLINE
  5
57
330
1F
100
AcDbEntity
  8
0
  6
Continuous
 62
     7
370
    15
100
AcDbPolyline
 90
        3
 70
   128
 43
0.0
 10
178.1400430893
 20
158.7757665857
 10
178.2654980328
 20
158.7074644708
 10
178.3400430893
 20
158.6547267126
  0
ARC
  5
58
330
1F
100
AcDbEntity
  8
0
  6
Continuous
 62
     7
370
    15
100
AcDbCircle
 10
177.7258295269
 20
187.8655868646
 30
0.0
 40
1.000000000000008
100
AcDbArc
 50
225.0
 51
307.8947985336
  0
LINE
  5
59
330
1F
100
AcDbEntity
  8
0
  6
Continuous
 62
     7
370
    15
100
AcDbLine
 10
169.5328044361
 20
159.9240466532
 30
0.0
 11
176.6400430893
 21
159.74548808
 31
0.0
  0
LINE
  5
5A
330
1F
100
AcDbEntity
  8
0
  6
Continuous
 62
     7
370
    15
100
AcDbLine
 10
160.2461998152
 20
160.1573584852
 30
0.0
 11
164.2732485086
 21
160.0561850051
 31
0.0
  0
ARC
  5
5B
330
1F
100
AcDbEntity
  8
0
  6
Continuous
 62
     7
370
    15
100
AcDbCircle
 10
176.8399800002
 20
159.7404649689
 30
0.0
 40
0.200000000000035
100
AcDbArc
 50
88.5608333333
 51
178.5608333333
  0
LINE
  5
5C
330
1F
100
AcDbEntity
  8
0
  6
Continuous
 62
     7
370
    15
100
AcDbLine
 10
176.8450031114
 20
159.9404018798
 30
0.0
 11
177.9450662004
 21
159.912764466
 31
0.0
  0
ARC
  5
5D
330
1F
100
AcDbEntity
  8
0
  6
Continuous
 62
     7
370
    15
100
AcDbCircle
 10
177.9400430893
 20
159.7128275551
 30
0.0
 40
0.2000000000000171
100
AcDbArc
 50
0.0
 51
88.5608333333
  0
LINE
  5
5E
330
1F
100
AcDbEntity
  8
0
  6
Continuous
 62
     7
370
    15
100
AcDbLine
 10
176.3993124442
 20
187.7796376574
 30
0.0
 11
155.8400430893
 21
187.2631172504
 31
0.0
  0
LINE
  5
5F
330
1F
100
AcDbEntity
  8
0
  6
Continuous
 62
     7
370
    15
100
AcDbLine
 10
155.8400430893
 20
187.2631172504
 30
0.0
 11
154.3400430893
 21
186.3970918466
 31
0.0
  0
LINE
  5
60
330
1F
100
AcDbEntity
  8
0
  6
Continuous
 62
     7
370
    15
100
AcDbLine
 10
177.0187227457
 20
187.1584800834
 30
0.0
 11
176.4005471183
 21
187.7766557108
 31
0.0
  0
LINE
  5
61
330
1F
100
AcDbEntity
  8
0
  6
Continuous
 62
     7
370
    15
100
AcDbLine
 10
218.8400430893
 20
173.8655868646
 30
0.0
 11
219.8400430893
 21
172.8655868646
 31
0.0
  0
LINE
  5
62
330
1F
100
AcDbEntity
  8
0
  6
Continuous
 62
     7
370
    15
100
AcDbLine
 10
226.8400430893
 20
172.8655868646
 30
0.0
 11
227.8400430893
 21
173.8655868646
 31
0.0
  0
SPLINE
  5
63
330
1F
100
AcDbEntity
  8
0
  6
Continuous
 62
     7
370
    15
100
AcDbSpline
210
0.0
220
0.0
230
1.0
 70
     8
 71
     3
 72
    14
 73
    10
 74
     0
 42
0.00000001
 43
0.00000001
 12
1.0
 22
0.0
 32
0.0
 13
1.0
 23
0.0
 33
0.0
 40
0.0
 40
0.0
 40
0.0
 40
0.0
 40
0.25
 40
0.25
 40
0.5
 40
0.5
 40
0.75
 40
0.75
 40
1.0
 40
1.0
 40
1.0
 40
1.0
 10
200.9262840097515
 20
147.8095348200584
 30
0.0
 10
200.9350025383865
 20
147.6540769035896
 30
0.0
 10
200.9589946578699
 20
147.4974397193087
 30
0.0
 10
201.0402128835222
 20
147.1970379692258
 30
0.0
 10
201.0982542605715
 20
147.0494796982741
 30
0.0
 10
201.2563860364606
 20
146.7794030957756
 30
0.0
 10
201.357840795315
 20
146.6548703018713
 30
0.0
 10
201.6094320826393
 20
146.4684934297143
 30
0.0
 10
201.7636548544571
 20
146.4080737539348
 30
0.0
 10
201.9224787078433
 20
146.4080737539348
 30
0.0
  0
SPLINE
  5
64
330
1F
100
AcDbEntity
  8
0
  6
Continuous
 62
     7
370
    15
100
AcDbSpline
210
0.0
220
0.0
230
1.0
 70
     8
 71
     3
 72
    12
 73
     8
 74
     0
 42
0.00000001
 43
0.00000001
 12
1.0
 22
0.0
 32
0.0
 13
1.0
 23
0.0
 33
0.0
 40
0.0
 40
0.0
 40
0.0
 40
0.0
 40
0.5
 40
0.5
 40
0.75
 40
0.75
 40
1.0
 40
1.0
 40
1.0
 40
1.0
 10
200.9262840097516
 20
147.8095348200584
 30
0.0
 10
200.50543129542
 20
155.3136549358196
 30
0.0
 10
200.1959731161262
 20
162.8195051636324
 30
0.0
 10
200.1129495352772
 20
174.0842005075332
 30
0.0
 10
200.148316028581
 20
177.8400780702193
 30
0.0
 10
200.3320095073187
 20
185.3535876291346
 30
0.0
 10
200.4788718939012
 20
189.1116655371304
 30
0.0
 10
200.6610496164343
 20
192.8655868645807
 30
0.0
  0
LINE
  5
65
330
1F
100
AcDbEntity
  8
0
  6
Continuous
 62
     7
370
    15
100
AcDbLine
 10
232.3400430893
 20
192.8655868646
 30
0.0
 11
200.6610496164
 21
192.8655868646
 31
0.0
  0
LINE
  5
66
330
1F
100
AcDbEntity
  8
0
  6
Continuous
 62
     7
370
    15
100
AcDbLine
 10
232.3400430893
 20
173.8655868646
 30
0.0
 11
232.3400430893
 21
192.8655868646
 31
0.0
  0
LINE
  5
67
330
1F
100
AcDbEntity
  8
0
  6
Continuous
 62
     7
370
    15
100
AcDbLine
 10
213.3400430893
 20
173.8655868646
 30
0.0
 11
232.3400430893
 21
173.8655868646
 31
0.0
  0
LINE
  5
68
330
1F
100
AcDbEntity
  8
0
  6
Continuous
 62
     7
370
    15
100
AcDbLine
 10
213.3400430893
 20
173.8655868646
 30
0.0
 11
213.3400430893
 21
152.8655868646
 31
0.0
  0
LINE
  5
69
330
1F
100
AcDbEntity
  8
0
  6
Continuous
 62
     7
370
    15
100
AcDbLine
 10
213.3400430893
 20
152.8655868646
 30
0.0
 11
232.3400430893
 21
152.8655868646
 31
0.0
  0
LINE
  5
6A
330
1F
100
AcDbEntity
  8
0
  6
Continuous
 62
     7
370
    15
100
AcDbLine
 10
232.3400430893
 20
146.4080737539
 30
0.0
 11
232.3400430893
 21
152.8655868646
 31
0.0
  0
LINE
  5
6B
330
1F
100
AcDbEntity
  8
0
  6
Continuous
 62
     7
370
    15
100
AcDbLine
 10
201.9224787078
 20
146.4080737539
 30
0.0
 11
232.3400430893
 21
146.4080737539
 31
0.0
  0
CIRCLE
  5
6C
330
1F
100
AcDbEntity
  8
0
  6
Continuous
 62
     7
370
    15
100
AcDbCircle
 10
209.3400430893
 20
181.8655868646
 30
0.0
 40
5.999999999999972
  0
LINE
  5
6D
330
1F
100
AcDbEntity
  8
0
  6
Continuous
 62
     7
370
    15
100
AcDbLine
 10
233.3400430893
 20
152.8655868646
 30
0.0
 11
233.3400430893
 21
145.3156322367
 31
0.0
  0
ARC
  5
6E
330
1F
100
AcDbEntity
  8
0
  6
Continuous
 62
     7
370
    15
100
AcDbCircle
 10
262.3400430893
 20
172.8655868646
 30
0.0
 40
40.00000000000036
100
AcDbArc
 50
221.4096221093
 51
223.5311521674
  0
LINE
  5
6F
330
1F
100
AcDbEntity
  8
0
  6
Continuous
 62
     7
370
    15
100
AcDbLine
 10
232.3400430893
 20
152.8655868646
 30
0.0
 11
233.3400430893
 21
152.8655868646
 31
0.0
  0
LINE
  5
70
330
1F
100
AcDbEntity
  8
0
  6
Continuous
 62
     7
370
    15
100
AcDbLine
 10
233.3400430893
 20
137.8655868646
 30
0.0
 11
201.9224787078
 21
137.8655868646
 31
0.0
  0
LINE
  5
71
330
1F
100
AcDbEntity
  8
0
  6
Continuous
 62
     7
370
    15
100
AcDbLine
 10
233.3400430893
 20
137.8655868646
 30
0.0
 11
233.3400430893
 21
145.3156322367
 31
0.0
  0
SPLINE
  5
72
330
1F
100
AcDbEntity
  8
0
  6
Continuous
 62
     7
370
    15
100
AcDbSpline
210
0.0
220
0.0
230
1.0
 70
     8
 71
     3
 72
     8
 73
     4
 74
     0
 42
0.00000001
 43
0.00000001
 12
1.0
 22
0.0
 32
0.0
 13
1.0
 23
0.0
 33
0.0
 40
0.0
 40
0.0
 40
0.0
 40
0.0
 40
0.0014143833462928
 40
0.0014143833462928
 40
0.0014143833462928
 40
0.0014143833462928
 10
200.6610496164343
 20
192.8655868645807
 30
0.0
 10
200.6529615060441
 20
193.1989111555
 30
0.0
 10
200.6456510944716
 20
193.5322453550752
 30
0.0
 10
200.6391350032664
 20
193.8655868645807
 30
0.0
  0
SPLINE
  5
73
330
1F
100
AcDbEntity
  8
0
  6
Continuous
 62
     7
370
    15
100
AcDbSpline
210
0.0
220
0.0
230
1.0
 70
    24
 71
     3
 72
    10
 73
     6
 74
     0
 42
0.00000001
 43
0.00000001
 12
1.0
 22
0.0
 32
0.0
 13
1.0
 23
0.0
 33
0.0
 40
0.0
 40
0.0
 40
0.0
 40
0.0
 40
0.4995105724036741
 40
0.9992014456292795
 40
1.0
 40
1.0
 40
1.0
 40
1.0
 10
200.9262840097516
 20
137.8655868645807
 30
0.0
 10
200.8308224725583
 20
137.8655868645802
 30
0.0
 10
200.6398649408557
 20
137.8655868645792
 30
0.0
 10
200.5377315620021
 20
137.8655868645842
 30
0.0
 10
200.5688034025598
 20
137.8655868645807
 30
0.0
 10
200.5688529791396
 20
137.8655868645807
 30
0.0
  0
SPLINE
  5
74
330
1F
100
AcDbEntity
  8
0
  6
Continuous
 62
     7
370
    15
100
AcDbSpline
210
0.0
220
0.0
230
1.0
 70
    24
 71
     3
 72
    11
 73
     7
 74
     0
 42
0.00000001
 43
0.00000001
 12
1.0
 22
0.0
 32
0.0
 13
1.0
 23
0.0
 33
0.0
 40
0.0
 40
0.0
 40
0.0
 40
0.0
 40
0.2564802376373034
 40
0.4422944801914668
 40
0.6281491950138451
 40
1.0
 40
1.0
 40
1.0
 40
1.0
 10
199.3588503383519
 20
193.8655868645807
 30
0.0
 10
199.3746864320817
 20
193.8655868645807
 30
0.0
 10
199.4019954244199
 20
193.8655868645807
 30
0.0
 10
199.650160869387
 20
193.8655868645807
 30
0.0
 10
200.0223551354958
 20
193.8655868645807
 30
0.0
 10
200.3924042950649
 20
193.8655868645807
 30
0.0
 10
200.6391350032664
 20
193.8655868645807
 30
0.0
  0
SPLINE
  5
75
330
1F
100
AcDbEntity
  8
0
  6
Continuous
 62
     7
370
    15
100
AcDbSpline
210
0.0
220
0.0
230
1.0
 70
    24
 71
     3
 72
    18
 73
    14
 74
     0
 42
0.00000001
 43
0.00000001
 12
1.0
 22
0.0
 32
0.0
 13
1.0
 23
0.0
 33
0.0
 40
0.0
 40
0.0
 40
0.0
 40
0.0
 40
0.1250000000000004
 40
0.1250000000000004
 40
0.2500000000000008
 40
0.2500000000000008
 40
0.3750000000000012
 40
0.3750000000000012
 40
0.5000000000000016
 40
0.5000000000000016
 40
0.7500000000000008
 40
0.7500000000000008
 40
1.0
 40
1.0
 40
1.0
 40
1.0
 10
201.9224787078433
 20
137.8655868645807
 30
0.0
 10
201.820420793119
 20
137.8655868645807
 30
0.0
 10
201.7238653710319
 20
137.8655868645807
 30
0.0
 10
201.5543166999871
 20
137.8655868645807
 30
0.0
 10
201.480899766293
 20
137.8655868645807
 30
0.0
 10
201.3551695210691
 20
137.8655868645807
 30
0.0
 10
201.3013089098967
 20
137.8655868645807
 30
0.0
 10
201.208864602306
 20
137.8655868645807
 30
0.0
 10
201.1696809608417
 20
137.8655868645807
 30
0.0
 10
201.0672865463504
 20
137.8655868645807
 30
0.0
 10
201.0196280270655
 20
137.8655868645807
 30
0.0
 10
200.9530997501237
 20
137.8655868645807
 30
0.0
 10
200.9339601173765
 20
137.8655868645807
 30
0.0
 10
200.9262840097516
 20
137.8655868645807
 30
0.0
  0
LINE
  5
76
330
1F
100
AcDbEntity
  8
0
  6
Continuous
 62
     7
370
    15
100
AcDbLine
 10
200.6391350033
 20
193.8655868646
 30
0.0
 11
232.3400430893
 21
193.8655868646
 31
0.0
  0
LINE
  5
77
330
1F
100
AcDbEntity
  8
0
  6
Continuous
 62
     7
370
    15
100
AcDbLine
 10
232.3400430893
 20
193.8655868646
 30
0.0
 11
232.3400430893
 21
192.8655868646
 31
0.0
  0
LINE
  5
78
330
1F
100
AcDbEntity
  8
0
  6
Continuous
 62
     7
370
    15
100
AcDbLine
 10
233.3400430893
 20
192.8655868646
 30
0.0
 11
232.3400430893
 21
192.8655868646
 31
0.0
  0
LINE
  5
79
330
1F
100
AcDbEntity
  8
0
  6
Continuous
 62
     7
370
    15
100
AcDbLine
 10
233.3400430893
 20
192.8655868646
 30
0.0
 11
232.3400430893
 21
193.8655868646
 31
0.0
  0
LINE
  5
7A
330
1F
100
AcDbEntity
  8
0
  6
Continuous
 62
     7
370
    15
100
AcDbLine
 10
233.3400430893
 20
192.8655868646
 30
0.0
 11
233.3400430893
 21
173.8655868646
 31
0.0
  0
LINE
  5
7B
330
1F
100
AcDbEntity
  8
0
  6
Continuous
 62
     7
370
    15
100
AcDbLine
 10
233.3400430893
 20
173.8655868646
 30
0.0
 11
232.3400430893
 21
173.8655868646
 31
0.0
  0
ELLIPSE
  5
7C
330
1F
100
AcDbEntity
  8
0
  6
Continuous
 62
     7
370
    15
100
AcDbEllipse
 10
208.4241671863
 20
181.754163833
 30
0.0
 11
0.7107426670596624
 21
2.168423190543393
 31
0.0
210
0.0
220
0.0
230
1.0
 40
0.9202727667
 41
4.32745657711019
 42
6.098324663107414
  0
SPLINE
  5
7D
330
1F
100
AcDbEntity
  8
0
  6
Continuous
 62
     7
370
    15
100
AcDbSpline
210
0.0
220
0.0
230
1.0
 70
     8
 71
     3
 72
    27
 73
    23
 74
     0
 42
0.00000001
 43
0.00000001
 12
1.0
 22
0.0
 32
0.0
 13
1.0
 23
0.0
 33
0.0
 40
0.0
 40
0.0
 40
0.0
 40
0.0
 40
0.0177267311011026
 40
0.072009670999943
 40
0.1246554866705104
 40
0.1788183678606923
 40
0.2316427246639605
 40
0.2859879649269403
 40
0.3389949923104799
 40
0.3935440693286077
 40
0.4464522645031002
 40
0.5009082032709757
 40
0.5535883916862756
 40
0.6077972556882756
 40
0.6604768016611189
 40
0.7146712850095694
 40
0.7675775260175416
 40
0.8220113920903428
 40
0.87501902983133
 40
0.9295738049890573
 40
0.9645690721954779
 40
1.0
 40
1.0
 40
1.0
 40
1.0
 10
192.3339128597688
 20
152.8661985079485
 30
0.0
 10
192.3355962199987
 20
152.8660305831932
 30
0.0
 10
192.3424343795915
 20
152.8653484378888
 30
0.0
 10
192.2966162732129
 20
152.8699305171232
 30
0.0
 10
192.1966576301809
 20
152.8795446307446
 30
0.0
 10
192.0418370652746
 20
152.8934710895383
 30
0.0
 10
191.8383808968052
 20
152.9099254114492
 30
0.0
 10
191.5938713231352
 20
152.9269607424119
 30
0.0
 10
191.3111406460759
 20
152.9428915972862
 30
0.0
 10
191.0031517885484
 20
152.9556516689549
 30
0.0
 10
190.6734632390992
 20
152.963980521329
 30
0.0
 10
190.337914560936
 20
152.966797392523
 30
0.0
 10
189.999879703296
 20
152.9638583543046
 30
0.0
 10
189.6750379241684
 20
152.9555758245216
 30
0.0
 10
189.3661972689553
 20
152.9427504752462
 30
0.0
 10
189.0871208164491
 20
152.9270116130265
 30
0.0
 10
188.8406525210468
 20
152.9098520035571
 30
0.0
 10
188.6382320500728
 20
152.8934668210532
 30
0.0
 10
188.4820905403738
 20
152.8794266301967
 30
0.0
 10
188.3920996044708
 20
152.8707541936412
 30
0.0
 10
188.3471888526817
 20
152.8663038558919
 30
0.0
 10
188.3424348133432
 20
152.8658268452897
 30
0.0
 10
188.34004308929
 20
152.8655868645807
 30
0.0
  0
SPLINE
  5
7E
330
1F
100
AcDbEntity
  8
0
  6
Continuous
 62
     7
370
    15
100
AcDbSpline
210
0.0
220
0.0
230
1.0
 70
     8
 71
     3
 72
    12
 73
     8
 74
     0
 42
0.00000001
 43
0.00000001
 12
1.0
 22
0.0
 32
0.0
 13
1.0
 23
0.0
 33
0.0
 40
0.0
 40
0.0
 40
0.0
 40
0.0
 40
0.2499999999999973
 40
0.2499999999999973
 40
0.4999999999999947
 40
0.4999999999999947
 40
1.0
 40
1.0
 40
1.0
 40
1.0
 10
185.2719450912892
 20
153.7339304843473
 30
0.0
 10
185.2344332052446
 20
153.7339304843473
 30
0.0
 10
185.1991458575398
 20
153.7384340286098
 30
0.0
 10
185.1402160093014
 20
153.7518072280631
 30
0.0
 10
185.1166902828323
 20
153.7602921306343
 30
0.0
 10
185.0564314950642
 20
153.7880399344689
 30
0.0
 10
185.0308367327749
 20
153.8090297982092
 30
0.0
 10
185.0121374701539
 20
153.8308305813987
 30
0.0
  0
LINE
  5
7F
330
1F
100
AcDbEntity
  8
0
  6
Continuous
 62
     7
370
    15
100
AcDbLine
 10
187.4081410873
 20
153.7339304843
 30
0.0
 11
185.2719450913
 21
153.7339304843
 31
0.0
  0
SPLINE
  5
80
330
1F
100
AcDbEntity
  8
0
  6
Continuous
 62
     7
370
    15
100
AcDbSpline
210
0.0
220
0.0
230
1.0
 70
     8
 71
     3
 72
    12
 73
     8
 74
     0
 42
0.00000001
 43
0.00000001
 12
1.0
 22
0.0
 32
0.0
 13
1.0
 23
0.0
 33
0.0
 40
0.0
 40
0.0
 40
0.0
 40
0.0
 40
0.4999999999999994
 40
0.4999999999999994
 40
0.7499999999999997
 40
0.7499999999999997
 40
1.0
 40
1.0
 40
1.0
 40
1.0
 10
187.6679487084261
 20
153.8308305813987
 30
0.0
 10
187.6492554752957
 20
153.8090368277708
 30
0.0
 10
187.623600177884
 20
153.7880166660611
 30
0.0
 10
187.5634395551975
 20
153.7603113200975
 30
0.0
 10
187.5393672434432
 20
153.7516761039041
 30
0.0
 10
187.4809857230926
 20
153.7384614586775
 30
0.0
 10
187.4455168954396
 20
153.7339304843473
 30
0.0
 10
187.4081410872908
 20
153.7339304843473
 30
0.0
  0
ELLIPSE
  5
81
330
1F
100
AcDbEntity
  8
0
  6
Continuous
 62
     7
370
    15
100
AcDbEllipse
 10
177.3911139169
 20
172.8655868646
 30
0.0
 11
-9.367417879781813
 21
19.74174915274992
 31
0.0
210
0.0
220
0.0
230
1.0
 40
0.3419987131
 41
3.292664382516888
 42
4.239566697060995
  0
SPLINE
  5
82
330
1F
100
AcDbEntity
  8
0
  6
Continuous
 62
     7
370
    15
100
AcDbSpline
210
0.0
220
0.0
230
1.0
 70
     8
 71
     3
 72
    12
 73
     8
 74
     0
 42
0.00000001
 43
0.00000001
 12
1.0
 22
0.0
 32
0.0
 13
1.0
 23
0.0
 33
0.0
 40
0.0
 40
0.0
 40
0.0
 40
0.0
 40
0.2499999999999986
 40
0.2499999999999986
 40
0.4999999999999971
 40
0.4999999999999971
 40
1.0
 40
1.0
 40
1.0
 40
1.0
 10
187.4081410872908
 20
167.0363738689289
 30
0.0
 10
187.4456529733355
 20
167.0363738689289
 30
0.0
 10
187.4809403210402
 20
167.0215690546421
 30
0.0
 10
187.5398701692787
 20
166.9779771815163
 30
0.0
 10
187.5633958957477
 20
166.9504637554303
 30
0.0
 10
187.6236546835158
 20
166.8613320233167
 30
0.0
 10
187.6492494458051
 20
166.7949461726988
 30
0.0
 10
187.6679487084261
 20
166.7273417375215
 30
0.0
  0
LINE
  5
83
330
1F
100
AcDbEntity
  8
0
  6
Continuous
 62
     7
370
    15
100
AcDbLine
 10
185.2719450913
 20
167.0363738689
 30
0.0
 11
187.4081410873
 21
167.0363738689
 31
0.0
  0
SPLINE
  5
84
330
1F
100
AcDbEntity
  8
0
  6
Continuous
 62
     7
370
    15
100
AcDbSpline
210
0.0
220
0.0
230
1.0
 70
     8
 71
     3
 72
    12
 73
     8
 74
     0
 42
0.00000001
 43
0.00000001
 12
1.0
 22
0.0
 32
0.0
 13
1.0
 23
0.0
 33
0.0
 40
0.0
 40
0.0
 40
0.0
 40
0.0
 40
0.4999999999999947
 40
0.4999999999999947
 40
0.7499999999999973
 40
0.7499999999999973
 40
1.0
 40
1.0
 40
1.0
 40
1.0
 10
185.0121374701539
 20
166.7273417375215
 30
0.0
 10
185.0308307032843
 20
166.7949243739618
 30
0.0
 10
185.0564860006961
 20
166.8614069434392
 30
0.0
 10
185.1166466233825
 20
166.9504020263368
 30
0.0
 10
185.1407189351369
 20
166.9784039233359
 30
0.0
 10
185.1991004554874
 20
167.0214803240011
 30
0.0
 10
185.2345692831405
 20
167.0363738689289
 30
0.0
 10
185.2719450912892
 20
167.0363738689289
 30
0.0
  0
ELLIPSE
  5
85
330
1F
100
AcDbEntity
  8
0
  6
Continuous
 62
     7
370
    15
100
AcDbEllipse
 10
195.2889722617
 20
172.8655868646
 30
0.0
 11
9.367417879781669
 21
19.74174915274991
 31
0.0
210
0.0
220
0.0
230
1.0
 40
0.3419987131
 41
2.043618610118599
 42
2.990520924662728
  0
SPLINE
  5
86
330
1F
100
AcDbEntity
  8
0
  6
Continuous
 62
     7
370
    15
100
AcDbSpline
210
0.0
220
0.0
230
1.0
 70
     8
 71
     3
 72
    12
 73
     8
 74
     0
 42
0.00000001
 43
0.00000001
 12
1.0
 22
0.0
 32
0.0
 13
1.0
 23
0.0
 33
0.0
 40
0.0
 40
0.0
 40
0.0
 40
0.0
 40
0.2499999999999996
 40
0.2499999999999996
 40
0.4999999999999992
 40
0.4999999999999992
 40
1.0
 40
1.0
 40
1.0
 40
1.0
 10
185.2719450912892
 20
178.6947998602324
 30
0.0
 10
185.2344442684115
 20
178.6947998602324
 30
0.0
 10
185.1991658643755
 20
178.7095961979855
 30
0.0
 10
185.1402481443231
 20
178.7531664591446
 30
0.0
 10
185.1167247629247
 20
178.7806682576462
 30
0.0
 10
185.0564691784588
 20
178.8697674208892
 30
0.0
 10
185.0309475260477
 20
178.9358269996716
 30
0.0
 10
185.0121374701539
 20
179.0038319916398
 30
0.0
  0
LINE
  5
87
330
1F
100
AcDbEntity
  8
0
  6
Continuous
 62
     7
370
    15
100
AcDbLine
 10
187.4081410873
 20
178.6947998602
 30
0.0
 11
185.2719450913
 21
178.6947998602
 31
0.0
  0
SPLINE
  5
88
330
1F
100
AcDbEntity
  8
0
  6
Continuous
 62
     7
370
    15
100
AcDbSpline
210
0.0
220
0.0
230
1.0
 70
     8
 71
     3
 72
    12
 73
     8
 74
     0
 42
0.00000001
 43
0.00000001
 12
1.0
 22
0.0
 32
0.0
 13
1.0
 23
0.0
 33
0.0
 40
0.0
 40
0.0
 40
0.0
 40
0.0
 40
0.4999999999999991
 40
0.4999999999999991
 40
0.7499999999999996
 40
0.7499999999999996
 40
1.0
 40
1.0
 40
1.0
 40
1.0
 10
187.6679487084262
 20
179.0038319916398
 30
0.0
 10
187.6491454755745
 20
178.9358516673774
 30
0.0
 10
187.6236088165553
 20
178.8697612795806
 30
0.0
 10
187.5633826426068
 20
178.7806966671335
 30
0.0
 10
187.5394565652068
 20
178.7528955801135
 30
0.0
 10
187.4813956450255
 20
178.7099365068886
 30
0.0
 10
187.4455939463996
 20
178.6947998602324
 30
0.0
 10
187.4081410872908
 20
178.6947998602324
 30
0.0
  0
ELLIPSE
  5
89
330
1F
100
AcDbEntity
  8
0
  6
Continuous
 62
     7
370
    15
100
AcDbEllipse
 10
177.3911139169
 20
172.8655868646
 30
0.0
 11
9.367417879781781
 21
19.74174915274992
 31
0.0
210
0.0
220
0.0
230
1.0
 40
0.3419987131
 41
5.185211263708402
 42
6.132113578252565
  0
SPLINE
  5
8A
330
1F
100
AcDbEntity
  8
0
  6
Continuous
 62
     7
370
    15
100
AcDbSpline
210
0.0
220
0.0
230
1.0
 70
     8
 71
     3
 72
    12
 73
     8
 74
     0
 42
0.00000001
 43
0.00000001
 12
1.0
 22
0.0
 32
0.0
 13
1.0
 23
0.0
 33
0.0
 40
0.0
 40
0.0
 40
0.0
 40
0.0
 40
0.25
 40
0.25
 40
0.5
 40
0.5
 40
1.0
 40
1.0
 40
1.0
 40
1.0
 10
187.4081410872908
 20
191.9972432448141
 30
0.0
 10
187.4456419101686
 20
191.9972432448141
 30
0.0
 10
187.4809203142046
 20
191.992742276951
 30
0.0
 10
187.5398380342569
 20
191.9793757557336
 30
0.0
 10
187.5633614156553
 20
191.9708944954888
 30
0.0
 10
187.6236170001212
 20
191.9431570998109
 30
0.0
 10
187.6491386525324
 20
191.9222731007578
 30
0.0
 10
187.6679487084262
 20
191.9003431477627
 30
0.0
  0
LINE
  5
8B
330
1F
100
AcDbEntity
  8
0
  6
Continuous
 62
     7
370
    15
100
AcDbLine
 10
185.2719450913
 20
191.9972432448
 30
0.0
 11
187.4081410873
 21
191.9972432448
 31
0.0
  0
SPLINE
  5
8C
330
1F
100
AcDbEntity
  8
0
  6
Continuous
 62
     7
370
    15
100
AcDbSpline
210
0.0
220
0.0
230
1.0
 70
     8
 71
     3
 72
    12
 73
     8
 74
     0
 42
0.00000001
 43
0.00000001
 12
1.0
 22
0.0
 32
0.0
 13
1.0
 23
0.0
 33
0.0
 40
0.0
 40
0.0
 40
0.0
 40
0.0
 40
0.5000000000000008
 40
0.5000000000000008
 40
0.7500000000000003
 40
0.7500000000000003
 40
1.0
 40
1.0
 40
1.0
 40
1.0
 10
185.0121374701539
 20
191.9003431477627
 30
0.0
 10
185.0309407030056
 20
191.9222651460237
 30
0.0
 10
185.0564773620248
 20
191.9431589540337
 30
0.0
 10
185.1167035359732
 20
191.9708856801514
 30
0.0
 10
185.1406296133732
 20
191.9794588135269
 30
0.0
 10
185.1986905335545
 20
191.9926379193344
 30
0.0
 10
185.2344922321805
 20
191.9972432448141
 30
0.0
 10
185.2719450912892
 20
191.9972432448141
 30
0.0
  0
ELLIPSE
  5
8D
330
1F
100
AcDbEntity
  8
0
  6
Continuous
 62
     7
370
    15
100
AcDbEllipse
 10
195.2889722617
 20
172.8655868646
 30
0.0
 11
-9.367417879781669
 21
19.74174915274991
 31
0.0
210
0.0
220
0.0
230
1.0
 40
0.3419987131
 41
0.1510717289270652
 42
1.097974043471201
  0
LINE
  5
8E
330
1F
100
AcDbEntity
  8
0
  6
Continuous
 62
     7
370
    15
100
AcDbLine
 10
178.3400430893
 20
172.8655868646
 30
0.0
 11
178.3400430893
 21
192.5655868646
 31
0.0
  0
LINE
  5
8F
330
1F
100
AcDbEntity
  8
0
  6
Continuous
 62
     7
370
    15
100
AcDbLine
 10
178.3400430893
 20
153.1655868646
 30
0.0
 11
178.3400430893
 21
172.8655868646
 31
0.0
  0
LINE
  5
90
330
1F
100
AcDbEntity
  8
0
  6
Continuous
 62
     7
370
    15
100
AcDbLine
 10
178.1400430893
 20
161.6128819275
 30
0.0
 11
178.1400430893
 21
158.7757665857
 31
0.0
  0
SPLINE
  5
91
330
1F
100
AcDbEntity
  8
0
  6
Continuous
 62
     7
370
    15
100
AcDbSpline
210
0.0
220
0.0
230
1.0
 70
     8
 71
     3
 72
    16
 73
    12
 74
     0
 42
0.00000001
 43
0.00000001
 12
1.0
 22
0.0
 32
0.0
 13
1.0
 23
0.0
 33
0.0
 40
0.0
 40
0.0
 40
0.0
 40
0.0
 40
0.5000000000000012
 40
0.5000000000000012
 40
0.7500000000000041
 40
0.7500000000000041
 40
0.8750000000000033
 40
0.8750000000000033
 40
0.9375000000000018
 40
0.9375000000000018
 40
1.0
 40
1.0
 40
1.0
 40
1.0
 10
178.14004308929
 20
161.6128819274896
 30
0.0
 10
178.14004308929
 20
161.6897506936234
 30
0.0
 10
178.1361596641311
 20
161.7693483187893
 30
0.0
 10
178.1113443388564
 20
161.8960939425407
 30
0.0
 10
178.1005048911439
 20
161.9401427964438
 30
0.0
 10
178.0672891090951
 20
162.00733552417
 30
0.0
 10
178.0539073654663
 20
162.0305667310084
 30
0.0
 10
178.0183977156041
 20
162.0594289211681
 30
0.0
 10
178.0029807491033
 20
162.067448568476
 30
0.0
 10
177.9712797269547
 20
162.0720125864371
 30
0.0
 10
177.9571334420039
 20
162.0690338046863
 30
0.0
 10
177.9450662004143
 20
162.0642607177126
 30
0.0
  0
SPLINE
  5
92
330
1F
100
AcDbEntity
  8
0
  6
Continuous
 62
     7
370
    15
100
AcDbSpline
210
0.0
220
0.0
230
1.0
 70
     8
 71
     3
 72
    18
 73
    14
 74
     0
 42
0.00000001
 43
0.00000001
 12
1.0
 22
0.0
 32
0.0
 13
1.0
 23
0.0
 33
0.0
 40
0.0
 40
0.0
 40
0.0
 40
0.0
 40
0.125000000000001
 40
0.125000000000001
 40
0.250000000000002
 40
0.250000000000002
 40
0.375000000000003
 40
0.375000000000003
 40
0.500000000000004
 40
0.500000000000004
 40
0.750000000000002
 40
0.750000000000002
 40
1.0
 40
1.0
 40
1.0
 40
1.0
 10
177.9450662004205
 20
162.0642607177085
 30
0.0
 10
177.8963607082783
 20
162.044995706035
 30
0.0
 10
177.8378505999515
 20
162.0299664988383
 30
0.0
 10
177.7061214816594
 20
162.0269692719093
 30
0.0
 10
177.6413625453188
 20
162.0403501922958
 30
0.0
 10
177.5361515724593
 20
162.0784486148614
 30
0.0
 10
177.4929351970193
 20
162.1024416658989
 30
0.0
 10
177.4167566919074
 20
162.1528552730775
 30
0.0
 10
177.3839017305275
 20
162.1794836181327
 30
0.0
 10
177.2935334506937
 20
162.2620017949598
 30
0.0
 10
177.2441102163236
 20
162.3207060289494
 30
0.0
 10
177.1564617612755
 20
162.441187324479
 30
0.0
 10
177.1184025890727
 20
162.5032307330576
 30
0.0
 10
177.0839587717271
 20
162.5668492240589
 30
0.0
  0
SPLINE
  5
93
330
1F
100
AcDbEntity
  8
0
  6
Continuous
 62
     7
370
    15
100
AcDbSpline
210
0.0
220
0.0
230
1.0
 70
     8
 71
     3
 72
     8
 73
     4
 74
     0
 42
0.00000001
 43
0.00000001
 12
1.0
 22
0.0
 32
0.0
 13
1.0
 23
0.0
 33
0.0
 40
0.0
 40
0.0
 40
0.0
 40
0.0
 40
1.0
 40
1.0
 40
1.0
 40
1.0
 10
177.0839587717265
 20
162.5668492240577
 30
0.0
 10
177.0596450678364
 20
162.6117571718797
 30
0.0
 10
177.0381484258803
 20
162.6582095807966
 30
0.0
 10
177.0187227457303
 20
162.7061800957329
 30
0.0
  0
SPLINE
  5
94
330
1F
100
AcDbEntity
  8
0
  6
Continuous
 62
     7
370
    15
100
AcDbSpline
210
0.0
220
0.0
230
1.0
 70
     8
 71
     3
 72
     8
 73
     4
 74
     0
 42
0.00000001
 43
0.00000001
 12
1.0
 22
0.0
 32
0.0
 13
1.0
 23
0.0
 33
0.0
 40
0.0
 40
0.0
 40
0.0
 40
0.0
 40
1.0
 40
1.0
 40
1.0
 40
1.0
 10
177.0187227457303
 20
169.2386871225195
 30
0.0
 10
177.0381481726237
 20
169.3285695672917
 30
0.0
 10
177.0596447265927
 20
169.4179820107543
 30
0.0
 10
177.0839587717271
 20
169.5067411377687
 30
0.0
  0
SPLINE
  5
95
330
1F
100
AcDbEntity
  8
0
  6
Continuous
 62
     7
370
    15
100
AcDbSpline
210
0.0
220
0.0
230
1.0
 70
     8
 71
     3
 72
    18
 73
    14
 74
     0
 42
0.00000001
 43
0.00000001
 12
1.0
 22
0.0
 32
0.0
 13
1.0
 23
0.0
 33
0.0
 40
0.0
 40
0.0
 40
0.0
 40
0.0
 40
0.2500000000000003
 40
0.2500000000000003
 40
0.5000000000000007
 40
0.5000000000000007
 40
0.6250000000000004
 40
0.6250000000000004
 40
0.7500000000000003
 40
0.7500000000000003
 40
0.8750000000000001
 40
0.8750000000000001
 40
1.0
 40
1.0
 40
1.0
 40
1.0
 10
177.083958771726
 20
169.5067411377692
 30
0.0
 10
177.1182555911778
 20
169.6319426719891
 30
0.0
 10
177.156066871155
 20
169.7556385029196
 30
0.0
 10
177.242639238335
 20
169.9983593341076
 30
0.0
 10
177.2909783684179
 20
170.1175630679739
 30
0.0
 10
177.3802507257404
 20
170.289244597146
 30
0.0
 10
177.4127921915163
 20
170.3452886429147
 30
0.0
 10
177.4889683913697
 20
170.4526702110016
 30
0.0
 10
177.5321844513643
 20
170.5040570678682
 30
0.0
 10
177.6378737533302
 20
170.5851100150925
 30
0.0
 10
177.7028448120448
 20
170.6130001765449
 30
0.0
 10
177.8365052004026
 20
170.6012428734724
 30
0.0
 10
177.8958116537388
 20
170.5647893429813
 30
0.0
 10
177.9450662004147
 20
170.5196472541482
 30
0.0
  0
SPLINE
  5
96
330
1F
100
AcDbEntity
  8
0
  6
Continuous
 62
     7
370
    15
100
AcDbSpline
210
0.0
220
0.0
230
1.0
 70
     8
 71
     3
 72
    16
 73
    12
 74
     0
 42
0.00000001
 43
0.00000001
 12
1.0
 22
0.0
 32
0.0
 13
1.0
 23
0.0
 33
0.0
 40
0.0
 40
0.0
 40
0.0
 40
0.0
 40
0.0624999999999985
 40
0.0624999999999985
 40
0.1249999999999971
 40
0.1249999999999971
 40
0.2499999999999972
 40
0.2499999999999972
 40
0.4999999999999976
 40
0.4999999999999976
 40
1.0
 40
1.0
 40
1.0
 40
1.0
 10
177.9450662003839
 20
170.5196472541033
 30
0.0
 10
177.9571360336598
 20
170.5085851791674
 30
0.0
 10
177.9714116885931
 20
170.4993455225263
 30
0.0
 10
178.0028761007175
 20
170.4947974646643
 30
0.0
 10
178.0183766255279
 20
170.5008512474941
 30
0.0
 10
178.0538155221348
 20
170.5299405518984
 30
0.0
 10
178.0674081382382
 20
170.5595099256177
 30
0.0
 10
178.100402456631
 20
170.6465531696361
 30
0.0
 10
178.1111898499497
 20
170.7085018118377
 30
0.0
 10
178.1362430972289
 20
170.8961083789504
 30
0.0
 10
178.1400430892901
 20
171.0221159019228
 30
0.0
 10
178.1400430892902
 20
171.1485919821336
 30
0.0
  0
LINE
  5
97
330
1F
100
AcDbEntity
  8
0
  6
Continuous
 62
     7
370
    15
100
AcDbLine
 10
178.1400430893
 20
185.8352866841
 30
0.0
 11
178.1400430893
 21
171.1485919821
 31
0.0
  0
SPLINE
  5
98
330
1F
100
AcDbEntity
  8
0
  6
Continuous
 62
     7
370
    15
100
AcDbSpline
210
0.0
220
0.0
230
1.0
 70
     8
 71
     3
 72
    16
 73
    12
 74
     0
 42
0.00000001
 43
0.00000001
 12
1.0
 22
0.0
 32
0.0
 13
1.0
 23
0.0
 33
0.0
 40
0.0
 40
0.0
 40
0.0
 40
0.0
 40
0.5000000000000016
 40
0.5000000000000016
 40
0.7500000000000007
 40
0.7500000000000007
 40
0.8750000000000002
 40
0.8750000000000002
 40
0.9375000000000001
 40
0.9375000000000001
 40
1.0
 40
1.0
 40
1.0
 40
1.0
 10
178.14004308929
 20
185.8352866841191
 30
0.0
 10
178.14004308929
 20
185.8851956854964
 30
0.0
 10
178.1361596641311
 20
185.9315875101786
 30
0.0
 10
178.1113443388564
 20
185.9911773984069
 30
0.0
 10
178.1005048911439
 20
186.009850363557
 30
0.0
 10
178.0672891090951
 20
186.0302010866582
 30
0.0
 10
178.0539073654663
 20
186.036149718823
 30
0.0
 10
178.0183977156041
 20
186.0364771759686
 30
0.0
 10
178.0029807491033
 20
186.0345339097785
 30
0.0
 10
177.9712797269547
 20
186.0253791839383
 30
0.0
 10
177.9571334420039
 20
186.0191392345407
 30
0.0
 10
177.9450662004143
 20
186.0128526218809
 30
0.0
  0
SPLINE
  5
99
330
1F
100
AcDbEntity
  8
0
  6
Continuous
 62
     7
370
    15
100
AcDbSpline
210
0.0
220
0.0
230
1.0
 70
     8
 71
     3
 72
    18
 73
    14
 74
     0
 42
0.00000001
 43
0.00000001
 12
1.0
 22
0.0
 32
0.0
 13
1.0
 23
0.0
 33
0.0
 40
0.0
 40
0.0
 40
0.0
 40
0.0
 40
0.1250000000000001
 40
0.1250000000000001
 40
0.2500000000000001
 40
0.2500000000000001
 40
0.3750000000000002
 40
0.3750000000000002
 40
0.5000000000000002
 40
0.5000000000000002
 40
0.7500000000000001
 40
0.7500000000000001
 40
1.0
 40
1.0
 40
1.0
 40
1.0
 10
177.9450662004205
 20
186.0128526218766
 30
0.0
 10
177.8963616167325
 20
185.9874792297776
 30
0.0
 10
177.837853133957
 20
185.9663875126171
 30
0.0
 10
177.7061263186872
 20
185.956386717088
 30
0.0
 10
177.6413682471897
 20
185.969573470052
 30
0.0
 10
177.5361576450389
 20
186.0103243719483
 30
0.0
 10
177.4929414965188
 20
186.036837136804
 30
0.0
 10
177.4167631804349
 20
186.0923162334778
 30
0.0
 10
177.3839083481436
 20
186.121559927108
 30
0.0
 10
177.2935404421827
 20
186.2112503155096
 30
0.0
 10
177.2441177843431
 20
186.273828997388
 30
0.0
 10
177.1564666587515
 20
186.3985576158688
 30
0.0
 10
177.1184051113609
 20
186.4610460196567
 30
0.0
 10
177.0839587717271
 20
186.5231702319146
 30
0.0
  0
SPLINE
  5
9A
330
1F
100
AcDbEntity
  8
0
  6
Continuous
 62
     7
370
    15
100
AcDbSpline
210
0.0
220
0.0
230
1.0
 70
     8
 71
     3
 72
     8
 73
     4
 74
     0
 42
0.00000001
 43
0.00000001
 12
1.0
 22
0.0
 32
0.0
 13
1.0
 23
0.0
 33
0.0
 40
0.0
 40
0.0
 40
0.0
 40
0.0
 40
1.0
 40
1.0
 40
1.0
 40
1.0
 10
177.0187227457303
 20
186.6518933754897
 30
0.0
 10
177.0381489510292
 20
186.6099791407544
 30
0.0
 10
177.0596457754577
 20
186.5670188891861
 30
0.0
 10
177.0839587717271
 20
186.5231702319146
 30
0.0
  0
SPLINE
  5
9B
330
1F
100
AcDbEntity
  8
0
  6
Continuous
 62
     7
370
    15
100
AcDbSpline
210
0.0
220
0.0
230
1.0
 70
     8
 71
     3
 72
    24
 73
    20
 74
     0
 42
0.00000001
 43
0.00000001
 12
1.0
 22
0.0
 32
0.0
 13
1.0
 23
0.0
 33
0.0
 40
0.0
 40
0.0
 40
0.0
 40
0.0
 40
0.2500000000000021
 40
0.2500000000000021
 40
0.3750000000000046
 40
0.3750000000000046
 40
0.4375000000000058
 40
0.4375000000000058
 40
0.500000000000007
 40
0.500000000000007
 40
0.5312500000000061
 40
0.5312500000000061
 40
0.5625000000000053
 40
0.5625000000000053
 40
0.6250000000000036
 40
0.6250000000000036
 40
0.7500000000000003
 40
0.7500000000000003
 40
1.0
 40
1.0
 40
1.0
 40
1.0
 10
176.8450031113504
 20
163.2321654530335
 30
0.0
 10
176.829234233993
 20
163.2912311356213
 30
0.0
 10
176.812620252143
 20
163.350222644385
 30
0.0
 10
176.7840885861379
 20
163.436331338066
 30
0.0
 10
176.7740011713192
 20
163.46470775262
 30
0.0
 10
176.7565136108649
 20
163.5051059201319
 30
0.0
 10
176.7503040490816
 20
163.5182257168697
 30
0.0
 10
176.736026495429
 20
163.5425186581138
 30
0.0
 10
176.7284549476336
 20
163.5546610542925
 30
0.0
 10
176.7110373639553
 20
163.5636804049857
 30
0.0
 10
176.7025548673103
 20
163.5645054859272
 30
0.0
 10
176.6865165554385
 20
163.5481130876289
 30
0.0
 10
176.6816960072349
 20
163.536219067023
 30
0.0
 10
176.670286782687
 20
163.5041582094256
 30
0.0
 10
176.6662663022294
 20
163.483865761194
 30
0.0
 10
176.6555124474092
 20
163.4234564227889
 30
0.0
 10
176.651639766127
 20
163.3850362866719
 30
0.0
 10
176.6424716162894
 20
163.2716298057312
 30
0.0
 10
176.6404431109202
 20
163.198632303958
 30
0.0
 10
176.64004308929
 20
163.1277462015479
 30
0.0
  0
SPLINE
  5
9C
330
1F
100
AcDbEntity
  8
0
  6
Continuous
 62
     7
370
    15
100
AcDbSpline
210
0.0
220
0.0
230
1.0
 70
     8
 71
     3
 72
    16
 73
    12
 74
     0
 42
0.00000001
 43
0.00000001
 12
1.0
 22
0.0
 32
0.0
 13
1.0
 23
0.0
 33
0.0
 40
0.0
 40
0.0
 40
0.0
 40
0.0
 40
0.2500000000000007
 40
0.2500000000000007
 40
0.3750000000000004
 40
0.3750000000000004
 40
0.5000000000000002
 40
0.5000000000000002
 40
0.7500000000000001
 40
0.7500000000000001
 40
1.0
 40
1.0
 40
1.0
 40
1.0
 10
176.6400430892899
 20
163.1277462015477
 30
0.0
 10
176.5595057573904
 20
163.444794958923
 30
0.0
 10
176.499468413363
 20
163.7936469798722
 30
0.0
 10
176.4387307062094
 20
164.363990545279
 30
0.0
 10
176.4234083310965
 20
164.5619963704978
 30
0.0
 10
176.4028255217924
 20
164.9742774021003
 30
0.0
 10
176.3976259247667
 20
165.1891376081525
 30
0.0
 10
176.3975722715869
 20
165.8440353592727
 30
0.0
 10
176.4177698150649
 20
166.2986613856001
 30
0.0
 10
176.4984479034236
 20
167.2433559742596
 30
0.0
 10
176.5594940680314
 20
167.7352251249698
 30
0.0
 10
176.64004308929
 20
168.2307115127172
 30
0.0
  0
SPLINE
  5
9D
330
1F
100
AcDbEntity
  8
0
  6
Continuous
 62
     7
370
    15
100
AcDbSpline
210
0.0
220
0.0
230
1.0
 70
     8
 71
     3
 72
    24
 73
    20
 74
     0
 42
0.00000001
 43
0.00000001
 12
1.0
 22
0.0
 32
0.0
 13
1.0
 23
0.0
 33
0.0
 40
0.0
 40
0.0
 40
0.0
 40
0.0
 40
0.2500000000000023
 40
0.2500000000000023
 40
0.3750000000000026
 40
0.3750000000000026
 40
0.4375000000000037
 40
0.4375000000000037
 40
0.4687500000000043
 40
0.4687500000000043
 40
0.5000000000000049
 40
0.5000000000000049
 40
0.5625000000000048
 40
0.5625000000000048
 40
0.6250000000000047
 40
0.6250000000000047
 40
0.7500000000000024
 40
0.7500000000000024
 40
1.0
 40
1.0
 40
1.0
 40
1.0
 10
176.6400430892899
 20
168.2307115127172
 30
0.0
 10
176.6404459999253
 20
168.1406117356426
 30
0.0
 10
176.6424899792657
 20
168.051338335827
 30
0.0
 10
176.651727222091
 20
167.9210007110055
 30
0.0
 10
176.6556142850714
 20
167.8780175419982
 30
0.0
 10
176.666518176477
 20
167.8160093602763
 30
0.0
 10
176.6706602222273
 20
167.7952473743036
 30
0.0
 10
176.6825552959774
 20
167.7692707256985
 30
0.0
 10
176.6878023602844
 20
167.7602300750097
 30
0.0
 10
176.7046694266597
 20
167.7611723264422
 30
0.0
 10
176.7124918341891
 20
167.7724463304365
 30
0.0
 10
176.7294406348137
 20
167.80364879799
 30
0.0
 10
176.7368969860319
 20
167.8267740372533
 30
0.0
 10
176.7509568892251
 20
167.8723687424853
 30
0.0
 10
176.7570892743614
 20
167.8953123535157
 30
0.0
 10
176.7743840368852
 20
167.9643317648629
 30
0.0
 10
176.7844013552945
 20
168.0106234765398
 30
0.0
 10
176.8127726895381
 20
168.1496777089089
 30
0.0
 10
176.8293081271828
 20
168.242579010667
 30
0.0
 10
176.8450031113477
 20
168.3356372302066
 30
0.0
  0
SPLINE
  5
9E
330
1F
100
AcDbEntity
  8
0
  6
Continuous
 62
     7
370
    15
100
AcDbSpline
210
0.0
220
0.0
230
1.0
 70
     8
 71
     3
 72
     8
 73
     4
 74
     0
 42
0.00000001
 43
0.00000001
 12
1.0
 22
0.0
 32
0.0
 13
1.0
 23
0.0
 33
0.0
 40
0.0
 40
0.0
 40
0.0
 40
0.0
 40
1.0
 40
1.0
 40
1.0
 40
1.0
 10
176.8450031113477
 20
168.3356372302067
 30
0.0
 10
176.8957302545543
 20
168.6364070544783
 30
0.0
 10
176.9536175841152
 20
168.9374422064934
 30
0.0
 10
177.0187227457304
 20
169.2386871225195
 30
0.0
  0
SPLINE
  5
9F
330
1F
100
AcDbEntity
  8
0
  6
Continuous
 62
     7
370
    15
100
AcDbSpline
210
0.0
220
0.0
230
1.0
 70
     8
 71
     3
 72
     8
 73
     4
 74
     0
 42
0.00000001
 43
0.00000001
 12
1.0
 22
0.0
 32
0.0
 13
1.0
 23
0.0
 33
0.0
 40
0.0
 40
0.0
 40
0.0
 40
0.0
 40
1.0
 40
1.0
 40
1.0
 40
1.0
 10
177.0187227457304
 20
162.7061800957329
 30
0.0
 10
176.9536175841164
 20
162.8669532631862
 30
0.0
 10
176.8957302545564
 20
163.0421561536214
 30
0.0
 10
176.8450031113503
 20
163.2321654530334
 30
0.0
  0
LINE
  5
A0
330
1F
100
AcDbEntity
  8
0
  6
Continuous
 62
     7
370
    15
100
AcDbLine
 10
176.6400430893
 20
162.403248017
 30
0.0
 11
176.6400430893
 21
163.1277462015
 31
0.0
  0
LINE
  5
A1
330
1F
100
AcDbEntity
  8
0
  6
Continuous
 62
     7
370
    15
100
AcDbLine
 10
155.8400430893
 20
162.8558055255
 30
0.0
 11
155.8400430893
 21
169.5067411378
 31
0.0
  0
LINE
  5
A2
330
1F
100
AcDbEntity
  8
0
  6
Continuous
 62
     7
370
    15
100
AcDbLine
 10
176.6400430893
 20
168.2307115127
 30
0.0
 11
176.6400430893
 21
169.5067411378
 31
0.0
  0
LINE
  5
A3
330
1F
100
AcDbEntity
  8
0
  6
Continuous
 62
     7
370
    15
100
AcDbLine
 10
176.6400430893
 20
169.5067411378
 30
0.0
 11
176.6400430893
 21
186.686771439
 31
0.0
  0
LINE
  5
A4
330
1F
100
AcDbEntity
  8
0
  6
Continuous
 62
     7
370
    15
100
AcDbLine
 10
155.8400430893
 20
169.5067411378
 30
0.0
 11
155.8400430893
 21
186.2342139305
 31
0.0
  0
LINE
  5
A5
330
1F
100
AcDbEntity
  8
0
  6
Continuous
 62
     7
370
    15
100
AcDbLine
 10
154.3400430893
 20
169.5067411378
 30
0.0
 11
154.3400430893
 21
185.4842139305
 31
0.0
  0
LINE
  5
A6
330
1F
100
AcDbEntity
  8
0
  6
Continuous
 62
     7
370
    15
100
AcDbLine
 10
154.3400430893
 20
163.6058055255
 30
0.0
 11
154.3400430893
 21
169.5067411378
 31
0.0
  0
SPLINE
  5
A7
330
1F
100
AcDbEntity
  8
0
  6
Continuous
 62
     7
370
    15
100
AcDbSpline
210
0.0
220
0.0
230
1.0
 70
     8
 71
     3
 72
     8
 73
     4
 74
     0
 42
0.00000001
 43
0.00000001
 12
1.0
 22
0.0
 32
0.0
 13
1.0
 23
0.0
 33
0.0
 40
0.0000137051794235
 40
0.0000137051794235
 40
0.0000137051794235
 40
0.0000137051794235
 40
0.0027147144718019
 40
0.0027147144718019
 40
0.0027147144718019
 40
0.0027147144718019
 10
155.84004308929
 20
160.4377925469955
 30
0.0
 10
156.7400392247848
 20
160.4167121496648
 30
0.0
 10
157.6400394033802
 20
160.3955946415066
 30
0.0
 10
158.54004308929
 20
160.3744400341608
 30
0.0
  0
LINE
  5
A8
330
1F
100
AcDbEntity
  8
0
  6
Continuous
 62
     7
370
    15
100
AcDbLine
 10
155.8400430893
 20
160.437792547
 30
0.0
 11
155.8400430893
 21
162.8558055255
 31
0.0
  0
LINE
  5
A9
330
1F
100
AcDbEntity
  8
0
  6
Continuous
 62
     7
370
    15
100
AcDbLine
 10
176.6400430893
 20
159.74548808
 30
0.0
 11
176.6400430893
 21
162.403248017
 31
0.0
  0
SPLINE
  5
AA
330
1F
100
AcDbEntity
  8
0
  6
Continuous
 62
     7
370
    15
100
AcDbSpline
210
0.0
220
0.0
230
1.0
 70
     8
 71
     3
 72
    14
 73
    10
 74
     0
 42
0.00000001
 43
0.00000001
 12
1.0
 22
0.0
 32
0.0
 13
1.0
 23
0.0
 33
0.0
 40
0.0
 40
0.0
 40
0.0
 40
0.0
 40
0.3775288239686476
 40
0.5338733690476648
 40
0.6908808599746042
 40
0.781775757578929
 40
0.8738748620518599
 40
0.9402566634510718
 40
1.0
 40
1.0
 40
1.0
 40
1.0
 10
158.54004308929
 20
160.3744400341608
 30
0.0
 10
158.8105948211187
 20
160.3318915630259
 30
0.0
 10
159.1931890904905
 20
160.2717226588511
 30
0.0
 10
159.6529473520442
 20
160.2163592671015
 30
0.0
 10
159.90102353146
 20
160.1896790737453
 30
0.0
 10
160.0795334744108
 20
160.1723609098973
 30
0.0
 10
160.181326348729
 20
160.1631194705913
 30
0.0
 10
160.2395885261897
 20
160.1580522352316
 30
0.0
 10
160.2440769704266
 20
160.1576693926638
 30
0.0
 10
160.2462030702587
 20
160.1574880466392
 30
0.0
  0
SPLINE
  5
AB
330
1F
100
AcDbEntity
  8
0
  6
Continuous
 62
     7
370
    15
100
AcDbSpline
210
0.0
220
0.0
230
1.0
 70
     8
 71
     3
 72
    27
 73
    23
 74
     0
 42
0.00000001
 43
0.00000001
 12
1.0
 22
0.0
 32
0.0
 13
1.0
 23
0.0
 33
0.0
 40
0.0
 40
0.0
 40
0.0
 40
0.0
 40
0.0320048888823137
 40
0.0816299808644608
 40
0.1292910406044125
 40
0.1782329011447843
 40
0.2278849832250201
 40
0.278808099101048
 40
0.3317507939392641
 40
0.3860723031504807
 40
0.4419521139322962
 40
0.4993720553881288
 40
0.5566423887905803
 40
0.6155860317163385
 40
0.6725583336459852
 40
0.7312836920047276
 40
0.7864689484547132
 40
0.8434363526702109
 40
0.8956187083338398
 40
0.9495000915392613
 40
0.998734699371122
 40
1.0
 40
1.0
 40
1.0
 40
1.0
 10
169.5328257267352
 20
159.9248940915361
 30
0.0
 10
169.5329028164934
 20
159.9248842558625
 30
0.0
 10
169.5330994375628
 20
159.924859169512
 30
0.0
 10
169.4582378808511
 20
159.935493092573
 30
0.0
 10
169.3207474160389
 20
159.9543478349125
 30
0.0
 10
169.1237388862141
 20
159.9799603027602
 30
0.0
 10
168.870584033303
 20
160.0103631116455
 30
0.0
 10
168.5636680678082
 20
160.0434480202538
 30
0.0
 10
168.2068617179059
 20
160.0766385133488
 30
0.0
 10
167.8058526748048
 20
160.1070921737509
 30
0.0
 10
167.3700495379108
 20
160.1319108359845
 30
0.0
 10
166.9136063481676
 20
160.1485348305793
 30
0.0
 10
166.4484479805223
 20
160.1556138764663
 30
0.0
 10
165.9968759249179
 20
160.1528786735502
 30
0.0
 10
165.567730398714
 20
160.1415750108474
 30
0.0
 10
165.186172228371
 20
160.1243661479041
 30
0.0
 10
164.8553730736263
 20
160.1040749237521
 30
0.0
 10
164.5972081362348
 20
160.0847608766717
 30
0.0
 10
164.4063583981583
 20
160.0685556092862
 30
0.0
 10
164.3033501307164
 20
160.0591303101695
 30
0.0
 10
164.2614684986173
 20
160.0551885651468
 30
0.0
 10
164.272963080638
 20
160.0562606207858
 30
0.0
 10
164.2732510831771
 20
160.0562874816795
 30
0.0
  0
SPLINE
  5
AC
330
1F
100
AcDbEntity
  8
0
  6
Continuous
 62
     7
370
    15
100
AcDbSpline
210
0.0
220
0.0
230
1.0
 70
     8
 71
     3
 72
    10
 73
     6
 74
     0
 42
0.00000001
 43
0.00000001
 12
1.0
 22
0.0
 32
0.0
 13
1.0
 23
0.0
 33
0.0
 40
0.0
 40
0.0
 40
0.0
 40
0.0
 40
0.5
 40
0.5
 40
1.0
 40
1.0
 40
1.0
 40
1.0
 10
154.3400430892892
 20
161.2270924952702
 30
0.0
 10
154.577185050005
 20
161.1051699913777
 30
0.0
 10
154.8225278087685
 20
160.9776637949161
 30
0.0
 10
155.3237913975015
 20
160.7140350768663
 30
0.0
 10
155.5798259667519
 20
160.5778588231118
 30
0.0
 10
155.84004308929
 20
160.4377925469954
 30
0.0
  0
LINE
  5
AD
330
1F
100
AcDbEntity
  8
0
  6
Continuous
 62
     7
370
    15
100
AcDbLine
 10
154.3400430893
 20
161.2270924953
 30
0.0
 11
154.3400430893
 21
163.6058055255
 31
0.0
  0
SPLINE
  5
AE
330
1F
100
AcDbEntity
  8
0
  6
Continuous
 62
     7
370
    15
100
AcDbSpline
210
0.0
220
0.0
230
1.0
 70
     8
 71
     3
 72
    12
 73
     8
 74
     0
 42
0.00000001
 43
0.00000001
 12
1.0
 22
0.0
 32
0.0
 13
1.0
 23
0.0
 33
0.0
 40
0.0
 40
0.0
 40
0.0
 40
0.0
 40
0.1652888897502002
 40
0.3782366447712161
 40
0.5943018641462484
 40
0.7028567188035394
 40
0.9999999999999999
 40
0.9999999999999999
 40
0.9999999999999999
 40
0.9999999999999999
 10
176.3994157235984
 20
187.7755267874824
 30
0.0
 10
176.3999873601801
 20
187.7742397240673
 30
0.0
 10
176.4012954571914
 20
187.7712944895241
 30
0.0
 10
176.4294732782943
 20
187.7079037996615
 30
0.0
 10
176.4717852438965
 20
187.6130091268872
 30
0.0
 10
176.5363767631348
 20
187.4685227462282
 30
0.0
 10
176.5962156318351
 20
187.3356339202266
 30
0.0
 10
176.64004308929
 20
187.2383028794779
 30
0.0
  0
LINE
  5
AF
330
1F
100
AcDbEntity
  8
0
  6
Continuous
 62
     7
370
    15
100
AcDbLine
 10
176.6400430893
 20
187.2383028795
 30
0.0
 11
176.6400430893
 21
186.686771439
 31
0.0
  0
LINE
  5
B0
330
1F
100
AcDbEntity
  8
0
  6
Continuous
 62
     7
370
    15
100
AcDbLine
 10
155.8400430893
 20
187.2631172504
 30
0.0
 11
155.8400430893
 21
186.2342139305
 31
0.0
  0
SPLINE
  5
B1
330
1F
100
AcDbEntity
  8
0
  6
Continuous
 62
     7
370
    15
100
AcDbSpline
210
0.0
220
0.0
230
1.0
 70
     8
 71
     3
 72
    24
 73
    20
 74
     0
 42
0.00000001
 43
0.00000001
 12
1.0
 22
0.0
 32
0.0
 13
1.0
 23
0.0
 33
0.0
 40
0.0
 40
0.0
 40
0.0
 40
0.0
 40
0.2499999999999951
 40
0.2499999999999951
 40
0.3749999999999921
 40
0.3749999999999921
 40
0.4374999999999906
 40
0.4374999999999906
 40
0.4687499999999903
 40
0.4687499999999903
 40
0.49999999999999
 40
0.49999999999999
 40
0.5624999999999905
 40
0.5624999999999905
 40
0.6249999999999909
 40
0.6249999999999909
 40
0.7499999999999944
 40
0.7499999999999944
 40
1.0
 40
1.0
 40
1.0
 40
1.0
 10
176.6400430892817
 20
187.2383028794861
 30
0.0
 10
176.6404461186557
 20
187.2570101174945
 30
0.0
 10
176.6424758583707
 20
187.2732110222909
 30
0.0
 10
176.6517845697905
 20
187.2899123750743
 30
0.0
 10
176.6557105629051
 20
187.294403797817
 30
0.0
 10
176.6666399228211
 20
187.2956538399567
 30
0.0
 10
176.6707615509155
 20
187.2955683036581
 30
0.0
 10
176.6826560720978
 20
187.2891927723501
 30
0.0
 10
176.6879428840516
 20
187.2858808588432
 30
0.0
 10
176.7045108155665
 20
187.2704068725775
 30
0.0
 10
176.7124375243339
 20
187.2610966033489
 30
0.0
 10
176.729429862559
 20
187.2398305702256
 30
0.0
 10
176.73682756335
 20
187.2288681108192
 30
0.0
 10
176.7509299536918
 20
187.2075246964451
 30
0.0
 10
176.7570831109841
 20
187.1976048498836
 30
0.0
 10
176.7743968444452
 20
187.1687501844565
 30
0.0
 10
176.7844018853338
 20
187.1507038517062
 30
0.0
 10
176.8127583415645
 20
187.0974388508944
 30
0.0
 10
176.8293068809108
 20
187.0632299512883
 30
0.0
 10
176.8450031113508
 20
187.0289579104854
 30
0.0
  0
SPLINE
  5
B2
330
1F
100
AcDbEntity
  8
0
  6
Continuous
 62
     7
370
    15
100
AcDbSpline
210
0.0
220
0.0
230
1.0
 70
     8
 71
     3
 72
     8
 73
     4
 74
     0
 42
0.00000001
 43
0.00000001
 12
1.0
 22
0.0
 32
0.0
 13
1.0
 23
0.0
 33
0.0
 40
0.0
 40
0.0
 40
0.0
 40
0.0
 40
1.0
 40
1.0
 40
1.0
 40
1.0
 10
176.8450031113507
 20
187.0289579104854
 30
0.0
 10
176.8957301940731
 20
186.9181975176943
 30
0.0
 10
176.9536175070602
 20
186.7923652903146
 30
0.0
 10
177.0187227457304
 20
186.6518933754897
 30
0.0
  0
LINE
  5
B3
330
1F
100
AcDbEntity
  8
0
  6
Continuous
 62
     7
370
    15
100
AcDbLine
 10
154.3400430893
 20
186.3970918466
 30
0.0
 11
154.3400430893
 21
185.4842139305
 31
0.0
  0
LINE
  5
B4
330
1F
100
AcDbEntity
  8
0
  6
Continuous
 62
     7
370
    15
100
AcDbLine
 10
219.8400430893
 20
172.8655868646
 30
0.0
 11
226.8400430893
 21
172.8655868646
 31
0.0
  0
CIRCLE
  5
B5
330
1F
100
AcDbEntity
  8
0
  6
Continuous
 62
     7
370
    15
100
AcDbCircle
 10
208.9591979454
 20
182.1842544649
 30
0.0
 40
3.230331705094916
  0
CIRCLE
  5
B6
330
1F
100
AcDbEntity
  8
0
  6
Continuous
 62
     7
370
    15
100
AcDbCircle
 10
208.9617865039
 20
182.1878933614
 30
0.0
 40
2.484761510747295
  0
CIRCLE
  5
B7
330
1F
100
AcDbEntity
  8
0
  6
Continuous
 62
     7
370
    15
100
AcDbCircle
 10
209.0015091856
 20
182.154295248
 30
0.0
 40
2.086526868087604
  0
ARC
  5
B8
330
1F
100
AcDbEntity
  8
0
  6
Continuous
 62
     7
370
    15
100
AcDbCircle
 10
209.5639449698
 20
181.6627621642
 30
0.0
 40
2.102692050888587
100
AcDbArc
 50
58.3077354132
 51
217.347655599
  0
CIRCLE
  5
B9
330
1F
100
AcDbEntity
  8
0
  6
Continuous
 62
     7
370
    15
100
AcDbCircle
 10
209.3400430893
 20
181.8655868646
 30
0.0
 40
4.582575694955835
  0
SPLINE
  5
BA
330
1F
100
AcDbEntity
  8
0
  6
HIDDEN
 62
     7
370
     0
100
AcDbSpline
210
0.0
220
0.0
230
1.0
 70
    24
 71
     3
 72
     9
 73
     5
 74
     0
 42
0.00000001
 43
0.00000001
 12
1.0
 22
0.0
 32
0.0
 13
1.0
 23
0.0
 33
0.0
 40
0.0
 40
0.0
 40
0.0
 40
0.0
 40
0.4994994360694647
 40
1.0
 40
1.0
 40
1.0
 40
1.0
 10
200.5688529791396
 20
137.8655868645807
 30
0.0
 10
200.5855757044513
 20
137.8655868645807
 30
0.0
 10
200.6190546718015
 20
137.8655868645807
 30
0.0
 10
200.8238059030475
 20
137.8655868645807
 30
0.0
 10
200.9262840097516
 20
137.8655868645807
 30
0.0
  0
SPLINE
  5
BB
330
1F
100
AcDbEntity
  8
0
  6
HIDDEN
 62
     7
370
     0
100
AcDbSpline
210
0.0
220
0.0
230
1.0
 70
     8
 71
     3
 72
    12
 73
     8
 74
     0
 42
0.00000001
 43
0.00000001
 12
1.0
 22
0.0
 32
0.0
 13
1.0
 23
0.0
 33
0.0
 40
0.0
 40
0.0
 40
0.0
 40
0.0
 40
0.5
 40
0.5
 40
0.75
 40
0.75
 40
1.0
 40
1.0
 40
1.0
 40
1.0
 10
200.9262840097516
 20
147.8095348200584
 30
0.0
 10
200.50543129542
 20
155.3136549358196
 30
0.0
 10
200.1959731161262
 20
162.8195051636325
 30
0.0
 10
200.1129495352772
 20
174.0842005075332
 30
0.0
 10
200.148316028581
 20
177.8400780702193
 30
0.0
 10
200.3320095073187
 20
185.3535876291346
 30
0.0
 10
200.4788718939012
 20
189.1116655371304
 30
0.0
 10
200.6610496164343
 20
192.8655868645807
 30
0.0
  0
SPLINE
  5
BC
330
1F
100
AcDbEntity
  8
0
  6
HIDDEN
 62
     7
370
     0
100
AcDbSpline
210
0.0
220
0.0
230
1.0
 70
     8
 71
     3
 72
     8
 73
     4
 74
     0
 42
0.00000001
 43
0.00000001
 12
1.0
 22
0.0
 32
0.0
 13
1.0
 23
0.0
 33
0.0
 40
0.0
 40
0.0
 40
0.0
 40
0.0
 40
0.0014143833462928
 40
0.0014143833462928
 40
0.0014143833462928
 40
0.0014143833462928
 10
200.6391350032651
 20
193.8655868645807
 30
0.0
 10
200.6456510944703
 20
193.5322453550752
 30
0.0
 10
200.6529615060441
 20
193.1989111555
 30
0.0
 10
200.6610496164343
 20
192.8655868645807
 30
0.0
  0
SPLINE
  5
BD
330
1F
100
AcDbEntity
  8
0
  6
HIDDEN
 62
     7
370
     0
100
AcDbSpline
210
0.0
220
0.0
230
1.0
 70
    24
 71
     3
 72
    12
 73
     8
 74
     0
 42
0.00000001
 43
0.00000001
 12
1.0
 22
0.0
 32
0.0
 13
1.0
 23
0.0
 33
0.0
 40
0.0
 40
0.0
 40
0.0
 40
0.0
 40
0.0956873519081933
 40
0.3855515958127896
 40
0.6754762511756441
 40
0.9658228055314355
 40
1.0
 40
1.0
 40
1.0
 40
1.0
 10
200.6391350032664
 20
193.8655868645807
 30
0.0
 10
200.5744166866756
 20
193.8655868645807
 30
0.0
 10
200.3136481551789
 20
193.8655868645807
 30
0.0
 10
199.8910758678551
 20
193.8655868645807
 30
0.0
 10
199.5004502676271
 20
193.8655868645807
 30
0.0
 10
199.3078544997686
 20
193.8655868645807
 30
0.0
 10
199.3539914308833
 20
193.8655868645807
 30
0.0
 10
199.3588503383519
 20
193.8655868645807
 30
0.0
  0
LINE
  5
BE
330
1F
100
AcDbEntity
  8
0
  6
HIDDEN
 62
     7
370
     0
100
AcDbLine
 10
219.0900430893
 20
192.6155868646
 30
0.0
 11
227.5900430893
 21
192.6155868646
 31
0.0
  0
LINE
  5
BF
330
1F
100
AcDbEntity
  8
0
  6
HIDDEN
 62
     7
370
     0
100
AcDbLine
 10
217.8437124233
 20
193.8655868646
 30
0.0
 11
228.8363737553
 21
193.8655868646
 31
0.0
  0
LINE
  5
C0
330
1F
100
AcDbEntity
  8
0
  6
HIDDEN
 62
     7
370
     0
100
AcDbLine
 10
219.0938724829
 20
173.8655868646
 30
0.0
 11
227.5862136957
 21
173.8655868646
 31
0.0
  0
SPLINE
  5
C1
330
1F
100
AcDbEntity
  8
0
  6
HIDDEN
 62
     7
370
     0
100
AcDbSpline
210
0.0
220
0.0
230
1.0
 70
     8
 71
     3
 72
    60
 73
    56
 74
     0
 42
0.00000001
 43
0.00000001
 12
1.0
 22
0.0
 32
0.0
 13
1.0
 23
0.0
 33
0.0
 40
-0.062499999999999
 40
-0.062499999999999
 40
0.0
 40
0.0
 40
0.0312500000000004
 40
0.0312500000000004
 40
0.0625000000000009
 40
0.0625000000000009
 40
0.0937500000000013
 40
0.0937500000000013
 40
0.1250000000000017
 40
0.1250000000000017
 40
0.1562500000000021
 40
0.1562500000000021
 40
0.1875000000000025
 40
0.1875000000000025
 40
0.2187500000000029
 40
0.2187500000000029
 40
0.2500000000000033
 40
0.2500000000000033
 40
0.3125000000000034
 40
0.3125000000000034
 40
0.3437500000000035
 40
0.3437500000000035
 40
0.3750000000000035
 40
0.3750000000000035
 40
0.4062500000000036
 40
0.4062500000000036
 40
0.4375000000000036
 40
0.4375000000000036
 40
0.500000000000003
 40
0.500000000000003
 40
0.531250000000003
 40
0.531250000000003
 40
0.562500000000003
 40
0.562500000000003
 40
0.6250000000000026
 40
0.6250000000000026
 40
0.6562500000000023
 40
0.6562500000000023
 40
0.6875000000000021
 40
0.6875000000000021
 40
0.7500000000000017
 40
0.7500000000000017
 40
0.7812500000000016
 40
0.7812500000000016
 40
0.8125000000000014
 40
0.8125000000000014
 40
0.8437500000000013
 40
0.8437500000000013
 40
0.8750000000000012
 40
0.8750000000000012
 40
0.9062500000000011
 40
0.9062500000000011
 40
0.937500000000001
 40
0.937500000000001
 40
1.0
 40
1.0
 40
1.03125
 40
1.03125
 10
207.1624926670268
 20
172.678487350474
 30
0.0
 10
207.4801975358215
 20
172.9591366216341
 30
0.0
 10
207.5765705473398
 20
173.0604349316963
 30
0.0
 10
207.7508498402541
 20
173.2778160946434
 30
0.0
 10
207.8294599364228
 20
173.395255892942
 30
0.0
 10
207.9624866713872
 20
173.6395285927945
 30
0.0
 10
208.0166232395147
 20
173.7652286646589
 30
0.0
 10
208.0990650115212
 20
174.0236087257942
 30
0.0
 10
208.1273117847103
 20
174.1580677766235
 30
0.0
 10
208.1528842540027
 20
174.4202847573474
 30
0.0
 10
208.150943417637
 20
174.5491839997975
 30
0.0
 10
208.1168934611312
 20
174.802487060325
 30
0.0
 10
208.0849240583753
 20
174.9239718539186
 30
0.0
 10
207.9947149046279
 20
175.1517337970495
 30
0.0
 10
207.935513312267
 20
175.2599198596713
 30
0.0
 10
207.7958288711346
 20
175.4569309563757
 30
0.0
 10
207.7152841703491
 20
175.5466261524019
 30
0.0
 10
207.4423144699785
 20
175.7926948928315
 30
0.0
 10
207.2254519765495
 20
175.9202805197253
 30
0.0
 10
206.8595212255595
 20
176.06131963962
 30
0.0
 10
206.7328472229074
 20
176.0990679777553
 30
0.0
 10
206.4694203478484
 20
176.1571826076115
 30
0.0
 10
206.3306720502813
 20
176.1776563771864
 30
0.0
 10
206.0521979087918
 20
176.1987724828619
 30
0.0
 10
205.9130787684215
 20
176.1996918378432
 30
0.0
 10
205.6350840928432
 20
176.1816898861301
 30
0.0
 10
205.4952422382623
 20
176.162286103555
 30
0.0
 10
205.0981701671299
 20
176.0748036944923
 30
0.0
 10
204.8533126380922
 20
175.9756806846763
 30
0.0
 10
204.5441013452741
 20
175.7716828398644
 30
0.0
 10
204.4490523149321
 20
175.6933781598484
 30
0.0
 10
204.2823686788153
 20
175.5214875099982
 30
0.0
 10
204.2096813744283
 20
175.4274030826064
 30
0.0
 10
204.0236359829728
 20
175.1173395523717
 30
0.0
 10
203.9475731780925
 20
174.8815174935919
 30
0.0
 10
203.9127394381475
 20
174.4973433889092
 30
0.0
 10
203.9145742104345
 20
174.3674134250901
 30
0.0
 10
203.9444395623061
 20
174.1039367733135
 30
0.0
 10
203.973064927212
 20
173.9692034287318
 30
0.0
 10
204.0953604354425
 20
173.5776769378958
 30
0.0
 10
204.2278984111142
 20
173.324308911265
 30
0.0
 10
204.4859955431438
 20
172.9939100221252
 30
0.0
 10
204.583378178124
 20
172.8901503309882
 30
0.0
 10
204.7947140925617
 20
172.7048398857285
 30
0.0
 10
204.9079990999898
 20
172.6234255205269
 30
0.0
 10
205.1509894374651
 20
172.4846239208409
 30
0.0
 10
205.2820226716278
 20
172.4271808400263
 30
0.0
 10
205.5487642112066
 20
172.34449167183
 30
0.0
 10
205.6857849426965
 20
172.3182185621933
 30
0.0
 10
205.9675304224976
 20
172.2972806795959
 30
0.0
 10
206.1088919104702
 20
172.3031198980299
 30
0.0
 10
206.3858236365098
 20
172.3447309648957
 30
0.0
 10
206.5238330405453
 20
172.3810572017514
 30
0.0
 10
206.9186252385064
 20
172.5283210064284
 30
0.0
 10
207.1624926670268
 20
172.678487350474
 30
0.0
 10
207.4801975358215
 20
172.9591366216341
 30
0.0
  0
ELLIPSE
  5
C2
330
1F
100
AcDbEntity
  8
0
  6
HIDDEN
 62
     7
370
     0
100
AcDbEllipse
 10
208.4241671863
 20
181.754163833
 30
0.0
 11
0.7107426670596624
 21
2.168423190543393
 31
0.0
210
0.0
220
0.0
230
1.0
 40
0.9202727667
 41
0.0
 42
4.32745657711019
  0
ELLIPSE
  5
C3
330
1F
100
AcDbEntity
  8
0
  6
HIDDEN
 62
     7
370
     0
100
AcDbEllipse
 10
208.4241671863
 20
181.754163833
 30
0.0
 11
0.7107426670596624
 21
2.168423190543393
 31
0.0
210
0.0
220
0.0
230
1.0
 40
0.9202727667
 41
6.098324663107414
 42
6.283185307179586
  0
CIRCLE
  5
C4
330
1F
100
AcDbEntity
  8
0
  6
HIDDEN
 62
     7
370
     0
100
AcDbCircle
 10
209.3400430893
 20
181.8655868646
 30
0.0
 40
5.999999999999972
  0
SPLINE
  5
C5
330
1F
100
AcDbEntity
  8
0
  6
HIDDEN
 62
     7
370
     0
100
AcDbSpline
210
0.0
220
0.0
230
1.0
 70
     8
 71
     3
 72
    26
 73
    22
 74
     0
 42
0.00000001
 43
0.00000001
 12
1.0
 22
0.0
 32
0.0
 13
1.0
 23
0.0
 33
0.0
 40
0.0
 40
0.0
 40
0.0
 40
0.0
 40
0.052745721031385
 40
0.1070257172525099
 40
0.1597701171731988
 40
0.214035148877577
 40
0.2669431835722432
 40
0.3213787202150327
 40
0.3743913566903926
 40
0.4289511817708809
 40
0.4817835258655578
 40
0.5361592230128356
 40
0.5888075855785583
 40
0.6429778685254162
 40
0.695725548218749
 40
0.7499897082110758
 40
0.8029646709366163
 40
0.8574748806625243
 40
0.9104514695259105
 40
0.9649772344144466
 40
0.9999999999999999
 40
0.9999999999999999
 40
0.9999999999999999
 40
0.9999999999999999
 10
188.34004308929
 20
152.8655868645807
 30
0.0
 10
188.3453553057588
 20
152.8661216536635
 30
0.0
 10
188.35613426122
 20
152.8672067878515
 30
0.0
 10
188.4428346170237
 20
152.8757074223407
 30
0.0
 10
188.5799452894612
 20
152.8883633690729
 30
0.0
 10
188.7663641631274
 20
152.904078355782
 30
0.0
 10
188.9990044951523
 20
152.9212275898081
 30
0.0
 10
189.2678861505652
 20
152.9376624713112
 30
0.0
 10
189.5700915222208
 20
152.95176822132
 30
0.0
 10
189.8914000978847
 20
152.9616968686794
 30
0.0
 10
190.2281845424792
 20
152.9664809291818
 30
0.0
 10
190.5643335464857
 20
152.9655185140812
 30
0.0
 10
190.8966984936974
 20
152.9589333111069
 30
0.0
 10
191.2101495755202
 20
152.9475947763805
 30
0.0
 10
191.5018994523757
 20
152.9325821174841
 30
0.0
 10
191.758967895141
 20
152.9157870687185
 30
0.0
 10
191.9782813486299
 20
152.8988387519586
 30
0.0
 10
192.150266252307
 20
152.883843428266
 30
0.0
 10
192.2699968317808
 20
152.8725438823531
 30
0.0
 10
192.3341535452417
 20
152.8661778703974
 30
0.0
 10
192.3339805276118
 20
152.8661927057763
 30
0.0
 10
192.3339128597688
 20
152.8661985079485
 30
0.0
  0
SPLINE
  5
C6
330
1F
100
AcDbEntity
  8
0
  6
HIDDEN
 62
     7
370
     0
100
AcDbSpline
210
0.0
220
0.0
230
1.0
 70
     8
 71
     3
 72
    12
 73
     8
 74
     0
 42
0.00000001
 43
0.00000001
 12
1.0
 22
0.0
 32
0.0
 13
1.0
 23
0.0
 33
0.0
 40
0.0
 40
0.0
 40
0.0
 40
0.0
 40
0.2499999999999992
 40
0.2499999999999992
 40
0.4999999999999984
 40
0.4999999999999984
 40
1.0
 40
1.0
 40
1.0
 40
1.0
 10
185.2719450912892
 20
167.0363738689292
 30
0.0
 10
185.2344332052446
 20
167.0363738689291
 30
0.0
 10
185.1991458575398
 20
167.0215690546424
 30
0.0
 10
185.1402160093014
 20
166.9779771815165
 30
0.0
 10
185.1166902828323
 20
166.9504637554305
 30
0.0
 10
185.0564314950643
 20
166.8613320233169
 30
0.0
 10
185.0308367327749
 20
166.7949461726991
 30
0.0
 10
185.0121374701539
 20
166.7273417375217
 30
0.0
  0
LINE
  5
C7
330
1F
100
AcDbEntity
  8
0
  6
HIDDEN
 62
     7
370
     0
100
AcDbLine
 10
187.4081410873
 20
167.0363738689
 30
0.0
 11
185.2719450913
 21
167.0363738689
 31
0.0
  0
SPLINE
  5
C8
330
1F
100
AcDbEntity
  8
0
  6
HIDDEN
 62
     7
370
     0
100
AcDbSpline
210
0.0
220
0.0
230
1.0
 70
     8
 71
     3
 72
    12
 73
     8
 74
     0
 42
0.00000001
 43
0.00000001
 12
1.0
 22
0.0
 32
0.0
 13
1.0
 23
0.0
 33
0.0
 40
0.0
 40
0.0
 40
0.0
 40
0.0
 40
0.4999999999999916
 40
0.4999999999999916
 40
0.7499999999999958
 40
0.7499999999999958
 40
1.0
 40
1.0
 40
1.0
 40
1.0
 10
187.6679487084262
 20
166.7273417375217
 30
0.0
 10
187.6492554752958
 20
166.7949243739621
 30
0.0
 10
187.623600177884
 20
166.8614069434395
 30
0.0
 10
187.5634395551975
 20
166.9504020263371
 30
0.0
 10
187.5393672434432
 20
166.9784039233362
 30
0.0
 10
187.4809857230926
 20
167.0214803240014
 30
0.0
 10
187.4455168954396
 20
167.0363738689292
 30
0.0
 10
187.4081410872908
 20
167.0363738689292
 30
0.0
  0
ELLIPSE
  5
C9
330
1F
100
AcDbEntity
  8
0
  6
HIDDEN
 62
     7
370
     0
100
AcDbEllipse
 10
177.3911139169
 20
172.8655868646
 30
0.0
 11
-9.367417879781698
 21
19.74174915274992
 31
0.0
210
0.0
220
0.0
230
1.0
 40
0.3419987131
 41
3.292664382516909
 42
4.239566697061008
  0
SPLINE
  5
CA
330
1F
100
AcDbEntity
  8
0
  6
HIDDEN
 62
     7
370
     0
100
AcDbSpline
210
0.0
220
0.0
230
1.0
 70
     8
 71
     3
 72
    12
 73
     8
 74
     0
 42
0.00000001
 43
0.00000001
 12
1.0
 22
0.0
 32
0.0
 13
1.0
 23
0.0
 33
0.0
 40
0.0
 40
0.0
 40
0.0
 40
0.0
 40
0.2500000000000014
 40
0.2500000000000014
 40
0.5000000000000029
 40
0.5000000000000029
 40
1.0
 40
1.0
 40
1.0
 40
1.0
 10
187.4081410872908
 20
153.7339304843474
 30
0.0
 10
187.4456529733355
 20
153.7339304843474
 30
0.0
 10
187.4809403210402
 20
153.7384340286099
 30
0.0
 10
187.5398701692787
 20
153.7518072280632
 30
0.0
 10
187.5633958957477
 20
153.7602921306344
 30
0.0
 10
187.6236546835158
 20
153.7880399344689
 30
0.0
 10
187.6492494458051
 20
153.8090297982093
 30
0.0
 10
187.6679487084262
 20
153.8308305813988
 30
0.0
  0
LINE
  5
CB
330
1F
100
AcDbEntity
  8
0
  6
HIDDEN
 62
     7
370
     0
100
AcDbLine
 10
185.2719450913
 20
153.7339304843
 30
0.0
 11
187.4081410873
 21
153.7339304843
 31
0.0
  0
SPLINE
  5
CC
330
1F
100
AcDbEntity
  8
0
  6
HIDDEN
 62
     7
370
     0
100
AcDbSpline
210
0.0
220
0.0
230
1.0
 70
     8
 71
     3
 72
    12
 73
     8
 74
     0
 42
0.00000001
 43
0.00000001
 12
1.0
 22
0.0
 32
0.0
 13
1.0
 23
0.0
 33
0.0
 40
0.0
 40
0.0
 40
0.0
 40
0.0
 40
0.5
 40
0.5
 40
0.75
 40
0.75
 40
1.0
 40
1.0
 40
1.0
 40
1.0
 10
185.0121374701539
 20
153.8308305813989
 30
0.0
 10
185.0308307032843
 20
153.8090368277709
 30
0.0
 10
185.0564860006961
 20
153.7880166660612
 30
0.0
 10
185.1166466233826
 20
153.7603113200975
 30
0.0
 10
185.1407189351369
 20
153.7516761039041
 30
0.0
 10
185.1991004554874
 20
153.7384614586776
 30
0.0
 10
185.2345692831405
 20
153.7339304843474
 30
0.0
 10
185.2719450912892
 20
153.7339304843474
 30
0.0
  0
ELLIPSE
  5
CD
330
1F
100
AcDbEntity
  8
0
  6
HIDDEN
 62
     7
370
     0
100
AcDbEllipse
 10
195.2889722617
 20
172.8655868646
 30
0.0
 11
9.367417879781556
 21
19.74174915274992
 31
0.0
210
0.0
220
0.0
230
1.0
 40
0.3419987131
 41
2.043618610118588
 42
2.990520924662713
  0
SPLINE
  5
CE
330
1F
100
AcDbEntity
  8
0
  6
HIDDEN
 62
     7
370
     0
100
AcDbSpline
210
0.0
220
0.0
230
1.0
 70
     8
 71
     3
 72
    12
 73
     8
 74
     0
 42
0.00000001
 43
0.00000001
 12
1.0
 22
0.0
 32
0.0
 13
1.0
 23
0.0
 33
0.0
 40
0.0
 40
0.0
 40
0.0
 40
0.0
 40
0.2500000000000018
 40
0.2500000000000018
 40
0.5000000000000037
 40
0.5000000000000037
 40
1.0
 40
1.0
 40
1.0
 40
1.0
 10
185.2719450912892
 20
191.9972432448142
 30
0.0
 10
185.2344332052446
 20
191.9972432448142
 30
0.0
 10
185.1991458575398
 20
191.9927397005517
 30
0.0
 10
185.1402160093014
 20
191.9793665010984
 30
0.0
 10
185.1166902828323
 20
191.9708815985272
 30
0.0
 10
185.0564314950642
 20
191.9431337946926
 30
0.0
 10
185.0308367327749
 20
191.9221439309523
 30
0.0
 10
185.0121374701539
 20
191.9003431477628
 30
0.0
  0
LINE
  5
CF
330
1F
100
AcDbEntity
  8
0
  6
HIDDEN
 62
     7
370
     0
100
AcDbLine
 10
187.4081410873
 20
191.9972432448
 30
0.0
 11
185.2719450913
 21
191.9972432448
 31
0.0
  0
SPLINE
  5
D0
330
1F
100
AcDbEntity
  8
0
  6
HIDDEN
 62
     7
370
     0
100
AcDbSpline
210
0.0
220
0.0
230
1.0
 70
     8
 71
     3
 72
    12
 73
     8
 74
     0
 42
0.00000001
 43
0.00000001
 12
1.0
 22
0.0
 32
0.0
 13
1.0
 23
0.0
 33
0.0
 40
0.0
 40
0.0
 40
0.0
 40
0.0
 40
0.5000000000000029
 40
0.5000000000000029
 40
0.7500000000000014
 40
0.7500000000000014
 40
1.0
 40
1.0
 40
1.0
 40
1.0
 10
187.6679487084262
 20
191.9003431477628
 30
0.0
 10
187.6492554752958
 20
191.9221369013907
 30
0.0
 10
187.623600177884
 20
191.9431570631003
 30
0.0
 10
187.5634395551975
 20
191.970862409064
 30
0.0
 10
187.5393672434432
 20
191.9794976252574
 30
0.0
 10
187.4809857230926
 20
191.992712270484
 30
0.0
 10
187.4455168954396
 20
191.9972432448142
 30
0.0
 10
187.4081410872908
 20
191.9972432448142
 30
0.0
  0
ELLIPSE
  5
D1
330
1F
100
AcDbEntity
  8
0
  6
HIDDEN
 62
     7
370
     0
100
AcDbEllipse
 10
177.3911139169
 20
172.8655868646
 30
0.0
 11
9.367417879781868
 21
19.74174915274992
 31
0.0
210
0.0
220
0.0
230
1.0
 40
0.3419987131
 41
5.185211263708418
 42
6.132113578252579
  0
SPLINE
  5
D2
330
1F
100
AcDbEntity
  8
0
  6
HIDDEN
 62
     7
370
     0
100
AcDbSpline
210
0.0
220
0.0
230
1.0
 70
     8
 71
     3
 72
    12
 73
     8
 74
     0
 42
0.00000001
 43
0.00000001
 12
1.0
 22
0.0
 32
0.0
 13
1.0
 23
0.0
 33
0.0
 40
0.0
 40
0.0
 40
0.0
 40
0.0
 40
0.2500000000000027
 40
0.2500000000000027
 40
0.5000000000000053
 40
0.5000000000000053
 40
1.0
 40
1.0
 40
1.0
 40
1.0
 10
187.4081410872908
 20
178.6947998602327
 30
0.0
 10
187.4456529733355
 20
178.6947998602327
 30
0.0
 10
187.4809403210402
 20
178.7096046745195
 30
0.0
 10
187.5398701692787
 20
178.7531965476453
 30
0.0
 10
187.5633958957477
 20
178.7807099737313
 30
0.0
 10
187.6236546835158
 20
178.8698417058449
 30
0.0
 10
187.6492494458051
 20
178.9362275564627
 30
0.0
 10
187.6679487084262
 20
179.0038319916401
 30
0.0
  0
LINE
  5
D3
330
1F
100
AcDbEntity
  8
0
  6
HIDDEN
 62
     7
370
     0
100
AcDbLine
 10
185.2719450913
 20
178.6947998602
 30
0.0
 11
187.4081410873
 21
178.6947998602
 31
0.0
  0
SPLINE
  5
D4
330
1F
100
AcDbEntity
  8
0
  6
HIDDEN
 62
     7
370
     0
100
AcDbSpline
210
0.0
220
0.0
230
1.0
 70
     8
 71
     3
 72
    12
 73
     8
 74
     0
 42
0.00000001
 43
0.00000001
 12
1.0
 22
0.0
 32
0.0
 13
1.0
 23
0.0
 33
0.0
 40
0.0
 40
0.0
 40
0.0
 40
0.0
 40
0.5000000000000006
 40
0.5000000000000006
 40
0.7500000000000002
 40
0.7500000000000002
 40
1.0
 40
1.0
 40
1.0
 40
1.0
 10
185.0121374701539
 20
179.0038319916401
 30
0.0
 10
185.0308307032843
 20
178.9362493551997
 30
0.0
 10
185.0564860006961
 20
178.8697667857223
 30
0.0
 10
185.1166466233826
 20
178.7807717028248
 30
0.0
 10
185.1407189351369
 20
178.7527698058256
 30
0.0
 10
185.1991004554874
 20
178.7096934051604
 30
0.0
 10
185.2345692831405
 20
178.6947998602327
 30
0.0
 10
185.2719450912892
 20
178.6947998602327
 30
0.0
  0
ELLIPSE
  5
D5
330
1F
100
AcDbEntity
  8
0
  6
HIDDEN
 62
     7
370
     0
100
AcDbEllipse
 10
195.2889722617
 20
172.8655868646
 30
0.0
 11
-9.367417879781756
 21
19.74174915274992
 31
0.0
210
0.0
220
0.0
230
1.0
 40
0.3419987131
 41
0.1510717289270533
 42
1.097974043471184
  0
LINE
  5
D6
330
1F
100
AcDbEntity
  8
0
  6
HIDDEN
 62
     7
370
     0
100
AcDbLine
 10
178.3400430893
 20
192.5655868646
 30
0.0
 11
178.3400430893
 21
153.1655868646
 31
0.0
  0
LINE
  5
D7
330
1F
100
AcDbEntity
  8
0
  6
HIDDEN
 62
     7
370
     0
100
AcDbLine
 10
178.3400430893
 20
157.0692445333
 30
0.0
 11
178.3400430893
 21
188.6619291959
 31
0.0
  0
SPLINE
  5
D8
330
1F
100
AcDbEntity
  8
0
  6
HIDDEN
 62
     7
370
     0
100
AcDbSpline
210
0.0
220
0.0
230
1.0
 70
     8
 71
     3
 72
    18
 73
    14
 74
     0
 42
0.00000001
 43
0.00000001
 12
1.0
 22
0.0
 32
0.0
 13
1.0
 23
0.0
 33
0.0
 40
0.0
 40
0.0
 40
0.0
 40
0.0
 40
0.2500000000000007
 40
0.2500000000000007
 40
0.5000000000000013
 40
0.5000000000000013
 40
0.625000000000001
 40
0.625000000000001
 40
0.7500000000000007
 40
0.7500000000000007
 40
0.8750000000000003
 40
0.8750000000000003
 40
1.0
 40
1.0
 40
1.0
 40
1.0
 10
177.0839587717271
 20
162.5668492240589
 30
0.0
 10
177.1182598162598
 20
162.5034944375946
 30
0.0
 10
177.1560800875566
 20
162.4418485510107
 30
0.0
 10
177.2426984080174
 20
162.3225129152965
 30
0.0
 10
177.2910697427609
 20
162.2647548115496
 30
0.0
 10
177.3804727248794
 20
162.1823822570443
 30
0.0
 10
177.4130700087566
 20
162.1556331220068
 30
0.0
 10
177.4894519127015
 20
162.1044390718305
 30
0.0
 10
177.5324903500423
 20
162.0801687552733
 30
0.0
 10
177.6383033828741
 20
162.0410878705072
 30
0.0
 10
177.7033418076052
 20
162.0271983842574
 30
0.0
 10
177.8364938794078
 20
162.029652214974
 30
0.0
 10
177.895863059871
 20
162.0447988657689
 30
0.0
 10
177.9450662004148
 20
162.0642607177128
 30
0.0
  0
SPLINE
  5
D9
330
1F
100
AcDbEntity
  8
0
  6
HIDDEN
 62
     7
370
     0
100
AcDbSpline
210
0.0
220
0.0
230
1.0
 70
     8
 71
     3
 72
    16
 73
    12
 74
     0
 42
0.00000001
 43
0.00000001
 12
1.0
 22
0.0
 32
0.0
 13
1.0
 23
0.0
 33
0.0
 40
0.0
 40
0.0
 40
0.0
 40
0.0
 40
0.0624999999999996
 40
0.0624999999999996
 40
0.1249999999999992
 40
0.1249999999999992
 40
0.2500000000000006
 40
0.2500000000000006
 40
0.4999999999999988
 40
0.4999999999999988
 40
1.0
 40
1.0
 40
1.0
 40
1.0
 10
177.9450662003839
 20
162.0642607177517
 30
0.0
 10
177.9571360336598
 20
162.0690348298477
 30
0.0
 10
177.9714116885931
 20
162.0719965145191
 30
0.0
 10
178.0028761007175
 20
162.0674607055447
 30
0.0
 10
178.0183766255279
 20
162.0594364334559
 30
0.0
 10
178.0538155221348
 20
162.0306605859931
 30
0.0
 10
178.0674081382382
 20
162.0071128692757
 30
0.0
 10
178.100402456631
 20
161.9403136387656
 30
0.0
 10
178.1111898499497
 20
161.896775804563
 30
0.0
 10
178.1362430972289
 20
161.7691351342685
 30
0.0
 10
178.1400430892901
 20
161.6895677725089
 30
0.0
 10
178.1400430892902
 20
161.6128819274897
 30
0.0
  0
LINE
  5
DA
330
1F
100
AcDbEntity
  8
0
  6
HIDDEN
 62
     7
370
     0
100
AcDbLine
 10
178.1400430893
 20
158.7757665857
 30
0.0
 11
178.1400430893
 21
161.6128819275
 31
0.0
  0
SPLINE
  5
DB
330
1F
100
AcDbEntity
  8
0
  6
HIDDEN
 62
     7
370
     0
100
AcDbSpline
210
0.0
220
0.0
230
1.0
 70
     8
 71
     3
 72
     8
 73
     4
 74
     0
 42
0.00000001
 43
0.00000001
 12
1.0
 22
0.0
 32
0.0
 13
1.0
 23
0.0
 33
0.0
 40
0.0
 40
0.0
 40
0.0
 40
0.0
 40
1.0
 40
1.0
 40
1.0
 40
1.0
 10
177.0839587717271
 20
186.5231702319146
 30
0.0
 10
177.0596457754577
 20
186.5670188891861
 30
0.0
 10
177.0381489510292
 20
186.6099791407544
 30
0.0
 10
177.0187227457303
 20
186.6518933754897
 30
0.0
  0
SPLINE
  5
DC
330
1F
100
AcDbEntity
  8
0
  6
HIDDEN
 62
     7
370
     0
100
AcDbSpline
210
0.0
220
0.0
230
1.0
 70
     8
 71
     3
 72
    18
 73
    14
 74
     0
 42
0.00000001
 43
0.00000001
 12
1.0
 22
0.0
 32
0.0
 13
1.0
 23
0.0
 33
0.0
 40
0.0
 40
0.0
 40
0.0
 40
0.0
 40
0.25
 40
0.25
 40
0.5
 40
0.5
 40
0.625
 40
0.625
 40
0.75
 40
0.75
 40
0.875
 40
0.875
 40
1.0
 40
1.0
 40
1.0
 40
1.0
 10
177.0839587717271
 20
186.5231702319146
 30
0.0
 10
177.1182570907397
 20
186.4613129758729
 30
0.0
 10
177.1560714880517
 20
186.3992416668972
 30
0.0
 10
177.2426595491252
 20
186.2757849428548
 30
0.0
 10
177.2910096548039
 20
186.2142893055413
 30
0.0
 10
177.3803262436037
 20
186.1248724735923
 30
0.0
 10
177.412886599092
 20
186.0955358095579
 30
0.0
 10
177.4891322328209
 20
186.0392530333163
 30
0.0
 10
177.5322916026009
 20
186.0123203653412
 30
0.0
 10
177.638020426619
 20
185.9704044943861
 30
0.0
 10
177.7030176036736
 20
185.9565349390203
 30
0.0
 10
177.8365020936279
 20
185.9659133298219
 30
0.0
 10
177.8958294870734
 20
185.9872020087634
 30
0.0
 10
177.9450662004147
 20
186.0128526218811
 30
0.0
  0
SPLINE
  5
DD
330
1F
100
AcDbEntity
  8
0
  6
HIDDEN
 62
     7
370
     0
100
AcDbSpline
210
0.0
220
0.0
230
1.0
 70
     8
 71
     3
 72
    16
 73
    12
 74
     0
 42
0.00000001
 43
0.00000001
 12
1.0
 22
0.0
 32
0.0
 13
1.0
 23
0.0
 33
0.0
 40
0.0
 40
0.0
 40
0.0
 40
0.0
 40
0.0624999999999994
 40
0.0624999999999994
 40
0.1249999999999988
 40
0.1249999999999988
 40
0.2499999999999975
 40
0.2499999999999975
 40
0.499999999999998
 40
0.499999999999998
 40
1.0
 40
1.0
 40
1.0
 40
1.0
 10
177.9450662003839
 20
186.0128526218872
 30
0.0
 10
177.9571360336598
 20
186.0191405847271
 30
0.0
 10
177.9714116885931
 20
186.0254185566968
 30
0.0
 10
178.0028761007175
 20
186.0345024235332
 30
0.0
 10
178.0183766255279
 20
186.0364729127922
 30
0.0
 10
178.0538155221348
 20
186.0361594558506
 30
0.0
 10
178.0674081382382
 20
186.0301377988487
 30
0.0
 10
178.100402456631
 20
186.0098937853404
 30
0.0
 10
178.1111898499497
 20
185.9914829773415
 30
0.0
 10
178.1362430972289
 20
185.9315170805232
 30
0.0
 10
178.1400430892901
 20
185.8850769193104
 30
0.0
 10
178.1400430892902
 20
185.8352866841189
 30
0.0
  0
LINE
  5
DE
330
1F
100
AcDbEntity
  8
0
  6
HIDDEN
 62
     7
370
     0
100
AcDbLine
 10
178.1400430893
 20
171.1485919821
 30
0.0
 11
178.1400430893
 21
185.8352866841
 31
0.0
  0
SPLINE
  5
DF
330
1F
100
AcDbEntity
  8
0
  6
HIDDEN
 62
     7
370
     0
100
AcDbSpline
210
0.0
220
0.0
230
1.0
 70
     8
 71
     3
 72
    16
 73
    12
 74
     0
 42
0.00000001
 43
0.00000001
 12
1.0
 22
0.0
 32
0.0
 13
1.0
 23
0.0
 33
0.0
 40
0.0
 40
0.0
 40
0.0
 40
0.0
 40
0.4999999999999989
 40
0.4999999999999989
 40
0.7499999999999986
 40
0.7499999999999986
 40
0.8749999999999981
 40
0.8749999999999981
 40
0.937499999999999
 40
0.937499999999999
 40
1.0
 40
1.0
 40
1.0
 40
1.0
 10
178.14004308929
 20
171.1485919821336
 30
0.0
 10
178.14004308929
 20
171.0218142146223
 30
0.0
 10
178.1361596641311
 20
170.8958247647743
 30
0.0
 10
178.1113443388564
 20
170.7094892527946
 30
0.0
 10
178.1005048911439
 20
170.6467674337413
 30
0.0
 10
178.0672891090951
 20
170.5592239829139
 30
0.0
 10
178.0539073654663
 20
170.5300441439108
 30
0.0
 10
178.0183977156041
 20
170.5008544966054
 30
0.0
 10
178.0029807491033
 20
170.4947781154876
 30
0.0
 10
177.9712797269547
 20
170.4993688233668
 30
0.0
 10
177.9571334420039
 20
170.5085875545152
 30
0.0
 10
177.9450662004143
 20
170.5196472541486
 30
0.0
  0
SPLINE
  5
E0
330
1F
100
AcDbEntity
  8
0
  6
HIDDEN
 62
     7
370
     0
100
AcDbSpline
210
0.0
220
0.0
230
1.0
 70
     8
 71
     3
 72
    18
 73
    14
 74
     0
 42
0.00000001
 43
0.00000001
 12
1.0
 22
0.0
 32
0.0
 13
1.0
 23
0.0
 33
0.0
 40
0.0
 40
0.0
 40
0.0
 40
0.0
 40
0.1249999999999998
 40
0.1249999999999998
 40
0.2499999999999996
 40
0.2499999999999996
 40
0.3749999999999993
 40
0.3749999999999993
 40
0.4999999999999991
 40
0.4999999999999991
 40
0.7499999999999996
 40
0.7499999999999996
 40
1.0
 40
1.0
 40
1.0
 40
1.0
 10
177.9450662004205
 20
170.5196472541571
 30
0.0
 10
177.8963620714037
 20
170.56428488189
 30
0.0
 10
177.8378544021992
 20
170.6004053292805
 30
0.0
 10
177.7061287395683
 20
170.6134053259464
 30
0.0
 10
177.6413711009479
 20
170.5868397445138
 30
0.0
 10
177.5361606843289
 20
170.5079934738179
 30
0.0
 10
177.4929446493887
 20
170.457489168262
 30
0.0
 10
177.4167664279077
 20
170.3515990694873
 30
0.0
 10
177.3839116602236
 20
170.295728326348
 30
0.0
 10
177.2935439413818
 20
170.123523688222
 30
0.0
 10
177.2441215721924
 20
170.0022447317755
 30
0.0
 10
177.1564691101044
 20
169.7570310785704
 30
0.0
 10
177.1184063738699
 20
169.632493108576
 30
0.0
 10
177.0839587717265
 20
169.506741137767
 30
0.0
  0
SPLINE
  5
E1
330
1F
100
AcDbEntity
  8
0
  6
HIDDEN
 62
     7
370
     0
100
AcDbSpline
210
0.0
220
0.0
230
1.0
 70
     8
 71
     3
 72
     8
 73
     4
 74
     0
 42
0.00000001
 43
0.00000001
 12
1.0
 22
0.0
 32
0.0
 13
1.0
 23
0.0
 33
0.0
 40
0.0
 40
0.0
 40
0.0
 40
0.0
 40
1.0
 40
1.0
 40
1.0
 40
1.0
 10
177.0839587717267
 20
169.5067411377674
 30
0.0
 10
177.0596447265925
 20
169.4179820107535
 30
0.0
 10
177.0381481726236
 20
169.3285695672912
 30
0.0
 10
177.0187227457303
 20
169.2386871225195
 30
0.0
  0
SPLINE
  5
E2
330
1F
100
AcDbEntity
  8
0
  6
HIDDEN
 62
     7
370
     0
100
AcDbSpline
210
0.0
220
0.0
230
1.0
 70
     8
 71
     3
 72
     8
 73
     4
 74
     0
 42
0.00000001
 43
0.00000001
 12
1.0
 22
0.0
 32
0.0
 13
1.0
 23
0.0
 33
0.0
 40
0.0
 40
0.0
 40
0.0
 40
0.0
 40
1.0
 40
1.0
 40
1.0
 40
1.0
 10
177.0187227457303
 20
162.7061800957329
 30
0.0
 10
177.0381484258803
 20
162.6582095807966
 30
0.0
 10
177.0596450678364
 20
162.6117571718797
 30
0.0
 10
177.0839587717265
 20
162.5668492240578
 30
0.0
  0
LINE
  5
E3
330
1F
100
AcDbEntity
  8
0
  6
HIDDEN
 62
     7
370
     0
100
AcDbLine
 10
178.1400430893
 20
171.1485919821
 30
0.0
 11
178.1400430893
 21
185.8352866841
 31
0.0
  0
LINE
  5
E4
330
1F
100
AcDbEntity
  8
0
  6
HIDDEN
 62
     7
370
     0
100
AcDbLine
 10
155.3670751213
 20
163.3028935605
 30
0.0
 11
155.3670751213
 21
182.4282801687
 31
0.0
  0
LINE
  5
E5
330
1F
100
AcDbEntity
  8
0
  6
HIDDEN
 62
     7
370
     0
100
AcDbLine
 10
154.3400430893
 20
162.7248304767
 30
0.0
 11
154.3400430893
 21
183.0063432525
 31
0.0
  0
LINE
  5
E6
330
1F
100
AcDbEntity
  8
0
  6
HIDDEN
 62
     7
370
     0
100
AcDbLine
 10
158.8670751213
 20
163.6346467569
 30
0.0
 11
158.8670751213
 21
182.0965269723
 31
0.0
  0
LINE
  5
E7
330
1F
100
AcDbEntity
  8
0
  6
HIDDEN
 62
     7
370
     0
100
AcDbLine
 10
176.6400430893
 20
162.403248017
 30
0.0
 11
176.6400430893
 21
159.74548808
 31
0.0
  0
LINE
  5
E8
330
1F
100
AcDbEntity
  8
0
  6
HIDDEN
 62
     7
370
     0
100
AcDbLine
 10
155.8400430893
 20
162.8558055255
 30
0.0
 11
155.8400430893
 21
160.437792547
 31
0.0
  0
SPLINE
  5
E9
330
1F
100
AcDbEntity
  8
0
  6
HIDDEN
 62
     7
370
     0
100
AcDbSpline
210
0.0
220
0.0
230
1.0
 70
     8
 71
     3
 72
     8
 73
     4
 74
     0
 42
0.00000001
 43
0.00000001
 12
1.0
 22
0.0
 32
0.0
 13
1.0
 23
0.0
 33
0.0
 40
0.0000137050638847
 40
0.0000137050638847
 40
0.0000137050638847
 40
0.0000137050638847
 40
0.0027147143562631
 40
0.0027147143562631
 40
0.0027147143562631
 40
0.0027147143562631
 10
158.54004308929
 20
160.3744400341608
 30
0.0
 10
157.6400394033802
 20
160.3955946415066
 30
0.0
 10
156.7400392247848
 20
160.4167121496648
 30
0.0
 10
155.84004308929
 20
160.4377925469955
 30
0.0
  0
SPLINE
  5
EA
330
1F
100
AcDbEntity
  8
0
  6
HIDDEN
 62
     7
370
     0
100
AcDbSpline
210
0.0
220
0.0
230
1.0
 70
     8
 71
     3
 72
    15
 73
    11
 74
     0
 42
0.00000001
 43
0.00000001
 12
1.0
 22
0.0
 32
0.0
 13
1.0
 23
0.0
 33
0.0
 40
0.0
 40
0.0
 40
0.0
 40
0.0
 40
0.0084168311504896
 40
0.0748721386525707
 40
0.1431724689973293
 40
0.217227455112512
 40
0.2921201634400498
 40
0.4450009775818481
 40
0.7218843042375497
 40
0.9999999999999999
 40
0.9999999999999999
 40
0.9999999999999999
 40
0.9999999999999999
 10
160.2462030702587
 20
160.1574880466392
 30
0.0
 10
160.2468914297953
 20
160.1574286846333
 30
0.0
 10
160.2530147498126
 20
160.156900628379
 30
0.0
 10
160.22783714423
 20
160.1590611455199
 30
0.0
 10
160.1704543378675
 20
160.1640964110472
 30
0.0
 10
160.077965892754
 20
160.1725513345336
 30
0.0
 10
159.9233242016857
 20
160.1874782783664
 30
0.0
 10
159.6178109605104
 20
160.219786170522
 30
0.0
 10
159.1370091425328
 20
160.278995681201
 30
0.0
 10
158.7393261239323
 20
160.3425781884261
 30
0.0
 10
158.54004308929
 20
160.3744400341608
 30
0.0
  0
SPLINE
  5
EB
330
1F
100
AcDbEntity
  8
0
  6
HIDDEN
 62
     7
370
     0
100
AcDbSpline
210
0.0
220
0.0
230
1.0
 70
     8
 71
     3
 72
    23
 73
    19
 74
     0
 42
0.00000001
 43
0.00000001
 12
1.0
 22
0.0
 32
0.0
 13
1.0
 23
0.0
 33
0.0
 40
0.0
 40
0.0
 40
0.0
 40
0.0
 40
0.0590948106134014
 40
0.0602629181975587
 40
0.1194415379446771
 40
0.1883585608802801
 40
0.2591169998794889
 40
0.3309420782339925
 40
0.4047572750906523
 40
0.4781984551863634
 40
0.553777096186643
 40
0.626961045553933
 40
0.7024227944365699
 40
0.7728545857049466
 40
0.8456215499863333
 40
0.9113478972423826
 40
0.9792299051956385
 40
1.0
 40
1.0
 40
1.0
 40
1.0
 10
164.9075653905124
 20
160.1068988560666
 30
0.0
 10
164.9913574508088
 20
160.1125289747931
 30
0.0
 10
165.0768058010587
 20
160.1182703822151
 30
0.0
 10
165.2803310650655
 20
160.1276918973766
 30
0.0
 10
165.492798052004
 20
160.1387538919894
 30
0.0
 10
165.8691751651579
 20
160.1501426065516
 30
0.0
 10
166.2908928532187
 20
160.1556110073157
 30
0.0
 10
166.7398444620607
 20
160.1522912481253
 30
0.0
 10
167.1982833042763
 20
160.1393163108346
 30
0.0
 10
167.6561747610546
 20
160.1167225524272
 30
0.0
 10
168.0915160167393
 20
160.0863158924053
 30
0.0
 10
168.4960811653638
 20
160.0503811647223
 30
0.0
 10
168.8453209670735
 20
160.0133996529008
 30
0.0
 10
169.1355015406601
 20
159.9785899379272
 30
0.0
 10
169.3493594230645
 20
159.9505253651546
 30
0.0
 10
169.4840986971652
 20
159.931860175296
 30
0.0
 10
169.5431778533172
 20
159.923417771542
 30
0.0
 10
169.5347907270306
 20
159.9246138622324
 30
0.0
 10
169.5328257267352
 20
159.9248940915361
 30
0.0
  0
SPLINE
  5
EC
330
1F
100
AcDbEntity
  8
0
  6
HIDDEN
 62
     7
370
     0
100
AcDbSpline
210
0.0
220
0.0
230
1.0
 70
     8
 71
     3
 72
    12
 73
     8
 74
     0
 42
0.00000001
 43
0.00000001
 12
1.0
 22
0.0
 32
0.0
 13
1.0
 23
0.0
 33
0.0
 40
0.0
 40
0.0
 40
0.0
 40
0.0
 40
0.2240090663408052
 40
0.4414367675223417
 40
0.6649333542829302
 40
0.8312518785633738
 40
1.0
 40
1.0
 40
1.0
 40
1.0
 10
164.2732510831771
 20
160.0562874816795
 30
0.0
 10
164.2794478280136
 20
160.0568742792408
 30
0.0
 10
164.29165925791
 20
160.0580306343066
 30
0.0
 10
164.3943699222179
 20
160.0674785446189
 30
0.0
 10
164.5401790321072
 20
160.0799544107674
 30
0.0
 10
164.714544023951
 20
160.0937221023148
 30
0.0
 10
164.8429146594741
 20
160.1024854236164
 30
0.0
 10
164.9075653905124
 20
160.1068988560666
 30
0.0
  0
LINE
  5
ED
330
1F
100
AcDbEntity
  8
0
  6
HIDDEN
 62
     7
370
     0
100
AcDbLine
 10
162.2670751213
 20
163.8655868646
 30
0.0
 11
162.2670751213
 21
181.8655868646
 31
0.0
  0
LINE
  5
EE
330
1F
100
AcDbEntity
  8
0
  6
HIDDEN
 62
     7
370
     0
100
AcDbLine
 10
157.4670751213
 20
163.8655868646
 30
0.0
 11
157.4670751213
 21
181.8655868646
 31
0.0
  0
LINE
  5
EF
330
1F
100
AcDbEntity
  8
0
  6
HIDDEN
 62
     7
370
     0
100
AcDbLine
 10
158.4670751213
 20
163.8655868646
 30
0.0
 11
158.4670751213
 21
181.8655868646
 31
0.0
  0
LINE
  5
F0
330
1F
100
AcDbEntity
  8
0
  6
HIDDEN
 62
     7
370
     0
100
AcDbLine
 10
178.1400430893
 20
161.6128819275
 30
0.0
 11
178.1400430893
 21
159.7287851897
 31
0.0
  0
SPLINE
  5
F1
330
1F
100
AcDbEntity
  8
0
  6
HIDDEN
 62
     7
370
     0
100
AcDbSpline
210
0.0
220
0.0
230
1.0
 70
    11
 71
     3
 72
    14
 73
    10
 74
     0
 42
0.00000001
 43
0.00000001
 12
1.0
 22
0.0
 32
0.0
 13
1.0
 23
0.0
 33
0.0
 40
0.0
 40
0.0
 40
0.0
 40
0.0
 40
0.25
 40
0.25
 40
0.5
 40
0.5
 40
0.75
 40
0.75
 40
1.0
 40
1.0
 40
1.0
 40
1.0
 10
168.84004308929
 20
163.937541165773
 30
0.0
 10
168.938267435793
 20
163.9155376165492
 30
0.0
 10
169.013582273777
 20
163.9250320866126
 30
0.0
 10
169.1145489839714
 20
163.9505897476399
 30
0.0
 10
169.1399245702616
 20
163.9655286040029
 30
0.0
 10
169.1401607955279
 20
163.9656447256129
 30
0.0
 10
169.1144577261923
 20
163.950597832452
 30
0.0
 10
169.0141376126759
 20
163.9251416183705
 30
0.0
 10
168.9382457845882
 20
163.9155424667001
 30
0.0
 10
168.8400430892946
 20
163.9375411657666
 30
0.0
  0
SPLINE
  5
F2
330
1F
100
AcDbEntity
  8
0
  6
HIDDEN
 62
     7
370
     0
100
AcDbSpline
210
0.0
220
0.0
230
1.0
 70
    11
 71
     3
 72
    14
 73
    10
 74
     0
 42
0.00000001
 43
0.00000001
 12
1.0
 22
0.0
 32
0.0
 13
1.0
 23
0.0
 33
0.0
 40
0.0
 40
0.0
 40
0.0
 40
0.0
 40
0.25
 40
0.25
 40
0.5
 40
0.5
 40
0.75
 40
0.75
 40
1.0
 40
1.0
 40
1.0
 40
1.0
 10
168.84004308929
 20
181.7936325633885
 30
0.0
 10
168.938267435793
 20
181.8156361126123
 30
0.0
 10
169.013582273777
 20
181.8061416425489
 30
0.0
 10
169.1145489839714
 20
181.7805839815215
 30
0.0
 10
169.1399245702616
 20
181.7656451251586
 30
0.0
 10
169.1401607955279
 20
181.7655290035486
 30
0.0
 10
169.1144577261923
 20
181.7805758967094
 30
0.0
 10
169.0141376126759
 20
181.8060321107909
 30
0.0
 10
168.9382457845882
 20
181.8156312624613
 30
0.0
 10
168.8400430892946
 20
181.7936325633949
 30
0.0
  0
LINE
  5
F3
330
1F
100
AcDbEntity
  8
0
  6
HIDDEN
 62
     7
370
     0
100
AcDbLine
 10
169.3400430893
 20
164.3655868646
 30
0.0
 11
169.3400430893
 21
181.3655868646
 31
0.0
  0
SPLINE
  5
F4
330
1F
100
AcDbEntity
  8
0
  6
HIDDEN
 62
     7
370
     0
100
AcDbSpline
210
0.0
220
0.0
230
1.0
 70
    11
 71
     3
 72
    60
 73
    56
 74
     0
 42
0.00000001
 43
0.00000001
 12
1.0
 22
0.0
 32
0.0
 13
1.0
 23
0.0
 33
0.0
 40
0.0
 40
0.0
 40
0.0
 40
0.0
 40
0.0624999999999998
 40
0.0624999999999998
 40
0.1249999999999995
 40
0.1249999999999995
 40
0.1874999999999993
 40
0.1874999999999993
 40
0.2187499999999991
 40
0.2187499999999991
 40
0.2499999999999989
 40
0.2499999999999989
 40
0.3124999999999991
 40
0.3124999999999991
 40
0.3749999999999992
 40
0.3749999999999992
 40
0.4062499999999993
 40
0.4062499999999993
 40
0.4374999999999993
 40
0.4374999999999993
 40
0.4687499999999994
 40
0.4687499999999994
 40
0.4999999999999994
 40
0.4999999999999994
 40
0.5312499999999996
 40
0.5312499999999996
 40
0.5624999999999997
 40
0.5624999999999997
 40
0.5937499999999998
 40
0.5937499999999998
 40
0.6249999999999999
 40
0.6249999999999999
 40
0.65625
 40
0.65625
 40
0.6875000000000001
 40
0.6875000000000001
 40
0.7187500000000001
 40
0.7187500000000001
 40
0.75
 40
0.75
 40
0.78125
 40
0.78125
 40
0.8125
 40
0.8125
 40
0.84375
 40
0.84375
 40
0.875
 40
0.875
 40
0.90625
 40
0.90625
 40
0.9375
 40
0.9375
 40
0.96875
 40
0.96875
 40
1.0
 40
1.0
 40
1.0
 40
1.0
 10
168.84004308929
 20
163.937541165773
 30
0.0
 10
168.7148531877113
 20
163.9655853550171
 30
0.0
 10
168.5579858691432
 20
163.9984084414366
 30
0.0
 10
168.1809483493244
 20
164.0636806670909
 30
0.0
 10
167.9692350429033
 20
164.0945332920595
 30
0.0
 10
167.5033450609546
 20
164.1422689287523
 30
0.0
 10
167.257505829903
 20
164.1581018435289
 30
0.0
 10
166.8780247768084
 20
164.1652737856394
 30
0.0
 10
166.7502790481145
 20
164.1648751800501
 30
0.0
 10
166.4998128014464
 20
164.1586882845463
 30
0.0
 10
166.3759834186381
 20
164.1529273525536
 30
0.0
 10
166.0087637445395
 20
164.1282324064296
 30
0.0
 10
165.7779947264538
 20
164.1023230733224
 30
0.0
 10
165.3581057650343
 20
164.0415864235564
 30
0.0
 10
165.1738473901467
 20
164.0076223287586
 30
0.0
 10
164.9430990026634
 20
163.9603789068575
 30
0.0
 10
164.8740521528744
 20
163.9452849312908
 30
0.0
 10
164.7554874890689
 20
163.9184063997974
 30
0.0
 10
164.7052791203193
 20
163.9064774445049
 30
0.0
 10
164.6234472679615
 20
163.8866269341207
 30
0.0
 10
164.5920963690788
 20
163.8787707793152
 30
0.0
 10
164.5507019910402
 20
163.8683271952361
 30
0.0
 10
164.5401962159759
 20
163.8656259969299
 30
0.0
 10
164.5398932636401
 20
163.8655485758294
 30
0.0
 10
164.5503777932567
 20
163.8682444244755
 30
0.0
 10
164.5915178707181
 20
163.878625783369
 30
0.0
 10
164.6220959912667
 20
163.8862920738023
 30
0.0
 10
164.703378699618
 20
163.9060232410462
 30
0.0
 10
164.7543795861799
 20
163.9181482076023
 30
0.0
 10
164.872946634543
 20
163.9450412122978
 30
0.0
 10
164.9408353878148
 20
163.9598935954644
 30
0.0
 10
165.0939858255524
 20
163.9912926008946
 30
0.0
 10
165.1795419971249
 20
164.0078681465199
 30
0.0
 10
165.3622533680841
 20
164.0402948313784
 30
0.0
 10
165.460060667766
 20
164.0562917100935
 30
0.0
 10
165.668863779683
 20
164.0865783436595
 30
0.0
 10
165.7804459549708
 20
164.1008946957883
 30
0.0
 10
166.0090917544698
 20
164.1255889900115
 30
0.0
 10
166.127046565441
 20
164.1361178136598
 30
0.0
 10
166.3703750104297
 20
164.1526164197631
 30
0.0
 10
166.4967188857727
 20
164.1585714273995
 30
0.0
 10
166.7478248667906
 20
164.1648541072119
 30
0.0
 10
166.8735068605135
 20
164.1652824613199
 30
0.0
 10
167.1251289303054
 20
164.1606772830766
 30
0.0
 10
167.2520265505911
 20
164.1555491329607
 30
0.0
 10
167.4972171168523
 20
164.1405135344383
 30
0.0
 10
167.6164062738858
 20
164.1306306578194
 30
0.0
 10
167.8480912982406
 20
164.106997861139
 30
0.0
 10
167.9612661025911
 20
164.0931233529713
 30
0.0
 10
168.1733445195268
 20
164.063503717914
 30
0.0
 10
168.2731332982277
 20
164.0476935238271
 30
0.0
 10
168.4603914852166
 20
164.015331255496
 30
0.0
 10
168.54828652216
 20
163.998677000514
 30
0.0
 10
168.7065075977918
 20
163.9668406229444
 30
0.0
 10
168.7774455540835
 20
163.9515638393385
 30
0.0
 10
168.84004308929
 20
163.937541165773
 30
0.0
  0
SPLINE
  5
F5
330
1F
100
AcDbEntity
  8
0
  6
HIDDEN
 62
     7
370
     0
100
AcDbSpline
210
0.0
220
0.0
230
1.0
 70
    11
 71
     3
 72
    60
 73
    56
 74
     0
 42
0.00000001
 43
0.00000001
 12
1.0
 22
0.0
 32
0.0
 13
1.0
 23
0.0
 33
0.0
 40
0.0
 40
0.0
 40
0.0
 40
0.0
 40
0.0624999999999998
 40
0.0624999999999998
 40
0.1249999999999995
 40
0.1249999999999995
 40
0.1874999999999993
 40
0.1874999999999993
 40
0.2187499999999991
 40
0.2187499999999991
 40
0.2499999999999989
 40
0.2499999999999989
 40
0.3124999999999991
 40
0.3124999999999991
 40
0.3749999999999992
 40
0.3749999999999992
 40
0.4062499999999993
 40
0.4062499999999993
 40
0.4374999999999993
 40
0.4374999999999993
 40
0.4687499999999994
 40
0.4687499999999994
 40
0.4999999999999994
 40
0.4999999999999994
 40
0.5312499999999996
 40
0.5312499999999996
 40
0.5624999999999997
 40
0.5624999999999997
 40
0.5937499999999998
 40
0.5937499999999998
 40
0.6249999999999999
 40
0.6249999999999999
 40
0.65625
 40
0.65625
 40
0.6875000000000001
 40
0.6875000000000001
 40
0.7187500000000001
 40
0.7187500000000001
 40
0.75
 40
0.75
 40
0.78125
 40
0.78125
 40
0.8125
 40
0.8125
 40
0.84375
 40
0.84375
 40
0.875
 40
0.875
 40
0.90625
 40
0.90625
 40
0.9375
 40
0.9375
 40
0.96875
 40
0.96875
 40
1.0
 40
1.0
 40
1.0
 40
1.0
 10
168.84004308929
 20
181.7936325633885
 30
0.0
 10
168.7148531877113
 20
181.7655883741444
 30
0.0
 10
168.5579858691432
 20
181.7327652877248
 30
0.0
 10
168.1809483493244
 20
181.6674930620706
 30
0.0
 10
167.9692350429033
 20
181.636640437102
 30
0.0
 10
167.5033450609546
 20
181.5889048004092
 30
0.0
 10
167.257505829903
 20
181.5730718856326
 30
0.0
 10
166.8780247768084
 20
181.5658999435221
 30
0.0
 10
166.7502790481145
 20
181.5662985491113
 30
0.0
 10
166.4998128014464
 20
181.5724854446151
 30
0.0
 10
166.3759834186381
 20
181.5782463766078
 30
0.0
 10
166.0087637445395
 20
181.6029413227318
 30
0.0
 10
165.7779947264538
 20
181.628850655839
 30
0.0
 10
165.3581057650343
 20
181.6895873056051
 30
0.0
 10
165.1738473901467
 20
181.7235514004028
 30
0.0
 10
164.9430990026634
 20
181.7707948223039
 30
0.0
 10
164.8740521528744
 20
181.7858887978707
 30
0.0
 10
164.7554874890689
 20
181.8127673293641
 30
0.0
 10
164.7052791203193
 20
181.8246962846565
 30
0.0
 10
164.6234472679615
 20
181.8445467950407
 30
0.0
 10
164.5920963690788
 20
181.8524029498463
 30
0.0
 10
164.5507019910402
 20
181.8628465339253
 30
0.0
 10
164.5401962159759
 20
181.8655477322315
 30
0.0
 10
164.5398932636401
 20
181.8656251533321
 30
0.0
 10
164.5503777932567
 20
181.862929304686
 30
0.0
 10
164.5915178707181
 20
181.8525479457924
 30
0.0
 10
164.6220959912667
 20
181.8448816553592
 30
0.0
 10
164.703378699618
 20
181.8251504881153
 30
0.0
 10
164.7543795861799
 20
181.8130255215591
 30
0.0
 10
164.872946634543
 20
181.7861325168637
 30
0.0
 10
164.9408353878148
 20
181.771280133697
 30
0.0
 10
165.0939858255524
 20
181.7398811282668
 30
0.0
 10
165.1795419971249
 20
181.7233055826415
 30
0.0
 10
165.3622533680841
 20
181.6908788977831
 30
0.0
 10
165.460060667766
 20
181.674882019068
 30
0.0
 10
165.668863779683
 20
181.644595385502
 30
0.0
 10
165.7804459549708
 20
181.6302790333732
 30
0.0
 10
166.0090917544698
 20
181.6055847391499
 30
0.0
 10
166.127046565441
 20
181.5950559155017
 30
0.0
 10
166.3703750104297
 20
181.5785573093984
 30
0.0
 10
166.4967188857727
 20
181.5726023017619
 30
0.0
 10
166.7478248667906
 20
181.5663196219496
 30
0.0
 10
166.8735068605135
 20
181.5658912678415
 30
0.0
 10
167.1251289303054
 20
181.5704964460849
 30
0.0
 10
167.2520265505911
 20
181.5756245962008
 30
0.0
 10
167.4972171168523
 20
181.5906601947231
 30
0.0
 10
167.6164062738858
 20
181.600543071342
 30
0.0
 10
167.8480912982406
 20
181.6241758680225
 30
0.0
 10
167.9612661025911
 20
181.6380503761901
 30
0.0
 10
168.1733445195268
 20
181.6676700112474
 30
0.0
 10
168.2731332982277
 20
181.6834802053343
 30
0.0
 10
168.4603914852166
 20
181.7158424736654
 30
0.0
 10
168.54828652216
 20
181.7324967286474
 30
0.0
 10
168.7065075977918
 20
181.7643331062171
 30
0.0
 10
168.7774455540835
 20
181.7796098898229
 30
0.0
 10
168.84004308929
 20
181.7936325633885
 30
0.0
  0
LINE
  5
F6
330
1F
100
AcDbEntity
  8
0
  6
HIDDEN
 62
     7
370
     0
100
AcDbLine
 10
170.2400430893
 20
166.6155868646
 30
0.0
 11
170.2400430893
 21
179.1155868646
 31
0.0
  0
LINE
  5
F7
330
1F
100
AcDbEntity
  8
0
  6
HIDDEN
 62
     7
370
     0
100
AcDbLine
 10
169.3400430893
 20
165.7192604187
 30
0.0
 11
169.3400430893
 21
180.0119133104
 31
0.0
  0
LINE
  5
F8
330
1F
100
AcDbEntity
  8
0
  6
HIDDEN
 62
     7
370
     0
100
AcDbLine
 10
189.3400430893
 20
166.6155868646
 30
0.0
 11
189.3400430893
 21
179.1155868646
 31
0.0
  0
LINE
  5
F9
330
1F
100
AcDbEntity
  8
0
  6
HIDDEN
 62
     7
370
     0
100
AcDbLine
 10
190.5417643273
 20
168.6155868646
 30
0.0
 11
190.5417643273
 21
177.1155868646
 31
0.0
  0
LINE
  5
FA
330
1F
100
AcDbEntity
  8
0
  6
HIDDEN
 62
     7
370
     0
100
AcDbLine
 10
219.0938724829
 20
192.6155868646
 30
0.0
 11
227.5862136957
 21
192.6155868646
 31
0.0
  0
LINE
  5
FB
330
1F
100
AcDbEntity
  8
0
  6
HIDDEN
 62
     7
370
     0
100
AcDbLine
 10
217.8437124233
 20
193.8655868646
 30
0.0
 11
228.8363737553
 21
193.8655868646
 31
0.0
  0
LINE
  5
FC
330
1F
100
AcDbEntity
  8
0
  6
HIDDEN
 62
     7
370
     0
100
AcDbLine
 10
208.3400430893
 20
168.6155868646
 30
0.0
 11
208.3400430893
 21
177.1155868646
 31
0.0
  0
SPLINE
  5
FD
330
1F
100
AcDbEntity
  8
0
  6
HIDDEN
 62
     7
370
     0
100
AcDbSpline
210
0.0
220
0.0
230
1.0
 70
     8
 71
     3
 72
    62
 73
    58
 74
     0
 42
0.00000001
 43
0.00000001
 12
1.0
 22
0.0
 32
0.0
 13
1.0
 23
0.0
 33
0.0
 40
-0.0312499999999997
 40
-0.0312499999999997
 40
0.0
 40
0.0
 40
0.0312500000000003
 40
0.0312500000000003
 40
0.0625000000000005
 40
0.0625000000000005
 40
0.0937500000000008
 40
0.0937500000000008
 40
0.1250000000000011
 40
0.1250000000000011
 40
0.187500000000001
 40
0.187500000000001
 40
0.2500000000000009
 40
0.2500000000000009
 40
0.2812500000000009
 40
0.2812500000000009
 40
0.3125000000000008
 40
0.3125000000000008
 40
0.3437500000000008
 40
0.3437500000000008
 40
0.3750000000000008
 40
0.3750000000000008
 40
0.4062500000000008
 40
0.4062500000000008
 40
0.4375000000000008
 40
0.4375000000000008
 40
0.4687500000000008
 40
0.4687500000000008
 40
0.5000000000000008
 40
0.5000000000000008
 40
0.5312500000000007
 40
0.5312500000000007
 40
0.5625000000000008
 40
0.5625000000000008
 40
0.5937500000000008
 40
0.5937500000000008
 40
0.6250000000000008
 40
0.6250000000000008
 40
0.6562500000000009
 40
0.6562500000000009
 40
0.6875000000000009
 40
0.6875000000000009
 40
0.718750000000001
 40
0.718750000000001
 40
0.750000000000001
 40
0.750000000000001
 40
0.8125000000000009
 40
0.8125000000000009
 40
0.8437500000000008
 40
0.8437500000000008
 40
0.8750000000000007
 40
0.8750000000000007
 40
0.9375000000000004
 40
0.9375000000000004
 40
0.9687500000000003
 40
0.9687500000000003
 40
1.0
 40
1.0
 40
1.03125
 40
1.03125
 10
205.8227652352101
 20
176.1968177088046
 30
0.0
 10
206.1061233455005
 20
176.1968177088046
 30
0.0
 10
206.2448657663592
 20
176.1868792006145
 30
0.0
 10
206.5171364951594
 20
176.1486120626655
 30
0.0
 10
206.6520173407076
 20
176.1197930806597
 30
0.0
 10
206.9081333043161
 20
176.0448639955625
 30
0.0
 10
207.0297338647879
 20
175.9989528132418
 30
0.0
 10
207.2610333800202
 20
175.889059011945
 30
0.0
 10
207.3702567505685
 20
175.8250220604598
 30
0.0
 10
207.6688289519293
 20
175.6096229582142
 30
0.0
 10
207.8364784502668
 20
175.4287900129561
 30
0.0
 10
208.0709839367654
 20
175.0093168749111
 30
0.0
 10
208.1403192641397
 20
174.7628303732375
 30
0.0
 10
208.1513651051029
 20
174.3771250420121
 30
0.0
 10
208.1398511865809
 20
174.243005566981
 30
0.0
 10
208.0877810287866
 20
173.9794363173826
 30
0.0
 10
208.0476888128312
 20
173.8493737849351
 30
0.0
 10
207.9402544893533
 20
173.5929985984148
 30
0.0
 10
207.8743076659968
 20
173.4701669878801
 30
0.0
 10
207.7211572098999
 20
173.2368445409552
 30
0.0
 10
207.6328997093118
 20
173.1252316428655
 30
0.0
 10
207.4407913005498
 20
172.9210308814694
 30
0.0
 10
207.3366169826586
 20
172.8276118193254
 30
0.0
 10
207.111504534525
 20
172.658750092528
 30
0.0
 10
206.991100016981
 20
172.5840469174043
 30
0.0
 10
206.7417002689765
 20
172.4597214743753
 30
0.0
 10
206.6117039790528
 20
172.4092768408864
 30
0.0
 10
206.3395567321147
 20
172.3350272034952
 30
0.0
 10
206.2002425846307
 20
172.3123187571888
 30
0.0
 10
205.9224227454243
 20
172.2979790990758
 30
0.0
 10
205.7817753271538
 20
172.3062008547618
 30
0.0
 10
205.5032884678784
 20
172.3553547232422
 30
0.0
 10
205.3692673304577
 20
172.3953623909511
 30
0.0
 10
205.1109241370142
 20
172.5042982592022
 30
0.0
 10
204.9861959120203
 20
172.5739156442277
 30
0.0
 10
204.7565664711848
 20
172.7346798763278
 30
0.0
 10
204.6497145708723
 20
172.8267483056473
 30
0.0
 10
204.4538855351506
 20
173.0307496651229
 30
0.0
 10
204.3669200090803
 20
173.1404016969774
 30
0.0
 10
204.2133830069291
 20
173.3736566458237
 30
0.0
 10
204.1463431392742
 20
173.4987321080964
 30
0.0
 10
204.0380351202897
 20
173.7531371737248
 30
0.0
 10
203.9961258945018
 20
173.882943954841
 30
0.0
 10
203.9371129394994
 20
174.1473628602902
 30
0.0
 10
203.9204693329927
 20
174.2818477023396
 30
0.0
 10
203.9111787539224
 20
174.6722680814524
 30
0.0
 10
203.9592454768215
 20
174.9253329023303
 30
0.0
 10
204.1049514692278
 20
175.2580635969967
 30
0.0
 10
204.1665862628602
 20
175.3633396645971
 30
0.0
 10
204.3103413054716
 20
175.554247257248
 30
0.0
 10
204.3926038444283
 20
175.6408174126801
 30
0.0
 10
204.6721955480828
 20
175.876305216718
 30
0.0
 10
204.8956642043083
 20
175.9952916339408
 30
0.0
 10
205.2771039446122
 20
176.1165363900338
 30
0.0
 10
205.4086177497598
 20
176.1463600024833
 30
0.0
 10
205.6806329253124
 20
176.1865461791667
 30
0.0
 10
205.8227652352101
 20
176.1968177088046
 30
0.0
 10
206.1061233455005
 20
176.1968177088046
 30
0.0
  0
LINE
  5
FE
330
1F
100
AcDbEntity
  8
0
  6
HIDDEN
 62
     7
370
     0
100
AcDbLine
 10
219.0938724829
 20
173.8655868646
 30
0.0
 11
227.5862136957
 21
173.8655868646
 31
0.0
  0
SPLINE
  5
FF
330
1F
100
AcDbEntity
  8
0
  6
HIDDEN
 62
     7
370
     0
100
AcDbSpline
210
0.0
220
0.0
230
1.0
 70
     8
 71
     3
 72
    14
 73
    10
 74
     0
 42
0.00000001
 43
0.00000001
 12
1.0
 22
0.0
 32
0.0
 13
1.0
 23
0.0
 33
0.0
 40
0.0
 40
0.0
 40
0.0
 40
0.0
 40
0.104436253083821
 40
0.3141401397208664
 40
0.5268019939776138
 40
0.7425175278025994
 40
0.8508994109151796
 40
0.9553985974881056
 40
1.0
 40
1.0
 40
1.0
 40
1.0
 10
176.64004308929
 20
187.2383028794779
 30
0.0
 10
176.623864475898
 20
187.2741712057027
 30
0.0
 10
176.5751998434415
 20
187.3820617195724
 30
0.0
 10
176.5086333876181
 20
187.5305150584498
 30
0.0
 10
176.4485020428711
 20
187.6651729070033
 30
0.0
 10
176.4161830704885
 20
187.7378049747427
 30
0.0
 10
176.4027137060407
 20
187.7681032821267
 30
0.0
 10
176.3968011570386
 20
187.7814103667774
 30
0.0
 10
176.3988136991454
 20
187.7768815277521
 30
0.0
 10
176.3994157235984
 20
187.7755267874824
 30
0.0
  0
LINE
  5
100
330
1F
100
AcDbEntity
  8
0
  6
HIDDEN
 62
     7
370
     0
100
AcDbLine
 10
155.8400430893
 20
186.2342139305
 30
0.0
 11
155.8400430893
 21
187.2631172504
 31
0.0
  0
LINE
  5
101
330
1F
100
AcDbEntity
  8
0
  6
HIDDEN
 62
     7
370
     0
100
AcDbLine
 10
176.6400430893
 20
186.686771439
 30
0.0
 11
176.6400430893
 21
187.2383028795
 31
0.0
  0
LINE
  5
102
330
1F
100
AcDbEntity
  8
0
  6
HIDDEN
 62
     7
370
     0
100
AcDbLine
 10
154.3400430893
 20
185.4842139305
 30
0.0
 11
154.3400430893
 21
186.3970918466
 31
0.0
  0
SPLINE
  5
103
330
1F
100
AcDbEntity
  8
0
  6
HIDDEN
 62
     7
370
     0
100
AcDbSpline
210
0.0
220
0.0
230
1.0
 70
     8
 71
     3
 72
    24
 73
    20
 74
     0
 42
0.00000001
 43
0.00000001
 12
1.0
 22
0.0
 32
0.0
 13
1.0
 23
0.0
 33
0.0
 40
0.0
 40
0.0
 40
0.0
 40
0.0
 40
0.2500000000000001
 40
0.2500000000000001
 40
0.3749999999999997
 40
0.3749999999999997
 40
0.4374999999999994
 40
0.4374999999999994
 40
0.4999999999999992
 40
0.4999999999999992
 40
0.531249999999999
 40
0.531249999999999
 40
0.5624999999999989
 40
0.5624999999999989
 40
0.6249999999999989
 40
0.6249999999999989
 40
0.7499999999999991
 40
0.7499999999999991
 40
1.0
 40
1.0
 40
1.0
 40
1.0
 10
176.8450031113458
 20
187.0289579104963
 30
0.0
 10
176.8292340664363
 20
187.0633889385461
 30
0.0
 10
176.8126199018759
 20
187.0977294902162
 30
0.0
 10
176.7840877743826
 20
187.1512782734614
 30
0.0
 10
176.7740001408287
 20
187.1694551329998
 30
0.0
 10
176.7565123179796
 20
187.1985327377067
 30
0.0
 10
176.7503025100531
 20
187.2085169385077
 30
0.0
 10
176.7360246504702
 20
187.2300361667642
 30
0.0
 10
176.7284534881184
 20
187.2412197782023
 30
0.0
 10
176.711033662941
 20
187.2627555516973
 30
0.0
 10
176.702549580483
 20
187.2724604113862
 30
0.0
 10
176.6865135068699
 20
187.2869419992382
 30
0.0
 10
176.6816931345942
 20
187.2897897365845
 30
0.0
 10
176.6702862339912
 20
187.2956330553253
 30
0.0
 10
176.6662652722821
 20
187.2956768296033
 30
0.0
 10
176.655511260504
 20
187.29424023975
 30
0.0
 10
176.6516393748816
 20
187.2897250814815
 30
0.0
 10
176.6424714100813
 20
187.2730530424566
 30
0.0
 10
176.6404430755682
 20
187.256868867412
 30
0.0
 10
176.64004308929
 20
187.2383028794779
 30
0.0
  0
SPLINE
  5
104
330
1F
100
AcDbEntity
  8
0
  6
HIDDEN
 62
     7
370
     0
100
AcDbSpline
210
0.0
220
0.0
230
1.0
 70
     8
 71
     3
 72
     8
 73
     4
 74
     0
 42
0.00000001
 43
0.00000001
 12
1.0
 22
0.0
 32
0.0
 13
1.0
 23
0.0
 33
0.0
 40
0.0
 40
0.0
 40
0.0
 40
0.0
 40
1.0
 40
1.0
 40
1.0
 40
1.0
 10
177.0187227457304
 20
186.6518933754897
 30
0.0
 10
176.9536175070581
 20
186.7923652903192
 30
0.0
 10
176.8957301940693
 20
186.9181975177027
 30
0.0
 10
176.8450031113457
 20
187.0289579104964
 30
0.0
  0
LINE
  5
105
330
1F
100
AcDbEntity
  8
0
  6
HIDDEN
 62
     7
370
     0
100
AcDbLine
 10
164.5400430893
 20
160.323864793
 30
0.0
 11
169.1400430893
 21
160.323864793
 31
0.0
  0
LINE
  5
106
330
1F
100
AcDbEntity
  8
0
  6
HIDDEN
 62
     7
370
     0
100
AcDbLine
 10
158.5400430893
 20
160.3744400342
 30
0.0
 11
158.5400430893
 21
161.8655868646
 31
0.0
  0
SPLINE
  5
107
330
1F
100
AcDbEntity
  8
0
  6
HIDDEN
 62
     7
370
     0
100
AcDbSpline
210
0.0
220
0.0
230
1.0
 70
     8
 71
     3
 72
    10
 73
     6
 74
     0
 42
0.00000001
 43
0.00000001
 12
1.0
 22
0.0
 32
0.0
 13
1.0
 23
0.0
 33
0.0
 40
0.0
 40
0.0
 40
0.0
 40
0.0
 40
0.5
 40
0.5
 40
1.0
 40
1.0
 40
1.0
 40
1.0
 10
155.84004308929
 20
160.4377925469954
 30
0.0
 10
155.579825966752
 20
160.5778588231117
 30
0.0
 10
155.3237913975018
 20
160.7140350768662
 30
0.0
 10
154.8225278087691
 20
160.9776637949157
 30
0.0
 10
154.5771850500058
 20
161.1051699913773
 30
0.0
 10
154.34004308929
 20
161.2270924952698
 30
0.0
  0
LINE
  5
108
330
1F
100
AcDbEntity
  8
0
  6
HIDDEN
 62
     7
370
     0
100
AcDbLine
 10
154.3400430893
 20
161.2270924953
 30
0.0
 11
154.3400430893
 21
161.8655868646
 31
0.0
  0
LINE
  5
109
330
1F
100
AcDbEntity
  8
0
  6
HIDDEN
 62
     7
370
     0
100
AcDbLine
 10
164.5400430893
 20
183.8655868646
 30
0.0
 11
169.1400430893
 21
183.8655868646
 31
0.0
  0
LINE
  5
10A
330
1F
100
AcDbEntity
  8
0
  6
HIDDEN
 62
     7
370
     0
100
AcDbLine
 10
188.3400430893
 20
153.3655868646
 30
0.0
 11
192.3400430893
 21
153.3655868646
 31
0.0
  0
LINE
  5
10B
330
1F
100
AcDbEntity
  8
0
  6
HIDDEN
 62
     7
370
     0
100
AcDbLine
 10
154.3400430893
 20
163.6058055255
 30
0.0
 11
154.3400430893
 21
161.2270924953
 31
0.0
  0
ELLIPSE
  5
10C
330
1F
100
AcDbEntity
  8
0
  6
HIDDEN
 62
     7
370
     0
100
AcDbEllipse
 10
208.4241671863
 20
181.754163833
 30
0.0
 11
0.7107426670596624
 21
2.168423190543393
 31
0.0
210
0.0
220
0.0
230
1.0
 40
0.9202727667
 41
0.0
 42
6.283185307179586
  0
LINE
  5
10D
330
1F
100
AcDbEntity
  8
0
  6
HIDDEN
 62
     7
370
     0
100
AcDbLine
 10
154.3400430893
 20
185.4842139305
 30
0.0
 11
154.3400430893
 21
169.5067411378
 31
0.0
  0
LINE
  5
10E
330
1F
100
AcDbEntity
  8
0
  6
HIDDEN
 62
     7
370
     0
100
AcDbLine
 10
155.8400430893
 20
186.2342139305
 30
0.0
 11
155.8400430893
 21
169.5067411378
 31
0.0
  0
LINE
  5
10F
330
1F
100
AcDbEntity
  8
0
  6
HIDDEN
 62
     7
370
     0
100
AcDbLine
 10
176.6400430893
 20
186.686771439
 30
0.0
 11
176.6400430893
 21
169.5067411378
 31
0.0
  0
LINE
  5
110
330
1F
100
AcDbEntity
  8
0
  6
HIDDEN
 62
     7
370
     0
100
AcDbLine
 10
178.1400430893
 20
185.8352866841
 30
0.0
 11
178.1400430893
 21
171.1485919821
 31
0.0
  0
LINE
  5
111
330
1F
100
AcDbEntity
  8
0
  6
HIDDEN
 62
     7
370
     0
100
AcDbLine
 10
154.3400430893
 20
169.5067411378
 30
0.0
 11
154.3400430893
 21
163.6058055255
 31
0.0
  0
LINE
  5
112
330
1F
100
AcDbEntity
  8
0
  6
HIDDEN
 62
     7
370
     0
100
AcDbLine
 10
155.8400430893
 20
169.5067411378
 30
0.0
 11
155.8400430893
 21
162.8558055255
 31
0.0
  0
LINE
  5
113
330
1F
100
AcDbEntity
  8
0
  6
HIDDEN
 62
     7
370
     0
100
AcDbLine
 10
176.6400430893
 20
163.1277462016
 30
0.0
 11
176.6400430893
 21
162.403248017
 31
0.0
  0
SPLINE
  5
114
330
1F
100
AcDbEntity
  8
0
  6
HIDDEN
 62
     7
370
     0
100
AcDbSpline
210
0.0
220
0.0
230
1.0
 70
     8
 71
     3
 72
     8
 73
     4
 74
     0
 42
0.00000001
 43
0.00000001
 12
1.0
 22
0.0
 32
0.0
 13
1.0
 23
0.0
 33
0.0
 40
0.0
 40
0.0
 40
0.0
 40
0.0
 40
1.0
 40
1.0
 40
1.0
 40
1.0
 10
176.8450031113566
 20
163.2321654530101
 30
0.0
 10
176.8957302545611
 20
163.0421561536071
 30
0.0
 10
176.953617584119
 20
162.8669532631796
 30
0.0
 10
177.0187227457304
 20
162.7061800957329
 30
0.0
  0
SPLINE
  5
115
330
1F
100
AcDbEntity
  8
0
  6
HIDDEN
 62
     7
370
     0
100
AcDbSpline
210
0.0
220
0.0
230
1.0
 70
     8
 71
     3
 72
    24
 73
    20
 74
     0
 42
0.00000001
 43
0.00000001
 12
1.0
 22
0.0
 32
0.0
 13
1.0
 23
0.0
 33
0.0
 40
0.0
 40
0.0
 40
0.0
 40
0.0
 40
0.2499999999999875
 40
0.2499999999999875
 40
0.3749999999999812
 40
0.3749999999999812
 40
0.4374999999999772
 40
0.4374999999999772
 40
0.4687499999999772
 40
0.4687499999999772
 40
0.4999999999999774
 40
0.4999999999999774
 40
0.5624999999999788
 40
0.5624999999999788
 40
0.6249999999999801
 40
0.6249999999999801
 40
0.7499999999999868
 40
0.7499999999999868
 40
1.0
 40
1.0
 40
1.0
 40
1.0
 10
176.6400430892864
 20
163.1277462015546
 30
0.0
 10
176.6404477588623
 20
163.1994559463222
 30
0.0
 10
176.6424912056766
 20
163.2728972641176
 30
0.0
 10
176.6518907709309
 20
163.3876068105711
 30
0.0
 10
176.6558416644596
 20
163.4263846942784
 30
0.0
 10
176.6669939727566
 20
163.4873461349403
 30
0.0
 10
176.6712155136832
 20
163.5081963109018
 30
0.0
 10
176.6834232352468
 20
163.5401454891378
 30
0.0
 10
176.6892140054991
 20
163.5526661705276
 30
0.0
 10
176.706135518609
 20
163.5655392222082
 30
0.0
 10
176.7135416345587
 20
163.5629048847779
 30
0.0
 10
176.7299988878018
 20
163.5524272523404
 30
0.0
 10
176.7374554057128
 20
163.5403710118122
 30
0.0
 10
176.7513633349874
 20
163.5160838396934
 30
0.0
 10
176.7574552808823
 20
163.5030536714797
 30
0.0
 10
176.7746495732334
 20
163.4629342374924
 30
0.0
 10
176.784634523437
 20
163.4347599934374
 30
0.0
 10
176.8128805685358
 20
163.3492787971754
 30
0.0
 10
176.829360105497
 20
163.290759657144
 30
0.0
 10
176.8450031113566
 20
163.2321654530101
 30
0.0
  0
SPLINE
  5
116
330
1F
100
AcDbEntity
  8
0
  6
HIDDEN
 62
     7
370
     0
100
AcDbSpline
210
0.0
220
0.0
230
1.0
 70
     8
 71
     3
 72
    16
 73
    12
 74
     0
 42
0.00000001
 43
0.00000001
 12
1.0
 22
0.0
 32
0.0
 13
1.0
 23
0.0
 33
0.0
 40
0.0
 40
0.0
 40
0.0
 40
0.0
 40
0.2500000000000002
 40
0.2500000000000002
 40
0.3750000000000001
 40
0.3750000000000001
 40
0.5000000000000001
 40
0.5000000000000001
 40
0.75
 40
0.75
 40
1.0
 40
1.0
 40
1.0
 40
1.0
 10
176.6400430892899
 20
168.2307115127162
 30
0.0
 10
176.5595057573906
 20
167.7352970304782
 30
0.0
 10
176.4994684133632
 20
167.2521325810964
 30
0.0
 10
176.4387307062096
 20
166.5456373738192
 30
0.0
 10
176.4234083310967
 20
166.3131981842426
 30
0.0
 10
176.4028255217925
 20
165.8546376263571
 30
0.0
 10
176.3976259247668
 20
165.6280685090791
 30
0.0
 10
176.3975722715868
 20
164.9730499973955
 30
0.0
 10
176.4177698150645
 20
164.5639746470928
 30
0.0
 10
176.4984479034224
 20
163.800141129519
 30
0.0
 10
176.5594940680298
 20
163.4448409760594
 30
0.0
 10
176.6400430892879
 20
163.1277462015553
 30
0.0
  0
SPLINE
  5
117
330
1F
100
AcDbEntity
  8
0
  6
HIDDEN
 62
     7
370
     0
100
AcDbSpline
210
0.0
220
0.0
230
1.0
 70
     8
 71
     3
 72
    24
 73
    20
 74
     0
 42
0.00000001
 43
0.00000001
 12
1.0
 22
0.0
 32
0.0
 13
1.0
 23
0.0
 33
0.0
 40
0.0
 40
0.0
 40
0.0
 40
0.0
 40
0.2500000000000031
 40
0.2500000000000031
 40
0.3750000000000036
 40
0.3750000000000036
 40
0.4375000000000035
 40
0.4375000000000035
 40
0.5000000000000034
 40
0.5000000000000034
 40
0.5312500000000029
 40
0.5312500000000029
 40
0.5625000000000024
 40
0.5625000000000024
 40
0.625000000000003
 40
0.625000000000003
 40
0.750000000000002
 40
0.750000000000002
 40
1.0
 40
1.0
 40
1.0
 40
1.0
 10
176.8450031113504
 20
168.3356372302225
 30
0.0
 10
176.8292365230521
 20
168.2421544576462
 30
0.0
 10
176.8126249900974
 20
168.1488362959778
 30
0.0
 10
176.7840986421394
 20
168.0091997350132
 30
0.0
 10
176.7740132083494
 20
167.9626535907745
 30
0.0
 10
176.7565304378145
 20
167.8931877687973
 30
0.0
 10
176.750322781369
 20
167.8700874928389
 30
0.0
 10
176.7360512811238
 20
167.8242809707901
 30
0.0
 10
176.7284812106207
 20
167.8009598117575
 30
0.0
 10
176.7110848811854
 20
167.7703965591615
 30
0.0
 10
176.7026256082254
 20
167.7598418391202
 30
0.0
 10
176.6865646436778
 20
167.7616521285648
 30
0.0
 10
176.6817314078315
 20
167.7706910054665
 30
0.0
 10
176.6703054880963
 20
167.7968886788645
 30
0.0
 10
176.6662841322138
 20
167.8171335093428
 30
0.0
 10
176.6555236371827
 20
167.8789631698667
 30
0.0
 10
176.6516493281218
 20
167.9218928579185
 30
0.0
 10
176.6424764559947
 20
168.0519488015356
 30
0.0
 10
176.6404440852799
 20
168.1410398929713
 30
0.0
 10
176.64004308929
 20
168.2307115127163
 30
0.0
  0
LINE
  5
118
330
1F
100
AcDbEntity
  8
0
  6
HIDDEN
 62
     7
370
     0
100
AcDbLine
 10
176.6400430893
 20
169.5067411378
 30
0.0
 11
176.6400430893
 21
168.2307115127
 31
0.0
  0
SPLINE
  5
119
330
1F
100
AcDbEntity
  8
0
  6
HIDDEN
 62
     7
370
     0
100
AcDbSpline
210
0.0
220
0.0
230
1.0
 70
     8
 71
     3
 72
     8
 73
     4
 74
     0
 42
0.00000001
 43
0.00000001
 12
1.0
 22
0.0
 32
0.0
 13
1.0
 23
0.0
 33
0.0
 40
0.0
 40
0.0
 40
0.0
 40
0.0
 40
1.0
 40
1.0
 40
1.0
 40
1.0
 10
177.0187227457304
 20
169.2386871225195
 30
0.0
 10
176.9536175841164
 20
168.9374422064987
 30
0.0
 10
176.8957302545564
 20
168.6364070544889
 30
0.0
 10
176.8450031113503
 20
168.3356372302225
 30
0.0
  0
LINE
  5
11A
330
1F
100
AcDbEntity
  8
0
  6
HIDDEN
 62
     7
370
     0
100
AcDbLine
 10
219.0938724829
 20
192.6155868646
 30
0.0
 11
227.5862136957
 21
192.6155868646
 31
0.0
  0
LINE
  5
11B
330
1F
100
AcDbEntity
  8
0
  6
HIDDEN
 62
     7
370
     0
100
AcDbLine
 10
217.8437124233
 20
193.8655868646
 30
0.0
 11
228.8363737553
 21
193.8655868646
 31
0.0
  0
LINE
  5
11C
330
1F
100
AcDbEntity
  8
0
  6
HIDDEN
 62
     7
370
     0
100
AcDbLine
 10
219.0938724829
 20
173.8655868646
 30
0.0
 11
227.5862136957
 21
173.8655868646
 31
0.0
  0
SPLINE
  5
11D
330
1F
100
AcDbEntity
  8
0
  6
HIDDEN
 62
     7
370
     0
100
AcDbSpline
210
0.0
220
0.0
230
1.0
 70
     8
 71
     3
 72
    18
 73
    14
 74
     0
 42
0.00000001
 43
0.00000001
 12
1.0
 22
0.0
 32
0.0
 13
1.0
 23
0.0
 33
0.0
 40
0.0
 40
0.0
 40
0.0
 40
0.0
 40
0.1250000000000012
 40
0.1250000000000012
 40
0.2500000000000023
 40
0.2500000000000023
 40
0.3750000000000035
 40
0.3750000000000035
 40
0.5000000000000047
 40
0.5000000000000047
 40
0.7500000000000023
 40
0.7500000000000023
 40
1.0
 40
1.0
 40
1.0
 40
1.0
 10
201.9224787078433
 20
146.4080737539348
 30
0.0
 10
201.8436263266221
 20
146.4080737539348
 30
0.0
 10
201.7654528893772
 20
146.4222955087896
 30
0.0
 10
201.6157062740019
 20
146.4763151451687
 30
0.0
 10
201.5474302699135
 20
146.5145242467705
 30
0.0
 10
201.4213488794692
 20
146.6077248426954
 30
0.0
 10
201.3636422093523
 20
146.6631013649786
 30
0.0
 10
201.2620685330247
 20
146.7820025026708
 30
0.0
 10
201.2172679022318
 20
146.8462243615372
 30
0.0
 10
201.0975769916352
 20
147.0506152854579
 30
0.0
 10
201.0404980061003
 20
147.196046462612
 30
0.0
 10
200.9588225230332
 20
147.4980134055152
 30
0.0
 10
200.9349823542573
 20
147.6544368017811
 30
0.0
 10
200.9262840097516
 20
147.8095348200584
 30
0.0
  0
SPLINE
  5
11E
330
1F
100
AcDbEntity
  8
0
  6
HIDDEN
 62
     7
370
     0
100
AcDbSpline
210
0.0
220
0.0
230
1.0
 70
    24
 71
     3
 72
    18
 73
    14
 74
     0
 42
0.00000001
 43
0.00000001
 12
1.0
 22
0.0
 32
0.0
 13
1.0
 23
0.0
 33
0.0
 40
0.0
 40
0.0
 40
0.0
 40
0.0
 40
0.2500000000000021
 40
0.2500000000000021
 40
0.5000000000000042
 40
0.5000000000000042
 40
0.6250000000000031
 40
0.6250000000000031
 40
0.7500000000000021
 40
0.7500000000000021
 40
0.875000000000001
 40
0.875000000000001
 40
1.0
 40
1.0
 40
1.0
 40
1.0
 10
200.9262840097516
 20
137.8655868645807
 30
0.0
 10
200.9339188058311
 20
137.8655868645807
 30
0.0
 10
200.9529045749222
 20
137.8655868645807
 30
0.0
 10
201.0196210447937
 20
137.8655868645807
 30
0.0
 10
201.0674881590377
 20
137.8655868645807
 30
0.0
 10
201.1692822666664
 20
137.8655868645807
 30
0.0
 10
201.2083136267933
 20
137.8655868645807
 30
0.0
 10
201.3009421505641
 20
137.8655868645807
 30
0.0
 10
201.3546640903206
 20
137.8655868645807
 30
0.0
 10
201.4809423102524
 20
137.8655868645807
 30
0.0
 10
201.5536677611066
 20
137.8655868645807
 30
0.0
 10
201.7231512934895
 20
137.8655868645807
 30
0.0
 10
201.822317647596
 20
137.8655868645807
 30
0.0
 10
201.9224787078433
 20
137.8655868645807
 30
0.0
  0
LINE
  5
11F
330
1F
100
AcDbEntity
  8
0
  6
HIDDEN
 62
     7
370
     0
100
AcDbLine
 10
201.9224787078
 20
137.8655868646
 30
0.0
 11
233.3400430893
 21
137.8655868646
 31
0.0
  0
LINE
  5
120
330
1F
100
AcDbEntity
  8
0
  6
HIDDEN
 62
     7
370
     0
100
AcDbLine
 10
233.3400430893
 20
145.3156322367
 30
0.0
 11
233.3400430893
 21
137.8655868646
 31
0.0
  0
CIRCLE
  5
121
330
1F
100
AcDbEntity
  8
0
  6
HIDDEN
 62
     7
370
     0
100
AcDbCircle
 10
209.3400430893
 20
181.8655868646
 30
0.0
 40
5.999999999999972
  0
LINE
  5
122
330
1F
100
AcDbEntity
  8
0
  6
HIDDEN
 62
     7
370
     0
100
AcDbLine
 10
232.3400430893
 20
193.8655868646
 30
0.0
 11
200.6391350033
 21
193.8655868646
 31
0.0
  0
LINE
  5
123
330
1F
100
AcDbEntity
  8
0
  6
HIDDEN
 62
     7
370
     0
100
AcDbLine
 10
232.3400430893
 20
192.8655868646
 30
0.0
 11
232.3400430893
 21
193.8655868646
 31
0.0
  0
LINE
  5
124
330
1F
100
AcDbEntity
  8
0
  6
HIDDEN
 62
     7
370
     0
100
AcDbLine
 10
233.3400430893
 20
192.8655868646
 30
0.0
 11
232.3400430893
 21
193.8655868646
 31
0.0
  0
LINE
  5
125
330
1F
100
AcDbEntity
  8
0
  6
HIDDEN
 62
     7
370
     0
100
AcDbLine
 10
233.3400430893
 20
192.8655868646
 30
0.0
 11
232.3400430893
 21
192.8655868646
 31
0.0
  0
LINE
  5
126
330
1F
100
AcDbEntity
  8
0
  6
HIDDEN
 62
     7
370
     0
100
AcDbLine
 10
233.3400430893
 20
173.8655868646
 30
0.0
 11
233.3400430893
 21
192.8655868646
 31
0.0
  0
LINE
  5
127
330
1F
100
AcDbEntity
  8
0
  6
HIDDEN
 62
     7
370
     0
100
AcDbLine
 10
232.3400430893
 20
173.8655868646
 30
0.0
 11
233.3400430893
 21
173.8655868646
 31
0.0
  0
ARC
  5
128
330
1F
100
AcDbEntity
  8
0
  6
HIDDEN
 62
     7
370
     0
100
AcDbCircle
 10
262.3400430893
 20
172.8655868646
 30
0.0
 40
40.00000000000033
100
AcDbArc
 50
221.4096221093
 51
223.5311521674
  0
LINE
  5
129
330
1F
100
AcDbEntity
  8
0
  6
HIDDEN
 62
     7
370
     0
100
AcDbLine
 10
233.3400430893
 20
145.3156322367
 30
0.0
 11
233.3400430893
 21
152.8655868646
 31
0.0
  0
LINE
  5
12A
330
1F
100
AcDbEntity
  8
0
  6
HIDDEN
 62
     7
370
     0
100
AcDbLine
 10
233.3400430893
 20
152.8655868646
 30
0.0
 11
232.3400430893
 21
152.8655868646
 31
0.0
  0
LINE
  5
12B
330
1F
100
AcDbEntity
  8
0
  6
HIDDEN
 62
     7
370
     0
100
AcDbLine
 10
232.3400430893
 20
152.8655868646
 30
0.0
 11
232.3400430893
 21
146.4080737539
 31
0.0
  0
LINE
  5
12C
330
1F
100
AcDbEntity
  8
0
  6
HIDDEN
 62
     7
370
     0
100
AcDbLine
 10
232.3400430893
 20
192.8655868646
 30
0.0
 11
232.3400430893
 21
173.8655868646
 31
0.0
  0
LINE
  5
12D
330
1F
100
AcDbEntity
  8
0
  6
HIDDEN
 62
     7
370
     0
100
AcDbLine
 10
200.6610496164
 20
192.8655868646
 30
0.0
 11
232.3400430893
 21
192.8655868646
 31
0.0
  0
CIRCLE
  5
12E
330
1F
100
AcDbEntity
  8
0
  6
HIDDEN
 62
     7
370
     0
100
AcDbCircle
 10
209.3400430893
 20
181.8655868646
 30
0.0
 40
5.999999999999972
  0
LINE
  5
12F
330
1F
100
AcDbEntity
  8
0
  6
HIDDEN
 62
     7
370
     0
100
AcDbLine
 10
232.3400430893
 20
146.4080737539
 30
0.0
 11
201.9224787078
 21
146.4080737539
 31
0.0
  0
LINE
  5
130
330
1F
100
AcDbEntity
  8
0
  6
HIDDEN
 62
     7
370
     0
100
AcDbLine
 10
213.3400430893
 20
152.8655868646
 30
0.0
 11
232.3400430893
 21
152.8655868646
 31
0.0
  0
LINE
  5
131
330
1F
100
AcDbEntity
  8
0
  6
HIDDEN
 62
     7
370
     0
100
AcDbLine
 10
213.3400430893
 20
152.8655868646
 30
0.0
 11
213.3400430893
 21
173.8655868646
 31
0.0
  0
LINE
  5
132
330
1F
100
AcDbEntity
  8
0
  6
HIDDEN
 62
     7
370
     0
100
AcDbLine
 10
213.3400430893
 20
173.8655868646
 30
0.0
 11
232.3400430893
 21
173.8655868646
 31
0.0
  0
LINE
  5
133
330
1F
100
AcDbEntity
  8
0
  6
HIDDEN
 62
     7
370
     0
100
AcDbLine
 10
217.8400430893
 20
193.8655868646
 30
0.0
 11
219.0900430893
 21
192.6155868646
 31
0.0
  0
LINE
  5
134
330
1F
100
AcDbEntity
  8
0
  6
HIDDEN
 62
     7
370
     0
100
AcDbLine
 10
227.5900430893
 20
192.6155868646
 30
0.0
 11
228.8400430893
 21
193.8655868646
 31
0.0
  0
LINE
  5
135
330
1F
100
AcDbEntity
  8
0
  6
HIDDEN
 62
     7
370
     0
100
AcDbLine
 10
219.0900430893
 20
192.6155868646
 30
0.0
 11
219.0900430893
 21
173.8655868646
 31
0.0
  0
LINE
  5
136
330
1F
100
AcDbEntity
  8
0
  6
HIDDEN
 62
     7
370
     0
100
AcDbLine
 10
227.5900430893
 20
173.8655868646
 30
0.0
 11
227.5900430893
 21
192.6155868646
 31
0.0
  0
LINE
  5
137
330
1F
100
AcDbEntity
  8
0
  6
HIDDEN
 62
     7
370
     0
100
AcDbLine
 10
206.4286263773
 20
182.4082409536
 30
0.0
 11
204.001604023
 21
175.0035756632
 31
0.0
  0
LINE
  5
138
330
1F
100
AcDbEntity
  8
0
  6
HIDDEN
 62
     7
370
     0
100
AcDbLine
 10
208.0523674673
 20
173.8775062502
 30
0.0
 11
210.4197079953
 21
181.1000867123
 31
0.0
  0
LINE
  5
139
330
1F
100
AcDbEntity
  8
0
  6
HIDDEN
 62
     7
370
     0
100
AcDbLine
 10
178.3400430893
 20
157.0655868646
 30
0.0
 11
178.4329363081
 21
157.1584800834
 31
0.0
  0
LINE
  5
13A
330
1F
100
AcDbEntity
  8
0
  6
HIDDEN
 62
     7
370
     0
100
AcDbLine
 10
178.4329363081
 20
188.5726936458
 30
0.0
 11
178.3400430893
 21
188.6655868646
 31
0.0
  0
ARC
  5
13B
330
1F
100
AcDbEntity
  8
0
  6
HIDDEN
 62
     7
370
     0
100
AcDbCircle
 10
177.7258295269
 20
157.8655868646
 30
0.0
 40
1.0
100
AcDbArc
 50
315.0
 51
0.0
  0
ARC
  5
13C
330
1F
100
AcDbEntity
  8
0
  6
HIDDEN
 62
     7
370
     0
100
AcDbCircle
 10
177.7258295269
 20
157.8655868646
 30
0.0
 40
1.000000000000004
100
AcDbArc
 50
0.0
 51
52.1052014664
  0
ARC
  5
13D
330
1F
100
AcDbEntity
  8
0
  6
HIDDEN
 62
     7
370
     0
100
AcDbCircle
 10
177.7258295269
 20
187.8655868646
 30
0.0
 40
1.000000000000008
100
AcDbArc
 50
343.125
 51
45.0
  0
ARC
  5
13E
330
1F
100
AcDbEntity
  8
0
  6
HIDDEN
 62
     7
370
     0
100
AcDbCircle
 10
177.7258295269
 20
187.8655868646
 30
0.0
 40
0.9999999999999998
100
AcDbArc
 50
307.8947985336
 51
343.125
  0
LINE
  5
13F
330
1F
100
AcDbEntity
  8
0
  6
HIDDEN
 62
     7
370
     0
100
AcDbLine
 10
178.7258295269
 20
157.8655868646
 30
0.0
 11
178.7258295269
 21
187.8655868646
 31
0.0
  0
LINE
  5
140
330
1F
100
AcDbEntity
  8
0
  6
HIDDEN
 62
     7
370
     0
100
AcDbLine
 10
178.7258295269
 20
157.8655868646
 30
0.0
 11
178.7258295269
 21
187.8655868646
 31
0.0
  0
LINE
  5
141
330
1F
100
AcDbEntity
  8
0
  6
HIDDEN
 62
     7
370
     0
100
AcDbLine
 10
154.3400430893
 20
162.7099363403
 30
0.0
 11
155.3670751213
 21
163.3028935605
 31
0.0
  0
LINE
  5
142
330
1F
100
AcDbEntity
  8
0
  6
HIDDEN
 62
     7
370
     0
100
AcDbLine
 10
155.3670751213
 20
182.4282801687
 30
0.0
 11
154.3400430893
 21
183.0212373889
 31
0.0
  0
LINE
  5
143
330
1F
100
AcDbEntity
  8
0
  6
HIDDEN
 62
     7
370
     0
100
AcDbLine
 10
159.8400430893
 20
162.8655868646
 30
0.0
 11
160.852861559
 21
162.8655868646
 31
0.0
  0
LINE
  5
144
330
1F
100
AcDbEntity
  8
0
  6
HIDDEN
 62
     7
370
     0
100
AcDbLine
 10
160.852861559
 20
182.8655868646
 30
0.0
 11
159.8400430893
 21
182.8655868646
 31
0.0
  0
ARC
  5
145
330
1F
100
AcDbEntity
  8
0
  6
HIDDEN
 62
     7
370
     0
100
AcDbCircle
 10
160.852861559
 20
163.8655868646
 30
0.0
 40
1.0
100
AcDbArc
 50
270.0
 51
315.0
  0
ARC
  5
146
330
1F
100
AcDbEntity
  8
0
  6
HIDDEN
 62
     7
370
     0
100
AcDbCircle
 10
160.852861559
 20
181.8655868646
 30
0.0
 40
1.000000000000028
100
AcDbArc
 50
45.0
 51
90.0
  0
ARC
  5
147
330
1F
100
AcDbEntity
  8
0
  6
HIDDEN
 62
     7
370
     0
100
AcDbCircle
 10
159.8400430893
 20
163.8655868646
 30
0.0
 40
1.000000000000004
100
AcDbArc
 50
193.3524261238
 51
270.0
  0
ARC
  5
148
330
1F
100
AcDbEntity
  8
0
  6
HIDDEN
 62
     7
370
     0
100
AcDbCircle
 10
159.8400430893
 20
181.8655868646
 30
0.0
 40
1.000000000000011
100
AcDbArc
 50
90.0
 51
166.6475738762
  0
LINE
  5
149
330
1F
100
AcDbEntity
  8
0
  6
HIDDEN
 62
     7
370
     0
100
AcDbLine
 10
161.5599683401
 20
163.1584800834
 30
0.0
 11
162.2670751213
 21
163.8655868646
 31
0.0
  0
LINE
  5
14A
330
1F
100
AcDbEntity
  8
0
  6
HIDDEN
 62
     7
370
     0
100
AcDbLine
 10
162.2670751213
 20
181.8655868646
 30
0.0
 11
161.5599683401
 21
182.5726936458
 31
0.0
  0
LINE
  5
14B
330
1F
100
AcDbEntity
  8
0
  6
HIDDEN
 62
     7
370
     0
100
AcDbLine
 10
155.3670751213
 20
163.3028935605
 30
0.0
 11
157.4670751213
 21
163.8655868646
 31
0.0
  0
LINE
  5
14C
330
1F
100
AcDbEntity
  8
0
  6
HIDDEN
 62
     7
370
     0
100
AcDbLine
 10
157.4670751213
 20
181.8655868646
 30
0.0
 11
155.3670751213
 21
182.4282801687
 31
0.0
  0
LINE
  5
14D
330
1F
100
AcDbEntity
  8
0
  6
HIDDEN
 62
     7
370
     0
100
AcDbLine
 10
158.8670751213
 20
182.0965269723
 30
0.0
 11
158.4670751213
 21
181.8655868646
 31
0.0
  0
LINE
  5
14E
330
1F
100
AcDbEntity
  8
0
  6
HIDDEN
 62
     7
370
     0
100
AcDbLine
 10
158.4670751213
 20
163.8655868646
 30
0.0
 11
158.8670751213
 21
163.6346467569
 31
0.0
  0
LINE
  5
14F
330
1F
100
AcDbEntity
  8
0
  6
HIDDEN
 62
     7
370
     0
100
AcDbLine
 10
157.4670751213
 20
163.8655868646
 30
0.0
 11
158.4670751213
 21
163.8655868646
 31
0.0
  0
LINE
  5
150
330
1F
100
AcDbEntity
  8
0
  6
HIDDEN
 62
     7
370
     0
100
AcDbLine
 10
158.4670751213
 20
181.8655868646
 30
0.0
 11
157.4670751213
 21
181.8655868646
 31
0.0
  0
ARC
  5
151
330
1F
100
AcDbEntity
  8
0
  6
HIDDEN
 62
     7
370
     0
100
AcDbCircle
 10
168.8400430893
 20
164.3655868646
 30
0.0
 40
0.5000000000000114
100
AcDbArc
 50
306.2127277772
 51
0.0
  0
ARC
  5
152
330
1F
100
AcDbEntity
  8
0
  6
HIDDEN
 62
     7
370
     0
100
AcDbCircle
 10
168.8400430893
 20
181.3655868646
 30
0.0
 40
0.5
100
AcDbArc
 50
0.0
 51
53.7736428952
  0
LINE
  5
153
330
1F
100
AcDbEntity
  8
0
  6
HIDDEN
 62
     7
370
     0
100
AcDbLine
 10
162.2670751213
 20
163.8655868646
 30
0.0
 11
164.5418358348
 21
163.8655868646
 31
0.0
  0
LINE
  5
154
330
1F
100
AcDbEntity
  8
0
  6
HIDDEN
 62
     7
370
     0
100
AcDbLine
 10
164.5476680542
 20
181.8655868646
 30
0.0
 11
162.2670751213
 21
181.8655868646
 31
0.0
  0
LINE
  5
155
330
1F
100
AcDbEntity
  8
0
  6
HIDDEN
 62
     7
370
     0
100
AcDbLine
 10
169.3400430893
 20
165.7155868646
 30
0.0
 11
170.2400430893
 21
166.6155868646
 31
0.0
  0
LINE
  5
156
330
1F
100
AcDbEntity
  8
0
  6
HIDDEN
 62
     7
370
     0
100
AcDbLine
 10
170.2400430893
 20
179.1155868646
 30
0.0
 11
169.3400430893
 21
180.0155868646
 31
0.0
  0
LINE
  5
157
330
1F
100
AcDbEntity
  8
0
  6
HIDDEN
 62
     7
370
     0
100
AcDbLine
 10
170.2400430893
 20
166.6155868646
 30
0.0
 11
189.3400430893
 21
166.6155868646
 31
0.0
  0
LINE
  5
158
330
1F
100
AcDbEntity
  8
0
  6
HIDDEN
 62
     7
370
     0
100
AcDbLine
 10
189.3400430893
 20
179.1155868646
 30
0.0
 11
170.2400430893
 21
179.1155868646
 31
0.0
  0
LINE
  5
159
330
1F
100
AcDbEntity
  8
0
  6
HIDDEN
 62
     7
370
     0
100
AcDbLine
 10
189.3400430893
 20
166.6155868646
 30
0.0
 11
190.5417643273
 21
168.6155868646
 31
0.0
  0
LINE
  5
15A
330
1F
100
AcDbEntity
  8
0
  6
HIDDEN
 62
     7
370
     0
100
AcDbLine
 10
190.5417643273
 20
177.1155868646
 30
0.0
 11
189.3400430893
 21
179.1155868646
 31
0.0
  0
LINE
  5
15B
330
1F
100
AcDbEntity
  8
0
  6
HIDDEN
 62
     7
370
     0
100
AcDbLine
 10
217.8400430893
 20
193.8655868646
 30
0.0
 11
219.0900430893
 21
192.6155868646
 31
0.0
  0
LINE
  5
15C
330
1F
100
AcDbEntity
  8
0
  6
HIDDEN
 62
     7
370
     0
100
AcDbLine
 10
227.5900430893
 20
192.6155868646
 30
0.0
 11
228.8400430893
 21
193.8655868646
 31
0.0
  0
LINE
  5
15D
330
1F
100
AcDbEntity
  8
0
  6
HIDDEN
 62
     7
370
     0
100
AcDbLine
 10
190.5417643273
 20
168.6155868646
 30
0.0
 11
208.3400430893
 21
168.6155868646
 31
0.0
  0
LINE
  5
15E
330
1F
100
AcDbEntity
  8
0
  6
HIDDEN
 62
     7
370
     0
100
AcDbLine
 10
208.3400430893
 20
177.1155868646
 30
0.0
 11
190.5417643273
 21
177.1155868646
 31
0.0
  0
LINE
  5
15F
330
1F
100
AcDbEntity
  8
0
  6
HIDDEN
 62
     7
370
     0
100
AcDbLine
 10
208.3400430893
 20
168.6155868646
 30
0.0
 11
210.8937007202
 21
172.8655868646
 31
0.0
  0
LINE
  5
160
330
1F
100
AcDbEntity
  8
0
  6
HIDDEN
 62
     7
370
     0
100
AcDbLine
 10
210.8937007202
 20
172.8655868646
 30
0.0
 11
208.3400430893
 21
177.1155868646
 31
0.0
  0
LINE
  5
161
330
1F
100
AcDbEntity
  8
0
  6
HIDDEN
 62
     7
370
     0
100
AcDbLine
 10
219.0900430893
 20
192.6155868646
 30
0.0
 11
219.0900430893
 21
173.8655868646
 31
0.0
  0
LINE
  5
162
330
1F
100
AcDbEntity
  8
0
  6
HIDDEN
 62
     7
370
     0
100
AcDbLine
 10
227.5900430893
 20
173.8655868646
 30
0.0
 11
227.5900430893
 21
192.6155868646
 31
0.0
  0
LINE
  5
163
330
1F
100
AcDbEntity
  8
0
  6
HIDDEN
 62
     7
370
     0
100
AcDbLine
 10
169.5359208627
 20
159.9279870196
 30
0.0
 11
169.1400430893
 21
160.323864793
 31
0.0
  0
LINE
  5
164
330
1F
100
AcDbEntity
  8
0
  6
HIDDEN
 62
     7
370
     0
100
AcDbLine
 10
164.5400430893
 20
160.323864793
 30
0.0
 11
164.2728571265
 21
160.0566788302
 31
0.0
  0
LINE
  5
165
330
1F
100
AcDbEntity
  8
0
  6
HIDDEN
 62
     7
370
     0
100
AcDbLine
 10
160.2471747131
 20
160.1584552407
 30
0.0
 11
158.5400430893
 21
161.8655868646
 31
0.0
  0
LINE
  5
166
330
1F
100
AcDbEntity
  8
0
  6
HIDDEN
 62
     7
370
     0
100
AcDbLine
 10
158.5400430893
 20
161.8655868646
 30
0.0
 11
154.3400430893
 21
161.8655868646
 31
0.0
  0
LINE
  5
167
330
1F
100
AcDbEntity
  8
0
  6
HIDDEN
 62
     7
370
     0
100
AcDbLine
 10
169.1400430893
 20
160.323864793
 30
0.0
 11
169.1400430893
 21
163.9631433206
 31
0.0
  0
LINE
  5
168
330
1F
100
AcDbEntity
  8
0
  6
HIDDEN
 62
     7
370
     0
100
AcDbLine
 10
164.5400430893
 20
163.8660446039
 30
0.0
 11
164.5400430893
 21
160.323864793
 31
0.0
  0
LINE
  5
169
330
1F
100
AcDbEntity
  8
0
  6
HIDDEN
 62
     7
370
     0
100
AcDbLine
 10
169.1400430893
 20
181.7680304086
 30
0.0
 11
169.1400430893
 21
183.8655868646
 31
0.0
  0
LINE
  5
16A
330
1F
100
AcDbEntity
  8
0
  6
HIDDEN
 62
     7
370
     0
100
AcDbLine
 10
164.5400430893
 20
183.8655868646
 30
0.0
 11
164.5400430893
 21
181.8636437026
 31
0.0
  0
LINE
  5
16B
330
1F
100
AcDbEntity
  8
0
  6
HIDDEN
 62
     7
370
     0
100
AcDbLine
 10
169.1400430893
 20
183.8655868646
 30
0.0
 11
166.8400430893
 21
185.2475662883
 31
0.0
  0
LINE
  5
16C
330
1F
100
AcDbEntity
  8
0
  6
HIDDEN
 62
     7
370
     0
100
AcDbLine
 10
166.8400430893
 20
185.2475662883
 30
0.0
 11
164.5400430893
 21
183.8655868646
 31
0.0
  0
LINE
  5
16D
330
1F
100
AcDbEntity
  8
0
  6
HIDDEN
 62
     7
370
     0
100
AcDbLine
 10
188.3400430893
 20
153.3655868646
 30
0.0
 11
188.3400430893
 21
152.8655868646
 31
0.0
  0
LINE
  5
16E
330
1F
100
AcDbEntity
  8
0
  6
HIDDEN
 62
     7
370
     0
100
AcDbLine
 10
192.3400430893
 20
152.8655868646
 30
0.0
 11
192.3400430893
 21
153.3655868646
 31
0.0
  0
LINE
  5
16F
330
1F
100
AcDbEntity
  8
0
  6
HIDDEN
 62
     7
370
     0
100
AcDbLine
 10
192.3400430893
 20
153.3655868646
 30
0.0
 11
190.3400430893
 21
154.5673081026
 31
0.0
  0
LINE
  5
170
330
1F
100
AcDbEntity
  8
0
  6
HIDDEN
 62
     7
370
     0
100
AcDbLine
 10
190.3400430893
 20
154.5673081026
 30
0.0
 11
188.3400430893
 21
153.3655868646
 31
0.0
  0
LINE
  5
171
330
1F
100
AcDbEntity
  8
0
  6
HIDDEN
 62
     7
370
     0
100
AcDbLine
 10
204.001604023
 20
175.0035756632
 30
0.0
 11
204.0014711126
 21
175.0031701634
 31
0.0
  0
LINE
  5
172
330
1F
100
AcDbEntity
  8
0
  6
HIDDEN
 62
     7
370
     0
100
AcDbLine
 10
208.0525487952
 20
173.878059468
 30
0.0
 11
210.4197079953
 21
181.1000867123
 31
0.0
  0
LINE
  5
173
330
1F
100
AcDbEntity
  8
0
  6
HIDDEN
 62
     7
370
     0
100
AcDbLine
 10
217.8400430893
 20
193.8655868646
 30
0.0
 11
219.0900430893
 21
192.6155868646
 31
0.0
  0
LINE
  5
174
330
1F
100
AcDbEntity
  8
0
  6
HIDDEN
 62
     7
370
     0
100
AcDbLine
 10
227.5900430893
 20
192.6155868646
 30
0.0
 11
228.8400430893
 21
193.8655868646
 31
0.0
  0
LINE
  5
175
330
1F
100
AcDbEntity
  8
0
  6
HIDDEN
 62
     7
370
     0
100
AcDbLine
 10
219.0900430893
 20
192.6155868646
 30
0.0
 11
219.0900430893
 21
173.8655868646
 31
0.0
  0
LINE
  5
176
330
1F
100
AcDbEntity
  8
0
  6
HIDDEN
 62
     7
370
     0
100
AcDbLine
 10
227.5900430893
 20
173.8655868646
 30
0.0
 11
227.5900430893
 21
192.6155868646
 31
0.0
  0
DIMENSION
  5
177
330
1F
100
AcDbEntity
  8
VERMASSUNG
100
AcDbDimension
  2
_D
 10
243.6430344882
 20
152.8655868646
 30
0.0
 11
243.6430344882
 21
162.8655868646
 31
0.0
 70
   160
  1
<>
 71
     2
 42
-1.0
  3
SLDDIMSTYLE0
100
AcDbAlignedDimension
 13
234.857407481
 23
172.8655868646
 33
0.0
 14
233.3400430893
 24
152.8655868646
 34
0.0
 50
90.0
100
AcDbRotatedDimension
  0
DIMENSION
  5
182
330
1F
100
AcDbEntity
  8
VERMASSUNG
100
AcDbDimension
  2
_D_1
 10
243.765144633
 20
173.8655868646
 30
0.0
 11
243.765144633
 21
181.7428867809
 31
0.0
 70
   160
  1
<>
 71
     2
 42
-1.0
  3
SLDDIMSTYLE1
100
AcDbAlignedDimension
 13
234.857407481
 23
172.8655868646
 33
0.0
 14
233.3400430893
 24
173.8655868646
 34
0.0
 50
90.0
100
AcDbRotatedDimension
  0
DIMENSION
  5
18F
330
1F
100
AcDbEntity
  8
VERMASSUNG
100
AcDbDimension
  2
_D_2
 10
251.9743938027
 20
193.8655868646
 30
0.0
 11
251.9743938027
 21
183.3655868646
 31
0.0
 70
   160
  1
<>
 71
     2
 42
-1.0
  3
SLDDIMSTYLE0
100
AcDbAlignedDimension
 13
234.857407481
 23
172.8655868646
 33
0.0
 14
232.3400430893
 24
193.8655868646
 34
0.0
 50
90.0
100
AcDbRotatedDimension
  0
DIMENSION
  5
199
330
1F
100
AcDbEntity
  8
VERMASSUNG
100
AcDbDimension
  2
_D_3
 10
251.9743938027
 20
172.8655868646
 30
0.0
 11
251.9743938027
 21
155.3655868646
 31
0.0
 70
   160
  1
<>
 71
     2
 42
-1.0
  3
SLDDIMSTYLE0
100
AcDbAlignedDimension
 13
233.3400430893
 23
137.8655868646
 33
0.0
 14
234.857407481
 24
172.8655868646
 34
0.0
 50
90.0
100
AcDbRotatedDimension
  0
DIMENSION
  5
1A3
330
1F
100
AcDbEntity
  8
VERMASSUNG
100
AcDbDimension
  2
_D_4
 10
146.7990489091
 20
152.8655868646
 30
0.0
 11
146.7990489091
 21
172.8655868646
 31
0.0
 70
   160
  1
PSC%%c<>
 71
     2
 42
-1.0
  3
SLDDIMSTYLE0
100
AcDbAlignedDimension
 13
178.6400430893
 23
192.8655868646
 33
0.0
 14
178.6400430893
 24
152.8655868646
 34
0.0
 50
90.0
100
AcDbRotatedDimension
  0
LINE
  5
1AF
330
1F
100
AcDbEntity
  8
VERMASSUNG
  6
CENTERX2
370
     0
100
AcDbLine
 10
151.3116581073
 20
172.8655868646
 30
0.0
 11
234.857407481
 21
172.8655868646
 31
0.0
  0
LINE
  5
1B0
330
1F
100
AcDbEntity
  8
0
  6
Continuous
 62
     7
370
    15
100
AcDbLine
 10
200.1312608986
 20
118.4477816749
 30
0.0
 11
199.3362377874
 21
109.3606259321
 31
0.0
  0
LINE
  5
1B1
330
1F
100
AcDbEntity
  8
0
  6
Continuous
 62
     7
370
    15
100
AcDbLine
 10
199.3362377874
 20
67.5349374176
 30
0.0
 11
200.1312608986
 21
58.4477816749
 31
0.0
  0
ARC
  5
1B2
330
1F
100
AcDbEntity
  8
0
  6
Continuous
 62
     7
370
    15
100
AcDbCircle
 10
198.3400430893
 20
67.4477816749
 30
0.0
 40
1.00000000000001
100
AcDbArc
 50
5.0
 51
90.0
  0
ARC
  5
1B3
330
1F
100
AcDbEntity
  8
0
  6
Continuous
 62
     7
370
    15
100
AcDbCircle
 10
198.3400430893
 20
109.4477816749
 30
0.0
 40
1.00000000000001
100
AcDbArc
 50
270.0
 51
355.0
  0
LINE
  5
1B4
330
1F
100
AcDbEntity
  8
0
  6
Continuous
 62
     7
370
    15
100
AcDbLine
 10
178.6400430893
 20
68.4477816749
 30
0.0
 11
198.3400430893
 21
68.4477816749
 31
0.0
  0
LINE
  5
1B5
330
1F
100
AcDbEntity
  8
0
  6
Continuous
 62
     7
370
    15
100
AcDbLine
 10
198.3400430893
 20
108.4477816749
 30
0.0
 11
178.6400430893
 21
108.4477816749
 31
0.0
  0
ARC
  5
1B6
330
1F
100
AcDbEntity
  8
0
  6
Continuous
 62
     7
370
    15
100
AcDbCircle
 10
178.6400430893
 20
68.7477816749
 30
0.0
 40
0.3000000000000114
100
AcDbArc
 50
180.0
 51
270.0
  0
ARC
  5
1B7
330
1F
100
AcDbEntity
  8
0
  6
Continuous
 62
     7
370
    15
100
AcDbCircle
 10
178.6400430893
 20
108.1477816749
 30
0.0
 40
0.3000000000000114
100
AcDbArc
 50
90.0
 51
180.0
  0
LWPOLYLINE
  5
1B8
330
1F
100
AcDbEntity
  8
0
  6
Continuous
 62
     7
370
    15
100
AcDbPolyline
 90
        3
 70
   128
 43
0.0
 10
178.1400430893
 20
74.357961396
 10
178.2654980328
 20
74.2896592811
 10
178.3400430893
 20
74.2369215229
  0
LWPOLYLINE
  5
1B9
330
1F
100
AcDbEntity
  8
0
  6
Continuous
 62
     7
370
    15
100
AcDbPolyline
 90
        3
 70
   128
 43
0.0
 10
178.3400430893
 20
102.6586418268
 10
178.2654980328
 20
102.6059040687
 10
178.1400430893
 20
102.5376019538
  0
ARC
  5
1BA
330
1F
100
AcDbEntity
  8
0
  6
Continuous
 62
     7
370
    15
100
AcDbCircle
 10
209.3400430893
 20
60.4477816749
 30
0.0
 40
5.00000000000001
100
AcDbArc
 50
304.6978938945
 51
336.4218215218
  0
ARC
  5
1BB
330
1F
100
AcDbEntity
  8
0
  6
Continuous
 62
     7
370
    15
100
AcDbCircle
 10
209.3400430893
 20
60.4477816749
 30
0.0
 40
5.000000000000005
100
AcDbArc
 50
203.5781784782
 51
224.1354012933
  0
ARC
  5
1BC
330
1F
100
AcDbEntity
  8
0
  6
Continuous
 62
     7
370
    15
100
AcDbCircle
 10
209.3400430893
 20
116.4477816749
 30
0.0
 40
4.999999999999999
100
AcDbArc
 50
124.6978938945
 51
156.4218215218
  0
ARC
  5
1BD
330
1F
100
AcDbEntity
  8
0
  6
Continuous
 62
     7
370
    15
100
AcDbCircle
 10
209.3400430893
 20
116.4477816749
 30
0.0
 40
5.000000000000011
100
AcDbArc
 50
23.5781784782
 51
44.1354012933
  0
SPLINE
  5
1BE
330
1F
100
AcDbEntity
  8
0
  6
Continuous
 62
     7
370
    15
100
AcDbSpline
210
0.0
220
0.0
230
1.0
 70
     8
 71
     3
 72
     8
 73
     4
 74
     0
 42
0.00000001
 43
0.00000001
 12
1.0
 22
0.0
 32
0.0
 13
1.0
 23
0.0
 33
0.0
 40
0.0
 40
0.0
 40
0.0
 40
0.0
 40
0.0014143833462928
 40
0.0014143833462928
 40
0.0014143833462928
 40
0.0014143833462928
 10
200.6610496164343
 20
58.44778167487689
 30
0.0
 10
200.6529615060441
 20
58.78110596579618
 30
0.0
 10
200.6456510944716
 20
59.11444016537143
 30
0.0
 10
200.6391350032664
 20
59.44778167487689
 30
0.0
  0
SPLINE
  5
1BF
330
1F
100
AcDbEntity
  8
0
  6
Continuous
 62
     7
370
    15
100
AcDbSpline
210
0.0
220
0.0
230
1.0
 70
    24
 71
     3
 72
    10
 73
     6
 74
     0
 42
0.00000001
 43
0.00000001
 12
1.0
 22
0.0
 32
0.0
 13
1.0
 23
0.0
 33
0.0
 40
0.0
 40
0.0
 40
0.0
 40
0.0
 40
0.3196073008396231
 40
0.8022127136248842
 40
0.9999999999999999
 40
0.9999999999999999
 40
0.9999999999999999
 40
0.9999999999999999
 10
200.6610496164343
 20
58.44778167487689
 30
0.0
 10
200.5661259944993
 20
58.44778167487689
 30
0.0
 10
200.3278681820542
 20
58.44778167487689
 30
0.0
 10
200.1288933495966
 20
58.44778167487688
 30
0.0
 10
200.1560565175987
 20
58.44778167487689
 30
0.0
 10
200.1639527359079
 20
58.44778167487689
 30
0.0
  0
SPLINE
  5
1C0
330
1F
100
AcDbEntity
  8
0
  6
Continuous
 62
     7
370
    15
100
AcDbSpline
210
0.0
220
0.0
230
1.0
 70
    24
 71
     3
 72
    10
 73
     6
 74
     0
 42
0.00000001
 43
0.00000001
 12
1.0
 22
0.0
 32
0.0
 13
1.0
 23
0.0
 33
0.0
 40
0.0
 40
0.0
 40
0.0
 40
0.0
 40
0.1963425363312021
 40
0.6803926514269556
 40
1.0
 40
1.0
 40
1.0
 40
1.0
 10
200.1639627541712
 20
118.4477816748769
 30
0.0
 10
200.1560075185235
 20
118.4477816748769
 30
0.0
 10
200.1284399624747
 20
118.4477816748769
 30
0.0
 10
200.3274807562198
 20
118.4477816748769
 30
0.0
 10
200.5661378397831
 20
118.4477816748769
 30
0.0
 10
200.6610496164343
 20
118.4477816748769
 30
0.0
  0
SPLINE
  5
1C1
330
1F
100
AcDbEntity
  8
0
  6
Continuous
 62
     7
370
    15
100
AcDbSpline
210
0.0
220
0.0
230
1.0
 70
     8
 71
     3
 72
     8
 73
     4
 74
     0
 42
0.00000001
 43
0.00000001
 12
1.0
 22
0.0
 32
0.0
 13
1.0
 23
0.0
 33
0.0
 40
0.0
 40
0.0
 40
0.0
 40
0.0
 40
0.0014143833462928
 40
0.0014143833462928
 40
0.0014143833462928
 40
0.0014143833462928
 10
200.6391350032651
 20
117.4477816748769
 30
0.0
 10
200.6456510944703
 20
117.7811231843824
 30
0.0
 10
200.6529615060441
 20
118.1144573839576
 30
0.0
 10
200.6610496164343
 20
118.4477816748769
 30
0.0
  0
SPLINE
  5
1C2
330
1F
100
AcDbEntity
  8
0
  6
Continuous
 62
     7
370
    15
100
AcDbSpline
210
0.0
220
0.0
230
1.0
 70
     8
 71
     3
 72
    18
 73
    14
 74
     0
 42
0.00000001
 43
0.00000001
 12
1.0
 22
0.0
 32
0.0
 13
1.0
 23
0.0
 33
0.0
 40
0.0
 40
0.0
 40
0.0
 40
0.0
 40
0.2500000000000001
 40
0.2500000000000001
 40
0.3750000000000001
 40
0.3750000000000001
 40
0.5000000000000001
 40
0.5000000000000001
 40
0.6250000000000001
 40
0.6250000000000001
 40
0.7500000000000002
 40
0.7500000000000002
 40
1.0
 40
1.0
 40
1.0
 40
1.0
 10
200.6391350032664
 20
117.4477816748768
 30
0.0
 10
200.2970485365233
 20
112.6201944893981
 30
0.0
 10
199.9801606214056
 20
107.7908545229812
 30
0.0
 10
199.6197222219573
 20
100.5440928739529
 30
0.0
 10
199.5197658879924
 20
98.12791194419407
 30
0.0
 10
199.3815243886348
 20
93.29373654508505
 30
0.0
 10
199.343951997621
 20
90.87572111546143
 30
0.0
 10
199.3437741802673
 20
86.0374857324208
 30
0.0
 10
199.3811799781052
 20
83.61726544893885
 30
0.0
 10
199.5194603007187
 20
78.77495848229776
 30
0.0
 10
199.619519184905
 20
76.35584171452054
 30
0.0
 10
199.9801843356142
 20
69.10365431109247
 30
0.0
 10
200.2970923657038
 20
64.27475033489314
 30
0.0
 10
200.6391350032664
 20
59.44778167487689
 30
0.0
  0
LINE
  5
1C3
330
1F
100
AcDbEntity
  8
0
  6
Continuous
 62
     7
370
    15
100
AcDbLine
 10
200.6610496164
 20
118.4477816749
 30
0.0
 11
232.3400430893
 21
118.4477816749
 31
0.0
  0
LINE
  5
1C4
330
1F
100
AcDbEntity
  8
0
  6
Continuous
 62
     7
370
    15
100
AcDbLine
 10
232.3400430893
 20
118.4477816749
 30
0.0
 11
232.3400430893
 21
117.4477816749
 31
0.0
  0
LINE
  5
1C5
330
1F
100
AcDbEntity
  8
0
  6
Continuous
 62
     7
370
    15
100
AcDbLine
 10
232.3400430893
 20
117.4477816749
 30
0.0
 11
200.6391350033
 21
117.4477816749
 31
0.0
  0
LINE
  5
1C6
330
1F
100
AcDbEntity
  8
0
  6
Continuous
 62
     7
370
    15
100
AcDbLine
 10
233.3400430893
 20
117.4477816749
 30
0.0
 11
232.3400430893
 21
117.4477816749
 31
0.0
  0
LINE
  5
1C7
330
1F
100
AcDbEntity
  8
0
  6
Continuous
 62
     7
370
    15
100
AcDbLine
 10
233.3400430893
 20
117.4477816749
 30
0.0
 11
232.3400430893
 21
118.4477816749
 31
0.0
  0
LINE
  5
1C8
330
1F
100
AcDbEntity
  8
0
  6
Continuous
 62
     7
370
    15
100
AcDbLine
 10
233.3400430893
 20
117.4477816749
 30
0.0
 11
233.3400430893
 21
59.4477816749
 31
0.0
  0
LINE
  5
1C9
330
1F
100
AcDbEntity
  8
0
  6
Continuous
 62
     7
370
    15
100
AcDbLine
 10
233.3400430893
 20
59.4477816749
 30
0.0
 11
232.3400430893
 21
59.4477816749
 31
0.0
  0
LINE
  5
1CA
330
1F
100
AcDbEntity
  8
0
  6
Continuous
 62
     7
370
    15
100
AcDbLine
 10
232.3400430893
 20
59.4477816749
 30
0.0
 11
232.3400430893
 21
117.4477816749
 31
0.0
  0
LINE
  5
1CB
330
1F
100
AcDbEntity
  8
0
  6
Continuous
 62
     7
370
    15
100
AcDbLine
 10
200.6391350033
 20
59.4477816749
 30
0.0
 11
232.3400430893
 21
59.4477816749
 31
0.0
  0
CIRCLE
  5
1CC
330
1F
100
AcDbEntity
  8
0
  6
Continuous
 62
     7
370
    15
100
AcDbCircle
 10
223.3400430893
 20
88.4477816749
 30
0.0
 40
5.499999999999986
  0
CIRCLE
  5
1CD
330
1F
100
AcDbEntity
  8
0
  6
Continuous
 62
     7
370
    15
100
AcDbCircle
 10
223.3400430893
 20
108.4477816749
 30
0.0
 40
5.5
  0
CIRCLE
  5
1CE
330
1F
100
AcDbEntity
  8
0
  6
Continuous
 62
     7
370
    15
100
AcDbCircle
 10
223.3400430893
 20
68.4477816749
 30
0.0
 40
5.500000000000007
  0
LINE
  5
1CF
330
1F
100
AcDbEntity
  8
0
  6
Continuous
 62
     7
370
    15
100
AcDbLine
 10
232.3400430893
 20
59.4477816749
 30
0.0
 11
232.3400430893
 21
58.4477816749
 31
0.0
  0
LINE
  5
1D0
330
1F
100
AcDbEntity
  8
0
  6
Continuous
 62
     7
370
    15
100
AcDbLine
 10
232.3400430893
 20
58.4477816749
 30
0.0
 11
200.6610496164
 21
58.4477816749
 31
0.0
  0
LINE
  5
1D1
330
1F
100
AcDbEntity
  8
0
  6
Continuous
 62
     7
370
    15
100
AcDbLine
 10
233.3400430893
 20
59.4477816749
 30
0.0
 11
232.3400430893
 21
58.4477816749
 31
0.0
  0
SPLINE
  5
1D2
330
1F
100
AcDbEntity
  8
0
  6
Continuous
 62
     7
370
    15
100
AcDbSpline
210
0.0
220
0.0
230
1.0
 70
     8
 71
     3
 72
    12
 73
     8
 74
     0
 42
0.00000001
 43
0.00000001
 12
1.0
 22
0.0
 32
0.0
 13
1.0
 23
0.0
 33
0.0
 40
0.0
 40
0.0
 40
0.0
 40
0.0
 40
0.2500000000000018
 40
0.2500000000000018
 40
0.5000000000000037
 40
0.5000000000000037
 40
1.0
 40
1.0
 40
1.0
 40
1.0
 10
185.2719450912892
 20
94.27699467052838
 30
0.0
 10
185.2344332052446
 20
94.27699467052838
 30
0.0
 10
185.1991458575398
 20
94.29179948481517
 30
0.0
 10
185.1402160093014
 20
94.335391357941
 30
0.0
 10
185.1166902828323
 20
94.36290478402701
 30
0.0
 10
185.0564314950642
 20
94.45203651614061
 30
0.0
 10
185.0308367327749
 20
94.51842236675841
 30
0.0
 10
185.0121374701539
 20
94.5860268019358
 30
0.0
  0
LINE
  5
1D3
330
1F
100
AcDbEntity
  8
0
  6
Continuous
 62
     7
370
    15
100
AcDbLine
 10
187.4081410873
 20
94.2769946705
 30
0.0
 11
185.2719450913
 21
94.2769946705
 31
0.0
  0
SPLINE
  5
1D4
330
1F
100
AcDbEntity
  8
0
  6
Continuous
 62
     7
370
    15
100
AcDbSpline
210
0.0
220
0.0
230
1.0
 70
     8
 71
     3
 72
    12
 73
     8
 74
     0
 42
0.00000001
 43
0.00000001
 12
1.0
 22
0.0
 32
0.0
 13
1.0
 23
0.0
 33
0.0
 40
0.0
 40
0.0
 40
0.0
 40
0.0
 40
0.5000000000000029
 40
0.5000000000000029
 40
0.7500000000000014
 40
0.7500000000000014
 40
1.0
 40
1.0
 40
1.0
 40
1.0
 10
187.6679487084262
 20
94.5860268019358
 30
0.0
 10
187.6492554752958
 20
94.51844416549542
 30
0.0
 10
187.623600177884
 20
94.451961596018
 30
0.0
 10
187.5634395551975
 20
94.36296651312047
 30
0.0
 10
187.5393672434432
 20
94.33496461612131
 30
0.0
 10
187.4809857230926
 20
94.29188821545613
 30
0.0
 10
187.4455168954396
 20
94.27699467052838
 30
0.0
 10
187.4081410872908
 20
94.27699467052838
 30
0.0
  0
ELLIPSE
  5
1D5
330
1F
100
AcDbEntity
  8
0
  6
Continuous
 62
     7
370
    15
100
AcDbEllipse
 10
177.3911139169
 20
88.4477816749
 30
0.0
 11
9.367417879781724
 21
19.74174915274994
 31
0.0
210
0.0
220
0.0
230
1.0
 40
0.3419987131
 41
5.185211263708394
 42
6.132113578252557
  0
SPLINE
  5
1D6
330
1F
100
AcDbEntity
  8
0
  6
Continuous
 62
     7
370
    15
100
AcDbSpline
210
0.0
220
0.0
230
1.0
 70
     8
 71
     3
 72
    12
 73
     8
 74
     0
 42
0.00000001
 43
0.00000001
 12
1.0
 22
0.0
 32
0.0
 13
1.0
 23
0.0
 33
0.0
 40
0.0
 40
0.0
 40
0.0
 40
0.0
 40
0.2500000000000027
 40
0.2500000000000027
 40
0.5000000000000053
 40
0.5000000000000053
 40
1.0
 40
1.0
 40
1.0
 40
1.0
 10
187.4081410872908
 20
107.5794380551102
 30
0.0
 10
187.4456529733355
 20
107.5794380551102
 30
0.0
 10
187.4809403210402
 20
107.5749345108477
 30
0.0
 10
187.5398701692787
 20
107.5615613113944
 30
0.0
 10
187.5633958957477
 20
107.5530764088232
 30
0.0
 10
187.6236546835158
 20
107.5253286049887
 30
0.0
 10
187.6492494458051
 20
107.5043387412483
 30
0.0
 10
187.6679487084262
 20
107.4825379580588
 30
0.0
  0
LINE
  5
1D7
330
1F
100
AcDbEntity
  8
0
  6
Continuous
 62
     7
370
    15
100
AcDbLine
 10
185.2719450913
 20
107.5794380551
 30
0.0
 11
187.4081410873
 21
107.5794380551
 31
0.0
  0
SPLINE
  5
1D8
330
1F
100
AcDbEntity
  8
0
  6
Continuous
 62
     7
370
    15
100
AcDbSpline
210
0.0
220
0.0
230
1.0
 70
     8
 71
     3
 72
    12
 73
     8
 74
     0
 42
0.00000001
 43
0.00000001
 12
1.0
 22
0.0
 32
0.0
 13
1.0
 23
0.0
 33
0.0
 40
0.0
 40
0.0
 40
0.0
 40
0.0
 40
0.5000000000000006
 40
0.5000000000000006
 40
0.7500000000000002
 40
0.7500000000000002
 40
1.0
 40
1.0
 40
1.0
 40
1.0
 10
185.0121374701539
 20
107.4825379580588
 30
0.0
 10
185.0308307032843
 20
107.5043317116867
 30
0.0
 10
185.0564860006961
 20
107.5253518733963
 30
0.0
 10
185.1166466233826
 20
107.5530572193601
 30
0.0
 10
185.1407189351369
 20
107.5616924355534
 30
0.0
 10
185.1991004554874
 20
107.57490708078
 30
0.0
 10
185.2345692831405
 20
107.5794380551102
 30
0.0
 10
185.2719450912892
 20
107.5794380551102
 30
0.0
  0
ELLIPSE
  5
1D9
330
1F
100
AcDbEntity
  8
0
  6
Continuous
 62
     7
370
    15
100
AcDbEllipse
 10
195.2889722617
 20
88.4477816749
 30
0.0
 11
-9.367417879781584
 21
19.74174915274996
 31
0.0
210
0.0
220
0.0
230
1.0
 40
0.3419987131
 41
0.1510717289270797
 42
1.09797404347121
  0
SPLINE
  5
1DA
330
1F
100
AcDbEntity
  8
0
  6
Continuous
 62
     7
370
    15
100
AcDbSpline
210
0.0
220
0.0
230
1.0
 70
     8
 71
     3
 72
    12
 73
     8
 74
     0
 42
0.00000001
 43
0.00000001
 12
1.0
 22
0.0
 32
0.0
 13
1.0
 23
0.0
 33
0.0
 40
0.0
 40
0.0
 40
0.0
 40
0.0
 40
0.2499999999999996
 40
0.2499999999999996
 40
0.4999999999999992
 40
0.4999999999999992
 40
1.0
 40
1.0
 40
1.0
 40
1.0
 10
185.2719450912892
 20
69.3161252946435
 30
0.0
 10
185.2344442684115
 20
69.31612529464348
 30
0.0
 10
185.1991658643755
 20
69.32062626250664
 30
0.0
 10
185.1402481443231
 20
69.33399278372394
 30
0.0
 10
185.1167247629247
 20
69.3424740439688
 30
0.0
 10
185.0564691784588
 20
69.37021143964671
 30
0.0
 10
185.0309475260477
 20
69.39109543869976
 30
0.0
 10
185.0121374701539
 20
69.41302539169493
 30
0.0
  0
LINE
  5
1DB
330
1F
100
AcDbEntity
  8
0
  6
Continuous
 62
     7
370
    15
100
AcDbLine
 10
187.4081410873
 20
69.3161252946
 30
0.0
 11
185.2719450913
 21
69.3161252946
 31
0.0
  0
SPLINE
  5
1DC
330
1F
100
AcDbEntity
  8
0
  6
Continuous
 62
     7
370
    15
100
AcDbSpline
210
0.0
220
0.0
230
1.0
 70
     8
 71
     3
 72
    12
 73
     8
 74
     0
 42
0.00000001
 43
0.00000001
 12
1.0
 22
0.0
 32
0.0
 13
1.0
 23
0.0
 33
0.0
 40
0.0
 40
0.0
 40
0.0
 40
0.0
 40
0.4999999999999991
 40
0.4999999999999991
 40
0.7499999999999996
 40
0.7499999999999996
 40
1.0
 40
1.0
 40
1.0
 40
1.0
 10
187.6679487084262
 20
69.41302539169493
 30
0.0
 10
187.6491454755745
 20
69.39110339343387
 30
0.0
 10
187.6236088165553
 20
69.37020958542392
 30
0.0
 10
187.5633826426068
 20
69.34248285930614
 30
0.0
 10
187.5394565652068
 20
69.33390972593071
 30
0.0
 10
187.4813956450255
 20
69.32073062012316
 30
0.0
 10
187.4455939463996
 20
69.31612529464348
 30
0.0
 10
187.4081410872908
 20
69.31612529464348
 30
0.0
  0
ELLIPSE
  5
1DD
330
1F
100
AcDbEntity
  8
0
  6
Continuous
 62
     7
370
    15
100
AcDbEllipse
 10
177.3911139169
 20
88.4477816749
 30
0.0
 11
-9.367417879781812
 21
19.74174915274995
 31
0.0
210
0.0
220
0.0
230
1.0
 40
0.3419987131
 41
3.292664382516891
 42
4.239566697060997
  0
SPLINE
  5
1DE
330
1F
100
AcDbEntity
  8
0
  6
Continuous
 62
     7
370
    15
100
AcDbSpline
210
0.0
220
0.0
230
1.0
 70
     8
 71
     3
 72
    12
 73
     8
 74
     0
 42
0.00000001
 43
0.00000001
 12
1.0
 22
0.0
 32
0.0
 13
1.0
 23
0.0
 33
0.0
 40
0.0
 40
0.0
 40
0.0
 40
0.0
 40
0.25
 40
0.25
 40
0.5
 40
0.5
 40
1.0
 40
1.0
 40
1.0
 40
1.0
 10
187.4081410872908
 20
82.6185686792251
 30
0.0
 10
187.4456419101686
 20
82.6185686792251
 30
0.0
 10
187.4809203142046
 20
82.60377234147202
 30
0.0
 10
187.5398380342569
 20
82.56020208031289
 30
0.0
 10
187.5633614156553
 20
82.53270028181136
 30
0.0
 10
187.6236170001212
 20
82.44360111856828
 30
0.0
 10
187.6491386525324
 20
82.37754153978592
 30
0.0
 10
187.6679487084262
 20
82.30953654781771
 30
0.0
  0
LINE
  5
1DF
330
1F
100
AcDbEntity
  8
0
  6
Continuous
 62
     7
370
    15
100
AcDbLine
 10
185.2719450913
 20
82.6185686792
 30
0.0
 11
187.4081410873
 21
82.6185686792
 31
0.0
  0
SPLINE
  5
1E0
330
1F
100
AcDbEntity
  8
0
  6
Continuous
 62
     7
370
    15
100
AcDbSpline
210
0.0
220
0.0
230
1.0
 70
     8
 71
     3
 72
    12
 73
     8
 74
     0
 42
0.00000001
 43
0.00000001
 12
1.0
 22
0.0
 32
0.0
 13
1.0
 23
0.0
 33
0.0
 40
0.0
 40
0.0
 40
0.0
 40
0.0
 40
0.5000000000000008
 40
0.5000000000000008
 40
0.7500000000000003
 40
0.7500000000000003
 40
1.0
 40
1.0
 40
1.0
 40
1.0
 10
185.0121374701539
 20
82.30953654781771
 30
0.0
 10
185.0309407030056
 20
82.37751687208012
 30
0.0
 10
185.0564773620248
 20
82.44360725987693
 30
0.0
 10
185.1167035359732
 20
82.53267187232407
 30
0.0
 10
185.1406296133732
 20
82.56047295934401
 30
0.0
 10
185.1986905335545
 20
82.60343203256889
 30
0.0
 10
185.2344922321805
 20
82.61856867922512
 30
0.0
 10
185.2719450912892
 20
82.61856867922512
 30
0.0
  0
ELLIPSE
  5
1E1
330
1F
100
AcDbEntity
  8
0
  6
Continuous
 62
     7
370
    15
100
AcDbEllipse
 10
195.2889722617
 20
88.4477816749
 30
0.0
 11
9.367417879781643
 21
19.74174915274997
 31
0.0
210
0.0
220
0.0
230
1.0
 40
0.3419987131
 41
2.043618610118592
 42
2.990520924662722
  0
LINE
  5
1E2
330
1F
100
AcDbEntity
  8
0
  6
Continuous
 62
     7
370
    15
100
AcDbLine
 10
178.3400430893
 20
68.7477816749
 30
0.0
 11
178.3400430893
 21
108.1477816732
 31
0.0
  0
SPLINE
  5
1E3
330
1F
100
AcDbEntity
  8
0
  6
Continuous
 62
     7
370
    15
100
AcDbSpline
210
0.0
220
0.0
230
1.0
 70
     8
 71
     3
 72
    18
 73
    14
 74
     0
 42
0.00000001
 43
0.00000001
 12
1.0
 22
0.0
 32
0.0
 13
1.0
 23
0.0
 33
0.0
 40
0.0
 40
0.0
 40
0.0
 40
0.0
 40
0.2500000000000003
 40
0.2500000000000003
 40
0.5000000000000007
 40
0.5000000000000007
 40
0.6250000000000004
 40
0.6250000000000004
 40
0.7500000000000003
 40
0.7500000000000003
 40
0.8750000000000001
 40
0.8750000000000001
 40
1.0
 40
1.0
 40
1.0
 40
1.0
 10
177.083958771726
 20
74.61659329219799
 30
0.0
 10
177.1182555911778
 20
74.61573163671618
 30
0.0
 10
177.156066871155
 20
74.61598323981111
 30
0.0
 10
177.242639238335
 20
74.61838175242295
 30
0.0
 10
177.2909783684179
 20
74.62055273715487
 30
0.0
 10
177.3802507257404
 20
74.6246476154501
 30
0.0
 10
177.4127921915163
 20
74.62615223339972
 30
0.0
 10
177.4889683913697
 20
74.62911529136782
 30
0.0
 10
177.5321844513643
 20
74.63060262962362
 30
0.0
 10
177.6378737533302
 20
74.63222804094731
 30
0.0
 10
177.7028448120448
 20
74.63218579987341
 30
0.0
 10
177.8365052004026
 20
74.62816362655239
 30
0.0
 10
177.8958116537388
 20
74.62462239972889
 30
0.0
 10
177.9450662004147
 20
74.6210556922928
 30
0.0
  0
SPLINE
  5
1E4
330
1F
100
AcDbEntity
  8
0
  6
Continuous
 62
     7
370
    15
100
AcDbSpline
210
0.0
220
0.0
230
1.0
 70
     8
 71
     3
 72
    14
 73
    10
 74
     0
 42
0.00000001
 43
0.00000001
 12
1.0
 22
0.0
 32
0.0
 13
1.0
 23
0.0
 33
0.0
 40
0.0
 40
0.0
 40
0.0
 40
0.0
 40
0.1250000000000014
 40
0.1250000000000014
 40
0.2500000000000028
 40
0.2500000000000028
 40
0.5000000000000008
 40
0.5000000000000008
 40
1.0
 40
1.0
 40
1.0
 40
1.0
 10
177.9450662003839
 20
74.62105569231176
 30
0.0
 10
177.9565929781013
 20
74.62022099487773
 30
0.0
 10
177.9699457857537
 20
74.61848058059758
 30
0.0
 10
178.000088358354
 20
74.61123299059724
 30
0.0
 10
178.0151488839685
 20
74.6058859563693
 30
0.0
 10
178.0504952378968
 20
74.59013868614085
 30
0.0
 10
178.0642273376257
 20
74.58030041197958
 30
0.0
 10
178.0975985833168
 20
74.5540964260291
 30
0.0
 10
178.1085389511708
 20
74.54000852462852
 30
0.0
 10
178.1171920761841
 20
74.52723490114015
 30
0.0
  0
LINE
  5
1E5
330
1F
100
AcDbEntity
  8
0
  6
Continuous
 62
     7
370
    15
100
AcDbLine
 10
178.1400430893
 20
82.9423369079
 30
0.0
 11
178.1400430893
 21
74.357961396
 31
0.0
  0
SPLINE
  5
1E6
330
1F
100
AcDbEntity
  8
0
  6
Continuous
 62
     7
370
    15
100
AcDbSpline
210
0.0
220
0.0
230
1.0
 70
     8
 71
     3
 72
    16
 73
    12
 74
     0
 42
0.00000001
 43
0.00000001
 12
1.0
 22
0.0
 32
0.0
 13
1.0
 23
0.0
 33
0.0
 40
0.0
 40
0.0
 40
0.0
 40
0.0
 40
0.5000000000000016
 40
0.5000000000000016
 40
0.7500000000000007
 40
0.7500000000000007
 40
0.8750000000000002
 40
0.8750000000000002
 40
0.9375000000000001
 40
0.9375000000000001
 40
1.0
 40
1.0
 40
1.0
 40
1.0
 10
178.14004308929
 20
82.94233690791395
 30
0.0
 10
178.14004308929
 20
83.05991228893345
 30
0.0
 10
178.1361596641311
 20
83.17860804203468
 30
0.0
 10
178.1113443388564
 20
83.35936552002718
 30
0.0
 10
178.1005048911439
 20
83.42100959680013
 30
0.0
 10
178.0672891090951
 20
83.51034657114143
 30
0.0
 10
178.0539073654663
 20
83.54060610256656
 30
0.0
 10
178.0183977156041
 20
83.57412234655399
 30
0.0
 10
178.0029807491033
 20
83.58226069236008
 30
0.0
 10
177.9712797269547
 20
83.58224528292871
 30
0.0
 10
177.9571334420039
 20
83.57520304557285
 30
0.0
 10
177.9450662004143
 20
83.56606198196324
 30
0.0
  0
SPLINE
  5
1E7
330
1F
100
AcDbEntity
  8
0
  6
Continuous
 62
     7
370
    15
100
AcDbSpline
210
0.0
220
0.0
230
1.0
 70
     8
 71
     3
 72
    18
 73
    14
 74
     0
 42
0.00000001
 43
0.00000001
 12
1.0
 22
0.0
 32
0.0
 13
1.0
 23
0.0
 33
0.0
 40
0.0
 40
0.0
 40
0.0
 40
0.0
 40
0.1250000000000001
 40
0.1250000000000001
 40
0.2500000000000001
 40
0.2500000000000001
 40
0.3750000000000002
 40
0.3750000000000002
 40
0.5000000000000002
 40
0.5000000000000002
 40
0.7500000000000001
 40
0.7500000000000001
 40
1.0
 40
1.0
 40
1.0
 40
1.0
 10
177.9450662004205
 20
83.566061981956
 30
0.0
 10
177.8963616167325
 20
83.52916774276542
 30
0.0
 10
177.837853133957
 20
83.49963643833946
 30
0.0
 10
177.7061263186872
 20
83.49040046506063
 30
0.0
 10
177.6413682471897
 20
83.51346363961761
 30
0.0
 10
177.5361576450389
 20
83.58098176126504
 30
0.0
 10
177.4929414965188
 20
83.62399285791558
 30
0.0
 10
177.4167631804349
 20
83.7142348799117
 30
0.0
 10
177.3839083481436
 20
83.76186576138699
 30
0.0
 10
177.2935404421827
 20
83.90893006073652
 30
0.0
 10
177.2441177843431
 20
84.0128433860411
 30
0.0
 10
177.1564666587515
 20
84.22397734968145
 30
0.0
 10
177.1184051113609
 20
84.33170009444021
 30
0.0
 10
177.0839587717271
 20
84.44103321034963
 30
0.0
  0
SPLINE
  5
1E8
330
1F
100
AcDbEntity
  8
0
  6
Continuous
 62
     7
370
    15
100
AcDbSpline
210
0.0
220
0.0
230
1.0
 70
     8
 71
     3
 72
     8
 73
     4
 74
     0
 42
0.00000001
 43
0.00000001
 12
1.0
 22
0.0
 32
0.0
 13
1.0
 23
0.0
 33
0.0
 40
0.0
 40
0.0
 40
0.0
 40
0.0
 40
1.0
 40
1.0
 40
1.0
 40
1.0
 10
177.0187227457303
 20
84.67623698447848
 30
0.0
 10
177.0381489510292
 20
84.59664471290569
 30
0.0
 10
177.0596457754577
 20
84.51820296677295
 30
0.0
 10
177.0839587717271
 20
84.44103321034962
 30
0.0
  0
SPLINE
  5
1E9
330
1F
100
AcDbEntity
  8
0
  6
Continuous
 62
     7
370
    15
100
AcDbSpline
210
0.0
220
0.0
230
1.0
 70
     8
 71
     3
 72
     8
 73
     4
 74
     0
 42
0.00000001
 43
0.00000001
 12
1.0
 22
0.0
 32
0.0
 13
1.0
 23
0.0
 33
0.0
 40
0.0
 40
0.0
 40
0.0
 40
0.0
 40
1.0
 40
1.0
 40
1.0
 40
1.0
 10
177.0839587717271
 20
92.45453013940413
 30
0.0
 10
177.0596457754577
 20
92.37736038298083
 30
0.0
 10
177.0381489510292
 20
92.29891863684807
 30
0.0
 10
177.0187227457303
 20
92.2193263652753
 30
0.0
  0
SPLINE
  5
1EA
330
1F
100
AcDbEntity
  8
0
  6
Continuous
 62
     7
370
    15
100
AcDbSpline
210
0.0
220
0.0
230
1.0
 70
     8
 71
     3
 72
    18
 73
    14
 74
     0
 42
0.00000001
 43
0.00000001
 12
1.0
 22
0.0
 32
0.0
 13
1.0
 23
0.0
 33
0.0
 40
0.0
 40
0.0
 40
0.0
 40
0.0
 40
0.25
 40
0.25
 40
0.5
 40
0.5
 40
0.625
 40
0.625
 40
0.75
 40
0.75
 40
0.875
 40
0.875
 40
1.0
 40
1.0
 40
1.0
 40
1.0
 10
177.0839587717271
 20
92.45453013940411
 30
0.0
 10
177.1182570907397
 20
92.56339343599714
 30
0.0
 10
177.1560714880517
 20
92.67040085923347
 30
0.0
 10
177.2426595491252
 20
92.8794356833718
 30
0.0
 10
177.2910096548039
 20
92.98160577736132
 30
0.0
 10
177.3803262436037
 20
93.12828654892603
 30
0.0
 10
177.412886599092
 20
93.17608824746162
 30
0.0
 10
177.4891322328209
 20
93.26764378548698
 30
0.0
 10
177.5322916026009
 20
93.31132317747893
 30
0.0
 10
177.638020426619
 20
93.38067739480553
 30
0.0
 10
177.7030176036736
 20
93.40479370847142
 30
0.0
 10
177.8365020936279
 20
93.3965894864332
 30
0.0
 10
177.8958294870734
 20
93.36679870084127
 30
0.0
 10
177.9450662004147
 20
93.32950136779023
 30
0.0
  0
SPLINE
  5
1EB
330
1F
100
AcDbEntity
  8
0
  6
Continuous
 62
     7
370
    15
100
AcDbSpline
210
0.0
220
0.0
230
1.0
 70
     8
 71
     3
 72
    16
 73
    12
 74
     0
 42
0.00000001
 43
0.00000001
 12
1.0
 22
0.0
 32
0.0
 13
1.0
 23
0.0
 33
0.0
 40
0.0
 40
0.0
 40
0.0
 40
0.0
 40
0.0624999999999994
 40
0.0624999999999994
 40
0.1249999999999988
 40
0.1249999999999988
 40
0.2499999999999975
 40
0.2499999999999975
 40
0.499999999999998
 40
0.499999999999998
 40
1.0
 40
1.0
 40
1.0
 40
1.0
 10
177.9450662003839
 20
93.32950136774186
 30
0.0
 10
177.9571360336598
 20
93.32035834089604
 30
0.0
 10
177.9714116885931
 20
93.31331389320479
 30
0.0
 10
178.0028761007175
 20
93.3133068213062
 30
0.0
 10
178.0183766255279
 20
93.32143479010317
 30
0.0
 10
178.0538155221348
 20
93.35484325111035
 30
0.0
 10
178.0674081382382
 20
93.3855104175725
 30
0.0
 10
178.100402456631
 20
93.47433141165435
 30
0.0
 10
178.1111898499497
 20
93.53523405720219
 30
0.0
 10
178.1362430972289
 20
93.71724213458053
 30
0.0
 10
178.1400430892901
 20
93.83593084961917
 30
0.0
 10
178.1400430892902
 20
93.95322644183975
 30
0.0
  0
LINE
  5
1EC
330
1F
100
AcDbEntity
  8
0
  6
Continuous
 62
     7
370
    15
100
AcDbLine
 10
178.1400430893
 20
102.5376019538
 30
0.0
 11
178.1400430893
 21
93.9532264418
 31
0.0
  0
SPLINE
  5
1ED
330
1F
100
AcDbEntity
  8
0
  6
Continuous
 62
     7
370
    15
100
AcDbSpline
210
0.0
220
0.0
230
1.0
 70
     8
 71
     3
 72
    16
 73
    12
 74
     0
 42
0.00000001
 43
0.00000001
 12
1.0
 22
0.0
 32
0.0
 13
1.0
 23
0.0
 33
0.0
 40
0.0
 40
0.0
 40
0.0
 40
0.0
 40
0.4999999999999989
 40
0.4999999999999989
 40
0.7499999999999986
 40
0.7499999999999986
 40
0.8749999999999981
 40
0.8749999999999981
 40
0.937499999999999
 40
0.937499999999999
 40
1.0
 40
1.0
 40
1.0
 40
1.0
 10
178.14004308929
 20
102.432593581537
 30
0.0
 10
178.14004308929
 20
102.4170283540976
 30
0.0
 10
178.1361596641311
 20
102.3978569762496
 30
0.0
 10
178.1113443388564
 20
102.3590845942677
 30
0.0
 10
178.1005048911439
 20
102.3444338180652
 30
0.0
 10
178.0672891090951
 20
102.3173895740856
 30
0.0
 10
178.0539073654663
 20
102.3074114749455
 30
0.0
 10
178.0183977156041
 20
102.2909369391586
 30
0.0
 10
178.0029807491033
 20
102.2851848483686
 30
0.0
 10
177.9712797269547
 20
102.277264327942
 30
0.0
 10
177.9571334420039
 20
102.2753814919232
 30
0.0
 10
177.9450662004143
 20
102.2745076574609
 30
0.0
  0
SPLINE
  5
1EE
330
1F
100
AcDbEntity
  8
0
  6
Continuous
 62
     7
370
    15
100
AcDbSpline
210
0.0
220
0.0
230
1.0
 70
     8
 71
     3
 72
    18
 73
    14
 74
     0
 42
0.00000001
 43
0.00000001
 12
1.0
 22
0.0
 32
0.0
 13
1.0
 23
0.0
 33
0.0
 40
0.0
 40
0.0
 40
0.0
 40
0.0
 40
0.1249999999999998
 40
0.1249999999999998
 40
0.2499999999999996
 40
0.2499999999999996
 40
0.3749999999999993
 40
0.3749999999999993
 40
0.4999999999999991
 40
0.4999999999999991
 40
0.7499999999999996
 40
0.7499999999999996
 40
1.0
 40
1.0
 40
1.0
 40
1.0
 10
177.9450662004205
 20
102.2745076574608
 30
0.0
 10
177.8963620714037
 20
102.2709808078426
 30
0.0
 10
177.8378544021992
 20
102.267480534645
 30
0.0
 10
177.7061287395683
 20
102.263437550757
 30
0.0
 10
177.6413711009479
 20
102.2633259761264
 30
0.0
 10
177.5361606843289
 20
102.2648581608879
 30
0.0
 10
177.4929446493887
 20
102.266313313103
 30
0.0
 10
177.4167664279077
 20
102.2692385746327
 30
0.0
 10
177.3839116602236
 20
102.270748905141
 30
0.0
 10
177.2935439413818
 20
102.2748908978293
 30
0.0
 10
177.2441215721924
 20
102.2771289828158
 30
0.0
 10
177.1564691101044
 20
102.2795802658623
 30
0.0
 10
177.1184063738699
 20
102.2798355012234
 30
0.0
 10
177.0839587717265
 20
102.2789700575555
 30
0.0
  0
SPLINE
  5
1EF
330
1F
100
AcDbEntity
  8
0
  6
Continuous
 62
     7
370
    15
100
AcDbSpline
210
0.0
220
0.0
230
1.0
 70
     8
 71
     3
 72
     8
 73
     4
 74
     0
 42
0.00000001
 43
0.00000001
 12
1.0
 22
0.0
 32
0.0
 13
1.0
 23
0.0
 33
0.0
 40
0.0
 40
0.0
 40
0.0
 40
0.0
 40
1.0
 40
1.0
 40
1.0
 40
1.0
 10
176.8450031113507
 20
85.50129087051299
 30
0.0
 10
176.8957301940731
 20
85.21793974919385
 30
0.0
 10
176.9536175070602
 20
84.94298356505409
 30
0.0
 10
177.0187227457304
 20
84.67623698447852
 30
0.0
  0
SPLINE
  5
1F0
330
1F
100
AcDbEntity
  8
0
  6
Continuous
 62
     7
370
    15
100
AcDbSpline
210
0.0
220
0.0
230
1.0
 70
     8
 71
     3
 72
    24
 73
    20
 74
     0
 42
0.00000001
 43
0.00000001
 12
1.0
 22
0.0
 32
0.0
 13
1.0
 23
0.0
 33
0.0
 40
0.0
 40
0.0
 40
0.0
 40
0.0
 40
0.2499999999999951
 40
0.2499999999999951
 40
0.3749999999999921
 40
0.3749999999999921
 40
0.4374999999999906
 40
0.4374999999999906
 40
0.4687499999999903
 40
0.4687499999999903
 40
0.49999999999999
 40
0.49999999999999
 40
0.5624999999999905
 40
0.5624999999999905
 40
0.6249999999999909
 40
0.6249999999999909
 40
0.7499999999999944
 40
0.7499999999999944
 40
1.0
 40
1.0
 40
1.0
 40
1.0
 10
176.6400430892817
 20
85.50158327880624
 30
0.0
 10
176.6404461186557
 20
85.59485157143583
 30
0.0
 10
176.6424758583707
 20
85.68860913028477
 30
0.0
 10
176.6517845697905
 20
85.83019901592426
 30
0.0
 10
176.6557105629051
 20
85.87737943453351
 30
0.0
 10
176.6666399228211
 20
85.94797548121889
 30
0.0
 10
176.6707615509155
 20
85.97175539498367
 30
0.0
 10
176.6826560720978
 20
86.00520654203085
 30
0.0
 10
176.6879428840516
 20
86.01736149410047
 30
0.0
 10
176.7045108155665
 20
86.02524413306868
 30
0.0
 10
176.7124375243339
 20
86.01768053396667
 30
0.0
 10
176.729429862559
 20
85.99388810273993
 30
0.0
 10
176.73682756335
 20
85.97369962489543
 30
0.0
 10
176.7509299536918
 20
85.93325000027563
 30
0.0
 10
176.7570831109841
 20
85.91239432587815
 30
0.0
 10
176.7743968444452
 20
85.84926929057711
 30
0.0
 10
176.7844018853338
 20
85.80629017867558
 30
0.0
 10
176.8127583415645
 20
85.67656453438671
 30
0.0
 10
176.8293068809108
 20
85.58896680725074
 30
0.0
 10
176.8450031113508
 20
85.501290870513
 30
0.0
  0
SPLINE
  5
1F1
330
1F
100
AcDbEntity
  8
0
  6
Continuous
 62
     7
370
    15
100
AcDbSpline
210
0.0
220
0.0
230
1.0
 70
     8
 71
     3
 72
    16
 73
    12
 74
     0
 42
0.00000001
 43
0.00000001
 12
1.0
 22
0.0
 32
0.0
 13
1.0
 23
0.0
 33
0.0
 40
0.0
 40
0.0
 40
0.0
 40
0.0
 40
0.25
 40
0.25
 40
0.375
 40
0.375
 40
0.5
 40
0.5
 40
0.75
 40
0.75
 40
1.0
 40
1.0
 40
1.0
 40
1.0
 10
176.64004308929
 20
91.39398007094624
 30
0.0
 10
176.5595062798945
 20
90.92490724408316
 30
0.0
 10
176.4994688710923
 20
90.44454359390318
 30
0.0
 10
176.438730923845
 20
89.70735931476224
 30
0.0
 10
176.4234084428021
 20
89.45884091153515
 30
0.0
 10
176.4028254910242
 20
88.95605746632143
 30
0.0
 10
176.3976259439877
 20
88.70119891329678
 30
0.0
 10
176.3975722334475
 20
87.94492157357601
 30
0.0
 10
176.4177695707166
 20
87.44626337426618
 30
0.0
 10
176.4984478777896
 20
86.45984040352191
 30
0.0
 10
176.5594942261309
 20
85.97072631074896
 30
0.0
 10
176.64004308929
 20
85.50158327880752
 30
0.0
  0
SPLINE
  5
1F2
330
1F
100
AcDbEntity
  8
0
  6
Continuous
 62
     7
370
    15
100
AcDbSpline
210
0.0
220
0.0
230
1.0
 70
     8
 71
     3
 72
    24
 73
    20
 74
     0
 42
0.00000001
 43
0.00000001
 12
1.0
 22
0.0
 32
0.0
 13
1.0
 23
0.0
 33
0.0
 40
0.0
 40
0.0
 40
0.0
 40
0.0
 40
0.2500000000000001
 40
0.2500000000000001
 40
0.3749999999999997
 40
0.3749999999999997
 40
0.4374999999999994
 40
0.4374999999999994
 40
0.4999999999999992
 40
0.4999999999999992
 40
0.531249999999999
 40
0.531249999999999
 40
0.5624999999999989
 40
0.5624999999999989
 40
0.6249999999999989
 40
0.6249999999999989
 40
0.7499999999999991
 40
0.7499999999999991
 40
1.0
 40
1.0
 40
1.0
 40
1.0
 10
176.8450031113458
 20
91.39427247921262
 30
0.0
 10
176.8292340664363
 20
91.30618981572412
 30
0.0
 10
176.8126199018759
 20
91.21824499921706
 30
0.0
 10
176.7840877743826
 20
91.08789763195779
 30
0.0
 10
176.7740001408287
 20
91.04463645415692
 30
0.0
 10
176.7565123179796
 20
90.98120067832363
 30
0.0
 10
176.7503025100531
 20
90.96028655478058
 30
0.0
 10
176.7360246504702
 20
90.91981176309739
 30
0.0
 10
176.7284534881184
 20
90.89933411963852
 30
0.0
 10
176.711033662941
 20
90.87648774010692
 30
0.0
 10
176.702549580483
 20
90.8699359430705
 30
0.0
 10
176.6865135068699
 20
90.88050731831113
 30
0.0
 10
176.6816931345942
 20
90.89259835859428
 30
0.0
 10
176.6702862339912
 20
90.92624160181401
 30
0.0
 10
176.6662652722821
 20
90.9496492811102
 30
0.0
 10
176.655511260504
 20
91.02023788416965
 30
0.0
 10
176.6516393748816
 20
91.06720291169076
 30
0.0
 10
176.6424714100813
 20
91.2077797762931
 30
0.0
 10
176.6404430755682
 20
91.30141600591011
 30
0.0
 10
176.64004308929
 20
91.39398007094624
 30
0.0
  0
SPLINE
  5
1F3
330
1F
100
AcDbEntity
  8
0
  6
Continuous
 62
     7
370
    15
100
AcDbSpline
210
0.0
220
0.0
230
1.0
 70
     8
 71
     3
 72
     8
 73
     4
 74
     0
 42
0.00000001
 43
0.00000001
 12
1.0
 22
0.0
 32
0.0
 13
1.0
 23
0.0
 33
0.0
 40
0.0
 40
0.0
 40
0.0
 40
0.0
 40
1.0
 40
1.0
 40
1.0
 40
1.0
 10
177.0187227457304
 20
92.21932636527525
 30
0.0
 10
176.9536175070581
 20
91.95257978469085
 30
0.0
 10
176.8957301940693
 20
91.67762360054172
 30
0.0
 10
176.8450031113457
 20
91.39427247921267
 30
0.0
  0
LINE
  5
1F4
330
1F
100
AcDbEntity
  8
0
  6
Continuous
 62
     7
370
    15
100
AcDbLine
 10
176.6400430893
 20
85.5015832788
 30
0.0
 11
176.6400430893
 21
84.3465780094
 31
0.0
  0
LINE
  5
1F5
330
1F
100
AcDbEntity
  8
0
  6
Continuous
 62
     7
370
    15
100
AcDbLine
 10
155.8400430893
 20
92.287701141
 30
0.0
 11
155.8400430893
 21
84.6078622088
 31
0.0
  0
LINE
  5
1F6
330
1F
100
AcDbEntity
  8
0
  6
Continuous
 62
     7
370
    15
100
AcDbLine
 10
176.6400430893
 20
92.5489853403
 30
0.0
 11
176.6400430893
 21
91.3939800709
 31
0.0
  0
LINE
  5
1F7
330
1F
100
AcDbEntity
  8
0
  6
Continuous
 62
     7
370
    15
100
AcDbLine
 10
154.3400430893
 20
91.8546884391
 30
0.0
 11
154.3400430893
 21
85.0408749107
 31
0.0
  0
LINE
  5
1F8
330
1F
100
AcDbEntity
  8
0
  6
Continuous
 62
     7
370
    15
100
AcDbLine
 10
176.8450031114
 20
102.2729666596
 30
0.0
 11
177.0839587717
 21
102.2789700576
 31
0.0
  0
LINE
  5
1F9
330
1F
100
AcDbEntity
  8
0
  6
Continuous
 62
     7
370
    15
100
AcDbLine
 10
176.6400430893
 20
92.5489853403
 30
0.0
 11
176.6400430893
 21
102.4678804594
 31
0.0
  0
ARC
  5
1FA
330
1F
100
AcDbEntity
  8
0
  6
Continuous
 62
     7
370
    15
100
AcDbCircle
 10
176.8399800002
 20
102.4729035706
 30
0.0
 40
0.2000000000000343
100
AcDbArc
 50
181.4391666667
 51
271.4391666667
  0
LINE
  5
1FB
330
1F
100
AcDbEntity
  8
0
  6
Continuous
 62
     7
370
    15
100
AcDbLine
 10
155.8400430893
 20
92.287701141
 30
0.0
 11
155.8400430893
 21
101.9453120607
 31
0.0
  0
LINE
  5
1FC
330
1F
100
AcDbEntity
  8
0
  6
Continuous
 62
     7
370
    15
100
AcDbLine
 10
155.8400430893
 20
101.9453120607
 30
0.0
 11
176.6400430893
 21
102.4678804594
 31
0.0
  0
LINE
  5
1FD
330
1F
100
AcDbEntity
  8
0
  6
Continuous
 62
     7
370
    15
100
AcDbLine
 10
176.6400430893
 20
74.4276828903
 30
0.0
 11
176.6400430893
 21
84.3465780094
 31
0.0
  0
ARC
  5
1FE
330
1F
100
AcDbEntity
  8
0
  6
Continuous
 62
     7
370
    15
100
AcDbCircle
 10
176.8399800002
 20
74.4226597792
 30
0.0
 40
0.2000000000000343
100
AcDbArc
 50
88.5608333333
 51
178.5608333333
  0
LINE
  5
1FF
330
1F
100
AcDbEntity
  8
0
  6
Continuous
 62
     7
370
    15
100
AcDbLine
 10
155.8400430893
 20
74.950251289
 30
0.0
 11
155.8400430893
 21
84.6078622088
 31
0.0
  0
LINE
  5
200
330
1F
100
AcDbEntity
  8
0
  6
Continuous
 62
     7
370
    15
100
AcDbLine
 10
155.8400430893
 20
74.950251289
 30
0.0
 11
176.6400430893
 21
74.4276828903
 31
0.0
  0
LINE
  5
201
330
1F
100
AcDbEntity
  8
0
  6
Continuous
 62
     7
370
    15
100
AcDbLine
 10
176.8450031114
 20
74.6225966901
 30
0.0
 11
177.0839587717
 21
74.6165932922
 31
0.0
  0
LINE
  5
202
330
1F
100
AcDbEntity
  8
0
  6
Continuous
 62
     7
370
    15
100
AcDbLine
 10
154.3400430893
 20
101.0792866569
 30
0.0
 11
155.8400430893
 21
101.9453120607
 31
0.0
  0
LINE
  5
203
330
1F
100
AcDbEntity
  8
0
  6
Continuous
 62
     7
370
    15
100
AcDbLine
 10
154.3400430893
 20
91.8546884391
 30
0.0
 11
154.3400430893
 21
101.0792866569
 31
0.0
  0
LINE
  5
204
330
1F
100
AcDbEntity
  8
0
  6
Continuous
 62
     7
370
    15
100
AcDbLine
 10
154.3400430893
 20
75.8162766928
 30
0.0
 11
155.8400430893
 21
74.950251289
 31
0.0
  0
LINE
  5
205
330
1F
100
AcDbEntity
  8
0
  6
Continuous
 62
     7
370
    15
100
AcDbLine
 10
154.3400430893
 20
75.8162766928
 30
0.0
 11
154.3400430893
 21
85.0408749107
 31
0.0
  0
CIRCLE
  5
206
330
1F
100
AcDbEntity
  8
0
  6
Continuous
 62
     7
370
    15
100
AcDbCircle
 10
223.3400430893
 20
88.4477816749
 30
0.0
 40
4.172000000000034
  0
LINE
  5
207
330
1F
100
AcDbEntity
  8
0
  6
Continuous
 62
     7
370
    15
100
AcDbLine
 10
224.8881329463
 20
86.0112367588
 30
0.0
 11
226.2241978126
 21
88.5701943604
 31
0.0
  0
LINE
  5
208
330
1F
100
AcDbEntity
  8
0
  6
Continuous
 62
     7
370
    15
100
AcDbLine
 10
224.6761079555
 20
91.0067392764
 30
0.0
 11
226.2241978126
 21
88.5701943604
 31
0.0
  0
LINE
  5
209
330
1F
100
AcDbEntity
  8
0
  6
Continuous
 62
     7
370
    15
100
AcDbLine
 10
221.7919532323
 20
90.8843265909
 30
0.0
 11
224.6761079555
 21
91.0067392764
 31
0.0
  0
LINE
  5
20A
330
1F
100
AcDbEntity
  8
0
  6
Continuous
 62
     7
370
    15
100
AcDbLine
 10
221.7919532323
 20
90.8843265909
 30
0.0
 11
220.455888366
 21
88.3253689894
 31
0.0
  0
LINE
  5
20B
330
1F
100
AcDbEntity
  8
0
  6
Continuous
 62
     7
370
    15
100
AcDbLine
 10
222.003978223
 20
85.8888240733
 30
0.0
 11
220.455888366
 21
88.3253689894
 31
0.0
  0
LINE
  5
20C
330
1F
100
AcDbEntity
  8
0
  6
Continuous
 62
     7
370
    15
100
AcDbLine
 10
222.003978223
 20
85.8888240733
 30
0.0
 11
224.8881329463
 21
86.0112367588
 31
0.0
  0
CIRCLE
  5
20D
330
1F
100
AcDbEntity
  8
0
  6
Continuous
 62
     7
370
    15
100
AcDbCircle
 10
223.3400430893
 20
68.4477816749
 30
0.0
 40
4.172000000000063
  0
LINE
  5
20E
330
1F
100
AcDbEntity
  8
0
  6
Continuous
 62
     7
370
    15
100
AcDbLine
 10
224.8881329463
 20
66.0112367588
 30
0.0
 11
226.2241978126
 21
68.5701943604
 31
0.0
  0
LINE
  5
20F
330
1F
100
AcDbEntity
  8
0
  6
Continuous
 62
     7
370
    15
100
AcDbLine
 10
224.6761079555
 20
71.0067392764
 30
0.0
 11
226.2241978126
 21
68.5701943604
 31
0.0
  0
LINE
  5
210
330
1F
100
AcDbEntity
  8
0
  6
Continuous
 62
     7
370
    15
100
AcDbLine
 10
221.7919532323
 20
70.8843265909
 30
0.0
 11
224.6761079555
 21
71.0067392764
 31
0.0
  0
LINE
  5
211
330
1F
100
AcDbEntity
  8
0
  6
Continuous
 62
     7
370
    15
100
AcDbLine
 10
221.7919532323
 20
70.8843265909
 30
0.0
 11
220.455888366
 21
68.3253689894
 31
0.0
  0
LINE
  5
212
330
1F
100
AcDbEntity
  8
0
  6
Continuous
 62
     7
370
    15
100
AcDbLine
 10
222.003978223
 20
65.8888240733
 30
0.0
 11
220.455888366
 21
68.3253689894
 31
0.0
  0
LINE
  5
213
330
1F
100
AcDbEntity
  8
0
  6
Continuous
 62
     7
370
    15
100
AcDbLine
 10
222.003978223
 20
65.8888240733
 30
0.0
 11
224.8881329463
 21
66.0112367588
 31
0.0
  0
CIRCLE
  5
214
330
1F
100
AcDbEntity
  8
0
  6
Continuous
 62
     7
370
    15
100
AcDbCircle
 10
223.3400430893
 20
108.4477816749
 30
0.0
 40
4.172000000000011
  0
LINE
  5
215
330
1F
100
AcDbEntity
  8
0
  6
Continuous
 62
     7
370
    15
100
AcDbLine
 10
225.8400430893
 20
109.8911573479
 30
0.0
 11
223.3400430893
 21
111.3345330208
 31
0.0
  0
LINE
  5
216
330
1F
100
AcDbEntity
  8
0
  6
Continuous
 62
     7
370
    15
100
AcDbLine
 10
220.8400430893
 20
109.8911573479
 30
0.0
 11
223.3400430893
 21
111.3345330208
 31
0.0
  0
LINE
  5
217
330
1F
100
AcDbEntity
  8
0
  6
Continuous
 62
     7
370
    15
100
AcDbLine
 10
220.8400430893
 20
107.0044060019
 30
0.0
 11
220.8400430893
 21
109.8911573479
 31
0.0
  0
LINE
  5
218
330
1F
100
AcDbEntity
  8
0
  6
Continuous
 62
     7
370
    15
100
AcDbLine
 10
220.8400430893
 20
107.0044060019
 30
0.0
 11
223.3400430893
 21
105.5610303289
 31
0.0
  0
LINE
  5
219
330
1F
100
AcDbEntity
  8
0
  6
Continuous
 62
     7
370
    15
100
AcDbLine
 10
225.8400430893
 20
107.0044060019
 30
0.0
 11
223.3400430893
 21
105.5610303289
 31
0.0
  0
LINE
  5
21A
330
1F
100
AcDbEntity
  8
0
  6
Continuous
 62
     7
370
    15
100
AcDbLine
 10
225.8400430893
 20
107.0044060019
 30
0.0
 11
225.8400430893
 21
109.8911573479
 31
0.0
  0
LWPOLYLINE
  5
21B
330
1F
100
AcDbEntity
  8
0
  6
Continuous
 62
     7
370
    15
100
AcDbPolyline
 90
       34
 70
   128
 43
0.0
 10
206.5317958306
 20
56.7292016926
 10
206.1739932804
 20
56.8082340424
 10
205.9173102643
 20
56.8826584186
 10
205.7710239752
 20
56.9497849303
 10
205.7404215807
 20
57.0071874504
 10
205.8266091312
 20
57.0527913023
 10
206.0264715839
 20
57.0849482441
 10
206.3327853892
 20
57.1024960399
 10
206.7344795679
 20
57.1048004668
 10
207.2170358459
 20
57.0917782368
 10
207.763013382
 20
57.0639000072
 10
208.3526791255
 20
57.0221733698
 10
208.9647210201
 20
56.9681064341
 10
209.577018277
 20
56.9036533199
 10
210.1674408781
 20
56.8311435308
 10
210.7146494122
 20
56.7531977594
 10
211.1988663372
 20
56.672633169
 10
211.6025907917
 20
56.5923615739
 10
211.9112311222
 20
56.5152841985
 10
212.1136322628
 20
56.4441868202
 10
212.2024789091
 20
56.3816390833
 10
212.1745599117
 20
56.329901626
 10
212.030884336
 20
56.290844375
 10
211.7766449916
 20
56.2658789609
 10
211.4210307508
 20
56.2559076988
 10
210.9768944388
 20
56.2612909763
 10
210.4602882992
 20
56.2818342275
 10
209.8898838237
 20
56.316794966
 10
209.2862969164
 20
56.3649096194
 10
208.6713427807
 20
56.4244391989
 10
208.0672474614
 20
56.4932321503
 10
207.4958445371
 20
56.5688021173
 10
206.9777859984
 20
56.6484178041
 10
206.5317958306
 20
56.7292016926
  0
LWPOLYLINE
  5
21C
330
1F
100
AcDbEntity
  8
0
  6
Continuous
 62
     7
370
    15
100
AcDbPolyline
 90
       30
 70
   128
 43
0.0
 10
207.0948705845
 20
56.7180181818
 10
206.7875872403
 20
56.7869678743
 10
206.5824346228
 20
56.8509504608
 10
206.4890054402
 20
56.9069741865
 10
206.5116683373
 20
56.9524194444
 10
206.6493636223
 20
56.9851612645
 10
206.8956528166
 20
57.003668676
 10
207.2390197112
 20
57.0070762927
 10
207.6634088518
 20
56.9952247782
 10
208.1489762738
 20
56.9686682963
 10
208.6730173843
 20
56.9286485985
 10
209.2110286033
 20
56.8770369614
 10
209.7378531242
 20
56.8162466878
 10
210.228857218
 20
56.7491202633
 10
210.6610820789
 20
56.6787964449
 10
211.0143173528
 20
56.6085634962
 10
211.2720461509
 20
56.5417054318
 10
211.422217361
 20
56.4813484606
 10
211.4578091443
 20
56.4303148073
 10
211.3771572685
 20
56.390990749
 10
211.1840329257
 20
56.3652150349
 10
210.8874663956
 20
56.3541929086
 10
210.5013247994
 20
56.3584397527
 10
210.043663689
 20
56.3777569893
 10
209.5358827894
 20
56.411241366
 10
209.001725371
 20
56.4573271906
 10
208.466168041
 20
56.513859541
 10
207.9542528649
 20
56.5781950275
 10
207.4899164275
 20
56.6473253941
 10
207.0948705845
 20
56.7180181818
  0
ARC
  5
21D
330
1F
100
AcDbEntity
  8
0
  6
Continuous
 62
     7
370
    15
100
AcDbCircle
 10
211.2930134163
 20
80.4254814838
 30
0.0
 40
23.64385451563533
100
AcDbArc
 50
263.5117806012
 51
265.3215145866
  0
LWPOLYLINE
  5
21E
330
1F
100
AcDbEntity
  8
0
  6
Continuous
 62
     7
370
    15
100
AcDbPolyline
 90
       34
 70
   128
 43
0.0
 10
212.148290348
 20
120.1663616572
 10
212.5060928981
 20
120.0873293073
 10
212.7627759143
 20
120.0129049311
 10
212.9090622034
 20
119.9457784195
 10
212.9396645978
 20
119.8883758993
 10
212.8534770474
 20
119.8427720474
 10
212.6536145946
 20
119.8106151057
 10
212.3473007894
 20
119.7930673098
 10
211.9456066107
 20
119.7907628829
 10
211.4630503327
 20
119.803785113
 10
210.9170727966
 20
119.8316633426
 10
210.3274070531
 20
119.87338998
 10
209.7153651585
 20
119.9274569157
 10
209.1030679016
 20
119.9919100299
 10
208.5126453005
 20
120.064419819
 10
207.9654367664
 20
120.1423655904
 10
207.4812198414
 20
120.2229301807
 10
207.0774953868
 20
120.3032017759
 10
206.7688550564
 20
120.3802791512
 10
206.5664539157
 20
120.4513765296
 10
206.4776072695
 20
120.5139242665
 10
206.5055262668
 20
120.5656617237
 10
206.6492018426
 20
120.6047189748
 10
206.903441187
 20
120.6296843889
 10
207.2590554278
 20
120.6396556509
 10
207.7031917398
 20
120.6342723735
 10
208.2197978794
 20
120.6137291222
 10
208.7902023549
 20
120.5787683838
 10
209.3937892621
 20
120.5306537304
 10
210.0087433978
 20
120.4711241509
 10
210.6128387172
 20
120.4023311994
 10
211.1842416415
 20
120.3267612325
 10
211.7023001802
 20
120.2471455456
 10
212.148290348
 20
120.1663616572
  0
LWPOLYLINE
  5
21F
330
1F
100
AcDbEntity
  8
0
  6
Continuous
 62
     7
370
    15
100
AcDbPolyline
 90
       30
 70
   128
 43
0.0
 10
211.5852155941
 20
120.177545168
 10
211.8924989382
 20
120.1085954754
 10
212.0976515558
 20
120.0446128889
 10
212.1910807384
 20
119.9885891632
 10
212.1684178412
 20
119.9431439054
 10
212.0307225563
 20
119.9104020852
 10
211.784433362
 20
119.8918946738
 10
211.4410664674
 20
119.8884870571
 10
211.0166773268
 20
119.9003385715
 10
210.5311099048
 20
119.9268950534
 10
210.0070687943
 20
119.9669147512
 10
209.4690575753
 20
120.0185263884
 10
208.9422330543
 20
120.079316662
 10
208.4512289606
 20
120.1464430865
 10
208.0190040997
 20
120.2167669049
 10
207.6657688258
 20
120.2869998536
 10
207.4080400277
 20
120.3538579179
 10
207.2578688176
 20
120.4142148892
 10
207.2222770343
 20
120.4652485424
 10
207.3029289101
 20
120.5045726007
 10
207.4960532528
 20
120.5303483149
 10
207.792619783
 20
120.5413704411
 10
208.1787613792
 20
120.5371235971
 10
208.6364224895
 20
120.5178063604
 10
209.1442033892
 20
120.4843219837
 10
209.6783608076
 20
120.4382361592
 10
210.2139181376
 20
120.3817038087
 10
210.7258333136
 20
120.3173683223
 10
211.1901697511
 20
120.2482379557
 10
211.5852155941
 20
120.177545168
  0
ARC
  5
220
330
1F
100
AcDbEntity
  8
0
  6
Continuous
 62
     7
370
    15
100
AcDbCircle
 10
207.3870727623
 20
96.4700818654
 30
0.0
 40
23.6438545162027
100
AcDbArc
 50
83.5117806026
 51
85.3215145853
  0
DIMENSION
  5
221
330
1F
100
AcDbEntity
  8
VERMASSUNG
100
AcDbDimension
  2
_D_5
 10
244.9753728889
 20
58.4477816749
 30
0.0
 11
244.9753728889
 21
88.4477816749
 31
0.0
 70
   160
  1
<>
 71
     2
 42
-1.0
  3
SLDDIMSTYLE0
100
AcDbAlignedDimension
 13
232.3400430893
 23
118.4477816749
 33
0.0
 14
232.3400430893
 24
58.4477816749
 34
0.0
 50
90.0
100
AcDbRotatedDimension
  0
DIMENSION
  5
22B
330
1F
100
AcDbEntity
  8
VERMASSUNG
100
AcDbDimension
  2
_D_6
 10
233.3400430893
 20
45.9565938553
 30
0.0
 11
205.8400430893
 21
45.9565938553
 31
0.0
 70
   160
  1
<>
 71
     2
 42
-1.0
  3
SLDDIMSTYLE0
100
AcDbAlignedDimension
 13
178.3400430893
 23
68.7477816749
 33
0.0
 14
233.3400430893
 24
59.4477816749
 34
0.0
100
AcDbRotatedDimension
  0
DIMENSION
  5
235
330
1F
100
AcDbEntity
  8
VERMASSUNG
100
AcDbDimension
  2
_D_7
 10
233.3400430893
 20
39.9565938553
 30
0.0
 11
193.8400430893
 21
39.9565938553
 31
0.0
 70
   160
  1
<>
 71
     2
 42
-1.0
  3
SLDDIMSTYLE0
100
AcDbAlignedDimension
 13
154.3400430893
 23
75.8162766928
 33
0.0
 14
233.3400430893
 24
59.4477816749
 34
0.0
100
AcDbRotatedDimension
  0
LINE
  5
23F
330
1F
100
AcDbEntity
  8
VERMASSUNG
  6
CENTERX2
370
     0
100
AcDbLine
 10
152.2793793629
 20
88.4477816749
 30
0.0
 11
236.4147219008
 21
88.4477816749
 31
0.0
  0
LINE
  5
240
330
1F
100
AcDbEntity
  8
0
  6
Continuous
 62
     7
370
    15
100
AcDbLine
 10
79.6688011422
 20
83.9477816749
 30
0.0
 11
80.6688011422
 21
84.9477816749
 31
0.0
  0
LINE
  5
241
330
1F
100
AcDbEntity
  8
0
  6
Continuous
 62
     7
370
    15
100
AcDbLine
 10
80.6688011422
 20
91.9477816749
 30
0.0
 11
79.6688011422
 21
92.9477816749
 31
0.0
  0
LINE
  5
242
330
1F
100
AcDbEntity
  8
0
  6
Continuous
 62
     7
370
    15
100
AcDbLine
 10
79.6688011422
 20
63.9477816749
 30
0.0
 11
80.6688011422
 21
64.9477816749
 31
0.0
  0
LINE
  5
243
330
1F
100
AcDbEntity
  8
0
  6
Continuous
 62
     7
370
    15
100
AcDbLine
 10
80.6688011422
 20
71.9477816749
 30
0.0
 11
79.6688011422
 21
72.9477816749
 31
0.0
  0
LINE
  5
244
330
1F
100
AcDbEntity
  8
0
  6
Continuous
 62
     7
370
    15
100
AcDbLine
 10
79.6688011422
 20
103.9477816749
 30
0.0
 11
80.6688011422
 21
104.9477816749
 31
0.0
  0
LINE
  5
245
330
1F
100
AcDbEntity
  8
0
  6
Continuous
 62
     7
370
    15
100
AcDbLine
 10
80.6688011422
 20
111.9477816749
 30
0.0
 11
79.6688011422
 21
112.9477816749
 31
0.0
  0
ARC
  5
246
330
1F
100
AcDbEntity
  8
0
  6
Continuous
 62
     7
370
    15
100
AcDbCircle
 10
71.6688011422
 20
60.4477816749
 30
0.0
 40
5.0
100
AcDbArc
 50
305.1631024597
 51
336.4218215218
  0
ARC
  5
247
330
1F
100
AcDbEntity
  8
0
  6
Continuous
 62
     7
370
    15
100
AcDbCircle
 10
71.6688011422
 20
60.4477816749
 30
0.0
 40
5.000000000000009
100
AcDbArc
 50
203.5781784782
 51
224.7156397577
  0
ARC
  5
248
330
1F
100
AcDbEntity
  8
0
  6
Continuous
 62
     7
370
    15
100
AcDbCircle
 10
71.6688011422
 20
116.4477816749
 30
0.0
 40
5.00000000000002
100
AcDbArc
 50
135.2843602423
 51
156.4218215218
  0
ARC
  5
249
330
1F
100
AcDbEntity
  8
0
  6
Continuous
 62
     7
370
    15
100
AcDbCircle
 10
71.6688011422
 20
116.4477816749
 30
0.0
 40
4.999999999999998
100
AcDbArc
 50
23.5781784782
 51
54.8368975403
  0
LINE
  5
24A
330
1F
100
AcDbEntity
  8
0
  6
Continuous
 62
     7
370
    15
100
AcDbLine
 10
108.2187557701
 20
117.4477816749
 30
0.0
 11
100.6688011422
 21
117.4477816749
 31
0.0
  0
LINE
  5
24B
330
1F
100
AcDbEntity
  8
0
  6
Continuous
 62
     7
370
    15
100
AcDbLine
 10
115.6688011422
 20
69.0828649438
 30
0.0
 11
115.6688011422
 21
107.8126984059
 31
0.0
  0
LINE
  5
24C
330
1F
100
AcDbEntity
  8
0
  6
Continuous
 62
     7
370
    15
100
AcDbLine
 10
100.6688011422
 20
59.4477816749
 30
0.0
 11
108.2187557701
 21
59.4477816749
 31
0.0
  0
LINE
  5
24D
330
1F
100
AcDbEntity
  8
0
  6
Continuous
 62
     7
370
    15
100
AcDbLine
 10
100.6688011422
 20
59.4477816749
 30
0.0
 11
100.6688011422
 21
117.4477816749
 31
0.0
  0
ARC
  5
24E
330
1F
100
AcDbEntity
  8
0
  6
Continuous
 62
     7
370
    15
100
AcDbCircle
 10
80.6688011422
 20
88.4477816749
 30
0.0
 40
40.00000000000001
100
AcDbArc
 50
313.5311521674
 51
331.0449756281
  0
ARC
  5
24F
330
1F
100
AcDbEntity
  8
0
  6
Continuous
 62
     7
370
    15
100
AcDbCircle
 10
80.6688011422
 20
88.4477816749
 30
0.0
 40
40.00000000000003
100
AcDbArc
 50
28.9550243719
 51
46.4688478326
  0
LINE
  5
250
330
1F
100
AcDbEntity
  8
0
  6
Continuous
 62
     7
370
    15
100
AcDbLine
 10
100.6688011422
 20
117.4477816749
 30
0.0
 11
100.6688011422
 21
118.4477816749
 31
0.0
  0
LINE
  5
251
330
1F
100
AcDbEntity
  8
0
  6
Continuous
 62
     7
370
    15
100
AcDbLine
 10
100.6688011422
 20
118.4477816749
 30
0.0
 11
107.1263142528
 21
118.4477816749
 31
0.0
  0
ARC
  5
252
330
1F
100
AcDbEntity
  8
0
  6
Continuous
 62
     7
370
    15
100
AcDbCircle
 10
80.6688011422
 20
88.4477816749
 30
0.0
 40
40.00000000000003
100
AcDbArc
 50
46.4688478326
 51
48.5903778907
  0
LINE
  5
253
330
1F
100
AcDbEntity
  8
0
  6
Continuous
 62
     7
370
    15
100
AcDbLine
 10
107.1263142528
 20
58.4477816749
 30
0.0
 11
100.6688011422
 21
58.4477816749
 31
0.0
  0
LINE
  5
254
330
1F
100
AcDbEntity
  8
0
  6
Continuous
 62
     7
370
    15
100
AcDbLine
 10
100.6688011422
 20
58.4477816749
 30
0.0
 11
100.6688011422
 21
59.4477816749
 31
0.0
  0
ARC
  5
255
330
1F
100
AcDbEntity
  8
0
  6
Continuous
 62
     7
370
    15
100
AcDbCircle
 10
80.6688011422
 20
88.4477816749
 30
0.0
 40
40.00000000000001
100
AcDbArc
 50
311.4096221093
 51
313.5311521674
  0
LINE
  5
256
330
1F
100
AcDbEntity
  8
0
  6
Continuous
 62
     7
370
    15
100
AcDbLine
 10
60.6688011422
 20
59.4477816749
 30
0.0
 11
79.6688011422
 21
59.4477816749
 31
0.0
  0
LINE
  5
257
330
1F
100
AcDbEntity
  8
0
  6
Continuous
 62
     7
370
    15
100
AcDbLine
 10
79.6688011422
 20
59.4477816749
 30
0.0
 11
79.6688011422
 21
58.4477816749
 31
0.0
  0
LINE
  5
258
330
1F
100
AcDbEntity
  8
0
  6
Continuous
 62
     7
370
    15
100
AcDbLine
 10
79.6688011422
 20
58.4477816749
 30
0.0
 11
60.6688011422
 21
58.4477816749
 31
0.0
  0
LINE
  5
259
330
1F
100
AcDbEntity
  8
0
  6
Continuous
 62
     7
370
    15
100
AcDbLine
 10
60.6688011422
 20
59.4477816749
 30
0.0
 11
60.6688011422
 21
58.4477816749
 31
0.0
  0
LINE
  5
25A
330
1F
100
AcDbEntity
  8
0
  6
Continuous
 62
     7
370
    15
100
AcDbLine
 10
79.6688011422
 20
117.4477816749
 30
0.0
 11
60.6688011422
 21
117.4477816749
 31
0.0
  0
LINE
  5
25B
330
1F
100
AcDbEntity
  8
0
  6
Continuous
 62
     7
370
    15
100
AcDbLine
 10
60.6688011422
 20
117.4477816749
 30
0.0
 11
60.6688011422
 21
118.4477816749
 31
0.0
  0
LINE
  5
25C
330
1F
100
AcDbEntity
  8
0
  6
Continuous
 62
     7
370
    15
100
AcDbLine
 10
60.6688011422
 20
118.4477816749
 30
0.0
 11
79.6688011422
 21
118.4477816749
 31
0.0
  0
LINE
  5
25D
330
1F
100
AcDbEntity
  8
0
  6
Continuous
 62
     7
370
    15
100
AcDbLine
 10
79.6688011422
 20
118.4477816749
 30
0.0
 11
79.6688011422
 21
117.4477816749
 31
0.0
  0
LINE
  5
25E
330
1F
100
AcDbEntity
  8
0
  6
Continuous
 62
     7
370
    15
100
AcDbLine
 10
79.6688011422
 20
117.4477816749
 30
0.0
 11
79.6688011422
 21
59.4477816749
 31
0.0
  0
LINE
  5
25F
330
1F
100
AcDbEntity
  8
0
  6
Continuous
 62
     7
370
    15
100
AcDbLine
 10
60.6688011422
 20
117.4477816749
 30
0.0
 11
60.6688011422
 21
59.4477816749
 31
0.0
  0
LINE
  5
260
330
1F
100
AcDbEntity
  8
0
  6
Continuous
 62
     7
370
    15
100
AcDbLine
 10
59.6688011422
 20
59.4477816749
 30
0.0
 11
60.6688011422
 21
58.4477816749
 31
0.0
  0
LINE
  5
261
330
1F
100
AcDbEntity
  8
0
  6
Continuous
 62
     7
370
    15
100
AcDbLine
 10
60.6688011422
 20
59.4477816749
 30
0.0
 11
59.6688011422
 21
59.4477816749
 31
0.0
  0
LINE
  5
262
330
1F
100
AcDbEntity
  8
0
  6
Continuous
 62
     7
370
    15
100
AcDbLine
 10
60.6688011422
 20
117.4477816749
 30
0.0
 11
59.6688011422
 21
117.4477816749
 31
0.0
  0
LINE
  5
263
330
1F
100
AcDbEntity
  8
0
  6
Continuous
 62
     7
370
    15
100
AcDbLine
 10
60.6688011422
 20
118.4477816749
 30
0.0
 11
59.6688011422
 21
117.4477816749
 31
0.0
  0
LINE
  5
264
330
1F
100
AcDbEntity
  8
0
  6
Continuous
 62
     7
370
    15
100
AcDbLine
 10
59.6688011422
 20
59.4477816749
 30
0.0
 11
59.6688011422
 21
117.4477816749
 31
0.0
  0
LINE
  5
265
330
1F
100
AcDbEntity
  8
0
  6
Continuous
 62
     7
370
    15
100
AcDbLine
 10
79.6688011422
 20
58.4477816749
 30
0.0
 11
100.6688011422
 21
58.4477816749
 31
0.0
  0
LINE
  5
266
330
1F
100
AcDbEntity
  8
0
  6
Continuous
 62
     7
370
    15
100
AcDbLine
 10
100.6688011422
 20
118.4477816749
 30
0.0
 11
79.6688011422
 21
118.4477816749
 31
0.0
  0
LINE
  5
267
330
1F
100
AcDbEntity
  8
0
  6
Continuous
 62
     7
370
    15
100
AcDbLine
 10
80.6688011422
 20
84.9477816749
 30
0.0
 11
80.6688011422
 21
91.9477816749
 31
0.0
  0
LINE
  5
268
330
1F
100
AcDbEntity
  8
0
  6
Continuous
 62
     7
370
    15
100
AcDbLine
 10
80.6688011422
 20
64.9477816749
 30
0.0
 11
80.6688011422
 21
71.9477816749
 31
0.0
  0
LINE
  5
269
330
1F
100
AcDbEntity
  8
0
  6
Continuous
 62
     7
370
    15
100
AcDbLine
 10
80.6688011422
 20
104.9477816749
 30
0.0
 11
80.6688011422
 21
111.9477816749
 31
0.0
  0
ARC
  5
26A
330
1F
100
AcDbEntity
  8
0
  6
Continuous
 62
     7
370
    15
100
AcDbCircle
 10
72.6957864537
 20
72.0449235008
 30
0.0
 40
15.79374594175477
100
AcDbArc
 50
253.1426648325
 51
276.7360773849
  0
LWPOLYLINE
  5
26B
330
1F
100
AcDbEntity
  8
0
  6
Continuous
 62
     7
370
    15
100
AcDbPolyline
 90
       34
 70
   128
 43
0.0
 10
73.48150913
 20
120.1663616572
 10
72.9840279815
 20
120.0873293073
 10
72.4269542774
 20
120.0129049311
 10
71.8304221129
 20
119.9457784195
 10
71.2159917145
 20
119.8883758993
 10
70.6058701978
 20
119.8427720474
 10
70.022108944
 20
119.8106151057
 10
69.4858066058
 20
119.7930673098
 10
69.0163465471
 20
119.7907628829
 10
68.6306962776
 20
119.803785113
 10
68.3427942027
 20
119.8316633426
 10
68.1630458536
 20
119.87338998
 10
68.097947804
 20
119.9274569157
 10
68.1498528669
 20
119.9919100299
 10
68.3168850582
 20
120.064419819
 10
68.5930073993
 20
120.1423655904
 10
68.9682401094
 20
120.2229301807
 10
69.4290213005
 20
120.3032017759
 10
69.95869714
 20
120.3802791512
 10
70.538123763
 20
120.4513765296
 10
71.1463591815
 20
120.5139242665
 10
71.7614201829
 20
120.5656617237
 10
72.36107686
 20
120.6047189748
 10
72.9236560582
 20
120.6296843889
 10
73.4288246993
 20
120.6396556509
 10
73.8583246726
 20
120.6342723735
 10
74.1966327299
 20
120.6137291222
 10
74.4315215365
 20
120.5787683838
 10
74.5545015992
 20
120.5306537304
 10
74.5611280978
 20
120.4711241509
 10
74.4511615335
 20
120.4023311994
 10
74.2285763846
 20
120.3267612325
 10
73.901417458
 20
120.2471455456
 10
73.48150913
 20
120.1663616572
  0
LWPOLYLINE
  5
26C
330
1F
100
AcDbEntity
  8
0
  6
Continuous
 62
     7
370
    15
100
AcDbPolyline
 90
       30
 70
   128
 43
0.0
 10
72.9862094726
 20
120.177545168
 10
72.5468167782
 20
120.1085954754
 10
72.0507707261
 20
120.0446128889
 10
71.5212658785
 20
119.9885891632
 10
70.9830612935
 20
119.9431439054
 10
70.4613228195
 20
119.9104020852
 10
69.9804463674
 20
119.8918946738
 10
69.5629171859
 20
119.8884870571
 10
69.2282584753
 20
119.9003385715
 10
68.992118505
 20
119.9268950534
 10
68.8655389176
 20
119.9669147512
 10
68.8544384339
 20
120.0185263884
 10
68.9593361002
 20
120.079316662
 10
69.1753270182
 20
120.1464430865
 10
69.4923116926
 20
120.2167669049
 10
69.8954682724
 20
120.2869998536
 10
70.365945604
 20
120.3538579179
 10
70.8817446901
 20
120.4142148892
 10
71.4187473389
 20
120.4652485424
 10
71.9518439034
 20
120.5045726007
 10
72.4561073805
 20
120.5303483149
 10
72.9079589707
 20
120.5413704411
 10
73.2862705957
 20
120.5371235971
 10
73.5733528245
 20
120.5178063604
 10
73.755782011
 20
120.4843219837
 10
73.8250279693
 20
120.4382361592
 10
73.7778528354
 20
120.3817038087
 10
73.616462466
 20
120.3173683223
 10
73.3484032954
 20
120.2482379557
 10
72.9862094726
 20
120.177545168
  0
ARC
  5
26D
330
1F
100
AcDbEntity
  8
0
  6
Continuous
 62
     7
370
    15
100
AcDbCircle
 10
73.0696105179
 20
100.6292642929
 30
0.0
 40
19.46871754256627
100
AcDbArc
 50
92.0272468779
 51
98.0940109047
  0
DIMENSION
  5
26E
330
1F
100
AcDbEntity
  8
VERMASSUNG
100
AcDbDimension
  2
_D_8
 10
80.6688011422
 20
88.4477816749
 30
0.0
 11
117.4215722298
 21
117.7435781659
 31
0.0
 70
   164
  1
<>
 71
     1
 42
-1.0
  3
SLDDIMSTYLE2
100
AcDbRadialDimension
 15
111.9476861897
 25
113.3803176507
 35
0.0
 40
0.0
  0
INSERT
  5
282
330
1F
100
AcDbEntity
  8
VERMASSUNG
100
AcDbBlockReference
  2
SW_CENTERMARKSYMBOL_0
 10
80.6688011422
 20
88.4477816749
 30
0.0
  0
OLE2FRAME
  5
283
330
1F
100
AcDbEntity
  8
0
100
AcDbOle2Frame
 70
     2
  3
Paintbrush-Bild
 10
13.8511154363
 20
38.264191557
 30
0.0
 11
51.6290888628
 21
31.9806341108
 31
0.0
 71
     2
 72
     0
 73
     1
 90
    12928
310
80552BED0767C5B32B40DDAF6807D121434000000000000000006FFBDDFB85D0
310
4940DDAF6807D121434000000000000000006FFBDDFB85D04940416F4BD60AFB
310
3F4000000000000000002BED0767C5B32B40416F4BD60AFB3F40000000000000
310
0000000000000100000000010000010000000100000000000100000000320000
310
D0CF11E0A1B11AE1000000000000000000000000000000003E000300FEFF0900
310
0600000000000000000000000100000001000000000000000010000002000000
310
01000000FEFFFFFF0000000000000000FFFFFFFFFFFFFFFFFFFFFFFFFFFFFFFF
310
FFFFFFFFFFFFFFFFFFFFFFFFFFFFFFFFFFFFFFFFFFFFFFFFFFFFFFFFFFFFFFFF
310
FFFFFFFFFFFFFFFFFFFFFFFFFFFFFFFFFFFFFFFFFFFFFFFFFFFFFFFFFFFFFFFF
310
FFFFFFFFFFFFFFFFFFFFFFFFFFFFFFFFFFFFFFFFFFFFFFFFFFFFFFFFFFFFFFFF
310
FFFFFFFFFFFFFFFFFFFFFFFFFFFFFFFFFFFFFFFFFFFFFFFFFFFFFFFFFFFFFFFF
310
FFFFFFFFFFFFFFFFFFFFFFFFFFFFFFFFFFFFFFFFFFFFFFFFFFFFFFFFFFFFFFFF
310
FFFFFFFFFFFFFFFFFFFFFFFFFFFFFFFFFFFFFFFFFFFFFFFFFFFFFFFFFFFFFFFF
310
FFFFFFFFFFFFFFFFFFFFFFFFFFFFFFFFFFFFFFFFFFFFFFFFFFFFFFFFFFFFFFFF
310
FFFFFFFFFFFFFFFFFFFFFFFFFFFFFFFFFFFFFFFFFFFFFFFFFFFFFFFFFFFFFFFF
310
FFFFFFFFFFFFFFFFFFFFFFFFFFFFFFFFFFFFFFFFFFFFFFFFFFFFFFFFFFFFFFFF
310
FFFFFFFFFFFFFFFFFFFFFFFFFFFFFFFFFFFFFFFFFFFFFFFFFFFFFFFFFFFFFFFF
310
FFFFFFFFFFFFFFFFFFFFFFFFFFFFFFFFFFFFFFFFFFFFFFFFFFFFFFFFFFFFFFFF
310
FFFFFFFFFFFFFFFFFFFFFFFFFFFFFFFFFFFFFFFFFFFFFFFFFFFFFFFFFFFFFFFF
310
FFFFFFFFFFFFFFFFFFFFFFFFFFFFFFFFFFFFFFFFFFFFFFFFFFFFFFFFFFFFFFFF
310
FDFFFFFFFEFFFFFFFEFFFFFFFEFFFFFF05000000060000000700000008000000
310
090000000A0000000B0000000C0000000D0000000E0000000F00000010000000
310
11000000120000001300000014000000150000001600000017000000FEFFFFFF
310
FFFFFFFFFFFFFFFFFFFFFFFFFFFFFFFFFFFFFFFFFFFFFFFFFFFFFFFFFFFFFFFF
310
FFFFFFFFFFFFFFFFFFFFFFFFFFFFFFFFFFFFFFFFFFFFFFFFFFFFFFFFFFFFFFFF
310
FFFFFFFFFFFFFFFFFFFFFFFFFFFFFFFFFFFFFFFFFFFFFFFFFFFFFFFFFFFFFFFF
310
FFFFFFFFFFFFFFFFFFFFFFFFFFFFFFFFFFFFFFFFFFFFFFFFFFFFFFFFFFFFFFFF
310
FFFFFFFFFFFFFFFFFFFFFFFFFFFFFFFFFFFFFFFFFFFFFFFFFFFFFFFFFFFFFFFF
310
FFFFFFFFFFFFFFFFFFFFFFFFFFFFFFFFFFFFFFFFFFFFFFFFFFFFFFFFFFFFFFFF
310
FFFFFFFFFFFFFFFFFFFFFFFFFFFFFFFFFFFFFFFFFFFFFFFFFFFFFFFFFFFFFFFF
310
FFFFFFFFFFFFFFFFFFFFFFFFFFFFFFFFFFFFFFFFFFFFFFFFFFFFFFFFFFFFFFFF
310
FFFFFFFFFFFFFFFFFFFFFFFFFFFFFFFFFFFFFFFFFFFFFFFFFFFFFFFFFFFFFFFF
310
FFFFFFFFFFFFFFFFFFFFFFFFFFFFFFFFFFFFFFFFFFFFFFFFFFFFFFFFFFFFFFFF
310
FFFFFFFFFFFFFFFFFFFFFFFFFFFFFFFFFFFFFFFFFFFFFFFFFFFFFFFFFFFFFFFF
310
FFFFFFFFFFFFFFFFFFFFFFFFFFFFFFFFFFFFFFFFFFFFFFFFFFFFFFFFFFFFFFFF
310
FFFFFFFFFFFFFFFFFFFFFFFFFFFFFFFFFFFFFFFFFFFFFFFFFFFFFFFFFFFFFFFF
310
52006F006F007400200045006E00740072007900000000000000000000000000
310
0000000000000000000000000000000000000000000000000000000000000000
310
16000500FFFFFFFFFFFFFFFF020000000A00030000000000C000000000000046
310
000000000000000000000000103372280D2DCD0103000000C000000000000000
310
01004F006C006500000000000000000000000000000000000000000000000000
310
0000000000000000000000000000000000000000000000000000000000000000
310
0A000200FFFFFFFFFFFFFFFFFFFFFFFF00000000000000000000000000000000
310
0000000000000000000000000000000000000000000000001400000000000000
310
010043006F006D0070004F0062006A0000000000000000000000000000000000
310
0000000000000000000000000000000000000000000000000000000000000000
310
120002010100000003000000FFFFFFFF00000000000000000000000000000000
310
0000000000000000000000000000000000000000010000004D00000000000000
310
01004F006C006500310030004E00610074006900760065000000000000000000
310
0000000000000000000000000000000000000000000000000000000000000000
310
1A000200FFFFFFFFFFFFFFFFFFFFFFFF00000000000000000000000000000000
310
0000000000000000000000000000000000000000040000002426000000000000
310
FEFFFFFF02000000FEFFFFFFFFFFFFFFFFFFFFFFFFFFFFFFFFFFFFFFFFFFFFFF
310
FFFFFFFFFFFFFFFFFFFFFFFFFFFFFFFFFFFFFFFFFFFFFFFFFFFFFFFFFFFFFFFF
310
FFFFFFFFFFFFFFFFFFFFFFFFFFFFFFFFFFFFFFFFFFFFFFFFFFFFFFFFFFFFFFFF
310
FFFFFFFFFFFFFFFFFFFFFFFFFFFFFFFFFFFFFFFFFFFFFFFFFFFFFFFFFFFFFFFF
310
FFFFFFFFFFFFFFFFFFFFFFFFFFFFFFFFFFFFFFFFFFFFFFFFFFFFFFFFFFFFFFFF
310
FFFFFFFFFFFFFFFFFFFFFFFFFFFFFFFFFFFFFFFFFFFFFFFFFFFFFFFFFFFFFFFF
310
FFFFFFFFFFFFFFFFFFFFFFFFFFFFFFFFFFFFFFFFFFFFFFFFFFFFFFFFFFFFFFFF
310
FFFFFFFFFFFFFFFFFFFFFFFFFFFFFFFFFFFFFFFFFFFFFFFFFFFFFFFFFFFFFFFF
310
FFFFFFFFFFFFFFFFFFFFFFFFFFFFFFFFFFFFFFFFFFFFFFFFFFFFFFFFFFFFFFFF
310
FFFFFFFFFFFFFFFFFFFFFFFFFFFFFFFFFFFFFFFFFFFFFFFFFFFFFFFFFFFFFFFF
310
FFFFFFFFFFFFFFFFFFFFFFFFFFFFFFFFFFFFFFFFFFFFFFFFFFFFFFFFFFFFFFFF
310
FFFFFFFFFFFFFFFFFFFFFFFFFFFFFFFFFFFFFFFFFFFFFFFFFFFFFFFFFFFFFFFF
310
FFFFFFFFFFFFFFFFFFFFFFFFFFFFFFFFFFFFFFFFFFFFFFFFFFFFFFFFFFFFFFFF
310
FFFFFFFFFFFFFFFFFFFFFFFFFFFFFFFFFFFFFFFFFFFFFFFFFFFFFFFFFFFFFFFF
310
FFFFFFFFFFFFFFFFFFFFFFFFFFFFFFFFFFFFFFFFFFFFFFFFFFFFFFFFFFFFFFFF
310
FFFFFFFFFFFFFFFFFFFFFFFFFFFFFFFFFFFFFFFFFFFFFFFFFFFFFFFFFFFFFFFF
310
0100000200000000000000000000000000000000000000000000000000000000
310
0000000000000000000000000000000000000000000000000000000000000000
310
0100FEFF030A0000FFFFFFFF0A00030000000000C00000000000004607000000
310
5042727573680007000000504272757368000700000050427275736800F439B2
310
7100000000000000000000000000000000000000000000000000000000000000
310
0000000000000000000000000000000000000000000000000000000000000000
310
0000000000000000000000000000000000000000000000000000000000000000
310
0000000000000000000000000000000000000000000000000000000000000000
310
0000000000000000000000000000000000000000000000000000000000000000
310
0000000000000000000000000000000000000000000000000000000000000000
310
0000000000000000000000000000000000000000000000000000000000000000
310
0000000000000000000000000000000000000000000000000000000000000000
310
0000000000000000000000000000000000000000000000000000000000000000
310
0000000000000000000000000000000000000000000000000000000000000000
310
0000000000000000000000000000000000000000000000000000000000000000
310
0000000000000000000000000000000000000000000000000000000000000000
310
20260000424D0E260000000000003E00000028000000B40200006E0000000100
310
01000000000000000000130B0000130B00000200000002000000000000FFFFFF
310
FFFFFFFFFFFFFFFFFFFFFFFFFFFFFFFFFFFFFFFFFFFFFFFFFFFFFFFFFFFFFFFF
310
FFFFFFFFFFFFFFFFFFFFFFFFFFFFFFFFFFFFFFFFFFFFFFFFFFFFFFFFFFFFFFFF
310
FFFFFFFFFFFFFFFFFFFFFFFFFFFFFFFFFFFFFFFFFFFFFFFFF000FFFFFFFFFFFF
310
FFFFFFFFFFFFFFFFFFFFFFFFFFFFFFFFFFFFFFFFFFFFFFFFFFFFFFFFFFFFFFFF
310
FFFFFFFFFFFFFFFFFFFFFFFFFFFFFFFFFFFFFFFFFFFFFFFFFFFFFFFFFFFFFFFF
310
FFFFFFFFFFFFFFFFFFFFFFFFFFFFFFFFF000FFFFFFFFFFFFFFFFFFFFFFFFFFFF
310
FFFFFFFFFFFFFFFFFFFFFFFFFFFFFFFFFFFFFFFFFFFFFFFFFFFFFFFFFFFFFFFF
310
FFFFFFFFFFFFFFFFFFFFFFFFFFFFFFFFFFFFFFFFFFFFFFFFFFFFFFFFFFFFFFFF
310
FFFFFFFFFFFFFFFFF000FFFFFFFFFFFFFFFFFFFFFFFFFFFFFFFFFFFFFFFFFFFF
310
FFFFFFFFFFFFFFFFFFFFFFFFFFFFFFFFFFFFFFFFFFFFFFFFFFFFFFFFFFFFFFFF
310
FFFFFFFFFFFFFFFFFFFFFFFFFFFFFFFFFFFFFFFFFFFFFFFFFFFFFFFFFFFFFFFF
310
F000FFFFFFFFFFFFFFFFFFFFFFFFFFFFFFFFFFFFFFFFFFFFFFFFFFFFFFFFFFFF
310
FFFFFFFFFFFFFFFFFFFFFFFFFFFFFFFFFFFFFFFFFFFFFFFFFFFFFFFFFFFFFFFF
310
FFFFFFFFFFFFFFFFFFFFFFFFFFFFFFFFFFFFFFFFFFFFFFFFF000FFFFFFFFFFFF
310
FFFFFFFFFFFFFFFFFFFFFFFFFFFFFFFFFFFFFFFFFFFFFFFFFFFFFFFFFFFFFFFF
310
FFFFFFFFFFFFFFFFFFFFFFFFFFFFFFFFFFFFFFFFFFFFFFFFFFFFFFFFFFFFFFFF
310
FFFFFFFFFFFFFFFFFFFFFFFFFFFFFFFFF000FFFFFFFFFFFFFFFFFFFFFFFFFFFF
310
FFFFFFFFFFFFFFFFFFFFFFFFFFFFFFFFFFFFFFFFFFFFFFFFFFFFFFFFFFFFFFFF
310
FFFFFFFFFFFFFFFFFFFFFFFFFFFFFFFFFFFFFFFFFFFFFFFFFFFFFFFFFFFFFFFF
310
FFFFFFFFFFFFFFFFF000FFFFFFFFFFFFFFFFFFFFFFFFFFFFFFFFFFFFFFFFFFFF
310
FFFFFFFFFFFFFFFFFFFFFFFFFFFFFFFFFFFFFFFFFFFFFFFFFFFFFFFFFFFFFFFF
310
FFFFFFFFFFFFFFFFFFFFFFFFFFFFFFFFFFFFFFFFFFFFFFFFFFFFFFFFFFFFFFFF
310
F000FFFFFFFFFFFFFFFFFFFFFFFFFFFFFFFFFFFFFFFFFFFFFFFFFFFFFFFFFFFF
310
FFFFFFFFFFFFFFFFFFFFFFFFFFFFFFFFFFFFFFFFFFFFFFFFFFFFFFFFFFFFFFFF
310
FFFFFFFFFFFFFFFFFFFFFFFFFFFFFFFFFFFFFFFFFFFFFFFFF000FFFFFFFFFFFF
310
FFFFFFFFFFFFFFFFFFFFFFFFFFFFFFFFFFFFFFFFFFFFFFFFFFFFFFFFFFFFFFFF
310
FFFFFFFFFFFFFFFFFFFFFFFFFFFFFFFFFFFFFFFFFFFFFFFFFFFFFFFFFFFFFFFF
310
FFFFFFFFFFFFFFFFFFFFFFFFFFFFFFFFF000FFFFFFFFFFFFFFFFFFFFFFFFFFFF
310
FFFFFFFFFFFFFFFFFFFFFFFFFFFFFFFFFFFFFFFFFFFFFFFFFFFFFFFFFFFFFFFF
310
FFFFFFFFFFFFFFFFFFFFFFFFFFFFFFFFFFFFFFFFFFFFFFFFFFFFFFFFFFFFFFFF
310
FFFFFFFFFFFFFFFFF000FFFFFFFFFFFFFFFFFFFFFFFFFFFFFFFFFFFFFFFFFFFF
310
FFFFFFFFFFFFFFFFFFFFFFFFFFFFFFFFFFFFFFFFFFFFFFFFFFFFFFFFFFFFFFFF
310
FFFFFFFFFFFFFFFFFFFFFFFFFFFFFFFFFFFFFFFFFFFFFFFFFFFFFFFFFFFFFFFF
310
F000FFFFFFFFFFFFFFFFFFFFFFFFFFFFFFFFFFFFFFFFFFFFFFFFFFFFFFFFFFFF
310
FFFFFFFFFFFFFFFFFFFFFFFFFFFFFFFFFFFFFFFFFFFFFFFFFFFFFFFFFFFFFFFF
310
FFFFFFFFFFFFFFFFFFFFFFFFFFFFFFFFFFFFFFFFFFFFFFFFF000FFFFFFFFFFFF
310
FFFFFFFFFFFFFFFFFFFFFFFFFFFFFFFFFFFFFFFFFFFFFFFFFFFFFFFFFFFFFFFF
310
FFFFFFFFFFFFFFFFFFFFFFFFFFFFFFFFFFFFFFFFFFFFFFFFFFFFFFFFFFFFFFFF
310
FFFFFFFFFFFFFFFFFFFFFFFFFFFFFFFFF000FFFFFFFFFFFFFFFFFFFFFFFFFFFF
310
FFFFFFFFFFFFFFFFFFFFFFFFFFFFFFFFFFFFFFFFFFFFFFFFFFFFFFFFFFFFFFFF
310
FFFFFFFFFFFFFFFFFFFFFFFFFFFFFFFFFFFFFFFFFFFFFFFFFFFFFFFFFFFFFFFF
310
FFFFFFFFFFFFFFFFF000FFFFFFFFFFFFFFFFFFFFFFFFFFFFFFFFFFFFFFFFFFFF
310
FFFFFFFFFFFFFFFFFFFFFFFFFFFFFFFFFFFFFFFFFFFFFFFFFFFFFFFFFFFFFFFF
310
FFFFFFFFFFFFFFFFFFFFFFFFFFFFFFFFFFFFFFFFFFFFFFFFFFFFFFFFFFFFFFFF
310
F000FFFFFFFFFFFFFFFFFFFFFFFFFFFFFFFFFFFFFFFFFFFFFFFFFFFFFFFFFFFF
310
FFFFFFFFFFFFFFFFFFFFFFFFFFFFFFFFFFFFFFFFFFFFFFFFFFFFFFFFFFFFFFFF
310
FFFFFFFFFFFFFFFFFFFFFFFFFFFFFFFFFFFFFFFFFFFFFFFFF000FFFFFFFFFFFF
310
FFFFFFFFFFFFFFFFFFFFFFFFFFFFFFFFFFFFFFFFFFFFFFFFFFFFFFFFFFFFFFFF
310
FFFFFFFFFFFFFFFFFFFFFFFFFFFFFFFFFFFFFFFFFFFFFFFFFFFFFFFFFFFFFFFF
310
FFFFFFFFFFFFFFFFFFFFFFFFFFFFFFFFF000FFFFFFFFFFFFFFFFFFFFFFFFFFFF
310
FFFFFFFFFFFFFFFFFFFFFFFFFFFFFFFFFFFFFFFFFFFFFFFFFFFFFFFFFFFFFFFF
310
FFFFFFFFFFFFFFFFFFFFFFFFFFFFFFFFFFFFFFFFFFFFFFFFFFFFFFFFFFFFFFFF
310
FFFFFFFFFFFFFFFFF000FFFFF80003FFFFFFFFFFFFFFFFFFFFFFFFFFFFFFFFFF
310
FFFFF00007FFFFFFFFFF00007FFFFFF800000000000000007FFFFFFFFFFFFFFF
310
FFFFFFFC001FFFFFFFFFFFFFFC001FFFFFFFFFFFFFFFFFFFFFFFFFFE0007FFFF
310
F000FFFF8000007FFFFFFFF8000FFFFFC0007FFFFF80007FFFFF0000007FFFFF
310
FFF8000007FFFFF800000000000000007FFFFFF0001FFFFFFFFFFFC00001FFFF
310
FFFFFFFFC00001FFFFFFFF000000000003FFFFE000007FFFF000FFFE0000000F
310
FFFFFFF0000FFFFF80007FFFFF80007FFFFC0000001FFFFFFFC0000001FFFFF8
310
00000000000000007FFFFFF0001FFFFFFFFFFE0000003FFFFFFFFFFE0000003F
310
FFFFFF000000000003FFFF0000000FFFF000FFF800000003FFFFFFF00007FFFF
310
80007FFFFF80007FFFF000000007FFFFFF000000003FFFF80000000000000000
310
7FFFFFF0001FFFFFFFFFF80000000FFFFFFFFFF80000000FFFFFFF0000000000
310
03FFFC00000003FFF000FFE000000000FFFFFFF00007FFFF80003FFFFF80007F
310
FFC000000001FFFFFC000000001FFFF800000000000000007FFFFFF0001FFFFF
310
FFFFE000000003FFFFFFFFE000000003FFFFFF000000000003FFF000000000FF
310
F000FF80000000007FFFFFF00007FFFF80003FFFFF80007FFF8000000000FFFF
310
F80000000007FFF800000000000000007FFFFFF0001FFFFFFFFFC000000001FF
310
FFFFFFC000000001FFFFFF000000000003FFC0000000007FF000FF0000000000
310
3FFFFFE00007FFFF00003FFFFF80007FFE00000000003FFFF00000000003FFF8
310
00000000000000007FFFFFF0001FFFFFFFFF8000000000FFFFFFFF8000000000
310
FFFFFF000000000003FF80000000003FF000FE00000000001FFFFFE00003FFFF
310
00003FFFFF80007FFC00000000001FFFE00000000001FFF8000001FFFE000000
310
7FFFFFF0001FFFFFFFFE00000000003FFFFFFE00000000003FFFFF0000000000
310
03FF00000000001FF000FC00000000000FFFFFE00003FFFF00001FFFFF80007F
310
F800000000001FFFC00000000000FFF8000001FFFE0000007FFFFFF0001FFFFF
310
FFFC00000000001FFFFFFC00000000001FFFFF000000000003FE00000000000F
310
F000F8000000000007FFFFE00003FFFF00001FFFFF80007FF800000000000FFF
310
800000000000FFF8000001FFFE0000007FFFFFF0001FFFFFFFF800000000000F
310
FFFFF800000000000FFFFF000000000003FC000000000007F000F80000000000
310
03FFFFC00003FFFE00001FFFFF80007FF0000000000007FF0000000000007FF8
310
000001FFFE0000007FFFFFF0001FFFFFFFF0000000000007FFFFF00000000000
310
07FFFF000000000003F8000000000003F000F0000000000003FFFFC00001FFFE
310
00001FFFFF80007FE0000000000007FE0000000000003FF8000001FFFE000000
310
7FFFFFF0001FFFFFFFF0000000000007FFFFF0000000000007FFFF0000000000
310
03F800001F800003F000E00001FFF00001FFFFC00001FFFE00000FFFFF80007F
310
E00001FFE00003FE00001FFF00003FF8000001FFFE0000007FFFFFF0001FFFFF
310
FFE000003E000003FFFFE000003E000003FFFF000000000003F00001FFF80001
310
F000E00007FFFC0001FFFFC00001FFFE00000FFFFF80007FC0000FFFFC0003FC
310
0000FFFFC0001FF8000001FFFE0000007FFFFFF0001FFFFFFFC00003FFE00001
310
FFFFC00003FFE00001FFFF0001FFFFFFFFF00007FFFE0001F000E0000FFFFF00
310
00FFFF800001FFFC00000FFFFF80007FC0001FFFFE0001FC0001FFFFE0001FF8
310
000001FFFE0000007FFFFFF0001FFFFFFF80000FFFF80000FFFF80000FFFF800
310
00FFFF0003FFFFFFFFE0000FFFFF8000F000C0003FFFFF8000FFFF800000FFFC
310
000007FFFF80007F80003FFFFF0001FC0003FFFFF0001FF8000001FFFE000000
310
7FFFFFF0001FFFFFFF80003FFFFE0000FFFF80003FFFFE0000FFFF0003FFFFFF
310
FFE0003FFFFF8000F000C0003FFFFF8000FFFF800000FFFC000007FFFF80007F
310
80007FFFFF8001F80007FFFFF8000FF8000001FFFE0000007FFFFFF0001FFFFF
310
FF00007FFFFF00007FFF00007FFFFF00007FFF0003FFFFFFFFE0003FFFFFC000
310
F000C0007FFFFFC000FFFF000000FFFC000007FFFF80007F8000FFFFFF8000F8
310
000FFFFFF8000FF8000001FFFE0000007FFFFFF0001FFFFFFF0000FFFFFF8000
310
7FFF0000FFFFFF80007FFF0003FFFFFFFFC0007FFFFFC00070008000FFFFFFC0
310
00FFFF000000FFF8000007FFFF80007F8000FFFFFF8000F8000FFFFFF8000FF8
310
000001FFFE0000007FFFFFF0001FFFFFFE0001FFFFFFC0003FFE0001FFFFFFC0
310
003FFF0003FFFFFFFFC0007FFFFFE00070008000FFFFFFC0007FFF0000007FF8
310
000003FFFF80007F0001FFFFFF8000F8000FFFFFF8000FF8000001FFFE000000
310
7FFFFFF0001FFFFFFE0001FFFFFFC0003FFE0001FFFFFFC0003FFF0003FFFFFF
310
FFC000FFFFFFE00070008000FFFFFFC0007FFF0000007FF8000003FFFF80007F
310
0001FFFFFF8000F8001FFFFFF8000FF8000001FFFE0000007FFFFFF0001FFFFF
310
FE0003FFFFFFE0003FFE0003FFFFFFE0003FFF0003FFFFFFFFC000FFFFFFE000
310
70008000FFFFFFC0007FFE0000007FF8000003FFFF80007F0001FFFFFF8000F0
310
001FFFFFF8000FF8000001FFFE0000007FFFFFF0001FFFFFFC0003FFFFFFE000
310
1FFC0003FFFFFFE0001FFF0003FFFFFFFFC000FFFFFFC00070008000FFFFFF80
310
007FFE0000007FF0000003FFFF80007F0001FFFFFF0000F0001FFFFFF8000FF8
310
000001FFFE0000007FFFFFF0001FFFFFFC0007FFFFFFF0001FFC0007FFFFFFF0
310
001FFF0003FFFFFFFFC000FFFFFFC00070008001FFFFFF0000FFFE0000003FF0
310
000001FFFF80007F0001FFFFFF0000F8001FFFFFF0000FF8000001FFFE000000
310
7FFFFFF0001FFFFFFC0007FFFFFFF0001FFC0007FFFFFFF0001FFF0003FFFFFF
310
FFC001FFFFFF80007000FFFFFFFFFE0000FFFE0008003FF0008001FFFF80007F
310
FFFFFFFFFC0000FFFFFFFFFFE0000FF8000001FFFE0000007FFFFFF0001FFFFF
310
F8000FFFFFFFF8000FF8000FFFFFFFF8000FFF0003FFFFFFFFFFFFFFFFFF0000
310
7000FFFFFFFFFC0000FFFC0008003FF0008001FFFF80007FFFFFFFFFF80001FF
310
FFFFFFFF80000FF8000001FFFE0000007FFFFFF0001FFFFFF8000FFFFFFFF800
310
0FF8000FFFFFFFF8000FFF0003FFFFFFFFFFFFFFFFFE0000F000FFFFFFFFE000
310
00FFFC000C003FE000C001FFFF80007FFFFFFFFFC00001FFFFFFFFFE00001FF8
310
000001FFFE0000007FFFFFF0001FFFFFF8000FFFFFFFF8000FF8000FFFFFFFF8
310
000FFF0003FFFFFFFFFFFFFFFFF00000F000FFFFFFFE000001FFFC000C001FE0
310
00C000FFFF80007FFFFFFFFE000001FFFFFFFFE000001FF80FFFFFFFFFFFFFC0
310
7FFFFFF0001FFFFFF8000FFFFFFFF8000FF8000FFFFFFFF8000FFF0003FFFFFF
310
FFFFFFFFFF800000F000FFFFFFC0000001FFFC001C001FE001C000FFFF80007F
310
FFFFFF80000003FFFFFFF80000001FF80FFFFFFFFFFFFFC07FFFFFF0001FFFFF
310
F8001FFFFFFFFC000FF8001FFFFFFFFC000FFF0003FFFFFFFFFFFFFFF0000001
310
F000FFFFF800000001FFF8001C001FE001C000FFFF80007FFFFFF800000003FF
310
FFFF800000003FF80FFFFFFFFFFFFFC07FFFFFF0001FFFFFF8001FFFFFFFFC00
310
0FF8001FFFFFFFFC000FFF0003FFFFFFFFFFFFFE00000001F000FFFFC0000000
310
03FFF8001E001FC001E000FFFF80007FFFFF8000000007FFFFFC000000003FF8
310
0FFFFFFFFFFFFFC07FFFFFF0001FFFFFF8001FFFFFFFFC000FF8001FFFFFFFFC
310
000FFF0003FFFFFFFFFFFFE000000003F000FFFE0000000007FFF8001E000FC0
310
01E0007FFF80007FFFFE0000000007FFFFE0000000007FF80FFFFFFFFFFFFFC0
310
7FFFFFF0001FFFFFF0001FFFFFFFFC0007F0001FFFFFFFFC0007FF0003FFFFFF
310
FFFFFF0000000003F000FFF80000000007FFF8001E000FC003E0007FFF80007F
310
FFF0000000000FFFFF8000000000FFF80FFFFFFFFFFFFFC07FFFFFF0001FFFFF
310
F0001FFFFFFFFC0007F0001FFFFFFFFC0007FF0003FFFFFFFFFFFC0000000007
310
F000FFE0000000000FFFF0003E000FC003E0007FFF80007FFFC0000000001FFF
310
FE0000000001FFF80FFFFFFFFFFFFFC07FFFFFF0001FFFFFF0001FFFFFFFFC00
310
07F0001FFFFFFFFC0007FF0003FFFFFFFFFFF0000000000FF000FFC000000000
310
1FFFF0003F000F8003F0003FFF80007FFF80000000003FFFF80000000003FFF8
310
0FFFFFFFFFFFFFC07FFFFFF0001FFFFFF0001FFFFFFFFC0007F0001FFFFFFFFC
310
0007FF0003FFFFFFFFFFE0000000001FF000FF00000000007FFFF0003F000780
310
03F0003FFF80007FFF00000000007FFFF00000000007FFF80FFFFFFFFFFFFFC0
310
7FFFFFF0001FFFFFF0001FFFFFFFFC0007F0001FFFFFFFFC0007FF0003FFFFFF
310
FFFF80000000007FF000FE0000000000FFFFE0003F00078007F0003FFF80007F
310
FE0000000001FFFFE0000000001FFFF80FFFFFFFFFFFFFC07FFFFFF0001FFFFF
310
F0001FFFFFFFFC0007F0001FFFFFFFFC0007FF0003FFFFFFFFFF0000000000FF
310
F000FC0000000003FFFFE0007F00078007F0003FFF80007FFC0000000007FFFF
310
C0000000007FFFF80FFFFFFFFFFFFFC07FFFFFF0001FFFFFF8001FFFFFFFFC00
310
0FF8001FFFFFFFFC000FFF0003FFFFFFFFFE0000000003FFF000FC000000000F
310
FFFFE0007F80070007F8001FFF80007FF8000000001FFFFF8000000001FFFFF8
310
0FFFFFFFFFFFFFC07FFFFFF0001FFFFFF8001FFFFFFFFC000FF8001FFFFFFFFC
310
000FFF0003FFFFFFFFFC000000000FFFF000F8000000007FFFFFE0007F800700
310
07F8001FFF80007FF000000000FFFFFF800000000FFFFFF80FFFFFFFFFFFFFC0
310
7FFFFFF0001FFFFFF8000FFFFFFFF8000FF8000FFFFFFFF8000FFF0003FFFFFF
310
FFFC000000007FFFF000F800000007FFFFFFC0007F8003000FF8001FFF80007F
310
F000000007FFFFFF000000007FFFFFF80FFFFFFFFFFFFFC07FFFFFF0001FFFFF
310
F8000FFFFFFFF8000FF8000FFFFFFFF8000FFF0003FFFFFFFFF80000000FFFFF
310
F000F0000000FFFFFFFFC000FF8003000FF8001FFF80007FE0000000FFFFFFFF
310
0000000FFFFFFFF8000001FFFE0000007FFFFFF0001FFFFFF8000FFFFFFFF800
310
0FF8000FFFFFFFF8000FFF0003FFFFFFFFF8000000FFFFFFF000F000000FFFFF
310
FFFFC000FFC002000FF8000FFF80007FE000001FFFFFFFFE000001FFFFFFFFF8
310
000001FFFE0000007FFFFFF0001FFFFFF8000FFFFFFFF8000FF8000FFFFFFFF8
310
000FFF0003FFFFFFFFF000001FFFFFFFF000E00000FFFFFFFFFFC000FFC00200
310
0FFC000FFF80007FE00001FFFFFFFFFE00001FFFFFFFFFF8000001FFFE000000
310
7FFFFFF0001FFFFFFC000FFFFFFFF8001FFC000FFFFFFFF8001FFF0003FFFFFF
310
FFF00001FFFFFFFFF000E00007FFFFFFFFFF8000FFC000001FFC000FFF80007F
310
C0000FFFFFFFFFFE0000FFFFFFFFFFF8000001FFFE0000007FFFFFF0001FFFFF
310
FC0007FFFFFFF0001FFC0007FFFFFFF0001FFF0003FFFFFFFFF00007FFFFFFFF
310
F000E0001FFFFFFFFFFF8000FFC000001FFC000FFF80007FC0003FFFFFFFFFFE
310
0001FFFFFFFFFFF8000001FFFE0000007FFFFFF0001FFFFFFC0007FFFFFFF000
310
1FFC0007FFFFFFF0001FFF0003FFFFFFFFF0001FFFFFFFFFF000E0003FFFFF00
310
03FF8001FFE000001FFC0007FF80007FC0007FFFFF0007FC0003FFFFF0003FF8
310
000001FFFE0000007FFFFFF0001FFFFFFC0003FFFFFFE0001FFC0003FFFFFFE0
310
001FFF0003FFFFFFFFF0003FFFFFFFFFF000E0003FFFFF0001FF8001FFE00000
310
1FFE0007FF80007FC0007FFFFE0003FC0007FFFFE0003FF8000001FFFE000000
310
7FFFFFF0001FFFFFFE0003FFFFFFE0003FFE0003FFFFFFE0003FFF0003FFFFFF
310
FFF0003FFFFF8001F000E0003FFFFF0001FF0001FFE000001FFE0007FF80007F
310
C0007FFFFE0003FC0007FFFFE0003FF8000001FFFE0000007FFFFFF0001FFFFF
310
FE0001FFFFFFC0003FFE0001FFFFFFC0003FFF0003FFFFFFFFF0003FFFFF0001
310
F000E0003FFFFF0003FF0001FFE000003FFE0007FF80007FC0007FFFFE0003FC
310
0007FFFFE0003FF8000001FFFE0000007FFFFFF0001FFFFFFF0001FFFFFFC000
310
7FFF0001FFFFFFC0007FFF0003FFFFFFFFF0003FFFFF0001F000E0003FFFFE00
310
03FF0003FFF000003FFE0003FF80007FC0007FFFFC0003FE0007FFFFE0003FF8
310
000001FFFE0000007FFFFFF0001FFFFFFF0000FFFFFF80007FFF0000FFFFFF80
310
007FFF0003FFFFFFFFF0003FFFFF0001F000E0003FFFFE0003FF0003FFF00000
310
3FFF0003FF80007FC0007FFFFC0007FE0007FFFFC0003FF8000001FFFE000000
310
7FFFFFF0001FFFFFFF80007FFFFF0000FFFF80007FFFFF0000FFFF0003FFFFFF
310
FFF0003FFFFF0003F000E0003FFFFC0003FE0003FFF000003FFF0003FF80007F
310
E0003FFFF80007FE0003FFFFC0007FF8000001FFFE0000007FFFFFF0001FFFFF
310
FF80003FFFFE0000FFFF80003FFFFE0000FFFF0003FFFFFFFFF0001FFFFE0003
310
F000F0001FFFF80003FE0003FFF000007FFF0001FF80007FE0003FFFF00007FE
310
0001FFFF80007FF8000001FFFE0000007FFFFFF0001FFFFFFFC0000FFFF80001
310
FFFFC0000FFFF80001FFFF0003FFFFFFFFF0001FFFFC0003F000F0000FFFF000
310
07FE0007FFF800007FFF0001FF80007FE0001FFFE00007FF0000FFFE00007FF8
310
000001FFFE0000007FFFFFF0001FFFFFFFC00003FFE00001FFFFC00003FFE000
310
01FFFF0003FFFFFFFFF8000FFFF80003F000F00003FFC00007FC0007FFF80000
310
7FFF8001FF80007FF00007FF80000FFF00007FF80000FFF8000001FFFE000000
310
7F80000000000001FFE000003E000003FFFFE000003E000003FFFF0003FFFFFF
310
FFF80003FFE00007F000F800000000000FFC0007FFF800007FFF8001FF80007F
310
F000000000000FFF000000000000FFF8000001FFFE0000007F80000000000001
310
FFF0000000000007FFFFF0000000000007FFFF0003FFFFFFFFFC00007E000007
310
F000F800000000000FFC0007FFF80000FFFF8000FF80007FF800000000001FFF
310
800000000001FFF8000001FFFE0000007F80000000000001FFF800000000000F
310
FFFFF800000000000FFFFF0003FFFFFFFFFC00000000000FF000FC0000000000
310
1FFC0007FFFC0000FFFF8000FF80007FF800000000003FFFC00000000001FFF8
310
000001FFFE0000007F80000000000001FFF800000000000FFFFFF80000000000
310
0FFFFF0003FFFFFFFFFE00000000001FF000FE00000000003FF8000FFFFC0000
310
FFFF8000FF80007FFC00000000003FFFC00000000003FFF8000001FFFE000000
310
7F80000000000001FFFC00000000001FFFFFFC00000000001FFFFF0003FFFFFF
310
FFFF00000000001FF000FF00000000003FF8000FFFFC0000FFFFC000FF80007F
310
FE00000000007FFFE00000000007FFF8000001FFFE0000007F80000000000001
310
FFFE00000000003FFFFFFE00000000003FFFFF0003FFFFFFFFFF80000000003F
310
F000FF80000000007FF8000FFFFC0001FFFFC0007F80007FFF0000000000FFFF
310
F0000000000FFFF800000000000000007F80000000000001FFFF8000000000FF
310
FFFFFF8000000000FFFFFF0003FFFFFFFFFFC0000000007FF000FFC000000000
310
FFF8000FFFFE0001FFFFC0007F80007FFF8000000001FFFFF8000000001FFFF8
310
00000000000000007F80000000000001FFFFC000000001FFFFFFFFC000000001
310
FFFFFF0003FFFFFFFFFFE000000000FFF000FFE000000003FFF0001FFFFE0001
310
FFFFC0007F80007FFFC000000007FFFFFE000000003FFFF80000000000000000
310
7F80000000000001FFFFE000000003FFFFFFFFE000000003FFFFFF0003FFFFFF
310
FFFFF000000003FFF000FFF80000000FFFF0001FFFFE0001FFFFE0007F80007F
310
FFF00000000FFFFFFF00000000FFFFF800000000000000007F80000000000001
310
FFFFF80000000FFFFFFFFFF80000000FFFFFFF0003FFFFFFFFFFFC0000000FFF
310
F000FFFE0000003FFFF0001FFFFE0003FFFFE0003F80007FFFFC0000003FFFFF
310
FFC0000003FFFFF800000000000000007F80000000000001FFFFFE0000003FFF
310
FFFFFFFE0000003FFFFFFF0003FFFFFFFFFFFF0000003FFFF000FFFF800000FF
310
FFF0001FFFFF0003FFFFE0003F80007FFFFF000001FFFFFFFFF800001FFFFFF8
310
00000000000000007F80000000000001FFFFFFC00001FFFFFFFFFFFFC00001FF
310
FFFFFF0003FFFFFFFFFFFFC00000FFFFF000FFFFF8000FFFFFFFFFFFFFFFFFFF
310
FFFFFFFFFFFFFFFFFFFFF0001FFFFFFFFFFF0000FFFFFFF80000000000000000
310
7FFFFFFFFFFFFFFFFFFFFFFC001FFFFFFFFFFFFFFC001FFFFFFFFFFFFFFFFFFF
310
FFFFFFFC001FFFFFF000FFFFFFFFFFFFFFFFFFFFFFFFFFFFFFFFFFFFFFFFFFFF
310
FFFFFFFFFFFFFFFFFFFFFFFFFFFFFFFFFFFFFFFFFFFFFFFFFFFFFFFFFFFFFFFF
310
FFFFFFFFFFFFFFFFFFFFFFFFFFFFFFFFFFFFFFFFFFFFFFFFFFFFFFFFFFFFFFFF
310
F000FFFFFFFFFFFFFFFFFFFFFFFFFFFFFFFFFFFFFFFFFFFFFFFFFFFFFFFFFFFF
310
FFFFFFFFFFFFFFFFFFFFFFFFFFFFFFFFFFFFFFFFFFFFFFFFFFFFFFFFFFFFFFFF
310
FFFFFFFFFFFFFFFFFFFFFFFFFFFFFFFFFFFFFFFFFFFFFFFFF000FFFFFFFFFFFF
310
FFFFFFFFFFFFFFFFFFFFFFFFFFFFFFFFFFFFFFFFFFFFFFFFFFFFFFFFFFFFFFFF
310
FFFFFFFFFFFFFFFFFFFFFFFFFFFFFFFFFFFFFFFFFFFFFFFFFFFFFFFFFFFFFFFF
310
FFFFFFFFFFFFFFFFFFFFFFFFFFFFFFFFF000FFFFFFFFFFFFFFFFFFFFFFFFFFFF
310
FFFFFFFFFFFFFFFFFFFFFFFFFFFFFFFFFFFFFFFFFFFFFFFFFFFFFFFFFFFFFFFF
310
FFFFFFFFFFFFFFFFFFFFFFFFFFFFFFFFFFFFFFFFFFFFFFFFFFFFFFFFFFFFFFFF
310
FFFFFFFFFFFFFFFFF000FFFFFFFFFFFFFFFFFFFFFFFFFFFFFFFFFFFFFFFFFFFF
310
FFFFFFFFFFFFFFFFFFFFFFFFFFFFFFFFFFFFFFFFFFFFFFFFFFFFFFFFFFFFFFFF
310
FFFFFFFFFFFFFFFFFFFFFFFFFFFFFFFFFFFFFFFFFFFFFFFFFFFFFFFFFFFFFFFF
310
F000FFFFFFFFFFFFFFFFFFFFFFFFFFFFFFFFFFFFFFFFFFFFFFFFFFFFFFFFFFFF
310
FFFFFFFFFFFFFFFFFFFFFFFFFFFFFFFFFFFFFFFFFFFFFFFFFFFFFFFFFFFFFFFF
310
FFFFFFFFFFFFFFFFFFFFFFFFFFFFFFFFFFFFFFFFFFFFFFFFF000FFFFFFFFFFFF
310
FFFFFFFFFFFFFFFFFFFFFFFFFFFFFFFFFFFFFFFFFFFFFFFFFFFFFFFFFFFFFFFF
310
FFFFFFFFFFFFFFFFFFFFFFFFFFFFFFFFFFFFFFFFFFFFFFFFFFFFFFFFFFFFFFFF
310
FFFFFFFFFFFFFFFFFFFFFFFFFFFFFFFFF000FFFFFFFFFFFFFFFFFFFFFFFFFFFF
310
FFFFFFFFFFFFFFFFFFFFFFFFFFFFFFFFFFFFFFFFFFFFFFFFFFFFFFFFFFFFFFFF
310
FFFFFFFFFFFFFFFFFFFFFFFFFFFFFFFFFFFFFFFFFFFFFFFFFFFFFFFFFFFFFFFF
310
FFFFFFFFFFFFFFFFF000FFFFFFFFFFFFFFFFFFFFFFFFFFFFFFFFFFFFFFFFFFFF
310
FFFFFFFFFFFFFFFFFFFFFFFFFFFFFFFFFFFFFFFFFFFFFFFFFFFFFFFFFFFFFFFF
310
FFFFFFFFFFFFFFFFFFFFFFFFFFFFFFFFFFFFFFFFFFFFFFFFFFFFFFFFFFFFFFFF
310
F000FFFFFFFFFFFFFFFFFFFFFFFFFFFFFFFFFFFFFFFFFFFFFFFFFFFFFFFFFFFF
310
FFFFFFFFFFFFFFFFFFFFFFFFFFFFFFFFFFFFFFFFFFFFFFFFFFFFFFFFFFFFFFFF
310
FFFFFFFFFFFFFFFFFFFFFFFFFFFFFFFFFFFFFFFFFFFFFFFFF000FFFFFFFFFFFF
310
FFFFFFFFFFFFFFFFFFFFFFFFFFFFFFFFFFFFFFFFFFFFFFFFFFFFFFFFFFFFFFFF
310
FFFFFFFFFFFFFFFFFFFFFFFFFFFFFFFFFFFFFFFFFFFFFFFFFFFFFFFFFFFFFFFF
310
FFFFFFFFFFFFFFFFFFFFFFFFFFFFFFFFF000FFFFFFFFFFFFFFFFFFFFFFFFFFFF
310
FFFFFFFFFFFFFFFFFFFFFFFFFFFFFFFFFFFFFFFFFFFFFFFFFFFFFFFFFFFFFFFF
310
FFFFFFFFFFFFFFFFFFFFFFFFFFFFFFFFFFFFFFFFFFFFFFFFFFFFFFFFFFFFFFFF
310
FFFFFFFFFFFFFFFFF000FFFFFFFFFFFFFFFFFFFFFFFFFFFFFFFFFFFFFFFFFFFF
310
FFFFFFFFFFFFFFFFFFFFFFFFFFFFFFFFFFFFFFFFFFFFFFFFFFFFFFFFFFFFFFFF
310
FFFFFFFFFFFFFFFFFFFFFFFFFFFFFFFFFFFFFFFFFFFFFFFFFFFFFFFFFFFFFFFF
310
F000FFFFFFFFFFFFFFFFFFFFFFFFFFFFFFFFFFFFFFFFFFFFFFFFFFFFFFFFFFFF
310
FFFFFFFFFFFFFFFFFFFFFFFFFFFFFFFFFFFFFFFFFFFFFFFFFFFFFFFFFFFFFFFF
310
FFFFFFFFFFFFFFFFFFFFFFFFFFFFFFFFFFFFFFFFFFFFFFFFF000FFFFFFFFFFFF
310
FFFFFFFFFFFFFFFFFFFFFFFFFFFFFFFFFFFFFFFFFFFFFFFFFFFFFFFFFFFFFFFF
310
FFFFFFFFFFFFFFFFFFFFFFFFFFFFFFFFFFFFFFFFFFFFFFFFFFFFFFFFFFFFFFFF
310
FFFFFFFFFFFFFFFFFFFFFFFFFFFFFFFFF000FFFFFFFFFFFFFFFFFFFFFFFFFFFF
310
FFFFFFFFFFFFFFFFFFFFFFFFFFFFFFFFFFFFFFFFFFFFFFFFFFFFFFFFFFFFFFFF
310
FFFFFFFFFFFFFFFFFFFFFFFFFFFFFFFFFFFFFFFFFFFFFFFFFFFFFFFFFFFFFFFF
310
FFFFFFFFFFFFFFFFF000FFFFFFFFFFFFFFFFFFFFFFFFFFFFFFFFFFFFFFFFFFFF
310
FFFFFFFFFFFFFFFFFFFFFFFFFFFFFFFFFFFFFFFFFFFFFFFFFFFFFFFFFFFFFFFF
310
FFFFFFFFFFFFFFFFFFFFFFFFFFFFFFFFFFFFFFFFFFFFFFFFFFFFFFFFFFFFFFFF
310
F000FFFFFFFFFFFFFFFFFFFFFFFFFFFFFFFFFFFFFFFFFFFFFFFFFFFFFFFFFFFF
310
FFFFFFFFFFFFFFFFFFFFFFFFFFFFFFFFFFFFFFFFFFFFFFFFFFFFFFFFFFFFFFFF
310
FFFFFFFFFFFFFFFFFFFFFFFFFFFFFFFFFFFFFFFFFFFFFFFFF000FFFFFFFFFFFF
310
FFFFFFFFFFFFFFFFFFFFFFFFFFFFFFFFFFFFFFFFFFFFFFFFFFFFFFFFFFFFFFFF
310
FFFFFFFFFFFFFFFFFFFFFFFFFFFFFFFFFFFFFFFFFFFFFFFFFFFFFFFFFFFFFFFF
310
FFFFFFFFFFFFFFFFFFFFFFFFFFFFFFFFF000FFFFFFFFFFFFFFFFFFFFFFFFFFFF
310
FFFFFFFFFFFFFFFFFFFFFFFFFFFFFFFFFFFFFFFFFFFFFFFFFFFFFFFFFFFFFFFF
310
FFFFFFFFFFFFFFFFFFFFFFFFFFFFFFFFFFFFFFFFFFFFFFFFFFFFFFFFFFFFFFFF
310
FFFFFFFFFFFFFFFFF000FFFFFFFFFFFFFFFFFFFFFFFFFFFFFFFFFFFFFFFFFFFF
310
FFFFFFFFFFFFFFFFFFFFFFFFFFFFFFFFFFFFFFFFFFFFFFFFFFFFFFFFFFFFFFFF
310
FFFFFFFFFFFFFFFFFFFFFFFFFFFFFFFFFFFFFFFFFFFFFFFFFFFFFFFFFFFFFFFF
310
F000FFFFFFFFFFFFFFFFFFFFFFFFFFFFFFFFFFFFFFFFFFFFFFFFFFFFFFFFFFFF
310
FFFFFFFFFFFFFFFFFFFFFFFFFFFFFFFFFFFFFFFFFFFFFFFFFFFFFFFFFFFFFFFF
310
FFFFFFFFFFFFFFFFFFFFFFFFFFFFFFFFFFFFFFFFFFFFFFFFF000FFFFFFFFFFFF
310
FFFFFFFFFFFFFFFFFFFFFFFFFFFFFFFFFFFFFFFFFFFFFFFFFFFFFFFFFFFFFFFF
310
FFFFFFFFFFFFFFFFFFFFFFFFFFFFFFFFFFFFFFFFFFFFFFFFFFFFFFFFFFFFFFFF
310
FFFFFFFFFFFFFFFFFFFFFFFFFFFFFFFFF0000000000000000000000000000000
310
0000000000000000000000000000000000000000000000000000000000000000
310
0000000000000000000000000000000000000000000000000000000000000000
310
0000000000000000000000000000000000000000000000000000000000000000
310
0000000000000000000000000000000000000000000000000000000000000000
310
0000000000000000000000000000000000000000000000000000000000000000
310
0000000000000000000000000000000000000000000000000000000000000000
310
0000000000000000000000000000000000000000000000000000000000000000
310
0000000000000000000000000000000000000000000000000000000000000000
310
0000000000000000000000000000000000000000000000000000000000000000
310
0000000000000000000000000000000000000000000000000000000000000000
310
0000000000000000000000000000000000000000000000000000000000000000
310
0000000000000000000000000000000000000000000000000000000000000000
310
0000000000000000000000000000000000000000000000000000000000000000
310
0000000000000000000000000000000000000000000000000000000000000000
310
0000000000000000000000000000000000000000000000000000000000000000
  1
OLE
  0
ENDSEC
  0
SECTION
  2
OBJECTS
  0
DICTIONARY
  5
C
330
0
100
AcDbDictionary
281
     1
  3
ACAD_GROUP
350
D
  3
ACAD_LAYOUT
350
1A
  3
ACAD_MLINESTYLE
350
17
  3
ACAD_PLOTSETTINGS
350
19
  3
ACAD_PLOTSTYLENAME
350
E
  0
DICTIONARY
  5
D
102
{ACAD_REACTORS
330
C
102
}
330
C
100
AcDbDictionary
281
     1
  0
DICTIONARY
  5
1A
102
{ACAD_REACTORS
330
C
102
}
330
C
100
AcDbDictionary
281
     1
  3
Layout1
350
1E
  3
Layout2
350
26
  3
Model
350
22
  0
DICTIONARY
  5
17
102
{ACAD_REACTORS
330
C
102
}
330
C
100
AcDbDictionary
281
     1
  3
Standard
350
18
  0
DICTIONARY
  5
19
102
{ACAD_REACTORS
330
C
102
}
330
C
100
AcDbDictionary
281
     1
  0
ACDBDICTIONARYWDFLT
  5
E
102
{ACAD_REACTORS
330
C
102
}
330
C
100
AcDbDictionary
281
     1
  3
Normal
350
F
100
AcDbDictionaryWithDefault
340
F
  0
LAYOUT
  5
1E
102
{ACAD_REACTORS
330
1A
102
}
330
1A
100
AcDbPlotSettings
  1

  2
none_device
  4

  6

 40
0.0
 41
0.0
 42
0.0
 43
0.0
 44
0.0
 45
0.0
 46
0.0
 47
0.0
 48
0.0
 49
0.0
140
0.0
141
0.0
142
1.0
143
1.0
 70
   688
 72
     0
 73
     0
 74
     5
  7

 75
    16
147
1.0
148
0.0
149
0.0
100
AcDbLayout
  1
Layout1
 70
     1
 71
     1
 10
0.0
 20
0.0
 11
420.0
 21
297.0
 12
0.0
 22
0.0
 32
0.0
 14
1.0000000000E+20
 24
1.0000000000E+20
 34
1.0000000000E+20
 15
-1.0000000000E+20
 25
-1.0000000000E+20
 35
-1.0000000000E+20
146
0.0
 13
0.0
 23
0.0
 33
0.0
 16
1.0
 26
0.0
 36
0.0
 17
0.0
 27
1.0
 37
0.0
 76
     0
330
1B
  0
LAYOUT
  5
26
102
{ACAD_REACTORS
330
1A
102
}
330
1A
100
AcDbPlotSettings
  1

  2
none_device
  4

  6

 40
0.0
 41
0.0
 42
0.0
 43
0.0
 44
0.0
 45
0.0
 46
0.0
 47
0.0
 48
0.0
 49
0.0
140
0.0
141
0.0
142
1.0
143
1.0
 70
   688
 72
     0
 73
     0
 74
     5
  7

 75
    16
147
1.0
148
0.0
149
0.0
100
AcDbLayout
  1
Layout2
 70
     1
 71
     2
 10
0.0
 20
0.0
 11
0.0
 21
0.0
 12
0.0
 22
0.0
 32
0.0
 14
0.0
 24
0.0
 34
0.0
 15
0.0
 25
0.0
 35
0.0
146
0.0
 13
0.0
 23
0.0
 33
0.0
 16
1.0
 26
0.0
 36
0.0
 17
0.0
 27
1.0
 37
0.0
 76
     0
330
23
  0
LAYOUT
  5
22
102
{ACAD_REACTORS
330
1A
102
}
330
1A
100
AcDbPlotSettings
  1

  2
none_device
  4

  6

 40
0.0
 41
0.0
 42
0.0
 43
0.0
 44
0.0
 45
0.0
 46
0.0
 47
0.0
 48
0.0
 49
0.0
140
0.0
141
0.0
142
1.0
143
1.0
 70
  1712
 72
     0
 73
     0
 74
     0
  7

 75
     0
147
1.0
148
0.0
149
0.0
100
AcDbLayout
  1
Model
 70
     1
 71
     0
 10
0.0
 20
0.0
 11
297.0
 21
210.0
 12
0.0
 22
0.0
 32
0.0
 14
0.0
 24
0.0
 34
0.0
 15
297.0
 25
210.0
 35
0.0
146
0.0
 13
0.0
 23
0.0
 33
0.0
 16
1.0
 26
0.0
 36
0.0
 17
0.0
 27
1.0
 37
0.0
 76
     0
330
1F
331
29
  0
MLINESTYLE
  5
18
102
{ACAD_REACTORS
330
17
102
}
330
17
100
AcDbMlineStyle
  2
Standard
 70
     0
  3

 62
   256
 51
90.0
 52
90.0
 71
     2
 49
0.5
 62
   256
  6
BYLAYER
 49
-0.5
 62
   256
  6
BYLAYER
  0
ACDBPLACEHOLDER
  5
F
102
{ACAD_REACTORS
330
E
102
}
330
E
  0
ENDSEC
  0
EOF
