  0
SECTION
  2
HEADER
  9
$ACADVER
  1
AC1015
  9
$ACADMAINTVER
 70
     6
  9
$DWGCODEPAGE
  3
ANSI_1252
  9
$INSBASE
 10
0.0
 20
0.0
 30
0.0
  9
$EXTMIN
 10
0.0
 20
0.0
 30
0.0
  9
$EXTMAX
 10
297.0
 20
210.0
 30
0.0
  9
$LIMMIN
 10
0.0
 20
0.0
  9
$LIMMAX
 10
297.0
 20
210.0
  9
$ORTHOMODE
 70
     0
  9
$REGENMODE
 70
     1
  9
$FILLMODE
 70
     1
  9
$QTEXTMODE
 70
     0
  9
$MIRRTEXT
 70
     1
  9
$LTSCALE
 40
1.0
  9
$ATTMODE
 70
     1
  9
$TEXTSIZE
 40
2.0
  9
$TRACEWID
 40
1.0
  9
$TEXTSTYLE
  7
Standard
  9
$CLAYER
  8
0
  9
$CELTYPE
  6
ByLayer
  9
$CECOLOR
 62
   256
  9
$CELTSCALE
 40
1.0
  9
$DISPSILH
 70
     0
  9
$DIMSCALE
 40
1.0
  9
$DIMASZ
 40
3.0
  9
$DIMEXO
 40
0.0
  9
$DIMDLI
 40
3.75
  9
$DIMRND
 40
0.0
  9
$DIMDLE
 40
0.0
  9
$DIMEXE
 40
1.0
  9
$DIMTP
 40
0.0
  9
$DIMTM
 40
0.0
  9
$DIMTXT
 40
2.0
  9
$DIMCEN
 40
2.5
  9
$DIMTSZ
 40
0.0
  9
$DIMTOL
 70
     0
  9
$DIMLIM
 70
     0
  9
$DIMTIH
 70
     1
  9
$DIMTOH
 70
     1
  9
$DIMSE1
 70
     0
  9
$DIMSE2
 70
     0
  9
$DIMTAD
 70
     1
  9
$DIMZIN
 70
     0
  9
$DIMBLK
  1

  9
$DIMASO
 70
     1
  9
$DIMSHO
 70
     1
  9
$DIMPOST
  1

  9
$DIMAPOST
  1

  9
$DIMALT
 70
     0
  9
$DIMALTD
 70
     3
  9
$DIMALTF
 40
0.0393700787
  9
$DIMLFAC
 40
1.0
  9
$DIMTOFL
 70
     1
  9
$DIMTVP
 40
0.0
  9
$DIMTIX
 70
     0
  9
$DIMSOXD
 70
     0
  9
$DIMSAH
 70
     0
  9
$DIMBLK1
  1

  9
$DIMBLK2
  1

  9
$DIMSTYLE
  2
ISO-25
  9
$DIMCLRD
 70
     0
  9
$DIMCLRE
 70
     0
  9
$DIMCLRT
 70
     0
  9
$DIMTFAC
 40
1.0
  9
$DIMGAP
 40
1.524
  9
$DIMJUST
 70
     0
  9
$DIMSD1
 70
     0
  9
$DIMSD2
 70
     0
  9
$DIMTOLJ
 70
     0
  9
$DIMTZIN
 70
     0
  9
$DIMALTZ
 70
     0
  9
$DIMALTTZ
 70
     0
  9
$DIMUPT
 70
     0
  9
$DIMDEC
 70
     2
  9
$DIMTDEC
 70
     3
  9
$DIMALTU
 70
     2
  9
$DIMALTTD
 70
     3
  9
$DIMTXSTY
  7
Standard
  9
$DIMAUNIT
 70
     0
  9
$DIMADEC
 70
     2
  9
$DIMALTRND
 40
0.0
  9
$DIMAZIN
 70
     0
  9
$DIMDSEP
 70
    44
  9
$DIMATFIT
 70
     3
  9
$DIMFRAC
 70
     0
  9
$DIMLDRBLK
  1

  9
$DIMLUNIT
 70
     2
  9
$DIMLWD
 70
    -2
  9
$DIMLWE
 70
    -2
  9
$DIMTMOVE
 70
     0
  9
$LUNITS
 70
     2
  9
$LUPREC
 70
     2
  9
$SKETCHINC
 40
1.0
  9
$FILLETRAD
 40
10.0
  9
$AUNITS
 70
     0
  9
$AUPREC
 70
     2
  9
$MENU
  1
.
  9
$ELEVATION
 40
0.0
  9
$PELEVATION
 40
0.0
  9
$THICKNESS
 40
0.0
  9
$LIMCHECK
 70
     0
  9
$CHAMFERA
 40
10.0
  9
$CHAMFERB
 40
10.0
  9
$CHAMFERC
 40
20.0
  9
$CHAMFERD
 40
0.0
  9
$SKPOLY
 70
     0
  9
$TDCREATE
 40
2456098.387887581
  9
$TDUCREATE
 40
2456098.304554248
  9
$TDUPDATE
 40
2456098.387889028
  9
$TDUUPDATE
 40
2456098.304555695
  9
$TDINDWG
 40
0.0000000116
  9
$TDUSRTIMER
 40
0.0000000116
  9
$USRTIMER
 70
     1
  9
$ANGBASE
 50
0.0
  9
$ANGDIR
 70
     0
  9
$PDMODE
 70
     0
  9
$PDSIZE
 40
-1.0
  9
$PLINEWID
 40
0.0
  9
$SPLFRAME
 70
     0
  9
$SPLINETYPE
 70
     6
  9
$SPLINESEGS
 70
     8
  9
$HANDSEED
  5
253
  9
$SURFTAB1
 70
     6
  9
$SURFTAB2
 70
     6
  9
$SURFTYPE
 70
     6
  9
$SURFU
 70
     6
  9
$SURFV
 70
     6
  9
$UCSBASE
  2

  9
$UCSNAME
  2

  9
$UCSORG
 10
0.0
 20
0.0
 30
0.0
  9
$UCSXDIR
 10
1.0
 20
0.0
 30
0.0
  9
$UCSYDIR
 10
0.0
 20
1.0
 30
0.0
  9
$UCSORTHOREF
  2

  9
$UCSORTHOVIEW
 70
     0
  9
$UCSORGTOP
 10
0.0
 20
0.0
 30
0.0
  9
$UCSORGBOTTOM
 10
0.0
 20
0.0
 30
0.0
  9
$UCSORGLEFT
 10
0.0
 20
0.0
 30
0.0
  9
$UCSORGRIGHT
 10
0.0
 20
0.0
 30
0.0
  9
$UCSORGFRONT
 10
0.0
 20
0.0
 30
0.0
  9
$UCSORGBACK
 10
0.0
 20
0.0
 30
0.0
  9
$PUCSBASE
  2

  9
$PUCSNAME
  2

  9
$PUCSORG
 10
0.0
 20
0.0
 30
0.0
  9
$PUCSXDIR
 10
1.0
 20
0.0
 30
0.0
  9
$PUCSYDIR
 10
0.0
 20
1.0
 30
0.0
  9
$PUCSORTHOREF
  2

  9
$PUCSORTHOVIEW
 70
     0
  9
$PUCSORGTOP
 10
0.0
 20
0.0
 30
0.0
  9
$PUCSORGBOTTOM
 10
0.0
 20
0.0
 30
0.0
  9
$PUCSORGLEFT
 10
0.0
 20
0.0
 30
0.0
  9
$PUCSORGRIGHT
 10
0.0
 20
0.0
 30
0.0
  9
$PUCSORGFRONT
 10
0.0
 20
0.0
 30
0.0
  9
$PUCSORGBACK
 10
0.0
 20
0.0
 30
0.0
  9
$USERI1
 70
     0
  9
$USERI2
 70
     0
  9
$USERI3
 70
     0
  9
$USERI4
 70
     0
  9
$USERI5
 70
     0
  9
$USERR1
 40
0.0
  9
$USERR2
 40
0.0
  9
$USERR3
 40
0.0
  9
$USERR4
 40
0.0
  9
$USERR5
 40
0.0
  9
$WORLDVIEW
 70
     1
  9
$SHADEDGE
 70
     3
  9
$SHADEDIF
 70
    70
  9
$TILEMODE
 70
     1
  9
$MAXACTVP
 70
    64
  9
$PINSBASE
 10
0.0
 20
0.0
 30
0.0
  9
$PLIMCHECK
 70
     0
  9
$PEXTMIN
 10
1.0000000000E+20
 20
1.0000000000E+20
 30
1.0000000000E+20
  9
$PEXTMAX
 10
-1.0000000000E+20
 20
-1.0000000000E+20
 30
-1.0000000000E+20
  9
$PLIMMIN
 10
0.0
 20
0.0
  9
$PLIMMAX
 10
420.0
 20
297.0
  9
$UNITMODE
 70
     0
  9
$VISRETAIN
 70
     1
  9
$PLINEGEN
 70
     0
  9
$PSLTSCALE
 70
     1
  9
$TREEDEPTH
 70
  3020
  9
$CMLSTYLE
  2
Standard
  9
$CMLJUST
 70
     0
  9
$CMLSCALE
 40
20.0
  9
$PROXYGRAPHICS
 70
     1
  9
$MEASUREMENT
 70
     1
  9
$CELWEIGHT
370
    -1
  9
$ENDCAPS
280
     0
  9
$JOINSTYLE
280
     0
  9
$LWDISPLAY
290
     1
  9
$INSUNITS
 70
     4
  9
$HYPERLINKBASE
  1

  9
$STYLESHEET
  1

  9
$XEDIT
290
     1
  9
$CEPSNTYPE
380
     0
  9
$PSTYLEMODE
290
     1
  9
$FINGERPRINTGUID
  2
{3E7D569A-1067-48E2-9F17-F6E92E33F1BA}
  9
$VERSIONGUID
  2
{FAEB1C32-E019-11D5-929B-00C0DF256EC4}
  9
$EXTNAMES
290
     1
  9
$PSVPSCALE
 40
0.0
  9
$OLESTARTUP
290
     0
  0
ENDSEC
  0
SECTION
  2
CLASSES
  0
CLASS
  1
ACDBDICTIONARYWDFLT
  2
AcDbDictionaryWithDefault
  3
ObjectDBX Classes
 90
        0
280
     0
281
     0
  0
CLASS
  1
VISUALSTYLE
  2
AcDbVisualStyle
  3
ObjectDBX Classes
 90
     4095
280
     0
281
     0
  0
CLASS
  1
MATERIAL
  2
AcDbMaterial
  3
ObjectDBX Classes
 90
     1153
280
     0
281
     0
  0
CLASS
  1
ACDBPLACEHOLDER
  2
AcDbPlaceHolder
  3
ObjectDBX Classes
 90
        0
280
     0
281
     0
  0
CLASS
  1
LAYOUT
  2
AcDbLayout
  3
ObjectDBX Classes
 90
        0
280
     0
281
     0
  0
ENDSEC
  0
SECTION
  2
TABLES
  0
TABLE
  2
VPORT
  5
8
330
0
100
AcDbSymbolTable
 70
     1
  0
VPORT
  5
29
330
8
100
AcDbSymbolTableRecord
100
AcDbViewportTableRecord
  2
*Active
 70
     0
 10
0.0
 20
0.0
 11
1.0
 21
1.0
 12
148.5
 22
105.0
 13
0.0
 23
0.0
 14
10.0
 24
10.0
 15
10.0
 25
10.0
 16
0.0
 26
0.0
 36
1.0
 17
0.0
 27
0.0
 37
0.0
 40
210.0
 41
1.4142857143
 42
50.0
 43
0.0
 44
0.0
 50
0.0
 51
0.0
 71
     0
 72
  2000
 73
     1
 74
     3
 75
     0
 76
     0
 77
     0
 78
     0
281
     0
 65
     1
110
0.0
120
0.0
130
0.0
111
1.0
121
0.0
131
0.0
112
0.0
122
1.0
132
0.0
 79
     0
146
0.0
  0
ENDTAB
  0
TABLE
  2
LTYPE
  5
5
330
0
100
AcDbSymbolTable
 70
     6
  0
LTYPE
  5
14
330
5
100
AcDbSymbolTableRecord
100
AcDbLinetypeTableRecord
  2
ByBlock
 70
     0
  3

 72
    65
 73
     0
 40
0.0
  0
LTYPE
  5
15
330
5
100
AcDbSymbolTableRecord
100
AcDbLinetypeTableRecord
  2
ByLayer
 70
     0
  3

 72
    65
 73
     0
 40
0.0
  0
LTYPE
  5
16
330
5
100
AcDbSymbolTableRecord
100
AcDbLinetypeTableRecord
  2
Continuous
 70
     0
  3
Solid line
 72
    65
 73
     0
 40
0.0
  0
LTYPE
  5
3F
330
5
100
AcDbSymbolTableRecord
100
AcDbLinetypeTableRecord
  2
HIDDEN
 70
     0
  3
Hidden __ __ __ __ __ __ __ __ __ __ __ __ __ __
 72
    65
 73
     2
 40
1.905
 49
1.27
 74
     0
 49
-0.635
 74
     0
  0
LTYPE
  5
40
330
5
100
AcDbSymbolTableRecord
100
AcDbLinetypeTableRecord
  2
PHANTOM
 70
     0
  3
Phantom ______  __  __  ______  __  __  ______
 72
    65
 73
     6
 40
12.7
 49
6.35
 74
     0
 49
-1.27
 74
     0
 49
1.27
 74
     0
 49
-1.27
 74
     0
 49
1.27
 74
     0
 49
-1.27
 74
     0
  0
LTYPE
  5
41
330
5
100
AcDbSymbolTableRecord
100
AcDbLinetypeTableRecord
  2
CENTER
 70
     0
  3
Center ____ _ ____ _ ____ _ ____ _ ____ _ ____
 72
    65
 73
     4
 40
10.16
 49
6.35
 74
     0
 49
-1.27
 74
     0
 49
1.27
 74
     0
 49
-1.27
 74
     0
  0
LTYPE
  5
42
330
5
100
AcDbSymbolTableRecord
100
AcDbLinetypeTableRecord
  2
CENTERX2
 70
     0
  3
Center (2x) ________  __  ________  __  _____
 72
    65
 73
     4
 40
20.32
 49
12.7
 74
     0
 49
-2.54
 74
     0
 49
2.54
 74
     0
 49
-2.54
 74
     0
  0
LTYPE
  5
43
330
5
100
AcDbSymbolTableRecord
100
AcDbLinetypeTableRecord
  2
DOT2
 70
     0
  3
Dot (.5x) ........................................
 72
    65
 73
     2
 40
0.635
 49
0.0
 74
     0
 49
-0.635
 74
     0
  0
ENDTAB
  0
TABLE
  2
LAYER
  5
2
330
0
100
AcDbSymbolTable
 70
     5
  0
LAYER
  5
10
330
2
100
AcDbSymbolTableRecord
100
AcDbLayerTableRecord
  2
0
 70
     0
 62
     7
  6
Continuous
370
    -3
390
F
  0
LAYER
  5
44
330
2
100
AcDbSymbolTableRecord
100
AcDbLayerTableRecord
  2
FORMAT
 70
     0
 62
     7
  6
Continuous
370
    -3
390
F
  0
LAYER
  5
45
330
2
100
AcDbSymbolTableRecord
100
AcDbLayerTableRecord
  2
VERMASSUNG
 70
     0
 62
     7
  6
Continuous
370
    -3
390
F
  0
LAYER
  5
46
330
2
100
AcDbSymbolTableRecord
100
AcDbLayerTableRecord
  2
KOPF_DÜNN
 70
     0
 62
     7
  6
Continuous
370
    -3
390
F
  0
LAYER
  5
47
330
2
100
AcDbSymbolTableRecord
100
AcDbLayerTableRecord
  2
KOPF_DICK
 70
     0
 62
     7
  6
Continuous
370
    15
390
F
  0
ENDTAB
  0
TABLE
  2
STYLE
  5
3
330
0
100
AcDbSymbolTable
 70
     3
  0
STYLE
  5
11
330
3
100
AcDbSymbolTableRecord
100
AcDbTextStyleTableRecord
  2
Standard
 70
     0
 40
0.0
 41
1.0
 50
0.0
 71
     0
 42
2.0
  3
txt
  4

  0
STYLE
  5
48
330
3
100
AcDbSymbolTableRecord
100
AcDbTextStyleTableRecord
  2
SLDTEXTSTYLE0
 70
     0
 40
0.0
 41
0.7
 50
0.0
 71
     0
 42
0.2
  3
TXT
  4

  0
STYLE
  5
4C
330
3
100
AcDbSymbolTableRecord
100
AcDbTextStyleTableRecord
  2
SLDTEXTSTYLE1
 70
     0
 40
0.0
 41
0.6538461538
 50
0.0
 71
     0
 42
0.2
  3
TXT
  4

  0
ENDTAB
  0
TABLE
  2
VIEW
  5
6
330
0
100
AcDbSymbolTable
 70
     0
  0
ENDTAB
  0
TABLE
  2
UCS
  5
7
330
0
100
AcDbSymbolTable
 70
     0
  0
ENDTAB
  0
TABLE
  2
APPID
  5
9
330
0
100
AcDbSymbolTable
 70
     1
  0
APPID
  5
12
330
9
100
AcDbSymbolTableRecord
100
AcDbRegAppTableRecord
  2
ACAD
 70
     0
  0
ENDTAB
  0
TABLE
  2
DIMSTYLE
  5
A
330
0
100
AcDbSymbolTable
 70
     2
100
AcDbDimStyleTable
  0
DIMSTYLE
105
27
330
A
100
AcDbSymbolTableRecord
100
AcDbDimStyleTableRecord
  2
ISO-25
 70
     0
 41
2.5
 42
0.625
 43
3.75
 44
1.25
 73
     0
 74
     0
 77
     1
 78
     8
140
2.5
141
2.5
143
0.0393700787
147
0.625
171
     3
172
     1
178
     0
271
     2
272
     2
274
     3
278
    44
283
     0
284
     8
340
11
  0
DIMSTYLE
105
18D
102
{ACAD_REACTORS
330
18C
330
197
330
1A1
330
1AD
330
1B8
102
}
330
A
100
AcDbSymbolTableRecord
100
AcDbDimStyleTableRecord
  2
SLDDIMSTYLE0
 70
     0
 41
3.0
 44
0.0
 45
0.000000001
 73
     0
 74
     0
 77
     1
 78
    12
 79
     3
140
2.0
147
0.5
173
     1
178
     0
271
     2
272
     3
276
     2
284
    12
340
48
  0
ENDTAB
  0
TABLE
  2
BLOCK_RECORD
  5
1
330
0
100
AcDbSymbolTable
 70
     7
  0
BLOCK_RECORD
  5
1F
330
1
100
AcDbSymbolTableRecord
100
AcDbBlockTableRecord
  2
*Model_Space
340
22
  0
BLOCK_RECORD
  5
1B
330
1
100
AcDbSymbolTableRecord
100
AcDbBlockTableRecord
  2
*Paper_Space
340
1E
  0
BLOCK_RECORD
  5
23
330
1
100
AcDbSymbolTableRecord
100
AcDbBlockTableRecord
  2
*Paper_Space0
340
26
  0
BLOCK_RECORD
  5
18E
330
1
100
AcDbSymbolTableRecord
100
AcDbBlockTableRecord
  2
_D
340
0
  0
BLOCK_RECORD
  5
198
330
1
100
AcDbSymbolTableRecord
100
AcDbBlockTableRecord
  2
_D_1
340
0
  0
BLOCK_RECORD
  5
1A2
330
1
100
AcDbSymbolTableRecord
100
AcDbBlockTableRecord
  2
_D_2
340
0
  0
BLOCK_RECORD
  5
1AE
330
1
100
AcDbSymbolTableRecord
100
AcDbBlockTableRecord
  2
_D_3
340
0
  0
BLOCK_RECORD
  5
1B9
330
1
100
AcDbSymbolTableRecord
100
AcDbBlockTableRecord
  2
_D_4
340
0
  0
BLOCK_RECORD
  5
246
330
1
100
AcDbSymbolTableRecord
100
AcDbBlockTableRecord
  2
SW_CENTERMARKSYMBOL_0
340
0
102
{BLKREFS
331
251
102
}
  0
ENDTAB
  0
ENDSEC
  0
SECTION
  2
BLOCKS
  0
BLOCK
  5
20
330
1F
100
AcDbEntity
  8
0
100
AcDbBlockBegin
  2
*Model_Space
 70
     0
 10
0.0
 20
0.0
 30
0.0
  3
*Model_Space
  1

  0
ENDBLK
  5
21
330
1F
100
AcDbEntity
  8
0
100
AcDbBlockEnd
  0
BLOCK
  5
1C
330
1B
100
AcDbEntity
 67
     1
  8
0
100
AcDbBlockBegin
  2
*Paper_Space
 70
     0
 10
0.0
 20
0.0
 30
0.0
  3
*Paper_Space
  1

  0
ENDBLK
  5
1D
330
1B
100
AcDbEntity
 67
     1
  8
0
100
AcDbBlockEnd
  0
BLOCK
  5
24
330
23
100
AcDbEntity
  8
0
100
AcDbBlockBegin
  2
*Paper_Space0
 70
     0
 10
0.0
 20
0.0
 30
0.0
  3
*Paper_Space0
  1

  0
ENDBLK
  5
25
330
23
100
AcDbEntity
  8
0
100
AcDbBlockEnd
  0
BLOCK
  5
18F
330
18E
100
AcDbEntity
  8
0
100
AcDbBlockBegin
  2
_D
 70
     0
 10
0.0
 20
0.0
 30
0.0
  3
_D
  1

  0
SOLID
  5
191
330
18E
100
AcDbEntity
  8
VERMASSUNG
100
AcDbTrace
 10
171.7315903823
 20
146.3318492447
 30
0.0
 11
174.7315903823
 21
145.8818492447
 31
0.0
 12
174.7315903823
 22
146.7818492447
 32
0.0
 13
174.7315903823
 23
146.7818492447
 33
0.0
  0
SOLID
  5
192
330
18E
100
AcDbEntity
  8
VERMASSUNG
100
AcDbTrace
 10
241.7315903823
 20
146.3318492447
 30
0.0
 11
238.7315903823
 21
146.7818492447
 31
0.0
 12
238.7315903823
 22
145.8818492447
 32
0.0
 13
238.7315903823
 23
145.8818492447
 33
0.0
  0
LINE
  5
193
330
18E
100
AcDbEntity
  8
VERMASSUNG
100
AcDbLine
 10
171.7315903823
 20
139.7106600685
 30
0.0
 11
171.7315903823
 21
147.3318492447
 31
0.0
  0
LINE
  5
194
330
18E
100
AcDbEntity
  8
VERMASSUNG
100
AcDbLine
 10
241.7315903823
 20
131.0106600685
 30
0.0
 11
241.7315903823
 21
147.3318492447
 31
0.0
  0
LINE
  5
195
330
18E
100
AcDbEntity
  8
VERMASSUNG
100
AcDbLine
 10
171.7315903823
 20
146.3318492447
 30
0.0
 11
241.7315903823
 21
146.3318492447
 31
0.0
  0
MTEXT
  5
196
330
18E
100
AcDbEntity
  8
VERMASSUNG
100
AcDbMText
 10
209.2154327482
 20
148.9099846078
 30
0.1
 40
2.0
 41
0.0
 71
     1
 72
     1
  1
70
  7
SLDTEXTSTYLE0
 73
     1
 44
1.0
  0
ENDBLK
  5
190
330
18E
100
AcDbEntity
  8
0
100
AcDbBlockEnd
  0
BLOCK
  5
199
330
198
100
AcDbEntity
  8
0
100
AcDbBlockBegin
  2
_D_1
 70
     0
 10
0.0
 20
0.0
 30
0.0
  3
_D_1
  1

  0
SOLID
  5
19B
330
198
100
AcDbEntity
  8
VERMASSUNG
100
AcDbTrace
 10
141.7315903823
 20
153.5317088137
 30
0.0
 11
144.7315903823
 21
153.0817088137
 31
0.0
 12
144.7315903823
 22
153.9817088137
 32
0.0
 13
144.7315903823
 23
153.9817088137
 33
0.0
  0
SOLID
  5
19C
330
198
100
AcDbEntity
  8
VERMASSUNG
100
AcDbTrace
 10
241.7315903823
 20
153.5317088137
 30
0.0
 11
238.7315903823
 21
153.9817088137
 31
0.0
 12
238.7315903823
 22
153.0817088137
 32
0.0
 13
238.7315903823
 23
153.0817088137
 33
0.0
  0
LINE
  5
19D
330
198
100
AcDbEntity
  8
VERMASSUNG
100
AcDbLine
 10
141.7315903823
 20
130.9512349876
 30
0.0
 11
141.7315903823
 21
154.5317088137
 31
0.0
  0
LINE
  5
19E
330
198
100
AcDbEntity
  8
VERMASSUNG
100
AcDbLine
 10
241.7315903823
 20
131.0106600685
 30
0.0
 11
241.7315903823
 21
154.5317088137
 31
0.0
  0
LINE
  5
19F
330
198
100
AcDbEntity
  8
VERMASSUNG
100
AcDbLine
 10
141.7315903823
 20
153.5317088137
 30
0.0
 11
241.7315903823
 21
153.5317088137
 31
0.0
  0
MTEXT
  5
1A0
330
198
100
AcDbEntity
  8
VERMASSUNG
100
AcDbMText
 10
189.4744286456
 20
156.1098441768
 30
0.1
 40
2.0
 41
0.0
 71
     1
 72
     1
  1
100
  7
SLDTEXTSTYLE0
 73
     1
 44
1.0
  0
ENDBLK
  5
19A
330
198
100
AcDbEntity
  8
0
100
AcDbBlockEnd
  0
BLOCK
  5
1A3
330
1A2
100
AcDbEntity
  8
0
100
AcDbBlockBegin
  2
_D_2
 70
     0
 10
0.0
 20
0.0
 30
0.0
  3
_D_2
  1

  0
SOLID
  5
1A5
330
1A2
100
AcDbEntity
  8
VERMASSUNG
100
AcDbTrace
 10
133.5153462844
 20
140.0106600685
 30
0.0
 11
133.0653462844
 21
137.0106600685
 31
0.0
 12
133.9653462844
 22
137.0106600685
 32
0.0
 13
133.9653462844
 23
137.0106600685
 33
0.0
  0
SOLID
  5
1A6
330
1A2
100
AcDbEntity
  8
VERMASSUNG
100
AcDbTrace
 10
133.5153462844
 20
90.0106600685
 30
0.0
 11
133.9653462844
 21
93.0106600685
 31
0.0
 12
133.0653462844
 22
93.0106600685
 32
0.0
 13
133.0653462844
 23
93.0106600685
 33
0.0
  0
LINE
  5
1A7
330
1A2
100
AcDbEntity
  8
VERMASSUNG
100
AcDbLine
 10
172.0315903823
 20
140.0106600685
 30
0.0
 11
132.5153462844
 21
140.0106600685
 31
0.0
  0
LINE
  5
1A8
330
1A2
100
AcDbEntity
  8
VERMASSUNG
100
AcDbLine
 10
172.0315903823
 20
90.0106600685
 30
0.0
 11
132.5153462844
 21
90.0106600685
 31
0.0
  0
LINE
  5
1A9
330
1A2
100
AcDbEntity
  8
VERMASSUNG
100
AcDbLine
 10
133.5153462844
 20
140.0106600685
 30
0.0
 11
133.5153462844
 21
90.0106600685
 31
0.0
  0
MTEXT
  5
1AA
330
1A2
100
AcDbEntity
  8
VERMASSUNG
100
AcDbMText
 10
130.7372107954
 20
106.9912156725
 30
0.1
 40
2.0
 41
0.0
 71
     1
 72
     1
  1
PSC
  7
SLDTEXTSTYLE0
 11
-7.044195017643634E-15
 21
1.0
 31
0.0
 73
     1
 44
1.0
  0
MTEXT
  5
1AB
330
1A2
100
AcDbEntity
  8
VERMASSUNG
100
AcDbMText
 10
130.9372108049
 20
111.5912157746
 30
0.1
 40
2.0
 41
0.0
 71
     1
 72
     1
  1
%%c
  7
SLDTEXTSTYLE0
 11
-7.044195017643634E-15
 21
1.0
 31
0.0
 73
     1
 44
1.0
  0
MTEXT
  5
1AC
330
1A2
100
AcDbEntity
  8
VERMASSUNG
100
AcDbMText
 10
130.7372107954
 20
115.2012162545
 30
0.1
 40
2.0
 41
0.0
 71
     1
 72
     1
  1
50
  7
SLDTEXTSTYLE0
 11
-7.044195017643634E-15
 21
1.0
 31
0.0
 73
     1
 44
1.0
  0
ENDBLK
  5
1A4
330
1A2
100
AcDbEntity
  8
0
100
AcDbBlockEnd
  0
BLOCK
  5
1AF
330
1AE
100
AcDbEntity
  8
0
100
AcDbBlockBegin
  2
_D_3
 70
     0
 10
0.0
 20
0.0
 30
0.0
  3
_D_3
  1

  0
SOLID
  5
1B1
330
1AE
100
AcDbEntity
  8
VERMASSUNG
100
AcDbTrace
 10
260.0149718827
 20
132.0106600685
 30
0.0
 11
259.5649718827
 21
129.0106600685
 31
0.0
 12
260.4649718827
 22
129.0106600685
 32
0.0
 13
260.4649718827
 23
129.0106600685
 33
0.0
  0
SOLID
  5
1B2
330
1AE
100
AcDbEntity
  8
VERMASSUNG
100
AcDbTrace
 10
260.0149718827
 20
98.0106600685
 30
0.0
 11
260.4649718827
 21
101.0106600685
 31
0.0
 12
259.5649718827
 22
101.0106600685
 32
0.0
 13
259.5649718827
 23
101.0106600685
 33
0.0
  0
LINE
  5
1B3
330
1AE
100
AcDbEntity
  8
VERMASSUNG
100
AcDbLine
 10
240.7315903823
 20
132.0106600685
 30
0.0
 11
261.0149718827
 21
132.0106600685
 31
0.0
  0
LINE
  5
1B4
330
1AE
100
AcDbEntity
  8
VERMASSUNG
100
AcDbLine
 10
240.7315903823
 20
98.0106600685
 30
0.0
 11
261.0149718827
 21
98.0106600685
 31
0.0
  0
LINE
  5
1B5
330
1AE
100
AcDbEntity
  8
VERMASSUNG
100
AcDbLine
 10
260.0149718827
 20
132.0106600685
 30
0.0
 11
260.0149718827
 21
98.0106600685
 31
0.0
  0
MTEXT
  5
1B6
330
1AE
100
AcDbEntity
  8
VERMASSUNG
100
AcDbMText
 10
257.4368364031
 20
111.3540083202
 30
0.1
 40
2.0
 41
0.0
 71
     1
 72
     1
  1
%%c
  7
SLDTEXTSTYLE0
 11
-7.044195017643634E-15
 21
1.0
 31
0.0
 73
     1
 44
1.0
  0
MTEXT
  5
1B7
330
1AE
100
AcDbEntity
  8
VERMASSUNG
100
AcDbMText
 10
257.2368363936
 20
114.9640083345
 30
0.1
 40
2.0
 41
0.0
 71
     1
 72
     1
  1
34
  7
SLDTEXTSTYLE0
 11
-7.044195017643634E-15
 21
1.0
 31
0.0
 73
     1
 44
1.0
  0
ENDBLK
  5
1B0
330
1AE
100
AcDbEntity
  8
0
100
AcDbBlockEnd
  0
BLOCK
  5
1BA
330
1B9
100
AcDbEntity
  8
0
100
AcDbBlockBegin
  2
_D_4
 70
     0
 10
0.0
 20
0.0
 30
0.0
  3
_D_4
  1

  0
SOLID
  5
1BC
330
1B9
100
AcDbEntity
  8
VERMASSUNG
100
AcDbTrace
 10
251.7315903823
 20
120.0106600685
 30
0.0
 11
251.2815903823
 21
117.0106600685
 31
0.0
 12
252.1815903823
 22
117.0106600685
 32
0.0
 13
252.1815903823
 23
117.0106600685
 33
0.0
  0
SOLID
  5
1BD
330
1B9
100
AcDbEntity
  8
VERMASSUNG
100
AcDbTrace
 10
251.7315903823
 20
110.0106600685
 30
0.0
 11
252.1815903823
 21
113.0106600685
 31
0.0
 12
251.2815903823
 22
113.0106600685
 32
0.0
 13
251.2815903823
 23
113.0106600685
 33
0.0
  0
LINE
  5
1BE
330
1B9
100
AcDbEntity
  8
VERMASSUNG
100
AcDbLine
 10
241.4315903823
 20
120.0106600685
 30
0.0
 11
252.7315903823
 21
120.0106600685
 31
0.0
  0
LINE
  5
1BF
330
1B9
100
AcDbEntity
  8
VERMASSUNG
100
AcDbLine
 10
241.4315903823
 20
110.0106600685
 30
0.0
 11
252.7315903823
 21
110.0106600685
 31
0.0
  0
LINE
  5
1C0
330
1B9
100
AcDbEntity
  8
VERMASSUNG
100
AcDbLine
 10
251.7315903823
 20
120.0106600685
 30
0.0
 11
251.7315903823
 21
110.0106600685
 31
0.0
  0
MTEXT
  5
1C1
330
1B9
100
AcDbEntity
  8
VERMASSUNG
100
AcDbMText
 10
249.1534549028
 20
110.3517484828
 30
0.1
 40
2.0
 41
0.0
 71
     1
 72
     1
  1
%%c
  7
SLDTEXTSTYLE0
 11
-7.044195017643634E-15
 21
1.0
 31
0.0
 73
     1
 44
1.0
  0
MTEXT
  5
1C2
330
1B9
100
AcDbEntity
  8
VERMASSUNG
100
AcDbMText
 10
248.9534548933
 20
113.9617484971
 30
0.1
 40
2.0
 41
0.0
 71
     1
 72
     1
  1
10
  7
SLDTEXTSTYLE0
 11
-7.044195017643634E-15
 21
1.0
 31
0.0
 73
     1
 44
1.0
  0
ENDBLK
  5
1BB
330
1B9
100
AcDbEntity
  8
0
100
AcDbBlockEnd
  0
BLOCK
  5
247
330
246
100
AcDbEntity
  8
0
100
AcDbBlockBegin
  2
SW_CENTERMARKSYMBOL_0
 70
     0
 10
0.0
 20
0.0
 30
0.0
  3
SW_CENTERMARKSYMBOL_0
  1

  0
LINE
  5
249
330
246
100
AcDbEntity
  8
VERMASSUNG
 62
     0
100
AcDbLine
 10
0.0
 20
0.0
 30
0.0
 11
0.0
 21
2.5
 31
0.0
  0
LINE
  5
24A
330
246
100
AcDbEntity
  8
VERMASSUNG
 62
     0
100
AcDbLine
 10
0.0
 20
0.0
 30
0.0
 11
-2.5
 21
0.0
 31
0.0
  0
LINE
  5
24B
330
246
100
AcDbEntity
  8
VERMASSUNG
 62
     0
100
AcDbLine
 10
0.0
 20
0.0
 30
0.0
 11
0.0
 21
-2.5
 31
0.0
  0
LINE
  5
24C
330
246
100
AcDbEntity
  8
VERMASSUNG
 62
     0
100
AcDbLine
 10
0.0
 20
0.0
 30
0.0
 11
2.5
 21
0.0
 31
0.0
  0
LINE
  5
24D
330
246
100
AcDbEntity
  8
VERMASSUNG
 62
     0
100
AcDbLine
 10
0.0
 20
5.0
 30
0.0
 11
0.0
 21
27.5
 31
0.0
  0
LINE
  5
24E
330
246
100
AcDbEntity
  8
VERMASSUNG
 62
     0
100
AcDbLine
 10
-5.0
 20
0.0
 30
0.0
 11
-27.5
 21
0.0
 31
0.0
  0
LINE
  5
24F
330
246
100
AcDbEntity
  8
VERMASSUNG
 62
     0
100
AcDbLine
 10
0.0
 20
-5.0
 30
0.0
 11
0.0
 21
-27.5
 31
0.0
  0
LINE
  5
250
330
246
100
AcDbEntity
  8
VERMASSUNG
 62
     0
100
AcDbLine
 10
5.0
 20
0.0
 30
0.0
 11
27.5
 21
0.0
 31
0.0
  0
ENDBLK
  5
248
330
246
100
AcDbEntity
  8
0
100
AcDbBlockEnd
  0
ENDSEC
  0
SECTION
  2
ENTITIES
  0
MTEXT
  5
49
330
1F
100
AcDbEntity
  8
KOPF_DÜNN
100
AcDbMText
 10
13.8892156294
 20
23.8442973028
 30
0.0
 40
3.0
 41
0.0
 71
     1
 72
     1
  1
PS5.B10.K01.070
  7
SLDTEXTSTYLE0
 73
     1
 44
1.0
  0
MTEXT
  5
4A
330
1F
100
AcDbEntity
  8
VERMASSUNG
100
AcDbMText
 10
13.9329988022
 20
28.8834360957
 30
0.0
 40
3.0
 41
0.0
 71
     1
 72
     1
  1
Bohrstangenhalter_Boring bar holder
  7
SLDTEXTSTYLE0
 73
     1
 44
1.0
  0
MTEXT
  5
4B
330
1F
100
AcDbEntity
  8
VERMASSUNG
100
AcDbMText
 10
98.8601118557
 20
13.8365368179
 30
0.0
 40
2.0
 41
0.0
 71
     1
 72
     1
  1
Datum: 18.06.2012
  7
SLDTEXTSTYLE0
 73
     1
 44
1.0
  0
MTEXT
  5
4D
330
1F
100
AcDbEntity
  8
VERMASSUNG
100
AcDbMText
 10
13.933048693
 20
18.0482802738
 30
0.0
 40
2.0
 41
0.0
 71
     1
 72
     1
  1
PSC ø50 / ø10
  7
SLDTEXTSTYLE1
 73
     1
 44
1.0
  0
MTEXT
  5
4E
330
1F
100
AcDbEntity
  8
VERMASSUNG
100
AcDbMText
 10
13.9808475933
 20
13.9090973692
 30
0.0
 40
2.0
 41
0.0
 71
     1
 72
     1
  1
Gewicht: 742g
  7
SLDTEXTSTYLE0
 73
     1
 44
1.0
  0
LINE
  5
4F
330
1F
100
AcDbEntity
  8
0
  6
Continuous
 62
     7
370
    15
100
AcDbLine
 10
185.7253506324
 20
90.0106600685
 30
0.0
 11
191.1315903823
 21
90.0106600685
 31
0.0
  0
LINE
  5
50
330
1F
100
AcDbEntity
  8
0
  6
Continuous
 62
     7
370
    15
100
AcDbLine
 10
172.0315903823
 20
90.0106600685
 30
0.0
 11
181.7315903823
 21
90.0106600685
 31
0.0
  0
LINE
  5
51
330
1F
100
AcDbEntity
  8
0
  6
Continuous
 62
     7
370
    15
100
AcDbLine
 10
191.1315903823
 20
140.0106600685
 30
0.0
 11
172.0315903823
 21
140.0106600685
 31
0.0
  0
ARC
  5
52
330
1F
100
AcDbEntity
  8
0
  6
Continuous
 62
     7
370
    15
100
AcDbCircle
 10
172.0315903823
 20
90.3106600685
 30
0.0
 40
0.3000000000000114
100
AcDbArc
 50
180.0
 51
270.0
  0
ARC
  5
53
330
1F
100
AcDbEntity
  8
0
  6
Continuous
 62
     7
370
    15
100
AcDbCircle
 10
172.0315903823
 20
139.7106600685
 30
0.0
 40
0.3000000000000398
100
AcDbArc
 50
90.0
 51
180.0
  0
ARC
  5
54
330
1F
100
AcDbEntity
  8
0
  6
Continuous
 62
     7
370
    15
100
AcDbCircle
 10
191.1315903823
 20
90.6106600685
 30
0.0
 40
0.6000000000000227
100
AcDbArc
 50
270.0
 51
0.0
  0
ARC
  5
55
330
1F
100
AcDbEntity
  8
0
  6
Continuous
 62
     7
370
    15
100
AcDbCircle
 10
191.1315903823
 20
139.4106600685
 30
0.0
 40
0.6000000000000227
100
AcDbArc
 50
0.0
 51
90.0
  0
ARC
  5
56
330
1F
100
AcDbEntity
  8
0
  6
Continuous
 62
     7
370
    15
100
AcDbCircle
 10
194.7315903823
 20
95.0106600685
 30
0.0
 40
3.0
100
AcDbArc
 50
90.0
 51
180.0
  0
ARC
  5
57
330
1F
100
AcDbEntity
  8
0
  6
Continuous
 62
     7
370
    15
100
AcDbCircle
 10
194.7315903823
 20
135.0106600685
 30
0.0
 40
3.0
100
AcDbArc
 50
180.0
 51
270.0
  0
LWPOLYLINE
  5
58
330
1F
100
AcDbEntity
  8
0
  6
Continuous
 62
     7
370
    15
100
AcDbPolyline
 90
        3
 70
   128
 43
0.0
 10
171.5315903823
 20
97.1708397896
 10
171.6570453258
 20
97.1025376747
 10
171.7315903823
 20
97.0497999166
  0
ARC
  5
59
330
1F
100
AcDbEntity
  8
0
  6
Continuous
 62
     7
370
    15
100
AcDbCircle
 10
171.11737682
 20
133.7606600685
 30
0.0
 40
1.000000000000008
100
AcDbArc
 50
225.0
 51
307.8947985336
  0
ARC
  5
5A
330
1F
100
AcDbEntity
  8
0
  6
Continuous
 62
     7
370
    15
100
AcDbCircle
 10
240.7315903823
 20
131.0106600685
 30
0.0
 40
1.0
100
AcDbArc
 50
0.0
 51
90.0
  0
ARC
  5
5B
330
1F
100
AcDbEntity
  8
0
  6
Continuous
 62
     7
370
    15
100
AcDbCircle
 10
240.7315903823
 20
99.0106600685
 30
0.0
 40
1.0
100
AcDbArc
 50
270.0
 51
0.0
  0
LINE
  5
5C
330
1F
100
AcDbEntity
  8
0
  6
Continuous
 62
     7
370
    15
100
AcDbLine
 10
209.2435380769
 20
132.0106600685
 30
0.0
 11
194.7315903823
 21
132.0106600685
 31
0.0
  0
LINE
  5
5D
330
1F
100
AcDbEntity
  8
0
  6
Continuous
 62
     7
370
    15
100
AcDbLine
 10
219.2408358505
 20
132.0106600685
 30
0.0
 11
218.2288249855
 21
132.0106600685
 31
0.0
  0
LINE
  5
5E
330
1F
100
AcDbEntity
  8
0
  6
Continuous
 62
     7
370
    15
100
AcDbLine
 10
229.2435380769
 20
132.0106600685
 30
0.0
 11
228.2253281174
 21
132.0106600685
 31
0.0
  0
LINE
  5
5F
330
1F
100
AcDbEntity
  8
0
  6
Continuous
 62
     7
370
    15
100
AcDbLine
 10
240.7315903823
 20
132.0106600685
 30
0.0
 11
238.2288249855
 21
132.0106600685
 31
0.0
  0
LINE
  5
60
330
1F
100
AcDbEntity
  8
0
  6
Continuous
 62
     7
370
    15
100
AcDbLine
 10
238.2253587405
 20
98.0106600685
 30
0.0
 11
240.7315903823
 21
98.0106600685
 31
0.0
  0
LINE
  5
61
330
1F
100
AcDbEntity
  8
0
  6
Continuous
 62
     7
370
    15
100
AcDbLine
 10
228.2288249855
 20
98.0106600685
 30
0.0
 11
229.2406453506
 21
98.0106600685
 31
0.0
  0
LINE
  5
62
330
1F
100
AcDbEntity
  8
0
  6
Continuous
 62
     7
370
    15
100
AcDbLine
 10
218.2253587405
 20
98.0106600685
 30
0.0
 11
219.2435380769
 21
98.0106600685
 31
0.0
  0
LINE
  5
63
330
1F
100
AcDbEntity
  8
0
  6
Continuous
 62
     7
370
    15
100
AcDbLine
 10
194.7315903823
 20
98.0106600685
 30
0.0
 11
209.2406453506
 21
98.0106600685
 31
0.0
  0
LINE
  5
64
330
1F
100
AcDbEntity
  8
0
  6
Continuous
 62
     7
370
    15
100
AcDbLine
 10
161.1797473362
 20
98.8203886516
 30
0.0
 11
169.5315903823
 21
98.6105612839
 31
0.0
  0
LINE
  5
65
330
1F
100
AcDbEntity
  8
0
  6
Continuous
 62
     7
370
    15
100
AcDbLine
 10
149.1095014755
 20
99.1236352406
 30
0.0
 11
154.4524994773
 21
98.9894005334
 31
0.0
  0
ARC
  5
66
330
1F
100
AcDbEntity
  8
0
  6
Continuous
 62
     7
370
    15
100
AcDbCircle
 10
169.7315272933
 20
98.6055381728
 30
0.0
 40
0.2000000000000048
100
AcDbArc
 50
88.5608333333
 51
178.5608333333
  0
LINE
  5
67
330
1F
100
AcDbEntity
  8
0
  6
Continuous
 62
     7
370
    15
100
AcDbLine
 10
169.7365504044
 20
98.8054750838
 30
0.0
 11
171.3366134935
 21
98.7652759296
 31
0.0
  0
ARC
  5
68
330
1F
100
AcDbEntity
  8
0
  6
Continuous
 62
     7
370
    15
100
AcDbCircle
 10
171.3315903823
 20
98.5653390187
 30
0.0
 40
0.2000000000000171
100
AcDbArc
 50
0.0
 51
88.5608333333
  0
ARC
  5
69
330
1F
100
AcDbEntity
  8
0
  6
Continuous
 62
     7
370
    15
100
AcDbCircle
 10
169.7315272933
 20
133.6557819642
 30
0.0
 40
0.2000000000000052
100
AcDbArc
 50
181.4391666667
 51
271.4391666667
  0
LINE
  5
6A
330
1F
100
AcDbEntity
  8
0
  6
Continuous
 62
     7
370
    15
100
AcDbLine
 10
169.5315903823
 20
133.6507588531
 30
0.0
 11
143.2315903823
 21
132.9900113105
 31
0.0
  0
LINE
  5
6B
330
1F
100
AcDbEntity
  8
0
  6
Continuous
 62
     7
370
    15
100
AcDbLine
 10
170.0108640999
 20
133.4627367681
 30
0.0
 11
169.7365504044
 21
133.4558450533
 31
0.0
  0
LINE
  5
6C
330
1F
100
AcDbEntity
  8
0
  6
Continuous
 62
     7
370
    15
100
AcDbLine
 10
143.2315903823
 20
132.9900113105
 30
0.0
 11
141.7315903823
 21
132.1239859067
 31
0.0
  0
LINE
  5
6D
330
1F
100
AcDbEntity
  8
0
  6
Continuous
 62
     7
370
    15
100
AcDbLine
 10
170.4102700388
 20
133.0535532873
 30
0.0
 11
170.0177090165
 21
133.4461143096
 31
0.0
  0
LINE
  5
6E
330
1F
100
AcDbEntity
  8
0
  6
Continuous
 62
     7
370
    15
100
AcDbLine
 10
220.1281309481
 20
98.180377627
 30
0.0
 11
220.4220903823
 21
98.0106600685
 31
0.0
  0
LINE
  5
6F
330
1F
100
AcDbEntity
  8
0
  6
Continuous
 62
     7
370
    15
100
AcDbLine
 10
227.0410903823
 20
98.0106600685
 30
0.0
 11
227.3355231096
 21
98.1806508828
 31
0.0
  0
LINE
  5
70
330
1F
100
AcDbEntity
  8
0
  6
Continuous
 62
     7
370
    15
100
AcDbLine
 10
210.1283426214
 20
98.1802554174
 30
0.0
 11
210.4220903823
 21
98.0106600685
 31
0.0
  0
LINE
  5
71
330
1F
100
AcDbEntity
  8
0
  6
Continuous
 62
     7
370
    15
100
AcDbLine
 10
217.0410903823
 20
98.0106600685
 30
0.0
 11
217.3348579189
 21
98.1802668348
 31
0.0
  0
LINE
  5
72
330
1F
100
AcDbEntity
  8
0
  6
Continuous
 62
     7
370
    15
100
AcDbLine
 10
237.3354328447
 20
131.8407213686
 30
0.0
 11
237.0410903823
 21
132.0106600685
 31
0.0
  0
LINE
  5
73
330
1F
100
AcDbEntity
  8
0
  6
Continuous
 62
     7
370
    15
100
AcDbLine
 10
230.4220903823
 20
132.0106600685
 30
0.0
 11
230.1273873506
 21
131.8405131938
 31
0.0
  0
LINE
  5
74
330
1F
100
AcDbEntity
  8
0
  6
Continuous
 62
     7
370
    15
100
AcDbLine
 10
227.334810066
 20
131.8410809301
 30
0.0
 11
227.0410903823
 21
132.0106600685
 31
0.0
  0
LINE
  5
75
330
1F
100
AcDbEntity
  8
0
  6
Continuous
 62
     7
370
    15
100
AcDbLine
 10
220.4220903823
 20
132.0106600685
 30
0.0
 11
220.1284977915
 21
131.8411543071
 31
0.0
  0
LINE
  5
76
330
1F
100
AcDbEntity
  8
0
  6
Continuous
 62
     7
370
    15
100
AcDbLine
 10
217.3354328447
 20
131.8407213686
 30
0.0
 11
217.0410903823
 21
132.0106600685
 31
0.0
  0
LINE
  5
77
330
1F
100
AcDbEntity
  8
0
  6
Continuous
 62
     7
370
    15
100
AcDbLine
 10
210.4220903823
 20
132.0106600685
 30
0.0
 11
210.1273873506
 21
131.8405131938
 31
0.0
  0
LINE
  5
78
330
1F
100
AcDbEntity
  8
0
  6
Continuous
 62
     7
370
    15
100
AcDbLine
 10
230.1283426214
 20
98.1802554174
 30
0.0
 11
230.4220903823
 21
98.0106600685
 31
0.0
  0
LINE
  5
79
330
1F
100
AcDbEntity
  8
0
  6
Continuous
 62
     7
370
    15
100
AcDbLine
 10
237.0410903823
 20
98.0106600685
 30
0.0
 11
237.3348579189
 21
98.1802668348
 31
0.0
  0
SPLINE
  5
7A
330
1F
100
AcDbEntity
  8
0
  6
Continuous
 62
     7
370
    15
100
AcDbSpline
210
0.0
220
0.0
230
1.0
 70
     8
 71
     3
 72
    27
 73
    23
 74
     0
 42
0.00000001
 43
0.00000001
 12
1.0
 22
0.0
 32
0.0
 13
1.0
 23
0.0
 33
0.0
 40
0.0
 40
0.0
 40
0.0
 40
0.0
 40
0.0183387654244536
 40
0.0726837444166979
 40
0.1254292356194012
 40
0.1796980720270956
 40
0.2325591759761308
 40
0.2869462291998073
 40
0.3399233321469952
 40
0.3944399720256917
 40
0.447352163225727
 40
0.501807337593711
 40
0.5545742501016652
 40
0.6088719095484285
 40
0.6616402007358321
 40
0.7159305531826747
 40
0.7688443123947674
 40
0.8232884126105573
 40
0.8762651633793612
 40
0.9307846611510096
 40
0.9651863107669693
 40
0.9999999999999999
 40
0.9999999999999999
 40
0.9999999999999999
 40
0.9999999999999999
 10
185.7253506324438
 20
90.01115815526522
 30
0.0
 10
185.7270386808642
 20
90.01102343624137
 30
0.0
 10
185.7337290810687
 20
90.01048949173251
 30
0.0
 10
185.6872769665659
 20
90.014205179865
 30
0.0
 10
185.5863913094655
 20
90.02196156750456
 30
0.0
 10
185.4305786696493
 20
90.03315593517185
 30
0.0
 10
185.2260887230293
 20
90.04635042079138
 30
0.0
 10
184.9807620320281
 20
90.05996887294121
 30
0.0
 10
184.6974506874952
 20
90.0726660325193
 30
0.0
 10
184.3891636477652
 20
90.08280117913718
 30
0.0
 10
184.059333574646
 20
90.08938092849752
 30
0.0
 10
183.7235971629384
 20
90.09155412117106
 30
0.0
 10
183.3853567158464
 20
90.08912536765388
 30
0.0
 10
183.0602860673442
 20
90.0824247794412
 30
0.0
 10
182.7513905735107
 20
90.07209936779356
 30
0.0
 10
182.4726310993564
 20
90.05946757150105
 30
0.0
 10
182.2268570494099
 20
90.0457345184311
 30
0.0
 10
182.0254979945868
 20
90.03266409458595
 30
0.0
 10
181.870620568183
 20
90.02150405900446
 30
0.0
 10
181.7821640346997
 20
90.01467701176757
 30
0.0
 10
181.7384874765481
 20
90.01121365347159
 30
0.0
 10
181.7338985197826
 20
90.01084532771303
 30
0.0
 10
181.7315903823467
 20
90.01066006851023
 30
0.0
  0
SPLINE
  5
7B
330
1F
100
AcDbEntity
  8
0
  6
Continuous
 62
     7
370
    15
100
AcDbSpline
210
0.0
220
0.0
230
1.0
 70
     8
 71
     3
 72
    12
 73
     8
 74
     0
 42
0.00000001
 43
0.00000001
 12
1.0
 22
0.0
 32
0.0
 13
1.0
 23
0.0
 33
0.0
 40
0.0
 40
0.0
 40
0.0
 40
0.0
 40
0.25
 40
0.25
 40
0.5
 40
0.5
 40
1.0
 40
1.0
 40
1.0
 40
1.0
 10
180.2593471959131
 20
91.18392895300819
 30
0.0
 10
180.1956819593826
 20
91.1839289530082
 30
0.0
 10
180.1360757271593
 20
91.19219372867406
 30
0.0
 10
180.0374152022284
 20
91.21641251025721
 30
0.0
 10
179.9984482122132
 20
91.23166982956636
 30
0.0
 10
179.8990613802887
 20
91.2813031838283
 30
0.0
 10
179.8569851328652
 20
91.3189428920024
 30
0.0
 10
179.8263344940209
 20
91.35801859127854
 30
0.0
  0
LINE
  5
7C
330
1F
100
AcDbEntity
  8
0
  6
Continuous
 62
     7
370
    15
100
AcDbLine
 10
183.2038335688
 20
91.183928953
 30
0.0
 11
180.2593471959
 21
91.183928953
 31
0.0
  0
SPLINE
  5
7D
330
1F
100
AcDbEntity
  8
0
  6
Continuous
 62
     7
370
    15
100
AcDbSpline
210
0.0
220
0.0
230
1.0
 70
     8
 71
     3
 72
    12
 73
     8
 74
     0
 42
0.00000001
 43
0.00000001
 12
1.0
 22
0.0
 32
0.0
 13
1.0
 23
0.0
 33
0.0
 40
0.0
 40
0.0
 40
0.0
 40
0.0
 40
0.5000000000000032
 40
0.5000000000000032
 40
0.7500000000000016
 40
0.7500000000000016
 40
1.0
 40
1.0
 40
1.0
 40
1.0
 10
183.6368462706724
 20
91.35801859127854
 30
0.0
 10
183.6061468873052
 20
91.31888074888265
 30
0.0
 10
183.5647968191986
 20
91.28172096615714
 30
0.0
 10
183.4650408909792
 20
91.2317844605294
 30
0.0
 10
183.4253439732465
 20
91.21633159038564
 30
0.0
 10
183.3280858215989
 20
91.19241204678659
 30
0.0
 10
183.2673096636082
 20
91.18392895300819
 30
0.0
 10
183.2038335687802
 20
91.1839289530082
 30
0.0
  0
ELLIPSE
  5
7E
330
1F
100
AcDbEntity
  8
0
  6
Continuous
 62
     7
370
    15
100
AcDbEllipse
 10
170.6753327274
 20
115.0106600685
 30
0.0
 11
-11.7092723497272
 21
24.67718644093746
 31
0.0
210
0.0
220
0.0
230
1.0
 40
0.3419987131
 41
3.310521928178948
 42
4.221709151398938
  0
SPLINE
  5
7F
330
1F
100
AcDbEntity
  8
0
  6
Continuous
 62
     7
370
    15
100
AcDbSpline
210
0.0
220
0.0
230
1.0
 70
     8
 71
     3
 72
    12
 73
     8
 74
     0
 42
0.00000001
 43
0.00000001
 12
1.0
 22
0.0
 32
0.0
 13
1.0
 23
0.0
 33
0.0
 40
0.0
 40
0.0
 40
0.0
 40
0.0
 40
0.2500000000000007
 40
0.2500000000000007
 40
0.5000000000000014
 40
0.5000000000000014
 40
1.0
 40
1.0
 40
1.0
 40
1.0
 10
183.2038335687802
 20
107.4418500993294
 30
0.0
 10
183.2674988053108
 20
107.4418500993294
 30
0.0
 10
183.3271050375341
 20
107.4157779508497
 30
0.0
 10
183.425765562465
 20
107.3402392000286
 30
0.0
 10
183.4647325524802
 20
107.2929882629324
 30
0.0
 10
183.5641193844047
 20
107.1411644449659
 30
0.0
 10
183.6061956318281
 20
107.0283611952009
 30
0.0
 10
183.6368462706724
 20
106.9142070704658
 30
0.0
  0
LINE
  5
80
330
1F
100
AcDbEntity
  8
0
  6
Continuous
 62
     7
370
    15
100
AcDbLine
 10
180.2593471959
 20
107.4418500993
 30
0.0
 11
183.2038335688
 21
107.4418500993
 31
0.0
  0
SPLINE
  5
81
330
1F
100
AcDbEntity
  8
0
  6
Continuous
 62
     7
370
    15
100
AcDbSpline
210
0.0
220
0.0
230
1.0
 70
     8
 71
     3
 72
    12
 73
     8
 74
     0
 42
0.00000001
 43
0.00000001
 12
1.0
 22
0.0
 32
0.0
 13
1.0
 23
0.0
 33
0.0
 40
0.0
 40
0.0
 40
0.0
 40
0.0
 40
0.5
 40
0.5
 40
0.75
 40
0.75
 40
1.0
 40
1.0
 40
1.0
 40
1.0
 10
179.8263344940209
 20
106.9142070704658
 30
0.0
 10
179.8570338773882
 20
107.0285427375296
 30
0.0
 10
179.8983839454947
 20
107.139896090371
 30
0.0
 10
179.9981398737142
 20
107.2926328626197
 30
0.0
 10
180.0378367914469
 20
107.3404927484719
 30
0.0
 10
180.1350949430945
 20
107.4150958618213
 30
0.0
 10
180.1958711010852
 20
107.4418500993294
 30
0.0
 10
180.2593471959131
 20
107.4418500993294
 30
0.0
  0
ELLIPSE
  5
82
330
1F
100
AcDbEntity
  8
0
  6
Continuous
 62
     7
370
    15
100
AcDbEllipse
 10
192.7878480373
 20
115.0106600685
 30
0.0
 11
11.70927234972708
 21
24.67718644093746
 31
0.0
210
0.0
220
0.0
230
1.0
 40
0.3419987131
 41
2.061476155780656
 42
2.972663379000673
  0
SPLINE
  5
83
330
1F
100
AcDbEntity
  8
0
  6
Continuous
 62
     7
370
    15
100
AcDbSpline
210
0.0
220
0.0
230
1.0
 70
     8
 71
     3
 72
    12
 73
     8
 74
     0
 42
0.00000001
 43
0.00000001
 12
1.0
 22
0.0
 32
0.0
 13
1.0
 23
0.0
 33
0.0
 40
0.0
 40
0.0
 40
0.0
 40
0.0
 40
0.2499999999999984
 40
0.2499999999999984
 40
0.4999999999999968
 40
0.4999999999999968
 40
1.0
 40
1.0
 40
1.0
 40
1.0
 10
180.2593471959131
 20
122.5794700376909
 30
0.0
 10
180.1957106416994
 20
122.5794700376909
 30
0.0
 10
180.1361305148332
 20
122.6055169407488
 30
0.0
 10
180.0374937734668
 20
122.6810040996488
 30
0.0
 10
179.9985351490865
 20
122.7282231381795
 30
0.0
 10
179.8991562095787
 20
122.879962789273
 30
0.0
 10
179.8571983044132
 20
122.9921650134572
 30
0.0
 10
179.8263344940207
 20
123.1071130665545
 30
0.0
  0
LINE
  5
84
330
1F
100
AcDbEntity
  8
0
  6
Continuous
 62
     7
370
    15
100
AcDbLine
 10
183.2038335688
 20
122.5794700377
 30
0.0
 11
180.2593471959
 21
122.5794700377
 31
0.0
  0
SPLINE
  5
85
330
1F
100
AcDbEntity
  8
0
  6
Continuous
 62
     7
370
    15
100
AcDbSpline
210
0.0
220
0.0
230
1.0
 70
     8
 71
     3
 72
    12
 73
     8
 74
     0
 42
0.00000001
 43
0.00000001
 12
1.0
 22
0.0
 32
0.0
 13
1.0
 23
0.0
 33
0.0
 40
0.0
 40
0.0
 40
0.0
 40
0.0
 40
0.5000000000000037
 40
0.5000000000000037
 40
0.7500000000000018
 40
0.7500000000000018
 40
1.0
 40
1.0
 40
1.0
 40
1.0
 10
183.6368462706724
 20
123.1071130665545
 30
0.0
 10
183.6059945601083
 20
122.9922100776177
 30
0.0
 10
183.5641016966476
 20
122.8800711815688
 30
0.0
 10
183.4645808188544
 20
122.728128899968
 30
0.0
 10
183.4249666541301
 20
122.680464290443
 30
0.0
 10
183.3278636203506
 20
122.6061279598277
 30
0.0
 10
183.2673649477003
 20
122.5794700376905
 30
0.0
 10
183.2038335687803
 20
122.5794700376905
 30
0.0
  0
ELLIPSE
  5
86
330
1F
100
AcDbEntity
  8
0
  6
Continuous
 62
     7
370
    15
100
AcDbEllipse
 10
170.6753327274
 20
115.0106600685
 30
0.0
 11
11.70927234972717
 21
24.67718644093746
 31
0.0
210
0.0
220
0.0
230
1.0
 40
0.3419987131
 41
5.20306880937046
 42
6.114256032590507
  0
SPLINE
  5
87
330
1F
100
AcDbEntity
  8
0
  6
Continuous
 62
     7
370
    15
100
AcDbSpline
210
0.0
220
0.0
230
1.0
 70
     8
 71
     3
 72
    12
 73
     8
 74
     0
 42
0.00000001
 43
0.00000001
 12
1.0
 22
0.0
 32
0.0
 13
1.0
 23
0.0
 33
0.0
 40
0.0
 40
0.0
 40
0.0
 40
0.0
 40
0.2500000000000007
 40
0.2500000000000007
 40
0.5000000000000013
 40
0.5000000000000013
 40
1.0
 40
1.0
 40
1.0
 40
1.0
 10
183.2038335687802
 20
138.8373911840122
 30
0.0
 10
183.2674701229939
 20
138.8373911840122
 30
0.0
 10
183.3270502498602
 20
138.8291344130805
 30
0.0
 10
183.4256869912265
 20
138.8049323510726
 30
0.0
 10
183.4646456156068
 20
138.7896855320385
 30
0.0
 10
183.5640245551147
 20
138.7400806599784
 30
0.0
 10
183.6059824602802
 20
138.7026490118596
 30
0.0
 10
183.6368462706726
 20
138.6633015457419
 30
0.0
  0
LINE
  5
88
330
1F
100
AcDbEntity
  8
0
  6
Continuous
 62
     7
370
    15
100
AcDbLine
 10
180.2593471959
 20
138.837391184
 30
0.0
 11
183.2038335688
 21
138.837391184
 31
0.0
  0
SPLINE
  5
89
330
1F
100
AcDbEntity
  8
0
  6
Continuous
 62
     7
370
    15
100
AcDbSpline
210
0.0
220
0.0
230
1.0
 70
     8
 71
     3
 72
    12
 73
     8
 74
     0
 42
0.00000001
 43
0.00000001
 12
1.0
 22
0.0
 32
0.0
 13
1.0
 23
0.0
 33
0.0
 40
0.0
 40
0.0
 40
0.0
 40
0.0
 40
0.4999999999999996
 40
0.4999999999999996
 40
0.7499999999999998
 40
0.7499999999999998
 40
1.0
 40
1.0
 40
1.0
 40
1.0
 10
179.8263344940209
 20
138.6633015457419
 30
0.0
 10
179.8571862045851
 20
138.7026335861044
 30
0.0
 10
179.8990790680458
 20
138.7400453516327
 30
0.0
 10
179.9985999458389
 20
138.7897162762486
 30
0.0
 10
180.0382141105632
 20
138.8051053588564
 30
0.0
 10
180.1353171443427
 20
138.8289385745236
 30
0.0
 10
180.1958158169931
 20
138.8373911840124
 30
0.0
 10
180.2593471959131
 20
138.8373911840124
 30
0.0
  0
ELLIPSE
  5
8A
330
1F
100
AcDbEntity
  8
0
  6
Continuous
 62
     7
370
    15
100
AcDbEllipse
 10
192.7878480373
 20
115.0106600685
 30
0.0
 11
-11.70927234972708
 21
24.67718644093746
 31
0.0
210
0.0
220
0.0
230
1.0
 40
0.3419987131
 41
0.1689292745891236
 42
1.080116497809144
  0
LINE
  5
8B
330
1F
100
AcDbEntity
  8
0
  6
Continuous
 62
     7
370
    15
100
AcDbLine
 10
171.7315903823
 20
115.0106600685
 30
0.0
 11
171.7315903823
 21
139.7106600685
 31
0.0
  0
LINE
  5
8C
330
1F
100
AcDbEntity
  8
0
  6
Continuous
 62
     7
370
    15
100
AcDbLine
 10
171.7315903823
 20
90.3106600685
 30
0.0
 11
171.7315903823
 21
115.0106600685
 31
0.0
  0
LINE
  5
8D
330
1F
100
AcDbEntity
  8
0
  6
Continuous
 62
     7
370
    15
100
AcDbLine
 10
191.7315903823
 20
115.0106600685
 30
0.0
 11
191.7315903823
 21
139.4106600685
 31
0.0
  0
LINE
  5
8E
330
1F
100
AcDbEntity
  8
0
  6
Continuous
 62
     7
370
    15
100
AcDbLine
 10
191.7315903823
 20
90.6106600685
 30
0.0
 11
191.7315903823
 21
115.0106600685
 31
0.0
  0
LINE
  5
8F
330
1F
100
AcDbEntity
  8
0
  6
Continuous
 62
     7
370
    15
100
AcDbLine
 10
171.5315903823
 20
101.4248953811
 30
0.0
 11
171.5315903823
 21
97.1708397896
 31
0.0
  0
SPLINE
  5
90
330
1F
100
AcDbEntity
  8
0
  6
Continuous
 62
     7
370
    15
100
AcDbSpline
210
0.0
220
0.0
230
1.0
 70
     8
 71
     3
 72
    16
 73
    12
 74
     0
 42
0.00000001
 43
0.00000001
 12
1.0
 22
0.0
 32
0.0
 13
1.0
 23
0.0
 33
0.0
 40
0.0
 40
0.0
 40
0.0
 40
0.0
 40
0.4999999999999977
 40
0.4999999999999977
 40
0.7500000000000013
 40
0.7500000000000013
 40
0.8750000000000007
 40
0.8750000000000007
 40
0.9375000000000004
 40
0.9375000000000004
 40
1.0
 40
1.0
 40
1.0
 40
1.0
 10
171.5315903823467
 20
101.4248953811146
 30
0.0
 10
171.5315903823467
 20
101.5036896115712
 30
0.0
 10
171.5275330802316
 20
101.5847609600011
 30
0.0
 10
171.5018758374368
 20
101.7128779018177
 30
0.0
 10
171.4905603916947
 20
101.7574755494389
 30
0.0
 10
171.4565290243861
 20
101.8237948101345
 30
0.0
 10
171.4426500431823
 20
101.8467490079701
 30
0.0
 10
171.4067143614149
 20
101.8737874099344
 30
0.0
 10
171.3917640421522
 20
101.8805971458379
 30
0.0
 10
171.3618655294103
 20
101.8839426073877
 30
0.0
 10
171.348332669045
 20
101.8809845464142
 30
0.0
 10
171.336613493471
 20
101.8762522057214
 30
0.0
  0
SPLINE
  5
91
330
1F
100
AcDbEntity
  8
0
  6
Continuous
 62
     7
370
    15
100
AcDbSpline
210
0.0
220
0.0
230
1.0
 70
     8
 71
     3
 72
    14
 73
    10
 74
     0
 42
0.00000001
 43
0.00000001
 12
1.0
 22
0.0
 32
0.0
 13
1.0
 23
0.0
 33
0.0
 40
0.0
 40
0.0
 40
0.0
 40
0.0
 40
0.25
 40
0.25
 40
0.5
 40
0.5
 40
0.75
 40
0.75
 40
1.0
 40
1.0
 40
1.0
 40
1.0
 10
171.3366134934779
 20
101.8762522057163
 30
0.0
 10
171.2801577288691
 20
101.8534547051138
 30
0.0
 10
171.2092921026192
 20
101.837096111019
 30
0.0
 10
171.0608350214466
 20
101.842495552651
 30
0.0
 10
170.991641662139
 20
101.8635867704391
 30
0.0
 10
170.8819262240049
 20
101.9145091708288
 30
0.0
 10
170.8366816446735
 20
101.9450096009623
 30
0.0
 10
170.7570549352498
 20
102.0082699984486
 30
0.0
 10
170.7224447867163
 20
102.0415160636981
 30
0.0
 10
170.6907293542171
 20
102.0757975809857
 30
0.0
  0
SPLINE
  5
92
330
1F
100
AcDbEntity
  8
0
  6
Continuous
 62
     7
370
    15
100
AcDbSpline
210
0.0
220
0.0
230
1.0
 70
     8
 71
     3
 72
    10
 73
     6
 74
     0
 42
0.00000001
 43
0.00000001
 12
1.0
 22
0.0
 32
0.0
 13
1.0
 23
0.0
 33
0.0
 40
0.0
 40
0.0
 40
0.0
 40
0.0
 40
0.5
 40
0.5
 40
1.0
 40
1.0
 40
1.0
 40
1.0
 10
170.6907293542176
 20
102.0757975809851
 30
0.0
 10
170.6189495662942
 20
102.1533850469814
 30
0.0
 10
170.5664900519861
 20
102.2363470878135
 30
0.0
 10
170.4771469878849
 20
102.4108771365234
 30
0.0
 10
170.4411513783852
 20
102.5025382781742
 30
0.0
 10
170.4102700387871
 20
102.5983376825098
 30
0.0
  0
SPLINE
  5
93
330
1F
100
AcDbEntity
  8
0
  6
Continuous
 62
     7
370
    15
100
AcDbSpline
210
0.0
220
0.0
230
1.0
 70
     8
 71
     3
 72
    10
 73
     6
 74
     0
 42
0.00000001
 43
0.00000001
 12
1.0
 22
0.0
 32
0.0
 13
1.0
 23
0.0
 33
0.0
 40
0.0
 40
0.0
 40
0.0
 40
0.0
 40
0.5
 40
0.5
 40
1.0
 40
1.0
 40
1.0
 40
1.0
 10
170.4102700387871
 20
109.8761781351872
 30
0.0
 10
170.4411430705993
 20
110.0395221608547
 30
0.0
 10
170.4771299335123
 20
110.2015846299136
 30
0.0
 10
170.5664645194034
 20
110.5210162704175
 30
0.0
 10
170.618920378826
 20
110.6786499119869
 30
0.0
 10
170.6907293542183
 20
110.8307631640331
 30
0.0
  0
SPLINE
  5
94
330
1F
100
AcDbEntity
  8
0
  6
Continuous
 62
     7
370
    15
100
AcDbSpline
210
0.0
220
0.0
230
1.0
 70
     8
 71
     3
 72
    16
 73
    12
 74
     0
 42
0.00000001
 43
0.00000001
 12
1.0
 22
0.0
 32
0.0
 13
1.0
 23
0.0
 33
0.0
 40
0.0
 40
0.0
 40
0.0
 40
0.0
 40
0.2500000000000007
 40
0.2500000000000007
 40
0.5000000000000013
 40
0.5000000000000013
 40
0.6250000000000012
 40
0.6250000000000012
 40
0.7500000000000011
 40
0.7500000000000011
 40
1.0
 40
1.0
 40
1.0
 40
1.0
 10
170.6907293542176
 20
110.8307631640334
 30
0.0
 10
170.7224573154103
 20
110.8979726365465
 30
0.0
 10
170.7570849057608
 20
110.9634742686236
 30
0.0
 10
170.8367786678245
 20
111.0883240970574
 30
0.0
 10
170.8818201278282
 20
111.1484589591836
 30
0.0
 10
170.9646728546786
 20
111.2236084149397
 30
0.0
 10
170.9945873158785
 20
111.2456997008586
 30
0.0
 10
171.0605736464364
 20
111.2788611530315
 30
0.0
 10
171.0973072718982
 20
111.2897025637053
 30
0.0
 10
171.209803991468
 20
111.2932266947412
 30
0.0
 10
171.2801453395663
 20
111.2560926399436
 30
0.0
 10
171.3366134934714
 20
111.2067234042333
 30
0.0
  0
SPLINE
  5
95
330
1F
100
AcDbEntity
  8
0
  6
Continuous
 62
     7
370
    15
100
AcDbSpline
210
0.0
220
0.0
230
1.0
 70
     8
 71
     3
 72
    16
 73
    12
 74
     0
 42
0.00000001
 43
0.00000001
 12
1.0
 22
0.0
 32
0.0
 13
1.0
 23
0.0
 33
0.0
 40
0.0
 40
0.0
 40
0.0
 40
0.0
 40
0.0625000000000007
 40
0.0625000000000007
 40
0.1250000000000013
 40
0.1250000000000013
 40
0.2499999999999986
 40
0.2499999999999986
 40
0.4999999999999978
 40
0.4999999999999978
 40
1.0
 40
1.0
 40
1.0
 40
1.0
 10
171.3366134934398
 20
111.206723404185
 30
0.0
 10
171.3483198089417
 20
111.1964887531526
 30
0.0
 10
171.3618157222709
 20
111.1880288350989
 30
0.0
 10
171.3917167139523
 20
111.1825339161539
 30
0.0
 10
171.4066928458397
 20
111.1867123648628
 30
0.0
 10
171.4424288874551
 20
111.2110895653002
 30
0.0
 10
171.4564451644847
 20
111.237819211156
 30
0.0
 10
171.4906118180075
 20
111.3182687459378
 30
0.0
 10
171.5015930785514
 20
111.3757240941736
 30
0.0
 10
171.5274838659062
 20
111.550900485117
 30
0.0
 10
171.5315903823465
 20
111.6704208437822
 30
0.0
 10
171.5315903823468
 20
111.790319200826
 30
0.0
  0
LINE
  5
96
330
1F
100
AcDbEntity
  8
0
  6
Continuous
 62
     7
370
    15
100
AcDbLine
 10
171.5315903823
 20
131.8167656236
 30
0.0
 11
171.5315903823
 21
111.7903192008
 31
0.0
  0
LINE
  5
97
330
1F
100
AcDbEntity
  8
0
  6
Continuous
 62
     7
370
    15
100
AcDbLine
 10
171.5315903823
 20
131.8167656236
 30
0.0
 11
171.5148219813
 21
131.876158167
 31
0.0
  0
SPLINE
  5
98
330
1F
100
AcDbEntity
  8
0
  6
Continuous
 62
     7
370
    15
100
AcDbSpline
210
0.0
220
0.0
230
1.0
 70
     8
 71
     3
 72
    12
 73
     8
 74
     0
 42
0.00000001
 43
0.00000001
 12
1.0
 22
0.0
 32
0.0
 13
1.0
 23
0.0
 33
0.0
 40
0.0
 40
0.0
 40
0.0
 40
0.0
 40
0.5000000000000016
 40
0.5000000000000016
 40
0.7500000000000008
 40
0.7500000000000008
 40
1.0
 40
1.0
 40
1.0
 40
1.0
 10
171.4946042543428
 20
131.9477679895309
 30
0.0
 10
171.4844764840435
 20
131.957952759167
 30
0.0
 10
171.471983516084
 20
131.9670324877417
 30
0.0
 10
171.4365423359501
 20
131.9730562017089
 30
0.0
 10
171.4210711664856
 20
131.9738088651947
 30
0.0
 10
171.3776952746732
 20
131.9658985854323
 30
0.0
 10
171.3543091354192
 20
131.9573299143195
 30
0.0
 10
171.336613493471
 20
131.9490045955758
 30
0.0
  0
SPLINE
  5
99
330
1F
100
AcDbEntity
  8
0
  6
Continuous
 62
     7
370
    15
100
AcDbSpline
210
0.0
220
0.0
230
1.0
 70
     8
 71
     3
 72
    14
 73
    10
 74
     0
 42
0.00000001
 43
0.00000001
 12
1.0
 22
0.0
 32
0.0
 13
1.0
 23
0.0
 33
0.0
 40
0.0
 40
0.0
 40
0.0
 40
0.0
 40
0.25
 40
0.25
 40
0.5
 40
0.5
 40
0.75
 40
0.75
 40
1.0
 40
1.0
 40
1.0
 40
1.0
 10
171.3366134934779
 20
131.9490045955709
 30
0.0
 10
171.2801538275941
 20
131.9224418567884
 30
0.0
 10
171.2092813527319
 20
131.9017548099088
 30
0.0
 10
171.0608149948499
 20
131.9008433649016
 30
0.0
 10
170.9916197916422
 20
131.9202631742986
 30
0.0
 10
170.8819026055726
 20
131.9689968572591
 30
0.0
 10
170.8366567166407
 20
131.9988033662421
 30
0.0
 10
170.7570395856738
 20
132.0603091646722
 30
0.0
 10
170.7224369662169
 20
132.0925261578158
 30
0.0
 10
170.6907293542181
 20
132.1254194605136
 30
0.0
  0
SPLINE
  5
9A
330
1F
100
AcDbEntity
  8
0
  6
Continuous
 62
     7
370
    15
100
AcDbSpline
210
0.0
220
0.0
230
1.0
 70
     8
 71
     3
 72
    10
 73
     6
 74
     0
 42
0.00000001
 43
0.00000001
 12
1.0
 22
0.0
 32
0.0
 13
1.0
 23
0.0
 33
0.0
 40
0.0
 40
0.0
 40
0.0
 40
0.0
 40
0.5
 40
0.5
 40
1.0
 40
1.0
 40
1.0
 40
1.0
 10
170.410270038787
 20
132.5574643878337
 30
0.0
 10
170.441148622399
 20
132.4898818433032
 30
0.0
 10
170.4771413301224
 20
132.419456984334
 30
0.0
 10
170.5664815816195
 20
132.2745489454126
 30
0.0
 10
170.618939884465
 20
132.1998934625035
 30
0.0
 10
170.6907293542182
 20
132.1254194605135
 30
0.0
  0
SPLINE
  5
9B
330
1F
100
AcDbEntity
  8
0
  6
Continuous
 62
     7
370
    15
100
AcDbSpline
210
0.0
220
0.0
230
1.0
 70
     8
 71
     3
 72
    18
 73
    14
 74
     0
 42
0.00000001
 43
0.00000001
 12
1.0
 22
0.0
 32
0.0
 13
1.0
 23
0.0
 33
0.0
 40
0.0
 40
0.0
 40
0.0
 40
0.0
 40
0.25
 40
0.25
 40
0.375
 40
0.375
 40
0.5
 40
0.5
 40
0.625
 40
0.625
 40
0.75
 40
0.75
 40
1.0
 40
1.0
 40
1.0
 40
1.0
 10
170.410270038787
 20
102.5983376825098
 30
0.0
 10
170.2749844324847
 20
103.0180176791556
 30
0.0
 10
170.1738166862418
 20
103.4943457965421
 30
0.0
 10
170.0709553433728
 20
104.2938784869505
 30
0.0
 10
170.0448524978496
 20
104.5754797190033
 30
0.0
 10
170.0099625143047
 20
105.1653324756283
 30
0.0
 10
170.0013762560147
 20
105.4692984160253
 30
0.0
 10
170.0012765464491
 20
106.0947253766117
 30
0.0
 10
170.0097649175976
 20
106.4161879987458
 30
0.0
 10
170.0439082971182
 20
107.0766310182115
 30
0.0
 10
170.069705278972
 20
107.4169994203039
 30
0.0
 10
170.17310641036
 20
108.4557872396706
 30
0.0
 10
170.2749644025313
 20
109.1602987406425
 30
0.0
 10
170.410270038787
 20
109.8761781351872
 30
0.0
  0
LINE
  5
9C
330
1F
100
AcDbEntity
  8
0
  6
Continuous
 62
     7
370
    15
100
AcDbLine
 10
143.2315903823
 20
102.4999820539
 30
0.0
 11
143.2315903823
 21
110.830763164
 31
0.0
  0
LINE
  5
9D
330
1F
100
AcDbEntity
  8
0
  6
Continuous
 62
     7
370
    15
100
AcDbLine
 10
169.5315903823
 20
101.9277578965
 30
0.0
 11
169.5315903823
 21
110.830763164
 31
0.0
  0
LINE
  5
9E
330
1F
100
AcDbEntity
  8
0
  6
Continuous
 62
     7
370
    15
100
AcDbLine
 10
143.2315903823
 20
110.830763164
 30
0.0
 11
143.2315903823
 21
131.7012349876
 31
0.0
  0
LINE
  5
9F
330
1F
100
AcDbEntity
  8
0
  6
Continuous
 62
     7
370
    15
100
AcDbLine
 10
169.5315903823
 20
110.830763164
 30
0.0
 11
169.5315903823
 21
132.273459145
 31
0.0
  0
LINE
  5
A0
330
1F
100
AcDbEntity
  8
0
  6
Continuous
 62
     7
370
    15
100
AcDbLine
 10
241.7315903823
 20
131.0106600685
 30
0.0
 11
241.7315903823
 21
99.0106600716
 31
0.0
  0
SPLINE
  5
A1
330
1F
100
AcDbEntity
  8
0
  6
Continuous
 62
     7
370
    15
100
AcDbSpline
210
0.0
220
0.0
230
1.0
 70
     8
 71
     3
 72
    15
 73
    11
 74
     0
 42
0.00000001
 43
0.00000001
 12
1.0
 22
0.0
 32
0.0
 13
1.0
 23
0.0
 33
0.0
 40
0.0
 40
0.0
 40
0.0
 40
0.0
 40
0.1814174118704993
 40
0.3658359641625193
 40
0.4675599509868676
 40
0.5710649317053894
 40
0.6755134432385992
 40
0.7819604898817671
 40
0.9636804360131226
 40
1.0
 40
1.0
 40
1.0
 40
1.0
 10
210.7082520362796
 20
98.27220028878136
 30
0.0
 10
210.5529846626852
 20
98.24880004010193
 30
0.0
 10
210.2398813682648
 20
98.20161243859768
 30
0.0
 10
209.9110599749495
 20
98.14341158329547
 30
0.0
 10
209.6797507161808
 20
98.10038523213215
 30
0.0
 10
209.5247001599253
 20
98.07031536878475
 30
0.0
 10
209.3972305415468
 20
98.04482903458113
 30
0.0
 10
209.2854509997271
 20
98.02195633171549
 30
0.0
 10
209.2206862456007
 20
98.00838549224596
 30
0.0
 10
209.2377954188684
 20
98.01195485797447
 30
0.0
 10
209.2406453505754
 20
98.01254941905607
 30
0.0
  0
SPLINE
  5
A2
330
1F
100
AcDbEntity
  8
0
  6
Continuous
 62
     7
370
    15
100
AcDbSpline
210
0.0
220
0.0
230
1.0
 70
     8
 71
     3
 72
    30
 73
    26
 74
     0
 42
0.00000001
 43
0.00000001
 12
1.0
 22
0.0
 32
0.0
 13
1.0
 23
0.0
 33
0.0
 40
0.0
 40
0.0
 40
0.0
 40
0.0
 40
0.007415864769633
 40
0.0666205093321627
 40
0.1271153230467741
 40
0.1863734286399812
 40
0.2467204866355573
 40
0.3113114411830207
 40
0.3770263004180376
 40
0.4129435910446851
 40
0.4493033029918175
 40
0.4858827554755824
 40
0.5229082044827236
 40
0.561857544009435
 40
0.6013307153764732
 40
0.6410683320698954
 40
0.6813480606822677
 40
0.7215038434891923
 40
0.7619371007880663
 40
0.803249749488965
 40
0.8448689125099819
 40
0.8829897614090254
 40
0.9216288223592456
 40
0.960535072095836
 40
1.0
 40
1.0
 40
1.0
 40
1.0
 10
218.2253587404987
 20
98.01195839852927
 30
0.0
 10
218.2274031957666
 20
98.01153253051825
 30
0.0
 10
218.2457695839744
 20
98.0077067401777
 30
0.0
 10
218.1780373920717
 20
98.0218922070904
 30
0.0
 10
218.0276480844731
 20
98.05274239781188
 30
0.0
 10
217.7746272334993
 20
98.10244809369543
 30
0.0
 10
217.4373351132452
 20
98.16437136677634
 30
0.0
 10
217.0115721586822
 20
98.23538420018335
 30
0.0
 10
216.5834433630381
 20
98.29761771117387
 30
0.0
 10
216.1988209159466
 20
98.3459783968171
 30
0.0
 10
215.8808937303068
 20
98.38135814766535
 30
0.0
 10
215.5471357758204
 20
98.41336299922557
 30
0.0
 10
215.1946587947232
 20
98.44144463467522
 30
0.0
 10
214.8239050958904
 20
98.46454794933493
 30
0.0
 10
214.4372533590411
 20
98.48150716660248
 30
0.0
 10
214.0415265562928
 20
98.49133653684207
 30
0.0
 10
213.6414226994783
 20
98.49349644281985
 30
0.0
 10
213.239625021811
 20
98.48779330391454
 30
0.0
 10
212.8377944344807
 20
98.47425352965475
 30
0.0
 10
212.4374801708307
 20
98.45297058018998
 30
0.0
 10
212.053924899283
 20
98.42519120346353
 30
0.0
 10
211.6902097460033
 20
98.39238288109905
 30
0.0
 10
211.3483991222649
 20
98.355863746812
 30
0.0
 10
211.0170693324172
 20
98.31549593827003
 30
0.0
 10
210.8116791776702
 20
98.286700631865
 30
0.0
 10
210.7082520263459
 20
98.2722003432964
 30
0.0
  0
SPLINE
  5
A3
330
1F
100
AcDbEntity
  8
0
  6
Continuous
 62
     7
370
    15
100
AcDbSpline
210
0.0
220
0.0
230
1.0
 70
     8
 71
     3
 72
    37
 73
    33
 74
     0
 42
0.00000001
 43
0.00000001
 12
1.0
 22
0.0
 32
0.0
 13
1.0
 23
0.0
 33
0.0
 40
0.0
 40
0.0
 40
0.0
 40
0.0
 40
0.0144082444795592
 40
0.0385079920135992
 40
0.0601202600470696
 40
0.1040417990565126
 40
0.1263874800151397
 40
0.1488499023470976
 40
0.1944157153719935
 40
0.2175459548338838
 40
0.2424376173803418
 40
0.2929204732377709
 40
0.3185444417851365
 40
0.3462128398535566
 40
0.4023852438735734
 40
0.4309398489545138
 40
0.4603842988514338
 40
0.520240174328193
 40
0.5507195450978319
 40
0.5806543085767396
 40
0.6107985734961214
 40
0.6416114297139922
 40
0.672659736702655
 40
0.702223494905656
 40
0.7624636918924507
 40
0.7932503111851921
 40
0.8208996070368294
 40
0.8773741022119924
 40
0.9063313195827251
 40
0.9305983612143425
 40
0.9801386432985979
 40
1.0
 40
1.0
 40
1.0
 40
1.0
 10
209.2435380768654
 20
132.0081645834819
 30
0.0
 10
209.239786930829
 20
132.008947593188
 30
0.0
 10
209.2297614831198
 20
132.0110402930693
 30
0.0
 10
209.2649060793256
 20
132.0036949325032
 30
0.0
 10
209.335908431015
 20
131.9890003051071
 30
0.0
 10
209.4562374717046
 20
131.9644990368097
 30
0.0
 10
209.6194986389974
 20
131.9325566385294
 30
0.0
 10
209.8140750235937
 20
131.8956223104647
 30
0.0
 10
210.0508374208545
 20
131.8529736535315
 30
0.0
 10
210.3290329465933
 20
131.8066732203108
 30
0.0
 10
210.6456676696883
 20
131.7571334296966
 30
0.0
 10
211.005454968374
 20
131.7068265140222
 30
0.0
 10
211.402824158326
 20
131.6593736553342
 30
0.0
 10
211.8401722117417
 20
131.6135340246032
 30
0.0
 10
212.3148773641889
 20
131.5751642495086
 30
0.0
 10
212.8123809788825
 20
131.5483123803761
 30
0.0
 10
213.3339901425804
 20
131.5297863638225
 30
0.0
 10
213.8724360622933
 20
131.5263266211749
 30
0.0
 10
214.4082413867113
 20
131.5387741713482
 30
0.0
 10
214.8070809198093
 20
131.5558111278645
 30
0.0
 10
215.1998367826839
 20
131.5800706878697
 30
0.0
 10
215.5868041357302
 20
131.6112267450092
 30
0.0
 10
215.9576852427661
 20
131.6478685321058
 30
0.0
 10
216.4260396472814
 20
131.7020767794381
 30
0.0
 10
216.85663954042
 20
131.7624700110737
 30
0.0
 10
217.2293559962319
 20
131.8220984131537
 30
0.0
 10
217.554968021744
 20
131.877977454473
 30
0.0
 10
217.8203498100712
 20
131.9277652735327
 30
0.0
 10
218.0116746565878
 20
131.9655582278925
 30
0.0
 10
218.1485366893862
 20
131.993294678397
 30
0.0
 10
218.2245076653798
 20
132.0091791867198
 30
0.0
 10
218.2278643652845
 20
132.0098809130735
 30
0.0
 10
218.2288249854559
 20
132.0100817330781
 30
0.0
  0
SPLINE
  5
A4
330
1F
100
AcDbEntity
  8
0
  6
Continuous
 62
     7
370
    15
100
AcDbSpline
210
0.0
220
0.0
230
1.0
 70
     8
 71
     3
 72
    15
 73
    11
 74
     0
 42
0.00000001
 43
0.00000001
 12
1.0
 22
0.0
 32
0.0
 13
1.0
 23
0.0
 33
0.0
 40
0.0
 40
0.0
 40
0.0
 40
0.0
 40
0.181417411870498
 40
0.3658359641625194
 40
0.4675599509868679
 40
0.5710649317053884
 40
0.6755134432385977
 40
0.7819604898817664
 40
0.9636804360131224
 40
1.0
 40
1.0
 40
1.0
 40
1.0
 10
230.7082520362796
 20
98.27220028878136
 30
0.0
 10
230.5529846626852
 20
98.24880004010194
 30
0.0
 10
230.2398813682648
 20
98.20161243859769
 30
0.0
 10
229.9110599749495
 20
98.14341158329546
 30
0.0
 10
229.6797507161807
 20
98.10038523213217
 30
0.0
 10
229.5247001599253
 20
98.07031536878475
 30
0.0
 10
229.3972305415468
 20
98.04482903458113
 30
0.0
 10
229.2854509997271
 20
98.02195633171549
 30
0.0
 10
229.2206862456007
 20
98.00838549224598
 30
0.0
 10
229.2377954188684
 20
98.01195485797449
 30
0.0
 10
229.2406453505754
 20
98.01254941905607
 30
0.0
  0
SPLINE
  5
A5
330
1F
100
AcDbEntity
  8
0
  6
Continuous
 62
     7
370
    15
100
AcDbSpline
210
0.0
220
0.0
230
1.0
 70
     8
 71
     3
 72
    30
 73
    26
 74
     0
 42
0.00000001
 43
0.00000001
 12
1.0
 22
0.0
 32
0.0
 13
1.0
 23
0.0
 33
0.0
 40
0.0
 40
0.0
 40
0.0
 40
0.0
 40
0.0074158647696319
 40
0.066620509332162
 40
0.1271153230467735
 40
0.186373428639981
 40
0.2467204866355571
 40
0.3113114411830206
 40
0.377026300418038
 40
0.4129435910446854
 40
0.4493033029918191
 40
0.4858827554755826
 40
0.5229082044827239
 40
0.5618575440094352
 40
0.6013307153764735
 40
0.6410683320698951
 40
0.6813480606822668
 40
0.7215038434891915
 40
0.7619371007880656
 40
0.8032497494889644
 40
0.8448689125099814
 40
0.8829897614090244
 40
0.9216288223592454
 40
0.960535072095836
 40
1.0
 40
1.0
 40
1.0
 40
1.0
 10
238.2253587404987
 20
98.01195839852927
 30
0.0
 10
238.2274031957666
 20
98.01153253051827
 30
0.0
 10
238.2457695839744
 20
98.0077067401777
 30
0.0
 10
238.1780373920717
 20
98.0218922070904
 30
0.0
 10
238.027648084473
 20
98.0527423978119
 30
0.0
 10
237.7746272334992
 20
98.10244809369541
 30
0.0
 10
237.4373351132452
 20
98.16437136677634
 30
0.0
 10
237.0115721586821
 20
98.23538420018336
 30
0.0
 10
236.583443363038
 20
98.29761771117387
 30
0.0
 10
236.1988209159465
 20
98.34597839681712
 30
0.0
 10
235.8808937303068
 20
98.38135814766535
 30
0.0
 10
235.5471357758203
 20
98.41336299922557
 30
0.0
 10
235.1946587947232
 20
98.44144463467521
 30
0.0
 10
234.8239050958904
 20
98.46454794933493
 30
0.0
 10
234.437253359041
 20
98.4815071666025
 30
0.0
 10
234.0415265562929
 20
98.49133653684207
 30
0.0
 10
233.6414226994783
 20
98.49349644281983
 30
0.0
 10
233.239625021811
 20
98.48779330391456
 30
0.0
 10
232.8377944344807
 20
98.47425352965475
 30
0.0
 10
232.4374801708307
 20
98.45297058018998
 30
0.0
 10
232.053924899283
 20
98.42519120346351
 30
0.0
 10
231.6902097460033
 20
98.39238288109907
 30
0.0
 10
231.3483991222649
 20
98.355863746812
 30
0.0
 10
231.0170693324172
 20
98.31549593827005
 30
0.0
 10
230.8116791776702
 20
98.286700631865
 30
0.0
 10
230.7082520263459
 20
98.2722003432964
 30
0.0
  0
SPLINE
  5
A6
330
1F
100
AcDbEntity
  8
0
  6
Continuous
 62
     7
370
    15
100
AcDbSpline
210
0.0
220
0.0
230
1.0
 70
     8
 71
     3
 72
    37
 73
    33
 74
     0
 42
0.00000001
 43
0.00000001
 12
1.0
 22
0.0
 32
0.0
 13
1.0
 23
0.0
 33
0.0
 40
0.0
 40
0.0
 40
0.0
 40
0.0
 40
0.0144082444795591
 40
0.0385079920135992
 40
0.0601202600470697
 40
0.1040417990565129
 40
0.1263874800151401
 40
0.1488499023470975
 40
0.1944157153719935
 40
0.2175459548338841
 40
0.2424376173803417
 40
0.2929204732377709
 40
0.3185444417851365
 40
0.3462128398535566
 40
0.402385243873573
 40
0.4309398489545139
 40
0.460384298851434
 40
0.5202401743281928
 40
0.5507195450978317
 40
0.5806543085767398
 40
0.6107985734961217
 40
0.6416114297139909
 40
0.6726597367026558
 40
0.7022234949056569
 40
0.7624636918924521
 40
0.7932503111851922
 40
0.8208996070368293
 40
0.8773741022119926
 40
0.9063313195827254
 40
0.930598361214343
 40
0.9801386432985976
 40
1.0
 40
1.0
 40
1.0
 40
1.0
 10
229.2435380768654
 20
132.0081645834819
 30
0.0
 10
229.239786930829
 20
132.008947593188
 30
0.0
 10
229.2297614831198
 20
132.0110402930693
 30
0.0
 10
229.2649060793256
 20
132.0036949325033
 30
0.0
 10
229.3359084310149
 20
131.9890003051071
 30
0.0
 10
229.4562374717046
 20
131.9644990368097
 30
0.0
 10
229.6194986389974
 20
131.9325566385294
 30
0.0
 10
229.8140750235937
 20
131.8956223104647
 30
0.0
 10
230.0508374208545
 20
131.8529736535315
 30
0.0
 10
230.3290329465933
 20
131.8066732203108
 30
0.0
 10
230.6456676696882
 20
131.7571334296966
 30
0.0
 10
231.005454968374
 20
131.7068265140222
 30
0.0
 10
231.402824158326
 20
131.6593736553343
 30
0.0
 10
231.8401722117417
 20
131.6135340246032
 30
0.0
 10
232.3148773641889
 20
131.5751642495086
 30
0.0
 10
232.8123809788825
 20
131.5483123803761
 30
0.0
 10
233.3339901425804
 20
131.5297863638225
 30
0.0
 10
233.8724360622933
 20
131.5263266211749
 30
0.0
 10
234.4082413867113
 20
131.5387741713482
 30
0.0
 10
234.8070809198092
 20
131.5558111278645
 30
0.0
 10
235.1998367826839
 20
131.5800706878697
 30
0.0
 10
235.5868041357301
 20
131.6112267450092
 30
0.0
 10
235.9576852427661
 20
131.6478685321058
 30
0.0
 10
236.4260396472814
 20
131.7020767794381
 30
0.0
 10
236.85663954042
 20
131.7624700110737
 30
0.0
 10
237.2293559962319
 20
131.8220984131537
 30
0.0
 10
237.554968021744
 20
131.877977454473
 30
0.0
 10
237.8203498100711
 20
131.9277652735327
 30
0.0
 10
238.0116746565878
 20
131.9655582278925
 30
0.0
 10
238.1485366893862
 20
131.993294678397
 30
0.0
 10
238.2245076653797
 20
132.0091791867198
 30
0.0
 10
238.2278643652845
 20
132.0098809130735
 30
0.0
 10
238.2288249854559
 20
132.0100817330781
 30
0.0
  0
SPLINE
  5
A7
330
1F
100
AcDbEntity
  8
0
  6
Continuous
 62
     7
370
    15
100
AcDbSpline
210
0.0
220
0.0
230
1.0
 70
     8
 71
     3
 72
    15
 73
    11
 74
     0
 42
0.00000001
 43
0.00000001
 12
1.0
 22
0.0
 32
0.0
 13
1.0
 23
0.0
 33
0.0
 40
0.0
 40
0.0
 40
0.0
 40
0.0
 40
0.0903029813339968
 40
0.2732134389759483
 40
0.3660357005831042
 40
0.4677795660875949
 40
0.6755357092373053
 40
0.7820035575306883
 40
0.872233777420338
 40
1.0
 40
1.0
 40
1.0
 40
1.0
 10
220.7082520362796
 20
98.27220028878136
 30
0.0
 10
220.629773549402
 20
98.26062538700047
 30
0.0
 10
220.3923353500347
 20
98.22560529492108
 30
0.0
 10
220.11006245767
 20
98.17846937401255
 30
0.0
 10
219.8563874528687
 20
98.13331166705333
 30
0.0
 10
219.6182778113069
 20
98.08890126298861
 30
0.0
 10
219.4277440669329
 20
98.05107110469588
 30
0.0
 10
219.3100209995916
 20
98.02698246191767
 30
0.0
 10
219.2433574246381
 20
98.01313265338493
 30
0.0
 10
219.243471322253
 20
98.01314709147367
 30
0.0
 10
219.2435380768654
 20
98.01315555353865
 30
0.0
  0
SPLINE
  5
A8
330
1F
100
AcDbEntity
  8
0
  6
Continuous
 62
     7
370
    15
100
AcDbSpline
210
0.0
220
0.0
230
1.0
 70
     8
 71
     3
 72
    30
 73
    26
 74
     0
 42
0.00000001
 43
0.00000001
 12
1.0
 22
0.0
 32
0.0
 13
1.0
 23
0.0
 33
0.0
 40
0.0
 40
0.0
 40
0.0
 40
0.0
 40
0.0073996920746178
 40
0.0368168278649164
 40
0.0966661052545919
 40
0.1271592320723734
 40
0.1566297281361143
 40
0.2164391651890717
 40
0.2468161175373566
 40
0.2789478061740767
 40
0.3441082519936486
 40
0.3771760171691927
 40
0.4130954956617916
 40
0.48598448862258
 40
0.5230121929980355
 40
0.5619639050849341
 40
0.6411135510490923
 40
0.6813957332609768
 40
0.7215539621173783
 40
0.7619896823678113
 40
0.8033048475875195
 40
0.8449265457983602
 40
0.8830497167909098
 40
0.9605326681290968
 40
1.0
 40
1.0
 40
1.0
 40
1.0
 10
228.2288249854559
 20
98.01123840394243
 30
0.0
 10
228.229685898376
 20
98.01105839120912
 30
0.0
 10
228.233969331047
 20
98.01016274612701
 30
0.0
 10
228.2073190741242
 20
98.01573790830204
 30
0.0
 10
228.1364920862858
 20
98.03048092217198
 30
0.0
 10
228.0141706298132
 20
98.05523631314318
 30
0.0
 10
227.8627730893685
 20
98.0851895665528
 30
0.0
 10
227.6688075157014
 20
98.12213571426194
 30
0.0
 10
227.4329351934885
 20
98.16434716437564
 30
0.0
 10
227.1613948853415
 20
98.21066124037937
 30
0.0
 10
226.8468335357463
 20
98.25991003924139
 30
0.0
 10
226.4924738595398
 20
98.30905223025643
 30
0.0
 10
226.0970724032044
 20
98.35878047706342
 30
0.0
 10
225.6607473672619
 20
98.40432085838101
 30
0.0
 10
225.1946562032407
 20
98.44144054328366
 30
0.0
 10
224.6966135578082
 20
98.47249517026323
 30
0.0
 10
224.1726047165162
 20
98.4906431710924
 30
0.0
 10
223.6414457298491
 20
98.49349361697067
 30
0.0
 10
223.239620740195
 20
98.48779405938656
 30
0.0
 10
222.837788310869
 20
98.47425334449281
 30
0.0
 10
222.4375098747453
 20
98.4529705434192
 30
0.0
 10
222.0538155625707
 20
98.42519153075894
 30
0.0
 10
221.5714083820145
 20
98.3816171036493
 30
0.0
 10
221.1184387838964
 20
98.32964402141553
 30
0.0
 10
220.8117504518973
 20
98.28669454656792
 30
0.0
 10
220.7082520263459
 20
98.2722003432964
 30
0.0
  0
SPLINE
  5
A9
330
1F
100
AcDbEntity
  8
0
  6
Continuous
 62
     7
370
    15
100
AcDbSpline
210
0.0
220
0.0
230
1.0
 70
     8
 71
     3
 72
    26
 73
    22
 74
     0
 42
0.00000001
 43
0.00000001
 12
1.0
 22
0.0
 32
0.0
 13
1.0
 23
0.0
 33
0.0
 40
0.0
 40
0.0
 40
0.0
 40
0.0
 40
0.038459412330496
 40
0.0818183449604028
 40
0.1263539290261254
 40
0.1714068314003755
 40
0.2175324883470996
 40
0.2674554770262521
 40
0.3185533489045904
 40
0.3740523731183535
 40
0.430969846524196
 40
0.4900415857494882
 40
0.5507673801306541
 40
0.6108288511320765
 40
0.6726668750408114
 40
0.7319943578409094
 40
0.793264781448258
 40
0.8487674591752449
 40
0.906344326433587
 40
0.9550570651014063
 40
1.0
 40
1.0
 40
1.0
 40
1.0
 10
219.2408358504875
 20
132.008730950393
 30
0.0
 10
219.2442937921581
 20
132.0079992434514
 30
0.0
 10
219.2516501984916
 20
132.0064426140769
 30
0.0
 10
219.3873352369315
 20
131.9783498982614
 30
0.0
 10
219.6093458247815
 20
131.9341354699755
 30
0.0
 10
219.9235761253462
 20
131.8751997479496
 30
0.0
 10
220.3265714000511
 20
131.8059564589457
 30
0.0
 10
220.8183448195971
 20
131.7313118369092
 30
0.0
 10
221.4053877580496
 20
131.6567789621086
 30
0.0
 10
222.0731549623879
 20
131.5916536244582
 30
0.0
 10
222.8149448509789
 20
131.544619884305
 30
0.0
 10
223.6036263192831
 20
131.5240384390075
 30
0.0
 10
224.4101186269219
 20
131.5348744523081
 30
0.0
 10
225.2098076973931
 20
131.5770874797014
 30
0.0
 10
225.9617418615793
 20
131.6452161829331
 30
0.0
 10
226.6531772925373
 20
131.7315067507859
 30
0.0
 10
227.234776249337
 20
131.8214598319265
 30
0.0
 10
227.7043215453103
 20
131.9051310000508
 30
0.0
 10
228.0188653297296
 20
131.9666782232155
 30
0.0
 10
228.2026216778874
 20
132.0045625957137
 30
0.0
 10
228.2179651716977
 20
132.007801266145
 30
0.0
 10
228.2253281174455
 20
132.0093554203015
 30
0.0
  0
LINE
  5
AA
330
1F
100
AcDbEntity
  8
0
  6
Continuous
 62
     7
370
    15
100
AcDbLine
 10
141.7315903823
 20
110.830763164
 30
0.0
 11
141.7315903823
 21
130.9512349876
 31
0.0
  0
LINE
  5
AB
330
1F
100
AcDbEntity
  8
0
  6
Continuous
 62
     7
370
    15
100
AcDbLine
 10
141.7315903823
 20
103.2499820539
 30
0.0
 11
141.7315903823
 21
110.830763164
 31
0.0
  0
SPLINE
  5
AC
330
1F
100
AcDbEntity
  8
0
  6
Continuous
 62
     7
370
    15
100
AcDbSpline
210
0.0
220
0.0
230
1.0
 70
     8
 71
     3
 72
     8
 73
     4
 74
     0
 42
0.00000001
 43
0.00000001
 12
1.0
 22
0.0
 32
0.0
 13
1.0
 23
0.0
 33
0.0
 40
0.0000202085968836
 40
0.0000202085968836
 40
0.0000202085968836
 40
0.0000202085968836
 40
0.0040218806502652
 40
0.0040218806502652
 40
0.0040218806502652
 40
0.0040218806502652
 10
143.2315903823467
 20
99.47786331009982
 30
0.0
 10
144.5649135081373
 20
99.44723839828649
 30
0.0
 10
145.8982473813599
 20
99.41654938680284
 30
0.0
 10
147.2315903823467
 20
99.38579631007288
 30
0.0
  0
LINE
  5
AD
330
1F
100
AcDbEntity
  8
0
  6
Continuous
 62
     7
370
    15
100
AcDbLine
 10
143.2315903823
 20
99.4778633101
 30
0.0
 11
143.2315903823
 21
102.4999820539
 31
0.0
  0
LINE
  5
AE
330
1F
100
AcDbEntity
  8
0
  6
Continuous
 62
     7
370
    15
100
AcDbLine
 10
169.5315903823
 20
98.6105612839
 30
0.0
 11
169.5315903823
 21
101.9277578965
 31
0.0
  0
SPLINE
  5
AF
330
1F
100
AcDbEntity
  8
0
  6
Continuous
 62
     7
370
    15
100
AcDbSpline
210
0.0
220
0.0
230
1.0
 70
     8
 71
     3
 72
    13
 73
     9
 74
     0
 42
0.00000001
 43
0.00000001
 12
1.0
 22
0.0
 32
0.0
 13
1.0
 23
0.0
 33
0.0
 40
0.0
 40
0.0
 40
0.0
 40
0.0
 40
0.2136970964118671
 40
0.4278382797628069
 40
0.6418359052943472
 40
0.8614732575984548
 40
0.9580596563195518
 40
1.0
 40
1.0
 40
1.0
 40
1.0
 10
147.2315903823467
 20
99.38579631007288
 30
0.0
 10
147.4104496831151
 20
99.35560520903508
 30
0.0
 10
147.7685399746784
 20
99.29516026640816
 30
0.0
 10
148.2753751587803
 20
99.22259347848043
 30
0.0
 10
148.7416707520275
 20
99.16389347256141
 30
0.0
 10
149.0224568679965
 20
99.13337220936671
 30
0.0
 10
149.1191252280841
 20
99.12337116513287
 30
0.0
 10
149.111752110137
 20
99.1241345248867
 30
0.0
 10
149.1095198256312
 20
99.12436563961496
 30
0.0
  0
SPLINE
  5
B0
330
1F
100
AcDbEntity
  8
0
  6
Continuous
 62
     7
370
    15
100
AcDbSpline
210
0.0
220
0.0
230
1.0
 70
     8
 71
     3
 72
    38
 73
    34
 74
     0
 42
0.00000001
 43
0.00000001
 12
1.0
 22
0.0
 32
0.0
 13
1.0
 23
0.0
 33
0.0
 40
0.0
 40
0.0
 40
0.0
 40
0.0
 40
0.0021405470002049
 40
0.0278292546337999
 40
0.0514992363430155
 40
0.0996303830856481
 40
0.1241405668882755
 40
0.1481635146956821
 40
0.1969512916021521
 40
0.2217562625580456
 40
0.2471856901423639
 40
0.2988147683757566
 40
0.3250572897143619
 40
0.352182386161756
 40
0.4072832905191085
 40
0.4353130265893745
 40
0.4636212019360878
 40
0.5211764100736437
 40
0.5504908524941319
 40
0.5791063886170635
 40
0.6079241236379175
 40
0.637388260948705
 40
0.6670800149919266
 40
0.695203295289466
 40
0.7524773046529061
 40
0.781717219140117
 40
0.8086208165513328
 40
0.8634473920091944
 40
0.8914615683184816
 40
0.916733772698658
 40
0.9682189373603287
 40
0.9945081678396348
 40
0.9999999999999999
 40
0.9999999999999999
 40
0.9999999999999999
 40
0.9999999999999999
 10
161.1797528467307
 20
98.82060798797838
 30
0.0
 10
161.1803747419641
 20
98.8205180946481
 30
0.0
 10
161.1884600027889
 20
98.81934939133163
 30
0.0
 10
161.1692247220086
 20
98.82213827736209
 30
0.0
 10
161.1278888459808
 20
98.82811096182719
 30
0.0
 10
161.0403157008624
 20
98.84061810924152
 30
0.0
 10
160.9164427373323
 20
98.85770690542799
 30
0.0
 10
160.7668404095529
 20
98.87781267999118
 30
0.0
 10
160.5815521462048
 20
98.90162816126035
 30
0.0
 10
160.3625970692006
 20
98.92789745518994
 30
0.0
 10
160.1171961151721
 20
98.95584450391775
 30
0.0
 10
159.8392251011003
 20
98.98475447768008
 30
0.0
 10
159.5337407973537
 20
99.012814064096
 30
0.0
 10
159.2037268516873
 20
99.04032773368968
 30
0.0
 10
158.8484434630691
 20
99.06512933763703
 30
0.0
 10
158.4775714491691
 20
99.08541526032383
 30
0.0
 10
158.0924839441271
 20
99.1025287439555
 30
0.0
 10
157.6968736444079
 20
99.11378911407584
 30
0.0
 10
157.303799502357
 20
99.118559567996
 30
0.0
 10
157.0119549222959
 20
99.11896811928011
 30
0.0
 10
156.7251907389405
 20
99.11635402493394
 30
0.0
 10
156.4427263077552
 20
99.11083771528529
 30
0.0
 10
156.1725881856815
 20
99.10279774942859
 30
0.0
 10
155.8324428174143
 20
99.08942939202095
 30
0.0
 10
155.5203746383771
 20
99.0728323559104
 30
0.0
 10
155.247945889604
 20
99.05523209738318
 30
0.0
 10
155.0065260816202
 20
99.03796887174022
 30
0.0
 10
154.8068194056843
 20
99.02175416810152
 30
0.0
 10
154.6562786900311
 20
99.00858507613255
 30
0.0
 10
154.5397131564374
 20
98.99797153478414
 30
0.0
 10
154.4725009856833
 20
98.99154851444031
 30
0.0
 10
154.4487923518194
 20
98.98926270177569
 30
0.0
 10
154.4519579758816
 20
98.98956773137546
 30
0.0
 10
154.4525050021479
 20
98.98962044110971
 30
0.0
  0
SPLINE
  5
B1
330
1F
100
AcDbEntity
  8
0
  6
Continuous
 62
     7
370
    15
100
AcDbSpline
210
0.0
220
0.0
230
1.0
 70
     8
 71
     3
 72
     8
 73
     4
 74
     0
 42
0.00000001
 43
0.00000001
 12
1.0
 22
0.0
 32
0.0
 13
1.0
 23
0.0
 33
0.0
 40
0.0
 40
0.0
 40
0.0
 40
0.0
 40
1.0
 40
1.0
 40
1.0
 40
1.0
 10
141.7315903823458
 20
100.2553910848663
 30
0.0
 10
142.2058017927837
 20
100.0140802109072
 30
0.0
 10
142.7105381398856
 20
99.75289343675672
 30
0.0
 10
143.2315903823467
 20
99.47786331009982
 30
0.0
  0
LINE
  5
B2
330
1F
100
AcDbEntity
  8
0
  6
Continuous
 62
     7
370
    15
100
AcDbLine
 10
141.7315903823
 20
100.2553910849
 30
0.0
 11
141.7315903823
 21
103.2499820539
 31
0.0
  0
LINE
  5
B3
330
1F
100
AcDbEntity
  8
0
  6
Continuous
 62
     7
370
    15
100
AcDbLine
 10
169.5315903823
 20
133.6507588531
 30
0.0
 11
169.5315903823
 21
132.273459145
 31
0.0
  0
LINE
  5
B4
330
1F
100
AcDbEntity
  8
0
  6
Continuous
 62
     7
370
    15
100
AcDbLine
 10
143.2315903823
 20
132.9900113105
 30
0.0
 11
143.2315903823
 21
131.7012349876
 31
0.0
  0
SPLINE
  5
B5
330
1F
100
AcDbEntity
  8
0
  6
Continuous
 62
     7
370
    15
100
AcDbSpline
210
0.0
220
0.0
230
1.0
 70
     8
 71
     3
 72
    11
 73
     7
 74
     0
 42
0.00000001
 43
0.00000001
 12
1.0
 22
0.0
 32
0.0
 13
1.0
 23
0.0
 33
0.0
 40
0.0
 40
0.0
 40
0.0
 40
0.0
 40
0.0902262628413862
 40
0.4609960513161546
 40
0.7284424429551093
 40
1.0
 40
1.0
 40
1.0
 40
1.0
 10
170.0114382092196
 20
133.4398852639239
 30
0.0
 10
170.0083928158716
 20
133.4466937606255
 30
0.0
 10
169.9928328861578
 20
133.4814806397001
 30
0.0
 10
170.0677076308513
 20
133.3140469615487
 30
0.0
 10
170.2079499759976
 20
133.0019305928639
 30
0.0
 10
170.3424879622833
 20
132.7063712332414
 30
0.0
 10
170.410270038787
 20
132.5574643878337
 30
0.0
  0
LINE
  5
B6
330
1F
100
AcDbEntity
  8
0
  6
Continuous
 62
     7
370
    15
100
AcDbLine
 10
141.7315903823
 20
132.1239859067
 30
0.0
 11
141.7315903823
 21
130.9512349876
 31
0.0
  0
LINE
  5
B7
330
1F
100
AcDbEntity
  8
0
  6
Continuous
 62
     7
370
    15
100
AcDbLine
 10
225.6063468647
 20
98.4093204294
 30
0.0
 11
221.8610191179
 21
98.4093204294
 31
0.0
  0
LINE
  5
B8
330
1F
100
AcDbEntity
  8
0
  6
Continuous
 62
     7
370
    15
100
AcDbLine
 10
227.0410903823
 20
98.0106600685
 30
0.0
 11
220.4220903823
 21
98.0106600685
 31
0.0
  0
LINE
  5
B9
330
1F
100
AcDbEntity
  8
0
  6
Continuous
 62
     7
370
    15
100
AcDbLine
 10
215.6087958468
 20
98.4093204294
 30
0.0
 11
211.8610191179
 21
98.4093204294
 31
0.0
  0
LINE
  5
BA
330
1F
100
AcDbEntity
  8
0
  6
Continuous
 62
     7
370
    15
100
AcDbLine
 10
217.0410903823
 20
98.0106600685
 30
0.0
 11
210.4220903823
 21
98.0106600685
 31
0.0
  0
LINE
  5
BB
330
1F
100
AcDbEntity
  8
0
  6
Continuous
 62
     7
370
    15
100
AcDbLine
 10
233.7315903823
 20
131.6119997076
 30
0.0
 11
235.6060066353
 21
131.6119997076
 31
0.0
  0
LINE
  5
BC
330
1F
100
AcDbEntity
  8
0
  6
Continuous
 62
     7
370
    15
100
AcDbLine
 10
231.8599132573
 20
131.6119997076
 30
0.0
 11
233.7315903823
 21
131.6119997076
 31
0.0
  0
LINE
  5
BD
330
1F
100
AcDbEntity
  8
0
  6
Continuous
 62
     7
370
    15
100
AcDbLine
 10
233.7315903823
 20
132.0106600685
 30
0.0
 11
237.0410903823
 21
132.0106600685
 31
0.0
  0
LINE
  5
BE
330
1F
100
AcDbEntity
  8
0
  6
Continuous
 62
     7
370
    15
100
AcDbLine
 10
230.4220903823
 20
132.0106600685
 30
0.0
 11
233.7315903823
 21
132.0106600685
 31
0.0
  0
LINE
  5
BF
330
1F
100
AcDbEntity
  8
0
  6
Continuous
 62
     7
370
    15
100
AcDbLine
 10
223.7315903823
 20
131.6119997076
 30
0.0
 11
225.5791046073
 21
131.6119997076
 31
0.0
  0
LINE
  5
C0
330
1F
100
AcDbEntity
  8
0
  6
Continuous
 62
     7
370
    15
100
AcDbLine
 10
221.8729006036
 20
131.6119997076
 30
0.0
 11
223.7315903823
 21
131.6119997076
 31
0.0
  0
LINE
  5
C1
330
1F
100
AcDbEntity
  8
0
  6
Continuous
 62
     7
370
    15
100
AcDbLine
 10
223.7315903823
 20
132.0106600685
 30
0.0
 11
227.0410903823
 21
132.0106600685
 31
0.0
  0
LINE
  5
C2
330
1F
100
AcDbEntity
  8
0
  6
Continuous
 62
     7
370
    15
100
AcDbLine
 10
220.4220903823
 20
132.0106600685
 30
0.0
 11
223.7315903823
 21
132.0106600685
 31
0.0
  0
LINE
  5
C3
330
1F
100
AcDbEntity
  8
0
  6
Continuous
 62
     7
370
    15
100
AcDbLine
 10
213.7315903823
 20
131.6119997076
 30
0.0
 11
215.6060066353
 21
131.6119997076
 31
0.0
  0
LINE
  5
C4
330
1F
100
AcDbEntity
  8
0
  6
Continuous
 62
     7
370
    15
100
AcDbLine
 10
211.8599132573
 20
131.6119997076
 30
0.0
 11
213.7315903823
 21
131.6119997076
 31
0.0
  0
LINE
  5
C5
330
1F
100
AcDbEntity
  8
0
  6
Continuous
 62
     7
370
    15
100
AcDbLine
 10
213.7315903823
 20
132.0106600685
 30
0.0
 11
217.0410903823
 21
132.0106600685
 31
0.0
  0
LINE
  5
C6
330
1F
100
AcDbEntity
  8
0
  6
Continuous
 62
     7
370
    15
100
AcDbLine
 10
210.4220903823
 20
132.0106600685
 30
0.0
 11
213.7315903823
 21
132.0106600685
 31
0.0
  0
LINE
  5
C7
330
1F
100
AcDbEntity
  8
0
  6
Continuous
 62
     7
370
    15
100
AcDbLine
 10
235.6087958468
 20
98.4093204294
 30
0.0
 11
231.8610191179
 21
98.4093204294
 31
0.0
  0
LINE
  5
C8
330
1F
100
AcDbEntity
  8
0
  6
Continuous
 62
     7
370
    15
100
AcDbLine
 10
237.0410903823
 20
98.0106600685
 30
0.0
 11
230.4220903823
 21
98.0106600685
 31
0.0
  0
SPLINE
  5
C9
330
1F
100
AcDbEntity
  8
0
  6
HIDDEN
 62
     7
370
     0
100
AcDbSpline
210
0.0
220
0.0
230
1.0
 70
     8
 71
     3
 72
    26
 73
    22
 74
     0
 42
0.00000001
 43
0.00000001
 12
1.0
 22
0.0
 32
0.0
 13
1.0
 23
0.0
 33
0.0
 40
0.0
 40
0.0
 40
0.0
 40
0.0
 40
0.052810954883557
 40
0.1071564116917462
 40
0.1599665165705016
 40
0.2143023466882514
 40
0.2672176338378014
 40
0.3216631186220653
 40
0.3746447975896949
 40
0.4291692390376481
 40
0.4820352938488875
 40
0.5364416003741574
 40
0.5891904120747044
 40
0.6434657842578951
 40
0.6962786601482851
 40
0.7506146500173574
 40
0.8035727760278413
 40
0.8580660813007296
 40
0.9110243857590903
 40
0.9655267150549481
 40
0.9999999999999999
 40
0.9999999999999999
 40
0.9999999999999999
 40
0.9999999999999999
 10
181.7315903823467
 20
90.01066006851023
 30
0.0
 10
181.7369131575344
 20
90.01108876655886
 30
0.0
 10
181.7477133691688
 20
90.01195861912431
 30
0.0
 10
181.8345943580184
 20
90.01877253538842
 30
0.0
 10
181.972019470028
 20
90.02891596136021
 30
0.0
 10
182.1588308853738
 20
90.04150237659822
 30
0.0
 10
182.3918625833571
 20
90.05522244165287
 30
0.0
 10
182.6609637696367
 20
90.06835001965642
 30
0.0
 10
182.9632300746792
 20
90.0796006472056
 30
0.0
 10
183.2845280690858
 20
90.08750987110265
 30
0.0
 10
183.6213424224462
 20
90.09130959122307
 30
0.0
 10
183.957748843512
 20
90.09051777400845
 30
0.0
 10
184.2904826426866
 20
90.08522655971845
 30
0.0
 10
184.6043062195799
 20
90.07612824315025
 30
0.0
 10
184.8962621854718
 20
90.0640935148031
 30
0.0
 10
185.1531900028559
 20
90.05064959441212
 30
0.0
 10
185.3720927699971
 20
90.03710415409965
 30
0.0
 10
185.5434892066814
 20
90.02514061719299
 30
0.0
 10
185.6625329310704
 20
90.0161483618088
 30
0.0
 10
185.7260022841774
 20
90.01110864952858
 30
0.0
 10
185.7255326071398
 20
90.01114433071615
 30
0.0
 10
185.7253506324438
 20
90.01115815526522
 30
0.0
  0
SPLINE
  5
CA
330
1F
100
AcDbEntity
  8
0
  6
HIDDEN
 62
     7
370
     0
100
AcDbSpline
210
0.0
220
0.0
230
1.0
 70
     8
 71
     3
 72
    12
 73
     8
 74
     0
 42
0.00000001
 43
0.00000001
 12
1.0
 22
0.0
 32
0.0
 13
1.0
 23
0.0
 33
0.0
 40
0.0
 40
0.0
 40
0.0
 40
0.0
 40
0.2499999999999993
 40
0.2499999999999993
 40
0.4999999999999987
 40
0.4999999999999987
 40
1.0
 40
1.0
 40
1.0
 40
1.0
 10
180.2593471959131
 20
107.4418500993297
 30
0.0
 10
180.1956819593826
 20
107.4418500993297
 30
0.0
 10
180.1360757271593
 20
107.4157779508501
 30
0.0
 10
180.0374152022284
 20
107.340239200029
 30
0.0
 10
179.9984482122132
 20
107.2929882629327
 30
0.0
 10
179.8990613802887
 20
107.1411644449663
 30
0.0
 10
179.8569851328652
 20
107.0283611952012
 30
0.0
 10
179.8263344940209
 20
106.9142070704661
 30
0.0
  0
LINE
  5
CB
330
1F
100
AcDbEntity
  8
0
  6
HIDDEN
 62
     7
370
     0
100
AcDbLine
 10
183.2038335688
 20
107.4418500993
 30
0.0
 11
180.2593471959
 21
107.4418500993
 31
0.0
  0
SPLINE
  5
CC
330
1F
100
AcDbEntity
  8
0
  6
HIDDEN
 62
     7
370
     0
100
AcDbSpline
210
0.0
220
0.0
230
1.0
 70
     8
 71
     3
 72
    12
 73
     8
 74
     0
 42
0.00000001
 43
0.00000001
 12
1.0
 22
0.0
 32
0.0
 13
1.0
 23
0.0
 33
0.0
 40
0.0
 40
0.0
 40
0.0
 40
0.0
 40
0.4999999999999996
 40
0.4999999999999996
 40
0.7499999999999998
 40
0.7499999999999998
 40
1.0
 40
1.0
 40
1.0
 40
1.0
 10
183.6368462706724
 20
106.9142070704661
 30
0.0
 10
183.6061468873052
 20
107.02854273753
 30
0.0
 10
183.5647968191986
 20
107.1398960903713
 30
0.0
 10
183.4650408909792
 20
107.2926328626201
 30
0.0
 10
183.4253439732465
 20
107.3404927484722
 30
0.0
 10
183.3280858215988
 20
107.4150958618217
 30
0.0
 10
183.2673096636082
 20
107.4418500993297
 30
0.0
 10
183.2038335687802
 20
107.4418500993297
 30
0.0
  0
ELLIPSE
  5
CD
330
1F
100
AcDbEntity
  8
0
  6
HIDDEN
 62
     7
370
     0
100
AcDbEllipse
 10
170.6753327274
 20
115.0106600685
 30
0.0
 11
-11.70927234972711
 21
24.67718644093746
 31
0.0
210
0.0
220
0.0
230
1.0
 40
0.3419987131
 41
3.31052192817896
 42
4.221709151398953
  0
SPLINE
  5
CE
330
1F
100
AcDbEntity
  8
0
  6
HIDDEN
 62
     7
370
     0
100
AcDbSpline
210
0.0
220
0.0
230
1.0
 70
     8
 71
     3
 72
    12
 73
     8
 74
     0
 42
0.00000001
 43
0.00000001
 12
1.0
 22
0.0
 32
0.0
 13
1.0
 23
0.0
 33
0.0
 40
0.0
 40
0.0
 40
0.0
 40
0.0
 40
0.2500000000000002
 40
0.2500000000000002
 40
0.5000000000000004
 40
0.5000000000000004
 40
1.0
 40
1.0
 40
1.0
 40
1.0
 10
183.2038335687802
 20
91.1839289530083
 30
0.0
 10
183.2674988053108
 20
91.1839289530083
 30
0.0
 10
183.3271050375341
 20
91.19219372867418
 30
0.0
 10
183.425765562465
 20
91.21641251025733
 30
0.0
 10
183.4647325524802
 20
91.23166982956647
 30
0.0
 10
183.5641193844047
 20
91.2813031838284
 30
0.0
 10
183.6061956318281
 20
91.31894289200253
 30
0.0
 10
183.6368462706725
 20
91.35801859127865
 30
0.0
  0
LINE
  5
CF
330
1F
100
AcDbEntity
  8
0
  6
HIDDEN
 62
     7
370
     0
100
AcDbLine
 10
180.2593471959
 20
91.183928953
 30
0.0
 11
183.2038335688
 21
91.183928953
 31
0.0
  0
SPLINE
  5
D0
330
1F
100
AcDbEntity
  8
0
  6
HIDDEN
 62
     7
370
     0
100
AcDbSpline
210
0.0
220
0.0
230
1.0
 70
     8
 71
     3
 72
    12
 73
     8
 74
     0
 42
0.00000001
 43
0.00000001
 12
1.0
 22
0.0
 32
0.0
 13
1.0
 23
0.0
 33
0.0
 40
0.0
 40
0.0
 40
0.0
 40
0.0
 40
0.4999999999999953
 40
0.4999999999999953
 40
0.7499999999999977
 40
0.7499999999999977
 40
1.0
 40
1.0
 40
1.0
 40
1.0
 10
179.8263344940209
 20
91.35801859127865
 30
0.0
 10
179.8570338773882
 20
91.31888074888275
 30
0.0
 10
179.8983839454947
 20
91.28172096615725
 30
0.0
 10
179.9981398737142
 20
91.23178446052951
 30
0.0
 10
180.0378367914469
 20
91.21633159038575
 30
0.0
 10
180.1350949430945
 20
91.1924120467867
 30
0.0
 10
180.1958711010852
 20
91.18392895300829
 30
0.0
 10
180.2593471959131
 20
91.1839289530083
 30
0.0
  0
ELLIPSE
  5
D1
330
1F
100
AcDbEntity
  8
0
  6
HIDDEN
 62
     7
370
     0
100
AcDbEllipse
 10
192.7878480373
 20
115.0106600685
 30
0.0
 11
11.709272349727
 21
24.67718644093746
 31
0.0
210
0.0
220
0.0
230
1.0
 40
0.3419987131
 41
2.061476155780643
 42
2.97266337900066
  0
SPLINE
  5
D2
330
1F
100
AcDbEntity
  8
0
  6
HIDDEN
 62
     7
370
     0
100
AcDbSpline
210
0.0
220
0.0
230
1.0
 70
     8
 71
     3
 72
    12
 73
     8
 74
     0
 42
0.00000001
 43
0.00000001
 12
1.0
 22
0.0
 32
0.0
 13
1.0
 23
0.0
 33
0.0
 40
0.0
 40
0.0
 40
0.0
 40
0.0
 40
0.25
 40
0.25
 40
0.5
 40
0.5
 40
1.0
 40
1.0
 40
1.0
 40
1.0
 10
180.2593471959131
 20
138.8373911840123
 30
0.0
 10
180.1956819593826
 20
138.8373911840123
 30
0.0
 10
180.1360757271593
 20
138.8291264083465
 30
0.0
 10
180.0374152022284
 20
138.8049076267633
 30
0.0
 10
179.9984482122132
 20
138.7896503074542
 30
0.0
 10
179.8990613802887
 20
138.7400169531923
 30
0.0
 10
179.8569851328652
 20
138.7023772450181
 30
0.0
 10
179.8263344940209
 20
138.663301545742
 30
0.0
  0
LINE
  5
D3
330
1F
100
AcDbEntity
  8
0
  6
HIDDEN
 62
     7
370
     0
100
AcDbLine
 10
183.2038335688
 20
138.837391184
 30
0.0
 11
180.2593471959
 21
138.837391184
 31
0.0
  0
SPLINE
  5
D4
330
1F
100
AcDbEntity
  8
0
  6
HIDDEN
 62
     7
370
     0
100
AcDbSpline
210
0.0
220
0.0
230
1.0
 70
     8
 71
     3
 72
    12
 73
     8
 74
     0
 42
0.00000001
 43
0.00000001
 12
1.0
 22
0.0
 32
0.0
 13
1.0
 23
0.0
 33
0.0
 40
0.0
 40
0.0
 40
0.0
 40
0.0
 40
0.5
 40
0.5
 40
0.75
 40
0.75
 40
1.0
 40
1.0
 40
1.0
 40
1.0
 10
183.6368462706725
 20
138.663301545742
 30
0.0
 10
183.6061468873052
 20
138.7024393881379
 30
0.0
 10
183.5647968191986
 20
138.7395991708634
 30
0.0
 10
183.4650408909792
 20
138.7895356764911
 30
0.0
 10
183.4253439732465
 20
138.8049885466349
 30
0.0
 10
183.3280858215988
 20
138.8289080902339
 30
0.0
 10
183.2673096636082
 20
138.8373911840123
 30
0.0
 10
183.2038335687802
 20
138.8373911840123
 30
0.0
  0
ELLIPSE
  5
D5
330
1F
100
AcDbEntity
  8
0
  6
HIDDEN
 62
     7
370
     0
100
AcDbEllipse
 10
170.6753327274
 20
115.0106600685
 30
0.0
 11
11.70927234972726
 21
24.67718644093746
 31
0.0
210
0.0
220
0.0
230
1.0
 40
0.3419987131
 41
5.203068809370473
 42
6.114256032590517
  0
SPLINE
  5
D6
330
1F
100
AcDbEntity
  8
0
  6
HIDDEN
 62
     7
370
     0
100
AcDbSpline
210
0.0
220
0.0
230
1.0
 70
     8
 71
     3
 72
    12
 73
     8
 74
     0
 42
0.00000001
 43
0.00000001
 12
1.0
 22
0.0
 32
0.0
 13
1.0
 23
0.0
 33
0.0
 40
0.0
 40
0.0
 40
0.0
 40
0.0
 40
0.2500000000000002
 40
0.2500000000000002
 40
0.5000000000000004
 40
0.5000000000000004
 40
1.0
 40
1.0
 40
1.0
 40
1.0
 10
183.2038335687802
 20
122.5794700376913
 30
0.0
 10
183.2674988053108
 20
122.5794700376913
 30
0.0
 10
183.3271050375341
 20
122.6055421861709
 30
0.0
 10
183.425765562465
 20
122.681080936992
 30
0.0
 10
183.4647325524802
 20
122.7283318740883
 30
0.0
 10
183.5641193844047
 20
122.8801556920547
 30
0.0
 10
183.6061956318281
 20
122.9929589418198
 30
0.0
 10
183.6368462706725
 20
123.1071130665549
 30
0.0
  0
LINE
  5
D7
330
1F
100
AcDbEntity
  8
0
  6
HIDDEN
 62
     7
370
     0
100
AcDbLine
 10
180.2593471959
 20
122.5794700377
 30
0.0
 11
183.2038335688
 21
122.5794700377
 31
0.0
  0
SPLINE
  5
D8
330
1F
100
AcDbEntity
  8
0
  6
HIDDEN
 62
     7
370
     0
100
AcDbSpline
210
0.0
220
0.0
230
1.0
 70
     8
 71
     3
 72
    12
 73
     8
 74
     0
 42
0.00000001
 43
0.00000001
 12
1.0
 22
0.0
 32
0.0
 13
1.0
 23
0.0
 33
0.0
 40
0.0
 40
0.0
 40
0.0
 40
0.0
 40
0.4999999999999982
 40
0.4999999999999982
 40
0.7499999999999991
 40
0.7499999999999991
 40
1.0
 40
1.0
 40
1.0
 40
1.0
 10
179.8263344940209
 20
123.1071130665549
 30
0.0
 10
179.8570338773882
 20
122.992777399491
 30
0.0
 10
179.8983839454947
 20
122.8814240466497
 30
0.0
 10
179.9981398737142
 20
122.7286872744009
 30
0.0
 10
180.0378367914469
 20
122.6808273885488
 30
0.0
 10
180.1350949430945
 20
122.6062242751993
 30
0.0
 10
180.1958711010852
 20
122.5794700376912
 30
0.0
 10
180.2593471959131
 20
122.5794700376912
 30
0.0
  0
ELLIPSE
  5
D9
330
1F
100
AcDbEntity
  8
0
  6
HIDDEN
 62
     7
370
     0
100
AcDbEllipse
 10
192.7878480373
 20
115.0106600685
 30
0.0
 11
-11.70927234972717
 21
24.67718644093746
 31
0.0
210
0.0
220
0.0
230
1.0
 40
0.3419987131
 41
0.1689292745891115
 42
1.080116497809129
  0
LINE
  5
DA
330
1F
100
AcDbEntity
  8
0
  6
HIDDEN
 62
     7
370
     0
100
AcDbLine
 10
171.7315903823
 20
139.7106600685
 30
0.0
 11
171.7315903823
 21
90.3106600685
 31
0.0
  0
LINE
  5
DB
330
1F
100
AcDbEntity
  8
0
  6
HIDDEN
 62
     7
370
     0
100
AcDbLine
 10
191.7315903823
 20
139.4106600685
 30
0.0
 11
191.7315903823
 21
90.6106600685
 31
0.0
  0
LINE
  5
DC
330
1F
100
AcDbEntity
  8
0
  6
HIDDEN
 62
     7
370
     0
100
AcDbLine
 10
191.7315903823
 20
95.0106600685
 30
0.0
 11
191.7315903823
 21
135.0106600685
 31
0.0
  0
LINE
  5
DD
330
1F
100
AcDbEntity
  8
0
  6
HIDDEN
 62
     7
370
     0
100
AcDbLine
 10
171.7315903823
 20
95.4645245215
 30
0.0
 11
171.7315903823
 21
134.5567956155
 31
0.0
  0
SPLINE
  5
DE
330
1F
100
AcDbEntity
  8
0
  6
HIDDEN
 62
     7
370
     0
100
AcDbSpline
210
0.0
220
0.0
230
1.0
 70
     8
 71
     3
 72
    14
 73
    10
 74
     0
 42
0.00000001
 43
0.00000001
 12
1.0
 22
0.0
 32
0.0
 13
1.0
 23
0.0
 33
0.0
 40
0.0
 40
0.0
 40
0.0
 40
0.0
 40
0.25
 40
0.25
 40
0.5
 40
0.5
 40
0.75
 40
0.75
 40
1.0
 40
1.0
 40
1.0
 40
1.0
 10
170.6907293542183
 20
102.0757975809843
 30
0.0
 10
170.722444488549
 20
102.0415163859901
 30
0.0
 10
170.7570590138494
 20
102.0082641176223
 30
0.0
 10
170.8367302092647
 20
101.9449736605174
 30
0.0
 10
170.8817860862952
 20
101.9145397517485
 30
0.0
 10
170.9923404988006
 20
101.8632970542982
 30
0.0
 10
171.0597259130047
 20
101.8425395538481
 30
0.0
 10
171.2103554329028
 20
101.8370537759043
 30
0.0
 10
171.2801826696682
 20
101.8534647765097
 30
0.0
 10
171.3366134934716
 20
101.8762522057214
 30
0.0
  0
SPLINE
  5
DF
330
1F
100
AcDbEntity
  8
0
  6
HIDDEN
 62
     7
370
     0
100
AcDbSpline
210
0.0
220
0.0
230
1.0
 70
     8
 71
     3
 72
    16
 73
    12
 74
     0
 42
0.00000001
 43
0.00000001
 12
1.0
 22
0.0
 32
0.0
 13
1.0
 23
0.0
 33
0.0
 40
0.0
 40
0.0
 40
0.0
 40
0.0
 40
0.0625000000000021
 40
0.0625000000000021
 40
0.1250000000000043
 40
0.1250000000000043
 40
0.2500000000000047
 40
0.2500000000000047
 40
0.5000000000000014
 40
0.5000000000000014
 40
1.0
 40
1.0
 40
1.0
 40
1.0
 10
171.3366134934398
 20
101.8762522057653
 30
0.0
 10
171.3483477278867
 20
101.8809906274125
 30
0.0
 10
171.3618794833657
 20
101.8839529045592
 30
0.0
 10
171.3918669437955
 20
101.8805737269375
 30
0.0
 10
171.4068616502038
 20
101.8736939192019
 30
0.0
 10
171.4426020725985
 20
101.8467502596494
 30
0.0
 10
171.4566154095998
 20
101.8236757931951
 30
0.0
 10
171.4907594983811
 20
101.7569880709207
 30
0.0
 10
171.5017314024995
 20
101.7134845948381
 30
0.0
 10
171.5275769427658
 20
101.5847693718895
 30
0.0
 10
171.5315903823467
 20
101.5033791912585
 30
0.0
 10
171.5315903823467
 20
101.4248953811147
 30
0.0
  0
LINE
  5
E0
330
1F
100
AcDbEntity
  8
0
  6
HIDDEN
 62
     7
370
     0
100
AcDbLine
 10
171.5315903823
 20
97.1708397896
 30
0.0
 11
171.5315903823
 21
101.4248953811
 31
0.0
  0
LINE
  5
E1
330
1F
100
AcDbEntity
  8
0
  6
HIDDEN
 62
     7
370
     0
100
AcDbLine
 10
171.5148219813
 20
131.876158167
 30
0.0
 11
171.4946042543
 21
131.9477679895
 31
0.0
  0
SPLINE
  5
E2
330
1F
100
AcDbEntity
  8
0
  6
HIDDEN
 62
     7
370
     0
100
AcDbSpline
210
0.0
220
0.0
230
1.0
 70
     8
 71
     3
 72
    10
 73
     6
 74
     0
 42
0.00000001
 43
0.00000001
 12
1.0
 22
0.0
 32
0.0
 13
1.0
 23
0.0
 33
0.0
 40
0.0
 40
0.0
 40
0.0
 40
0.0
 40
0.5
 40
0.5
 40
1.0
 40
1.0
 40
1.0
 40
1.0
 10
170.6907293542175
 20
132.1254194605142
 30
0.0
 10
170.6189398844646
 20
132.1998934625041
 30
0.0
 10
170.5664815816192
 20
132.2745489454131
 30
0.0
 10
170.4771413301223
 20
132.4194569843342
 30
0.0
 10
170.441148622399
 20
132.4898818433033
 30
0.0
 10
170.4102700387871
 20
132.5574643878337
 30
0.0
  0
SPLINE
  5
E3
330
1F
100
AcDbEntity
  8
0
  6
HIDDEN
 62
     7
370
     0
100
AcDbSpline
210
0.0
220
0.0
230
1.0
 70
     8
 71
     3
 72
    14
 73
    10
 74
     0
 42
0.00000001
 43
0.00000001
 12
1.0
 22
0.0
 32
0.0
 13
1.0
 23
0.0
 33
0.0
 40
0.0
 40
0.0
 40
0.0
 40
0.0
 40
0.25
 40
0.25
 40
0.5
 40
0.5
 40
0.75
 40
0.75
 40
1.0
 40
1.0
 40
1.0
 40
1.0
 10
170.6907293542168
 20
132.1254194605148
 30
0.0
 10
170.7224380537022
 20
132.0925250296644
 30
0.0
 10
170.7570458723428
 20
132.0603017200069
 30
0.0
 10
170.8367042828322
 20
131.9987692102645
 30
0.0
 10
170.881766552727
 20
131.969019764401
 30
0.0
 10
170.9923483983054
 20
131.9199772709103
 30
0.0
 10
171.0599925191207
 20
131.9008266594713
 30
0.0
 10
171.2102408095178
 20
131.9017723669067
 30
0.0
 10
171.2801932077481
 20
131.9224603840894
 30
0.0
 10
171.3366134934717
 20
131.9490045955758
 30
0.0
  0
SPLINE
  5
E4
330
1F
100
AcDbEntity
  8
0
  6
HIDDEN
 62
     7
370
     0
100
AcDbSpline
210
0.0
220
0.0
230
1.0
 70
     8
 71
     3
 72
    16
 73
    12
 74
     0
 42
0.00000001
 43
0.00000001
 12
1.0
 22
0.0
 32
0.0
 13
1.0
 23
0.0
 33
0.0
 40
0.0
 40
0.0
 40
0.0
 40
0.0
 40
0.0625000000000001
 40
0.0625000000000001
 40
0.1250000000000001
 40
0.1250000000000001
 40
0.2499999999999982
 40
0.2499999999999982
 40
0.4999999999999976
 40
0.4999999999999976
 40
1.0
 40
1.0
 40
1.0
 40
1.0
 10
171.3366134934398
 20
131.9490045955804
 30
0.0
 10
171.3483477278867
 20
131.9545252340685
 30
0.0
 10
171.3618794833657
 20
131.9600392909402
 30
0.0
 10
171.3918669437955
 20
131.9688708541443
 30
0.0
 10
171.4068616502038
 20
131.9715076774238
 30
0.0
 10
171.4426020725985
 20
131.9739233769676
 30
0.0
 10
171.4566154095998
 20
131.9701764339744
 30
0.0
 10
171.4907594983811
 20
131.9561894779733
 30
0.0
 10
171.5017314024995
 20
131.9420880521141
 30
0.0
 10
171.5275769427658
 20
131.8951702813987
 30
0.0
 10
171.5315903823467
 20
131.8573878057767
 30
0.0
 10
171.5315903823467
 20
131.8167656235906
 30
0.0
  0
LINE
  5
E5
330
1F
100
AcDbEntity
  8
0
  6
HIDDEN
 62
     7
370
     0
100
AcDbLine
 10
171.5315903823
 20
111.7903192008
 30
0.0
 11
171.5315903823
 21
131.8167656236
 31
0.0
  0
SPLINE
  5
E6
330
1F
100
AcDbEntity
  8
0
  6
HIDDEN
 62
     7
370
     0
100
AcDbSpline
210
0.0
220
0.0
230
1.0
 70
     8
 71
     3
 72
    16
 73
    12
 74
     0
 42
0.00000001
 43
0.00000001
 12
1.0
 22
0.0
 32
0.0
 13
1.0
 23
0.0
 33
0.0
 40
0.0
 40
0.0
 40
0.0
 40
0.0
 40
0.5000000000000002
 40
0.5000000000000002
 40
0.7499999999999993
 40
0.7499999999999993
 40
0.8749999999999997
 40
0.8749999999999997
 40
0.9374999999999999
 40
0.9374999999999999
 40
1.0
 40
1.0
 40
1.0
 40
1.0
 10
171.5315903823468
 20
111.7903192008259
 30
0.0
 10
171.5315903823466
 20
111.6703654222505
 30
0.0
 10
171.5274658394926
 20
111.5506341005966
 30
0.0
 10
171.5015493938595
 20
111.3755009543835
 30
0.0
 10
171.4902718128397
 20
111.3174092432447
 30
0.0
 10
171.4565364342983
 20
111.2380636799045
 30
0.0
 10
171.4421476190539
 20
111.2109233659285
 30
0.0
 10
171.4069009296149
 20
111.1868415118109
 30
0.0
 10
171.3916955051579
 20
111.1825665263658
 30
0.0
 10
171.3620489259886
 20
111.1879574710523
 30
0.0
 10
171.3483435899911
 20
111.1964679618213
 30
0.0
 10
171.3366134934674
 20
111.2067234042288
 30
0.0
  0
SPLINE
  5
E7
330
1F
100
AcDbEntity
  8
0
  6
HIDDEN
 62
     7
370
     0
100
AcDbSpline
210
0.0
220
0.0
230
1.0
 70
     8
 71
     3
 72
    14
 73
    10
 74
     0
 42
0.00000001
 43
0.00000001
 12
1.0
 22
0.0
 32
0.0
 13
1.0
 23
0.0
 33
0.0
 40
0.0
 40
0.0
 40
0.0
 40
0.0
 40
0.2500000000000005
 40
0.2500000000000005
 40
0.500000000000001
 40
0.500000000000001
 40
0.7500000000000004
 40
0.7500000000000004
 40
1.0
 40
1.0
 40
1.0
 40
1.0
 10
171.3366134934779
 20
111.2067234042435
 30
0.0
 10
171.2801664114196
 20
111.2560742171647
 30
0.0
 10
171.2093160273768
 20
111.2931161890534
 30
0.0
 10
171.0608795925604
 20
111.2886562572338
 30
0.0
 10
170.9916903408735
 20
111.2481687236042
 30
0.0
 10
170.8819787926325
 20
111.1485478652936
 30
0.0
 10
170.8367371432902
 20
111.0882627073703
 30
0.0
 10
170.7570891251063
 20
110.9634772135455
 30
0.0
 10
170.7224622093403
 20
110.897983003379
 30
0.0
 10
170.6907293542189
 20
110.8307631640367
 30
0.0
  0
SPLINE
  5
E8
330
1F
100
AcDbEntity
  8
0
  6
HIDDEN
 62
     7
370
     0
100
AcDbSpline
210
0.0
220
0.0
230
1.0
 70
     8
 71
     3
 72
    10
 73
     6
 74
     0
 42
0.00000001
 43
0.00000001
 12
1.0
 22
0.0
 32
0.0
 13
1.0
 23
0.0
 33
0.0
 40
0.0
 40
0.0
 40
0.0
 40
0.0
 40
0.5
 40
0.5
 40
1.0
 40
1.0
 40
1.0
 40
1.0
 10
170.6907293542191
 20
110.8307631640348
 30
0.0
 10
170.6189203788265
 20
110.6786499119884
 30
0.0
 10
170.5664645194038
 20
110.5210162704187
 30
0.0
 10
170.4771299335124
 20
110.2015846299142
 30
0.0
 10
170.4411430705994
 20
110.039522160855
 30
0.0
 10
170.4102700387871
 20
109.8761781351872
 30
0.0
  0
SPLINE
  5
E9
330
1F
100
AcDbEntity
  8
0
  6
HIDDEN
 62
     7
370
     0
100
AcDbSpline
210
0.0
220
0.0
230
1.0
 70
     8
 71
     3
 72
    10
 73
     6
 74
     0
 42
0.00000001
 43
0.00000001
 12
1.0
 22
0.0
 32
0.0
 13
1.0
 23
0.0
 33
0.0
 40
0.0
 40
0.0
 40
0.0
 40
0.0
 40
0.5
 40
0.5
 40
1.0
 40
1.0
 40
1.0
 40
1.0
 10
170.4102700387871
 20
102.5983376825098
 30
0.0
 10
170.4411513783852
 20
102.502538278174
 30
0.0
 10
170.477146987885
 20
102.4108771365231
 30
0.0
 10
170.5664900519864
 20
102.2363470878129
 30
0.0
 10
170.6189495662946
 20
102.1533850469807
 30
0.0
 10
170.6907293542183
 20
102.0757975809843
 30
0.0
  0
LINE
  5
EA
330
1F
100
AcDbEntity
  8
0
  6
HIDDEN
 62
     7
370
     0
100
AcDbLine
 10
171.5315903823
 20
111.7903192008
 30
0.0
 11
171.5315903823
 21
131.8167656236
 31
0.0
  0
LINE
  5
EB
330
1F
100
AcDbEntity
  8
0
  6
HIDDEN
 62
     7
370
     0
100
AcDbLine
 10
241.7315903823
 20
99.0106600716
 30
0.0
 11
241.7315903823
 21
131.0106600685
 31
0.0
  0
SPLINE
  5
EC
330
1F
100
AcDbEntity
  8
0
  6
HIDDEN
 62
     7
370
     0
100
AcDbSpline
210
0.0
220
0.0
230
1.0
 70
     8
 71
     3
 72
    73
 73
    69
 74
     0
 42
0.00000001
 43
0.00000001
 12
1.0
 22
0.0
 32
0.0
 13
1.0
 23
0.0
 33
0.0
 40
-0.0312499999999999
 40
-0.0312499999999999
 40
0.0
 40
0.0
 40
0.0312499999999991
 40
0.0312499999999991
 40
0.0624999999999982
 40
0.0624999999999982
 40
0.0937499999999973
 40
0.0937499999999973
 40
0.1093749999999968
 40
0.1093749999999968
 40
0.1249999999999964
 40
0.1406249999999959
 40
0.1406249999999959
 40
0.1562499999999954
 40
0.1562499999999954
 40
0.1874999999999947
 40
0.1874999999999947
 40
0.2187499999999939
 40
0.2187499999999939
 40
0.2499999999999932
 40
0.2499999999999932
 40
0.2812499999999925
 40
0.2812499999999925
 40
0.3124999999999917
 40
0.3124999999999917
 40
0.3749999999999901
 40
0.3749999999999901
 40
0.4062499999999901
 40
0.4062499999999901
 40
0.4374999999999908
 40
0.4374999999999908
 40
0.4687499999999916
 40
0.4687499999999916
 40
0.4999999999999923
 40
0.4999999999999923
 40
0.5312499999999931
 40
0.5312499999999931
 40
0.5624999999999939
 40
0.5624999999999939
 40
0.5937499999999946
 40
0.5937499999999946
 40
0.6249999999999953
 40
0.6249999999999953
 40
0.6406249999999957
 40
0.6406249999999957
 40
0.656249999999996
 40
0.656249999999996
 40
0.6874999999999967
 40
0.6874999999999967
 40
0.7187499999999973
 40
0.7187499999999973
 40
0.7499999999999979
 40
0.7499999999999979
 40
0.7812499999999986
 40
0.7812499999999986
 40
0.8124999999999992
 40
0.8124999999999992
 40
0.8437499999999999
 40
0.8437499999999999
 40
0.8750000000000006
 40
0.8750000000000006
 40
0.9062500000000004
 40
0.9062500000000004
 40
0.9375000000000002
 40
0.9375000000000002
 40
0.9687500000000001
 40
0.9687500000000001
 40
1.0
 40
1.0
 40
1.031249999999999
 40
1.031249999999999
 10
230.9258028382456
 20
111.8634631808423
 30
0.0
 10
230.4907012343136
 20
112.2168247436018
 30
0.0
 10
230.2929594795704
 20
112.4115896763268
 30
0.0
 10
229.9384145181913
 20
112.8390313300986
 30
0.0
 10
229.7807543001351
 20
113.0743195774929
 30
0.0
 10
229.5240390930871
 20
113.5654680354233
 30
0.0
 10
229.4229128885533
 20
113.8229768679378
 30
0.0
 10
229.3155385228935
 20
114.2288127230971
 30
0.0
 10
229.2872441079908
 20
114.3679020577244
 30
0.0
 10
229.247697093728
 20
114.6447559979561
 30
0.0
 10
229.2245638616616
 20
114.9221699341607
 30
0.0
 10
229.2339111459796
 20
115.2006929955927
 30
0.0
 10
229.2598474755435
 20
115.479782327149
 30
0.0
 10
229.2813279801527
 20
115.6201247273684
 30
0.0
 10
229.368963143479
 20
116.030810625564
 30
0.0
 10
229.458135327121
 20
116.294480364174
 30
0.0
 10
229.6954047083189
 20
116.8025565496121
 30
0.0
 10
229.8416072474362
 20
117.0418940693483
 30
0.0
 10
230.1780345144875
 20
117.4837704227999
 30
0.0
 10
230.3713014032934
 20
117.6896394343804
 30
0.0
 10
230.7889377112714
 20
118.0563108024418
 30
0.0
 10
231.0137957497505
 20
118.2185624690452
 30
0.0
 10
231.4944879097749
 20
118.5029464023977
 30
0.0
 10
231.748302425579
 20
118.6233680175176
 30
0.0
 10
232.5288709179682
 20
118.9142239596935
 30
0.0
 10
233.0902291983426
 20
119.0187159464603
 30
0.0
 10
233.9243730788592
 20
119.0329551700183
 30
0.0
 10
234.204264266186
 20
119.0144929506725
 30
0.0
 10
234.7599922979421
 20
118.9298497409184
 30
0.0
 10
235.0303487865819
 20
118.8647263777316
 30
0.0
 10
235.5564203387938
 20
118.6896525556384
 30
0.0
 10
235.8138082286362
 20
118.5788045452192
 30
0.0
 10
236.3052566967441
 20
118.3121767521368
 30
0.0
 10
236.5354322697239
 20
118.1589103031797
 30
0.0
 10
236.9644243985697
 20
117.8115519426633
 30
0.0
 10
237.1651462739696
 20
117.6151707536571
 30
0.0
 10
237.5217771552957
 20
117.1865554683867
 30
0.0
 10
237.6759561955679
 20
116.9573846073807
 30
0.0
 10
237.9339605163478
 20
116.4676712191847
 30
0.0
 10
238.0385870223929
 20
116.2029326185245
 30
0.0
 10
238.1821236368286
 20
115.6639075263163
 30
0.0
 10
238.2225439258738
 20
115.3889631755999
 30
0.0
 10
238.234102439734
 20
114.9680178467503
 30
0.0
 10
238.2295452995998
 20
114.8258632376378
 30
0.0
 10
238.2040215088869
 20
114.5467572834695
 30
0.0
 10
238.1831401907975
 20
114.4088084764927
 30
0.0
 10
238.0968097811041
 20
113.9996344169567
 30
0.0
 10
238.0061560965678
 20
113.730008776571
 30
0.0
 10
237.7704726512185
 20
113.223759890961
 30
0.0
 10
237.6260514001963
 20
112.9858651448296
 30
0.0
 10
237.2865171881541
 20
112.538802216721
 30
0.0
 10
237.0957200637008
 20
112.3355279664324
 30
0.0
 10
236.6786956708199
 20
111.9684526934993
 30
0.0
 10
236.4496752232231
 20
111.803012554155
 30
0.0
 10
235.9704356699964
 20
111.5193219644984
 30
0.0
 10
235.7196092907661
 20
111.39992421329
 30
0.0
 10
235.1960577800437
 20
111.2044221181885
 30
0.0
 10
234.9232572647165
 20
111.1289307977025
 30
0.0
 10
234.3756849809754
 20
111.0262227786269
 30
0.0
 10
234.0984508419339
 20
110.9979663573816
 30
0.0
 10
233.5369660351014
 20
110.9882856531077
 30
0.0
 10
233.2551033736167
 20
111.0073502536701
 30
0.0
 10
232.7049862288904
 20
111.0912545014833
 30
0.0
 10
232.4343605233973
 20
111.1559919895935
 30
0.0
 10
231.9023276587486
 20
111.3332363701547
 30
0.0
 10
231.6445812852042
 20
111.4449141409028
 30
0.0
 10
231.1574795346356
 20
111.7095876001451
 30
0.0
 10
230.9258028382456
 20
111.8634631808423
 30
0.0
 10
230.4907012343136
 20
112.2168247436018
 30
0.0
  0
SPLINE
  5
ED
330
1F
100
AcDbEntity
  8
0
  6
HIDDEN
 62
     7
370
     0
100
AcDbSpline
210
0.0
220
0.0
230
1.0
 70
     8
 71
     3
 72
    73
 73
    69
 74
     0
 42
0.00000001
 43
0.00000001
 12
1.0
 22
0.0
 32
0.0
 13
1.0
 23
0.0
 33
0.0
 40
-0.03125
 40
-0.03125
 40
0.0
 40
0.0
 40
0.0312499999999999
 40
0.0312499999999999
 40
0.0624999999999998
 40
0.0624999999999998
 40
0.0937499999999997
 40
0.0937499999999997
 40
0.1093749999999996
 40
0.1093749999999996
 40
0.1249999999999996
 40
0.1406249999999995
 40
0.1406249999999995
 40
0.1562499999999994
 40
0.1562499999999994
 40
0.1874999999999995
 40
0.1874999999999995
 40
0.2187499999999996
 40
0.2187499999999996
 40
0.2499999999999996
 40
0.2499999999999996
 40
0.2812499999999997
 40
0.2812499999999997
 40
0.3124999999999997
 40
0.3124999999999997
 40
0.3749999999999998
 40
0.3749999999999998
 40
0.4062499999999998
 40
0.4062499999999998
 40
0.4374999999999999
 40
0.4374999999999999
 40
0.4687499999999999
 40
0.4687499999999999
 40
0.4999999999999999
 40
0.4999999999999999
 40
0.5312499999999999
 40
0.5312499999999999
 40
0.5624999999999999
 40
0.5624999999999999
 40
0.5937499999999999
 40
0.5937499999999999
 40
0.6249999999999999
 40
0.6249999999999999
 40
0.6406249999999999
 40
0.6406249999999999
 40
0.65625
 40
0.65625
 40
0.6875
 40
0.6875
 40
0.71875
 40
0.71875
 40
0.75
 40
0.75
 40
0.78125
 40
0.78125
 40
0.8125
 40
0.8125
 40
0.84375
 40
0.84375
 40
0.875
 40
0.875
 40
0.90625
 40
0.90625
 40
0.9375
 40
0.9375
 40
0.96875
 40
0.96875
 40
1.0
 40
1.0
 40
1.03125
 40
1.03125
 10
220.9258028382456
 20
111.8634631808423
 30
0.0
 10
220.4907012343136
 20
112.2168247436018
 30
0.0
 10
220.2929594795704
 20
112.4115896763268
 30
0.0
 10
219.9384145181913
 20
112.8390313300986
 30
0.0
 10
219.7807543001351
 20
113.0743195774929
 30
0.0
 10
219.524039093087
 20
113.5654680354233
 30
0.0
 10
219.4229128885533
 20
113.8229768679378
 30
0.0
 10
219.3155385228935
 20
114.2288127230971
 30
0.0
 10
219.2872441079908
 20
114.3679020577244
 30
0.0
 10
219.247697093728
 20
114.6447559979562
 30
0.0
 10
219.2245638616616
 20
114.9221699341608
 30
0.0
 10
219.2339111459795
 20
115.2006929955927
 30
0.0
 10
219.2598474755435
 20
115.479782327149
 30
0.0
 10
219.2813279801526
 20
115.6201247273684
 30
0.0
 10
219.368963143479
 20
116.030810625564
 30
0.0
 10
219.458135327121
 20
116.294480364174
 30
0.0
 10
219.6954047083189
 20
116.8025565496121
 30
0.0
 10
219.8416072474361
 20
117.0418940693483
 30
0.0
 10
220.1780345144875
 20
117.4837704227999
 30
0.0
 10
220.3713014032934
 20
117.6896394343804
 30
0.0
 10
220.7889377112714
 20
118.0563108024418
 30
0.0
 10
221.0137957497505
 20
118.2185624690452
 30
0.0
 10
221.4944879097748
 20
118.5029464023977
 30
0.0
 10
221.748302425579
 20
118.6233680175176
 30
0.0
 10
222.5288709179682
 20
118.9142239596935
 30
0.0
 10
223.0902291983426
 20
119.0187159464603
 30
0.0
 10
223.9243730788592
 20
119.0329551700183
 30
0.0
 10
224.204264266186
 20
119.0144929506725
 30
0.0
 10
224.7599922979421
 20
118.9298497409184
 30
0.0
 10
225.030348786582
 20
118.8647263777316
 30
0.0
 10
225.5564203387938
 20
118.6896525556384
 30
0.0
 10
225.8138082286362
 20
118.5788045452192
 30
0.0
 10
226.3052566967441
 20
118.3121767521368
 30
0.0
 10
226.5354322697239
 20
118.1589103031798
 30
0.0
 10
226.9644243985697
 20
117.8115519426633
 30
0.0
 10
227.1651462739696
 20
117.6151707536571
 30
0.0
 10
227.5217771552956
 20
117.1865554683867
 30
0.0
 10
227.6759561955679
 20
116.9573846073807
 30
0.0
 10
227.9339605163478
 20
116.4676712191847
 30
0.0
 10
228.0385870223929
 20
116.2029326185244
 30
0.0
 10
228.1821236368287
 20
115.6639075263163
 30
0.0
 10
228.2225439258738
 20
115.3889631755999
 30
0.0
 10
228.234102439734
 20
114.9680178467503
 30
0.0
 10
228.2295452995997
 20
114.8258632376377
 30
0.0
 10
228.2040215088869
 20
114.5467572834695
 30
0.0
 10
228.1831401907975
 20
114.4088084764927
 30
0.0
 10
228.096809781104
 20
113.9996344169566
 30
0.0
 10
228.0061560965678
 20
113.730008776571
 30
0.0
 10
227.7704726512185
 20
113.223759890961
 30
0.0
 10
227.6260514001963
 20
112.9858651448296
 30
0.0
 10
227.2865171881541
 20
112.538802216721
 30
0.0
 10
227.0957200637008
 20
112.3355279664324
 30
0.0
 10
226.6786956708199
 20
111.9684526934993
 30
0.0
 10
226.4496752232231
 20
111.803012554155
 30
0.0
 10
225.9704356699964
 20
111.5193219644984
 30
0.0
 10
225.7196092907661
 20
111.39992421329
 30
0.0
 10
225.1960577800437
 20
111.2044221181885
 30
0.0
 10
224.9232572647165
 20
111.1289307977025
 30
0.0
 10
224.3756849809754
 20
111.0262227786269
 30
0.0
 10
224.0984508419339
 20
110.9979663573816
 30
0.0
 10
223.5369660351014
 20
110.9882856531077
 30
0.0
 10
223.2551033736166
 20
111.0073502536701
 30
0.0
 10
222.7049862288904
 20
111.0912545014833
 30
0.0
 10
222.4343605233973
 20
111.1559919895935
 30
0.0
 10
221.9023276587485
 20
111.3332363701547
 30
0.0
 10
221.6445812852042
 20
111.4449141409028
 30
0.0
 10
221.1574795346356
 20
111.7095876001451
 30
0.0
 10
220.9258028382456
 20
111.8634631808423
 30
0.0
 10
220.4907012343136
 20
112.2168247436018
 30
0.0
  0
SPLINE
  5
EE
330
1F
100
AcDbEntity
  8
0
  6
HIDDEN
 62
     7
370
     0
100
AcDbSpline
210
0.0
220
0.0
230
1.0
 70
     8
 71
     3
 72
    73
 73
    69
 74
     0
 42
0.00000001
 43
0.00000001
 12
1.0
 22
0.0
 32
0.0
 13
1.0
 23
0.0
 33
0.0
 40
-0.0312499999999999
 40
-0.0312499999999999
 40
0.0
 40
0.0
 40
0.0312499999999999
 40
0.0312499999999999
 40
0.0624999999999998
 40
0.0624999999999998
 40
0.0937499999999997
 40
0.0937499999999997
 40
0.1093749999999997
 40
0.1093749999999997
 40
0.1249999999999996
 40
0.1406249999999996
 40
0.1406249999999996
 40
0.1562499999999995
 40
0.1562499999999995
 40
0.1874999999999996
 40
0.1874999999999996
 40
0.2187499999999996
 40
0.2187499999999996
 40
0.2499999999999997
 40
0.2499999999999997
 40
0.2812499999999997
 40
0.2812499999999997
 40
0.3124999999999997
 40
0.3124999999999997
 40
0.3749999999999997
 40
0.3749999999999997
 40
0.4062499999999997
 40
0.4062499999999997
 40
0.4374999999999997
 40
0.4374999999999997
 40
0.4687499999999998
 40
0.4687499999999998
 40
0.4999999999999998
 40
0.4999999999999998
 40
0.5312499999999998
 40
0.5312499999999998
 40
0.5624999999999998
 40
0.5624999999999998
 40
0.5937499999999998
 40
0.5937499999999998
 40
0.6249999999999998
 40
0.6249999999999998
 40
0.6406249999999999
 40
0.6406249999999999
 40
0.65625
 40
0.65625
 40
0.6875
 40
0.6875
 40
0.71875
 40
0.71875
 40
0.75
 40
0.75
 40
0.78125
 40
0.78125
 40
0.8125
 40
0.8125
 40
0.84375
 40
0.84375
 40
0.875
 40
0.875
 40
0.9062500000000001
 40
0.9062500000000001
 40
0.9375000000000001
 40
0.9375000000000001
 40
0.9687500000000001
 40
0.9687500000000001
 40
1.0
 40
1.0
 40
1.03125
 40
1.03125
 10
210.9258028382456
 20
111.8634631808423
 30
0.0
 10
210.4907012343136
 20
112.2168247436018
 30
0.0
 10
210.2929594795704
 20
112.4115896763268
 30
0.0
 10
209.9384145181913
 20
112.8390313300986
 30
0.0
 10
209.780754300135
 20
113.0743195774929
 30
0.0
 10
209.524039093087
 20
113.5654680354233
 30
0.0
 10
209.4229128885532
 20
113.8229768679378
 30
0.0
 10
209.3155385228935
 20
114.2288127230971
 30
0.0
 10
209.2872441079908
 20
114.3679020577244
 30
0.0
 10
209.247697093728
 20
114.6447559979562
 30
0.0
 10
209.2245638616616
 20
114.9221699341607
 30
0.0
 10
209.2339111459796
 20
115.2006929955927
 30
0.0
 10
209.2598474755435
 20
115.479782327149
 30
0.0
 10
209.2813279801526
 20
115.6201247273684
 30
0.0
 10
209.368963143479
 20
116.030810625564
 30
0.0
 10
209.458135327121
 20
116.294480364174
 30
0.0
 10
209.6954047083189
 20
116.8025565496121
 30
0.0
 10
209.8416072474362
 20
117.0418940693483
 30
0.0
 10
210.1780345144875
 20
117.4837704227999
 30
0.0
 10
210.3713014032934
 20
117.6896394343804
 30
0.0
 10
210.7889377112714
 20
118.0563108024418
 30
0.0
 10
211.0137957497505
 20
118.2185624690452
 30
0.0
 10
211.4944879097749
 20
118.5029464023977
 30
0.0
 10
211.748302425579
 20
118.6233680175176
 30
0.0
 10
212.5288709179682
 20
118.9142239596935
 30
0.0
 10
213.0902291983426
 20
119.0187159464603
 30
0.0
 10
213.9243730788592
 20
119.0329551700183
 30
0.0
 10
214.204264266186
 20
119.0144929506725
 30
0.0
 10
214.7599922979421
 20
118.9298497409184
 30
0.0
 10
215.030348786582
 20
118.8647263777316
 30
0.0
 10
215.5564203387938
 20
118.6896525556384
 30
0.0
 10
215.8138082286362
 20
118.5788045452192
 30
0.0
 10
216.3052566967441
 20
118.3121767521368
 30
0.0
 10
216.5354322697239
 20
118.1589103031797
 30
0.0
 10
216.9644243985697
 20
117.8115519426633
 30
0.0
 10
217.1651462739696
 20
117.6151707536571
 30
0.0
 10
217.5217771552957
 20
117.1865554683867
 30
0.0
 10
217.6759561955679
 20
116.9573846073807
 30
0.0
 10
217.9339605163478
 20
116.4676712191847
 30
0.0
 10
218.0385870223929
 20
116.2029326185244
 30
0.0
 10
218.1821236368287
 20
115.6639075263163
 30
0.0
 10
218.2225439258738
 20
115.3889631755999
 30
0.0
 10
218.234102439734
 20
114.9680178467503
 30
0.0
 10
218.2295452995997
 20
114.8258632376377
 30
0.0
 10
218.2040215088869
 20
114.5467572834695
 30
0.0
 10
218.1831401907975
 20
114.4088084764927
 30
0.0
 10
218.0968097811041
 20
113.9996344169566
 30
0.0
 10
218.0061560965678
 20
113.730008776571
 30
0.0
 10
217.7704726512185
 20
113.223759890961
 30
0.0
 10
217.6260514001963
 20
112.9858651448296
 30
0.0
 10
217.2865171881541
 20
112.538802216721
 30
0.0
 10
217.0957200637008
 20
112.3355279664324
 30
0.0
 10
216.6786956708199
 20
111.9684526934993
 30
0.0
 10
216.4496752232231
 20
111.803012554155
 30
0.0
 10
215.9704356699964
 20
111.5193219644983
 30
0.0
 10
215.7196092907661
 20
111.39992421329
 30
0.0
 10
215.1960577800437
 20
111.2044221181884
 30
0.0
 10
214.9232572647165
 20
111.1289307977025
 30
0.0
 10
214.3756849809754
 20
111.0262227786269
 30
0.0
 10
214.0984508419338
 20
110.9979663573816
 30
0.0
 10
213.5369660351014
 20
110.9882856531077
 30
0.0
 10
213.2551033736167
 20
111.0073502536701
 30
0.0
 10
212.7049862288904
 20
111.0912545014833
 30
0.0
 10
212.4343605233973
 20
111.1559919895935
 30
0.0
 10
211.9023276587485
 20
111.3332363701547
 30
0.0
 10
211.6445812852042
 20
111.4449141409028
 30
0.0
 10
211.1574795346356
 20
111.7095876001451
 30
0.0
 10
210.9258028382456
 20
111.8634631808423
 30
0.0
 10
210.4907012343136
 20
112.2168247436018
 30
0.0
  0
SPLINE
  5
EF
330
1F
100
AcDbEntity
  8
0
  6
HIDDEN
 62
     7
370
     0
100
AcDbSpline
210
0.0
220
0.0
230
1.0
 70
     8
 71
     3
 72
    39
 73
    35
 74
     0
 42
0.00000001
 43
0.00000001
 12
1.0
 22
0.0
 32
0.0
 13
1.0
 23
0.0
 33
0.0
 40
0.0
 40
0.0
 40
0.0
 40
0.0
 40
0.0384373084589263
 40
0.0819182389364461
 40
0.1262795025271486
 40
0.1714404675556664
 40
0.217403774439901
 40
0.2316223927841841
 40
0.2634068362052477
 40
0.2674447799829457
 40
0.2927763302349773
 40
0.3183999012274639
 40
0.3460678700217598
 40
0.3740875849476066
 40
0.4022831855111078
 40
0.4308373475684569
 40
0.4602813406358774
 40
0.4901315979862244
 40
0.5201876591342937
 40
0.5506665570176756
 40
0.5806008560598875
 40
0.6107446532921669
 40
0.641557031449767
 40
0.6726048567251497
 40
0.7021681562475874
 40
0.7321969144216612
 40
0.7624685688505538
 40
0.7932547104900894
 40
0.8209035773639729
 40
0.8490429545888357
 40
0.8774430492734039
 40
0.906399817374031
 40
0.95530276797707
 40
1.0
 40
1.0
 40
1.0
 40
1.0
 10
209.2406453505754
 20
98.01254941905607
 30
0.0
 10
209.2441709799195
 20
98.01329823566392
 30
0.0
 10
209.2516848605368
 20
98.014894126226
 30
0.0
 10
209.3877257395371
 20
98.04300785480083
 30
0.0
 10
209.6091290144628
 20
98.08729807040494
 30
0.0
 10
209.9269566679876
 20
98.14617305179254
 30
0.0
 10
210.2169118091503
 20
98.19794880481207
 30
0.0
 10
210.5282153826336
 20
98.24397659111418
 30
0.0
 10
210.694031406911
 20
98.26892089417515
 30
0.0
 10
210.8962099777455
 20
98.29953514572735
 30
0.0
 10
211.1037780650431
 20
98.3259141980743
 30
0.0
 10
211.4022164181583
 20
98.36196969806288
 30
0.0
 10
211.7279330480887
 20
98.39599157669002
 30
0.0
 10
212.0752347099778
 20
98.42681076743854
 30
0.0
 10
212.4367272982127
 20
98.45272374276054
 30
0.0
 10
212.8123749976821
 20
98.47301283556843
 30
0.0
 10
213.2012787590782
 20
98.4868088779806
 30
0.0
 10
213.6004214462209
 20
98.49327853336062
 30
0.0
 10
214.005099176614
 20
98.49190042120607
 30
0.0
 10
214.4082659897666
 20
98.48254835255737
 30
0.0
 10
214.8070747420904
 20
98.46550829504878
 30
0.0
 10
215.1998369233846
 20
98.4412499306227
 30
0.0
 10
215.5868100907113
 20
98.41009216632794
 30
0.0
 10
215.9576615908759
 20
98.37345595807025
 30
0.0
 10
216.3090436863258
 20
98.33277903942228
 30
0.0
 10
216.6387337059377
 20
98.28942783862387
 30
0.0
 10
216.950671562563
 20
98.24380080290123
 30
0.0
 10
217.2293604396019
 20
98.19922251579537
 30
0.0
 10
217.4747305438969
 20
98.157112237718
 30
0.0
 10
217.6858407072241
 20
98.11878657174528
 30
0.0
 10
217.8694985823791
 20
98.0838447277759
 30
0.0
 10
218.053356802886
 20
98.04753859344842
 30
0.0
 10
218.2029909088337
 20
98.01667892014186
 30
0.0
 10
218.2181295369426
 20
98.01348405430761
 30
0.0
 10
218.2253587404987
 20
98.01195839852927
 30
0.0
  0
SPLINE
  5
F0
330
1F
100
AcDbEntity
  8
0
  6
HIDDEN
 62
     7
370
     0
100
AcDbSpline
210
0.0
220
0.0
230
1.0
 70
     8
 71
     3
 72
    16
 73
    12
 74
     0
 42
0.00000001
 43
0.00000001
 12
1.0
 22
0.0
 32
0.0
 13
1.0
 23
0.0
 33
0.0
 40
0.0
 40
0.0
 40
0.0
 40
0.0
 40
0.0449264679073909
 40
0.0903029813339928
 40
0.2732134389759379
 40
0.3660357005830911
 40
0.4677795660875785
 40
0.6755357092372828
 40
0.7820035575306609
 40
0.8722337774203082
 40
1.0
 40
1.0
 40
1.0
 40
1.0
 10
210.7082520362796
 20
131.7491198482391
 30
0.0
 10
210.6697695347731
 20
131.7548818702965
 30
0.0
 10
210.5924190379037
 20
131.7664636347781
 30
0.0
 10
210.3555835387677
 20
131.8014873936908
 30
0.0
 10
210.1104606670475
 20
131.8428531857171
 30
0.0
 10
209.8563050102948
 20
131.8880079683858
 30
0.0
 10
209.6183288819397
 20
131.932419184746
 30
0.0
 10
209.4277355632167
 20
131.9702489805879
 30
0.0
 10
209.3100223220437
 20
131.9943376831486
 30
0.0
 10
209.2433569630394
 20
132.0081874808272
 30
0.0
 10
209.2434711516831
 20
132.0081730445091
 30
0.0
 10
209.2435380768654
 20
132.0081645834818
 30
0.0
  0
SPLINE
  5
F1
330
1F
100
AcDbEntity
  8
0
  6
HIDDEN
 62
     7
370
     0
100
AcDbSpline
210
0.0
220
0.0
230
1.0
 70
     8
 71
     3
 72
    31
 73
    27
 74
     0
 42
0.00000001
 43
0.00000001
 12
1.0
 22
0.0
 32
0.0
 13
1.0
 23
0.0
 33
0.0
 40
0.0
 40
0.0
 40
0.0
 40
0.0
 40
0.00739969207463
 40
0.0368168278649283
 40
0.0966661052546029
 40
0.127159232072384
 40
0.1566297281361245
 40
0.2164391651890812
 40
0.2468161175373658
 40
0.2789478061740856
 40
0.3441082519936559
 40
0.3771760171692004
 40
0.413095495661798
 40
0.4859844886225861
 40
0.5230121929980412
 40
0.56196390508494
 40
0.6411135510490972
 40
0.6813957332609805
 40
0.7215539621173815
 40
0.7619896823678141
 40
0.8033048475875219
 40
0.8449265457983619
 40
0.883049716790911
 40
0.9565290317845092
 40
0.9605326681290972
 40
0.9999999999999999
 40
0.9999999999999999
 40
0.9999999999999999
 40
0.9999999999999999
 10
218.2288249854559
 20
132.0100817330781
 30
0.0
 10
218.229685898376
 20
132.0102617458114
 30
0.0
 10
218.233969331047
 20
132.0111573908935
 30
0.0
 10
218.2073190741242
 20
132.0055822287185
 30
0.0
 10
218.1364920862857
 20
131.9908392148485
 30
0.0
 10
218.0141706298134
 20
131.9660838238773
 30
0.0
 10
217.8627730893675
 20
131.9361305704675
 30
0.0
 10
217.6688075157076
 20
131.8991844227596
 30
0.0
 10
217.4329351934775
 20
131.856972972643
 30
0.0
 10
217.1613948854055
 20
131.8106588966519
 30
0.0
 10
216.8468335353386
 20
131.7614100977105
 30
0.0
 10
216.4924738602723
 20
131.7122679068873
 30
0.0
 10
216.0970723988032
 20
131.6625396592165
 30
0.0
 10
215.6607473952617
 20
131.6169992833507
 30
0.0
 10
215.1946561535383
 20
131.5798795853739
 30
0.0
 10
214.6966138457831
 20
131.5488250152119
 30
0.0
 10
214.1726028776995
 20
131.5306766565284
 30
0.0
 10
213.6414489305272
 20
131.5278270585964
 30
0.0
 10
213.2396085551986
 20
131.5335240273842
 30
0.0
 10
212.8378346295894
 20
131.5470745861238
 30
0.0
 10
212.4373322850617
 20
131.5683197123293
 30
0.0
 10
212.0544595822629
 20
131.59623696913
 30
0.0
 10
211.5806663637347
 20
131.6380843032327
 30
0.0
 10
211.2589672641907
 20
131.6793866475546
 30
0.0
 10
210.9197239497385
 20
131.7176474714353
 30
0.0
 10
210.8088838523324
 20
131.7341432558974
 30
0.0
 10
210.7082520263459
 20
131.749119793724
 30
0.0
  0
SPLINE
  5
F2
330
1F
100
AcDbEntity
  8
0
  6
HIDDEN
 62
     7
370
     0
100
AcDbSpline
210
0.0
220
0.0
230
1.0
 70
     8
 71
     3
 72
    39
 73
    35
 74
     0
 42
0.00000001
 43
0.00000001
 12
1.0
 22
0.0
 32
0.0
 13
1.0
 23
0.0
 33
0.0
 40
0.0
 40
0.0
 40
0.0
 40
0.0
 40
0.0384373084589263
 40
0.0819182389364464
 40
0.1262795025271488
 40
0.1714404675556664
 40
0.2174037744399011
 40
0.2316223927841772
 40
0.2634068362052303
 40
0.2674447799829458
 40
0.2927763302349775
 40
0.3183999012274636
 40
0.3460678700217594
 40
0.3740875849476062
 40
0.4022831855111074
 40
0.4308373475684566
 40
0.4602813406358772
 40
0.4901315979862236
 40
0.5201876591342929
 40
0.550666557017675
 40
0.5806008560598874
 40
0.6107446532921667
 40
0.6415570314497653
 40
0.67260485672515
 40
0.7021681562475878
 40
0.7321969144216622
 40
0.7624685688505548
 40
0.7932547104900891
 40
0.8209035773639721
 40
0.8490429545888357
 40
0.8774430492734038
 40
0.9063998173740309
 40
0.9553027679770697
 40
0.9999999999999999
 40
0.9999999999999999
 40
0.9999999999999999
 40
0.9999999999999999
 10
229.2406453505754
 20
98.01254941905607
 30
0.0
 10
229.2441709799195
 20
98.01329823566392
 30
0.0
 10
229.2516848605367
 20
98.01489412622601
 30
0.0
 10
229.3877257395371
 20
98.04300785480085
 30
0.0
 10
229.6091290144628
 20
98.08729807040494
 30
0.0
 10
229.9269566679876
 20
98.14617305179254
 30
0.0
 10
230.2169118091503
 20
98.19794880481206
 30
0.0
 10
230.5282153826335
 20
98.24397659111418
 30
0.0
 10
230.694031406911
 20
98.26892089417514
 30
0.0
 10
230.8962099777455
 20
98.29953514572736
 30
0.0
 10
231.1037780650431
 20
98.3259141980743
 30
0.0
 10
231.4022164181584
 20
98.36196969806288
 30
0.0
 10
231.7279330480887
 20
98.39599157669002
 30
0.0
 10
232.0752347099778
 20
98.42681076743854
 30
0.0
 10
232.4367272982126
 20
98.45272374276054
 30
0.0
 10
232.8123749976821
 20
98.47301283556843
 30
0.0
 10
233.2012787590782
 20
98.4868088779806
 30
0.0
 10
233.6004214462209
 20
98.49327853336062
 30
0.0
 10
234.005099176614
 20
98.49190042120607
 30
0.0
 10
234.4082659897666
 20
98.48254835255739
 30
0.0
 10
234.8070747420904
 20
98.46550829504878
 30
0.0
 10
235.1998369233846
 20
98.4412499306227
 30
0.0
 10
235.5868100907113
 20
98.41009216632794
 30
0.0
 10
235.9576615908759
 20
98.37345595807027
 30
0.0
 10
236.3090436863258
 20
98.33277903942225
 30
0.0
 10
236.6387337059377
 20
98.28942783862387
 30
0.0
 10
236.9506715625631
 20
98.24380080290123
 30
0.0
 10
237.229360439602
 20
98.19922251579536
 30
0.0
 10
237.4747305438969
 20
98.15711223771801
 30
0.0
 10
237.6858407072241
 20
98.11878657174528
 30
0.0
 10
237.869498582379
 20
98.08384472777591
 30
0.0
 10
238.053356802886
 20
98.04753859344842
 30
0.0
 10
238.2029909088336
 20
98.01667892014186
 30
0.0
 10
238.2181295369426
 20
98.01348405430761
 30
0.0
 10
238.2253587404987
 20
98.01195839852927
 30
0.0
  0
SPLINE
  5
F3
330
1F
100
AcDbEntity
  8
0
  6
HIDDEN
 62
     7
370
     0
100
AcDbSpline
210
0.0
220
0.0
230
1.0
 70
     8
 71
     3
 72
    16
 73
    12
 74
     0
 42
0.00000001
 43
0.00000001
 12
1.0
 22
0.0
 32
0.0
 13
1.0
 23
0.0
 33
0.0
 40
0.0
 40
0.0
 40
0.0
 40
0.0
 40
0.0449264679074359
 40
0.0903029813339942
 40
0.2732134389759387
 40
0.3660357005830912
 40
0.4677795660875778
 40
0.6755357092372816
 40
0.7820035575306601
 40
0.872233777420307
 40
1.0
 40
1.0
 40
1.0
 40
1.0
 10
230.7082520362796
 20
131.7491198482391
 30
0.0
 10
230.6697695347731
 20
131.7548818702965
 30
0.0
 10
230.5924190379036
 20
131.7664636347781
 30
0.0
 10
230.3555835387677
 20
131.8014873936908
 30
0.0
 10
230.1104606670475
 20
131.8428531857171
 30
0.0
 10
229.8563050102948
 20
131.8880079683858
 30
0.0
 10
229.6183288819397
 20
131.932419184746
 30
0.0
 10
229.4277355632167
 20
131.9702489805879
 30
0.0
 10
229.3100223220437
 20
131.9943376831486
 30
0.0
 10
229.2433569630395
 20
132.0081874808272
 30
0.0
 10
229.2434711516831
 20
132.0081730445091
 30
0.0
 10
229.2435380768654
 20
132.0081645834819
 30
0.0
  0
SPLINE
  5
F4
330
1F
100
AcDbEntity
  8
0
  6
HIDDEN
 62
     7
370
     0
100
AcDbSpline
210
0.0
220
0.0
230
1.0
 70
     8
 71
     3
 72
    31
 73
    27
 74
     0
 42
0.00000001
 43
0.00000001
 12
1.0
 22
0.0
 32
0.0
 13
1.0
 23
0.0
 33
0.0
 40
0.0
 40
0.0
 40
0.0
 40
0.0
 40
0.0073996920746293
 40
0.0368168278649278
 40
0.0966661052546026
 40
0.1271592320723837
 40
0.156629728136124
 40
0.2164391651890808
 40
0.2468161175373661
 40
0.2789478061740859
 40
0.3441082519936565
 40
0.3771760171692011
 40
0.4130954956617995
 40
0.485984488622587
 40
0.5230121929980421
 40
0.5619639050849403
 40
0.641113551049097
 40
0.6813957332609804
 40
0.7215539621173814
 40
0.7619896823678141
 40
0.8033048475875219
 40
0.8449265457983621
 40
0.8830497167909113
 40
0.9565290317845142
 40
0.9605326681290973
 40
1.0
 40
1.0
 40
1.0
 40
1.0
 10
238.2288249854559
 20
132.0100817330781
 30
0.0
 10
238.229685898376
 20
132.0102617458114
 30
0.0
 10
238.233969331047
 20
132.0111573908935
 30
0.0
 10
238.2073190741242
 20
132.0055822287185
 30
0.0
 10
238.1364920862856
 20
131.9908392148485
 30
0.0
 10
238.0141706298134
 20
131.9660838238773
 30
0.0
 10
237.8627730893675
 20
131.9361305704675
 30
0.0
 10
237.6688075157076
 20
131.8991844227596
 30
0.0
 10
237.4329351934775
 20
131.856972972643
 30
0.0
 10
237.1613948854055
 20
131.8106588966519
 30
0.0
 10
236.8468335353386
 20
131.7614100977105
 30
0.0
 10
236.4924738602723
 20
131.7122679068873
 30
0.0
 10
236.0970723988032
 20
131.6625396592165
 30
0.0
 10
235.6607473952617
 20
131.6169992833507
 30
0.0
 10
235.1946561535383
 20
131.5798795853739
 30
0.0
 10
234.696613845783
 20
131.5488250152119
 30
0.0
 10
234.1726028776995
 20
131.5306766565284
 30
0.0
 10
233.6414489305272
 20
131.5278270585964
 30
0.0
 10
233.2396085551986
 20
131.5335240273843
 30
0.0
 10
232.8378346295893
 20
131.5470745861238
 30
0.0
 10
232.4373322850617
 20
131.5683197123294
 30
0.0
 10
232.0544595822629
 20
131.59623696913
 30
0.0
 10
231.5806663637347
 20
131.6380843032327
 30
0.0
 10
231.2589672641908
 20
131.6793866475546
 30
0.0
 10
230.9197239497384
 20
131.7176474714353
 30
0.0
 10
230.8088838523324
 20
131.7341432558974
 30
0.0
 10
230.7082520263459
 20
131.749119793724
 30
0.0
  0
SPLINE
  5
F5
330
1F
100
AcDbEntity
  8
0
  6
HIDDEN
 62
     7
370
     0
100
AcDbSpline
210
0.0
220
0.0
230
1.0
 70
     8
 71
     3
 72
    39
 73
    35
 74
     0
 42
0.00000001
 43
0.00000001
 12
1.0
 22
0.0
 32
0.0
 13
1.0
 23
0.0
 33
0.0
 40
0.0
 40
0.0
 40
0.0
 40
0.0
 40
0.0144082444795678
 40
0.0385079920136075
 40
0.0601202600470774
 40
0.1040417990565199
 40
0.1263874800151464
 40
0.1488499023471037
 40
0.1944157153719993
 40
0.217545954833889
 40
0.2424376173803467
 40
0.2449122731331766
 40
0.2886373399491992
 40
0.2929204732377748
 40
0.31854444178514
 40
0.3462128398535595
 40
0.4023852438735748
 40
0.4309398489545152
 40
0.4603842988514347
 40
0.5202401743281928
 40
0.5507195450978312
 40
0.5806543085767384
 40
0.6107985734961195
 40
0.6416114297139898
 40
0.672659736702652
 40
0.702223494905652
 40
0.7624636918924457
 40
0.7932503111851869
 40
0.8208996070368234
 40
0.8773741022119856
 40
0.9063313195827177
 40
0.9305983612143348
 40
0.9801386432985892
 40
1.0
 40
1.0
 40
1.0
 40
1.0
 10
219.2435380768654
 20
98.01315555353865
 30
0.0
 10
219.2397869078597
 20
98.01237254506059
 30
0.0
 10
219.2297613987617
 20
98.01027984846158
 30
0.0
 10
219.2649066675822
 20
98.01762517306491
 30
0.0
 10
219.3359056757986
 20
98.03231997922651
 30
0.0
 10
219.4562551490013
 20
98.05682015505926
 30
0.0
 10
219.6194677761379
 20
98.08876514863468
 30
0.0
 10
219.8142444960999
 20
98.12568876537448
 30
0.0
 10
220.0497555021508
 20
98.16840433040349
 30
0.0
 10
220.3309701466121
 20
98.21454334049514
 30
0.0
 10
220.4863929488421
 20
98.24030754925515
 30
0.0
 10
220.7393572394111
 20
98.2751091877177
 30
0.0
 10
220.9184704553429
 20
98.29978626122589
 30
0.0
 10
221.177870241202
 20
98.33604568786005
 30
0.0
 10
221.4047925792483
 20
98.36175948304758
 30
0.0
 10
221.8389673894785
 20
98.40790056970664
 30
0.0
 10
222.3150737825343
 20
98.44613722790368
 30
0.0
 10
222.8123430460849
 20
98.47301136023424
 30
0.0
 10
223.3340129885762
 20
98.49153160284408
 30
0.0
 10
223.8724323111207
 20
98.49499387220442
 30
0.0
 10
224.408242086163
 20
98.48254589922489
 30
0.0
 10
224.8070807325107
 20
98.46550902694928
 30
0.0
 10
225.1998368342498
 20
98.44124944425212
 30
0.0
 10
225.5868041216653
 20
98.41009339334744
 30
0.0
 10
225.9576852462668
 20
98.37345160458213
 30
0.0
 10
226.4260396452335
 20
98.31924335777697
 30
0.0
 10
226.8566395407586
 20
98.25885012591465
 30
0.0
 10
227.2293559961761
 20
98.19922172387207
 30
0.0
 10
227.554968021776
 20
98.14334268254441
 30
0.0
 10
227.8203498100659
 20
98.09355486348824
 30
0.0
 10
228.0116746565886
 20
98.05576190912795
 30
0.0
 10
228.1485366893857
 20
98.0280254586235
 30
0.0
 10
228.2245076653798
 20
98.01214095030066
 30
0.0
 10
228.2278643652845
 20
98.01143922394698
 30
0.0
 10
228.2288249854559
 20
98.01123840394243
 30
0.0
  0
SPLINE
  5
F6
330
1F
100
AcDbEntity
  8
0
  6
HIDDEN
 62
     7
370
     0
100
AcDbSpline
210
0.0
220
0.0
230
1.0
 70
     8
 71
     3
 72
    14
 73
    10
 74
     0
 42
0.00000001
 43
0.00000001
 12
1.0
 22
0.0
 32
0.0
 13
1.0
 23
0.0
 33
0.0
 40
0.0
 40
0.0
 40
0.0
 40
0.0
 40
0.0963772186098496
 40
0.1810023166229768
 40
0.3660097084451673
 40
0.5701818810501544
 40
0.7818539706924854
 40
0.9628991274863421
 40
1.0
 40
1.0
 40
1.0
 40
1.0
 10
220.7082520362796
 20
131.7491198482391
 30
0.0
 10
220.6286598614086
 20
131.7614599456753
 30
0.0
 10
220.4791808844832
 20
131.7846354041032
 30
0.0
 10
220.167517945263
 20
131.8317930325709
 30
0.0
 10
219.8415868704278
 20
131.8904147817794
 30
0.0
 10
219.504529063177
 20
131.9544267708585
 30
0.0
 10
219.304403270513
 20
131.9954351550728
 30
0.0
 10
219.2209239854365
 20
132.0128834190299
 30
0.0
 10
219.2379416035388
 20
132.0093345236722
 30
0.0
 10
219.2408358504875
 20
132.008730950393
 30
0.0
  0
SPLINE
  5
F7
330
1F
100
AcDbEntity
  8
0
  6
HIDDEN
 62
     7
370
     0
100
AcDbSpline
210
0.0
220
0.0
230
1.0
 70
     8
 71
     3
 72
    22
 73
    18
 74
     0
 42
0.00000001
 43
0.00000001
 12
1.0
 22
0.0
 32
0.0
 13
1.0
 23
0.0
 33
0.0
 40
0.0
 40
0.0
 40
0.0
 40
0.0
 40
0.0074199608879374
 40
0.0664390011187288
 40
0.1271820335080802
 40
0.1862880452956544
 40
0.2468497897981985
 40
0.311285461846451
 40
0.3772237933834865
 40
0.4492605245340142
 40
0.5230723327331244
 40
0.6012040310698088
 40
0.6814627582237234
 40
0.7620246153766473
 40
0.8449231108664368
 40
0.9213914660590811
 40
1.0
 40
1.0
 40
1.0
 40
1.0
 10
228.2253281174455
 20
132.0093554203015
 30
0.0
 10
228.2273838066242
 20
132.0097836059933
 30
0.0
 10
228.2457906335212
 20
132.0136176194181
 30
0.0
 10
228.1781169397642
 20
131.9994451967811
 30
0.0
 10
228.0281188904599
 20
131.9686717047793
 30
0.0
 10
227.7749252194602
 20
131.9189300595719
 30
0.0
 10
227.4380982712923
 20
131.8570812474343
 30
0.0
 10
227.0119999070251
 20
131.7860069435336
 30
0.0
 10
226.4911995742152
 20
131.7102713573979
 30
0.0
 10
225.8845220140842
 20
131.6378170282665
 30
0.0
 10
225.1916188594972
 20
131.5764985124427
 30
0.0
 10
224.4361130119729
 20
131.5360172375727
 30
0.0
 10
223.6397630136028
 20
131.5238648669286
 30
0.0
 10
222.8295994978519
 20
131.5434486126497
 30
0.0
 10
222.0583469761409
 20
131.592560923853
 30
0.0
 10
221.3333808549252
 20
131.6638447859424
 30
0.0
 10
220.9185366906279
 20
131.7204344642956
 30
0.0
 10
220.7082520263459
 20
131.749119793724
 30
0.0
  0
LINE
  5
F8
330
1F
100
AcDbEntity
  8
0
  6
HIDDEN
 62
     7
370
     0
100
AcDbLine
 10
169.5315903823
 20
101.9277578965
 30
0.0
 11
169.5315903823
 21
98.6105612839
 31
0.0
  0
LINE
  5
F9
330
1F
100
AcDbEntity
  8
0
  6
HIDDEN
 62
     7
370
     0
100
AcDbLine
 10
143.2315903823
 20
102.4999820539
 30
0.0
 11
143.2315903823
 21
99.4778633101
 31
0.0
  0
SPLINE
  5
FA
330
1F
100
AcDbEntity
  8
0
  6
HIDDEN
 62
     7
370
     0
100
AcDbSpline
210
0.0
220
0.0
230
1.0
 70
     8
 71
     3
 72
     8
 73
     4
 74
     0
 42
0.00000001
 43
0.00000001
 12
1.0
 22
0.0
 32
0.0
 13
1.0
 23
0.0
 33
0.0
 40
0.0000202082942178
 40
0.0000202082942178
 40
0.0000202082942178
 40
0.0000202082942178
 40
0.0040218803475994
 40
0.0040218803475994
 40
0.0040218803475994
 40
0.0040218803475994
 10
147.2315903823467
 20
99.38579631007288
 30
0.0
 10
145.8982473813599
 20
99.41654938680283
 30
0.0
 10
144.5649135081373
 20
99.44723839828649
 30
0.0
 10
143.2315903823467
 20
99.47786331009982
 30
0.0
  0
SPLINE
  5
FB
330
1F
100
AcDbEntity
  8
0
  6
HIDDEN
 62
     7
370
     0
100
AcDbSpline
210
0.0
220
0.0
230
1.0
 70
     8
 71
     3
 72
    13
 73
     9
 74
     0
 42
0.00000001
 43
0.00000001
 12
1.0
 22
0.0
 32
0.0
 13
1.0
 23
0.0
 33
0.0
 40
0.0
 40
0.0
 40
0.0
 40
0.0
 40
0.0581346780142238
 40
0.1547363721166143
 40
0.2538631877165666
 40
0.5295233893018929
 40
0.8120371562971824
 40
1.0
 40
1.0
 40
1.0
 40
1.0
 10
149.1095198256312
 20
99.12436563961496
 30
0.0
 10
149.1106462461944
 20
99.1242479270925
 30
0.0
 10
149.1136444262373
 20
99.1239346130895
 30
0.0
 10
149.0374919142896
 20
99.13185634926742
 30
0.0
 10
148.8265111860804
 20
99.15465234594187
 30
0.0
 10
148.3720810582185
 20
99.20871038041453
 30
0.0
 10
147.783109975748
 20
99.29237904544925
 30
0.0
 10
147.3890311165564
 20
99.35912874847367
 30
0.0
 10
147.2315903823467
 20
99.38579631007288
 30
0.0
  0
SPLINE
  5
FC
330
1F
100
AcDbEntity
  8
0
  6
HIDDEN
 62
     7
370
     0
100
AcDbSpline
210
0.0
220
0.0
230
1.0
 70
     8
 71
     3
 72
    29
 73
    25
 74
     0
 42
0.00000001
 43
0.00000001
 12
1.0
 22
0.0
 32
0.0
 13
1.0
 23
0.0
 33
0.0
 40
0.0
 40
0.0
 40
0.0
 40
0.0
 40
0.031185339357906
 40
0.0409716439858361
 40
0.0942909507820352
 40
0.1262526031634826
 40
0.1637000254687366
 40
0.2397941247251852
 40
0.2785181629603555
 40
0.3171927003825127
 40
0.3958232097495882
 40
0.4358702290820618
 40
0.475001336244382
 40
0.5144084485404715
 40
0.5546996221543339
 40
0.5953031875798573
 40
0.6337336108244722
 40
0.7120246498903458
 40
0.7520153380185218
 40
0.7883645172534244
 40
0.8624702123578363
 40
0.9003551462118667
 40
0.9341291831036275
 40
1.0
 40
1.0
 40
1.0
 40
1.0
 10
155.6187948069268
 20
99.07772787527716
 30
0.0
 10
155.6792175319583
 20
99.08110437447185
 30
0.0
 10
155.758601576821
 20
99.08554045648252
 30
0.0
 10
155.9627540925649
 20
99.09346039802915
 30
0.0
 10
156.1597195232864
 20
99.10270292700116
 30
0.0
 10
156.4399446927759
 20
99.1105804486956
 30
0.0
 10
156.7798090587933
 20
99.11765216556486
 30
0.0
 10
157.151849937275
 20
99.11979220666792
 30
0.0
 10
157.5332151823001
 20
99.11602038223675
 30
0.0
 10
157.9233438585346
 20
99.10804211855566
 30
0.0
 10
158.317213785254
 20
99.0936152614643
 30
0.0
 10
158.702893473739
 20
99.0733442229227
 30
0.0
 10
158.9864632732272
 20
99.0554973087583
 30
0.0
 10
159.2622703787377
 20
99.03537295963864
 30
0.0
 10
159.5308756786177
 20
99.01314519631035
 30
0.0
 10
159.7844906526307
 20
98.98975683999333
 30
0.0
 10
160.0994264672214
 20
98.95798084037986
 30
0.0
 10
160.3814738608263
 20
98.92599710781
 30
0.0
 10
160.6189843677656
 20
98.89676509939206
 30
0.0
 10
160.8224260954518
 20
98.8705643044177
 30
0.0
 10
160.9812245447221
 20
98.8488639049333
 30
0.0
 10
161.0882978603573
 20
98.83377042178554
 30
0.0
 10
161.1625318542159
 20
98.82312570154231
 30
0.0
 10
161.1728993515902
 20
98.8216099707422
 30
0.0
 10
161.1797528467307
 20
98.82060798797838
 30
0.0
  0
SPLINE
  5
FD
330
1F
100
AcDbEntity
  8
0
  6
HIDDEN
 62
     7
370
     0
100
AcDbSpline
210
0.0
220
0.0
230
1.0
 70
     8
 71
     3
 72
    17
 73
    13
 74
     0
 42
0.00000001
 43
0.00000001
 12
1.0
 22
0.0
 32
0.0
 13
1.0
 23
0.0
 33
0.0
 40
0.0
 40
0.0
 40
0.0
 40
0.0
 40
0.06922452233582
 40
0.2516710353350624
 40
0.3446500072936871
 40
0.4339884985729717
 40
0.6155157126091806
 40
0.7078698977403423
 40
0.7802140236707384
 40
0.9233085262864208
 40
0.9262438900973896
 40
1.0
 40
1.0
 40
1.0
 40
1.0
 10
154.4525050021479
 20
98.98962044110971
 30
0.0
 10
154.4530593794927
 20
98.98967380099732
 30
0.0
 10
154.4550748606495
 20
98.98986779494203
 30
0.0
 10
154.5059283097416
 20
98.99476981910358
 30
0.0
 10
154.5966158844037
 20
99.00318081888246
 30
0.0
 10
154.7141947592179
 20
99.01374807442005
 30
0.0
 10
154.8689599553952
 20
99.02695731618965
 30
0.0
 10
155.049496186398
 20
99.0408990050528
 30
0.0
 10
155.2239676198233
 20
99.053713682838
 30
0.0
 10
155.3705322689773
 20
99.06273818372965
 30
0.0
 10
155.5100607058967
 20
99.07185375540509
 30
0.0
 10
155.5654885050708
 20
99.07484811994676
 30
0.0
 10
155.6187948069268
 20
99.07772787527716
 30
0.0
  0
LINE
  5
FE
330
1F
100
AcDbEntity
  8
0
  6
HIDDEN
 62
     7
370
     0
100
AcDbLine
 10
171.5315903823
 20
101.4248953811
 30
0.0
 11
171.5315903823
 21
98.5825929511
 31
0.0
  0
LINE
  5
FF
330
1F
100
AcDbEntity
  8
0
  6
HIDDEN
 62
     7
370
     0
100
AcDbLine
 10
146.759630238
 20
104.2219849339
 30
0.0
 11
146.759630238
 21
125.7993352031
 31
0.0
  0
LINE
  5
100
330
1F
100
AcDbEntity
  8
0
  6
HIDDEN
 62
     7
370
     0
100
AcDbLine
 10
142.759630238
 20
103.8407870874
 30
0.0
 11
142.759630238
 21
126.1805330496
 31
0.0
  0
LINE
  5
101
330
1F
100
AcDbEntity
  8
0
  6
HIDDEN
 62
     7
370
     0
100
AcDbLine
 10
141.7315903823
 20
103.2511479533
 30
0.0
 11
141.7315903823
 21
126.7701721837
 31
0.0
  0
LINE
  5
102
330
1F
100
AcDbEntity
  8
0
  6
HIDDEN
 62
     7
370
     0
100
AcDbLine
 10
151.359630238
 20
104.5106600685
 30
0.0
 11
151.359630238
 21
125.5106600685
 31
0.0
  0
LINE
  5
103
330
1F
100
AcDbEntity
  8
0
  6
HIDDEN
 62
     7
370
     0
100
AcDbLine
 10
145.259630238
 20
104.5106600685
 30
0.0
 11
145.259630238
 21
125.5106600685
 31
0.0
  0
LINE
  5
104
330
1F
100
AcDbEntity
  8
0
  6
HIDDEN
 62
     7
370
     0
100
AcDbLine
 10
146.259630238
 20
104.5106600685
 30
0.0
 11
146.259630238
 21
125.5106600685
 31
0.0
  0
SPLINE
  5
105
330
1F
100
AcDbEntity
  8
0
  6
HIDDEN
 62
     7
370
     0
100
AcDbSpline
210
0.0
220
0.0
230
1.0
 70
     8
 71
     3
 72
    66
 73
    62
 74
     0
 42
0.00000001
 43
0.00000001
 12
1.0
 22
0.0
 32
0.0
 13
1.0
 23
0.0
 33
0.0
 40
-0.03125
 40
-0.03125
 40
0.0
 40
0.0
 40
0.0312499999999998
 40
0.0312499999999998
 40
0.0624999999999997
 40
0.0624999999999997
 40
0.0937499999999995
 40
0.0937499999999995
 40
0.1249999999999994
 40
0.1249999999999994
 40
0.1874999999999992
 40
0.1874999999999992
 40
0.2187499999999991
 40
0.2187499999999991
 40
0.249999999999999
 40
0.249999999999999
 40
0.2812499999999989
 40
0.2812499999999989
 40
0.3124999999999988
 40
0.3124999999999988
 40
0.3437499999999988
 40
0.3437499999999988
 40
0.3749999999999987
 40
0.3749999999999987
 40
0.4062499999999987
 40
0.4062499999999987
 40
0.4374999999999986
 40
0.4374999999999986
 40
0.4687499999999986
 40
0.4687499999999986
 40
0.4999999999999986
 40
0.4999999999999986
 40
0.5312499999999986
 40
0.5312499999999986
 40
0.5624999999999984
 40
0.5624999999999984
 40
0.5937499999999984
 40
0.5937499999999984
 40
0.6249999999999986
 40
0.6249999999999986
 40
0.6562499999999988
 40
0.6562499999999988
 40
0.687499999999999
 40
0.687499999999999
 40
0.7187499999999991
 40
0.7187499999999991
 40
0.7499999999999993
 40
0.7499999999999993
 40
0.7812499999999996
 40
0.7812499999999996
 40
0.8124999999999997
 40
0.8124999999999997
 40
0.8749999999999999
 40
0.8749999999999999
 40
0.9062500000000001
 40
0.9062500000000001
 40
0.9375000000000001
 40
0.9375000000000001
 40
0.96875
 40
0.96875
 40
1.0
 40
1.0
 40
1.03125
 40
1.03125
 10
157.5289117353989
 20
104.963396759529
 30
0.0
 10
157.9342690292945
 20
104.963396759529
 30
0.0
 10
158.1333289206303
 20
104.9572646848994
 30
0.0
 10
158.5245829052101
 20
104.9340434722819
 30
0.0
 10
158.7188556639577
 20
104.9166691715444
 30
0.0
 10
159.087619090509
 20
104.8739558038533
 30
0.0
 10
159.2623442488873
 20
104.8487641837975
 30
0.0
 10
159.593021552421
 20
104.7937208706518
 30
0.0
 10
159.7486690964239
 20
104.7638353157529
 30
0.0
 10
160.1681364660925
 20
104.675791868191
 30
0.0
 10
160.3950246076228
 20
104.6174021282017
 30
0.0
 10
160.6238212310076
 20
104.5556561724182
 30
0.0
 10
160.6830134858565
 20
104.5389375709035
 30
0.0
 10
160.761820896117
 20
104.5164535383558
 30
0.0
 10
160.7814603123974
 20
104.5106978507264
 30
0.0
 10
160.781719176819
 20
104.5106226567898
 30
0.0
 10
160.761648492186
 20
104.5165025112555
 30
0.0
 10
160.6833108095561
 20
104.5388529576106
 30
0.0
 10
160.6253610415176
 20
104.555234886347
 30
0.0
 10
160.4714178996377
 20
104.5967913379932
 30
0.0
 10
160.3764792859149
 20
104.6216502823046
 30
0.0
 10
160.1561218700378
 20
104.6755529108431
 30
0.0
 10
160.0288418441095
 20
104.7050357952588
 30
0.0
 10
159.747086252779
 20
104.7641606181327
 30
0.0
 10
159.5942979233214
 20
104.7934783535182
 30
0.0
 10
159.2648708411645
 20
104.8483733288361
 30
0.0
 10
159.0863248380128
 20
104.8741182161368
 30
0.0
 10
158.7187525124627
 20
104.9166685710558
 30
0.0
 10
158.5285984857517
 20
104.9337487809552
 30
0.0
 10
158.1350580630492
 20
104.9572176058643
 30
0.0
 10
157.932623991788
 20
104.9633704530841
 30
0.0
 10
157.5331949164226
 20
104.9634228927975
 30
0.0
 10
157.3331759378667
 20
104.9574444200441
 30
0.0
 10
156.9370599904174
 20
104.933969671922
 30
0.0
 10
156.7463271622255
 20
104.9168547034631
 30
0.0
 10
156.3786957216458
 20
104.8743645372284
 30
0.0
 10
156.200209289478
 20
104.8486659338563
 30
0.0
 10
155.870004030514
 20
104.7936888692518
 30
0.0
 10
155.717115452452
 20
104.7643603848166
 30
0.0
 10
155.435519057914
 20
104.705297799683
 30
0.0
 10
155.3078881350385
 20
104.6757472741739
 30
0.0
 10
155.0875627000387
 20
104.6218693656546
 30
0.0
 10
154.9933362430733
 20
104.5972085965985
 30
0.0
 10
154.8384017224702
 20
104.5553993616579
 30
0.0
 10
154.780389436868
 20
104.538999515629
 30
0.0
 10
154.7019701825898
 20
104.5166290856635
 30
0.0
 10
154.6816561026233
 20
104.5106791586849
 30
0.0
 10
154.6815249863193
 20
104.5106410725222
 30
0.0
 10
154.7011496796787
 20
104.516391740994
 30
0.0
 10
154.7793161300923
 20
104.5386965402101
 30
0.0
 10
154.8386035754322
 20
104.5554476541866
 30
0.0
 10
155.0676844185151
 20
104.617283772103
 30
0.0
 10
155.2945152694093
 20
104.6756648224008
 30
0.0
 10
155.71385397073
 20
104.7637052460025
 30
0.0
 10
155.8692069664799
 20
104.7935495896933
 30
0.0
 10
156.2001747996171
 20
104.8486667485123
 30
0.0
 10
156.3747360998135
 20
104.8738346155679
 30
0.0
 10
156.7423094073883
 20
104.9164610628038
 30
0.0
 10
156.9369962690263
 20
104.9339291223985
 30
0.0
 10
157.3294722189628
 20
104.9572613510254
 30
0.0
 10
157.5289117353989
 20
104.963396759529
 30
0.0
 10
157.9342690292945
 20
104.963396759529
 30
0.0
  0
SPLINE
  5
106
330
1F
100
AcDbEntity
  8
0
  6
HIDDEN
 62
     7
370
     0
100
AcDbSpline
210
0.0
220
0.0
230
1.0
 70
     8
 71
     3
 72
    66
 73
    62
 74
     0
 42
0.00000001
 43
0.00000001
 12
1.0
 22
0.0
 32
0.0
 13
1.0
 23
0.0
 33
0.0
 40
-0.0312499999999999
 40
-0.0312499999999999
 40
0.0
 40
0.0
 40
0.03125
 40
0.03125
 40
0.0625000000000001
 40
0.0625000000000001
 40
0.0937500000000001
 40
0.0937500000000001
 40
0.1250000000000001
 40
0.1250000000000001
 40
0.1874999999999999
 40
0.1874999999999999
 40
0.2187499999999998
 40
0.2187499999999998
 40
0.2499999999999996
 40
0.2499999999999996
 40
0.2812499999999995
 40
0.2812499999999995
 40
0.3124999999999993
 40
0.3124999999999993
 40
0.3437499999999992
 40
0.3437499999999992
 40
0.3749999999999991
 40
0.3749999999999991
 40
0.4062499999999989
 40
0.4062499999999989
 40
0.4374999999999991
 40
0.4374999999999991
 40
0.4687499999999991
 40
0.4687499999999991
 40
0.4999999999999992
 40
0.4999999999999992
 40
0.5312499999999992
 40
0.5312499999999992
 40
0.5624999999999993
 40
0.5624999999999993
 40
0.5937499999999993
 40
0.5937499999999993
 40
0.6249999999999993
 40
0.6249999999999993
 40
0.6562499999999994
 40
0.6562499999999994
 40
0.6874999999999994
 40
0.6874999999999994
 40
0.7187499999999994
 40
0.7187499999999994
 40
0.7499999999999994
 40
0.7499999999999994
 40
0.7812499999999997
 40
0.7812499999999997
 40
0.8124999999999998
 40
0.8124999999999998
 40
0.875
 40
0.875
 40
0.90625
 40
0.90625
 40
0.9375
 40
0.9375
 40
0.9687500000000001
 40
0.9687500000000001
 40
1.0
 40
1.0
 40
1.03125
 40
1.03125
 10
157.9342690292945
 20
125.0579233774914
 30
0.0
 10
157.5289117353989
 20
125.0579233774914
 30
0.0
 10
157.329851844063
 20
125.0640554521211
 30
0.0
 10
156.9385978594833
 20
125.0872766647385
 30
0.0
 10
156.7443251007357
 20
125.1046509654761
 30
0.0
 10
156.3755616741844
 20
125.1473643331672
 30
0.0
 10
156.2008365158061
 20
125.172555953223
 30
0.0
 10
155.8701592122723
 20
125.2275992663687
 30
0.0
 10
155.7145116682695
 20
125.2574848212676
 30
0.0
 10
155.2950442986008
 20
125.3455282688294
 30
0.0
 10
155.0681561570705
 20
125.4039180088188
 30
0.0
 10
154.8393595336858
 20
125.4656639646023
 30
0.0
 10
154.7801672788369
 20
125.482382566117
 30
0.0
 10
154.7013598685764
 20
125.5048665986647
 30
0.0
 10
154.681720452296
 20
125.5106222862941
 30
0.0
 10
154.6814615878744
 20
125.5106974802307
 30
0.0
 10
154.7015322725074
 20
125.504817625765
 30
0.0
 10
154.7798699551373
 20
125.4824671794099
 30
0.0
 10
154.8378197231757
 20
125.4660852506735
 30
0.0
 10
154.9917628650557
 20
125.4245287990272
 30
0.0
 10
155.0867014787784
 20
125.3996698547159
 30
0.0
 10
155.3070588946556
 20
125.3457672261774
 30
0.0
 10
155.4343389205839
 20
125.3162843417617
 30
0.0
 10
155.7160945119144
 20
125.2571595188878
 30
0.0
 10
155.8688828413719
 20
125.2278417835023
 30
0.0
 10
156.1983099235289
 20
125.1729468081844
 30
0.0
 10
156.3768559266805
 20
125.1472019208836
 30
0.0
 10
156.7444282522307
 20
125.1046515659647
 30
0.0
 10
156.9345822789417
 20
125.0875713560652
 30
0.0
 10
157.3281227016442
 20
125.0641025311562
 30
0.0
 10
157.5305567729053
 20
125.0579496839364
 30
0.0
 10
157.9299858482707
 20
125.057897244223
 30
0.0
 10
158.1300048268266
 20
125.0638757169764
 30
0.0
 10
158.526120774276
 20
125.0873504650984
 30
0.0
 10
158.7168536024678
 20
125.1044654335574
 30
0.0
 10
159.0844850430476
 20
125.1469555997921
 30
0.0
 10
159.2629714752154
 20
125.1726542031642
 30
0.0
 10
159.5931767341794
 20
125.2276312677686
 30
0.0
 10
159.7460653122413
 20
125.2569597522039
 30
0.0
 10
160.0276617067794
 20
125.3160223373375
 30
0.0
 10
160.1552926296549
 20
125.3455728628466
 30
0.0
 10
160.3756180646547
 20
125.3994507713659
 30
0.0
 10
160.4698445216201
 20
125.424111540422
 30
0.0
 10
160.6247790422232
 20
125.4659207753626
 30
0.0
 10
160.6827913278254
 20
125.4823206213915
 30
0.0
 10
160.7612105821036
 20
125.504691051357
 30
0.0
 10
160.7815246620701
 20
125.5106409783356
 30
0.0
 10
160.7816557783741
 20
125.5106790644982
 30
0.0
 10
160.7620310850147
 20
125.5049283960265
 30
0.0
 10
160.683864634601
 20
125.4826235968104
 30
0.0
 10
160.6245771892611
 20
125.4658724828339
 30
0.0
 10
160.3954963461783
 20
125.4040363649175
 30
0.0
 10
160.1686654952841
 20
125.3456553146197
 30
0.0
 10
159.7493267939634
 20
125.257614891018
 30
0.0
 10
159.5939737982134
 20
125.2277705473272
 30
0.0
 10
159.2630059650762
 20
125.1726533885082
 30
0.0
 10
159.0884446648799
 20
125.1474855214526
 30
0.0
 10
158.7208713573051
 20
125.1048590742167
 30
0.0
 10
158.526184495667
 20
125.087391014622
 30
0.0
 10
158.1337085457305
 20
125.0640587859951
 30
0.0
 10
157.9342690292945
 20
125.0579233774914
 30
0.0
 10
157.5289117353989
 20
125.0579233774914
 30
0.0
  0
LINE
  5
107
330
1F
100
AcDbEntity
  8
0
  6
HIDDEN
 62
     7
370
     0
100
AcDbLine
 10
161.7315903823
 20
105.0106600685
 30
0.0
 11
161.7315903823
 21
125.0106600685
 31
0.0
  0
LINE
  5
108
330
1F
100
AcDbEntity
  8
0
  6
HIDDEN
 62
     7
370
     0
100
AcDbLine
 10
162.7315903823
 20
107.7606600685
 30
0.0
 11
162.7315903823
 21
122.2606600685
 31
0.0
  0
LINE
  5
109
330
1F
100
AcDbEntity
  8
0
  6
HIDDEN
 62
     7
370
     0
100
AcDbLine
 10
161.7315903823
 20
106.7645728809
 30
0.0
 11
161.7315903823
 21
123.2567472561
 31
0.0
  0
LINE
  5
10A
330
1F
100
AcDbEntity
  8
0
  6
HIDDEN
 62
     7
370
     0
100
AcDbLine
 10
186.7315903823
 20
107.7606600685
 30
0.0
 11
186.7315903823
 21
122.2606600685
 31
0.0
  0
LINE
  5
10B
330
1F
100
AcDbEntity
  8
0
  6
HIDDEN
 62
     7
370
     0
100
AcDbLine
 10
187.4826661561
 20
109.0106600685
 30
0.0
 11
187.4826661561
 21
121.0106600685
 31
0.0
  0
LINE
  5
10C
330
1F
100
AcDbEntity
  8
0
  6
HIDDEN
 62
     7
370
     0
100
AcDbLine
 10
207.7315903823
 20
109.0106600685
 30
0.0
 11
207.7315903823
 21
121.0106600685
 31
0.0
  0
LINE
  5
10D
330
1F
100
AcDbEntity
  8
0
  6
HIDDEN
 62
     7
370
     0
100
AcDbLine
 10
208.3324510014
 20
110.0106600685
 30
0.0
 11
208.3324510014
 21
120.0106600685
 31
0.0
  0
LINE
  5
10E
330
1F
100
AcDbEntity
  8
0
  6
HIDDEN
 62
     7
370
     0
100
AcDbLine
 10
241.7315903823
 20
120.3106600685
 30
0.0
 11
241.7315903823
 21
109.7262113222
 31
0.0
  0
LINE
  5
10F
330
1F
100
AcDbEntity
  8
0
  6
HIDDEN
 62
     7
370
     0
100
AcDbLine
 10
169.5315903823
 20
132.273459145
 30
0.0
 11
169.5315903823
 21
133.6507588531
 31
0.0
  0
LINE
  5
110
330
1F
100
AcDbEntity
  8
0
  6
HIDDEN
 62
     7
370
     0
100
AcDbLine
 10
143.2315903823
 20
131.7012349876
 30
0.0
 11
143.2315903823
 21
132.9900113105
 31
0.0
  0
SPLINE
  5
111
330
1F
100
AcDbEntity
  8
0
  6
HIDDEN
 62
     7
370
     0
100
AcDbSpline
210
0.0
220
0.0
230
1.0
 70
     8
 71
     3
 72
    10
 73
     6
 74
     0
 42
0.00000001
 43
0.00000001
 12
1.0
 22
0.0
 32
0.0
 13
1.0
 23
0.0
 33
0.0
 40
0.0
 40
0.0
 40
0.0
 40
0.0
 40
0.3599412485529671
 40
0.7301023945709331
 40
1.0
 40
1.0
 40
1.0
 40
1.0
 10
170.410270038787
 20
132.5574643878337
 30
0.0
 10
170.3238064817501
 20
132.7476156937267
 30
0.0
 10
170.14842438734
 20
133.1333173167595
 30
0.0
 10
170.0183865329375
 20
133.4244099211806
 30
0.0
 10
170.0134991167775
 20
133.4352951998862
 30
0.0
 10
170.0114382092196
 20
133.4398852639239
 30
0.0
  0
SPLINE
  5
112
330
1F
100
AcDbEntity
  8
0
  6
HIDDEN
 62
     7
370
     0
100
AcDbSpline
210
0.0
220
0.0
230
1.0
 70
     8
 71
     3
 72
    74
 73
    70
 74
     0
 42
0.00000001
 43
0.00000001
 12
1.0
 22
0.0
 32
0.0
 13
1.0
 23
0.0
 33
0.0
 40
-0.0312500000000008
 40
-0.0312500000000008
 40
0.0
 40
0.0
 40
0.0312499999999999
 40
0.0312499999999999
 40
0.0624999999999999
 40
0.0624999999999999
 40
0.0937499999999998
 40
0.0937499999999998
 40
0.1249999999999998
 40
0.1249999999999998
 40
0.1562499999999997
 40
0.1562499999999997
 40
0.1874999999999997
 40
0.1874999999999997
 40
0.2187499999999997
 40
0.2187499999999997
 40
0.2499999999999997
 40
0.2499999999999997
 40
0.2812499999999996
 40
0.2812499999999996
 40
0.3124999999999996
 40
0.3124999999999996
 40
0.3437499999999995
 40
0.3437499999999995
 40
0.3749999999999994
 40
0.3749999999999994
 40
0.4062499999999994
 40
0.4062499999999994
 40
0.4374999999999993
 40
0.4374999999999993
 40
0.4687499999999993
 40
0.4687499999999993
 40
0.4843749999999997
 40
0.4843749999999997
 40
0.5000000000000001
 40
0.5000000000000001
 40
0.53125
 40
0.53125
 40
0.5625
 40
0.5625
 40
0.5937499999999999
 40
0.5937499999999999
 40
0.6249999999999999
 40
0.6249999999999999
 40
0.6562499999999998
 40
0.6562499999999998
 40
0.6874999999999998
 40
0.6874999999999998
 40
0.7187499999999997
 40
0.7187499999999997
 40
0.7499999999999997
 40
0.7499999999999997
 40
0.7812499999999996
 40
0.7812499999999996
 40
0.8124999999999996
 40
0.8124999999999996
 40
0.8437499999999994
 40
0.8437499999999994
 40
0.8749999999999994
 40
0.8749999999999994
 40
0.9062499999999993
 40
0.9062499999999993
 40
0.9374999999999993
 40
0.9374999999999993
 40
0.9531249999999993
 40
0.9531249999999993
 40
0.9687499999999992
 40
0.9687499999999992
 40
1.0
 40
1.0
 40
1.03125
 40
1.03125
 10
233.9724656623098
 20
118.5106600685102
 30
0.0
 10
233.4907151023836
 20
118.5106600685102
 30
0.0
 10
233.2566752994901
 20
118.486105167907
 30
0.0
 10
232.8002845738172
 20
118.3925134754226
 30
0.0
 10
232.577151816538
 20
118.3224973278448
 30
0.0
 10
232.1611365452934
 20
118.1466876800322
 30
0.0
 10
231.9638416359586
 20
118.0395693545129
 30
0.0
 10
231.5955124335186
 20
117.7920982018722
 30
0.0
 10
231.4258466197592
 20
117.6530434991816
 30
0.0
 10
231.1123802001784
 20
117.3426940551888
 30
0.0
 10
230.9680403303473
 20
117.1699394339257
 30
0.0
 10
230.716420347421
 20
116.8018736036034
 30
0.0
 10
230.6075772443322
 20
116.6053950165954
 30
0.0
 10
230.4261310207627
 20
116.1839358460017
 30
0.0
 10
230.3539267963924
 20
115.9575541558048
 30
0.0
 10
230.2576636652309
 20
115.4975408306522
 30
0.0
 10
230.2321856983846
 20
115.258044245929
 30
0.0
 10
230.2310160555189
 20
114.7804179009399
 30
0.0
 10
230.2546263105689
 20
114.5450173246354
 30
0.0
 10
230.349065161793
 20
114.0808076857764
 30
0.0
 10
230.4196503311321
 20
113.8556602466812
 30
0.0
 10
230.5994184980289
 20
113.4319039827409
 30
0.0
 10
230.710367180102
 20
113.2294739073168
 30
0.0
 10
230.9627271669176
 20
112.8580313794763
 30
0.0
 10
231.1044435590787
 20
112.6873982906767
 30
0.0
 10
231.4195853813525
 20
112.3736013670917
 30
0.0
 10
231.5899922537698
 20
112.2335989782365
 30
0.0
 10
231.9550242417063
 20
111.9870325135084
 30
0.0
 10
232.151575723728
 20
111.8793221105756
 30
0.0
 10
232.570097334727
 20
111.7011801050442
 30
0.0
 10
232.7884294143306
 20
111.6319756218449
 30
0.0
 10
233.133016311651
 20
111.5602290255357
 30
0.0
 10
233.2514892340804
 20
111.5417182619214
 30
0.0
 10
233.487318570124
 20
111.5171824813745
 30
0.0
 10
233.6054039023185
 20
111.5109369596246
 30
0.0
 10
233.9601758762859
 20
111.5101332312468
 30
0.0
 10
234.2009719879715
 20
111.5343564889907
 30
0.0
 10
234.6605829076239
 20
111.6280606898284
 30
0.0
 10
234.8823438149108
 20
111.697432050271
 30
0.0
 10
235.3014001126427
 20
111.8741953749307
 30
0.0
 10
235.4963718372442
 20
111.9801071646682
 30
0.0
 10
235.8630611275441
 20
112.2257835992745
 30
0.0
 10
236.03603922849
 20
112.3671309457959
 30
0.0
 10
236.3499191472449
 20
112.6776180230176
 30
0.0
 10
236.4917679672205
 20
112.84692636517
 30
0.0
 10
236.7454136059833
 20
113.2170064186438
 30
0.0
 10
236.8572167011892
 20
113.4190521280804
 30
0.0
 10
237.0384120898699
 20
113.8411790230318
 30
0.0
 10
237.109717472813
 20
114.0647807389912
 30
0.0
 10
237.2065451012189
 20
114.5299106045049
 30
0.0
 10
237.2310330214504
 20
114.7649815601496
 30
0.0
 10
237.2321291226154
 20
115.2401927278978
 30
0.0
 10
237.2077203122408
 20
115.4818307743511
 30
0.0
 10
237.1132428806663
 20
115.9433483895246
 30
0.0
 10
237.0425311086413
 20
116.1687926879319
 30
0.0
 10
236.8611358877065
 20
116.5948142867246
 30
0.0
 10
236.751776619626
 20
116.7937451595627
 30
0.0
 10
236.497810522204
 20
117.1668009469393
 30
0.0
 10
236.3541063438944
 20
117.3389818172227
 30
0.0
 10
236.0409856696458
 20
117.649857965808
 30
0.0
 10
235.8692811133573
 20
117.7908881697641
 30
0.0
 10
235.5004597958593
 20
118.038941917082
 30
0.0
 10
235.3057808855924
 20
118.1447388471326
 30
0.0
 10
234.9954041483573
 20
118.2764534097402
 30
0.0
 10
234.8888542317845
 20
118.3158168734615
 30
0.0
 10
234.6685929392811
 20
118.3848781010075
 30
0.0
 10
234.554216277891
 20
118.4146425389427
 30
0.0
 10
234.208946853099
 20
118.4859112669067
 30
0.0
 10
233.9724656623098
 20
118.5106600685102
 30
0.0
 10
233.4907151023836
 20
118.5106600685102
 30
0.0
  0
SPLINE
  5
113
330
1F
100
AcDbEntity
  8
0
  6
HIDDEN
 62
     7
370
     0
100
AcDbSpline
210
0.0
220
0.0
230
1.0
 70
     8
 71
     3
 72
    74
 73
    70
 74
     0
 42
0.00000001
 43
0.00000001
 12
1.0
 22
0.0
 32
0.0
 13
1.0
 23
0.0
 33
0.0
 40
-0.0312500000000009
 40
-0.0312500000000009
 40
0.0
 40
0.0
 40
0.0312499999999991
 40
0.0312499999999991
 40
0.0624999999999981
 40
0.0624999999999981
 40
0.0937499999999972
 40
0.0937499999999972
 40
0.1249999999999962
 40
0.1249999999999962
 40
0.1562499999999953
 40
0.1562499999999953
 40
0.1874999999999943
 40
0.1874999999999943
 40
0.2187499999999933
 40
0.2187499999999933
 40
0.2499999999999924
 40
0.2499999999999924
 40
0.2812499999999914
 40
0.2812499999999914
 40
0.3124999999999905
 40
0.3124999999999905
 40
0.3437499999999895
 40
0.3437499999999895
 40
0.3749999999999886
 40
0.3749999999999886
 40
0.4062499999999877
 40
0.4062499999999877
 40
0.4374999999999867
 40
0.4374999999999867
 40
0.4687499999999858
 40
0.4687499999999858
 40
0.4843749999999857
 40
0.4843749999999857
 40
0.4999999999999857
 40
0.4999999999999857
 40
0.5312499999999866
 40
0.5312499999999866
 40
0.5624999999999873
 40
0.5624999999999873
 40
0.5937499999999882
 40
0.5937499999999882
 40
0.624999999999989
 40
0.624999999999989
 40
0.6562499999999899
 40
0.6562499999999899
 40
0.6874999999999907
 40
0.6874999999999907
 40
0.7187499999999916
 40
0.7187499999999916
 40
0.7499999999999923
 40
0.7499999999999923
 40
0.7812499999999932
 40
0.7812499999999932
 40
0.8124999999999941
 40
0.8124999999999941
 40
0.8437499999999949
 40
0.8437499999999949
 40
0.8749999999999958
 40
0.8749999999999958
 40
0.9062499999999966
 40
0.9062499999999966
 40
0.9374999999999974
 40
0.9374999999999974
 40
0.9531249999999983
 40
0.9531249999999983
 40
0.9687499999999991
 40
0.9687499999999991
 40
1.0
 40
1.0
 40
1.031249999999999
 40
1.031249999999999
 10
223.9724656623098
 20
118.5106600685102
 30
0.0
 10
223.4907151023835
 20
118.5106600685102
 30
0.0
 10
223.2566752994901
 20
118.486105167907
 30
0.0
 10
222.8002845738172
 20
118.3925134754226
 30
0.0
 10
222.577151816538
 20
118.3224973278448
 30
0.0
 10
222.1611365452934
 20
118.1466876800322
 30
0.0
 10
221.9638416359586
 20
118.0395693545129
 30
0.0
 10
221.5955124335186
 20
117.7920982018722
 30
0.0
 10
221.4258466197592
 20
117.6530434991816
 30
0.0
 10
221.1123802001784
 20
117.3426940551888
 30
0.0
 10
220.9680403303473
 20
117.1699394339257
 30
0.0
 10
220.716420347421
 20
116.8018736036034
 30
0.0
 10
220.6075772443322
 20
116.6053950165954
 30
0.0
 10
220.4261310207627
 20
116.1839358460017
 30
0.0
 10
220.3539267963924
 20
115.9575541558048
 30
0.0
 10
220.2576636652309
 20
115.4975408306522
 30
0.0
 10
220.2321856983846
 20
115.258044245929
 30
0.0
 10
220.2310160555189
 20
114.7804179009399
 30
0.0
 10
220.2546263105688
 20
114.5450173246354
 30
0.0
 10
220.349065161793
 20
114.0808076857764
 30
0.0
 10
220.4196503311321
 20
113.8556602466812
 30
0.0
 10
220.5994184980289
 20
113.4319039827409
 30
0.0
 10
220.710367180102
 20
113.2294739073168
 30
0.0
 10
220.9627271669176
 20
112.8580313794763
 30
0.0
 10
221.1044435590786
 20
112.6873982906767
 30
0.0
 10
221.4195853813525
 20
112.3736013670917
 30
0.0
 10
221.5899922537698
 20
112.2335989782365
 30
0.0
 10
221.9550242417063
 20
111.9870325135084
 30
0.0
 10
222.151575723728
 20
111.8793221105756
 30
0.0
 10
222.570097334727
 20
111.7011801050442
 30
0.0
 10
222.7884294143306
 20
111.6319756218449
 30
0.0
 10
223.133016311651
 20
111.5602290255357
 30
0.0
 10
223.2514892340804
 20
111.5417182619214
 30
0.0
 10
223.487318570124
 20
111.5171824813745
 30
0.0
 10
223.6054039023185
 20
111.5109369596246
 30
0.0
 10
223.9601758762859
 20
111.5101332312468
 30
0.0
 10
224.2009719879715
 20
111.5343564889907
 30
0.0
 10
224.6605829076238
 20
111.6280606898284
 30
0.0
 10
224.8823438149108
 20
111.697432050271
 30
0.0
 10
225.3014001126427
 20
111.8741953749307
 30
0.0
 10
225.4963718372442
 20
111.9801071646682
 30
0.0
 10
225.8630611275441
 20
112.2257835992745
 30
0.0
 10
226.03603922849
 20
112.3671309457959
 30
0.0
 10
226.3499191472449
 20
112.6776180230176
 30
0.0
 10
226.4917679672205
 20
112.84692636517
 30
0.0
 10
226.7454136059833
 20
113.2170064186438
 30
0.0
 10
226.8572167011892
 20
113.4190521280804
 30
0.0
 10
227.0384120898699
 20
113.8411790230318
 30
0.0
 10
227.109717472813
 20
114.0647807389912
 30
0.0
 10
227.2065451012189
 20
114.5299106045049
 30
0.0
 10
227.2310330214504
 20
114.7649815601496
 30
0.0
 10
227.2321291226154
 20
115.2401927278978
 30
0.0
 10
227.2077203122408
 20
115.4818307743511
 30
0.0
 10
227.1132428806663
 20
115.9433483895246
 30
0.0
 10
227.0425311086412
 20
116.1687926879319
 30
0.0
 10
226.8611358877065
 20
116.5948142867246
 30
0.0
 10
226.751776619626
 20
116.7937451595626
 30
0.0
 10
226.497810522204
 20
117.1668009469393
 30
0.0
 10
226.3541063438944
 20
117.3389818172227
 30
0.0
 10
226.0409856696458
 20
117.649857965808
 30
0.0
 10
225.8692811133572
 20
117.7908881697641
 30
0.0
 10
225.5004597958593
 20
118.038941917082
 30
0.0
 10
225.3057808855924
 20
118.1447388471326
 30
0.0
 10
224.9954041483572
 20
118.2764534097402
 30
0.0
 10
224.8888542317845
 20
118.3158168734615
 30
0.0
 10
224.6685929392811
 20
118.3848781010075
 30
0.0
 10
224.5542162778911
 20
118.4146425389427
 30
0.0
 10
224.208946853099
 20
118.4859112669067
 30
0.0
 10
223.9724656623098
 20
118.5106600685102
 30
0.0
 10
223.4907151023835
 20
118.5106600685102
 30
0.0
  0
SPLINE
  5
114
330
1F
100
AcDbEntity
  8
0
  6
HIDDEN
 62
     7
370
     0
100
AcDbSpline
210
0.0
220
0.0
230
1.0
 70
     8
 71
     3
 72
    74
 73
    70
 74
     0
 42
0.00000001
 43
0.00000001
 12
1.0
 22
0.0
 32
0.0
 13
1.0
 23
0.0
 33
0.0
 40
-0.0312500000000001
 40
-0.0312500000000001
 40
0.0
 40
0.0
 40
0.03125
 40
0.03125
 40
0.0625
 40
0.0625
 40
0.09375
 40
0.09375
 40
0.125
 40
0.125
 40
0.15625
 40
0.15625
 40
0.1875
 40
0.1875
 40
0.21875
 40
0.21875
 40
0.2500000000000001
 40
0.2500000000000001
 40
0.2812500000000001
 40
0.2812500000000001
 40
0.3125000000000001
 40
0.3125000000000001
 40
0.3437500000000001
 40
0.3437500000000001
 40
0.375
 40
0.375
 40
0.40625
 40
0.40625
 40
0.4375
 40
0.4375
 40
0.46875
 40
0.46875
 40
0.4843750000000004
 40
0.4843750000000004
 40
0.5000000000000009
 40
0.5000000000000009
 40
0.5312500000000009
 40
0.5312500000000009
 40
0.5625000000000009
 40
0.5625000000000009
 40
0.5937500000000009
 40
0.5937500000000009
 40
0.6250000000000009
 40
0.6250000000000009
 40
0.6562500000000009
 40
0.6562500000000009
 40
0.6875000000000009
 40
0.6875000000000009
 40
0.7187500000000009
 40
0.7187500000000009
 40
0.7500000000000008
 40
0.7500000000000008
 40
0.7812500000000008
 40
0.7812500000000008
 40
0.8125000000000008
 40
0.8125000000000008
 40
0.8437500000000008
 40
0.8437500000000008
 40
0.8750000000000008
 40
0.8750000000000008
 40
0.9062500000000008
 40
0.9062500000000008
 40
0.9375000000000008
 40
0.9375000000000008
 40
0.9531250000000003
 40
0.9531250000000003
 40
0.9687499999999999
 40
0.9687499999999999
 40
1.0
 40
1.0
 40
1.03125
 40
1.03125
 10
213.9724656623098
 20
118.5106600685102
 30
0.0
 10
213.4907151023836
 20
118.5106600685102
 30
0.0
 10
213.25667529949
 20
118.486105167907
 30
0.0
 10
212.8002845738172
 20
118.3925134754226
 30
0.0
 10
212.577151816538
 20
118.3224973278448
 30
0.0
 10
212.1611365452934
 20
118.1466876800321
 30
0.0
 10
211.9638416359587
 20
118.0395693545129
 30
0.0
 10
211.5955124335186
 20
117.7920982018722
 30
0.0
 10
211.4258466197592
 20
117.6530434991816
 30
0.0
 10
211.1123802001784
 20
117.3426940551888
 30
0.0
 10
210.9680403303473
 20
117.1699394339257
 30
0.0
 10
210.716420347421
 20
116.8018736036034
 30
0.0
 10
210.6075772443322
 20
116.6053950165954
 30
0.0
 10
210.4261310207627
 20
116.1839358460017
 30
0.0
 10
210.3539267963924
 20
115.9575541558048
 30
0.0
 10
210.2576636652309
 20
115.4975408306522
 30
0.0
 10
210.2321856983846
 20
115.258044245929
 30
0.0
 10
210.2310160555189
 20
114.7804179009399
 30
0.0
 10
210.2546263105688
 20
114.5450173246354
 30
0.0
 10
210.349065161793
 20
114.0808076857764
 30
0.0
 10
210.4196503311321
 20
113.8556602466812
 30
0.0
 10
210.5994184980289
 20
113.4319039827409
 30
0.0
 10
210.710367180102
 20
113.2294739073168
 30
0.0
 10
210.9627271669175
 20
112.8580313794763
 30
0.0
 10
211.1044435590787
 20
112.6873982906767
 30
0.0
 10
211.4195853813525
 20
112.3736013670917
 30
0.0
 10
211.5899922537699
 20
112.2335989782365
 30
0.0
 10
211.9550242417063
 20
111.9870325135084
 30
0.0
 10
212.151575723728
 20
111.8793221105756
 30
0.0
 10
212.570097334727
 20
111.7011801050442
 30
0.0
 10
212.7884294143306
 20
111.6319756218449
 30
0.0
 10
213.133016311651
 20
111.5602290255357
 30
0.0
 10
213.2514892340804
 20
111.5417182619214
 30
0.0
 10
213.487318570124
 20
111.5171824813745
 30
0.0
 10
213.6054039023185
 20
111.5109369596246
 30
0.0
 10
213.960175876286
 20
111.5101332312468
 30
0.0
 10
214.2009719879715
 20
111.5343564889907
 30
0.0
 10
214.6605829076238
 20
111.6280606898284
 30
0.0
 10
214.8823438149108
 20
111.697432050271
 30
0.0
 10
215.3014001126427
 20
111.8741953749307
 30
0.0
 10
215.4963718372442
 20
111.9801071646682
 30
0.0
 10
215.8630611275441
 20
112.2257835992745
 30
0.0
 10
216.03603922849
 20
112.3671309457959
 30
0.0
 10
216.3499191472449
 20
112.6776180230176
 30
0.0
 10
216.4917679672206
 20
112.84692636517
 30
0.0
 10
216.7454136059833
 20
113.2170064186438
 30
0.0
 10
216.8572167011892
 20
113.4190521280804
 30
0.0
 10
217.0384120898699
 20
113.8411790230318
 30
0.0
 10
217.109717472813
 20
114.0647807389912
 30
0.0
 10
217.2065451012189
 20
114.5299106045049
 30
0.0
 10
217.2310330214504
 20
114.7649815601496
 30
0.0
 10
217.2321291226154
 20
115.2401927278978
 30
0.0
 10
217.2077203122408
 20
115.4818307743511
 30
0.0
 10
217.1132428806663
 20
115.9433483895246
 30
0.0
 10
217.0425311086412
 20
116.1687926879319
 30
0.0
 10
216.8611358877065
 20
116.5948142867246
 30
0.0
 10
216.751776619626
 20
116.7937451595626
 30
0.0
 10
216.497810522204
 20
117.1668009469393
 30
0.0
 10
216.3541063438944
 20
117.3389818172227
 30
0.0
 10
216.0409856696458
 20
117.649857965808
 30
0.0
 10
215.8692811133572
 20
117.790888169764
 30
0.0
 10
215.5004597958593
 20
118.038941917082
 30
0.0
 10
215.3057808855924
 20
118.1447388471326
 30
0.0
 10
214.9954041483573
 20
118.2764534097402
 30
0.0
 10
214.8888542317845
 20
118.3158168734615
 30
0.0
 10
214.6685929392811
 20
118.3848781010075
 30
0.0
 10
214.554216277891
 20
118.4146425389427
 30
0.0
 10
214.208946853099
 20
118.4859112669067
 30
0.0
 10
213.9724656623098
 20
118.5106600685102
 30
0.0
 10
213.4907151023836
 20
118.5106600685102
 30
0.0
  0
SPLINE
  5
115
330
1F
100
AcDbEntity
  8
0
  6
HIDDEN
 62
     7
370
     0
100
AcDbSpline
210
0.0
220
0.0
230
1.0
 70
    11
 71
     3
 72
    75
 73
    71
 74
     0
 42
0.00000001
 43
0.00000001
 12
1.0
 22
0.0
 32
0.0
 13
1.0
 23
0.0
 33
0.0
 40
0.0
 40
0.0
 40
0.0
 40
0.0
 40
0.0160888749364123
 40
0.0378166251666797
 40
0.0488990600674382
 40
0.0601805331915634
 40
0.0818240306260614
 40
0.1038137236880406
 40
0.1164812059548041
 40
0.1292824240476753
 40
0.1421501983570667
 40
0.1551554687223098
 40
0.169797898618761
 40
0.1845569618503912
 40
0.1997248063947796
 40
0.2150553178182217
 40
0.2366607936475788
 40
0.2587213483927464
 40
0.2660762477964079
 40
0.2803446218545957
 40
0.2913298065709191
 40
0.3024811633266054
 40
0.3236695629651596
 40
0.3452326586464342
 40
0.356979418215423
 40
0.3688529496272145
 40
0.3807874734566089
 40
0.392843260940869
 40
0.4066570201658712
 40
0.4206447884916318
 40
0.4347219860114886
 40
0.4489905047781875
 40
0.4703219433278543
 40
0.492051390624842
 40
0.5134613138353393
 40
0.5354996387879789
 40
0.5540533594492251
 40
0.5729222172065356
 40
0.5864732304808338
 40
0.6002253426449125
 40
0.6140712128009426
 40
0.6281041778283523
 40
0.6419317869345721
 40
0.6559388555943689
 40
0.6700398031754754
 40
0.6843412164820271
 40
0.6959292805209638
 40
0.7076665995424394
 40
0.7194837846193062
 40
0.7314705283507824
 40
0.7430617583124736
 40
0.7548521327527727
 40
0.766090324096042
 40
0.7667465793102253
 40
0.7788562119422127
 40
0.80001837021028
 40
0.8216121308917558
 40
0.8435633388850632
 40
0.8546670253025807
 40
0.8658871696400386
 40
0.8785332110790778
 40
0.8913185006434422
 40
0.9041718351947283
 40
0.9171632714339951
 40
0.9316874232803477
 40
0.9463180658393989
 40
0.9613300272521973
 40
0.9765046394889834
 40
0.9960830917014916
 40
1.0
 40
1.0
 40
1.0
 40
1.0
 10
214.0979699287747
 20
111.416667593805
 30
0.0
 10
213.9760153575572
 20
111.4273975190456
 30
0.0
 10
213.6893632252406
 20
111.4526180246742
 30
0.0
 10
213.315020588393
 20
111.4215671114012
 30
0.0
 10
212.98862603936
 20
111.3662046602321
 30
0.0
 10
212.6713276176118
 20
111.2911557434538
 30
0.0
 10
212.2943386973191
 20
111.1685119746678
 30
0.0
 10
211.9383071318672
 20
111.0181711626013
 30
0.0
 10
211.6597624860239
 20
110.8838401974122
 30
0.0
 10
211.4477547999717
 20
110.7732224501758
 30
0.0
 10
211.2476120312873
 20
110.6618973081989
 30
0.0
 10
211.0531104256223
 20
110.5478755661954
 30
0.0
 10
210.8674986055061
 20
110.4339490275479
 30
0.0
 10
210.6940568099818
 20
110.3232818320708
 30
0.0
 10
210.5425765198947
 20
110.2235775668117
 30
0.0
 10
210.3985636468313
 20
110.1264153671924
 30
0.0
 10
210.2873182963526
 20
110.0496691144858
 30
0.0
 10
210.2274586889576
 20
110.0077721545646
 30
0.0
 10
210.2433491594393
 20
110.0188824556728
 30
0.0
 10
210.2369866444383
 20
110.014446561306
 30
0.0
 10
210.2771420868401
 20
110.042472588315
 30
0.0
 10
210.3412112283057
 20
110.0868875900209
 30
0.0
 10
210.4635514551646
 20
110.170751799958
 30
0.0
 10
210.6348509932514
 20
110.2848334106216
 30
0.0
 10
210.8044205458769
 20
110.3939064059968
 30
0.0
 10
210.9521863809266
 20
110.4862708071826
 30
0.0
 10
211.1148851631033
 20
110.5844978891282
 30
0.0
 10
211.3000427556845
 20
110.691670495282
 30
0.0
 10
211.5100366264093
 20
110.8067461371872
 30
0.0
 10
211.7465849224052
 20
110.9271651444556
 30
0.0
 10
212.0013994097582
 20
111.0452026018893
 30
0.0
 10
212.3183994532739
 20
111.1750220323519
 30
0.0
 10
212.7097893408234
 20
111.3052779872293
 30
0.0
 10
213.1803815814031
 20
111.4082791634305
 30
0.0
 10
213.6765209146194
 20
111.4512853455023
 30
0.0
 10
214.1509877077032
 20
111.4250858755758
 30
0.0
 10
214.5909723790182
 20
111.345058879065
 30
0.0
 10
214.9494184990665
 20
111.2422935486217
 30
0.0
 10
215.2561582432024
 20
111.1306469678993
 30
0.0
 10
215.5155776418339
 20
111.0212398596239
 30
0.0
 10
215.7632075802068
 20
110.9042187655539
 30
0.0
 10
215.9958600221149
 20
110.7839694005652
 30
0.0
 10
216.2133388041994
 20
110.6633256268068
 30
0.0
 10
216.4142960206163
 20
110.5453502412651
 30
0.0
 10
216.5991729073985
 20
110.4317105657278
 30
0.0
 10
216.7546883965562
 20
110.3324866382273
 30
0.0
 10
216.8834330308997
 20
110.2481220565522
 30
0.0
 10
216.9878808936942
 20
110.1782958730689
 30
0.0
 10
217.0761681185818
 20
110.1183108798659
 30
0.0
 10
217.1457771924223
 20
110.0704094201348
 30
0.0
 10
217.1952230549439
 20
110.0360773011004
 30
0.0
 10
217.2268741545652
 20
110.0139652052067
 30
0.0
 10
217.2280550422945
 20
110.0131330943749
 30
0.0
 10
217.2348065670697
 20
110.0084103122674
 30
0.0
 10
217.2173011548413
 20
110.0206631233087
 30
0.0
 10
217.1573416193317
 20
110.0625285045904
 30
0.0
 10
217.0165601633863
 20
110.1592878186504
 30
0.0
 10
216.8488614231729
 20
110.2713235089642
 30
0.0
 10
216.6858585934434
 20
110.3766153252626
 30
0.0
 10
216.5436246372601
 20
110.4661239582884
 30
0.0
 10
216.3803288907496
 20
110.5655424166351
 30
0.0
 10
216.1949405799561
 20
110.6736473645012
 30
0.0
 10
215.9936162921344
 20
110.7849783615812
 30
0.0
 10
215.768865915051
 20
110.9013355764311
 30
0.0
 10
215.5187786099478
 20
111.0200870115034
 30
0.0
 10
215.2400672663871
 20
111.1372704488586
 30
0.0
 10
214.9408170721422
 20
111.2451391069023
 30
0.0
 10
214.5904983701944
 20
111.3417214367848
 30
0.0
 10
214.3064448418035
 20
111.4053219668034
 30
0.0
 10
214.1277586749215
 20
111.4150464299071
 30
0.0
 10
214.0979699287747
 20
111.416667593805
 30
0.0
  0
SPLINE
  5
116
330
1F
100
AcDbEntity
  8
0
  6
HIDDEN
 62
     7
370
     0
100
AcDbSpline
210
0.0
220
0.0
230
1.0
 70
     8
 71
     3
 72
    74
 73
    70
 74
     0
 42
0.00000001
 43
0.00000001
 12
1.0
 22
0.0
 32
0.0
 13
1.0
 23
0.0
 33
0.0
 40
-0.0312500000000009
 40
-0.0312500000000009
 40
0.0
 40
0.0
 40
0.0312499999999991
 40
0.0312499999999991
 40
0.0624999999999982
 40
0.0624999999999982
 40
0.0937499999999973
 40
0.0937499999999973
 40
0.1249999999999964
 40
0.1249999999999964
 40
0.1562499999999956
 40
0.1562499999999956
 40
0.1874999999999947
 40
0.1874999999999947
 40
0.2187499999999938
 40
0.2187499999999938
 40
0.2499999999999929
 40
0.2499999999999929
 40
0.281249999999992
 40
0.281249999999992
 40
0.3124999999999911
 40
0.3124999999999911
 40
0.3437499999999902
 40
0.3437499999999902
 40
0.3749999999999893
 40
0.3749999999999893
 40
0.4062499999999885
 40
0.4062499999999885
 40
0.4374999999999876
 40
0.4374999999999876
 40
0.4687499999999867
 40
0.4687499999999867
 40
0.4843749999999867
 40
0.4843749999999867
 40
0.4999999999999867
 40
0.4999999999999867
 40
0.5312499999999876
 40
0.5312499999999876
 40
0.5624999999999885
 40
0.5624999999999885
 40
0.5937499999999893
 40
0.5937499999999893
 40
0.6249999999999902
 40
0.6249999999999902
 40
0.6562499999999911
 40
0.6562499999999911
 40
0.687499999999992
 40
0.687499999999992
 40
0.7187499999999929
 40
0.7187499999999929
 40
0.7499999999999938
 40
0.7499999999999938
 40
0.7812499999999947
 40
0.7812499999999947
 40
0.8124999999999956
 40
0.8124999999999956
 40
0.8437499999999964
 40
0.8437499999999964
 40
0.8749999999999973
 40
0.8749999999999973
 40
0.9062499999999982
 40
0.9062499999999982
 40
0.9374999999999991
 40
0.9374999999999991
 40
0.9531249999999991
 40
0.9531249999999991
 40
0.9687499999999991
 40
0.9687499999999991
 40
1.0
 40
1.0
 40
1.031249999999999
 40
1.031249999999999
 10
213.9724656623098
 20
118.5813742827817
 30
0.0
 10
213.4907151023836
 20
118.5813742827817
 30
0.0
 10
213.25667529949
 20
118.6058533754123
 30
0.0
 10
212.8002845738172
 20
118.6940282400442
 30
0.0
 10
212.577151816538
 20
118.7583206592562
 30
0.0
 10
212.1611365452934
 20
118.9066267977726
 30
0.0
 10
211.9638416359586
 20
118.9917179997336
 30
0.0
 10
211.5955124335186
 20
119.1683896923397
 30
0.0
 10
211.4258466197592
 20
119.2591664573235
 30
0.0
 10
211.1123802001784
 20
119.4371275331427
 30
0.0
 10
210.9680403303473
 20
119.5248204289124
 30
0.0
 10
210.716420347421
 20
119.6830989615333
 30
0.0
 10
210.6075772443322
 20
119.7545943147298
 30
0.0
 10
210.4261310207627
 20
119.8759982517253
 30
0.0
 10
210.3539267963924
 20
119.92567838097
 30
0.0
 10
210.2576636652309
 20
119.9923224966384
 30
0.0
 10
210.2321856983846
 20
120.0102433479153
 30
0.0
 10
210.2310160555189
 20
120.0110620966693
 30
0.0
 10
210.2546263105688
 20
119.9944457218249
 30
0.0
 10
210.349065161793
 20
119.9290253609049
 30
0.0
 10
210.4196503311321
 20
119.8804130122414
 30
0.0
 10
210.5994184980289
 20
119.7599808139484
 30
0.0
 10
210.710367180102
 20
119.6870029912764
 30
0.0
 10
210.9627271669176
 20
119.5280704991972
 30
0.0
 10
211.1044435590787
 20
119.4418117801089
 30
0.0
 10
211.4195853813525
 20
119.262550493347
 30
0.0
 10
211.5899922537698
 20
119.1712895818871
 30
0.0
 10
211.9550242417063
 20
118.9957049434557
 30
0.0
 10
212.151575723728
 20
118.910439639232
 30
0.0
 10
212.570097334727
 20
118.7604467929037
 30
0.0
 10
212.7884294143306
 20
118.6969597180984
 30
0.0
 10
213.133016311651
 20
118.6294449532264
 30
0.0
 10
213.2514892340805
 20
118.6115953411197
 30
0.0
 10
213.487318570124
 20
118.5877966948083
 30
0.0
 10
213.6054039023185
 20
118.5816456890171
 30
0.0
 10
213.960175876286
 20
118.5808578815929
 30
0.0
 10
214.2009719879715
 20
118.6050249139158
 30
0.0
 10
214.6605829076238
 20
118.6933447770088
 30
0.0
 10
214.8823438149108
 20
118.7571110969905
 30
0.0
 10
215.3014001126427
 20
118.906294090794
 30
0.0
 10
215.4963718372442
 20
118.990427538023
 30
0.0
 10
215.8630611275441
 20
119.1660497091425
 30
0.0
 10
216.03603922849
 20
119.258458088294
 30
0.0
 10
216.3499191472449
 20
119.4366005395832
 30
0.0
 10
216.4917679672206
 20
119.5227387756056
 30
0.0
 10
216.7454136059833
 20
119.6822127421204
 30
0.0
 10
216.8572167011892
 20
119.7556583160667
 30
0.0
 10
217.0384120898699
 20
119.8769254013523
 30
0.0
 10
217.1097174728131
 20
119.9259955013008
 30
0.0
 10
217.2065451012189
 20
119.9930380224311
 30
0.0
 10
217.2310330214504
 20
120.0102699164077
 30
0.0
 10
217.2321291226154
 20
120.0110371861823
 30
0.0
 10
217.2077203122408
 20
119.9938636913121
 30
0.0
 10
217.1132428806663
 20
119.9284250767423
 30
0.0
 10
217.0425311086412
 20
119.8797248717419
 30
0.0
 10
216.8611358877065
 20
119.7582403611595
 30
0.0
 10
216.751776619626
 20
119.6863194688025
 30
0.0
 10
216.497810522204
 20
119.5264368324615
 30
0.0
 10
216.3541063438944
 20
119.4390902681125
 30
0.0
 10
216.0409856696458
 20
119.2611554110764
 30
0.0
 10
215.8692811133572
 20
119.1692111255041
 30
0.0
 10
215.5004597958593
 20
118.9922080381117
 30
0.0
 10
215.3057808855924
 20
118.9081894969577
 30
0.0
 10
214.9954041483573
 20
118.7972007340035
 30
0.0
 10
214.8888542317846
 20
118.762738335404
 30
0.0
 10
214.6685929392811
 20
118.7007556628522
 30
0.0
 10
214.5542162778911
 20
118.6731685150001
 30
0.0
 10
214.208946853099
 20
118.6060582698957
 30
0.0
 10
213.9724656623098
 20
118.5813742827817
 30
0.0
 10
213.4907151023836
 20
118.5813742827817
 30
0.0
  0
SPLINE
  5
117
330
1F
100
AcDbEntity
  8
0
  6
HIDDEN
 62
     7
370
     0
100
AcDbSpline
210
0.0
220
0.0
230
1.0
 70
    11
 71
     3
 72
    75
 73
    71
 74
     0
 42
0.00000001
 43
0.00000001
 12
1.0
 22
0.0
 32
0.0
 13
1.0
 23
0.0
 33
0.0
 40
0.0
 40
0.0
 40
0.0
 40
0.0
 40
0.0160888749364108
 40
0.0378166251666779
 40
0.0488990600674366
 40
0.0601805331915619
 40
0.0818240306260599
 40
0.1038137236880395
 40
0.116481205954803
 40
0.1292824240476743
 40
0.1421501983570656
 40
0.1551554687223083
 40
0.1697978986187596
 40
0.1845569618503897
 40
0.1997248063947782
 40
0.2150553178182204
 40
0.2366607936475776
 40
0.2587213483927452
 40
0.2660762477964065
 40
0.2803446218545945
 40
0.2913298065709178
 40
0.3024811633266042
 40
0.3236695629651584
 40
0.3452326586464329
 40
0.3569794182154218
 40
0.3688529496272132
 40
0.380787473456608
 40
0.392843260940868
 40
0.4066570201658702
 40
0.4206447884916307
 40
0.4347219860114871
 40
0.4489905047781861
 40
0.4703219433278528
 40
0.4920513906248405
 40
0.5134613138353381
 40
0.5354996387879777
 40
0.5540533594492238
 40
0.5729222172065345
 40
0.5864732304808327
 40
0.600225342644912
 40
0.6140712128009415
 40
0.628104177828351
 40
0.6419317869345713
 40
0.6559388555943682
 40
0.6700398031754747
 40
0.6843412164820262
 40
0.6959292805209629
 40
0.707666599542438
 40
0.7194837846193051
 40
0.7314705283507813
 40
0.7430617583124722
 40
0.7548521327527713
 40
0.7660903240960405
 40
0.7667465793102237
 40
0.778856211942211
 40
0.8000183702102782
 40
0.8216121308917539
 40
0.8435633388850613
 40
0.854667025302579
 40
0.8658871696400368
 40
0.8785332110790759
 40
0.8913185006434409
 40
0.904171835194727
 40
0.9171632714339936
 40
0.9316874232803464
 40
0.9463180658393977
 40
0.9613300272521959
 40
0.9765046394889813
 40
0.9960830917014898
 40
1.0
 40
1.0
 40
1.0
 40
1.0
 10
234.0979699287747
 20
111.416667593805
 30
0.0
 10
233.9760153575572
 20
111.4273975190456
 30
0.0
 10
233.6893632252406
 20
111.4526180246742
 30
0.0
 10
233.3150205883931
 20
111.4215671114012
 30
0.0
 10
232.9886260393599
 20
111.3662046602321
 30
0.0
 10
232.6713276176118
 20
111.2911557434538
 30
0.0
 10
232.2943386973191
 20
111.1685119746678
 30
0.0
 10
231.9383071318672
 20
111.0181711626013
 30
0.0
 10
231.6597624860239
 20
110.8838401974122
 30
0.0
 10
231.4477547999716
 20
110.7732224501758
 30
0.0
 10
231.2476120312873
 20
110.6618973081989
 30
0.0
 10
231.0531104256223
 20
110.5478755661954
 30
0.0
 10
230.8674986055061
 20
110.4339490275479
 30
0.0
 10
230.6940568099818
 20
110.3232818320708
 30
0.0
 10
230.5425765198947
 20
110.2235775668116
 30
0.0
 10
230.3985636468313
 20
110.1264153671924
 30
0.0
 10
230.2873182963526
 20
110.0496691144858
 30
0.0
 10
230.2274586889575
 20
110.0077721545646
 30
0.0
 10
230.2433491594393
 20
110.0188824556728
 30
0.0
 10
230.2369866444383
 20
110.014446561306
 30
0.0
 10
230.2771420868401
 20
110.042472588315
 30
0.0
 10
230.3412112283057
 20
110.0868875900209
 30
0.0
 10
230.4635514551645
 20
110.170751799958
 30
0.0
 10
230.6348509932514
 20
110.2848334106216
 30
0.0
 10
230.8044205458769
 20
110.3939064059968
 30
0.0
 10
230.9521863809267
 20
110.4862708071826
 30
0.0
 10
231.1148851631033
 20
110.5844978891282
 30
0.0
 10
231.3000427556845
 20
110.691670495282
 30
0.0
 10
231.5100366264093
 20
110.8067461371872
 30
0.0
 10
231.7465849224052
 20
110.9271651444556
 30
0.0
 10
232.0013994097582
 20
111.0452026018893
 30
0.0
 10
232.3183994532739
 20
111.1750220323519
 30
0.0
 10
232.7097893408234
 20
111.3052779872293
 30
0.0
 10
233.1803815814031
 20
111.4082791634305
 30
0.0
 10
233.6765209146193
 20
111.4512853455023
 30
0.0
 10
234.1509877077031
 20
111.4250858755758
 30
0.0
 10
234.5909723790182
 20
111.345058879065
 30
0.0
 10
234.9494184990665
 20
111.2422935486217
 30
0.0
 10
235.2561582432025
 20
111.1306469678993
 30
0.0
 10
235.5155776418339
 20
111.0212398596239
 30
0.0
 10
235.7632075802067
 20
110.904218765554
 30
0.0
 10
235.9958600221149
 20
110.7839694005652
 30
0.0
 10
236.2133388041994
 20
110.6633256268068
 30
0.0
 10
236.4142960206163
 20
110.5453502412651
 30
0.0
 10
236.5991729073985
 20
110.4317105657278
 30
0.0
 10
236.7546883965562
 20
110.3324866382273
 30
0.0
 10
236.8834330308997
 20
110.2481220565522
 30
0.0
 10
236.9878808936942
 20
110.1782958730689
 30
0.0
 10
237.0761681185818
 20
110.1183108798659
 30
0.0
 10
237.1457771924223
 20
110.0704094201348
 30
0.0
 10
237.1952230549439
 20
110.0360773011004
 30
0.0
 10
237.2268741545652
 20
110.0139652052067
 30
0.0
 10
237.2280550422946
 20
110.0131330943749
 30
0.0
 10
237.2348065670696
 20
110.0084103122674
 30
0.0
 10
237.2173011548412
 20
110.0206631233087
 30
0.0
 10
237.1573416193317
 20
110.0625285045904
 30
0.0
 10
237.0165601633863
 20
110.1592878186504
 30
0.0
 10
236.8488614231729
 20
110.2713235089642
 30
0.0
 10
236.6858585934434
 20
110.3766153252626
 30
0.0
 10
236.54362463726
 20
110.4661239582884
 30
0.0
 10
236.3803288907497
 20
110.5655424166351
 30
0.0
 10
236.1949405799561
 20
110.6736473645012
 30
0.0
 10
235.9936162921344
 20
110.7849783615812
 30
0.0
 10
235.768865915051
 20
110.9013355764311
 30
0.0
 10
235.5187786099478
 20
111.0200870115034
 30
0.0
 10
235.2400672663871
 20
111.1372704488586
 30
0.0
 10
234.9408170721422
 20
111.2451391069023
 30
0.0
 10
234.5904983701944
 20
111.3417214367848
 30
0.0
 10
234.3064448418035
 20
111.4053219668034
 30
0.0
 10
234.1277586749214
 20
111.4150464299071
 30
0.0
 10
234.0979699287747
 20
111.416667593805
 30
0.0
  0
SPLINE
  5
118
330
1F
100
AcDbEntity
  8
0
  6
HIDDEN
 62
     7
370
     0
100
AcDbSpline
210
0.0
220
0.0
230
1.0
 70
     8
 71
     3
 72
    74
 73
    70
 74
     0
 42
0.00000001
 43
0.00000001
 12
1.0
 22
0.0
 32
0.0
 13
1.0
 23
0.0
 33
0.0
 40
-0.0312499999999999
 40
-0.0312499999999999
 40
0.0
 40
0.0
 40
0.0312500000000009
 40
0.0312500000000009
 40
0.0625000000000018
 40
0.0625000000000018
 40
0.0937500000000027
 40
0.0937500000000027
 40
0.1250000000000036
 40
0.1250000000000036
 40
0.1562500000000044
 40
0.1562500000000044
 40
0.1875000000000053
 40
0.1875000000000053
 40
0.2187500000000062
 40
0.2187500000000062
 40
0.2500000000000071
 40
0.2500000000000071
 40
0.281250000000008
 40
0.281250000000008
 40
0.3125000000000089
 40
0.3125000000000089
 40
0.3437500000000098
 40
0.3437500000000098
 40
0.3750000000000107
 40
0.3750000000000107
 40
0.4062500000000116
 40
0.4062500000000116
 40
0.4375000000000125
 40
0.4375000000000125
 40
0.4687500000000134
 40
0.4687500000000134
 40
0.4843750000000134
 40
0.4843750000000134
 40
0.5000000000000133
 40
0.5000000000000133
 40
0.5312500000000124
 40
0.5312500000000124
 40
0.5625000000000115
 40
0.5625000000000115
 40
0.5937500000000107
 40
0.5937500000000107
 40
0.6250000000000098
 40
0.6250000000000098
 40
0.6562500000000089
 40
0.6562500000000089
 40
0.687500000000008
 40
0.687500000000008
 40
0.7187500000000071
 40
0.7187500000000071
 40
0.7500000000000062
 40
0.7500000000000062
 40
0.7812500000000054
 40
0.7812500000000054
 40
0.8125000000000046
 40
0.8125000000000046
 40
0.8437500000000037
 40
0.8437500000000037
 40
0.8750000000000028
 40
0.8750000000000028
 40
0.9062500000000019
 40
0.9062500000000019
 40
0.937500000000001
 40
0.937500000000001
 40
0.9531250000000006
 40
0.9531250000000006
 40
0.9687500000000001
 40
0.9687500000000001
 40
1.0
 40
1.0
 40
1.031250000000001
 40
1.031250000000001
 10
233.9724656623098
 20
118.5813742827817
 30
0.0
 10
233.4907151023836
 20
118.5813742827817
 30
0.0
 10
233.2566752994901
 20
118.6058533754123
 30
0.0
 10
232.8002845738172
 20
118.6940282400442
 30
0.0
 10
232.5771518165379
 20
118.7583206592562
 30
0.0
 10
232.1611365452934
 20
118.9066267977726
 30
0.0
 10
231.9638416359586
 20
118.9917179997336
 30
0.0
 10
231.5955124335186
 20
119.1683896923397
 30
0.0
 10
231.4258466197592
 20
119.2591664573235
 30
0.0
 10
231.1123802001784
 20
119.4371275331427
 30
0.0
 10
230.9680403303473
 20
119.5248204289124
 30
0.0
 10
230.716420347421
 20
119.6830989615333
 30
0.0
 10
230.6075772443322
 20
119.7545943147298
 30
0.0
 10
230.4261310207627
 20
119.8759982517253
 30
0.0
 10
230.3539267963924
 20
119.92567838097
 30
0.0
 10
230.2576636652309
 20
119.9923224966384
 30
0.0
 10
230.2321856983846
 20
120.0102433479153
 30
0.0
 10
230.2310160555189
 20
120.0110620966693
 30
0.0
 10
230.2546263105689
 20
119.9944457218249
 30
0.0
 10
230.349065161793
 20
119.9290253609049
 30
0.0
 10
230.4196503311321
 20
119.8804130122414
 30
0.0
 10
230.5994184980289
 20
119.7599808139484
 30
0.0
 10
230.7103671801021
 20
119.6870029912764
 30
0.0
 10
230.9627271669176
 20
119.5280704991972
 30
0.0
 10
231.1044435590787
 20
119.4418117801089
 30
0.0
 10
231.4195853813525
 20
119.262550493347
 30
0.0
 10
231.5899922537698
 20
119.1712895818871
 30
0.0
 10
231.9550242417063
 20
118.9957049434557
 30
0.0
 10
232.1515757237281
 20
118.910439639232
 30
0.0
 10
232.570097334727
 20
118.7604467929037
 30
0.0
 10
232.7884294143306
 20
118.6969597180984
 30
0.0
 10
233.1330163116509
 20
118.6294449532264
 30
0.0
 10
233.2514892340805
 20
118.6115953411197
 30
0.0
 10
233.487318570124
 20
118.5877966948083
 30
0.0
 10
233.6054039023185
 20
118.5816456890171
 30
0.0
 10
233.9601758762859
 20
118.5808578815929
 30
0.0
 10
234.2009719879715
 20
118.6050249139158
 30
0.0
 10
234.6605829076238
 20
118.6933447770088
 30
0.0
 10
234.8823438149107
 20
118.7571110969905
 30
0.0
 10
235.3014001126427
 20
118.906294090794
 30
0.0
 10
235.4963718372441
 20
118.990427538023
 30
0.0
 10
235.8630611275441
 20
119.1660497091425
 30
0.0
 10
236.0360392284899
 20
119.258458088294
 30
0.0
 10
236.3499191472449
 20
119.4366005395832
 30
0.0
 10
236.4917679672206
 20
119.5227387756056
 30
0.0
 10
236.7454136059833
 20
119.6822127421204
 30
0.0
 10
236.8572167011891
 20
119.7556583160667
 30
0.0
 10
237.0384120898699
 20
119.8769254013523
 30
0.0
 10
237.1097174728131
 20
119.9259955013008
 30
0.0
 10
237.2065451012189
 20
119.9930380224311
 30
0.0
 10
237.2310330214504
 20
120.0102699164077
 30
0.0
 10
237.2321291226154
 20
120.0110371861823
 30
0.0
 10
237.2077203122408
 20
119.9938636913121
 30
0.0
 10
237.1132428806663
 20
119.9284250767423
 30
0.0
 10
237.0425311086412
 20
119.8797248717419
 30
0.0
 10
236.8611358877065
 20
119.7582403611595
 30
0.0
 10
236.751776619626
 20
119.6863194688025
 30
0.0
 10
236.497810522204
 20
119.5264368324615
 30
0.0
 10
236.3541063438944
 20
119.4390902681125
 30
0.0
 10
236.0409856696458
 20
119.2611554110764
 30
0.0
 10
235.8692811133573
 20
119.1692111255041
 30
0.0
 10
235.5004597958593
 20
118.9922080381116
 30
0.0
 10
235.3057808855924
 20
118.9081894969577
 30
0.0
 10
234.9954041483572
 20
118.7972007340035
 30
0.0
 10
234.8888542317845
 20
118.762738335404
 30
0.0
 10
234.668592939281
 20
118.7007556628522
 30
0.0
 10
234.554216277891
 20
118.6731685150001
 30
0.0
 10
234.208946853099
 20
118.6060582698957
 30
0.0
 10
233.9724656623098
 20
118.5813742827817
 30
0.0
 10
233.4907151023836
 20
118.5813742827817
 30
0.0
  0
SPLINE
  5
119
330
1F
100
AcDbEntity
  8
0
  6
HIDDEN
 62
     7
370
     0
100
AcDbSpline
210
0.0
220
0.0
230
1.0
 70
    11
 71
     3
 72
    75
 73
    71
 74
     0
 42
0.00000001
 43
0.00000001
 12
1.0
 22
0.0
 32
0.0
 13
1.0
 23
0.0
 33
0.0
 40
0.0
 40
0.0
 40
0.0
 40
0.0
 40
0.0160888749364154
 40
0.0378166251666828
 40
0.0488990600674412
 40
0.0601805331915665
 40
0.0818240306260645
 40
0.1038137236880437
 40
0.1164812059548072
 40
0.1292824240476785
 40
0.1421501983570698
 40
0.1551554687223129
 40
0.1697978986187642
 40
0.1845569618503943
 40
0.1997248063947827
 40
0.2150553178182248
 40
0.236660793647582
 40
0.2587213483927496
 40
0.266076247796411
 40
0.2803446218545989
 40
0.2913298065709223
 40
0.3024811633266086
 40
0.3236695629651628
 40
0.3452326586464374
 40
0.3569794182154262
 40
0.3688529496272177
 40
0.3807874734566121
 40
0.3928432609408722
 40
0.4066570201658742
 40
0.4206447884916347
 40
0.4347219860114915
 40
0.4489905047781905
 40
0.4703219433278576
 40
0.4920513906248453
 40
0.5134613138353429
 40
0.5354996387879826
 40
0.5540533594492286
 40
0.5729222172065388
 40
0.5864732304808373
 40
0.600225342644916
 40
0.6140712128009462
 40
0.628104177828356
 40
0.6419317869345758
 40
0.6559388555943728
 40
0.6700398031754793
 40
0.6843412164820311
 40
0.6959292805209678
 40
0.7076665995424435
 40
0.7194837846193103
 40
0.7314705283507864
 40
0.7430617583124776
 40
0.7548521327527767
 40
0.7660903240960455
 40
0.7667465793102294
 40
0.7788562119422168
 40
0.800018370210284
 40
0.8216121308917597
 40
0.8435633388850671
 40
0.8546670253025845
 40
0.8658871696400425
 40
0.8785332110790817
 40
0.8913185006434461
 40
0.9041718351947327
 40
0.9171632714339991
 40
0.9316874232803518
 40
0.9463180658394033
 40
0.9613300272522015
 40
0.9765046394889871
 40
0.9960830917014952
 40
0.9999999999999999
 40
0.9999999999999999
 40
0.9999999999999999
 40
0.9999999999999999
 10
224.0979699287748
 20
111.416667593805
 30
0.0
 10
223.9760153575572
 20
111.4273975190456
 30
0.0
 10
223.6893632252407
 20
111.4526180246742
 30
0.0
 10
223.315020588393
 20
111.4215671114012
 30
0.0
 10
222.9886260393599
 20
111.3662046602321
 30
0.0
 10
222.6713276176118
 20
111.2911557434538
 30
0.0
 10
222.2943386973191
 20
111.1685119746678
 30
0.0
 10
221.9383071318672
 20
111.0181711626013
 30
0.0
 10
221.659762486024
 20
110.8838401974122
 30
0.0
 10
221.4477547999717
 20
110.7732224501758
 30
0.0
 10
221.2476120312873
 20
110.6618973081989
 30
0.0
 10
221.0531104256223
 20
110.5478755661954
 30
0.0
 10
220.8674986055061
 20
110.4339490275479
 30
0.0
 10
220.6940568099818
 20
110.3232818320708
 30
0.0
 10
220.5425765198947
 20
110.2235775668116
 30
0.0
 10
220.3985636468313
 20
110.1264153671924
 30
0.0
 10
220.2873182963526
 20
110.0496691144858
 30
0.0
 10
220.2274586889576
 20
110.0077721545646
 30
0.0
 10
220.2433491594393
 20
110.0188824556728
 30
0.0
 10
220.2369866444383
 20
110.014446561306
 30
0.0
 10
220.2771420868401
 20
110.042472588315
 30
0.0
 10
220.3412112283057
 20
110.0868875900209
 30
0.0
 10
220.4635514551646
 20
110.170751799958
 30
0.0
 10
220.6348509932514
 20
110.2848334106216
 30
0.0
 10
220.8044205458769
 20
110.3939064059968
 30
0.0
 10
220.9521863809266
 20
110.4862708071826
 30
0.0
 10
221.1148851631033
 20
110.5844978891282
 30
0.0
 10
221.3000427556845
 20
110.691670495282
 30
0.0
 10
221.5100366264093
 20
110.8067461371872
 30
0.0
 10
221.7465849224052
 20
110.9271651444556
 30
0.0
 10
222.0013994097581
 20
111.0452026018893
 30
0.0
 10
222.3183994532738
 20
111.1750220323519
 30
0.0
 10
222.7097893408234
 20
111.3052779872293
 30
0.0
 10
223.1803815814031
 20
111.4082791634305
 30
0.0
 10
223.6765209146193
 20
111.4512853455023
 30
0.0
 10
224.1509877077032
 20
111.4250858755758
 30
0.0
 10
224.5909723790182
 20
111.345058879065
 30
0.0
 10
224.9494184990665
 20
111.2422935486217
 30
0.0
 10
225.2561582432024
 20
111.1306469678993
 30
0.0
 10
225.5155776418339
 20
111.0212398596239
 30
0.0
 10
225.7632075802068
 20
110.9042187655539
 30
0.0
 10
225.9958600221149
 20
110.7839694005652
 30
0.0
 10
226.2133388041994
 20
110.6633256268068
 30
0.0
 10
226.4142960206162
 20
110.5453502412651
 30
0.0
 10
226.5991729073985
 20
110.4317105657278
 30
0.0
 10
226.7546883965561
 20
110.3324866382273
 30
0.0
 10
226.8834330308997
 20
110.2481220565522
 30
0.0
 10
226.9878808936942
 20
110.1782958730689
 30
0.0
 10
227.0761681185818
 20
110.1183108798659
 30
0.0
 10
227.1457771924223
 20
110.0704094201348
 30
0.0
 10
227.1952230549439
 20
110.0360773011004
 30
0.0
 10
227.2268741545652
 20
110.0139652052067
 30
0.0
 10
227.2280550422946
 20
110.0131330943749
 30
0.0
 10
227.2348065670696
 20
110.0084103122674
 30
0.0
 10
227.2173011548413
 20
110.0206631233087
 30
0.0
 10
227.1573416193317
 20
110.0625285045904
 30
0.0
 10
227.0165601633863
 20
110.1592878186504
 30
0.0
 10
226.8488614231729
 20
110.2713235089642
 30
0.0
 10
226.6858585934433
 20
110.3766153252626
 30
0.0
 10
226.54362463726
 20
110.4661239582884
 30
0.0
 10
226.3803288907497
 20
110.5655424166351
 30
0.0
 10
226.1949405799561
 20
110.6736473645012
 30
0.0
 10
225.9936162921344
 20
110.7849783615812
 30
0.0
 10
225.768865915051
 20
110.9013355764311
 30
0.0
 10
225.5187786099478
 20
111.0200870115034
 30
0.0
 10
225.240067266387
 20
111.1372704488586
 30
0.0
 10
224.9408170721422
 20
111.2451391069023
 30
0.0
 10
224.5904983701944
 20
111.3417214367848
 30
0.0
 10
224.3064448418035
 20
111.4053219668034
 30
0.0
 10
224.1277586749215
 20
111.4150464299071
 30
0.0
 10
224.0979699287748
 20
111.416667593805
 30
0.0
  0
SPLINE
  5
11A
330
1F
100
AcDbEntity
  8
0
  6
HIDDEN
 62
     7
370
     0
100
AcDbSpline
210
0.0
220
0.0
230
1.0
 70
     8
 71
     3
 72
    74
 73
    70
 74
     0
 42
0.00000001
 43
0.00000001
 12
1.0
 22
0.0
 32
0.0
 13
1.0
 23
0.0
 33
0.0
 40
-0.0312499999999999
 40
-0.0312499999999999
 40
0.0
 40
0.0
 40
0.03125
 40
0.03125
 40
0.0625
 40
0.0625
 40
0.09375
 40
0.09375
 40
0.125
 40
0.125
 40
0.15625
 40
0.15625
 40
0.1875
 40
0.1875
 40
0.21875
 40
0.21875
 40
0.25
 40
0.25
 40
0.2812499999999999
 40
0.2812499999999999
 40
0.3124999999999999
 40
0.3124999999999999
 40
0.3437499999999999
 40
0.3437499999999999
 40
0.3749999999999999
 40
0.3749999999999999
 40
0.40625
 40
0.40625
 40
0.4375
 40
0.4375
 40
0.46875
 40
0.46875
 40
0.4843749999999996
 40
0.4843749999999996
 40
0.4999999999999991
 40
0.4999999999999991
 40
0.5312499999999991
 40
0.5312499999999991
 40
0.5624999999999991
 40
0.5624999999999991
 40
0.5937499999999991
 40
0.5937499999999991
 40
0.6249999999999991
 40
0.6249999999999991
 40
0.6562499999999991
 40
0.6562499999999991
 40
0.6874999999999991
 40
0.6874999999999991
 40
0.7187499999999991
 40
0.7187499999999991
 40
0.7499999999999991
 40
0.7499999999999991
 40
0.7812499999999992
 40
0.7812499999999992
 40
0.8124999999999992
 40
0.8124999999999992
 40
0.8437499999999992
 40
0.8437499999999992
 40
0.8749999999999992
 40
0.8749999999999992
 40
0.9062499999999992
 40
0.9062499999999992
 40
0.9374999999999992
 40
0.9374999999999992
 40
0.9531249999999997
 40
0.9531249999999997
 40
0.9687500000000001
 40
0.9687500000000001
 40
1.0
 40
1.0
 40
1.03125
 40
1.03125
 10
223.9724656623098
 20
118.5813742827817
 30
0.0
 10
223.4907151023836
 20
118.5813742827817
 30
0.0
 10
223.2566752994901
 20
118.6058533754123
 30
0.0
 10
222.8002845738172
 20
118.6940282400442
 30
0.0
 10
222.577151816538
 20
118.7583206592562
 30
0.0
 10
222.1611365452934
 20
118.9066267977726
 30
0.0
 10
221.9638416359586
 20
118.9917179997336
 30
0.0
 10
221.5955124335186
 20
119.1683896923397
 30
0.0
 10
221.4258466197592
 20
119.2591664573235
 30
0.0
 10
221.1123802001784
 20
119.4371275331427
 30
0.0
 10
220.9680403303473
 20
119.5248204289124
 30
0.0
 10
220.716420347421
 20
119.6830989615333
 30
0.0
 10
220.6075772443322
 20
119.7545943147298
 30
0.0
 10
220.4261310207627
 20
119.8759982517253
 30
0.0
 10
220.3539267963924
 20
119.92567838097
 30
0.0
 10
220.2576636652309
 20
119.9923224966384
 30
0.0
 10
220.2321856983846
 20
120.0102433479153
 30
0.0
 10
220.2310160555189
 20
120.0110620966693
 30
0.0
 10
220.2546263105688
 20
119.9944457218249
 30
0.0
 10
220.349065161793
 20
119.9290253609049
 30
0.0
 10
220.4196503311321
 20
119.8804130122414
 30
0.0
 10
220.5994184980289
 20
119.7599808139484
 30
0.0
 10
220.710367180102
 20
119.6870029912764
 30
0.0
 10
220.9627271669176
 20
119.5280704991972
 30
0.0
 10
221.1044435590787
 20
119.4418117801089
 30
0.0
 10
221.4195853813525
 20
119.262550493347
 30
0.0
 10
221.5899922537699
 20
119.1712895818871
 30
0.0
 10
221.9550242417063
 20
118.9957049434557
 30
0.0
 10
222.151575723728
 20
118.910439639232
 30
0.0
 10
222.570097334727
 20
118.7604467929037
 30
0.0
 10
222.7884294143306
 20
118.6969597180984
 30
0.0
 10
223.133016311651
 20
118.6294449532264
 30
0.0
 10
223.2514892340805
 20
118.6115953411197
 30
0.0
 10
223.487318570124
 20
118.5877966948083
 30
0.0
 10
223.6054039023185
 20
118.5816456890171
 30
0.0
 10
223.9601758762859
 20
118.5808578815929
 30
0.0
 10
224.2009719879715
 20
118.6050249139158
 30
0.0
 10
224.6605829076239
 20
118.6933447770088
 30
0.0
 10
224.8823438149108
 20
118.7571110969905
 30
0.0
 10
225.3014001126427
 20
118.906294090794
 30
0.0
 10
225.4963718372442
 20
118.990427538023
 30
0.0
 10
225.8630611275441
 20
119.1660497091425
 30
0.0
 10
226.03603922849
 20
119.258458088294
 30
0.0
 10
226.3499191472449
 20
119.4366005395832
 30
0.0
 10
226.4917679672206
 20
119.5227387756056
 30
0.0
 10
226.7454136059833
 20
119.6822127421204
 30
0.0
 10
226.8572167011892
 20
119.7556583160668
 30
0.0
 10
227.0384120898699
 20
119.8769254013523
 30
0.0
 10
227.109717472813
 20
119.9259955013008
 30
0.0
 10
227.2065451012189
 20
119.9930380224311
 30
0.0
 10
227.2310330214504
 20
120.0102699164077
 30
0.0
 10
227.2321291226154
 20
120.0110371861823
 30
0.0
 10
227.2077203122408
 20
119.9938636913121
 30
0.0
 10
227.1132428806663
 20
119.9284250767423
 30
0.0
 10
227.0425311086412
 20
119.8797248717419
 30
0.0
 10
226.8611358877065
 20
119.7582403611595
 30
0.0
 10
226.751776619626
 20
119.6863194688025
 30
0.0
 10
226.497810522204
 20
119.5264368324615
 30
0.0
 10
226.3541063438944
 20
119.4390902681125
 30
0.0
 10
226.0409856696459
 20
119.2611554110764
 30
0.0
 10
225.8692811133573
 20
119.1692111255041
 30
0.0
 10
225.5004597958593
 20
118.9922080381117
 30
0.0
 10
225.3057808855925
 20
118.9081894969577
 30
0.0
 10
224.9954041483572
 20
118.7972007340035
 30
0.0
 10
224.8888542317845
 20
118.762738335404
 30
0.0
 10
224.6685929392811
 20
118.7007556628522
 30
0.0
 10
224.554216277891
 20
118.6731685150001
 30
0.0
 10
224.208946853099
 20
118.6060582698957
 30
0.0
 10
223.9724656623098
 20
118.5813742827817
 30
0.0
 10
223.4907151023836
 20
118.5813742827817
 30
0.0
  0
LINE
  5
11B
330
1F
100
AcDbEntity
  8
0
  6
HIDDEN
 62
     7
370
     0
100
AcDbLine
 10
141.7315903823
 20
130.9512349876
 30
0.0
 11
141.7315903823
 21
132.1239859067
 31
0.0
  0
LINE
  5
11C
330
1F
100
AcDbEntity
  8
0
  6
HIDDEN
 62
     7
370
     0
100
AcDbLine
 10
220.2315903823
 20
99.0106600685
 30
0.0
 11
227.2315903823
 21
99.0106600685
 31
0.0
  0
LINE
  5
11D
330
1F
100
AcDbEntity
  8
0
  6
HIDDEN
 62
     7
370
     0
100
AcDbLine
 10
210.2315903823
 20
99.0106600685
 30
0.0
 11
217.2315903823
 21
99.0106600685
 31
0.0
  0
LINE
  5
11E
330
1F
100
AcDbEntity
  8
0
  6
HIDDEN
 62
     7
370
     0
100
AcDbLine
 10
230.2315903823
 20
99.0106600685
 30
0.0
 11
237.2315903823
 21
99.0106600685
 31
0.0
  0
LINE
  5
11F
330
1F
100
AcDbEntity
  8
0
  6
HIDDEN
 62
     7
370
     0
100
AcDbLine
 10
220.2315903823
 20
131.0106600685
 30
0.0
 11
227.2315903823
 21
131.0106600685
 31
0.0
  0
LINE
  5
120
330
1F
100
AcDbEntity
  8
0
  6
HIDDEN
 62
     7
370
     0
100
AcDbLine
 10
210.2315903823
 20
131.0106600685
 30
0.0
 11
217.2315903823
 21
131.0106600685
 31
0.0
  0
LINE
  5
121
330
1F
100
AcDbEntity
  8
0
  6
HIDDEN
 62
     7
370
     0
100
AcDbLine
 10
230.2315903823
 20
131.0106600685
 30
0.0
 11
237.2315903823
 21
131.0106600685
 31
0.0
  0
LINE
  5
122
330
1F
100
AcDbEntity
  8
0
  6
HIDDEN
 62
     7
370
     0
100
AcDbLine
 10
154.6815903823
 20
99.2203423479
 30
0.0
 11
160.7815903823
 21
99.2203423479
 31
0.0
  0
LINE
  5
123
330
1F
100
AcDbEntity
  8
0
  6
HIDDEN
 62
     7
370
     0
100
AcDbLine
 10
147.2315903823
 20
99.3857963101
 30
0.0
 11
147.2315903823
 21
101.0106600685
 31
0.0
  0
SPLINE
  5
124
330
1F
100
AcDbEntity
  8
0
  6
HIDDEN
 62
     7
370
     0
100
AcDbSpline
210
0.0
220
0.0
230
1.0
 70
     8
 71
     3
 72
     8
 73
     4
 74
     0
 42
0.00000001
 43
0.00000001
 12
1.0
 22
0.0
 32
0.0
 13
1.0
 23
0.0
 33
0.0
 40
0.0
 40
0.0
 40
0.0
 40
0.0
 40
1.0
 40
1.0
 40
1.0
 40
1.0
 10
143.2315903823467
 20
99.47786331009982
 30
0.0
 10
142.710538139886
 20
99.75289343675655
 30
0.0
 10
142.2058017927844
 20
100.0140802109069
 30
0.0
 10
141.7315903823467
 20
100.2553910848658
 30
0.0
  0
LINE
  5
125
330
1F
100
AcDbEntity
  8
0
  6
HIDDEN
 62
     7
370
     0
100
AcDbLine
 10
141.7315903823
 20
100.2553910849
 30
0.0
 11
141.7315903823
 21
101.0106600685
 31
0.0
  0
LINE
  5
126
330
1F
100
AcDbEntity
  8
0
  6
HIDDEN
 62
     7
370
     0
100
AcDbLine
 10
154.6815903823
 20
129.0106600685
 30
0.0
 11
160.7815903823
 21
129.0106600685
 31
0.0
  0
LINE
  5
127
330
1F
100
AcDbEntity
  8
0
  6
HIDDEN
 62
     7
370
     0
100
AcDbLine
 10
181.7315903823
 20
90.5106600685
 30
0.0
 11
185.7315903823
 21
90.5106600685
 31
0.0
  0
LINE
  5
128
330
1F
100
AcDbEntity
  8
0
  6
HIDDEN
 62
     7
370
     0
100
AcDbLine
 10
141.7315903823
 20
103.2499820539
 30
0.0
 11
141.7315903823
 21
100.2553910849
 31
0.0
  0
LINE
  5
129
330
1F
100
AcDbEntity
  8
0
  6
HIDDEN
 62
     7
370
     0
100
AcDbLine
 10
141.7315903823
 20
130.9512349876
 30
0.0
 11
141.7315903823
 21
110.830763164
 31
0.0
  0
LINE
  5
12A
330
1F
100
AcDbEntity
  8
0
  6
HIDDEN
 62
     7
370
     0
100
AcDbLine
 10
143.2315903823
 20
131.7012349876
 30
0.0
 11
143.2315903823
 21
110.830763164
 31
0.0
  0
LINE
  5
12B
330
1F
100
AcDbEntity
  8
0
  6
HIDDEN
 62
     7
370
     0
100
AcDbLine
 10
169.5315903823
 20
132.273459145
 30
0.0
 11
169.5315903823
 21
110.830763164
 31
0.0
  0
LINE
  5
12C
330
1F
100
AcDbEntity
  8
0
  6
HIDDEN
 62
     7
370
     0
100
AcDbLine
 10
171.5315903823
 20
131.8167656236
 30
0.0
 11
171.5315903823
 21
111.7903192008
 31
0.0
  0
LINE
  5
12D
330
1F
100
AcDbEntity
  8
0
  6
HIDDEN
 62
     7
370
     0
100
AcDbLine
 10
141.7315903823
 20
110.830763164
 30
0.0
 11
141.7315903823
 21
103.2499820539
 31
0.0
  0
LINE
  5
12E
330
1F
100
AcDbEntity
  8
0
  6
HIDDEN
 62
     7
370
     0
100
AcDbLine
 10
143.2315903823
 20
110.830763164
 30
0.0
 11
143.2315903823
 21
102.4999820539
 31
0.0
  0
LINE
  5
12F
330
1F
100
AcDbEntity
  8
0
  6
HIDDEN
 62
     7
370
     0
100
AcDbLine
 10
169.5315903823
 20
110.830763164
 30
0.0
 11
169.5315903823
 21
101.9277578965
 31
0.0
  0
SPLINE
  5
130
330
1F
100
AcDbEntity
  8
0
  6
HIDDEN
 62
     7
370
     0
100
AcDbSpline
210
0.0
220
0.0
230
1.0
 70
     8
 71
     3
 72
    18
 73
    14
 74
     0
 42
0.00000001
 43
0.00000001
 12
1.0
 22
0.0
 32
0.0
 13
1.0
 23
0.0
 33
0.0
 40
0.0
 40
0.0
 40
0.0
 40
0.0
 40
0.2499999999999986
 40
0.2499999999999986
 40
0.3749999999999983
 40
0.3749999999999983
 40
0.4999999999999981
 40
0.4999999999999981
 40
0.6249999999999986
 40
0.6249999999999986
 40
0.7499999999999989
 40
0.7499999999999989
 40
1.0
 40
1.0
 40
1.0
 40
1.0
 10
170.410270038787
 20
109.8761781351872
 30
0.0
 10
170.2749844324847
 20
109.1604047157613
 30
0.0
 10
170.1738166862418
 20
108.4595945687948
 30
0.0
 10
170.0709553433728
 20
107.4311831794762
 30
0.0
 10
170.0448524978496
 20
107.091300221198
 30
0.0
 10
170.0099625143047
 20
106.4234884665687
 30
0.0
 10
170.0013762560147
 20
106.1002966860135
 30
0.0
 10
170.0012765464491
 20
105.4746466211535
 30
0.0
 10
170.0097649175976
 20
105.1721902441436
 30
0.0
 10
170.0439082971182
 20
104.5880403233435
 30
0.0
 10
170.069705278972
 20
104.305276226649
 30
0.0
 10
170.17310641036
 20
103.4965814277232
 30
0.0
 10
170.2749644025313
 20
103.0180798156311
 30
0.0
 10
170.410270038787
 20
102.5983376825098
 30
0.0
  0
CIRCLE
  5
131
330
1F
100
AcDbEntity
  8
0
  6
HIDDEN
 62
     7
370
     0
100
AcDbCircle
 10
233.7315903823
 20
115.0106600685
 30
0.0
 40
3.5
  0
CIRCLE
  5
132
330
1F
100
AcDbEntity
  8
0
  6
HIDDEN
 62
     7
370
     0
100
AcDbCircle
 10
223.7315903823
 20
115.0106600685
 30
0.0
 40
3.5
  0
CIRCLE
  5
133
330
1F
100
AcDbEntity
  8
0
  6
HIDDEN
 62
     7
370
     0
100
AcDbCircle
 10
213.7315903823
 20
115.0106600685
 30
0.0
 40
3.500000000000014
  0
LINE
  5
134
330
1F
100
AcDbEntity
  8
0
  6
HIDDEN
 62
     7
370
     0
100
AcDbLine
 10
171.7315903823
 20
95.4606600685
 30
0.0
 11
171.8244836012
 21
95.5535532873
 31
0.0
  0
LINE
  5
135
330
1F
100
AcDbEntity
  8
0
  6
HIDDEN
 62
     7
370
     0
100
AcDbLine
 10
171.8244836012
 20
134.4677668497
 30
0.0
 11
171.7315903823
 21
134.5606600685
 31
0.0
  0
ARC
  5
136
330
1F
100
AcDbEntity
  8
0
  6
HIDDEN
 62
     7
370
     0
100
AcDbCircle
 10
171.11737682
 20
96.2606600685
 30
0.0
 40
1.0
100
AcDbArc
 50
315.0
 51
0.0
  0
ARC
  5
137
330
1F
100
AcDbEntity
  8
0
  6
HIDDEN
 62
     7
370
     0
100
AcDbCircle
 10
171.11737682
 20
96.2606600685
 30
0.0
 40
1.000000000000021
100
AcDbArc
 50
0.0
 51
52.1052014664
  0
ARC
  5
138
330
1F
100
AcDbEntity
  8
0
  6
HIDDEN
 62
     7
370
     0
100
AcDbCircle
 10
171.11737682
 20
133.7606600685
 30
0.0
 40
1.000000000000008
100
AcDbArc
 50
343.125
 51
45.0
  0
ARC
  5
139
330
1F
100
AcDbEntity
  8
0
  6
HIDDEN
 62
     7
370
     0
100
AcDbCircle
 10
171.11737682
 20
133.7606600685
 30
0.0
 40
0.9999999999999998
100
AcDbArc
 50
307.8947985336
 51
343.125
  0
LINE
  5
13A
330
1F
100
AcDbEntity
  8
0
  6
HIDDEN
 62
     7
370
     0
100
AcDbLine
 10
172.11737682
 20
96.2606600685
 30
0.0
 11
172.11737682
 21
133.7606600685
 31
0.0
  0
LINE
  5
13B
330
1F
100
AcDbEntity
  8
0
  6
HIDDEN
 62
     7
370
     0
100
AcDbLine
 10
172.11737682
 20
96.2606600685
 30
0.0
 11
172.11737682
 21
133.7606600685
 31
0.0
  0
LINE
  5
13C
330
1F
100
AcDbEntity
  8
0
  6
HIDDEN
 62
     7
370
     0
100
AcDbLine
 10
148.2315903823
 20
103.0106600685
 30
0.0
 11
149.2383098944
 21
103.0106600685
 31
0.0
  0
LINE
  5
13D
330
1F
100
AcDbEntity
  8
0
  6
HIDDEN
 62
     7
370
     0
100
AcDbLine
 10
149.2383098944
 20
127.0106600685
 30
0.0
 11
148.2315903823
 21
127.0106600685
 31
0.0
  0
ARC
  5
13E
330
1F
100
AcDbEntity
  8
0
  6
HIDDEN
 62
     7
370
     0
100
AcDbCircle
 10
149.2383098944
 20
104.5106600685
 30
0.0
 40
1.500000000000022
100
AcDbArc
 50
270.0
 51
315.0
  0
ARC
  5
13F
330
1F
100
AcDbEntity
  8
0
  6
HIDDEN
 62
     7
370
     0
100
AcDbCircle
 10
149.2383098944
 20
125.5106600685
 30
0.0
 40
1.500000000000012
100
AcDbArc
 50
45.0
 51
90.0
  0
ARC
  5
140
330
1F
100
AcDbEntity
  8
0
  6
HIDDEN
 62
     7
370
     0
100
AcDbCircle
 10
148.2315903823
 20
104.5106600685
 30
0.0
 40
1.5
100
AcDbArc
 50
191.0958032831
 51
270.0
  0
ARC
  5
141
330
1F
100
AcDbEntity
  8
0
  6
HIDDEN
 62
     7
370
     0
100
AcDbCircle
 10
148.2315903823
 20
125.5106600685
 30
0.0
 40
1.5
100
AcDbArc
 50
90.0
 51
168.9041967169
  0
LINE
  5
142
330
1F
100
AcDbEntity
  8
0
  6
HIDDEN
 62
     7
370
     0
100
AcDbLine
 10
141.7315903823
 20
103.2472480001
 30
0.0
 11
142.759630238
 21
103.8407870874
 31
0.0
  0
LINE
  5
143
330
1F
100
AcDbEntity
  8
0
  6
HIDDEN
 62
     7
370
     0
100
AcDbLine
 10
142.759630238
 20
126.1805330496
 30
0.0
 11
141.7315903823
 21
126.774072137
 31
0.0
  0
LINE
  5
144
330
1F
100
AcDbEntity
  8
0
  6
HIDDEN
 62
     7
370
     0
100
AcDbLine
 10
150.2989700662
 20
103.4499998967
 30
0.0
 11
151.359630238
 21
104.5106600685
 31
0.0
  0
LINE
  5
145
330
1F
100
AcDbEntity
  8
0
  6
HIDDEN
 62
     7
370
     0
100
AcDbLine
 10
151.359630238
 20
125.5106600685
 30
0.0
 11
150.2989700662
 21
126.5713202403
 31
0.0
  0
LINE
  5
146
330
1F
100
AcDbEntity
  8
0
  6
HIDDEN
 62
     7
370
     0
100
AcDbLine
 10
142.759630238
 20
103.8407870874
 30
0.0
 11
145.259630238
 21
104.5106600685
 31
0.0
  0
LINE
  5
147
330
1F
100
AcDbEntity
  8
0
  6
HIDDEN
 62
     7
370
     0
100
AcDbLine
 10
145.259630238
 20
125.5106600685
 30
0.0
 11
142.759630238
 21
126.1805330496
 31
0.0
  0
LINE
  5
148
330
1F
100
AcDbEntity
  8
0
  6
HIDDEN
 62
     7
370
     0
100
AcDbLine
 10
146.759630238
 20
125.7993352031
 30
0.0
 11
146.259630238
 21
125.5106600685
 31
0.0
  0
LINE
  5
149
330
1F
100
AcDbEntity
  8
0
  6
HIDDEN
 62
     7
370
     0
100
AcDbLine
 10
146.259630238
 20
104.5106600685
 30
0.0
 11
146.759630238
 21
104.2219849339
 31
0.0
  0
LINE
  5
14A
330
1F
100
AcDbEntity
  8
0
  6
HIDDEN
 62
     7
370
     0
100
AcDbLine
 10
160.7707595572
 20
104.5106600685
 30
0.0
 11
161.2315903823
 21
104.5106600685
 31
0.0
  0
LINE
  5
14B
330
1F
100
AcDbEntity
  8
0
  6
HIDDEN
 62
     7
370
     0
100
AcDbLine
 10
151.359630238
 20
104.5106600685
 30
0.0
 11
154.6905151689
 21
104.5106600685
 31
0.0
  0
LINE
  5
14C
330
1F
100
AcDbEntity
  8
0
  6
HIDDEN
 62
     7
370
     0
100
AcDbLine
 10
154.6841525557
 20
125.5106600685
 30
0.0
 11
151.359630238
 21
125.5106600685
 31
0.0
  0
LINE
  5
14D
330
1F
100
AcDbEntity
  8
0
  6
HIDDEN
 62
     7
370
     0
100
AcDbLine
 10
161.2315903823
 20
125.5106600685
 30
0.0
 11
160.7794320643
 21
125.5106600685
 31
0.0
  0
LINE
  5
14E
330
1F
100
AcDbEntity
  8
0
  6
HIDDEN
 62
     7
370
     0
100
AcDbLine
 10
145.259630238
 20
104.5106600685
 30
0.0
 11
146.259630238
 21
104.5106600685
 31
0.0
  0
LINE
  5
14F
330
1F
100
AcDbEntity
  8
0
  6
HIDDEN
 62
     7
370
     0
100
AcDbLine
 10
146.259630238
 20
125.5106600685
 30
0.0
 11
145.259630238
 21
125.5106600685
 31
0.0
  0
ARC
  5
150
330
1F
100
AcDbEntity
  8
0
  6
HIDDEN
 62
     7
370
     0
100
AcDbCircle
 10
161.2315903823
 20
105.0106600685
 30
0.0
 40
0.5
100
AcDbArc
 50
270.0
 51
0.0
  0
ARC
  5
151
330
1F
100
AcDbEntity
  8
0
  6
HIDDEN
 62
     7
370
     0
100
AcDbCircle
 10
161.2315903823
 20
125.0106600685
 30
0.0
 40
0.5
100
AcDbArc
 50
0.0
 51
90.0
  0
LINE
  5
152
330
1F
100
AcDbEntity
  8
0
  6
HIDDEN
 62
     7
370
     0
100
AcDbLine
 10
161.7315903823
 20
106.7606600685
 30
0.0
 11
162.7315903823
 21
107.7606600685
 31
0.0
  0
LINE
  5
153
330
1F
100
AcDbEntity
  8
0
  6
HIDDEN
 62
     7
370
     0
100
AcDbLine
 10
162.7315903823
 20
122.2606600685
 30
0.0
 11
161.7315903823
 21
123.2606600685
 31
0.0
  0
LINE
  5
154
330
1F
100
AcDbEntity
  8
0
  6
HIDDEN
 62
     7
370
     0
100
AcDbLine
 10
186.7315903823
 20
107.7606600685
 30
0.0
 11
187.4826661561
 21
109.0106600685
 31
0.0
  0
LINE
  5
155
330
1F
100
AcDbEntity
  8
0
  6
HIDDEN
 62
     7
370
     0
100
AcDbLine
 10
187.4826661561
 20
121.0106600685
 30
0.0
 11
186.7315903823
 21
122.2606600685
 31
0.0
  0
LINE
  5
156
330
1F
100
AcDbEntity
  8
0
  6
HIDDEN
 62
     7
370
     0
100
AcDbLine
 10
162.7315903823
 20
107.7606600685
 30
0.0
 11
186.7315903823
 21
107.7606600685
 31
0.0
  0
LINE
  5
157
330
1F
100
AcDbEntity
  8
0
  6
HIDDEN
 62
     7
370
     0
100
AcDbLine
 10
186.7315903823
 20
122.2606600685
 30
0.0
 11
162.7315903823
 21
122.2606600685
 31
0.0
  0
LINE
  5
158
330
1F
100
AcDbEntity
  8
0
  6
HIDDEN
 62
     7
370
     0
100
AcDbLine
 10
187.4826661561
 20
109.0106600685
 30
0.0
 11
207.7315903823
 21
109.0106600685
 31
0.0
  0
LINE
  5
159
330
1F
100
AcDbEntity
  8
0
  6
HIDDEN
 62
     7
370
     0
100
AcDbLine
 10
207.7315903823
 20
121.0106600685
 30
0.0
 11
187.4826661561
 21
121.0106600685
 31
0.0
  0
LINE
  5
15A
330
1F
100
AcDbEntity
  8
0
  6
HIDDEN
 62
     7
370
     0
100
AcDbLine
 10
207.7315903823
 20
109.0106600685
 30
0.0
 11
208.3324510014
 21
110.0106600685
 31
0.0
  0
LINE
  5
15B
330
1F
100
AcDbEntity
  8
0
  6
HIDDEN
 62
     7
370
     0
100
AcDbLine
 10
208.3324510014
 20
120.0106600685
 30
0.0
 11
207.7315903823
 21
121.0106600685
 31
0.0
  0
ARC
  5
15C
330
1F
100
AcDbEntity
  8
0
  6
HIDDEN
 62
     7
370
     0
100
AcDbCircle
 10
241.4315903823
 20
120.3106600685
 30
0.0
 40
0.3000000000000114
100
AcDbArc
 50
270.0
 51
0.0
  0
ARC
  5
15D
330
1F
100
AcDbEntity
  8
0
  6
HIDDEN
 62
     7
370
     0
100
AcDbCircle
 10
241.4315903823
 20
109.7106600685
 30
0.0
 40
0.3000000000000114
100
AcDbArc
 50
0.0
 51
90.0
  0
LINE
  5
15E
330
1F
100
AcDbEntity
  8
0
  6
HIDDEN
 62
     7
370
     0
100
AcDbLine
 10
210.2394361689
 20
120.0106600685
 30
0.0
 11
208.3324510014
 21
120.0106600685
 31
0.0
  0
LINE
  5
15F
330
1F
100
AcDbEntity
  8
0
  6
HIDDEN
 62
     7
370
     0
100
AcDbLine
 10
220.2394361689
 20
120.0106600685
 30
0.0
 11
217.231039757
 21
120.0106600685
 31
0.0
  0
LINE
  5
160
330
1F
100
AcDbEntity
  8
0
  6
HIDDEN
 62
     7
370
     0
100
AcDbLine
 10
230.2394361689
 20
120.0106600685
 30
0.0
 11
227.231039757
 21
120.0106600685
 31
0.0
  0
LINE
  5
161
330
1F
100
AcDbEntity
  8
0
  6
HIDDEN
 62
     7
370
     0
100
AcDbLine
 10
241.4315903823
 20
120.0106600685
 30
0.0
 11
237.231039757
 21
120.0106600685
 31
0.0
  0
LINE
  5
162
330
1F
100
AcDbEntity
  8
0
  6
HIDDEN
 62
     7
370
     0
100
AcDbLine
 10
237.231039757
 20
110.0106600685
 30
0.0
 11
241.4315903823
 21
110.0106600685
 31
0.0
  0
LINE
  5
163
330
1F
100
AcDbEntity
  8
0
  6
HIDDEN
 62
     7
370
     0
100
AcDbLine
 10
227.231039757
 20
110.0106600685
 30
0.0
 11
230.2394361689
 21
110.0106600685
 31
0.0
  0
LINE
  5
164
330
1F
100
AcDbEntity
  8
0
  6
HIDDEN
 62
     7
370
     0
100
AcDbLine
 10
217.231039757
 20
110.0106600685
 30
0.0
 11
220.2394361689
 21
110.0106600685
 31
0.0
  0
LINE
  5
165
330
1F
100
AcDbEntity
  8
0
  6
HIDDEN
 62
     7
370
     0
100
AcDbLine
 10
208.3324510014
 20
110.0106600685
 30
0.0
 11
210.2394361689
 21
110.0106600685
 31
0.0
  0
LINE
  5
166
330
1F
100
AcDbEntity
  8
0
  6
HIDDEN
 62
     7
370
     0
100
AcDbLine
 10
228.2315903823
 20
98.0106600685
 30
0.0
 11
227.2315903823
 21
99.0106600685
 31
0.0
  0
LINE
  5
167
330
1F
100
AcDbEntity
  8
0
  6
HIDDEN
 62
     7
370
     0
100
AcDbLine
 10
220.2315903823
 20
99.0106600685
 30
0.0
 11
219.2315903823
 21
98.0106600685
 31
0.0
  0
LINE
  5
168
330
1F
100
AcDbEntity
  8
0
  6
HIDDEN
 62
     7
370
     0
100
AcDbLine
 10
218.2315903823
 20
98.0106600685
 30
0.0
 11
217.2315903823
 21
99.0106600685
 31
0.0
  0
LINE
  5
169
330
1F
100
AcDbEntity
  8
0
  6
HIDDEN
 62
     7
370
     0
100
AcDbLine
 10
210.2315903823
 20
99.0106600685
 30
0.0
 11
209.2315903823
 21
98.0106600685
 31
0.0
  0
LINE
  5
16A
330
1F
100
AcDbEntity
  8
0
  6
HIDDEN
 62
     7
370
     0
100
AcDbLine
 10
238.2315903823
 20
98.0106600685
 30
0.0
 11
237.2315903823
 21
99.0106600685
 31
0.0
  0
LINE
  5
16B
330
1F
100
AcDbEntity
  8
0
  6
HIDDEN
 62
     7
370
     0
100
AcDbLine
 10
230.2315903823
 20
99.0106600685
 30
0.0
 11
229.2315903823
 21
98.0106600685
 31
0.0
  0
LINE
  5
16C
330
1F
100
AcDbEntity
  8
0
  6
HIDDEN
 62
     7
370
     0
100
AcDbLine
 10
219.2315903823
 20
132.0106600685
 30
0.0
 11
220.2315903823
 21
131.0106600685
 31
0.0
  0
LINE
  5
16D
330
1F
100
AcDbEntity
  8
0
  6
HIDDEN
 62
     7
370
     0
100
AcDbLine
 10
227.2315903823
 20
131.0106600685
 30
0.0
 11
228.2315903823
 21
132.0106600685
 31
0.0
  0
LINE
  5
16E
330
1F
100
AcDbEntity
  8
0
  6
HIDDEN
 62
     7
370
     0
100
AcDbLine
 10
209.2315903823
 20
132.0106600685
 30
0.0
 11
210.2315903823
 21
131.0106600685
 31
0.0
  0
LINE
  5
16F
330
1F
100
AcDbEntity
  8
0
  6
HIDDEN
 62
     7
370
     0
100
AcDbLine
 10
217.2315903823
 20
131.0106600685
 30
0.0
 11
218.2315903823
 21
132.0106600685
 31
0.0
  0
LINE
  5
170
330
1F
100
AcDbEntity
  8
0
  6
HIDDEN
 62
     7
370
     0
100
AcDbLine
 10
229.2315903823
 20
132.0106600685
 30
0.0
 11
230.2315903823
 21
131.0106600685
 31
0.0
  0
LINE
  5
171
330
1F
100
AcDbEntity
  8
0
  6
HIDDEN
 62
     7
370
     0
100
AcDbLine
 10
237.2315903823
 20
131.0106600685
 30
0.0
 11
238.2315903823
 21
132.0106600685
 31
0.0
  0
LINE
  5
172
330
1F
100
AcDbEntity
  8
0
  6
HIDDEN
 62
     7
370
     0
100
AcDbLine
 10
217.2315903823
 20
99.0106600685
 30
0.0
 11
217.2315903823
 21
110.0110450208
 31
0.0
  0
LINE
  5
173
330
1F
100
AcDbEntity
  8
0
  6
HIDDEN
 62
     7
370
     0
100
AcDbLine
 10
210.2315903823
 20
110.0161461083
 30
0.0
 11
210.2315903823
 21
99.0106600685
 31
0.0
  0
LINE
  5
174
330
1F
100
AcDbEntity
  8
0
  6
HIDDEN
 62
     7
370
     0
100
AcDbLine
 10
227.2315903823
 20
99.0106600685
 30
0.0
 11
227.2315903823
 21
110.0110450208
 31
0.0
  0
LINE
  5
175
330
1F
100
AcDbEntity
  8
0
  6
HIDDEN
 62
     7
370
     0
100
AcDbLine
 10
220.2315903823
 20
110.0161461083
 30
0.0
 11
220.2315903823
 21
99.0106600685
 31
0.0
  0
LINE
  5
176
330
1F
100
AcDbEntity
  8
0
  6
HIDDEN
 62
     7
370
     0
100
AcDbLine
 10
237.2315903823
 20
99.0106600685
 30
0.0
 11
237.2315903823
 21
110.0110450208
 31
0.0
  0
LINE
  5
177
330
1F
100
AcDbEntity
  8
0
  6
HIDDEN
 62
     7
370
     0
100
AcDbLine
 10
230.2315903823
 20
110.0161461083
 30
0.0
 11
230.2315903823
 21
99.0106600685
 31
0.0
  0
LINE
  5
178
330
1F
100
AcDbEntity
  8
0
  6
HIDDEN
 62
     7
370
     0
100
AcDbLine
 10
230.2315903823
 20
131.0106600685
 30
0.0
 11
230.2315903823
 21
120.0051740287
 31
0.0
  0
LINE
  5
179
330
1F
100
AcDbEntity
  8
0
  6
HIDDEN
 62
     7
370
     0
100
AcDbLine
 10
237.2315903823
 20
120.0102751162
 30
0.0
 11
237.2315903823
 21
131.0106600685
 31
0.0
  0
LINE
  5
17A
330
1F
100
AcDbEntity
  8
0
  6
HIDDEN
 62
     7
370
     0
100
AcDbLine
 10
220.2315903823
 20
131.0106600685
 30
0.0
 11
220.2315903823
 21
120.0051740287
 31
0.0
  0
LINE
  5
17B
330
1F
100
AcDbEntity
  8
0
  6
HIDDEN
 62
     7
370
     0
100
AcDbLine
 10
227.2315903823
 20
120.0102751162
 30
0.0
 11
227.2315903823
 21
131.0106600685
 31
0.0
  0
LINE
  5
17C
330
1F
100
AcDbEntity
  8
0
  6
HIDDEN
 62
     7
370
     0
100
AcDbLine
 10
210.2315903823
 20
131.0106600685
 30
0.0
 11
210.2315903823
 21
120.0051740287
 31
0.0
  0
LINE
  5
17D
330
1F
100
AcDbEntity
  8
0
  6
HIDDEN
 62
     7
370
     0
100
AcDbLine
 10
217.2315903823
 20
120.0102751162
 30
0.0
 11
217.2315903823
 21
131.0106600685
 31
0.0
  0
LINE
  5
17E
330
1F
100
AcDbEntity
  8
0
  6
HIDDEN
 62
     7
370
     0
100
AcDbLine
 10
161.1805411718
 20
98.8213915584
 30
0.0
 11
160.7815903823
 21
99.2203423479
 31
0.0
  0
LINE
  5
17F
330
1F
100
AcDbEntity
  8
0
  6
HIDDEN
 62
     7
370
     0
100
AcDbLine
 10
154.6815903823
 20
99.2203423479
 30
0.0
 11
154.4516865381
 21
98.9904385037
 31
0.0
  0
LINE
  5
180
330
1F
100
AcDbEntity
  8
0
  6
HIDDEN
 62
     7
370
     0
100
AcDbLine
 10
149.1137028545
 20
99.1285475964
 30
0.0
 11
147.2315903823
 21
101.0106600685
 31
0.0
  0
LINE
  5
181
330
1F
100
AcDbEntity
  8
0
  6
HIDDEN
 62
     7
370
     0
100
AcDbLine
 10
147.2315903823
 20
101.0106600685
 30
0.0
 11
141.7315903823
 21
101.0106600685
 31
0.0
  0
LINE
  5
182
330
1F
100
AcDbEntity
  8
0
  6
HIDDEN
 62
     7
370
     0
100
AcDbLine
 10
160.7815903823
 20
129.0106600685
 30
0.0
 11
157.7315903823
 21
130.8432849565
 31
0.0
  0
LINE
  5
183
330
1F
100
AcDbEntity
  8
0
  6
HIDDEN
 62
     7
370
     0
100
AcDbLine
 10
157.7315903823
 20
130.8432849565
 30
0.0
 11
154.6815903823
 21
129.0106600685
 31
0.0
  0
LINE
  5
184
330
1F
100
AcDbEntity
  8
0
  6
HIDDEN
 62
     7
370
     0
100
AcDbLine
 10
160.7815903823
 20
125.5100335701
 30
0.0
 11
160.7815903823
 21
129.0106600685
 31
0.0
  0
LINE
  5
185
330
1F
100
AcDbEntity
  8
0
  6
HIDDEN
 62
     7
370
     0
100
AcDbLine
 10
154.6815903823
 20
129.0106600685
 30
0.0
 11
154.6815903823
 21
125.5099233402
 31
0.0
  0
LINE
  5
186
330
1F
100
AcDbEntity
  8
0
  6
HIDDEN
 62
     7
370
     0
100
AcDbLine
 10
160.7815903823
 20
99.2203423479
 30
0.0
 11
160.7815903823
 21
104.5138003484
 31
0.0
  0
LINE
  5
187
330
1F
100
AcDbEntity
  8
0
  6
HIDDEN
 62
     7
370
     0
100
AcDbLine
 10
154.6815903823
 20
104.5132457921
 30
0.0
 11
154.6815903823
 21
99.2203423479
 31
0.0
  0
LINE
  5
188
330
1F
100
AcDbEntity
  8
0
  6
HIDDEN
 62
     7
370
     0
100
AcDbLine
 10
185.7315903823
 20
90.5106600685
 30
0.0
 11
183.7315903823
 21
91.7123813066
 31
0.0
  0
LINE
  5
189
330
1F
100
AcDbEntity
  8
0
  6
HIDDEN
 62
     7
370
     0
100
AcDbLine
 10
183.7315903823
 20
91.7123813066
 30
0.0
 11
181.7315903823
 21
90.5106600685
 31
0.0
  0
LINE
  5
18A
330
1F
100
AcDbEntity
  8
0
  6
HIDDEN
 62
     7
370
     0
100
AcDbLine
 10
181.7315903823
 20
90.5106600685
 30
0.0
 11
181.7315903823
 21
90.0106600685
 31
0.0
  0
LINE
  5
18B
330
1F
100
AcDbEntity
  8
0
  6
HIDDEN
 62
     7
370
     0
100
AcDbLine
 10
185.7315903823
 20
90.0106600685
 30
0.0
 11
185.7315903823
 21
90.5106600685
 31
0.0
  0
DIMENSION
  5
18C
330
1F
100
AcDbEntity
  8
VERMASSUNG
100
AcDbDimension
  2
_D
 10
241.7315903823
 20
146.3318492447
 30
0.0
 11
211.5154327993
 21
146.3318492447
 31
0.0
 70
   160
  1
<>
 71
     2
 42
-1.0
  3
SLDDIMSTYLE0
100
AcDbAlignedDimension
 13
171.7315903823
 23
139.7106600685
 33
0.0
 14
241.7315903823
 24
131.0106600685
 34
0.0
100
AcDbRotatedDimension
  0
DIMENSION
  5
197
330
1F
100
AcDbEntity
  8
VERMASSUNG
100
AcDbDimension
  2
_D_1
 10
241.7315903823
 20
153.5317088137
 30
0.0
 11
192.2744287786
 21
153.5317088137
 31
0.0
 70
   160
  1
<>
 71
     2
 42
-1.0
  3
SLDDIMSTYLE0
100
AcDbAlignedDimension
 13
141.7315903823
 23
130.9512349876
 33
0.0
 14
241.7315903823
 24
131.0106600685
 34
0.0
100
AcDbRotatedDimension
  0
DIMENSION
  5
1A1
330
1F
100
AcDbEntity
  8
VERMASSUNG
100
AcDbDimension
  2
_D_2
 10
133.5153462844
 20
90.0106600685
 30
0.0
 11
133.5153462844
 21
113.3962157817
 31
0.0
 70
   160
  1
PSC%%c<>
 71
     2
 42
-1.0
  3
SLDDIMSTYLE0
100
AcDbAlignedDimension
 13
172.0315903823
 23
140.0106600685
 33
0.0
 14
172.0315903823
 24
90.0106600685
 34
0.0
 50
90.0
100
AcDbRotatedDimension
  0
DIMENSION
  5
1AD
330
1F
100
AcDbEntity
  8
VERMASSUNG
100
AcDbDimension
  2
_D_3
 10
260.0149718827
 20
98.0106600685
 30
0.0
 11
260.0149718827
 21
115.5590084413
 31
0.0
 70
   160
  1
%%c<>
 71
     2
 42
-1.0
  3
SLDDIMSTYLE0
100
AcDbAlignedDimension
 13
240.7315903823
 23
132.0106600685
 33
0.0
 14
240.7315903823
 24
98.0106600685
 34
0.0
 50
90.0
100
AcDbRotatedDimension
  0
DIMENSION
  5
1B8
330
1F
100
AcDbEntity
  8
VERMASSUNG
100
AcDbDimension
  2
_D_4
 10
251.7315903823
 20
110.0106600685
 30
0.0
 11
251.7315903823
 21
114.2567486479
 31
0.0
 70
   160
  1
%%c<>
 71
     2
 42
-1.0
  3
SLDDIMSTYLE0
100
AcDbAlignedDimension
 13
241.4315903823
 23
120.0106600685
 33
0.0
 14
241.4315903823
 24
110.0106600685
 34
0.0
 50
90.0
100
AcDbRotatedDimension
  0
LINE
  5
1C3
330
1F
100
AcDbEntity
  8
VERMASSUNG
  6
CENTERX2
370
     0
100
AcDbLine
 10
138.4600470435
 20
115.0106600685
 30
0.0
 11
245.021705975
 21
115.0106600685
 31
0.0
  0
LINE
  5
1C4
330
1F
100
AcDbEntity
  8
0
  6
Continuous
 62
     7
370
    15
100
AcDbLine
 10
96.3891223478
 20
111.0106598785
 30
0.0
 11
96.7877842891
 21
111.7011601305
 31
0.0
  0
LINE
  5
1C5
330
1F
100
AcDbEntity
  8
0
  6
Continuous
 62
     7
370
    15
100
AcDbLine
 10
96.7877842891
 20
118.3201600066
 30
0.0
 11
96.3891223478
 21
119.0106602585
 31
0.0
  0
LINE
  5
1C6
330
1F
100
AcDbEntity
  8
0
  6
Continuous
 62
     7
370
    15
100
AcDbLine
 10
96.3891223478
 20
119.0106602585
 30
0.0
 11
96.3104945081
 21
119.0106602585
 31
0.0
  0
LINE
  5
1C7
330
1F
100
AcDbEntity
  8
0
  6
Continuous
 62
     7
370
    15
100
AcDbLine
 10
96.3104945081
 20
111.0106598785
 30
0.0
 11
96.3891223478
 21
111.0106598785
 31
0.0
  0
LINE
  5
1C8
330
1F
100
AcDbEntity
  8
0
  6
Continuous
 62
     7
370
    15
100
AcDbLine
 10
75.7877831752
 20
131.6119990511
 30
0.0
 11
75.7877831752
 21
131.5333712114
 31
0.0
  0
LINE
  5
1C9
330
1F
100
AcDbEntity
  8
0
  6
Continuous
 62
     7
370
    15
100
AcDbLine
 10
83.7877835552
 20
131.5333712114
 30
0.0
 11
83.7877835552
 21
131.6119990511
 31
0.0
  0
LINE
  5
1CA
330
1F
100
AcDbEntity
  8
0
  6
Continuous
 62
     7
370
    15
100
AcDbLine
 10
83.7877835552
 20
131.6119990511
 30
0.0
 11
83.0972833032
 21
132.0106609924
 31
0.0
  0
LINE
  5
1CB
330
1F
100
AcDbEntity
  8
0
  6
Continuous
 62
     7
370
    15
100
AcDbLine
 10
76.4782834271
 20
132.0106609924
 30
0.0
 11
75.7877831752
 21
131.6119990511
 31
0.0
  0
LINE
  5
1CC
330
1F
100
AcDbEntity
  8
0
  6
Continuous
 62
     7
370
    15
100
AcDbLine
 10
75.7877831752
 20
98.4093210859
 30
0.0
 11
76.4782834271
 21
98.0106591446
 31
0.0
  0
LINE
  5
1CD
330
1F
100
AcDbEntity
  8
0
  6
Continuous
 62
     7
370
    15
100
AcDbLine
 10
83.0972833032
 20
98.0106591446
 30
0.0
 11
83.7877835552
 21
98.4093210859
 31
0.0
  0
LINE
  5
1CE
330
1F
100
AcDbEntity
  8
0
  6
Continuous
 62
     7
370
    15
100
AcDbLine
 10
83.7877835552
 20
98.4093210859
 30
0.0
 11
83.7877835552
 21
98.4879489256
 31
0.0
  0
LINE
  5
1CF
330
1F
100
AcDbEntity
  8
0
  6
Continuous
 62
     7
370
    15
100
AcDbLine
 10
75.7877831752
 20
98.4879489256
 30
0.0
 11
75.7877831752
 21
98.4093210859
 31
0.0
  0
CIRCLE
  5
1D0
330
1F
100
AcDbEntity
  8
0
  6
Continuous
 62
     7
370
    15
100
AcDbCircle
 10
79.7877833652
 20
115.0106600685
 30
0.0
 40
17.0
  0
CIRCLE
  5
1D1
330
1F
100
AcDbEntity
  8
0
  6
Continuous
 62
     7
370
    15
100
AcDbCircle
 10
79.7877833652
 20
115.0106600685
 30
0.0
 40
5.0
  0
CIRCLE
  5
1D2
330
1F
100
AcDbEntity
  8
0
  6
Continuous
 62
     7
370
    15
100
AcDbCircle
 10
79.7877833652
 20
115.0106600685
 30
0.0
 40
25.0
  0
LINE
  5
1D3
330
1F
100
AcDbEntity
  8
0
  6
Continuous
 62
     7
370
    15
100
AcDbLine
 10
96.7877842891
 20
118.3201600066
 30
0.0
 11
96.7877842891
 21
111.7011601305
 31
0.0
  0
LINE
  5
1D4
330
1F
100
AcDbEntity
  8
0
  6
Continuous
 62
     7
370
    15
100
AcDbLine
 10
96.3891223478
 20
119.0106602585
 30
0.0
 11
96.3891223478
 21
118.6706495205
 31
0.0
  0
LINE
  5
1D5
330
1F
100
AcDbEntity
  8
0
  6
Continuous
 62
     7
370
    15
100
AcDbLine
 10
96.3891223478
 20
111.3506706165
 30
0.0
 11
96.3891223478
 21
111.0106598785
 31
0.0
  0
LINE
  5
1D6
330
1F
100
AcDbEntity
  8
0
  6
Continuous
 62
     7
370
    15
100
AcDbLine
 10
75.7877831752
 20
131.6119990511
 30
0.0
 11
76.1277939132
 21
131.6119990511
 31
0.0
  0
LINE
  5
1D7
330
1F
100
AcDbEntity
  8
0
  6
Continuous
 62
     7
370
    15
100
AcDbLine
 10
83.4477728172
 20
131.6119990511
 30
0.0
 11
83.7877835552
 21
131.6119990511
 31
0.0
  0
LINE
  5
1D8
330
1F
100
AcDbEntity
  8
0
  6
Continuous
 62
     7
370
    15
100
AcDbLine
 10
76.4782834271
 20
132.0106609924
 30
0.0
 11
83.0972833032
 21
132.0106609924
 31
0.0
  0
LINE
  5
1D9
330
1F
100
AcDbEntity
  8
0
  6
Continuous
 62
     7
370
    15
100
AcDbLine
 10
83.0972833032
 20
98.0106591446
 30
0.0
 11
76.4782834271
 21
98.0106591446
 31
0.0
  0
LINE
  5
1DA
330
1F
100
AcDbEntity
  8
0
  6
Continuous
 62
     7
370
    15
100
AcDbLine
 10
83.7877835552
 20
98.4093210859
 30
0.0
 11
83.4477728172
 21
98.4093210859
 31
0.0
  0
LINE
  5
1DB
330
1F
100
AcDbEntity
  8
0
  6
Continuous
 62
     7
370
    15
100
AcDbLine
 10
76.1277939132
 20
98.4093210859
 30
0.0
 11
75.7877831752
 21
98.4093210859
 31
0.0
  0
LINE
  5
1DC
330
1F
100
AcDbEntity
  8
0
  6
HIDDEN
 62
     7
370
     0
100
AcDbLine
 10
95.7877841251
 20
111.5106599605
 30
0.0
 11
95.7877841251
 21
118.5106601765
 31
0.0
  0
SPLINE
  5
1DD
330
1F
100
AcDbEntity
  8
0
  6
HIDDEN
 62
     7
370
     0
100
AcDbSpline
210
0.0
220
0.0
230
1.0
 70
     8
 71
     3
 72
    73
 73
    69
 74
     0
 42
0.00000001
 43
0.00000001
 12
1.0
 22
0.0
 32
0.0
 13
1.0
 23
0.0
 33
0.0
 40
-0.0312499999999999
 40
-0.0312499999999999
 40
0.0
 40
0.0
 40
0.0312499999999991
 40
0.0312499999999991
 40
0.0624999999999982
 40
0.0624999999999982
 40
0.0937499999999973
 40
0.0937499999999973
 40
0.1093749999999968
 40
0.1093749999999968
 40
0.1249999999999964
 40
0.1406249999999959
 40
0.1406249999999959
 40
0.1562499999999954
 40
0.1562499999999954
 40
0.1874999999999947
 40
0.1874999999999947
 40
0.2187499999999939
 40
0.2187499999999939
 40
0.2499999999999932
 40
0.2499999999999932
 40
0.2812499999999925
 40
0.2812499999999925
 40
0.3124999999999917
 40
0.3124999999999917
 40
0.3749999999999901
 40
0.3749999999999901
 40
0.4062499999999901
 40
0.4062499999999901
 40
0.4374999999999908
 40
0.4374999999999908
 40
0.4687499999999916
 40
0.4687499999999916
 40
0.4999999999999923
 40
0.4999999999999923
 40
0.5312499999999931
 40
0.5312499999999931
 40
0.5624999999999939
 40
0.5624999999999939
 40
0.5937499999999946
 40
0.5937499999999946
 40
0.6249999999999953
 40
0.6249999999999953
 40
0.6406249999999957
 40
0.6406249999999957
 40
0.656249999999996
 40
0.656249999999996
 40
0.6874999999999967
 40
0.6874999999999967
 40
0.7187499999999973
 40
0.7187499999999973
 40
0.7499999999999979
 40
0.7499999999999979
 40
0.7812499999999986
 40
0.7812499999999986
 40
0.8124999999999992
 40
0.8124999999999992
 40
0.8437499999999999
 40
0.8437499999999999
 40
0.8750000000000006
 40
0.8750000000000006
 40
0.9062500000000004
 40
0.9062500000000004
 40
0.9375000000000002
 40
0.9375000000000002
 40
0.9687500000000001
 40
0.9687500000000001
 40
1.0
 40
1.0
 40
1.031249999999999
 40
1.031249999999999
 10
96.49488822256086
 20
111.8634631808423
 30
0.0
 10
96.55759806727377
 20
112.2168247436018
 30
0.0
 10
96.58931386212933
 20
112.4115896763268
 30
0.0
 10
96.64988947817633
 20
112.8390313300986
 30
0.0
 10
96.67894953860579
 20
113.0743195774929
 30
0.0
 10
96.72804101324839
 20
113.5654680354233
 30
0.0
 10
96.74840904656607
 20
113.8229768679378
 30
0.0
 10
96.77033524794895
 20
114.2288127230971
 30
0.0
 10
96.77619238566695
 20
114.3679020577244
 30
0.0
 10
96.78440937650757
 20
114.6447559979561
 30
0.0
 10
96.78925721949986
 20
114.9221699341607
 30
0.0
 10
96.78729416762013
 20
115.2006929955927
 30
0.0
 10
96.78188246875429
 20
115.479782327149
 30
0.0
 10
96.77740753244719
 20
115.6201247273684
 30
0.0
 10
96.75935957075467
 20
116.030810625564
 30
0.0
 10
96.74115687249912
 20
116.294480364174
 30
0.0
 10
96.69500592925723
 20
116.8025565496121
 30
0.0
 10
96.66746861559503
 20
117.0418940693483
 30
0.0
 10
96.60840793428392
 20
117.4837704227999
 30
0.0
 10
96.57640040755841
 20
117.6896394343804
 30
0.0
 10
96.51376926273768
 20
118.0563108024418
 30
0.0
 10
96.48300416763914
 20
118.2185624690452
 30
0.0
 10
96.42584129320646
 20
118.5029464023977
 30
0.0
 10
96.39977334033328
 20
118.6233680175176
 30
0.0
 10
96.33473678822034
 20
118.9142239596935
 30
0.0
 10
96.30854556078188
 20
119.0187159464603
 30
0.0
 10
96.30508235677338
 20
119.0329551700183
 30
0.0
 10
96.30962394721938
 20
119.0144929506725
 30
0.0
 10
96.32990675603575
 20
118.9298497409184
 30
0.0
 10
96.34538678985966
 20
118.8647263777316
 30
0.0
 10
96.38516486240701
 20
118.6896525556384
 30
0.0
 10
96.4096627418476
 20
118.5788045452192
 30
0.0
 10
96.46466906386166
 20
118.3121767521368
 30
0.0
 10
96.49465732788279
 20
118.1589103031797
 30
0.0
 10
96.55638860995326
 20
117.8115519426633
 30
0.0
 10
96.58847912713946
 20
117.6151707536571
 30
0.0
 10
96.64934714804916
 20
117.1865554683867
 30
0.0
 10
96.67774563037584
 20
116.9573846073807
 30
0.0
 10
96.72701830235445
 20
116.4676712191847
 30
0.0
 10
96.7480704448097
 20
116.2029326185245
 30
0.0
 10
96.77737192452545
 20
115.6639075263163
 30
0.0
 10
96.7858903974104
 20
115.3889631755999
 30
0.0
 10
96.78830896355892
 20
114.9680178467503
 30
0.0
 10
96.78735195549874
 20
114.8258632376378
 30
0.0
 10
96.78202581171709
 20
114.5467572834695
 30
0.0
 10
96.77767484247252
 20
114.4088084764927
 30
0.0
 10
96.75988924886467
 20
113.9996344169567
 30
0.0
 10
96.74138269040473
 20
113.730008776571
 30
0.0
 10
96.69552081190183
 20
113.223759890961
 30
0.0
 10
96.66827688181463
 20
112.9858651448296
 30
0.0
 10
96.6086268222916
 20
112.538802216721
 30
0.0
 10
96.57701606214687
 20
112.3355279664324
 30
0.0
 10
96.51439810349143
 20
111.9684526934993
 30
0.0
 10
96.48305006349938
 20
111.803012554155
 30
0.0
 10
96.4260372082921
 20
111.5193219644984
 30
0.0
 10
96.40020700791284
 20
111.39992421329
 30
0.0
 10
96.35650647130171
 20
111.2044221181885
 30
0.0
 10
96.33876412910215
 20
111.1289307977025
 30
0.0
 10
96.31433914255095
 20
111.0262227786269
 30
0.0
 10
96.30741756197331
 20
110.9979663573816
 30
0.0
 10
96.30506307091571
 20
110.9882856531077
 30
0.0
 10
96.30974969970652
 20
111.0073502536701
 30
0.0
 10
96.32985460895057
 20
111.0912545014833
 30
0.0
 10
96.34525277412031
 20
111.1559919895935
 30
0.0
 10
96.38551857723192
 20
111.3332363701547
 30
0.0
 10
96.4101692866609
 20
111.4449141409028
 30
0.0
 10
96.46474886557898
 20
111.7095876001451
 30
0.0
 10
96.49488822256086
 20
111.8634631808423
 30
0.0
 10
96.55759806727377
 20
112.2168247436018
 30
0.0
  0
LINE
  5
1DE
330
1F
100
AcDbEntity
  8
0
  6
HIDDEN
 62
     7
370
     0
100
AcDbLine
 10
76.2877832572
 20
99.0106593086
 30
0.0
 11
83.2877834732
 21
99.0106593086
 31
0.0
  0
SPLINE
  5
1DF
330
1F
100
AcDbEntity
  8
0
  6
HIDDEN
 62
     7
370
     0
100
AcDbSpline
210
0.0
220
0.0
230
1.0
 70
     8
 71
     3
 72
    73
 73
    69
 74
     0
 42
0.00000001
 43
0.00000001
 12
1.0
 22
0.0
 32
0.0
 13
1.0
 23
0.0
 33
0.0
 40
-0.0312499999999996
 40
-0.0312499999999996
 40
0.0
 40
0.0
 40
0.0312499999999996
 40
0.0312499999999996
 40
0.0624999999999992
 40
0.0624999999999992
 40
0.0937499999999987
 40
0.0937499999999987
 40
0.1093749999999985
 40
0.1093749999999985
 40
0.1249999999999983
 40
0.140624999999998
 40
0.140624999999998
 40
0.1562499999999978
 40
0.1562499999999978
 40
0.1874999999999975
 40
0.1874999999999975
 40
0.2187499999999973
 40
0.2187499999999973
 40
0.2499999999999969
 40
0.2499999999999969
 40
0.2812499999999966
 40
0.2812499999999966
 40
0.3124999999999963
 40
0.3124999999999963
 40
0.3749999999999957
 40
0.3749999999999957
 40
0.4062499999999955
 40
0.4062499999999955
 40
0.4374999999999959
 40
0.4374999999999959
 40
0.4687499999999964
 40
0.4687499999999964
 40
0.4999999999999969
 40
0.4999999999999969
 40
0.5312499999999973
 40
0.5312499999999973
 40
0.5624999999999978
 40
0.5624999999999978
 40
0.5937499999999983
 40
0.5937499999999983
 40
0.6249999999999988
 40
0.6249999999999988
 40
0.640624999999999
 40
0.640624999999999
 40
0.6562499999999992
 40
0.6562499999999992
 40
0.6874999999999996
 40
0.6874999999999996
 40
0.7187499999999999
 40
0.7187499999999999
 40
0.7500000000000002
 40
0.7500000000000002
 40
0.7812500000000007
 40
0.7812500000000007
 40
0.812500000000001
 40
0.812500000000001
 40
0.8437500000000013
 40
0.8437500000000013
 40
0.8750000000000017
 40
0.8750000000000017
 40
0.9062500000000012
 40
0.9062500000000012
 40
0.9375000000000009
 40
0.9375000000000009
 40
0.9687500000000004
 40
0.9687500000000004
 40
1.0
 40
1.0
 40
1.03125
 40
1.03125
 10
76.64058647752039
 20
98.30355521113782
 30
0.0
 10
76.99394804027992
 20
98.24084536642489
 30
0.0
 10
77.18871297300497
 20
98.20912957156933
 30
0.0
 10
77.61615462677676
 20
98.14855395552233
 30
0.0
 10
77.85144287417103
 20
98.11949389509287
 30
0.0
 10
78.34259133210138
 20
98.07040242045028
 30
0.0
 10
78.6001001646159
 20
98.05003438713261
 30
0.0
 10
79.00593601977525
 20
98.02810818574974
 30
0.0
 10
79.14502535440249
 20
98.02225104803172
 30
0.0
 10
79.42187929463427
 20
98.01403405719111
 30
0.0
 10
79.69929323083888
 20
98.00918621419879
 30
0.0
 10
79.97781629227084
 20
98.01114926607852
 30
0.0
 10
80.25690562382714
 20
98.01656096494438
 30
0.0
 10
80.3972480240465
 20
98.02103590125148
 30
0.0
 10
80.80793392224207
 20
98.03908386294401
 30
0.0
 10
81.07160366085212
 20
98.05728656119952
 30
0.0
 10
81.57967984629019
 20
98.10343750444142
 30
0.0
 10
81.8190173660264
 20
98.13097481810365
 30
0.0
 10
82.26089371947803
 20
98.19003549941473
 30
0.0
 10
82.46676273105855
 20
98.22204302614023
 30
0.0
 10
82.83343409911991
 20
98.28467417096097
 30
0.0
 10
82.99568576572328
 20
98.31543926605951
 30
0.0
 10
83.2800696990758
 20
98.37260214049219
 30
0.0
 10
83.40049131419572
 20
98.39867009336535
 30
0.0
 10
83.69134725637164
 20
98.46370664547831
 30
0.0
 10
83.79583924313845
 20
98.4898978729168
 30
0.0
 10
83.81007846669645
 20
98.49336107692524
 30
0.0
 10
83.79161624735058
 20
98.48881948647926
 30
0.0
 10
83.7069730375965
 20
98.4685366776629
 30
0.0
 10
83.64184967440974
 20
98.453056643839
 30
0.0
 10
83.46677585231656
 20
98.41327857129164
 30
0.0
 10
83.35592784189733
 20
98.38878069185105
 30
0.0
 10
83.08930004881489
 20
98.33377436983697
 30
0.0
 10
82.93603359985786
 20
98.30378610581586
 30
0.0
 10
82.58867523934146
 20
98.24205482374539
 30
0.0
 10
82.39229405033521
 20
98.20996430655917
 30
0.0
 10
81.96367876506483
 20
98.1490962856495
 30
0.0
 10
81.73450790405882
 20
98.1206978033228
 30
0.0
 10
81.24479451586284
 20
98.0714251313442
 30
0.0
 10
80.98005591520257
 20
98.05037298888895
 30
0.0
 10
80.44103082299443
 20
98.02107150917321
 30
0.0
 10
80.16608647227801
 20
98.01255303628824
 30
0.0
 10
79.74514114342844
 20
98.01013447013975
 30
0.0
 10
79.60298653431587
 20
98.01109147819993
 30
0.0
 10
79.32388058014764
 20
98.01641762198157
 30
0.0
 10
79.18593177317084
 20
98.02076859122616
 30
0.0
 10
78.77675771363477
 20
98.03855418483401
 30
0.0
 10
78.50713207324914
 20
98.05706074329395
 30
0.0
 10
78.0008831876391
 20
98.10292262179685
 30
0.0
 10
77.76298844150774
 20
98.13016655188403
 30
0.0
 10
77.31592551339916
 20
98.18981661140708
 30
0.0
 10
77.11265126311055
 20
98.2214273715518
 30
0.0
 10
76.74557599017744
 20
98.28404533020725
 30
0.0
 10
76.58013585083316
 20
98.31539337019932
 30
0.0
 10
76.29644526117649
 20
98.37240622540658
 30
0.0
 10
76.17704750996813
 20
98.39823642578583
 30
0.0
 10
75.98154541486657
 20
98.44193696239698
 30
0.0
 10
75.9060540943806
 20
98.45967930459653
 30
0.0
 10
75.80334607530504
 20
98.48410429114772
 30
0.0
 10
75.7750896540597
 20
98.49102587172537
 30
0.0
 10
75.76540894978578
 20
98.49338036278296
 30
0.0
 10
75.78447355034825
 20
98.48869373399216
 30
0.0
 10
75.86837779816143
 20
98.46858882474812
 30
0.0
 10
75.93311528627159
 20
98.45319065957835
 30
0.0
 10
76.11035966683282
 20
98.41292485646677
 30
0.0
 10
76.22203743758097
 20
98.38827414703776
 30
0.0
 10
76.48671089682317
 20
98.33369456811968
 30
0.0
 10
76.64058647752039
 20
98.30355521113782
 30
0.0
 10
76.99394804027992
 20
98.24084536642489
 30
0.0
  0
LINE
  5
1E0
330
1F
100
AcDbEntity
  8
0
  6
HIDDEN
 62
     7
370
     0
100
AcDbLine
 10
83.2877834732
 20
131.0106608285
 30
0.0
 11
76.2877832572
 21
131.0106608285
 31
0.0
  0
SPLINE
  5
1E1
330
1F
100
AcDbEntity
  8
0
  6
HIDDEN
 62
     7
370
     0
100
AcDbSpline
210
0.0
220
0.0
230
1.0
 70
     8
 71
     3
 72
    73
 73
    69
 74
     0
 42
0.00000001
 43
0.00000001
 12
1.0
 22
0.0
 32
0.0
 13
1.0
 23
0.0
 33
0.0
 40
-0.0312499999999996
 40
-0.0312499999999996
 40
0.0
 40
0.0
 40
0.0312499999999995
 40
0.0312499999999995
 40
0.062499999999999
 40
0.062499999999999
 40
0.0937499999999986
 40
0.0937499999999986
 40
0.1093749999999983
 40
0.1093749999999983
 40
0.1249999999999981
 40
0.1406249999999978
 40
0.1406249999999978
 40
0.1562499999999976
 40
0.1562499999999976
 40
0.1874999999999973
 40
0.1874999999999973
 40
0.218749999999997
 40
0.218749999999997
 40
0.2499999999999967
 40
0.2499999999999967
 40
0.2812499999999963
 40
0.2812499999999963
 40
0.3124999999999961
 40
0.3124999999999961
 40
0.3749999999999954
 40
0.3749999999999954
 40
0.4062499999999952
 40
0.4062499999999952
 40
0.4374999999999956
 40
0.4374999999999956
 40
0.4687499999999961
 40
0.4687499999999961
 40
0.4999999999999966
 40
0.4999999999999966
 40
0.531249999999997
 40
0.531249999999997
 40
0.5624999999999973
 40
0.5624999999999973
 40
0.5937499999999978
 40
0.5937499999999978
 40
0.6249999999999983
 40
0.6249999999999983
 40
0.6406249999999986
 40
0.6406249999999986
 40
0.6562499999999987
 40
0.6562499999999987
 40
0.6874999999999991
 40
0.6874999999999991
 40
0.7187499999999996
 40
0.7187499999999996
 40
0.7499999999999999
 40
0.7499999999999999
 40
0.7812500000000003
 40
0.7812500000000003
 40
0.8125000000000008
 40
0.8125000000000008
 40
0.8437500000000012
 40
0.8437500000000012
 40
0.8750000000000016
 40
0.8750000000000016
 40
0.9062500000000012
 40
0.9062500000000012
 40
0.9375000000000009
 40
0.9375000000000009
 40
0.9687500000000004
 40
0.9687500000000004
 40
1.0
 40
1.0
 40
1.03125
 40
1.03125
 10
82.93498025285658
 20
131.7177649258826
 30
0.0
 10
82.58161869009705
 20
131.7804747705956
 30
0.0
 10
82.386853757372
 20
131.8121905654511
 30
0.0
 10
81.95941210360019
 20
131.8727661814981
 30
0.0
 10
81.72412385620594
 20
131.9018262419276
 30
0.0
 10
81.23297539827558
 20
131.9509177165702
 30
0.0
 10
80.97546656576105
 20
131.9712857498879
 30
0.0
 10
80.5696307106017
 20
131.9932119512708
 30
0.0
 10
80.43054137597449
 20
131.9990690889888
 30
0.0
 10
80.15368743574271
 20
132.0072860798294
 30
0.0
 10
79.87627349953809
 20
132.0121339228217
 30
0.0
 10
79.59775043810613
 20
132.010170870942
 30
0.0
 10
79.31866110654984
 20
132.0047591720761
 30
0.0
 10
79.17831870633044
 20
132.000284235769
 30
0.0
 10
78.76763280813488
 20
131.9822362740765
 30
0.0
 10
78.50396306952484
 20
131.964033575821
 30
0.0
 10
77.99588688408677
 20
131.9178826325791
 30
0.0
 10
77.75654936435058
 20
131.8903453189168
 30
0.0
 10
77.31467301089893
 20
131.8312846376058
 30
0.0
 10
77.10880399931841
 20
131.7992771108803
 30
0.0
 10
76.74213263125705
 20
131.7366459660595
 30
0.0
 10
76.57988096465368
 20
131.705880870961
 30
0.0
 10
76.29549703130115
 20
131.6487179965283
 30
0.0
 10
76.17507541618126
 20
131.6226500436551
 30
0.0
 10
75.88421947400532
 20
131.5576134915422
 30
0.0
 10
75.7797274872385
 20
131.5314222641038
 30
0.0
 10
75.7654882636805
 20
131.5279590600953
 30
0.0
 10
75.78395048302639
 20
131.5325006505413
 30
0.0
 10
75.86859369278045
 20
131.5527834593576
 30
0.0
 10
75.93371705596722
 20
131.5682634931815
 30
0.0
 10
76.1087908780604
 20
131.6080415657289
 30
0.0
 10
76.21963888847964
 20
131.6325394451694
 30
0.0
 10
76.48626668156207
 20
131.6875457671835
 30
0.0
 10
76.6395331305191
 20
131.7175340312047
 30
0.0
 10
76.98689149103551
 20
131.7792653132751
 30
0.0
 10
77.18327268004175
 20
131.8113558304613
 30
0.0
 10
77.61188796531214
 20
131.872223851371
 30
0.0
 10
77.84105882631816
 20
131.9006223336977
 30
0.0
 10
78.33077221451414
 20
131.9498950056763
 30
0.0
 10
78.59551081517438
 20
131.9709471481315
 30
0.0
 10
79.13453590738254
 20
132.0002486278473
 30
0.0
 10
79.40948025809895
 20
132.0087671007322
 30
0.0
 10
79.83042558694852
 20
132.0111856668807
 30
0.0
 10
79.9725801960611
 20
132.0102286588206
 30
0.0
 10
80.25168615022932
 20
132.0049025150389
 30
0.0
 10
80.38963495720614
 20
132.0005515457943
 30
0.0
 10
80.7988090167422
 20
131.9827659521865
 30
0.0
 10
81.06843465712784
 20
131.9642593937266
 30
0.0
 10
81.57468354273784
 20
131.9183975152236
 30
0.0
 10
81.81257828886923
 20
131.8911535851364
 30
0.0
 10
82.25964121697781
 20
131.8315035256134
 30
0.0
 10
82.46291546726641
 20
131.7998927654687
 30
0.0
 10
82.82999074019953
 20
131.7372748068132
 30
0.0
 10
82.99543087954379
 20
131.7059267668212
 30
0.0
 10
83.27912146920048
 20
131.6489139116139
 30
0.0
 10
83.39851922040882
 20
131.6230837112346
 30
0.0
 10
83.59402131551039
 20
131.5793831746235
 30
0.0
 10
83.66951263599637
 20
131.5616408324239
 30
0.0
 10
83.7722206550719
 20
131.5372158458727
 30
0.0
 10
83.80047707631725
 20
131.5302942652951
 30
0.0
 10
83.81015778059118
 20
131.5279397742375
 30
0.0
 10
83.7910931800287
 20
131.5326264030283
 30
0.0
 10
83.70718893221554
 20
131.5527313122724
 30
0.0
 10
83.64245144410539
 20
131.5681294774421
 30
0.0
 10
83.46520706354414
 20
131.6083952805537
 30
0.0
 10
83.35352929279601
 20
131.6330459899827
 30
0.0
 10
83.08885583355378
 20
131.6876255689008
 30
0.0
 10
82.93498025285658
 20
131.7177649258826
 30
0.0
 10
82.58161869009705
 20
131.7804747705956
 30
0.0
  0
SPLINE
  5
1E2
330
1F
100
AcDbEntity
  8
0
  6
HIDDEN
 62
     7
370
     0
100
AcDbSpline
210
0.0
220
0.0
230
1.0
 70
    11
 71
     3
 72
    74
 73
    70
 74
     0
 42
0.00000001
 43
0.00000001
 12
1.0
 22
0.0
 32
0.0
 13
1.0
 23
0.0
 33
0.0
 40
-0.0312500000000008
 40
-0.0312500000000008
 40
0.0
 40
0.0
 40
0.0312499999999999
 40
0.0312499999999999
 40
0.0624999999999999
 40
0.0624999999999999
 40
0.0937499999999998
 40
0.0937499999999998
 40
0.1249999999999998
 40
0.1249999999999998
 40
0.1562499999999997
 40
0.1562499999999997
 40
0.1874999999999997
 40
0.1874999999999997
 40
0.2187499999999997
 40
0.2187499999999997
 40
0.2499999999999997
 40
0.2499999999999997
 40
0.2812499999999996
 40
0.2812499999999996
 40
0.3124999999999996
 40
0.3124999999999996
 40
0.3437499999999995
 40
0.3437499999999995
 40
0.3749999999999994
 40
0.3749999999999994
 40
0.4062499999999994
 40
0.4062499999999994
 40
0.4374999999999993
 40
0.4374999999999993
 40
0.4687499999999993
 40
0.4687499999999993
 40
0.4843749999999997
 40
0.4843749999999997
 40
0.5000000000000001
 40
0.5000000000000001
 40
0.53125
 40
0.53125
 40
0.5625
 40
0.5625
 40
0.5937499999999999
 40
0.5937499999999999
 40
0.6249999999999999
 40
0.6249999999999999
 40
0.6562499999999998
 40
0.6562499999999998
 40
0.6874999999999998
 40
0.6874999999999998
 40
0.7187499999999997
 40
0.7187499999999997
 40
0.7499999999999997
 40
0.7499999999999997
 40
0.7812499999999996
 40
0.7812499999999996
 40
0.8124999999999996
 40
0.8124999999999996
 40
0.8437499999999994
 40
0.8437499999999994
 40
0.8749999999999994
 40
0.8749999999999994
 40
0.9062499999999993
 40
0.9062499999999993
 40
0.9374999999999993
 40
0.9374999999999993
 40
0.9531249999999993
 40
0.9531249999999993
 40
0.9687499999999992
 40
0.9687499999999992
 40
1.0
 40
1.0
 40
1.03125
 40
1.03125
 10
83.35849757945985
 20
118.5106600685102
 30
0.0
 10
83.35849757945985
 20
118.5106600685102
 30
0.0
 10
83.38297667209041
 20
118.486105167907
 30
0.0
 10
83.47115153672232
 20
118.3925134754226
 30
0.0
 10
83.5354439559343
 20
118.3224973278448
 30
0.0
 10
83.6837500944507
 20
118.1466876800322
 30
0.0
 10
83.76884129641174
 20
118.0395693545129
 30
0.0
 10
83.94551298901789
 20
117.7920982018722
 30
0.0
 10
84.03628975400161
 20
117.6530434991816
 30
0.0
 10
84.21425082982084
 20
117.3426940551888
 30
0.0
 10
84.30194372559056
 20
117.1699394339257
 30
0.0
 10
84.46022225821145
 20
116.8018736036034
 30
0.0
 10
84.531717611408
 20
116.6053950165954
 30
0.0
 10
84.6531215484035
 20
116.1839358460017
 30
0.0
 10
84.70280167764815
 20
115.9575541558048
 30
0.0
 10
84.76944579331659
 20
115.4975408306522
 30
0.0
 10
84.78736664459353
 20
115.258044245929
 30
0.0
 10
84.78818539334743
 20
114.7804179009399
 30
0.0
 10
84.77156901850306
 20
114.5450173246354
 30
0.0
 10
84.70614865758309
 20
114.0808076857764
 30
0.0
 10
84.65753630891959
 20
113.8556602466812
 30
0.0
 10
84.53710411062663
 20
113.4319039827409
 30
0.0
 10
84.46412628795456
 20
113.2294739073168
 30
0.0
 10
84.30519379587543
 20
112.8580313794763
 30
0.0
 10
84.21893507678706
 20
112.6873982906767
 30
0.0
 10
84.03967379002518
 20
112.3736013670917
 30
0.0
 10
83.94841287856535
 20
112.2335989782365
 30
0.0
 10
83.77282824013388
 20
111.9870325135084
 30
0.0
 10
83.68756293591021
 20
111.8793221105756
 30
0.0
 10
83.53757008958196
 20
111.7011801050442
 30
0.0
 10
83.4740830147766
 20
111.6319756218449
 30
0.0
 10
83.40656824990462
 20
111.5602290255357
 30
0.0
 10
83.38871863779795
 20
111.5417182619214
 30
0.0
 10
83.36491999148654
 20
111.5171824813745
 30
0.0
 10
83.35876898569535
 20
111.5109369596246
 30
0.0
 10
83.35798117827115
 20
111.5101332312468
 30
0.0
 10
83.38214821059397
 20
111.5343564889907
 30
0.0
 10
83.47046807368697
 20
111.6280606898284
 30
0.0
 10
83.5342343936687
 20
111.697432050271
 30
0.0
 10
83.6834173874722
 20
111.8741953749307
 30
0.0
 10
83.7675508347012
 20
111.9801071646682
 30
0.0
 10
83.94317300582075
 20
112.2257835992745
 30
0.0
 10
84.03558138497225
 20
112.3671309457959
 30
0.0
 10
84.21372383626142
 20
112.6776180230176
 30
0.0
 10
84.29986207228379
 20
112.84692636517
 30
0.0
 10
84.4593360387986
 20
113.2170064186438
 30
0.0
 10
84.53278161274494
 20
113.4190521280804
 30
0.0
 10
84.65404869803048
 20
113.8411790230318
 30
0.0
 10
84.70311879797903
 20
114.0647807389912
 30
0.0
 10
84.77016131910928
 20
114.5299106045049
 30
0.0
 10
84.7873932130859
 20
114.7649815601496
 30
0.0
 10
84.78816048286049
 20
115.2401927278978
 30
0.0
 10
84.77098698799028
 20
115.4818307743511
 30
0.0
 10
84.70554837342046
 20
115.9433483895246
 30
0.0
 10
84.65684816842004
 20
116.1687926879319
 30
0.0
 10
84.53536365783762
 20
116.5948142867246
 30
0.0
 10
84.4634427654807
 20
116.7937451595627
 30
0.0
 10
84.30356012913967
 20
117.1668009469393
 30
0.0
 10
84.21621356479068
 20
117.3389818172227
 30
0.0
 10
84.03827870775453
 20
117.649857965808
 30
0.0
 10
83.94633442218229
 20
117.7908881697641
 30
0.0
 10
83.7693313347898
 20
118.038941917082
 30
0.0
 10
83.68531279363584
 20
118.1447388471326
 30
0.0
 10
83.57432403068165
 20
118.2764534097402
 30
0.0
 10
83.53986163208212
 20
118.3158168734615
 30
0.0
 10
83.47787895953037
 20
118.3848781010075
 30
0.0
 10
83.45029181167824
 20
118.4146425389427
 30
0.0
 10
83.38318156657382
 20
118.4859112669067
 30
0.0
 10
83.35849757945985
 20
118.5106600685102
 30
0.0
 10
83.35849757945985
 20
118.5106600685102
 30
0.0
  0
SPLINE
  5
1E3
330
1F
100
AcDbEntity
  8
0
  6
HIDDEN
 62
     7
370
     0
100
AcDbSpline
210
0.0
220
0.0
230
1.0
 70
    11
 71
     3
 72
    74
 73
    70
 74
     0
 42
0.00000001
 43
0.00000001
 12
1.0
 22
0.0
 32
0.0
 13
1.0
 23
0.0
 33
0.0
 40
-0.0312500000000018
 40
-0.0312500000000018
 40
0.0
 40
0.0
 40
0.0312499999999991
 40
0.0312499999999991
 40
0.0624999999999981
 40
0.0624999999999981
 40
0.0937499999999972
 40
0.0937499999999972
 40
0.1249999999999962
 40
0.1249999999999962
 40
0.1562499999999953
 40
0.1562499999999953
 40
0.1874999999999943
 40
0.1874999999999943
 40
0.2187499999999934
 40
0.2187499999999934
 40
0.2499999999999925
 40
0.2499999999999925
 40
0.2812499999999915
 40
0.2812499999999915
 40
0.3124999999999906
 40
0.3124999999999906
 40
0.3437499999999896
 40
0.3437499999999896
 40
0.3749999999999887
 40
0.3749999999999887
 40
0.4062499999999877
 40
0.4062499999999877
 40
0.4374999999999868
 40
0.4374999999999868
 40
0.4687499999999858
 40
0.4687499999999858
 40
0.4843749999999858
 40
0.4843749999999858
 40
0.4999999999999858
 40
0.4999999999999858
 40
0.5312499999999866
 40
0.5312499999999866
 40
0.5624999999999875
 40
0.5624999999999875
 40
0.5937499999999882
 40
0.5937499999999882
 40
0.6249999999999891
 40
0.6249999999999891
 40
0.6562499999999899
 40
0.6562499999999899
 40
0.6874999999999908
 40
0.6874999999999908
 40
0.7187499999999916
 40
0.7187499999999916
 40
0.7499999999999925
 40
0.7499999999999925
 40
0.7812499999999932
 40
0.7812499999999932
 40
0.8124999999999941
 40
0.8124999999999941
 40
0.8437499999999949
 40
0.8437499999999949
 40
0.8749999999999958
 40
0.8749999999999958
 40
0.9062499999999966
 40
0.9062499999999966
 40
0.9374999999999974
 40
0.9374999999999974
 40
0.9531249999999979
 40
0.9531249999999979
 40
0.9687499999999982
 40
0.9687499999999982
 40
1.0
 40
1.0
 40
1.031249999999999
 40
1.031249999999999
 10
83.28778336518842
 20
111.4399458542388
 30
0.0
 10
83.28778336518842
 20
111.4399458542388
 30
0.0
 10
83.26322846458515
 20
111.4154667616082
 30
0.0
 10
83.16963677210077
 20
111.3272918969763
 30
0.0
 10
83.09962062452297
 20
111.2629994777644
 30
0.0
 10
82.92381097671031
 20
111.1146933392479
 30
0.0
 10
82.8166926511911
 20
111.0296021372869
 30
0.0
 10
82.5692214985504
 20
110.8529304446808
 30
0.0
 10
82.43016679585982
 20
110.762153679697
 30
0.0
 10
82.11981735186698
 20
110.5841926038778
 30
0.0
 10
81.94706273060385
 20
110.4964997081081
 30
0.0
 10
81.57899690028151
 20
110.3382211754872
 30
0.0
 10
81.38251831327352
 20
110.2667258222907
 30
0.0
 10
80.96105914267989
 20
110.1453218852952
 30
0.0
 10
80.73467745248293
 20
110.0956417560505
 30
0.0
 10
80.2746641273304
 20
110.0289976403821
 30
0.0
 10
80.03516754260717
 20
110.0110767891051
 30
0.0
 10
79.55754119761805
 20
110.0102580403512
 30
0.0
 10
79.32214062131355
 20
110.0268744151956
 30
0.0
 10
78.85793098245459
 20
110.0922947761156
 30
0.0
 10
78.63278354335932
 20
110.1409071247791
 30
0.0
 10
78.20902727941906
 20
110.261339323072
 30
0.0
 10
78.006597203995
 20
110.3343171457441
 30
0.0
 10
77.63515467615446
 20
110.4932496378232
 30
0.0
 10
77.46452158735488
 20
110.5795083569116
 30
0.0
 10
77.15072466376988
 20
110.7587696436735
 30
0.0
 10
77.01072227491468
 20
110.8500305551333
 30
0.0
 10
76.76415581018658
 20
111.0256151935648
 30
0.0
 10
76.6564454072538
 20
111.1108804977885
 30
0.0
 10
76.4783034017224
 20
111.2608733441167
 30
0.0
 10
76.40909891852306
 20
111.3243604189221
 30
0.0
 10
76.33735232221383
 20
111.3918751837941
 30
0.0
 10
76.31884155859959
 20
111.4097247959007
 30
0.0
 10
76.29430577805266
 20
111.4335234422121
 30
0.0
 10
76.28806025630276
 20
111.4396744480033
 30
0.0
 10
76.287256527925
 20
111.4404622554275
 30
0.0
 10
76.31147978566884
 20
111.4162952231047
 30
0.0
 10
76.40518398650659
 20
111.3279753600117
 30
0.0
 10
76.4745553469492
 20
111.26420904003
 30
0.0
 10
76.65131867160883
 20
111.1150260462265
 30
0.0
 10
76.75723046134638
 20
111.0308925989975
 30
0.0
 10
77.00290689595266
 20
110.8552704278779
 30
0.0
 10
77.14425424247408
 20
110.7628620487264
 30
0.0
 10
77.4547413196958
 20
110.5847195974373
 30
0.0
 10
77.62404966184819
 20
110.4985813614149
 30
0.0
 10
77.99412971532193
 20
110.3391073949001
 30
0.0
 10
78.1961754247586
 20
110.2656618209537
 30
0.0
 10
78.61830231970994
 20
110.1443947356682
 30
0.0
 10
78.84190403566942
 20
110.0953246357196
 30
0.0
 10
79.30703390118303
 20
110.0282821145894
 30
0.0
 10
79.5421048568278
 20
110.0110502206127
 30
0.0
 10
80.01731602457593
 20
110.0102829508382
 30
0.0
 10
80.25895407102927
 20
110.0274564457084
 30
0.0
 10
80.7204716862028
 20
110.0928950602782
 30
0.0
 10
80.94591598461004
 20
110.1415952652786
 30
0.0
 10
81.37193758340275
 20
110.263079775861
 30
0.0
 10
81.57086845624082
 20
110.335000668218
 30
0.0
 10
81.94392424361749
 20
110.494883304559
 30
0.0
 10
82.11610511390091
 20
110.582229868908
 30
0.0
 10
82.42698126248615
 20
110.7601647259441
 30
0.0
 10
82.56801146644223
 20
110.8521090115164
 30
0.0
 10
82.8160652137602
 20
111.0291120989089
 30
0.0
 10
82.92186214381073
 20
111.1131306400628
 30
0.0
 10
83.05357670641841
 20
111.224119403017
 30
0.0
 10
83.09294017013968
 20
111.2585818016165
 30
0.0
 10
83.16200139768569
 20
111.3205644741683
 30
0.0
 10
83.19176583562083
 20
111.3481516220204
 30
0.0
 10
83.26303456358488
 20
111.4152618671248
 30
0.0
 10
83.28778336518842
 20
111.4399458542388
 30
0.0
 10
83.28778336518842
 20
111.4399458542388
 30
0.0
  0
SPLINE
  5
1E4
330
1F
100
AcDbEntity
  8
0
  6
HIDDEN
 62
     7
370
     0
100
AcDbSpline
210
0.0
220
0.0
230
1.0
 70
    11
 71
     3
 72
    74
 73
    70
 74
     0
 42
0.00000001
 43
0.00000001
 12
1.0
 22
0.0
 32
0.0
 13
1.0
 23
0.0
 33
0.0
 40
-0.0312499999999999
 40
-0.0312499999999999
 40
0.0
 40
0.0
 40
0.0312500000000009
 40
0.0312500000000009
 40
0.0625000000000018
 40
0.0625000000000018
 40
0.0937500000000027
 40
0.0937500000000027
 40
0.1250000000000036
 40
0.1250000000000036
 40
0.1562500000000044
 40
0.1562500000000044
 40
0.1875000000000053
 40
0.1875000000000053
 40
0.2187500000000062
 40
0.2187500000000062
 40
0.2500000000000071
 40
0.2500000000000071
 40
0.281250000000008
 40
0.281250000000008
 40
0.3125000000000089
 40
0.3125000000000089
 40
0.3437500000000098
 40
0.3437500000000098
 40
0.3750000000000107
 40
0.3750000000000107
 40
0.4062500000000116
 40
0.4062500000000116
 40
0.4375000000000125
 40
0.4375000000000125
 40
0.4687500000000134
 40
0.4687500000000134
 40
0.4843750000000134
 40
0.4843750000000134
 40
0.5000000000000133
 40
0.5000000000000133
 40
0.5312500000000124
 40
0.5312500000000124
 40
0.5625000000000115
 40
0.5625000000000115
 40
0.5937500000000107
 40
0.5937500000000107
 40
0.6250000000000098
 40
0.6250000000000098
 40
0.6562500000000089
 40
0.6562500000000089
 40
0.687500000000008
 40
0.687500000000008
 40
0.7187500000000071
 40
0.7187500000000071
 40
0.7500000000000062
 40
0.7500000000000062
 40
0.7812500000000054
 40
0.7812500000000054
 40
0.8125000000000046
 40
0.8125000000000046
 40
0.8437500000000037
 40
0.8437500000000037
 40
0.8750000000000028
 40
0.8750000000000028
 40
0.9062500000000019
 40
0.9062500000000019
 40
0.937500000000001
 40
0.937500000000001
 40
0.9531250000000006
 40
0.9531250000000006
 40
0.9687500000000001
 40
0.9687500000000001
 40
1.0
 40
1.0
 40
1.031250000000001
 40
1.031250000000001
 10
76.28778336518846
 20
118.5813742827817
 30
0.0
 10
76.28778336518846
 20
118.5813742827817
 30
0.0
 10
76.31233826579171
 20
118.6058533754123
 30
0.0
 10
76.40592995827609
 20
118.6940282400442
 30
0.0
 10
76.4759461058539
 20
118.7583206592562
 30
0.0
 10
76.65175575366656
 20
118.9066267977726
 30
0.0
 10
76.75887407918577
 20
118.9917179997336
 30
0.0
 10
77.00634523182646
 20
119.1683896923397
 30
0.0
 10
77.14539993451706
 20
119.2591664573235
 30
0.0
 10
77.45574937850989
 20
119.4371275331427
 30
0.0
 10
77.62850399977305
 20
119.5248204289124
 30
0.0
 10
77.99656983009537
 20
119.6830989615333
 30
0.0
 10
78.19304841710337
 20
119.7545943147298
 30
0.0
 10
78.61450758769699
 20
119.8759982517253
 30
0.0
 10
78.84088927789395
 20
119.92567838097
 30
0.0
 10
79.3009026030465
 20
119.9923224966384
 30
0.0
 10
79.54039918776971
 20
120.0102433479153
 30
0.0
 10
80.01802553275883
 20
120.0110620966693
 30
0.0
 10
80.25342610906331
 20
119.9944457218249
 30
0.0
 10
80.71763574792229
 20
119.9290253609049
 30
0.0
 10
80.94278318701754
 20
119.8804130122414
 30
0.0
 10
81.36653945095783
 20
119.7599808139484
 30
0.0
 10
81.56896952638188
 20
119.6870029912764
 30
0.0
 10
81.9404120542224
 20
119.5280704991972
 30
0.0
 10
82.111045143022
 20
119.4418117801089
 30
0.0
 10
82.42484206660701
 20
119.262550493347
 30
0.0
 10
82.5648444554622
 20
119.1712895818871
 30
0.0
 10
82.81141092019028
 20
118.9957049434557
 30
0.0
 10
82.91912132312306
 20
118.910439639232
 30
0.0
 10
83.09726332865446
 20
118.7604467929037
 30
0.0
 10
83.16646781185382
 20
118.6969597180984
 30
0.0
 10
83.23821440816303
 20
118.6294449532264
 30
0.0
 10
83.25672517177729
 20
118.6115953411197
 30
0.0
 10
83.28126095232422
 20
118.5877966948083
 30
0.0
 10
83.2875064740741
 20
118.5816456890171
 30
0.0
 10
83.28831020245188
 20
118.5808578815929
 30
0.0
 10
83.26408694470804
 20
118.6050249139158
 30
0.0
 10
83.17038274387029
 20
118.6933447770088
 30
0.0
 10
83.10101138342766
 20
118.7571110969905
 30
0.0
 10
82.92424805876804
 20
118.906294090794
 30
0.0
 10
82.81833626903048
 20
118.990427538023
 30
0.0
 10
82.5726598344242
 20
119.1660497091425
 30
0.0
 10
82.43131248790279
 20
119.258458088294
 30
0.0
 10
82.12082541068106
 20
119.4366005395832
 30
0.0
 10
81.95151706852869
 20
119.5227387756056
 30
0.0
 10
81.58143701505493
 20
119.6822127421204
 30
0.0
 10
81.37939130561828
 20
119.7556583160667
 30
0.0
 10
80.95726441066694
 20
119.8769254013523
 30
0.0
 10
80.73366269470748
 20
119.9259955013008
 30
0.0
 10
80.26853282919386
 20
119.9930380224311
 30
0.0
 10
80.03346187354909
 20
120.0102699164077
 30
0.0
 10
79.55825070580094
 20
120.0110371861823
 30
0.0
 10
79.31661265934763
 20
119.9938636913121
 30
0.0
 10
78.85509504417406
 20
119.9284250767423
 30
0.0
 10
78.62965074576685
 20
119.8797248717419
 30
0.0
 10
78.20362914697414
 20
119.7582403611595
 30
0.0
 10
78.00469827413606
 20
119.6863194688025
 30
0.0
 10
77.63164248675939
 20
119.5264368324615
 30
0.0
 10
77.45946161647596
 20
119.4390902681125
 30
0.0
 10
77.14858546789073
 20
119.2611554110764
 30
0.0
 10
77.00755526393465
 20
119.1692111255041
 30
0.0
 10
76.75950151661668
 20
118.9922080381116
 30
0.0
 10
76.65370458656615
 20
118.9081894969577
 30
0.0
 10
76.52199002395845
 20
118.7972007340035
 30
0.0
 10
76.4826265602372
 20
118.762738335404
 30
0.0
 10
76.41356533269118
 20
118.7007556628522
 30
0.0
 10
76.38380089475604
 20
118.6731685150001
 30
0.0
 10
76.31253216679197
 20
118.6060582698957
 30
0.0
 10
76.28778336518846
 20
118.5813742827817
 30
0.0
 10
76.28778336518846
 20
118.5813742827817
 30
0.0
  0
LINE
  5
1E5
330
1F
100
AcDbEntity
  8
0
  6
HIDDEN
 62
     7
370
     0
100
AcDbLine
 10
83.2877834732
 20
99.0106593086
 30
0.0
 11
76.3036315734
 21
99.0106593086
 31
0.0
  0
SPLINE
  5
1E6
330
1F
100
AcDbEntity
  8
0
  6
HIDDEN
 62
     7
370
     0
100
AcDbSpline
210
0.0
220
0.0
230
1.0
 70
     8
 71
     3
 72
    73
 73
    69
 74
     0
 42
0.00000001
 43
0.00000001
 12
1.0
 22
0.0
 32
0.0
 13
1.0
 23
0.0
 33
0.0
 40
-0.0312500000000001
 40
-0.0312500000000001
 40
0.0
 40
0.0
 40
0.0312499999999999
 40
0.0312499999999999
 40
0.0624999999999998
 40
0.0624999999999998
 40
0.0937499999999997
 40
0.0937499999999997
 40
0.1093749999999996
 40
0.1093749999999996
 40
0.1249999999999996
 40
0.1406249999999995
 40
0.1406249999999995
 40
0.1562499999999994
 40
0.1562499999999994
 40
0.1874999999999994
 40
0.1874999999999994
 40
0.2187499999999995
 40
0.2187499999999995
 40
0.2499999999999995
 40
0.2499999999999995
 40
0.2812499999999995
 40
0.2812499999999995
 40
0.3124999999999995
 40
0.3124999999999995
 40
0.3749999999999996
 40
0.3749999999999996
 40
0.4062499999999997
 40
0.4062499999999997
 40
0.4374999999999997
 40
0.4374999999999997
 40
0.4687499999999997
 40
0.4687499999999997
 40
0.4999999999999997
 40
0.4999999999999997
 40
0.5312499999999997
 40
0.5312499999999997
 40
0.5624999999999997
 40
0.5624999999999997
 40
0.5937499999999997
 40
0.5937499999999997
 40
0.6249999999999997
 40
0.6249999999999997
 40
0.6406249999999998
 40
0.6406249999999998
 40
0.6562499999999998
 40
0.6562499999999998
 40
0.6874999999999998
 40
0.6874999999999998
 40
0.7187499999999998
 40
0.7187499999999998
 40
0.7499999999999998
 40
0.7499999999999998
 40
0.7812499999999999
 40
0.7812499999999999
 40
0.8124999999999999
 40
0.8124999999999999
 40
0.8437499999999999
 40
0.8437499999999999
 40
0.8749999999999999
 40
0.8749999999999999
 40
0.9062499999999999
 40
0.9062499999999999
 40
0.9374999999999999
 40
0.9374999999999999
 40
0.9687499999999999
 40
0.9687499999999999
 40
1.0
 40
1.0
 40
1.03125
 40
1.03125
 10
76.64058647752039
 20
98.30355521113782
 30
0.0
 10
76.99394804027992
 20
98.2408453664249
 30
0.0
 10
77.18871297300497
 20
98.20912957156933
 30
0.0
 10
77.61615462677676
 20
98.14855395552233
 30
0.0
 10
77.85144287417103
 20
98.11949389509287
 30
0.0
 10
78.34259133210138
 20
98.07040242045028
 30
0.0
 10
78.6001001646159
 20
98.0500343871326
 30
0.0
 10
79.00593601977525
 20
98.02810818574974
 30
0.0
 10
79.14502535440249
 20
98.02225104803172
 30
0.0
 10
79.42187929463427
 20
98.01403405719111
 30
0.0
 10
79.69929323083888
 20
98.00918621419879
 30
0.0
 10
79.97781629227084
 20
98.01114926607853
 30
0.0
 10
80.25690562382714
 20
98.01656096494438
 30
0.0
 10
80.39724802404652
 20
98.02103590125148
 30
0.0
 10
80.80793392224209
 20
98.03908386294401
 30
0.0
 10
81.07160366085213
 20
98.05728656119952
 30
0.0
 10
81.57967984629019
 20
98.10343750444142
 30
0.0
 10
81.8190173660264
 20
98.13097481810364
 30
0.0
 10
82.26089371947803
 20
98.19003549941473
 30
0.0
 10
82.46676273105857
 20
98.22204302614023
 30
0.0
 10
82.83343409911991
 20
98.28467417096098
 30
0.0
 10
82.99568576572328
 20
98.31543926605951
 30
0.0
 10
83.2800696990758
 20
98.3726021404922
 30
0.0
 10
83.40049131419572
 20
98.39867009336537
 30
0.0
 10
83.69134725637164
 20
98.46370664547833
 30
0.0
 10
83.79583924313845
 20
98.48989787291679
 30
0.0
 10
83.81007846669645
 20
98.49336107692525
 30
0.0
 10
83.79161624735059
 20
98.48881948647926
 30
0.0
 10
83.7069730375965
 20
98.46853667766291
 30
0.0
 10
83.64184967440974
 20
98.453056643839
 30
0.0
 10
83.46677585231657
 20
98.41327857129164
 30
0.0
 10
83.35592784189733
 20
98.38878069185104
 30
0.0
 10
83.08930004881489
 20
98.33377436983699
 30
0.0
 10
82.93603359985786
 20
98.30378610581586
 30
0.0
 10
82.58867523934146
 20
98.2420548237454
 30
0.0
 10
82.39229405033521
 20
98.20996430655917
 30
0.0
 10
81.96367876506483
 20
98.14909628564949
 30
0.0
 10
81.73450790405882
 20
98.1206978033228
 30
0.0
 10
81.24479451586284
 20
98.0714251313442
 30
0.0
 10
80.98005591520257
 20
98.05037298888894
 30
0.0
 10
80.44103082299442
 20
98.02107150917323
 30
0.0
 10
80.16608647227801
 20
98.01255303628825
 30
0.0
 10
79.74514114342843
 20
98.01013447013975
 30
0.0
 10
79.60298653431586
 20
98.01109147819992
 30
0.0
 10
79.32388058014764
 20
98.01641762198157
 30
0.0
 10
79.18593177317082
 20
98.02076859122616
 30
0.0
 10
78.77675771363475
 20
98.03855418483401
 30
0.0
 10
78.50713207324912
 20
98.05706074329395
 30
0.0
 10
78.00088318763909
 20
98.10292262179685
 30
0.0
 10
77.76298844150773
 20
98.13016655188403
 30
0.0
 10
77.31592551339915
 20
98.18981661140708
 30
0.0
 10
77.11265126311054
 20
98.22142737155178
 30
0.0
 10
76.74557599017743
 20
98.28404533020725
 30
0.0
 10
76.58013585083316
 20
98.3153933701993
 30
0.0
 10
76.29644526117647
 20
98.37240622540658
 30
0.0
 10
76.17704750996813
 20
98.39823642578584
 30
0.0
 10
75.98154541486657
 20
98.44193696239698
 30
0.0
 10
75.9060540943806
 20
98.45967930459653
 30
0.0
 10
75.80334607530504
 20
98.48410429114773
 30
0.0
 10
75.7750896540597
 20
98.49102587172538
 30
0.0
 10
75.76540894978577
 20
98.49338036278296
 30
0.0
 10
75.78447355034825
 20
98.48869373399216
 30
0.0
 10
75.86837779816142
 20
98.46858882474811
 30
0.0
 10
75.93311528627159
 20
98.45319065957837
 30
0.0
 10
76.11035966683282
 20
98.41292485646677
 30
0.0
 10
76.22203743758097
 20
98.38827414703776
 30
0.0
 10
76.48671089682318
 20
98.33369456811968
 30
0.0
 10
76.64058647752039
 20
98.30355521113782
 30
0.0
 10
76.99394804027992
 20
98.2408453664249
 30
0.0
  0
LINE
  5
1E7
330
1F
100
AcDbEntity
  8
0
  6
HIDDEN
 62
     7
370
     0
100
AcDbLine
 10
76.2877832572
 20
131.0106608285
 30
0.0
 11
83.271935157
 21
131.0106608285
 31
0.0
  0
SPLINE
  5
1E8
330
1F
100
AcDbEntity
  8
0
  6
HIDDEN
 62
     7
370
     0
100
AcDbSpline
210
0.0
220
0.0
230
1.0
 70
     8
 71
     3
 72
    73
 73
    69
 74
     0
 42
0.00000001
 43
0.00000001
 12
1.0
 22
0.0
 32
0.0
 13
1.0
 23
0.0
 33
0.0
 40
-0.03125
 40
-0.03125
 40
0.0
 40
0.0
 40
0.0312499999999999
 40
0.0312499999999999
 40
0.0624999999999998
 40
0.0624999999999998
 40
0.0937499999999997
 40
0.0937499999999997
 40
0.1093749999999996
 40
0.1093749999999996
 40
0.1249999999999996
 40
0.1406249999999995
 40
0.1406249999999995
 40
0.1562499999999994
 40
0.1562499999999994
 40
0.1874999999999994
 40
0.1874999999999994
 40
0.2187499999999995
 40
0.2187499999999995
 40
0.2499999999999995
 40
0.2499999999999995
 40
0.2812499999999995
 40
0.2812499999999995
 40
0.3124999999999995
 40
0.3124999999999995
 40
0.3749999999999996
 40
0.3749999999999996
 40
0.4062499999999997
 40
0.4062499999999997
 40
0.4374999999999997
 40
0.4374999999999997
 40
0.4687499999999998
 40
0.4687499999999998
 40
0.4999999999999998
 40
0.4999999999999998
 40
0.5312499999999998
 40
0.5312499999999998
 40
0.5624999999999998
 40
0.5624999999999998
 40
0.5937499999999998
 40
0.5937499999999998
 40
0.6249999999999998
 40
0.6249999999999998
 40
0.6406249999999999
 40
0.6406249999999999
 40
0.6562499999999999
 40
0.6562499999999999
 40
0.6874999999999999
 40
0.6874999999999999
 40
0.7187499999999999
 40
0.7187499999999999
 40
0.7499999999999999
 40
0.7499999999999999
 40
0.78125
 40
0.78125
 40
0.8125
 40
0.8125
 40
0.84375
 40
0.84375
 40
0.875
 40
0.875
 40
0.90625
 40
0.90625
 40
0.9375
 40
0.9375
 40
0.96875
 40
0.96875
 40
1.0
 40
1.0
 40
1.03125
 40
1.03125
 10
82.93498025285658
 20
131.7177649258826
 30
0.0
 10
82.58161869009705
 20
131.7804747705956
 30
0.0
 10
82.386853757372
 20
131.8121905654511
 30
0.0
 10
81.95941210360019
 20
131.8727661814981
 30
0.0
 10
81.72412385620594
 20
131.9018262419276
 30
0.0
 10
81.23297539827558
 20
131.9509177165702
 30
0.0
 10
80.97546656576105
 20
131.9712857498879
 30
0.0
 10
80.5696307106017
 20
131.9932119512708
 30
0.0
 10
80.43054137597449
 20
131.9990690889888
 30
0.0
 10
80.15368742104728
 20
132.0072860021893
 30
0.0
 10
79.87627349953809
 20
132.0121339228217
 30
0.0
 10
79.59775043810612
 20
132.010170870942
 30
0.0
 10
79.31866110654984
 20
132.0047591720761
 30
0.0
 10
79.17831870633044
 20
132.000284235769
 30
0.0
 10
78.76763280813488
 20
131.9822362740765
 30
0.0
 10
78.50396306952484
 20
131.964033575821
 30
0.0
 10
77.99588688408677
 20
131.9178826325791
 30
0.0
 10
77.75654936435058
 20
131.8903453189168
 30
0.0
 10
77.31467301089891
 20
131.8312846376058
 30
0.0
 10
77.10880399931841
 20
131.7992771108803
 30
0.0
 10
76.74213263125704
 20
131.7366459660595
 30
0.0
 10
76.57988096465368
 20
131.705880870961
 30
0.0
 10
76.29549703130115
 20
131.6487179965283
 30
0.0
 10
76.17507541618124
 20
131.6226500436551
 30
0.0
 10
75.8842194740053
 20
131.5576134915422
 30
0.0
 10
75.7797274872385
 20
131.5314222641037
 30
0.0
 10
75.7654882636805
 20
131.5279590600953
 30
0.0
 10
75.78395048302639
 20
131.5325006505413
 30
0.0
 10
75.86859369278045
 20
131.5527834593576
 30
0.0
 10
75.93371705596722
 20
131.5682634931815
 30
0.0
 10
76.1087908780604
 20
131.6080415657289
 30
0.0
 10
76.21963888847964
 20
131.6325394451694
 30
0.0
 10
76.48626668156207
 20
131.6875457671835
 30
0.0
 10
76.6395331305191
 20
131.7175340312047
 30
0.0
 10
76.98689149103551
 20
131.7792653132751
 30
0.0
 10
77.18327268004175
 20
131.8113558304613
 30
0.0
 10
77.61188796531214
 20
131.872223851371
 30
0.0
 10
77.84105882631816
 20
131.9006223336977
 30
0.0
 10
78.33077221451413
 20
131.9498950056763
 30
0.0
 10
78.59551081517439
 20
131.9709471481315
 30
0.0
 10
79.13453590738254
 20
132.0002486278473
 30
0.0
 10
79.40948025809897
 20
132.0087671007322
 30
0.0
 10
79.83042558694852
 20
132.0111856668807
 30
0.0
 10
79.9725801960611
 20
132.0102286588206
 30
0.0
 10
80.25168615022932
 20
132.0049025150389
 30
0.0
 10
80.38963495720616
 20
132.0005515457943
 30
0.0
 10
80.7988090167422
 20
131.9827659521865
 30
0.0
 10
81.06843465712784
 20
131.9642593937265
 30
0.0
 10
81.57468354273786
 20
131.9183975152236
 30
0.0
 10
81.81257828886923
 20
131.8911535851364
 30
0.0
 10
82.25964121697781
 20
131.8315035256134
 30
0.0
 10
82.46291546726643
 20
131.7998927654687
 30
0.0
 10
82.82999074019955
 20
131.7372748068132
 30
0.0
 10
82.9954308795438
 20
131.7059267668212
 30
0.0
 10
83.27912146920048
 20
131.6489139116139
 30
0.0
 10
83.39851922040882
 20
131.6230837112346
 30
0.0
 10
83.59402131551039
 20
131.5793831746235
 30
0.0
 10
83.66951263599638
 20
131.5616408324239
 30
0.0
 10
83.77222065507192
 20
131.5372158458727
 30
0.0
 10
83.80047707631725
 20
131.5302942652951
 30
0.0
 10
83.81015778059118
 20
131.5279397742375
 30
0.0
 10
83.7910931800287
 20
131.5326264030283
 30
0.0
 10
83.70718893221554
 20
131.5527313122724
 30
0.0
 10
83.64245144410538
 20
131.5681294774421
 30
0.0
 10
83.46520706354414
 20
131.6083952805537
 30
0.0
 10
83.35352929279601
 20
131.6330459899827
 30
0.0
 10
83.08885583355378
 20
131.6876255689008
 30
0.0
 10
82.93498025285658
 20
131.7177649258826
 30
0.0
 10
82.58161869009705
 20
131.7804747705956
 30
0.0
  0
SPLINE
  5
1E9
330
1F
100
AcDbEntity
  8
0
  6
HIDDEN
 62
     7
370
     0
100
AcDbSpline
210
0.0
220
0.0
230
1.0
 70
    11
 71
     3
 72
    74
 73
    70
 74
     0
 42
0.00000001
 43
0.00000001
 12
1.0
 22
0.0
 32
0.0
 13
1.0
 23
0.0
 33
0.0
 40
-0.0312500000000001
 40
-0.0312500000000001
 40
0.0
 40
0.0
 40
0.03125
 40
0.03125
 40
0.0625000000000001
 40
0.0625000000000001
 40
0.0937500000000001
 40
0.0937500000000001
 40
0.1250000000000002
 40
0.1250000000000002
 40
0.1562500000000002
 40
0.1562500000000002
 40
0.1875000000000002
 40
0.1875000000000002
 40
0.2187500000000003
 40
0.2187500000000003
 40
0.2500000000000003
 40
0.2500000000000003
 40
0.2812500000000003
 40
0.2812500000000003
 40
0.3125000000000004
 40
0.3125000000000004
 40
0.3437500000000004
 40
0.3437500000000004
 40
0.3750000000000004
 40
0.3750000000000004
 40
0.4062500000000005
 40
0.4062500000000005
 40
0.4375000000000006
 40
0.4375000000000006
 40
0.4687500000000006
 40
0.4687500000000006
 40
0.4843750000000002
 40
0.4843750000000002
 40
0.4999999999999998
 40
0.4999999999999998
 40
0.5312499999999998
 40
0.5312499999999998
 40
0.5624999999999999
 40
0.5624999999999999
 40
0.5937499999999999
 40
0.5937499999999999
 40
0.625
 40
0.625
 40
0.65625
 40
0.65625
 40
0.6875000000000001
 40
0.6875000000000001
 40
0.7187500000000001
 40
0.7187500000000001
 40
0.7500000000000001
 40
0.7500000000000001
 40
0.7812500000000002
 40
0.7812500000000002
 40
0.8125000000000002
 40
0.8125000000000002
 40
0.8437500000000003
 40
0.8437500000000003
 40
0.8750000000000003
 40
0.8750000000000003
 40
0.9062500000000004
 40
0.9062500000000004
 40
0.9375000000000004
 40
0.9375000000000004
 40
0.9531250000000001
 40
0.9531250000000001
 40
0.9687499999999999
 40
0.9687499999999999
 40
1.0
 40
1.0
 40
1.03125
 40
1.03125
 10
83.28778336518842
 20
111.4399458542388
 30
0.0
 10
83.28778336518842
 20
111.4399458542388
 30
0.0
 10
83.26322846458515
 20
111.4154667616082
 30
0.0
 10
83.16963677210077
 20
111.3272918969763
 30
0.0
 10
83.09962062452297
 20
111.2629994777644
 30
0.0
 10
82.92381097671031
 20
111.1146933392479
 30
0.0
 10
82.8166926511911
 20
111.0296021372869
 30
0.0
 10
82.5692214985504
 20
110.8529304446808
 30
0.0
 10
82.43016679585982
 20
110.762153679697
 30
0.0
 10
82.11981735186698
 20
110.5841926038778
 30
0.0
 10
81.94706273060385
 20
110.4964997081081
 30
0.0
 10
81.57899690028151
 20
110.3382211754872
 30
0.0
 10
81.38251831327352
 20
110.2667258222907
 30
0.0
 10
80.9610591426799
 20
110.1453218852952
 30
0.0
 10
80.73467745248293
 20
110.0956417560505
 30
0.0
 10
80.2746641273304
 20
110.0289976403821
 30
0.0
 10
80.03516754260717
 20
110.0110767891051
 30
0.0
 10
79.55754119761805
 20
110.0102580403512
 30
0.0
 10
79.32214062131357
 20
110.0268744151956
 30
0.0
 10
78.85793098245459
 20
110.0922947761156
 30
0.0
 10
78.63278354335934
 20
110.1409071247791
 30
0.0
 10
78.20902727941906
 20
110.261339323072
 30
0.0
 10
78.00659720399501
 20
110.3343171457441
 30
0.0
 10
77.63515467615447
 20
110.4932496378232
 30
0.0
 10
77.46452158735488
 20
110.5795083569116
 30
0.0
 10
77.15072466376988
 20
110.7587696436735
 30
0.0
 10
77.01072227491468
 20
110.8500305551333
 30
0.0
 10
76.76415581018658
 20
111.0256151935648
 30
0.0
 10
76.6564454072538
 20
111.1108804977885
 30
0.0
 10
76.4783034017224
 20
111.2608733441167
 30
0.0
 10
76.40909891852306
 20
111.3243604189221
 30
0.0
 10
76.33735232221383
 20
111.3918751837941
 30
0.0
 10
76.31884155859959
 20
111.4097247959007
 30
0.0
 10
76.29430577805266
 20
111.4335234422121
 30
0.0
 10
76.28806025630276
 20
111.4396744480033
 30
0.0
 10
76.287256527925
 20
111.4404622554275
 30
0.0
 10
76.31147978566884
 20
111.4162952231047
 30
0.0
 10
76.40518398650659
 20
111.3279753600117
 30
0.0
 10
76.4745553469492
 20
111.26420904003
 30
0.0
 10
76.65131867160882
 20
111.1150260462265
 30
0.0
 10
76.75723046134638
 20
111.0308925989975
 30
0.0
 10
77.00290689595266
 20
110.8552704278779
 30
0.0
 10
77.14425424247408
 20
110.7628620487264
 30
0.0
 10
77.4547413196958
 20
110.5847195974373
 30
0.0
 10
77.62404966184819
 20
110.4985813614149
 30
0.0
 10
77.99412971532193
 20
110.3391073949001
 30
0.0
 10
78.19617542475858
 20
110.2656618209537
 30
0.0
 10
78.61830231970994
 20
110.1443947356682
 30
0.0
 10
78.8419040356694
 20
110.0953246357196
 30
0.0
 10
79.30703390118302
 20
110.0282821145894
 30
0.0
 10
79.54210485682779
 20
110.0110502206127
 30
0.0
 10
80.01731602457593
 20
110.0102829508382
 30
0.0
 10
80.25895407102925
 20
110.0274564457084
 30
0.0
 10
80.7204716862028
 20
110.0928950602782
 30
0.0
 10
80.94591598461004
 20
110.1415952652786
 30
0.0
 10
81.37193758340275
 20
110.263079775861
 30
0.0
 10
81.57086845624082
 20
110.335000668218
 30
0.0
 10
81.94392424361749
 20
110.494883304559
 30
0.0
 10
82.11610511390091
 20
110.582229868908
 30
0.0
 10
82.42698126248615
 20
110.7601647259441
 30
0.0
 10
82.56801146644223
 20
110.8521090115164
 30
0.0
 10
82.8160652137602
 20
111.0291120989089
 30
0.0
 10
82.92186214381073
 20
111.1131306400628
 30
0.0
 10
83.0535767064184
 20
111.224119403017
 30
0.0
 10
83.09294017013968
 20
111.2585818016165
 30
0.0
 10
83.16200139768569
 20
111.3205644741683
 30
0.0
 10
83.19176583562083
 20
111.3481516220204
 30
0.0
 10
83.26303456358488
 20
111.4152618671248
 30
0.0
 10
83.28778336518842
 20
111.4399458542388
 30
0.0
 10
83.28778336518842
 20
111.4399458542388
 30
0.0
  0
SPLINE
  5
1EA
330
1F
100
AcDbEntity
  8
0
  6
HIDDEN
 62
     7
370
     0
100
AcDbSpline
210
0.0
220
0.0
230
1.0
 70
    11
 71
     3
 72
    74
 73
    70
 74
     0
 42
0.00000001
 43
0.00000001
 12
1.0
 22
0.0
 32
0.0
 13
1.0
 23
0.0
 33
0.0
 40
-0.0312499999999999
 40
-0.0312499999999999
 40
0.0
 40
0.0
 40
0.03125
 40
0.03125
 40
0.0625
 40
0.0625
 40
0.09375
 40
0.09375
 40
0.125
 40
0.125
 40
0.15625
 40
0.15625
 40
0.1875
 40
0.1875
 40
0.21875
 40
0.21875
 40
0.25
 40
0.25
 40
0.2812499999999999
 40
0.2812499999999999
 40
0.3124999999999999
 40
0.3124999999999999
 40
0.3437499999999999
 40
0.3437499999999999
 40
0.3749999999999999
 40
0.3749999999999999
 40
0.40625
 40
0.40625
 40
0.4375
 40
0.4375
 40
0.46875
 40
0.46875
 40
0.4843749999999996
 40
0.4843749999999996
 40
0.4999999999999991
 40
0.4999999999999991
 40
0.5312499999999991
 40
0.5312499999999991
 40
0.5624999999999991
 40
0.5624999999999991
 40
0.5937499999999991
 40
0.5937499999999991
 40
0.6249999999999991
 40
0.6249999999999991
 40
0.6562499999999991
 40
0.6562499999999991
 40
0.6874999999999991
 40
0.6874999999999991
 40
0.7187499999999991
 40
0.7187499999999991
 40
0.7499999999999991
 40
0.7499999999999991
 40
0.7812499999999992
 40
0.7812499999999992
 40
0.8124999999999992
 40
0.8124999999999992
 40
0.8437499999999992
 40
0.8437499999999992
 40
0.8749999999999992
 40
0.8749999999999992
 40
0.9062499999999992
 40
0.9062499999999992
 40
0.9374999999999992
 40
0.9374999999999992
 40
0.9531249999999997
 40
0.9531249999999997
 40
0.9687500000000001
 40
0.9687500000000001
 40
1.0
 40
1.0
 40
1.03125
 40
1.03125
 10
76.28778336518846
 20
118.5813742827817
 30
0.0
 10
76.28778336518846
 20
118.5813742827817
 30
0.0
 10
76.31233826579171
 20
118.6058533754123
 30
0.0
 10
76.40592995827609
 20
118.6940282400442
 30
0.0
 10
76.4759461058539
 20
118.7583206592562
 30
0.0
 10
76.65175575366656
 20
118.9066267977726
 30
0.0
 10
76.75887407918577
 20
118.9917179997336
 30
0.0
 10
77.00634523182646
 20
119.1683896923397
 30
0.0
 10
77.14539993451706
 20
119.2591664573235
 30
0.0
 10
77.4557493785099
 20
119.4371275331427
 30
0.0
 10
77.62850399977305
 20
119.5248204289124
 30
0.0
 10
77.99656983009537
 20
119.6830989615333
 30
0.0
 10
78.19304841710337
 20
119.7545943147298
 30
0.0
 10
78.61450758769699
 20
119.8759982517253
 30
0.0
 10
78.84088927789395
 20
119.92567838097
 30
0.0
 10
79.3009026030465
 20
119.9923224966384
 30
0.0
 10
79.54039918776971
 20
120.0102433479153
 30
0.0
 10
80.01802553275883
 20
120.0110620966693
 30
0.0
 10
80.25342610906331
 20
119.9944457218249
 30
0.0
 10
80.71763574792229
 20
119.9290253609049
 30
0.0
 10
80.94278318701754
 20
119.8804130122414
 30
0.0
 10
81.36653945095783
 20
119.7599808139484
 30
0.0
 10
81.56896952638188
 20
119.6870029912764
 30
0.0
 10
81.9404120542224
 20
119.5280704991972
 30
0.0
 10
82.111045143022
 20
119.4418117801089
 30
0.0
 10
82.42484206660701
 20
119.262550493347
 30
0.0
 10
82.5648444554622
 20
119.1712895818871
 30
0.0
 10
82.81141092019028
 20
118.9957049434557
 30
0.0
 10
82.91912132312306
 20
118.910439639232
 30
0.0
 10
83.09726332865448
 20
118.7604467929037
 30
0.0
 10
83.16646781185382
 20
118.6969597180984
 30
0.0
 10
83.23821440816303
 20
118.6294449532264
 30
0.0
 10
83.25672517177729
 20
118.6115953411197
 30
0.0
 10
83.28126095232422
 20
118.5877966948083
 30
0.0
 10
83.2875064740741
 20
118.5816456890171
 30
0.0
 10
83.28831020245188
 20
118.5808578815929
 30
0.0
 10
83.26408694470804
 20
118.6050249139158
 30
0.0
 10
83.17038274387029
 20
118.6933447770088
 30
0.0
 10
83.10101138342766
 20
118.7571110969905
 30
0.0
 10
82.92424805876804
 20
118.906294090794
 30
0.0
 10
82.81833626903048
 20
118.990427538023
 30
0.0
 10
82.5726598344242
 20
119.1660497091425
 30
0.0
 10
82.4313124879028
 20
119.258458088294
 30
0.0
 10
82.12082541068106
 20
119.4366005395832
 30
0.0
 10
81.95151706852869
 20
119.5227387756056
 30
0.0
 10
81.58143701505493
 20
119.6822127421204
 30
0.0
 10
81.37939130561827
 20
119.7556583160668
 30
0.0
 10
80.95726441066694
 20
119.8769254013523
 30
0.0
 10
80.73366269470748
 20
119.9259955013008
 30
0.0
 10
80.26853282919386
 20
119.9930380224311
 30
0.0
 10
80.03346187354909
 20
120.0102699164077
 30
0.0
 10
79.55825070580096
 20
120.0110371861823
 30
0.0
 10
79.31661265934763
 20
119.9938636913121
 30
0.0
 10
78.85509504417406
 20
119.9284250767423
 30
0.0
 10
78.62965074576684
 20
119.8797248717419
 30
0.0
 10
78.20362914697412
 20
119.7582403611595
 30
0.0
 10
78.00469827413606
 20
119.6863194688025
 30
0.0
 10
77.63164248675939
 20
119.5264368324615
 30
0.0
 10
77.45946161647596
 20
119.4390902681125
 30
0.0
 10
77.14858546789071
 20
119.2611554110764
 30
0.0
 10
77.00755526393465
 20
119.1692111255041
 30
0.0
 10
76.75950151661668
 20
118.9922080381117
 30
0.0
 10
76.65370458656615
 20
118.9081894969577
 30
0.0
 10
76.52199002395845
 20
118.7972007340035
 30
0.0
 10
76.4826265602372
 20
118.762738335404
 30
0.0
 10
76.41356533269118
 20
118.7007556628522
 30
0.0
 10
76.38380089475605
 20
118.6731685150001
 30
0.0
 10
76.31253216679198
 20
118.6060582698957
 30
0.0
 10
76.28778336518846
 20
118.5813742827817
 30
0.0
 10
76.28778336518846
 20
118.5813742827817
 30
0.0
  0
LINE
  5
1EB
330
1F
100
AcDbEntity
  8
0
  6
HIDDEN
 62
     7
370
     0
100
AcDbLine
 10
83.2877834732
 20
99.0106593086
 30
0.0
 11
76.3036315734
 21
99.0106593086
 31
0.0
  0
SPLINE
  5
1EC
330
1F
100
AcDbEntity
  8
0
  6
HIDDEN
 62
     7
370
     0
100
AcDbSpline
210
0.0
220
0.0
230
1.0
 70
     8
 71
     3
 72
    73
 73
    69
 74
     0
 42
0.00000001
 43
0.00000001
 12
1.0
 22
0.0
 32
0.0
 13
1.0
 23
0.0
 33
0.0
 40
-0.0312499999999999
 40
-0.0312499999999999
 40
0.0
 40
0.0
 40
0.0312499999999999
 40
0.0312499999999999
 40
0.0624999999999998
 40
0.0624999999999998
 40
0.0937499999999997
 40
0.0937499999999997
 40
0.1093749999999996
 40
0.1093749999999996
 40
0.1249999999999996
 40
0.1406249999999995
 40
0.1406249999999995
 40
0.1562499999999994
 40
0.1562499999999994
 40
0.1874999999999995
 40
0.1874999999999995
 40
0.2187499999999996
 40
0.2187499999999996
 40
0.2499999999999996
 40
0.2499999999999996
 40
0.2812499999999997
 40
0.2812499999999997
 40
0.3124999999999997
 40
0.3124999999999997
 40
0.3749999999999998
 40
0.3749999999999998
 40
0.4062499999999999
 40
0.4062499999999999
 40
0.4374999999999999
 40
0.4374999999999999
 40
0.46875
 40
0.46875
 40
0.5
 40
0.5
 40
0.53125
 40
0.53125
 40
0.5625
 40
0.5625
 40
0.59375
 40
0.59375
 40
0.625
 40
0.625
 40
0.640625
 40
0.640625
 40
0.6562500000000001
 40
0.6562500000000001
 40
0.6875000000000001
 40
0.6875000000000001
 40
0.7187500000000001
 40
0.7187500000000001
 40
0.7500000000000001
 40
0.7500000000000001
 40
0.7812500000000001
 40
0.7812500000000001
 40
0.8125000000000001
 40
0.8125000000000001
 40
0.8437500000000001
 40
0.8437500000000001
 40
0.8750000000000001
 40
0.8750000000000001
 40
0.9062500000000001
 40
0.9062500000000001
 40
0.9375000000000001
 40
0.9375000000000001
 40
0.9687500000000001
 40
0.9687500000000001
 40
1.0
 40
1.0
 40
1.03125
 40
1.03125
 10
76.64058647752039
 20
98.30355521113782
 30
0.0
 10
76.99394804027992
 20
98.24084536642489
 30
0.0
 10
77.18871297300497
 20
98.20912957156933
 30
0.0
 10
77.61615462677676
 20
98.14855395552233
 30
0.0
 10
77.85144287417103
 20
98.11949389509287
 30
0.0
 10
78.34259133210138
 20
98.07040242045026
 30
0.0
 10
78.6001001646159
 20
98.05003438713258
 30
0.0
 10
79.00593601977525
 20
98.02810818574973
 30
0.0
 10
79.14502535440249
 20
98.02225104803172
 30
0.0
 10
79.42187929463427
 20
98.0140340571911
 30
0.0
 10
79.69929323083888
 20
98.00918621419879
 30
0.0
 10
79.97781629227084
 20
98.01114926607853
 30
0.0
 10
80.25690562382714
 20
98.01656096494438
 30
0.0
 10
80.39724802404652
 20
98.02103590125148
 30
0.0
 10
80.80793392224209
 20
98.039083862944
 30
0.0
 10
81.07160366085213
 20
98.05728656119952
 30
0.0
 10
81.57967984629019
 20
98.10343750444142
 30
0.0
 10
81.8190173660264
 20
98.13097481810365
 30
0.0
 10
82.26089371947805
 20
98.19003549941472
 30
0.0
 10
82.46676273105857
 20
98.22204302614024
 30
0.0
 10
82.83343409911991
 20
98.28467417096098
 30
0.0
 10
82.9956857657233
 20
98.31543926605951
 30
0.0
 10
83.28006969907581
 20
98.3726021404922
 30
0.0
 10
83.40049131419572
 20
98.39867009336537
 30
0.0
 10
83.69134725637164
 20
98.46370664547831
 30
0.0
 10
83.79583924313846
 20
98.48989787291676
 30
0.0
 10
83.81007846669645
 20
98.49336107692524
 30
0.0
 10
83.79161624735059
 20
98.48881948647926
 30
0.0
 10
83.7069730375965
 20
98.4685366776629
 30
0.0
 10
83.64184967440974
 20
98.453056643839
 30
0.0
 10
83.46677585231657
 20
98.41327857129164
 30
0.0
 10
83.35592784189733
 20
98.38878069185104
 30
0.0
 10
83.08930004881489
 20
98.33377436983697
 30
0.0
 10
82.93603359985786
 20
98.30378610581586
 30
0.0
 10
82.58867523934146
 20
98.24205482374539
 30
0.0
 10
82.3922940503352
 20
98.20996430655917
 30
0.0
 10
81.96367876506481
 20
98.14909628564949
 30
0.0
 10
81.7345079040588
 20
98.1206978033228
 30
0.0
 10
81.24479451586284
 20
98.0714251313442
 30
0.0
 10
80.98005591520256
 20
98.05037298888895
 30
0.0
 10
80.44103082299442
 20
98.02107150917321
 30
0.0
 10
80.166086472278
 20
98.01255303628825
 30
0.0
 10
79.74514114342843
 20
98.01013447013975
 30
0.0
 10
79.60298653431586
 20
98.01109147819993
 30
0.0
 10
79.32388058014764
 20
98.01641762198157
 30
0.0
 10
79.18593177317082
 20
98.02076859122616
 30
0.0
 10
78.77675771363475
 20
98.03855418483403
 30
0.0
 10
78.50713207324912
 20
98.05706074329395
 30
0.0
 10
78.00088318763909
 20
98.10292262179685
 30
0.0
 10
77.76298844150773
 20
98.13016655188403
 30
0.0
 10
77.31592551339915
 20
98.1898166114071
 30
0.0
 10
77.11265126311054
 20
98.22142737155178
 30
0.0
 10
76.74557599017743
 20
98.28404533020725
 30
0.0
 10
76.58013585083316
 20
98.3153933701993
 30
0.0
 10
76.29644526117647
 20
98.37240622540656
 30
0.0
 10
76.17704750996813
 20
98.39823642578583
 30
0.0
 10
75.98154541486657
 20
98.44193696239697
 30
0.0
 10
75.90605409438058
 20
98.45967930459653
 30
0.0
 10
75.80334607530503
 20
98.48410429114772
 30
0.0
 10
75.7750896540597
 20
98.49102587172537
 30
0.0
 10
75.76540894978577
 20
98.49338036278296
 30
0.0
 10
75.78447355034825
 20
98.48869373399216
 30
0.0
 10
75.86837779816142
 20
98.4685888247481
 30
0.0
 10
75.93311528627159
 20
98.45319065957835
 30
0.0
 10
76.11035966683282
 20
98.41292485646676
 30
0.0
 10
76.22203743758097
 20
98.38827414703775
 30
0.0
 10
76.48671089682317
 20
98.33369456811968
 30
0.0
 10
76.64058647752039
 20
98.30355521113782
 30
0.0
 10
76.99394804027992
 20
98.24084536642489
 30
0.0
  0
LINE
  5
1ED
330
1F
100
AcDbEntity
  8
0
  6
HIDDEN
 62
     7
370
     0
100
AcDbLine
 10
76.2877832572
 20
131.0106608285
 30
0.0
 11
83.271935157
 21
131.0106608285
 31
0.0
  0
SPLINE
  5
1EE
330
1F
100
AcDbEntity
  8
0
  6
HIDDEN
 62
     7
370
     0
100
AcDbSpline
210
0.0
220
0.0
230
1.0
 70
     8
 71
     3
 72
    73
 73
    69
 74
     0
 42
0.00000001
 43
0.00000001
 12
1.0
 22
0.0
 32
0.0
 13
1.0
 23
0.0
 33
0.0
 40
-0.0312499999999999
 40
-0.0312499999999999
 40
0.0
 40
0.0
 40
0.0312500000000002
 40
0.0312500000000002
 40
0.0625000000000004
 40
0.0625000000000004
 40
0.0937500000000005
 40
0.0937500000000005
 40
0.1093750000000007
 40
0.1093750000000007
 40
0.1250000000000007
 40
0.1406250000000008
 40
0.1406250000000008
 40
0.1562500000000009
 40
0.1562500000000009
 40
0.1875000000000009
 40
0.1875000000000009
 40
0.2187500000000009
 40
0.2187500000000009
 40
0.2500000000000009
 40
0.2500000000000009
 40
0.2812500000000009
 40
0.2812500000000009
 40
0.3125000000000009
 40
0.3125000000000009
 40
0.3750000000000009
 40
0.3750000000000009
 40
0.4062500000000009
 40
0.4062500000000009
 40
0.4375000000000008
 40
0.4375000000000008
 40
0.4687500000000008
 40
0.4687500000000008
 40
0.5000000000000008
 40
0.5000000000000008
 40
0.5312500000000008
 40
0.5312500000000008
 40
0.5625000000000007
 40
0.5625000000000007
 40
0.5937500000000007
 40
0.5937500000000007
 40
0.6250000000000006
 40
0.6250000000000006
 40
0.6406250000000006
 40
0.6406250000000006
 40
0.6562500000000006
 40
0.6562500000000006
 40
0.6875000000000006
 40
0.6875000000000006
 40
0.7187500000000004
 40
0.7187500000000004
 40
0.7500000000000004
 40
0.7500000000000004
 40
0.7812500000000004
 40
0.7812500000000004
 40
0.8125000000000003
 40
0.8125000000000003
 40
0.8437500000000003
 40
0.8437500000000003
 40
0.8750000000000002
 40
0.8750000000000002
 40
0.9062500000000002
 40
0.9062500000000002
 40
0.9375000000000002
 40
0.9375000000000002
 40
0.9687500000000001
 40
0.9687500000000001
 40
1.0
 40
1.0
 40
1.03125
 40
1.03125
 10
82.93498025285658
 20
131.7177649258827
 30
0.0
 10
82.58161869009705
 20
131.7804747705956
 30
0.0
 10
82.386853757372
 20
131.8121905654511
 30
0.0
 10
81.95941210360019
 20
131.8727661814981
 30
0.0
 10
81.72412385620594
 20
131.9018262419276
 30
0.0
 10
81.23297539827558
 20
131.9509177165702
 30
0.0
 10
80.97546656576105
 20
131.9712857498879
 30
0.0
 10
80.5696307106017
 20
131.9932119512708
 30
0.0
 10
80.43054137597449
 20
131.9990690889888
 30
0.0
 10
80.15368743574271
 20
132.0072860798294
 30
0.0
 10
79.87627349953809
 20
132.0121339228217
 30
0.0
 10
79.59775043810612
 20
132.010170870942
 30
0.0
 10
79.31866110654984
 20
132.0047591720761
 30
0.0
 10
79.17831870633046
 20
132.000284235769
 30
0.0
 10
78.76763280813488
 20
131.9822362740765
 30
0.0
 10
78.50396306952484
 20
131.964033575821
 30
0.0
 10
77.99588688408677
 20
131.9178826325791
 30
0.0
 10
77.75654936435058
 20
131.8903453189168
 30
0.0
 10
77.31467301089893
 20
131.8312846376058
 30
0.0
 10
77.10880399931841
 20
131.7992771108803
 30
0.0
 10
76.74213263125705
 20
131.7366459660595
 30
0.0
 10
76.57988096465368
 20
131.705880870961
 30
0.0
 10
76.29549703130115
 20
131.6487179965283
 30
0.0
 10
76.17507541618126
 20
131.6226500436551
 30
0.0
 10
75.88421947400532
 20
131.5576134915422
 30
0.0
 10
75.7797274872385
 20
131.5314222641038
 30
0.0
 10
75.7654882636805
 20
131.5279590600953
 30
0.0
 10
75.78395048302639
 20
131.5325006505413
 30
0.0
 10
75.86859369278046
 20
131.5527834593576
 30
0.0
 10
75.93371705596722
 20
131.5682634931815
 30
0.0
 10
76.1087908780604
 20
131.6080415657289
 30
0.0
 10
76.21963888847964
 20
131.6325394451694
 30
0.0
 10
76.48626668156207
 20
131.6875457671835
 30
0.0
 10
76.6395331305191
 20
131.7175340312047
 30
0.0
 10
76.98689149103551
 20
131.7792653132751
 30
0.0
 10
77.18327268004175
 20
131.8113558304613
 30
0.0
 10
77.61188796531214
 20
131.872223851371
 30
0.0
 10
77.84105882631816
 20
131.9006223336977
 30
0.0
 10
78.33077221451414
 20
131.9498950056763
 30
0.0
 10
78.59551081517439
 20
131.9709471481315
 30
0.0
 10
79.13453590738256
 20
132.0002486278473
 30
0.0
 10
79.40948025809897
 20
132.0087671007322
 30
0.0
 10
79.83042558694852
 20
132.0111856668807
 30
0.0
 10
79.9725801960611
 20
132.0102286588206
 30
0.0
 10
80.25168615022932
 20
132.0049025150389
 30
0.0
 10
80.38963495720616
 20
132.0005515457943
 30
0.0
 10
80.7988090167422
 20
131.9827659521865
 30
0.0
 10
81.06843465712784
 20
131.9642593937265
 30
0.0
 10
81.57468354273786
 20
131.9183975152236
 30
0.0
 10
81.81257828886923
 20
131.8911535851364
 30
0.0
 10
82.25964121697781
 20
131.8315035256134
 30
0.0
 10
82.46291546726643
 20
131.7998927654687
 30
0.0
 10
82.82999074019955
 20
131.7372748068132
 30
0.0
 10
82.9954308795438
 20
131.7059267668212
 30
0.0
 10
83.27912146920048
 20
131.6489139116139
 30
0.0
 10
83.39851922040882
 20
131.6230837112346
 30
0.0
 10
83.59402131551039
 20
131.5793831746235
 30
0.0
 10
83.66951263599638
 20
131.5616408324239
 30
0.0
 10
83.77222065507192
 20
131.5372158458727
 30
0.0
 10
83.80047707631725
 20
131.5302942652951
 30
0.0
 10
83.81015778059118
 20
131.5279397742375
 30
0.0
 10
83.7910931800287
 20
131.5326264030283
 30
0.0
 10
83.70718893221554
 20
131.5527313122724
 30
0.0
 10
83.64245144410539
 20
131.5681294774421
 30
0.0
 10
83.46520706354414
 20
131.6083952805537
 30
0.0
 10
83.353529292796
 20
131.6330459899827
 30
0.0
 10
83.08885583355377
 20
131.6876255689008
 30
0.0
 10
82.93498025285658
 20
131.7177649258827
 30
0.0
 10
82.58161869009705
 20
131.7804747705956
 30
0.0
  0
SPLINE
  5
1EF
330
1F
100
AcDbEntity
  8
0
  6
HIDDEN
 62
     7
370
     0
100
AcDbSpline
210
0.0
220
0.0
230
1.0
 70
    11
 71
     3
 72
    74
 73
    70
 74
     0
 42
0.00000001
 43
0.00000001
 12
1.0
 22
0.0
 32
0.0
 13
1.0
 23
0.0
 33
0.0
 40
-0.0312499999999992
 40
-0.0312499999999992
 40
0.0
 40
0.0
 40
0.031250000000001
 40
0.031250000000001
 40
0.0625000000000019
 40
0.0625000000000019
 40
0.0937500000000029
 40
0.0937500000000029
 40
0.1250000000000038
 40
0.1250000000000038
 40
0.1562500000000048
 40
0.1562500000000048
 40
0.1875000000000057
 40
0.1875000000000057
 40
0.2187500000000066
 40
0.2187500000000066
 40
0.2500000000000075
 40
0.2500000000000075
 40
0.2812500000000085
 40
0.2812500000000085
 40
0.3125000000000094
 40
0.3125000000000094
 40
0.3437500000000104
 40
0.3437500000000104
 40
0.3750000000000114
 40
0.3750000000000114
 40
0.4062500000000123
 40
0.4062500000000123
 40
0.4375000000000133
 40
0.4375000000000133
 40
0.4687500000000143
 40
0.4687500000000143
 40
0.4843750000000143
 40
0.4843750000000143
 40
0.5000000000000143
 40
0.5000000000000143
 40
0.5312500000000135
 40
0.5312500000000135
 40
0.5625000000000127
 40
0.5625000000000127
 40
0.5937500000000119
 40
0.5937500000000119
 40
0.625000000000011
 40
0.625000000000011
 40
0.6562500000000102
 40
0.6562500000000102
 40
0.6875000000000094
 40
0.6875000000000094
 40
0.7187500000000085
 40
0.7187500000000085
 40
0.7500000000000078
 40
0.7500000000000078
 40
0.781250000000007
 40
0.781250000000007
 40
0.8125000000000061
 40
0.8125000000000061
 40
0.8437500000000053
 40
0.8437500000000053
 40
0.8750000000000043
 40
0.8750000000000043
 40
0.9062500000000034
 40
0.9062500000000034
 40
0.9375000000000026
 40
0.9375000000000026
 40
0.9531250000000017
 40
0.9531250000000017
 40
0.9687500000000008
 40
0.9687500000000008
 40
1.0
 40
1.0
 40
1.031250000000001
 40
1.031250000000001
 10
83.28778336518842
 20
111.4399458542388
 30
0.0
 10
83.28778336518842
 20
111.4399458542388
 30
0.0
 10
83.26322846458515
 20
111.4154667616082
 30
0.0
 10
83.16963677210077
 20
111.3272918969763
 30
0.0
 10
83.09962062452297
 20
111.2629994777643
 30
0.0
 10
82.92381097671031
 20
111.1146933392479
 30
0.0
 10
82.8166926511911
 20
111.0296021372869
 30
0.0
 10
82.5692214985504
 20
110.8529304446808
 30
0.0
 10
82.43016679585982
 20
110.762153679697
 30
0.0
 10
82.11981735186698
 20
110.5841926038778
 30
0.0
 10
81.94706273060385
 20
110.4964997081081
 30
0.0
 10
81.57899690028151
 20
110.3382211754872
 30
0.0
 10
81.38251831327352
 20
110.2667258222907
 30
0.0
 10
80.96105914267989
 20
110.1453218852952
 30
0.0
 10
80.73467745248293
 20
110.0956417560505
 30
0.0
 10
80.2746641273304
 20
110.0289976403821
 30
0.0
 10
80.03516754260717
 20
110.0110767891051
 30
0.0
 10
79.55754119761805
 20
110.0102580403512
 30
0.0
 10
79.32214062131357
 20
110.0268744151956
 30
0.0
 10
78.85793098245459
 20
110.0922947761156
 30
0.0
 10
78.63278354335932
 20
110.1409071247791
 30
0.0
 10
78.20902727941906
 20
110.261339323072
 30
0.0
 10
78.006597203995
 20
110.3343171457441
 30
0.0
 10
77.63515467615446
 20
110.4932496378232
 30
0.0
 10
77.46452158735488
 20
110.5795083569116
 30
0.0
 10
77.15072466376988
 20
110.7587696436735
 30
0.0
 10
77.01072227491468
 20
110.8500305551333
 30
0.0
 10
76.76415581018658
 20
111.0256151935648
 30
0.0
 10
76.6564454072538
 20
111.1108804977885
 30
0.0
 10
76.4783034017224
 20
111.2608733441167
 30
0.0
 10
76.40909891852307
 20
111.3243604189221
 30
0.0
 10
76.33735232221383
 20
111.3918751837941
 30
0.0
 10
76.31884155859959
 20
111.4097247959007
 30
0.0
 10
76.29430577805266
 20
111.4335234422121
 30
0.0
 10
76.28806025630276
 20
111.4396744480033
 30
0.0
 10
76.287256527925
 20
111.4404622554275
 30
0.0
 10
76.31147978566884
 20
111.4162952231047
 30
0.0
 10
76.40518398650659
 20
111.3279753600117
 30
0.0
 10
76.4745553469492
 20
111.26420904003
 30
0.0
 10
76.65131867160882
 20
111.1150260462265
 30
0.0
 10
76.75723046134638
 20
111.0308925989975
 30
0.0
 10
77.00290689595266
 20
110.8552704278779
 30
0.0
 10
77.14425424247408
 20
110.7628620487264
 30
0.0
 10
77.4547413196958
 20
110.5847195974373
 30
0.0
 10
77.62404966184819
 20
110.4985813614149
 30
0.0
 10
77.99412971532193
 20
110.3391073949001
 30
0.0
 10
78.19617542475858
 20
110.2656618209537
 30
0.0
 10
78.61830231970994
 20
110.1443947356682
 30
0.0
 10
78.8419040356694
 20
110.0953246357196
 30
0.0
 10
79.30703390118303
 20
110.0282821145894
 30
0.0
 10
79.54210485682779
 20
110.0110502206127
 30
0.0
 10
80.01731602457593
 20
110.0102829508382
 30
0.0
 10
80.25895407102925
 20
110.0274564457084
 30
0.0
 10
80.7204716862028
 20
110.0928950602782
 30
0.0
 10
80.94591598461002
 20
110.1415952652786
 30
0.0
 10
81.37193758340275
 20
110.263079775861
 30
0.0
 10
81.57086845624082
 20
110.335000668218
 30
0.0
 10
81.94392424361749
 20
110.494883304559
 30
0.0
 10
82.11610511390091
 20
110.582229868908
 30
0.0
 10
82.42698126248615
 20
110.7601647259441
 30
0.0
 10
82.56801146644221
 20
110.8521090115164
 30
0.0
 10
82.8160652137602
 20
111.0291120989089
 30
0.0
 10
82.92186214381073
 20
111.1131306400628
 30
0.0
 10
83.0535767064184
 20
111.224119403017
 30
0.0
 10
83.09294017013968
 20
111.2585818016165
 30
0.0
 10
83.16200139768567
 20
111.3205644741683
 30
0.0
 10
83.19176583562083
 20
111.3481516220204
 30
0.0
 10
83.26303456358488
 20
111.4152618671248
 30
0.0
 10
83.28778336518842
 20
111.4399458542388
 30
0.0
 10
83.28778336518842
 20
111.4399458542388
 30
0.0
  0
SPLINE
  5
1F0
330
1F
100
AcDbEntity
  8
0
  6
HIDDEN
 62
     7
370
     0
100
AcDbSpline
210
0.0
220
0.0
230
1.0
 70
    11
 71
     3
 72
    74
 73
    70
 74
     0
 42
0.00000001
 43
0.00000001
 12
1.0
 22
0.0
 32
0.0
 13
1.0
 23
0.0
 33
0.0
 40
-0.0312500000000009
 40
-0.0312500000000009
 40
0.0
 40
0.0
 40
0.0312499999999991
 40
0.0312499999999991
 40
0.0624999999999982
 40
0.0624999999999982
 40
0.0937499999999973
 40
0.0937499999999973
 40
0.1249999999999964
 40
0.1249999999999964
 40
0.1562499999999956
 40
0.1562499999999956
 40
0.1874999999999947
 40
0.1874999999999947
 40
0.2187499999999938
 40
0.2187499999999938
 40
0.2499999999999929
 40
0.2499999999999929
 40
0.281249999999992
 40
0.281249999999992
 40
0.3124999999999911
 40
0.3124999999999911
 40
0.3437499999999902
 40
0.3437499999999902
 40
0.3749999999999893
 40
0.3749999999999893
 40
0.4062499999999885
 40
0.4062499999999885
 40
0.4374999999999876
 40
0.4374999999999876
 40
0.4687499999999867
 40
0.4687499999999867
 40
0.4843749999999867
 40
0.4843749999999867
 40
0.4999999999999867
 40
0.4999999999999867
 40
0.5312499999999876
 40
0.5312499999999876
 40
0.5624999999999885
 40
0.5624999999999885
 40
0.5937499999999893
 40
0.5937499999999893
 40
0.6249999999999902
 40
0.6249999999999902
 40
0.6562499999999911
 40
0.6562499999999911
 40
0.687499999999992
 40
0.687499999999992
 40
0.7187499999999929
 40
0.7187499999999929
 40
0.7499999999999938
 40
0.7499999999999938
 40
0.7812499999999947
 40
0.7812499999999947
 40
0.8124999999999956
 40
0.8124999999999956
 40
0.8437499999999964
 40
0.8437499999999964
 40
0.8749999999999973
 40
0.8749999999999973
 40
0.9062499999999982
 40
0.9062499999999982
 40
0.9374999999999991
 40
0.9374999999999991
 40
0.9531249999999991
 40
0.9531249999999991
 40
0.9687499999999991
 40
0.9687499999999991
 40
1.0
 40
1.0
 40
1.031249999999999
 40
1.031249999999999
 10
76.28778336518846
 20
118.5813742827817
 30
0.0
 10
76.28778336518846
 20
118.5813742827817
 30
0.0
 10
76.31233826579171
 20
118.6058533754123
 30
0.0
 10
76.40592995827609
 20
118.6940282400442
 30
0.0
 10
76.4759461058539
 20
118.7583206592562
 30
0.0
 10
76.65175575366656
 20
118.9066267977726
 30
0.0
 10
76.75887407918577
 20
118.9917179997336
 30
0.0
 10
77.00634523182646
 20
119.1683896923397
 30
0.0
 10
77.14539993451706
 20
119.2591664573235
 30
0.0
 10
77.4557493785099
 20
119.4371275331427
 30
0.0
 10
77.62850399977305
 20
119.5248204289124
 30
0.0
 10
77.99656983009537
 20
119.6830989615333
 30
0.0
 10
78.19304841710337
 20
119.7545943147298
 30
0.0
 10
78.614507587697
 20
119.8759982517253
 30
0.0
 10
78.84088927789395
 20
119.92567838097
 30
0.0
 10
79.3009026030465
 20
119.9923224966384
 30
0.0
 10
79.54039918776971
 20
120.0102433479153
 30
0.0
 10
80.01802553275883
 20
120.0110620966693
 30
0.0
 10
80.25342610906331
 20
119.9944457218249
 30
0.0
 10
80.71763574792229
 20
119.9290253609049
 30
0.0
 10
80.94278318701754
 20
119.8804130122414
 30
0.0
 10
81.36653945095783
 20
119.7599808139484
 30
0.0
 10
81.56896952638188
 20
119.6870029912764
 30
0.0
 10
81.9404120542224
 20
119.5280704991972
 30
0.0
 10
82.111045143022
 20
119.4418117801089
 30
0.0
 10
82.42484206660701
 20
119.262550493347
 30
0.0
 10
82.5648444554622
 20
119.1712895818871
 30
0.0
 10
82.81141092019028
 20
118.9957049434557
 30
0.0
 10
82.91912132312306
 20
118.910439639232
 30
0.0
 10
83.09726332865448
 20
118.7604467929037
 30
0.0
 10
83.16646781185382
 20
118.6969597180984
 30
0.0
 10
83.23821440816303
 20
118.6294449532264
 30
0.0
 10
83.25672517177729
 20
118.6115953411197
 30
0.0
 10
83.28126095232422
 20
118.5877966948083
 30
0.0
 10
83.2875064740741
 20
118.5816456890171
 30
0.0
 10
83.28831020245188
 20
118.5808578815929
 30
0.0
 10
83.26408694470804
 20
118.6050249139158
 30
0.0
 10
83.17038274387029
 20
118.6933447770088
 30
0.0
 10
83.10101138342766
 20
118.7571110969905
 30
0.0
 10
82.92424805876804
 20
118.906294090794
 30
0.0
 10
82.81833626903048
 20
118.990427538023
 30
0.0
 10
82.5726598344242
 20
119.1660497091425
 30
0.0
 10
82.4313124879028
 20
119.258458088294
 30
0.0
 10
82.12082541068106
 20
119.4366005395832
 30
0.0
 10
81.95151706852869
 20
119.5227387756056
 30
0.0
 10
81.58143701505493
 20
119.6822127421204
 30
0.0
 10
81.37939130561827
 20
119.7556583160667
 30
0.0
 10
80.95726441066694
 20
119.8769254013523
 30
0.0
 10
80.73366269470748
 20
119.9259955013008
 30
0.0
 10
80.26853282919384
 20
119.9930380224311
 30
0.0
 10
80.03346187354909
 20
120.0102699164077
 30
0.0
 10
79.55825070580094
 20
120.0110371861823
 30
0.0
 10
79.31661265934763
 20
119.9938636913121
 30
0.0
 10
78.85509504417406
 20
119.9284250767423
 30
0.0
 10
78.62965074576685
 20
119.8797248717419
 30
0.0
 10
78.20362914697412
 20
119.7582403611595
 30
0.0
 10
78.00469827413606
 20
119.6863194688025
 30
0.0
 10
77.63164248675939
 20
119.5264368324615
 30
0.0
 10
77.45946161647596
 20
119.4390902681125
 30
0.0
 10
77.14858546789071
 20
119.2611554110764
 30
0.0
 10
77.00755526393466
 20
119.1692111255041
 30
0.0
 10
76.75950151661668
 20
118.9922080381117
 30
0.0
 10
76.65370458656615
 20
118.9081894969577
 30
0.0
 10
76.52199002395847
 20
118.7972007340035
 30
0.0
 10
76.4826265602372
 20
118.762738335404
 30
0.0
 10
76.41356533269119
 20
118.7007556628522
 30
0.0
 10
76.38380089475605
 20
118.6731685150001
 30
0.0
 10
76.31253216679197
 20
118.6060582698957
 30
0.0
 10
76.28778336518846
 20
118.5813742827817
 30
0.0
 10
76.28778336518846
 20
118.5813742827817
 30
0.0
  0
LINE
  5
1F1
330
1F
100
AcDbEntity
  8
0
  6
HIDDEN
 62
     7
370
     0
100
AcDbLine
 10
96.7877842891
 20
111.7011601305
 30
0.0
 11
96.7877842891
 21
118.3201600066
 31
0.0
  0
LINE
  5
1F2
330
1F
100
AcDbEntity
  8
0
  6
HIDDEN
 62
     7
370
     0
100
AcDbLine
 10
96.3891223478
 20
118.6706495205
 30
0.0
 11
96.3891223478
 21
111.3506706165
 31
0.0
  0
LINE
  5
1F3
330
1F
100
AcDbEntity
  8
0
  6
HIDDEN
 62
     7
370
     0
100
AcDbLine
 10
96.3891223478
 20
111.0106598785
 30
0.0
 11
96.3891223478
 21
119.0106602585
 31
0.0
  0
LINE
  5
1F4
330
1F
100
AcDbEntity
  8
0
  6
HIDDEN
 62
     7
370
     0
100
AcDbLine
 10
86.0377834583
 20
111.0106598785
 30
0.0
 11
86.0377834583
 21
119.0106602585
 31
0.0
  0
LINE
  5
1F5
330
1F
100
AcDbEntity
  8
0
  6
HIDDEN
 62
     7
370
     0
100
AcDbLine
 10
84.7877832534
 20
112.2606600834
 30
0.0
 11
84.7877832534
 21
117.7606600536
 31
0.0
  0
LINE
  5
1F6
330
1F
100
AcDbEntity
  8
0
  6
HIDDEN
 62
     7
370
     0
100
AcDbLine
 10
96.7877842891
 20
113.8559595415
 30
0.0
 11
96.7877842891
 21
112.7012590146
 31
0.0
  0
LINE
  5
1F7
330
1F
100
AcDbEntity
  8
0
  6
HIDDEN
 62
     7
370
     0
100
AcDbLine
 10
91.7877834695
 20
113.8559595415
 30
0.0
 11
91.7877834695
 21
112.7012590146
 31
0.0
  0
LINE
  5
1F8
330
1F
100
AcDbEntity
  8
0
  6
HIDDEN
 62
     7
370
     0
100
AcDbLine
 10
91.7877834695
 20
116.1653605955
 30
0.0
 11
91.7877834695
 21
113.8559595415
 31
0.0
  0
LINE
  5
1F9
330
1F
100
AcDbEntity
  8
0
  6
HIDDEN
 62
     7
370
     0
100
AcDbLine
 10
91.7877834695
 20
113.8559595415
 30
0.0
 11
96.7877842891
 21
113.8559595415
 31
0.0
  0
LINE
  5
1FA
330
1F
100
AcDbEntity
  8
0
  6
HIDDEN
 62
     7
370
     0
100
AcDbLine
 10
96.7877842891
 20
116.1653605955
 30
0.0
 11
96.7877842891
 21
113.8559595415
 31
0.0
  0
LINE
  5
1FB
330
1F
100
AcDbEntity
  8
0
  6
HIDDEN
 62
     7
370
     0
100
AcDbLine
 10
91.7877834695
 20
116.1653605955
 30
0.0
 11
96.7877842891
 21
116.1653605955
 31
0.0
  0
LINE
  5
1FC
330
1F
100
AcDbEntity
  8
0
  6
HIDDEN
 62
     7
370
     0
100
AcDbLine
 10
91.7877834695
 20
116.1653605955
 30
0.0
 11
91.7877834695
 21
117.3200611224
 31
0.0
  0
LINE
  5
1FD
330
1F
100
AcDbEntity
  8
0
  6
HIDDEN
 62
     7
370
     0
100
AcDbLine
 10
96.7877842891
 20
116.1653605955
 30
0.0
 11
96.7877842891
 21
117.3200611224
 31
0.0
  0
LINE
  5
1FE
330
1F
100
AcDbEntity
  8
0
  6
HIDDEN
 62
     7
370
     0
100
AcDbLine
 10
91.7877834695
 20
112.7012590146
 30
0.0
 11
96.7877842891
 21
112.7012590146
 31
0.0
  0
LINE
  5
1FF
330
1F
100
AcDbEntity
  8
0
  6
HIDDEN
 62
     7
370
     0
100
AcDbLine
 10
91.7877834695
 20
117.3200611224
 30
0.0
 11
96.7877842891
 21
117.3200611224
 31
0.0
  0
LINE
  5
200
330
1F
100
AcDbEntity
  8
0
  6
HIDDEN
 62
     7
370
     0
100
AcDbLine
 10
76.1277939132
 20
131.6119990511
 30
0.0
 11
83.4477728172
 21
131.6119990511
 31
0.0
  0
LINE
  5
201
330
1F
100
AcDbEntity
  8
0
  6
HIDDEN
 62
     7
370
     0
100
AcDbLine
 10
83.7877835552
 20
131.6119990511
 30
0.0
 11
75.7877831752
 21
131.6119990511
 31
0.0
  0
LINE
  5
202
330
1F
100
AcDbEntity
  8
0
  6
HIDDEN
 62
     7
370
     0
100
AcDbLine
 10
83.7877835552
 20
121.2606601616
 30
0.0
 11
75.7877831752
 21
121.2606601616
 31
0.0
  0
LINE
  5
203
330
1F
100
AcDbEntity
  8
0
  6
HIDDEN
 62
     7
370
     0
100
AcDbLine
 10
82.5377833503
 20
120.0106599568
 30
0.0
 11
77.0377833801
 21
120.0106599568
 31
0.0
  0
LINE
  5
204
330
1F
100
AcDbEntity
  8
0
  6
HIDDEN
 62
     7
370
     0
100
AcDbLine
 10
83.0972833032
 20
132.0106609924
 30
0.0
 11
76.4782834271
 21
132.0106609924
 31
0.0
  0
LINE
  5
205
330
1F
100
AcDbEntity
  8
0
  6
HIDDEN
 62
     7
370
     0
100
AcDbLine
 10
80.9424838922
 20
132.0106609924
 30
0.0
 11
82.0971844191
 21
132.0106609924
 31
0.0
  0
LINE
  5
206
330
1F
100
AcDbEntity
  8
0
  6
HIDDEN
 62
     7
370
     0
100
AcDbLine
 10
80.9424838922
 20
127.0106601728
 30
0.0
 11
82.0971844191
 21
127.0106601728
 31
0.0
  0
LINE
  5
207
330
1F
100
AcDbEntity
  8
0
  6
HIDDEN
 62
     7
370
     0
100
AcDbLine
 10
78.6330828382
 20
127.0106601728
 30
0.0
 11
80.9424838922
 21
127.0106601728
 31
0.0
  0
LINE
  5
208
330
1F
100
AcDbEntity
  8
0
  6
HIDDEN
 62
     7
370
     0
100
AcDbLine
 10
80.9424838922
 20
127.0106601728
 30
0.0
 11
80.9424838922
 21
132.0106609924
 31
0.0
  0
LINE
  5
209
330
1F
100
AcDbEntity
  8
0
  6
HIDDEN
 62
     7
370
     0
100
AcDbLine
 10
78.6330828382
 20
132.0106609924
 30
0.0
 11
80.9424838922
 21
132.0106609924
 31
0.0
  0
LINE
  5
20A
330
1F
100
AcDbEntity
  8
0
  6
HIDDEN
 62
     7
370
     0
100
AcDbLine
 10
78.6330828382
 20
127.0106601728
 30
0.0
 11
78.6330828382
 21
132.0106609924
 31
0.0
  0
LINE
  5
20B
330
1F
100
AcDbEntity
  8
0
  6
HIDDEN
 62
     7
370
     0
100
AcDbLine
 10
78.6330828382
 20
127.0106601728
 30
0.0
 11
77.4783823113
 21
127.0106601728
 31
0.0
  0
LINE
  5
20C
330
1F
100
AcDbEntity
  8
0
  6
HIDDEN
 62
     7
370
     0
100
AcDbLine
 10
78.6330828382
 20
132.0106609924
 30
0.0
 11
77.4783823113
 21
132.0106609924
 31
0.0
  0
LINE
  5
20D
330
1F
100
AcDbEntity
  8
0
  6
HIDDEN
 62
     7
370
     0
100
AcDbLine
 10
82.0971844191
 20
127.0106601728
 30
0.0
 11
82.0971844191
 21
132.0106609924
 31
0.0
  0
LINE
  5
20E
330
1F
100
AcDbEntity
  8
0
  6
HIDDEN
 62
     7
370
     0
100
AcDbLine
 10
77.4783823113
 20
127.0106601728
 30
0.0
 11
77.4783823113
 21
132.0106609924
 31
0.0
  0
LINE
  5
20F
330
1F
100
AcDbEntity
  8
0
  6
HIDDEN
 62
     7
370
     0
100
AcDbLine
 10
75.7877831752
 20
108.7606599754
 30
0.0
 11
83.7877835552
 21
108.7606599754
 31
0.0
  0
LINE
  5
210
330
1F
100
AcDbEntity
  8
0
  6
HIDDEN
 62
     7
370
     0
100
AcDbLine
 10
77.0377833801
 20
110.0106601803
 30
0.0
 11
82.5377833503
 21
110.0106601803
 31
0.0
  0
LINE
  5
211
330
1F
100
AcDbEntity
  8
0
  6
HIDDEN
 62
     7
370
     0
100
AcDbLine
 10
76.4782834271
 20
98.0106591446
 30
0.0
 11
83.0972833032
 21
98.0106591446
 31
0.0
  0
LINE
  5
212
330
1F
100
AcDbEntity
  8
0
  6
HIDDEN
 62
     7
370
     0
100
AcDbLine
 10
83.4477728172
 20
98.4093210859
 30
0.0
 11
76.1277939132
 21
98.4093210859
 31
0.0
  0
LINE
  5
213
330
1F
100
AcDbEntity
  8
0
  6
HIDDEN
 62
     7
370
     0
100
AcDbLine
 10
75.7877831752
 20
98.4093210859
 30
0.0
 11
83.7877835552
 21
98.4093210859
 31
0.0
  0
LINE
  5
214
330
1F
100
AcDbEntity
  8
0
  6
HIDDEN
 62
     7
370
     0
100
AcDbLine
 10
80.9424838922
 20
103.0106599642
 30
0.0
 11
78.6330828382
 21
103.0106599642
 31
0.0
  0
LINE
  5
215
330
1F
100
AcDbEntity
  8
0
  6
HIDDEN
 62
     7
370
     0
100
AcDbLine
 10
80.9424838922
 20
98.0106591446
 30
0.0
 11
78.6330828382
 21
98.0106591446
 31
0.0
  0
LINE
  5
216
330
1F
100
AcDbEntity
  8
0
  6
HIDDEN
 62
     7
370
     0
100
AcDbLine
 10
78.6330828382
 20
103.0106599642
 30
0.0
 11
78.6330828382
 21
98.0106591446
 31
0.0
  0
LINE
  5
217
330
1F
100
AcDbEntity
  8
0
  6
HIDDEN
 62
     7
370
     0
100
AcDbLine
 10
78.6330828382
 20
103.0106599642
 30
0.0
 11
77.4783823113
 21
103.0106599642
 31
0.0
  0
LINE
  5
218
330
1F
100
AcDbEntity
  8
0
  6
HIDDEN
 62
     7
370
     0
100
AcDbLine
 10
78.6330828382
 20
98.0106591446
 30
0.0
 11
77.4783823113
 21
98.0106591446
 31
0.0
  0
LINE
  5
219
330
1F
100
AcDbEntity
  8
0
  6
HIDDEN
 62
     7
370
     0
100
AcDbLine
 10
80.9424838922
 20
103.0106599642
 30
0.0
 11
80.9424838922
 21
98.0106591446
 31
0.0
  0
LINE
  5
21A
330
1F
100
AcDbEntity
  8
0
  6
HIDDEN
 62
     7
370
     0
100
AcDbLine
 10
80.9424838922
 20
103.0106599642
 30
0.0
 11
82.0971844191
 21
103.0106599642
 31
0.0
  0
LINE
  5
21B
330
1F
100
AcDbEntity
  8
0
  6
HIDDEN
 62
     7
370
     0
100
AcDbLine
 10
80.9424838922
 20
98.0106591446
 30
0.0
 11
82.0971844191
 21
98.0106591446
 31
0.0
  0
LINE
  5
21C
330
1F
100
AcDbEntity
  8
0
  6
HIDDEN
 62
     7
370
     0
100
AcDbLine
 10
82.0971844191
 20
103.0106599642
 30
0.0
 11
82.0971844191
 21
98.0106591446
 31
0.0
  0
LINE
  5
21D
330
1F
100
AcDbEntity
  8
0
  6
HIDDEN
 62
     7
370
     0
100
AcDbLine
 10
77.4783823113
 20
103.0106599642
 30
0.0
 11
77.4783823113
 21
98.0106591446
 31
0.0
  0
LINE
  5
21E
330
1F
100
AcDbEntity
  8
0
  6
HIDDEN
 62
     7
370
     0
100
AcDbLine
 10
96.3028055089
 20
119.025682026
 30
0.0
 11
95.7877841251
 21
118.5106601765
 31
0.0
  0
LINE
  5
21F
330
1F
100
AcDbEntity
  8
0
  6
HIDDEN
 62
     7
370
     0
100
AcDbLine
 10
95.7877841251
 20
111.5106599605
 30
0.0
 11
96.3036492872
 21
110.9947934015
 31
0.0
  0
LINE
  5
220
330
1F
100
AcDbEntity
  8
0
  6
HIDDEN
 62
     7
370
     0
100
AcDbLine
 10
83.8028053226
 20
98.4956379248
 30
0.0
 11
83.2877834732
 21
99.0106593086
 31
0.0
  0
LINE
  5
221
330
1F
100
AcDbEntity
  8
0
  6
HIDDEN
 62
     7
370
     0
100
AcDbLine
 10
76.2877832572
 20
99.0106593086
 30
0.0
 11
75.7719166982
 21
98.4947941465
 31
0.0
  0
LINE
  5
222
330
1F
100
AcDbEntity
  8
0
  6
HIDDEN
 62
     7
370
     0
100
AcDbLine
 10
75.7727614077
 20
131.5256822122
 30
0.0
 11
76.2877832572
 21
131.0106608285
 31
0.0
  0
LINE
  5
223
330
1F
100
AcDbEntity
  8
0
  6
HIDDEN
 62
     7
370
     0
100
AcDbLine
 10
83.2877834732
 20
131.0106608285
 30
0.0
 11
83.8036500322
 21
131.5265259905
 31
0.0
  0
LINE
  5
224
330
1F
100
AcDbEntity
  8
0
  6
HIDDEN
 62
     7
370
     0
100
AcDbLine
 10
95.7877841251
 20
118.5106601765
 30
0.0
 11
83.3584976322
 21
118.5106601765
 31
0.0
  0
LINE
  5
225
330
1F
100
AcDbEntity
  8
0
  6
HIDDEN
 62
     7
370
     0
100
AcDbLine
 10
83.3921633134
 20
111.5106599605
 30
0.0
 11
95.7877841251
 21
111.5106599605
 31
0.0
  0
LINE
  5
226
330
1F
100
AcDbEntity
  8
0
  6
HIDDEN
 62
     7
370
     0
100
AcDbLine
 10
83.2877834732
 20
99.0106593086
 30
0.0
 11
83.2877834732
 21
111.4399458015
 31
0.0
  0
LINE
  5
227
330
1F
100
AcDbEntity
  8
0
  6
HIDDEN
 62
     7
370
     0
100
AcDbLine
 10
76.2877832572
 20
111.4062801203
 30
0.0
 11
76.2877832572
 21
99.0106593086
 31
0.0
  0
LINE
  5
228
330
1F
100
AcDbEntity
  8
0
  6
HIDDEN
 62
     7
370
     0
100
AcDbLine
 10
76.2877832572
 20
131.0106608285
 30
0.0
 11
76.2877832572
 21
118.5813743355
 31
0.0
  0
LINE
  5
229
330
1F
100
AcDbEntity
  8
0
  6
HIDDEN
 62
     7
370
     0
100
AcDbLine
 10
83.2877834732
 20
118.6150400167
 30
0.0
 11
83.2877834732
 21
131.0106608285
 31
0.0
  0
LINE
  5
22A
330
1F
100
AcDbEntity
  8
0
  6
HIDDEN
 62
     7
370
     0
100
AcDbLine
 10
83.8028053226
 20
98.4956379248
 30
0.0
 11
83.2877834732
 21
99.0106593086
 31
0.0
  0
LINE
  5
22B
330
1F
100
AcDbEntity
  8
0
  6
HIDDEN
 62
     7
370
     0
100
AcDbLine
 10
76.2877832572
 20
99.0106593086
 30
0.0
 11
75.7719166982
 21
98.4947941465
 31
0.0
  0
LINE
  5
22C
330
1F
100
AcDbEntity
  8
0
  6
HIDDEN
 62
     7
370
     0
100
AcDbLine
 10
75.7727614077
 20
131.5256822122
 30
0.0
 11
76.2877832572
 21
131.0106608285
 31
0.0
  0
LINE
  5
22D
330
1F
100
AcDbEntity
  8
0
  6
HIDDEN
 62
     7
370
     0
100
AcDbLine
 10
83.2877834732
 20
131.0106608285
 30
0.0
 11
83.8036500322
 21
131.5265259905
 31
0.0
  0
LINE
  5
22E
330
1F
100
AcDbEntity
  8
0
  6
HIDDEN
 62
     7
370
     0
100
AcDbLine
 10
83.2877834732
 20
99.0106593086
 30
0.0
 11
83.2877834732
 21
111.4399458015
 31
0.0
  0
LINE
  5
22F
330
1F
100
AcDbEntity
  8
0
  6
HIDDEN
 62
     7
370
     0
100
AcDbLine
 10
76.2877832572
 20
111.4062801203
 30
0.0
 11
76.2877832572
 21
99.0106593086
 31
0.0
  0
LINE
  5
230
330
1F
100
AcDbEntity
  8
0
  6
HIDDEN
 62
     7
370
     0
100
AcDbLine
 10
76.2877832572
 20
131.0106608285
 30
0.0
 11
76.2877832572
 21
118.5813743355
 31
0.0
  0
LINE
  5
231
330
1F
100
AcDbEntity
  8
0
  6
HIDDEN
 62
     7
370
     0
100
AcDbLine
 10
83.2877834732
 20
118.6150400167
 30
0.0
 11
83.2877834732
 21
131.0106608285
 31
0.0
  0
LINE
  5
232
330
1F
100
AcDbEntity
  8
0
  6
HIDDEN
 62
     7
370
     0
100
AcDbLine
 10
83.8028053226
 20
98.4956379248
 30
0.0
 11
83.2877834732
 21
99.0106593086
 31
0.0
  0
LINE
  5
233
330
1F
100
AcDbEntity
  8
0
  6
HIDDEN
 62
     7
370
     0
100
AcDbLine
 10
76.2877832572
 20
99.0106593086
 30
0.0
 11
75.7719166982
 21
98.4947941465
 31
0.0
  0
LINE
  5
234
330
1F
100
AcDbEntity
  8
0
  6
HIDDEN
 62
     7
370
     0
100
AcDbLine
 10
75.7727614077
 20
131.5256822122
 30
0.0
 11
76.2877832572
 21
131.0106608285
 31
0.0
  0
LINE
  5
235
330
1F
100
AcDbEntity
  8
0
  6
HIDDEN
 62
     7
370
     0
100
AcDbLine
 10
83.2877834732
 20
131.0106608285
 30
0.0
 11
83.8036500322
 21
131.5265259905
 31
0.0
  0
LINE
  5
236
330
1F
100
AcDbEntity
  8
0
  6
HIDDEN
 62
     7
370
     0
100
AcDbLine
 10
83.2877834732
 20
99.0106593086
 30
0.0
 11
83.2877834732
 21
111.4399458015
 31
0.0
  0
LINE
  5
237
330
1F
100
AcDbEntity
  8
0
  6
HIDDEN
 62
     7
370
     0
100
AcDbLine
 10
76.2877832572
 20
111.4062801203
 30
0.0
 11
76.2877832572
 21
99.0106593086
 31
0.0
  0
LINE
  5
238
330
1F
100
AcDbEntity
  8
0
  6
HIDDEN
 62
     7
370
     0
100
AcDbLine
 10
76.2877832572
 20
131.0106608285
 30
0.0
 11
76.2877832572
 21
118.5813743355
 31
0.0
  0
LINE
  5
239
330
1F
100
AcDbEntity
  8
0
  6
HIDDEN
 62
     7
370
     0
100
AcDbLine
 10
83.2877834732
 20
118.6150400167
 30
0.0
 11
83.2877834732
 21
131.0106608285
 31
0.0
  0
LINE
  5
23A
330
1F
100
AcDbEntity
  8
0
  6
HIDDEN
 62
     7
370
     0
100
AcDbLine
 10
96.3104945081
 20
119.0106602585
 30
0.0
 11
86.0377834583
 21
119.0106602585
 31
0.0
  0
LINE
  5
23B
330
1F
100
AcDbEntity
  8
0
  6
HIDDEN
 62
     7
370
     0
100
AcDbLine
 10
86.0377834583
 20
111.0106598785
 30
0.0
 11
96.3104945081
 21
111.0106598785
 31
0.0
  0
LINE
  5
23C
330
1F
100
AcDbEntity
  8
0
  6
HIDDEN
 62
     7
370
     0
100
AcDbLine
 10
86.0377834583
 20
119.0106602585
 30
0.0
 11
84.7877832534
 21
117.7606600536
 31
0.0
  0
LINE
  5
23D
330
1F
100
AcDbEntity
  8
0
  6
HIDDEN
 62
     7
370
     0
100
AcDbLine
 10
84.7877832534
 20
112.2606600834
 30
0.0
 11
86.0377834583
 21
111.0106598785
 31
0.0
  0
LINE
  5
23E
330
1F
100
AcDbEntity
  8
0
  6
HIDDEN
 62
     7
370
     0
100
AcDbLine
 10
75.7877831752
 20
131.5333712114
 30
0.0
 11
75.7877831752
 21
121.2606601616
 31
0.0
  0
LINE
  5
23F
330
1F
100
AcDbEntity
  8
0
  6
HIDDEN
 62
     7
370
     0
100
AcDbLine
 10
83.7877835552
 20
121.2606601616
 30
0.0
 11
83.7877835552
 21
131.5333712114
 31
0.0
  0
LINE
  5
240
330
1F
100
AcDbEntity
  8
0
  6
HIDDEN
 62
     7
370
     0
100
AcDbLine
 10
75.7877831752
 20
121.2606601616
 30
0.0
 11
77.0377833801
 21
120.0106599568
 31
0.0
  0
LINE
  5
241
330
1F
100
AcDbEntity
  8
0
  6
HIDDEN
 62
     7
370
     0
100
AcDbLine
 10
82.5377833503
 20
120.0106599568
 30
0.0
 11
83.7877835552
 21
121.2606601616
 31
0.0
  0
LINE
  5
242
330
1F
100
AcDbEntity
  8
0
  6
HIDDEN
 62
     7
370
     0
100
AcDbLine
 10
83.7877835552
 20
108.7606599754
 30
0.0
 11
82.5377833503
 21
110.0106601803
 31
0.0
  0
LINE
  5
243
330
1F
100
AcDbEntity
  8
0
  6
HIDDEN
 62
     7
370
     0
100
AcDbLine
 10
77.0377833801
 20
110.0106601803
 30
0.0
 11
75.7877831752
 21
108.7606599754
 31
0.0
  0
LINE
  5
244
330
1F
100
AcDbEntity
  8
0
  6
HIDDEN
 62
     7
370
     0
100
AcDbLine
 10
83.7877835552
 20
98.4879489256
 30
0.0
 11
83.7877835552
 21
108.7606599754
 31
0.0
  0
LINE
  5
245
330
1F
100
AcDbEntity
  8
0
  6
HIDDEN
 62
     7
370
     0
100
AcDbLine
 10
75.7877831752
 20
108.7606599754
 30
0.0
 11
75.7877831752
 21
98.4879489256
 31
0.0
  0
INSERT
  5
251
330
1F
100
AcDbEntity
  8
VERMASSUNG
100
AcDbBlockReference
  2
SW_CENTERMARKSYMBOL_0
 10
79.7877833652
 20
115.0106600685
 30
0.0
  0
OLE2FRAME
  5
252
330
1F
100
AcDbEntity
  8
0
100
AcDbOle2Frame
 70
     2
  3
Paintbrush-Bild
 10
13.8511154363
 20
38.264191557
 30
0.0
 11
51.6290888628
 21
31.9806341108
 31
0.0
 71
     2
 72
     0
 73
     1
 90
    12928
310
80552BED0767C5B32B40DDAF6807D121434000000000000000006FFBDDFB85D0
310
4940DDAF6807D121434000000000000000006FFBDDFB85D04940416F4BD60AFB
310
3F4000000000000000002BED0767C5B32B40416F4BD60AFB3F40000000000000
310
0000000000000100000000010000010000000100000000000100000000320000
310
D0CF11E0A1B11AE1000000000000000000000000000000003E000300FEFF0900
310
0600000000000000000000000100000001000000000000000010000002000000
310
01000000FEFFFFFF0000000000000000FFFFFFFFFFFFFFFFFFFFFFFFFFFFFFFF
310
FFFFFFFFFFFFFFFFFFFFFFFFFFFFFFFFFFFFFFFFFFFFFFFFFFFFFFFFFFFFFFFF
310
FFFFFFFFFFFFFFFFFFFFFFFFFFFFFFFFFFFFFFFFFFFFFFFFFFFFFFFFFFFFFFFF
310
FFFFFFFFFFFFFFFFFFFFFFFFFFFFFFFFFFFFFFFFFFFFFFFFFFFFFFFFFFFFFFFF
310
FFFFFFFFFFFFFFFFFFFFFFFFFFFFFFFFFFFFFFFFFFFFFFFFFFFFFFFFFFFFFFFF
310
FFFFFFFFFFFFFFFFFFFFFFFFFFFFFFFFFFFFFFFFFFFFFFFFFFFFFFFFFFFFFFFF
310
FFFFFFFFFFFFFFFFFFFFFFFFFFFFFFFFFFFFFFFFFFFFFFFFFFFFFFFFFFFFFFFF
310
FFFFFFFFFFFFFFFFFFFFFFFFFFFFFFFFFFFFFFFFFFFFFFFFFFFFFFFFFFFFFFFF
310
FFFFFFFFFFFFFFFFFFFFFFFFFFFFFFFFFFFFFFFFFFFFFFFFFFFFFFFFFFFFFFFF
310
FFFFFFFFFFFFFFFFFFFFFFFFFFFFFFFFFFFFFFFFFFFFFFFFFFFFFFFFFFFFFFFF
310
FFFFFFFFFFFFFFFFFFFFFFFFFFFFFFFFFFFFFFFFFFFFFFFFFFFFFFFFFFFFFFFF
310
FFFFFFFFFFFFFFFFFFFFFFFFFFFFFFFFFFFFFFFFFFFFFFFFFFFFFFFFFFFFFFFF
310
FFFFFFFFFFFFFFFFFFFFFFFFFFFFFFFFFFFFFFFFFFFFFFFFFFFFFFFFFFFFFFFF
310
FFFFFFFFFFFFFFFFFFFFFFFFFFFFFFFFFFFFFFFFFFFFFFFFFFFFFFFFFFFFFFFF
310
FDFFFFFFFEFFFFFFFEFFFFFFFEFFFFFF05000000060000000700000008000000
310
090000000A0000000B0000000C0000000D0000000E0000000F00000010000000
310
11000000120000001300000014000000150000001600000017000000FEFFFFFF
310
FFFFFFFFFFFFFFFFFFFFFFFFFFFFFFFFFFFFFFFFFFFFFFFFFFFFFFFFFFFFFFFF
310
FFFFFFFFFFFFFFFFFFFFFFFFFFFFFFFFFFFFFFFFFFFFFFFFFFFFFFFFFFFFFFFF
310
FFFFFFFFFFFFFFFFFFFFFFFFFFFFFFFFFFFFFFFFFFFFFFFFFFFFFFFFFFFFFFFF
310
FFFFFFFFFFFFFFFFFFFFFFFFFFFFFFFFFFFFFFFFFFFFFFFFFFFFFFFFFFFFFFFF
310
FFFFFFFFFFFFFFFFFFFFFFFFFFFFFFFFFFFFFFFFFFFFFFFFFFFFFFFFFFFFFFFF
310
FFFFFFFFFFFFFFFFFFFFFFFFFFFFFFFFFFFFFFFFFFFFFFFFFFFFFFFFFFFFFFFF
310
FFFFFFFFFFFFFFFFFFFFFFFFFFFFFFFFFFFFFFFFFFFFFFFFFFFFFFFFFFFFFFFF
310
FFFFFFFFFFFFFFFFFFFFFFFFFFFFFFFFFFFFFFFFFFFFFFFFFFFFFFFFFFFFFFFF
310
FFFFFFFFFFFFFFFFFFFFFFFFFFFFFFFFFFFFFFFFFFFFFFFFFFFFFFFFFFFFFFFF
310
FFFFFFFFFFFFFFFFFFFFFFFFFFFFFFFFFFFFFFFFFFFFFFFFFFFFFFFFFFFFFFFF
310
FFFFFFFFFFFFFFFFFFFFFFFFFFFFFFFFFFFFFFFFFFFFFFFFFFFFFFFFFFFFFFFF
310
FFFFFFFFFFFFFFFFFFFFFFFFFFFFFFFFFFFFFFFFFFFFFFFFFFFFFFFFFFFFFFFF
310
FFFFFFFFFFFFFFFFFFFFFFFFFFFFFFFFFFFFFFFFFFFFFFFFFFFFFFFFFFFFFFFF
310
52006F006F007400200045006E00740072007900000000000000000000000000
310
0000000000000000000000000000000000000000000000000000000000000000
310
16000500FFFFFFFFFFFFFFFF020000000A00030000000000C000000000000046
310
000000000000000000000000C08C57BCEB4DCD0103000000C000000000000000
310
01004F006C006500000000000000000000000000000000000000000000000000
310
0000000000000000000000000000000000000000000000000000000000000000
310
0A000200FFFFFFFFFFFFFFFFFFFFFFFF00000000000000000000000000000000
310
0000000000000000000000000000000000000000000000001400000000000000
310
010043006F006D0070004F0062006A0000000000000000000000000000000000
310
0000000000000000000000000000000000000000000000000000000000000000
310
120002010100000003000000FFFFFFFF00000000000000000000000000000000
310
0000000000000000000000000000000000000000010000004D00000000000000
310
01004F006C006500310030004E00610074006900760065000000000000000000
310
0000000000000000000000000000000000000000000000000000000000000000
310
1A000200FFFFFFFFFFFFFFFFFFFFFFFF00000000000000000000000000000000
310
0000000000000000000000000000000000000000040000002426000000000000
310
FEFFFFFF02000000FEFFFFFFFFFFFFFFFFFFFFFFFFFFFFFFFFFFFFFFFFFFFFFF
310
FFFFFFFFFFFFFFFFFFFFFFFFFFFFFFFFFFFFFFFFFFFFFFFFFFFFFFFFFFFFFFFF
310
FFFFFFFFFFFFFFFFFFFFFFFFFFFFFFFFFFFFFFFFFFFFFFFFFFFFFFFFFFFFFFFF
310
FFFFFFFFFFFFFFFFFFFFFFFFFFFFFFFFFFFFFFFFFFFFFFFFFFFFFFFFFFFFFFFF
310
FFFFFFFFFFFFFFFFFFFFFFFFFFFFFFFFFFFFFFFFFFFFFFFFFFFFFFFFFFFFFFFF
310
FFFFFFFFFFFFFFFFFFFFFFFFFFFFFFFFFFFFFFFFFFFFFFFFFFFFFFFFFFFFFFFF
310
FFFFFFFFFFFFFFFFFFFFFFFFFFFFFFFFFFFFFFFFFFFFFFFFFFFFFFFFFFFFFFFF
310
FFFFFFFFFFFFFFFFFFFFFFFFFFFFFFFFFFFFFFFFFFFFFFFFFFFFFFFFFFFFFFFF
310
FFFFFFFFFFFFFFFFFFFFFFFFFFFFFFFFFFFFFFFFFFFFFFFFFFFFFFFFFFFFFFFF
310
FFFFFFFFFFFFFFFFFFFFFFFFFFFFFFFFFFFFFFFFFFFFFFFFFFFFFFFFFFFFFFFF
310
FFFFFFFFFFFFFFFFFFFFFFFFFFFFFFFFFFFFFFFFFFFFFFFFFFFFFFFFFFFFFFFF
310
FFFFFFFFFFFFFFFFFFFFFFFFFFFFFFFFFFFFFFFFFFFFFFFFFFFFFFFFFFFFFFFF
310
FFFFFFFFFFFFFFFFFFFFFFFFFFFFFFFFFFFFFFFFFFFFFFFFFFFFFFFFFFFFFFFF
310
FFFFFFFFFFFFFFFFFFFFFFFFFFFFFFFFFFFFFFFFFFFFFFFFFFFFFFFFFFFFFFFF
310
FFFFFFFFFFFFFFFFFFFFFFFFFFFFFFFFFFFFFFFFFFFFFFFFFFFFFFFFFFFFFFFF
310
FFFFFFFFFFFFFFFFFFFFFFFFFFFFFFFFFFFFFFFFFFFFFFFFFFFFFFFFFFFFFFFF
310
0100000200000000000000000000000000000000000000000000000000000000
310
0000000000000000000000000000000000000000000000000000000000000000
310
0100FEFF030A0000FFFFFFFF0A00030000000000C00000000000004607000000
310
5042727573680007000000504272757368000700000050427275736800F439B2
310
7100000000000000000000000000000000000000000000000000000000000000
310
0000000000000000000000000000000000000000000000000000000000000000
310
0000000000000000000000000000000000000000000000000000000000000000
310
0000000000000000000000000000000000000000000000000000000000000000
310
0000000000000000000000000000000000000000000000000000000000000000
310
0000000000000000000000000000000000000000000000000000000000000000
310
0000000000000000000000000000000000000000000000000000000000000000
310
0000000000000000000000000000000000000000000000000000000000000000
310
0000000000000000000000000000000000000000000000000000000000000000
310
0000000000000000000000000000000000000000000000000000000000000000
310
0000000000000000000000000000000000000000000000000000000000000000
310
0000000000000000000000000000000000000000000000000000000000000000
310
20260000424D0E260000000000003E00000028000000B40200006E0000000100
310
01000000000000000000130B0000130B00000200000002000000000000FFFFFF
310
FFFFFFFFFFFFFFFFFFFFFFFFFFFFFFFFFFFFFFFFFFFFFFFFFFFFFFFFFFFFFFFF
310
FFFFFFFFFFFFFFFFFFFFFFFFFFFFFFFFFFFFFFFFFFFFFFFFFFFFFFFFFFFFFFFF
310
FFFFFFFFFFFFFFFFFFFFFFFFFFFFFFFFFFFFFFFFFFFFFFFFF000FFFFFFFFFFFF
310
FFFFFFFFFFFFFFFFFFFFFFFFFFFFFFFFFFFFFFFFFFFFFFFFFFFFFFFFFFFFFFFF
310
FFFFFFFFFFFFFFFFFFFFFFFFFFFFFFFFFFFFFFFFFFFFFFFFFFFFFFFFFFFFFFFF
310
FFFFFFFFFFFFFFFFFFFFFFFFFFFFFFFFF000FFFFFFFFFFFFFFFFFFFFFFFFFFFF
310
FFFFFFFFFFFFFFFFFFFFFFFFFFFFFFFFFFFFFFFFFFFFFFFFFFFFFFFFFFFFFFFF
310
FFFFFFFFFFFFFFFFFFFFFFFFFFFFFFFFFFFFFFFFFFFFFFFFFFFFFFFFFFFFFFFF
310
FFFFFFFFFFFFFFFFF000FFFFFFFFFFFFFFFFFFFFFFFFFFFFFFFFFFFFFFFFFFFF
310
FFFFFFFFFFFFFFFFFFFFFFFFFFFFFFFFFFFFFFFFFFFFFFFFFFFFFFFFFFFFFFFF
310
FFFFFFFFFFFFFFFFFFFFFFFFFFFFFFFFFFFFFFFFFFFFFFFFFFFFFFFFFFFFFFFF
310
F000FFFFFFFFFFFFFFFFFFFFFFFFFFFFFFFFFFFFFFFFFFFFFFFFFFFFFFFFFFFF
310
FFFFFFFFFFFFFFFFFFFFFFFFFFFFFFFFFFFFFFFFFFFFFFFFFFFFFFFFFFFFFFFF
310
FFFFFFFFFFFFFFFFFFFFFFFFFFFFFFFFFFFFFFFFFFFFFFFFF000FFFFFFFFFFFF
310
FFFFFFFFFFFFFFFFFFFFFFFFFFFFFFFFFFFFFFFFFFFFFFFFFFFFFFFFFFFFFFFF
310
FFFFFFFFFFFFFFFFFFFFFFFFFFFFFFFFFFFFFFFFFFFFFFFFFFFFFFFFFFFFFFFF
310
FFFFFFFFFFFFFFFFFFFFFFFFFFFFFFFFF000FFFFFFFFFFFFFFFFFFFFFFFFFFFF
310
FFFFFFFFFFFFFFFFFFFFFFFFFFFFFFFFFFFFFFFFFFFFFFFFFFFFFFFFFFFFFFFF
310
FFFFFFFFFFFFFFFFFFFFFFFFFFFFFFFFFFFFFFFFFFFFFFFFFFFFFFFFFFFFFFFF
310
FFFFFFFFFFFFFFFFF000FFFFFFFFFFFFFFFFFFFFFFFFFFFFFFFFFFFFFFFFFFFF
310
FFFFFFFFFFFFFFFFFFFFFFFFFFFFFFFFFFFFFFFFFFFFFFFFFFFFFFFFFFFFFFFF
310
FFFFFFFFFFFFFFFFFFFFFFFFFFFFFFFFFFFFFFFFFFFFFFFFFFFFFFFFFFFFFFFF
310
F000FFFFFFFFFFFFFFFFFFFFFFFFFFFFFFFFFFFFFFFFFFFFFFFFFFFFFFFFFFFF
310
FFFFFFFFFFFFFFFFFFFFFFFFFFFFFFFFFFFFFFFFFFFFFFFFFFFFFFFFFFFFFFFF
310
FFFFFFFFFFFFFFFFFFFFFFFFFFFFFFFFFFFFFFFFFFFFFFFFF000FFFFFFFFFFFF
310
FFFFFFFFFFFFFFFFFFFFFFFFFFFFFFFFFFFFFFFFFFFFFFFFFFFFFFFFFFFFFFFF
310
FFFFFFFFFFFFFFFFFFFFFFFFFFFFFFFFFFFFFFFFFFFFFFFFFFFFFFFFFFFFFFFF
310
FFFFFFFFFFFFFFFFFFFFFFFFFFFFFFFFF000FFFFFFFFFFFFFFFFFFFFFFFFFFFF
310
FFFFFFFFFFFFFFFFFFFFFFFFFFFFFFFFFFFFFFFFFFFFFFFFFFFFFFFFFFFFFFFF
310
FFFFFFFFFFFFFFFFFFFFFFFFFFFFFFFFFFFFFFFFFFFFFFFFFFFFFFFFFFFFFFFF
310
FFFFFFFFFFFFFFFFF000FFFFFFFFFFFFFFFFFFFFFFFFFFFFFFFFFFFFFFFFFFFF
310
FFFFFFFFFFFFFFFFFFFFFFFFFFFFFFFFFFFFFFFFFFFFFFFFFFFFFFFFFFFFFFFF
310
FFFFFFFFFFFFFFFFFFFFFFFFFFFFFFFFFFFFFFFFFFFFFFFFFFFFFFFFFFFFFFFF
310
F000FFFFFFFFFFFFFFFFFFFFFFFFFFFFFFFFFFFFFFFFFFFFFFFFFFFFFFFFFFFF
310
FFFFFFFFFFFFFFFFFFFFFFFFFFFFFFFFFFFFFFFFFFFFFFFFFFFFFFFFFFFFFFFF
310
FFFFFFFFFFFFFFFFFFFFFFFFFFFFFFFFFFFFFFFFFFFFFFFFF000FFFFFFFFFFFF
310
FFFFFFFFFFFFFFFFFFFFFFFFFFFFFFFFFFFFFFFFFFFFFFFFFFFFFFFFFFFFFFFF
310
FFFFFFFFFFFFFFFFFFFFFFFFFFFFFFFFFFFFFFFFFFFFFFFFFFFFFFFFFFFFFFFF
310
FFFFFFFFFFFFFFFFFFFFFFFFFFFFFFFFF000FFFFFFFFFFFFFFFFFFFFFFFFFFFF
310
FFFFFFFFFFFFFFFFFFFFFFFFFFFFFFFFFFFFFFFFFFFFFFFFFFFFFFFFFFFFFFFF
310
FFFFFFFFFFFFFFFFFFFFFFFFFFFFFFFFFFFFFFFFFFFFFFFFFFFFFFFFFFFFFFFF
310
FFFFFFFFFFFFFFFFF000FFFFFFFFFFFFFFFFFFFFFFFFFFFFFFFFFFFFFFFFFFFF
310
FFFFFFFFFFFFFFFFFFFFFFFFFFFFFFFFFFFFFFFFFFFFFFFFFFFFFFFFFFFFFFFF
310
FFFFFFFFFFFFFFFFFFFFFFFFFFFFFFFFFFFFFFFFFFFFFFFFFFFFFFFFFFFFFFFF
310
F000FFFFFFFFFFFFFFFFFFFFFFFFFFFFFFFFFFFFFFFFFFFFFFFFFFFFFFFFFFFF
310
FFFFFFFFFFFFFFFFFFFFFFFFFFFFFFFFFFFFFFFFFFFFFFFFFFFFFFFFFFFFFFFF
310
FFFFFFFFFFFFFFFFFFFFFFFFFFFFFFFFFFFFFFFFFFFFFFFFF000FFFFFFFFFFFF
310
FFFFFFFFFFFFFFFFFFFFFFFFFFFFFFFFFFFFFFFFFFFFFFFFFFFFFFFFFFFFFFFF
310
FFFFFFFFFFFFFFFFFFFFFFFFFFFFFFFFFFFFFFFFFFFFFFFFFFFFFFFFFFFFFFFF
310
FFFFFFFFFFFFFFFFFFFFFFFFFFFFFFFFF000FFFFFFFFFFFFFFFFFFFFFFFFFFFF
310
FFFFFFFFFFFFFFFFFFFFFFFFFFFFFFFFFFFFFFFFFFFFFFFFFFFFFFFFFFFFFFFF
310
FFFFFFFFFFFFFFFFFFFFFFFFFFFFFFFFFFFFFFFFFFFFFFFFFFFFFFFFFFFFFFFF
310
FFFFFFFFFFFFFFFFF000FFFFF80003FFFFFFFFFFFFFFFFFFFFFFFFFFFFFFFFFF
310
FFFFF00007FFFFFFFFFF00007FFFFFF800000000000000007FFFFFFFFFFFFFFF
310
FFFFFFFC001FFFFFFFFFFFFFFC001FFFFFFFFFFFFFFFFFFFFFFFFFFE0007FFFF
310
F000FFFF8000007FFFFFFFF8000FFFFFC0007FFFFF80007FFFFF0000007FFFFF
310
FFF8000007FFFFF800000000000000007FFFFFF0001FFFFFFFFFFFC00001FFFF
310
FFFFFFFFC00001FFFFFFFF000000000003FFFFE000007FFFF000FFFE0000000F
310
FFFFFFF0000FFFFF80007FFFFF80007FFFFC0000001FFFFFFFC0000001FFFFF8
310
00000000000000007FFFFFF0001FFFFFFFFFFE0000003FFFFFFFFFFE0000003F
310
FFFFFF000000000003FFFF0000000FFFF000FFF800000003FFFFFFF00007FFFF
310
80007FFFFF80007FFFF000000007FFFFFF000000003FFFF80000000000000000
310
7FFFFFF0001FFFFFFFFFF80000000FFFFFFFFFF80000000FFFFFFF0000000000
310
03FFFC00000003FFF000FFE000000000FFFFFFF00007FFFF80003FFFFF80007F
310
FFC000000001FFFFFC000000001FFFF800000000000000007FFFFFF0001FFFFF
310
FFFFE000000003FFFFFFFFE000000003FFFFFF000000000003FFF000000000FF
310
F000FF80000000007FFFFFF00007FFFF80003FFFFF80007FFF8000000000FFFF
310
F80000000007FFF800000000000000007FFFFFF0001FFFFFFFFFC000000001FF
310
FFFFFFC000000001FFFFFF000000000003FFC0000000007FF000FF0000000000
310
3FFFFFE00007FFFF00003FFFFF80007FFE00000000003FFFF00000000003FFF8
310
00000000000000007FFFFFF0001FFFFFFFFF8000000000FFFFFFFF8000000000
310
FFFFFF000000000003FF80000000003FF000FE00000000001FFFFFE00003FFFF
310
00003FFFFF80007FFC00000000001FFFE00000000001FFF8000001FFFE000000
310
7FFFFFF0001FFFFFFFFE00000000003FFFFFFE00000000003FFFFF0000000000
310
03FF00000000001FF000FC00000000000FFFFFE00003FFFF00001FFFFF80007F
310
F800000000001FFFC00000000000FFF8000001FFFE0000007FFFFFF0001FFFFF
310
FFFC00000000001FFFFFFC00000000001FFFFF000000000003FE00000000000F
310
F000F8000000000007FFFFE00003FFFF00001FFFFF80007FF800000000000FFF
310
800000000000FFF8000001FFFE0000007FFFFFF0001FFFFFFFF800000000000F
310
FFFFF800000000000FFFFF000000000003FC000000000007F000F80000000000
310
03FFFFC00003FFFE00001FFFFF80007FF0000000000007FF0000000000007FF8
310
000001FFFE0000007FFFFFF0001FFFFFFFF0000000000007FFFFF00000000000
310
07FFFF000000000003F8000000000003F000F0000000000003FFFFC00001FFFE
310
00001FFFFF80007FE0000000000007FE0000000000003FF8000001FFFE000000
310
7FFFFFF0001FFFFFFFF0000000000007FFFFF0000000000007FFFF0000000000
310
03F800001F800003F000E00001FFF00001FFFFC00001FFFE00000FFFFF80007F
310
E00001FFE00003FE00001FFF00003FF8000001FFFE0000007FFFFFF0001FFFFF
310
FFE000003E000003FFFFE000003E000003FFFF000000000003F00001FFF80001
310
F000E00007FFFC0001FFFFC00001FFFE00000FFFFF80007FC0000FFFFC0003FC
310
0000FFFFC0001FF8000001FFFE0000007FFFFFF0001FFFFFFFC00003FFE00001
310
FFFFC00003FFE00001FFFF0001FFFFFFFFF00007FFFE0001F000E0000FFFFF00
310
00FFFF800001FFFC00000FFFFF80007FC0001FFFFE0001FC0001FFFFE0001FF8
310
000001FFFE0000007FFFFFF0001FFFFFFF80000FFFF80000FFFF80000FFFF800
310
00FFFF0003FFFFFFFFE0000FFFFF8000F000C0003FFFFF8000FFFF800000FFFC
310
000007FFFF80007F80003FFFFF0001FC0003FFFFF0001FF8000001FFFE000000
310
7FFFFFF0001FFFFFFF80003FFFFE0000FFFF80003FFFFE0000FFFF0003FFFFFF
310
FFE0003FFFFF8000F000C0003FFFFF8000FFFF800000FFFC000007FFFF80007F
310
80007FFFFF8001F80007FFFFF8000FF8000001FFFE0000007FFFFFF0001FFFFF
310
FF00007FFFFF00007FFF00007FFFFF00007FFF0003FFFFFFFFE0003FFFFFC000
310
F000C0007FFFFFC000FFFF000000FFFC000007FFFF80007F8000FFFFFF8000F8
310
000FFFFFF8000FF8000001FFFE0000007FFFFFF0001FFFFFFF0000FFFFFF8000
310
7FFF0000FFFFFF80007FFF0003FFFFFFFFC0007FFFFFC00070008000FFFFFFC0
310
00FFFF000000FFF8000007FFFF80007F8000FFFFFF8000F8000FFFFFF8000FF8
310
000001FFFE0000007FFFFFF0001FFFFFFE0001FFFFFFC0003FFE0001FFFFFFC0
310
003FFF0003FFFFFFFFC0007FFFFFE00070008000FFFFFFC0007FFF0000007FF8
310
000003FFFF80007F0001FFFFFF8000F8000FFFFFF8000FF8000001FFFE000000
310
7FFFFFF0001FFFFFFE0001FFFFFFC0003FFE0001FFFFFFC0003FFF0003FFFFFF
310
FFC000FFFFFFE00070008000FFFFFFC0007FFF0000007FF8000003FFFF80007F
310
0001FFFFFF8000F8001FFFFFF8000FF8000001FFFE0000007FFFFFF0001FFFFF
310
FE0003FFFFFFE0003FFE0003FFFFFFE0003FFF0003FFFFFFFFC000FFFFFFE000
310
70008000FFFFFFC0007FFE0000007FF8000003FFFF80007F0001FFFFFF8000F0
310
001FFFFFF8000FF8000001FFFE0000007FFFFFF0001FFFFFFC0003FFFFFFE000
310
1FFC0003FFFFFFE0001FFF0003FFFFFFFFC000FFFFFFC00070008000FFFFFF80
310
007FFE0000007FF0000003FFFF80007F0001FFFFFF0000F0001FFFFFF8000FF8
310
000001FFFE0000007FFFFFF0001FFFFFFC0007FFFFFFF0001FFC0007FFFFFFF0
310
001FFF0003FFFFFFFFC000FFFFFFC00070008001FFFFFF0000FFFE0000003FF0
310
000001FFFF80007F0001FFFFFF0000F8001FFFFFF0000FF8000001FFFE000000
310
7FFFFFF0001FFFFFFC0007FFFFFFF0001FFC0007FFFFFFF0001FFF0003FFFFFF
310
FFC001FFFFFF80007000FFFFFFFFFE0000FFFE0008003FF0008001FFFF80007F
310
FFFFFFFFFC0000FFFFFFFFFFE0000FF8000001FFFE0000007FFFFFF0001FFFFF
310
F8000FFFFFFFF8000FF8000FFFFFFFF8000FFF0003FFFFFFFFFFFFFFFFFF0000
310
7000FFFFFFFFFC0000FFFC0008003FF0008001FFFF80007FFFFFFFFFF80001FF
310
FFFFFFFF80000FF8000001FFFE0000007FFFFFF0001FFFFFF8000FFFFFFFF800
310
0FF8000FFFFFFFF8000FFF0003FFFFFFFFFFFFFFFFFE0000F000FFFFFFFFE000
310
00FFFC000C003FE000C001FFFF80007FFFFFFFFFC00001FFFFFFFFFE00001FF8
310
000001FFFE0000007FFFFFF0001FFFFFF8000FFFFFFFF8000FF8000FFFFFFFF8
310
000FFF0003FFFFFFFFFFFFFFFFF00000F000FFFFFFFE000001FFFC000C001FE0
310
00C000FFFF80007FFFFFFFFE000001FFFFFFFFE000001FF80FFFFFFFFFFFFFC0
310
7FFFFFF0001FFFFFF8000FFFFFFFF8000FF8000FFFFFFFF8000FFF0003FFFFFF
310
FFFFFFFFFF800000F000FFFFFFC0000001FFFC001C001FE001C000FFFF80007F
310
FFFFFF80000003FFFFFFF80000001FF80FFFFFFFFFFFFFC07FFFFFF0001FFFFF
310
F8001FFFFFFFFC000FF8001FFFFFFFFC000FFF0003FFFFFFFFFFFFFFF0000001
310
F000FFFFF800000001FFF8001C001FE001C000FFFF80007FFFFFF800000003FF
310
FFFF800000003FF80FFFFFFFFFFFFFC07FFFFFF0001FFFFFF8001FFFFFFFFC00
310
0FF8001FFFFFFFFC000FFF0003FFFFFFFFFFFFFE00000001F000FFFFC0000000
310
03FFF8001E001FC001E000FFFF80007FFFFF8000000007FFFFFC000000003FF8
310
0FFFFFFFFFFFFFC07FFFFFF0001FFFFFF8001FFFFFFFFC000FF8001FFFFFFFFC
310
000FFF0003FFFFFFFFFFFFE000000003F000FFFE0000000007FFF8001E000FC0
310
01E0007FFF80007FFFFE0000000007FFFFE0000000007FF80FFFFFFFFFFFFFC0
310
7FFFFFF0001FFFFFF0001FFFFFFFFC0007F0001FFFFFFFFC0007FF0003FFFFFF
310
FFFFFF0000000003F000FFF80000000007FFF8001E000FC003E0007FFF80007F
310
FFF0000000000FFFFF8000000000FFF80FFFFFFFFFFFFFC07FFFFFF0001FFFFF
310
F0001FFFFFFFFC0007F0001FFFFFFFFC0007FF0003FFFFFFFFFFFC0000000007
310
F000FFE0000000000FFFF0003E000FC003E0007FFF80007FFFC0000000001FFF
310
FE0000000001FFF80FFFFFFFFFFFFFC07FFFFFF0001FFFFFF0001FFFFFFFFC00
310
07F0001FFFFFFFFC0007FF0003FFFFFFFFFFF0000000000FF000FFC000000000
310
1FFFF0003F000F8003F0003FFF80007FFF80000000003FFFF80000000003FFF8
310
0FFFFFFFFFFFFFC07FFFFFF0001FFFFFF0001FFFFFFFFC0007F0001FFFFFFFFC
310
0007FF0003FFFFFFFFFFE0000000001FF000FF00000000007FFFF0003F000780
310
03F0003FFF80007FFF00000000007FFFF00000000007FFF80FFFFFFFFFFFFFC0
310
7FFFFFF0001FFFFFF0001FFFFFFFFC0007F0001FFFFFFFFC0007FF0003FFFFFF
310
FFFF80000000007FF000FE0000000000FFFFE0003F00078007F0003FFF80007F
310
FE0000000001FFFFE0000000001FFFF80FFFFFFFFFFFFFC07FFFFFF0001FFFFF
310
F0001FFFFFFFFC0007F0001FFFFFFFFC0007FF0003FFFFFFFFFF0000000000FF
310
F000FC0000000003FFFFE0007F00078007F0003FFF80007FFC0000000007FFFF
310
C0000000007FFFF80FFFFFFFFFFFFFC07FFFFFF0001FFFFFF8001FFFFFFFFC00
310
0FF8001FFFFFFFFC000FFF0003FFFFFFFFFE0000000003FFF000FC000000000F
310
FFFFE0007F80070007F8001FFF80007FF8000000001FFFFF8000000001FFFFF8
310
0FFFFFFFFFFFFFC07FFFFFF0001FFFFFF8001FFFFFFFFC000FF8001FFFFFFFFC
310
000FFF0003FFFFFFFFFC000000000FFFF000F8000000007FFFFFE0007F800700
310
07F8001FFF80007FF000000000FFFFFF800000000FFFFFF80FFFFFFFFFFFFFC0
310
7FFFFFF0001FFFFFF8000FFFFFFFF8000FF8000FFFFFFFF8000FFF0003FFFFFF
310
FFFC000000007FFFF000F800000007FFFFFFC0007F8003000FF8001FFF80007F
310
F000000007FFFFFF000000007FFFFFF80FFFFFFFFFFFFFC07FFFFFF0001FFFFF
310
F8000FFFFFFFF8000FF8000FFFFFFFF8000FFF0003FFFFFFFFF80000000FFFFF
310
F000F0000000FFFFFFFFC000FF8003000FF8001FFF80007FE0000000FFFFFFFF
310
0000000FFFFFFFF8000001FFFE0000007FFFFFF0001FFFFFF8000FFFFFFFF800
310
0FF8000FFFFFFFF8000FFF0003FFFFFFFFF8000000FFFFFFF000F000000FFFFF
310
FFFFC000FFC002000FF8000FFF80007FE000001FFFFFFFFE000001FFFFFFFFF8
310
000001FFFE0000007FFFFFF0001FFFFFF8000FFFFFFFF8000FF8000FFFFFFFF8
310
000FFF0003FFFFFFFFF000001FFFFFFFF000E00000FFFFFFFFFFC000FFC00200
310
0FFC000FFF80007FE00001FFFFFFFFFE00001FFFFFFFFFF8000001FFFE000000
310
7FFFFFF0001FFFFFFC000FFFFFFFF8001FFC000FFFFFFFF8001FFF0003FFFFFF
310
FFF00001FFFFFFFFF000E00007FFFFFFFFFF8000FFC000001FFC000FFF80007F
310
C0000FFFFFFFFFFE0000FFFFFFFFFFF8000001FFFE0000007FFFFFF0001FFFFF
310
FC0007FFFFFFF0001FFC0007FFFFFFF0001FFF0003FFFFFFFFF00007FFFFFFFF
310
F000E0001FFFFFFFFFFF8000FFC000001FFC000FFF80007FC0003FFFFFFFFFFE
310
0001FFFFFFFFFFF8000001FFFE0000007FFFFFF0001FFFFFFC0007FFFFFFF000
310
1FFC0007FFFFFFF0001FFF0003FFFFFFFFF0001FFFFFFFFFF000E0003FFFFF00
310
03FF8001FFE000001FFC0007FF80007FC0007FFFFF0007FC0003FFFFF0003FF8
310
000001FFFE0000007FFFFFF0001FFFFFFC0003FFFFFFE0001FFC0003FFFFFFE0
310
001FFF0003FFFFFFFFF0003FFFFFFFFFF000E0003FFFFF0001FF8001FFE00000
310
1FFE0007FF80007FC0007FFFFE0003FC0007FFFFE0003FF8000001FFFE000000
310
7FFFFFF0001FFFFFFE0003FFFFFFE0003FFE0003FFFFFFE0003FFF0003FFFFFF
310
FFF0003FFFFF8001F000E0003FFFFF0001FF0001FFE000001FFE0007FF80007F
310
C0007FFFFE0003FC0007FFFFE0003FF8000001FFFE0000007FFFFFF0001FFFFF
310
FE0001FFFFFFC0003FFE0001FFFFFFC0003FFF0003FFFFFFFFF0003FFFFF0001
310
F000E0003FFFFF0003FF0001FFE000003FFE0007FF80007FC0007FFFFE0003FC
310
0007FFFFE0003FF8000001FFFE0000007FFFFFF0001FFFFFFF0001FFFFFFC000
310
7FFF0001FFFFFFC0007FFF0003FFFFFFFFF0003FFFFF0001F000E0003FFFFE00
310
03FF0003FFF000003FFE0003FF80007FC0007FFFFC0003FE0007FFFFE0003FF8
310
000001FFFE0000007FFFFFF0001FFFFFFF0000FFFFFF80007FFF0000FFFFFF80
310
007FFF0003FFFFFFFFF0003FFFFF0001F000E0003FFFFE0003FF0003FFF00000
310
3FFF0003FF80007FC0007FFFFC0007FE0007FFFFC0003FF8000001FFFE000000
310
7FFFFFF0001FFFFFFF80007FFFFF0000FFFF80007FFFFF0000FFFF0003FFFFFF
310
FFF0003FFFFF0003F000E0003FFFFC0003FE0003FFF000003FFF0003FF80007F
310
E0003FFFF80007FE0003FFFFC0007FF8000001FFFE0000007FFFFFF0001FFFFF
310
FF80003FFFFE0000FFFF80003FFFFE0000FFFF0003FFFFFFFFF0001FFFFE0003
310
F000F0001FFFF80003FE0003FFF000007FFF0001FF80007FE0003FFFF00007FE
310
0001FFFF80007FF8000001FFFE0000007FFFFFF0001FFFFFFFC0000FFFF80001
310
FFFFC0000FFFF80001FFFF0003FFFFFFFFF0001FFFFC0003F000F0000FFFF000
310
07FE0007FFF800007FFF0001FF80007FE0001FFFE00007FF0000FFFE00007FF8
310
000001FFFE0000007FFFFFF0001FFFFFFFC00003FFE00001FFFFC00003FFE000
310
01FFFF0003FFFFFFFFF8000FFFF80003F000F00003FFC00007FC0007FFF80000
310
7FFF8001FF80007FF00007FF80000FFF00007FF80000FFF8000001FFFE000000
310
7F80000000000001FFE000003E000003FFFFE000003E000003FFFF0003FFFFFF
310
FFF80003FFE00007F000F800000000000FFC0007FFF800007FFF8001FF80007F
310
F000000000000FFF000000000000FFF8000001FFFE0000007F80000000000001
310
FFF0000000000007FFFFF0000000000007FFFF0003FFFFFFFFFC00007E000007
310
F000F800000000000FFC0007FFF80000FFFF8000FF80007FF800000000001FFF
310
800000000001FFF8000001FFFE0000007F80000000000001FFF800000000000F
310
FFFFF800000000000FFFFF0003FFFFFFFFFC00000000000FF000FC0000000000
310
1FFC0007FFFC0000FFFF8000FF80007FF800000000003FFFC00000000001FFF8
310
000001FFFE0000007F80000000000001FFF800000000000FFFFFF80000000000
310
0FFFFF0003FFFFFFFFFE00000000001FF000FE00000000003FF8000FFFFC0000
310
FFFF8000FF80007FFC00000000003FFFC00000000003FFF8000001FFFE000000
310
7F80000000000001FFFC00000000001FFFFFFC00000000001FFFFF0003FFFFFF
310
FFFF00000000001FF000FF00000000003FF8000FFFFC0000FFFFC000FF80007F
310
FE00000000007FFFE00000000007FFF8000001FFFE0000007F80000000000001
310
FFFE00000000003FFFFFFE00000000003FFFFF0003FFFFFFFFFF80000000003F
310
F000FF80000000007FF8000FFFFC0001FFFFC0007F80007FFF0000000000FFFF
310
F0000000000FFFF800000000000000007F80000000000001FFFF8000000000FF
310
FFFFFF8000000000FFFFFF0003FFFFFFFFFFC0000000007FF000FFC000000000
310
FFF8000FFFFE0001FFFFC0007F80007FFF8000000001FFFFF8000000001FFFF8
310
00000000000000007F80000000000001FFFFC000000001FFFFFFFFC000000001
310
FFFFFF0003FFFFFFFFFFE000000000FFF000FFE000000003FFF0001FFFFE0001
310
FFFFC0007F80007FFFC000000007FFFFFE000000003FFFF80000000000000000
310
7F80000000000001FFFFE000000003FFFFFFFFE000000003FFFFFF0003FFFFFF
310
FFFFF000000003FFF000FFF80000000FFFF0001FFFFE0001FFFFE0007F80007F
310
FFF00000000FFFFFFF00000000FFFFF800000000000000007F80000000000001
310
FFFFF80000000FFFFFFFFFF80000000FFFFFFF0003FFFFFFFFFFFC0000000FFF
310
F000FFFE0000003FFFF0001FFFFE0003FFFFE0003F80007FFFFC0000003FFFFF
310
FFC0000003FFFFF800000000000000007F80000000000001FFFFFE0000003FFF
310
FFFFFFFE0000003FFFFFFF0003FFFFFFFFFFFF0000003FFFF000FFFF800000FF
310
FFF0001FFFFF0003FFFFE0003F80007FFFFF000001FFFFFFFFF800001FFFFFF8
310
00000000000000007F80000000000001FFFFFFC00001FFFFFFFFFFFFC00001FF
310
FFFFFF0003FFFFFFFFFFFFC00000FFFFF000FFFFF8000FFFFFFFFFFFFFFFFFFF
310
FFFFFFFFFFFFFFFFFFFFF0001FFFFFFFFFFF0000FFFFFFF80000000000000000
310
7FFFFFFFFFFFFFFFFFFFFFFC001FFFFFFFFFFFFFFC001FFFFFFFFFFFFFFFFFFF
310
FFFFFFFC001FFFFFF000FFFFFFFFFFFFFFFFFFFFFFFFFFFFFFFFFFFFFFFFFFFF
310
FFFFFFFFFFFFFFFFFFFFFFFFFFFFFFFFFFFFFFFFFFFFFFFFFFFFFFFFFFFFFFFF
310
FFFFFFFFFFFFFFFFFFFFFFFFFFFFFFFFFFFFFFFFFFFFFFFFFFFFFFFFFFFFFFFF
310
F000FFFFFFFFFFFFFFFFFFFFFFFFFFFFFFFFFFFFFFFFFFFFFFFFFFFFFFFFFFFF
310
FFFFFFFFFFFFFFFFFFFFFFFFFFFFFFFFFFFFFFFFFFFFFFFFFFFFFFFFFFFFFFFF
310
FFFFFFFFFFFFFFFFFFFFFFFFFFFFFFFFFFFFFFFFFFFFFFFFF000FFFFFFFFFFFF
310
FFFFFFFFFFFFFFFFFFFFFFFFFFFFFFFFFFFFFFFFFFFFFFFFFFFFFFFFFFFFFFFF
310
FFFFFFFFFFFFFFFFFFFFFFFFFFFFFFFFFFFFFFFFFFFFFFFFFFFFFFFFFFFFFFFF
310
FFFFFFFFFFFFFFFFFFFFFFFFFFFFFFFFF000FFFFFFFFFFFFFFFFFFFFFFFFFFFF
310
FFFFFFFFFFFFFFFFFFFFFFFFFFFFFFFFFFFFFFFFFFFFFFFFFFFFFFFFFFFFFFFF
310
FFFFFFFFFFFFFFFFFFFFFFFFFFFFFFFFFFFFFFFFFFFFFFFFFFFFFFFFFFFFFFFF
310
FFFFFFFFFFFFFFFFF000FFFFFFFFFFFFFFFFFFFFFFFFFFFFFFFFFFFFFFFFFFFF
310
FFFFFFFFFFFFFFFFFFFFFFFFFFFFFFFFFFFFFFFFFFFFFFFFFFFFFFFFFFFFFFFF
310
FFFFFFFFFFFFFFFFFFFFFFFFFFFFFFFFFFFFFFFFFFFFFFFFFFFFFFFFFFFFFFFF
310
F000FFFFFFFFFFFFFFFFFFFFFFFFFFFFFFFFFFFFFFFFFFFFFFFFFFFFFFFFFFFF
310
FFFFFFFFFFFFFFFFFFFFFFFFFFFFFFFFFFFFFFFFFFFFFFFFFFFFFFFFFFFFFFFF
310
FFFFFFFFFFFFFFFFFFFFFFFFFFFFFFFFFFFFFFFFFFFFFFFFF000FFFFFFFFFFFF
310
FFFFFFFFFFFFFFFFFFFFFFFFFFFFFFFFFFFFFFFFFFFFFFFFFFFFFFFFFFFFFFFF
310
FFFFFFFFFFFFFFFFFFFFFFFFFFFFFFFFFFFFFFFFFFFFFFFFFFFFFFFFFFFFFFFF
310
FFFFFFFFFFFFFFFFFFFFFFFFFFFFFFFFF000FFFFFFFFFFFFFFFFFFFFFFFFFFFF
310
FFFFFFFFFFFFFFFFFFFFFFFFFFFFFFFFFFFFFFFFFFFFFFFFFFFFFFFFFFFFFFFF
310
FFFFFFFFFFFFFFFFFFFFFFFFFFFFFFFFFFFFFFFFFFFFFFFFFFFFFFFFFFFFFFFF
310
FFFFFFFFFFFFFFFFF000FFFFFFFFFFFFFFFFFFFFFFFFFFFFFFFFFFFFFFFFFFFF
310
FFFFFFFFFFFFFFFFFFFFFFFFFFFFFFFFFFFFFFFFFFFFFFFFFFFFFFFFFFFFFFFF
310
FFFFFFFFFFFFFFFFFFFFFFFFFFFFFFFFFFFFFFFFFFFFFFFFFFFFFFFFFFFFFFFF
310
F000FFFFFFFFFFFFFFFFFFFFFFFFFFFFFFFFFFFFFFFFFFFFFFFFFFFFFFFFFFFF
310
FFFFFFFFFFFFFFFFFFFFFFFFFFFFFFFFFFFFFFFFFFFFFFFFFFFFFFFFFFFFFFFF
310
FFFFFFFFFFFFFFFFFFFFFFFFFFFFFFFFFFFFFFFFFFFFFFFFF000FFFFFFFFFFFF
310
FFFFFFFFFFFFFFFFFFFFFFFFFFFFFFFFFFFFFFFFFFFFFFFFFFFFFFFFFFFFFFFF
310
FFFFFFFFFFFFFFFFFFFFFFFFFFFFFFFFFFFFFFFFFFFFFFFFFFFFFFFFFFFFFFFF
310
FFFFFFFFFFFFFFFFFFFFFFFFFFFFFFFFF000FFFFFFFFFFFFFFFFFFFFFFFFFFFF
310
FFFFFFFFFFFFFFFFFFFFFFFFFFFFFFFFFFFFFFFFFFFFFFFFFFFFFFFFFFFFFFFF
310
FFFFFFFFFFFFFFFFFFFFFFFFFFFFFFFFFFFFFFFFFFFFFFFFFFFFFFFFFFFFFFFF
310
FFFFFFFFFFFFFFFFF000FFFFFFFFFFFFFFFFFFFFFFFFFFFFFFFFFFFFFFFFFFFF
310
FFFFFFFFFFFFFFFFFFFFFFFFFFFFFFFFFFFFFFFFFFFFFFFFFFFFFFFFFFFFFFFF
310
FFFFFFFFFFFFFFFFFFFFFFFFFFFFFFFFFFFFFFFFFFFFFFFFFFFFFFFFFFFFFFFF
310
F000FFFFFFFFFFFFFFFFFFFFFFFFFFFFFFFFFFFFFFFFFFFFFFFFFFFFFFFFFFFF
310
FFFFFFFFFFFFFFFFFFFFFFFFFFFFFFFFFFFFFFFFFFFFFFFFFFFFFFFFFFFFFFFF
310
FFFFFFFFFFFFFFFFFFFFFFFFFFFFFFFFFFFFFFFFFFFFFFFFF000FFFFFFFFFFFF
310
FFFFFFFFFFFFFFFFFFFFFFFFFFFFFFFFFFFFFFFFFFFFFFFFFFFFFFFFFFFFFFFF
310
FFFFFFFFFFFFFFFFFFFFFFFFFFFFFFFFFFFFFFFFFFFFFFFFFFFFFFFFFFFFFFFF
310
FFFFFFFFFFFFFFFFFFFFFFFFFFFFFFFFF000FFFFFFFFFFFFFFFFFFFFFFFFFFFF
310
FFFFFFFFFFFFFFFFFFFFFFFFFFFFFFFFFFFFFFFFFFFFFFFFFFFFFFFFFFFFFFFF
310
FFFFFFFFFFFFFFFFFFFFFFFFFFFFFFFFFFFFFFFFFFFFFFFFFFFFFFFFFFFFFFFF
310
FFFFFFFFFFFFFFFFF000FFFFFFFFFFFFFFFFFFFFFFFFFFFFFFFFFFFFFFFFFFFF
310
FFFFFFFFFFFFFFFFFFFFFFFFFFFFFFFFFFFFFFFFFFFFFFFFFFFFFFFFFFFFFFFF
310
FFFFFFFFFFFFFFFFFFFFFFFFFFFFFFFFFFFFFFFFFFFFFFFFFFFFFFFFFFFFFFFF
310
F000FFFFFFFFFFFFFFFFFFFFFFFFFFFFFFFFFFFFFFFFFFFFFFFFFFFFFFFFFFFF
310
FFFFFFFFFFFFFFFFFFFFFFFFFFFFFFFFFFFFFFFFFFFFFFFFFFFFFFFFFFFFFFFF
310
FFFFFFFFFFFFFFFFFFFFFFFFFFFFFFFFFFFFFFFFFFFFFFFFF000FFFFFFFFFFFF
310
FFFFFFFFFFFFFFFFFFFFFFFFFFFFFFFFFFFFFFFFFFFFFFFFFFFFFFFFFFFFFFFF
310
FFFFFFFFFFFFFFFFFFFFFFFFFFFFFFFFFFFFFFFFFFFFFFFFFFFFFFFFFFFFFFFF
310
FFFFFFFFFFFFFFFFFFFFFFFFFFFFFFFFF000FFFFFFFFFFFFFFFFFFFFFFFFFFFF
310
FFFFFFFFFFFFFFFFFFFFFFFFFFFFFFFFFFFFFFFFFFFFFFFFFFFFFFFFFFFFFFFF
310
FFFFFFFFFFFFFFFFFFFFFFFFFFFFFFFFFFFFFFFFFFFFFFFFFFFFFFFFFFFFFFFF
310
FFFFFFFFFFFFFFFFF000FFFFFFFFFFFFFFFFFFFFFFFFFFFFFFFFFFFFFFFFFFFF
310
FFFFFFFFFFFFFFFFFFFFFFFFFFFFFFFFFFFFFFFFFFFFFFFFFFFFFFFFFFFFFFFF
310
FFFFFFFFFFFFFFFFFFFFFFFFFFFFFFFFFFFFFFFFFFFFFFFFFFFFFFFFFFFFFFFF
310
F000FFFFFFFFFFFFFFFFFFFFFFFFFFFFFFFFFFFFFFFFFFFFFFFFFFFFFFFFFFFF
310
FFFFFFFFFFFFFFFFFFFFFFFFFFFFFFFFFFFFFFFFFFFFFFFFFFFFFFFFFFFFFFFF
310
FFFFFFFFFFFFFFFFFFFFFFFFFFFFFFFFFFFFFFFFFFFFFFFFF000FFFFFFFFFFFF
310
FFFFFFFFFFFFFFFFFFFFFFFFFFFFFFFFFFFFFFFFFFFFFFFFFFFFFFFFFFFFFFFF
310
FFFFFFFFFFFFFFFFFFFFFFFFFFFFFFFFFFFFFFFFFFFFFFFFFFFFFFFFFFFFFFFF
310
FFFFFFFFFFFFFFFFFFFFFFFFFFFFFFFFF0000000000000000000000000000000
310
0000000000000000000000000000000000000000000000000000000000000000
310
0000000000000000000000000000000000000000000000000000000000000000
310
0000000000000000000000000000000000000000000000000000000000000000
310
0000000000000000000000000000000000000000000000000000000000000000
310
0000000000000000000000000000000000000000000000000000000000000000
310
0000000000000000000000000000000000000000000000000000000000000000
310
0000000000000000000000000000000000000000000000000000000000000000
310
0000000000000000000000000000000000000000000000000000000000000000
310
0000000000000000000000000000000000000000000000000000000000000000
310
0000000000000000000000000000000000000000000000000000000000000000
310
0000000000000000000000000000000000000000000000000000000000000000
310
0000000000000000000000000000000000000000000000000000000000000000
310
0000000000000000000000000000000000000000000000000000000000000000
310
0000000000000000000000000000000000000000000000000000000000000000
310
0000000000000000000000000000000000000000000000000000000000000000
  1
OLE
  0
ENDSEC
  0
SECTION
  2
OBJECTS
  0
DICTIONARY
  5
C
330
0
100
AcDbDictionary
281
     1
  3
ACAD_GROUP
350
D
  3
ACAD_LAYOUT
350
1A
  3
ACAD_MLINESTYLE
350
17
  3
ACAD_PLOTSETTINGS
350
19
  3
ACAD_PLOTSTYLENAME
350
E
  0
DICTIONARY
  5
D
102
{ACAD_REACTORS
330
C
102
}
330
C
100
AcDbDictionary
281
     1
  0
DICTIONARY
  5
1A
102
{ACAD_REACTORS
330
C
102
}
330
C
100
AcDbDictionary
281
     1
  3
Layout1
350
1E
  3
Layout2
350
26
  3
Model
350
22
  0
DICTIONARY
  5
17
102
{ACAD_REACTORS
330
C
102
}
330
C
100
AcDbDictionary
281
     1
  3
Standard
350
18
  0
DICTIONARY
  5
19
102
{ACAD_REACTORS
330
C
102
}
330
C
100
AcDbDictionary
281
     1
  0
ACDBDICTIONARYWDFLT
  5
E
102
{ACAD_REACTORS
330
C
102
}
330
C
100
AcDbDictionary
281
     1
  3
Normal
350
F
100
AcDbDictionaryWithDefault
340
F
  0
LAYOUT
  5
1E
102
{ACAD_REACTORS
330
1A
102
}
330
1A
100
AcDbPlotSettings
  1

  2
none_device
  4

  6

 40
0.0
 41
0.0
 42
0.0
 43
0.0
 44
0.0
 45
0.0
 46
0.0
 47
0.0
 48
0.0
 49
0.0
140
0.0
141
0.0
142
1.0
143
1.0
 70
   688
 72
     0
 73
     0
 74
     5
  7

 75
    16
147
1.0
148
0.0
149
0.0
100
AcDbLayout
  1
Layout1
 70
     1
 71
     1
 10
0.0
 20
0.0
 11
420.0
 21
297.0
 12
0.0
 22
0.0
 32
0.0
 14
1.0000000000E+20
 24
1.0000000000E+20
 34
1.0000000000E+20
 15
-1.0000000000E+20
 25
-1.0000000000E+20
 35
-1.0000000000E+20
146
0.0
 13
0.0
 23
0.0
 33
0.0
 16
1.0
 26
0.0
 36
0.0
 17
0.0
 27
1.0
 37
0.0
 76
     0
330
1B
  0
LAYOUT
  5
26
102
{ACAD_REACTORS
330
1A
102
}
330
1A
100
AcDbPlotSettings
  1

  2
none_device
  4

  6

 40
0.0
 41
0.0
 42
0.0
 43
0.0
 44
0.0
 45
0.0
 46
0.0
 47
0.0
 48
0.0
 49
0.0
140
0.0
141
0.0
142
1.0
143
1.0
 70
   688
 72
     0
 73
     0
 74
     5
  7

 75
    16
147
1.0
148
0.0
149
0.0
100
AcDbLayout
  1
Layout2
 70
     1
 71
     2
 10
0.0
 20
0.0
 11
0.0
 21
0.0
 12
0.0
 22
0.0
 32
0.0
 14
0.0
 24
0.0
 34
0.0
 15
0.0
 25
0.0
 35
0.0
146
0.0
 13
0.0
 23
0.0
 33
0.0
 16
1.0
 26
0.0
 36
0.0
 17
0.0
 27
1.0
 37
0.0
 76
     0
330
23
  0
LAYOUT
  5
22
102
{ACAD_REACTORS
330
1A
102
}
330
1A
100
AcDbPlotSettings
  1

  2
none_device
  4

  6

 40
0.0
 41
0.0
 42
0.0
 43
0.0
 44
0.0
 45
0.0
 46
0.0
 47
0.0
 48
0.0
 49
0.0
140
0.0
141
0.0
142
1.0
143
1.0
 70
  1712
 72
     0
 73
     0
 74
     0
  7

 75
     0
147
1.0
148
0.0
149
0.0
100
AcDbLayout
  1
Model
 70
     1
 71
     0
 10
0.0
 20
0.0
 11
297.0
 21
210.0
 12
0.0
 22
0.0
 32
0.0
 14
0.0
 24
0.0
 34
0.0
 15
297.0
 25
210.0
 35
0.0
146
0.0
 13
0.0
 23
0.0
 33
0.0
 16
1.0
 26
0.0
 36
0.0
 17
0.0
 27
1.0
 37
0.0
 76
     0
330
1F
331
29
  0
MLINESTYLE
  5
18
102
{ACAD_REACTORS
330
17
102
}
330
17
100
AcDbMlineStyle
  2
Standard
 70
     0
  3

 62
   256
 51
90.0
 52
90.0
 71
     2
 49
0.5
 62
   256
  6
BYLAYER
 49
-0.5
 62
   256
  6
BYLAYER
  0
ACDBPLACEHOLDER
  5
F
102
{ACAD_REACTORS
330
E
102
}
330
E
  0
ENDSEC
  0
EOF
