  0
SECTION
  2
HEADER
  9
$ACADVER
  1
AC1015
  9
$ACADMAINTVER
 70
     6
  9
$DWGCODEPAGE
  3
ANSI_1252
  9
$INSBASE
 10
0.0
 20
0.0
 30
0.0
  9
$EXTMIN
 10
0.0
 20
0.0
 30
0.0
  9
$EXTMAX
 10
297.0
 20
210.0
 30
0.0
  9
$LIMMIN
 10
0.0
 20
0.0
  9
$LIMMAX
 10
297.0
 20
210.0
  9
$ORTHOMODE
 70
     0
  9
$REGENMODE
 70
     1
  9
$FILLMODE
 70
     1
  9
$QTEXTMODE
 70
     0
  9
$MIRRTEXT
 70
     1
  9
$LTSCALE
 40
1.0
  9
$ATTMODE
 70
     1
  9
$TEXTSIZE
 40
2.0
  9
$TRACEWID
 40
1.0
  9
$TEXTSTYLE
  7
Standard
  9
$CLAYER
  8
0
  9
$CELTYPE
  6
ByLayer
  9
$CECOLOR
 62
   256
  9
$CELTSCALE
 40
1.0
  9
$DISPSILH
 70
     0
  9
$DIMSCALE
 40
1.0
  9
$DIMASZ
 40
3.0
  9
$DIMEXO
 40
0.0
  9
$DIMDLI
 40
3.75
  9
$DIMRND
 40
0.0
  9
$DIMDLE
 40
0.0
  9
$DIMEXE
 40
1.0
  9
$DIMTP
 40
0.0
  9
$DIMTM
 40
0.0
  9
$DIMTXT
 40
2.0
  9
$DIMCEN
 40
2.5
  9
$DIMTSZ
 40
0.0
  9
$DIMTOL
 70
     0
  9
$DIMLIM
 70
     0
  9
$DIMTIH
 70
     1
  9
$DIMTOH
 70
     1
  9
$DIMSE1
 70
     0
  9
$DIMSE2
 70
     0
  9
$DIMTAD
 70
     1
  9
$DIMZIN
 70
     0
  9
$DIMBLK
  1

  9
$DIMASO
 70
     1
  9
$DIMSHO
 70
     1
  9
$DIMPOST
  1

  9
$DIMAPOST
  1

  9
$DIMALT
 70
     0
  9
$DIMALTD
 70
     3
  9
$DIMALTF
 40
0.0393700787
  9
$DIMLFAC
 40
1.0
  9
$DIMTOFL
 70
     1
  9
$DIMTVP
 40
0.0
  9
$DIMTIX
 70
     0
  9
$DIMSOXD
 70
     0
  9
$DIMSAH
 70
     0
  9
$DIMBLK1
  1

  9
$DIMBLK2
  1

  9
$DIMSTYLE
  2
ISO-25
  9
$DIMCLRD
 70
     0
  9
$DIMCLRE
 70
     0
  9
$DIMCLRT
 70
     0
  9
$DIMTFAC
 40
1.0
  9
$DIMGAP
 40
1.524
  9
$DIMJUST
 70
     0
  9
$DIMSD1
 70
     0
  9
$DIMSD2
 70
     0
  9
$DIMTOLJ
 70
     0
  9
$DIMTZIN
 70
     0
  9
$DIMALTZ
 70
     0
  9
$DIMALTTZ
 70
     0
  9
$DIMUPT
 70
     0
  9
$DIMDEC
 70
     2
  9
$DIMTDEC
 70
     3
  9
$DIMALTU
 70
     2
  9
$DIMALTTD
 70
     3
  9
$DIMTXSTY
  7
Standard
  9
$DIMAUNIT
 70
     0
  9
$DIMADEC
 70
     2
  9
$DIMALTRND
 40
0.0
  9
$DIMAZIN
 70
     0
  9
$DIMDSEP
 70
    44
  9
$DIMATFIT
 70
     3
  9
$DIMFRAC
 70
     0
  9
$DIMLDRBLK
  1

  9
$DIMLUNIT
 70
     2
  9
$DIMLWD
 70
    -2
  9
$DIMLWE
 70
    -2
  9
$DIMTMOVE
 70
     0
  9
$LUNITS
 70
     2
  9
$LUPREC
 70
     2
  9
$SKETCHINC
 40
1.0
  9
$FILLETRAD
 40
10.0
  9
$AUNITS
 70
     0
  9
$AUPREC
 70
     2
  9
$MENU
  1
.
  9
$ELEVATION
 40
0.0
  9
$PELEVATION
 40
0.0
  9
$THICKNESS
 40
0.0
  9
$LIMCHECK
 70
     0
  9
$CHAMFERA
 40
10.0
  9
$CHAMFERB
 40
10.0
  9
$CHAMFERC
 40
20.0
  9
$CHAMFERD
 40
0.0
  9
$SKPOLY
 70
     0
  9
$TDCREATE
 40
2456072.480828102
  9
$TDUCREATE
 40
2456072.397494769
  9
$TDUPDATE
 40
2456072.480829537
  9
$TDUUPDATE
 40
2456072.397496204
  9
$TDINDWG
 40
0.0000000116
  9
$TDUSRTIMER
 40
0.0000000116
  9
$USRTIMER
 70
     1
  9
$ANGBASE
 50
0.0
  9
$ANGDIR
 70
     0
  9
$PDMODE
 70
     0
  9
$PDSIZE
 40
-1.0
  9
$PLINEWID
 40
0.0
  9
$SPLFRAME
 70
     0
  9
$SPLINETYPE
 70
     6
  9
$SPLINESEGS
 70
     8
  9
$HANDSEED
  5
297
  9
$SURFTAB1
 70
     6
  9
$SURFTAB2
 70
     6
  9
$SURFTYPE
 70
     6
  9
$SURFU
 70
     6
  9
$SURFV
 70
     6
  9
$UCSBASE
  2

  9
$UCSNAME
  2

  9
$UCSORG
 10
0.0
 20
0.0
 30
0.0
  9
$UCSXDIR
 10
1.0
 20
0.0
 30
0.0
  9
$UCSYDIR
 10
0.0
 20
1.0
 30
0.0
  9
$UCSORTHOREF
  2

  9
$UCSORTHOVIEW
 70
     0
  9
$UCSORGTOP
 10
0.0
 20
0.0
 30
0.0
  9
$UCSORGBOTTOM
 10
0.0
 20
0.0
 30
0.0
  9
$UCSORGLEFT
 10
0.0
 20
0.0
 30
0.0
  9
$UCSORGRIGHT
 10
0.0
 20
0.0
 30
0.0
  9
$UCSORGFRONT
 10
0.0
 20
0.0
 30
0.0
  9
$UCSORGBACK
 10
0.0
 20
0.0
 30
0.0
  9
$PUCSBASE
  2

  9
$PUCSNAME
  2

  9
$PUCSORG
 10
0.0
 20
0.0
 30
0.0
  9
$PUCSXDIR
 10
1.0
 20
0.0
 30
0.0
  9
$PUCSYDIR
 10
0.0
 20
1.0
 30
0.0
  9
$PUCSORTHOREF
  2

  9
$PUCSORTHOVIEW
 70
     0
  9
$PUCSORGTOP
 10
0.0
 20
0.0
 30
0.0
  9
$PUCSORGBOTTOM
 10
0.0
 20
0.0
 30
0.0
  9
$PUCSORGLEFT
 10
0.0
 20
0.0
 30
0.0
  9
$PUCSORGRIGHT
 10
0.0
 20
0.0
 30
0.0
  9
$PUCSORGFRONT
 10
0.0
 20
0.0
 30
0.0
  9
$PUCSORGBACK
 10
0.0
 20
0.0
 30
0.0
  9
$USERI1
 70
     0
  9
$USERI2
 70
     0
  9
$USERI3
 70
     0
  9
$USERI4
 70
     0
  9
$USERI5
 70
     0
  9
$USERR1
 40
0.0
  9
$USERR2
 40
0.0
  9
$USERR3
 40
0.0
  9
$USERR4
 40
0.0
  9
$USERR5
 40
0.0
  9
$WORLDVIEW
 70
     1
  9
$SHADEDGE
 70
     3
  9
$SHADEDIF
 70
    70
  9
$TILEMODE
 70
     1
  9
$MAXACTVP
 70
    64
  9
$PINSBASE
 10
0.0
 20
0.0
 30
0.0
  9
$PLIMCHECK
 70
     0
  9
$PEXTMIN
 10
1.0000000000E+20
 20
1.0000000000E+20
 30
1.0000000000E+20
  9
$PEXTMAX
 10
-1.0000000000E+20
 20
-1.0000000000E+20
 30
-1.0000000000E+20
  9
$PLIMMIN
 10
0.0
 20
0.0
  9
$PLIMMAX
 10
420.0
 20
297.0
  9
$UNITMODE
 70
     0
  9
$VISRETAIN
 70
     1
  9
$PLINEGEN
 70
     0
  9
$PSLTSCALE
 70
     1
  9
$TREEDEPTH
 70
  3020
  9
$CMLSTYLE
  2
Standard
  9
$CMLJUST
 70
     0
  9
$CMLSCALE
 40
20.0
  9
$PROXYGRAPHICS
 70
     1
  9
$MEASUREMENT
 70
     1
  9
$CELWEIGHT
370
    -1
  9
$ENDCAPS
280
     0
  9
$JOINSTYLE
280
     0
  9
$LWDISPLAY
290
     1
  9
$INSUNITS
 70
     4
  9
$HYPERLINKBASE
  1

  9
$STYLESHEET
  1

  9
$XEDIT
290
     1
  9
$CEPSNTYPE
380
     0
  9
$PSTYLEMODE
290
     1
  9
$FINGERPRINTGUID
  2
{AC0E42A1-B58B-4F49-8019-21FDB066E49A}
  9
$VERSIONGUID
  2
{FAEB1C32-E019-11D5-929B-00C0DF256EC4}
  9
$EXTNAMES
290
     1
  9
$PSVPSCALE
 40
0.0
  9
$OLESTARTUP
290
     0
  0
ENDSEC
  0
SECTION
  2
CLASSES
  0
CLASS
  1
ACDBDICTIONARYWDFLT
  2
AcDbDictionaryWithDefault
  3
ObjectDBX Classes
 90
        0
280
     0
281
     0
  0
CLASS
  1
VISUALSTYLE
  2
AcDbVisualStyle
  3
ObjectDBX Classes
 90
     4095
280
     0
281
     0
  0
CLASS
  1
MATERIAL
  2
AcDbMaterial
  3
ObjectDBX Classes
 90
     1153
280
     0
281
     0
  0
CLASS
  1
ACDBPLACEHOLDER
  2
AcDbPlaceHolder
  3
ObjectDBX Classes
 90
        0
280
     0
281
     0
  0
CLASS
  1
LAYOUT
  2
AcDbLayout
  3
ObjectDBX Classes
 90
        0
280
     0
281
     0
  0
ENDSEC
  0
SECTION
  2
TABLES
  0
TABLE
  2
VPORT
  5
8
330
0
100
AcDbSymbolTable
 70
     1
  0
VPORT
  5
29
330
8
100
AcDbSymbolTableRecord
100
AcDbViewportTableRecord
  2
*Active
 70
     0
 10
0.0
 20
0.0
 11
1.0
 21
1.0
 12
148.5
 22
105.0
 13
0.0
 23
0.0
 14
10.0
 24
10.0
 15
10.0
 25
10.0
 16
0.0
 26
0.0
 36
1.0
 17
0.0
 27
0.0
 37
0.0
 40
210.0
 41
1.4142857143
 42
50.0
 43
0.0
 44
0.0
 50
0.0
 51
0.0
 71
     0
 72
  2000
 73
     1
 74
     3
 75
     0
 76
     0
 77
     0
 78
     0
281
     0
 65
     1
110
0.0
120
0.0
130
0.0
111
1.0
121
0.0
131
0.0
112
0.0
122
1.0
132
0.0
 79
     0
146
0.0
  0
ENDTAB
  0
TABLE
  2
LTYPE
  5
5
330
0
100
AcDbSymbolTable
 70
     6
  0
LTYPE
  5
14
330
5
100
AcDbSymbolTableRecord
100
AcDbLinetypeTableRecord
  2
ByBlock
 70
     0
  3

 72
    65
 73
     0
 40
0.0
  0
LTYPE
  5
15
330
5
100
AcDbSymbolTableRecord
100
AcDbLinetypeTableRecord
  2
ByLayer
 70
     0
  3

 72
    65
 73
     0
 40
0.0
  0
LTYPE
  5
16
330
5
100
AcDbSymbolTableRecord
100
AcDbLinetypeTableRecord
  2
Continuous
 70
     0
  3
Solid line
 72
    65
 73
     0
 40
0.0
  0
LTYPE
  5
3F
330
5
100
AcDbSymbolTableRecord
100
AcDbLinetypeTableRecord
  2
HIDDEN
 70
     0
  3
Hidden __ __ __ __ __ __ __ __ __ __ __ __ __ __
 72
    65
 73
     2
 40
1.905
 49
1.27
 74
     0
 49
-0.635
 74
     0
  0
LTYPE
  5
40
330
5
100
AcDbSymbolTableRecord
100
AcDbLinetypeTableRecord
  2
PHANTOM
 70
     0
  3
Phantom ______  __  __  ______  __  __  ______
 72
    65
 73
     6
 40
12.7
 49
6.35
 74
     0
 49
-1.27
 74
     0
 49
1.27
 74
     0
 49
-1.27
 74
     0
 49
1.27
 74
     0
 49
-1.27
 74
     0
  0
LTYPE
  5
41
330
5
100
AcDbSymbolTableRecord
100
AcDbLinetypeTableRecord
  2
CENTER
 70
     0
  3
Center ____ _ ____ _ ____ _ ____ _ ____ _ ____
 72
    65
 73
     4
 40
10.16
 49
6.35
 74
     0
 49
-1.27
 74
     0
 49
1.27
 74
     0
 49
-1.27
 74
     0
  0
LTYPE
  5
42
330
5
100
AcDbSymbolTableRecord
100
AcDbLinetypeTableRecord
  2
CENTERX2
 70
     0
  3
Center (2x) ________  __  ________  __  _____
 72
    65
 73
     4
 40
20.32
 49
12.7
 74
     0
 49
-2.54
 74
     0
 49
2.54
 74
     0
 49
-2.54
 74
     0
  0
LTYPE
  5
43
330
5
100
AcDbSymbolTableRecord
100
AcDbLinetypeTableRecord
  2
DOT2
 70
     0
  3
Dot (.5x) ........................................
 72
    65
 73
     2
 40
0.635
 49
0.0
 74
     0
 49
-0.635
 74
     0
  0
ENDTAB
  0
TABLE
  2
LAYER
  5
2
330
0
100
AcDbSymbolTable
 70
     5
  0
LAYER
  5
10
330
2
100
AcDbSymbolTableRecord
100
AcDbLayerTableRecord
  2
0
 70
     0
 62
     7
  6
Continuous
370
    -3
390
F
  0
LAYER
  5
44
330
2
100
AcDbSymbolTableRecord
100
AcDbLayerTableRecord
  2
FORMAT
 70
     0
 62
     7
  6
Continuous
370
    -3
390
F
  0
LAYER
  5
45
330
2
100
AcDbSymbolTableRecord
100
AcDbLayerTableRecord
  2
VERMASSUNG
 70
     0
 62
     7
  6
Continuous
370
    -3
390
F
  0
LAYER
  5
46
330
2
100
AcDbSymbolTableRecord
100
AcDbLayerTableRecord
  2
KOPF_DÜNN
 70
     0
 62
     7
  6
Continuous
370
    -3
390
F
  0
LAYER
  5
47
330
2
100
AcDbSymbolTableRecord
100
AcDbLayerTableRecord
  2
KOPF_DICK
 70
     0
 62
     7
  6
Continuous
370
    15
390
F
  0
ENDTAB
  0
TABLE
  2
STYLE
  5
3
330
0
100
AcDbSymbolTable
 70
     2
  0
STYLE
  5
11
330
3
100
AcDbSymbolTableRecord
100
AcDbTextStyleTableRecord
  2
Standard
 70
     0
 40
0.0
 41
1.0
 50
0.0
 71
     0
 42
2.0
  3
txt
  4

  0
STYLE
  5
48
330
3
100
AcDbSymbolTableRecord
100
AcDbTextStyleTableRecord
  2
SLDTEXTSTYLE0
 70
     0
 40
0.0
 41
0.7
 50
0.0
 71
     0
 42
0.2
  3
TXT
  4

  0
ENDTAB
  0
TABLE
  2
VIEW
  5
6
330
0
100
AcDbSymbolTable
 70
     0
  0
ENDTAB
  0
TABLE
  2
UCS
  5
7
330
0
100
AcDbSymbolTable
 70
     0
  0
ENDTAB
  0
TABLE
  2
APPID
  5
9
330
0
100
AcDbSymbolTable
 70
     1
  0
APPID
  5
12
330
9
100
AcDbSymbolTableRecord
100
AcDbRegAppTableRecord
  2
ACAD
 70
     0
  0
ENDTAB
  0
TABLE
  2
DIMSTYLE
  5
A
330
0
100
AcDbSymbolTable
 70
     5
100
AcDbDimStyleTable
  0
DIMSTYLE
105
27
330
A
100
AcDbSymbolTableRecord
100
AcDbDimStyleTableRecord
  2
ISO-25
 70
     0
 41
2.5
 42
0.625
 43
3.75
 44
1.25
 73
     0
 74
     0
 77
     1
 78
     8
140
2.5
141
2.5
143
0.0393700787
147
0.625
171
     3
172
     1
178
     0
271
     2
272
     2
274
     3
278
    44
283
     0
284
     8
340
11
  0
DIMSTYLE
105
1C3
102
{ACAD_REACTORS
330
1C2
330
1CF
102
}
330
A
100
AcDbSymbolTableRecord
100
AcDbDimStyleTableRecord
  2
SLDDIMSTYLE0
 70
     0
 41
3.0
 44
0.0
 45
0.000000001
 47
0.1
 48
0.1
 71
     1
 73
     0
 74
     0
 77
     1
 78
    12
 79
     3
140
2.0
147
0.5
173
     1
178
     0
271
     2
272
     1
276
     2
284
     8
340
48
  0
DIMSTYLE
105
1DC
102
{ACAD_REACTORS
330
1DB
330
1F0
102
}
330
A
100
AcDbSymbolTableRecord
100
AcDbDimStyleTableRecord
  2
SLDDIMSTYLE1
 70
     0
 41
3.0
 44
0.0
 45
0.000000001
 73
     0
 74
     0
 77
     1
 78
    12
 79
     3
140
2.0
147
0.5
173
     1
178
     0
271
     2
272
     3
276
     2
284
    12
340
48
  0
DIMSTYLE
105
1E7
102
{ACAD_REACTORS
330
1E6
102
}
330
A
100
AcDbSymbolTableRecord
100
AcDbDimStyleTableRecord
  2
SLDDIMSTYLE2
 70
     0
 41
3.0
 44
0.0
 73
     0
 74
     0
 77
     1
 78
    12
 79
     3
140
2.0
147
0.5
173
     1
178
     0
179
     1
272
     3
276
     2
284
    12
340
48
  0
DIMSTYLE
105
27C
102
{ACAD_REACTORS
330
27B
102
}
330
A
100
AcDbSymbolTableRecord
100
AcDbDimStyleTableRecord
  2
SLDDIMSTYLE3
 70
     0
 41
3.0
 44
0.0
 45
0.000000001
 73
     0
 74
     0
 77
     1
 78
    12
 79
     3
140
2.0
147
0.5
172
     1
173
     1
178
     0
271
     2
272
     3
276
     2
284
    12
289
     0
340
48
  0
ENDTAB
  0
TABLE
  2
BLOCK_RECORD
  5
1
330
0
100
AcDbSymbolTable
 70
     8
  0
BLOCK_RECORD
  5
1F
330
1
100
AcDbSymbolTableRecord
100
AcDbBlockTableRecord
  2
*Model_Space
340
22
  0
BLOCK_RECORD
  5
1B
330
1
100
AcDbSymbolTableRecord
100
AcDbBlockTableRecord
  2
*Paper_Space
340
1E
  0
BLOCK_RECORD
  5
23
330
1
100
AcDbSymbolTableRecord
100
AcDbBlockTableRecord
  2
*Paper_Space0
340
26
  0
BLOCK_RECORD
  5
1C4
330
1
100
AcDbSymbolTableRecord
100
AcDbBlockTableRecord
  2
_D
340
0
  0
BLOCK_RECORD
  5
1D0
330
1
100
AcDbSymbolTableRecord
100
AcDbBlockTableRecord
  2
_D_1
340
0
  0
BLOCK_RECORD
  5
1DD
330
1
100
AcDbSymbolTableRecord
100
AcDbBlockTableRecord
  2
_D_2
340
0
  0
BLOCK_RECORD
  5
1E8
330
1
100
AcDbSymbolTableRecord
100
AcDbBlockTableRecord
  2
_D_3
340
0
  0
BLOCK_RECORD
  5
1F1
330
1
100
AcDbSymbolTableRecord
100
AcDbBlockTableRecord
  2
_D_4
340
0
  0
BLOCK_RECORD
  5
27D
330
1
100
AcDbSymbolTableRecord
100
AcDbBlockTableRecord
  2
_D_5
340
0
  0
BLOCK_RECORD
  5
28A
330
1
100
AcDbSymbolTableRecord
100
AcDbBlockTableRecord
  2
SW_CENTERMARKSYMBOL_0
340
0
102
{BLKREFS
331
295
102
}
  0
ENDTAB
  0
ENDSEC
  0
SECTION
  2
BLOCKS
  0
BLOCK
  5
20
330
1F
100
AcDbEntity
  8
0
100
AcDbBlockBegin
  2
*Model_Space
 70
     0
 10
0.0
 20
0.0
 30
0.0
  3
*Model_Space
  1

  0
ENDBLK
  5
21
330
1F
100
AcDbEntity
  8
0
100
AcDbBlockEnd
  0
BLOCK
  5
1C
330
1B
100
AcDbEntity
 67
     1
  8
0
100
AcDbBlockBegin
  2
*Paper_Space
 70
     0
 10
0.0
 20
0.0
 30
0.0
  3
*Paper_Space
  1

  0
ENDBLK
  5
1D
330
1B
100
AcDbEntity
 67
     1
  8
0
100
AcDbBlockEnd
  0
BLOCK
  5
24
330
23
100
AcDbEntity
  8
0
100
AcDbBlockBegin
  2
*Paper_Space0
 70
     0
 10
0.0
 20
0.0
 30
0.0
  3
*Paper_Space0
  1

  0
ENDBLK
  5
25
330
23
100
AcDbEntity
  8
0
100
AcDbBlockEnd
  0
BLOCK
  5
1C5
330
1C4
100
AcDbEntity
  8
0
100
AcDbBlockBegin
  2
_D
 70
     0
 10
0.0
 20
0.0
 30
0.0
  3
_D
  1

  0
SOLID
  5
1C7
330
1C4
100
AcDbEntity
  8
VERMASSUNG
100
AcDbTrace
 10
257.636470302
 20
147.1928955038
 30
0.0
 11
257.186470302
 21
144.1928955038
 31
0.0
 12
258.086470302
 22
144.1928955038
 32
0.0
 13
258.086470302
 23
144.1928955038
 33
0.0
  0
SOLID
  5
1C8
330
1C4
100
AcDbEntity
  8
VERMASSUNG
100
AcDbTrace
 10
257.636470302
 20
112.1928955038
 30
0.0
 11
258.086470302
 21
115.1928955038
 31
0.0
 12
257.186470302
 22
115.1928955038
 32
0.0
 13
257.186470302
 23
115.1928955038
 33
0.0
  0
LINE
  5
1C9
330
1C4
100
AcDbEntity
  8
VERMASSUNG
100
AcDbLine
 10
249.0240616052
 20
147.1928955038
 30
0.0
 11
258.636470302
 21
147.1928955038
 31
0.0
  0
LINE
  5
1CA
330
1C4
100
AcDbEntity
  8
VERMASSUNG
100
AcDbLine
 10
249.0240616052
 20
112.1928955038
 30
0.0
 11
258.636470302
 21
112.1928955038
 31
0.0
  0
LINE
  5
1CB
330
1C4
100
AcDbEntity
  8
VERMASSUNG
100
AcDbLine
 10
257.636470302
 20
147.1928955038
 30
0.0
 11
257.636470302
 21
112.1928955038
 31
0.0
  0
MTEXT
  5
1CC
330
1C4
100
AcDbEntity
  8
VERMASSUNG
100
AcDbMText
 10
255.0583349389
 20
125.1428953168
 30
0.1
 40
2.0
 41
0.0
 71
     1
 72
     1
  1
35
  7
SLDTEXTSTYLE0
 11
-7.044195017643634E-15
 21
1.0
 31
0.0
 73
     1
 44
1.0
  0
MTEXT
  5
1CD
330
1C4
100
AcDbEntity
  8
VERMASSUNG
100
AcDbMText
 10
255.0583349389
 20
130.9303954188
 30
0.1
 40
2.0
 41
0.0
 71
     1
 72
     1
  1

  7
SLDTEXTSTYLE0
 11
-7.044195017643634E-15
 21
1.0
 31
0.0
 73
     1
 44
1.0
  0
MTEXT
  5
1CE
330
1C4
100
AcDbEntity
  8
VERMASSUNG
100
AcDbMText
 10
255.5528688017
 20
130.9428957087
 30
0.1
 40
1.5
 41
0.0
 71
     1
 72
     1
  1
±0.1
  7
SLDTEXTSTYLE0
 11
-7.044195017643634E-15
 21
1.0
 31
0.0
 73
     1
 44
1.0
  0
ENDBLK
  5
1C6
330
1C4
100
AcDbEntity
  8
0
100
AcDbBlockEnd
  0
BLOCK
  5
1D1
330
1D0
100
AcDbEntity
  8
0
100
AcDbBlockBegin
  2
_D_1
 70
     0
 10
0.0
 20
0.0
 30
0.0
  3
_D_1
  1

  0
SOLID
  5
1D3
330
1D0
100
AcDbEntity
  8
VERMASSUNG
100
AcDbTrace
 10
189.0240616052
 20
161.3133197685
 30
0.0
 11
192.0240616052
 21
160.8633197685
 31
0.0
 12
192.0240616052
 22
161.7633197685
 32
0.0
 13
192.0240616052
 23
161.7633197685
 33
0.0
  0
SOLID
  5
1D4
330
1D0
100
AcDbEntity
  8
VERMASSUNG
100
AcDbTrace
 10
249.0240616052
 20
161.3133197685
 30
0.0
 11
246.0240616052
 21
161.7633197685
 31
0.0
 12
246.0240616052
 22
160.8633197685
 32
0.0
 13
246.0240616052
 23
160.8633197685
 33
0.0
  0
LINE
  5
1D5
330
1D0
100
AcDbEntity
  8
VERMASSUNG
100
AcDbLine
 10
189.0240616052
 20
136.8928955038
 30
0.0
 11
189.0240616052
 21
162.3133197685
 31
0.0
  0
LINE
  5
1D6
330
1D0
100
AcDbEntity
  8
VERMASSUNG
100
AcDbLine
 10
249.0240616052
 20
147.1928955038
 30
0.0
 11
249.0240616052
 21
162.3133197685
 31
0.0
  0
LINE
  5
1D7
330
1D0
100
AcDbEntity
  8
VERMASSUNG
100
AcDbLine
 10
189.0240616052
 20
161.3133197685
 30
0.0
 11
249.0240616052
 21
161.3133197685
 31
0.0
  0
MTEXT
  5
1D8
330
1D0
100
AcDbEntity
  8
VERMASSUNG
100
AcDbMText
 10
214.4740614182
 20
163.8914551316
 30
0.1
 40
2.0
 41
0.0
 71
     1
 72
     1
  1
60
  7
SLDTEXTSTYLE0
 73
     1
 44
1.0
  0
MTEXT
  5
1D9
330
1D0
100
AcDbEntity
  8
VERMASSUNG
100
AcDbMText
 10
220.2615615202
 20
163.8914551316
 30
0.1
 40
2.0
 41
0.0
 71
     1
 72
     1
  1

  7
SLDTEXTSTYLE0
 73
     1
 44
1.0
  0
MTEXT
  5
1DA
330
1D0
100
AcDbEntity
  8
VERMASSUNG
100
AcDbMText
 10
220.2740618101
 20
163.3969212689
 30
0.1
 40
1.5
 41
0.0
 71
     1
 72
     1
  1
±0.1
  7
SLDTEXTSTYLE0
 73
     1
 44
1.0
  0
ENDBLK
  5
1D2
330
1D0
100
AcDbEntity
  8
0
100
AcDbBlockEnd
  0
BLOCK
  5
1DE
330
1DD
100
AcDbEntity
  8
0
100
AcDbBlockBegin
  2
_D_2
 70
     0
 10
0.0
 20
0.0
 30
0.0
  3
_D_2
  1

  0
SOLID
  5
1E0
330
1DD
100
AcDbEntity
  8
VERMASSUNG
100
AcDbTrace
 10
159.0240616052
 20
167.3133197685
 30
0.0
 11
162.0240616052
 21
166.8633197685
 31
0.0
 12
162.0240616052
 22
167.7633197685
 32
0.0
 13
162.0240616052
 23
167.7633197685
 33
0.0
  0
SOLID
  5
1E1
330
1DD
100
AcDbEntity
  8
VERMASSUNG
100
AcDbTrace
 10
249.0240616052
 20
167.3133197685
 30
0.0
 11
246.0240616052
 21
167.7633197685
 31
0.0
 12
246.0240616052
 22
166.8633197685
 32
0.0
 13
246.0240616052
 23
166.8633197685
 33
0.0
  0
LINE
  5
1E2
330
1DD
100
AcDbEntity
  8
VERMASSUNG
100
AcDbLine
 10
159.0240616052
 20
128.1862213419
 30
0.0
 11
159.0240616052
 21
168.3133197685
 31
0.0
  0
LINE
  5
1E3
330
1DD
100
AcDbEntity
  8
VERMASSUNG
100
AcDbLine
 10
249.0240616052
 20
147.1928955038
 30
0.0
 11
249.0240616052
 21
168.3133197685
 31
0.0
  0
LINE
  5
1E4
330
1DD
100
AcDbEntity
  8
VERMASSUNG
100
AcDbLine
 10
159.0240616052
 20
167.3133197685
 30
0.0
 11
249.0240616052
 21
167.3133197685
 31
0.0
  0
MTEXT
  5
1E5
330
1DD
100
AcDbEntity
  8
VERMASSUNG
100
AcDbMText
 10
201.7240615541
 20
169.8914551316
 30
0.1
 40
2.0
 41
0.0
 71
     1
 72
     1
  1
90
  7
SLDTEXTSTYLE0
 73
     1
 44
1.0
  0
ENDBLK
  5
1DF
330
1DD
100
AcDbEntity
  8
0
100
AcDbBlockEnd
  0
BLOCK
  5
1E9
330
1E8
100
AcDbEntity
  8
0
100
AcDbBlockBegin
  2
_D_3
 70
     0
 10
0.0
 20
0.0
 30
0.0
  3
_D_3
  1

  0
ARC
  5
1EB
330
1E8
100
AcDbEntity
  8
VERMASSUNG
100
AcDbCircle
 10
249.0240616052
 20
147.4553339032
 30
0.0
 40
9.054636198044022
100
AcDbArc
 50
90.0
 51
207.5210251811
  0
SOLID
  5
1EC
330
1E8
100
AcDbEntity
  8
VERMASSUNG
100
AcDbTrace
 10
249.0240616052
 20
156.5099701012
 30
0.0
 11
245.9906855397
 21
156.4763599036
 31
0.0
 12
246.1340449355
 22
155.5878509933
 32
0.0
 13
246.1340449355
 23
155.5878509933
 33
0.0
  0
SOLID
  5
1ED
330
1E8
100
AcDbEntity
  8
VERMASSUNG
100
AcDbTrace
 10
240.9940359892
 20
143.2714212265
 30
0.0
 11
240.4764075368
 21
146.2604947929
 31
0.0
 12
239.6221984516
 22
145.9770748944
 32
0.0
 13
239.6221984516
 23
145.9770748944
 33
0.0
  0
LINE
  5
1EE
330
1E8
100
AcDbEntity
  8
VERMASSUNG
100
AcDbLine
 10
249.0240616052
 20
154.5066795996
 30
0.0
 11
249.0240616052
 21
157.5099701012
 31
0.0
  0
MTEXT
  5
1EF
330
1E8
100
AcDbEntity
  8
VERMASSUNG
100
AcDbMText
 10
236.8997712569
 20
149.8972504632
 30
0.1
 40
2.0
 41
0.0
 71
     1
 72
     1
  1
117.5°
  7
SLDTEXTSTYLE0
 11
0.5186163907821655
 21
0.8550070404459137
 31
0.0
 73
     1
 44
1.0
  0
ENDBLK
  5
1EA
330
1E8
100
AcDbEntity
  8
0
100
AcDbBlockEnd
  0
BLOCK
  5
1F2
330
1F1
100
AcDbEntity
  8
0
100
AcDbBlockBegin
  2
_D_4
 70
     0
 10
0.0
 20
0.0
 30
0.0
  3
_D_4
  1

  0
SOLID
  5
1F4
330
1F1
100
AcDbEntity
  8
VERMASSUNG
100
AcDbTrace
 10
149.0240616052
 20
137.1928955038
 30
0.0
 11
148.5740616052
 21
134.1928955038
 31
0.0
 12
149.4740616052
 22
134.1928955038
 32
0.0
 13
149.4740616052
 23
134.1928955038
 33
0.0
  0
SOLID
  5
1F5
330
1F1
100
AcDbEntity
  8
VERMASSUNG
100
AcDbTrace
 10
149.0240616052
 20
87.1928955038
 30
0.0
 11
149.4740616052
 21
90.1928955038
 31
0.0
 12
148.5740616052
 22
90.1928955038
 32
0.0
 13
148.5740616052
 23
90.1928955038
 33
0.0
  0
LINE
  5
1F6
330
1F1
100
AcDbEntity
  8
VERMASSUNG
100
AcDbLine
 10
189.3240616052
 20
137.1928955038
 30
0.0
 11
148.0240616052
 21
137.1928955038
 31
0.0
  0
LINE
  5
1F7
330
1F1
100
AcDbEntity
  8
VERMASSUNG
100
AcDbLine
 10
189.3240616052
 20
87.1928955038
 30
0.0
 11
148.0240616052
 21
87.1928955038
 31
0.0
  0
LINE
  5
1F8
330
1F1
100
AcDbEntity
  8
VERMASSUNG
100
AcDbLine
 10
149.0240616052
 20
137.1928955038
 30
0.0
 11
149.0240616052
 21
87.1928955038
 31
0.0
  0
MTEXT
  5
1F9
330
1F1
100
AcDbEntity
  8
VERMASSUNG
100
AcDbMText
 10
146.2459261161
 20
105.7878953945
 30
-0.1159649329
 40
2.0
 41
0.0
 71
     1
 72
     1
  1
PSC
  7
SLDTEXTSTYLE0
 11
-7.044195017643634E-15
 21
1.0
 31
0.0
 73
     1
 44
1.0
  0
MTEXT
  5
1FA
330
1F1
100
AcDbEntity
  8
VERMASSUNG
100
AcDbMText
 10
146.4459261256
 20
110.3878954966
 30
-0.1159649329
 40
2.0
 41
0.0
 71
     1
 72
     1
  1
%%c
  7
SLDTEXTSTYLE0
 11
-7.044195017643634E-15
 21
1.0
 31
0.0
 73
     1
 44
1.0
  0
MTEXT
  5
1FB
330
1F1
100
AcDbEntity
  8
VERMASSUNG
100
AcDbMText
 10
146.2459261161
 20
113.9978959766
 30
-0.1159649329
 40
2.0
 41
0.0
 71
     1
 72
     1
  1
50
  7
SLDTEXTSTYLE0
 11
-7.044195017643634E-15
 21
1.0
 31
0.0
 73
     1
 44
1.0
  0
ENDBLK
  5
1F3
330
1F1
100
AcDbEntity
  8
0
100
AcDbBlockEnd
  0
BLOCK
  5
27E
330
27D
100
AcDbEntity
  8
0
100
AcDbBlockBegin
  2
_D_5
 70
     0
 10
0.0
 20
0.0
 30
0.0
  3
_D_5
  1

  0
SOLID
  5
280
330
27D
100
AcDbEntity
  8
VERMASSUNG
100
AcDbTrace
 10
99.824687139
 20
86.3674192957
 30
0.0
 11
100.9349757073
 21
83.5443430843
 31
0.0
 12
101.7143985707
 22
83.9943430843
 32
0.0
 13
101.7143985707
 23
83.9943430843
 33
0.0
  0
SOLID
  5
281
330
27D
100
AcDbEntity
  8
VERMASSUNG
100
AcDbTrace
 10
67.324687139
 20
142.6590705417
 30
0.0
 11
66.2143985707
 21
145.482146753
 31
0.0
 12
65.4349757073
 22
145.032146753
 32
0.0
 13
65.4349757073
 23
145.032146753
 33
0.0
  0
LINE
  5
282
330
27D
100
AcDbEntity
  8
VERMASSUNG
100
AcDbLine
 10
99.6894256645
 20
86.289326047
 30
0.0
 11
100.6907125428
 21
86.8674192957
 31
0.0
  0
LINE
  5
283
330
27D
100
AcDbEntity
  8
VERMASSUNG
100
AcDbLine
 10
67.1894256645
 20
142.5809772929
 30
0.0
 11
68.1907125428
 21
143.1590705417
 31
0.0
  0
LINE
  5
284
330
27D
100
AcDbEntity
  8
VERMASSUNG
100
AcDbLine
 10
99.824687139
 20
86.3674192957
 30
0.0
 11
102.824687139
 21
81.171266873
 31
0.0
  0
LINE
  5
285
330
27D
100
AcDbEntity
  8
VERMASSUNG
100
AcDbLine
 10
99.824687139
 20
86.3674192957
 30
0.0
 11
67.324687139
 21
142.6590705417
 31
0.0
  0
LINE
  5
286
330
27D
100
AcDbEntity
  8
VERMASSUNG
100
AcDbLine
 10
67.324687139
 20
142.6590705417
 30
0.0
 11
59.0407880323
 21
157.0072046794
 31
0.0
  0
MTEXT
  5
287
330
27D
100
AcDbEntity
  8
VERMASSUNG
100
AcDbMText
 10
61.2735188519
 20
158.2962724192
 30
0.1
 40
2.0
 41
0.0
 71
     1
 72
     1
  1
%%c
  7
SLDTEXTSTYLE0
 11
0.499999999999998
 21
-0.8660254037844398
 31
0.0
 73
     1
 44
1.0
  0
MTEXT
  5
288
330
27D
100
AcDbEntity
  8
VERMASSUNG
100
AcDbMText
 10
63.2517239481
 20
155.2699207039
 30
0.1
 40
2.0
 41
0.0
 71
     1
 72
     1
  1
65
  7
SLDTEXTSTYLE0
 11
0.499999999999998
 21
-0.8660254037844398
 31
0.0
 73
     1
 44
1.0
  0
MTEXT
  5
289
330
27D
100
AcDbEntity
  8
VERMASSUNG
100
AcDbMText
 10
66.1454742319
 20
150.2577981878
 30
0.1
 40
2.0
 41
0.0
 71
     1
 72
     1
  1
min.
  7
SLDTEXTSTYLE0
 11
0.499999999999998
 21
-0.8660254037844398
 31
0.0
 73
     1
 44
1.0
  0
ENDBLK
  5
27F
330
27D
100
AcDbEntity
  8
0
100
AcDbBlockEnd
  0
BLOCK
  5
28B
330
28A
100
AcDbEntity
  8
0
100
AcDbBlockBegin
  2
SW_CENTERMARKSYMBOL_0
 70
     0
 10
0.0
 20
0.0
 30
0.0
  3
SW_CENTERMARKSYMBOL_0
  1

  0
LINE
  5
28D
330
28A
100
AcDbEntity
  8
VERMASSUNG
 62
     0
100
AcDbLine
 10
0.0
 20
0.0
 30
0.0
 11
0.0
 21
2.5
 31
0.0
  0
LINE
  5
28E
330
28A
100
AcDbEntity
  8
VERMASSUNG
 62
     0
100
AcDbLine
 10
0.0
 20
0.0
 30
0.0
 11
-2.5
 21
0.0
 31
0.0
  0
LINE
  5
28F
330
28A
100
AcDbEntity
  8
VERMASSUNG
 62
     0
100
AcDbLine
 10
0.0
 20
0.0
 30
0.0
 11
0.0
 21
-2.5
 31
0.0
  0
LINE
  5
290
330
28A
100
AcDbEntity
  8
VERMASSUNG
 62
     0
100
AcDbLine
 10
0.0
 20
0.0
 30
0.0
 11
2.5
 21
0.0
 31
0.0
  0
LINE
  5
291
330
28A
100
AcDbEntity
  8
VERMASSUNG
 62
     0
100
AcDbLine
 10
0.0
 20
5.0
 30
0.0
 11
0.0
 21
40.0431354205
 31
0.0
  0
LINE
  5
292
330
28A
100
AcDbEntity
  8
VERMASSUNG
 62
     0
100
AcDbLine
 10
-5.0
 20
0.0
 30
0.0
 11
-27.5
 21
0.0
 31
0.0
  0
LINE
  5
293
330
28A
100
AcDbEntity
  8
VERMASSUNG
 62
     0
100
AcDbLine
 10
0.0
 20
-5.0
 30
0.0
 11
0.0
 21
-27.5
 31
0.0
  0
LINE
  5
294
330
28A
100
AcDbEntity
  8
VERMASSUNG
 62
     0
100
AcDbLine
 10
5.0
 20
0.0
 30
0.0
 11
27.5
 21
0.0
 31
0.0
  0
ENDBLK
  5
28C
330
28A
100
AcDbEntity
  8
0
100
AcDbBlockEnd
  0
ENDSEC
  0
SECTION
  2
ENTITIES
  0
MTEXT
  5
49
330
1F
100
AcDbEntity
  8
KOPF_DÜNN
100
AcDbMText
 10
13.8892156294
 20
23.8442973028
 30
0.0
 40
3.0
 41
0.0
 71
     1
 72
     1
  1
PS5.KVD.RPA.060
  7
SLDTEXTSTYLE0
 73
     1
 44
1.0
  0
MTEXT
  5
4A
330
1F
100
AcDbEntity
  8
VERMASSUNG
100
AcDbMText
 10
13.9329988022
 20
28.8834360957
 30
0.0
 40
3.0
 41
0.0
 71
     1
 72
     1
  1
Klemmhalter rechts_Turning tool right 117.5° /35°
  7
SLDTEXTSTYLE0
 73
     1
 44
1.0
  0
MTEXT
  5
4B
330
1F
100
AcDbEntity
  8
VERMASSUNG
100
AcDbMText
 10
98.8601118557
 20
13.8365368179
 30
0.0
 40
2.0
 41
0.0
 71
     1
 72
     1
  1
Datum: 24.05.2012
  7
SLDTEXTSTYLE0
 73
     1
 44
1.0
  0
MTEXT
  5
4C
330
1F
100
AcDbEntity
  8
VERMASSUNG
100
AcDbMText
 10
13.933048693
 20
18.0482802738
 30
0.0
 40
2.0
 41
0.0
 71
     1
 72
     1
  1
PSC ø50 / VN..16 04..
  7
SLDTEXTSTYLE0
 73
     1
 44
1.0
  0
MTEXT
  5
4D
330
1F
100
AcDbEntity
  8
VERMASSUNG
100
AcDbMText
 10
13.9808475933
 20
13.9090973692
 30
0.0
 40
2.0
 41
0.0
 71
     1
 72
     1
  1
Gewicht: 802g
  7
SLDTEXTSTYLE0
 73
     1
 44
1.0
  0
ARC
  5
4E
330
1F
100
AcDbEntity
  8
0
  6
Continuous
 62
     7
370
    15
100
AcDbCircle
 10
189.3240616052
 20
87.4928955038
 30
0.0
 40
0.2999999999999972
100
AcDbArc
 50
180.0
 51
270.0
  0
ARC
  5
4F
330
1F
100
AcDbEntity
  8
0
  6
Continuous
 62
     7
370
    15
100
AcDbCircle
 10
189.3240616052
 20
136.8928955038
 30
0.0
 40
0.3000000000000398
100
AcDbArc
 50
90.0
 51
180.0
  0
LINE
  5
50
330
1F
100
AcDbEntity
  8
0
  6
Continuous
 62
     7
370
    15
100
AcDbLine
 10
221.2567335813
 20
137.1928958763
 30
0.0
 11
189.3240616194
 21
137.1928958763
 31
0.0
  0
LINE
  5
51
330
1F
100
AcDbEntity
  8
0
  6
Continuous
 62
     7
370
    15
100
AcDbLine
 10
189.3240616194
 20
87.1928951312
 30
0.0
 11
221.2567335813
 21
87.1928951312
 31
0.0
  0
LWPOLYLINE
  5
52
330
1F
100
AcDbEntity
  8
0
  6
Continuous
 62
     7
370
    15
100
AcDbPolyline
 90
        3
 70
   128
 43
0.0
 10
188.8240616102
 20
94.3530744482
 10
188.9495165454
 20
94.2847731133
 10
189.0240616052
 20
94.2320360412
  0
LWPOLYLINE
  5
53
330
1F
100
AcDbEntity
  8
0
  6
Continuous
 62
     7
370
    15
100
AcDbPolyline
 90
        3
 70
   128
 43
0.0
 10
189.0240616052
 20
130.1537549664
 10
188.9495165454
 20
130.1010178943
 10
188.8240616102
 20
130.0327165593
  0
ARC
  5
54
330
1F
100
AcDbEntity
  8
0
  6
Continuous
 62
     7
370
    15
100
AcDbCircle
 10
221.2567346172
 20
138.1928955038
 30
0.0
 40
1.00000000000003
100
AcDbArc
 50
270.0
 51
345.0
  0
ARC
  5
55
330
1F
100
AcDbEntity
  8
0
  6
Continuous
 62
     7
370
    15
100
AcDbCircle
 10
221.2567346172
 20
86.1928955038
 30
0.0
 40
1.000000000000008
100
AcDbArc
 50
30.0
 51
90.0
  0
LINE
  5
56
330
1F
100
AcDbEntity
  8
0
  6
Continuous
 62
     7
370
    15
100
AcDbLine
 10
222.1227592675
 20
86.6928959806
 30
0.0
 11
223.2288128583
 21
86.6928959806
 31
0.0
  0
LINE
  5
57
330
1F
100
AcDbEntity
  8
0
  6
Continuous
 62
     7
370
    15
100
AcDbLine
 10
222.312264785
 20
138.2684784551
 30
0.0
 11
222.2226603775
 21
137.9340759088
 31
0.0
  0
LINE
  5
58
330
1F
100
AcDbEntity
  8
0
  6
Continuous
 62
     7
370
    15
100
AcDbLine
 10
232.9342222659
 20
117.2841212322
 30
0.0
 11
233.9762455671
 21
118.5127988067
 31
0.0
  0
LINE
  5
59
330
1F
100
AcDbEntity
  8
0
  6
Continuous
 62
     7
370
    15
100
AcDbLine
 10
231.6882691233
 20
120.4532005434
 30
0.0
 11
230.6816658823
 21
119.2662895267
 31
0.0
  0
LINE
  5
5A
330
1F
100
AcDbEntity
  8
0
  6
Continuous
 62
     7
370
    15
100
AcDbLine
 10
231.9526604263
 20
131.0121270437
 30
0.0
 11
231.605366513
 21
130.6026207824
 31
0.0
  0
LINE
  5
5B
330
1F
100
AcDbEntity
  8
0
  6
Continuous
 62
     7
370
    15
100
AcDbLine
 10
240.3759441225
 20
123.1644146685
 30
0.0
 11
240.7232417612
 21
123.5739209299
 31
0.0
  0
LINE
  5
5C
330
1F
100
AcDbEntity
  8
0
  6
Continuous
 62
     7
370
    15
100
AcDbLine
 10
230.4783916919
 20
131.2063692678
 30
0.0
 11
229.6811013369
 21
130.2662624587
 31
0.0
  0
LINE
  5
5D
330
1F
100
AcDbEntity
  8
0
  6
Continuous
 62
     7
370
    15
100
AcDbLine
 10
240.35833095
 20
121.2110559065
 30
0.0
 11
241.155621305
 21
122.151160853
 31
0.0
  0
LINE
  5
5E
330
1F
100
AcDbEntity
  8
0
  6
Continuous
 62
     7
370
    15
100
AcDbLine
 10
236.101635441
 20
111.513269316
 30
0.0
 11
237.2126622944
 21
112.8233105485
 31
0.0
  0
LINE
  5
5F
330
1F
100
AcDbEntity
  8
0
  6
Continuous
 62
     7
370
    15
100
AcDbLine
 10
232.8963621406
 20
135.996628793
 30
0.0
 11
232.0313832609
 21
134.9767076392
 31
0.0
  0
LINE
  5
60
330
1F
100
AcDbEntity
  8
0
  6
Continuous
 62
     7
370
    15
100
AcDbLine
 10
242.3274895994
 20
138.2653641124
 30
0.0
 11
237.612792
 21
140.3301863541
 31
0.0
  0
LINE
  5
61
330
1F
100
AcDbEntity
  8
0
  6
Continuous
 62
     7
370
    15
100
AcDbLine
 10
235.2628341763
 20
140.2542239596
 30
0.0
 11
235.1811050324
 21
140.1578581501
 31
0.0
  0
LINE
  5
62
330
1F
100
AcDbEntity
  8
0
  6
Continuous
 62
     7
370
    15
100
AcDbLine
 10
189.0240616052
 20
87.4928946216
 30
0.0
 11
189.0240616052
 21
136.8928963859
 31
0.0
  0
ELLIPSE
  5
63
330
1F
100
AcDbEntity
  8
0
  6
Continuous
 62
     7
370
    15
100
AcDbEllipse
 10
288.565833188
 20
112.1928955038
 30
0.0
 11
141.7790434936045
 21
-5.356812045790505
 31
0.0
210
0.0
220
0.0
230
1.0
 40
0.1722352441
 41
2.071968279446138
 42
2.099018785731043
  0
SPLINE
  5
64
330
1F
100
AcDbEntity
  8
0
  6
Continuous
 62
     7
370
    15
100
AcDbSpline
210
0.0
220
0.0
230
1.0
 70
     8
 71
     3
 72
    16
 73
    12
 74
     0
 42
0.00000001
 43
0.00000001
 12
1.0
 22
0.0
 32
0.0
 13
1.0
 23
0.0
 33
0.0
 40
0.0
 40
0.0
 40
0.0
 40
0.0
 40
0.2500000000000003
 40
0.2500000000000003
 40
0.5000000000000007
 40
0.5000000000000007
 40
0.750000000000001
 40
0.750000000000001
 40
0.8750000000000006
 40
0.8750000000000006
 40
1.0
 40
1.0
 40
1.0
 40
1.0
 10
215.5294038554887
 20
135.0603043971859
 30
0.0
 10
215.5957398648116
 20
135.1837228151668
 30
0.0
 10
215.6936937998605
 20
135.296976015651
 30
0.0
 10
215.960635298838
 20
135.5045263840276
 30
0.0
 10
216.131526438073
 20
135.5988243308244
 30
0.0
 10
216.5373404305501
 20
135.758577003304
 30
0.0
 10
216.7786817319132
 20
135.8262615838646
 30
0.0
 10
217.1741869653458
 20
135.9028594409474
 30
0.0
 10
217.3121299039734
 20
135.9245423475293
 30
0.0
 10
217.6011035329471
 20
135.9602447914891
 30
0.0
 10
217.7524076059972
 20
135.9742070866536
 30
0.0
 10
217.9062368013552
 20
135.9838190475155
 30
0.0
  0
ELLIPSE
  5
65
330
1F
100
AcDbEntity
  8
0
  6
Continuous
 62
     7
370
    15
100
AcDbEllipse
 10
219.4514188996
 20
112.1928955038
 30
0.0
 11
-1.494924451962447
 21
24.99694986107124
 31
0.0
210
0.0
220
0.0
230
1.0
 40
0.2612235458
 41
0.4004193631916562
 42
2.291052242056678
  0
SPLINE
  5
66
330
1F
100
AcDbEntity
  8
0
  6
Continuous
 62
     7
370
    15
100
AcDbSpline
210
0.0
220
0.0
230
1.0
 70
     8
 71
     3
 72
    12
 73
     8
 74
     0
 42
0.00000001
 43
0.00000001
 12
1.0
 22
0.0
 32
0.0
 13
1.0
 23
0.0
 33
0.0
 40
0.0
 40
0.0
 40
0.0
 40
0.0
 40
0.2499999999999988
 40
0.2499999999999988
 40
0.4999999999999976
 40
0.4999999999999976
 40
1.0
 40
1.0
 40
1.0
 40
1.0
 10
217.9062368013552
 20
93.58279584587783
 30
0.0
 10
217.599320051744
 20
93.62447683302447
 30
0.0
 10
217.3127703218121
 20
93.70059888343147
 30
0.0
 10
216.7773840851119
 20
93.91956237459917
 30
0.0
 10
216.5422298548968
 20
94.05710220068583
 30
0.0
 10
215.9263201180495
 20
94.54767484176085
 30
0.0
 10
215.6619271493009
 20
94.95974014969616
 30
0.0
 10
215.5294038554887
 20
95.41195973486403
 30
0.0
  0
ELLIPSE
  5
67
330
1F
100
AcDbEntity
  8
0
  6
Continuous
 62
     7
370
    15
100
AcDbEllipse
 10
288.565833188
 20
112.1928955038
 30
0.0
 11
141.7790434936045
 21
-5.356812045790505
 31
0.0
210
0.0
220
0.0
230
1.0
 40
0.1722352441
 41
4.197181404099508
 42
4.224231910384409
  0
SPLINE
  5
68
330
1F
100
AcDbEntity
  8
0
  6
Continuous
 62
     7
370
    15
100
AcDbSpline
210
0.0
220
0.0
230
1.0
 70
     8
 71
     3
 72
    12
 73
     8
 74
     0
 42
0.00000001
 43
0.00000001
 12
1.0
 22
0.0
 32
0.0
 13
1.0
 23
0.0
 33
0.0
 40
0.0
 40
0.0
 40
0.0
 40
0.0
 40
0.4999999999999982
 40
0.4999999999999982
 40
0.7499999999999991
 40
0.7499999999999991
 40
1.0
 40
1.0
 40
1.0
 40
1.0
 10
197.1188057168592
 20
88.54025402653826
 30
0.0
 10
197.1496574274234
 20
88.5009219861758
 30
0.0
 10
197.1915502908841
 20
88.4635102206475
 30
0.0
 10
197.2910711686773
 20
88.41383929603161
 30
0.0
 10
197.3306853334016
 20
88.39845021342379
 30
0.0
 10
197.427788367181
 20
88.37461699775652
 30
0.0
 10
197.4882870398314
 20
88.36616438826773
 30
0.0
 10
197.5518184187514
 20
88.36616438826772
 30
0.0
  0
LINE
  5
69
330
1F
100
AcDbEntity
  8
0
  6
Continuous
 62
     7
370
    15
100
AcDbLine
 10
197.5518182738
 20
88.3661641349
 30
0.0
 11
200.4963044895
 21
88.3661641349
 31
0.0
  0
SPLINE
  5
6A
330
1F
100
AcDbEntity
  8
0
  6
Continuous
 62
     7
370
    15
100
AcDbSpline
210
0.0
220
0.0
230
1.0
 70
     8
 71
     3
 72
    12
 73
     8
 74
     0
 42
0.00000001
 43
0.00000001
 12
1.0
 22
0.0
 32
0.0
 13
1.0
 23
0.0
 33
0.0
 40
0.0
 40
0.0
 40
0.0
 40
0.0
 40
0.2500000000000026
 40
0.2500000000000026
 40
0.5000000000000051
 40
0.5000000000000051
 40
1.0
 40
1.0
 40
1.0
 40
1.0
 10
200.4963047916186
 20
88.36616438826795
 30
0.0
 10
200.5599413458322
 20
88.36616438826795
 30
0.0
 10
200.6195214726985
 20
88.37442115919968
 30
0.0
 10
200.7181582140649
 20
88.39862322120752
 30
0.0
 10
200.7571168384452
 20
88.41387004024165
 30
0.0
 10
200.856495777953
 20
88.46347491230178
 30
0.0
 10
200.8984536831185
 20
88.50090656042059
 30
0.0
 10
200.929317493511
 20
88.54025402653825
 30
0.0
  0
ELLIPSE
  5
6B
330
1F
100
AcDbEntity
  8
0
  6
Continuous
 62
     7
370
    15
100
AcDbEllipse
 10
187.9678039502
 20
112.1928955038
 30
0.0
 11
-11.7092723497272
 21
24.67718644093742
 31
0.0
210
0.0
220
0.0
230
1.0
 40
0.3419987131
 41
3.31052192817895
 42
4.221709151398941
  0
SPLINE
  5
6C
330
1F
100
AcDbEntity
  8
0
  6
Continuous
 62
     7
370
    15
100
AcDbSpline
210
0.0
220
0.0
230
1.0
 70
     8
 71
     3
 72
    12
 73
     8
 74
     0
 42
0.00000001
 43
0.00000001
 12
1.0
 22
0.0
 32
0.0
 13
1.0
 23
0.0
 33
0.0
 40
0.0
 40
0.0
 40
0.0
 40
0.0
 40
0.4999999999999982
 40
0.4999999999999982
 40
0.7499999999999991
 40
0.7499999999999991
 40
1.0
 40
1.0
 40
1.0
 40
1.0
 10
200.9293174935108
 20
104.0964425057255
 30
0.0
 10
200.8984657829466
 20
104.2113454946624
 30
0.0
 10
200.856572919486
 20
104.3234843907112
 30
0.0
 10
200.7570520416928
 20
104.4754266723121
 30
0.0
 10
200.7174378769684
 20
104.523091281837
 30
0.0
 10
200.620334843189
 20
104.5974276124524
 30
0.0
 10
200.5598361705386
 20
104.6240855345895
 30
0.0
 10
200.4963047916187
 20
104.6240855345896
 30
0.0
  0
LINE
  5
6D
330
1F
100
AcDbEntity
  8
0
  6
Continuous
 62
     7
370
    15
100
AcDbLine
 10
200.4963044895
 20
104.6240853686
 30
0.0
 11
197.5518182738
 21
104.6240853686
 31
0.0
  0
SPLINE
  5
6E
330
1F
100
AcDbEntity
  8
0
  6
Continuous
 62
     7
370
    15
100
AcDbSpline
210
0.0
220
0.0
230
1.0
 70
     8
 71
     3
 72
    12
 73
     8
 74
     0
 42
0.00000001
 43
0.00000001
 12
1.0
 22
0.0
 32
0.0
 13
1.0
 23
0.0
 33
0.0
 40
0.0
 40
0.0
 40
0.0
 40
0.0
 40
0.2500000000000016
 40
0.2500000000000016
 40
0.5000000000000032
 40
0.5000000000000032
 40
1.0
 40
1.0
 40
1.0
 40
1.0
 10
197.5518184187515
 20
104.6240855345892
 30
0.0
 10
197.4881818645378
 20
104.6240855345892
 30
0.0
 10
197.4286017376716
 20
104.5980386315312
 30
0.0
 10
197.3299649963052
 20
104.5225514726313
 30
0.0
 10
197.2910063719249
 20
104.4753324341006
 30
0.0
 10
197.191627432417
 20
104.323592783007
 30
0.0
 10
197.1496695272515
 20
104.2113905588229
 30
0.0
 10
197.118805716859
 20
104.0964425057256
 30
0.0
  0
ELLIPSE
  5
6F
330
1F
100
AcDbEntity
  8
0
  6
Continuous
 62
     7
370
    15
100
AcDbEllipse
 10
210.0803192602
 20
112.1928955038
 30
0.0
 11
11.70927234972706
 21
24.67718644093745
 31
0.0
210
0.0
220
0.0
230
1.0
 40
0.3419987131
 41
2.061476155780654
 42
2.97266337900067
  0
SPLINE
  5
70
330
1F
100
AcDbEntity
  8
0
  6
Continuous
 62
     7
370
    15
100
AcDbSpline
210
0.0
220
0.0
230
1.0
 70
     8
 71
     3
 72
    12
 73
     8
 74
     0
 42
0.00000001
 43
0.00000001
 12
1.0
 22
0.0
 32
0.0
 13
1.0
 23
0.0
 33
0.0
 40
0.0
 40
0.0
 40
0.0
 40
0.0
 40
0.5000000000000032
 40
0.5000000000000032
 40
0.7500000000000016
 40
0.7500000000000016
 40
1.0
 40
1.0
 40
1.0
 40
1.0
 10
197.1188057168592
 20
120.289348501814
 30
0.0
 10
197.1495051002265
 20
120.1750128347501
 30
0.0
 10
197.190855168333
 20
120.0636594819088
 30
0.0
 10
197.2906110965525
 20
119.9109227096601
 30
0.0
 10
197.3303080142852
 20
119.8630628238079
 30
0.0
 10
197.4275661659328
 20
119.7884597104585
 30
0.0
 10
197.4883423239235
 20
119.7617054729504
 30
0.0
 10
197.5518184187515
 20
119.7617054729504
 30
0.0
  0
LINE
  5
71
330
1F
100
AcDbEntity
  8
0
  6
Continuous
 62
     7
370
    15
100
AcDbLine
 10
197.5518182738
 20
119.7617056389
 30
0.0
 11
200.4963044895
 21
119.7617056389
 31
0.0
  0
SPLINE
  5
72
330
1F
100
AcDbEntity
  8
0
  6
Continuous
 62
     7
370
    15
100
AcDbSpline
210
0.0
220
0.0
230
1.0
 70
     8
 71
     3
 72
    12
 73
     8
 74
     0
 42
0.00000001
 43
0.00000001
 12
1.0
 22
0.0
 32
0.0
 13
1.0
 23
0.0
 33
0.0
 40
0.0
 40
0.0
 40
0.0
 40
0.0
 40
0.2500000000000009
 40
0.2500000000000009
 40
0.5000000000000019
 40
0.5000000000000019
 40
1.0
 40
1.0
 40
1.0
 40
1.0
 10
200.4963047916186
 20
119.7617054729504
 30
0.0
 10
200.5599700281491
 20
119.7617054729504
 30
0.0
 10
200.6195762603724
 20
119.7877776214301
 30
0.0
 10
200.7182367853033
 20
119.8633163722512
 30
0.0
 10
200.7572037753185
 20
119.9105673093474
 30
0.0
 10
200.856590607243
 20
120.0623911273138
 30
0.0
 10
200.8986668546665
 20
120.1751943770789
 30
0.0
 10
200.9293174935108
 20
120.289348501814
 30
0.0
  0
ELLIPSE
  5
73
330
1F
100
AcDbEntity
  8
0
  6
Continuous
 62
     7
370
    15
100
AcDbEllipse
 10
187.9678039502
 20
112.1928955038
 30
0.0
 11
11.70927234972708
 21
24.67718644093742
 31
0.0
210
0.0
220
0.0
230
1.0
 40
0.3419987131
 41
5.203068809370451
 42
6.114256032590494
  0
SPLINE
  5
74
330
1F
100
AcDbEntity
  8
0
  6
Continuous
 62
     7
370
    15
100
AcDbSpline
210
0.0
220
0.0
230
1.0
 70
     8
 71
     3
 72
    12
 73
     8
 74
     0
 42
0.00000001
 43
0.00000001
 12
1.0
 22
0.0
 32
0.0
 13
1.0
 23
0.0
 33
0.0
 40
0.0
 40
0.0
 40
0.0
 40
0.0
 40
0.5000000000000004
 40
0.5000000000000004
 40
0.7500000000000002
 40
0.7500000000000002
 40
1.0
 40
1.0
 40
1.0
 40
1.0
 10
200.9293174935108
 20
135.8455369810015
 30
0.0
 10
200.8986181101435
 20
135.8846748233973
 30
0.0
 10
200.857268042037
 20
135.9218346061229
 30
0.0
 10
200.7575121138175
 20
135.9717711117506
 30
0.0
 10
200.7178151960848
 20
135.9872239818944
 30
0.0
 10
200.6205570444372
 20
136.0111435254934
 30
0.0
 10
200.5597808864465
 20
136.0196266192718
 30
0.0
 10
200.4963047916186
 20
136.0196266192718
 30
0.0
  0
LINE
  5
75
330
1F
100
AcDbEntity
  8
0
  6
Continuous
 62
     7
370
    15
100
AcDbLine
 10
200.4963044895
 20
136.0196268727
 30
0.0
 11
197.5518182738
 21
136.0196268727
 31
0.0
  0
SPLINE
  5
76
330
1F
100
AcDbEntity
  8
0
  6
Continuous
 62
     7
370
    15
100
AcDbSpline
210
0.0
220
0.0
230
1.0
 70
     8
 71
     3
 72
    12
 73
     8
 74
     0
 42
0.00000001
 43
0.00000001
 12
1.0
 22
0.0
 32
0.0
 13
1.0
 23
0.0
 33
0.0
 40
0.0
 40
0.0
 40
0.0
 40
0.0
 40
0.2500000000000016
 40
0.2500000000000016
 40
0.5000000000000032
 40
0.5000000000000032
 40
1.0
 40
1.0
 40
1.0
 40
1.0
 10
197.5518184187515
 20
136.0196266192718
 30
0.0
 10
197.488153182221
 20
136.0196266192718
 30
0.0
 10
197.4285469499976
 20
136.011361843606
 30
0.0
 10
197.3298864250667
 20
135.9871430620228
 30
0.0
 10
197.2909194350515
 20
135.9718857427137
 30
0.0
 10
197.191532603127
 20
135.9222523884517
 30
0.0
 10
197.1494563557036
 20
135.8846126802776
 30
0.0
 10
197.1188057168592
 20
135.8455369810015
 30
0.0
  0
ELLIPSE
  5
77
330
1F
100
AcDbEntity
  8
0
  6
Continuous
 62
     7
370
    15
100
AcDbEllipse
 10
210.0803192602
 20
112.1928955038
 30
0.0
 11
-11.70927234972697
 21
24.67718644093745
 31
0.0
210
0.0
220
0.0
230
1.0
 40
0.3419987131
 41
0.1689292745891346
 42
1.08011649780915
  0
SPLINE
  5
78
330
1F
100
AcDbEntity
  8
0
  6
Continuous
 62
     7
370
    15
100
AcDbSpline
210
0.0
220
0.0
230
1.0
 70
     8
 71
     3
 72
    16
 73
    12
 74
     0
 42
0.00000001
 43
0.00000001
 12
1.0
 22
0.0
 32
0.0
 13
1.0
 23
0.0
 33
0.0
 40
0.0
 40
0.0
 40
0.0
 40
0.0
 40
0.2499999999999998
 40
0.2499999999999998
 40
0.4999999999999997
 40
0.4999999999999997
 40
0.6249999999999999
 40
0.6249999999999999
 40
0.7500000000000001
 40
0.7500000000000001
 40
1.0
 40
1.0
 40
1.0
 40
1.0
 10
187.983200577056
 20
94.84373822257734
 30
0.0
 10
188.0149285382486
 20
94.84294110575642
 30
0.0
 10
188.0495561285991
 20
94.84235003090116
 30
0.0
 10
188.1292498906628
 20
94.8413385054667
 30
0.0
 10
188.1742913506665
 20
94.84093839729181
 30
0.0
 10
188.257144077517
 20
94.83998052538797
 30
0.0
 10
188.2870585387168
 20
94.83959884412754
 30
0.0
 10
188.3530448692748
 20
94.83852263006901
 30
0.0
 10
188.3897784947365
 20
94.83780506417487
 30
0.0
 10
188.5022752143063
 20
94.83504418649322
 30
0.0
 10
188.5726165624046
 20
94.83255709462163
 30
0.0
 10
188.6290847163098
 20
94.83038381621452
 30
0.0
  0
SPLINE
  5
79
330
1F
100
AcDbEntity
  8
0
  6
Continuous
 62
     7
370
    15
100
AcDbSpline
210
0.0
220
0.0
230
1.0
 70
     8
 71
     3
 72
    14
 73
    10
 74
     0
 42
0.00000001
 43
0.00000001
 12
1.0
 22
0.0
 32
0.0
 13
1.0
 23
0.0
 33
0.0
 40
0.0
 40
0.0
 40
0.0
 40
0.0
 40
0.1249999999999992
 40
0.1249999999999992
 40
0.2499999999999983
 40
0.2499999999999983
 40
0.4999999999999989
 40
0.4999999999999989
 40
1.0
 40
1.0
 40
1.0
 40
1.0
 10
188.6290847162781
 20
94.83038381623723
 30
0.0
 10
188.6416765102229
 20
94.82989919841489
 30
0.0
 10
188.656547618517
 20
94.82818902048254
 30
0.0
 10
188.6887317099502
 20
94.82007347173167
 30
0.0
 10
188.704335841426
 20
94.81385768347035
 30
0.0
 10
188.7402229811381
 20
94.79563857176879
 30
0.0
 10
188.7540750224067
 20
94.78387354343516
 30
0.0
 10
188.7875647643393
 20
94.75207840701786
 30
0.0
 10
188.7982270249151
 20
94.73428497517473
 30
0.0
 10
188.80636498181
 20
94.71785384433034
 30
0.0
  0
LINE
  5
7A
330
1F
100
AcDbEntity
  8
0
  6
Continuous
 62
     7
370
    15
100
AcDbLine
 10
188.8240616102
 20
106.2084154767
 30
0.0
 11
188.8240616102
 21
94.3530744482
 31
0.0
  0
SPLINE
  5
7B
330
1F
100
AcDbEntity
  8
0
  6
Continuous
 62
     7
370
    15
100
AcDbSpline
210
0.0
220
0.0
230
1.0
 70
     8
 71
     3
 72
    16
 73
    12
 74
     0
 42
0.00000001
 43
0.00000001
 12
1.0
 22
0.0
 32
0.0
 13
1.0
 23
0.0
 33
0.0
 40
0.0
 40
0.0
 40
0.0
 40
0.0
 40
0.5000000000000011
 40
0.5000000000000011
 40
0.75
 40
0.75
 40
0.8750000000000003
 40
0.8750000000000003
 40
0.9375000000000002
 40
0.9375000000000002
 40
1.0
 40
1.0
 40
1.0
 40
1.0
 10
188.824061605185
 20
106.2084152711953
 30
0.0
 10
188.824061605185
 20
106.3229450018943
 30
0.0
 10
188.8200043030699
 20
106.4382610770838
 30
0.0
 10
188.7943470602752
 20
106.6131841669113
 30
0.0
 10
188.7830316145331
 20
106.6730134699063
 30
0.0
 10
188.7490002472244
 20
106.7576046561545
 30
0.0
 10
188.7351212660206
 20
106.7862742422985
 30
0.0
 10
188.6991855842533
 20
106.8160820292448
 30
0.0
 10
188.6842352649905
 20
106.8224171826044
 30
0.0
 10
188.6543367522486
 20
106.8211917197341
 30
0.0
 10
188.6408038918834
 20
106.8145931336993
 30
0.0
 10
188.6290847163093
 20
106.8059454456429
 30
0.0
  0
SPLINE
  5
7C
330
1F
100
AcDbEntity
  8
0
  6
Continuous
 62
     7
370
    15
100
AcDbSpline
210
0.0
220
0.0
230
1.0
 70
     8
 71
     3
 72
    14
 73
    10
 74
     0
 42
0.00000001
 43
0.00000001
 12
1.0
 22
0.0
 32
0.0
 13
1.0
 23
0.0
 33
0.0
 40
0.0
 40
0.0
 40
0.0
 40
0.0
 40
0.25
 40
0.25
 40
0.5
 40
0.5
 40
0.75
 40
0.75
 40
1.0
 40
1.0
 40
1.0
 40
1.0
 10
188.6290847163162
 20
106.8059454456343
 30
0.0
 10
188.5726250504324
 20
106.7642833359355
 30
0.0
 10
188.5017525755703
 20
106.7334498553473
 30
0.0
 10
188.3532862176883
 20
106.7391643639604
 30
0.0
 10
188.2840910144805
 20
106.7747352913933
 30
0.0
 10
188.1743738284109
 20
106.8616792038672
 30
0.0
 10
188.129127939479
 20
106.9141115172323
 30
0.0
 10
188.0495108085121
 20
107.0226645987509
 30
0.0
 10
188.0149081890552
 20
107.0796476849933
 30
0.0
 10
187.9832005770564
 20
107.1382137676512
 30
0.0
  0
SPLINE
  5
7D
330
1F
100
AcDbEntity
  8
0
  6
Continuous
 62
     7
370
    15
100
AcDbSpline
210
0.0
220
0.0
230
1.0
 70
     8
 71
     3
 72
    10
 73
     6
 74
     0
 42
0.00000001
 43
0.00000001
 12
1.0
 22
0.0
 32
0.0
 13
1.0
 23
0.0
 33
0.0
 40
0.0
 40
0.0
 40
0.0
 40
0.0
 40
0.5
 40
0.5
 40
1.0
 40
1.0
 40
1.0
 40
1.0
 10
187.7027412616254
 20
107.9910323592975
 30
0.0
 10
187.7336198452373
 20
107.8414038074378
 30
0.0
 10
187.7696125529607
 20
107.6949083899142
 30
0.0
 10
187.8589528044578
 20
107.4097167513735
 30
0.0
 10
187.9114111073034
 20
107.2708137256575
 30
0.0
 10
187.9832005770565
 20
107.1382137676511
 30
0.0
  0
SPLINE
  5
7E
330
1F
100
AcDbEntity
  8
0
  6
Continuous
 62
     7
370
    15
100
AcDbSpline
210
0.0
220
0.0
230
1.0
 70
     8
 71
     3
 72
    10
 73
     6
 74
     0
 42
0.00000001
 43
0.00000001
 12
1.0
 22
0.0
 32
0.0
 13
1.0
 23
0.0
 33
0.0
 40
0.0
 40
0.0
 40
0.0
 40
0.0
 40
0.5
 40
0.5
 40
1.0
 40
1.0
 40
1.0
 40
1.0
 10
187.9832005770558
 20
117.2475772398875
 30
0.0
 10
187.9114111073029
 20
117.1149772818812
 30
0.0
 10
187.8589528044575
 20
116.9760742561654
 30
0.0
 10
187.7696125529606
 20
116.6908826176251
 30
0.0
 10
187.7336198452373
 20
116.5443872001018
 30
0.0
 10
187.7027412616254
 20
116.3947586482423
 30
0.0
  0
SPLINE
  5
7F
330
1F
100
AcDbEntity
  8
0
  6
Continuous
 62
     7
370
    15
100
AcDbSpline
210
0.0
220
0.0
230
1.0
 70
     8
 71
     3
 72
    14
 73
    10
 74
     0
 42
0.00000001
 43
0.00000001
 12
1.0
 22
0.0
 32
0.0
 13
1.0
 23
0.0
 33
0.0
 40
0.0
 40
0.0
 40
0.0
 40
0.0
 40
0.25
 40
0.25
 40
0.5
 40
0.5
 40
0.75
 40
0.75
 40
1.0
 40
1.0
 40
1.0
 40
1.0
 10
187.9832005770551
 20
117.2475772398863
 30
0.0
 10
188.0149092765405
 20
117.3061453312049
 30
0.0
 10
188.0495170951811
 20
117.3631395931449
 30
0.0
 10
188.1291755056704
 20
117.4717397279089
 30
0.0
 10
188.1742377755653
 20
117.5240678632875
 30
0.0
 10
188.2848196211438
 20
117.6115688746497
 30
0.0
 10
188.352463741959
 20
117.646614330904
 30
0.0
 10
188.5027120323561
 20
117.65235871966
 30
0.0
 10
188.5726644305865
 20
117.62147861261
 30
0.0
 10
188.62908471631
 20
117.5798455618969
 30
0.0
  0
SPLINE
  5
80
330
1F
100
AcDbEntity
  8
0
  6
Continuous
 62
     7
370
    15
100
AcDbSpline
210
0.0
220
0.0
230
1.0
 70
     8
 71
     3
 72
    16
 73
    12
 74
     0
 42
0.00000001
 43
0.00000001
 12
1.0
 22
0.0
 32
0.0
 13
1.0
 23
0.0
 33
0.0
 40
0.0
 40
0.0
 40
0.0
 40
0.0
 40
0.0625
 40
0.0625
 40
0.1249999999999999
 40
0.1249999999999999
 40
0.2500000000000008
 40
0.2500000000000008
 40
0.4999999999999993
 40
0.4999999999999993
 40
1.0
 40
1.0
 40
1.0
 40
1.0
 10
188.6290847162782
 20
117.5798455618435
 30
0.0
 10
188.640818950725
 20
117.5711867616993
 30
0.0
 10
188.654350706204
 20
117.564582676464
 30
0.0
 10
188.6843381666338
 20
117.5633857092898
 30
0.0
 10
188.6993328730421
 20
117.5698074563557
 30
0.0
 10
188.7350732954369
 20
117.599524609765
 30
0.0
 10
188.7490866324381
 20
117.6283320071484
 30
0.0
 10
188.7832307212194
 20
117.7134117287743
 30
0.0
 10
188.7942026253378
 20
117.771786678044
 30
0.0
 10
188.8200481656041
 20
117.9475022028326
 30
0.0
 10
188.824061605185
 20
118.0632972106971
 30
0.0
 10
188.824061605185
 20
118.1773757363445
 30
0.0
  0
LINE
  5
81
330
1F
100
AcDbEntity
  8
0
  6
Continuous
 62
     7
370
    15
100
AcDbLine
 10
188.8240616102
 20
130.0327165593
 30
0.0
 11
188.8240616102
 21
118.1773755309
 31
0.0
  0
SPLINE
  5
82
330
1F
100
AcDbEntity
  8
0
  6
Continuous
 62
     7
370
    15
100
AcDbSpline
210
0.0
220
0.0
230
1.0
 70
     8
 71
     3
 72
    16
 73
    12
 74
     0
 42
0.00000001
 43
0.00000001
 12
1.0
 22
0.0
 32
0.0
 13
1.0
 23
0.0
 33
0.0
 40
0.0
 40
0.0
 40
0.0
 40
0.0
 40
0.4999999999999983
 40
0.4999999999999983
 40
0.7499999999999992
 40
0.7499999999999992
 40
0.8749999999999998
 40
0.8749999999999998
 40
0.9374999999999999
 40
0.9374999999999999
 40
1.0
 40
1.0
 40
1.0
 40
1.0
 10
188.8240616051851
 20
129.7396499694375
 30
0.0
 10
188.8240616051849
 20
129.7176349548582
 30
0.0
 10
188.8199370623309
 20
129.6922813201544
 30
0.0
 10
188.7940206166978
 20
129.6451208179659
 30
0.0
 10
188.782743035678
 20
129.6279218297371
 30
0.0
 10
188.7490076571366
 20
129.5979438641679
 30
0.0
 10
188.7346188418923
 20
129.586592455626
 30
0.0
 10
188.6993721524532
 20
129.5699045961486
 30
0.0
 10
188.6841667279962
 20
129.5643415692633
 30
0.0
 10
188.6545201488269
 20
129.5573719862282
 30
0.0
 10
188.6408148128295
 20
129.5558586451728
 30
0.0
 10
188.6290847163057
 20
129.5554071913229
 30
0.0
  0
SPLINE
  5
83
330
1F
100
AcDbEntity
  8
0
  6
Continuous
 62
     7
370
    15
100
AcDbSpline
210
0.0
220
0.0
230
1.0
 70
     8
 71
     3
 72
    14
 73
    10
 74
     0
 42
0.00000001
 43
0.00000001
 12
1.0
 22
0.0
 32
0.0
 13
1.0
 23
0.0
 33
0.0
 40
0.0
 40
0.0
 40
0.0
 40
0.0
 40
0.25
 40
0.25
 40
0.5
 40
0.5
 40
0.75
 40
0.75
 40
1.0
 40
1.0
 40
1.0
 40
1.0
 10
188.6290847163162
 20
129.5554071913254
 30
0.0
 10
188.5726376342577
 20
129.5532347239062
 30
0.0
 10
188.5017872502145
 20
129.5507366259887
 30
0.0
 10
188.3533508153976
 20
129.5470901672005
 30
0.0
 10
188.2841615637106
 20
129.5461224203493
 30
0.0
 10
188.1744500154695
 20
129.5448548609866
 30
0.0
 10
188.1292083661271
 20
129.5444520200583
 30
0.0
 10
188.0495603479432
 20
129.5434409851306
 30
0.0
 10
188.0149334321771
 20
129.542850024736
 30
0.0
 10
187.9832005770558
 20
129.5420527849625
 30
0.0
  0
SPLINE
  5
84
330
1F
100
AcDbEntity
  8
0
  6
Continuous
 62
     7
370
    15
100
AcDbSpline
210
0.0
220
0.0
230
1.0
 70
     8
 71
     3
 72
    18
 73
    14
 74
     0
 42
0.00000001
 43
0.00000001
 12
1.0
 22
0.0
 32
0.0
 13
1.0
 23
0.0
 33
0.0
 40
0.0
 40
0.0
 40
0.0
 40
0.0
 40
0.25
 40
0.25
 40
0.375
 40
0.375
 40
0.5
 40
0.5
 40
0.625
 40
0.625
 40
0.75
 40
0.75
 40
1.0
 40
1.0
 40
1.0
 40
1.0
 10
187.7027412616254
 20
116.3947586482423
 30
0.0
 10
187.567455655323
 20
115.7392043128211
 30
0.0
 10
187.4662879090801
 20
115.0595832190235
 30
0.0
 10
187.3634265662112
 20
114.0042192125295
 30
0.0
 10
187.3373237206879
 20
113.6454051479448
 30
0.0
 10
187.302433737143
 20
112.9192922038219
 30
0.0
 10
187.2938474788531
 20
112.5572025248058
 30
0.0
 10
187.2937477692874
 20
111.8348928673874
 30
0.0
 10
187.302236140436
 20
111.4746730652791
 30
0.0
 10
187.3363795199566
 20
110.7561069961851
 30
0.0
 10
187.3621765018103
 20
110.3963412802697
 30
0.0
 10
187.4655776331983
 20
109.3296966932754
 30
0.0
 10
187.5674356253697
 20
108.646683753993
 30
0.0
 10
187.7027412616254
 20
107.9910323592975
 30
0.0
  0
LINE
  5
85
330
1F
100
AcDbEntity
  8
0
  6
Continuous
 62
     7
370
    15
100
AcDbLine
 10
186.8240616171
 20
117.333047798
 30
0.0
 11
186.8240616171
 21
107.0527432096
 31
0.0
  0
LINE
  5
86
330
1F
100
AcDbEntity
  8
0
  6
Continuous
 62
     7
370
    15
100
AcDbLine
 10
160.5240615903
 20
117.0026741531
 30
0.0
 11
160.5240615903
 21
107.3831168544
 31
0.0
  0
LINE
  5
87
330
1F
100
AcDbEntity
  8
0
  6
Continuous
 62
     7
370
    15
100
AcDbLine
 10
159.0240622757
 20
116.56966131
 30
0.0
 11
159.0240622757
 21
107.8161296975
 31
0.0
  0
LINE
  5
88
330
1F
100
AcDbEntity
  8
0
  6
Continuous
 62
     7
370
    15
100
AcDbLine
 10
160.5240615903
 20
95.3335447778
 30
0.0
 11
160.5240615903
 21
107.3831168544
 31
0.0
  0
LINE
  5
89
330
1F
100
AcDbEntity
  8
0
  6
Continuous
 62
     7
370
    15
100
AcDbLine
 10
186.8240616171
 20
94.6727974881
 30
0.0
 11
186.8240616171
 21
107.0527432096
 31
0.0
  0
LINE
  5
8A
330
1F
100
AcDbEntity
  8
0
  6
Continuous
 62
     7
370
    15
100
AcDbLine
 10
160.5240615903
 20
95.3335447778
 30
0.0
 11
186.8240616171
 21
94.6727974881
 31
0.0
  0
LINE
  5
8B
330
1F
100
AcDbEntity
  8
0
  6
Continuous
 62
     7
370
    15
100
AcDbLine
 10
160.5240615903
 20
117.0026741531
 30
0.0
 11
160.5240615903
 21
129.0522462298
 31
0.0
  0
LINE
  5
8C
330
1F
100
AcDbEntity
  8
0
  6
Continuous
 62
     7
370
    15
100
AcDbLine
 10
160.5240615903
 20
129.0522462298
 30
0.0
 11
186.8240616171
 21
129.7129935194
 31
0.0
  0
LINE
  5
8D
330
1F
100
AcDbEntity
  8
0
  6
Continuous
 62
     7
370
    15
100
AcDbLine
 10
186.8240616171
 20
117.333047798
 30
0.0
 11
186.8240616171
 21
129.7129935194
 31
0.0
  0
ARC
  5
8E
330
1F
100
AcDbEntity
  8
0
  6
Continuous
 62
     7
370
    15
100
AcDbCircle
 10
187.0239985161
 20
94.6677736081
 30
0.0
 40
0.2000000000000066
100
AcDbArc
 50
88.5608333333
 51
178.5608333333
  0
ARC
  5
8F
330
1F
100
AcDbEntity
  8
0
  6
Continuous
 62
     7
370
    15
100
AcDbCircle
 10
187.0239985161
 20
129.7180173995
 30
0.0
 40
0.2000000000000066
100
AcDbArc
 50
181.4391666667
 51
271.4391666667
  0
LINE
  5
90
330
1F
100
AcDbEntity
  8
0
  6
Continuous
 62
     7
370
    15
100
AcDbLine
 10
187.0290217342
 20
94.8677102645
 30
0.0
 11
187.9832005946
 21
94.8437380214
 31
0.0
  0
LINE
  5
91
330
1F
100
AcDbEntity
  8
0
  6
Continuous
 62
     7
370
    15
100
AcDbLine
 10
187.0290217342
 20
129.5180807431
 30
0.0
 11
187.9832005946
 21
129.5420529862
 31
0.0
  0
LINE
  5
92
330
1F
100
AcDbEntity
  8
0
  6
Continuous
 62
     7
370
    15
100
AcDbLine
 10
235.2806261627
 20
140.3597279061
 30
0.0
 11
233.4123483746
 21
136.570092531
 31
0.0
  0
LINE
  5
93
330
1F
100
AcDbEntity
  8
0
  6
Continuous
 62
     7
370
    15
100
AcDbLine
 10
229.153425142
 20
131.0942417551
 30
0.0
 11
226.019249007
 21
129.4612309505
 31
0.0
  0
ARC
  5
94
330
1F
100
AcDbEntity
  8
0
  6
Continuous
 62
     7
370
    15
100
AcDbCircle
 10
227.0315094653
 20
127.6658540405
 30
0.0
 40
2.061079688979494
100
AcDbArc
 50
119.4149565815
 51
248.9222771871
  0
LINE
  5
95
330
1F
100
AcDbEntity
  8
0
  6
Continuous
 62
     7
370
    15
100
AcDbLine
 10
241.5859072356
 20
111.4761306746
 30
0.0
 11
241.5859072356
 21
122.3525407333
 31
0.0
  0
LINE
  5
96
330
1F
100
AcDbEntity
  8
0
  6
Continuous
 62
     7
370
    15
100
AcDbLine
 10
227.3730865566
 20
91.8364378233
 30
0.0
 11
241.5859072356
 21
111.4761306746
 31
0.0
  0
ELLIPSE
  5
97
330
1F
100
AcDbEntity
  8
0
  6
Continuous
 62
     7
370
    15
100
AcDbEllipse
 10
288.565833188
 20
112.1928955038
 30
0.0
 11
144.6146243634767
 21
-5.463948286706311
 31
0.0
210
0.0
220
0.0
230
1.0
 40
0.1722352441
 41
4.241532405355732
 42
4.281994314433033
  0
SPLINE
  5
98
330
1F
100
AcDbEntity
  8
0
  6
Continuous
 62
     7
370
    15
100
AcDbSpline
210
0.0
220
0.0
230
1.0
 70
     8
 71
     3
 72
    12
 73
     8
 74
     0
 42
0.00000001
 43
0.00000001
 12
1.0
 22
0.0
 32
0.0
 13
1.0
 23
0.0
 33
0.0
 40
0.0
 40
0.0
 40
0.0
 40
0.0
 40
0.25
 40
0.25
 40
0.5
 40
0.5
 40
1.0
 40
1.0
 40
1.0
 40
1.0
 10
222.1227600209905
 20
92.47433849020878
 30
0.0
 10
222.0815188996895
 20
92.55819449065653
 30
0.0
 10
222.0304659409227
 20
92.63930885684945
 30
0.0
 10
221.9122008278167
 20
92.78774322486983
 30
0.0
 10
221.8457535386463
 20
92.85463763558714
 30
0.0
 10
221.6226195358407
 20
93.03150257908386
 30
0.0
 10
221.4454035118363
 20
93.11362991771105
 30
0.0
 10
221.256734617206
 20
93.13809874580753
 30
0.0
  0
SPLINE
  5
99
330
1F
100
AcDbEntity
  8
0
  6
Continuous
 62
     7
370
    15
100
AcDbSpline
210
0.0
220
0.0
230
1.0
 70
     8
 71
     3
 72
    10
 73
     6
 74
     0
 42
0.00000001
 43
0.00000001
 12
1.0
 22
0.0
 32
0.0
 13
1.0
 23
0.0
 33
0.0
 40
0.0
 40
0.0
 40
0.0
 40
0.0
 40
0.5
 40
0.5
 40
1.0
 40
1.0
 40
1.0
 40
1.0
 10
221.256734617206
 20
136.1828546946264
 30
0.0
 10
221.4940593455005
 20
136.1962329321579
 30
0.0
 10
221.712752220376
 20
136.3018625614822
 30
0.0
 10
222.0505839202809
 20
136.6191992067634
 30
0.0
 10
222.1678003158523
 20
136.8258842153141
 30
0.0
 10
222.2226604434951
 20
137.0535240219069
 30
0.0
  0
SPLINE
  5
9A
330
1F
100
AcDbEntity
  8
0
  6
Continuous
 62
     7
370
    15
100
AcDbSpline
210
0.0
220
0.0
230
1.0
 70
     8
 71
     3
 72
     8
 73
     4
 74
     0
 42
0.00000001
 43
0.00000001
 12
1.0
 22
0.0
 32
0.0
 13
1.0
 23
0.0
 33
0.0
 40
0.0
 40
0.0
 40
0.0
 40
0.0
 40
1.0
 40
1.0
 40
1.0
 40
1.0
 10
222.2226604434951
 20
137.0535240219068
 30
0.0
 10
222.4230078125568
 20
137.8848570556453
 30
0.0
 10
222.6259009016922
 20
138.7154742760152
 30
0.0
 10
222.8307706868419
 20
139.5455356829449
 30
0.0
  0
LINE
  5
9B
330
1F
100
AcDbEntity
  8
0
  6
Continuous
 62
     7
370
    15
100
AcDbLine
 10
222.8307693152
 20
139.5455359091
 30
0.0
 11
227.2884777634
 21
139.3821148743
 31
0.0
  0
ARC
  5
9C
330
1F
100
AcDbEntity
  8
0
  6
Continuous
 62
     7
370
    15
100
AcDbCircle
 10
228.2420456665
 20
164.743914114
 30
0.0
 40
25.37971931334652
100
AcDbArc
 50
267.8467737075
 51
286.1009690981
  0
LINE
  5
9D
330
1F
100
AcDbEntity
  8
0
  6
Continuous
 62
     7
370
    15
100
AcDbLine
 10
159.0240622757
 20
128.1862205435
 30
0.0
 11
160.5240615903
 21
129.0522462298
 31
0.0
  0
LINE
  5
9E
330
1F
100
AcDbEntity
  8
0
  6
Continuous
 62
     7
370
    15
100
AcDbLine
 10
159.0240622757
 20
116.56966131
 30
0.0
 11
159.0240622757
 21
128.1862205435
 31
0.0
  0
LINE
  5
9F
330
1F
100
AcDbEntity
  8
0
  6
Continuous
 62
     7
370
    15
100
AcDbLine
 10
159.0240622757
 20
96.199570464
 30
0.0
 11
160.5240615903
 21
95.3335447778
 31
0.0
  0
LINE
  5
A0
330
1F
100
AcDbEntity
  8
0
  6
Continuous
 62
     7
370
    15
100
AcDbLine
 10
159.0240622757
 20
96.199570464
 30
0.0
 11
159.0240622757
 21
107.8161296975
 31
0.0
  0
LINE
  5
A1
330
1F
100
AcDbEntity
  8
0
  6
Continuous
 62
     7
370
    15
100
AcDbLine
 10
222.1227592675
 20
92.4743379076
 30
0.0
 11
222.1227592675
 21
86.6928959806
 31
0.0
  0
ELLIPSE
  5
A2
330
1F
100
AcDbEntity
  8
0
  6
Continuous
 62
     7
370
    15
100
AcDbEllipse
 10
241.8981909928
 20
112.1928955038
 30
0.0
 11
18.67547586664432
 21
25.49823968036566
 31
0.0
210
0.0
220
0.0
230
1.0
 40
0.0160435947
 41
3.153342797152274
 42
3.799684414668409
  0
LINE
  5
A3
330
1F
100
AcDbEntity
  8
0
  6
Continuous
 62
     7
370
    15
100
AcDbLine
 10
228.3603927939
 20
129.8079735209
 30
0.0
 11
224.9931923001
 21
128.0535480548
 31
0.0
  0
SPLINE
  5
A4
330
1F
100
AcDbEntity
  8
0
  6
Continuous
 62
     7
370
    15
100
AcDbSpline
210
0.0
220
0.0
230
1.0
 70
     8
 71
     3
 72
     9
 73
     5
 74
     0
 42
0.00000001
 43
0.00000001
 12
1.0
 22
0.0
 32
0.0
 13
1.0
 23
0.0
 33
0.0
 40
0.0
 40
0.0
 40
0.0
 40
0.0
 40
0.4112474882526921
 40
1.0
 40
1.0
 40
1.0
 40
1.0
 10
222.3343296794591
 20
138.2625664193736
 30
0.0
 10
222.3775883942934
 20
138.4388372122254
 30
0.0
 10
222.4827774010839
 20
138.8674618187871
 30
0.0
 10
222.7018120912296
 20
139.2942583684488
 30
0.0
 10
222.8307693152127
 20
139.5455359090672
 30
0.0
  0
LWPOLYLINE
  5
A5
330
1F
100
AcDbEntity
  8
0
  6
Continuous
 62
     7
370
    15
100
AcDbPolyline
 90
       22
 70
   128
 43
0.0
 10
232.9403131156
 20
118.015747292
 10
232.512042567
 20
118.0624042247
 10
232.1108288018
 20
118.2290988584
 10
231.7705719618
 20
118.5017463361
 10
231.5200275628
 20
118.8573080656
 10
231.3803664295
 20
119.2657395807
 10
231.3633865564
 20
119.6925288607
 10
231.4705221801
 20
120.1016141642
 10
231.6927245705
 20
120.4584271256
 10
232.0112145393
 20
120.7328180392
 10
232.3990805893
 20
120.9016006981
 10
232.8235513417
 20
120.950514691
 10
233.2487559764
 20
120.8754258771
 10
233.6387677936
 20
120.6826793571
 10
233.9606328754
 20
120.3885621001
 10
234.187149152
 20
120.0179255177
 10
234.2991798072
 20
119.6020895225
 10
234.2872588782
 20
119.1761901212
 10
234.1523921935
 20
118.7762154807
 10
233.9059791414
 20
118.4359632973
 10
233.5688329189
 20
118.1841839646
 10
233.1694519965
 20
118.0421521497
  0
LINE
  5
A6
330
1F
100
AcDbEntity
  8
0
  6
Continuous
 62
     7
370
    15
100
AcDbLine
 10
233.1960058658
 20
118.1653828901
 30
0.0
 11
233.1694519965
 21
118.0421521497
 31
0.0
  0
LWPOLYLINE
  5
A7
330
1F
100
AcDbEntity
  8
0
  6
Continuous
 62
     7
370
    15
100
AcDbPolyline
 90
       21
 70
   128
 43
0.0
 10
232.9783222525
 20
118.1402981822
 10
232.551515743
 20
118.1899055448
 10
232.1548840849
 20
118.3646537904
 10
231.8253523557
 20
118.6482759733
 10
231.5935945956
 20
119.0143695642
 10
231.4811876862
 20
119.428853279
 10
231.4985959677
 20
119.8531433549
 10
231.6441989391
 20
120.2477414702
 10
231.9044402687
 20
120.5759125371
 10
232.2550981192
 20
120.8071087096
 10
232.6635240464
 20
120.9198071231
 10
233.0916977374
 20
120.903514566
 10
233.4997623114
 20
120.7597500254
 10
233.8497272579
 20
120.5018956755
 10
234.1090186386
 20
120.1539554243
 10
234.2534928469
 20
119.7483206709
 10
234.2697053103
 20
119.3227514234
 10
234.1561435609
 20
118.9168652129
 10
233.9233836977
 20
118.5684467275
 10
233.5930845587
 20
118.3099306729
 10
233.1960058658
 20
118.1653828901
  0
LINE
  5
A8
330
1F
100
AcDbEntity
  8
0
  6
Continuous
 62
     7
370
    15
100
AcDbLine
 10
232.9783222525
 20
118.1402981822
 30
0.0
 11
232.9403131156
 21
118.015747292
 31
0.0
  0
LINE
  5
A9
330
1F
100
AcDbEntity
  8
0
  6
Continuous
 62
     7
370
    15
100
AcDbLine
 10
233.1454238741
 20
118.3815097977
 30
0.0
 11
233.1960058658
 21
118.1653828901
 31
0.0
  0
LWPOLYLINE
  5
AA
330
1F
100
AcDbEntity
  8
0
  6
Continuous
 62
     7
370
    15
100
AcDbPolyline
 90
       19
 70
   128
 43
0.0
 10
232.9621135144
 20
118.3603860047
 10
232.5637309699
 20
118.4134760481
 10
232.2011298387
 20
118.5951305163
 10
231.9159141628
 20
118.8845110667
 10
231.7407957165
 20
119.2484207061
 10
231.6958649902
 20
119.6451124345
 10
231.786281511
 20
120.0290790368
 10
232.0016666202
 20
120.3562740777
 10
232.3173179178
 20
120.5891606007
 10
232.6970181315
 20
120.7010245491
 10
233.0972148924
 20
120.6790322979
 10
233.4719977228
 20
120.5257067998
 10
233.7783693223
 20
120.2586379443
 10
233.981185302
 20
119.9084615876
 10
234.0571812241
 20
119.5153498632
 10
233.9976399092
 20
119.1243992728
 10
233.8093860893
 20
118.7804581207
 10
233.5140189974
 20
118.5229828191
 10
233.1454238741
 20
118.3815097977
  0
LINE
  5
AB
330
1F
100
AcDbEntity
  8
0
  6
Continuous
 62
     7
370
    15
100
AcDbLine
 10
232.9621135144
 20
118.3603860047
 30
0.0
 11
232.9783222525
 21
118.1402981822
 31
0.0
  0
LINE
  5
AC
330
1F
100
AcDbEntity
  8
0
  6
Continuous
 62
     7
370
    15
100
AcDbLine
 10
232.9753308444
 20
118.1809466873
 30
0.0
 11
233.1454238741
 21
118.3815097977
 31
0.0
  0
LINE
  5
AD
330
1F
100
AcDbEntity
  8
0
  6
Continuous
 62
     7
370
    15
100
AcDbLine
 10
233.1694519965
 20
118.0421521497
 30
0.0
 11
232.0924631207
 21
116.7722481844
 31
0.0
  0
LINE
  5
AE
330
1F
100
AcDbEntity
  8
0
  6
Continuous
 62
     7
370
    15
100
AcDbLine
 10
232.9403131156
 20
118.015747292
 30
0.0
 11
231.8576245455
 21
116.7391182464
 31
0.0
  0
LWPOLYLINE
  5
AF
330
1F
100
AcDbEntity
  8
0
  6
Continuous
 62
     7
370
    15
100
AcDbPolyline
 90
       43
 70
   128
 43
0.0
 10
233.170446649
 20
122.7470163797
 10
233.905409172
 20
122.3032448982
 10
234.6947125046
 20
121.9709368963
 10
235.5207248478
 20
121.7575159465
 10
236.3649911134
 20
121.6677485575
 10
237.2086501567
 20
121.7036407982
 10
238.0328631847
 20
121.8643898685
 10
238.819212362
 20
122.1464064513
 10
239.5501366703
 20
122.5433901493
 10
240.2093044369
 20
123.0464719777
 10
240.7819933145
 20
123.6444155295
 10
241.2554106562
 20
124.3238628451
 10
241.6189766376
 20
125.0696361606
 10
241.8645738511
 20
125.8650759776
 10
241.9867186694
 20
126.6924145241
 10
241.9826767294
 20
127.5331687723
 10
241.8525411634
 20
128.3685586025
 10
241.5992214231
 20
129.1799231042
 10
241.2283724992
 20
129.9491378088
 10
240.7482794373
 20
130.6590198149
 10
240.1696636228
 20
131.2937105615
 10
239.5054555385
 20
131.8390315939
 10
238.7704930155
 20
132.2828030754
 10
237.9811896829
 20
132.6151120086
 10
237.1551810651
 20
132.8285320271
 10
236.3109147994
 20
132.9183003475
 10
235.4672520308
 20
132.8824071754
 10
234.6430390029
 20
132.7216590364
 10
233.8566898255
 20
132.4396415223
 10
233.1257692425
 20
132.0426578243
 10
232.4665977506
 20
131.5395759959
 10
231.8939125983
 20
130.9416333754
 10
231.4204952566
 20
130.2621851285
 10
231.05692555
 20
129.516411813
 10
230.8113283364
 20
128.7209729273
 10
230.6891835181
 20
127.8936343808
 10
230.6932254581
 20
127.0528792013
 10
230.8233610241
 20
126.2174893711
 10
231.0766844897
 20
125.4061248694
 10
231.4475334136
 20
124.6369101648
 10
231.9276264755
 20
123.9270290901
 10
232.5062385647
 20
123.2923383434
 10
233.170446649
 20
122.7470163797
  0
LWPOLYLINE
  5
B0
330
1F
100
AcDbEntity
  8
0
  6
Continuous
 62
     7
370
    15
100
AcDbPolyline
 90
       29
 70
   128
 43
0.0
 10
235.3080703764
 20
125.7260053028
 10
235.7967241554
 20
125.4545340855
 10
236.3299324064
 20
125.2957873587
 10
236.8809549956
 20
125.2577242051
 10
237.4221651702
 20
125.3422547672
 10
237.9264241903
 20
125.5451387335
 10
238.3684447853
 20
125.8562032674
 10
238.7260614781
 20
126.2598505784
 10
238.9813444464
 20
126.7358393018
 10
239.1214935927
 20
127.2603024338
 10
239.139475569
 20
127.8069412876
 10
239.0343963055
 20
128.3483433147
 10
238.8115159123
 20
128.8573632557
 10
238.4820214359
 20
129.3084735592
 10
238.0624233632
 20
129.6790561248
 10
237.5737733094
 20
129.9505254794
 10
237.0405650584
 20
130.1092731376
 10
236.4895424692
 20
130.1473362912
 10
235.9483285694
 20
130.062805729
 10
235.4440732746
 20
129.8599226941
 10
235.0020526795
 20
129.5488572289
 10
234.6444322614
 20
129.1452108492
 10
234.3891492932
 20
128.6692211945
 10
234.2490038721
 20
128.1447580625
 10
234.2310181706
 20
127.5981192086
 10
234.3361011593
 20
127.0567171816
 10
234.5589778273
 20
126.5476981719
 10
234.8884760289
 20
126.0965869371
 10
235.3080703764
 20
125.7260053028
  0
SPLINE
  5
B1
330
1F
100
AcDbEntity
  8
0
  6
Continuous
 62
     7
370
    15
100
AcDbSpline
210
0.0
220
0.0
230
1.0
 70
     8
 71
     3
 72
    11
 73
     7
 74
     0
 42
0.00000001
 43
0.00000001
 12
1.0
 22
0.0
 32
0.0
 13
1.0
 23
0.0
 33
0.0
 40
0.0
 40
0.0
 40
0.0
 40
0.0
 40
0.1208914413888825
 40
0.4766715014667146
 40
0.8143664167916899
 40
1.0
 40
1.0
 40
1.0
 40
1.0
 10
236.81128089115
 20
129.9110690672503
 30
0.0
 10
236.8754134089037
 20
129.85212669334
 30
0.0
 10
237.1282860951691
 20
129.61971859605
 30
0.0
 10
237.6305259338671
 20
129.211300130376
 30
0.0
 10
238.2343348234962
 20
128.826759239184
 30
0.0
 10
238.5754910627168
 20
128.6434152457858
 30
0.0
 10
238.6965050248799
 20
128.5783799905882
 30
0.0
  0
SPLINE
  5
B2
330
1F
100
AcDbEntity
  8
0
  6
Continuous
 62
     7
370
    15
100
AcDbSpline
210
0.0
220
0.0
230
1.0
 70
     8
 71
     3
 72
    11
 73
     7
 74
     0
 42
0.00000001
 43
0.00000001
 12
1.0
 22
0.0
 32
0.0
 13
1.0
 23
0.0
 33
0.0
 40
0.0
 40
0.0
 40
0.0
 40
0.0
 40
0.2164521176070132
 40
0.4403054572924429
 40
0.7518964200582713
 40
1.0
 40
1.0
 40
1.0
 40
1.0
 10
234.7669272570309
 20
128.9961955119477
 30
0.0
 10
234.8943867878626
 20
129.0440326013297
 30
0.0
 10
235.1536641173224
 20
129.1413424902269
 30
0.0
 10
235.6609709252733
 20
129.3527659402901
 30
0.0
 10
236.2408938915354
 20
129.6216936406083
 30
0.0
 10
236.636094724472
 20
129.8221915652061
 30
0.0
 10
236.81128089115
 20
129.9110690672503
 30
0.0
  0
SPLINE
  5
B3
330
1F
100
AcDbEntity
  8
0
  6
Continuous
 62
     7
370
    15
100
AcDbSpline
210
0.0
220
0.0
230
1.0
 70
     8
 71
     3
 72
    11
 73
     7
 74
     0
 42
0.00000001
 43
0.00000001
 12
1.0
 22
0.0
 32
0.0
 13
1.0
 23
0.0
 33
0.0
 40
0.0
 40
0.0
 40
0.0
 40
0.0
 40
0.2164526107598629
 40
0.440305432003964
 40
0.751895862860086
 40
1.0
 40
1.0
 40
1.0
 40
1.0
 10
234.6077977566418
 20
126.7486300860153
 30
0.0
 10
234.6061196251804
 20
126.8877564936289
 30
0.0
 10
234.6027059893017
 20
127.170765845156
 30
0.0
 10
234.6225266618754
 20
127.7268006226759
 30
0.0
 10
234.6795206881925
 20
128.3653923590289
 30
0.0
 10
234.7400815450929
 20
128.8024530969562
 30
0.0
 10
234.7669272570309
 20
128.9961955119477
 30
0.0
  0
SPLINE
  5
B4
330
1F
100
AcDbEntity
  8
0
  6
Continuous
 62
     7
370
    15
100
AcDbSpline
210
0.0
220
0.0
230
1.0
 70
     8
 71
     3
 72
    11
 73
     7
 74
     0
 42
0.00000001
 43
0.00000001
 12
1.0
 22
0.0
 32
0.0
 13
1.0
 23
0.0
 33
0.0
 40
0.0
 40
0.0
 40
0.0
 40
0.0
 40
0.1856339255376941
 40
0.5233285404149937
 40
0.879108628986063
 40
0.9999999999999999
 40
0.9999999999999999
 40
0.9999999999999999
 40
0.9999999999999999
 10
236.4930218903718
 20
125.4159391467081
 30
0.0
 10
236.3720080032863
 20
125.4809747343927
 30
0.0
 10
236.0308525775473
 20
125.6643193416862
 30
0.0
 10
235.4270421558075
 20
126.0488601110476
 30
0.0
 10
234.924803149939
 20
126.4572795618372
 30
0.0
 10
234.671930287402
 20
126.6896877246267
 30
0.0
 10
234.6077977566418
 20
126.7486300860153
 30
0.0
  0
SPLINE
  5
B5
330
1F
100
AcDbEntity
  8
0
  6
Continuous
 62
     7
370
    15
100
AcDbSpline
210
0.0
220
0.0
230
1.0
 70
     8
 71
     3
 72
    11
 73
     7
 74
     0
 42
0.00000001
 43
0.00000001
 12
1.0
 22
0.0
 32
0.0
 13
1.0
 23
0.0
 33
0.0
 40
0.0
 40
0.0
 40
0.0
 40
0.0
 40
0.2164522401035383
 40
0.4403056560756372
 40
0.751896464002442
 40
1.0
 40
1.0
 40
1.0
 40
1.0
 10
238.5373755244908
 20
126.3308136333333
 30
0.0
 10
238.3847587153632
 20
126.2533129448577
 30
0.0
 10
238.0743066533334
 20
126.095661578121
 30
0.0
 10
237.5243429703893
 20
125.8339421333487
 30
0.0
 10
236.9701361556756
 20
125.5953358600798
 30
0.0
 10
236.6395606957326
 20
125.4710382748936
 30
0.0
 10
236.4930218903718
 20
125.4159391467081
 30
0.0
  0
SPLINE
  5
B6
330
1F
100
AcDbEntity
  8
0
  6
Continuous
 62
     7
370
    15
100
AcDbSpline
210
0.0
220
0.0
230
1.0
 70
     8
 71
     3
 72
    11
 73
     7
 74
     0
 42
0.00000001
 43
0.00000001
 12
1.0
 22
0.0
 32
0.0
 13
1.0
 23
0.0
 33
0.0
 40
0.0
 40
0.0
 40
0.0
 40
0.0
 40
0.2164529434794494
 40
0.4403053434633973
 40
0.7518958945890234
 40
1.0
 40
1.0
 40
1.0
 40
1.0
 10
238.6965050248799
 20
128.5783799905882
 30
0.0
 10
238.6730259083581
 20
128.409589296765
 30
0.0
 10
238.625265040346
 20
128.0662377894001
 30
0.0
 10
238.5627867586713
 20
127.4599068722945
 30
0.0
 10
238.5315096922439
 20
126.8516372652883
 30
0.0
 10
238.5355739160573
 20
126.4907773363867
 30
0.0
 10
238.5373755244908
 20
126.3308136333333
 30
0.0
  0
LINE
  5
B7
330
1F
100
AcDbEntity
  8
0
  6
Continuous
 62
     7
370
    15
100
AcDbLine
 10
236.3234317748
 20
129.3358358164
 30
0.0
 11
236.8112808911
 21
129.9110690673
 31
0.0
  0
LINE
  5
B8
330
1F
100
AcDbEntity
  8
0
  6
Continuous
 62
     7
370
    15
100
AcDbLine
 10
236.3234317748
 20
129.3358358164
 30
0.0
 11
235.3012568204
 21
128.8783981074
 31
0.0
  0
LINE
  5
B9
330
1F
100
AcDbEntity
  8
0
  6
Continuous
 62
     7
370
    15
100
AcDbLine
 10
235.3012568204
 20
128.8783981074
 30
0.0
 11
234.7172579615
 21
128.6170522292
 31
0.0
  0
LINE
  5
BA
330
1F
100
AcDbEntity
  8
0
  6
Continuous
 62
     7
370
    15
100
AcDbLine
 10
238.0737705974
 20
126.0979708825
 30
0.0
 11
238.1290911584
 21
126.8793635611
 31
0.0
  0
LINE
  5
BB
330
1F
100
AcDbEntity
  8
0
  6
Continuous
 62
     7
370
    15
100
AcDbLine
 10
238.1290911584
 20
126.8793635611
 30
0.0
 11
238.2086559086
 21
128.0031467397
 31
0.0
  0
LINE
  5
BC
330
1F
100
AcDbEntity
  8
0
  6
Continuous
 62
     7
370
    15
100
AcDbLine
 10
238.2086559086
 20
128.0031467397
 30
0.0
 11
238.6965050249
 21
128.5783799906
 31
0.0
  0
ARC
  5
BD
330
1F
100
AcDbEntity
  8
0
  6
Continuous
 62
     7
370
    15
100
AcDbCircle
 10
236.1482960319
 20
126.8726023467
 30
0.0
 40
5.623492174315958
100
AcDbArc
 50
233.7509874526
 51
318.7450989162
  0
ARC
  5
BE
330
1F
100
AcDbEntity
  8
0
  6
Continuous
 62
     7
370
    15
100
AcDbCircle
 10
235.9929850438
 20
127.0268236274
 30
0.0
 40
5.660169755857843
100
AcDbArc
 50
140.8208443331
 51
235.9424798498
  0
LINE
  5
BF
330
1F
100
AcDbEntity
  8
0
  6
Continuous
 62
     7
370
    15
100
AcDbLine
 10
238.2086559086
 20
128.0031467397
 30
0.0
 11
237.2660457043
 21
128.6694912781
 31
0.0
  0
LINE
  5
C0
330
1F
100
AcDbEntity
  8
0
  6
Continuous
 62
     7
370
    15
100
AcDbLine
 10
237.2660457043
 20
128.6694912781
 30
0.0
 11
236.3234317748
 21
129.3358358164
 31
0.0
  0
ARC
  5
C1
330
1F
100
AcDbEntity
  8
0
  6
Continuous
 62
     7
370
    15
100
AcDbCircle
 10
236.0633496125
 20
127.171763282
 30
0.0
 40
1.86906068685288
100
AcDbArc
 50
114.0630107157
 51
137.2235687989
  0
ARC
  5
C2
330
1F
100
AcDbEntity
  8
0
  6
Continuous
 62
     7
370
    15
100
AcDbCircle
 10
236.1000533033
 20
127.0471881756
 30
0.0
 40
1.997850253520783
100
AcDbArc
 50
54.2941924525
 51
113.5674267366
  0
ARC
  5
C3
330
1F
100
AcDbEntity
  8
0
  6
Continuous
 62
     7
370
    15
100
AcDbCircle
 10
236.1037027323
 20
127.0060026123
 30
0.0
 40
2.029343668677112
100
AcDbArc
 50
356.4221925965
 51
55.0565316576
  0
ARC
  5
C4
330
1F
100
AcDbEntity
  8
0
  6
Continuous
 62
     7
370
    15
100
AcDbCircle
 10
236.2496055971
 20
127.0087990294
 30
0.0
 40
1.883937237659567
100
AcDbArc
 50
325.2440234011
 51
356.0604033059
  0
LWPOLYLINE
  5
C5
330
1F
100
AcDbEntity
  8
0
  6
Continuous
 62
     7
370
    15
100
AcDbPolyline
 90
        3
 70
   128
 43
0.0
 10
241.4835176317
 20
124.519048499
 10
241.7420751302
 20
125.3269801457
 10
241.8062134533
 20
125.6315682624
  0
LWPOLYLINE
  5
C6
330
1F
100
AcDbEntity
  8
0
  6
Continuous
 62
     7
370
    15
100
AcDbPolyline
 90
       30
 70
   128
 43
0.0
 10
233.8058396129
 20
132.4165726621
 10
233.7460263519
 20
132.3947461863
 10
232.9741052239
 20
132.0405809749
 10
232.2664751558
 20
131.5765010734
 10
231.6382198481
 20
131.0123989899
 10
231.1027317195
 20
130.3602962364
 10
230.6714176087
 20
129.6340937336
 10
230.3534752576
 20
128.8492663373
 10
230.1556809692
 20
128.0225424637
 10
230.0822480468
 20
127.1715418045
 10
230.1347411124
 20
126.3144027982
 10
230.3120425789
 20
125.4693942685
 10
230.6103750019
 20
124.6545242686
 10
231.0233793108
 20
123.8871619646
 10
231.5422526447
 20
123.1836613808
 10
232.1559346168
 20
122.5590177421
 10
232.8513494579
 20
122.026542442
 10
233.6136705129
 20
121.5975855087
 10
234.4266555159
 20
121.2812888045
 10
235.2729706912
 20
121.0843941738
 10
236.1345856337
 20
121.0110972245
 10
236.9931309371
 20
121.0629616473
 10
237.8303117006
 20
121.2388800998
 10
238.6282800584
 20
121.5351049398
 10
239.3700375108
 20
121.9453218002
 10
240.0397664754
 20
122.4607874249
 10
240.6231953649
 20
123.0705159326
 10
241.1078891604
 20
123.7615125795
 10
241.4835176317
 20
124.519048499
 10
241.4835176317
 20
124.519048499
  0
LWPOLYLINE
  5
C7
330
1F
100
AcDbEntity
  8
0
  6
Continuous
 62
     7
370
    15
100
AcDbPolyline
 90
       40
 70
   128
 43
0.0
 10
236.8030256478
 20
119.8659853619
 10
237.7082860915
 20
120.0251199846
 10
238.5794415025
 20
120.3042420168
 10
239.4007823317
 20
120.6983181257
 10
240.1574930994
 20
121.2002413888
 10
240.8359317927
 20
121.8009621446
 10
241.4238608329
 20
122.4896463175
 10
241.9106817691
 20
123.2538737897
 10
242.2876103668
 20
124.0798637812
 10
242.5478516965
 20
124.9527207185
 10
242.6867156176
 20
125.856704319
 10
242.7016950099
 20
126.7755127121
 10
242.5925179271
 20
127.6925758068
 10
242.3611550479
 20
128.5913570393
 10
242.0117824225
 20
129.4556467403
 10
241.5506957917
 20
130.2698610891
 10
240.9862100033
 20
131.0193149914
 10
240.3285062759
 20
131.6904949565
 10
239.5894459336
 20
132.2712956537
 10
238.7823543398
 20
132.751245292
 10
237.9217899291
 20
133.1216862966
 10
237.0232648103
 20
133.3759392221
 10
236.1029914467
 20
133.5094200988
 10
235.177558556
 20
133.5197205265
 10
234.2636554389
 20
133.4066561033
 10
233.3777665047
 20
133.172264563
 10
232.5358657984
 20
132.8207722474
 10
231.753133878
 20
132.3585196008
 10
231.0436895935
 20
131.79384196
 10
230.4203218667
 20
131.1369224061
 10
229.894277349
 20
130.3996054996
 10
229.4750369041
 20
129.595190527
 10
229.1701665966
 20
128.7381819059
 10
228.9851575045
 20
127.8440358658
 10
228.9233549385
 20
126.9288754631
 10
228.9858653097
 20
126.0092055966
 10
229.1715635805
 20
125.1016093959
 10
229.4771007149
 20
124.222453924
 10
229.8969707339
 20
123.3875949476
 10
230.4236001222
 20
122.6120872964
  0
SPLINE
  5
C8
330
1F
100
AcDbEntity
  8
0
  6
Continuous
 62
     7
370
    15
100
AcDbSpline
210
0.0
220
0.0
230
1.0
 70
     8
 71
     3
 72
    14
 73
    10
 74
     0
 42
0.00000001
 43
0.00000001
 12
1.0
 22
0.0
 32
0.0
 13
1.0
 23
0.0
 33
0.0
 40
0.0
 40
0.0
 40
0.0
 40
0.0
 40
0.2406875360502025
 40
0.3654956730909879
 40
0.4913828187667079
 40
0.5985911810311705
 40
0.7015345312957146
 40
0.8683340217284199
 40
1.0
 40
1.0
 40
1.0
 40
1.0
 10
236.8030256478486
 20
119.8659853619145
 30
0.0
 10
236.7039439968436
 20
120.0501122852885
 30
0.0
 10
236.5534837141081
 20
120.3297179304214
 30
0.0
 10
236.1670597779962
 20
120.5872567007926
 30
0.0
 10
235.8117462624845
 20
120.6844706339978
 30
0.0
 10
235.4506175404789
 20
120.6632936520433
 30
0.0
 10
235.0718046122052
 20
120.5414372691329
 30
0.0
 10
234.7238401641683
 20
120.3216145982694
 30
0.0
 10
234.5304831985558
 20
120.1116072377174
 30
0.0
 10
234.4451851098237
 20
120.0189639423595
 30
0.0
  0
ARC
  5
C9
330
1F
100
AcDbEntity
  8
0
  6
Continuous
 62
     7
370
    15
100
AcDbCircle
 10
236.0970692946
 20
126.9483878275
 30
0.0
 40
7.123597176948922
100
AcDbArc
 50
256.3008878812
 51
256.5916864082
  0
SPLINE
  5
CA
330
1F
100
AcDbEntity
  8
0
  6
Continuous
 62
     7
370
    15
100
AcDbSpline
210
0.0
220
0.0
230
1.0
 70
     8
 71
     3
 72
    14
 73
    10
 74
     0
 42
0.00000001
 43
0.00000001
 12
1.0
 22
0.0
 32
0.0
 13
1.0
 23
0.0
 33
0.0
 40
0.0
 40
0.0
 40
0.0
 40
0.0
 40
0.2406876522424042
 40
0.3654954695950071
 40
0.4913835657479651
 40
0.598591465898486
 40
0.7015348032575002
 40
0.8683342396185325
 40
1.0
 40
1.0
 40
1.0
 40
1.0
 10
234.4100369958577
 20
120.0274371151434
 30
0.0
 10
234.3687928949383
 20
120.2440774413021
 30
0.0
 10
234.3061617965287
 20
120.5730559202763
 30
0.0
 10
234.0126178152048
 20
120.9601874252266
 30
0.0
 10
233.7031344770792
 20
121.1766298519918
 30
0.0
 10
233.3547001481427
 20
121.2765539354926
 30
0.0
 10
232.9609649547087
 20
121.2817707075192
 30
0.0
 10
232.5684723098201
 20
121.1790132830764
 30
0.0
 10
232.3247995310786
 20
121.034899739965
 30
0.0
 10
232.2173050491509
 20
120.9713250939355
 30
0.0
  0
ARC
  5
CB
330
1F
100
AcDbEntity
  8
0
  6
Continuous
 62
     7
370
    15
100
AcDbCircle
 10
236.0700754833
 20
126.9474064067
 30
0.0
 40
7.110371852085207
100
AcDbArc
 50
236.89672005
 51
237.1901865322
  0
SPLINE
  5
CC
330
1F
100
AcDbEntity
  8
0
  6
Continuous
 62
     7
370
    15
100
AcDbSpline
210
0.0
220
0.0
230
1.0
 70
     8
 71
     3
 72
    14
 73
    10
 74
     0
 42
0.00000001
 43
0.00000001
 12
1.0
 22
0.0
 32
0.0
 13
1.0
 23
0.0
 33
0.0
 40
0.0
 40
0.0
 40
0.0
 40
0.0
 40
0.2406878647576961
 40
0.3654954124467647
 40
0.4913831529159701
 40
0.5985913817015005
 40
0.701534903442915
 40
0.8683341517087242
 40
1.0
 40
1.0
 40
1.0
 40
1.0
 10
232.1867464928326
 20
120.9911371190653
 30
0.0
 10
232.2117781392505
 20
121.2182450155886
 30
0.0
 10
232.2497898268814
 20
121.5631186318519
 30
0.0
 10
232.0893214494336
 20
122.0387949604613
 30
0.0
 10
231.8645440275319
 20
122.3501836232279
 30
0.0
 10
231.5698988495257
 20
122.5580567830356
 30
0.0
 10
231.205709593522
 20
122.6861545217564
 30
0.0
 10
230.8111255898541
 20
122.7070715621887
 30
0.0
 10
230.5422241599245
 20
122.6411625909641
 30
0.0
 10
230.4236001221833
 20
122.6120872963772
 30
0.0
  0
LINE
  5
CD
330
1F
100
AcDbEntity
  8
0
  6
Continuous
 62
     7
370
    15
100
AcDbLine
 10
231.9055504052
 20
120.6595695187
 30
0.0
 11
232.1867464928
 21
120.9911371191
 31
0.0
  0
SPLINE
  5
CE
330
1F
100
AcDbEntity
  8
0
  6
Continuous
 62
     7
370
    15
100
AcDbSpline
210
0.0
220
0.0
230
1.0
 70
     8
 71
     3
 72
    10
 73
     6
 74
     0
 42
0.00000001
 43
0.00000001
 12
1.0
 22
0.0
 32
0.0
 13
1.0
 23
0.0
 33
0.0
 40
0.0
 40
0.0
 40
0.0
 40
0.0
 40
0.6834951384179561
 40
0.9363018164543319
 40
1.0
 40
1.0
 40
1.0
 40
1.0
 10
229.6263097672162
 20
121.6719814185606
 30
0.0
 10
229.7557690323682
 20
121.6297379125056
 30
0.0
 10
229.9331118374674
 20
121.5718696567865
 30
0.0
 10
230.1846886399039
 20
121.4294432108497
 30
0.0
 10
230.283427611572
 20
121.3565452171615
 30
0.0
 10
230.3032993225751
 20
121.3418741319881
 30
0.0
  0
SPLINE
  5
CF
330
1F
100
AcDbEntity
  8
0
  6
Continuous
 62
     7
370
    15
100
AcDbSpline
210
0.0
220
0.0
230
1.0
 70
     8
 71
     3
 72
    10
 73
     6
 74
     0
 42
0.00000001
 43
0.00000001
 12
1.0
 22
0.0
 32
0.0
 13
1.0
 23
0.0
 33
0.0
 40
0.0
 40
0.0
 40
0.0
 40
0.0
 40
0.2793249715356586
 40
0.8465801548049277
 40
1.0
 40
1.0
 40
1.0
 40
1.0
 10
230.9821999518571
 20
120.7313642446504
 30
0.0
 10
231.0465812462047
 20
120.6515574915472
 30
0.0
 10
231.2417085412536
 20
120.4096786039375
 30
0.0
 10
231.34003372476
 20
120.2056320320972
 30
0.0
 10
231.3807815886875
 20
120.078166544422
 30
0.0
 10
231.3894561378655
 20
120.0510312412487
 30
0.0
  0
LINE
  5
D0
330
1F
100
AcDbEntity
  8
0
  6
Continuous
 62
     7
370
    15
100
AcDbLine
 10
230.4236001222
 20
122.6120872964
 30
0.0
 11
229.6263097672
 21
121.6719814186
 31
0.0
  0
LINE
  5
D1
330
1F
100
AcDbEntity
  8
0
  6
Continuous
 62
     7
370
    15
100
AcDbLine
 10
234.250952199
 20
119.8398589697
 30
0.0
 11
234.4100369959
 21
120.0274371151
 31
0.0
  0
LINE
  5
D2
330
1F
100
AcDbEntity
  8
0
  6
Continuous
 62
     7
370
    15
100
AcDbLine
 10
232.2173050492
 20
120.9713250939
 30
0.0
 11
232.0192984192
 21
120.737852769
 31
0.0
  0
LINE
  5
D3
330
1F
100
AcDbEntity
  8
0
  6
Continuous
 62
     7
370
    15
100
AcDbLine
 10
236.0057352929
 20
118.9258799498
 30
0.0
 11
236.8030256478
 21
119.8659853619
 31
0.0
  0
SPLINE
  5
D4
330
1F
100
AcDbEntity
  8
0
  6
Continuous
 62
     7
370
    15
100
AcDbSpline
210
0.0
220
0.0
230
1.0
 70
     8
 71
     3
 72
    10
 73
     6
 74
     0
 42
0.00000001
 43
0.00000001
 12
1.0
 22
0.0
 32
0.0
 13
1.0
 23
0.0
 33
0.0
 40
0.0
 40
0.0
 40
0.0
 40
0.0
 40
0.2517374551147907
 40
0.8407076119072159
 40
1.0
 40
1.0
 40
1.0
 40
1.0
 10
235.1152195481953
 20
119.2650331724988
 30
0.0
 10
235.2136088584138
 20
119.2412417307272
 30
0.0
 10
235.5421918338523
 20
119.161787339697
 30
0.0
 10
235.8065384820721
 20
119.0402464506116
 30
0.0
 10
235.970772631624
 20
118.9459533495905
 30
0.0
 10
236.0057352928815
 20
118.9258799497591
 30
0.0
  0
LINE
  5
D5
330
1F
100
AcDbEntity
  8
0
  6
Continuous
 62
     7
370
    15
100
AcDbLine
 10
234.4451851098
 20
120.0189639424
 30
0.0
 11
234.2613196819
 21
119.8021622915
 31
0.0
  0
ARC
  5
D6
330
1F
100
AcDbEntity
  8
0
  6
Continuous
 62
     7
370
    15
100
AcDbCircle
 10
235.3312897044
 20
125.4983051273
 30
0.0
 40
6.606939500706337
100
AcDbArc
 50
275.8590389931
 51
319.5412117374
  0
ARC
  5
D7
330
1F
100
AcDbEntity
  8
0
  6
Continuous
 62
     7
370
    15
100
AcDbCircle
 10
234.9361482247
 20
125.9354445054
 30
0.0
 40
6.809662395221271
100
AcDbArc
 50
140.5071961756
 51
218.7622521585
  0
SPLINE
  5
D8
330
1F
100
AcDbEntity
  8
0
  6
Continuous
 62
     7
370
    15
100
AcDbSpline
210
0.0
220
0.0
230
1.0
 70
     8
 71
     3
 72
    10
 73
     6
 74
     0
 42
0.00000001
 43
0.00000001
 12
1.0
 22
0.0
 32
0.0
 13
1.0
 23
0.0
 33
0.0
 40
0.0
 40
0.0
 40
0.0
 40
0.0
 40
0.3401615675988232
 40
0.6905232601451663
 40
1.0
 40
1.0
 40
1.0
 40
1.0
 10
224.7551872281728
 20
120.8040604908572
 30
0.0
 10
224.5970995974718
 20
120.3868724602195
 30
0.0
 10
224.2761839017016
 20
119.5399865493771
 30
0.0
 10
224.0579207615827
 20
118.2390687421376
 30
0.0
 10
224.0693730079485
 20
117.3799962038711
 30
0.0
 10
224.0747443287072
 20
116.9770748895214
 30
0.0
  0
SPLINE
  5
D9
330
1F
100
AcDbEntity
  8
0
  6
Continuous
 62
     7
370
    15
100
AcDbSpline
210
0.0
220
0.0
230
1.0
 70
     8
 71
     3
 72
    14
 73
    10
 74
     0
 42
0.00000001
 43
0.00000001
 12
1.0
 22
0.0
 32
0.0
 13
1.0
 23
0.0
 33
0.0
 40
0.0
 40
0.0
 40
0.0
 40
0.0
 40
0.127112628348639
 40
0.254445318468986
 40
0.4212689052156172
 40
0.5883291481760664
 40
0.7932266049094577
 40
0.9982398161802595
 40
1.0
 40
1.0
 40
1.0
 40
1.0
 10
224.0747443287072
 20
116.9770748895214
 30
0.0
 10
224.1128234519931
 20
116.5670012279283
 30
0.0
 10
224.1890476224581
 20
115.7461439710583
 30
0.0
 10
224.4957713061922
 20
114.4764981297287
 30
0.0
 10
224.9642727708159
 20
113.2038980435769
 30
0.0
 10
225.6635211805908
 20
111.8935143481534
 30
0.0
 10
226.5547564456913
 20
110.7020553506919
 30
0.0
 10
227.2806895498095
 20
110.0227227413814
 30
0.0
 10
227.6636587567128
 20
109.7277250538735
 30
0.0
 10
227.6669188289342
 20
109.7252138499723
 30
0.0
  0
SPLINE
  5
DA
330
1F
100
AcDbEntity
  8
0
  6
Continuous
 62
     7
370
    15
100
AcDbSpline
210
0.0
220
0.0
230
1.0
 70
     8
 71
     3
 72
    14
 73
    10
 74
     0
 42
0.00000001
 43
0.00000001
 12
1.0
 22
0.0
 32
0.0
 13
1.0
 23
0.0
 33
0.0
 40
0.0
 40
0.0
 40
0.0
 40
0.0
 40
0.1271128386483871
 40
0.2544454391839873
 40
0.4212689737042836
 40
0.5883289402919634
 40
0.7932264777449184
 40
0.9982397404809473
 40
1.0
 40
1.0
 40
1.0
 40
1.0
 10
236.0781661121545
 20
111.7201244999276
 30
0.0
 10
235.7427630671037
 20
111.4736191703414
 30
0.0
 10
235.0713771079115
 20
110.9801823348911
 30
0.0
 10
233.8696565391607
 20
110.3711636346984
 30
0.0
 10
232.5281500628508
 20
109.8912655782702
 30
0.0
 10
230.9633614952012
 20
109.5724273745816
 30
0.0
 10
229.3265008414965
 20
109.4881500138532
 30
0.0
 10
228.2117534231436
 20
109.6149724009241
 30
0.0
 10
227.6715178453267
 20
109.7242832882262
 30
0.0
 10
227.6669188289342
 20
109.7252138499723
 30
0.0
  0
SPLINE
  5
DB
330
1F
100
AcDbEntity
  8
0
  6
Continuous
 62
     7
370
    15
100
AcDbSpline
210
0.0
220
0.0
230
1.0
 70
     8
 71
     3
 72
    10
 73
     6
 74
     0
 42
0.00000001
 43
0.00000001
 12
1.0
 22
0.0
 32
0.0
 13
1.0
 23
0.0
 33
0.0
 40
0.0
 40
0.0
 40
0.0
 40
0.0
 40
0.3401615188545656
 40
0.6905236900699234
 40
1.0
 40
1.0
 40
1.0
 40
1.0
 10
238.4516565947232
 20
114.8056336753623
 30
0.0
 10
238.2526527566191
 20
114.4063652491469
 30
0.0
 10
237.8486774184078
 20
113.5958552657513
 30
0.0
 10
237.0320881472438
 20
112.5569765116198
 30
0.0
 10
236.3827279264366
 20
111.9873089841845
 30
0.0
 10
236.0781661121545
 20
111.7201244999276
 30
0.0
  0
ARC
  5
DC
330
1F
100
AcDbEntity
  8
0
  6
Continuous
 62
     7
370
    15
100
AcDbCircle
 10
230.5277038445
 20
116.5835227472
 30
0.0
 40
7.534997232858313
100
AcDbArc
 50
165.5013824765
 51
317.7091902673
  0
SPLINE
  5
DD
330
1F
100
AcDbEntity
  8
0
  6
Continuous
 62
     7
370
    15
100
AcDbSpline
210
0.0
220
0.0
230
1.0
 70
     8
 71
     3
 72
    10
 73
     6
 74
     0
 42
0.00000001
 43
0.00000001
 12
1.0
 22
0.0
 32
0.0
 13
1.0
 23
0.0
 33
0.0
 40
0.0
 40
0.0
 40
0.0
 40
0.0
 40
0.148066526368867
 40
0.9078070735563533
 40
1.0
 40
1.0
 40
1.0
 40
1.0
 10
223.232668533772
 20
118.4699593652592
 30
0.0
 10
223.2516075860983
 20
118.5169200724768
 30
0.0
 10
223.3677243485427
 20
118.8048397207374
 30
0.0
 10
223.520971473569
 20
119.1814057662301
 30
0.0
 10
223.6729601296941
 20
119.5116345243219
 30
0.0
 10
223.6894077508149
 20
119.5473705959128
 30
0.0
  0
ARC
  5
DE
330
1F
100
AcDbEntity
  8
0
  6
Continuous
 62
     7
370
    15
100
AcDbCircle
 10
-135.3874000213
 20
277.9237787326
 30
0.0
 40
392.9240244768622
100
AcDbArc
 50
336.4297591046
 51
337.3277900384
  0
SPLINE
  5
DF
330
1F
100
AcDbEntity
  8
0
  6
Continuous
 62
     7
370
    15
100
AcDbSpline
210
0.0
220
0.0
230
1.0
 70
     8
 71
     3
 72
    15
 73
    11
 74
     0
 42
0.00000001
 43
0.00000001
 12
1.0
 22
0.0
 32
0.0
 13
1.0
 23
0.0
 33
0.0
 40
0.0
 40
0.0
 40
0.0
 40
0.0
 40
0.122087703662728
 40
0.2441779550800927
 40
0.3704039991315522
 40
0.4966403336485367
 40
0.6208485731057982
 40
0.7450697765065334
 40
0.8725280660085986
 40
1.0
 40
1.0
 40
1.0
 40
1.0
 10
227.1734817771611
 20
126.4678577501879
 30
0.0
 10
227.468071898165
 20
127.1440951054828
 30
0.0
 10
228.057258287748
 20
128.4965839279511
 30
0.0
 10
229.0621833920116
 20
130.4321288940921
 30
0.0
 10
230.1520839553561
 20
132.2810081079079
 30
0.0
 10
231.3194437207484
 20
134.0114056487602
 30
0.0
 10
232.5375697059541
 20
135.5977181810809
 30
0.0
 10
233.804313187272
 20
137.0479367972362
 30
0.0
 10
235.1151622415665
 20
138.3760294631998
 30
0.0
 10
236.01330472634
 20
139.1456246878087
 30
0.0
 10
236.4624000041184
 20
139.530442895423
 30
0.0
  0
SPLINE
  5
E0
330
1F
100
AcDbEntity
  8
0
  6
Continuous
 62
     7
370
    15
100
AcDbSpline
210
0.0
220
0.0
230
1.0
 70
     8
 71
     3
 72
     9
 73
     5
 74
     0
 42
0.00000001
 43
0.00000001
 12
1.0
 22
0.0
 32
0.0
 13
1.0
 23
0.0
 33
0.0
 40
0.0
 40
0.0
 40
0.0
 40
0.0
 40
0.7035377204124522
 40
0.9999999999999999
 40
0.9999999999999999
 40
0.9999999999999999
 40
0.9999999999999999
 10
240.8699511437115
 20
120.4694307018624
 30
0.0
 10
241.1486556891908
 20
121.1555619169348
 30
0.0
 10
241.5448029566263
 20
122.130820520937
 30
0.0
 10
241.8351479901437
 20
123.1121673020687
 30
0.0
 10
241.9212243406472
 20
123.4030996058689
 30
0.0
  0
SPLINE
  5
E1
330
1F
100
AcDbEntity
  8
0
  6
Continuous
 62
     7
370
    15
100
AcDbSpline
210
0.0
220
0.0
230
1.0
 70
     8
 71
     3
 72
    13
 73
     9
 74
     0
 42
0.00000001
 43
0.00000001
 12
1.0
 22
0.0
 32
0.0
 13
1.0
 23
0.0
 33
0.0
 40
0.0
 40
0.0
 40
0.0
 40
0.0
 40
0.0458269862247044
 40
0.2371422675895364
 40
0.4253839314325571
 40
0.6136449787022201
 40
0.8068122248037412
 40
1.0
 40
1.0
 40
1.0
 40
1.0
 10
242.665351077765
 20
126.2217380647169
 30
0.0
 10
242.706026486424
 20
126.392096964321
 30
0.0
 10
242.9165107324798
 20
127.2736582251486
 30
0.0
 10
243.1338947271104
 20
128.8326987403681
 30
0.0
 10
243.3161802298876
 20
130.8783796834549
 30
0.0
 10
243.3349750609054
 20
132.8736120680384
 30
0.0
 10
243.2213454588873
 20
134.8259743930986
 30
0.0
 10
243.0308235667647
 20
136.0722994668411
 30
0.0
 10
242.9355575589833
 20
136.6954951156483
 30
0.0
  0
ARC
  5
E2
330
1F
100
AcDbEntity
  8
0
  6
Continuous
 62
     7
370
    15
100
AcDbCircle
 10
-121.7778105619
 20
271.962453612
 30
0.0
 40
393.0184920084104
100
AcDbArc
 50
336.429866199
 51
337.3276812428
  0
LINE
  5
E3
330
1F
100
AcDbEntity
  8
0
  6
Continuous
 62
     7
370
    15
100
AcDbLine
 10
234.990381345
 20
119.3378123064
 30
0.0
 11
234.3071556537
 21
119.3875006941
 31
0.0
  0
LINE
  5
E4
330
1F
100
AcDbEntity
  8
0
  6
Continuous
 62
     7
370
    15
100
AcDbLine
 10
230.8791695981
 20
120.9143831004
 30
0.0
 11
230.4791814534
 21
121.2778084521
 31
0.0
  0
SPLINE
  5
E5
330
1F
100
AcDbEntity
  8
0
  6
Continuous
 62
     7
370
    15
100
AcDbSpline
210
0.0
220
0.0
230
1.0
 70
     8
 71
     3
 72
    18
 73
    14
 74
     0
 42
0.00000001
 43
0.00000001
 12
1.0
 22
0.0
 32
0.0
 13
1.0
 23
0.0
 33
0.0
 40
0.0
 40
0.0
 40
0.0
 40
0.0
 40
0.0143532187164447
 40
0.1257511077641699
 40
0.2363060674300431
 40
0.3436643238561734
 40
0.4473816983520384
 40
0.549352076308685
 40
0.6524455319986209
 40
0.7587312956031061
 40
0.8684196406907521
 40
0.9798877330261018
 40
1.0
 40
1.0
 40
1.0
 40
1.0
 10
232.9257770328221
 20
117.2896323334978
 30
0.0
 10
232.9136376754822
 20
117.2703317286228
 30
0.0
 10
232.8072826018788
 20
117.1012356888079
 30
0.0
 10
232.4746492577557
 20
116.8901528848161
 30
0.0
 10
231.9791994274242
 20
116.7185500909052
 30
0.0
 10
231.4569816966484
 20
116.7402235009464
 30
0.0
 10
230.9900835416621
 20
116.9304389506002
 30
0.0
 10
230.6185847543775
 20
117.2621698213717
 30
0.0
 10
230.3741398162817
 20
117.6994126841556
 30
0.0
 10
230.2770836021237
 20
118.2078427489712
 30
0.0
 10
230.3600921370398
 20
118.7229529669316
 30
0.0
 10
230.5122850620551
 20
119.0948408897035
 30
0.0
 10
230.6669960167153
 20
119.2348065375516
 30
0.0
 10
230.6906438319382
 20
119.2562005092011
 30
0.0
  0
LINE
  5
E6
330
1F
100
AcDbEntity
  8
0
  6
Continuous
 62
     7
370
    15
100
AcDbLine
 10
226.0225272624
 20
125.1107372884
 30
0.0
 11
224.3125743119
 21
120.9697623347
 31
0.0
  0
ARC
  5
E7
330
1F
100
AcDbEntity
  8
0
  6
Continuous
 62
     7
370
    15
100
AcDbCircle
 10
190.1636798892
 20
135.0830907141
 30
0.0
 40
36.95041309970627
100
AcDbArc
 50
335.1371374217
 51
337.5452792968
  0
ARC
  5
E8
330
1F
100
AcDbEntity
  8
0
  6
Continuous
 62
     7
370
    15
100
AcDbCircle
 10
260.4468128327
 20
110.9079165781
 30
0.0
 40
37.23911321656906
100
AcDbArc
 50
140.4800471474
 51
157.5798658448
  0
SPLINE
  5
E9
330
1F
100
AcDbEntity
  8
0
  6
Continuous
 62
     7
370
    15
100
AcDbSpline
210
0.0
220
0.0
230
1.0
 70
     8
 71
     3
 72
     9
 73
     5
 74
     0
 42
0.00000001
 43
0.00000001
 12
1.0
 22
0.0
 32
0.0
 13
1.0
 23
0.0
 33
0.0
 40
0.0
 40
0.0
 40
0.0
 40
0.0
 40
0.1094365190186218
 40
0.9999999999999999
 40
0.9999999999999999
 40
0.9999999999999999
 40
0.9999999999999999
 10
232.0318824498353
 20
134.9762736429082
 30
0.0
 10
232.0214850500458
 20
134.9643643068015
 30
0.0
 10
231.926476547558
 20
134.8555401572997
 30
0.0
 10
231.817499320003
 20
134.7229714650047
 30
0.0
 10
231.7204481808839
 20
134.6049106289254
 30
0.0
  0
SPLINE
  5
EA
330
1F
100
AcDbEntity
  8
0
  6
Continuous
 62
     7
370
    15
100
AcDbSpline
210
0.0
220
0.0
230
1.0
 70
     8
 71
     3
 72
    12
 73
     8
 74
     0
 42
0.00000001
 43
0.00000001
 12
1.0
 22
0.0
 32
0.0
 13
1.0
 23
0.0
 33
0.0
 40
0.0
 40
0.0
 40
0.0
 40
0.0
 40
0.2188996956759493
 40
0.4437463824299679
 40
0.6628054706892194
 40
0.8894870663001726
 40
1.0
 40
1.0
 40
1.0
 40
1.0
 10
236.4624000041184
 20
139.530442895423
 30
0.0
 10
236.5957401122065
 20
139.6382208577895
 30
0.0
 10
236.8660428662335
 20
139.8567048568565
 30
0.0
 10
237.1947447931514
 20
140.0970512125979
 30
0.0
 10
237.444726443159
 20
140.2602643805618
 30
0.0
 10
237.5877881129854
 20
140.3356250659055
 30
0.0
 10
237.6022009654129
 20
140.3214492606462
 30
0.0
 10
237.6069246678052
 20
140.3168032486544
 30
0.0
  0
SPLINE
  5
EB
330
1F
100
AcDbEntity
  8
0
  6
Continuous
 62
     7
370
    15
100
AcDbSpline
210
0.0
220
0.0
230
1.0
 70
     8
 71
     3
 72
    12
 73
     8
 74
     0
 42
0.00000001
 43
0.00000001
 12
1.0
 22
0.0
 32
0.0
 13
1.0
 23
0.0
 33
0.0
 40
0.0
 40
0.0
 40
0.0
 40
0.0
 40
0.2188996793790229
 40
0.4437466505433086
 40
0.6628054317282099
 40
0.889487106957056
 40
1.0
 40
1.0
 40
1.0
 40
1.0
 10
242.9355575589833
 20
136.6954951156483
 30
0.0
 10
242.9002596096567
 20
136.8771283135495
 30
0.0
 10
242.8287046999869
 20
137.2453295070129
 30
0.0
 10
242.6949966196284
 20
137.6881943199782
 30
0.0
 10
242.5483241385974
 20
138.0251192363384
 30
0.0
 10
242.4202420266953
 20
138.2192296413196
 30
0.0
 10
242.3459657411874
 20
138.2438966025877
 30
0.0
 10
242.3216222672162
 20
138.2519810069905
 30
0.0
  0
LINE
  5
EC
330
1F
100
AcDbEntity
  8
0
  6
Continuous
 62
     7
370
    15
100
AcDbLine
 10
235.2129003851
 20
140.1781069656
 30
0.0
 11
233.4625988154
 21
136.627774926
 31
0.0
  0
ARC
  5
ED
330
1F
100
AcDbEntity
  8
0
  6
Continuous
 62
     7
370
    15
100
AcDbCircle
 10
235.5466656153
 20
140.013548471
 30
0.0
 40
0.3721272994610699
100
AcDbArc
 50
117.4653163457
 51
153.7550129426
  0
LINE
  5
EE
330
1F
100
AcDbEntity
  8
0
  6
Continuous
 62
     7
370
    15
100
AcDbLine
 10
248.437274888
 20
147.1496003289
 30
0.0
 11
235.3750361948
 21
140.3437333722
 31
0.0
  0
ARC
  5
EF
330
1F
100
AcDbEntity
  8
0
  6
Continuous
 62
     7
370
    15
100
AcDbCircle
 10
248.6184782219
 20
146.7884834625
 30
0.0
 40
0.4040297506324759
100
AcDbArc
 50
335.1619506318
 51
116.6468500363
  0
LINE
  5
F0
330
1F
100
AcDbEntity
  8
0
  6
Continuous
 62
     7
370
    15
100
AcDbLine
 10
243.1863813548
 20
134.8565241863
 30
0.0
 11
248.9851347058
 21
146.6187688131
 31
0.0
  0
ARC
  5
F1
330
1F
100
AcDbEntity
  8
0
  6
Continuous
 62
     7
370
    15
100
AcDbCircle
 10
248.6190625863
 20
146.7891293328
 30
0.0
 40
0.3838263352160931
100
AcDbArc
 50
335.1616667142
 51
116.6469534448
  0
LINE
  5
F2
330
1F
100
AcDbEntity
  8
0
  6
Continuous
 62
     7
370
    15
100
AcDbLine
 10
248.4469196646
 20
147.1321883221
 30
0.0
 11
235.3846772461
 21
140.3263213654
 31
0.0
  0
ARC
  5
F3
330
1F
100
AcDbEntity
  8
0
  6
Continuous
 62
     7
370
    15
100
AcDbCircle
 10
235.5477349906
 20
140.0126425018
 30
0.0
 40
0.3535282980374235
100
AcDbArc
 50
117.466485141
 51
153.7550217668
  0
LINE
  5
F4
330
1F
100
AcDbEntity
  8
0
  6
Continuous
 62
     7
370
    15
100
AcDbLine
 10
235.2306513934
 20
140.168976279
 30
0.0
 11
233.5138588099
 21
136.6866196115
 31
0.0
  0
LINE
  5
F5
330
1F
100
AcDbEntity
  8
0
  6
Continuous
 62
     7
370
    15
100
AcDbLine
 10
243.1815608291
 20
134.8918771912
 30
0.0
 11
248.9673836975
 21
146.6278994997
 31
0.0
  0
LINE
  5
F6
330
1F
100
AcDbEntity
  8
0
  6
Continuous
 62
     7
370
    15
100
AcDbLine
 10
235.7483624367
 20
139.6666916628
 30
0.0
 11
235.5297996549
 21
139.9505829979
 31
0.0
  0
LINE
  5
F7
330
1F
100
AcDbEntity
  8
0
  6
Continuous
 62
     7
370
    15
100
AcDbLine
 10
242.2757602184
 20
141.6732224245
 30
0.0
 11
238.7457831649
 21
139.8339869995
 31
0.0
  0
ARC
  5
F8
330
1F
100
AcDbEntity
  8
0
  6
Continuous
 62
     7
370
    15
100
AcDbCircle
 10
242.7287671608
 20
140.7704326814
 30
0.0
 40
1.010071586688372
100
AcDbArc
 50
335.1617259367
 51
116.6468410903
  0
LINE
  5
F9
330
1F
100
AcDbEntity
  8
0
  6
Continuous
 62
     7
370
    15
100
AcDbLine
 10
242.5145028977
 20
138.0522104521
 30
0.0
 11
243.6454041748
 21
140.346143635
 31
0.0
  0
LINE
  5
FA
330
1F
100
AcDbEntity
  8
0
  6
Continuous
 62
     7
370
    15
100
AcDbLine
 10
246.2372711746
 20
144.3350652773
 30
0.0
 11
248.5920420735
 21
146.756448092
 31
0.0
  0
LINE
  5
FB
330
1F
100
AcDbEntity
  8
0
  6
Continuous
 62
     7
370
    15
100
AcDbLine
 10
245.0872479825
 20
142.0023480971
 30
0.0
 11
246.2372711746
 21
144.3350652773
 31
0.0
  0
LINE
  5
FC
330
1F
100
AcDbEntity
  8
0
  6
Continuous
 62
     7
370
    15
100
AcDbLine
 10
246.2372711746
 20
144.3350652773
 30
0.0
 11
243.9237802176
 21
143.1296581943
 31
0.0
  0
SPLINE
  5
FD
330
1F
100
AcDbEntity
  8
0
  6
Continuous
 62
     7
370
    15
100
AcDbSpline
210
0.0
220
0.0
230
1.0
 70
     8
 71
     3
 72
    10
 73
     6
 74
     0
 42
0.00000001
 43
0.00000001
 12
1.0
 22
0.0
 32
0.0
 13
1.0
 23
0.0
 33
0.0
 40
0.0
 40
0.0
 40
0.0
 40
0.0
 40
0.3960502171503175
 40
0.7919151551820004
 40
1.0
 40
1.0
 40
1.0
 40
1.0
 10
235.7483624367413
 20
139.6666916627989
 30
0.0
 10
235.7952527955041
 20
139.6098975903551
 30
0.0
 10
235.8890115769115
 20
139.4963360147136
 30
0.0
 10
236.0370645131968
 20
139.3509342040035
 30
0.0
 10
236.1249397568826
 20
139.2828170241186
 30
0.0
 10
236.1552162913976
 20
139.2593479324685
 30
0.0
  0
ARC
  5
FE
330
1F
100
AcDbEntity
  8
0
  6
Continuous
 62
     7
370
    15
100
AcDbCircle
 10
242.5054430033
 20
140.504967347
 30
0.0
 40
2.473619169713352
100
AcDbArc
 50
36.2383151673
 51
55.5705144278
  0
SPLINE
  5
FF
330
1F
100
AcDbEntity
  8
0
  6
Continuous
 62
     7
370
    15
100
AcDbSpline
210
0.0
220
0.0
230
1.0
 70
     8
 71
     3
 72
    14
 73
    10
 74
     0
 42
0.00000001
 43
0.00000001
 12
1.0
 22
0.0
 32
0.0
 13
1.0
 23
0.0
 33
0.0
 40
0.0
 40
0.0
 40
0.0
 40
0.0
 40
0.221058521409665
 40
0.3460810449391125
 40
0.4396033739146374
 40
0.5338899756395662
 40
0.6146560382098928
 40
0.7517253961914927
 40
1.0
 40
1.0
 40
1.0
 40
1.0
 10
244.5005780903992
 20
141.9672353733883
 30
0.0
 10
244.5369388739838
 20
141.9207266486538
 30
0.0
 10
244.5938639719058
 20
141.8479143094042
 30
0.0
 10
244.6885612674704
 20
141.776693868116
 30
0.0
 10
244.767456109813
 20
141.7468036433052
 30
0.0
 10
244.8398563019691
 20
141.7482887282131
 30
0.0
 10
244.9155085140074
 20
141.779194534012
 30
0.0
 10
245.0079139842365
 20
141.8589141457989
 30
0.0
 10
245.0561620609888
 20
141.9461455024054
 30
0.0
 10
245.0872479824719
 20
142.0023480970965
 30
0.0
  0
SPLINE
  5
100
330
1F
100
AcDbEntity
  8
0
  6
Continuous
 62
     7
370
    15
100
AcDbSpline
210
0.0
220
0.0
230
1.0
 70
     8
 71
     3
 72
    14
 73
    10
 74
     0
 42
0.00000001
 43
0.00000001
 12
1.0
 22
0.0
 32
0.0
 13
1.0
 23
0.0
 33
0.0
 40
0.0
 40
0.0
 40
0.0
 40
0.0
 40
0.2235000249236231
 40
0.3567618553926399
 40
0.4531221122279283
 40
0.5344616469326623
 40
0.6157316738936851
 40
0.7396176946091425
 40
1.0
 40
1.0
 40
1.0
 40
1.0
 10
243.9237802176175
 20
143.1296581943141
 30
0.0
 10
243.8736960422406
 20
143.1006761732933
 30
0.0
 10
243.7937491906045
 20
143.0544136299406
 30
0.0
 10
243.7138866741021
 20
142.9677572981471
 30
0.0
 10
243.6790423641028
 20
142.8943331324679
 30
0.0
 10
243.6734003137448
 20
142.8258766592161
 30
0.0
 10
243.6937375000819
 20
142.752010792853
 30
0.0
 10
243.7645289965881
 20
142.6477678670677
 30
0.0
 10
243.8476697503107
 20
142.5866668414899
 30
0.0
 10
243.9040063767133
 20
142.5452644546137
 30
0.0
  0
LINE
  5
101
330
1F
100
AcDbEntity
  8
0
  6
HIDDEN
 62
     7
370
     0
100
AcDbLine
 10
189.0240616052
 20
87.4928946216
 30
0.0
 11
189.0240616052
 21
136.8928963859
 31
0.0
  0
SPLINE
  5
102
330
1F
100
AcDbEntity
  8
0
  6
HIDDEN
 62
     7
370
     0
100
AcDbSpline
210
0.0
220
0.0
230
1.0
 70
     8
 71
     3
 72
    12
 73
     8
 74
     0
 42
0.00000001
 43
0.00000001
 12
1.0
 22
0.0
 32
0.0
 13
1.0
 23
0.0
 33
0.0
 40
0.0
 40
0.0
 40
0.0
 40
0.0
 40
0.5000000000000018
 40
0.5000000000000018
 40
0.7500000000000009
 40
0.7500000000000009
 40
1.0
 40
1.0
 40
1.0
 40
1.0
 10
197.1188057168592
 20
135.8455369810016
 30
0.0
 10
197.1495051002265
 20
135.8846748233975
 30
0.0
 10
197.190855168333
 20
135.921834606123
 30
0.0
 10
197.2906110965525
 20
135.9717711117508
 30
0.0
 10
197.3303080142852
 20
135.9872239818945
 30
0.0
 10
197.4275661659328
 20
136.0111435254936
 30
0.0
 10
197.4883423239235
 20
136.019626619272
 30
0.0
 10
197.5518184187515
 20
136.019626619272
 30
0.0
  0
LINE
  5
103
330
1F
100
AcDbEntity
  8
0
  6
HIDDEN
 62
     7
370
     0
100
AcDbLine
 10
197.5518182738
 20
136.0196268727
 30
0.0
 11
200.4963044895
 21
136.0196268727
 31
0.0
  0
SPLINE
  5
104
330
1F
100
AcDbEntity
  8
0
  6
HIDDEN
 62
     7
370
     0
100
AcDbSpline
210
0.0
220
0.0
230
1.0
 70
     8
 71
     3
 72
    12
 73
     8
 74
     0
 42
0.00000001
 43
0.00000001
 12
1.0
 22
0.0
 32
0.0
 13
1.0
 23
0.0
 33
0.0
 40
0.0
 40
0.0
 40
0.0
 40
0.0
 40
0.2500000000000009
 40
0.2500000000000009
 40
0.5000000000000019
 40
0.5000000000000019
 40
1.0
 40
1.0
 40
1.0
 40
1.0
 10
200.4963047916186
 20
136.019626619272
 30
0.0
 10
200.5599700281491
 20
136.019626619272
 30
0.0
 10
200.6195762603724
 20
136.0113618436061
 30
0.0
 10
200.7182367853033
 20
135.9871430620229
 30
0.0
 10
200.7572037753185
 20
135.9718857427138
 30
0.0
 10
200.856590607243
 20
135.9222523884519
 30
0.0
 10
200.8986668546664
 20
135.8846126802778
 30
0.0
 10
200.9293174935108
 20
135.8455369810016
 30
0.0
  0
ELLIPSE
  5
105
330
1F
100
AcDbEntity
  8
0
  6
HIDDEN
 62
     7
370
     0
100
AcDbEllipse
 10
187.9678039502
 20
112.1928955038
 30
0.0
 11
11.70927234972723
 21
24.67718644093742
 31
0.0
210
0.0
220
0.0
230
1.0
 40
0.3419987131
 41
5.203068809370468
 42
6.11425603259051
  0
SPLINE
  5
106
330
1F
100
AcDbEntity
  8
0
  6
HIDDEN
 62
     7
370
     0
100
AcDbSpline
210
0.0
220
0.0
230
1.0
 70
     8
 71
     3
 72
    12
 73
     8
 74
     0
 42
0.00000001
 43
0.00000001
 12
1.0
 22
0.0
 32
0.0
 13
1.0
 23
0.0
 33
0.0
 40
0.0
 40
0.0
 40
0.0
 40
0.0
 40
0.5000000000000013
 40
0.5000000000000013
 40
0.7500000000000007
 40
0.7500000000000007
 40
1.0
 40
1.0
 40
1.0
 40
1.0
 10
200.9293174935108
 20
120.2893485018145
 30
0.0
 10
200.8986181101435
 20
120.1750128347506
 30
0.0
 10
200.857268042037
 20
120.0636594819093
 30
0.0
 10
200.7575121138175
 20
119.9109227096605
 30
0.0
 10
200.7178151960848
 20
119.8630628238084
 30
0.0
 10
200.6205570444372
 20
119.7884597104589
 30
0.0
 10
200.5597808864465
 20
119.7617054729509
 30
0.0
 10
200.4963047916186
 20
119.7617054729509
 30
0.0
  0
LINE
  5
107
330
1F
100
AcDbEntity
  8
0
  6
HIDDEN
 62
     7
370
     0
100
AcDbLine
 10
200.4963044895
 20
119.7617056389
 30
0.0
 11
197.5518182738
 21
119.7617056389
 31
0.0
  0
SPLINE
  5
108
330
1F
100
AcDbEntity
  8
0
  6
HIDDEN
 62
     7
370
     0
100
AcDbSpline
210
0.0
220
0.0
230
1.0
 70
     8
 71
     3
 72
    12
 73
     8
 74
     0
 42
0.00000001
 43
0.00000001
 12
1.0
 22
0.0
 32
0.0
 13
1.0
 23
0.0
 33
0.0
 40
0.0
 40
0.0
 40
0.0
 40
0.0
 40
0.2499999999999993
 40
0.2499999999999993
 40
0.4999999999999987
 40
0.4999999999999987
 40
1.0
 40
1.0
 40
1.0
 40
1.0
 10
197.5518184187515
 20
119.7617054729509
 30
0.0
 10
197.4881531822209
 20
119.7617054729509
 30
0.0
 10
197.4285469499976
 20
119.7877776214305
 30
0.0
 10
197.3298864250667
 20
119.8633163722516
 30
0.0
 10
197.2909194350515
 20
119.9105673093479
 30
0.0
 10
197.191532603127
 20
120.0623911273143
 30
0.0
 10
197.1494563557036
 20
120.1751943770794
 30
0.0
 10
197.1188057168592
 20
120.2893485018145
 30
0.0
  0
ELLIPSE
  5
109
330
1F
100
AcDbEntity
  8
0
  6
HIDDEN
 62
     7
370
     0
100
AcDbEllipse
 10
210.0803192602
 20
112.1928955038
 30
0.0
 11
-11.70927234972714
 21
24.67718644093745
 31
0.0
210
0.0
220
0.0
230
1.0
 40
0.3419987131
 41
0.1689292745891143
 42
1.080116497809133
  0
SPLINE
  5
10A
330
1F
100
AcDbEntity
  8
0
  6
HIDDEN
 62
     7
370
     0
100
AcDbSpline
210
0.0
220
0.0
230
1.0
 70
     8
 71
     3
 72
    12
 73
     8
 74
     0
 42
0.00000001
 43
0.00000001
 12
1.0
 22
0.0
 32
0.0
 13
1.0
 23
0.0
 33
0.0
 40
0.0
 40
0.0
 40
0.0
 40
0.0
 40
0.5000000000000032
 40
0.5000000000000032
 40
0.7500000000000016
 40
0.7500000000000016
 40
1.0
 40
1.0
 40
1.0
 40
1.0
 10
197.1188057168592
 20
104.0964425057257
 30
0.0
 10
197.1495051002265
 20
104.2107781727895
 30
0.0
 10
197.190855168333
 20
104.3221315256309
 30
0.0
 10
197.2906110965525
 20
104.4748682978796
 30
0.0
 10
197.3303080142852
 20
104.5227281837318
 30
0.0
 10
197.4275661659328
 20
104.5973312970812
 30
0.0
 10
197.4883423239235
 20
104.6240855345893
 30
0.0
 10
197.5518184187515
 20
104.6240855345893
 30
0.0
  0
LINE
  5
10B
330
1F
100
AcDbEntity
  8
0
  6
HIDDEN
 62
     7
370
     0
100
AcDbLine
 10
197.5518182738
 20
104.6240853686
 30
0.0
 11
200.4963044895
 21
104.6240853686
 31
0.0
  0
SPLINE
  5
10C
330
1F
100
AcDbEntity
  8
0
  6
HIDDEN
 62
     7
370
     0
100
AcDbSpline
210
0.0
220
0.0
230
1.0
 70
     8
 71
     3
 72
    12
 73
     8
 74
     0
 42
0.00000001
 43
0.00000001
 12
1.0
 22
0.0
 32
0.0
 13
1.0
 23
0.0
 33
0.0
 40
0.0
 40
0.0
 40
0.0
 40
0.0
 40
0.2499999999999993
 40
0.2499999999999993
 40
0.4999999999999987
 40
0.4999999999999987
 40
1.0
 40
1.0
 40
1.0
 40
1.0
 10
200.4963047916186
 20
104.6240855345893
 30
0.0
 10
200.5599700281491
 20
104.6240855345893
 30
0.0
 10
200.6195762603724
 20
104.5980133861096
 30
0.0
 10
200.7182367853033
 20
104.5224746352885
 30
0.0
 10
200.7572037753185
 20
104.4752236981923
 30
0.0
 10
200.856590607243
 20
104.3233998802259
 30
0.0
 10
200.8986668546665
 20
104.2105966304608
 30
0.0
 10
200.9293174935108
 20
104.0964425057257
 30
0.0
  0
ELLIPSE
  5
10D
330
1F
100
AcDbEntity
  8
0
  6
HIDDEN
 62
     7
370
     0
100
AcDbEllipse
 10
187.9678039502
 20
112.1928955038
 30
0.0
 11
-11.70927234972715
 21
24.67718644093742
 31
0.0
210
0.0
220
0.0
230
1.0
 40
0.3419987131
 41
3.310521928178958
 42
4.221709151398948
  0
SPLINE
  5
10E
330
1F
100
AcDbEntity
  8
0
  6
HIDDEN
 62
     7
370
     0
100
AcDbSpline
210
0.0
220
0.0
230
1.0
 70
     8
 71
     3
 72
    12
 73
     8
 74
     0
 42
0.00000001
 43
0.00000001
 12
1.0
 22
0.0
 32
0.0
 13
1.0
 23
0.0
 33
0.0
 40
0.0
 40
0.0
 40
0.0
 40
0.0
 40
0.4999999999999982
 40
0.4999999999999982
 40
0.7499999999999991
 40
0.7499999999999991
 40
1.0
 40
1.0
 40
1.0
 40
1.0
 10
200.9293174935108
 20
88.54025402653832
 30
0.0
 10
200.8986181101435
 20
88.50111618414242
 30
0.0
 10
200.857268042037
 20
88.46395640141692
 30
0.0
 10
200.7575121138175
 20
88.4140198957892
 30
0.0
 10
200.7178151960848
 20
88.39856702564542
 30
0.0
 10
200.6205570444372
 20
88.37464748204638
 30
0.0
 10
200.5597808864465
 20
88.366164388268
 30
0.0
 10
200.4963047916186
 20
88.366164388268
 30
0.0
  0
LINE
  5
10F
330
1F
100
AcDbEntity
  8
0
  6
HIDDEN
 62
     7
370
     0
100
AcDbLine
 10
200.4963044895
 20
88.3661641349
 30
0.0
 11
197.5518182738
 21
88.3661641349
 31
0.0
  0
SPLINE
  5
110
330
1F
100
AcDbEntity
  8
0
  6
HIDDEN
 62
     7
370
     0
100
AcDbSpline
210
0.0
220
0.0
230
1.0
 70
     8
 71
     3
 72
    12
 73
     8
 74
     0
 42
0.00000001
 43
0.00000001
 12
1.0
 22
0.0
 32
0.0
 13
1.0
 23
0.0
 33
0.0
 40
0.0
 40
0.0
 40
0.0
 40
0.0
 40
0.25
 40
0.25
 40
0.5
 40
0.5
 40
1.0
 40
1.0
 40
1.0
 40
1.0
 10
197.5518184187515
 20
88.366164388268
 30
0.0
 10
197.488153182221
 20
88.366164388268
 30
0.0
 10
197.4285469499976
 20
88.37442916393384
 30
0.0
 10
197.3298864250667
 20
88.39864794551701
 30
0.0
 10
197.2909194350515
 20
88.41390526482614
 30
0.0
 10
197.191532603127
 20
88.46353861908808
 30
0.0
 10
197.1494563557036
 20
88.5011783272622
 30
0.0
 10
197.1188057168592
 20
88.54025402653834
 30
0.0
  0
ELLIPSE
  5
111
330
1F
100
AcDbEntity
  8
0
  6
HIDDEN
 62
     7
370
     0
100
AcDbEllipse
 10
210.0803192602
 20
112.1928955038
 30
0.0
 11
11.709272349727
 21
24.67718644093745
 31
0.0
210
0.0
220
0.0
230
1.0
 40
0.3419987131
 41
2.061476155780646
 42
2.972663379000661
  0
SPLINE
  5
112
330
1F
100
AcDbEntity
  8
0
  6
HIDDEN
 62
     7
370
     0
100
AcDbSpline
210
0.0
220
0.0
230
1.0
 70
     8
 71
     3
 72
    58
 73
    54
 74
     0
 42
0.00000001
 43
0.00000001
 12
1.0
 22
0.0
 32
0.0
 13
1.0
 23
0.0
 33
0.0
 40
-0.0624999999999997
 40
-0.0624999999999997
 40
0.0
 40
0.0
 40
0.0312500000000002
 40
0.0312500000000002
 40
0.0625000000000004
 40
0.0625000000000004
 40
0.0937500000000006
 40
0.0937500000000006
 40
0.1250000000000008
 40
0.1250000000000008
 40
0.1875000000000012
 40
0.1875000000000012
 40
0.2500000000000017
 40
0.2500000000000017
 40
0.2812500000000017
 40
0.2812500000000017
 40
0.3125000000000016
 40
0.3125000000000016
 40
0.3437500000000016
 40
0.3437500000000016
 40
0.3750000000000016
 40
0.3750000000000016
 40
0.4062500000000016
 40
0.4062500000000016
 40
0.4375000000000016
 40
0.4375000000000016
 40
0.4687500000000016
 40
0.4687500000000016
 40
0.5000000000000016
 40
0.5000000000000016
 40
0.5625000000000017
 40
0.5625000000000017
 40
0.6250000000000016
 40
0.6250000000000016
 40
0.6562500000000014
 40
0.6562500000000014
 40
0.6875000000000013
 40
0.6875000000000013
 40
0.7187500000000012
 40
0.7187500000000012
 40
0.7500000000000011
 40
0.7500000000000011
 40
0.781250000000001
 40
0.781250000000001
 40
0.8125000000000009
 40
0.8125000000000009
 40
0.8437500000000008
 40
0.8437500000000008
 40
0.8750000000000006
 40
0.8750000000000006
 40
0.9375000000000003
 40
0.9375000000000003
 40
1.0
 40
1.0
 40
1.03125
 40
1.03125
 10
203.024061605185
 20
111.9285231332265
 30
0.0
 10
203.024061605185
 20
112.3250816890417
 30
0.0
 10
203.0110857131745
 20
112.4550484285864
 30
0.0
 10
202.9602534110686
 20
112.7107277667185
 30
0.0
 10
202.9217763397472
 20
112.83776885856
 30
0.0
 10
202.8213713785908
 20
113.0799470445005
 30
0.0
 10
202.7599371362715
 20
113.19480070309
 30
0.0
 10
202.6148028700898
 20
113.4121658248959
 30
0.0
 10
202.5303609489425
 20
113.5150412969801
 30
0.0
 10
202.2536889193326
 20
113.7916592493973
 30
0.0
 10
202.0306427643644
 20
113.9406513692302
 30
0.0
 10
201.54937876582
 20
114.1401751642214
 30
0.0
 10
201.2861209105002
 20
114.1927540287237
 30
0.0
 10
200.8946548792154
 20
114.1929658023112
 30
0.0
 10
200.7621061356019
 20
114.1799748307218
 30
0.0
 10
200.5055618265866
 20
114.128938607432
 30
0.0
 10
200.3808659402149
 20
114.0911770660292
 30
0.0
 10
200.1386629697812
 20
113.9910175267357
 30
0.0
 10
200.0215996065305
 20
113.9284197169852
 30
0.0
 10
199.8049132872844
 20
113.7836977329496
 30
0.0
 10
199.7038993192167
 20
113.7010736277813
 30
0.0
 10
199.5171061249312
 20
113.5144532571703
 30
0.0
 10
199.4343057609769
 20
113.4134048892791
 30
0.0
 10
199.2894273220823
 20
113.1968928684053
 30
0.0
 10
199.226776538755
 20
113.0800035132063
 30
0.0
 10
199.1263361443811
 20
112.8377461111474
 30
0.0
 10
199.0884771326111
 20
112.713083446332
 30
0.0
 10
199.0372394281476
 20
112.4567522506772
 30
0.0
 10
199.0241090533745
 20
112.3241643113268
 30
0.0
 10
199.0239671029356
 20
111.9325326427575
 30
0.0
 10
199.0763080191837
 20
111.6693198097232
 30
0.0
 10
199.2754382459218
 20
111.1878124790319
 30
0.0
 10
199.4242753335641
 20
110.9646119977563
 30
0.0
 10
199.7005873701035
 20
110.6877659177946
 30
0.0
 10
199.8033529073547
 20
110.6032538235758
 30
0.0
 10
200.0206698397086
 20
110.4578752268444
 30
0.0
 10
200.1354567502454
 20
110.3963597952425
 30
0.0
 10
200.3773762403513
 20
110.295803734997
 30
0.0
 10
200.5045031428513
 20
110.2571650091623
 30
0.0
 10
200.7601719784875
 20
110.206100142275
 30
0.0
 10
200.8900671838655
 20
110.1930256618987
 30
0.0
 10
201.1541419662899
 20
110.1927672606251
 30
0.0
 10
201.2844711057752
 20
110.205643328588
 30
0.0
 10
201.540160419919
 20
110.256242119916
 30
0.0
 10
201.6670882863067
 20
110.2945474657536
 30
0.0
 10
201.9095405751488
 20
110.3948032981735
 30
0.0
 10
202.0244572691304
 20
110.4561543170856
 30
0.0
 10
202.2418480609009
 20
110.6010231526558
 30
0.0
 10
202.3448333405824
 20
110.6853871059252
 30
0.0
 10
202.6217977082397
 20
110.9619131597113
 30
0.0
 10
202.7709299865982
 20
111.184773001707
 30
0.0
 10
202.9708821053126
 20
111.6658755217677
 30
0.0
 10
203.024061605185
 20
111.9285231332265
 30
0.0
 10
203.024061605185
 20
112.3250816890417
 30
0.0
  0
LINE
  5
113
330
1F
100
AcDbEntity
  8
0
  6
HIDDEN
 62
     7
370
     0
100
AcDbLine
 10
189.0240616052
 20
92.6428961177
 30
0.0
 11
189.0240616052
 21
131.7428948898
 31
0.0
  0
SPLINE
  5
114
330
1F
100
AcDbEntity
  8
0
  6
HIDDEN
 62
     7
370
     0
100
AcDbSpline
210
0.0
220
0.0
230
1.0
 70
     8
 71
     3
 72
    14
 73
    10
 74
     0
 42
0.00000001
 43
0.00000001
 12
1.0
 22
0.0
 32
0.0
 13
1.0
 23
0.0
 33
0.0
 40
0.0
 40
0.0
 40
0.0
 40
0.0
 40
0.25
 40
0.25
 40
0.5
 40
0.5
 40
0.75
 40
0.75
 40
1.0
 40
1.0
 40
1.0
 40
1.0
 10
187.9832005770566
 20
124.4873710488433
 30
0.0
 10
188.0149157113873
 20
124.4295878665002
 30
0.0
 10
188.0495302366877
 20
124.3731752054252
 30
0.0
 10
188.129201432103
 20
124.2655757554098
 30
0.0
 10
188.1742573091335
 20
124.2136631284887
 30
0.0
 10
188.2848117216389
 20
124.1274645037915
 30
0.0
 10
188.352197135843
 20
124.0933750838198
 30
0.0
 10
188.5028266557411
 20
124.091272691803
 30
0.0
 10
188.5726538925065
 20
124.1246444646477
 30
0.0
 10
188.6290847163099
 20
124.1684571331984
 30
0.0
  0
SPLINE
  5
115
330
1F
100
AcDbEntity
  8
0
  6
HIDDEN
 62
     7
370
     0
100
AcDbSpline
210
0.0
220
0.0
230
1.0
 70
     8
 71
     3
 72
    16
 73
    12
 74
     0
 42
0.00000001
 43
0.00000001
 12
1.0
 22
0.0
 32
0.0
 13
1.0
 23
0.0
 33
0.0
 40
0.0
 40
0.0
 40
0.0
 40
0.0
 40
0.0624999999999986
 40
0.0624999999999986
 40
0.1249999999999972
 40
0.1249999999999972
 40
0.2499999999999962
 40
0.2499999999999962
 40
0.4999999999999991
 40
0.4999999999999991
 40
1.0
 40
1.0
 40
1.0
 40
1.0
 10
188.6290847162781
 20
124.168457133229
 30
0.0
 10
188.640818950725
 20
124.177567546477
 30
0.0
 10
188.654350706204
 20
124.1856449024233
 30
0.0
 10
188.6843381666338
 20
124.1938917441003
 30
0.0
 10
188.6993328730421
 20
124.1929644265127
 30
0.0
 10
188.7350732954369
 20
124.1801979069809
 30
0.0
 10
188.7490866324381
 20
124.1625492604706
 30
0.0
 10
188.7832307212194
 20
124.107896340439
 30
0.0
 10
188.7942026253378
 20
124.0664966727806
 30
0.0
 10
188.8200481656041
 20
123.9380069290578
 30
0.0
 10
188.824061605185
 20
123.8473888414191
 30
0.0
 10
188.824061605185
 20
123.755169736865
 30
0.0
  0
LINE
  5
116
330
1F
100
AcDbEntity
  8
0
  6
HIDDEN
 62
     7
370
     0
100
AcDbLine
 10
188.8240616102
 20
100.6306216661
 30
0.0
 11
188.8240616102
 21
123.7551693414
 31
0.0
  0
SPLINE
  5
117
330
1F
100
AcDbEntity
  8
0
  6
HIDDEN
 62
     7
370
     0
100
AcDbSpline
210
0.0
220
0.0
230
1.0
 70
     8
 71
     3
 72
    16
 73
    12
 74
     0
 42
0.00000001
 43
0.00000001
 12
1.0
 22
0.0
 32
0.0
 13
1.0
 23
0.0
 33
0.0
 40
0.0
 40
0.0
 40
0.0
 40
0.0
 40
0.5000000000000029
 40
0.5000000000000029
 40
0.7500000000000043
 40
0.7500000000000043
 40
0.8750000000000051
 40
0.8750000000000051
 40
0.9375000000000026
 40
0.9375000000000026
 40
1.0
 40
1.0
 40
1.0
 40
1.0
 10
188.824061605185
 20
100.6306212706749
 30
0.0
 10
188.824061605185
 20
100.5380374197709
 30
0.0
 10
188.8200043030699
 20
100.4478249639107
 30
0.0
 10
188.7943470602752
 20
100.3198838367923
 30
0.0
 10
188.7830316145331
 20
100.2774706223804
 30
0.0
 10
188.7490002472244
 20
100.2231565789292
 30
0.0
 10
188.7351212660206
 20
100.2055752435394
 30
0.0
 10
188.6991855842533
 20
100.1927915556044
 30
0.0
 10
188.6842352649905
 20
100.1919160574563
 30
0.0
 10
188.6543367522486
 20
100.2001614925757
 30
0.0
 10
188.6408038918834
 20
100.2082351527474
 30
0.0
 10
188.6290847163093
 20
100.2173338743415
 30
0.0
  0
SPLINE
  5
118
330
1F
100
AcDbEntity
  8
0
  6
HIDDEN
 62
     7
370
     0
100
AcDbSpline
210
0.0
220
0.0
230
1.0
 70
     8
 71
     3
 72
    14
 73
    10
 74
     0
 42
0.00000001
 43
0.00000001
 12
1.0
 22
0.0
 32
0.0
 13
1.0
 23
0.0
 33
0.0
 40
0.0
 40
0.0
 40
0.0
 40
0.0
 40
0.25
 40
0.25
 40
0.5
 40
0.5
 40
0.75
 40
0.75
 40
1.0
 40
1.0
 40
1.0
 40
1.0
 10
188.6290847163162
 20
100.2173338743501
 30
0.0
 10
188.5726289517074
 20
100.2611659068448
 30
0.0
 10
188.5017633254575
 20
100.2944969432667
 30
0.0
 10
188.3533062442849
 20
100.2924379331193
 30
0.0
 10
188.2841128849774
 20
100.2578419087176
 30
0.0
 10
188.1743974468432
 20
100.1721765520547
 30
0.0
 10
188.1291528675118
 20
100.1201541073467
 30
0.0
 10
188.049526158088
 20
100.0126058470168
 30
0.0
 10
188.0149160095546
 20
99.95620368428374
 30
0.0
 10
187.9832005770554
 20
99.89841995869425
 30
0.0
  0
SPLINE
  5
119
330
1F
100
AcDbEntity
  8
0
  6
HIDDEN
 62
     7
370
     0
100
AcDbSpline
210
0.0
220
0.0
230
1.0
 70
     8
 71
     3
 72
    10
 73
     6
 74
     0
 42
0.00000001
 43
0.00000001
 12
1.0
 22
0.0
 32
0.0
 13
1.0
 23
0.0
 33
0.0
 40
0.0
 40
0.0
 40
0.0
 40
0.0
 40
0.5
 40
0.5
 40
1.0
 40
1.0
 40
1.0
 40
1.0
 10
187.9832005770559
 20
99.89841995869526
 30
0.0
 10
187.9114207891325
 20
99.76764124179338
 30
0.0
 10
187.8589612748244
 20
99.63354109229019
 30
0.0
 10
187.7696182107233
 20
99.36544852930145
 30
0.0
 10
187.7336226012235
 20
99.23120315771257
 30
0.0
 10
187.7027412616254
 20
99.09784878023753
 30
0.0
  0
SPLINE
  5
11A
330
1F
100
AcDbEntity
  8
0
  6
HIDDEN
 62
     7
370
     0
100
AcDbSpline
210
0.0
220
0.0
230
1.0
 70
     8
 71
     3
 72
    10
 73
     6
 74
     0
 42
0.00000001
 43
0.00000001
 12
1.0
 22
0.0
 32
0.0
 13
1.0
 23
0.0
 33
0.0
 40
0.0
 40
0.0
 40
0.0
 40
0.0
 40
0.5
 40
0.5
 40
1.0
 40
1.0
 40
1.0
 40
1.0
 10
187.7027412616254
 20
94.8959856357651
 30
0.0
 10
187.7336142934376
 20
94.87970248839797
 30
0.0
 10
187.7696011563505
 20
94.86744489867239
 30
0.0
 10
187.8589357422417
 20
94.85034190984366
 30
0.0
 10
187.9113916016643
 20
94.84554231398532
 30
0.0
 10
187.9832005770566
 20
94.84373822257739
 30
0.0
  0
SPLINE
  5
11B
330
1F
100
AcDbEntity
  8
0
  6
HIDDEN
 62
     7
370
     0
100
AcDbSpline
210
0.0
220
0.0
230
1.0
 70
     8
 71
     3
 72
     8
 73
     4
 74
     0
 42
0.00000001
 43
0.00000001
 12
1.0
 22
0.0
 32
0.0
 13
1.0
 23
0.0
 33
0.0
 40
0.0
 40
0.0
 40
0.0
 40
0.0
 40
1.0
 40
1.0
 40
1.0
 40
1.0
 10
188.80636498181
 20
94.71785384433034
 30
0.0
 10
188.8203517903521
 20
94.68961345374863
 30
0.0
 10
188.8240616051848
 20
94.66648141093785
 30
0.0
 10
188.8240616051851
 20
94.64614103810268
 30
0.0
  0
LINE
  5
11C
330
1F
100
AcDbEntity
  8
0
  6
HIDDEN
 62
     7
370
     0
100
AcDbLine
 10
188.8240616102
 20
94.3530744482
 30
0.0
 11
188.8240616102
 21
94.6461411734
 31
0.0
  0
LINE
  5
11D
330
1F
100
AcDbEntity
  8
0
  6
HIDDEN
 62
     7
370
     0
100
AcDbLine
 10
188.8240616102
 20
129.7396498342
 30
0.0
 11
188.8240616102
 21
130.0327165593
 31
0.0
  0
SPLINE
  5
11E
330
1F
100
AcDbEntity
  8
0
  6
HIDDEN
 62
     7
370
     0
100
AcDbSpline
210
0.0
220
0.0
230
1.0
 70
     8
 71
     3
 72
    10
 73
     6
 74
     0
 42
0.00000001
 43
0.00000001
 12
1.0
 22
0.0
 32
0.0
 13
1.0
 23
0.0
 33
0.0
 40
0.0
 40
0.0
 40
0.0
 40
0.0
 40
0.5
 40
0.5
 40
1.0
 40
1.0
 40
1.0
 40
1.0
 10
187.9832005770566
 20
129.5420527849625
 30
0.0
 10
187.9113916016643
 20
129.5402486935545
 30
0.0
 10
187.8589357422417
 20
129.5354490976962
 30
0.0
 10
187.7696011563505
 20
129.5183461088675
 30
0.0
 10
187.7336142934376
 20
129.5060885191419
 30
0.0
 10
187.7027412616254
 20
129.4898053717748
 30
0.0
  0
SPLINE
  5
11F
330
1F
100
AcDbEntity
  8
0
  6
HIDDEN
 62
     7
370
     0
100
AcDbSpline
210
0.0
220
0.0
230
1.0
 70
     8
 71
     3
 72
    10
 73
     6
 74
     0
 42
0.00000001
 43
0.00000001
 12
1.0
 22
0.0
 32
0.0
 13
1.0
 23
0.0
 33
0.0
 40
0.0
 40
0.0
 40
0.0
 40
0.0
 40
0.5
 40
0.5
 40
1.0
 40
1.0
 40
1.0
 40
1.0
 10
187.7027412616254
 20
125.2879422273023
 30
0.0
 10
187.7336226012236
 20
125.1545878498271
 30
0.0
 10
187.7696182107234
 20
125.020342478238
 30
0.0
 10
187.8589612748247
 20
124.7522499152488
 30
0.0
 10
187.9114207891329
 20
124.6181497657454
 30
0.0
 10
187.9832005770566
 20
124.4873710488433
 30
0.0
  0
LINE
  5
120
330
1F
100
AcDbEntity
  8
0
  6
HIDDEN
 62
     7
370
     0
100
AcDbLine
 10
188.8240616102
 20
94.6461411734
 30
0.0
 11
188.8240616102
 21
106.2084154767
 31
0.0
  0
LINE
  5
121
330
1F
100
AcDbEntity
  8
0
  6
HIDDEN
 62
     7
370
     0
100
AcDbLine
 10
188.8240616102
 20
118.1773755309
 30
0.0
 11
188.8240616102
 21
129.7396498342
 31
0.0
  0
LWPOLYLINE
  5
122
330
1F
100
AcDbEntity
  8
0
  6
HIDDEN
 62
     7
370
     0
100
AcDbPolyline
 90
       34
 70
   128
 43
0.0
 10
232.9103059022
 20
126.9687416573
 10
233.5248521416
 20
127.0082828198
 10
234.1393946557
 20
126.9236824085
 10
234.7287802844
 20
126.7184049432
 10
235.2688803224
 20
126.4008537476
 10
235.737573996
 20
125.9840310161
 10
236.1156797855
 20
125.4849985783
 10
236.3877191095
 20
124.9241896514
 10
236.5425496249
 20
124.3245622684
 10
236.5738383381
 20
123.7106660922
 10
236.4802962987
 20
123.1076337938
 10
236.265764281
 20
122.5401538034
 10
235.9390153436
 20
122.0314579625
 10
235.8890964536
 20
121.9709434156
 10
235.5134307294
 20
121.6023725067
 10
235.0064298956
 20
121.2704649736
 10
234.4387776105
 20
121.0493242909
 10
233.8337085097
 20
120.9480019827
 10
233.2159957735
 20
120.9706480224
 10
232.6109229474
 20
121.1163338814
 10
232.0432706623
 20
121.3790963013
 10
231.5362735538
 20
121.7481766437
 10
231.1106889395
 20
122.2084660624
 10
230.7839400022
 20
122.7411192451
 10
230.5694042592
 20
123.3243302052
 10
230.4758659451
 20
123.934220763
 10
230.507150933
 20
124.5458230917
 10
230.6619851737
 20
125.1340976526
 10
230.9340207724
 20
125.6749613751
 10
231.1606078295
 20
125.9811066632
 10
231.3121302871
 20
126.1462692712
 10
231.7808239608
 20
126.5287280623
 10
232.3209202735
 20
126.8066784908
 10
232.9103059022
 20
126.9687416573
  0
ARC
  5
123
330
1F
100
AcDbEntity
  8
0
  6
HIDDEN
 62
     7
370
     0
100
AcDbCircle
 10
228.7520377599
 20
112.4145701204
 30
0.0
 40
2.492731336187335
100
AcDbArc
 50
157.6717879347
 51
335.0257645842
  0
LINE
  5
124
330
1F
100
AcDbEntity
  8
0
  6
HIDDEN
 62
     7
370
     0
100
AcDbLine
 10
232.1184395699
 20
114.0423064428
 30
0.0
 11
231.0116930751
 21
111.3621123443
 31
0.0
  0
ARC
  5
125
330
1F
100
AcDbEntity
  8
0
  6
HIDDEN
 62
     7
370
     0
100
AcDbCircle
 10
229.8093526591
 20
114.9818949906
 30
0.0
 40
2.492931808297885
100
AcDbArc
 50
337.8581435318
 51
154.8394065354
  0
LINE
  5
126
330
1F
100
AcDbEntity
  8
0
  6
HIDDEN
 62
     7
370
     0
100
AcDbLine
 10
226.4462045281
 20
113.3615878719
 30
0.0
 11
227.5529510228
 21
116.0417820868
 31
0.0
  0
LINE
  5
127
330
1F
100
AcDbEntity
  8
0
  6
HIDDEN
 62
     7
370
     0
100
AcDbLine
 10
233.4123483746
 20
136.570092531
 30
0.0
 11
231.2517656831
 21
132.1875474025
 31
0.0
  0
LINE
  5
128
330
1F
100
AcDbEntity
  8
0
  6
HIDDEN
 62
     7
370
     0
100
AcDbLine
 10
231.2517656831
 20
132.1875474025
 30
0.0
 11
229.153425142
 21
131.0942417551
 31
0.0
  0
ARC
  5
129
330
1F
100
AcDbEntity
  8
0
  6
HIDDEN
 62
     7
370
     0
100
AcDbCircle
 10
227.100716111
 20
127.6525323614
 30
0.0
 40
2.074698347781893
100
AcDbArc
 50
247.0062451794
 51
297.0524695001
  0
LINE
  5
12A
330
1F
100
AcDbEntity
  8
0
  6
HIDDEN
 62
     7
370
     0
100
AcDbLine
 10
228.044301912
 20
125.8048259263
 30
0.0
 11
242.4602328686
 21
133.3160086144
 31
0.0
  0
ARC
  5
12B
330
1F
100
AcDbEntity
  8
0
  6
HIDDEN
 62
     7
370
     0
100
AcDbCircle
 10
266.4979728377
 20
126.7739679984
 30
0.0
 40
24.91207013161604
100
AcDbArc
 50
164.7752947066
 51
180.0345507492
  0
LINE
  5
12C
330
1F
100
AcDbEntity
  8
0
  6
HIDDEN
 62
     7
370
     0
100
AcDbLine
 10
241.5859072356
 20
122.3525407333
 30
0.0
 11
241.5859072356
 21
126.7589454149
 31
0.0
  0
LINE
  5
12D
330
1F
100
AcDbEntity
  8
0
  6
HIDDEN
 62
     7
370
     0
100
AcDbLine
 10
222.1227592675
 20
86.6928959806
 30
0.0
 11
222.1227592675
 21
112.1928955038
 31
0.0
  0
SPLINE
  5
12E
330
1F
100
AcDbEntity
  8
0
  6
HIDDEN
 62
     7
370
     0
100
AcDbSpline
210
0.0
220
0.0
230
1.0
 70
     8
 71
     3
 72
    10
 73
     6
 74
     0
 42
0.00000001
 43
0.00000001
 12
1.0
 22
0.0
 32
0.0
 13
1.0
 23
0.0
 33
0.0
 40
0.0
 40
0.0
 40
0.0
 40
0.0
 40
0.5
 40
0.5
 40
1.0
 40
1.0
 40
1.0
 40
1.0
 10
222.2226604434951
 20
115.7083466772008
 30
0.0
 10
222.2012212500026
 20
115.1224738057616
 30
0.0
 10
222.1746996580759
 20
114.5366387753732
 30
0.0
 10
222.1352720395713
 20
113.3648673397619
 30
0.0
 10
222.1227600209905
 20
112.7789280009486
 30
0.0
 10
222.1227600209905
 20
112.1928955037699
 30
0.0
  0
SPLINE
  5
12F
330
1F
100
AcDbEntity
  8
0
  6
HIDDEN
 62
     7
370
     0
100
AcDbSpline
210
0.0
220
0.0
230
1.0
 70
     8
 71
     3
 72
    14
 73
    10
 74
     0
 42
0.00000001
 43
0.00000001
 12
1.0
 22
0.0
 32
0.0
 13
1.0
 23
0.0
 33
0.0
 40
0.0
 40
0.0
 40
0.0
 40
0.0
 40
0.25
 40
0.25
 40
0.5
 40
0.5
 40
0.75
 40
0.75
 40
1.0
 40
1.0
 40
1.0
 40
1.0
 10
222.2226604434951
 20
136.4047559250266
 30
0.0
 10
222.2012192682507
 20
136.5265770039363
 30
0.0
 10
222.1747007411615
 20
136.648358241316
 30
0.0
 10
222.1352668575556
 20
136.8920274589493
 30
0.0
 10
222.1227565128062
 20
137.0138844854046
 30
0.0
 10
222.1227635307586
 20
137.2575441399916
 30
0.0
 10
222.1352765251885
 20
137.3793601989994
 30
0.0
 10
222.1747048420121
 20
137.6229764654146
 30
0.0
 10
222.2012214841724
 20
137.7447542311012
 30
0.0
 10
222.2226604434951
 20
137.8665627199373
 30
0.0
  0
ELLIPSE
  5
130
330
1F
100
AcDbEntity
  8
0
  6
HIDDEN
 62
     7
370
     0
100
AcDbEllipse
 10
241.8981909928
 20
112.1928955038
 30
0.0
 11
18.67547586664432
 21
25.49823968036566
 31
0.0
210
0.0
220
0.0
230
1.0
 40
0.0160435947
 41
1.889929158241051
 42
3.153342797152274
  0
ELLIPSE
  5
131
330
1F
100
AcDbEntity
  8
0
  6
HIDDEN
 62
     7
370
     0
100
AcDbEllipse
 10
240.1252465917
 20
112.1928955038
 30
0.0
 11
0.9634415041420823
 21
25.49946008029963
 31
0.0
210
0.0
220
0.0
230
1.0
 40
0.1722352441
 41
1.577303768120368
 42
1.884686456004983
  0
CIRCLE
  5
132
330
1F
100
AcDbEntity
  8
0
  6
HIDDEN
 62
     7
370
     0
100
AcDbCircle
 10
175.0240616052
 20
112.1928955038
 30
0.0
 40
3.049999999999997
  0
LINE
  5
133
330
1F
100
AcDbEntity
  8
0
  6
HIDDEN
 62
     7
370
     0
100
AcDbLine
 10
164.0521014927
 20
122.9815709014
 30
0.0
 11
164.0521014927
 21
101.4042201061
 31
0.0
  0
LINE
  5
134
330
1F
100
AcDbEntity
  8
0
  6
HIDDEN
 62
     7
370
     0
100
AcDbLine
 10
160.0521008371
 20
123.3627686818
 30
0.0
 11
160.0521008371
 21
101.0230223258
 31
0.0
  0
LINE
  5
135
330
1F
100
AcDbEntity
  8
0
  6
HIDDEN
 62
     7
370
     0
100
AcDbLine
 10
159.0240622757
 20
100.4294829984
 30
0.0
 11
159.0240622757
 21
123.9563080092
 31
0.0
  0
LINE
  5
136
330
1F
100
AcDbEntity
  8
0
  6
HIDDEN
 62
     7
370
     0
100
AcDbLine
 10
168.6521011291
 20
122.6928953622
 30
0.0
 11
168.6521011291
 21
101.6928956453
 31
0.0
  0
ARC
  5
137
330
1F
100
AcDbEntity
  8
0
  6
HIDDEN
 62
     7
370
     0
100
AcDbCircle
 10
228.6619726816
 20
112.3047876363
 30
0.0
 40
1.994266773745332
100
AcDbArc
 50
157.7701815534
 51
334.9273614562
  0
LINE
  5
138
330
1F
100
AcDbEntity
  8
0
  6
HIDDEN
 62
     7
370
     0
100
AcDbLine
 10
162.5521021782
 20
122.6928953622
 30
0.0
 11
162.5521021782
 21
101.6928956453
 31
0.0
  0
LINE
  5
139
330
1F
100
AcDbEntity
  8
0
  6
HIDDEN
 62
     7
370
     0
100
AcDbLine
 10
227.9226786344
 20
115.7394580152
 30
0.0
 11
226.8159321396
 21
113.0592638003
 31
0.0
  0
ARC
  5
13A
330
1F
100
AcDbEntity
  8
0
  6
HIDDEN
 62
     7
370
     0
100
AcDbCircle
 10
228.0542026812
 20
111.5881518236
 30
0.0
 40
1.994266769782161
100
AcDbArc
 50
157.7701769647
 51
334.9273660449
  0
LINE
  5
13B
330
1F
100
AcDbEntity
  8
0
  6
HIDDEN
 62
     7
370
     0
100
AcDbLine
 10
163.5521023421
 20
122.6928953622
 30
0.0
 11
163.5521023421
 21
101.6928956453
 31
0.0
  0
LINE
  5
13C
330
1F
100
AcDbEntity
  8
0
  6
HIDDEN
 62
     7
370
     0
100
AcDbLine
 10
230.4683222322
 20
111.4596833434
 30
0.0
 11
231.575068727
 21
114.1398775001
 31
0.0
  0
LINE
  5
13D
330
1F
100
AcDbEntity
  8
0
  6
HIDDEN
 62
     7
370
     0
100
AcDbLine
 10
179.0240618287
 20
122.1928952803
 30
0.0
 11
179.0240618287
 21
102.1928957273
 31
0.0
  0
SPLINE
  5
13E
330
1F
100
AcDbEntity
  8
0
  6
HIDDEN
 62
     7
370
     0
100
AcDbSpline
210
0.0
220
0.0
230
1.0
 70
     8
 71
     3
 72
    66
 73
    62
 74
     0
 42
0.00000001
 43
0.00000001
 12
1.0
 22
0.0
 32
0.0
 13
1.0
 23
0.0
 33
0.0
 40
-0.0312499999999999
 40
-0.0312499999999999
 40
0.0
 40
0.0
 40
0.0312499999999998
 40
0.0312499999999998
 40
0.0624999999999996
 40
0.0624999999999996
 40
0.0937499999999995
 40
0.0937499999999995
 40
0.1249999999999993
 40
0.1249999999999993
 40
0.1874999999999991
 40
0.1874999999999991
 40
0.218749999999999
 40
0.218749999999999
 40
0.249999999999999
 40
0.249999999999999
 40
0.281249999999999
 40
0.281249999999999
 40
0.3124999999999989
 40
0.3124999999999989
 40
0.3437499999999989
 40
0.3437499999999989
 40
0.3749999999999989
 40
0.3749999999999989
 40
0.4062499999999989
 40
0.4062499999999989
 40
0.4374999999999989
 40
0.4374999999999989
 40
0.4687499999999989
 40
0.4687499999999989
 40
0.4999999999999989
 40
0.4999999999999989
 40
0.5312499999999988
 40
0.5312499999999988
 40
0.5624999999999988
 40
0.5624999999999988
 40
0.5937499999999987
 40
0.5937499999999987
 40
0.6249999999999988
 40
0.6249999999999988
 40
0.656249999999999
 40
0.656249999999999
 40
0.6874999999999991
 40
0.6874999999999991
 40
0.7187499999999993
 40
0.7187499999999993
 40
0.7499999999999994
 40
0.7499999999999994
 40
0.7812499999999996
 40
0.7812499999999996
 40
0.8124999999999998
 40
0.8124999999999998
 40
0.875
 40
0.875
 40
0.9062500000000002
 40
0.9062500000000002
 40
0.9375000000000001
 40
0.9375000000000001
 40
0.9687500000000001
 40
0.9687500000000001
 40
1.0
 40
1.0
 40
1.03125
 40
1.03125
 10
174.8213829582372
 20
115.2428955037699
 30
0.0
 10
175.2267402521328
 20
115.2428955037699
 30
0.0
 10
175.4258001434686
 20
115.2228959441533
 30
0.0
 10
175.8170541280484
 20
115.1447524414532
 30
0.0
 10
176.011326886796
 20
115.0855913399324
 30
0.0
 10
176.3800903133473
 20
114.9321596530381
 30
0.0
 10
176.5548154717256
 20
114.8384328431959
 30
0.0
 10
176.8854927752594
 20
114.617178740791
 30
0.0
 10
177.0411403192622
 20
114.4891973737964
 30
0.0
 10
177.4606076889308
 20
114.0696422767964
 30
0.0
 10
177.6874958304611
 20
113.731163718093
 30
0.0
 10
177.9162924538459
 20
113.1812848303748
 30
0.0
 10
177.9754847086948
 20
112.9878849846314
 30
0.0
 10
178.0542921189553
 20
112.5936568342735
 30
0.0
 10
178.0739315352357
 20
112.3950180068411
 30
0.0
 10
178.0741903996573
 20
111.9947177209427
 30
0.0
 10
178.0541197150243
 20
111.7913783942216
 30
0.0
 10
177.9757820323944
 20
111.399286873614
 30
0.0
 10
177.9178322643559
 20
111.2085810052988
 30
0.0
 10
177.7638891224759
 20
110.8378571887122
 30
0.0
 10
177.6689505087533
 20
110.6611305289034
 30
0.0
 10
177.4485930928761
 20
110.331877417979
 30
0.0
 10
177.3213130669478
 20
110.1767561943826
 30
0.0
 10
177.0395574756173
 20
109.8950794994522
 30
0.0
 10
176.8867691461597
 20
109.7696463145478
 30
0.0
 10
176.5573420640029
 20
109.5488707211937
 30
0.0
 10
176.3787960608512
 20
109.4530394684935
 30
0.0
 10
176.011223735301
 20
109.3002103379985
 30
0.0
 10
175.82106970859
 20
109.2420385800542
 30
0.0
 10
175.4275292858875
 20
109.1630452877093
 30
0.0
 10
175.2250952146264
 20
109.1429821620671
 30
0.0
 10
174.825666139261
 20
109.1428094159483
 30
0.0
 10
174.6256471607051
 20
109.1622927900376
 30
0.0
 10
174.2295312132557
 20
109.2412843616388
 30
0.0
 10
174.0387983850638
 20
109.2995645814908
 30
0.0
 10
173.6711669444842
 20
109.4521322020988
 30
0.0
 10
173.4926805123163
 20
109.5477409888721
 30
0.0
 10
173.1624752533523
 20
109.7687530339571
 30
0.0
 10
173.0095866752904
 20
109.8942029327273
 30
0.0
 10
172.7279902807523
 20
110.1754334217326
 30
0.0
 10
172.6003593578768
 20
110.3308162996465
 30
0.0
 10
172.380033922877
 20
110.6596671576894
 30
0.0
 10
172.2858074659116
 20
110.8345552641034
 30
0.0
 10
172.1308729453085
 20
111.2066991154642
 30
0.0
 10
172.0728606597063
 20
111.3975051572732
 30
0.0
 10
171.9944414054281
 20
111.7883781751919
 30
0.0
 10
171.9741273254616
 20
111.9908357365742
 30
0.0
 10
171.9739962091576
 20
112.3929663414936
 30
0.0
 10
171.993620902517
 20
112.5916903866688
 30
0.0
 10
172.0717873529306
 20
112.9845298578054
 30
0.0
 10
172.1310747982705
 20
113.179174135208
 30
0.0
 10
172.3601556413534
 20
113.7306138886222
 30
0.0
 10
172.5869864922476
 20
114.0689534543214
 30
0.0
 10
173.0063251935683
 20
114.4886191169729
 30
0.0
 10
173.1616781893182
 20
114.6164651227462
 30
0.0
 10
173.4926460224554
 20
114.838066197448
 30
0.0
 10
173.6672073226518
 20
114.9317069314249
 30
0.0
 10
174.0347806302266
 20
115.0848610521241
 30
0.0
 10
174.2294674918647
 20
115.1443647977702
 30
0.0
 10
174.6219434418012
 20
115.2228875468332
 30
0.0
 10
174.8213829582372
 20
115.2428955037699
 30
0.0
 10
175.2267402521328
 20
115.2428955037699
 30
0.0
  0
SPLINE
  5
13F
330
1F
100
AcDbEntity
  8
0
  6
HIDDEN
 62
     7
370
     0
100
AcDbSpline
210
0.0
220
0.0
230
1.0
 70
     8
 71
     3
 72
    66
 73
    62
 74
     0
 42
0.00000001
 43
0.00000001
 12
1.0
 22
0.0
 32
0.0
 13
1.0
 23
0.0
 33
0.0
 40
-0.0312500000000002
 40
-0.0312500000000002
 40
0.0
 40
0.0
 40
0.0312499999999999
 40
0.0312499999999999
 40
0.0624999999999997
 40
0.0624999999999997
 40
0.0937499999999996
 40
0.0937499999999996
 40
0.1249999999999995
 40
0.1249999999999995
 40
0.1874999999999992
 40
0.1874999999999992
 40
0.2187499999999991
 40
0.2187499999999991
 40
0.2499999999999989
 40
0.2499999999999989
 40
0.2812499999999988
 40
0.2812499999999988
 40
0.3124999999999987
 40
0.3124999999999987
 40
0.3437499999999986
 40
0.3437499999999986
 40
0.3749999999999984
 40
0.3749999999999984
 40
0.4062499999999983
 40
0.4062499999999983
 40
0.4374999999999984
 40
0.4374999999999984
 40
0.4687499999999984
 40
0.4687499999999984
 40
0.4999999999999986
 40
0.4999999999999986
 40
0.5312499999999987
 40
0.5312499999999987
 40
0.5624999999999988
 40
0.5624999999999988
 40
0.5937499999999988
 40
0.5937499999999988
 40
0.6249999999999989
 40
0.6249999999999989
 40
0.656249999999999
 40
0.656249999999999
 40
0.6874999999999991
 40
0.6874999999999991
 40
0.7187499999999992
 40
0.7187499999999992
 40
0.7499999999999992
 40
0.7499999999999992
 40
0.7812499999999993
 40
0.7812499999999993
 40
0.8124999999999994
 40
0.8124999999999994
 40
0.8749999999999996
 40
0.8749999999999996
 40
0.9062499999999997
 40
0.9062499999999997
 40
0.9374999999999997
 40
0.9374999999999997
 40
0.9687499999999998
 40
0.9687499999999998
 40
1.0
 40
1.0
 40
1.03125
 40
1.03125
 10
175.2267402521328
 20
115.2428955037699
 30
0.0
 10
174.8213829582372
 20
115.2428955037699
 30
0.0
 10
174.6223230669013
 20
115.2228959441533
 30
0.0
 10
174.2310690823216
 20
115.1447524414532
 30
0.0
 10
174.036796323574
 20
115.0855913399324
 30
0.0
 10
173.6680328970227
 20
114.9321596530381
 30
0.0
 10
173.4933077386444
 20
114.8384328431959
 30
0.0
 10
173.1626304351106
 20
114.617178740791
 30
0.0
 10
173.0069828911078
 20
114.4891973737964
 30
0.0
 10
172.5875155214391
 20
114.0696422767964
 30
0.0
 10
172.3606273799088
 20
113.731163718093
 30
0.0
 10
172.1318307565241
 20
113.1812848303748
 30
0.0
 10
172.0726385016752
 20
112.9878849846314
 30
0.0
 10
171.9938310914147
 20
112.5936568342735
 30
0.0
 10
171.9741916751343
 20
112.3950180068411
 30
0.0
 10
171.9739328107127
 20
111.9947177209427
 30
0.0
 10
171.9940034953457
 20
111.7913783942216
 30
0.0
 10
172.0723411779756
 20
111.399286873614
 30
0.0
 10
172.1302909460141
 20
111.2085810052988
 30
0.0
 10
172.284234087894
 20
110.8378571887122
 30
0.0
 10
172.3791727016167
 20
110.6611305289034
 30
0.0
 10
172.5995301174939
 20
110.331877417979
 30
0.0
 10
172.7268101434222
 20
110.1767561943826
 30
0.0
 10
173.0085657347527
 20
109.8950794994522
 30
0.0
 10
173.1613540642102
 20
109.7696463145478
 30
0.0
 10
173.4907811463671
 20
109.5488707211937
 30
0.0
 10
173.6693271495189
 20
109.4530394684935
 30
0.0
 10
174.036899475069
 20
109.3002103379985
 30
0.0
 10
174.22705350178
 20
109.2420385800542
 30
0.0
 10
174.6205939244825
 20
109.1630452877093
 30
0.0
 10
174.8230279957436
 20
109.1429821620671
 30
0.0
 10
175.222457071109
 20
109.1428094159483
 30
0.0
 10
175.4224760496649
 20
109.1622927900376
 30
0.0
 10
175.8185919971143
 20
109.2412843616388
 30
0.0
 10
176.0093248253062
 20
109.2995645814908
 30
0.0
 10
176.3769562658859
 20
109.4521322020988
 30
0.0
 10
176.5554426980536
 20
109.5477409888721
 30
0.0
 10
176.8856479570177
 20
109.7687530339571
 30
0.0
 10
177.0385365350796
 20
109.8942029327273
 30
0.0
 10
177.3201329296177
 20
110.1754334217326
 30
0.0
 10
177.4477638524932
 20
110.3308162996465
 30
0.0
 10
177.668089287493
 20
110.6596671576894
 30
0.0
 10
177.7623157444584
 20
110.8345552641034
 30
0.0
 10
177.9172502650615
 20
111.2066991154642
 30
0.0
 10
177.9752625506637
 20
111.3975051572732
 30
0.0
 10
178.0536818049418
 20
111.7883781751919
 30
0.0
 10
178.0739958849084
 20
111.9908357365742
 30
0.0
 10
178.0741270012124
 20
112.3929663414936
 30
0.0
 10
178.054502307853
 20
112.5916903866688
 30
0.0
 10
177.9763358574394
 20
112.9845298578054
 30
0.0
 10
177.9170484120995
 20
113.179174135208
 30
0.0
 10
177.6879675690166
 20
113.7306138886222
 30
0.0
 10
177.4611367181224
 20
114.0689534543214
 30
0.0
 10
177.0417980168017
 20
114.4886191169729
 30
0.0
 10
176.8864450210518
 20
114.6164651227462
 30
0.0
 10
176.5554771879146
 20
114.838066197448
 30
0.0
 10
176.3809158877182
 20
114.9317069314249
 30
0.0
 10
176.0133425801434
 20
115.0848610521241
 30
0.0
 10
175.8186557185053
 20
115.1443647977702
 30
0.0
 10
175.4261797685689
 20
115.2228875468332
 30
0.0
 10
175.2267402521328
 20
115.2428955037699
 30
0.0
 10
174.8213829582372
 20
115.2428955037699
 30
0.0
  0
ARC
  5
140
330
1F
100
AcDbEntity
  8
0
  6
HIDDEN
 62
     7
370
     0
100
AcDbCircle
 10
229.7290282029
 20
114.8943537357
 30
0.0
 40
1.994266784273365
100
AcDbArc
 50
337.7701794545
 51
154.9273620228
  0
LINE
  5
141
330
1F
100
AcDbEntity
  8
0
  6
HIDDEN
 62
     7
370
     0
100
AcDbLine
 10
229.8605522959
 20
110.743047677
 30
0.0
 11
230.9672987907
 21
113.423241892
 31
0.0
  0
ARC
  5
142
330
1F
100
AcDbEntity
  8
0
  6
HIDDEN
 62
     7
370
     0
100
AcDbCircle
 10
229.1212585135
 20
114.1777186301
 30
0.0
 40
1.99426674573278
100
AcDbArc
 50
337.7701634077
 51
154.9273811342
  0
LINE
  5
143
330
1F
100
AcDbEntity
  8
0
  6
HIDDEN
 62
     7
370
     0
100
AcDbLine
 10
241.5859072356
 20
111.4761306746
 30
0.0
 11
235.6504580824
 21
104.4774868135
 31
0.0
  0
ARC
  5
144
330
1F
100
AcDbEntity
  8
0
  6
HIDDEN
 62
     7
370
     0
100
AcDbCircle
 10
225.7454372637
 20
126.0910529327
 30
0.0
 40
2.090372662934975
100
AcDbArc
 50
120.2430804213
 51
297.7154429013
  0
LINE
  5
145
330
1F
100
AcDbEntity
  8
0
  6
HIDDEN
 62
     7
370
     0
100
AcDbLine
 10
180.0240619926
 20
119.4428952952
 30
0.0
 11
180.0240619926
 21
104.9428957124
 31
0.0
  0
LINE
  5
146
330
1F
100
AcDbEntity
  8
0
  6
HIDDEN
 62
     7
370
     0
100
AcDbLine
 10
179.0240618287
 20
103.9428955485
 30
0.0
 11
179.0240618287
 21
120.4428954591
 31
0.0
  0
LWPOLYLINE
  5
147
330
1F
100
AcDbEntity
  8
0
  6
HIDDEN
 62
     7
370
     0
100
AcDbPolyline
 90
       32
 70
   128
 43
0.0
 10
232.8302568643
 20
126.1892702971
 10
233.4448031037
 20
126.1046698858
 10
234.0341887324
 20
125.8993924205
 10
234.5742850451
 20
125.5818421562
 10
235.042982444
 20
125.1650184934
 10
235.4210882334
 20
124.6659869869
 10
235.6931275575
 20
124.1051780601
 10
235.8479580729
 20
123.505550677
 10
235.8792430608
 20
122.8916545008
 10
235.7857047467
 20
122.2886212711
 10
235.5711690037
 20
121.7211412807
 10
235.2444200663
 20
121.2124454398
 10
234.818835452
 20
120.7833609153
 10
234.3118383436
 20
120.4514533822
 10
233.7441860585
 20
120.2303117682
 10
233.1391169576
 20
120.12898946
 10
232.5214004962
 20
120.1516354997
 10
231.9163313954
 20
120.2973213588
 10
231.3486791103
 20
120.5600837786
 10
230.8416820018
 20
120.9291650523
 10
230.4160973875
 20
121.3894535397
 10
230.0893484502
 20
121.9221076537
 10
229.8748127072
 20
122.5053176825
 10
229.7812743931
 20
123.1152082403
 10
229.812559381
 20
123.726810569
 10
229.9673898964
 20
124.3150860612
 10
230.2394292204
 20
124.8559488524
 10
230.6175350098
 20
125.3272576798
 10
231.0862324087
 20
125.7097155396
 10
231.6263287215
 20
125.9876659681
 10
232.2157143502
 20
126.1497291346
 10
232.8302568643
 20
126.1892702971
  0
LINE
  5
148
330
1F
100
AcDbEntity
  8
0
  6
HIDDEN
 62
     7
370
     0
100
AcDbLine
 10
229.9250929503
 20
130.6232346763
 30
0.0
 11
231.2517656831
 21
132.1875474025
 31
0.0
  0
LINE
  5
149
330
1F
100
AcDbEntity
  8
0
  6
HIDDEN
 62
     7
370
     0
100
AcDbLine
 10
229.9250929503
 20
130.6232346763
 30
0.0
 11
228.3603927939
 21
129.8079735209
 31
0.0
  0
LINE
  5
14A
330
1F
100
AcDbEntity
  8
0
  6
HIDDEN
 62
     7
370
     0
100
AcDbLine
 10
224.9931923001
 20
128.0535480548
 30
0.0
 11
224.6925799994
 21
127.8969182242
 31
0.0
  0
LINE
  5
14B
330
1F
100
AcDbEntity
  8
0
  6
HIDDEN
 62
     7
370
     0
100
AcDbLine
 10
227.3149086981
 20
115.0228222907
 30
0.0
 11
226.2081622033
 21
112.342628134
 31
0.0
  0
LINE
  5
14C
330
1F
100
AcDbEntity
  8
0
  6
HIDDEN
 62
     7
370
     0
100
AcDbLine
 10
213.0240618138
 20
104.9428957124
 30
0.0
 11
213.0240618138
 21
119.4428952952
 31
0.0
  0
SPLINE
  5
14D
330
1F
100
AcDbEntity
  8
0
  6
HIDDEN
 62
     7
370
     0
100
AcDbSpline
210
0.0
220
0.0
230
1.0
 70
     8
 71
     3
 72
    62
 73
    58
 74
     0
 42
0.00000001
 43
0.00000001
 12
1.0
 22
0.0
 32
0.0
 13
1.0
 23
0.0
 33
0.0
 40
-0.0312499999999999
 40
-0.0312499999999999
 40
0.0
 40
0.0
 40
0.03125
 40
0.03125
 40
0.0625
 40
0.0625
 40
0.09375
 40
0.09375
 40
0.1250000000000001
 40
0.1250000000000001
 40
0.1875000000000002
 40
0.1875000000000002
 40
0.2187500000000003
 40
0.2187500000000003
 40
0.2500000000000004
 40
0.2500000000000004
 40
0.2812500000000004
 40
0.2812500000000004
 40
0.3125000000000006
 40
0.3125000000000006
 40
0.3437500000000006
 40
0.3437500000000006
 40
0.3750000000000007
 40
0.3750000000000007
 40
0.4062500000000006
 40
0.4062500000000006
 40
0.4375000000000006
 40
0.4375000000000006
 40
0.4687500000000006
 40
0.4687500000000006
 40
0.5000000000000004
 40
0.5000000000000004
 40
0.5625000000000006
 40
0.5625000000000006
 40
0.5937500000000007
 40
0.5937500000000007
 40
0.6250000000000009
 40
0.6250000000000009
 40
0.6875000000000008
 40
0.6875000000000008
 40
0.7187500000000006
 40
0.7187500000000006
 40
0.7500000000000003
 40
0.7500000000000003
 40
0.7812500000000002
 40
0.7812500000000002
 40
0.8125000000000001
 40
0.8125000000000001
 40
0.875
 40
0.875
 40
0.9062500000000001
 40
0.9062500000000001
 40
0.9375000000000001
 40
0.9375000000000001
 40
0.9687500000000001
 40
0.9687500000000001
 40
1.0
 40
1.0
 40
1.03125
 40
1.03125
 10
213.5645741722845
 20
117.0858683240067
 30
0.0
 10
213.5073503898577
 20
116.952241935453
 30
0.0
 10
213.4845265487542
 20
116.8720307663347
 30
0.0
 10
213.4495030047406
 20
116.68553500145
 30
0.0
 10
213.437265097778
 20
116.5778181109202
 30
0.0
 10
213.4243054030398
 20
116.3420876259186
 30
0.0
 10
213.4234334000851
 20
116.2145983386814
 30
0.0
 10
213.4328367346135
 20
115.9404452278603
 30
0.0
 10
213.4433057464019
 20
115.7930841633587
 30
0.0
 10
213.4906988265377
 20
115.3413795225036
 30
0.0
 10
213.5448420785385
 20
115.0153308824742
 30
0.0
 10
213.6554855643721
 20
114.5366891495603
 30
0.0
 10
213.6978702255469
 20
114.3761866130934
 30
0.0
 10
213.7918490482513
 20
114.064926264683
 30
0.0
 10
213.8430076498023
 20
113.9151572252532
 30
0.0
 10
213.9548134452844
 20
113.6274760999302
 30
0.0
 10
214.0160330755334
 20
113.4887073827618
 30
0.0
 10
214.1445975429421
 20
113.2352361086441
 30
0.0
 10
214.2123929859866
 20
113.1190663771266
 30
0.0
 10
214.3567839927957
 20
112.9088365851046
 30
0.0
 10
214.4327319174519
 20
112.8161454961605
 30
0.0
 10
214.5883842042237
 20
112.6618450370221
 30
0.0
 10
214.6692401232469
 20
112.5988930714916
 30
0.0
 10
214.835862517733
 20
112.5049561369129
 30
0.0
 10
214.9195799186936
 20
112.474963461485
 30
0.0
 10
215.0883818919864
 20
112.4477903618224
 30
0.0
 10
215.1743752832013
 20
112.4510209787543
 30
0.0
 10
215.3407418390863
 20
112.4902976046073
 30
0.0
 10
215.4216201404202
 20
112.5259057793979
 30
0.0
 10
215.5767283762836
 20
112.628103188205
 30
0.0
 10
215.6502676660564
 20
112.6946073762678
 30
0.0
 10
215.8460469350728
 20
112.930943221978
 30
0.0
 10
215.9469901867646
 20
113.143702718186
 30
0.0
 10
216.0027631588008
 20
113.5060976026314
 30
0.0
 10
216.0057904914807
 20
113.6368461075646
 30
0.0
 10
215.978918447494
 20
113.9050769571824
 30
0.0
 10
215.9497201947881
 20
114.0419673092866
 30
0.0
 10
215.8229663196202
 20
114.4639666816564
 30
0.0
 10
215.6889596820658
 20
114.7541813147774
 30
0.0
 10
215.460557015174
 20
115.1889927324456
 30
0.0
 10
215.3807099103882
 20
115.3318707159911
 30
0.0
 10
215.2159967853802
 20
115.6148669265865
 30
0.0
 10
215.1301617790244
 20
115.7563966111395
 30
0.0
 10
214.9610025715524
 20
116.0251802268695
 30
0.0
 10
214.8771164981403
 20
116.1534679775518
 30
0.0
 10
214.7103019870603
 20
116.397365435135
 30
0.0
 10
214.6277622497547
 20
116.5122090374727
 30
0.0
 10
214.3912841573491
 20
116.8207747296663
 30
0.0
 10
214.2428148842503
 20
116.9856098234596
 30
0.0
 10
214.0460353227625
 20
117.1456083773994
 30
0.0
 10
213.9834537296615
 20
117.1854854214592
 30
0.0
 10
213.8686612899224
 20
117.2341253537039
 30
0.0
 10
213.8160375363775
 20
117.243471339468
 30
0.0
 10
213.7190856476455
 20
117.2315845122692
 30
0.0
 10
213.6750329859181
 20
117.2099581582544
 30
0.0
 10
213.5980596226541
 20
117.1371125734054
 30
0.0
 10
213.5645741722845
 20
117.0858683240067
 30
0.0
 10
213.5073503898577
 20
116.952241935453
 30
0.0
  0
LINE
  5
14E
330
1F
100
AcDbEntity
  8
0
  6
HIDDEN
 62
     7
370
     0
100
AcDbLine
 10
222.2226603775
 20
137.8665624727
 30
0.0
 11
222.3343296795
 21
138.2625664194
 31
0.0
  0
LINE
  5
14F
330
1F
100
AcDbEntity
  8
0
  6
HIDDEN
 62
     7
370
     0
100
AcDbLine
 10
241.1335601358
 20
131.7516958882
 30
0.0
 11
242.4602328686
 21
133.3160086144
 31
0.0
  0
LINE
  5
150
330
1F
100
AcDbEntity
  8
0
  6
HIDDEN
 62
     7
370
     0
100
AcDbLine
 10
233.9539571552
 20
138.7954151799
 30
0.0
 11
235.2806261627
 21
140.3597279061
 31
0.0
  0
LWPOLYLINE
  5
151
330
1F
100
AcDbEntity
  8
0
  6
HIDDEN
 62
     7
370
     0
100
AcDbPolyline
 90
       29
 70
   128
 43
0.0
 10
232.7676570861
 20
125.528564917
 10
233.315505728
 20
125.4471701179
 10
233.8358840792
 20
125.2472356503
 10
234.3027002065
 20
124.9387872015
 10
234.6925406604
 20
124.5372912456
 10
234.9858588426
 20
124.062881114
 10
235.1679473071
 20
123.5393455793
 10
235.2296753673
 20
122.9929367621
 10
235.1679473071
 20
122.4510541726
 10
234.9858588426
 20
121.9408700783
 10
234.6925406604
 20
121.4879660477
 10
234.3027002065
 20
121.1150542442
 10
233.8358840792
 20
120.8408328314
 10
233.315505728
 20
120.679052787
 10
232.7676570861
 20
120.6378268619
 10
232.2198047189
 20
120.7192216609
 10
231.6994263677
 20
120.9191561286
 10
231.2326102404
 20
121.2276045774
 10
230.8427697866
 20
121.6291005333
 10
230.5494516043
 20
122.1035106648
 10
230.3673631398
 20
122.6270461996
 10
230.3056350796
 20
123.1734550167
 10
230.3673631398
 20
123.7153376062
 10
230.5494516043
 20
124.2255217005
 10
230.8427697866
 20
124.6784257312
 10
231.2326102404
 20
125.0513375346
 10
231.6994263677
 20
125.3255589475
 10
232.2198047189
 20
125.4873389919
 10
232.7676570861
 20
125.528564917
  0
ARC
  5
152
330
1F
100
AcDbEntity
  8
0
  6
HIDDEN
 62
     7
370
     0
100
AcDbCircle
 10
230.4935270555
 20
120.2352832322
 30
0.0
 40
2.393386260086773
100
AcDbArc
 50
261.3785388269
 51
315.9771636528
  0
SPLINE
  5
153
330
1F
100
AcDbEntity
  8
0
  6
HIDDEN
 62
     7
370
     0
100
AcDbSpline
210
0.0
220
0.0
230
1.0
 70
     8
 71
     3
 72
     8
 73
     4
 74
     0
 42
0.00000001
 43
0.00000001
 12
1.0
 22
0.0
 32
0.0
 13
1.0
 23
0.0
 33
0.0
 40
0.0
 40
0.0
 40
0.0
 40
0.0
 40
1.0
 40
1.0
 40
1.0
 40
1.0
 10
232.2145228726374
 20
118.5720115358212
 30
0.0
 10
232.3520925702721
 20
118.7244899023049
 30
0.0
 10
232.5075772374321
 20
118.9056496115734
 30
0.0
 10
232.6624760851955
 20
119.121465656804
 30
0.0
  0
SPLINE
  5
154
330
1F
100
AcDbEntity
  8
0
  6
HIDDEN
 62
     7
370
     0
100
AcDbSpline
210
0.0
220
0.0
230
1.0
 70
     8
 71
     3
 72
    22
 73
    18
 74
     0
 42
0.00000001
 43
0.00000001
 12
1.0
 22
0.0
 32
0.0
 13
1.0
 23
0.0
 33
0.0
 40
0.0
 40
0.0
 40
0.0
 40
0.0
 40
0.125
 40
0.125
 40
0.25
 40
0.25
 40
0.375
 40
0.375
 40
0.5
 40
0.5
 40
0.625
 40
0.625
 40
0.75
 40
0.75
 40
0.875
 40
0.875
 40
1.0
 40
1.0
 40
1.0
 40
1.0
 10
232.6624760851955
 20
119.121465656804
 30
0.0
 10
232.7752256570317
 20
119.2874182009186
 30
0.0
 10
232.8705783881821
 20
119.4614678002446
 30
0.0
 10
233.026500421169
 20
119.827834163173
 30
0.0
 10
233.0874350350829
 20
120.0226934933732
 30
0.0
 10
233.1641415790288
 20
120.4202372738452
 30
0.0
 10
233.1805933294849
 20
120.6226449894673
 30
0.0
 10
233.1614273425488
 20
121.0362712253115
 30
0.0
 10
233.1261084364801
 20
121.2378735448502
 30
0.0
 10
233.0013397476454
 20
121.6285177984202
 30
0.0
 10
232.9102278513672
 20
121.8182024066265
 30
0.0
 10
232.6834900327341
 20
122.157442598477
 30
0.0
 10
232.5445921479669
 20
122.3123102943204
 30
0.0
 10
232.2361204251125
 20
122.5748573237277
 30
0.0
 10
232.0636156840549
 20
122.6856275519643
 30
0.0
 10
231.6995713798542
 20
122.8610068295671
 30
0.0
 10
231.5087267595174
 20
122.9261713778502
 30
0.0
 10
231.3084652476867
 20
122.9706658327497
 30
0.0
  0
SPLINE
  5
155
330
1F
100
AcDbEntity
  8
0
  6
HIDDEN
 62
     7
370
     0
100
AcDbSpline
210
0.0
220
0.0
230
1.0
 70
     8
 71
     3
 72
     8
 73
     4
 74
     0
 42
0.00000001
 43
0.00000001
 12
1.0
 22
0.0
 32
0.0
 13
1.0
 23
0.0
 33
0.0
 40
0.0
 40
0.0
 40
0.0
 40
0.0
 40
1.0
 40
1.0
 40
1.0
 40
1.0
 10
231.3084652476867
 20
122.9706658327497
 30
0.0
 10
231.0716420023961
 20
122.9693415869797
 30
0.0
 10
230.8441451055615
 20
122.9371755419745
 30
0.0
 10
230.6394449071257
 20
122.8871413495854
 30
0.0
  0
SPLINE
  5
156
330
1F
100
AcDbEntity
  8
0
  6
HIDDEN
 62
     7
370
     0
100
AcDbSpline
210
0.0
220
0.0
230
1.0
 70
     8
 71
     3
 72
    38
 73
    34
 74
     0
 42
0.00000001
 43
0.00000001
 12
1.0
 22
0.0
 32
0.0
 13
1.0
 23
0.0
 33
0.0
 40
0.0
 40
0.0
 40
0.0
 40
0.0
 40
0.0624999999999964
 40
0.0624999999999964
 40
0.0937499999999957
 40
0.0937499999999957
 40
0.1249999999999949
 40
0.1249999999999949
 40
0.1874999999999954
 40
0.1874999999999954
 40
0.2499999999999959
 40
0.2499999999999959
 40
0.3124999999999964
 40
0.3124999999999964
 40
0.3749999999999969
 40
0.3749999999999969
 40
0.4374999999999974
 40
0.4374999999999974
 40
0.4999999999999979
 40
0.4999999999999979
 40
0.5624999999999983
 40
0.5624999999999983
 40
0.6249999999999988
 40
0.6249999999999988
 40
0.6874999999999993
 40
0.6874999999999993
 40
0.7499999999999998
 40
0.7499999999999998
 40
0.8749999999999997
 40
0.8749999999999997
 40
0.9374999999999999
 40
0.9374999999999999
 40
1.0
 40
1.0
 40
1.0
 40
1.0
 10
230.6394449071257
 20
122.8871413495854
 30
0.0
 10
230.4499498267625
 20
122.8862204185563
 30
0.0
 10
230.2588637658489
 20
122.8682634957478
 30
0.0
 10
229.9729515049388
 20
122.8169405176497
 30
0.0
 10
229.8793948266031
 20
122.7960503269914
 30
0.0
 10
229.6963006212274
 20
122.7471512516908
 30
0.0
 10
229.6067562593347
 20
122.7189876788956
 30
0.0
 10
229.3597713529872
 20
122.629476262566
 30
0.0
 10
229.2178184712863
 20
122.5612499954549
 30
0.0
 10
228.9801755972319
 20
122.4167680916786
 30
0.0
 10
228.8797774640632
 20
122.3381261533684
 30
0.0
 10
228.7067992440157
 20
122.1676178708219
 30
0.0
 10
228.633586295418
 20
122.0753990941143
 30
0.0
 10
228.5078594343577
 20
121.8711607505283
 30
0.0
 10
228.4551537753258
 20
121.7580686881435
 30
0.0
 10
228.3738699995908
 20
121.5112422339153
 30
0.0
 10
228.3450153416338
 20
121.3777964141822
 30
0.0
 10
228.3146065792899
 20
121.0833038132597
 30
0.0
 10
228.3135976278336
 20
120.9238090375415
 30
0.0
 10
228.3454658653774
 20
120.5854898147129
 30
0.0
 10
228.3790708129031
 20
120.4046275664294
 30
0.0
 10
228.4795219662025
 20
120.0443603921229
 30
0.0
 10
228.5482795853056
 20
119.8590471636187
 30
0.0
 10
228.7075671867871
 20
119.5123592853691
 30
0.0
 10
228.7997558014342
 20
119.3464438893532
 30
0.0
 10
228.9912650140398
 20
119.047165755748
 30
0.0
 10
229.0923639871297
 20
118.9106082665422
 30
0.0
 10
229.3900511918838
 20
118.5489104212046
 30
0.0
 10
229.5892656238646
 20
118.3617257797768
 30
0.0
 10
229.8449648590384
 20
118.1424176050418
 30
0.0
 10
229.9238005339401
 20
118.0789427684184
 30
0.0
 10
230.0567667200551
 20
117.9649541264658
 30
0.0
 10
230.1108843594949
 20
117.9149975747672
 30
0.0
 10
230.1347461533614
 20
117.8689415856206
 30
0.0
  0
LINE
  5
157
330
1F
100
AcDbEntity
  8
0
  6
HIDDEN
 62
     7
370
     0
100
AcDbLine
 10
246.8220188169
 20
144.951924922
 30
0.0
 11
238.497831568
 21
140.6147426535
 31
0.0
  0
LINE
  5
158
330
1F
100
AcDbEntity
  8
0
  6
HIDDEN
 62
     7
370
     0
100
AcDbLine
 10
247.0379440932
 20
144.7427126188
 30
0.0
 11
246.8220188169
 21
144.951924922
 31
0.0
  0
LINE
  5
159
330
1F
100
AcDbEntity
  8
0
  6
HIDDEN
 62
     7
370
     0
100
AcDbLine
 10
247.0379440932
 20
144.7427126188
 30
0.0
 11
242.7894814758
 21
136.1250879784
 31
0.0
  0
LWPOLYLINE
  5
15A
330
1F
100
AcDbEntity
  8
0
  6
HIDDEN
 62
     7
370
     0
100
AcDbPolyline
 90
       28
 70
   128
 43
0.0
 10
237.4736710338
 20
132.8397488762
 10
238.0187406091
 20
132.8830460627
 10
238.5344250946
 20
133.0505649169
 10
238.9929226486
 20
133.3332771976
 10
239.3695196955
 20
133.7159390171
 10
239.6439096777
 20
134.1779234429
 10
239.8013031928
 20
134.694323184
 10
239.8332103042
 20
135.2373010088
 10
239.7379173784
 20
135.7775817235
 10
239.5205541401
 20
136.2860410084
 10
239.1928478031
 20
136.7352681775
 10
238.7724562435
 20
137.1010432561
 10
238.2820478527
 20
137.3636482824
 10
237.7480610161
 20
137.5089252908
 10
237.1992810516
 20
137.5290437211
 10
236.6652942149
 20
137.4229195137
 10
236.1748858242
 20
137.1962709893
 10
235.7544942646
 20
136.8613189627
 10
235.4267879276
 20
136.436119916
 10
235.2094246893
 20
135.943597423
 10
235.1141317634
 20
135.4103034903
 10
235.1460388748
 20
134.8649880458
 10
235.3034323899
 20
134.3370473553
 10
235.5778223722
 20
133.8549444993
 10
235.9544156937
 20
133.4446689655
 10
236.4129169731
 20
133.1283396651
 10
236.9286014585
 20
132.923010977
 10
237.4736710338
 20
132.8397488762
  0
ARC
  5
15B
330
1F
100
AcDbEntity
  8
0
  6
HIDDEN
 62
     7
370
     0
100
AcDbCircle
 10
227.086007159
 20
162.5324699153
 30
0.0
 40
24.71065569072666
100
AcDbArc
 50
286.1369829338
 51
297.5044789889
  0
ARC
  5
15C
330
1F
100
AcDbEntity
  8
0
  6
HIDDEN
 62
     7
370
     0
100
AcDbCircle
 10
264.6992337468
 20
125.3290874609
 30
0.0
 40
24.42520975854045
100
AcDbArc
 50
153.7682900478
 51
164.7548241879
  0
LINE
  5
15D
330
1F
100
AcDbEntity
  8
0
  6
HIDDEN
 62
     7
370
     0
100
AcDbLine
 10
233.9539571552
 20
138.7954151799
 30
0.0
 11
229.9250929503
 21
130.6232346763
 31
0.0
  0
LINE
  5
15E
330
1F
100
AcDbEntity
  8
0
  6
HIDDEN
 62
     7
370
     0
100
AcDbLine
 10
226.7176291792
 20
124.2405122687
 30
0.0
 11
241.1335601358
 21
131.7516958882
 31
0.0
  0
LWPOLYLINE
  5
15F
330
1F
100
AcDbEntity
  8
0
  6
HIDDEN
 62
     7
370
     0
100
AcDbPolyline
 90
       19
 70
   128
 43
0.0
 10
230.6394434421
 20
122.8871413116
 10
230.3727722614
 20
123.0299130623
 10
230.1329529731
 20
123.053624535
 10
229.9321449248
 20
122.9570724611
 10
229.7805218844
 20
122.7451509405
 10
229.6857654004
 20
122.4285999854
 10
229.6526810972
 20
122.0234616269
 10
229.6829453556
 20
121.5502687339
 10
229.7750233559
 20
121.0330010001
 10
229.9242510347
 20
120.4978751559
 10
230.1230623274
 20
119.9720085208
 10
230.3613840489
 20
119.4820532185
 10
230.6271388082
 20
119.0528392401
 10
230.9068522303
 20
118.7061185558
 10
231.1863570361
 20
118.4594628942
 10
231.4514859466
 20
118.3253729325
 10
231.6887981145
 20
118.3106436004
 10
231.8862720279
 20
118.4160218184
 10
232.0338941066
 20
118.6361669172
  0
SPLINE
  5
160
330
1F
100
AcDbEntity
  8
0
  6
HIDDEN
 62
     7
370
     0
100
AcDbSpline
210
0.0
220
0.0
230
1.0
 70
     8
 71
     3
 72
    12
 73
     8
 74
     0
 42
0.00000001
 43
0.00000001
 12
1.0
 22
0.0
 32
0.0
 13
1.0
 23
0.0
 33
0.0
 40
0.0
 40
0.0
 40
0.0
 40
0.0
 40
0.5000000000000043
 40
0.5000000000000043
 40
0.7500000000000021
 40
0.7500000000000021
 40
1.0
 40
1.0
 40
1.0
 40
1.0
 10
230.1347461533614
 20
117.8689415856205
 30
0.0
 10
230.4351876769924
 20
117.9635789321075
 30
0.0
 10
230.7433273696451
 20
118.0706116412905
 30
0.0
 10
231.2244505028476
 20
118.2606764673836
 30
0.0
 10
231.3881638817836
 20
118.3292683091659
 30
0.0
 10
231.7123952898095
 20
118.4752040820764
 30
0.0
 10
231.8738698877361
 20
118.5529181568657
 30
0.0
 10
232.0338955761371
 20
118.6361667505103
 30
0.0
  0
LWPOLYLINE
  5
161
330
1F
100
AcDbEntity
  8
0
  6
HIDDEN
 62
     7
370
     0
100
AcDbPolyline
 90
       23
 70
   128
 43
0.0
 10
237.343434885
 20
133.4197952021
 10
237.8012320845
 20
133.4683878888
 10
238.2219402938
 20
133.6437969078
 10
238.5714768319
 20
133.9318102766
 10
238.8215257673
 20
134.3090946396
 10
238.9518289714
 20
134.7450858523
 10
238.9518289714
 20
135.2044625749
 10
238.8215257673
 20
135.6500072945
 10
238.5714768319
 20
136.0456275363
 10
238.2219402938
 20
136.3592690398
 10
237.8012320845
 20
136.5655234624
 10
237.343434885
 20
136.6476828773
 10
236.8856376855
 20
136.5990901907
 10
236.4649294762
 20
136.4236811717
 10
236.1153929381
 20
136.1356678028
 10
235.8653440027
 20
135.7583834399
 10
235.7350407986
 20
135.3223922272
 10
235.7350407986
 20
134.8630155046
 10
235.8653440027
 20
134.4174707849
 10
236.1153929381
 20
134.0218505432
 10
236.4649294762
 20
133.7082090397
 10
236.8856376855
 20
133.501954617
 10
237.343434885
 20
133.4197952021
  0
LWPOLYLINE
  5
162
330
1F
100
AcDbEntity
  8
0
  6
HIDDEN
 62
     7
370
     0
100
AcDbPolyline
 90
       23
 70
   128
 43
0.0
 10
235.4767179935
 20
131.2186999787
 10
235.9345114677
 20
131.2672926654
 10
236.3552234022
 20
131.4427016844
 10
236.7047599404
 20
131.7307150532
 10
236.9548088758
 20
132.1079994161
 10
237.0851083545
 20
132.5439906288
 10
237.0851083545
 20
133.0033673514
 10
236.9548088758
 20
133.4489120711
 10
236.7047599404
 20
133.8445323129
 10
236.3552234022
 20
134.1581738163
 10
235.9345114677
 20
134.364428239
 10
235.4767179935
 20
134.4465876539
 10
235.018920794
 20
134.3979949672
 10
234.5982125847
 20
134.2225859482
 10
234.2486760466
 20
133.9345725794
 10
233.9986271112
 20
133.5572882165
 10
233.8683239071
 20
133.1212970038
 10
233.8683239071
 20
132.6619202812
 10
233.9986271112
 20
132.2163755615
 10
234.2486760466
 20
131.8207553197
 10
234.5982125847
 20
131.5071138163
 10
235.018920794
 20
131.3008593936
 10
235.4767179935
 20
131.2186999787
  0
LINE
  5
163
330
1F
100
AcDbEntity
  8
0
  6
HIDDEN
 62
     7
370
     0
100
AcDbLine
 10
160.5240615903
 20
129.0522462298
 30
0.0
 11
160.5240615903
 21
124.2424680461
 31
0.0
  0
LINE
  5
164
330
1F
100
AcDbEntity
  8
0
  6
HIDDEN
 62
     7
370
     0
100
AcDbLine
 10
159.0240622757
 20
128.1862205435
 30
0.0
 11
159.0240622757
 21
123.8094552029
 31
0.0
  0
LINE
  5
165
330
1F
100
AcDbEntity
  8
0
  6
HIDDEN
 62
     7
370
     0
100
AcDbLine
 10
186.8240616171
 20
129.7129935194
 30
0.0
 11
186.8240616171
 21
124.5728416909
 31
0.0
  0
LINE
  5
166
330
1F
100
AcDbEntity
  8
0
  6
HIDDEN
 62
     7
370
     0
100
AcDbLine
 10
186.8240616171
 20
99.8129493166
 30
0.0
 11
186.8240616171
 21
94.6727974881
 31
0.0
  0
SPLINE
  5
167
330
1F
100
AcDbEntity
  8
0
  6
HIDDEN
 62
     7
370
     0
100
AcDbSpline
210
0.0
220
0.0
230
1.0
 70
     8
 71
     3
 72
    18
 73
    14
 74
     0
 42
0.00000001
 43
0.00000001
 12
1.0
 22
0.0
 32
0.0
 13
1.0
 23
0.0
 33
0.0
 40
0.0
 40
0.0
 40
0.0
 40
0.0
 40
0.2500000000000004
 40
0.2500000000000004
 40
0.3750000000000003
 40
0.3750000000000003
 40
0.5000000000000003
 40
0.5000000000000003
 40
0.6250000000000003
 40
0.6250000000000003
 40
0.7500000000000002
 40
0.7500000000000002
 40
1.0
 40
1.0
 40
1.0
 40
1.0
 10
187.7027412616254
 20
99.09784878023753
 30
0.0
 10
187.567455655323
 20
98.51364718650585
 30
0.0
 10
187.4662879090801
 20
97.97942949929767
 30
0.0
 10
187.3634265662112
 20
97.25353272840928
 30
0.0
 10
187.3373237206879
 20
97.02365224062933
 30
0.0
 10
187.302433737143
 20
96.59308129584255
 30
0.0
 10
187.2938474788531
 20
96.39538639034838
 30
0.0
 10
187.2937477692874
 20
96.03403834767057
 30
0.0
 10
187.3022361404359
 20
95.87038833772445
 30
0.0
 10
187.3363795199566
 20
95.57717706475546
 30
0.0
 10
187.3621765018103
 20
95.44718099863967
 30
0.0
 10
187.4655776331983
 20
95.11312510607772
 30
0.0
 10
187.5674356253697
 20
94.96734894171294
 30
0.0
 10
187.7027412616254
 20
94.89598563576511
 30
0.0
  0
SPLINE
  5
168
330
1F
100
AcDbEntity
  8
0
  6
HIDDEN
 62
     7
370
     0
100
AcDbSpline
210
0.0
220
0.0
230
1.0
 70
     8
 71
     3
 72
    18
 73
    14
 74
     0
 42
0.00000001
 43
0.00000001
 12
1.0
 22
0.0
 32
0.0
 13
1.0
 23
0.0
 33
0.0
 40
0.0
 40
0.0
 40
0.0
 40
0.0
 40
0.2499999999999996
 40
0.2499999999999996
 40
0.3749999999999996
 40
0.3749999999999996
 40
0.4999999999999996
 40
0.4999999999999996
 40
0.6249999999999996
 40
0.6249999999999996
 40
0.7499999999999996
 40
0.7499999999999996
 40
1.0
 40
1.0
 40
1.0
 40
1.0
 10
187.7027412616254
 20
129.4898053717748
 30
0.0
 10
187.567455655323
 20
129.4184526300852
 30
0.0
 10
187.4662879090801
 20
129.2730492234958
 30
0.0
 10
187.3634265662112
 20
128.9435819878901
 30
0.0
 10
187.3373237206879
 20
128.8146484110854
 30
0.0
 10
187.302433737143
 20
128.5191064117493
 30
0.0
 10
187.2938474788531
 20
128.3547116382273
 30
0.0
 10
187.2937477692874
 20
127.9937500234868
 30
0.0
 10
187.302236140436
 20
127.7971802313245
 30
0.0
 10
187.3363795199566
 20
127.3718254351996
 30
0.0
 10
187.3621765018103
 20
127.1420557854
 30
0.0
 10
187.4655776331983
 20
126.4094670909676
 30
0.0
 10
187.5674356253697
 20
125.87223031605
 30
0.0
 10
187.7027412616254
 20
125.2879422273023
 30
0.0
  0
LINE
  5
169
330
1F
100
AcDbEntity
  8
0
  6
HIDDEN
 62
     7
370
     0
100
AcDbLine
 10
160.5240615903
 20
100.1433229615
 30
0.0
 11
160.5240615903
 21
95.3335447778
 31
0.0
  0
LINE
  5
16A
330
1F
100
AcDbEntity
  8
0
  6
HIDDEN
 62
     7
370
     0
100
AcDbLine
 10
159.0240622757
 20
100.5763358046
 30
0.0
 11
159.0240622757
 21
96.199570464
 31
0.0
  0
LINE
  5
16B
330
1F
100
AcDbEntity
  8
0
  6
HIDDEN
 62
     7
370
     0
100
AcDbLine
 10
246.8220188169
 20
144.951924922
 30
0.0
 11
245.9133758096
 21
143.880516531
 31
0.0
  0
LINE
  5
16C
330
1F
100
AcDbEntity
  8
0
  6
HIDDEN
 62
     7
370
     0
100
AcDbLine
 10
245.996703103
 20
143.5149575193
 30
0.0
 11
247.0379440932
 21
144.7427126188
 31
0.0
  0
LWPOLYLINE
  5
16D
330
1F
100
AcDbEntity
  8
0
  6
HIDDEN
 62
     7
370
     0
100
AcDbPolyline
 90
       24
 70
   128
 43
0.0
 10
231.3084646015
 20
122.9706660454
 10
230.9968142657
 20
123.2996380497
 10
230.6923276632
 20
123.5195400734
 10
230.4081550686
 20
123.6208782141
 10
230.1565601377
 20
123.5992771183
 10
229.9484095423
 20
123.4556709026
 10
229.7926849572
 20
123.1962575187
 10
229.6961105315
 20
122.8322361205
 10
229.6628511398
 20
122.3793218453
 10
229.6943484692
 20
121.8570668791
 10
229.7892390637
 20
121.2880166788
 10
229.9434325545
 20
120.69673674
 10
230.1502643971
 20
120.1087518205
 10
230.4008087961
 20
119.5494469796
 10
230.6842475085
 20
119.0429658238
 10
230.9883504061
 20
118.6111730133
 10
231.2999858408
 20
118.2727094349
 10
231.6057017891
 20
118.0421861429
 10
231.8922995476
 20
117.9295552504
 10
232.1474074273
 20
117.9396782611
 10
232.3600097446
 20
118.0721188505
 10
232.5209311096
 20
118.3211591635
 10
232.6232275812
 20
118.6760480125
 10
232.6624772398
 20
119.1214656067
  0
SPLINE
  5
16E
330
1F
100
AcDbEntity
  8
0
  6
HIDDEN
 62
     7
370
     0
100
AcDbSpline
210
0.0
220
0.0
230
1.0
 70
     8
 71
     3
 72
    36
 73
    32
 74
     0
 42
0.00000001
 43
0.00000001
 12
1.0
 22
0.0
 32
0.0
 13
1.0
 23
0.0
 33
0.0
 40
0.0
 40
0.0
 40
0.0
 40
0.0
 40
0.0625000000000001
 40
0.0625000000000001
 40
0.1250000000000002
 40
0.1250000000000002
 40
0.1875000000000002
 40
0.1875000000000002
 40
0.2500000000000003
 40
0.2500000000000003
 40
0.3125000000000004
 40
0.3125000000000004
 40
0.3750000000000005
 40
0.3750000000000005
 40
0.4375000000000006
 40
0.4375000000000006
 40
0.5000000000000007
 40
0.5000000000000007
 40
0.6250000000000001
 40
0.6250000000000001
 40
0.6875000000000001
 40
0.6875000000000001
 40
0.7500000000000001
 40
0.7500000000000001
 40
0.8125000000000001
 40
0.8125000000000001
 40
0.875
 40
0.875
 40
0.9375
 40
0.9375
 40
1.0
 40
1.0
 40
1.0
 40
1.0
 10
237.5802312930116
 20
122.0357475819993
 30
0.0
 10
237.5704388882255
 20
122.2505547002975
 30
0.0
 10
237.5677529691495
 20
122.4716385000756
 30
0.0
 10
237.5764763586074
 20
122.9257479181298
 30
0.0
 10
237.5881283833383
 20
123.1614566065586
 30
0.0
 10
237.6252635708581
 20
123.6312888473681
 30
0.0
 10
237.6504846496255
 20
123.864513464799
 30
0.0
 10
237.7135668705158
 20
124.3275650288185
 30
0.0
 10
237.7518885132331
 20
124.5589493184666
 30
0.0
 10
237.8364709837262
 20
124.9941472497116
 30
0.0
 10
237.883038009332
 20
125.200903554031
 30
0.0
 10
237.9832709341881
 20
125.5898849816915
 30
0.0
 10
238.0353496028788
 20
125.7656013328249
 30
0.0
 10
238.1383726769127
 20
126.0691035263825
 30
0.0
 10
238.1904710839883
 20
126.1995943343686
 30
0.0
 10
238.2861614302118
 20
126.3965777134143
 30
0.0
 10
238.3308128482613
 20
126.4658375338406
 30
0.0
 10
238.4494549555477
 20
126.5800046123887
 30
0.0
 10
238.5065259919276
 20
126.5304090175694
 30
0.0
 10
238.5646236453875
 20
126.3118149266671
 30
0.0
 10
238.579716180475
 20
126.2143740434704
 30
0.0
 10
238.6030094190865
 20
125.9823360394607
 30
0.0
 10
238.611448940513
 20
125.8460312785118
 30
0.0
 10
238.6237120598311
 20
125.5397688799836
 30
0.0
 10
238.6274958956681
 20
125.3720372544964
 30
0.0
 10
238.6320734975
 20
125.0080925677554
 30
0.0
 10
238.632844796641
 20
124.8096118189794
 30
0.0
 10
238.6321964483133
 20
124.3963409639361
 30
0.0
 10
238.6308143974326
 20
124.1810747180114
 30
0.0
 10
238.6261000428474
 20
123.7321552915574
 30
0.0
 10
238.6227370388215
 20
123.4970843482277
 30
0.0
 10
238.6180887125396
 20
123.2595120340125
 30
0.0
  0
ELLIPSE
  5
16F
330
1F
100
AcDbEntity
  8
0
  6
HIDDEN
 62
     7
370
     0
100
AcDbEllipse
 10
238.0922283836
 20
123.236147417
 30
0.0
 11
0.06832276206969823
 21
3.202014811276755
 31
0.0
210
0.0
220
0.0
230
1.0
 40
0.1640071468
 41
1.958570267108332
 42
4.72318532545793
  0
SPLINE
  5
170
330
1F
100
AcDbEntity
  8
0
  6
HIDDEN
 62
     7
370
     0
100
AcDbSpline
210
0.0
220
0.0
230
1.0
 70
     8
 71
     3
 72
     8
 73
     4
 74
     0
 42
0.00000001
 43
0.00000001
 12
1.0
 22
0.0
 32
0.0
 13
1.0
 23
0.0
 33
0.0
 40
0.0
 40
0.0
 40
0.0
 40
0.0
 40
1.0
 40
1.0
 40
1.0
 40
1.0
 10
224.065264647141
 20
133.0239614238025
 30
0.0
 10
223.6700547722102
 20
133.4351211960843
 30
0.0
 10
223.3203082832677
 20
133.8865712165853
 30
0.0
 10
223.0342779414466
 20
134.3658793009209
 30
0.0
  0
SPLINE
  5
171
330
1F
100
AcDbEntity
  8
0
  6
HIDDEN
 62
     7
370
     0
100
AcDbSpline
210
0.0
220
0.0
230
1.0
 70
     8
 71
     3
 72
     8
 73
     4
 74
     0
 42
0.00000001
 43
0.00000001
 12
1.0
 22
0.0
 32
0.0
 13
1.0
 23
0.0
 33
0.0
 40
0.0
 40
0.0
 40
0.0
 40
0.0
 40
1.0
 40
1.0
 40
1.0
 40
1.0
 10
223.0342779414466
 20
134.3658793009209
 30
0.0
 10
222.6306785228001
 20
135.0422007812185
 30
0.0
 10
222.3429349743587
 20
135.7213991151439
 30
0.0
 10
222.2226604434951
 20
136.4047559250266
 30
0.0
  0
SPLINE
  5
172
330
1F
100
AcDbEntity
  8
0
  6
HIDDEN
 62
     7
370
     0
100
AcDbSpline
210
0.0
220
0.0
230
1.0
 70
     8
 71
     3
 72
     8
 73
     4
 74
     0
 42
0.00000001
 43
0.00000001
 12
1.0
 22
0.0
 32
0.0
 13
1.0
 23
0.0
 33
0.0
 40
0.0
 40
0.0
 40
0.0
 40
0.0
 40
1.0
 40
1.0
 40
1.0
 40
1.0
 10
232.0338955761378
 20
118.6361667505101
 30
0.0
 10
232.0939962092416
 20
118.6145340440995
 30
0.0
 10
232.154211203585
 20
118.593161626195
 30
0.0
 10
232.2145228726374
 20
118.5720115358212
 30
0.0
  0
LINE
  5
173
330
1F
100
AcDbEntity
  8
0
  6
HIDDEN
 62
     7
370
     0
100
AcDbLine
 10
159.0240622757
 20
123.8094552029
 30
0.0
 11
159.0240622757
 21
114.5320665166
 31
0.0
  0
LINE
  5
174
330
1F
100
AcDbEntity
  8
0
  6
HIDDEN
 62
     7
370
     0
100
AcDbLine
 10
159.0240622757
 20
109.8537244909
 30
0.0
 11
159.0240622757
 21
100.5763358046
 31
0.0
  0
SPLINE
  5
175
330
1F
100
AcDbEntity
  8
0
  6
HIDDEN
 62
     7
370
     0
100
AcDbSpline
210
0.0
220
0.0
230
1.0
 70
     8
 71
     3
 72
     8
 73
     4
 74
     0
 42
0.00000001
 43
0.00000001
 12
1.0
 22
0.0
 32
0.0
 13
1.0
 23
0.0
 33
0.0
 40
0.0
 40
0.0
 40
0.0
 40
0.0
 40
1.0
 40
1.0
 40
1.0
 40
1.0
 10
224.065264647141
 20
133.0239614238025
 30
0.0
 10
224.0598356410983
 20
132.8289976248771
 30
0.0
 10
224.054408910858
 20
132.6324566754301
 30
0.0
 10
224.0489845005534
 20
132.4343318507246
 30
0.0
  0
ELLIPSE
  5
176
330
1F
100
AcDbEntity
  8
0
  6
HIDDEN
 62
     7
370
     0
100
AcDbEllipse
 10
281.9670248808
 20
114.1928955038
 30
0.0
 11
35.66439488933668
 21
-32.32040605152867
 31
0.0
210
0.0
220
0.0
230
1.0
 40
0.1868161121
 41
3.390182333751451
 42
3.414923008104784
  0
ELLIPSE
  5
177
330
1F
100
AcDbEntity
  8
0
  6
HIDDEN
 62
     7
370
     0
100
AcDbEllipse
 10
189.3770295945
 20
114.1928955038
 30
0.0
 11
59.94144337283692
 21
32.87735675263519
 31
0.0
210
0.0
220
0.0
230
1.0
 40
0.0474201264
 41
5.562822380048983
 42
5.917539780339313
  0
ELLIPSE
  5
178
330
1F
100
AcDbEntity
  8
0
  6
HIDDEN
 62
     7
370
     0
100
AcDbEllipse
 10
231.9879830961
 20
114.1928955038
 30
0.0
 11
17.03508577529888
 21
32.98618671038946
 31
0.0
210
0.0
220
0.0
230
1.0
 40
0.0560442098
 41
0.5055622156362966
 42
1.014045666751703
  0
SPLINE
  5
179
330
1F
100
AcDbEntity
  8
0
  6
HIDDEN
 62
     7
370
     0
100
AcDbSpline
210
0.0
220
0.0
230
1.0
 70
     8
 71
     3
 72
    16
 73
    12
 74
     0
 42
0.00000001
 43
0.00000001
 12
1.0
 22
0.0
 32
0.0
 13
1.0
 23
0.0
 33
0.0
 40
0.0
 40
0.0
 40
0.0
 40
0.0
 40
0.2500000000000003
 40
0.2500000000000003
 40
0.5000000000000007
 40
0.5000000000000007
 40
0.750000000000001
 40
0.750000000000001
 40
0.8750000000000004
 40
0.8750000000000004
 40
1.0
 40
1.0
 40
1.0
 40
1.0
 10
224.065264647141
 20
133.0239614238025
 30
0.0
 10
225.1112093804869
 20
133.1278774425317
 30
0.0
 10
226.1414884196661
 20
133.3009333057927
 30
0.0
 10
228.1721647921473
 20
133.7734411029434
 30
0.0
 10
229.1788365332234
 20
134.0760917183956
 30
0.0
 10
231.1006792976771
 20
134.775967707725
 30
0.0
 10
232.022657126897
 20
135.1740175473418
 30
0.0
 10
233.3511815576218
 20
135.8291371511882
 30
0.0
 10
233.7849191871314
 20
136.0572104471132
 30
0.0
 10
234.6345664922234
 20
136.5305827598171
 30
0.0
 10
235.0509507395128
 20
136.7762253206892
 30
0.0
 10
235.4554406107292
 20
137.0273804590866
 30
0.0
  0
LINE
  5
17A
330
1F
100
AcDbEntity
  8
0
  6
HIDDEN
 62
     7
370
     0
100
AcDbLine
 10
160.5240615903
 20
109.0444184449
 30
0.0
 11
160.5240615903
 21
100.1433229615
 31
0.0
  0
LINE
  5
17B
330
1F
100
AcDbEntity
  8
0
  6
HIDDEN
 62
     7
370
     0
100
AcDbLine
 10
160.5240615903
 20
124.2424680461
 30
0.0
 11
160.5240615903
 21
115.3413725626
 31
0.0
  0
LINE
  5
17C
330
1F
100
AcDbEntity
  8
0
  6
HIDDEN
 62
     7
370
     0
100
AcDbLine
 10
186.8240616171
 20
124.5728416909
 30
0.0
 11
186.8240616171
 21
99.8129493166
 31
0.0
  0
LINE
  5
17D
330
1F
100
AcDbEntity
  8
0
  6
HIDDEN
 62
     7
370
     0
100
AcDbLine
 10
188.8240616102
 20
123.7551693414
 30
0.0
 11
188.8240616102
 21
100.6306216661
 31
0.0
  0
SPLINE
  5
17E
330
1F
100
AcDbEntity
  8
0
  6
HIDDEN
 62
     7
370
     0
100
AcDbSpline
210
0.0
220
0.0
230
1.0
 70
     8
 71
     3
 72
     8
 73
     4
 74
     0
 42
0.00000001
 43
0.00000001
 12
1.0
 22
0.0
 32
0.0
 13
1.0
 23
0.0
 33
0.0
 40
0.0000202085968836
 40
0.0000202085968836
 40
0.0000202085968836
 40
0.0000202085968836
 40
0.0040218806502652
 40
0.0040218806502652
 40
0.0040218806502652
 40
0.0040218806502652
 10
160.524061605185
 20
109.0444183854332
 30
0.0
 10
161.8573847309756
 20
109.0204201542696
 30
0.0
 10
163.1907186041982
 20
108.9970924141013
 30
0.0
 10
164.524061605185
 20
108.9743977433209
 30
0.0
  0
SPLINE
  5
17F
330
1F
100
AcDbEntity
  8
0
  6
HIDDEN
 62
     7
370
     0
100
AcDbSpline
210
0.0
220
0.0
230
1.0
 70
     8
 71
     3
 72
     8
 73
     4
 74
     0
 42
0.00000001
 43
0.00000001
 12
1.0
 22
0.0
 32
0.0
 13
1.0
 23
0.0
 33
0.0
 40
0.0000202082942178
 40
0.0000202082942178
 40
0.0000202082942178
 40
0.0000202082942178
 40
0.0040218803475994
 40
0.0040218803475994
 40
0.0040218803475994
 40
0.0040218803475994
 10
164.524061605185
 20
115.411393264219
 30
0.0
 10
163.1907186041982
 20
115.3886985934386
 30
0.0
 10
161.8573847309756
 20
115.3653708532703
 30
0.0
 10
160.524061605185
 20
115.3413726221066
 30
0.0
  0
SPLINE
  5
180
330
1F
100
AcDbEntity
  8
0
  6
HIDDEN
 62
     7
370
     0
100
AcDbSpline
210
0.0
220
0.0
230
1.0
 70
     8
 71
     3
 72
     8
 73
     4
 74
     0
 42
0.00000001
 43
0.00000001
 12
1.0
 22
0.0
 32
0.0
 13
1.0
 23
0.0
 33
0.0
 40
0.0
 40
0.0
 40
0.0
 40
0.0
 40
1.0
 40
1.0
 40
1.0
 40
1.0
 10
159.0240616051841
 20
109.8537245755355
 30
0.0
 10
159.4982730156221
 20
109.5189953482404
 30
0.0
 10
160.0030093627239
 20
109.2599369344075
 30
0.0
 10
160.524061605185
 20
109.0444183854332
 30
0.0
  0
SPLINE
  5
181
330
1F
100
AcDbEntity
  8
0
  6
HIDDEN
 62
     7
370
     0
100
AcDbSpline
210
0.0
220
0.0
230
1.0
 70
     8
 71
     3
 72
     8
 73
     4
 74
     0
 42
0.00000001
 43
0.00000001
 12
1.0
 22
0.0
 32
0.0
 13
1.0
 23
0.0
 33
0.0
 40
0.0
 40
0.0
 40
0.0
 40
0.0
 40
1.0
 40
1.0
 40
1.0
 40
1.0
 10
160.524061605185
 20
115.3413726221067
 30
0.0
 10
160.0030093627243
 20
115.1258540731325
 30
0.0
 10
159.4982730156227
 20
114.8667956592998
 30
0.0
 10
159.024061605185
 20
114.532066432005
 30
0.0
  0
LINE
  5
182
330
1F
100
AcDbEntity
  8
0
  6
HIDDEN
 62
     7
370
     0
100
AcDbLine
 10
159.0240622757
 20
109.8537244909
 30
0.0
 11
159.0240622757
 21
114.5320665166
 31
0.0
  0
LINE
  5
183
330
1F
100
AcDbEntity
  8
0
  6
HIDDEN
 62
     7
370
     0
100
AcDbLine
 10
164.5240622459
 20
108.9743976556
 30
0.0
 11
164.5240622459
 21
115.4113933519
 31
0.0
  0
SPLINE
  5
184
330
1F
100
AcDbEntity
  8
0
  6
HIDDEN
 62
     7
370
     0
100
AcDbSpline
210
0.0
220
0.0
230
1.0
 70
     8
 71
     3
 72
    26
 73
    22
 74
     0
 42
0.00000001
 43
0.00000001
 12
1.0
 22
0.0
 32
0.0
 13
1.0
 23
0.0
 33
0.0
 40
0.0
 40
0.0
 40
0.0
 40
0.0
 40
0.1250000000000001
 40
0.1250000000000001
 40
0.2500000000000003
 40
0.2500000000000003
 40
0.3750000000000006
 40
0.3750000000000006
 40
0.4375000000000007
 40
0.4375000000000007
 40
0.5000000000000008
 40
0.5000000000000008
 40
0.5625000000000009
 40
0.5625000000000009
 40
0.6250000000000009
 40
0.6250000000000009
 40
0.7500000000000006
 40
0.7500000000000006
 40
0.8750000000000003
 40
0.8750000000000003
 40
1.0
 40
1.0
 40
1.0
 40
1.0
 10
164.524061605185
 20
108.9743977433208
 30
0.0
 10
164.7347049671849
 20
109.2090147742659
 30
0.0
 10
164.941901404942
 20
109.4468979102254
 30
0.0
 10
165.3434005395743
 20
109.9342122164942
 30
0.0
 10
165.5386769586203
 20
110.1843374412832
 30
0.0
 10
165.8984574513157
 20
110.7029275867342
 30
0.0
 10
166.0637163114651
 20
110.970358570621
 30
0.0
 10
166.2563742208913
 20
111.4017737030195
 30
0.0
 10
166.3113389611013
 20
111.5517925849439
 30
0.0
 10
166.3890747460655
 20
111.8645297636739
 30
0.0
 10
166.4103408843738
 20
112.0222840104812
 30
0.0
 10
166.4122348136596
 20
112.340989290327
 30
0.0
 10
166.3920090765925
 20
112.5034260905075
 30
0.0
 10
166.3175446663067
 20
112.8143780900902
 30
0.0
 10
166.2639055405607
 20
112.9650493284178
 30
0.0
 10
166.0691612351601
 20
113.4071330863864
 30
0.0
 10
165.9021111219818
 20
113.6771770995542
 30
0.0
 10
165.5418550032782
 20
114.1972847278356
 30
0.0
 10
165.3471026282578
 20
114.4469459406452
 30
0.0
 10
164.9440934037855
 20
114.936370052488
 30
0.0
 10
164.735656885422
 20
115.1757159756519
 30
0.0
 10
164.5240616051859
 20
115.4113932642198
 30
0.0
  0
SPLINE
  5
185
330
1F
100
AcDbEntity
  8
0
  6
HIDDEN
 62
     7
370
     0
100
AcDbSpline
210
0.0
220
0.0
230
1.0
 70
     8
 71
     3
 72
    68
 73
    64
 74
     0
 42
0.00000001
 43
0.00000001
 12
1.0
 22
0.0
 32
0.0
 13
1.0
 23
0.0
 33
0.0
 40
-0.03125
 40
-0.03125
 40
0.0
 40
0.0
 40
0.0312500000000001
 40
0.0312500000000001
 40
0.0625000000000002
 40
0.0625000000000002
 40
0.0937500000000002
 40
0.0937500000000002
 40
0.1250000000000003
 40
0.1250000000000003
 40
0.1875000000000002
 40
0.1875000000000002
 40
0.2187500000000001
 40
0.2187500000000001
 40
0.2500000000000001
 40
0.2500000000000001
 40
0.2812500000000001
 40
0.2812500000000001
 40
0.3125000000000001
 40
0.3125000000000001
 40
0.34375
 40
0.34375
 40
0.3749999999999999
 40
0.3749999999999999
 40
0.4062499999999999
 40
0.4062499999999999
 40
0.4374999999999999
 40
0.4374999999999999
 40
0.4687499999999999
 40
0.4687499999999999
 40
0.4999999999999998
 40
0.4999999999999998
 40
0.5312499999999999
 40
0.5312499999999999
 40
0.5624999999999998
 40
0.5624999999999998
 40
0.5937499999999998
 40
0.5937499999999998
 40
0.6249999999999998
 40
0.6249999999999998
 40
0.6562499999999997
 40
0.6562499999999997
 40
0.6874999999999997
 40
0.6874999999999997
 40
0.7187499999999997
 40
0.7187499999999997
 40
0.7499999999999996
 40
0.7499999999999996
 40
0.7812499999999996
 40
0.7812499999999996
 40
0.8124999999999997
 40
0.8124999999999997
 40
0.8437499999999998
 40
0.8437499999999998
 40
0.8749999999999998
 40
0.8749999999999998
 40
0.9062499999999999
 40
0.9062499999999999
 40
0.9375
 40
0.9375
 40
0.96875
 40
0.96875
 40
1.0
 40
1.0
 40
1.03125
 40
1.03125
 10
172.4078878925215
 20
114.0897130803865
 30
0.0
 10
172.6983523748133
 20
114.4081453213871
 30
0.0
 10
172.8572686731948
 20
114.5506628470907
 30
0.0
 10
173.2008493588326
 20
114.8043773841805
 30
0.0
 10
173.3870207117383
 20
114.9159412106894
 30
0.0
 10
173.771550784324
 20
115.1001902473585
 30
0.0
 10
173.9711612864887
 20
115.1741045134473
 30
0.0
 10
174.3850008714623
 20
115.2857464030074
 30
0.0
 10
174.5978106811335
 20
115.3226704572963
 30
0.0
 10
175.2337421554742
 20
115.3752722778717
 30
0.0
 10
175.668808376102
 20
115.3330638872115
 30
0.0
 10
176.2810512430896
 20
115.1592292820161
 30
0.0
 10
176.4808963312017
 20
115.0826110542041
 30
0.0
 10
176.8652736399298
 20
114.8924361858611
 30
0.0
 10
177.0458220307923
 20
114.7810767516426
 30
0.0
 10
177.3838819585019
 20
114.5259714829203
 30
0.0
 10
177.5429137749132
 20
114.3804656947275
 30
0.0
 10
177.8277104551355
 20
114.0622270405547
 30
0.0
 10
177.9526559840104
 20
113.8911747220356
 30
0.0
 10
178.1669581244241
 20
113.5246141359224
 30
0.0
 10
178.2568569035989
 20
113.3265454021198
 30
0.0
 10
178.3905091927279
 20
112.9219626489104
 30
0.0
 10
178.4355171280419
 20
112.7143474688933
 30
0.0
 10
178.4802966086593
 20
112.2880577124644
 30
0.0
 10
178.4792229476435
 20
112.0714194145161
 30
0.0
 10
178.431203153928
 20
111.6484593875587
 30
0.0
 10
178.3837901767032
 20
111.4374627022994
 30
0.0
 10
178.2454749278865
 20
111.0316739868676
 30
0.0
 10
178.1557940696643
 20
110.838727328205
 30
0.0
 10
177.9371113593371
 20
110.4718207052216
 30
0.0
 10
177.8076636415085
 20
110.2983155569995
 30
0.0
 10
177.521158037479
 20
109.9843134590089
 30
0.0
 10
177.362299219241
 20
109.8412105325545
 30
0.0
 10
177.0173013972881
 20
109.5858796167015
 30
0.0
 10
176.8350842931677
 20
109.476347439101
 30
0.0
 10
176.4522442165287
 20
109.2914206123128
 30
0.0
 10
176.2494999914555
 20
109.2156047854713
 30
0.0
 10
175.8376714169922
 20
109.1030242932293
 30
0.0
 10
175.6284526403927
 20
109.0656840736445
 30
0.0
 10
175.2034598061582
 20
109.0284530541145
 30
0.0
 10
174.9863025290851
 20
109.0290190180461
 30
0.0
 10
174.5619246899319
 20
109.0684167219355
 30
0.0
 10
174.3528080420822
 20
109.1068459565697
 30
0.0
 10
173.9408670531882
 20
109.2220509911071
 30
0.0
 10
173.7382989482951
 20
109.2993159216116
 30
0.0
 10
173.3566985058278
 20
109.4869981917434
 30
0.0
 10
173.1753875699486
 20
109.5979115435554
 30
0.0
 10
172.8327956730145
 20
109.8558649822863
 30
0.0
 10
172.6739720560604
 20
110.0015806778957
 30
0.0
 10
172.39092727696
 20
110.3179018356051
 30
0.0
 10
172.2649173449742
 20
110.4899355470043
 30
0.0
 10
172.0478103011593
 20
110.8624781249933
 30
0.0
 10
171.9603750048854
 20
111.0565999102673
 30
0.0
 10
171.8271817243379
 20
111.4603746393469
 30
0.0
 10
171.7812811422332
 20
111.6728715659545
 30
0.0
 10
171.7369646012994
 20
112.0984674268126
 30
0.0
 10
171.7378067887818
 20
112.3113012650818
 30
0.0
 10
171.7856454832028
 20
112.7370409949117
 30
0.0
 10
171.833181338672
 20
112.9488031603248
 30
0.0
 10
171.9699199338999
 20
113.3522926947821
 30
0.0
 10
172.0602034791755
 20
113.5480513157352
 30
0.0
 10
172.2799143714405
 20
113.9176515424833
 30
0.0
 10
172.4078878925215
 20
114.0897130803865
 30
0.0
 10
172.6983523748133
 20
114.4081453213871
 30
0.0
  0
CIRCLE
  5
186
330
1F
100
AcDbEntity
  8
0
  6
HIDDEN
 62
     7
370
     0
100
AcDbCircle
 10
175.0240616052
 20
112.1928955038
 30
0.0
 40
3.049999999999997
  0
CIRCLE
  5
187
330
1F
100
AcDbEntity
  8
0
  6
HIDDEN
 62
     7
370
     0
100
AcDbCircle
 10
201.0240616052
 20
112.1928955038
 30
0.0
 40
2.0
  0
LINE
  5
188
330
1F
100
AcDbEntity
  8
0
  6
HIDDEN
 62
     7
370
     0
100
AcDbLine
 10
224.0489839463
 20
132.434331121
 30
0.0
 11
239.4203512816
 21
132.434331121
 31
0.0
  0
SPLINE
  5
189
330
1F
100
AcDbEntity
  8
0
  6
HIDDEN
 62
     7
370
     0
100
AcDbSpline
210
0.0
220
0.0
230
1.0
 70
     8
 71
     3
 72
     8
 73
     4
 74
     0
 42
0.00000001
 43
0.00000001
 12
1.0
 22
0.0
 32
0.0
 13
1.0
 23
0.0
 33
0.0
 40
0.0
 40
0.0
 40
0.0
 40
0.0
 40
1.0
 40
1.0
 40
1.0
 40
1.0
 10
224.0489845005534
 20
132.4343318507246
 30
0.0
 10
223.1271968937974
 20
126.9010473509023
 30
0.0
 10
222.428661475873
 20
121.3377756200758
 30
0.0
 10
222.2226604434951
 20
115.7083466772008
 30
0.0
  0
LINE
  5
18A
330
1F
100
AcDbEntity
  8
0
  6
HIDDEN
 62
     7
370
     0
100
AcDbLine
 10
239.0518753676
 20
131.7179801483
 30
0.0
 11
239.4203512816
 21
132.434331121
 31
0.0
  0
ELLIPSE
  5
18B
330
1F
100
AcDbEntity
  8
0
  6
HIDDEN
 62
     7
370
     0
100
AcDbEllipse
 10
262.4216804612
 20
120.1967325997
 30
0.0
 11
-17.45773393909482
 21
-20.58486436131485
 31
-3.552713678800501E-15
210
-8.513597000225241E-17
220
-1.003860180753908E-16
230
1.0
 40
0.9632873408
 41
4.949072221067052
 42
5.397380441352569
  0
LINE
  5
18C
330
1F
100
AcDbEntity
  8
0
  6
HIDDEN
 62
     7
370
     0
100
AcDbLine
 10
235.7271655349
 20
112.1928955038
 30
0.0
 11
236.0205880253
 21
120.1967329328
 31
0.0
  0
LINE
  5
18D
330
1F
100
AcDbEntity
  8
0
  6
HIDDEN
 62
     7
370
     0
100
AcDbLine
 10
189.0240616052
 20
92.6428961177
 30
0.0
 11
189.1169548256
 21
92.7357880939
 31
0.0
  0
LINE
  5
18E
330
1F
100
AcDbEntity
  8
0
  6
HIDDEN
 62
     7
370
     0
100
AcDbLine
 10
189.1169548256
 20
131.6500029136
 30
0.0
 11
189.0240616052
 21
131.7428948898
 31
0.0
  0
ARC
  5
18F
330
1F
100
AcDbEntity
  8
0
  6
HIDDEN
 62
     7
370
     0
100
AcDbCircle
 10
188.4098480428
 20
93.4428955038
 30
0.0
 40
1.0
100
AcDbArc
 50
315.0
 51
0.0
  0
ARC
  5
190
330
1F
100
AcDbEntity
  8
0
  6
HIDDEN
 62
     7
370
     0
100
AcDbCircle
 10
188.4098480428
 20
93.4428955038
 30
0.0
 40
1.0
100
AcDbArc
 50
0.0
 51
52.1052014664
  0
ARC
  5
191
330
1F
100
AcDbEntity
  8
0
  6
HIDDEN
 62
     7
370
     0
100
AcDbCircle
 10
188.4098480428
 20
130.9428955038
 30
0.0
 40
0.999999999999988
100
AcDbArc
 50
351.8087250651
 51
45.0
  0
ARC
  5
192
330
1F
100
AcDbEntity
  8
0
  6
HIDDEN
 62
     7
370
     0
100
AcDbCircle
 10
188.4098480428
 20
130.9428955038
 30
0.0
 40
0.9999999999999989
100
AcDbArc
 50
307.8947985336
 51
351.8087250651
  0
LINE
  5
193
330
1F
100
AcDbEntity
  8
0
  6
HIDDEN
 62
     7
370
     0
100
AcDbLine
 10
189.409848041
 20
93.4428947587
 30
0.0
 11
189.409848041
 21
130.9428962488
 31
0.0
  0
LINE
  5
194
330
1F
100
AcDbEntity
  8
0
  6
HIDDEN
 62
     7
370
     0
100
AcDbLine
 10
189.409848041
 20
93.4428947587
 30
0.0
 11
189.409848041
 21
130.9428962488
 31
0.0
  0
ARC
  5
195
330
1F
100
AcDbEntity
  8
0
  6
HIDDEN
 62
     7
370
     0
100
AcDbCircle
 10
166.5307811172
 20
101.6928955038
 30
0.0
 40
1.500000000000002
100
AcDbArc
 50
270.0
 51
315.0
  0
ARC
  5
196
330
1F
100
AcDbEntity
  8
0
  6
HIDDEN
 62
     7
370
     0
100
AcDbCircle
 10
166.5307811172
 20
122.6928955038
 30
0.0
 40
1.500000000000014
100
AcDbArc
 50
45.0
 51
90.0
  0
LINE
  5
197
330
1F
100
AcDbEntity
  8
0
  6
HIDDEN
 62
     7
370
     0
100
AcDbLine
 10
165.5240624098
 20
100.1928953995
 30
0.0
 11
166.5307811348
 21
100.1928953995
 31
0.0
  0
LINE
  5
198
330
1F
100
AcDbEntity
  8
0
  6
HIDDEN
 62
     7
370
     0
100
AcDbLine
 10
166.5307811348
 20
124.1928956081
 30
0.0
 11
165.5240624098
 21
124.1928956081
 31
0.0
  0
ARC
  5
199
330
1F
100
AcDbEntity
  8
0
  6
HIDDEN
 62
     7
370
     0
100
AcDbCircle
 10
165.5240616052
 20
101.6928955038
 30
0.0
 40
1.50000000000002
100
AcDbArc
 50
191.0958032831
 51
270.0
  0
ARC
  5
19A
330
1F
100
AcDbEntity
  8
0
  6
HIDDEN
 62
     7
370
     0
100
AcDbCircle
 10
165.5240616052
 20
122.6928955038
 30
0.0
 40
1.50000000000002
100
AcDbArc
 50
90.0
 51
168.9041967169
  0
LINE
  5
19B
330
1F
100
AcDbEntity
  8
0
  6
HIDDEN
 62
     7
370
     0
100
AcDbLine
 10
159.0240622757
 20
100.4294829984
 30
0.0
 11
160.0521008371
 21
101.0230223258
 31
0.0
  0
LINE
  5
19C
330
1F
100
AcDbEntity
  8
0
  6
HIDDEN
 62
     7
370
     0
100
AcDbLine
 10
160.0521008371
 20
123.3627686818
 30
0.0
 11
159.0240622757
 21
123.9563080092
 31
0.0
  0
LINE
  5
19D
330
1F
100
AcDbEntity
  8
0
  6
HIDDEN
 62
     7
370
     0
100
AcDbLine
 10
167.5914420633
 20
100.6322356482
 30
0.0
 11
168.6521011291
 21
101.6928956453
 31
0.0
  0
LINE
  5
19E
330
1F
100
AcDbEntity
  8
0
  6
HIDDEN
 62
     7
370
     0
100
AcDbLine
 10
168.6521011291
 20
122.6928953622
 30
0.0
 11
167.5914420633
 21
123.7535553594
 31
0.0
  0
LINE
  5
19F
330
1F
100
AcDbEntity
  8
0
  6
HIDDEN
 62
     7
370
     0
100
AcDbLine
 10
160.0521008371
 20
101.0230223258
 30
0.0
 11
162.5521021782
 21
101.6928956453
 31
0.0
  0
LINE
  5
1A0
330
1F
100
AcDbEntity
  8
0
  6
HIDDEN
 62
     7
370
     0
100
AcDbLine
 10
162.5521021782
 20
122.6928953622
 30
0.0
 11
160.0521008371
 21
123.3627686818
 31
0.0
  0
LINE
  5
1A1
330
1F
100
AcDbEntity
  8
0
  6
HIDDEN
 62
     7
370
     0
100
AcDbLine
 10
229.5596754996
 20
110.2492368157
 30
0.0
 11
230.167445436
 21
110.9658725402
 31
0.0
  0
LINE
  5
1A2
330
1F
100
AcDbEntity
  8
0
  6
HIDDEN
 62
     7
370
     0
100
AcDbLine
 10
164.0521014927
 20
122.9815709014
 30
0.0
 11
163.5521023421
 21
122.6928953622
 31
0.0
  0
LINE
  5
1A3
330
1F
100
AcDbEntity
  8
0
  6
HIDDEN
 62
     7
370
     0
100
AcDbLine
 10
163.5521023421
 20
101.6928956453
 30
0.0
 11
164.0521014927
 21
101.4042201061
 31
0.0
  0
LINE
  5
1A4
330
1F
100
AcDbEntity
  8
0
  6
HIDDEN
 62
     7
370
     0
100
AcDbLine
 10
162.5521021782
 20
101.6928956453
 30
0.0
 11
163.5521023421
 21
101.6928956453
 31
0.0
  0
LINE
  5
1A5
330
1F
100
AcDbEntity
  8
0
  6
HIDDEN
 62
     7
370
     0
100
AcDbLine
 10
163.5521023421
 20
122.6928953622
 30
0.0
 11
162.5521021782
 21
122.6928953622
 31
0.0
  0
ARC
  5
1A6
330
1F
100
AcDbEntity
  8
0
  6
HIDDEN
 62
     7
370
     0
100
AcDbCircle
 10
178.5240616052
 20
102.1928955038
 30
0.0
 40
0.5
100
AcDbArc
 50
270.0
 51
0.0
  0
ARC
  5
1A7
330
1F
100
AcDbEntity
  8
0
  6
HIDDEN
 62
     7
370
     0
100
AcDbCircle
 10
178.5240616052
 20
122.1928955038
 30
0.0
 40
0.5
100
AcDbArc
 50
0.0
 51
90.0
  0
LINE
  5
1A8
330
1F
100
AcDbEntity
  8
0
  6
HIDDEN
 62
     7
370
     0
100
AcDbLine
 10
168.6521011291
 20
101.6928956453
 30
0.0
 11
178.5240617467
 21
101.6928956453
 31
0.0
  0
LINE
  5
1A9
330
1F
100
AcDbEntity
  8
0
  6
HIDDEN
 62
     7
370
     0
100
AcDbLine
 10
178.5240617467
 20
122.6928953622
 30
0.0
 11
168.6521011291
 21
122.6928953622
 31
0.0
  0
LINE
  5
1AA
330
1F
100
AcDbEntity
  8
0
  6
HIDDEN
 62
     7
370
     0
100
AcDbLine
 10
228.2235554306
 20
116.233268993
 30
0.0
 11
227.6157854943
 21
115.5166332685
 31
0.0
  0
LINE
  5
1AB
330
1F
100
AcDbEntity
  8
0
  6
HIDDEN
 62
     7
370
     0
100
AcDbLine
 10
225.4301912038
 20
128.9913097937
 30
0.0
 11
224.103518471
 21
127.4269961361
 31
0.0
  0
LINE
  5
1AC
330
1F
100
AcDbEntity
  8
0
  6
HIDDEN
 62
     7
370
     0
100
AcDbLine
 10
179.0240618287
 20
103.9428955485
 30
0.0
 11
180.0240619926
 21
104.9428957124
 31
0.0
  0
LINE
  5
1AD
330
1F
100
AcDbEntity
  8
0
  6
HIDDEN
 62
     7
370
     0
100
AcDbLine
 10
180.0240619926
 20
119.4428952952
 30
0.0
 11
179.0240618287
 21
120.4428954591
 31
0.0
  0
LINE
  5
1AE
330
1F
100
AcDbEntity
  8
0
  6
HIDDEN
 62
     7
370
     0
100
AcDbLine
 10
235.1945011763
 20
121.1519308929
 30
0.0
 11
235.8890964536
 21
121.9709434156
 31
0.0
  0
LINE
  5
1AF
330
1F
100
AcDbEntity
  8
0
  6
HIDDEN
 62
     7
370
     0
100
AcDbLine
 10
231.1606078295
 20
125.9811066632
 30
0.0
 11
230.4660162775
 21
125.1620941405
 31
0.0
  0
LINE
  5
1B0
330
1F
100
AcDbEntity
  8
0
  6
HIDDEN
 62
     7
370
     0
100
AcDbLine
 10
213.0240618138
 20
119.4428952952
 30
0.0
 11
180.0240619926
 21
119.4428952952
 31
0.0
  0
LINE
  5
1B1
330
1F
100
AcDbEntity
  8
0
  6
HIDDEN
 62
     7
370
     0
100
AcDbLine
 10
180.0240619926
 20
104.9428957124
 30
0.0
 11
213.0240618138
 21
104.9428957124
 31
0.0
  0
LINE
  5
1B2
330
1F
100
AcDbEntity
  8
0
  6
HIDDEN
 62
     7
370
     0
100
AcDbLine
 10
213.0240618138
 20
104.9428957124
 30
0.0
 11
217.3803008048
 21
112.1928955038
 31
0.0
  0
LINE
  5
1B3
330
1F
100
AcDbEntity
  8
0
  6
HIDDEN
 62
     7
370
     0
100
AcDbLine
 10
217.3803008048
 20
112.1928955038
 30
0.0
 11
213.0240618138
 21
119.4428952952
 31
0.0
  0
LINE
  5
1B4
330
1F
100
AcDbEntity
  8
0
  6
HIDDEN
 62
     7
370
     0
100
AcDbLine
 10
232.3653294592
 20
118.7436229159
 30
0.0
 11
234.6743053643
 21
121.4661945198
 31
0.0
  0
LINE
  5
1B5
330
1F
100
AcDbEntity
  8
0
  6
HIDDEN
 62
     7
370
     0
100
AcDbLine
 10
230.8610088079
 20
124.700197259
 30
0.0
 11
228.7032163589
 21
122.1558882464
 31
0.0
  0
LINE
  5
1B6
330
1F
100
AcDbEntity
  8
0
  6
HIDDEN
 62
     7
370
     0
100
AcDbLine
 10
215.3365245907
 20
112.494343259
 30
0.0
 11
231.7399724273
 21
118.3249868993
 31
0.0
  0
LINE
  5
1B7
330
1F
100
AcDbEntity
  8
0
  6
HIDDEN
 62
     7
370
     0
100
AcDbLine
 10
230.0653575806
 20
123.0362143908
 30
0.0
 11
213.7208475618
 21
117.2265203279
 31
0.0
  0
LINE
  5
1B8
330
1F
100
AcDbEntity
  8
0
  6
HIDDEN
 62
     7
370
     0
100
AcDbLine
 10
236.0850467233
 20
136.1009592731
 30
0.0
 11
234.2183298318
 21
133.8998640497
 31
0.0
  0
LINE
  5
1B9
330
1F
100
AcDbEntity
  8
0
  6
HIDDEN
 62
     7
370
     0
100
AcDbLine
 10
236.7351061551
 20
131.7654235829
 30
0.0
 11
238.6018230467
 21
133.9665188063
 31
0.0
  0
LINE
  5
1BA
330
1F
100
AcDbEntity
  8
0
  6
HIDDEN
 62
     7
370
     0
100
AcDbLine
 10
232.1676171272
 20
117.9463460651
 30
0.0
 11
238.0566752402
 21
120.039626265
 31
0.0
  0
LINE
  5
1BB
330
1F
100
AcDbEntity
  8
0
  6
HIDDEN
 62
     7
370
     0
100
AcDbLine
 10
238.4025274663
 20
126.5303280745
 30
0.0
 11
230.1580763309
 21
123.5998182167
 31
0.0
  0
LINE
  5
1BC
330
1F
100
AcDbEntity
  8
0
  6
HIDDEN
 62
     7
370
     0
100
AcDbLine
 10
229.6641922443
 20
122.4713588674
 30
0.0
 11
229.6537875085
 21
122.0958309789
 31
0.0
  0
LINE
  5
1BD
330
1F
100
AcDbEntity
  8
0
  6
HIDDEN
 62
     7
370
     0
100
AcDbLine
 10
230.8272055237
 20
118.7946319189
 30
0.0
 11
231.0722960977
 21
118.509919623
 31
0.0
  0
LINE
  5
1BE
330
1F
100
AcDbEntity
  8
VERMASSUNG
  6
CENTERX2
100
AcDbLine
 10
154.5931644579
 20
112.1928955038
 30
0.0
 11
249.0240616052
 21
112.1928955038
 31
0.0
  0
LINE
  5
1BF
330
1F
100
AcDbEntity
  8
VERMASSUNG
  6
CENTERX2
100
AcDbLine
 10
249.0240616052
 20
147.1928955038
 30
0.0
 11
255.189237315
 21
147.1928955038
 31
0.0
  0
LINE
  5
1C0
330
1F
100
AcDbEntity
  8
VERMASSUNG
  6
CENTERX2
100
AcDbLine
 10
249.0240616052
 20
147.1928955038
 30
0.0
 11
249.0240616052
 21
112.1928955038
 31
0.0
  0
LINE
  5
1C1
330
1F
100
AcDbEntity
  8
VERMASSUNG
100
AcDbLine
 10
249.0240616052
 20
147.1928955038
 30
0.0
 11
249.0240616052
 21
154.5066795996
 31
0.0
  0
DIMENSION
  5
1C2
330
1F
100
AcDbEntity
  8
VERMASSUNG
100
AcDbDimension
  2
_D
 10
257.636470302
 20
112.1928955038
 30
0.0
 11
257.636470302
 21
129.6928955038
 31
0.0
 70
   160
  1
<>
 71
     2
 42
-1.0
  3
SLDDIMSTYLE0
100
AcDbAlignedDimension
 13
249.0240616052
 23
147.1928955038
 33
0.0
 14
249.0240616052
 24
112.1928955038
 34
0.0
 50
90.0
100
AcDbRotatedDimension
  0
DIMENSION
  5
1CF
330
1F
100
AcDbEntity
  8
VERMASSUNG
100
AcDbDimension
  2
_D_1
 10
249.0240616052
 20
161.3133197685
 30
0.0
 11
219.0240616052
 21
161.3133197685
 31
0.0
 70
   160
  1
<>
 71
     2
 42
-1.0
  3
SLDDIMSTYLE0
100
AcDbAlignedDimension
 13
189.0240616052
 23
136.8928955038
 33
0.0
 14
249.0240616052
 24
147.1928955038
 34
0.0
100
AcDbRotatedDimension
  0
DIMENSION
  5
1DB
330
1F
100
AcDbEntity
  8
VERMASSUNG
100
AcDbDimension
  2
_D_2
 10
249.0240616052
 20
167.3133197685
 30
0.0
 11
204.0240616052
 21
167.3133197685
 31
0.0
 70
   160
  1
<>
 71
     2
 42
-1.0
  3
SLDDIMSTYLE1
100
AcDbAlignedDimension
 13
159.0240616052
 23
128.1862213419
 33
0.0
 14
249.0240616052
 24
147.1928955038
 34
0.0
100
AcDbRotatedDimension
  0
DIMENSION
  5
1E6
330
1F
100
AcDbEntity
  8
VERMASSUNG
100
AcDbDimension
  2
_D_3
 10
235.3750344319
 20
140.3437329512
 30
0.0
 11
241.2822839072
 21
152.151216648
 31
0.0
 70
   162
  1
<>
 71
     1
 42
-1.0
  3
SLDDIMSTYLE2
100
AcDb2LineAngularDimension
 13
249.0240616052
 23
154.5066795996
 33
0.0
 14
249.0240616052
 24
147.1928955038
 34
0.0
 15
248.4372765297
 25
147.1495991978
 35
0.0
 16
241.2822839072
 26
152.151216648
 36
0.0
  0
DIMENSION
  5
1F0
330
1F
100
AcDbEntity
  8
VERMASSUNG
100
AcDbDimension
  2
_D_4
 10
149.0240616052
 20
87.1928955038
 30
0.0
 11
149.0240616052
 21
112.1928955038
 31
0.0
 70
   160
  1
PSC%%c<>
 71
     2
 42
-1.0
  3
SLDDIMSTYLE1
100
AcDbAlignedDimension
 13
189.3240616052
 23
137.1928955038
 33
0.0
 14
189.3240616052
 24
87.1928955038
 34
0.0
 50
90.0
100
AcDbRotatedDimension
  0
ARC
  5
1FC
330
1F
100
AcDbEntity
  8
0
  6
Continuous
 62
     7
370
    15
100
AcDbCircle
 10
95.6429805824
 20
121.7273575534
 30
0.0
 40
2.500000000000016
100
AcDbArc
 50
329.3713330904
 51
106.6286669096
  0
LINE
  5
1FD
330
1F
100
AcDbEntity
  8
0
  6
Continuous
 62
     7
370
    15
100
AcDbLine
 10
60.8452587449
 20
118.1450004299
 30
0.0
 11
61.0698360079
 21
118.0206972715
 31
0.0
  0
LINE
  5
1FE
330
1F
100
AcDbEntity
  8
0
  6
Continuous
 62
     7
370
    15
100
AcDbLine
 10
61.0828763866
 20
118.0157784913
 30
0.0
 11
67.1008742475
 21
116.7366134544
 31
0.0
  0
SPLINE
  5
1FF
330
1F
100
AcDbEntity
  8
0
  6
Continuous
 62
     7
370
    15
100
AcDbSpline
210
0.0
220
0.0
230
1.0
 70
     8
 71
     3
 72
    25
 73
    21
 74
     0
 42
0.00000001
 43
0.00000001
 12
1.0
 22
0.0
 32
0.0
 13
1.0
 23
0.0
 33
0.0
 40
0.0
 40
0.0
 40
0.0
 40
0.0
 40
0.0102866345068706
 40
0.0593767794230302
 40
0.1063345091669688
 40
0.1516288301448299
 40
0.195794853710948
 40
0.2398583965965454
 40
0.2857012515743386
 40
0.3374800403310622
 40
0.4042307876144614
 40
0.4738505560201611
 40
0.5371914344925738
 40
0.6030987236610733
 40
0.6664527336154008
 40
0.7290453190764375
 40
0.7919536340131578
 40
0.8561927093349223
 40
0.923748134729074
 40
1.0
 40
1.0
 40
1.0
 40
1.0
 10
61.53959138923305
 20
132.9102034289942
 30
0.0
 10
61.50316507758848
 20
132.9075670029414
 30
0.0
 10
61.29290417347355
 20
132.8923489558627
 30
0.0
 10
60.9301059201323
 20
132.778657154562
 30
0.0
 10
60.47494917028464
 20
132.5812969931023
 30
0.0
 10
60.07681406283995
 20
132.3231719311452
 30
0.0
 10
59.73430679242521
 20
132.027623453729
 30
0.0
 10
59.44297229537082
 20
131.7024897829289
 30
0.0
 10
59.1900270575948
 20
131.3470990745714
 30
0.0
 10
58.95094176790054
 20
130.9303885969796
 30
0.0
 10
58.72232976529403
 20
130.4363466170099
 30
0.0
 10
58.50531178686833
 20
129.8648017506623
 30
0.0
 10
58.3053012227186
 20
129.2421482196732
 30
0.0
 10
58.12698138437792
 20
128.595498312921
 30
0.0
 10
57.96824246518939
 20
127.9239032393283
 30
0.0
 10
57.83433253767822
 20
127.2549858208803
 30
0.0
 10
57.72573752412199
 20
126.5939710817281
 30
0.0
 10
57.64587036239203
 20
125.9442829693588
 30
0.0
 10
57.59325515315189
 20
125.2923907146146
 30
0.0
 10
57.59872066576676
 20
124.8733877701274
 30
0.0
 10
57.6016186796965
 20
124.6512171421753
 30
0.0
  0
SPLINE
  5
200
330
1F
100
AcDbEntity
  8
0
  6
Continuous
 62
     7
370
    15
100
AcDbSpline
210
0.0
220
0.0
230
1.0
 70
     8
 71
     3
 72
    15
 73
    11
 74
     0
 42
0.00000001
 43
0.00000001
 12
1.0
 22
0.0
 32
0.0
 13
1.0
 23
0.0
 33
0.0
 40
0.0
 40
0.0
 40
0.0
 40
0.0
 40
0.113348734150715
 40
0.2566728596545418
 40
0.3949144998952962
 40
0.5340605355562964
 40
0.6752818540783943
 40
0.8193706674017075
 40
0.9657548888804679
 40
1.0
 40
1.0
 40
1.0
 40
1.0
 10
57.6016186796965
 20
124.6512171421753
 30
0.0
 10
57.608398335943
 20
124.5356538524279
 30
0.0
 10
57.62375054758704
 20
124.2739662361277
 30
0.0
 10
57.68621992470933
 20
123.8630068481869
 30
0.0
 10
57.806609889649
 20
123.4072875135809
 30
0.0
 10
57.99661290550993
 20
122.9510583446884
 30
0.0
 10
58.26436976453257
 20
122.5075070171157
 30
0.0
 10
58.61648376914295
 20
122.1071488740525
 30
0.0
 10
58.92080635369595
 20
121.8341414948598
 30
0.0
 10
59.11945428880121
 20
121.7267603253276
 30
0.0
 10
59.15711550646442
 20
121.7064021695958
 30
0.0
  0
LINE
  5
201
330
1F
100
AcDbEntity
  8
0
  6
Continuous
 62
     7
370
    15
100
AcDbLine
 10
59.2212296151
 20
121.6686752234
 30
0.0
 11
61.1478044712
 21
121.2591689621
 31
0.0
  0
LINE
  5
202
330
1F
100
AcDbEntity
  8
0
  6
Continuous
 62
     7
370
    15
100
AcDbLine
 10
63.538788917
 20
132.5078664888
 30
0.0
 11
61.612214061
 21
132.9173727502
 31
0.0
  0
SPLINE
  5
203
330
1F
100
AcDbEntity
  8
0
  6
Continuous
 62
     7
370
    15
100
AcDbSpline
210
0.0
220
0.0
230
1.0
 70
     8
 71
     3
 72
    21
 73
    17
 74
     0
 42
0.00000001
 43
0.00000001
 12
1.0
 22
0.0
 32
0.0
 13
1.0
 23
0.0
 33
0.0
 40
0.0
 40
0.0
 40
0.0
 40
0.0
 40
0.032647183608868
 40
0.1036108760417237
 40
0.185330733539627
 40
0.2712040319456539
 40
0.3527827545934381
 40
0.432677937258209
 40
0.5118372394810135
 40
0.590669921313717
 40
0.669410097040719
 40
0.7482129878652126
 40
0.8272434723453861
 40
0.9067734078773495
 40
0.9872943592773108
 40
1.0
 40
1.0
 40
1.0
 40
1.0
 10
75.11536507540363
 20
120.3980941866146
 30
0.0
 10
75.1495385344436
 20
120.429405176789
 30
0.0
 10
75.25799328113554
 20
120.5287754367347
 30
0.0
 10
75.39869180562175
 20
120.7461732993424
 30
0.0
 10
75.58203615126459
 20
121.0909607243667
 30
0.0
 10
75.76916103163626
 20
121.5411706597994
 30
0.0
 10
75.95389261853994
 20
122.0671351875987
 30
0.0
 10
76.12729321035185
 20
122.6400660007347
 30
0.0
 10
76.28807186400373
 20
123.2493240859099
 30
0.0
 10
76.43265866284764
 20
123.8795495804479
 30
0.0
 10
76.55736385043461
 20
124.5134217464989
 30
0.0
 10
76.65832445603449
 20
125.1323011188744
 30
0.0
 10
76.73364882708641
 20
125.7211660160403
 30
0.0
 10
76.77655070723263
 20
126.2560460158856
 30
0.0
 10
76.7940178187615
 20
126.6137204251034
 30
0.0
 10
76.78514818601427
 20
126.768433392963
 30
0.0
 10
76.78393936389106
 20
126.7895188723312
 30
0.0
  0
LINE
  5
204
330
1F
100
AcDbEntity
  8
0
  6
Continuous
 62
     7
370
    15
100
AcDbLine
 10
64.5295131081
 20
133.4630793501
 30
0.0
 11
63.3915226036
 21
132.6986441929
 31
0.0
  0
LINE
  5
205
330
1F
100
AcDbEntity
  8
0
  6
Continuous
 62
     7
370
    15
100
AcDbLine
 10
60.9356734031
 20
121.1447839235
 30
0.0
 11
61.492634105
 21
120.2572297846
 31
0.0
  0
LINE
  5
206
330
1F
100
AcDbEntity
  8
0
  6
Continuous
 62
     7
370
    15
100
AcDbLine
 10
69.184814679
 20
132.5856933911
 30
0.0
 11
64.7619656348
 21
133.5257983376
 31
0.0
  0
LINE
  5
207
330
1F
100
AcDbEntity
  8
0
  6
Continuous
 62
     7
370
    15
100
AcDbLine
 10
67.0375871533
 20
119.1140606609
 30
0.0
 11
67.4836180233
 21
119.2634010297
 31
0.0
  0
LINE
  5
208
330
1F
100
AcDbEntity
  8
0
  6
Continuous
 62
     7
370
    15
100
AcDbLine
 10
70.8028414347
 20
131.1451664735
 30
0.0
 11
69.298294472
 21
132.5243918766
 31
0.0
  0
LINE
  5
209
330
1F
100
AcDbEntity
  8
0
  6
Continuous
 62
     7
370
    15
100
AcDbLine
 10
69.5851371684
 20
109.6005744842
 30
0.0
 11
72.278105753
 21
109.0281664003
 31
0.0
  0
LINE
  5
20A
330
1F
100
AcDbEntity
  8
0
  6
Continuous
 62
     7
370
    15
100
AcDbLine
 10
66.7786794775
 20
116.429284921
 30
0.0
 11
67.779983493
 21
111.3989537773
 31
0.0
  0
LINE
  5
20B
330
1F
100
AcDbEntity
  8
0
  6
Continuous
 62
     7
370
    15
100
AcDbLine
 10
87.9536057883
 20
146.2180058081
 30
0.0
 11
83.3683580031
 21
147.1926274319
 31
0.0
  0
LINE
  5
20C
330
1F
100
AcDbEntity
  8
0
  6
Continuous
 62
     7
370
    15
100
AcDbLine
 10
81.5621322081
 20
142.2902236302
 30
0.0
 11
81.0976658077
 21
141.7450888623
 31
0.0
  0
LINE
  5
20D
330
1F
100
AcDbEntity
  8
0
  6
Continuous
 62
     7
370
    15
100
AcDbLine
 10
90.6595947281
 20
145.4971733112
 30
0.0
 11
87.9759710343
 21
146.067593487
 31
0.0
  0
LINE
  5
20E
330
1F
100
AcDbEntity
  8
0
  6
Continuous
 62
     7
370
    15
100
AcDbLine
 10
90.8915457376
 20
145.1379621942
 30
0.0
 11
90.6729405806
 21
145.4863252659
 31
0.0
  0
ARC
  5
20F
330
1F
100
AcDbEntity
  8
0
  6
Continuous
 62
     7
370
    15
100
AcDbCircle
 10
96.6081922821
 20
122.4964957674
 30
0.0
 40
3.068467477247655
100
AcDbArc
 50
320.4853945539
 51
110.3396856821
  0
ARC
  5
210
330
1F
100
AcDbEntity
  8
0
  6
Continuous
 62
     7
370
    15
100
AcDbCircle
 10
97.4076196732
 20
123.0481020142
 30
0.0
 40
2.986713365066195
100
AcDbArc
 50
211.5169895336
 51
274.4773617684
  0
LWPOLYLINE
  5
211
330
1F
100
AcDbEntity
  8
0
  6
Continuous
 62
     7
370
    15
100
AcDbPolyline
 90
       20
 70
   128
 43
0.0
 10
95.0766244032
 20
124.9034695868
 10
95.1065915697
 20
124.9309855123
 10
95.5462773391
 20
125.2371633966
 10
96.0531235733
 20
125.4281655495
 10
96.6034318381
 20
125.4950605874
 10
97.1714687594
 20
125.4347220604
 10
97.7306739488
 20
125.249969082
 10
98.2549005248
 20
124.9494424631
 10
98.7196360775
 20
124.5471939985
 10
99.1031481945
 20
124.0620308165
 10
99.3875070535
 20
123.5166408662
 10
99.5594161623
 20
122.9365256224
 10
99.6108344817
 20
122.3488089238
 10
99.5393591993
 20
121.7809731681
 10
99.3483337634
 20
121.2595694308
 10
99.046688626
 20
120.8089778741
 10
98.6485286676
 20
120.4502678086
 10
98.1724719577
 20
120.2002123539
 10
97.6407780372
 20
120.0705033336
 10
97.6407780372
 20
120.0705033336
  0
LWPOLYLINE
  5
212
330
1F
100
AcDbEntity
  8
0
  6
Continuous
 62
     7
370
    15
100
AcDbPolyline
 90
       29
 70
   128
 43
0.0
 10
97.557930375
 20
120.4108011518
 10
97.0484913387
 20
120.4098772798
 10
96.5357470387
 20
120.5274986644
 10
96.0454103597
 20
120.7577691023
 10
95.6020682179
 20
121.0891401936
 10
95.2279512831
 20
121.5049962123
 10
94.9418201172
 20
121.9844848458
 10
94.7580217444
 20
122.5035621394
 10
94.6857734644
 20
123.0361994897
 10
94.7286971905
 20
123.5556884278
 10
94.8846415677
 20
124.0359789301
 10
95.1457853489
 20
124.4529869948
 10
95.4990350702
 20
124.7858034988
 10
95.926676976
 20
125.0177391414
 10
96.4072673642
 20
125.1371635665
 10
96.9167064004
 20
125.1380874385
 10
97.4294507005
 20
125.0204651226
 10
97.9197873794
 20
124.790195616
 10
98.3631295212
 20
124.4588235934
 10
98.7372464561
 20
124.0429675747
 10
99.023377622
 20
123.5634789412
 10
99.2071750634
 20
123.0444016476
 10
99.2794233435
 20
122.5117642973
 10
99.2365005487
 20
121.9922762905
 10
99.0805561715
 20
121.5119857882
 10
98.8194123902
 20
121.0949767922
 10
98.466162669
 20
120.7621602882
 10
98.0385207632
 20
120.5302246456
 10
97.557930375
 20
120.4108011518
  0
LINE
  5
213
330
1F
100
AcDbEntity
  8
0
  6
Continuous
 62
     7
370
    15
100
AcDbLine
 10
108.9394251876
 20
131.7179801483
 30
0.0
 11
108.9394251876
 21
132.434331121
 31
0.0
  0
LINE
  5
214
330
1F
100
AcDbEntity
  8
0
  6
Continuous
 62
     7
370
    15
100
AcDbLine
 10
96.5793310725
 20
143.5149575193
 30
0.0
 11
90.8220485845
 21
144.7387042065
 31
0.0
  0
ARC
  5
215
330
1F
100
AcDbEntity
  8
0
  6
Continuous
 62
     7
370
    15
100
AcDbCircle
 10
81.4394256645
 20
114.1928955038
 30
0.0
 40
33.00000000000003
100
AcDbArc
 50
33.5573097619
 51
62.6912654631
  0
LINE
  5
216
330
1F
100
AcDbEntity
  8
0
  6
Continuous
 62
     7
370
    15
100
AcDbLine
 10
90.8781104782
 20
144.937180223
 30
0.0
 11
95.8493241169
 21
143.880516531
 31
0.0
  0
ARC
  5
217
330
1F
100
AcDbEntity
  8
0
  6
Continuous
 62
     7
370
    15
100
AcDbCircle
 10
81.4394256645
 20
114.1928955038
 30
0.0
 40
33.00000000000003
100
AcDbArc
 50
62.6912654631
 51
64.1088016858
  0
ARC
  5
218
330
1F
100
AcDbEntity
  8
0
  6
Continuous
 62
     7
370
    15
100
AcDbCircle
 10
212.2251624263
 20
98.9912513834
 30
0.0
 40
129.461268213677
100
AcDbArc
 50
164.2616604983
 51
165.3418070566
  0
ARC
  5
219
330
1F
100
AcDbEntity
  8
0
  6
Continuous
 62
     7
370
    15
100
AcDbCircle
 10
220.2074591873
 20
96.5914149346
 30
0.0
 40
145.3068887902333
100
AcDbArc
 50
165.3603990826
 51
168.0175231475
  0
LINE
  5
21A
330
1F
100
AcDbEntity
  8
0
  6
Continuous
 62
     7
370
    15
100
AcDbLine
 10
86.9775147703
 20
131.7516958882
 30
0.0
 11
79.6179995933
 21
133.3160086144
 31
0.0
  0
LINE
  5
21B
330
1F
100
AcDbEntity
  8
0
  6
Continuous
 62
     7
370
    15
100
AcDbLine
 10
108.9394251876
 20
120.1967329328
 30
0.0
 11
108.9394251876
 21
131.7179801483
 31
0.0
  0
SPLINE
  5
21C
330
1F
100
AcDbEntity
  8
0
  6
Continuous
 62
     7
370
    15
100
AcDbSpline
210
0.0
220
0.0
230
1.0
 70
     8
 71
     3
 72
    36
 73
    32
 74
     0
 42
0.00000001
 43
0.00000001
 12
1.0
 22
0.0
 32
0.0
 13
1.0
 23
0.0
 33
0.0
 40
0.0
 40
0.0
 40
0.0
 40
0.0
 40
0.0625000000000001
 40
0.0625000000000001
 40
0.1250000000000002
 40
0.1250000000000002
 40
0.1875000000000002
 40
0.1875000000000002
 40
0.2500000000000003
 40
0.2500000000000003
 40
0.3125000000000004
 40
0.3125000000000004
 40
0.3750000000000005
 40
0.3750000000000005
 40
0.4375000000000006
 40
0.4375000000000006
 40
0.5000000000000007
 40
0.5000000000000007
 40
0.6250000000000001
 40
0.6250000000000001
 40
0.6875000000000001
 40
0.6875000000000001
 40
0.7500000000000001
 40
0.7500000000000001
 40
0.8125000000000001
 40
0.8125000000000001
 40
0.875
 40
0.875
 40
0.9375
 40
0.9375
 40
1.0
 40
1.0
 40
1.0
 40
1.0
 10
100.2875404067852
 20
122.0357475819993
 30
0.0
 10
100.3899752523275
 20
122.2505547002975
 30
0.0
 10
100.4707300013116
 20
122.4716385000756
 30
0.0
 10
100.5909708190211
 20
122.9257479181298
 30
0.0
 10
100.6305557915292
 20
123.1614566065586
 30
0.0
 10
100.663809520063
 20
123.6312888473681
 30
0.0
 10
100.6580448210575
 20
123.864513464799
 30
0.0
 10
100.5996227704127
 20
124.3275650288185
 30
0.0
 10
100.5458443656436
 20
124.5589493184666
 30
0.0
 10
100.3915830138651
 20
124.9941472497116
 30
0.0
 10
100.2911769882343
 20
125.200903554031
 30
0.0
 10
100.0364425027882
 20
125.5898849816915
 30
0.0
 10
99.88569275015932
 20
125.7656013328249
 30
0.0
 10
99.54260087247033
 20
126.0691035263825
 30
0.0
 10
99.34548644956608
 20
126.1995943343686
 30
0.0
 10
98.92782867648376
 20
126.3965777134143
 30
0.0
 10
98.70324188092529
 20
126.4658375338406
 30
0.0
 10
98.00990250325799
 20
126.5800046123887
 30
0.0
 10
97.52959106565865
 20
126.5304090175694
 30
0.0
 10
96.85608416535898
 20
126.3118149266671
 30
0.0
 10
96.63737219474565
 20
126.2143740434704
 30
0.0
 10
96.2269816718929
 20
125.9823360394607
 30
0.0
 10
96.03175813782951
 20
125.8460312785118
 30
0.0
 10
95.66895077593531
 20
125.5397688799836
 30
0.0
 10
95.50354020219248
 20
125.3720372544964
 30
0.0
 10
95.20395107241357
 20
125.0080925677554
 30
0.0
 10
95.06875452906576
 20
124.8096118189794
 30
0.0
 10
94.84105651967097
 20
124.3963409639361
 30
0.0
 10
94.74753519861002
 20
124.1810747180114
 30
0.0
 10
94.60379368160879
 20
123.7321552915574
 30
0.0
 10
94.55372796280352
 20
123.4970843482277
 30
0.0
 10
94.53018131893434
 20
123.2595120340125
 30
0.0
  0
ARC
  5
21D
330
1F
100
AcDbEntity
  8
0
  6
Continuous
 62
     7
370
    15
100
AcDbCircle
 10
66.7816835281
 20
125.952079483
 30
0.0
 40
10.05547101747823
100
AcDbArc
 50
330.7455439247
 51
4.9382207817
  0
ARC
  5
21E
330
1F
100
AcDbEntity
  8
0
  6
Continuous
 62
     7
370
    15
100
AcDbCircle
 10
63.3306354716
 20
117.2459586143
 30
0.0
 40
10.8028014600566
100
AcDbArc
 50
345.368546402
 51
358.3222376635
  0
LINE
  5
21F
330
1F
100
AcDbEntity
  8
0
  6
Continuous
 62
     7
370
    15
100
AcDbLine
 10
74.8181791105
 20
111.4761306746
 30
0.0
 11
78.066641564
 21
126.7589454149
 31
0.0
  0
LINE
  5
220
330
1F
100
AcDbEntity
  8
0
  6
Continuous
 62
     7
370
    15
100
AcDbLine
 10
68.0815410861
 20
91.8364378233
 30
0.0
 11
74.8181791105
 21
111.4761306746
 31
0.0
  0
ARC
  5
221
330
1F
100
AcDbEntity
  8
0
  6
Continuous
 62
     7
370
    15
100
AcDbCircle
 10
83.4394256645
 20
112.1928955038
 30
0.0
 40
25.5
100
AcDbArc
 50
230.6490565715
 51
232.9673531926
  0
SPLINE
  5
222
330
1F
100
AcDbEntity
  8
0
  6
Continuous
 62
     7
370
    15
100
AcDbSpline
210
0.0
220
0.0
230
1.0
 70
     8
 71
     3
 72
    12
 73
     8
 74
     0
 42
0.00000001
 43
0.00000001
 12
1.0
 22
0.0
 32
0.0
 13
1.0
 23
0.0
 33
0.0
 40
0.0
 40
0.0
 40
0.0
 40
0.0
 40
0.25
 40
0.25
 40
0.5
 40
0.5
 40
1.0
 40
1.0
 40
1.0
 40
1.0
 10
67.27067465201833
 20
92.47433849020878
 30
0.0
 10
67.28106441367663
 20
92.55819449065653
 30
0.0
 10
67.28910268003163
 20
92.63930885684945
 30
0.0
 10
67.29933417281038
 20
92.78774322486983
 30
0.0
 10
67.3015748164118
 20
92.85463763558714
 30
0.0
 10
67.29894509513313
 20
93.03150257908386
 30
0.0
 10
67.28445573524627
 20
93.11362991771105
 30
0.0
 10
67.25564611479558
 20
93.13809874580753
 30
0.0
  0
ARC
  5
223
330
1F
100
AcDbEntity
  8
0
  6
Continuous
 62
     7
370
    15
100
AcDbCircle
 10
83.4394256645
 20
112.1928955038
 30
0.0
 40
25.0
100
AcDbArc
 50
228.1079313823
 51
229.6578112261
  0
LINE
  5
224
330
1F
100
AcDbEntity
  8
0
  6
Continuous
 62
     7
370
    15
100
AcDbLine
 10
77.4063697145
 20
129.3563100119
 30
0.0
 11
78.7662636549
 21
131.7910628934
 31
0.0
  0
LINE
  5
225
330
1F
100
AcDbEntity
  8
0
  6
Continuous
 62
     7
370
    15
100
AcDbLine
 10
79.0973679223
 20
132.3838720639
 30
0.0
 11
79.6179995933
 21
133.3160086144
 31
0.0
  0
LINE
  5
226
330
1F
100
AcDbEntity
  8
0
  6
Continuous
 62
     7
370
    15
100
AcDbLine
 10
108.9394251876
 20
112.1928955038
 30
0.0
 11
108.9394251876
 21
120.1967329328
 31
0.0
  0
ARC
  5
227
330
1F
100
AcDbEntity
  8
0
  6
Continuous
 62
     7
370
    15
100
AcDbCircle
 10
83.4394256645
 20
112.1928955038
 30
0.0
 40
25.50000000000001
100
AcDbArc
 50
342.3882692888
 51
0.0
  0
LINE
  5
228
330
1F
100
AcDbEntity
  8
0
  6
Continuous
 62
     7
370
    15
100
AcDbLine
 10
74.8181791105
 20
111.4761306746
 30
0.0
 11
107.7442086362
 21
104.4774868135
 31
0.0
  0
ELLIPSE
  5
229
330
1F
100
AcDbEntity
  8
0
  6
Continuous
 62
     7
370
    15
100
AcDbEllipse
 10
97.574143543
 20
123.236147417
 30
0.0
 11
1.766955724716837
 21
2.780546072841034
 31
0.0
210
0.0
220
0.0
230
1.0
 40
0.8986930702
 41
2.082392693217481
 42
4.847007751567129
  0
ARC
  5
22A
330
1F
100
AcDbEntity
  8
0
  6
Continuous
 62
     7
370
    15
100
AcDbCircle
 10
83.4394256645
 20
112.1928955038
 30
0.0
 40
25.5
100
AcDbArc
 50
232.9673531926
 51
342.3882692888
  0
ARC
  5
22B
330
1F
100
AcDbEntity
  8
0
  6
Continuous
 62
     7
370
    15
100
AcDbCircle
 10
77.7400185915
 20
114.8327071831
 30
0.0
 40
4.05113147726224
100
AcDbArc
 50
153.2097182214
 51
162.3892620543
  0
SPLINE
  5
22C
330
1F
100
AcDbEntity
  8
0
  6
Continuous
 62
     7
370
    15
100
AcDbSpline
210
0.0
220
0.0
230
1.0
 70
     8
 71
     3
 72
    12
 73
     8
 74
     0
 42
0.00000001
 43
0.00000001
 12
1.0
 22
0.0
 32
0.0
 13
1.0
 23
0.0
 33
0.0
 40
0.0
 40
0.0
 40
0.0
 40
0.0
 40
0.2499999999999988
 40
0.2499999999999988
 40
0.4999999999999976
 40
0.4999999999999976
 40
1.0
 40
1.0
 40
1.0
 40
1.0
 10
66.7461877903177
 20
93.58279584587783
 30
0.0
 10
66.69972063214948
 20
93.62447683302447
 30
0.0
 10
66.61500705299191
 20
93.70059888343147
 30
0.0
 10
66.37743890268933
 20
93.91956237459917
 30
0.0
 10
66.23046458396847
 20
94.05710220068583
 30
0.0
 10
65.72311824448188
 20
94.54767484176085
 30
0.0
 10
65.31787611361463
 20
94.95974014969616
 30
0.0
 10
64.90836539476253
 20
95.41195973486403
 30
0.0
  0
ARC
  5
22D
330
1F
100
AcDbEntity
  8
0
  6
Continuous
 62
     7
370
    15
100
AcDbCircle
 10
83.4394256645
 20
112.1928955038
 30
0.0
 40
24.99999999999999
100
AcDbArc
 50
158.2506330172
 51
222.1626422838
  0
ARC
  5
22E
330
1F
100
AcDbEntity
  8
0
  6
Continuous
 62
     7
370
    15
100
AcDbCircle
 10
83.4394256645
 20
112.1928955038
 30
0.0
 40
25.0
100
AcDbArc
 50
122.8362962373
 51
125.2080183046
  0
LINE
  5
22F
330
1F
100
AcDbEntity
  8
0
  6
Continuous
 62
     7
370
    15
100
AcDbLine
 10
61.102348479
 20
118.015747292
 30
0.0
 11
61.0698360079
 21
118.0206972715
 31
0.0
  0
ARC
  5
230
330
1F
100
AcDbEntity
  8
0
  6
Continuous
 62
     7
370
    15
100
AcDbCircle
 10
57.1095533742
 20
120.3528130302
 30
0.0
 40
4.653862593171754
100
AcDbArc
 50
330.2310324837
 51
355.6080366514
  0
LINE
  5
231
330
1F
100
AcDbEntity
  8
0
  6
Continuous
 62
     7
370
    15
100
AcDbLine
 10
60.9207182252
 20
118.1653828901
 30
0.0
 11
61.1492666476
 21
118.0421521497
 31
0.0
  0
ARC
  5
232
330
1F
100
AcDbEntity
  8
0
  6
Continuous
 62
     7
370
    15
100
AcDbCircle
 10
64.7098662635
 20
118.8779744783
 30
0.0
 40
3.904045311009203
100
AcDbArc
 50
152.788865437
 51
190.8916173853
  0
ARC
  5
233
330
1F
100
AcDbEntity
  8
0
  6
Continuous
 62
     7
370
    15
100
AcDbCircle
 10
56.8796429149
 20
120.450934245
 30
0.0
 40
4.642632298529375
100
AcDbArc
 50
330.5083679787
 51
357.4431264214
  0
LINE
  5
234
330
1F
100
AcDbEntity
  8
0
  6
Continuous
 62
     7
370
    15
100
AcDbLine
 10
60.8761469894
 20
118.1402981822
 30
0.0
 11
61.102348479
 21
118.015747292
 31
0.0
  0
LINE
  5
235
330
1F
100
AcDbEntity
  8
0
  6
Continuous
 62
     7
370
    15
100
AcDbLine
 10
61.1492666476
 20
118.0421521497
 30
0.0
 11
67.1236972385
 21
116.7722481844
 31
0.0
  0
LINE
  5
236
330
1F
100
AcDbEntity
  8
0
  6
Continuous
 62
     7
370
    15
100
AcDbLine
 10
61.102348479
 20
118.015747292
 30
0.0
 11
67.1084179603
 21
116.7391182464
 31
0.0
  0
LINE
  5
237
330
1F
100
AcDbEntity
  8
0
  6
Continuous
 62
     7
370
    15
100
AcDbLine
 10
60.9575408571
 20
118.3815097977
 30
0.0
 11
60.9207182252
 21
118.1653828901
 31
0.0
  0
ARC
  5
238
330
1F
100
AcDbEntity
  8
0
  6
Continuous
 62
     7
370
    15
100
AcDbCircle
 10
64.1175814485
 20
118.9904181716
 30
0.0
 40
3.259052751514769
100
AcDbArc
 50
150.5089571046
 51
191.1464575982
  0
ARC
  5
239
330
1F
100
AcDbEntity
  8
0
  6
Continuous
 62
     7
370
    15
100
AcDbCircle
 10
57.4079574126
 20
120.3595878539
 30
0.0
 40
4.063537304584928
100
AcDbArc
 50
330.8703668446
 51
358.4348945024
  0
LINE
  5
23A
330
1F
100
AcDbEntity
  8
0
  6
Continuous
 62
     7
370
    15
100
AcDbLine
 10
60.9200066947
 20
118.3603860047
 30
0.0
 11
60.8761469894
 21
118.1402981822
 31
0.0
  0
LINE
  5
23B
330
1F
100
AcDbEntity
  8
0
  6
Continuous
 62
     7
370
    15
100
AcDbLine
 10
60.9527557217
 20
118.3534248341
 30
0.0
 11
60.9200066947
 21
118.3603860047
 31
0.0
  0
LWPOLYLINE
  5
23C
330
1F
100
AcDbEntity
  8
0
  6
Continuous
 62
     7
370
    15
100
AcDbPolyline
 90
       24
 70
   128
 43
0.0
 10
59.1618708395
 20
121.6930535231
 10
59.2259067171
 20
121.6677485575
 10
59.3856192254
 20
121.7036407982
 10
59.5683652037
 20
121.8643898685
 10
59.7700617337
 20
122.1464064513
 10
59.9862049394
 20
122.5433901493
 10
60.2119631194
 20
123.0464719777
 10
60.442295956
 20
123.6444155295
 10
60.672058823
 20
124.3238628451
 10
60.896116408
 20
125.0696361606
 10
61.1094656461
 20
125.8650759776
 10
61.3073400282
 20
126.6924145241
 10
61.4853194975
 20
127.5331687723
 10
61.6394291692
 20
128.3685586025
 10
61.7662231498
 20
129.1799231042
 10
61.862873944
 20
129.9491378088
 10
61.9272190207
 20
130.6590198149
 10
61.9578222805
 20
131.2937105615
 10
61.9540001326
 20
131.8390315939
 10
61.9158363962
 20
132.2828030754
 10
61.8441860252
 20
132.6151120086
 10
61.7406490319
 20
132.8285320271
 10
61.607536959
 20
132.9183003475
 10
61.5481725954
 20
132.9192596097
  0
LWPOLYLINE
  5
23D
330
1F
100
AcDbEntity
  8
0
  6
Continuous
 62
     7
370
    15
100
AcDbPolyline
 90
       23
 70
   128
 43
0.0
 10
61.1478044712
 20
121.2591689621
 10
61.1524815732
 20
121.2582422961
 10
61.3121940815
 20
121.2941345368
 10
61.4949400597
 20
121.4548836072
 10
61.6966365897
 20
121.7369001899
 10
61.9127797955
 20
122.133883888
 10
62.1385379755
 20
122.6369657163
 10
62.368870812
 20
123.2349092682
 10
62.5986336791
 20
123.9143565838
 10
62.8226912641
 20
124.6601298992
 10
63.0360405021
 20
125.4555697162
 10
63.2339148843
 20
126.2829082627
 10
63.4118943536
 20
127.1236625109
 10
63.5660040253
 20
127.9590523411
 10
63.6927980059
 20
128.7704187055
 10
63.7894488
 20
129.5396315475
 10
63.8537938767
 20
130.2495135535
 10
63.8843971365
 20
130.8842043002
 10
63.8805749887
 20
131.4295253326
 10
63.8424112522
 20
131.8732968141
 10
63.7707608812
 20
132.2056057472
 10
63.667223888
 20
132.4190257658
 10
63.538788917
 20
132.5078664888
  0
LWPOLYLINE
  5
23E
330
1F
100
AcDbEntity
  8
0
  6
Continuous
 62
     7
370
    15
100
AcDbPolyline
 90
       29
 70
   128
 43
0.0
 10
57.8217647099
 20
125.7260053028
 10
57.8521500402
 20
125.4545340855
 10
57.914526301
 20
125.2957873587
 10
58.0057679736
 20
125.2577242051
 10
58.1212966763
 20
125.3422547672
 10
58.2553214454
 20
125.5451387335
 10
58.4011218571
 20
125.8562032674
 10
58.5513870292
 20
126.2598505784
 10
58.6985788369
 20
126.7358393018
 10
58.8353212052
 20
127.2603024338
 10
58.9547558748
 20
127.8069412876
 10
59.0508907162
 20
128.3483433147
 10
59.1189089292
 20
128.8573632557
 10
59.1553981476
 20
129.3084735592
 10
59.1585292541
 20
129.6790561248
 10
59.1281439238
 20
129.9505254794
 10
59.0657676631
 20
130.1092731376
 10
58.9745278531
 20
130.1473362912
 10
58.8589972877
 20
130.062805729
 10
58.7249725186
 20
129.8599226941
 10
58.5791721069
 20
129.5488572289
 10
58.4289087974
 20
129.1452108492
 10
58.2817151272
 20
128.6692211945
 10
58.1449727588
 20
128.1447580625
 10
58.0255399519
 20
127.5981192086
 10
57.9294032478
 20
127.0567171816
 10
57.8613850349
 20
126.5476981719
 10
57.8248958164
 20
126.0965869371
 10
57.8217647099
 20
125.7260053028
  0
SPLINE
  5
23F
330
1F
100
AcDbEntity
  8
0
  6
Continuous
 62
     7
370
    15
100
AcDbSpline
210
0.0
220
0.0
230
1.0
 70
     8
 71
     3
 72
     9
 73
     5
 74
     0
 42
0.00000001
 43
0.00000001
 12
1.0
 22
0.0
 32
0.0
 13
1.0
 23
0.0
 33
0.0
 40
0.0
 40
0.0
 40
0.0
 40
0.0
 40
0.5037593013095618
 40
1.0
 40
1.0
 40
1.0
 40
1.0
 10
58.61717938118595
 20
128.9961955119477
 30
0.0
 10
58.72749748210684
 20
129.0435085958329
 30
0.0
 10
58.94648718737703
 20
129.1374286162914
 30
0.0
 10
59.07941236905793
 20
129.2627772345565
 30
0.0
 10
59.14537525408882
 20
129.3249803204642
 30
0.0
  0
SPLINE
  5
240
330
1F
100
AcDbEntity
  8
0
  6
Continuous
 62
     7
370
    15
100
AcDbSpline
210
0.0
220
0.0
230
1.0
 70
     8
 71
     3
 72
    11
 73
     7
 74
     0
 42
0.00000001
 43
0.00000001
 12
1.0
 22
0.0
 32
0.0
 13
1.0
 23
0.0
 33
0.0
 40
0.0
 40
0.0
 40
0.0
 40
0.0
 40
0.2164526107598629
 40
0.440305432003964
 40
0.751895862860086
 40
1.0
 40
1.0
 40
1.0
 40
1.0
 10
58.11075783007759
 20
126.7486300860153
 30
0.0
 10
58.21522636414761
 20
126.8877564936289
 30
0.0
 10
58.42773506461118
 20
127.170765845156
 30
0.0
 10
58.67699886262194
 20
127.7268006226759
 30
0.0
 10
58.74614185418163
 20
128.3653923590289
 30
0.0
 10
58.65678841111209
 20
128.8024530969562
 30
0.0
 10
58.61717938118595
 20
128.9961955119477
 30
0.0
  0
SPLINE
  5
241
330
1F
100
AcDbEntity
  8
0
  6
Continuous
 62
     7
370
    15
100
AcDbSpline
210
0.0
220
0.0
230
1.0
 70
     8
 71
     3
 72
    10
 73
     6
 74
     0
 42
0.00000001
 43
0.00000001
 12
1.0
 22
0.0
 32
0.0
 13
1.0
 23
0.0
 33
0.0
 40
0.0
 40
0.0
 40
0.0
 40
0.0
 40
0.2626809187137303
 40
0.8130042971546155
 40
1.0
 40
1.0
 40
1.0
 40
1.0
 10
58.38025464349407
 20
125.8328810874925
 30
0.0
 10
58.40606264187426
 20
125.9039490674836
 30
0.0
 10
58.48593907023
 20
126.1239063198252
 30
0.0
 10
58.31640273404703
 20
126.4581330183005
 30
0.0
 10
58.15236131193736
 20
126.6898603851683
 30
0.0
 10
58.11075783007759
 20
126.7486300860153
 30
0.0
  0
LINE
  5
242
330
1F
100
AcDbEntity
  8
0
  6
Continuous
 62
     7
370
    15
100
AcDbLine
 10
59.1222803169
 20
128.8888326455
 30
0.0
 11
58.6171793812
 21
128.9961955119
 31
0.0
  0
LINE
  5
243
330
1F
100
AcDbEntity
  8
0
  6
Continuous
 62
     7
370
    15
100
AcDbLine
 10
58.6680463576
 20
126.6301742364
 30
0.0
 11
58.1107578301
 21
126.748630086
 31
0.0
  0
LWPOLYLINE
  5
244
330
1F
100
AcDbEntity
  8
0
  6
Continuous
 62
     7
370
    15
100
AcDbPolyline
 90
       17
 70
   128
 43
0.0
 10
62.830890628
 20
124.519048499
 10
63.0492317551
 20
125.3269801457
 10
63.2525264346
 20
126.1680855025
 10
63.436442154
 20
127.0244394038
 10
63.5970599078
 20
127.8777907212
 10
63.7309542918
 20
128.7099497933
 10
63.8352754586
 20
129.5031814445
 10
63.9077956849
 20
130.2405803074
 10
63.9469727003
 20
130.9064293821
 10
63.9519701772
 20
131.4865353127
 10
63.9226819449
 20
131.9685375859
 10
63.8597301268
 20
132.3421618511
 10
63.7644595527
 20
132.5994434376
 10
63.6388986432
 20
132.7349005808
 10
63.4857240193
 20
132.7456461806
 10
63.3082008981
 20
132.6314492692
 10
63.247674244
 20
132.5697454233
  0
LWPOLYLINE
  5
245
330
1F
100
AcDbEntity
  8
0
  6
Continuous
 62
     7
370
    15
100
AcDbPolyline
 90
       12
 70
   128
 43
0.0
 10
60.8566897982
 20
121.3210478966
 10
60.8705702298
 20
121.2812888045
 10
60.9812802696
 20
121.0843941738
 10
61.1210214966
 20
121.0110972245
 10
61.286811816
 20
121.0629616473
 10
61.4751196527
 20
121.2388800998
 10
61.6819310062
 20
121.5351049398
 10
61.9028388583
 20
121.9453218002
 10
62.1331344419
 20
122.4607874249
 10
62.3679078245
 20
123.0705159326
 10
62.6021578037
 20
123.7615125795
 10
62.830890628
 20
124.519048499
  0
LWPOLYLINE
  5
246
330
1F
100
AcDbEntity
  8
0
  6
Continuous
 62
     7
370
    15
100
AcDbPolyline
 90
       25
 70
   128
 43
0.0
 10
62.0362284654
 20
119.8659853619
 10
62.2332423055
 20
120.0251199846
 10
62.4496108913
 20
120.3042420168
 10
62.6814338439
 20
120.6983181257
 10
62.9245313876
 20
121.2002413888
 10
63.1745169931
 20
121.8009621446
 10
63.4268849217
 20
122.4896463175
 10
63.6770847314
 20
123.2538737897
 10
63.9206013703
 20
124.0798637812
 10
64.1530464464
 20
124.9527207185
 10
64.3702252828
 20
125.856704319
 10
64.5682244622
 20
126.7755127121
 10
64.7434714311
 20
127.6925758068
 10
64.8928071433
 20
128.5913570393
 10
65.0135363513
 20
129.4556467403
 10
65.1034853482
 20
130.2698610891
 10
65.1610299074
 20
131.0193149914
 10
65.185130673
 20
131.6904949565
 10
65.1753555112
 20
132.2712956537
 10
65.1318813735
 20
132.751245292
 10
65.0554905706
 20
133.1216862966
 10
64.9475595974
 20
133.3759392221
 10
64.8100367808
 20
133.5094200988
 10
64.645403164
 20
133.5197205265
 10
64.5295131081
 20
133.4630793501
  0
SPLINE
  5
247
330
1F
100
AcDbEntity
  8
0
  6
Continuous
 62
     7
370
    15
100
AcDbSpline
210
0.0
220
0.0
230
1.0
 70
     8
 71
     3
 72
    14
 73
    10
 74
     0
 42
0.00000001
 43
0.00000001
 12
1.0
 22
0.0
 32
0.0
 13
1.0
 23
0.0
 33
0.0
 40
0.0
 40
0.0
 40
0.0
 40
0.0
 40
0.2406875360502025
 40
0.3654956730909879
 40
0.4913828187667079
 40
0.5985911810311705
 40
0.7015345312957146
 40
0.8683340217284199
 40
1.0
 40
1.0
 40
1.0
 40
1.0
 10
62.0362284653725
 20
119.8659853619145
 30
0.0
 10
61.88583712154672
 20
120.0501122852885
 30
0.0
 10
61.65746058680503
 20
120.3297179304214
 30
0.0
 10
61.40512907901824
 20
120.5872567007926
 30
0.0
 10
61.28523630449342
 20
120.6844706339978
 30
0.0
 10
61.26178717356198
 20
120.6632936520433
 30
0.0
 10
61.3173342332561
 20
120.5414372691329
 30
0.0
 10
61.45105465910972
 20
120.3216145982694
 30
0.0
 10
61.58473405923499
 20
120.1116072377174
 30
0.0
 10
61.64370580249447
 20
120.0189639423595
 30
0.0
  0
SPLINE
  5
248
330
1F
100
AcDbEntity
  8
0
  6
Continuous
 62
     7
370
    15
100
AcDbSpline
210
0.0
220
0.0
230
1.0
 70
    11
 71
     3
 72
    26
 73
    22
 74
     0
 42
0.00000001
 43
0.00000001
 12
1.0
 22
0.0
 32
0.0
 13
1.0
 23
0.0
 33
0.0
 40
0.0
 40
0.0
 40
0.0
 40
0.0
 40
0.0456328867344906
 40
0.0911464043197242
 40
0.1396862862530518
 40
0.1952352219084137
 40
0.2567870341149131
 40
0.3195023424801806
 40
0.3782718966425793
 40
0.4320414466323644
 40
0.4825627189674748
 40
0.5316192049000593
 40
0.5803377482687301
 40
0.6295799089104163
 40
0.6804008963693375
 40
0.7342115509847772
 40
0.7923206418704635
 40
0.8544915227445924
 40
0.9168148059801313
 40
0.9638628927996502
 40
1.0
 40
1.0
 40
1.0
 40
1.0
 10
68.87306282901186
 20
132.14814686967
 30
0.0
 10
68.85441693495743
 20
132.1888124163573
 30
0.0
 10
68.81717392185864
 20
132.2700371344387
 30
0.0
 10
68.63672317255119
 20
132.3931690136919
 30
0.0
 10
68.3804294602857
 20
132.5117185193329
 30
0.0
 10
68.04255359492095
 20
132.6246015159587
 30
0.0
 10
67.65265337245172
 20
132.7215541176826
 30
0.0
 10
67.27304017419843
 20
132.7842589696306
 30
0.0
 10
66.97428304604152
 20
132.794844521305
 30
0.0
 10
66.79207241249038
 20
132.7482415469406
 30
0.0
 10
66.72679334703213
 20
132.6512083107849
 30
0.0
 10
66.76888450870503
 20
132.5150581918495
 30
0.0
 10
66.90822126254432
 20
132.3550554270118
 30
0.0
 10
67.132431408787
 20
132.1904886775032
 30
0.0
 10
67.42610505787829
 20
132.0419027525015
 30
0.0
 10
67.77122548157519
 20
131.9285390581194
 30
0.0
 10
68.14229311230739
 20
131.8682265223293
 30
0.0
 10
68.4960427317835
 20
131.8749155089421
 30
0.0
 10
68.74948692872422
 20
131.9460762206295
 30
0.0
 10
68.87264733003752
 20
132.0466176677114
 30
0.0
 10
68.87293699393473
 20
132.1173984545152
 30
0.0
 10
68.87306282901186
 20
132.14814686967
 30
0.0
  0
LWPOLYLINE
  5
249
330
1F
100
AcDbEntity
  8
0
  6
Continuous
 62
     7
370
    15
100
AcDbPolyline
 90
       24
 70
   128
 43
0.0
 10
66.4590775096
 20
118.9258799498
 10
66.6560913497
 20
119.0850141068
 10
66.8724599355
 20
119.364136139
 10
67.1042828881
 20
119.7582122479
 10
67.3473804318
 20
120.2601364423
 10
67.5973660373
 20
120.8608562667
 10
67.8497348973
 20
121.5495404397
 10
68.0999328443
 20
122.3137679119
 10
68.3434504145
 20
123.1397579033
 10
68.5758954906
 20
124.012615772
 10
68.7930752584
 20
124.9165993725
 10
68.9910735064
 20
125.8354068343
 10
69.1663204753
 20
126.7524708603
 10
69.3156561875
 20
127.6512511615
 10
69.4363863268
 20
128.5155417938
 10
69.5263343924
 20
129.3297561426
 10
69.5838780203
 20
130.0792100449
 10
69.6079797172
 20
130.75039001
 10
69.5982054868
 20
131.3311907072
 10
69.5547304177
 20
131.8111384828
 10
69.4783386835
 20
132.1815794875
 10
69.3704086416
 20
132.435832413
 10
69.2328867563
 20
132.5693132897
 10
69.184814679
 20
132.5856933911
  0
LINE
  5
24A
330
1F
100
AcDbEntity
  8
0
  6
Continuous
 62
     7
370
    15
100
AcDbLine
 10
66.4590775096
 20
118.9258799498
 30
0.0
 11
62.0362284654
 21
119.8659853619
 31
0.0
  0
SPLINE
  5
24B
330
1F
100
AcDbEntity
  8
0
  6
Continuous
 62
     7
370
    15
100
AcDbSpline
210
0.0
220
0.0
230
1.0
 70
     8
 71
     3
 72
     9
 73
     5
 74
     0
 42
0.00000001
 43
0.00000001
 12
1.0
 22
0.0
 32
0.0
 13
1.0
 23
0.0
 33
0.0
 40
0.0
 40
0.0
 40
0.0
 40
0.0
 40
0.700198670240046
 40
1.0
 40
1.0
 40
1.0
 40
1.0
 10
67.03697993093151
 20
119.1158660296903
 30
0.0
 10
66.91116520688911
 20
119.0737708819452
 30
0.0
 10
66.73148088386795
 20
119.0136520192077
 30
0.0
 10
66.52190779907814
 20
118.9461247229671
 30
0.0
 10
66.45907750957626
 20
118.9258799497591
 30
0.0
  0
LINE
  5
24C
330
1F
100
AcDbEntity
  8
0
  6
Continuous
 62
     7
370
    15
100
AcDbLine
 10
61.6437058025
 20
120.0189639424
 30
0.0
 11
61.9647922986
 21
119.9507156928
 31
0.0
  0
SPLINE
  5
24D
330
1F
100
AcDbEntity
  8
0
  6
Continuous
 62
     7
370
    15
100
AcDbSpline
210
0.0
220
0.0
230
1.0
 70
     8
 71
     3
 72
    15
 73
    11
 74
     0
 42
0.00000001
 43
0.00000001
 12
1.0
 22
0.0
 32
0.0
 13
1.0
 23
0.0
 33
0.0
 40
0.0
 40
0.0
 40
0.0
 40
0.0
 40
0.1220876863058415
 40
0.2441780196748033
 40
0.3704039399447261
 40
0.4966403201784164
 40
0.6208486222188315
 40
0.7450697141085384
 40
0.8725280841540839
 40
1.0
 40
1.0
 40
1.0
 40
1.0
 10
68.37046342574972
 20
120.4694307018624
 30
0.0
 10
68.5442868436594
 20
121.1557142455782
 30
0.0
 10
68.89193744825819
 20
122.528296212773
 30
0.0
 10
69.60202029841209
 20
124.6259359958386
 30
0.0
 10
70.449966421651
 20
126.7367253383238
 30
0.0
 10
71.43724139409453
 20
128.8336917260687
 30
0.0
 10
72.53797926872029
 20
130.8781157239176
 30
0.0
 10
73.75032803213799
 20
132.8736845114745
 30
0.0
 10
75.06565406053242
 20
134.8259560862585
 30
0.0
 10
76.02288260756282
 20
136.0722933643449
 30
0.0
 10
76.50152231239694
 20
136.6954951156483
 30
0.0
  0
SPLINE
  5
24E
330
1F
100
AcDbEntity
  8
0
  6
Continuous
 62
     7
370
    15
100
AcDbSpline
210
0.0
220
0.0
230
1.0
 70
     8
 71
     3
 72
    13
 73
     9
 74
     0
 42
0.00000001
 43
0.00000001
 12
1.0
 22
0.0
 32
0.0
 13
1.0
 23
0.0
 33
0.0
 40
0.0
 40
0.0
 40
0.0
 40
0.0
 40
0.1665846026907672
 40
0.3376951473196157
 40
0.504400827899555
 40
0.6769075986376283
 40
0.8353100102708435
 40
1.0
 40
1.0
 40
1.0
 40
1.0
 10
76.50152231239694
 20
136.6954951156483
 30
0.0
 10
76.65881119194104
 20
136.8772350237939
 30
0.0
 10
76.97766233719351
 20
137.2456525369597
 30
0.0
 10
77.55538220438441
 20
137.6868754768402
 30
0.0
 10
78.20141675347456
 20
138.0299890925635
 30
0.0
 10
78.8838980247137
 20
138.235053343362
 30
0.0
 10
79.59280257001778
 20
138.3118320886684
 30
0.0
 10
80.05173982911793
 20
138.2428003626178
 30
0.0
 10
80.2856740602197
 20
138.2076127995358
 30
0.0
  0
ARC
  5
24F
330
1F
100
AcDbEntity
  8
0
  6
Continuous
 62
     7
370
    15
100
AcDbCircle
 10
-145.0061280341
 20
181.1438207691
 30
0.0
 40
229.3467114343014
100
AcDbArc
 50
347.6298632505
 51
349.2099389952
  0
SPLINE
  5
250
330
1F
100
AcDbEntity
  8
0
  6
Continuous
 62
     7
370
    15
100
AcDbSpline
210
0.0
220
0.0
230
1.0
 70
     8
 71
     3
 72
    10
 73
     6
 74
     0
 42
0.00000001
 43
0.00000001
 12
1.0
 22
0.0
 32
0.0
 13
1.0
 23
0.0
 33
0.0
 40
0.0
 40
0.0
 40
0.0
 40
0.0
 40
0.4116163530145694
 40
0.8227990062406111
 40
1.0
 40
1.0
 40
1.0
 40
1.0
 10
79.01608581327814
 20
132.011736052166
 30
0.0
 10
78.73021729742894
 20
131.7916716429496
 30
0.0
 10
78.15878147124376
 20
131.3517746954983
 30
0.0
 10
77.71549628884894
 20
130.5662824692673
 30
0.0
 10
77.57905513278077
 20
130.0733742219603
 30
0.0
 10
77.53796373167056
 20
129.9249271471606
 30
0.0
  0
ARC
  5
251
330
1F
100
AcDbEntity
  8
0
  6
Continuous
 62
     7
370
    15
100
AcDbCircle
 10
-127.5443402051
 20
176.9408246652
 30
0.0
 40
210.4025808003645
100
AcDbArc
 50
344.0471046076
 51
347.087848143
  0
SPLINE
  5
252
330
1F
100
AcDbEntity
  8
0
  6
Continuous
 62
     7
370
    15
100
AcDbSpline
210
0.0
220
0.0
230
1.0
 70
     8
 71
     3
 72
    12
 73
     8
 74
     0
 42
0.00000001
 43
0.00000001
 12
1.0
 22
0.0
 32
0.0
 13
1.0
 23
0.0
 33
0.0
 40
0.0
 40
0.0
 40
0.0
 40
0.0
 40
0.1886816267311469
 40
0.3888812722718581
 40
0.5891018131806991
 40
0.7945399104521682
 40
1.0
 40
1.0
 40
1.0
 40
1.0
 10
69.44959248089212
 20
132.3856955934868
 30
0.0
 10
69.76922117545641
 20
132.9316433843839
 30
0.0
 10
70.42799021169049
 20
134.0568662012328
 30
0.0
 10
71.6006679563115
 20
135.5959027235291
 30
0.0
 10
72.91884129227726
 20
137.0484350472107
 30
0.0
 10
74.35915037562513
 20
138.3759035527571
 30
0.0
 10
75.41117615663111
 20
139.1455827161637
 30
0.0
 10
75.93721720063108
 20
139.530442895423
 30
0.0
  0
ARC
  5
253
330
1F
100
AcDbEntity
  8
0
  6
Continuous
 62
     7
370
    15
100
AcDbCircle
 10
95.0224362874
 20
114.2356592493
 30
0.0
 40
27.37129087094904
100
AcDbArc
 50
166.8354451414
 51
178.8067976097
  0
SPLINE
  5
254
330
1F
100
AcDbEntity
  8
0
  6
Continuous
 62
     7
370
    15
100
AcDbSpline
210
0.0
220
0.0
230
1.0
 70
     8
 71
     3
 72
    10
 73
     6
 74
     0
 42
0.00000001
 43
0.00000001
 12
1.0
 22
0.0
 32
0.0
 13
1.0
 23
0.0
 33
0.0
 40
0.0
 40
0.0
 40
0.0
 40
0.0
 40
0.3401615188545656
 40
0.6905236900699234
 40
1.0
 40
1.0
 40
1.0
 40
1.0
 10
67.65708057814258
 20
114.8056336753623
 30
0.0
 10
67.65254461064666
 20
114.4063652491469
 30
0.0
 10
67.64333665254523
 20
113.5958552657513
 30
0.0
 10
67.67536175862881
 20
112.5569765116198
 30
0.0
 10
67.71645402170348
 20
111.9873089841845
 30
0.0
 10
67.73572704427856
 20
111.7201244999276
 30
0.0
  0
SPLINE
  5
255
330
1F
100
AcDbEntity
  8
0
  6
Continuous
 62
     7
370
    15
100
AcDbSpline
210
0.0
220
0.0
230
1.0
 70
     8
 71
     3
 72
    19
 73
    15
 74
     0
 42
0.00000001
 43
0.00000001
 12
1.0
 22
0.0
 32
0.0
 13
1.0
 23
0.0
 33
0.0
 40
0.0
 40
0.0
 40
0.0
 40
0.0
 40
0.0879962195346201
 40
0.1759674325501889
 40
0.2644306075230489
 40
0.3528661177617759
 40
0.4357804690041258
 40
0.5186935422537426
 40
0.5987824673396249
 40
0.6788883388327885
 40
0.7608461245564838
 40
0.8428250468477766
 40
0.9297061422790708
 40
1.0
 40
1.0
 40
1.0
 40
1.0
 10
70.40133337163347
 20
127.9001815785275
 30
0.0
 10
70.31582624551818
 20
127.5792427538718
 30
0.0
 10
70.1448362924631
 20
126.9374563080561
 30
0.0
 10
69.8382598489676
 20
125.9056647261673
 30
0.0
 10
69.51385348921634
 20
124.8541289703469
 30
0.0
 10
69.18938691042706
 20
123.8290904484072
 30
0.0
 10
68.88215078107646
 20
122.8670217923165
 30
0.0
 10
68.60262045652584
 20
122.0005918903371
 30
0.0
 10
68.35211095008158
 20
121.2355250392644
 30
0.0
 10
68.12905844609585
 20
120.5793714866183
 30
0.0
 10
67.93294844961581
 20
120.044861185722
 30
0.0
 10
67.75837066617179
 20
119.6397270595824
 30
0.0
 10
67.61337259181839
 20
119.3851940511043
 30
0.0
 10
67.53372490481941
 20
119.3464385736427
 30
0.0
 10
67.49810381465572
 20
119.3291058373259
 30
0.0
  0
SPLINE
  5
256
330
1F
100
AcDbEntity
  8
0
  6
Continuous
 62
     7
370
    15
100
AcDbSpline
210
0.0
220
0.0
230
1.0
 70
     8
 71
     3
 72
    15
 73
    11
 74
     0
 42
0.00000001
 43
0.00000001
 12
1.0
 22
0.0
 32
0.0
 13
1.0
 23
0.0
 33
0.0
 40
0.0
 40
0.0
 40
0.0
 40
0.0
 40
0.1165507851509209
 40
0.2477675391532057
 40
0.38242314942971
 40
0.5170786069525477
 40
0.6522013443525811
 40
0.7873210810965385
 40
0.8936645343948291
 40
1.0
 40
1.0
 40
1.0
 40
1.0
 10
70.1090303310098
 20
131.78118714882
 30
0.0
 10
70.20336267224204
 20
131.7951876726232
 30
0.0
 10
70.40389750364108
 20
131.8249504522139
 30
0.0
 10
70.63381557149445
 20
131.6582889828966
 30
0.0
 10
70.79560809669375
 20
131.3262786581582
 30
0.0
 10
70.86871668146084
 20
130.8246891790578
 30
0.0
 10
70.84727446116871
 20
130.1702181664919
 30
0.0
 10
70.74598970124846
 20
129.4366741396543
 30
0.0
 10
70.59315944384139
 20
128.6737821936048
 30
0.0
 10
70.4652737946801
 20
128.1580419935787
 30
0.0
 10
70.40133337163347
 20
127.9001815785275
 30
0.0
  0
SPLINE
  5
257
330
1F
100
AcDbEntity
  8
0
  6
Continuous
 62
     7
370
    15
100
AcDbSpline
210
0.0
220
0.0
230
1.0
 70
     8
 71
     3
 72
    11
 73
     7
 74
     0
 42
0.00000001
 43
0.00000001
 12
1.0
 22
0.0
 32
0.0
 13
1.0
 23
0.0
 33
0.0
 40
0.0
 40
0.0
 40
0.0
 40
0.0
 40
0.293522635163179
 40
0.5870961490150988
 40
0.8784482406957841
 40
0.9999999999999999
 40
0.9999999999999999
 40
0.9999999999999999
 40
0.9999999999999999
 10
67.19315527611393
 20
117.6760459859477
 30
0.0
 10
67.186523585719
 20
117.5196993965273
 30
0.0
 10
67.1732590554038
 20
117.2069791168484
 30
0.0
 10
67.14733610801274
 20
116.8914970243199
 30
0.0
 10
67.12341732104815
 20
116.731314291775
 30
0.0
 10
67.10548607077467
 20
116.7523304392879
 30
0.0
 10
67.10020742052215
 20
116.7585172299848
 30
0.0
  0
SPLINE
  5
258
330
1F
100
AcDbEntity
  8
0
  6
Continuous
 62
     7
370
    15
100
AcDbSpline
210
0.0
220
0.0
230
1.0
 70
     8
 71
     3
 72
    11
 73
     7
 74
     0
 42
0.00000001
 43
0.00000001
 12
1.0
 22
0.0
 32
0.0
 13
1.0
 23
0.0
 33
0.0
 40
0.0
 40
0.0
 40
0.0
 40
0.0
 40
0.1561795616143262
 40
0.4736545055322301
 40
0.7961636295817703
 40
1.0
 40
1.0
 40
1.0
 40
1.0
 10
67.20517306261677
 20
119.1701719146774
 30
0.0
 10
67.20798212984572
 20
119.105434571896
 30
0.0
 10
67.2165013453921
 20
118.9091020059209
 30
0.0
 10
67.21439782256452
 20
118.4885799805356
 30
0.0
 10
67.20583462134759
 20
118.0380994572797
 30
0.0
 10
67.19669482130945
 20
117.7771162385007
 30
0.0
 10
67.19315527611393
 20
117.6760459859477
 30
0.0
  0
SPLINE
  5
259
330
1F
100
AcDbEntity
  8
0
  6
Continuous
 62
     7
370
    15
100
AcDbSpline
210
0.0
220
0.0
230
1.0
 70
     8
 71
     3
 72
    13
 73
     9
 74
     0
 42
0.00000001
 43
0.00000001
 12
1.0
 22
0.0
 32
0.0
 13
1.0
 23
0.0
 33
0.0
 40
0.0
 40
0.0
 40
0.0
 40
0.0
 40
0.1665846073949643
 40
0.3376949276780274
 40
0.5044008342407638
 40
0.6769075364173426
 40
0.8353100124128117
 40
1.0
 40
1.0
 40
1.0
 40
1.0
 10
75.93721720063108
 20
139.530442895423
 30
0.0
 10
76.10921483882903
 20
139.6382883216418
 30
0.0
 10
76.45788288745813
 20
139.856909081248
 30
0.0
 10
77.07579627490082
 20
140.0962174205157
 30
0.0
 10
77.75686003997161
 20
140.2633431824773
 30
0.0
 10
78.4654364228275
 20
140.3373165040867
 30
0.0
 10
79.1915240490503
 20
140.3277657647193
 30
0.0
 10
79.65263169769106
 20
140.2478323415704
 30
0.0
 10
79.88767219380456
 20
140.2070878614293
 30
0.0
  0
LINE
  5
25A
330
1F
100
AcDbEntity
  8
0
  6
Continuous
 62
     7
370
    15
100
AcDbLine
 10
79.8876721938
 20
140.2070878614
 30
0.0
 11
80.2856740602
 21
138.2076127995
 31
0.0
  0
ARC
  5
25B
330
1F
100
AcDbEntity
  8
0
  6
Continuous
 62
     7
370
    15
100
AcDbCircle
 10
76.0001357204
 20
114.2645287735
 30
0.0
 40
2.5339348844211
100
AcDbArc
 50
163.8032458791
 51
196.4035358207
  0
LINE
  5
25C
330
1F
100
AcDbEntity
  8
0
  6
Continuous
 62
     7
370
    15
100
AcDbLine
 10
74.7552123913
 20
119.1123107058
 30
0.0
 11
73.5667740055
 21
114.9713362177
 31
0.0
  0
LINE
  5
25D
330
1F
100
AcDbEntity
  8
0
  6
Continuous
 62
     7
370
    15
100
AcDbLine
 10
66.7138072722
 20
116.8593729456
 30
0.0
 11
66.8022773289
 21
116.4342064951
 31
0.0
  0
SPLINE
  5
25E
330
1F
100
AcDbEntity
  8
0
  6
Continuous
 62
     7
370
    15
100
AcDbSpline
210
0.0
220
0.0
230
1.0
 70
     8
 71
     3
 72
    12
 73
     8
 74
     0
 42
0.00000001
 43
0.00000001
 12
1.0
 22
0.0
 32
0.0
 13
1.0
 23
0.0
 33
0.0
 40
0.0
 40
0.0
 40
0.0
 40
0.0
 40
0.204149640016941
 40
0.4150454377199589
 40
0.683554638417079
 40
0.9596499656980256
 40
0.9999999999999999
 40
0.9999999999999999
 40
0.9999999999999999
 40
0.9999999999999999
 10
67.73572704427856
 20
111.7201244999276
 30
0.0
 10
67.77459512871987
 20
111.4772214289138
 30
0.0
 10
67.85361569970364
 20
110.9833885158404
 30
0.0
 10
68.19828926950365
 20
110.3737918766859
 30
0.0
 10
68.73367209310025
 20
109.9070013371701
 30
0.0
 10
69.22425422968846
 20
109.6451007200914
 30
0.0
 10
69.54757435421196
 20
109.6199538505133
 30
0.0
 10
69.5888009914102
 20
109.6167473663197
 30
0.0
  0
SPLINE
  5
25F
330
1F
100
AcDbEntity
  8
0
  6
Continuous
 62
     7
370
    15
100
AcDbSpline
210
0.0
220
0.0
230
1.0
 70
     8
 71
     3
 72
    10
 73
     6
 74
     0
 42
0.00000001
 43
0.00000001
 12
1.0
 22
0.0
 32
0.0
 13
1.0
 23
0.0
 33
0.0
 40
0.0
 40
0.0
 40
0.0
 40
0.0
 40
0.1480666657415335
 40
0.9078074071910738
 40
1.0
 40
1.0
 40
1.0
 40
1.0
 10
74.1802324601354
 20
112.5221048498613
 30
0.0
 10
74.13918999797599
 20
112.5652159431699
 30
0.0
 10
73.88755570222759
 20
112.8295331656971
 30
0.0
 10
73.68325306080436
 20
113.1842888335317
 30
0.0
 10
73.58046411226346
 20
113.5133358335411
 30
0.0
 10
73.56934073054212
 20
113.5489438968332
 30
0.0
  0
LWPOLYLINE
  5
260
330
1F
100
AcDbEntity
  8
0
  6
Continuous
 62
     7
370
    15
100
AcDbPolyline
 90
       10
 70
   128
 43
0.0
 10
72.278105753
 20
109.0281664003
 10
72.2896178313
 20
109.0260292478
 10
72.4710878977
 20
109.062138021
 10
72.6759676882
 20
109.2233543825
 10
72.9007470482
 20
109.5069155638
 10
73.1415749588
 20
109.9079635535
 10
73.394325661
 20
110.419627403
 10
73.6546675735
 20
111.0331404564
 10
73.9181415238
 20
111.7379917198
 10
74.1802324601
 20
112.5221048499
  0
SPLINE
  5
261
330
1F
100
AcDbEntity
  8
0
  6
Continuous
 62
     7
370
    15
100
AcDbSpline
210
0.0
220
0.0
230
1.0
 70
     8
 71
     3
 72
    10
 73
     6
 74
     0
 42
0.00000001
 43
0.00000001
 12
1.0
 22
0.0
 32
0.0
 13
1.0
 23
0.0
 33
0.0
 40
0.0
 40
0.0
 40
0.0
 40
0.0
 40
0.5554002103690008
 40
0.929786105655651
 40
0.9999999999999999
 40
0.9999999999999999
 40
0.9999999999999999
 40
0.9999999999999999
 10
73.921695450777
 20
115.5324233770923
 30
0.0
 10
73.89245695169905
 20
115.5445244217909
 30
0.0
 10
73.84350927453697
 20
115.5647825762075
 30
0.0
 10
73.7820024043092
 20
115.6025211355293
 30
0.0
 10
73.75382710543164
 20
115.6273894422318
 30
0.0
 10
73.74937749140877
 20
115.6313167960004
 30
0.0
  0
SPLINE
  5
262
330
1F
100
AcDbEntity
  8
0
  6
Continuous
 62
     7
370
    15
100
AcDbSpline
210
0.0
220
0.0
230
1.0
 70
     8
 71
     3
 72
    13
 73
     9
 74
     0
 42
0.00000001
 43
0.00000001
 12
1.0
 22
0.0
 32
0.0
 13
1.0
 23
0.0
 33
0.0
 40
0.0
 40
0.0
 40
0.0
 40
0.0
 40
0.0108487977558322
 40
0.4108064486948367
 40
0.6223201396791471
 40
0.7801524531101489
 40
0.8900802869308176
 40
1.0
 40
1.0
 40
1.0
 40
1.0
 10
73.70461440318245
 20
114.9115045629994
 30
0.0
 10
73.70440800397097
 20
114.9125578167995
 30
0.0
 10
73.69659237969756
 20
114.9524408953588
 30
0.0
 10
73.69660401433222
 20
115.0006846158565
 30
0.0
 10
73.72962890599354
 20
115.023662508445
 30
0.0
 10
73.77077495062888
 20
115.0148466188557
 30
0.0
 10
73.82036648269347
 20
114.9875598267518
 30
0.0
 10
73.8583376862322
 20
114.9579854895756
 30
0.0
 10
73.87732258670944
 20
114.9431988671975
 30
0.0
  0
LINE
  5
263
330
1F
100
AcDbEntity
  8
0
  6
Continuous
 62
     7
370
    15
100
AcDbLine
 10
74.1802324601
 20
112.5221048499
 30
0.0
 11
73.7046144032
 21
114.911504563
 31
0.0
  0
ARC
  5
264
330
1F
100
AcDbEntity
  8
0
  6
Continuous
 62
     7
370
    15
100
AcDbCircle
 10
80.0701442964
 20
140.0518738493
 30
0.0
 40
0.6200029159499745
100
AcDbArc
 50
151.9177257926
 51
159.5241961605
  0
LINE
  5
265
330
1F
100
AcDbEntity
  8
0
  6
Continuous
 62
     7
370
    15
100
AcDbLine
 10
83.3244452197
 20
147.1496003289
 30
0.0
 11
79.5231327475
 21
140.3437333722
 31
0.0
  0
LWPOLYLINE
  5
266
330
1F
100
AcDbEntity
  8
0
  6
Continuous
 62
     7
370
    15
100
AcDbPolyline
 90
        9
 70
   128
 43
0.0
 10
83.3103738669
 20
146.6187688131
 10
83.3416008
 20
146.7355715652
 10
83.3672298732
 20
146.8589047511
 10
83.3847176519
 20
146.976527067
 10
83.3923286528
 20
147.0767671783
 10
83.3893075588
 20
147.14967856
 10
83.3759541902
 20
147.1880229731
 10
83.3535937245
 20
147.1879931707
 10
83.3244452197
 20
147.1496003289
  0
LINE
  5
267
330
1F
100
AcDbEntity
  8
0
  6
Continuous
 62
     7
370
    15
100
AcDbLine
 10
79.3403388061
 20
133.4479807485
 30
0.0
 11
83.3103738669
 21
146.6187688131
 31
0.0
  0
ARC
  5
268
330
1F
100
AcDbEntity
  8
0
  6
Continuous
 62
     7
370
    15
100
AcDbCircle
 10
78.1422592898
 20
133.8027870971
 30
0.0
 40
1.249512734010862
100
AcDbArc
 50
338.3525638091
 51
343.5035600428
  0
LWPOLYLINE
  5
269
330
1F
100
AcDbEntity
  8
0
  6
Continuous
 62
     7
370
    15
100
AcDbPolyline
 90
        9
 70
   128
 43
0.0
 10
83.3091148352
 20
146.6278994997
 10
83.3387804278
 20
146.7388609965
 10
83.3631280448
 20
146.8560251017
 10
83.3797414353
 20
146.9677689095
 10
83.3869718854
 20
147.0629985054
 10
83.3841018476
 20
147.1322628279
 10
83.3714161463
 20
147.1686887164
 10
83.3501737043
 20
147.1686626394
 10
83.3224826247
 20
147.1321883221
  0
LINE
  5
26A
330
1F
100
AcDbEntity
  8
0
  6
Continuous
 62
     7
370
    15
100
AcDbLine
 10
83.3224826247
 20
147.1321883221
 30
0.0
 11
79.5211699852
 21
140.3263213654
 31
0.0
  0
ARC
  5
26B
330
1F
100
AcDbEntity
  8
0
  6
Continuous
 62
     7
370
    15
100
AcDbCircle
 10
78.1344651716
 20
133.8159858721
 30
0.0
 40
1.256936506466025
100
AcDbArc
 50
339.224650221
 51
343.4102663374
  0
LINE
  5
26C
330
1F
100
AcDbEntity
  8
0
  6
Continuous
 62
     7
370
    15
100
AcDbLine
 10
79.3390801237
 20
133.4571095724
 30
0.0
 11
83.3091148352
 21
146.6278994997
 31
0.0
  0
LWPOLYLINE
  5
26D
330
1F
100
AcDbEntity
  8
0
  6
Continuous
 62
     7
370
    15
100
AcDbPolyline
 90
        8
 70
   128
 43
0.0
 10
87.8956216448
 20
145.6441434641
 10
87.9268484251
 20
145.7609462161
 10
87.952477491
 20
145.884279402
 10
87.9699654006
 20
146.0019017179
 10
87.9775761687
 20
146.1021418293
 10
87.9745554239
 20
146.175053211
 10
87.9612021209
 20
146.213397624
 10
87.9536057883
 20
146.2180058081
  0
LINE
  5
26E
330
1F
100
AcDbEntity
  8
0
  6
Continuous
 62
     7
370
    15
100
AcDbLine
 10
83.9255866713
 20
132.4733553995
 30
0.0
 11
87.8956216448
 21
145.6441434641
 31
0.0
  0
LWPOLYLINE
  5
26F
330
1F
100
AcDbEntity
  8
0
  6
Continuous
 62
     7
370
    15
100
AcDbPolyline
 90
        9
 70
   128
 43
0.0
 10
81.0145136029
 20
140.346143635
 10
81.0925810193
 20
140.6381505151
 10
81.1566536841
 20
140.9464834799
 10
81.2003732254
 20
141.2405411322
 10
81.2194006112
 20
141.4911414106
 10
81.211847818
 20
141.6734180023
 10
81.1784645603
 20
141.7692790349
 10
81.1225633197
 20
141.7692119796
 10
81.0496919849
 20
141.6732224245
  0
LINE
  5
270
330
1F
100
AcDbEntity
  8
0
  6
Continuous
 62
     7
370
    15
100
AcDbLine
 10
80.1372109973
 20
137.4356488307
 30
0.0
 11
81.0145136029
 21
140.346143635
 31
0.0
  0
LINE
  5
271
330
1F
100
AcDbEntity
  8
0
  6
Continuous
 62
     7
370
    15
100
AcDbLine
 10
81.0496919849
 20
141.6732224245
 30
0.0
 11
79.9778288756
 21
139.7541596164
 31
0.0
  0
ARC
  5
272
330
1F
100
AcDbEntity
  8
0
  6
Continuous
 62
     7
370
    15
100
AcDbCircle
 10
82.555753132
 20
132.8839278578
 30
0.0
 40
1.430039743897006
100
AcDbArc
 50
340.4395600443
 51
343.3152467301
  0
LINE
  5
273
330
1F
100
AcDbEntity
  8
0
  6
Continuous
 62
     7
370
    15
100
AcDbLine
 10
83.9049210308
 20
132.4047970195
 30
0.0
 11
87.8128466257
 21
145.3695336897
 31
0.0
  0
LINE
  5
274
330
1F
100
AcDbEntity
  8
0
  6
Continuous
 62
     7
370
    15
100
AcDbLine
 10
86.6791886338
 20
131.8151077796
 30
0.0
 11
90.5871145488
 21
144.7798463125
 31
0.0
  0
LINE
  5
275
330
1F
100
AcDbEntity
  8
0
  6
Continuous
 62
     7
370
    15
100
AcDbLine
 10
90.8572153249
 20
144.8553691228
 30
0.0
 11
87.6173378029
 21
134.1069175471
 31
0.0
  0
LINE
  5
276
330
1F
100
AcDbEntity
  8
0
  6
Continuous
 62
     7
370
    15
100
AcDbLine
 10
86.9617260587
 20
131.9318919052
 30
0.0
 11
86.7248606929
 21
131.8053996731
 31
0.0
  0
LWPOLYLINE
  5
277
330
1F
100
AcDbEntity
  8
0
  6
Continuous
 62
     7
370
    15
100
AcDbPolyline
 90
        8
 70
   128
 43
0.0
 10
90.5871145488
 20
144.7798463125
 10
90.6261481405
 20
144.9258478899
 10
90.6581842401
 20
145.0800153036
 10
90.6800442436
 20
145.2270450611
 10
90.6895577037
 20
145.3523452003
 10
90.6857816563
 20
145.4434807022
 10
90.6690900274
 20
145.4914140124
 10
90.6595947281
 20
145.4971733112
  0
ARC
  5
278
330
1F
100
AcDbEntity
  8
0
  6
Continuous
 62
     7
370
    15
100
AcDbCircle
 10
90.313021842
 20
145.0648615113
 30
0.0
 40
0.5831240071129322
100
AcDbArc
 50
338.9453211002
 51
7.2015712887
  0
LINE
  5
279
330
1F
100
AcDbEntity
  8
0
  6
Continuous
 62
     7
370
    15
100
AcDbLine
 10
86.9617260587
 20
131.9318919052
 30
0.0
 11
86.8734364458
 21
131.7738185246
 31
0.0
  0
CIRCLE
  5
27A
330
1F
100
AcDbEntity
  8
VERMASSUNG
  6
CENTERX2
100
AcDbCircle
 10
83.4394256645
 20
114.4351516699
 30
0.0
 40
32.50000000000001
  0
DIMENSION
  5
27B
330
1F
100
AcDbEntity
  8
VERMASSUNG
100
AcDbDimension
  2
_D_5
 10
69.0567380289
 20
143.6590705892
 30
0.0
 11
64.2253387848
 21
152.0272995515
 31
0.0
 70
   160
  1
%%c<> min. 
 71
     2
 42
-1.0
  3
SLDDIMSTYLE3
100
AcDbAlignedDimension
 13
99.6894256645
 23
86.289326047
 33
0.0
 14
67.1894256645
 24
142.5809772929
 34
0.0
 50
-60.0
100
AcDbRotatedDimension
  0
INSERT
  5
295
330
1F
100
AcDbEntity
  8
VERMASSUNG
100
AcDbBlockReference
  2
SW_CENTERMARKSYMBOL_0
 10
83.4394256645
 20
112.1928955038
 30
0.0
  0
OLE2FRAME
  5
296
330
1F
100
AcDbEntity
  8
0
100
AcDbOle2Frame
 70
     2
  3
Paintbrush-Bild
 10
13.8511154363
 20
38.264191557
 30
0.0
 11
51.6290888628
 21
31.9806341108
 31
0.0
 71
     2
 72
     0
 73
     1
 90
    12928
310
80552BED0767C5B32B40DDAF6807D121434000000000000000006FFBDDFB85D0
310
4940DDAF6807D121434000000000000000006FFBDDFB85D04940416F4BD60AFB
310
3F4000000000000000002BED0767C5B32B40416F4BD60AFB3F40000000000000
310
0000000000000100000000010000010000000100000000000100000000320000
310
D0CF11E0A1B11AE1000000000000000000000000000000003E000300FEFF0900
310
0600000000000000000000000100000001000000000000000010000002000000
310
01000000FEFFFFFF0000000000000000FFFFFFFFFFFFFFFFFFFFFFFFFFFFFFFF
310
FFFFFFFFFFFFFFFFFFFFFFFFFFFFFFFFFFFFFFFFFFFFFFFFFFFFFFFFFFFFFFFF
310
FFFFFFFFFFFFFFFFFFFFFFFFFFFFFFFFFFFFFFFFFFFFFFFFFFFFFFFFFFFFFFFF
310
FFFFFFFFFFFFFFFFFFFFFFFFFFFFFFFFFFFFFFFFFFFFFFFFFFFFFFFFFFFFFFFF
310
FFFFFFFFFFFFFFFFFFFFFFFFFFFFFFFFFFFFFFFFFFFFFFFFFFFFFFFFFFFFFFFF
310
FFFFFFFFFFFFFFFFFFFFFFFFFFFFFFFFFFFFFFFFFFFFFFFFFFFFFFFFFFFFFFFF
310
FFFFFFFFFFFFFFFFFFFFFFFFFFFFFFFFFFFFFFFFFFFFFFFFFFFFFFFFFFFFFFFF
310
FFFFFFFFFFFFFFFFFFFFFFFFFFFFFFFFFFFFFFFFFFFFFFFFFFFFFFFFFFFFFFFF
310
FFFFFFFFFFFFFFFFFFFFFFFFFFFFFFFFFFFFFFFFFFFFFFFFFFFFFFFFFFFFFFFF
310
FFFFFFFFFFFFFFFFFFFFFFFFFFFFFFFFFFFFFFFFFFFFFFFFFFFFFFFFFFFFFFFF
310
FFFFFFFFFFFFFFFFFFFFFFFFFFFFFFFFFFFFFFFFFFFFFFFFFFFFFFFFFFFFFFFF
310
FFFFFFFFFFFFFFFFFFFFFFFFFFFFFFFFFFFFFFFFFFFFFFFFFFFFFFFFFFFFFFFF
310
FFFFFFFFFFFFFFFFFFFFFFFFFFFFFFFFFFFFFFFFFFFFFFFFFFFFFFFFFFFFFFFF
310
FFFFFFFFFFFFFFFFFFFFFFFFFFFFFFFFFFFFFFFFFFFFFFFFFFFFFFFFFFFFFFFF
310
FDFFFFFFFEFFFFFFFEFFFFFFFEFFFFFF05000000060000000700000008000000
310
090000000A0000000B0000000C0000000D0000000E0000000F00000010000000
310
11000000120000001300000014000000150000001600000017000000FEFFFFFF
310
FFFFFFFFFFFFFFFFFFFFFFFFFFFFFFFFFFFFFFFFFFFFFFFFFFFFFFFFFFFFFFFF
310
FFFFFFFFFFFFFFFFFFFFFFFFFFFFFFFFFFFFFFFFFFFFFFFFFFFFFFFFFFFFFFFF
310
FFFFFFFFFFFFFFFFFFFFFFFFFFFFFFFFFFFFFFFFFFFFFFFFFFFFFFFFFFFFFFFF
310
FFFFFFFFFFFFFFFFFFFFFFFFFFFFFFFFFFFFFFFFFFFFFFFFFFFFFFFFFFFFFFFF
310
FFFFFFFFFFFFFFFFFFFFFFFFFFFFFFFFFFFFFFFFFFFFFFFFFFFFFFFFFFFFFFFF
310
FFFFFFFFFFFFFFFFFFFFFFFFFFFFFFFFFFFFFFFFFFFFFFFFFFFFFFFFFFFFFFFF
310
FFFFFFFFFFFFFFFFFFFFFFFFFFFFFFFFFFFFFFFFFFFFFFFFFFFFFFFFFFFFFFFF
310
FFFFFFFFFFFFFFFFFFFFFFFFFFFFFFFFFFFFFFFFFFFFFFFFFFFFFFFFFFFFFFFF
310
FFFFFFFFFFFFFFFFFFFFFFFFFFFFFFFFFFFFFFFFFFFFFFFFFFFFFFFFFFFFFFFF
310
FFFFFFFFFFFFFFFFFFFFFFFFFFFFFFFFFFFFFFFFFFFFFFFFFFFFFFFFFFFFFFFF
310
FFFFFFFFFFFFFFFFFFFFFFFFFFFFFFFFFFFFFFFFFFFFFFFFFFFFFFFFFFFFFFFF
310
FFFFFFFFFFFFFFFFFFFFFFFFFFFFFFFFFFFFFFFFFFFFFFFFFFFFFFFFFFFFFFFF
310
FFFFFFFFFFFFFFFFFFFFFFFFFFFFFFFFFFFFFFFFFFFFFFFFFFFFFFFFFFFFFFFF
310
52006F006F007400200045006E00740072007900000000000000000000000000
310
0000000000000000000000000000000000000000000000000000000000000000
310
16000500FFFFFFFFFFFFFFFF020000000A00030000000000C000000000000046
310
00000000000000000000000080F7E31F9039CD0103000000C000000000000000
310
01004F006C006500000000000000000000000000000000000000000000000000
310
0000000000000000000000000000000000000000000000000000000000000000
310
0A000200FFFFFFFFFFFFFFFFFFFFFFFF00000000000000000000000000000000
310
0000000000000000000000000000000000000000000000001400000000000000
310
010043006F006D0070004F0062006A0000000000000000000000000000000000
310
0000000000000000000000000000000000000000000000000000000000000000
310
120002010100000003000000FFFFFFFF00000000000000000000000000000000
310
0000000000000000000000000000000000000000010000004D00000000000000
310
01004F006C006500310030004E00610074006900760065000000000000000000
310
0000000000000000000000000000000000000000000000000000000000000000
310
1A000200FFFFFFFFFFFFFFFFFFFFFFFF00000000000000000000000000000000
310
0000000000000000000000000000000000000000040000002426000000000000
310
FEFFFFFF02000000FEFFFFFFFFFFFFFFFFFFFFFFFFFFFFFFFFFFFFFFFFFFFFFF
310
FFFFFFFFFFFFFFFFFFFFFFFFFFFFFFFFFFFFFFFFFFFFFFFFFFFFFFFFFFFFFFFF
310
FFFFFFFFFFFFFFFFFFFFFFFFFFFFFFFFFFFFFFFFFFFFFFFFFFFFFFFFFFFFFFFF
310
FFFFFFFFFFFFFFFFFFFFFFFFFFFFFFFFFFFFFFFFFFFFFFFFFFFFFFFFFFFFFFFF
310
FFFFFFFFFFFFFFFFFFFFFFFFFFFFFFFFFFFFFFFFFFFFFFFFFFFFFFFFFFFFFFFF
310
FFFFFFFFFFFFFFFFFFFFFFFFFFFFFFFFFFFFFFFFFFFFFFFFFFFFFFFFFFFFFFFF
310
FFFFFFFFFFFFFFFFFFFFFFFFFFFFFFFFFFFFFFFFFFFFFFFFFFFFFFFFFFFFFFFF
310
FFFFFFFFFFFFFFFFFFFFFFFFFFFFFFFFFFFFFFFFFFFFFFFFFFFFFFFFFFFFFFFF
310
FFFFFFFFFFFFFFFFFFFFFFFFFFFFFFFFFFFFFFFFFFFFFFFFFFFFFFFFFFFFFFFF
310
FFFFFFFFFFFFFFFFFFFFFFFFFFFFFFFFFFFFFFFFFFFFFFFFFFFFFFFFFFFFFFFF
310
FFFFFFFFFFFFFFFFFFFFFFFFFFFFFFFFFFFFFFFFFFFFFFFFFFFFFFFFFFFFFFFF
310
FFFFFFFFFFFFFFFFFFFFFFFFFFFFFFFFFFFFFFFFFFFFFFFFFFFFFFFFFFFFFFFF
310
FFFFFFFFFFFFFFFFFFFFFFFFFFFFFFFFFFFFFFFFFFFFFFFFFFFFFFFFFFFFFFFF
310
FFFFFFFFFFFFFFFFFFFFFFFFFFFFFFFFFFFFFFFFFFFFFFFFFFFFFFFFFFFFFFFF
310
FFFFFFFFFFFFFFFFFFFFFFFFFFFFFFFFFFFFFFFFFFFFFFFFFFFFFFFFFFFFFFFF
310
FFFFFFFFFFFFFFFFFFFFFFFFFFFFFFFFFFFFFFFFFFFFFFFFFFFFFFFFFFFFFFFF
310
0100000200000000000000000000000000000000000000000000000000000000
310
0000000000000000000000000000000000000000000000000000000000000000
310
0100FEFF030A0000FFFFFFFF0A00030000000000C00000000000004607000000
310
5042727573680007000000504272757368000700000050427275736800F439B2
310
7100000000000000000000000000000000000000000000000000000000000000
310
0000000000000000000000000000000000000000000000000000000000000000
310
0000000000000000000000000000000000000000000000000000000000000000
310
0000000000000000000000000000000000000000000000000000000000000000
310
0000000000000000000000000000000000000000000000000000000000000000
310
0000000000000000000000000000000000000000000000000000000000000000
310
0000000000000000000000000000000000000000000000000000000000000000
310
0000000000000000000000000000000000000000000000000000000000000000
310
0000000000000000000000000000000000000000000000000000000000000000
310
0000000000000000000000000000000000000000000000000000000000000000
310
0000000000000000000000000000000000000000000000000000000000000000
310
0000000000000000000000000000000000000000000000000000000000000000
310
20260000424D0E260000000000003E00000028000000B40200006E0000000100
310
01000000000000000000130B0000130B00000200000002000000000000FFFFFF
310
FFFFFFFFFFFFFFFFFFFFFFFFFFFFFFFFFFFFFFFFFFFFFFFFFFFFFFFFFFFFFFFF
310
FFFFFFFFFFFFFFFFFFFFFFFFFFFFFFFFFFFFFFFFFFFFFFFFFFFFFFFFFFFFFFFF
310
FFFFFFFFFFFFFFFFFFFFFFFFFFFFFFFFFFFFFFFFFFFFFFFFF000FFFFFFFFFFFF
310
FFFFFFFFFFFFFFFFFFFFFFFFFFFFFFFFFFFFFFFFFFFFFFFFFFFFFFFFFFFFFFFF
310
FFFFFFFFFFFFFFFFFFFFFFFFFFFFFFFFFFFFFFFFFFFFFFFFFFFFFFFFFFFFFFFF
310
FFFFFFFFFFFFFFFFFFFFFFFFFFFFFFFFF000FFFFFFFFFFFFFFFFFFFFFFFFFFFF
310
FFFFFFFFFFFFFFFFFFFFFFFFFFFFFFFFFFFFFFFFFFFFFFFFFFFFFFFFFFFFFFFF
310
FFFFFFFFFFFFFFFFFFFFFFFFFFFFFFFFFFFFFFFFFFFFFFFFFFFFFFFFFFFFFFFF
310
FFFFFFFFFFFFFFFFF000FFFFFFFFFFFFFFFFFFFFFFFFFFFFFFFFFFFFFFFFFFFF
310
FFFFFFFFFFFFFFFFFFFFFFFFFFFFFFFFFFFFFFFFFFFFFFFFFFFFFFFFFFFFFFFF
310
FFFFFFFFFFFFFFFFFFFFFFFFFFFFFFFFFFFFFFFFFFFFFFFFFFFFFFFFFFFFFFFF
310
F000FFFFFFFFFFFFFFFFFFFFFFFFFFFFFFFFFFFFFFFFFFFFFFFFFFFFFFFFFFFF
310
FFFFFFFFFFFFFFFFFFFFFFFFFFFFFFFFFFFFFFFFFFFFFFFFFFFFFFFFFFFFFFFF
310
FFFFFFFFFFFFFFFFFFFFFFFFFFFFFFFFFFFFFFFFFFFFFFFFF000FFFFFFFFFFFF
310
FFFFFFFFFFFFFFFFFFFFFFFFFFFFFFFFFFFFFFFFFFFFFFFFFFFFFFFFFFFFFFFF
310
FFFFFFFFFFFFFFFFFFFFFFFFFFFFFFFFFFFFFFFFFFFFFFFFFFFFFFFFFFFFFFFF
310
FFFFFFFFFFFFFFFFFFFFFFFFFFFFFFFFF000FFFFFFFFFFFFFFFFFFFFFFFFFFFF
310
FFFFFFFFFFFFFFFFFFFFFFFFFFFFFFFFFFFFFFFFFFFFFFFFFFFFFFFFFFFFFFFF
310
FFFFFFFFFFFFFFFFFFFFFFFFFFFFFFFFFFFFFFFFFFFFFFFFFFFFFFFFFFFFFFFF
310
FFFFFFFFFFFFFFFFF000FFFFFFFFFFFFFFFFFFFFFFFFFFFFFFFFFFFFFFFFFFFF
310
FFFFFFFFFFFFFFFFFFFFFFFFFFFFFFFFFFFFFFFFFFFFFFFFFFFFFFFFFFFFFFFF
310
FFFFFFFFFFFFFFFFFFFFFFFFFFFFFFFFFFFFFFFFFFFFFFFFFFFFFFFFFFFFFFFF
310
F000FFFFFFFFFFFFFFFFFFFFFFFFFFFFFFFFFFFFFFFFFFFFFFFFFFFFFFFFFFFF
310
FFFFFFFFFFFFFFFFFFFFFFFFFFFFFFFFFFFFFFFFFFFFFFFFFFFFFFFFFFFFFFFF
310
FFFFFFFFFFFFFFFFFFFFFFFFFFFFFFFFFFFFFFFFFFFFFFFFF000FFFFFFFFFFFF
310
FFFFFFFFFFFFFFFFFFFFFFFFFFFFFFFFFFFFFFFFFFFFFFFFFFFFFFFFFFFFFFFF
310
FFFFFFFFFFFFFFFFFFFFFFFFFFFFFFFFFFFFFFFFFFFFFFFFFFFFFFFFFFFFFFFF
310
FFFFFFFFFFFFFFFFFFFFFFFFFFFFFFFFF000FFFFFFFFFFFFFFFFFFFFFFFFFFFF
310
FFFFFFFFFFFFFFFFFFFFFFFFFFFFFFFFFFFFFFFFFFFFFFFFFFFFFFFFFFFFFFFF
310
FFFFFFFFFFFFFFFFFFFFFFFFFFFFFFFFFFFFFFFFFFFFFFFFFFFFFFFFFFFFFFFF
310
FFFFFFFFFFFFFFFFF000FFFFFFFFFFFFFFFFFFFFFFFFFFFFFFFFFFFFFFFFFFFF
310
FFFFFFFFFFFFFFFFFFFFFFFFFFFFFFFFFFFFFFFFFFFFFFFFFFFFFFFFFFFFFFFF
310
FFFFFFFFFFFFFFFFFFFFFFFFFFFFFFFFFFFFFFFFFFFFFFFFFFFFFFFFFFFFFFFF
310
F000FFFFFFFFFFFFFFFFFFFFFFFFFFFFFFFFFFFFFFFFFFFFFFFFFFFFFFFFFFFF
310
FFFFFFFFFFFFFFFFFFFFFFFFFFFFFFFFFFFFFFFFFFFFFFFFFFFFFFFFFFFFFFFF
310
FFFFFFFFFFFFFFFFFFFFFFFFFFFFFFFFFFFFFFFFFFFFFFFFF000FFFFFFFFFFFF
310
FFFFFFFFFFFFFFFFFFFFFFFFFFFFFFFFFFFFFFFFFFFFFFFFFFFFFFFFFFFFFFFF
310
FFFFFFFFFFFFFFFFFFFFFFFFFFFFFFFFFFFFFFFFFFFFFFFFFFFFFFFFFFFFFFFF
310
FFFFFFFFFFFFFFFFFFFFFFFFFFFFFFFFF000FFFFFFFFFFFFFFFFFFFFFFFFFFFF
310
FFFFFFFFFFFFFFFFFFFFFFFFFFFFFFFFFFFFFFFFFFFFFFFFFFFFFFFFFFFFFFFF
310
FFFFFFFFFFFFFFFFFFFFFFFFFFFFFFFFFFFFFFFFFFFFFFFFFFFFFFFFFFFFFFFF
310
FFFFFFFFFFFFFFFFF000FFFFFFFFFFFFFFFFFFFFFFFFFFFFFFFFFFFFFFFFFFFF
310
FFFFFFFFFFFFFFFFFFFFFFFFFFFFFFFFFFFFFFFFFFFFFFFFFFFFFFFFFFFFFFFF
310
FFFFFFFFFFFFFFFFFFFFFFFFFFFFFFFFFFFFFFFFFFFFFFFFFFFFFFFFFFFFFFFF
310
F000FFFFFFFFFFFFFFFFFFFFFFFFFFFFFFFFFFFFFFFFFFFFFFFFFFFFFFFFFFFF
310
FFFFFFFFFFFFFFFFFFFFFFFFFFFFFFFFFFFFFFFFFFFFFFFFFFFFFFFFFFFFFFFF
310
FFFFFFFFFFFFFFFFFFFFFFFFFFFFFFFFFFFFFFFFFFFFFFFFF000FFFFFFFFFFFF
310
FFFFFFFFFFFFFFFFFFFFFFFFFFFFFFFFFFFFFFFFFFFFFFFFFFFFFFFFFFFFFFFF
310
FFFFFFFFFFFFFFFFFFFFFFFFFFFFFFFFFFFFFFFFFFFFFFFFFFFFFFFFFFFFFFFF
310
FFFFFFFFFFFFFFFFFFFFFFFFFFFFFFFFF000FFFFFFFFFFFFFFFFFFFFFFFFFFFF
310
FFFFFFFFFFFFFFFFFFFFFFFFFFFFFFFFFFFFFFFFFFFFFFFFFFFFFFFFFFFFFFFF
310
FFFFFFFFFFFFFFFFFFFFFFFFFFFFFFFFFFFFFFFFFFFFFFFFFFFFFFFFFFFFFFFF
310
FFFFFFFFFFFFFFFFF000FFFFF80003FFFFFFFFFFFFFFFFFFFFFFFFFFFFFFFFFF
310
FFFFF00007FFFFFFFFFF00007FFFFFF800000000000000007FFFFFFFFFFFFFFF
310
FFFFFFFC001FFFFFFFFFFFFFFC001FFFFFFFFFFFFFFFFFFFFFFFFFFE0007FFFF
310
F000FFFF8000007FFFFFFFF8000FFFFFC0007FFFFF80007FFFFF0000007FFFFF
310
FFF8000007FFFFF800000000000000007FFFFFF0001FFFFFFFFFFFC00001FFFF
310
FFFFFFFFC00001FFFFFFFF000000000003FFFFE000007FFFF000FFFE0000000F
310
FFFFFFF0000FFFFF80007FFFFF80007FFFFC0000001FFFFFFFC0000001FFFFF8
310
00000000000000007FFFFFF0001FFFFFFFFFFE0000003FFFFFFFFFFE0000003F
310
FFFFFF000000000003FFFF0000000FFFF000FFF800000003FFFFFFF00007FFFF
310
80007FFFFF80007FFFF000000007FFFFFF000000003FFFF80000000000000000
310
7FFFFFF0001FFFFFFFFFF80000000FFFFFFFFFF80000000FFFFFFF0000000000
310
03FFFC00000003FFF000FFE000000000FFFFFFF00007FFFF80003FFFFF80007F
310
FFC000000001FFFFFC000000001FFFF800000000000000007FFFFFF0001FFFFF
310
FFFFE000000003FFFFFFFFE000000003FFFFFF000000000003FFF000000000FF
310
F000FF80000000007FFFFFF00007FFFF80003FFFFF80007FFF8000000000FFFF
310
F80000000007FFF800000000000000007FFFFFF0001FFFFFFFFFC000000001FF
310
FFFFFFC000000001FFFFFF000000000003FFC0000000007FF000FF0000000000
310
3FFFFFE00007FFFF00003FFFFF80007FFE00000000003FFFF00000000003FFF8
310
00000000000000007FFFFFF0001FFFFFFFFF8000000000FFFFFFFF8000000000
310
FFFFFF000000000003FF80000000003FF000FE00000000001FFFFFE00003FFFF
310
00003FFFFF80007FFC00000000001FFFE00000000001FFF8000001FFFE000000
310
7FFFFFF0001FFFFFFFFE00000000003FFFFFFE00000000003FFFFF0000000000
310
03FF00000000001FF000FC00000000000FFFFFE00003FFFF00001FFFFF80007F
310
F800000000001FFFC00000000000FFF8000001FFFE0000007FFFFFF0001FFFFF
310
FFFC00000000001FFFFFFC00000000001FFFFF000000000003FE00000000000F
310
F000F8000000000007FFFFE00003FFFF00001FFFFF80007FF800000000000FFF
310
800000000000FFF8000001FFFE0000007FFFFFF0001FFFFFFFF800000000000F
310
FFFFF800000000000FFFFF000000000003FC000000000007F000F80000000000
310
03FFFFC00003FFFE00001FFFFF80007FF0000000000007FF0000000000007FF8
310
000001FFFE0000007FFFFFF0001FFFFFFFF0000000000007FFFFF00000000000
310
07FFFF000000000003F8000000000003F000F0000000000003FFFFC00001FFFE
310
00001FFFFF80007FE0000000000007FE0000000000003FF8000001FFFE000000
310
7FFFFFF0001FFFFFFFF0000000000007FFFFF0000000000007FFFF0000000000
310
03F800001F800003F000E00001FFF00001FFFFC00001FFFE00000FFFFF80007F
310
E00001FFE00003FE00001FFF00003FF8000001FFFE0000007FFFFFF0001FFFFF
310
FFE000003E000003FFFFE000003E000003FFFF000000000003F00001FFF80001
310
F000E00007FFFC0001FFFFC00001FFFE00000FFFFF80007FC0000FFFFC0003FC
310
0000FFFFC0001FF8000001FFFE0000007FFFFFF0001FFFFFFFC00003FFE00001
310
FFFFC00003FFE00001FFFF0001FFFFFFFFF00007FFFE0001F000E0000FFFFF00
310
00FFFF800001FFFC00000FFFFF80007FC0001FFFFE0001FC0001FFFFE0001FF8
310
000001FFFE0000007FFFFFF0001FFFFFFF80000FFFF80000FFFF80000FFFF800
310
00FFFF0003FFFFFFFFE0000FFFFF8000F000C0003FFFFF8000FFFF800000FFFC
310
000007FFFF80007F80003FFFFF0001FC0003FFFFF0001FF8000001FFFE000000
310
7FFFFFF0001FFFFFFF80003FFFFE0000FFFF80003FFFFE0000FFFF0003FFFFFF
310
FFE0003FFFFF8000F000C0003FFFFF8000FFFF800000FFFC000007FFFF80007F
310
80007FFFFF8001F80007FFFFF8000FF8000001FFFE0000007FFFFFF0001FFFFF
310
FF00007FFFFF00007FFF00007FFFFF00007FFF0003FFFFFFFFE0003FFFFFC000
310
F000C0007FFFFFC000FFFF000000FFFC000007FFFF80007F8000FFFFFF8000F8
310
000FFFFFF8000FF8000001FFFE0000007FFFFFF0001FFFFFFF0000FFFFFF8000
310
7FFF0000FFFFFF80007FFF0003FFFFFFFFC0007FFFFFC00070008000FFFFFFC0
310
00FFFF000000FFF8000007FFFF80007F8000FFFFFF8000F8000FFFFFF8000FF8
310
000001FFFE0000007FFFFFF0001FFFFFFE0001FFFFFFC0003FFE0001FFFFFFC0
310
003FFF0003FFFFFFFFC0007FFFFFE00070008000FFFFFFC0007FFF0000007FF8
310
000003FFFF80007F0001FFFFFF8000F8000FFFFFF8000FF8000001FFFE000000
310
7FFFFFF0001FFFFFFE0001FFFFFFC0003FFE0001FFFFFFC0003FFF0003FFFFFF
310
FFC000FFFFFFE00070008000FFFFFFC0007FFF0000007FF8000003FFFF80007F
310
0001FFFFFF8000F8001FFFFFF8000FF8000001FFFE0000007FFFFFF0001FFFFF
310
FE0003FFFFFFE0003FFE0003FFFFFFE0003FFF0003FFFFFFFFC000FFFFFFE000
310
70008000FFFFFFC0007FFE0000007FF8000003FFFF80007F0001FFFFFF8000F0
310
001FFFFFF8000FF8000001FFFE0000007FFFFFF0001FFFFFFC0003FFFFFFE000
310
1FFC0003FFFFFFE0001FFF0003FFFFFFFFC000FFFFFFC00070008000FFFFFF80
310
007FFE0000007FF0000003FFFF80007F0001FFFFFF0000F0001FFFFFF8000FF8
310
000001FFFE0000007FFFFFF0001FFFFFFC0007FFFFFFF0001FFC0007FFFFFFF0
310
001FFF0003FFFFFFFFC000FFFFFFC00070008001FFFFFF0000FFFE0000003FF0
310
000001FFFF80007F0001FFFFFF0000F8001FFFFFF0000FF8000001FFFE000000
310
7FFFFFF0001FFFFFFC0007FFFFFFF0001FFC0007FFFFFFF0001FFF0003FFFFFF
310
FFC001FFFFFF80007000FFFFFFFFFE0000FFFE0008003FF0008001FFFF80007F
310
FFFFFFFFFC0000FFFFFFFFFFE0000FF8000001FFFE0000007FFFFFF0001FFFFF
310
F8000FFFFFFFF8000FF8000FFFFFFFF8000FFF0003FFFFFFFFFFFFFFFFFF0000
310
7000FFFFFFFFFC0000FFFC0008003FF0008001FFFF80007FFFFFFFFFF80001FF
310
FFFFFFFF80000FF8000001FFFE0000007FFFFFF0001FFFFFF8000FFFFFFFF800
310
0FF8000FFFFFFFF8000FFF0003FFFFFFFFFFFFFFFFFE0000F000FFFFFFFFE000
310
00FFFC000C003FE000C001FFFF80007FFFFFFFFFC00001FFFFFFFFFE00001FF8
310
000001FFFE0000007FFFFFF0001FFFFFF8000FFFFFFFF8000FF8000FFFFFFFF8
310
000FFF0003FFFFFFFFFFFFFFFFF00000F000FFFFFFFE000001FFFC000C001FE0
310
00C000FFFF80007FFFFFFFFE000001FFFFFFFFE000001FF80FFFFFFFFFFFFFC0
310
7FFFFFF0001FFFFFF8000FFFFFFFF8000FF8000FFFFFFFF8000FFF0003FFFFFF
310
FFFFFFFFFF800000F000FFFFFFC0000001FFFC001C001FE001C000FFFF80007F
310
FFFFFF80000003FFFFFFF80000001FF80FFFFFFFFFFFFFC07FFFFFF0001FFFFF
310
F8001FFFFFFFFC000FF8001FFFFFFFFC000FFF0003FFFFFFFFFFFFFFF0000001
310
F000FFFFF800000001FFF8001C001FE001C000FFFF80007FFFFFF800000003FF
310
FFFF800000003FF80FFFFFFFFFFFFFC07FFFFFF0001FFFFFF8001FFFFFFFFC00
310
0FF8001FFFFFFFFC000FFF0003FFFFFFFFFFFFFE00000001F000FFFFC0000000
310
03FFF8001E001FC001E000FFFF80007FFFFF8000000007FFFFFC000000003FF8
310
0FFFFFFFFFFFFFC07FFFFFF0001FFFFFF8001FFFFFFFFC000FF8001FFFFFFFFC
310
000FFF0003FFFFFFFFFFFFE000000003F000FFFE0000000007FFF8001E000FC0
310
01E0007FFF80007FFFFE0000000007FFFFE0000000007FF80FFFFFFFFFFFFFC0
310
7FFFFFF0001FFFFFF0001FFFFFFFFC0007F0001FFFFFFFFC0007FF0003FFFFFF
310
FFFFFF0000000003F000FFF80000000007FFF8001E000FC003E0007FFF80007F
310
FFF0000000000FFFFF8000000000FFF80FFFFFFFFFFFFFC07FFFFFF0001FFFFF
310
F0001FFFFFFFFC0007F0001FFFFFFFFC0007FF0003FFFFFFFFFFFC0000000007
310
F000FFE0000000000FFFF0003E000FC003E0007FFF80007FFFC0000000001FFF
310
FE0000000001FFF80FFFFFFFFFFFFFC07FFFFFF0001FFFFFF0001FFFFFFFFC00
310
07F0001FFFFFFFFC0007FF0003FFFFFFFFFFF0000000000FF000FFC000000000
310
1FFFF0003F000F8003F0003FFF80007FFF80000000003FFFF80000000003FFF8
310
0FFFFFFFFFFFFFC07FFFFFF0001FFFFFF0001FFFFFFFFC0007F0001FFFFFFFFC
310
0007FF0003FFFFFFFFFFE0000000001FF000FF00000000007FFFF0003F000780
310
03F0003FFF80007FFF00000000007FFFF00000000007FFF80FFFFFFFFFFFFFC0
310
7FFFFFF0001FFFFFF0001FFFFFFFFC0007F0001FFFFFFFFC0007FF0003FFFFFF
310
FFFF80000000007FF000FE0000000000FFFFE0003F00078007F0003FFF80007F
310
FE0000000001FFFFE0000000001FFFF80FFFFFFFFFFFFFC07FFFFFF0001FFFFF
310
F0001FFFFFFFFC0007F0001FFFFFFFFC0007FF0003FFFFFFFFFF0000000000FF
310
F000FC0000000003FFFFE0007F00078007F0003FFF80007FFC0000000007FFFF
310
C0000000007FFFF80FFFFFFFFFFFFFC07FFFFFF0001FFFFFF8001FFFFFFFFC00
310
0FF8001FFFFFFFFC000FFF0003FFFFFFFFFE0000000003FFF000FC000000000F
310
FFFFE0007F80070007F8001FFF80007FF8000000001FFFFF8000000001FFFFF8
310
0FFFFFFFFFFFFFC07FFFFFF0001FFFFFF8001FFFFFFFFC000FF8001FFFFFFFFC
310
000FFF0003FFFFFFFFFC000000000FFFF000F8000000007FFFFFE0007F800700
310
07F8001FFF80007FF000000000FFFFFF800000000FFFFFF80FFFFFFFFFFFFFC0
310
7FFFFFF0001FFFFFF8000FFFFFFFF8000FF8000FFFFFFFF8000FFF0003FFFFFF
310
FFFC000000007FFFF000F800000007FFFFFFC0007F8003000FF8001FFF80007F
310
F000000007FFFFFF000000007FFFFFF80FFFFFFFFFFFFFC07FFFFFF0001FFFFF
310
F8000FFFFFFFF8000FF8000FFFFFFFF8000FFF0003FFFFFFFFF80000000FFFFF
310
F000F0000000FFFFFFFFC000FF8003000FF8001FFF80007FE0000000FFFFFFFF
310
0000000FFFFFFFF8000001FFFE0000007FFFFFF0001FFFFFF8000FFFFFFFF800
310
0FF8000FFFFFFFF8000FFF0003FFFFFFFFF8000000FFFFFFF000F000000FFFFF
310
FFFFC000FFC002000FF8000FFF80007FE000001FFFFFFFFE000001FFFFFFFFF8
310
000001FFFE0000007FFFFFF0001FFFFFF8000FFFFFFFF8000FF8000FFFFFFFF8
310
000FFF0003FFFFFFFFF000001FFFFFFFF000E00000FFFFFFFFFFC000FFC00200
310
0FFC000FFF80007FE00001FFFFFFFFFE00001FFFFFFFFFF8000001FFFE000000
310
7FFFFFF0001FFFFFFC000FFFFFFFF8001FFC000FFFFFFFF8001FFF0003FFFFFF
310
FFF00001FFFFFFFFF000E00007FFFFFFFFFF8000FFC000001FFC000FFF80007F
310
C0000FFFFFFFFFFE0000FFFFFFFFFFF8000001FFFE0000007FFFFFF0001FFFFF
310
FC0007FFFFFFF0001FFC0007FFFFFFF0001FFF0003FFFFFFFFF00007FFFFFFFF
310
F000E0001FFFFFFFFFFF8000FFC000001FFC000FFF80007FC0003FFFFFFFFFFE
310
0001FFFFFFFFFFF8000001FFFE0000007FFFFFF0001FFFFFFC0007FFFFFFF000
310
1FFC0007FFFFFFF0001FFF0003FFFFFFFFF0001FFFFFFFFFF000E0003FFFFF00
310
03FF8001FFE000001FFC0007FF80007FC0007FFFFF0007FC0003FFFFF0003FF8
310
000001FFFE0000007FFFFFF0001FFFFFFC0003FFFFFFE0001FFC0003FFFFFFE0
310
001FFF0003FFFFFFFFF0003FFFFFFFFFF000E0003FFFFF0001FF8001FFE00000
310
1FFE0007FF80007FC0007FFFFE0003FC0007FFFFE0003FF8000001FFFE000000
310
7FFFFFF0001FFFFFFE0003FFFFFFE0003FFE0003FFFFFFE0003FFF0003FFFFFF
310
FFF0003FFFFF8001F000E0003FFFFF0001FF0001FFE000001FFE0007FF80007F
310
C0007FFFFE0003FC0007FFFFE0003FF8000001FFFE0000007FFFFFF0001FFFFF
310
FE0001FFFFFFC0003FFE0001FFFFFFC0003FFF0003FFFFFFFFF0003FFFFF0001
310
F000E0003FFFFF0003FF0001FFE000003FFE0007FF80007FC0007FFFFE0003FC
310
0007FFFFE0003FF8000001FFFE0000007FFFFFF0001FFFFFFF0001FFFFFFC000
310
7FFF0001FFFFFFC0007FFF0003FFFFFFFFF0003FFFFF0001F000E0003FFFFE00
310
03FF0003FFF000003FFE0003FF80007FC0007FFFFC0003FE0007FFFFE0003FF8
310
000001FFFE0000007FFFFFF0001FFFFFFF0000FFFFFF80007FFF0000FFFFFF80
310
007FFF0003FFFFFFFFF0003FFFFF0001F000E0003FFFFE0003FF0003FFF00000
310
3FFF0003FF80007FC0007FFFFC0007FE0007FFFFC0003FF8000001FFFE000000
310
7FFFFFF0001FFFFFFF80007FFFFF0000FFFF80007FFFFF0000FFFF0003FFFFFF
310
FFF0003FFFFF0003F000E0003FFFFC0003FE0003FFF000003FFF0003FF80007F
310
E0003FFFF80007FE0003FFFFC0007FF8000001FFFE0000007FFFFFF0001FFFFF
310
FF80003FFFFE0000FFFF80003FFFFE0000FFFF0003FFFFFFFFF0001FFFFE0003
310
F000F0001FFFF80003FE0003FFF000007FFF0001FF80007FE0003FFFF00007FE
310
0001FFFF80007FF8000001FFFE0000007FFFFFF0001FFFFFFFC0000FFFF80001
310
FFFFC0000FFFF80001FFFF0003FFFFFFFFF0001FFFFC0003F000F0000FFFF000
310
07FE0007FFF800007FFF0001FF80007FE0001FFFE00007FF0000FFFE00007FF8
310
000001FFFE0000007FFFFFF0001FFFFFFFC00003FFE00001FFFFC00003FFE000
310
01FFFF0003FFFFFFFFF8000FFFF80003F000F00003FFC00007FC0007FFF80000
310
7FFF8001FF80007FF00007FF80000FFF00007FF80000FFF8000001FFFE000000
310
7F80000000000001FFE000003E000003FFFFE000003E000003FFFF0003FFFFFF
310
FFF80003FFE00007F000F800000000000FFC0007FFF800007FFF8001FF80007F
310
F000000000000FFF000000000000FFF8000001FFFE0000007F80000000000001
310
FFF0000000000007FFFFF0000000000007FFFF0003FFFFFFFFFC00007E000007
310
F000F800000000000FFC0007FFF80000FFFF8000FF80007FF800000000001FFF
310
800000000001FFF8000001FFFE0000007F80000000000001FFF800000000000F
310
FFFFF800000000000FFFFF0003FFFFFFFFFC00000000000FF000FC0000000000
310
1FFC0007FFFC0000FFFF8000FF80007FF800000000003FFFC00000000001FFF8
310
000001FFFE0000007F80000000000001FFF800000000000FFFFFF80000000000
310
0FFFFF0003FFFFFFFFFE00000000001FF000FE00000000003FF8000FFFFC0000
310
FFFF8000FF80007FFC00000000003FFFC00000000003FFF8000001FFFE000000
310
7F80000000000001FFFC00000000001FFFFFFC00000000001FFFFF0003FFFFFF
310
FFFF00000000001FF000FF00000000003FF8000FFFFC0000FFFFC000FF80007F
310
FE00000000007FFFE00000000007FFF8000001FFFE0000007F80000000000001
310
FFFE00000000003FFFFFFE00000000003FFFFF0003FFFFFFFFFF80000000003F
310
F000FF80000000007FF8000FFFFC0001FFFFC0007F80007FFF0000000000FFFF
310
F0000000000FFFF800000000000000007F80000000000001FFFF8000000000FF
310
FFFFFF8000000000FFFFFF0003FFFFFFFFFFC0000000007FF000FFC000000000
310
FFF8000FFFFE0001FFFFC0007F80007FFF8000000001FFFFF8000000001FFFF8
310
00000000000000007F80000000000001FFFFC000000001FFFFFFFFC000000001
310
FFFFFF0003FFFFFFFFFFE000000000FFF000FFE000000003FFF0001FFFFE0001
310
FFFFC0007F80007FFFC000000007FFFFFE000000003FFFF80000000000000000
310
7F80000000000001FFFFE000000003FFFFFFFFE000000003FFFFFF0003FFFFFF
310
FFFFF000000003FFF000FFF80000000FFFF0001FFFFE0001FFFFE0007F80007F
310
FFF00000000FFFFFFF00000000FFFFF800000000000000007F80000000000001
310
FFFFF80000000FFFFFFFFFF80000000FFFFFFF0003FFFFFFFFFFFC0000000FFF
310
F000FFFE0000003FFFF0001FFFFE0003FFFFE0003F80007FFFFC0000003FFFFF
310
FFC0000003FFFFF800000000000000007F80000000000001FFFFFE0000003FFF
310
FFFFFFFE0000003FFFFFFF0003FFFFFFFFFFFF0000003FFFF000FFFF800000FF
310
FFF0001FFFFF0003FFFFE0003F80007FFFFF000001FFFFFFFFF800001FFFFFF8
310
00000000000000007F80000000000001FFFFFFC00001FFFFFFFFFFFFC00001FF
310
FFFFFF0003FFFFFFFFFFFFC00000FFFFF000FFFFF8000FFFFFFFFFFFFFFFFFFF
310
FFFFFFFFFFFFFFFFFFFFF0001FFFFFFFFFFF0000FFFFFFF80000000000000000
310
7FFFFFFFFFFFFFFFFFFFFFFC001FFFFFFFFFFFFFFC001FFFFFFFFFFFFFFFFFFF
310
FFFFFFFC001FFFFFF000FFFFFFFFFFFFFFFFFFFFFFFFFFFFFFFFFFFFFFFFFFFF
310
FFFFFFFFFFFFFFFFFFFFFFFFFFFFFFFFFFFFFFFFFFFFFFFFFFFFFFFFFFFFFFFF
310
FFFFFFFFFFFFFFFFFFFFFFFFFFFFFFFFFFFFFFFFFFFFFFFFFFFFFFFFFFFFFFFF
310
F000FFFFFFFFFFFFFFFFFFFFFFFFFFFFFFFFFFFFFFFFFFFFFFFFFFFFFFFFFFFF
310
FFFFFFFFFFFFFFFFFFFFFFFFFFFFFFFFFFFFFFFFFFFFFFFFFFFFFFFFFFFFFFFF
310
FFFFFFFFFFFFFFFFFFFFFFFFFFFFFFFFFFFFFFFFFFFFFFFFF000FFFFFFFFFFFF
310
FFFFFFFFFFFFFFFFFFFFFFFFFFFFFFFFFFFFFFFFFFFFFFFFFFFFFFFFFFFFFFFF
310
FFFFFFFFFFFFFFFFFFFFFFFFFFFFFFFFFFFFFFFFFFFFFFFFFFFFFFFFFFFFFFFF
310
FFFFFFFFFFFFFFFFFFFFFFFFFFFFFFFFF000FFFFFFFFFFFFFFFFFFFFFFFFFFFF
310
FFFFFFFFFFFFFFFFFFFFFFFFFFFFFFFFFFFFFFFFFFFFFFFFFFFFFFFFFFFFFFFF
310
FFFFFFFFFFFFFFFFFFFFFFFFFFFFFFFFFFFFFFFFFFFFFFFFFFFFFFFFFFFFFFFF
310
FFFFFFFFFFFFFFFFF000FFFFFFFFFFFFFFFFFFFFFFFFFFFFFFFFFFFFFFFFFFFF
310
FFFFFFFFFFFFFFFFFFFFFFFFFFFFFFFFFFFFFFFFFFFFFFFFFFFFFFFFFFFFFFFF
310
FFFFFFFFFFFFFFFFFFFFFFFFFFFFFFFFFFFFFFFFFFFFFFFFFFFFFFFFFFFFFFFF
310
F000FFFFFFFFFFFFFFFFFFFFFFFFFFFFFFFFFFFFFFFFFFFFFFFFFFFFFFFFFFFF
310
FFFFFFFFFFFFFFFFFFFFFFFFFFFFFFFFFFFFFFFFFFFFFFFFFFFFFFFFFFFFFFFF
310
FFFFFFFFFFFFFFFFFFFFFFFFFFFFFFFFFFFFFFFFFFFFFFFFF000FFFFFFFFFFFF
310
FFFFFFFFFFFFFFFFFFFFFFFFFFFFFFFFFFFFFFFFFFFFFFFFFFFFFFFFFFFFFFFF
310
FFFFFFFFFFFFFFFFFFFFFFFFFFFFFFFFFFFFFFFFFFFFFFFFFFFFFFFFFFFFFFFF
310
FFFFFFFFFFFFFFFFFFFFFFFFFFFFFFFFF000FFFFFFFFFFFFFFFFFFFFFFFFFFFF
310
FFFFFFFFFFFFFFFFFFFFFFFFFFFFFFFFFFFFFFFFFFFFFFFFFFFFFFFFFFFFFFFF
310
FFFFFFFFFFFFFFFFFFFFFFFFFFFFFFFFFFFFFFFFFFFFFFFFFFFFFFFFFFFFFFFF
310
FFFFFFFFFFFFFFFFF000FFFFFFFFFFFFFFFFFFFFFFFFFFFFFFFFFFFFFFFFFFFF
310
FFFFFFFFFFFFFFFFFFFFFFFFFFFFFFFFFFFFFFFFFFFFFFFFFFFFFFFFFFFFFFFF
310
FFFFFFFFFFFFFFFFFFFFFFFFFFFFFFFFFFFFFFFFFFFFFFFFFFFFFFFFFFFFFFFF
310
F000FFFFFFFFFFFFFFFFFFFFFFFFFFFFFFFFFFFFFFFFFFFFFFFFFFFFFFFFFFFF
310
FFFFFFFFFFFFFFFFFFFFFFFFFFFFFFFFFFFFFFFFFFFFFFFFFFFFFFFFFFFFFFFF
310
FFFFFFFFFFFFFFFFFFFFFFFFFFFFFFFFFFFFFFFFFFFFFFFFF000FFFFFFFFFFFF
310
FFFFFFFFFFFFFFFFFFFFFFFFFFFFFFFFFFFFFFFFFFFFFFFFFFFFFFFFFFFFFFFF
310
FFFFFFFFFFFFFFFFFFFFFFFFFFFFFFFFFFFFFFFFFFFFFFFFFFFFFFFFFFFFFFFF
310
FFFFFFFFFFFFFFFFFFFFFFFFFFFFFFFFF000FFFFFFFFFFFFFFFFFFFFFFFFFFFF
310
FFFFFFFFFFFFFFFFFFFFFFFFFFFFFFFFFFFFFFFFFFFFFFFFFFFFFFFFFFFFFFFF
310
FFFFFFFFFFFFFFFFFFFFFFFFFFFFFFFFFFFFFFFFFFFFFFFFFFFFFFFFFFFFFFFF
310
FFFFFFFFFFFFFFFFF000FFFFFFFFFFFFFFFFFFFFFFFFFFFFFFFFFFFFFFFFFFFF
310
FFFFFFFFFFFFFFFFFFFFFFFFFFFFFFFFFFFFFFFFFFFFFFFFFFFFFFFFFFFFFFFF
310
FFFFFFFFFFFFFFFFFFFFFFFFFFFFFFFFFFFFFFFFFFFFFFFFFFFFFFFFFFFFFFFF
310
F000FFFFFFFFFFFFFFFFFFFFFFFFFFFFFFFFFFFFFFFFFFFFFFFFFFFFFFFFFFFF
310
FFFFFFFFFFFFFFFFFFFFFFFFFFFFFFFFFFFFFFFFFFFFFFFFFFFFFFFFFFFFFFFF
310
FFFFFFFFFFFFFFFFFFFFFFFFFFFFFFFFFFFFFFFFFFFFFFFFF000FFFFFFFFFFFF
310
FFFFFFFFFFFFFFFFFFFFFFFFFFFFFFFFFFFFFFFFFFFFFFFFFFFFFFFFFFFFFFFF
310
FFFFFFFFFFFFFFFFFFFFFFFFFFFFFFFFFFFFFFFFFFFFFFFFFFFFFFFFFFFFFFFF
310
FFFFFFFFFFFFFFFFFFFFFFFFFFFFFFFFF000FFFFFFFFFFFFFFFFFFFFFFFFFFFF
310
FFFFFFFFFFFFFFFFFFFFFFFFFFFFFFFFFFFFFFFFFFFFFFFFFFFFFFFFFFFFFFFF
310
FFFFFFFFFFFFFFFFFFFFFFFFFFFFFFFFFFFFFFFFFFFFFFFFFFFFFFFFFFFFFFFF
310
FFFFFFFFFFFFFFFFF000FFFFFFFFFFFFFFFFFFFFFFFFFFFFFFFFFFFFFFFFFFFF
310
FFFFFFFFFFFFFFFFFFFFFFFFFFFFFFFFFFFFFFFFFFFFFFFFFFFFFFFFFFFFFFFF
310
FFFFFFFFFFFFFFFFFFFFFFFFFFFFFFFFFFFFFFFFFFFFFFFFFFFFFFFFFFFFFFFF
310
F000FFFFFFFFFFFFFFFFFFFFFFFFFFFFFFFFFFFFFFFFFFFFFFFFFFFFFFFFFFFF
310
FFFFFFFFFFFFFFFFFFFFFFFFFFFFFFFFFFFFFFFFFFFFFFFFFFFFFFFFFFFFFFFF
310
FFFFFFFFFFFFFFFFFFFFFFFFFFFFFFFFFFFFFFFFFFFFFFFFF000FFFFFFFFFFFF
310
FFFFFFFFFFFFFFFFFFFFFFFFFFFFFFFFFFFFFFFFFFFFFFFFFFFFFFFFFFFFFFFF
310
FFFFFFFFFFFFFFFFFFFFFFFFFFFFFFFFFFFFFFFFFFFFFFFFFFFFFFFFFFFFFFFF
310
FFFFFFFFFFFFFFFFFFFFFFFFFFFFFFFFF000FFFFFFFFFFFFFFFFFFFFFFFFFFFF
310
FFFFFFFFFFFFFFFFFFFFFFFFFFFFFFFFFFFFFFFFFFFFFFFFFFFFFFFFFFFFFFFF
310
FFFFFFFFFFFFFFFFFFFFFFFFFFFFFFFFFFFFFFFFFFFFFFFFFFFFFFFFFFFFFFFF
310
FFFFFFFFFFFFFFFFF000FFFFFFFFFFFFFFFFFFFFFFFFFFFFFFFFFFFFFFFFFFFF
310
FFFFFFFFFFFFFFFFFFFFFFFFFFFFFFFFFFFFFFFFFFFFFFFFFFFFFFFFFFFFFFFF
310
FFFFFFFFFFFFFFFFFFFFFFFFFFFFFFFFFFFFFFFFFFFFFFFFFFFFFFFFFFFFFFFF
310
F000FFFFFFFFFFFFFFFFFFFFFFFFFFFFFFFFFFFFFFFFFFFFFFFFFFFFFFFFFFFF
310
FFFFFFFFFFFFFFFFFFFFFFFFFFFFFFFFFFFFFFFFFFFFFFFFFFFFFFFFFFFFFFFF
310
FFFFFFFFFFFFFFFFFFFFFFFFFFFFFFFFFFFFFFFFFFFFFFFFF000FFFFFFFFFFFF
310
FFFFFFFFFFFFFFFFFFFFFFFFFFFFFFFFFFFFFFFFFFFFFFFFFFFFFFFFFFFFFFFF
310
FFFFFFFFFFFFFFFFFFFFFFFFFFFFFFFFFFFFFFFFFFFFFFFFFFFFFFFFFFFFFFFF
310
FFFFFFFFFFFFFFFFFFFFFFFFFFFFFFFFF0000000000000000000000000000000
310
0000000000000000000000000000000000000000000000000000000000000000
310
0000000000000000000000000000000000000000000000000000000000000000
310
0000000000000000000000000000000000000000000000000000000000000000
310
0000000000000000000000000000000000000000000000000000000000000000
310
0000000000000000000000000000000000000000000000000000000000000000
310
0000000000000000000000000000000000000000000000000000000000000000
310
0000000000000000000000000000000000000000000000000000000000000000
310
0000000000000000000000000000000000000000000000000000000000000000
310
0000000000000000000000000000000000000000000000000000000000000000
310
0000000000000000000000000000000000000000000000000000000000000000
310
0000000000000000000000000000000000000000000000000000000000000000
310
0000000000000000000000000000000000000000000000000000000000000000
310
0000000000000000000000000000000000000000000000000000000000000000
310
0000000000000000000000000000000000000000000000000000000000000000
310
0000000000000000000000000000000000000000000000000000000000000000
  1
OLE
  0
ENDSEC
  0
SECTION
  2
OBJECTS
  0
DICTIONARY
  5
C
330
0
100
AcDbDictionary
281
     1
  3
ACAD_GROUP
350
D
  3
ACAD_LAYOUT
350
1A
  3
ACAD_MLINESTYLE
350
17
  3
ACAD_PLOTSETTINGS
350
19
  3
ACAD_PLOTSTYLENAME
350
E
  0
DICTIONARY
  5
D
102
{ACAD_REACTORS
330
C
102
}
330
C
100
AcDbDictionary
281
     1
  0
DICTIONARY
  5
1A
102
{ACAD_REACTORS
330
C
102
}
330
C
100
AcDbDictionary
281
     1
  3
Layout1
350
1E
  3
Layout2
350
26
  3
Model
350
22
  0
DICTIONARY
  5
17
102
{ACAD_REACTORS
330
C
102
}
330
C
100
AcDbDictionary
281
     1
  3
Standard
350
18
  0
DICTIONARY
  5
19
102
{ACAD_REACTORS
330
C
102
}
330
C
100
AcDbDictionary
281
     1
  0
ACDBDICTIONARYWDFLT
  5
E
102
{ACAD_REACTORS
330
C
102
}
330
C
100
AcDbDictionary
281
     1
  3
Normal
350
F
100
AcDbDictionaryWithDefault
340
F
  0
LAYOUT
  5
1E
102
{ACAD_REACTORS
330
1A
102
}
330
1A
100
AcDbPlotSettings
  1

  2
none_device
  4

  6

 40
0.0
 41
0.0
 42
0.0
 43
0.0
 44
0.0
 45
0.0
 46
0.0
 47
0.0
 48
0.0
 49
0.0
140
0.0
141
0.0
142
1.0
143
1.0
 70
   688
 72
     0
 73
     0
 74
     5
  7

 75
    16
147
1.0
148
0.0
149
0.0
100
AcDbLayout
  1
Layout1
 70
     1
 71
     1
 10
0.0
 20
0.0
 11
420.0
 21
297.0
 12
0.0
 22
0.0
 32
0.0
 14
1.0000000000E+20
 24
1.0000000000E+20
 34
1.0000000000E+20
 15
-1.0000000000E+20
 25
-1.0000000000E+20
 35
-1.0000000000E+20
146
0.0
 13
0.0
 23
0.0
 33
0.0
 16
1.0
 26
0.0
 36
0.0
 17
0.0
 27
1.0
 37
0.0
 76
     0
330
1B
  0
LAYOUT
  5
26
102
{ACAD_REACTORS
330
1A
102
}
330
1A
100
AcDbPlotSettings
  1

  2
none_device
  4

  6

 40
0.0
 41
0.0
 42
0.0
 43
0.0
 44
0.0
 45
0.0
 46
0.0
 47
0.0
 48
0.0
 49
0.0
140
0.0
141
0.0
142
1.0
143
1.0
 70
   688
 72
     0
 73
     0
 74
     5
  7

 75
    16
147
1.0
148
0.0
149
0.0
100
AcDbLayout
  1
Layout2
 70
     1
 71
     2
 10
0.0
 20
0.0
 11
0.0
 21
0.0
 12
0.0
 22
0.0
 32
0.0
 14
0.0
 24
0.0
 34
0.0
 15
0.0
 25
0.0
 35
0.0
146
0.0
 13
0.0
 23
0.0
 33
0.0
 16
1.0
 26
0.0
 36
0.0
 17
0.0
 27
1.0
 37
0.0
 76
     0
330
23
  0
LAYOUT
  5
22
102
{ACAD_REACTORS
330
1A
102
}
330
1A
100
AcDbPlotSettings
  1

  2
none_device
  4

  6

 40
0.0
 41
0.0
 42
0.0
 43
0.0
 44
0.0
 45
0.0
 46
0.0
 47
0.0
 48
0.0
 49
0.0
140
0.0
141
0.0
142
1.0
143
1.0
 70
  1712
 72
     0
 73
     0
 74
     0
  7

 75
     0
147
1.0
148
0.0
149
0.0
100
AcDbLayout
  1
Model
 70
     1
 71
     0
 10
0.0
 20
0.0
 11
297.0
 21
210.0
 12
0.0
 22
0.0
 32
0.0
 14
0.0
 24
0.0
 34
0.0
 15
297.0
 25
210.0
 35
0.0
146
0.0
 13
0.0
 23
0.0
 33
0.0
 16
1.0
 26
0.0
 36
0.0
 17
0.0
 27
1.0
 37
0.0
 76
     0
330
1F
331
29
  0
MLINESTYLE
  5
18
102
{ACAD_REACTORS
330
17
102
}
330
17
100
AcDbMlineStyle
  2
Standard
 70
     0
  3

 62
   256
 51
90.0
 52
90.0
 71
     2
 49
0.5
 62
   256
  6
BYLAYER
 49
-0.5
 62
   256
  6
BYLAYER
  0
ACDBPLACEHOLDER
  5
F
102
{ACAD_REACTORS
330
E
102
}
330
E
  0
ENDSEC
  0
EOF
