  0
SECTION
  2
HEADER
  9
$ACADVER
  1
AC1015
  9
$ACADMAINTVER
 70
     6
  9
$DWGCODEPAGE
  3
ANSI_1252
  9
$INSBASE
 10
0.0
 20
0.0
 30
0.0
  9
$EXTMIN
 10
0.0
 20
0.0
 30
0.0
  9
$EXTMAX
 10
297.0
 20
210.0
 30
0.0
  9
$LIMMIN
 10
0.0
 20
0.0
  9
$LIMMAX
 10
297.0
 20
210.0
  9
$ORTHOMODE
 70
     0
  9
$REGENMODE
 70
     1
  9
$FILLMODE
 70
     1
  9
$QTEXTMODE
 70
     0
  9
$MIRRTEXT
 70
     1
  9
$LTSCALE
 40
1.0
  9
$ATTMODE
 70
     1
  9
$TEXTSIZE
 40
2.0
  9
$TRACEWID
 40
1.0
  9
$TEXTSTYLE
  7
Standard
  9
$CLAYER
  8
0
  9
$CELTYPE
  6
ByLayer
  9
$CECOLOR
 62
   256
  9
$CELTSCALE
 40
1.0
  9
$DISPSILH
 70
     0
  9
$DIMSCALE
 40
1.0
  9
$DIMASZ
 40
3.0
  9
$DIMEXO
 40
0.0
  9
$DIMDLI
 40
3.75
  9
$DIMRND
 40
0.0
  9
$DIMDLE
 40
0.0
  9
$DIMEXE
 40
1.0
  9
$DIMTP
 40
0.0
  9
$DIMTM
 40
0.0
  9
$DIMTXT
 40
2.0
  9
$DIMCEN
 40
2.5
  9
$DIMTSZ
 40
0.0
  9
$DIMTOL
 70
     0
  9
$DIMLIM
 70
     0
  9
$DIMTIH
 70
     1
  9
$DIMTOH
 70
     1
  9
$DIMSE1
 70
     0
  9
$DIMSE2
 70
     0
  9
$DIMTAD
 70
     1
  9
$DIMZIN
 70
     0
  9
$DIMBLK
  1

  9
$DIMASO
 70
     1
  9
$DIMSHO
 70
     1
  9
$DIMPOST
  1

  9
$DIMAPOST
  1

  9
$DIMALT
 70
     0
  9
$DIMALTD
 70
     3
  9
$DIMALTF
 40
0.0393700787
  9
$DIMLFAC
 40
1.0
  9
$DIMTOFL
 70
     1
  9
$DIMTVP
 40
0.0
  9
$DIMTIX
 70
     0
  9
$DIMSOXD
 70
     0
  9
$DIMSAH
 70
     0
  9
$DIMBLK1
  1

  9
$DIMBLK2
  1

  9
$DIMSTYLE
  2
ISO-25
  9
$DIMCLRD
 70
     0
  9
$DIMCLRE
 70
     0
  9
$DIMCLRT
 70
     0
  9
$DIMTFAC
 40
1.0
  9
$DIMGAP
 40
1.524
  9
$DIMJUST
 70
     0
  9
$DIMSD1
 70
     0
  9
$DIMSD2
 70
     0
  9
$DIMTOLJ
 70
     0
  9
$DIMTZIN
 70
     0
  9
$DIMALTZ
 70
     0
  9
$DIMALTTZ
 70
     0
  9
$DIMUPT
 70
     0
  9
$DIMDEC
 70
     2
  9
$DIMTDEC
 70
     3
  9
$DIMALTU
 70
     2
  9
$DIMALTTD
 70
     3
  9
$DIMTXSTY
  7
Standard
  9
$DIMAUNIT
 70
     0
  9
$DIMADEC
 70
     2
  9
$DIMALTRND
 40
0.0
  9
$DIMAZIN
 70
     0
  9
$DIMDSEP
 70
    44
  9
$DIMATFIT
 70
     3
  9
$DIMFRAC
 70
     0
  9
$DIMLDRBLK
  1

  9
$DIMLUNIT
 70
     2
  9
$DIMLWD
 70
    -2
  9
$DIMLWE
 70
    -2
  9
$DIMTMOVE
 70
     0
  9
$LUNITS
 70
     2
  9
$LUPREC
 70
     2
  9
$SKETCHINC
 40
1.0
  9
$FILLETRAD
 40
10.0
  9
$AUNITS
 70
     0
  9
$AUPREC
 70
     2
  9
$MENU
  1
.
  9
$ELEVATION
 40
0.0
  9
$PELEVATION
 40
0.0
  9
$THICKNESS
 40
0.0
  9
$LIMCHECK
 70
     0
  9
$CHAMFERA
 40
10.0
  9
$CHAMFERB
 40
10.0
  9
$CHAMFERC
 40
20.0
  9
$CHAMFERD
 40
0.0
  9
$SKPOLY
 70
     0
  9
$TDCREATE
 40
2456045.403730393
  9
$TDUCREATE
 40
2456045.32039706
  9
$TDUPDATE
 40
2456045.403732014
  9
$TDUUPDATE
 40
2456045.32039868
  9
$TDINDWG
 40
0.0000000116
  9
$TDUSRTIMER
 40
0.0000000116
  9
$USRTIMER
 70
     1
  9
$ANGBASE
 50
0.0
  9
$ANGDIR
 70
     0
  9
$PDMODE
 70
     0
  9
$PDSIZE
 40
-1.0
  9
$PLINEWID
 40
0.0
  9
$SPLFRAME
 70
     0
  9
$SPLINETYPE
 70
     6
  9
$SPLINESEGS
 70
     8
  9
$HANDSEED
  5
275
  9
$SURFTAB1
 70
     6
  9
$SURFTAB2
 70
     6
  9
$SURFTYPE
 70
     6
  9
$SURFU
 70
     6
  9
$SURFV
 70
     6
  9
$UCSBASE
  2

  9
$UCSNAME
  2

  9
$UCSORG
 10
0.0
 20
0.0
 30
0.0
  9
$UCSXDIR
 10
1.0
 20
0.0
 30
0.0
  9
$UCSYDIR
 10
0.0
 20
1.0
 30
0.0
  9
$UCSORTHOREF
  2

  9
$UCSORTHOVIEW
 70
     0
  9
$UCSORGTOP
 10
0.0
 20
0.0
 30
0.0
  9
$UCSORGBOTTOM
 10
0.0
 20
0.0
 30
0.0
  9
$UCSORGLEFT
 10
0.0
 20
0.0
 30
0.0
  9
$UCSORGRIGHT
 10
0.0
 20
0.0
 30
0.0
  9
$UCSORGFRONT
 10
0.0
 20
0.0
 30
0.0
  9
$UCSORGBACK
 10
0.0
 20
0.0
 30
0.0
  9
$PUCSBASE
  2

  9
$PUCSNAME
  2

  9
$PUCSORG
 10
0.0
 20
0.0
 30
0.0
  9
$PUCSXDIR
 10
1.0
 20
0.0
 30
0.0
  9
$PUCSYDIR
 10
0.0
 20
1.0
 30
0.0
  9
$PUCSORTHOREF
  2

  9
$PUCSORTHOVIEW
 70
     0
  9
$PUCSORGTOP
 10
0.0
 20
0.0
 30
0.0
  9
$PUCSORGBOTTOM
 10
0.0
 20
0.0
 30
0.0
  9
$PUCSORGLEFT
 10
0.0
 20
0.0
 30
0.0
  9
$PUCSORGRIGHT
 10
0.0
 20
0.0
 30
0.0
  9
$PUCSORGFRONT
 10
0.0
 20
0.0
 30
0.0
  9
$PUCSORGBACK
 10
0.0
 20
0.0
 30
0.0
  9
$USERI1
 70
     0
  9
$USERI2
 70
     0
  9
$USERI3
 70
     0
  9
$USERI4
 70
     0
  9
$USERI5
 70
     0
  9
$USERR1
 40
0.0
  9
$USERR2
 40
0.0
  9
$USERR3
 40
0.0
  9
$USERR4
 40
0.0
  9
$USERR5
 40
0.0
  9
$WORLDVIEW
 70
     1
  9
$SHADEDGE
 70
     3
  9
$SHADEDIF
 70
    70
  9
$TILEMODE
 70
     1
  9
$MAXACTVP
 70
    64
  9
$PINSBASE
 10
0.0
 20
0.0
 30
0.0
  9
$PLIMCHECK
 70
     0
  9
$PEXTMIN
 10
1.0000000000E+20
 20
1.0000000000E+20
 30
1.0000000000E+20
  9
$PEXTMAX
 10
-1.0000000000E+20
 20
-1.0000000000E+20
 30
-1.0000000000E+20
  9
$PLIMMIN
 10
0.0
 20
0.0
  9
$PLIMMAX
 10
420.0
 20
297.0
  9
$UNITMODE
 70
     0
  9
$VISRETAIN
 70
     1
  9
$PLINEGEN
 70
     0
  9
$PSLTSCALE
 70
     1
  9
$TREEDEPTH
 70
  3020
  9
$CMLSTYLE
  2
Standard
  9
$CMLJUST
 70
     0
  9
$CMLSCALE
 40
20.0
  9
$PROXYGRAPHICS
 70
     1
  9
$MEASUREMENT
 70
     1
  9
$CELWEIGHT
370
    -1
  9
$ENDCAPS
280
     0
  9
$JOINSTYLE
280
     0
  9
$LWDISPLAY
290
     1
  9
$INSUNITS
 70
     4
  9
$HYPERLINKBASE
  1

  9
$STYLESHEET
  1

  9
$XEDIT
290
     1
  9
$CEPSNTYPE
380
     0
  9
$PSTYLEMODE
290
     1
  9
$FINGERPRINTGUID
  2
{D2BB518F-5292-4615-901A-A725C6D9E8CD}
  9
$VERSIONGUID
  2
{FAEB1C32-E019-11D5-929B-00C0DF256EC4}
  9
$EXTNAMES
290
     1
  9
$PSVPSCALE
 40
0.0
  9
$OLESTARTUP
290
     0
  0
ENDSEC
  0
SECTION
  2
CLASSES
  0
CLASS
  1
ACDBDICTIONARYWDFLT
  2
AcDbDictionaryWithDefault
  3
ObjectDBX Classes
 90
        0
280
     0
281
     0
  0
CLASS
  1
VISUALSTYLE
  2
AcDbVisualStyle
  3
ObjectDBX Classes
 90
     4095
280
     0
281
     0
  0
CLASS
  1
MATERIAL
  2
AcDbMaterial
  3
ObjectDBX Classes
 90
     1153
280
     0
281
     0
  0
CLASS
  1
ACDBPLACEHOLDER
  2
AcDbPlaceHolder
  3
ObjectDBX Classes
 90
        0
280
     0
281
     0
  0
CLASS
  1
LAYOUT
  2
AcDbLayout
  3
ObjectDBX Classes
 90
        0
280
     0
281
     0
  0
ENDSEC
  0
SECTION
  2
TABLES
  0
TABLE
  2
VPORT
  5
8
330
0
100
AcDbSymbolTable
 70
     1
  0
VPORT
  5
29
330
8
100
AcDbSymbolTableRecord
100
AcDbViewportTableRecord
  2
*Active
 70
     0
 10
0.0
 20
0.0
 11
1.0
 21
1.0
 12
148.5
 22
105.0
 13
0.0
 23
0.0
 14
10.0
 24
10.0
 15
10.0
 25
10.0
 16
0.0
 26
0.0
 36
1.0
 17
0.0
 27
0.0
 37
0.0
 40
210.0
 41
1.4142857143
 42
50.0
 43
0.0
 44
0.0
 50
0.0
 51
0.0
 71
     0
 72
  2000
 73
     1
 74
     3
 75
     0
 76
     0
 77
     0
 78
     0
281
     0
 65
     1
110
0.0
120
0.0
130
0.0
111
1.0
121
0.0
131
0.0
112
0.0
122
1.0
132
0.0
 79
     0
146
0.0
  0
ENDTAB
  0
TABLE
  2
LTYPE
  5
5
330
0
100
AcDbSymbolTable
 70
     6
  0
LTYPE
  5
14
330
5
100
AcDbSymbolTableRecord
100
AcDbLinetypeTableRecord
  2
ByBlock
 70
     0
  3

 72
    65
 73
     0
 40
0.0
  0
LTYPE
  5
15
330
5
100
AcDbSymbolTableRecord
100
AcDbLinetypeTableRecord
  2
ByLayer
 70
     0
  3

 72
    65
 73
     0
 40
0.0
  0
LTYPE
  5
16
330
5
100
AcDbSymbolTableRecord
100
AcDbLinetypeTableRecord
  2
Continuous
 70
     0
  3
Solid line
 72
    65
 73
     0
 40
0.0
  0
LTYPE
  5
3F
330
5
100
AcDbSymbolTableRecord
100
AcDbLinetypeTableRecord
  2
HIDDEN
 70
     0
  3
Hidden __ __ __ __ __ __ __ __ __ __ __ __ __ __
 72
    65
 73
     2
 40
1.905
 49
1.27
 74
     0
 49
-0.635
 74
     0
  0
LTYPE
  5
40
330
5
100
AcDbSymbolTableRecord
100
AcDbLinetypeTableRecord
  2
PHANTOM
 70
     0
  3
Phantom ______  __  __  ______  __  __  ______
 72
    65
 73
     6
 40
12.7
 49
6.35
 74
     0
 49
-1.27
 74
     0
 49
1.27
 74
     0
 49
-1.27
 74
     0
 49
1.27
 74
     0
 49
-1.27
 74
     0
  0
LTYPE
  5
41
330
5
100
AcDbSymbolTableRecord
100
AcDbLinetypeTableRecord
  2
CENTER
 70
     0
  3
Center ____ _ ____ _ ____ _ ____ _ ____ _ ____
 72
    65
 73
     4
 40
10.16
 49
6.35
 74
     0
 49
-1.27
 74
     0
 49
1.27
 74
     0
 49
-1.27
 74
     0
  0
LTYPE
  5
42
330
5
100
AcDbSymbolTableRecord
100
AcDbLinetypeTableRecord
  2
CENTERX2
 70
     0
  3
Center (2x) ________  __  ________  __  _____
 72
    65
 73
     4
 40
20.32
 49
12.7
 74
     0
 49
-2.54
 74
     0
 49
2.54
 74
     0
 49
-2.54
 74
     0
  0
LTYPE
  5
43
330
5
100
AcDbSymbolTableRecord
100
AcDbLinetypeTableRecord
  2
DOT2
 70
     0
  3
Dot (.5x) ........................................
 72
    65
 73
     2
 40
0.635
 49
0.0
 74
     0
 49
-0.635
 74
     0
  0
ENDTAB
  0
TABLE
  2
LAYER
  5
2
330
0
100
AcDbSymbolTable
 70
     5
  0
LAYER
  5
10
330
2
100
AcDbSymbolTableRecord
100
AcDbLayerTableRecord
  2
0
 70
     0
 62
     7
  6
Continuous
370
    -3
390
F
  0
LAYER
  5
44
330
2
100
AcDbSymbolTableRecord
100
AcDbLayerTableRecord
  2
FORMAT
 70
     0
 62
     7
  6
Continuous
370
    -3
390
F
  0
LAYER
  5
45
330
2
100
AcDbSymbolTableRecord
100
AcDbLayerTableRecord
  2
VERMASSUNG
 70
     0
 62
     7
  6
Continuous
370
    -3
390
F
  0
LAYER
  5
46
330
2
100
AcDbSymbolTableRecord
100
AcDbLayerTableRecord
  2
KOPF_DÜNN
 70
     0
 62
     7
  6
Continuous
370
    -3
390
F
  0
LAYER
  5
47
330
2
100
AcDbSymbolTableRecord
100
AcDbLayerTableRecord
  2
KOPF_DICK
 70
     0
 62
     7
  6
Continuous
370
    15
390
F
  0
ENDTAB
  0
TABLE
  2
STYLE
  5
3
330
0
100
AcDbSymbolTable
 70
     2
  0
STYLE
  5
11
330
3
100
AcDbSymbolTableRecord
100
AcDbTextStyleTableRecord
  2
Standard
 70
     0
 40
0.0
 41
1.0
 50
0.0
 71
     0
 42
2.0
  3
txt
  4

  0
STYLE
  5
48
330
3
100
AcDbSymbolTableRecord
100
AcDbTextStyleTableRecord
  2
SLDTEXTSTYLE0
 70
     0
 40
0.0
 41
0.7
 50
0.0
 71
     0
 42
0.2
  3
TXT
  4

  0
ENDTAB
  0
TABLE
  2
VIEW
  5
6
330
0
100
AcDbSymbolTable
 70
     0
  0
ENDTAB
  0
TABLE
  2
UCS
  5
7
330
0
100
AcDbSymbolTable
 70
     0
  0
ENDTAB
  0
TABLE
  2
APPID
  5
9
330
0
100
AcDbSymbolTable
 70
     1
  0
APPID
  5
12
330
9
100
AcDbSymbolTableRecord
100
AcDbRegAppTableRecord
  2
ACAD
 70
     0
  0
ENDTAB
  0
TABLE
  2
DIMSTYLE
  5
A
330
0
100
AcDbSymbolTable
 70
     5
100
AcDbDimStyleTable
  0
DIMSTYLE
105
27
330
A
100
AcDbSymbolTableRecord
100
AcDbDimStyleTableRecord
  2
ISO-25
 70
     0
 41
2.5
 42
0.625
 43
3.75
 44
1.25
 73
     0
 74
     0
 77
     1
 78
     8
140
2.5
141
2.5
143
0.0393700787
147
0.625
171
     3
172
     1
178
     0
271
     2
272
     2
274
     3
278
    44
283
     0
284
     8
340
11
  0
DIMSTYLE
105
1C4
102
{ACAD_REACTORS
330
1C3
330
1F0
102
}
330
A
100
AcDbSymbolTableRecord
100
AcDbDimStyleTableRecord
  2
SLDDIMSTYLE0
 70
     0
 41
3.0
 44
0.0
 45
0.000000001
 73
     0
 74
     0
 77
     1
 78
    12
 79
     3
140
2.0
147
0.5
173
     1
178
     0
271
     2
272
     3
276
     2
284
    12
340
48
  0
DIMSTYLE
105
1CF
102
{ACAD_REACTORS
330
1CE
330
1DB
102
}
330
A
100
AcDbSymbolTableRecord
100
AcDbDimStyleTableRecord
  2
SLDDIMSTYLE1
 70
     0
 41
3.0
 44
0.0
 45
0.000000001
 47
0.1
 48
0.1
 71
     1
 73
     0
 74
     0
 77
     1
 78
    12
 79
     3
140
2.0
147
0.5
173
     1
178
     0
271
     2
272
     1
276
     2
284
     8
340
48
  0
DIMSTYLE
105
1E8
102
{ACAD_REACTORS
330
1E7
102
}
330
A
100
AcDbSymbolTableRecord
100
AcDbDimStyleTableRecord
  2
SLDDIMSTYLE2
 70
     0
 41
3.0
 44
0.0
 73
     0
 74
     0
 77
     1
 78
    12
 79
     3
140
2.0
147
0.5
173
     1
178
     0
179
     2
272
     3
276
     2
284
    12
340
48
  0
DIMSTYLE
105
25A
102
{ACAD_REACTORS
330
259
102
}
330
A
100
AcDbSymbolTableRecord
100
AcDbDimStyleTableRecord
  2
SLDDIMSTYLE3
 70
     0
 41
3.0
 44
0.0
 45
0.000000001
 73
     0
 74
     0
 77
     1
 78
    12
 79
     3
140
2.0
147
0.5
172
     1
173
     1
178
     0
271
     2
272
     3
276
     2
284
    12
289
     0
340
48
  0
ENDTAB
  0
TABLE
  2
BLOCK_RECORD
  5
1
330
0
100
AcDbSymbolTable
 70
     8
  0
BLOCK_RECORD
  5
1F
330
1
100
AcDbSymbolTableRecord
100
AcDbBlockTableRecord
  2
*Model_Space
340
22
  0
BLOCK_RECORD
  5
1B
330
1
100
AcDbSymbolTableRecord
100
AcDbBlockTableRecord
  2
*Paper_Space
340
1E
  0
BLOCK_RECORD
  5
23
330
1
100
AcDbSymbolTableRecord
100
AcDbBlockTableRecord
  2
*Paper_Space0
340
26
  0
BLOCK_RECORD
  5
1C5
330
1
100
AcDbSymbolTableRecord
100
AcDbBlockTableRecord
  2
_D
340
0
  0
BLOCK_RECORD
  5
1D0
330
1
100
AcDbSymbolTableRecord
100
AcDbBlockTableRecord
  2
_D_1
340
0
  0
BLOCK_RECORD
  5
1DC
330
1
100
AcDbSymbolTableRecord
100
AcDbBlockTableRecord
  2
_D_2
340
0
  0
BLOCK_RECORD
  5
1E9
330
1
100
AcDbSymbolTableRecord
100
AcDbBlockTableRecord
  2
_D_3
340
0
  0
BLOCK_RECORD
  5
1F1
330
1
100
AcDbSymbolTableRecord
100
AcDbBlockTableRecord
  2
_D_4
340
0
  0
BLOCK_RECORD
  5
25B
330
1
100
AcDbSymbolTableRecord
100
AcDbBlockTableRecord
  2
_D_5
340
0
  0
BLOCK_RECORD
  5
268
330
1
100
AcDbSymbolTableRecord
100
AcDbBlockTableRecord
  2
SW_CENTERMARKSYMBOL_0
340
0
102
{BLKREFS
331
273
102
}
  0
ENDTAB
  0
ENDSEC
  0
SECTION
  2
BLOCKS
  0
BLOCK
  5
20
330
1F
100
AcDbEntity
  8
0
100
AcDbBlockBegin
  2
*Model_Space
 70
     0
 10
0.0
 20
0.0
 30
0.0
  3
*Model_Space
  1

  0
ENDBLK
  5
21
330
1F
100
AcDbEntity
  8
0
100
AcDbBlockEnd
  0
BLOCK
  5
1C
330
1B
100
AcDbEntity
 67
     1
  8
0
100
AcDbBlockBegin
  2
*Paper_Space
 70
     0
 10
0.0
 20
0.0
 30
0.0
  3
*Paper_Space
  1

  0
ENDBLK
  5
1D
330
1B
100
AcDbEntity
 67
     1
  8
0
100
AcDbBlockEnd
  0
BLOCK
  5
24
330
23
100
AcDbEntity
  8
0
100
AcDbBlockBegin
  2
*Paper_Space0
 70
     0
 10
0.0
 20
0.0
 30
0.0
  3
*Paper_Space0
  1

  0
ENDBLK
  5
25
330
23
100
AcDbEntity
  8
0
100
AcDbBlockEnd
  0
BLOCK
  5
1C6
330
1C5
100
AcDbEntity
  8
0
100
AcDbBlockBegin
  2
_D
 70
     0
 10
0.0
 20
0.0
 30
0.0
  3
_D
  1

  0
SOLID
  5
1C8
330
1C5
100
AcDbEntity
  8
VERMASSUNG
100
AcDbTrace
 10
161.6980854294
 20
166.6020079735
 30
0.0
 11
164.6980854294
 21
166.1520079735
 31
0.0
 12
164.6980854294
 22
167.0520079735
 32
0.0
 13
164.6980854294
 23
167.0520079735
 33
0.0
  0
SOLID
  5
1C9
330
1C5
100
AcDbEntity
  8
VERMASSUNG
100
AcDbTrace
 10
251.6980854294
 20
166.6020079735
 30
0.0
 11
248.6980854294
 21
167.0520079735
 31
0.0
 12
248.6980854294
 22
166.1520079735
 32
0.0
 13
248.6980854294
 23
166.1520079735
 33
0.0
  0
LINE
  5
1CA
330
1C5
100
AcDbEntity
  8
VERMASSUNG
100
AcDbLine
 10
161.6980854294
 20
130.3972286393
 30
0.0
 11
161.6980854294
 21
167.6020079735
 31
0.0
  0
LINE
  5
1CB
330
1C5
100
AcDbEntity
  8
VERMASSUNG
100
AcDbLine
 10
251.6980854294
 20
149.4039028012
 30
0.0
 11
251.6980854294
 21
167.6020079735
 31
0.0
  0
LINE
  5
1CC
330
1C5
100
AcDbEntity
  8
VERMASSUNG
100
AcDbLine
 10
161.6980854294
 20
166.6020079735
 30
0.0
 11
251.6980854294
 21
166.6020079735
 31
0.0
  0
MTEXT
  5
1CD
330
1C5
100
AcDbEntity
  8
VERMASSUNG
100
AcDbMText
 10
204.3980853784
 20
169.1801433367
 30
0.1
 40
2.0
 41
0.0
 71
     1
 72
     1
  1
90
  7
SLDTEXTSTYLE0
 73
     1
 44
1.0
  0
ENDBLK
  5
1C7
330
1C5
100
AcDbEntity
  8
0
100
AcDbBlockEnd
  0
BLOCK
  5
1D1
330
1D0
100
AcDbEntity
  8
0
100
AcDbBlockBegin
  2
_D_1
 70
     0
 10
0.0
 20
0.0
 30
0.0
  3
_D_1
  1

  0
SOLID
  5
1D3
330
1D0
100
AcDbEntity
  8
VERMASSUNG
100
AcDbTrace
 10
251.6980854294
 20
158.6150900647
 30
0.0
 11
248.6980854294
 21
159.0650900647
 31
0.0
 12
248.6980854294
 22
158.1650900647
 32
0.0
 13
248.6980854294
 23
158.1650900647
 33
0.0
  0
SOLID
  5
1D4
330
1D0
100
AcDbEntity
  8
VERMASSUNG
100
AcDbTrace
 10
191.6980854294
 20
158.6150900647
 30
0.0
 11
194.6980854294
 21
158.1650900647
 31
0.0
 12
194.6980854294
 22
159.0650900647
 32
0.0
 13
194.6980854294
 23
159.0650900647
 33
0.0
  0
LINE
  5
1D5
330
1D0
100
AcDbEntity
  8
VERMASSUNG
100
AcDbLine
 10
251.6980854294
 20
149.4039028012
 30
0.0
 11
251.6980854294
 21
159.6150900647
 31
0.0
  0
LINE
  5
1D6
330
1D0
100
AcDbEntity
  8
VERMASSUNG
100
AcDbLine
 10
191.6980854294
 20
139.1039028012
 30
0.0
 11
191.6980854294
 21
159.6150900647
 31
0.0
  0
LINE
  5
1D7
330
1D0
100
AcDbEntity
  8
VERMASSUNG
100
AcDbLine
 10
251.6980854294
 20
158.6150900647
 30
0.0
 11
191.6980854294
 21
158.6150900647
 31
0.0
  0
MTEXT
  5
1D8
330
1D0
100
AcDbEntity
  8
VERMASSUNG
100
AcDbMText
 10
217.1480852424
 20
161.1932254279
 30
0.1
 40
2.0
 41
0.0
 71
     1
 72
     1
  1
60
  7
SLDTEXTSTYLE0
 73
     1
 44
1.0
  0
MTEXT
  5
1D9
330
1D0
100
AcDbEntity
  8
VERMASSUNG
100
AcDbMText
 10
222.9355853445
 20
161.1932254279
 30
0.1
 40
2.0
 41
0.0
 71
     1
 72
     1
  1

  7
SLDTEXTSTYLE0
 73
     1
 44
1.0
  0
MTEXT
  5
1DA
330
1D0
100
AcDbEntity
  8
VERMASSUNG
100
AcDbMText
 10
222.9480856343
 20
160.6986915651
 30
0.1
 40
1.5
 41
0.0
 71
     1
 72
     1
  1
±0.1
  7
SLDTEXTSTYLE0
 73
     1
 44
1.0
  0
ENDBLK
  5
1D2
330
1D0
100
AcDbEntity
  8
0
100
AcDbBlockEnd
  0
BLOCK
  5
1DD
330
1DC
100
AcDbEntity
  8
0
100
AcDbBlockBegin
  2
_D_2
 70
     0
 10
0.0
 20
0.0
 30
0.0
  3
_D_2
  1

  0
SOLID
  5
1DF
330
1DC
100
AcDbEntity
  8
VERMASSUNG
100
AcDbTrace
 10
268.9849761018
 20
149.4039028012
 30
0.0
 11
268.5349761018
 21
146.4039028012
 31
0.0
 12
269.4349761018
 22
146.4039028012
 32
0.0
 13
269.4349761018
 23
146.4039028012
 33
0.0
  0
SOLID
  5
1E0
330
1DC
100
AcDbEntity
  8
VERMASSUNG
100
AcDbTrace
 10
268.9849761018
 20
114.4039028012
 30
0.0
 11
269.4349761018
 21
117.4039028012
 31
0.0
 12
268.5349761018
 22
117.4039028012
 32
0.0
 13
268.5349761018
 23
117.4039028012
 33
0.0
  0
LINE
  5
1E1
330
1DC
100
AcDbEntity
  8
VERMASSUNG
100
AcDbLine
 10
251.6980854294
 20
149.4039028012
 30
0.0
 11
269.9849761018
 21
149.4039028012
 31
0.0
  0
LINE
  5
1E2
330
1DC
100
AcDbEntity
  8
VERMASSUNG
100
AcDbLine
 10
251.6980854294
 20
114.4039028012
 30
0.0
 11
269.9849761018
 21
114.4039028012
 31
0.0
  0
LINE
  5
1E3
330
1DC
100
AcDbEntity
  8
VERMASSUNG
100
AcDbLine
 10
268.9849761018
 20
149.4039028012
 30
0.0
 11
268.9849761018
 21
114.4039028012
 31
0.0
  0
MTEXT
  5
1E4
330
1DC
100
AcDbEntity
  8
VERMASSUNG
100
AcDbMText
 10
266.4068407386
 20
127.3539026141
 30
0.1
 40
2.0
 41
0.0
 71
     1
 72
     1
  1
35
  7
SLDTEXTSTYLE0
 11
-7.044195017643634E-15
 21
1.0
 31
0.0
 73
     1
 44
1.0
  0
MTEXT
  5
1E5
330
1DC
100
AcDbEntity
  8
VERMASSUNG
100
AcDbMText
 10
266.4068407386
 20
133.1414027162
 30
0.1
 40
2.0
 41
0.0
 71
     1
 72
     1
  1

  7
SLDTEXTSTYLE0
 11
-7.044195017643634E-15
 21
1.0
 31
0.0
 73
     1
 44
1.0
  0
MTEXT
  5
1E6
330
1DC
100
AcDbEntity
  8
VERMASSUNG
100
AcDbMText
 10
266.9013746014
 20
133.153903006
 30
0.1
 40
1.5
 41
0.0
 71
     1
 72
     1
  1
±0.1
  7
SLDTEXTSTYLE0
 11
-7.044195017643634E-15
 21
1.0
 31
0.0
 73
     1
 44
1.0
  0
ENDBLK
  5
1DE
330
1DC
100
AcDbEntity
  8
0
100
AcDbBlockEnd
  0
BLOCK
  5
1EA
330
1E9
100
AcDbEntity
  8
0
100
AcDbBlockBegin
  2
_D_3
 70
     0
 10
0.0
 20
0.0
 30
0.0
  3
_D_3
  1

  0
ARC
  5
1EC
330
1E9
100
AcDbEntity
  8
VERMASSUNG
100
AcDbCircle
 10
251.7348285355
 20
149.4039028012
 30
0.0
 40
11.02193270951676
100
AcDbArc
 50
264.9952138766
 51
0.0
  0
SOLID
  5
1ED
330
1E9
100
AcDbEntity
  8
VERMASSUNG
100
AcDbTrace
 10
250.7732866088
 20
138.423992156
 30
0.0
 11
253.7906570394
 21
138.1109814778
 31
0.0
 12
253.7497001045
 22
139.0100490667
 32
0.0
 13
253.7497001045
 23
139.0100490667
 33
0.0
  0
SOLID
  5
1EE
330
1E9
100
AcDbEntity
  8
VERMASSUNG
100
AcDbTrace
 10
262.7567612451
 20
149.4039028012
 30
0.0
 11
261.9132795141
 21
146.4899641317
 31
0.0
 12
262.8053462904
 22
146.3707296288
 32
0.0
 13
262.8053462904
 23
146.3707296288
 33
0.0
  0
MTEXT
  5
1EF
330
1E9
100
AcDbEntity
  8
VERMASSUNG
100
AcDbMText
 10
255.3009290676
 20
141.2191216948
 30
0.1
 40
2.0
 41
0.0
 71
     1
 72
     1
  1
95°
  7
SLDTEXTSTYLE0
 11
0.7373055534122334
 21
0.6755594133068389
 31
0.0
 73
     1
 44
1.0
  0
ENDBLK
  5
1EB
330
1E9
100
AcDbEntity
  8
0
100
AcDbBlockEnd
  0
BLOCK
  5
1F2
330
1F1
100
AcDbEntity
  8
0
100
AcDbBlockBegin
  2
_D_4
 70
     0
 10
0.0
 20
0.0
 30
0.0
  3
_D_4
  1

  0
SOLID
  5
1F4
330
1F1
100
AcDbEntity
  8
VERMASSUNG
100
AcDbTrace
 10
154.8541434414
 20
139.4039028012
 30
0.0
 11
154.4041434414
 21
136.4039028012
 31
0.0
 12
155.3041434414
 22
136.4039028012
 32
0.0
 13
155.3041434414
 23
136.4039028012
 33
0.0
  0
SOLID
  5
1F5
330
1F1
100
AcDbEntity
  8
VERMASSUNG
100
AcDbTrace
 10
154.8541434414
 20
89.4039028012
 30
0.0
 11
155.3041434414
 21
92.4039028012
 31
0.0
 12
154.4041434414
 22
92.4039028012
 32
0.0
 13
154.4041434414
 23
92.4039028012
 33
0.0
  0
LINE
  5
1F6
330
1F1
100
AcDbEntity
  8
VERMASSUNG
100
AcDbLine
 10
191.9980854294
 20
139.4039028012
 30
0.0
 11
153.8541434414
 21
139.4039028012
 31
0.0
  0
LINE
  5
1F7
330
1F1
100
AcDbEntity
  8
VERMASSUNG
100
AcDbLine
 10
191.9980854294
 20
89.4039028012
 30
0.0
 11
153.8541434414
 21
89.4039028012
 31
0.0
  0
LINE
  5
1F8
330
1F1
100
AcDbEntity
  8
VERMASSUNG
100
AcDbLine
 10
154.8541434414
 20
139.4039028012
 30
0.0
 11
154.8541434414
 21
89.4039028012
 31
0.0
  0
MTEXT
  5
1F9
330
1F1
100
AcDbEntity
  8
VERMASSUNG
100
AcDbMText
 10
152.0760079523
 20
107.9989026919
 30
0.3501107901
 40
2.0
 41
0.0
 71
     1
 72
     1
  1
PSC
  7
SLDTEXTSTYLE0
 11
-7.044195017643634E-15
 21
1.0
 31
0.0
 73
     1
 44
1.0
  0
MTEXT
  5
1FA
330
1F1
100
AcDbEntity
  8
VERMASSUNG
100
AcDbMText
 10
152.2760079618
 20
112.598902794
 30
0.3501107901
 40
2.0
 41
0.0
 71
     1
 72
     1
  1
%%c
  7
SLDTEXTSTYLE0
 11
-7.044195017643634E-15
 21
1.0
 31
0.0
 73
     1
 44
1.0
  0
MTEXT
  5
1FB
330
1F1
100
AcDbEntity
  8
VERMASSUNG
100
AcDbMText
 10
152.0760079523
 20
116.208903274
 30
0.3501107901
 40
2.0
 41
0.0
 71
     1
 72
     1
  1
50
  7
SLDTEXTSTYLE0
 11
-7.044195017643634E-15
 21
1.0
 31
0.0
 73
     1
 44
1.0
  0
ENDBLK
  5
1F3
330
1F1
100
AcDbEntity
  8
0
100
AcDbBlockEnd
  0
BLOCK
  5
25C
330
25B
100
AcDbEntity
  8
0
100
AcDbBlockBegin
  2
_D_5
 70
     0
 10
0.0
 20
0.0
 30
0.0
  3
_D_5
  1

  0
SOLID
  5
25E
330
25B
100
AcDbEntity
  8
VERMASSUNG
100
AcDbTrace
 10
110.6764363662
 20
100.6095167584
 30
0.0
 11
113.0495125775
 21
98.7198053267
 31
0.0
 12
113.4995125775
 22
99.4992281901
 32
0.0
 13
113.4995125775
 23
99.4992281901
 33
0.0
  0
SOLID
  5
25F
330
25B
100
AcDbEntity
  8
VERMASSUNG
100
AcDbTrace
 10
54.3847851202
 20
133.1095167584
 30
0.0
 11
52.0117089088
 21
134.9992281901
 31
0.0
 12
51.5617089088
 22
134.2198053267
 32
0.0
 13
51.5617089088
 23
134.2198053267
 33
0.0
  0
LINE
  5
260
330
25B
100
AcDbEntity
  8
VERMASSUNG
100
AcDbLine
 10
110.6764363662
 20
100.6095167584
 30
0.0
 11
111.1764363662
 21
101.4755421621
 31
0.0
  0
LINE
  5
261
330
25B
100
AcDbEntity
  8
VERMASSUNG
100
AcDbLine
 10
54.3847851202
 20
133.1095167584
 30
0.0
 11
54.8847851202
 21
133.9755421621
 31
0.0
  0
LINE
  5
262
330
25B
100
AcDbEntity
  8
VERMASSUNG
100
AcDbLine
 10
110.6764363662
 20
100.6095167584
 30
0.0
 11
115.8725887889
 21
97.6095167584
 31
0.0
  0
LINE
  5
263
330
25B
100
AcDbEntity
  8
VERMASSUNG
100
AcDbLine
 10
110.6764363662
 20
100.6095167584
 30
0.0
 11
54.3847851202
 21
133.1095167584
 31
0.0
  0
LINE
  5
264
330
25B
100
AcDbEntity
  8
VERMASSUNG
100
AcDbLine
 10
54.3847851202
 20
133.1095167584
 30
0.0
 11
39.3370118066
 21
141.7973527316
 31
0.0
  0
MTEXT
  5
265
330
25B
100
AcDbEntity
  8
VERMASSUNG
100
AcDbMText
 10
40.6260795464
 20
144.0300835513
 30
0.1
 40
2.0
 41
0.0
 71
     1
 72
     1
  1
%%c
  7
SLDTEXTSTYLE0
 11
0.866025403784438
 21
-0.500000000000001
 31
0.0
 73
     1
 44
1.0
  0
MTEXT
  5
266
330
25B
100
AcDbEntity
  8
VERMASSUNG
100
AcDbMText
 10
43.8524312712
 20
142.3982886331
 30
0.1
 40
2.0
 41
0.0
 71
     1
 72
     1
  1
65
  7
SLDTEXTSTYLE0
 11
0.866025403784438
 21
-0.500000000000001
 31
0.0
 73
     1
 44
1.0
  0
MTEXT
  5
267
330
25B
100
AcDbEntity
  8
VERMASSUNG
100
AcDbMText
 10
48.8645537873
 20
139.5045383493
 30
0.1
 40
2.0
 41
0.0
 71
     1
 72
     1
  1
min.
  7
SLDTEXTSTYLE0
 11
0.866025403784438
 21
-0.500000000000001
 31
0.0
 73
     1
 44
1.0
  0
ENDBLK
  5
25D
330
25B
100
AcDbEntity
  8
0
100
AcDbBlockEnd
  0
BLOCK
  5
269
330
268
100
AcDbEntity
  8
0
100
AcDbBlockBegin
  2
SW_CENTERMARKSYMBOL_0
 70
     0
 10
0.0
 20
0.0
 30
0.0
  3
SW_CENTERMARKSYMBOL_0
  1

  0
LINE
  5
26B
330
268
100
AcDbEntity
  8
VERMASSUNG
 62
     0
100
AcDbLine
 10
0.0
 20
0.0
 30
0.0
 11
0.0
 21
2.5
 31
0.0
  0
LINE
  5
26C
330
268
100
AcDbEntity
  8
VERMASSUNG
 62
     0
100
AcDbLine
 10
0.0
 20
0.0
 30
0.0
 11
-2.5
 21
0.0
 31
0.0
  0
LINE
  5
26D
330
268
100
AcDbEntity
  8
VERMASSUNG
 62
     0
100
AcDbLine
 10
0.0
 20
0.0
 30
0.0
 11
0.0
 21
-2.5
 31
0.0
  0
LINE
  5
26E
330
268
100
AcDbEntity
  8
VERMASSUNG
 62
     0
100
AcDbLine
 10
0.0
 20
0.0
 30
0.0
 11
2.5
 21
0.0
 31
0.0
  0
LINE
  5
26F
330
268
100
AcDbEntity
  8
VERMASSUNG
 62
     0
100
AcDbLine
 10
0.0
 20
5.0
 30
0.0
 11
0.0
 21
27.5
 31
0.0
  0
LINE
  5
270
330
268
100
AcDbEntity
  8
VERMASSUNG
 62
     0
100
AcDbLine
 10
-5.0
 20
0.0
 30
0.0
 11
-27.5
 21
0.0
 31
0.0
  0
LINE
  5
271
330
268
100
AcDbEntity
  8
VERMASSUNG
 62
     0
100
AcDbLine
 10
0.0
 20
-5.0
 30
0.0
 11
0.0
 21
-27.5
 31
0.0
  0
LINE
  5
272
330
268
100
AcDbEntity
  8
VERMASSUNG
 62
     0
100
AcDbLine
 10
5.0
 20
0.0
 30
0.0
 11
27.5
 21
0.0
 31
0.0
  0
ENDBLK
  5
26A
330
268
100
AcDbEntity
  8
0
100
AcDbBlockEnd
  0
ENDSEC
  0
SECTION
  2
ENTITIES
  0
MTEXT
  5
49
330
1F
100
AcDbEntity
  8
KOPF_DÜNN
100
AcDbMText
 10
13.8892156294
 20
23.8442973028
 30
0.0
 40
3.0
 41
0.0
 71
     1
 72
     1
  1
PS5.PCD.RLA.060
  7
SLDTEXTSTYLE0
 73
     1
 44
1.0
  0
MTEXT
  5
4A
330
1F
100
AcDbEntity
  8
VERMASSUNG
100
AcDbMText
 10
13.9329988022
 20
28.8834360957
 30
0.0
 40
3.0
 41
0.0
 71
     1
 72
     1
  1
Klemmhalter rechts_Turning tool right 95° /80°
  7
SLDTEXTSTYLE0
 73
     1
 44
1.0
  0
MTEXT
  5
4B
330
1F
100
AcDbEntity
  8
VERMASSUNG
100
AcDbMText
 10
98.8601118557
 20
13.8365368179
 30
0.0
 40
2.0
 41
0.0
 71
     1
 72
     1
  1
Datum: 27.04.2012
  7
SLDTEXTSTYLE0
 73
     1
 44
1.0
  0
MTEXT
  5
4C
330
1F
100
AcDbEntity
  8
VERMASSUNG
100
AcDbMText
 10
13.933048693
 20
18.0482802738
 30
0.0
 40
2.0
 41
0.0
 71
     1
 72
     1
  1
PSC ø50 / CN..12 04..
  7
SLDTEXTSTYLE0
 73
     1
 44
1.0
  0
MTEXT
  5
4D
330
1F
100
AcDbEntity
  8
VERMASSUNG
100
AcDbMText
 10
13.9808475933
 20
13.9090973692
 30
0.0
 40
2.0
 41
0.0
 71
     1
 72
     1
  1
Gewicht: 785g
  7
SLDTEXTSTYLE0
 73
     1
 44
1.0
  0
ARC
  5
4E
330
1F
100
AcDbEntity
  8
0
  6
Continuous
 62
     7
370
    15
100
AcDbCircle
 10
209.6980854294
 20
125.7323947295
 30
0.0
 40
2.499999999999991
100
AcDbArc
 50
23.7564891757
 51
156.2435108243
  0
ARC
  5
4F
330
1F
100
AcDbEntity
  8
0
  6
Continuous
 62
     7
370
    15
100
AcDbCircle
 10
191.9980854294
 20
89.7039028012
 30
0.0
 40
0.3000000000000114
100
AcDbArc
 50
180.0
 51
270.0
  0
ARC
  5
50
330
1F
100
AcDbEntity
  8
0
  6
Continuous
 62
     7
370
    15
100
AcDbCircle
 10
191.9980854294
 20
139.1039028012
 30
0.0
 40
0.3000000000000114
100
AcDbArc
 50
90.0
 51
180.0
  0
LINE
  5
51
330
1F
100
AcDbEntity
  8
0
  6
Continuous
 62
     7
370
    15
100
AcDbLine
 10
223.9307584415
 20
139.4039028012
 30
0.0
 11
191.9980854294
 21
139.4039028012
 31
0.0
  0
LINE
  5
52
330
1F
100
AcDbEntity
  8
0
  6
Continuous
 62
     7
370
    15
100
AcDbLine
 10
191.9980854294
 20
89.4039028012
 30
0.0
 11
223.9307584415
 21
89.4039028012
 31
0.0
  0
LWPOLYLINE
  5
53
330
1F
100
AcDbEntity
  8
0
  6
Continuous
 62
     7
370
    15
100
AcDbPolyline
 90
        3
 70
   128
 43
0.0
 10
191.4980854294
 20
96.5640825223
 10
191.6235403729
 20
96.4957804073
 10
191.6980854294
 20
96.4430426492
  0
LWPOLYLINE
  5
54
330
1F
100
AcDbEntity
  8
0
  6
Continuous
 62
     7
370
    15
100
AcDbPolyline
 90
        3
 70
   128
 43
0.0
 10
191.6980854294
 20
132.3647629531
 10
191.6235403729
 20
132.312025195
 10
191.4980854294
 20
132.24372308
  0
ARC
  5
55
330
1F
100
AcDbEntity
  8
0
  6
Continuous
 62
     7
370
    15
100
AcDbCircle
 10
223.9307584415
 20
140.4039028012
 30
0.0
 40
1.0
100
AcDbArc
 50
270.0
 51
345.0
  0
ARC
  5
56
330
1F
100
AcDbEntity
  8
0
  6
Continuous
 62
     7
370
    15
100
AcDbCircle
 10
223.9307584415
 20
88.4039028012
 30
0.0
 40
1.000000000000008
100
AcDbArc
 50
30.0
 51
90.0
  0
LINE
  5
57
330
1F
100
AcDbEntity
  8
0
  6
Continuous
 62
     7
370
    15
100
AcDbLine
 10
224.7967838452
 20
88.9039028012
 30
0.0
 11
228.3846584823
 21
88.9039028012
 31
0.0
  0
LINE
  5
58
330
1F
100
AcDbEntity
  8
0
  6
Continuous
 62
     7
370
    15
100
AcDbLine
 10
226.4661928327
 20
146.0025694635
 30
0.0
 11
224.8966842678
 21
140.1450837561
 31
0.0
  0
LINE
  5
59
330
1F
100
AcDbEntity
  8
0
  6
Continuous
 62
     7
370
    15
100
AcDbLine
 10
238.7090943178
 20
147.2980891113
 30
0.0
 11
226.4676992972
 21
146.0114666491
 31
0.0
  0
LINE
  5
5A
330
1F
100
AcDbEntity
  8
0
  6
Continuous
 62
     7
370
    15
100
AcDbLine
 10
243.2273351874
 20
143.7177716829
 30
0.0
 11
242.2776744521
 21
143.1134401375
 31
0.0
  0
LINE
  5
5B
330
1F
100
AcDbEntity
  8
0
  6
Continuous
 62
     7
370
    15
100
AcDbLine
 10
250.0374021681
 20
136.2674768622
 30
0.0
 11
250.5349576532
 21
136.7623066864
 31
0.0
  0
LINE
  5
5C
330
1F
100
AcDbEntity
  8
0
  6
Continuous
 62
     7
370
    15
100
AcDbLine
 10
239.0465600526
 20
148.3738298759
 30
0.0
 11
238.5490045674
 21
147.8790000517
 31
0.0
  0
ARC
  5
5D
330
1F
100
AcDbEntity
  8
0
  6
Continuous
 62
     7
370
    15
100
AcDbCircle
 10
209.9011007026
 20
127.2104960351
 30
0.0
 40
2.826986111157268
100
AcDbArc
 50
9.0389553535
 51
95.809281878
  0
ARC
  5
5E
330
1F
100
AcDbEntity
  8
0
  6
Continuous
 62
     7
370
    15
100
AcDbCircle
 10
209.4635036286
 20
127.2283268417
 30
0.0
 40
2.798737947544921
100
AcDbArc
 50
86.897862094
 51
169.7553128847
  0
ARC
  5
5F
330
1F
100
AcDbEntity
  8
0
  6
Continuous
 62
     7
370
    15
100
AcDbCircle
 10
209.9850125237
 20
127.4846086299
 30
0.0
 40
2.523939147990331
100
AcDbArc
 50
346.8161193939
 51
98.3419101961
  0
ARC
  5
60
330
1F
100
AcDbEntity
  8
0
  6
Continuous
 62
     7
370
    15
100
AcDbCircle
 10
209.3987451473
 20
127.4752345503
 30
0.0
 40
2.516253984349169
100
AcDbArc
 50
84.9819797525
 51
191.6470841495
  0
LWPOLYLINE
  5
61
330
1F
100
AcDbEntity
  8
0
  6
Continuous
 62
     7
370
    15
100
AcDbPolyline
 90
       29
 70
   128
 43
0.0
 10
209.6288145153
 20
129.6800388485
 10
210.186640024
 20
129.6404184365
 10
210.7199673654
 20
129.4976890138
 10
211.2020532796
 20
129.2590076296
 10
211.6087239656
 20
128.9363427653
 10
211.9195872574
 20
128.5458741843
 10
212.1190551713
 20
128.1071816119
 10
212.1971255533
 20
127.6422629255
 10
212.1498836283
 20
127.1744310892
 10
211.9796983039
 20
126.7271451449
 10
211.6951033828
 20
126.3228338775
 10
211.3103696426
 20
125.9817711422
 10
210.8447892397
 20
125.7210592488
 10
210.3217083195
 20
125.5537713801
 10
209.7673563436
 20
125.4882960486
 10
209.2095308348
 20
125.5279164606
 10
208.6762034934
 20
125.6706458833
 10
208.1941175793
 20
125.9093272674
 10
207.7874468933
 20
126.2319921318
 10
207.4765836015
 20
126.6224607127
 10
207.2771156876
 20
127.0611532851
 10
207.1990453056
 20
127.5260719716
 10
207.2462872306
 20
127.9939038079
 10
207.416472555
 20
128.4411897522
 10
207.7010674761
 20
128.8455010195
 10
208.0858012163
 20
129.1865637548
 10
208.5513816192
 20
129.4472756483
 10
209.0744625394
 20
129.6145635169
 10
209.6288145153
 20
129.6800388485
  0
LINE
  5
62
330
1F
100
AcDbEntity
  8
0
  6
Continuous
 62
     7
370
    15
100
AcDbLine
 10
191.6980854294
 20
89.7039028012
 30
0.0
 11
191.6980854294
 21
139.1039028012
 31
0.0
  0
SPLINE
  5
63
330
1F
100
AcDbEntity
  8
0
  6
Continuous
 62
     7
370
    15
100
AcDbSpline
210
0.0
220
0.0
230
1.0
 70
     8
 71
     3
 72
    70
 73
    66
 74
     0
 42
0.00000001
 43
0.00000001
 12
1.0
 22
0.0
 32
0.0
 13
1.0
 23
0.0
 33
0.0
 40
-0.0312499999999997
 40
-0.0312499999999997
 40
0.0
 40
0.0
 40
0.0312500000000003
 40
0.0312500000000003
 40
0.0625000000000006
 40
0.0625000000000006
 40
0.0937500000000009
 40
0.0937500000000009
 40
0.1250000000000012
 40
0.1250000000000012
 40
0.1562500000000016
 40
0.1562500000000016
 40
0.1875000000000019
 40
0.1875000000000019
 40
0.2187500000000022
 40
0.2187500000000022
 40
0.2500000000000025
 40
0.2500000000000025
 40
0.2812500000000028
 40
0.2812500000000028
 40
0.3125000000000031
 40
0.3125000000000031
 40
0.3437500000000034
 40
0.3437500000000034
 40
0.3750000000000038
 40
0.3750000000000038
 40
0.4062500000000037
 40
0.4062500000000037
 40
0.4375000000000036
 40
0.4375000000000036
 40
0.4687500000000035
 40
0.4687500000000035
 40
0.5000000000000034
 40
0.5000000000000034
 40
0.5312500000000033
 40
0.5312500000000033
 40
0.5625000000000032
 40
0.5625000000000032
 40
0.593750000000003
 40
0.593750000000003
 40
0.6250000000000029
 40
0.6250000000000029
 40
0.6562500000000028
 40
0.6562500000000028
 40
0.6875000000000026
 40
0.6875000000000026
 40
0.7187500000000023
 40
0.7187500000000023
 40
0.750000000000002
 40
0.750000000000002
 40
0.7812500000000018
 40
0.7812500000000018
 40
0.8125000000000016
 40
0.8125000000000016
 40
0.8437500000000013
 40
0.8437500000000013
 40
0.8750000000000011
 40
0.8750000000000011
 40
0.9062500000000009
 40
0.9062500000000009
 40
0.9375000000000006
 40
0.9375000000000006
 40
0.9687500000000003
 40
0.9687500000000003
 40
1.0
 40
1.0
 40
1.03125
 40
1.03125
 10
212.6980854294433
 20
128.1862589259895
 30
0.0
 10
212.6980854294433
 20
127.853498427074
 30
0.0
 10
212.6786010670549
 20
127.6886432908478
 30
0.0
 10
212.602290793504
 20
127.3619913913719
 30
0.0
 10
212.5445256976617
 20
127.1984578118862
 30
0.0
 10
212.393883582386
 20
126.8847339275304
 30
0.0
 10
212.3017257563517
 20
126.7348853049928
 30
0.0
 10
212.0840268147492
 20
126.4496444316201
 30
0.0
 10
211.9574317993302
 20
126.3138180410409
 30
0.0
 10
211.6809190969459
 20
126.0691416540078
 30
0.0
 10
211.530009626208
 20
125.9586651384218
 30
0.0
 10
211.2021479355388
 20
125.7627592020361
 30
0.0
 10
211.0278028956601
 20
125.6792140936436
 30
0.0
 10
210.6669040929832
 20
125.5445940605651
 30
0.0
 10
210.4776770838258
 20
125.4925314257621
 30
0.0
 10
210.090352993635
 20
125.4228629536691
 30
0.0
 10
209.8955881363261
 20
125.4055749557778
 30
0.0
 10
209.5039049780881
 20
125.4053787884228
 30
0.0
 10
209.3049528225293
 20
125.4230401718155
 30
0.0
 10
208.9200642071699
 20
125.4922273679288
 30
0.0
 10
208.7329738116262
 20
125.5433795351118
 30
0.0
 10
208.3695481926985
 20
125.67860784861
 30
0.0
 10
208.1941109360587
 20
125.762837328496
 30
0.0
 10
207.8692240084964
 20
125.9567055952351
 30
0.0
 10
207.717629726275
 20
126.0671076601982
 30
0.0
 10
207.4375932646274
 20
126.3147620395573
 30
0.0
 10
207.3135843687263
 20
126.4480541996727
 30
0.0
 10
207.096293076303
 20
126.7321714947954
 30
0.0
 10
207.0022535062128
 20
126.8847957276506
 30
0.0
 10
206.851633567741
 20
127.1984904879069
 30
0.0
 10
206.7948041392555
 20
127.3589194177601
 30
0.0
 10
206.7178648724662
 20
127.686510508317
 30
0.0
 10
206.6981588042591
 20
127.8546682061496
 30
0.0
 10
206.6980124732498
 20
128.183209399369
 30
0.0
 10
206.716935870559
 20
128.3453245912605
 30
0.0
 10
206.7937094278961
 20
128.6652827265353
 30
0.0
 10
206.8512312945512
 20
128.8204132485125
 30
0.0
 10
207.000631313705
 20
129.1142605376204
 30
0.0
 10
207.093671555227
 20
129.2552309427769
 30
0.0
 10
207.3126251388597
 20
129.5183138116214
 30
0.0
 10
207.4365982579576
 20
129.6385922359232
 30
0.0
 10
207.7128885737869
 20
129.8579242238167
 30
0.0
 10
207.8670270301085
 20
129.9577048051343
 30
0.0
 10
208.1926741791769
 20
130.1285386126223
 30
0.0
 10
208.3647991411411
 20
130.2005214948789
 30
0.0
 10
208.7279069392997
 20
130.3179681780946
 30
0.0
 10
208.9184402447228
 20
130.362844744917
 30
0.0
 10
209.3019669326235
 20
130.4221758808795
 30
0.0
 10
209.4969632226553
 20
130.4373584403966
 30
0.0
 10
209.8937109460442
 20
130.4376393413509
 30
0.0
 10
210.0888006263544
 20
130.4227290974453
 30
0.0
 10
210.4725417183348
 20
130.3639224312314
 30
0.0
 10
210.6632193543386
 20
130.3192981137249
 30
0.0
 10
211.0265699482701
 20
130.2023682716394
 30
0.0
 10
211.198901514733
 20
130.1306176925722
 30
0.0
 10
211.5250971521847
 20
129.9601505434195
 30
0.0
 10
211.6793987217525
 20
129.8606098639176
 30
0.0
 10
211.9560871561137
 20
129.6417460024689
 30
0.0
 10
212.0803461333475
 20
129.5216476152952
 30
0.0
 10
212.2999779225646
 20
129.2587579995982
 30
0.0
 10
212.3931970508094
 20
129.1180986878295
 30
0.0
 10
212.543194823137
 20
128.8245933524063
 30
0.0
 10
212.601016015851
 20
128.6697712217458
 30
0.0
 10
212.6785986795636
 20
128.3494709671612
 30
0.0
 10
212.6980854294433
 20
128.1862589259895
 30
0.0
 10
212.6980854294433
 20
127.853498427074
 30
0.0
  0
SPLINE
  5
64
330
1F
100
AcDbEntity
  8
0
  6
Continuous
 62
     7
370
    15
100
AcDbSpline
210
0.0
220
0.0
230
1.0
 70
     8
 71
     3
 72
    12
 73
     8
 74
     0
 42
0.00000001
 43
0.00000001
 12
1.0
 22
0.0
 32
0.0
 13
1.0
 23
0.0
 33
0.0
 40
0.0
 40
0.0
 40
0.0
 40
0.0
 40
0.5000000000000018
 40
0.5000000000000018
 40
0.7500000000000009
 40
0.7500000000000009
 40
1.0
 40
1.0
 40
1.0
 40
1.0
 10
199.7928295411177
 20
122.5003557992
 30
0.0
 10
199.823528924485
 20
122.3860201321361
 30
0.0
 10
199.8648789925915
 20
122.2746667792947
 30
0.0
 10
199.964634920811
 20
122.121930007046
 30
0.0
 10
200.0043318385437
 20
122.0740701211939
 30
0.0
 10
200.1015899901913
 20
121.9994670078444
 30
0.0
 10
200.162366148182
 20
121.9727127703363
 30
0.0
 10
200.2258422430099
 20
121.9727127703363
 30
0.0
  0
LINE
  5
65
330
1F
100
AcDbEntity
  8
0
  6
Continuous
 62
     7
370
    15
100
AcDbLine
 10
200.225842243
 20
121.9727127703
 30
0.0
 11
203.1703286159
 21
121.9727127703
 31
0.0
  0
SPLINE
  5
66
330
1F
100
AcDbEntity
  8
0
  6
Continuous
 62
     7
370
    15
100
AcDbSpline
210
0.0
220
0.0
230
1.0
 70
     8
 71
     3
 72
    12
 73
     8
 74
     0
 42
0.00000001
 43
0.00000001
 12
1.0
 22
0.0
 32
0.0
 13
1.0
 23
0.0
 33
0.0
 40
0.0
 40
0.0
 40
0.0
 40
0.0
 40
0.2500000000000018
 40
0.2500000000000018
 40
0.5000000000000037
 40
0.5000000000000037
 40
1.0
 40
1.0
 40
1.0
 40
1.0
 10
203.1703286158771
 20
121.9727127703363
 30
0.0
 10
203.2339938524076
 20
121.9727127703363
 30
0.0
 10
203.2936000846309
 20
121.998784918816
 30
0.0
 10
203.3922606095618
 20
122.0743236696371
 30
0.0
 10
203.431227599577
 20
122.1215746067334
 30
0.0
 10
203.5306144315015
 20
122.2733984246998
 30
0.0
 10
203.5726906789249
 20
122.3862016744649
 30
0.0
 10
203.6033413177693
 20
122.5003557992
 30
0.0
  0
ELLIPSE
  5
67
330
1F
100
AcDbEntity
  8
0
  6
Continuous
 62
     7
370
    15
100
AcDbEllipse
 10
190.6418277745
 20
114.4039028012
 30
0.0
 11
11.70927234972709
 21
24.6771864409374
 31
0.0
210
0.0
220
0.0
230
1.0
 40
0.3419987131
 41
5.203068809370453
 42
6.114256032590498
  0
SPLINE
  5
68
330
1F
100
AcDbEntity
  8
0
  6
Continuous
 62
     7
370
    15
100
AcDbSpline
210
0.0
220
0.0
230
1.0
 70
     8
 71
     3
 72
    12
 73
     8
 74
     0
 42
0.00000001
 43
0.00000001
 12
1.0
 22
0.0
 32
0.0
 13
1.0
 23
0.0
 33
0.0
 40
0.0
 40
0.0
 40
0.0
 40
0.0
 40
0.5000000000000009
 40
0.5000000000000009
 40
0.7500000000000004
 40
0.7500000000000004
 40
1.0
 40
1.0
 40
1.0
 40
1.0
 10
203.6033413177693
 20
138.0565442783874
 30
0.0
 10
203.572641934402
 20
138.0956821207833
 30
0.0
 10
203.5312918662954
 20
138.1328419035088
 30
0.0
 10
203.431535938076
 20
138.1827784091366
 30
0.0
 10
203.3918390203433
 20
138.1982312792803
 30
0.0
 10
203.2945808686957
 20
138.2221508228794
 30
0.0
 10
203.233804710705
 20
138.2306339166578
 30
0.0
 10
203.1703286158771
 20
138.2306339166578
 30
0.0
  0
LINE
  5
69
330
1F
100
AcDbEntity
  8
0
  6
Continuous
 62
     7
370
    15
100
AcDbLine
 10
203.1703286159
 20
138.2306339167
 30
0.0
 11
200.225842243
 21
138.2306339167
 31
0.0
  0
SPLINE
  5
6A
330
1F
100
AcDbEntity
  8
0
  6
Continuous
 62
     7
370
    15
100
AcDbSpline
210
0.0
220
0.0
230
1.0
 70
     8
 71
     3
 72
    12
 73
     8
 74
     0
 42
0.00000001
 43
0.00000001
 12
1.0
 22
0.0
 32
0.0
 13
1.0
 23
0.0
 33
0.0
 40
0.0
 40
0.0
 40
0.0
 40
0.0
 40
0.2500000000000007
 40
0.2500000000000007
 40
0.5000000000000014
 40
0.5000000000000014
 40
1.0
 40
1.0
 40
1.0
 40
1.0
 10
200.2258422430099
 20
138.2306339166578
 30
0.0
 10
200.1621770064794
 20
138.2306339166578
 30
0.0
 10
200.1025707742561
 20
138.2223691409919
 30
0.0
 10
200.0039102493252
 20
138.1981503594088
 30
0.0
 10
199.96494325931
 20
138.1828930400996
 30
0.0
 10
199.8655564273855
 20
138.1332596858377
 30
0.0
 10
199.823480179962
 20
138.0956199776636
 30
0.0
 10
199.7928295411177
 20
138.0565442783874
 30
0.0
  0
ELLIPSE
  5
6B
330
1F
100
AcDbEntity
  8
0
  6
Continuous
 62
     7
370
    15
100
AcDbEllipse
 10
212.7543430844
 20
114.4039028012
 30
0.0
 11
-11.70927234972697
 21
24.67718644093743
 31
0.0
210
0.0
220
0.0
230
1.0
 40
0.3419987131
 41
0.1689292745891358
 42
1.08011649780915
  0
SPLINE
  5
6C
330
1F
100
AcDbEntity
  8
0
  6
Continuous
 62
     7
370
    15
100
AcDbSpline
210
0.0
220
0.0
230
1.0
 70
     8
 71
     3
 72
    12
 73
     8
 74
     0
 42
0.00000001
 43
0.00000001
 12
1.0
 22
0.0
 32
0.0
 13
1.0
 23
0.0
 33
0.0
 40
0.0
 40
0.0
 40
0.0
 40
0.0
 40
0.5000000000000018
 40
0.5000000000000018
 40
0.7500000000000009
 40
0.7500000000000009
 40
1.0
 40
1.0
 40
1.0
 40
1.0
 10
199.7928295411177
 20
90.75126132392425
 30
0.0
 10
199.8236812516819
 20
90.71192928356176
 30
0.0
 10
199.8655741151426
 20
90.67451751803348
 30
0.0
 10
199.9650949929357
 20
90.62484659341757
 30
0.0
 10
200.0047091576601
 20
90.60945751080975
 30
0.0
 10
200.1018121914395
 20
90.58562429514248
 30
0.0
 10
200.1623108640899
 20
90.57717168565368
 30
0.0
 10
200.2258422430099
 20
90.5771716856537
 30
0.0
  0
LINE
  5
6D
330
1F
100
AcDbEntity
  8
0
  6
Continuous
 62
     7
370
    15
100
AcDbLine
 10
200.225842243
 20
90.5771716857
 30
0.0
 11
203.1703286159
 21
90.5771716857
 31
0.0
  0
SPLINE
  5
6E
330
1F
100
AcDbEntity
  8
0
  6
Continuous
 62
     7
370
    15
100
AcDbSpline
210
0.0
220
0.0
230
1.0
 70
     8
 71
     3
 72
    12
 73
     8
 74
     0
 42
0.00000001
 43
0.00000001
 12
1.0
 22
0.0
 32
0.0
 13
1.0
 23
0.0
 33
0.0
 40
0.0
 40
0.0
 40
0.0
 40
0.0
 40
0.25
 40
0.25
 40
0.5
 40
0.5
 40
1.0
 40
1.0
 40
1.0
 40
1.0
 10
203.1703286158771
 20
90.57717168565391
 30
0.0
 10
203.2339651700907
 20
90.57717168565391
 30
0.0
 10
203.2935452969569
 20
90.58542845658566
 30
0.0
 10
203.3921820383233
 20
90.60963051859349
 30
0.0
 10
203.4311406627036
 20
90.62487733762762
 30
0.0
 10
203.5305196022115
 20
90.67448220968774
 30
0.0
 10
203.572477507377
 20
90.71191385780655
 30
0.0
 10
203.6033413177695
 20
90.75126132392423
 30
0.0
  0
ELLIPSE
  5
6F
330
1F
100
AcDbEntity
  8
0
  6
Continuous
 62
     7
370
    15
100
AcDbEllipse
 10
190.6418277745
 20
114.4039028012
 30
0.0
 11
-11.7092723497272
 21
24.6771864409374
 31
0.0
210
0.0
220
0.0
230
1.0
 40
0.3419987131
 41
3.310521928178951
 42
4.221709151398942
  0
SPLINE
  5
70
330
1F
100
AcDbEntity
  8
0
  6
Continuous
 62
     7
370
    15
100
AcDbSpline
210
0.0
220
0.0
230
1.0
 70
     8
 71
     3
 72
    12
 73
     8
 74
     0
 42
0.00000001
 43
0.00000001
 12
1.0
 22
0.0
 32
0.0
 13
1.0
 23
0.0
 33
0.0
 40
0.0
 40
0.0
 40
0.0
 40
0.0
 40
0.4999999999999964
 40
0.4999999999999964
 40
0.7499999999999982
 40
0.7499999999999982
 40
1.0
 40
1.0
 40
1.0
 40
1.0
 10
203.6033413177693
 20
106.3074498031115
 30
0.0
 10
203.5724896072051
 20
106.4223527920483
 30
0.0
 10
203.5305967437444
 20
106.5344916880972
 30
0.0
 10
203.4310758659512
 20
106.6864339696981
 30
0.0
 10
203.3914617012269
 20
106.734098579223
 30
0.0
 10
203.2943586674475
 20
106.8084349098384
 30
0.0
 10
203.2338599947971
 20
106.8350928319755
 30
0.0
 10
203.1703286158771
 20
106.8350928319755
 30
0.0
  0
LINE
  5
71
330
1F
100
AcDbEntity
  8
0
  6
Continuous
 62
     7
370
    15
100
AcDbLine
 10
203.1703286159
 20
106.835092832
 30
0.0
 11
200.225842243
 21
106.835092832
 31
0.0
  0
SPLINE
  5
72
330
1F
100
AcDbEntity
  8
0
  6
Continuous
 62
     7
370
    15
100
AcDbSpline
210
0.0
220
0.0
230
1.0
 70
     8
 71
     3
 72
    12
 73
     8
 74
     0
 42
0.00000001
 43
0.00000001
 12
1.0
 22
0.0
 32
0.0
 13
1.0
 23
0.0
 33
0.0
 40
0.0
 40
0.0
 40
0.0
 40
0.0
 40
0.2499999999999989
 40
0.2499999999999989
 40
0.4999999999999978
 40
0.4999999999999978
 40
1.0
 40
1.0
 40
1.0
 40
1.0
 10
200.2258422430099
 20
106.8350928319751
 30
0.0
 10
200.1622056887963
 20
106.8350928319751
 30
0.0
 10
200.10262556193
 20
106.8090459289172
 30
0.0
 10
200.0039888205636
 20
106.7335587700173
 30
0.0
 10
199.9650301961834
 20
106.6863397314865
 30
0.0
 10
199.8656512566755
 20
106.534600080393
 30
0.0
 10
199.82369335151
 20
106.4223978562088
 30
0.0
 10
199.7928295411175
 20
106.3074498031116
 30
0.0
  0
ELLIPSE
  5
73
330
1F
100
AcDbEntity
  8
0
  6
Continuous
 62
     7
370
    15
100
AcDbEllipse
 10
212.7543430844
 20
114.4039028012
 30
0.0
 11
11.70927234972708
 21
24.67718644093743
 31
0.0
210
0.0
220
0.0
230
1.0
 40
0.3419987131
 41
2.061476155780654
 42
2.972663379000669
  0
ELLIPSE
  5
74
330
1F
100
AcDbEntity
  8
0
  6
Continuous
 62
     7
370
    15
100
AcDbEllipse
 10
283.6363200973
 20
114.4039028012
 30
0.0
 11
237.8589510666635
 21
-2.642074127637472
 31
0.0
210
0.0
220
0.0
230
1.0
 40
0.1045157088
 41
1.82568315029382
 42
1.839529126360717
  0
SPLINE
  5
75
330
1F
100
AcDbEntity
  8
0
  6
Continuous
 62
     7
370
    15
100
AcDbSpline
210
0.0
220
0.0
230
1.0
 70
     8
 71
     3
 72
    18
 73
    14
 74
     0
 42
0.00000001
 43
0.00000001
 12
1.0
 22
0.0
 32
0.0
 13
1.0
 23
0.0
 33
0.0
 40
0.0
 40
0.0
 40
0.0
 40
0.0
 40
0.2500000000000006
 40
0.2500000000000006
 40
0.3750000000000004
 40
0.3750000000000004
 40
0.5000000000000003
 40
0.5000000000000003
 40
0.6250000000000002
 40
0.6250000000000002
 40
0.75
 40
0.75
 40
1.0
 40
1.0
 40
1.0
 40
1.0
 10
218.1644412251762
 20
138.5910123905501
 30
0.0
 10
218.2400339995916
 20
138.6672679522086
 30
0.0
 10
218.3550896681681
 20
138.7339014029602
 30
0.0
 10
218.5894464413146
 20
138.8217642972324
 30
0.0
 10
218.6781494573122
 20
138.8489419728911
 30
0.0
 10
218.8710783958867
 20
138.8978880778491
 30
0.0
 10
218.9759332187405
 20
138.9199200881018
 30
0.0
 10
219.2028175285197
 20
138.959652672761
 30
0.0
 10
219.326094916005
 20
138.9774804428117
 30
0.0
 10
219.5834213319388
 20
139.0082229504765
 30
0.0
 10
219.7175332720518
 20
139.0212277139733
 30
0.0
 10
220.1361089681491
 20
139.0540286528063
 30
0.0
 10
220.439234538883
 20
139.0676577142819
 30
0.0
 10
220.7486333142405
 20
139.0731246829461
 30
0.0
  0
ELLIPSE
  5
76
330
1F
100
AcDbEntity
  8
0
  6
Continuous
 62
     7
370
    15
100
AcDbEllipse
 10
220.5269146298
 20
114.4039028012
 30
0.0
 11
-0.7536593079953491
 21
24.99919464451331
 31
0.0
210
0.0
220
0.0
230
1.0
 40
0.266256518
 41
0.2476815613868214
 42
2.668418073330601
  0
SPLINE
  5
77
330
1F
100
AcDbEntity
  8
0
  6
Continuous
 62
     7
370
    15
100
AcDbSpline
210
0.0
220
0.0
230
1.0
 70
     8
 71
     3
 72
    18
 73
    14
 74
     0
 42
0.00000001
 43
0.00000001
 12
1.0
 22
0.0
 32
0.0
 13
1.0
 23
0.0
 33
0.0
 40
0.0
 40
0.0
 40
0.0
 40
0.0
 40
0.2499999999999997
 40
0.2499999999999997
 40
0.4999999999999993
 40
0.4999999999999993
 40
0.6249999999999994
 40
0.6249999999999994
 40
0.7499999999999997
 40
0.7499999999999997
 40
0.8749999999999998
 40
0.8749999999999998
 40
1.0
 40
1.0
 40
1.0
 40
1.0
 10
220.7486333142405
 20
91.11649749566288
 30
0.0
 10
220.4394692368843
 20
91.1287535079615
 30
0.0
 10
220.1439418062377
 20
91.15830251017778
 30
0.0
 10
219.5795901939245
 20
91.25381298852102
 30
0.0
 10
219.3221031896576
 20
91.31820065378068
 30
0.0
 10
218.9792356190289
 20
91.44031166985644
 30
0.0
 10
218.8724025029721
 20
91.48536017625064
 30
0.0
 10
218.6792550137787
 20
91.58181747140384
 30
0.0
 10
218.5919698625847
 20
91.6335510801099
 30
0.0
 10
218.4356791442011
 20
91.74449430293224
 30
0.0
 10
218.3666004669926
 20
91.80395967996509
 30
0.0
 10
218.2501497657915
 20
91.92776860851203
 30
0.0
 10
218.202220311043
 20
91.99243512936125
 30
0.0
 10
218.1644412251762
 20
92.06002111821834
 30
0.0
  0
ELLIPSE
  5
78
330
1F
100
AcDbEntity
  8
0
  6
Continuous
 62
     7
370
    15
100
AcDbEllipse
 10
283.6363200973
 20
114.4039028012
 30
0.0
 11
237.8589510666635
 21
-2.642074127637472
 31
0.0
210
0.0
220
0.0
230
1.0
 40
0.1045157088
 41
4.445978045309538
 42
4.459824021376433
  0
ELLIPSE
  5
79
330
1F
100
AcDbEntity
  8
0
  6
Continuous
 62
     7
370
    15
100
AcDbEllipse
 10
217.090572627
 20
127.9840379852
 30
0.0
 11
0.1400584013639161
 21
3.01660829695372
 31
0.0
210
0.0
220
0.0
230
1.0
 40
0.2366726791
 41
0.0
 42
6.283185307179586
  0
SPLINE
  5
7A
330
1F
100
AcDbEntity
  8
0
  6
Continuous
 62
     7
370
    15
100
AcDbSpline
210
0.0
220
0.0
230
1.0
 70
     8
 71
     3
 72
    16
 73
    12
 74
     0
 42
0.00000001
 43
0.00000001
 12
1.0
 22
0.0
 32
0.0
 13
1.0
 23
0.0
 33
0.0
 40
0.0
 40
0.0
 40
0.0
 40
0.0
 40
0.2500000000000004
 40
0.2500000000000004
 40
0.5000000000000009
 40
0.5000000000000009
 40
0.6250000000000007
 40
0.6250000000000007
 40
0.7500000000000004
 40
0.7500000000000004
 40
1.0
 40
1.0
 40
1.0
 40
1.0
 10
190.6572244013144
 20
97.05474551996332
 30
0.0
 10
190.6889523625071
 20
97.05394840314239
 30
0.0
 10
190.7235799528576
 20
97.05335732828712
 30
0.0
 10
190.8032737149213
 20
97.05234580285267
 30
0.0
 10
190.848315174925
 20
97.05194569467777
 30
0.0
 10
190.9311679017754
 20
97.05098782277395
 30
0.0
 10
190.9610823629753
 20
97.05060614151351
 30
0.0
 10
191.0270686935333
 20
97.04952992745498
 30
0.0
 10
191.063802318995
 20
97.04881236156085
 30
0.0
 10
191.1762990385648
 20
97.04605148387918
 30
0.0
 10
191.2466403866631
 20
97.0435643920076
 30
0.0
 10
191.3031085405682
 20
97.04139111360048
 30
0.0
  0
SPLINE
  5
7B
330
1F
100
AcDbEntity
  8
0
  6
Continuous
 62
     7
370
    15
100
AcDbSpline
210
0.0
220
0.0
230
1.0
 70
     8
 71
     3
 72
    14
 73
    10
 74
     0
 42
0.00000001
 43
0.00000001
 12
1.0
 22
0.0
 32
0.0
 13
1.0
 23
0.0
 33
0.0
 40
0.0
 40
0.0
 40
0.0
 40
0.0
 40
0.1249999999999949
 40
0.1249999999999949
 40
0.2499999999999898
 40
0.2499999999999898
 40
0.4999999999999913
 40
0.4999999999999913
 40
1.0
 40
1.0
 40
1.0
 40
1.0
 10
191.3031085405366
 20
97.0413911136232
 30
0.0
 10
191.3157003344814
 20
97.04090649580085
 30
0.0
 10
191.3305714427755
 20
97.0391963178685
 30
0.0
 10
191.3627555342086
 20
97.03108076911765
 30
0.0
 10
191.3783596656845
 20
97.02486498085632
 30
0.0
 10
191.4142468053966
 20
97.00664586915475
 30
0.0
 10
191.4280988466652
 20
96.99488084082111
 30
0.0
 10
191.4615885885979
 20
96.96308570440382
 30
0.0
 10
191.4722508491736
 20
96.94529227256068
 30
0.0
 10
191.4803888060685
 20
96.92886114171628
 30
0.0
  0
LINE
  5
7C
330
1F
100
AcDbEntity
  8
0
  6
Continuous
 62
     7
370
    15
100
AcDbLine
 10
191.4980854294
 20
108.4194225686
 30
0.0
 11
191.4980854294
 21
96.5640825223
 31
0.0
  0
SPLINE
  5
7D
330
1F
100
AcDbEntity
  8
0
  6
Continuous
 62
     7
370
    15
100
AcDbSpline
210
0.0
220
0.0
230
1.0
 70
     8
 71
     3
 72
    16
 73
    12
 74
     0
 42
0.00000001
 43
0.00000001
 12
1.0
 22
0.0
 32
0.0
 13
1.0
 23
0.0
 33
0.0
 40
0.0
 40
0.0
 40
0.0
 40
0.0
 40
0.4999999999999984
 40
0.4999999999999984
 40
0.7499999999999994
 40
0.7499999999999994
 40
0.8749999999999993
 40
0.8749999999999993
 40
0.9374999999999997
 40
0.9374999999999997
 40
1.0
 40
1.0
 40
1.0
 40
1.0
 10
191.4980854294435
 20
108.4194225685813
 30
0.0
 10
191.4980854294435
 20
108.5339522992802
 30
0.0
 10
191.4940281273284
 20
108.6492683744697
 30
0.0
 10
191.4683708845336
 20
108.8241914642973
 30
0.0
 10
191.4570554387915
 20
108.8840207672922
 30
0.0
 10
191.4230240714829
 20
108.9686119535404
 30
0.0
 10
191.4091450902791
 20
108.9972815396845
 30
0.0
 10
191.3732094085117
 20
109.0270893266307
 30
0.0
 10
191.3582590892489
 20
109.0334244799903
 30
0.0
 10
191.3283605765071
 20
109.0321990171201
 30
0.0
 10
191.3148277161418
 20
109.0256004310853
 30
0.0
 10
191.3031085405678
 20
109.0169527430289
 30
0.0
  0
SPLINE
  5
7E
330
1F
100
AcDbEntity
  8
0
  6
Continuous
 62
     7
370
    15
100
AcDbSpline
210
0.0
220
0.0
230
1.0
 70
     8
 71
     3
 72
    14
 73
    10
 74
     0
 42
0.00000001
 43
0.00000001
 12
1.0
 22
0.0
 32
0.0
 13
1.0
 23
0.0
 33
0.0
 40
0.0
 40
0.0
 40
0.0
 40
0.0
 40
0.25
 40
0.25
 40
0.5
 40
0.5
 40
0.75
 40
0.75
 40
1.0
 40
1.0
 40
1.0
 40
1.0
 10
191.3031085405747
 20
109.0169527430202
 30
0.0
 10
191.2466488746909
 20
108.9752906333214
 30
0.0
 10
191.1757763998287
 20
108.9444571527332
 30
0.0
 10
191.0273100419467
 20
108.9501716613463
 30
0.0
 10
190.958114838739
 20
108.9857425887793
 30
0.0
 10
190.8483976526694
 20
109.0726865012532
 30
0.0
 10
190.8031517637374
 20
109.1251188146183
 30
0.0
 10
190.7235346327706
 20
109.2336718961368
 30
0.0
 10
190.6889320133137
 20
109.2906549823793
 30
0.0
 10
190.6572244013149
 20
109.3492210650372
 30
0.0
  0
SPLINE
  5
7F
330
1F
100
AcDbEntity
  8
0
  6
Continuous
 62
     7
370
    15
100
AcDbSpline
210
0.0
220
0.0
230
1.0
 70
     8
 71
     3
 72
    10
 73
     6
 74
     0
 42
0.00000001
 43
0.00000001
 12
1.0
 22
0.0
 32
0.0
 13
1.0
 23
0.0
 33
0.0
 40
0.0
 40
0.0
 40
0.0
 40
0.0
 40
0.5
 40
0.5
 40
1.0
 40
1.0
 40
1.0
 40
1.0
 10
190.3767650858838
 20
110.2020396566835
 30
0.0
 10
190.4076436694958
 20
110.0524111048238
 30
0.0
 10
190.4436363772192
 20
109.9059156873002
 30
0.0
 10
190.5329766287163
 20
109.6207240487595
 30
0.0
 10
190.5854349315618
 20
109.4818210230435
 30
0.0
 10
190.657224401315
 20
109.349221065037
 30
0.0
  0
SPLINE
  5
80
330
1F
100
AcDbEntity
  8
0
  6
Continuous
 62
     7
370
    15
100
AcDbSpline
210
0.0
220
0.0
230
1.0
 70
     8
 71
     3
 72
    10
 73
     6
 74
     0
 42
0.00000001
 43
0.00000001
 12
1.0
 22
0.0
 32
0.0
 13
1.0
 23
0.0
 33
0.0
 40
0.0
 40
0.0
 40
0.0
 40
0.0
 40
0.5
 40
0.5
 40
1.0
 40
1.0
 40
1.0
 40
1.0
 10
190.6572244013143
 20
119.4585845372735
 30
0.0
 10
190.5854349315614
 20
119.3259845792671
 30
0.0
 10
190.5329766287159
 20
119.1870815535514
 30
0.0
 10
190.4436363772191
 20
118.9018899150111
 30
0.0
 10
190.4076436694958
 20
118.7553944974877
 30
0.0
 10
190.3767650858838
 20
118.6057659456283
 30
0.0
  0
SPLINE
  5
81
330
1F
100
AcDbEntity
  8
0
  6
Continuous
 62
     7
370
    15
100
AcDbSpline
210
0.0
220
0.0
230
1.0
 70
     8
 71
     3
 72
    14
 73
    10
 74
     0
 42
0.00000001
 43
0.00000001
 12
1.0
 22
0.0
 32
0.0
 13
1.0
 23
0.0
 33
0.0
 40
0.0
 40
0.0
 40
0.0
 40
0.0
 40
0.25
 40
0.25
 40
0.5
 40
0.5
 40
0.75
 40
0.75
 40
1.0
 40
1.0
 40
1.0
 40
1.0
 10
190.6572244013136
 20
119.4585845372723
 30
0.0
 10
190.6889331007989
 20
119.5171526285909
 30
0.0
 10
190.7235409194396
 20
119.5741468905309
 30
0.0
 10
190.8031993299289
 20
119.6827470252948
 30
0.0
 10
190.8482615998238
 20
119.7350751606734
 30
0.0
 10
190.9588434454022
 20
119.8225761720357
 30
0.0
 10
191.0264875662175
 20
119.8576216282899
 30
0.0
 10
191.1767358566146
 20
119.863366017046
 30
0.0
 10
191.2466882548449
 20
119.832485909996
 30
0.0
 10
191.3031085405685
 20
119.7908528592829
 30
0.0
  0
SPLINE
  5
82
330
1F
100
AcDbEntity
  8
0
  6
Continuous
 62
     7
370
    15
100
AcDbSpline
210
0.0
220
0.0
230
1.0
 70
     8
 71
     3
 72
    16
 73
    12
 74
     0
 42
0.00000001
 43
0.00000001
 12
1.0
 22
0.0
 32
0.0
 13
1.0
 23
0.0
 33
0.0
 40
0.0
 40
0.0
 40
0.0
 40
0.0
 40
0.0624999999999996
 40
0.0624999999999996
 40
0.1249999999999993
 40
0.1249999999999993
 40
0.2500000000000008
 40
0.2500000000000008
 40
0.5000000000000006
 40
0.5000000000000006
 40
1.0
 40
1.0
 40
1.0
 40
1.0
 10
191.3031085405366
 20
119.7908528592295
 30
0.0
 10
191.3148427749835
 20
119.7821940590853
 30
0.0
 10
191.3283745304625
 20
119.77558997385
 30
0.0
 10
191.3583619908923
 20
119.7743930066758
 30
0.0
 10
191.3733566973006
 20
119.7808147537418
 30
0.0
 10
191.4090971196954
 20
119.8105319071511
 30
0.0
 10
191.4231104566966
 20
119.8393393045344
 30
0.0
 10
191.4572545454779
 20
119.9244190261603
 30
0.0
 10
191.4682264495963
 20
119.9827939754301
 30
0.0
 10
191.4940719898626
 20
120.1585095002187
 30
0.0
 10
191.4980854294435
 20
120.2743045080831
 30
0.0
 10
191.4980854294435
 20
120.3883830337305
 30
0.0
  0
LINE
  5
83
330
1F
100
AcDbEntity
  8
0
  6
Continuous
 62
     7
370
    15
100
AcDbLine
 10
191.4980854294
 20
132.24372308
 30
0.0
 11
191.4980854294
 21
120.3883830337
 31
0.0
  0
SPLINE
  5
84
330
1F
100
AcDbEntity
  8
0
  6
Continuous
 62
     7
370
    15
100
AcDbSpline
210
0.0
220
0.0
230
1.0
 70
     8
 71
     3
 72
    16
 73
    12
 74
     0
 42
0.00000001
 43
0.00000001
 12
1.0
 22
0.0
 32
0.0
 13
1.0
 23
0.0
 33
0.0
 40
0.0
 40
0.0
 40
0.0
 40
0.0
 40
0.5000000000000039
 40
0.5000000000000039
 40
0.7500000000000031
 40
0.7500000000000031
 40
0.8750000000000012
 40
0.8750000000000012
 40
0.9375000000000007
 40
0.9375000000000007
 40
1.0
 40
1.0
 40
1.0
 40
1.0
 10
191.4980854294436
 20
131.9506572668235
 30
0.0
 10
191.4980854294434
 20
131.9286422522441
 30
0.0
 10
191.4939608865894
 20
131.9032886175404
 30
0.0
 10
191.4680444409563
 20
131.8561281153519
 30
0.0
 10
191.4567668599365
 20
131.8389291271231
 30
0.0
 10
191.4230314813951
 20
131.8089511615539
 30
0.0
 10
191.4086426661507
 20
131.797599753012
 30
0.0
 10
191.3733959767117
 20
131.7809118935346
 30
0.0
 10
191.3581905522547
 20
131.7753488666493
 30
0.0
 10
191.3285439730854
 20
131.7683792836141
 30
0.0
 10
191.314838637088
 20
131.7668659425588
 30
0.0
 10
191.3031085405642
 20
131.7664144887089
 30
0.0
  0
SPLINE
  5
85
330
1F
100
AcDbEntity
  8
0
  6
Continuous
 62
     7
370
    15
100
AcDbSpline
210
0.0
220
0.0
230
1.0
 70
     8
 71
     3
 72
    14
 73
    10
 74
     0
 42
0.00000001
 43
0.00000001
 12
1.0
 22
0.0
 32
0.0
 13
1.0
 23
0.0
 33
0.0
 40
0.0
 40
0.0
 40
0.0
 40
0.0
 40
0.25
 40
0.25
 40
0.5
 40
0.5
 40
0.75
 40
0.75
 40
1.0
 40
1.0
 40
1.0
 40
1.0
 10
191.3031085405747
 20
131.7664144887114
 30
0.0
 10
191.2466614585164
 20
131.7642420212922
 30
0.0
 10
191.1758110744736
 20
131.7617439233747
 30
0.0
 10
191.0273746396572
 20
131.7580974645865
 30
0.0
 10
190.9581853879703
 20
131.7571297177353
 30
0.0
 10
190.8484738397294
 20
131.7558621583726
 30
0.0
 10
190.803232190387
 20
131.7554593174442
 30
0.0
 10
190.7235841722031
 20
131.7544482825166
 30
0.0
 10
190.6889572564371
 20
131.753857322122
 30
0.0
 10
190.6572244013157
 20
131.7530600823485
 30
0.0
  0
SPLINE
  5
86
330
1F
100
AcDbEntity
  8
0
  6
Continuous
 62
     7
370
    15
100
AcDbSpline
210
0.0
220
0.0
230
1.0
 70
     8
 71
     3
 72
    18
 73
    14
 74
     0
 42
0.00000001
 43
0.00000001
 12
1.0
 22
0.0
 32
0.0
 13
1.0
 23
0.0
 33
0.0
 40
0.0
 40
0.0
 40
0.0
 40
0.0
 40
0.2500000000000001
 40
0.2500000000000001
 40
0.3750000000000001
 40
0.3750000000000001
 40
0.5000000000000001
 40
0.5000000000000001
 40
0.6250000000000001
 40
0.6250000000000001
 40
0.7500000000000002
 40
0.7500000000000002
 40
1.0
 40
1.0
 40
1.0
 40
1.0
 10
190.3767650858838
 20
118.6057659456283
 30
0.0
 10
190.2414794795815
 20
117.9502116102071
 30
0.0
 10
190.1403117333386
 20
117.2705905164095
 30
0.0
 10
190.0374503904696
 20
116.2152265099154
 30
0.0
 10
190.0113475449464
 20
115.8564124453308
 30
0.0
 10
189.9764575614015
 20
115.1302995012079
 30
0.0
 10
189.9678713031115
 20
114.7682098221918
 30
0.0
 10
189.9677715935459
 20
114.0459001647734
 30
0.0
 10
189.9762599646944
 20
113.685680362665
 30
0.0
 10
190.010403344215
 20
112.9671142935711
 30
0.0
 10
190.0362003260688
 20
112.6073485776557
 30
0.0
 10
190.1396014574568
 20
111.5407039906613
 30
0.0
 10
190.2414594496282
 20
110.857691051379
 30
0.0
 10
190.3767650858838
 20
110.2020396566835
 30
0.0
  0
LINE
  5
87
330
1F
100
AcDbEntity
  8
0
  6
Continuous
 62
     7
370
    15
100
AcDbLine
 10
189.4980854294
 20
119.544055289
 30
0.0
 11
189.4980854294
 21
109.2637503133
 31
0.0
  0
LINE
  5
88
330
1F
100
AcDbEntity
  8
0
  6
Continuous
 62
     7
370
    15
100
AcDbLine
 10
163.1980854294
 20
119.2136815177
 30
0.0
 11
163.1980854294
 21
109.5941240847
 31
0.0
  0
LINE
  5
89
330
1F
100
AcDbEntity
  8
0
  6
Continuous
 62
     7
370
    15
100
AcDbLine
 10
161.6980854294
 20
118.7806688158
 30
0.0
 11
161.6980854294
 21
110.0271367866
 31
0.0
  0
LINE
  5
8A
330
1F
100
AcDbEntity
  8
0
  6
Continuous
 62
     7
370
    15
100
AcDbLine
 10
189.4980854294
 20
119.544055289
 30
0.0
 11
189.4980854294
 21
131.9240015857
 31
0.0
  0
ARC
  5
8B
330
1F
100
AcDbEntity
  8
0
  6
Continuous
 62
     7
370
    15
100
AcDbCircle
 10
189.6980223404
 20
131.9290246968
 30
0.0
 40
0.2000000000000343
100
AcDbArc
 50
181.4391666667
 51
271.4391666667
  0
LINE
  5
8C
330
1F
100
AcDbEntity
  8
0
  6
Continuous
 62
     7
370
    15
100
AcDbLine
 10
163.1980854294
 20
119.2136815177
 30
0.0
 11
163.1980854294
 21
131.2632540431
 31
0.0
  0
LINE
  5
8D
330
1F
100
AcDbEntity
  8
0
  6
Continuous
 62
     7
370
    15
100
AcDbLine
 10
163.1980854294
 20
131.2632540431
 30
0.0
 11
189.4980854294
 21
131.9240015857
 31
0.0
  0
LINE
  5
8E
330
1F
100
AcDbEntity
  8
0
  6
Continuous
 62
     7
370
    15
100
AcDbLine
 10
163.1980854294
 20
97.5445515592
 30
0.0
 11
163.1980854294
 21
109.5941240847
 31
0.0
  0
LINE
  5
8F
330
1F
100
AcDbEntity
  8
0
  6
Continuous
 62
     7
370
    15
100
AcDbLine
 10
189.4980854294
 20
96.8838040166
 30
0.0
 11
189.4980854294
 21
109.2637503133
 31
0.0
  0
LINE
  5
90
330
1F
100
AcDbEntity
  8
0
  6
Continuous
 62
     7
370
    15
100
AcDbLine
 10
163.1980854294
 20
97.5445515592
 30
0.0
 11
189.4980854294
 21
96.8838040166
 31
0.0
  0
ARC
  5
91
330
1F
100
AcDbEntity
  8
0
  6
Continuous
 62
     7
370
    15
100
AcDbCircle
 10
189.6980223404
 20
96.8787809055
 30
0.0
 40
0.2000000000000343
100
AcDbArc
 50
88.5608333333
 51
178.5608333333
  0
LINE
  5
92
330
1F
100
AcDbEntity
  8
0
  6
Continuous
 62
     7
370
    15
100
AcDbLine
 10
189.7030454515
 20
97.0787178164
 30
0.0
 11
190.6572244013
 21
97.05474552
 31
0.0
  0
LINE
  5
93
330
1F
100
AcDbEntity
  8
0
  6
Continuous
 62
     7
370
    15
100
AcDbLine
 10
189.7030454515
 20
131.7290877859
 30
0.0
 11
190.6572244013
 21
131.7530600823
 31
0.0
  0
LINE
  5
94
330
1F
100
AcDbEntity
  8
0
  6
Continuous
 62
     7
370
    15
100
AcDbLine
 10
161.6980854294
 20
98.410576963
 30
0.0
 11
163.1980854294
 21
97.5445515592
 31
0.0
  0
LINE
  5
95
330
1F
100
AcDbEntity
  8
0
  6
Continuous
 62
     7
370
    15
100
AcDbLine
 10
161.6980854294
 20
98.410576963
 30
0.0
 11
161.6980854294
 21
110.0271367866
 31
0.0
  0
LINE
  5
96
330
1F
100
AcDbEntity
  8
0
  6
Continuous
 62
     7
370
    15
100
AcDbLine
 10
161.6980854294
 20
130.3972286393
 30
0.0
 11
163.1980854294
 21
131.2632540431
 31
0.0
  0
LINE
  5
97
330
1F
100
AcDbEntity
  8
0
  6
Continuous
 62
     7
370
    15
100
AcDbLine
 10
161.6980854294
 20
118.7806688158
 30
0.0
 11
161.6980854294
 21
130.3972286393
 31
0.0
  0
LINE
  5
98
330
1F
100
AcDbEntity
  8
0
  6
Continuous
 62
     7
370
    15
100
AcDbLine
 10
238.2259404526
 20
140.3898276239
 30
0.0
 11
236.9292913893
 21
140.2906310151
 31
0.0
  0
ARC
  5
99
330
1F
100
AcDbEntity
  8
0
  6
Continuous
 62
     7
370
    15
100
AcDbCircle
 10
237.1373290717
 20
137.960539831
 30
0.0
 40
2.339359870428786
100
AcDbArc
 50
95.1020146544
 51
274.8884313429
  0
LINE
  5
9A
330
1F
100
AcDbEntity
  8
0
  6
Continuous
 62
     7
370
    15
100
AcDbLine
 10
237.3366793733
 20
135.6296893294
 30
0.0
 11
249.582715439
 21
136.5665390012
 31
0.0
  0
LINE
  5
9B
330
1F
100
AcDbEntity
  8
0
  6
Continuous
 62
     7
370
    15
100
AcDbLine
 10
249.582715439
 20
136.5665390012
 30
0.0
 11
247.7836763219
 21
116.023192733
 31
0.0
  0
LINE
  5
9C
330
1F
100
AcDbEntity
  8
0
  6
Continuous
 62
     7
370
    15
100
AcDbLine
 10
247.7836763219
 20
116.023192733
 30
0.0
 11
229.6139680678
 21
90.2737795024
 31
0.0
  0
ELLIPSE
  5
9D
330
1F
100
AcDbEntity
  8
0
  6
Continuous
 62
     7
370
    15
100
AcDbEllipse
 10
283.6363200973
 20
114.4039028012
 30
0.0
 11
242.6161300879966
 21
-2.694915610190222
 31
0.0
210
0.0
220
0.0
230
1.0
 40
0.1045157088
 41
4.468586366609743
 42
4.489001839394707
  0
SPLINE
  5
9E
330
1F
100
AcDbEntity
  8
0
  6
Continuous
 62
     7
370
    15
100
AcDbSpline
210
0.0
220
0.0
230
1.0
 70
     8
 71
     3
 72
    10
 73
     6
 74
     0
 42
0.00000001
 43
0.00000001
 12
1.0
 22
0.0
 32
0.0
 13
1.0
 23
0.0
 33
0.0
 40
0.0
 40
0.0
 40
0.0
 40
0.0
 40
0.5
 40
0.5
 40
1.0
 40
1.0
 40
1.0
 40
1.0
 10
224.7967838452489
 20
90.44713064357472
 30
0.0
 10
224.7108059493715
 20
90.60298164439415
 30
0.0
 10
224.5847353261677
 20
90.73832999250371
 30
0.0
 10
224.2842756248488
 20
90.9295034163792
 30
0.0
 10
224.1098933932549
 20
90.98599787805529
 30
0.0
 10
223.9307584414655
 20
90.9928215106795
 30
0.0
  0
SPLINE
  5
9F
330
1F
100
AcDbEntity
  8
0
  6
Continuous
 62
     7
370
    15
100
AcDbSpline
210
0.0
220
0.0
230
1.0
 70
     8
 71
     3
 72
    10
 73
     6
 74
     0
 42
0.00000001
 43
0.00000001
 12
1.0
 22
0.0
 32
0.0
 13
1.0
 23
0.0
 33
0.0
 40
0.0
 40
0.0
 40
0.0
 40
0.0
 40
0.5
 40
0.5
 40
1.0
 40
1.0
 40
1.0
 40
1.0
 10
223.9307584414645
 20
139.1268805695256
 30
0.0
 10
224.1552990639111
 20
139.1305000219586
 30
0.0
 10
224.3704096839221
 20
139.2114828153688
 30
0.0
 10
224.7167653099283
 20
139.4925115598828
 30
0.0
 10
224.8402524986022
 20
139.6856084858846
 30
0.0
 10
224.8966842677536
 20
139.902195553344
 30
0.0
  0
SPLINE
  5
A0
330
1F
100
AcDbEntity
  8
0
  6
Continuous
 62
     7
370
    15
100
AcDbSpline
210
0.0
220
0.0
230
1.0
 70
     8
 71
     3
 72
     8
 73
     4
 74
     0
 42
0.00000001
 43
0.00000001
 12
1.0
 22
0.0
 32
0.0
 13
1.0
 23
0.0
 33
0.0
 40
0.0
 40
0.0
 40
0.0
 40
0.0
 40
1.0
 40
1.0
 40
1.0
 40
1.0
 10
224.8966842677536
 20
139.902195553344
 30
0.0
 10
225.4176481306191
 20
141.9016727451271
 30
0.0
 10
225.9426537088126
 20
143.9000456506315
 30
0.0
 10
226.4698059461378
 20
145.8978320412451
 30
0.0
  0
ELLIPSE
  5
A1
330
1F
100
AcDbEntity
  8
0
  6
Continuous
 62
     7
370
    15
100
AcDbEllipse
 10
279.6435190677
 20
118.4186972951
 30
0.0
 11
284.2611860869352
 21
26.7471894183619
 31
0.0
210
0.0
220
0.0
230
1.0
 40
0.1150714178
 41
1.704036765374283
 42
1.748125893057953
  0
LINE
  5
A2
330
1F
100
AcDbEntity
  8
0
  6
Continuous
 62
     7
370
    15
100
AcDbLine
 10
238.8298437231
 20
147.2858388787
 30
0.0
 11
238.2259404526
 21
140.3898276239
 31
0.0
  0
CIRCLE
  5
A3
330
1F
100
AcDbEntity
  8
0
  6
Continuous
 62
     7
370
    15
100
AcDbCircle
 10
240.3597102789
 20
130.6225747786
 30
0.0
 40
3.976030370835324
  0
LINE
  5
A4
330
1F
100
AcDbEntity
  8
0
  6
Continuous
 62
     7
370
    15
100
AcDbLine
 10
224.7967838452
 20
90.4471306436
 30
0.0
 11
224.7967838452
 21
88.9039028012
 31
0.0
  0
ELLIPSE
  5
A5
330
1F
100
AcDbEntity
  8
0
  6
Continuous
 62
     7
370
    15
100
AcDbEllipse
 10
246.5201035036
 20
114.4039028012
 30
0.0
 11
18.14503636023605
 21
25.49727658496197
 31
0.0
210
0.0
220
0.0
230
1.0
 40
0.0205386817
 41
3.156207884742678
 42
3.485475713097585
  0
SPLINE
  5
A6
330
1F
100
AcDbEntity
  8
0
  6
Continuous
 62
     7
370
    15
100
AcDbSpline
210
0.0
220
0.0
230
1.0
 70
     8
 71
     3
 72
     9
 73
     5
 74
     0
 42
0.00000001
 43
0.00000001
 12
1.0
 22
0.0
 32
0.0
 13
1.0
 23
0.0
 33
0.0
 40
0.0
 40
0.0
 40
0.0
 40
0.0
 40
0.1103682897407745
 40
1.0
 40
1.0
 40
1.0
 40
1.0
 10
226.4687045330293
 20
146.0018964554422
 30
0.0
 10
226.4686709995333
 20
146.0050652217066
 30
0.0
 10
226.4683671668287
 20
146.0337760613129
 30
0.0
 10
226.469128574092
 20
145.9618339895697
 30
0.0
 10
226.4698059461378
 20
145.8978320412452
 30
0.0
  0
ARC
  5
A7
330
1F
100
AcDbEntity
  8
0
  6
Continuous
 62
     7
370
    15
100
AcDbCircle
 10
236.6123032695
 20
137.4974245038
 30
0.0
 40
2.311195543388711
100
AcDbArc
 50
94.3249891644
 51
126.1562236956
  0
ELLIPSE
  5
A8
330
1F
100
AcDbEntity
  8
0
  6
Continuous
 62
     7
370
    15
100
AcDbEllipse
 10
235.407344023
 20
113.7692879459
 30
0.0
 11
3.36242253329857
 21
33.5290109969672
 31
0.0
210
0.0
220
0.0
230
1.0
 40
0.0928940858
 41
6.263690338132482
 42
6.302465511708969
  0
LINE
  5
A9
330
1F
100
AcDbEntity
  8
0
  6
Continuous
 62
     7
370
    15
100
AcDbLine
 10
237.7346566752
 20
139.9012351505
 30
0.0
 11
238.2259404526
 21
140.3898276239
 31
0.0
  0
LINE
  5
AA
330
1F
100
AcDbEntity
  8
0
  6
Continuous
 62
     7
370
    15
100
AcDbLine
 10
237.7346566752
 20
139.9012351505
 30
0.0
 11
237.7577130833
 21
139.9029990182
 31
0.0
  0
LINE
  5
AB
330
1F
100
AcDbEntity
  8
0
  6
Continuous
 62
     7
370
    15
100
AcDbLine
 10
236.1306939299
 20
139.4964083561
 30
0.0
 11
237.7328404004
 21
139.618976213
 31
0.0
  0
ARC
  5
AC
330
1F
100
AcDbEntity
  8
0
  6
Continuous
 62
     7
370
    15
100
AcDbCircle
 10
236.5932837641
 20
137.7444440959
 30
0.0
 40
2.063445077181973
100
AcDbArc
 50
94.3156400315
 51
134.8046154638
  0
LINE
  5
AD
330
1F
100
AcDbEntity
  8
0
  6
Continuous
 62
     7
370
    15
100
AcDbLine
 10
237.3880482064
 20
135.6817714213
 30
0.0
 11
236.8632091247
 21
135.6416200353
 31
0.0
  0
ARC
  5
AE
330
1F
100
AcDbEntity
  8
0
  6
Continuous
 62
     7
370
    15
100
AcDbCircle
 10
236.286499893
 20
137.4367639348
 30
0.0
 40
2.065529142952171
100
AcDbArc
 50
94.3260157106
 51
125.3112375819
  0
ARC
  5
AF
330
1F
100
AcDbEntity
  8
0
  6
Continuous
 62
     7
370
    15
100
AcDbCircle
 10
243.9985757223
 20
141.7804712816
 30
0.0
 40
2.817909495170947
100
AcDbArc
 50
354.6563252628
 51
94.9768550905
  0
ARC
  5
B0
330
1F
100
AcDbEntity
  8
0
  6
Continuous
 62
     7
370
    15
100
AcDbCircle
 10
243.4728887128
 20
141.294093635
 30
0.0
 40
2.778124669759879
100
AcDbArc
 50
79.2005532034
 51
108.2516627581
  0
CIRCLE
  5
B1
330
1F
100
AcDbEntity
  8
0
  6
Continuous
 62
     7
370
    15
100
AcDbCircle
 10
240.3237450574
 20
130.5812619077
 30
0.0
 40
3.479046228083219
  0
CIRCLE
  5
B2
330
1F
100
AcDbEntity
  8
0
  6
Continuous
 62
     7
370
    15
100
AcDbCircle
 10
240.3400745732
 20
130.5810663352
 30
0.0
 40
1.987364159770384
  0
SPLINE
  5
B3
330
1F
100
AcDbEntity
  8
0
  6
Continuous
 62
     7
370
    15
100
AcDbSpline
210
0.0
220
0.0
230
1.0
 70
     8
 71
     3
 72
    11
 73
     7
 74
     0
 42
0.00000001
 43
0.00000001
 12
1.0
 22
0.0
 32
0.0
 13
1.0
 23
0.0
 33
0.0
 40
0.0
 40
0.0
 40
0.0
 40
0.0
 40
0.1081100880371204
 40
0.4711580666043557
 40
0.8135808430835908
 40
1.0
 40
1.0
 40
1.0
 40
1.0
 10
239.3212582555252
 20
129.1689461441341
 30
0.0
 10
239.3762465625414
 20
129.1593154771595
 30
0.0
 10
239.6158928794576
 20
129.1173437563494
 30
0.0
 10
240.0830521949294
 20
129.0483036679185
 30
0.0
 10
240.6298991580098
 20
128.9960205912548
 30
0.0
 10
240.9289629871291
 20
128.9768322525074
 30
0.0
 10
241.0343843301959
 20
128.9700682769108
 30
0.0
  0
SPLINE
  5
B4
330
1F
100
AcDbEntity
  8
0
  6
Continuous
 62
     7
370
    15
100
AcDbSpline
210
0.0
220
0.0
230
1.0
 70
     8
 71
     3
 72
    11
 73
     7
 74
     0
 42
0.00000001
 43
0.00000001
 12
1.0
 22
0.0
 32
0.0
 13
1.0
 23
0.0
 33
0.0
 40
0.0
 40
0.0
 40
0.0
 40
0.0
 40
0.2164499953511883
 40
0.4402998152333169
 40
0.751891476001029
 40
1.0
 40
1.0
 40
1.0
 40
1.0
 10
241.0343843301959
 20
128.9700682769108
 30
0.0
 10
241.0980607816491
 20
129.0591179376936
 30
0.0
 10
241.2275906056809
 20
129.2402616199821
 30
0.0
 10
241.4797743994513
 20
129.5881633659514
 30
0.0
 10
241.7664270224444
 20
129.97740477027
 30
0.0
 10
241.9607430991014
 20
130.2373127417476
 30
0.0
 10
242.0468811356446
 20
130.3525268955641
 30
0.0
  0
SPLINE
  5
B5
330
1F
100
AcDbEntity
  8
0
  6
Continuous
 62
     7
370
    15
100
AcDbSpline
210
0.0
220
0.0
230
1.0
 70
     8
 71
     3
 72
    11
 73
     7
 74
     0
 42
0.00000001
 43
0.00000001
 12
1.0
 22
0.0
 32
0.0
 13
1.0
 23
0.0
 33
0.0
 40
0.0
 40
0.0
 40
0.0
 40
0.0
 40
0.2164499953511799
 40
0.4402998152332915
 40
0.7518914760010273
 40
1.0
 40
1.0
 40
1.0
 40
1.0
 10
242.0468811356446
 20
130.3525268955641
 30
0.0
 10
241.9932097658262
 20
130.4551995376107
 30
0.0
 10
241.8840321510332
 20
130.6640549143423
 30
0.0
 10
241.6932335900615
 20
131.0633827562838
 30
0.0
 10
241.5046966524284
 20
131.5077892110569
 30
0.0
 10
241.3949162365447
 20
131.8029999327294
 30
0.0
 10
241.3462518664226
 20
131.9338633814405
 30
0.0
  0
SPLINE
  5
B6
330
1F
100
AcDbEntity
  8
0
  6
Continuous
 62
     7
370
    15
100
AcDbSpline
210
0.0
220
0.0
230
1.0
 70
     8
 71
     3
 72
    11
 73
     7
 74
     0
 42
0.00000001
 43
0.00000001
 12
1.0
 22
0.0
 32
0.0
 13
1.0
 23
0.0
 33
0.0
 40
0.0
 40
0.0
 40
0.0
 40
0.0
 40
0.1864191569163828
 40
0.5288419333956551
 40
0.8918899119628797
 40
1.0
 40
1.0
 40
1.0
 40
1.0
 10
241.3462518664226
 20
131.9338633814405
 30
0.0
 10
241.2408305233558
 20
131.9406273570371
 30
0.0
 10
240.9417666942364
 20
131.9598156957844
 30
0.0
 10
240.3949197311561
 20
132.0120987724483
 30
0.0
 10
239.9277604156842
 20
132.081138860879
 30
0.0
 10
239.688114098768
 20
132.1231105816891
 30
0.0
 10
239.6331257917518
 20
132.1327412486637
 30
0.0
  0
SPLINE
  5
B7
330
1F
100
AcDbEntity
  8
0
  6
Continuous
 62
     7
370
    15
100
AcDbSpline
210
0.0
220
0.0
230
1.0
 70
     8
 71
     3
 72
    11
 73
     7
 74
     0
 42
0.00000001
 43
0.00000001
 12
1.0
 22
0.0
 32
0.0
 13
1.0
 23
0.0
 33
0.0
 40
0.0
 40
0.0
 40
0.0
 40
0.0
 40
0.2164499953511924
 40
0.4402998152333293
 40
0.7518914760010578
 40
1.0
 40
1.0
 40
1.0
 40
1.0
 10
239.6331257917518
 20
132.1327412486637
 30
0.0
 10
239.5580917350637
 20
132.0323962007958
 30
0.0
 10
239.4054584155647
 20
131.8282755864056
 30
0.0
 10
239.1340167439614
 20
131.4612214592733
 30
0.0
 10
238.8589735067021
 20
131.0835258432586
 30
0.0
 10
238.6938335785757
 20
130.8526341903174
 30
0.0
 10
238.6206289863032
 20
130.7502826300105
 30
0.0
  0
SPLINE
  5
B8
330
1F
100
AcDbEntity
  8
0
  6
Continuous
 62
     7
370
    15
100
AcDbSpline
210
0.0
220
0.0
230
1.0
 70
     8
 71
     3
 72
    11
 73
     7
 74
     0
 42
0.00000001
 43
0.00000001
 12
1.0
 22
0.0
 32
0.0
 13
1.0
 23
0.0
 33
0.0
 40
0.0
 40
0.0
 40
0.0
 40
0.0
 40
0.2164499953512017
 40
0.4402998152333408
 40
0.7518914760010832
 40
1.0
 40
1.0
 40
1.0
 40
1.0
 10
238.6206289863032
 20
130.7502826300105
 30
0.0
 10
238.6629427508866
 20
130.6363146008787
 30
0.0
 10
238.7490168702123
 20
130.4044822920454
 30
0.0
 10
238.9205575533513
 20
129.9860020689408
 30
0.0
 10
239.120703876718
 20
129.5531414024717
 30
0.0
 10
239.2596604411324
 20
129.2869469993355
 30
0.0
 10
239.3212582555252
 20
129.1689461441341
 30
0.0
  0
LINE
  5
B9
330
1F
100
AcDbEntity
  8
0
  6
Continuous
 62
     7
370
    15
100
AcDbLine
 10
240.9334583095
 20
128.9769441991
 30
0.0
 11
241.1505271972
 21
129.2733290894
 31
0.0
  0
LINE
  5
BA
330
1F
100
AcDbEntity
  8
0
  6
Continuous
 62
     7
370
    15
100
AcDbLine
 10
241.1505271972
 20
129.2733290894
 30
0.0
 11
241.6567755999
 21
129.9645583988
 31
0.0
  0
LINE
  5
BB
330
1F
100
AcDbEntity
  8
0
  6
Continuous
 62
     7
370
    15
100
AcDbLine
 10
241.6567755999
 20
129.9645583988
 30
0.0
 11
242.0468811356
 21
130.3525268956
 31
0.0
  0
LINE
  5
BC
330
1F
100
AcDbEntity
  8
0
  6
Continuous
 62
     7
370
    15
100
AcDbLine
 10
241.6567755999
 20
129.9645583988
 30
0.0
 11
241.3064609653
 21
130.7552266417
 31
0.0
  0
LINE
  5
BD
330
1F
100
AcDbEntity
  8
0
  6
Continuous
 62
     7
370
    15
100
AcDbLine
 10
241.3064609653
 20
130.7552266417
 30
0.0
 11
240.9561463307
 21
131.5458948846
 31
0.0
  0
LINE
  5
BE
330
1F
100
AcDbEntity
  8
0
  6
Continuous
 62
     7
370
    15
100
AcDbLine
 10
240.9561463307
 20
131.5458948846
 30
0.0
 11
241.3462518664
 21
131.9338633814
 31
0.0
  0
LINE
  5
BF
330
1F
100
AcDbEntity
  8
0
  6
Continuous
 62
     7
370
    15
100
AcDbLine
 10
240.9561463307
 20
131.5458948846
 30
0.0
 11
240.0995832933
 21
131.6453338182
 31
0.0
  0
LINE
  5
C0
330
1F
100
AcDbEntity
  8
0
  6
Continuous
 62
     7
370
    15
100
AcDbLine
 10
240.0995832933
 20
131.6453338182
 30
0.0
 11
239.3361671508
 21
131.7339592711
 31
0.0
  0
ARC
  5
C1
330
1F
100
AcDbEntity
  8
0
  6
Continuous
 62
     7
370
    15
100
AcDbCircle
 10
239.9484492496
 20
130.1489715316
 30
0.0
 40
1.487192347545665
100
AcDbArc
 50
323.9288835421
 51
24.0573452248
  0
ARC
  5
C2
330
1F
100
AcDbEntity
  8
0
  6
Continuous
 62
     7
370
    15
100
AcDbCircle
 10
239.9664835851
 20
130.1404779353
 30
0.0
 40
1.467619295340356
100
AcDbArc
 50
306.8407417276
 51
323.7823603725
  0
ARC
  5
C3
330
1F
100
AcDbEntity
  8
0
  6
Continuous
 62
     7
370
    15
100
AcDbCircle
 10
239.9267974859
 20
130.175822534
 30
0.0
 40
1.479634532477463
100
AcDbArc
 50
83.2939271646
 51
127.9145172634
  0
ARC
  5
C4
330
1F
100
AcDbEntity
  8
0
  6
Continuous
 62
     7
370
    15
100
AcDbCircle
 10
239.9230147898
 20
130.1426846204
 30
0.0
 40
1.512987458046664
100
AcDbArc
 50
23.882102474
 51
83.2982025035
  0
LINE
  5
C5
330
1F
100
AcDbEntity
  8
0
  6
Continuous
 62
     7
370
    15
100
AcDbLine
 10
242.2362039
 20
142.8367990086
 30
0.0
 11
242.5461376129
 21
143.0340302016
 31
0.0
  0
LINE
  5
C6
330
1F
100
AcDbEntity
  8
0
  6
Continuous
 62
     7
370
    15
100
AcDbLine
 10
242.5461376129
 20
143.0340302016
 30
0.0
 11
242.2514637017
 21
142.2276576855
 31
0.0
  0
ELLIPSE
  5
C7
330
1F
100
AcDbEntity
  8
0
  6
Continuous
 62
     7
370
    15
100
AcDbEllipse
 10
244.441469381
 20
141.8234561078
 30
0.0
 11
-1.502644295739771
 21
1.675495476824068
 31
0.0
210
0.0
220
0.0
230
1.0
 40
0.9898983231
 41
3.837979583766181
 42
6.557150476637607
  0
ELLIPSE
  5
C8
330
1F
100
AcDbEntity
  8
0
  6
Continuous
 62
     7
370
    15
100
AcDbEllipse
 10
244.441469381
 20
141.8234561078
 30
0.0
 11
-1.502644295739771
 21
1.675495476824068
 31
0.0
210
0.0
220
0.0
230
1.0
 40
0.9898983231
 41
3.295690576460503
 42
3.415557823047853
  0
LINE
  5
C9
330
1F
100
AcDbEntity
  8
0
  6
Continuous
 62
     7
370
    15
100
AcDbLine
 10
246.3368011492
 20
140.612882014
 30
0.0
 11
246.6581351125
 21
141.492209524
 31
0.0
  0
LINE
  5
CA
330
1F
100
AcDbEntity
  8
0
  6
Continuous
 62
     7
370
    15
100
AcDbLine
 10
238.3159123523
 20
135.7333906382
 30
0.0
 11
250.2875641712
 21
136.6492492898
 31
0.0
  0
ARC
  5
CB
330
1F
100
AcDbEntity
  8
0
  6
Continuous
 62
     7
370
    15
100
AcDbCircle
 10
238.2861677315
 20
136.1349612719
 30
0.0
 40
0.4026707293643029
100
AcDbArc
 50
175.1377687674
 51
274.2362029422
  0
LINE
  5
CC
330
1F
100
AcDbEntity
  8
0
  6
Continuous
 62
     7
370
    15
100
AcDbLine
 10
238.9323298766
 20
148.129236551
 30
0.0
 11
237.8849460588
 21
136.169091693
 31
0.0
  0
ARC
  5
CD
330
1F
100
AcDbEntity
  8
0
  6
Continuous
 62
     7
370
    15
100
AcDbCircle
 10
239.3233367737
 20
148.0955319073
 30
0.0
 40
0.392456872254904
100
AcDbArc
 50
94.2937518475
 51
175.073304225
  0
LINE
  5
CE
330
1F
100
AcDbEntity
  8
0
  6
Continuous
 62
     7
370
    15
100
AcDbLine
 10
251.2656053535
 20
149.402745924
 30
0.0
 11
239.2939535345
 21
148.4868872725
 31
0.0
  0
ARC
  5
CF
330
1F
100
AcDbEntity
  8
0
  6
Continuous
 62
     7
370
    15
100
AcDbCircle
 10
251.2953499743
 20
149.0011752903
 30
0.0
 40
0.4026707293642767
100
AcDbArc
 50
355.1377687674
 51
94.2362029422
  0
LINE
  5
D0
330
1F
100
AcDbEntity
  8
0
  6
Continuous
 62
     7
370
    15
100
AcDbLine
 10
250.6491878292
 20
137.0069000112
 30
0.0
 11
251.696571647
 21
148.9670448692
 31
0.0
  0
ARC
  5
D1
330
1F
100
AcDbEntity
  8
0
  6
Continuous
 62
     7
370
    15
100
AcDbCircle
 10
250.2581809321
 20
137.0406046549
 30
0.0
 40
0.3924568722549667
100
AcDbArc
 50
274.2937518475
 51
355.073304225
  0
ARC
  5
D2
330
1F
100
AcDbEntity
  8
0
  6
Continuous
 62
     7
370
    15
100
AcDbCircle
 10
251.2955963092
 20
149.0014200276
 30
0.0
 40
0.3825371928961389
100
AcDbArc
 50
355.1377687674
 51
94.2362029422
  0
LINE
  5
D3
330
1F
100
AcDbEntity
  8
0
  6
Continuous
 62
     7
370
    15
100
AcDbLine
 10
251.2673389194
 20
149.3829121296
 30
0.0
 11
239.2956871004
 21
148.4670534778
 31
0.0
  0
ARC
  5
D4
330
1F
100
AcDbEntity
  8
0
  6
Continuous
 62
     7
370
    15
100
AcDbCircle
 10
239.323601178
 20
148.0952658805
 30
0.0
 40
0.3728340290430122
100
AcDbArc
 50
94.2937518945
 51
175.0733041242
  0
LINE
  5
D5
330
1F
100
AcDbEntity
  8
0
  6
Continuous
 62
     7
370
    15
100
AcDbLine
 10
238.9521446254
 20
148.1272852927
 30
0.0
 11
237.9047608076
 21
136.1671404347
 31
0.0
  0
ARC
  5
D6
330
1F
100
AcDbEntity
  8
0
  6
Continuous
 62
     7
370
    15
100
AcDbCircle
 10
238.2859213966
 20
136.1347165347
 30
0.0
 40
0.3825371928961129
100
AcDbArc
 50
175.1377687674
 51
274.2362029422
  0
LINE
  5
D7
330
1F
100
AcDbEntity
  8
0
  6
Continuous
 62
     7
370
    15
100
AcDbLine
 10
238.3141787864
 20
135.7532244327
 30
0.0
 11
250.2858306054
 21
136.6690830842
 31
0.0
  0
ARC
  5
D8
330
1F
100
AcDbEntity
  8
0
  6
Continuous
 62
     7
370
    15
100
AcDbCircle
 10
250.2579165282
 20
137.0408706811
 30
0.0
 40
0.3728340286421775
100
AcDbArc
 50
274.2937518475
 51
355.073304225
  0
LINE
  5
D9
330
1F
100
AcDbEntity
  8
0
  6
Continuous
 62
     7
370
    15
100
AcDbLine
 10
250.6293730804
 20
137.0088512696
 30
0.0
 11
251.6767568982
 21
148.9689961276
 31
0.0
  0
LINE
  5
DA
330
1F
100
AcDbEntity
  8
0
  6
Continuous
 62
     7
370
    15
100
AcDbLine
 10
237.3873905736
 20
135.6742618689
 30
0.0
 11
237.3859243322
 21
135.633456681
 31
0.0
  0
LINE
  5
DB
330
1F
100
AcDbEntity
  8
0
  6
Continuous
 62
     7
370
    15
100
AcDbLine
 10
238.2583082107
 20
136.107259331
 30
0.0
 11
238.3141787864
 21
135.7532244327
 31
0.0
  0
LINE
  5
DC
330
1F
100
AcDbEntity
  8
0
  6
Continuous
 62
     7
370
    15
100
AcDbLine
 10
238.2583082107
 20
136.107259331
 30
0.0
 11
237.9047608076
 21
136.1671404347
 31
0.0
  0
LINE
  5
DD
330
1F
100
AcDbEntity
  8
0
  6
Continuous
 62
     7
370
    15
100
AcDbLine
 10
250.2299600296
 20
137.0231179825
 30
0.0
 11
250.2858306054
 21
136.6690830842
 31
0.0
  0
LINE
  5
DE
330
1F
100
AcDbEntity
  8
0
  6
Continuous
 62
     7
370
    15
100
AcDbLine
 10
239.1218577431
 20
136.9610438687
 30
0.0
 11
238.2583082107
 21
136.107259331
 31
0.0
  0
LINE
  5
DF
330
1F
100
AcDbEntity
  8
0
  6
Continuous
 62
     7
370
    15
100
AcDbLine
 10
249.6219004966
 20
137.5626353641
 30
0.0
 11
250.2299600296
 21
137.0231179825
 31
0.0
  0
LINE
  5
E0
330
1F
100
AcDbEntity
  8
0
  6
Continuous
 62
     7
370
    15
100
AcDbLine
 10
249.5449834099
 20
136.1356744735
 30
0.0
 11
249.7900086861
 21
136.1544194656
 31
0.0
  0
LINE
  5
E1
330
1F
100
AcDbEntity
  8
0
  6
Continuous
 62
     7
370
    15
100
AcDbLine
 10
238.4347743914
 20
147.6344067268
 30
0.0
 11
238.4025001261
 21
147.2658647632
 31
0.0
  0
LINE
  5
E2
330
1F
100
AcDbEntity
  8
0
  6
Continuous
 62
     7
370
    15
100
AcDbLine
 10
237.7597435064
 20
139.9261845534
 30
0.0
 11
237.3873905736
 21
135.6742618689
 31
0.0
  0
LINE
  5
E3
330
1F
100
AcDbEntity
  8
0
  6
Continuous
 62
     7
370
    15
100
AcDbLine
 10
239.3056920285
 20
148.0674041889
 30
0.0
 11
238.9521446254
 21
148.1272852927
 31
0.0
  0
LINE
  5
E4
330
1F
100
AcDbEntity
  8
0
  6
Continuous
 62
     7
370
    15
100
AcDbLine
 10
239.8387356388
 20
147.4532818297
 30
0.0
 11
239.3056920285
 21
148.0674041889
 31
0.0
  0
ARC
  5
E5
330
1F
100
AcDbEntity
  8
0
  6
Continuous
 62
     7
370
    15
100
AcDbCircle
 10
241.1599336902
 20
138.9771881965
 30
0.0
 40
1.006676823410718
100
AcDbArc
 50
175.1377687674
 51
274.2362029422
  0
SPLINE
  5
E6
330
1F
100
AcDbEntity
  8
0
  6
Continuous
 62
     7
370
    15
100
AcDbSpline
210
0.0
220
0.0
230
1.0
 70
     8
 71
     3
 72
    11
 73
     7
 74
     0
 42
0.00000001
 43
0.00000001
 12
1.0
 22
0.0
 32
0.0
 13
1.0
 23
0.0
 33
0.0
 40
0.0
 40
0.0
 40
0.0
 40
0.0
 40
0.3367831131412833
 40
0.6790111347687343
 40
0.9923717339918541
 40
1.0
 40
1.0
 40
1.0
 40
1.0
 10
239.1218577431316
 20
136.9610438687124
 30
0.0
 10
239.1749222556894
 20
137.0135137091805
 30
0.0
 10
239.2819091961917
 20
137.1193016911998
 30
0.0
 10
239.454237628557
 20
137.2897578372527
 30
0.0
 10
239.5641063635566
 20
137.3984546703201
 30
0.0
 10
239.614779589446
 20
137.4485931523076
 30
0.0
 10
239.6159838332327
 20
137.4497846879629
 30
0.0
  0
LINE
  5
E7
330
1F
100
AcDbEntity
  8
0
  6
Continuous
 62
     7
370
    15
100
AcDbLine
 10
241.2342952423
 20
137.9732616123
 30
0.0
 11
247.9343961763
 21
138.4858346055
 31
0.0
  0
LINE
  5
E8
330
1F
100
AcDbEntity
  8
0
  6
Continuous
 62
     7
370
    15
100
AcDbLine
 10
240.7430623847
 20
145.756175153
 30
0.0
 11
240.1568795085
 21
139.0625142493
 31
0.0
  0
ARC
  5
E9
330
1F
100
AcDbEntity
  8
0
  6
Continuous
 62
     7
370
    15
100
AcDbCircle
 10
241.7205796274
 20
145.6719135438
 30
0.0
 40
0.9811421806371091
100
AcDbArc
 50
94.2937518474
 51
175.073304225
  0
LINE
  5
EA
330
1F
100
AcDbEntity
  8
0
  6
Continuous
 62
     7
370
    15
100
AcDbLine
 10
248.3472224635
 20
147.1628749499
 30
0.0
 11
241.6471215295
 21
146.6503019567
 31
0.0
  0
ARC
  5
EB
330
1F
100
AcDbEntity
  8
0
  6
Continuous
 62
     7
370
    15
100
AcDbCircle
 10
248.421584016
 20
146.158948366
 30
0.0
 40
1.006676823230279
100
AcDbArc
 50
355.1377687515
 51
94.2362029702
  0
LINE
  5
EC
330
1F
100
AcDbEntity
  8
0
  6
Continuous
 62
     7
370
    15
100
AcDbLine
 10
248.8384553211
 20
139.3799614093
 30
0.0
 11
249.4246381976
 21
146.0736223129
 31
0.0
  0
ARC
  5
ED
330
1F
100
AcDbEntity
  8
0
  6
Continuous
 62
     7
370
    15
100
AcDbCircle
 10
247.8609380784
 20
139.4642230184
 30
0.0
 40
0.9811421806370978
100
AcDbArc
 50
274.2937518475
 51
355.073304225
  0
CIRCLE
  5
EE
330
1F
100
AcDbEntity
  8
0
  6
Continuous
 62
     7
370
    15
100
AcDbCircle
 10
244.7946911306
 20
142.5408789972
 30
0.0
 40
2.562027305939725
  0
ARC
  5
EF
330
1F
100
AcDbEntity
  8
0
  6
Continuous
 62
     7
370
    15
100
AcDbCircle
 10
244.274032526
 20
142.051405846
 30
0.0
 40
2.585513091958559
100
AcDbArc
 50
354.8990578783
 51
126.3944359205
  0
ARC
  5
F0
330
1F
100
AcDbEntity
  8
0
  6
Continuous
 62
     7
370
    15
100
AcDbCircle
 10
244.321159618
 20
142.0409049183
 30
0.0
 40
2.537646741420225
100
AcDbArc
 50
322.8578744599
 51
355.0406068415
  0
LINE
  5
F1
330
1F
100
AcDbEntity
  8
0
  6
Continuous
 62
     7
370
    15
100
AcDbLine
 10
251.2773438475
 20
148.9832628404
 30
0.0
 11
251.6767568982
 21
148.9689961276
 31
0.0
  0
LINE
  5
F2
330
1F
100
AcDbEntity
  8
0
  6
Continuous
 62
     7
370
    15
100
AcDbLine
 10
250.2299600296
 20
137.0231179825
 30
0.0
 11
250.6293730804
 21
137.0088512696
 31
0.0
  0
LINE
  5
F3
330
1F
100
AcDbEntity
  8
0
  6
Continuous
 62
     7
370
    15
100
AcDbLine
 10
250.312961451
 20
148.0291978117
 30
0.0
 11
251.2773438475
 21
148.9832628404
 31
0.0
  0
LINE
  5
F4
330
1F
100
AcDbEntity
  8
0
  6
Continuous
 62
     7
370
    15
100
AcDbLine
 10
239.3056920285
 20
148.0674041889
 30
0.0
 11
239.2956871004
 21
148.4670534778
 31
0.0
  0
LINE
  5
F5
330
1F
100
AcDbEntity
  8
0
  6
Continuous
 62
     7
370
    15
100
AcDbLine
 10
251.2773438475
 20
148.9832628404
 30
0.0
 11
251.2673389194
 21
149.3829121296
 31
0.0
  0
SPLINE
  5
F6
330
1F
100
AcDbEntity
  8
0
  6
Continuous
 62
     7
370
    15
100
AcDbSpline
210
0.0
220
0.0
230
1.0
 70
     8
 71
     3
 72
    11
 73
     7
 74
     0
 42
0.00000001
 43
0.00000001
 12
1.0
 22
0.0
 32
0.0
 13
1.0
 23
0.0
 33
0.0
 40
0.0
 40
0.0
 40
0.0
 40
0.0
 40
0.008116439103143
 40
0.3263678516910914
 40
0.6627685813469993
 40
1.0
 40
1.0
 40
1.0
 40
1.0
 10
249.1391565847034
 20
138.0611597767698
 30
0.0
 10
249.1402414129274
 20
138.0598599507877
 30
0.0
 10
249.1838631357582
 20
138.0075930135321
 30
0.0
 10
249.2825966796954
 20
137.895406219445
 30
0.0
 10
249.4503597226027
 20
137.7202851336654
 30
0.0
 10
249.5646732500708
 20
137.6152284708177
 30
0.0
 10
249.6219004966268
 20
137.5626353641199
 30
0.0
  0
SPLINE
  5
F7
330
1F
100
AcDbEntity
  8
0
  6
Continuous
 62
     7
370
    15
100
AcDbSpline
210
0.0
220
0.0
230
1.0
 70
     8
 71
     3
 72
    11
 73
     7
 74
     0
 42
0.00000001
 43
0.00000001
 12
1.0
 22
0.0
 32
0.0
 13
1.0
 23
0.0
 33
0.0
 40
0.0
 40
0.0
 40
0.0
 40
0.0
 40
0.3372314186521269
 40
0.6736321483071422
 40
0.9918835608968768
 40
1.0
 40
1.0
 40
1.0
 40
1.0
 10
239.8387356388299
 20
147.45328182969
 30
0.0
 10
239.890714479853
 20
147.3954690687741
 30
0.0
 10
239.9945441244479
 20
147.2799859548608
 30
0.0
 10
240.1678069538043
 20
147.1103345271238
 30
0.0
 10
240.2788750521576
 20
147.0104147174724
 30
0.0
 10
240.3306403159576
 20
146.9662467100156
 30
0.0
 10
240.3319276658271
 20
146.9651482962443
 30
0.0
  0
ARC
  5
F8
330
1F
100
AcDbEntity
  8
0
  6
Continuous
 62
     7
370
    15
100
AcDbCircle
 10
249.760518366
 20
136.5461538345
 30
0.0
 40
0.3928428372027506
100
AcDbArc
 50
274.305187064
 51
314.8150684314
  0
ARC
  5
F9
330
1F
100
AcDbEntity
  8
0
  6
Continuous
 62
     7
370
    15
100
AcDbCircle
 10
238.8263578226
 20
147.6004997083
 30
0.0
 40
0.3930486859068011
100
AcDbArc
 50
134.8817616344
 51
175.0511301793
  0
SPLINE
  5
FA
330
1F
100
AcDbEntity
  8
0
  6
Continuous
 62
     7
370
    15
100
AcDbSpline
210
0.0
220
0.0
230
1.0
 70
     8
 71
     3
 72
    11
 73
     7
 74
     0
 42
0.00000001
 43
0.00000001
 12
1.0
 22
0.0
 32
0.0
 13
1.0
 23
0.0
 33
0.0
 40
0.0
 40
0.0
 40
0.0
 40
0.0
 40
0.0076282660081474
 40
0.3209888652310295
 40
0.6632168868585737
 40
1.0
 40
1.0
 40
1.0
 40
1.0
 10
249.8345891788112
 20
147.5561245092753
 30
0.0
 10
249.8356038340567
 20
147.5571274949751
 30
0.0
 10
249.8782993870829
 20
147.5993320066259
 30
0.0
 10
249.9754025384914
 20
147.6953331873051
 30
0.0
 10
250.1401133280463
 20
147.8582134207916
 30
0.0
 10
250.2556542462723
 20
147.9725085209501
 30
0.0
 10
250.3129614510336
 20
148.0291978117101
 30
0.0
  0
LINE
  5
FB
330
1F
100
AcDbEntity
  8
0
  6
HIDDEN
 62
     7
370
     0
100
AcDbLine
 10
191.6980854294
 20
139.1039028011
 30
0.0
 11
191.6980854294
 21
89.7039028012
 31
0.0
  0
SPLINE
  5
FC
330
1F
100
AcDbEntity
  8
0
  6
HIDDEN
 62
     7
370
     0
100
AcDbSpline
210
0.0
220
0.0
230
1.0
 70
     8
 71
     3
 72
    58
 73
    54
 74
     0
 42
0.00000001
 43
0.00000001
 12
1.0
 22
0.0
 32
0.0
 13
1.0
 23
0.0
 33
0.0
 40
-0.0625
 40
-0.0625
 40
0.0
 40
0.0
 40
0.0312499999999999
 40
0.0312499999999999
 40
0.0624999999999997
 40
0.0624999999999997
 40
0.0937499999999996
 40
0.0937499999999996
 40
0.1249999999999995
 40
0.1249999999999995
 40
0.1874999999999995
 40
0.1874999999999995
 40
0.2499999999999996
 40
0.2499999999999996
 40
0.2812499999999996
 40
0.2812499999999996
 40
0.3124999999999996
 40
0.3124999999999996
 40
0.3437499999999997
 40
0.3437499999999997
 40
0.3749999999999997
 40
0.3749999999999997
 40
0.4062499999999998
 40
0.4062499999999998
 40
0.4374999999999998
 40
0.4374999999999998
 40
0.4687499999999998
 40
0.4687499999999998
 40
0.4999999999999999
 40
0.4999999999999999
 40
0.5625
 40
0.5625
 40
0.625
 40
0.625
 40
0.65625
 40
0.65625
 40
0.6875
 40
0.6875
 40
0.71875
 40
0.71875
 40
0.75
 40
0.75
 40
0.78125
 40
0.78125
 40
0.8125
 40
0.8125
 40
0.84375
 40
0.84375
 40
0.8749999999999999
 40
0.8749999999999999
 40
0.9375
 40
0.9375
 40
1.0
 40
1.0
 40
1.03125
 40
1.03125
 10
201.6980854294435
 20
114.6682751716993
 30
0.0
 10
201.6980854294435
 20
114.2717166158842
 30
0.0
 10
201.711061321454
 20
114.1417498763394
 30
0.0
 10
201.7618936235599
 20
113.8860705382073
 30
0.0
 10
201.8003706948813
 20
113.7590294463658
 30
0.0
 10
201.9007756560377
 20
113.5168512604253
 30
0.0
 10
201.962209898357
 20
113.4019976018358
 30
0.0
 10
202.1073441645387
 20
113.18463248003
 30
0.0
 10
202.1917860856861
 20
113.0817570079457
 30
0.0
 10
202.4684581152959
 20
112.8051390555286
 30
0.0
 10
202.6915042702641
 20
112.6561469356957
 30
0.0
 10
203.1727682688085
 20
112.4566231407044
 30
0.0
 10
203.4360261241283
 20
112.4040442762022
 30
0.0
 10
203.8274921554132
 20
112.4038325026146
 30
0.0
 10
203.9600408990266
 20
112.4168234742041
 30
0.0
 10
204.2165852080419
 20
112.4678596974939
 30
0.0
 10
204.3412810944136
 20
112.5056212388967
 30
0.0
 10
204.5834840648473
 20
112.6057807781901
 30
0.0
 10
204.700547428098
 20
112.6683785879406
 30
0.0
 10
204.9172337473441
 20
112.8131005719762
 30
0.0
 10
205.0182477154118
 20
112.8957246771445
 30
0.0
 10
205.2050409096973
 20
113.0823450477555
 30
0.0
 10
205.2878412736516
 20
113.1833934156467
 30
0.0
 10
205.4327197125462
 20
113.3999054365206
 30
0.0
 10
205.4953704958735
 20
113.5167947917195
 30
0.0
 10
205.5958108902474
 20
113.7590521937784
 30
0.0
 10
205.6336699020174
 20
113.8837148585938
 30
0.0
 10
205.6849076064809
 20
114.1400460542486
 30
0.0
 10
205.698037981254
 20
114.272633993599
 30
0.0
 10
205.6981799316929
 20
114.6642656621684
 30
0.0
 10
205.6458390154448
 20
114.9274784952026
 30
0.0
 10
205.4467087887067
 20
115.4089858258939
 30
0.0
 10
205.2978717010644
 20
115.6321863071695
 30
0.0
 10
205.021559664525
 20
115.9090323871312
 30
0.0
 10
204.9187941272738
 20
115.99354448135
 30
0.0
 10
204.70147719492
 20
116.1389230780815
 30
0.0
 10
204.5866902843831
 20
116.2004385096833
 30
0.0
 10
204.3447707942772
 20
116.3009945699289
 30
0.0
 10
204.2176438917772
 20
116.3396332957635
 30
0.0
 10
203.961975056141
 20
116.3906981626508
 30
0.0
 10
203.8320798507631
 20
116.4037726430272
 30
0.0
 10
203.5680050683386
 20
116.4040310443008
 30
0.0
 10
203.4376759288533
 20
116.3911549763378
 30
0.0
 10
203.1819866147095
 20
116.3405561850098
 30
0.0
 10
203.0550587483218
 20
116.3022508391722
 30
0.0
 10
202.8126064594797
 20
116.2019950067523
 30
0.0
 10
202.6976897654981
 20
116.1406439878402
 30
0.0
 10
202.4802989737276
 20
115.99577515227
 30
0.0
 10
202.3773136940461
 20
115.9114111990007
 30
0.0
 10
202.1003493263888
 20
115.6348851452146
 30
0.0
 10
201.9512170480303
 20
115.4120253032189
 30
0.0
 10
201.7512649293159
 20
114.9309227831581
 30
0.0
 10
201.6980854294435
 20
114.6682751716993
 30
0.0
 10
201.6980854294435
 20
114.2717166158842
 30
0.0
  0
SPLINE
  5
FD
330
1F
100
AcDbEntity
  8
0
  6
HIDDEN
 62
     7
370
     0
100
AcDbSpline
210
0.0
220
0.0
230
1.0
 70
     8
 71
     3
 72
    12
 73
     8
 74
     0
 42
0.00000001
 43
0.00000001
 12
1.0
 22
0.0
 32
0.0
 13
1.0
 23
0.0
 33
0.0
 40
0.0
 40
0.0
 40
0.0
 40
0.0
 40
0.4999999999999978
 40
0.4999999999999978
 40
0.7499999999999989
 40
0.7499999999999989
 40
1.0
 40
1.0
 40
1.0
 40
1.0
 10
199.7928295411177
 20
106.3074498031117
 30
0.0
 10
199.823528924485
 20
106.4217854701755
 30
0.0
 10
199.8648789925915
 20
106.5331388230169
 30
0.0
 10
199.964634920811
 20
106.6858755952656
 30
0.0
 10
200.0043318385437
 20
106.7337354811177
 30
0.0
 10
200.1015899901913
 20
106.8083385944672
 30
0.0
 10
200.162366148182
 20
106.8350928319753
 30
0.0
 10
200.2258422430099
 20
106.8350928319753
 30
0.0
  0
LINE
  5
FE
330
1F
100
AcDbEntity
  8
0
  6
HIDDEN
 62
     7
370
     0
100
AcDbLine
 10
200.225842243
 20
106.835092832
 30
0.0
 11
203.1703286159
 21
106.835092832
 31
0.0
  0
SPLINE
  5
FF
330
1F
100
AcDbEntity
  8
0
  6
HIDDEN
 62
     7
370
     0
100
AcDbSpline
210
0.0
220
0.0
230
1.0
 70
     8
 71
     3
 72
    12
 73
     8
 74
     0
 42
0.00000001
 43
0.00000001
 12
1.0
 22
0.0
 32
0.0
 13
1.0
 23
0.0
 33
0.0
 40
0.0
 40
0.0
 40
0.0
 40
0.0
 40
0.2499999999999993
 40
0.2499999999999993
 40
0.4999999999999987
 40
0.4999999999999987
 40
1.0
 40
1.0
 40
1.0
 40
1.0
 10
203.1703286158771
 20
106.8350928319753
 30
0.0
 10
203.2339938524076
 20
106.8350928319753
 30
0.0
 10
203.2936000846309
 20
106.8090206834956
 30
0.0
 10
203.3922606095618
 20
106.7334819326745
 30
0.0
 10
203.431227599577
 20
106.6862309955783
 30
0.0
 10
203.5306144315015
 20
106.5344071776118
 30
0.0
 10
203.5726906789249
 20
106.4216039278468
 30
0.0
 10
203.6033413177693
 20
106.3074498031117
 30
0.0
  0
ELLIPSE
  5
100
330
1F
100
AcDbEntity
  8
0
  6
HIDDEN
 62
     7
370
     0
100
AcDbEllipse
 10
190.6418277745
 20
114.4039028012
 30
0.0
 11
-11.70927234972714
 21
24.6771864409374
 31
0.0
210
0.0
220
0.0
230
1.0
 40
0.3419987131
 41
3.310521928178955
 42
4.221709151398946
  0
SPLINE
  5
101
330
1F
100
AcDbEntity
  8
0
  6
HIDDEN
 62
     7
370
     0
100
AcDbSpline
210
0.0
220
0.0
230
1.0
 70
     8
 71
     3
 72
    12
 73
     8
 74
     0
 42
0.00000001
 43
0.00000001
 12
1.0
 22
0.0
 32
0.0
 13
1.0
 23
0.0
 33
0.0
 40
0.0
 40
0.0
 40
0.0
 40
0.0
 40
0.5
 40
0.5
 40
0.75
 40
0.75
 40
1.0
 40
1.0
 40
1.0
 40
1.0
 10
203.6033413177693
 20
90.7512613239243
 30
0.0
 10
203.572641934402
 20
90.7121234815284
 30
0.0
 10
203.5312918662954
 20
90.6749636988029
 30
0.0
 10
203.431535938076
 20
90.62502719317516
 30
0.0
 10
203.3918390203433
 20
90.6095743230314
 30
0.0
 10
203.2945808686957
 20
90.58565477943236
 30
0.0
 10
203.233804710705
 20
90.57717168565397
 30
0.0
 10
203.1703286158771
 20
90.57717168565397
 30
0.0
  0
LINE
  5
102
330
1F
100
AcDbEntity
  8
0
  6
HIDDEN
 62
     7
370
     0
100
AcDbLine
 10
203.1703286159
 20
90.5771716857
 30
0.0
 11
200.225842243
 21
90.5771716857
 31
0.0
  0
SPLINE
  5
103
330
1F
100
AcDbEntity
  8
0
  6
HIDDEN
 62
     7
370
     0
100
AcDbSpline
210
0.0
220
0.0
230
1.0
 70
     8
 71
     3
 72
    12
 73
     8
 74
     0
 42
0.00000001
 43
0.00000001
 12
1.0
 22
0.0
 32
0.0
 13
1.0
 23
0.0
 33
0.0
 40
0.0
 40
0.0
 40
0.0
 40
0.0
 40
0.2499999999999991
 40
0.2499999999999991
 40
0.4999999999999982
 40
0.4999999999999982
 40
1.0
 40
1.0
 40
1.0
 40
1.0
 10
200.2258422430099
 20
90.57717168565397
 30
0.0
 10
200.1621770064794
 20
90.57717168565395
 30
0.0
 10
200.1025707742561
 20
90.58543646131982
 30
0.0
 10
200.0039102493252
 20
90.60965524290297
 30
0.0
 10
199.96494325931
 20
90.62491256221212
 30
0.0
 10
199.8655564273855
 20
90.67454591647405
 30
0.0
 10
199.823480179962
 20
90.71218562464817
 30
0.0
 10
199.7928295411177
 20
90.7512613239243
 30
0.0
  0
ELLIPSE
  5
104
330
1F
100
AcDbEntity
  8
0
  6
HIDDEN
 62
     7
370
     0
100
AcDbEllipse
 10
212.7543430844
 20
114.4039028012
 30
0.0
 11
11.70927234972703
 21
24.67718644093743
 31
0.0
210
0.0
220
0.0
230
1.0
 40
0.3419987131
 41
2.061476155780648
 42
2.972663379000664
  0
SPLINE
  5
105
330
1F
100
AcDbEntity
  8
0
  6
HIDDEN
 62
     7
370
     0
100
AcDbSpline
210
0.0
220
0.0
230
1.0
 70
     8
 71
     3
 72
    12
 73
     8
 74
     0
 42
0.00000001
 43
0.00000001
 12
1.0
 22
0.0
 32
0.0
 13
1.0
 23
0.0
 33
0.0
 40
0.0
 40
0.0
 40
0.0
 40
0.0
 40
0.5000000000000013
 40
0.5000000000000013
 40
0.7500000000000007
 40
0.7500000000000007
 40
1.0
 40
1.0
 40
1.0
 40
1.0
 10
199.7928295411177
 20
138.0565442783876
 30
0.0
 10
199.823528924485
 20
138.0956821207835
 30
0.0
 10
199.8648789925915
 20
138.132841903509
 30
0.0
 10
199.964634920811
 20
138.1827784091367
 30
0.0
 10
200.0043318385437
 20
138.1982312792805
 30
0.0
 10
200.1015899901913
 20
138.2221508228796
 30
0.0
 10
200.162366148182
 20
138.2306339166579
 30
0.0
 10
200.2258422430099
 20
138.2306339166579
 30
0.0
  0
LINE
  5
106
330
1F
100
AcDbEntity
  8
0
  6
HIDDEN
 62
     7
370
     0
100
AcDbLine
 10
200.225842243
 20
138.2306339167
 30
0.0
 11
203.1703286159
 21
138.2306339167
 31
0.0
  0
SPLINE
  5
107
330
1F
100
AcDbEntity
  8
0
  6
HIDDEN
 62
     7
370
     0
100
AcDbSpline
210
0.0
220
0.0
230
1.0
 70
     8
 71
     3
 72
    12
 73
     8
 74
     0
 42
0.00000001
 43
0.00000001
 12
1.0
 22
0.0
 32
0.0
 13
1.0
 23
0.0
 33
0.0
 40
0.0
 40
0.0
 40
0.0
 40
0.0
 40
0.2499999999999996
 40
0.2499999999999996
 40
0.4999999999999991
 40
0.4999999999999991
 40
1.0
 40
1.0
 40
1.0
 40
1.0
 10
203.1703286158771
 20
138.2306339166579
 30
0.0
 10
203.2339938524076
 20
138.2306339166579
 30
0.0
 10
203.2936000846309
 20
138.2223691409921
 30
0.0
 10
203.3922606095618
 20
138.1981503594089
 30
0.0
 10
203.431227599577
 20
138.1828930400998
 30
0.0
 10
203.5306144315015
 20
138.1332596858378
 30
0.0
 10
203.5726906789249
 20
138.0956199776637
 30
0.0
 10
203.6033413177693
 20
138.0565442783876
 30
0.0
  0
ELLIPSE
  5
108
330
1F
100
AcDbEntity
  8
0
  6
HIDDEN
 62
     7
370
     0
100
AcDbEllipse
 10
190.6418277745
 20
114.4039028012
 30
0.0
 11
11.70927234972723
 21
24.67718644093744
 31
0.0
210
0.0
220
0.0
230
1.0
 40
0.3419987131
 41
5.203068809370469
 42
6.114256032590513
  0
SPLINE
  5
109
330
1F
100
AcDbEntity
  8
0
  6
HIDDEN
 62
     7
370
     0
100
AcDbSpline
210
0.0
220
0.0
230
1.0
 70
     8
 71
     3
 72
    12
 73
     8
 74
     0
 42
0.00000001
 43
0.00000001
 12
1.0
 22
0.0
 32
0.0
 13
1.0
 23
0.0
 33
0.0
 40
0.0
 40
0.0
 40
0.0
 40
0.0
 40
0.5000000000000004
 40
0.5000000000000004
 40
0.7500000000000002
 40
0.7500000000000002
 40
1.0
 40
1.0
 40
1.0
 40
1.0
 10
203.6033413177693
 20
122.5003557992005
 30
0.0
 10
203.572641934402
 20
122.3860201321366
 30
0.0
 10
203.5312918662954
 20
122.2746667792952
 30
0.0
 10
203.431535938076
 20
122.1219300070465
 30
0.0
 10
203.3918390203433
 20
122.0740701211944
 30
0.0
 10
203.2945808686957
 20
121.9994670078449
 30
0.0
 10
203.233804710705
 20
121.9727127703368
 30
0.0
 10
203.1703286158771
 20
121.9727127703368
 30
0.0
  0
LINE
  5
10A
330
1F
100
AcDbEntity
  8
0
  6
HIDDEN
 62
     7
370
     0
100
AcDbLine
 10
203.1703286159
 20
121.9727127703
 30
0.0
 11
200.225842243
 21
121.9727127703
 31
0.0
  0
SPLINE
  5
10B
330
1F
100
AcDbEntity
  8
0
  6
HIDDEN
 62
     7
370
     0
100
AcDbSpline
210
0.0
220
0.0
230
1.0
 70
     8
 71
     3
 72
    12
 73
     8
 74
     0
 42
0.00000001
 43
0.00000001
 12
1.0
 22
0.0
 32
0.0
 13
1.0
 23
0.0
 33
0.0
 40
0.0
 40
0.0
 40
0.0
 40
0.0
 40
0.2499999999999993
 40
0.2499999999999993
 40
0.4999999999999987
 40
0.4999999999999987
 40
1.0
 40
1.0
 40
1.0
 40
1.0
 10
200.2258422430099
 20
121.9727127703368
 30
0.0
 10
200.1621770064794
 20
121.9727127703368
 30
0.0
 10
200.1025707742561
 20
121.9987849188165
 30
0.0
 10
200.0039102493252
 20
122.0743236696376
 30
0.0
 10
199.96494325931
 20
122.1215746067338
 30
0.0
 10
199.8655564273855
 20
122.2733984247003
 30
0.0
 10
199.823480179962
 20
122.3862016744653
 30
0.0
 10
199.7928295411177
 20
122.5003557992004
 30
0.0
  0
ELLIPSE
  5
10C
330
1F
100
AcDbEntity
  8
0
  6
HIDDEN
 62
     7
370
     0
100
AcDbEllipse
 10
212.7543430844
 20
114.4039028012
 30
0.0
 11
-11.70927234972714
 21
24.67718644093743
 31
0.0
210
0.0
220
0.0
230
1.0
 40
0.3419987131
 41
0.1689292745891151
 42
1.080116497809132
  0
SPLINE
  5
10D
330
1F
100
AcDbEntity
  8
0
  6
HIDDEN
 62
     7
370
     0
100
AcDbSpline
210
0.0
220
0.0
230
1.0
 70
     8
 71
     3
 72
    22
 73
    18
 74
     0
 42
0.00000001
 43
0.00000001
 12
1.0
 22
0.0
 32
0.0
 13
1.0
 23
0.0
 33
0.0
 40
0.0
 40
0.0
 40
0.0
 40
0.0
 40
0.125
 40
0.125
 40
0.25
 40
0.25
 40
0.375
 40
0.375
 40
0.5
 40
0.5
 40
0.625
 40
0.625
 40
0.75
 40
0.75
 40
0.875
 40
0.875
 40
1.0
 40
1.0
 40
1.0
 40
1.0
 10
212.6872185336479
 20
123.9934486106054
 30
0.0
 10
212.6991963691595
 20
124.1881946012654
 30
0.0
 10
212.7020773249495
 20
124.3840475372486
 30
0.0
 10
212.6816529915719
 20
124.7776398730408
 30
0.0
 10
212.6578249487721
 20
124.9779004498845
 30
0.0
 10
212.5759263001859
 20
125.3633939279484
 30
0.0
 10
212.5172907125871
 20
125.55167812681
 30
0.0
 10
212.3604126975431
 20
125.9003137762963
 30
0.0
 10
212.2645859637084
 20
126.0565595965351
 30
0.0
 10
212.0345172851764
 20
126.3296988344945
 30
0.0
 10
211.9043247998796
 20
126.440885351622
 30
0.0
 10
211.6245677642492
 20
126.6099387481227
 30
0.0
 10
211.4763141606665
 20
126.6670601318998
 30
0.0
 10
211.1772682334927
 20
126.7323068088827
 30
0.0
 10
211.026078010056
 20
126.7405723031478
 30
0.0
 10
210.7341803182356
 20
126.7185345084646
 30
0.0
 10
210.5915896067412
 20
126.6885300737221
 30
0.0
 10
210.4539855263307
 20
126.6422402956532
 30
0.0
  0
LWPOLYLINE
  5
10E
330
1F
100
AcDbEntity
  8
0
  6
HIDDEN
 62
     7
370
     0
100
AcDbPolyline
 90
       25
 70
   128
 43
0.0
 10
212.6872185336
 20
123.9934486106
 10
212.5740528756
 20
123.4914286548
 10
212.3422961711
 20
123.018932133
 10
212.0015049505
 20
122.5954425263
 10
211.5657318024
 20
122.2384225063
 10
211.0529459126
 20
121.9625938593
 10
210.4842921018
 20
121.7793304302
 10
209.8832189142
 20
121.6961891202
 10
209.2745117134
 20
121.7165982766
 10
208.6832706526
 20
121.839716324
 10
208.1338756657
 20
122.0604664671
 10
207.6489811561
 20
122.3697460332
 10
207.2485818379
 20
122.7548018225
 10
206.9491882508
 20
123.1997559886
 10
206.7631459443
 20
123.6862607648
 10
206.698126407
 20
124.1942550372
 10
206.7568107317
 20
124.7027915685
 10
206.9367790594
 20
125.1909007613
 10
207.230610363
 20
125.6384553434
 10
207.6261884546
 20
126.0270003192
 10
208.107201599
 20
126.3405139653
 10
208.6538151306
 20
126.5660684887
 10
209.24348934
 20
126.6943631073
 10
209.8519089028
 20
126.7201075688
 10
210.4539855263
 20
126.6422402957
  0
LINE
  5
10F
330
1F
100
AcDbEntity
  8
0
  6
HIDDEN
 62
     7
370
     0
100
AcDbLine
 10
191.6980854294
 20
94.8539028012
 30
0.0
 11
191.6980854294
 21
133.9539028012
 31
0.0
  0
SPLINE
  5
110
330
1F
100
AcDbEntity
  8
0
  6
HIDDEN
 62
     7
370
     0
100
AcDbSpline
210
0.0
220
0.0
230
1.0
 70
     8
 71
     3
 72
    14
 73
    10
 74
     0
 42
0.00000001
 43
0.00000001
 12
1.0
 22
0.0
 32
0.0
 13
1.0
 23
0.0
 33
0.0
 40
0.0
 40
0.0
 40
0.0
 40
0.0
 40
0.25
 40
0.25
 40
0.5
 40
0.5
 40
0.75
 40
0.75
 40
1.0
 40
1.0
 40
1.0
 40
1.0
 10
190.6572244013151
 20
126.6983783462293
 30
0.0
 10
190.6889395356458
 20
126.6405951638862
 30
0.0
 10
190.7235540609462
 20
126.5841825028112
 30
0.0
 10
190.8032252563615
 20
126.4765830527958
 30
0.0
 10
190.8482811333919
 20
126.4246704258747
 30
0.0
 10
190.9588355458973
 20
126.3384718011774
 30
0.0
 10
191.0262209601015
 20
126.3043823812058
 30
0.0
 10
191.1768504799996
 20
126.3022799891889
 30
0.0
 10
191.246677716765
 20
126.3356517620336
 30
0.0
 10
191.3031085405684
 20
126.3794644305843
 30
0.0
  0
SPLINE
  5
111
330
1F
100
AcDbEntity
  8
0
  6
HIDDEN
 62
     7
370
     0
100
AcDbSpline
210
0.0
220
0.0
230
1.0
 70
     8
 71
     3
 72
    16
 73
    12
 74
     0
 42
0.00000001
 43
0.00000001
 12
1.0
 22
0.0
 32
0.0
 13
1.0
 23
0.0
 33
0.0
 40
0.0
 40
0.0
 40
0.0
 40
0.0
 40
0.0625000000000018
 40
0.0625000000000018
 40
0.1250000000000036
 40
0.1250000000000036
 40
0.2500000000000052
 40
0.2500000000000052
 40
0.5000000000000036
 40
0.5000000000000036
 40
1.0
 40
1.0
 40
1.0
 40
1.0
 10
191.3031085405366
 20
126.379464430615
 30
0.0
 10
191.3148427749835
 20
126.3885748438629
 30
0.0
 10
191.3283745304624
 20
126.3966521998093
 30
0.0
 10
191.3583619908923
 20
126.4048990414863
 30
0.0
 10
191.3733566973006
 20
126.4039717238987
 30
0.0
 10
191.4090971196953
 20
126.3912052043669
 30
0.0
 10
191.4231104566966
 20
126.3735565578565
 30
0.0
 10
191.4572545454779
 20
126.318903637825
 30
0.0
 10
191.4682264495963
 20
126.2775039701665
 30
0.0
 10
191.4940719898626
 20
126.1490142264437
 30
0.0
 10
191.4980854294435
 20
126.058396138805
 30
0.0
 10
191.4980854294435
 20
125.9661770342509
 30
0.0
  0
LINE
  5
112
330
1F
100
AcDbEntity
  8
0
  6
HIDDEN
 62
     7
370
     0
100
AcDbLine
 10
191.4980854294
 20
102.8416285681
 30
0.0
 11
191.4980854294
 21
125.9661770343
 31
0.0
  0
SPLINE
  5
113
330
1F
100
AcDbEntity
  8
0
  6
HIDDEN
 62
     7
370
     0
100
AcDbSpline
210
0.0
220
0.0
230
1.0
 70
     8
 71
     3
 72
    16
 73
    12
 74
     0
 42
0.00000001
 43
0.00000001
 12
1.0
 22
0.0
 32
0.0
 13
1.0
 23
0.0
 33
0.0
 40
0.0
 40
0.0
 40
0.0
 40
0.0
 40
0.4999999999999974
 40
0.4999999999999974
 40
0.7499999999999986
 40
0.7499999999999986
 40
0.8749999999999993
 40
0.8749999999999993
 40
0.9374999999999997
 40
0.9374999999999997
 40
1.0
 40
1.0
 40
1.0
 40
1.0
 10
191.4980854294435
 20
102.8416285680608
 30
0.0
 10
191.4980854294435
 20
102.7490447171569
 30
0.0
 10
191.4940281273284
 20
102.6588322612967
 30
0.0
 10
191.4683708845336
 20
102.5308911341783
 30
0.0
 10
191.4570554387915
 20
102.4884779197664
 30
0.0
 10
191.4230240714829
 20
102.4341638763153
 30
0.0
 10
191.4091450902791
 20
102.4165825409254
 30
0.0
 10
191.3732094085117
 20
102.4037988529904
 30
0.0
 10
191.358259089249
 20
102.4029233548423
 30
0.0
 10
191.3283605765071
 20
102.4111687899617
 30
0.0
 10
191.3148277161418
 20
102.4192424501334
 30
0.0
 10
191.3031085405678
 20
102.4283411717275
 30
0.0
  0
SPLINE
  5
114
330
1F
100
AcDbEntity
  8
0
  6
HIDDEN
 62
     7
370
     0
100
AcDbSpline
210
0.0
220
0.0
230
1.0
 70
     8
 71
     3
 72
    14
 73
    10
 74
     0
 42
0.00000001
 43
0.00000001
 12
1.0
 22
0.0
 32
0.0
 13
1.0
 23
0.0
 33
0.0
 40
0.0
 40
0.0
 40
0.0
 40
0.0
 40
0.25
 40
0.25
 40
0.5
 40
0.5
 40
0.75
 40
0.75
 40
1.0
 40
1.0
 40
1.0
 40
1.0
 10
191.3031085405747
 20
102.4283411717361
 30
0.0
 10
191.2466527759659
 20
102.4721732042308
 30
0.0
 10
191.175787149716
 20
102.5055042406527
 30
0.0
 10
191.0273300685434
 20
102.5034452305052
 30
0.0
 10
190.9581367092359
 20
102.4688492061036
 30
0.0
 10
190.8484212711017
 20
102.3831838494407
 30
0.0
 10
190.8031766917703
 20
102.3311614047327
 30
0.0
 10
190.7235499823465
 20
102.2236131444027
 30
0.0
 10
190.6889398338131
 20
102.1672109816697
 30
0.0
 10
190.6572244013138
 20
102.1094272560802
 30
0.0
  0
SPLINE
  5
115
330
1F
100
AcDbEntity
  8
0
  6
HIDDEN
 62
     7
370
     0
100
AcDbSpline
210
0.0
220
0.0
230
1.0
 70
     8
 71
     3
 72
    10
 73
     6
 74
     0
 42
0.00000001
 43
0.00000001
 12
1.0
 22
0.0
 32
0.0
 13
1.0
 23
0.0
 33
0.0
 40
0.0
 40
0.0
 40
0.0
 40
0.0
 40
0.5
 40
0.5
 40
1.0
 40
1.0
 40
1.0
 40
1.0
 10
190.6572244013144
 20
102.1094272560812
 30
0.0
 10
190.5854446133909
 20
101.9786485391793
 30
0.0
 10
190.5329850990829
 20
101.8445483896761
 30
0.0
 10
190.4436420349817
 20
101.5764558266874
 30
0.0
 10
190.407646425482
 20
101.4422104550985
 30
0.0
 10
190.3767650858838
 20
101.3088560776235
 30
0.0
  0
SPLINE
  5
116
330
1F
100
AcDbEntity
  8
0
  6
HIDDEN
 62
     7
370
     0
100
AcDbSpline
210
0.0
220
0.0
230
1.0
 70
     8
 71
     3
 72
    10
 73
     6
 74
     0
 42
0.00000001
 43
0.00000001
 12
1.0
 22
0.0
 32
0.0
 13
1.0
 23
0.0
 33
0.0
 40
0.0
 40
0.0
 40
0.0
 40
0.0
 40
0.5
 40
0.5
 40
1.0
 40
1.0
 40
1.0
 40
1.0
 10
190.3767650858838
 20
97.10699293315108
 30
0.0
 10
190.4076381176961
 20
97.09070978578393
 30
0.0
 10
190.443624980609
 20
97.07845219605836
 30
0.0
 10
190.5329595665002
 20
97.06134920722963
 30
0.0
 10
190.5854154259228
 20
97.05654961137128
 30
0.0
 10
190.6572244013151
 20
97.05474551996335
 30
0.0
  0
SPLINE
  5
117
330
1F
100
AcDbEntity
  8
0
  6
HIDDEN
 62
     7
370
     0
100
AcDbSpline
210
0.0
220
0.0
230
1.0
 70
     8
 71
     3
 72
     8
 73
     4
 74
     0
 42
0.00000001
 43
0.00000001
 12
1.0
 22
0.0
 32
0.0
 13
1.0
 23
0.0
 33
0.0
 40
0.0
 40
0.0
 40
0.0
 40
0.0
 40
1.0
 40
1.0
 40
1.0
 40
1.0
 10
191.4803888060685
 20
96.92886114171628
 30
0.0
 10
191.4943756146106
 20
96.90062075113458
 30
0.0
 10
191.4980854294433
 20
96.87748870832381
 30
0.0
 10
191.4980854294436
 20
96.85714833548866
 30
0.0
  0
LINE
  5
118
330
1F
100
AcDbEntity
  8
0
  6
HIDDEN
 62
     7
370
     0
100
AcDbLine
 10
191.4980854294
 20
96.5640825223
 30
0.0
 11
191.4980854294
 21
96.8571483355
 31
0.0
  0
LINE
  5
119
330
1F
100
AcDbEntity
  8
0
  6
HIDDEN
 62
     7
370
     0
100
AcDbLine
 10
191.4980854294
 20
131.9506572668
 30
0.0
 11
191.4980854294
 21
132.24372308
 31
0.0
  0
SPLINE
  5
11A
330
1F
100
AcDbEntity
  8
0
  6
HIDDEN
 62
     7
370
     0
100
AcDbSpline
210
0.0
220
0.0
230
1.0
 70
     8
 71
     3
 72
    10
 73
     6
 74
     0
 42
0.00000001
 43
0.00000001
 12
1.0
 22
0.0
 32
0.0
 13
1.0
 23
0.0
 33
0.0
 40
0.0
 40
0.0
 40
0.0
 40
0.0
 40
0.5
 40
0.5
 40
1.0
 40
1.0
 40
1.0
 40
1.0
 10
190.6572244013159
 20
131.7530600823485
 30
0.0
 10
190.5854154259233
 20
131.7512559909406
 30
0.0
 10
190.5329595665006
 20
131.7464563950822
 30
0.0
 10
190.4436249806092
 20
131.7293534062535
 30
0.0
 10
190.4076381176962
 20
131.7170958165279
 30
0.0
 10
190.3767650858838
 20
131.7008126691607
 30
0.0
  0
SPLINE
  5
11B
330
1F
100
AcDbEntity
  8
0
  6
HIDDEN
 62
     7
370
     0
100
AcDbSpline
210
0.0
220
0.0
230
1.0
 70
     8
 71
     3
 72
    10
 73
     6
 74
     0
 42
0.00000001
 43
0.00000001
 12
1.0
 22
0.0
 32
0.0
 13
1.0
 23
0.0
 33
0.0
 40
0.0
 40
0.0
 40
0.0
 40
0.0
 40
0.5
 40
0.5
 40
1.0
 40
1.0
 40
1.0
 40
1.0
 10
190.3767650858838
 20
127.4989495246883
 30
0.0
 10
190.407646425482
 20
127.3655951472131
 30
0.0
 10
190.4436420349818
 20
127.231349775624
 30
0.0
 10
190.5329850990832
 20
126.9632572126348
 30
0.0
 10
190.5854446133914
 20
126.8291570631314
 30
0.0
 10
190.6572244013151
 20
126.6983783462293
 30
0.0
  0
LINE
  5
11C
330
1F
100
AcDbEntity
  8
0
  6
HIDDEN
 62
     7
370
     0
100
AcDbLine
 10
191.4980854294
 20
96.8571483355
 30
0.0
 11
191.4980854294
 21
108.4194225686
 31
0.0
  0
LINE
  5
11D
330
1F
100
AcDbEntity
  8
0
  6
HIDDEN
 62
     7
370
     0
100
AcDbLine
 10
191.4980854294
 20
120.3883830337
 30
0.0
 11
191.4980854294
 21
131.9506572668
 31
0.0
  0
SPLINE
  5
11E
330
1F
100
AcDbEntity
  8
0
  6
HIDDEN
 62
     7
370
     0
100
AcDbSpline
210
0.0
220
0.0
230
1.0
 70
     8
 71
     3
 72
     8
 73
     4
 74
     0
 42
0.00000001
 43
0.00000001
 12
1.0
 22
0.0
 32
0.0
 13
1.0
 23
0.0
 33
0.0
 40
0.0
 40
0.0
 40
0.0
 40
0.0
 40
1.0
 40
1.0
 40
1.0
 40
1.0
 10
210.4539855263307
 20
126.6422402956532
 30
0.0
 10
210.1605274363346
 20
126.4815408696817
 30
0.0
 10
209.8734546767067
 20
126.3118628798615
 30
0.0
 10
209.5900267117639
 20
126.1384962831292
 30
0.0
  0
LWPOLYLINE
  5
11F
330
1F
100
AcDbEntity
  8
0
  6
HIDDEN
 62
     7
370
     0
100
AcDbPolyline
 90
       20
 70
   128
 43
0.0
 10
212.0290116101
 20
123.2858219799
 10
211.7668323948
 20
122.8665636798
 10
211.3991814564
 20
122.5073238199
 10
210.9448028842
 20
122.2264176643
 10
210.426862436
 20
122.0381667597
 10
209.8717664691
 20
121.9521687745
 10
209.3078156548
 20
121.9728081769
 10
208.7637621147
 20
122.0990327006
 10
208.2673435399
 20
122.3244069918
 10
207.8438690298
 20
122.6374407065
 10
207.5149287484
 20
123.0221743261
 10
207.2972931847
 20
123.4589928284
 10
207.2020581364
 20
123.9256257275
 10
207.2340790087
 20
124.3982824986
 10
207.3917232692
 20
124.8528654996
 10
207.6669536797
 20
125.2661985502
 10
208.0457380623
 20
125.6172085325
 10
208.508764707
 20
125.8879997693
 10
209.0324269481
 20
126.0647664066
 10
209.5900267118
 20
126.1384962831
  0
SPLINE
  5
120
330
1F
100
AcDbEntity
  8
0
  6
HIDDEN
 62
     7
370
     0
100
AcDbSpline
210
0.0
220
0.0
230
1.0
 70
     8
 71
     3
 72
     8
 73
     4
 74
     0
 42
0.00000001
 43
0.00000001
 12
1.0
 22
0.0
 32
0.0
 13
1.0
 23
0.0
 33
0.0
 40
0.0
 40
0.0
 40
0.0
 40
0.0
 40
1.0
 40
1.0
 40
1.0
 40
1.0
 10
212.0290116101214
 20
123.2858219798676
 30
0.0
 10
212.2627243528618
 20
123.5065073113143
 30
0.0
 10
212.4821604645153
 20
123.7437627430269
 30
0.0
 10
212.6872185336479
 20
123.9934486106054
 30
0.0
  0
SPLINE
  5
121
330
1F
100
AcDbEntity
  8
0
  6
HIDDEN
 62
     7
370
     0
100
AcDbSpline
210
0.0
220
0.0
230
1.0
 70
     8
 71
     3
 72
    48
 73
    44
 74
     0
 42
0.00000001
 43
0.00000001
 12
1.0
 22
0.0
 32
0.0
 13
1.0
 23
0.0
 33
0.0
 40
0.0
 40
0.0
 40
0.0
 40
0.0
 40
0.0156250000000002
 40
0.0156250000000002
 40
0.0312500000000004
 40
0.0312500000000004
 40
0.0625000000000009
 40
0.0625000000000009
 40
0.1250000000000006
 40
0.1250000000000006
 40
0.1875000000000004
 40
0.1875000000000004
 40
0.2500000000000002
 40
0.2500000000000002
 40
0.3124999999999999
 40
0.3124999999999999
 40
0.3749999999999997
 40
0.3749999999999997
 40
0.4374999999999994
 40
0.4374999999999994
 40
0.4999999999999992
 40
0.4999999999999992
 40
0.5624999999999993
 40
0.5624999999999993
 40
0.6249999999999993
 40
0.6249999999999993
 40
0.6874999999999994
 40
0.6874999999999994
 40
0.7499999999999996
 40
0.7499999999999996
 40
0.7812499999999996
 40
0.7812499999999996
 40
0.8124999999999996
 40
0.8124999999999996
 40
0.8281249999999997
 40
0.8281249999999997
 40
0.8437499999999998
 40
0.8437499999999998
 40
0.8749999999999999
 40
0.8749999999999999
 40
0.9375
 40
0.9375
 40
1.0
 40
1.0
 40
1.0
 40
1.0
 10
208.2618428969403
 20
124.7493683101874
 30
0.0
 10
208.3084847839345
 20
124.78112311938
 30
0.0
 10
208.3560863829421
 20
124.803515711627
 30
0.0
 10
208.4494648684245
 20
124.8332202597871
 30
0.0
 10
208.4939769439353
 20
124.8408411427239
 30
0.0
 10
208.6259516656742
 20
124.8537803172001
 30
0.0
 10
208.7099189368541
 20
124.8493592218964
 30
0.0
 10
208.9626091503032
 20
124.8222547569716
 30
0.0
 10
209.1333918129021
 20
124.7834250110208
 30
0.0
 10
209.485484370187
 20
124.6798498859358
 30
0.0
 10
209.6643006372094
 20
124.6148197200074
 30
0.0
 10
210.0304988220146
 20
124.4579094997635
 30
0.0
 10
210.2203306024332
 20
124.3645301207858
 30
0.0
 10
210.5974131083345
 20
124.1515667842482
 30
0.0
 10
210.7853954394511
 20
124.0318136720423
 30
0.0
 10
211.1513776981164
 20
123.7648704126739
 30
0.0
 10
211.3244283530496
 20
123.621238691042
 30
0.0
 10
211.6391541263556
 20
123.3169117693173
 30
0.0
 10
211.7738973848403
 20
123.1629763678768
 30
0.0
 10
211.9936318023213
 20
122.8557089313026
 30
0.0
 10
212.0732650701184
 20
122.7096037463546
 30
0.0
 10
212.1764945135922
 20
122.4383510928699
 30
0.0
 10
212.1991121522818
 20
122.3159232096326
 30
0.0
 10
212.1969874733967
 20
122.0990072063084
 30
0.0
 10
212.1726703075529
 20
122.006369904627
 30
0.0
 10
212.0874108801278
 20
121.847128964648
 30
0.0
 10
212.0259084301403
 20
121.7809900215174
 30
0.0
 10
211.8774652121371
 20
121.6782523739499
 30
0.0
 10
211.7896274351633
 20
121.6402156185315
 30
0.0
 10
211.6450240647186
 20
121.6089546352709
 30
0.0
 10
211.5943666800578
 20
121.6027496771361
 30
0.0
 10
211.4959880938379
 20
121.6063603593488
 30
0.0
 10
211.4454764642739
 20
121.6140737093154
 30
0.0
 10
211.4022113502423
 20
121.6668117547119
 30
0.0
 10
211.3953098240899
 20
121.6926446709356
 30
0.0
 10
211.4022728447331
 20
121.7592683665649
 30
0.0
 10
211.4153237856309
 20
121.7993821702848
 30
0.0
 10
211.4650152236842
 20
121.9231019497859
 30
0.0
 10
211.5109991228371
 20
122.0127896639105
 30
0.0
 10
211.6459018889227
 20
122.2849849580399
 30
0.0
 10
211.7364150840625
 20
122.4742383108984
 30
0.0
 10
211.8975789765305
 20
122.8682054723078
 30
0.0
 10
211.9697761335606
 20
123.0738674100311
 30
0.0
 10
212.0290116101212
 20
123.2858219798675
 30
0.0
  0
SPLINE
  5
122
330
1F
100
AcDbEntity
  8
0
  6
HIDDEN
 62
     7
370
     0
100
AcDbSpline
210
0.0
220
0.0
230
1.0
 70
     8
 71
     3
 72
    14
 73
    10
 74
     0
 42
0.00000001
 43
0.00000001
 12
1.0
 22
0.0
 32
0.0
 13
1.0
 23
0.0
 33
0.0
 40
0.0
 40
0.0
 40
0.0
 40
0.0
 40
0.5000000000000026
 40
0.5000000000000026
 40
0.7500000000000017
 40
0.7500000000000017
 40
0.8750000000000009
 40
0.8750000000000009
 40
1.0
 40
1.0
 40
1.0
 40
1.0
 10
209.5900267117639
 20
126.1384962831292
 30
0.0
 10
209.3517340469564
 20
126.0140258505714
 30
0.0
 10
209.1273897597096
 20
125.8589497731939
 30
0.0
 10
208.7985323144655
 20
125.589567771116
 30
0.0
 10
208.6902929168961
 20
125.4928982033808
 30
0.0
 10
208.5216339061969
 20
125.3417023351349
 30
0.0
 10
208.4640787641634
 20
125.2899472413681
 30
0.0
 10
208.3413647070576
 20
125.1902473377987
 30
0.0
 10
208.2737640819531
 20
125.1424402313341
 30
0.0
 10
208.2094322878588
 20
125.1082638558385
 30
0.0
  0
SPLINE
  5
123
330
1F
100
AcDbEntity
  8
0
  6
HIDDEN
 62
     7
370
     0
100
AcDbSpline
210
0.0
220
0.0
230
1.0
 70
     8
 71
     3
 72
     8
 73
     4
 74
     0
 42
0.00000001
 43
0.00000001
 12
1.0
 22
0.0
 32
0.0
 13
1.0
 23
0.0
 33
0.0
 40
0.0
 40
0.0
 40
0.0
 40
0.0
 40
1.0
 40
1.0
 40
1.0
 40
1.0
 10
208.20943228787
 20
125.108263855871
 30
0.0
 10
208.2099208715342
 20
124.9775468607836
 30
0.0
 10
208.2272935948492
 20
124.8584222324549
 30
0.0
 10
208.2618428969259
 20
124.7493683102476
 30
0.0
  0
SPLINE
  5
124
330
1F
100
AcDbEntity
  8
0
  6
HIDDEN
 62
     7
370
     0
100
AcDbSpline
210
0.0
220
0.0
230
1.0
 70
     8
 71
     3
 72
    66
 73
    62
 74
     0
 42
0.00000001
 43
0.00000001
 12
1.0
 22
0.0
 32
0.0
 13
1.0
 23
0.0
 33
0.0
 40
-0.03125
 40
-0.03125
 40
0.0
 40
0.0
 40
0.03125
 40
0.03125
 40
0.0625
 40
0.0625
 40
0.0937500000000001
 40
0.0937500000000001
 40
0.1250000000000001
 40
0.1250000000000001
 40
0.1875
 40
0.1875
 40
0.21875
 40
0.21875
 40
0.2499999999999999
 40
0.2499999999999999
 40
0.2812499999999999
 40
0.2812499999999999
 40
0.3124999999999999
 40
0.3124999999999999
 40
0.3437499999999998
 40
0.3437499999999998
 40
0.3749999999999998
 40
0.3749999999999998
 40
0.4062499999999998
 40
0.4062499999999998
 40
0.4374999999999997
 40
0.4374999999999997
 40
0.4687499999999997
 40
0.4687499999999997
 40
0.4999999999999997
 40
0.4999999999999997
 40
0.5312499999999997
 40
0.5312499999999997
 40
0.5624999999999997
 40
0.5624999999999997
 40
0.5937499999999998
 40
0.5937499999999998
 40
0.6249999999999998
 40
0.6249999999999998
 40
0.6874999999999998
 40
0.6874999999999998
 40
0.7187499999999998
 40
0.7187499999999998
 40
0.7499999999999998
 40
0.7499999999999998
 40
0.7812499999999999
 40
0.7812499999999999
 40
0.8124999999999999
 40
0.8124999999999999
 40
0.8437499999999999
 40
0.8437499999999999
 40
0.8749999999999999
 40
0.8749999999999999
 40
0.9062499999999999
 40
0.9062499999999999
 40
0.9375
 40
0.9375
 40
0.96875
 40
0.96875
 40
1.0
 40
1.0
 40
1.03125
 40
1.03125
 10
209.8646383372002
 20
120.2070269285659
 30
0.0
 10
209.5315325216867
 20
120.2070269285659
 30
0.0
 10
209.3680415680969
 20
120.1965405204587
 30
0.0
 10
209.0468394227279
 20
120.1552034072594
 30
0.0
 10
208.8874270651716
 20
120.1237932831877
 30
0.0
 10
208.5853883380312
 20
120.0412466037443
 30
0.0
 10
208.4423403006695
 20
119.9903567142801
 30
0.0
 10
208.1716070787187
 20
119.8678277022645
 30
0.0
 10
208.0445375637521
 20
119.7960959354947
 30
0.0
 10
207.7015295527793
 20
119.5553589015092
 30
0.0
 10
207.5156972913754
 20
119.3542918732263
 30
0.0
 10
207.3278919282167
 20
119.0092336401666
 30
0.0
 10
207.2791518514383
 20
118.88485033053
 30
0.0
 10
207.2143877993236
 20
118.6256166615421
 30
0.0
 10
207.1981956887895
 20
118.4918951505219
 30
0.0
 10
207.1979762816227
 20
118.2159723402305
 30
0.0
 10
207.2145243756562
 20
118.0727264494218
 30
0.0
 10
207.2789535293597
 20
117.7909612584433
 30
0.0
 10
207.3266119985446
 20
117.6509395321266
 30
0.0
 10
207.4533079663434
 20
117.3734371239525
 30
0.0
 10
207.5308815521423
 20
117.2394313231657
 30
0.0
 10
207.7114881783225
 20
116.9846535475518
 30
0.0
 10
207.8160412274381
 20
116.8621881894742
 30
0.0
 10
208.0460498677823
 20
116.6379618437276
 30
0.0
 10
208.1709299261572
 20
116.5362470142901
 30
0.0
 10
208.440829497787
 20
116.3550207253982
 30
0.0
 10
208.58692586427
 20
116.2754002575114
 30
0.0
 10
208.8876384880786
 20
116.1475156727067
 30
0.0
 10
209.043586176436
 20
116.0981315134097
 30
0.0
 10
209.3673660401845
 20
116.0308239296985
 30
0.0
 10
209.5330643839345
 20
116.0137423862924
 30
0.0
 10
209.8611082639418
 20
116.0136062061416
 30
0.0
 10
210.0264338152786
 20
116.0304800130191
 30
0.0
 10
210.3507622712889
 20
116.0976056140017
 30
0.0
 10
210.5071150721506
 20
116.1469827481681
 30
0.0
 10
210.8088312503798
 20
116.2751549136501
 30
0.0
 10
210.9549217800944
 20
116.3547847333412
 30
0.0
 10
211.2246355574995
 20
116.535794964545
 30
0.0
 10
211.3498168911426
 20
116.6376384844024
 30
0.0
 10
211.6964274315702
 20
116.975616213311
 30
0.0
 10
211.8795702664585
 20
117.2349556419819
 30
0.0
 10
212.0692368265978
 20
117.6501601178588
 30
0.0
 10
212.1168745740263
 20
117.7898894570369
 30
0.0
 10
212.1813928089585
 20
118.0711938471974
 30
0.0
 10
212.1980899147003
 20
118.2144260591018
 30
0.0
 10
212.1980809423328
 20
118.4907597393489
 30
0.0
 10
212.1819501063863
 20
118.6246324504654
 30
0.0
 10
212.1172904297176
 20
118.8840773334838
 30
0.0
 10
212.0686200750784
 20
119.008523261707
 30
0.0
 10
211.9431907027596
 20
119.239143816099
 30
0.0
 10
211.8654470502695
 20
119.3474586622899
 30
0.0
 10
211.6831475632566
 20
119.5464260833608
 30
0.0
 10
211.5801844099624
 20
119.6357280566234
 30
0.0
 10
211.3509834376699
 20
119.79651327204
 30
0.0
 10
211.2233524595618
 20
119.8684285213669
 30
0.0
 10
210.9535067981252
 20
119.990450345127
 30
0.0
 10
210.8106520547382
 20
120.0412985859383
 30
0.0
 10
210.5082545274921
 20
120.1239106393129
 30
0.0
 10
210.3490392965473
 20
120.1552469856791
 30
0.0
 10
210.0281515652292
 20
120.1965316673074
 30
0.0
 10
209.8646383372002
 20
120.2070269285659
 30
0.0
 10
209.5315325216867
 20
120.2070269285659
 30
0.0
  0
ARC
  5
125
330
1F
100
AcDbEntity
  8
0
  6
HIDDEN
 62
     7
370
     0
100
AcDbCircle
 10
209.5638763773
 20
125.1227828362
 30
0.0
 40
1.354521905420802
100
AcDbArc
 50
180.6141592992
 51
196.002538602
  0
CIRCLE
  5
126
330
1F
100
AcDbEntity
  8
0
  6
HIDDEN
 62
     7
370
     0
100
AcDbCircle
 10
177.6980854294
 20
114.4039028012
 30
0.0
 40
3.050000000000011
  0
LINE
  5
127
330
1F
100
AcDbEntity
  8
0
  6
HIDDEN
 62
     7
370
     0
100
AcDbLine
 10
166.7261252851
 20
125.1925779358
 30
0.0
 11
166.7261252851
 21
103.6152276666
 31
0.0
  0
LINE
  5
128
330
1F
100
AcDbEntity
  8
0
  6
HIDDEN
 62
     7
370
     0
100
AcDbLine
 10
162.7261252851
 20
125.5737757822
 30
0.0
 11
162.7261252851
 21
103.2340298201
 31
0.0
  0
LINE
  5
129
330
1F
100
AcDbEntity
  8
0
  6
HIDDEN
 62
     7
370
     0
100
AcDbLine
 10
161.6980854294
 20
102.6404907327
 30
0.0
 11
161.6980854294
 21
126.1673148696
 31
0.0
  0
LINE
  5
12A
330
1F
100
AcDbEntity
  8
0
  6
HIDDEN
 62
     7
370
     0
100
AcDbLine
 10
171.3261252851
 20
124.9039028012
 30
0.0
 11
171.3261252851
 21
103.9039028012
 31
0.0
  0
LINE
  5
12B
330
1F
100
AcDbEntity
  8
0
  6
HIDDEN
 62
     7
370
     0
100
AcDbLine
 10
165.2261252851
 20
124.9039028012
 30
0.0
 11
165.2261252851
 21
103.9039028012
 31
0.0
  0
LINE
  5
12C
330
1F
100
AcDbEntity
  8
0
  6
HIDDEN
 62
     7
370
     0
100
AcDbLine
 10
166.2261252851
 20
124.9039028012
 30
0.0
 11
166.2261252851
 21
103.9039028012
 31
0.0
  0
SPLINE
  5
12D
330
1F
100
AcDbEntity
  8
0
  6
HIDDEN
 62
     7
370
     0
100
AcDbSpline
210
0.0
220
0.0
230
1.0
 70
     8
 71
     3
 72
    66
 73
    62
 74
     0
 42
0.00000001
 43
0.00000001
 12
1.0
 22
0.0
 32
0.0
 13
1.0
 23
0.0
 33
0.0
 40
-0.0312499999999997
 40
-0.0312499999999997
 40
0.0
 40
0.0
 40
0.0312500000000001
 40
0.0312500000000001
 40
0.0625000000000002
 40
0.0625000000000002
 40
0.0937500000000002
 40
0.0937500000000002
 40
0.1250000000000003
 40
0.1250000000000003
 40
0.1875000000000006
 40
0.1875000000000006
 40
0.2187500000000007
 40
0.2187500000000007
 40
0.2500000000000009
 40
0.2500000000000009
 40
0.2812500000000011
 40
0.2812500000000011
 40
0.3125000000000012
 40
0.3125000000000012
 40
0.3437500000000013
 40
0.3437500000000013
 40
0.3750000000000014
 40
0.3750000000000014
 40
0.4062500000000016
 40
0.4062500000000016
 40
0.4375000000000016
 40
0.4375000000000016
 40
0.4687500000000017
 40
0.4687500000000017
 40
0.5000000000000018
 40
0.5000000000000018
 40
0.5312500000000019
 40
0.5312500000000019
 40
0.562500000000002
 40
0.562500000000002
 40
0.593750000000002
 40
0.593750000000002
 40
0.6250000000000023
 40
0.6250000000000023
 40
0.6562500000000022
 40
0.6562500000000022
 40
0.6875000000000021
 40
0.6875000000000021
 40
0.7187500000000019
 40
0.7187500000000019
 40
0.7500000000000018
 40
0.7500000000000018
 40
0.7812500000000017
 40
0.7812500000000017
 40
0.8125000000000014
 40
0.8125000000000014
 40
0.8750000000000012
 40
0.8750000000000012
 40
0.9062500000000011
 40
0.9062500000000011
 40
0.9375000000000007
 40
0.9375000000000007
 40
0.9687500000000003
 40
0.9687500000000003
 40
1.0
 40
1.0
 40
1.03125
 40
1.03125
 10
177.4954067824957
 20
117.4539028011559
 30
0.0
 10
177.9007640763913
 20
117.4539028011559
 30
0.0
 10
178.0998239677272
 20
117.4339032415393
 30
0.0
 10
178.4910779523069
 20
117.3557597388391
 30
0.0
 10
178.6853507110545
 20
117.2965986373184
 30
0.0
 10
179.0541141376058
 20
117.1431669504241
 30
0.0
 10
179.2288392959841
 20
117.0494401405818
 30
0.0
 10
179.5595165995179
 20
116.828186038177
 30
0.0
 10
179.7151641435207
 20
116.7002046711824
 30
0.0
 10
180.1346315131894
 20
116.2806495741823
 30
0.0
 10
180.3615196547196
 20
115.942171015479
 30
0.0
 10
180.5903162781044
 20
115.3922921277608
 30
0.0
 10
180.6495085329533
 20
115.1988922820174
 30
0.0
 10
180.7283159432138
 20
114.8046641316595
 30
0.0
 10
180.7479553594942
 20
114.6060253042271
 30
0.0
 10
180.7482142239158
 20
114.2057250183287
 30
0.0
 10
180.7281435392829
 20
114.0023856916076
 30
0.0
 10
180.6498058566529
 20
113.610294171
 30
0.0
 10
180.5918560886144
 20
113.4195883026848
 30
0.0
 10
180.4379129467345
 20
113.0488644860982
 30
0.0
 10
180.3429743330118
 20
112.8721378262894
 30
0.0
 10
180.1226169171346
 20
112.542884715365
 30
0.0
 10
179.9953368912063
 20
112.3877634917686
 30
0.0
 10
179.7135812998758
 20
112.1060867968382
 30
0.0
 10
179.5607929704183
 20
111.9806536119338
 30
0.0
 10
179.2313658882614
 20
111.7598780185797
 30
0.0
 10
179.0528198851096
 20
111.6640467658795
 30
0.0
 10
178.6852475595595
 20
111.5112176353844
 30
0.0
 10
178.4950935328485
 20
111.4530458774402
 30
0.0
 10
178.101553110146
 20
111.3740525850953
 30
0.0
 10
177.8991190388849
 20
111.353989459453
 30
0.0
 10
177.4996899635195
 20
111.3538167133343
 30
0.0
 10
177.2996709849635
 20
111.3733000874236
 30
0.0
 10
176.9035550375142
 20
111.4522916590248
 30
0.0
 10
176.7128222093223
 20
111.5105718788767
 30
0.0
 10
176.3451907687426
 20
111.6631394994848
 30
0.0
 10
176.1667043365748
 20
111.7587482862581
 30
0.0
 10
175.8364990776108
 20
111.979760331343
 30
0.0
 10
175.6836104995489
 20
112.1052102301132
 30
0.0
 10
175.4020141050108
 20
112.3864407191185
 30
0.0
 10
175.2743831821353
 20
112.5418235970325
 30
0.0
 10
175.0540577471355
 20
112.8706744550754
 30
0.0
 10
174.9598312901701
 20
113.0455625614894
 30
0.0
 10
174.804896769567
 20
113.4177064128502
 30
0.0
 10
174.7468844839648
 20
113.6085124546591
 30
0.0
 10
174.6684652296866
 20
113.9993854725779
 30
0.0
 10
174.6481511497201
 20
114.2018430339602
 30
0.0
 10
174.6480200334161
 20
114.6039736388796
 30
0.0
 10
174.6676447267755
 20
114.8026976840547
 30
0.0
 10
174.7458111771891
 20
115.1955371551914
 30
0.0
 10
174.805098622529
 20
115.390181432594
 30
0.0
 10
175.0341794656119
 20
115.9416211860082
 30
0.0
 10
175.2610103165061
 20
116.2799607517074
 30
0.0
 10
175.6803490178268
 20
116.6996264143589
 30
0.0
 10
175.8357020135767
 20
116.8274724201321
 30
0.0
 10
176.1666698467139
 20
117.0490734948339
 30
0.0
 10
176.3412311469103
 20
117.1427142288109
 30
0.0
 10
176.7088044544851
 20
117.2958683495101
 30
0.0
 10
176.9034913161232
 20
117.3553720951562
 30
0.0
 10
177.2959672660596
 20
117.4338948442191
 30
0.0
 10
177.4954067824957
 20
117.4539028011559
 30
0.0
 10
177.9007640763913
 20
117.4539028011559
 30
0.0
  0
SPLINE
  5
12E
330
1F
100
AcDbEntity
  8
0
  6
HIDDEN
 62
     7
370
     0
100
AcDbSpline
210
0.0
220
0.0
230
1.0
 70
     8
 71
     3
 72
    66
 73
    62
 74
     0
 42
0.00000001
 43
0.00000001
 12
1.0
 22
0.0
 32
0.0
 13
1.0
 23
0.0
 33
0.0
 40
-0.03125
 40
-0.03125
 40
0.0
 40
0.0
 40
0.0312500000000001
 40
0.0312500000000001
 40
0.0625000000000001
 40
0.0625000000000001
 40
0.0937500000000002
 40
0.0937500000000002
 40
0.1250000000000002
 40
0.1250000000000002
 40
0.1874999999999999
 40
0.1874999999999999
 40
0.2187499999999998
 40
0.2187499999999998
 40
0.2499999999999997
 40
0.2499999999999997
 40
0.2812499999999996
 40
0.2812499999999996
 40
0.3124999999999994
 40
0.3124999999999994
 40
0.3437499999999992
 40
0.3437499999999992
 40
0.3749999999999991
 40
0.3749999999999991
 40
0.4062499999999989
 40
0.4062499999999989
 40
0.437499999999999
 40
0.437499999999999
 40
0.4687499999999991
 40
0.4687499999999991
 40
0.4999999999999991
 40
0.4999999999999991
 40
0.5312499999999992
 40
0.5312499999999992
 40
0.5624999999999992
 40
0.5624999999999992
 40
0.5937499999999993
 40
0.5937499999999993
 40
0.6249999999999993
 40
0.6249999999999993
 40
0.6562499999999994
 40
0.6562499999999994
 40
0.6874999999999994
 40
0.6874999999999994
 40
0.7187499999999996
 40
0.7187499999999996
 40
0.7499999999999996
 40
0.7499999999999996
 40
0.7812499999999997
 40
0.7812499999999997
 40
0.8124999999999998
 40
0.8124999999999998
 40
0.8749999999999999
 40
0.8749999999999999
 40
0.9062499999999999
 40
0.9062499999999999
 40
0.9375
 40
0.9375
 40
0.96875
 40
0.96875
 40
1.0
 40
1.0
 40
1.03125
 40
1.03125
 10
177.9007640763913
 20
117.4539028011559
 30
0.0
 10
177.4954067824957
 20
117.4539028011559
 30
0.0
 10
177.2963468911598
 20
117.4339032415393
 30
0.0
 10
176.9050929065801
 20
117.3557597388391
 30
0.0
 10
176.7108201478325
 20
117.2965986373184
 30
0.0
 10
176.3420567212812
 20
117.1431669504241
 30
0.0
 10
176.1673315629029
 20
117.0494401405818
 30
0.0
 10
175.8366542593691
 20
116.828186038177
 30
0.0
 10
175.6810067153663
 20
116.7002046711824
 30
0.0
 10
175.2615393456976
 20
116.2806495741823
 30
0.0
 10
175.0346512041673
 20
115.942171015479
 30
0.0
 10
174.8058545807826
 20
115.3922921277608
 30
0.0
 10
174.7466623259337
 20
115.1988922820174
 30
0.0
 10
174.6678549156732
 20
114.8046641316595
 30
0.0
 10
174.6482154993928
 20
114.6060253042271
 30
0.0
 10
174.6479566349712
 20
114.2057250183287
 30
0.0
 10
174.6680273196042
 20
114.0023856916076
 30
0.0
 10
174.7463650022341
 20
113.610294171
 30
0.0
 10
174.8043147702725
 20
113.4195883026848
 30
0.0
 10
174.9582579121525
 20
113.0488644860982
 30
0.0
 10
175.0531965258752
 20
112.8721378262894
 30
0.0
 10
175.2735539417524
 20
112.542884715365
 30
0.0
 10
175.4008339676807
 20
112.3877634917686
 30
0.0
 10
175.6825895590112
 20
112.1060867968382
 30
0.0
 10
175.8353778884687
 20
111.9806536119338
 30
0.0
 10
176.1648049706257
 20
111.7598780185797
 30
0.0
 10
176.3433509737773
 20
111.6640467658795
 30
0.0
 10
176.7109232993275
 20
111.5112176353844
 30
0.0
 10
176.9010773260385
 20
111.4530458774402
 30
0.0
 10
177.294617748741
 20
111.3740525850953
 30
0.0
 10
177.4970518200021
 20
111.353989459453
 30
0.0
 10
177.8964808953675
 20
111.3538167133343
 30
0.0
 10
178.0964998739234
 20
111.3733000874236
 30
0.0
 10
178.4926158213728
 20
111.4522916590248
 30
0.0
 10
178.6833486495646
 20
111.5105718788767
 30
0.0
 10
179.0509800901443
 20
111.6631394994848
 30
0.0
 10
179.2294665223122
 20
111.758748286258
 30
0.0
 10
179.5596717812762
 20
111.979760331343
 30
0.0
 10
179.7125603593381
 20
112.1052102301132
 30
0.0
 10
179.9941567538762
 20
112.3864407191185
 30
0.0
 10
180.1217876767517
 20
112.5418235970325
 30
0.0
 10
180.3421131117515
 20
112.8706744550754
 30
0.0
 10
180.4363395687169
 20
113.0455625614894
 30
0.0
 10
180.59127408932
 20
113.4177064128502
 30
0.0
 10
180.6492863749222
 20
113.6085124546591
 30
0.0
 10
180.7277056292004
 20
113.9993854725779
 30
0.0
 10
180.7480197091669
 20
114.2018430339602
 30
0.0
 10
180.7481508254709
 20
114.6039736388796
 30
0.0
 10
180.7285261321115
 20
114.8026976840547
 30
0.0
 10
180.6503596816979
 20
115.1955371551914
 30
0.0
 10
180.5910722363579
 20
115.390181432594
 30
0.0
 10
180.3619913932751
 20
115.9416211860082
 30
0.0
 10
180.1351605423809
 20
116.2799607517074
 30
0.0
 10
179.7158218410602
 20
116.6996264143589
 30
0.0
 10
179.5604688453102
 20
116.8274724201321
 30
0.0
 10
179.2295010121731
 20
117.0490734948339
 30
0.0
 10
179.0549397119767
 20
117.1427142288109
 30
0.0
 10
178.6873664044019
 20
117.2958683495101
 30
0.0
 10
178.4926795427638
 20
117.3553720951562
 30
0.0
 10
178.1002035928273
 20
117.4338948442191
 30
0.0
 10
177.9007640763913
 20
117.4539028011559
 30
0.0
 10
177.4954067824957
 20
117.4539028011559
 30
0.0
  0
LINE
  5
12F
330
1F
100
AcDbEntity
  8
0
  6
HIDDEN
 62
     7
370
     0
100
AcDbLine
 10
181.6980854294
 20
124.4039027767
 30
0.0
 11
181.6980854294
 21
104.4039028012
 31
0.0
  0
SPLINE
  5
130
330
1F
100
AcDbEntity
  8
0
  6
HIDDEN
 62
     7
370
     0
100
AcDbSpline
210
0.0
220
0.0
230
1.0
 70
     8
 71
     3
 72
    10
 73
     6
 74
     0
 42
0.00000001
 43
0.00000001
 12
1.0
 22
0.0
 32
0.0
 13
1.0
 23
0.0
 33
0.0
 40
0.0
 40
0.0
 40
0.0
 40
0.0
 40
0.5
 40
0.5
 40
1.0
 40
1.0
 40
1.0
 40
1.0
 10
224.8966842677536
 20
117.9193539745868
 30
0.0
 10
224.8752450742611
 20
117.3334811031476
 30
0.0
 10
224.8487234823344
 20
116.7476460727591
 30
0.0
 10
224.8092958638298
 20
115.5758746371479
 30
0.0
 10
224.796783845249
 20
114.9899352983345
 30
0.0
 10
224.796783845249
 20
114.4039028011559
 30
0.0
  0
LINE
  5
131
330
1F
100
AcDbEntity
  8
0
  6
HIDDEN
 62
     7
370
     0
100
AcDbLine
 10
224.7967838452
 20
88.9039028012
 30
0.0
 11
224.7967838452
 21
114.4039028012
 31
0.0
  0
ELLIPSE
  5
132
330
1F
100
AcDbEntity
  8
0
  6
HIDDEN
 62
     7
370
     0
100
AcDbEllipse
 10
246.5201035036
 20
114.4039028012
 30
0.0
 11
18.14503636023605
 21
25.49727658496197
 31
0.0
210
0.0
220
0.0
230
1.0
 40
0.0205386817
 41
1.641792927818762
 42
3.156207884742678
  0
ELLIPSE
  5
133
330
1F
100
AcDbEntity
  8
0
  6
HIDDEN
 62
     7
370
     0
100
AcDbEllipse
 10
247.2792228979
 20
114.4039028012
 30
0.0
 11
2.533808296603666
 21
25.4988779414022
 31
0.0
210
0.0
220
0.0
230
1.0
 40
0.0944092018
 41
1.580177437673388
 42
1.636558807545059
  0
LINE
  5
134
330
1F
100
AcDbEntity
  8
0
  6
HIDDEN
 62
     7
370
     0
100
AcDbLine
 10
182.6980854294
 20
121.6539028012
 30
0.0
 11
182.6980854294
 21
107.1539028012
 31
0.0
  0
LINE
  5
135
330
1F
100
AcDbEntity
  8
0
  6
HIDDEN
 62
     7
370
     0
100
AcDbLine
 10
181.6980854294
 20
106.1539028012
 30
0.0
 11
181.6980854294
 21
122.6539028012
 31
0.0
  0
LINE
  5
136
330
1F
100
AcDbEntity
  8
0
  6
HIDDEN
 62
     7
370
     0
100
AcDbLine
 10
215.6980854294
 20
107.1539028012
 30
0.0
 11
215.6980854294
 21
121.6539028012
 31
0.0
  0
LINE
  5
137
330
1F
100
AcDbEntity
  8
0
  6
HIDDEN
 62
     7
370
     0
100
AcDbLine
 10
247.7836763219
 20
116.023192733
 30
0.0
 11
244.7105883606
 21
112.9669394691
 31
0.0
  0
SPLINE
  5
138
330
1F
100
AcDbEntity
  8
0
  6
HIDDEN
 62
     7
370
     0
100
AcDbSpline
210
0.0
220
0.0
230
1.0
 70
     8
 71
     3
 72
     8
 73
     4
 74
     0
 42
0.00000001
 43
0.00000001
 12
1.0
 22
0.0
 32
0.0
 13
1.0
 23
0.0
 33
0.0
 40
0.0
 40
0.0
 40
0.0
 40
0.0
 40
1.0
 40
1.0
 40
1.0
 40
1.0
 10
226.6011535384539
 20
133.9054585021821
 30
0.0
 10
225.7406331179177
 20
128.6188609125861
 30
0.0
 10
225.0936368160154
 20
123.3015132907792
 30
0.0
 10
224.8966842677536
 20
117.9193539745868
 30
0.0
  0
SPLINE
  5
139
330
1F
100
AcDbEntity
  8
0
  6
HIDDEN
 62
     7
370
     0
100
AcDbSpline
210
0.0
220
0.0
230
1.0
 70
     8
 71
     3
 72
    19
 73
    15
 74
     0
 42
0.00000001
 43
0.00000001
 12
1.0
 22
0.0
 32
0.0
 13
1.0
 23
0.0
 33
0.0
 40
0.0
 40
0.0
 40
0.0
 40
0.0
 40
0.093895687677199
 40
0.1884423229815227
 40
0.2850459230554762
 40
0.382362090949897
 40
0.4762090365662265
 40
0.5707114764221127
 40
0.6672850352998467
 40
0.7645757309032052
 40
0.8457740340782304
 40
0.923815754959511
 40
0.9278407871271181
 40
0.9999999999999999
 40
0.9999999999999999
 40
0.9999999999999999
 40
0.9999999999999999
 10
226.6011535384539
 20
133.9054585021821
 30
0.0
 10
226.5933430069807
 20
134.5983637086615
 30
0.0
 10
226.5776677962128
 20
135.9889778033563
 30
0.0
 10
226.5564893637313
 20
137.8934890925884
 30
0.0
 10
226.5370922546852
 20
139.6533236935503
 30
0.0
 10
226.5200676547723
 20
141.2126763217541
 30
0.0
 10
226.5054657530428
 20
142.5608627982371
 30
0.0
 10
226.4932343977738
 20
143.698140713493
 30
0.0
 10
226.4832630453426
 20
144.6308582367684
 30
0.0
 10
226.4762211778124
 20
145.2926954669931
 30
0.0
 10
226.4714641653541
 20
145.741176863609
 30
0.0
 10
226.4702239228228
 20
145.8583984802889
 30
0.0
 10
226.4685924535456
 20
146.012424395898
 30
0.0
 10
226.4686500138247
 20
146.0070175973324
 30
0.0
 10
226.4687045330293
 20
146.0018964554422
 30
0.0
  0
CIRCLE
  5
13A
330
1F
100
AcDbEntity
  8
0
  6
HIDDEN
 62
     7
370
     0
100
AcDbCircle
 10
240.3062011358
 20
130.5652234544
 30
0.0
 40
3.477525561797012
  0
CIRCLE
  5
13B
330
1F
100
AcDbEntity
  8
0
  6
HIDDEN
 62
     7
370
     0
100
AcDbCircle
 10
239.8797879771
 20
130.1411462316
 30
0.0
 40
3.477525561796929
  0
ARC
  5
13C
330
1F
100
AcDbEntity
  8
0
  6
HIDDEN
 62
     7
370
     0
100
AcDbCircle
 10
236.6587107313
 20
137.4835944769
 30
0.0
 40
2.349924752565325
100
AcDbArc
 50
126.8708860438
 51
274.5565450092
  0
ELLIPSE
  5
13D
330
1F
100
AcDbEntity
  8
0
  6
HIDDEN
 62
     7
370
     0
100
AcDbEllipse
 10
235.9172966857
 20
113.8228861306
 30
0.0
 11
3.36242253329857
 21
33.5290109969672
 31
0.0
210
0.0
220
0.0
230
1.0
 40
0.0928940858
 41
0.1243354484817234
 42
0.2128945371586557
  0
ELLIPSE
  5
13E
330
1F
100
AcDbEntity
  8
0
  6
HIDDEN
 62
     7
370
     0
100
AcDbEllipse
 10
238.9348990602
 20
114.1400489205
 30
0.0
 11
284.2611860869353
 21
26.74718941836187
 31
0.0
210
0.0
220
0.0
230
1.0
 40
0.1150714178
 41
1.560206347845307
 42
1.561978354366089
  0
ELLIPSE
  5
13F
330
1F
100
AcDbEntity
  8
0
  6
HIDDEN
 62
     7
370
     0
100
AcDbEllipse
 10
235.407344023
 20
113.7692879459
 30
0.0
 11
3.36242253329857
 21
33.5290109969672
 31
0.0
210
0.0
220
0.0
230
1.0
 40
0.0928940858
 41
0.0192802045293833
 42
0.122563441960934
  0
LINE
  5
140
330
1F
100
AcDbEntity
  8
0
  6
HIDDEN
 62
     7
370
     0
100
AcDbLine
 10
246.5030233654
 20
135.9972293107
 30
0.0
 11
226.6011535385
 21
133.9054585022
 31
0.0
  0
SPLINE
  5
141
330
1F
100
AcDbEntity
  8
0
  6
HIDDEN
 62
     7
370
     0
100
AcDbSpline
210
0.0
220
0.0
230
1.0
 70
     8
 71
     3
 72
    25
 73
    21
 74
     0
 42
0.00000001
 43
0.00000001
 12
1.0
 22
0.0
 32
0.0
 13
1.0
 23
0.0
 33
0.0
 40
0.0
 40
0.0
 40
0.0
 40
0.0
 40
0.0245912628407764
 40
0.0493074611676801
 40
0.074148779569157
 40
0.0991153998578211
 40
0.1242075011219035
 40
0.185974907797227
 40
0.248655605033923
 40
0.3104677900726121
 40
0.3733504004007368
 40
0.4982587590561523
 40
0.6233923314069009
 40
0.6851661819010797
 40
0.7487564780536992
 40
0.8104040977933242
 40
0.8743007499927001
 40
0.9149054517091264
 40
0.9568051658800987
 40
1.0
 40
1.0
 40
1.0
 40
1.0
 10
249.2935756314361
 20
147.5242943378255
 30
0.0
 10
249.2731304327703
 20
147.4803593251557
 30
0.0
 10
249.2321361639601
 20
147.3922660887433
 30
0.0
 10
249.1697360572336
 20
147.2490745879687
 30
0.0
 10
249.1064859558487
 20
147.0972867189286
 30
0.0
 10
249.0423383554308
 20
146.9360480673735
 30
0.0
 10
248.9457467457796
 20
146.682683527034
 30
0.0
 10
248.8147100435838
 20
146.3145259918054
 30
0.0
 10
248.648489907288
 20
145.8046381620782
 30
0.0
 10
248.4785052723366
 20
145.2410070378125
 30
0.0
 10
248.248797705258
 20
144.4240570096783
 30
0.0
 10
247.955220565651
 20
143.2774074090709
 30
0.0
 10
247.6573452482678
 20
141.9810289069312
 30
0.0
 10
247.4160721895165
 20
140.8531425282115
 30
0.0
 10
247.235216371464
 20
139.969058464981
 30
0.0
 10
247.0518534753616
 20
139.0340377846146
 30
0.0
 10
246.8906494633471
 20
138.178097683283
 30
0.0
 10
246.7486994376499
 20
137.3992655236644
 30
0.0
 10
246.6269487519186
 20
136.7156159607871
 30
0.0
 10
246.5447502008497
 20
136.2391091336203
 30
0.0
 10
246.5030254035551
 20
135.9972295564926
 30
0.0
  0
ELLIPSE
  5
142
330
1F
100
AcDbEntity
  8
0
  6
HIDDEN
 62
     7
370
     0
100
AcDbEllipse
 10
213.4703580359
 20
111.4636178097
 30
0.0
 11
284.2611860869353
 21
26.74718941836187
 31
0.0
210
0.0
220
0.0
230
1.0
 40
0.1150714178
 41
1.433618527506806
 42
1.471647259168384
  0
LINE
  5
143
330
1F
100
AcDbEntity
  8
0
  6
HIDDEN
 62
     7
370
     0
100
AcDbLine
 10
249.582715439
 20
136.5665390012
 30
0.0
 11
249.0914316616
 21
136.0779465278
 31
0.0
  0
LINE
  5
144
330
1F
100
AcDbEntity
  8
0
  6
HIDDEN
 62
     7
370
     0
100
AcDbLine
 10
237.7577130833
 20
139.9029990182
 30
0.0
 11
238.2376672558
 21
139.9397166064
 31
0.0
  0
LINE
  5
145
330
1F
100
AcDbEntity
  8
0
  6
HIDDEN
 62
     7
370
     0
100
AcDbLine
 10
237.9303535738
 20
139.6340864209
 30
0.0
 11
238.2376672558
 21
139.9397166064
 31
0.0
  0
LINE
  5
146
330
1F
100
AcDbEntity
  8
0
  6
HIDDEN
 62
     7
370
     0
100
AcDbLine
 10
237.7328404004
 20
139.618976213
 30
0.0
 11
237.9303535738
 21
139.6340864209
 31
0.0
  0
ELLIPSE
  5
147
330
1F
100
AcDbEntity
  8
0
  6
HIDDEN
 62
     7
370
     0
100
AcDbEllipse
 10
242.3594325274
 20
136.9016645446
 30
0.0
 11
0.940655310511744
 21
2.766158975077417
 31
0.0
210
0.0
220
0.0
230
1.0
 40
0.8539059128
 41
2.218014007038835
 42
2.406555537065141
  0
ELLIPSE
  5
148
330
1F
100
AcDbEntity
  8
0
  6
HIDDEN
 62
     7
370
     0
100
AcDbEllipse
 10
241.8885797502
 20
135.883574319
 30
0.0
 11
2.968392757696051
 21
0.488115642672966
 31
0.0
210
0.0
220
0.0
230
1.0
 40
0.1367129703
 41
2.278614760664409
 42
2.86656697873104
  0
ELLIPSE
  5
149
330
1F
100
AcDbEntity
  8
0
  6
HIDDEN
 62
     7
370
     0
100
AcDbEllipse
 10
241.4272302648
 20
134.8860323604
 30
0.0
 11
0.9406553105117155
 21
2.766158975077417
 31
0.0
210
0.0
220
0.0
230
1.0
 40
0.8539059128
 41
1.544372593543379
 42
1.630061788972119
  0
SPLINE
  5
14A
330
1F
100
AcDbEntity
  8
0
  6
HIDDEN
 62
     7
370
     0
100
AcDbSpline
210
0.0
220
0.0
230
1.0
 70
     8
 71
     3
 72
    22
 73
    18
 74
     0
 42
0.00000001
 43
0.00000001
 12
1.0
 22
0.0
 32
0.0
 13
1.0
 23
0.0
 33
0.0
 40
0.0
 40
0.0
 40
0.0
 40
0.0
 40
0.0625000000000006
 40
0.0625000000000006
 40
0.1250000000000013
 40
0.1250000000000013
 40
0.1875000000000019
 40
0.1875000000000019
 40
0.2500000000000026
 40
0.2500000000000026
 40
0.3750000000000021
 40
0.3750000000000021
 40
0.5000000000000016
 40
0.5000000000000016
 40
0.7500000000000008
 40
0.7500000000000008
 40
1.0
 40
1.0
 40
1.0
 40
1.0
 10
241.0547247382922
 20
134.0423197137787
 30
0.0
 10
240.9176443241975
 20
134.0805974865479
 30
0.0
 10
240.7890826897909
 20
134.1051972779425
 30
0.0
 10
240.5424302900782
 20
134.1380311698334
 30
0.0
 10
240.4298108440018
 20
134.1454955632344
 30
0.0
 10
240.2177607178392
 20
134.1504223586745
 30
0.0
 10
240.1178749171693
 20
134.1476775879148
 30
0.0
 10
239.9314336388836
 20
134.1358336207568
 30
0.0
 10
239.8443139870338
 20
134.1267353436403
 30
0.0
 10
239.595934610514
 20
134.0932296996058
 30
0.0
 10
239.4474227624001
 20
134.0627351192951
 30
0.0
 10
239.1725683335262
 20
133.9937401363704
 30
0.0
 10
239.046513716666
 20
133.9550364475135
 30
0.0
 10
238.7009095300322
 20
133.8349955381921
 30
0.0
 10
238.510088162132
 20
133.7490884482204
 30
0.0
 10
238.2013177306603
 20
133.5875582452716
 30
0.0
 10
238.0820362998244
 20
133.5113351509072
 30
0.0
 10
238.0225955554144
 20
133.4522200291146
 30
0.0
  0
SPLINE
  5
14B
330
1F
100
AcDbEntity
  8
0
  6
HIDDEN
 62
     7
370
     0
100
AcDbSpline
210
0.0
220
0.0
230
1.0
 70
     8
 71
     3
 72
     8
 73
     4
 74
     0
 42
0.00000001
 43
0.00000001
 12
1.0
 22
0.0
 32
0.0
 13
1.0
 23
0.0
 33
0.0
 40
0.0
 40
0.0
 40
0.0
 40
0.0
 40
1.0
 40
1.0
 40
1.0
 40
1.0
 10
241.4766188554552
 20
133.8841277222584
 30
0.0
 10
241.3342217370551
 20
133.9290071942207
 30
0.0
 10
241.1935814233317
 20
133.9816981014127
 30
0.0
 10
241.0547247382922
 20
134.0423197137787
 30
0.0
  0
SPLINE
  5
14C
330
1F
100
AcDbEntity
  8
0
  6
HIDDEN
 62
     7
370
     0
100
AcDbSpline
210
0.0
220
0.0
230
1.0
 70
     8
 71
     3
 72
    22
 73
    18
 74
     0
 42
0.00000001
 43
0.00000001
 12
1.0
 22
0.0
 32
0.0
 13
1.0
 23
0.0
 33
0.0
 40
0.0
 40
0.0
 40
0.0
 40
0.0
 40
0.1250000000000001
 40
0.1250000000000001
 40
0.2500000000000003
 40
0.2500000000000003
 40
0.500000000000001
 40
0.500000000000001
 40
0.6250000000000009
 40
0.6250000000000009
 40
0.7500000000000009
 40
0.7500000000000009
 40
0.8750000000000008
 40
0.8750000000000008
 40
0.9375000000000003
 40
0.9375000000000003
 40
1.0
 40
1.0
 40
1.0
 40
1.0
 10
242.6953199868553
 20
131.7001510773011
 30
0.0
 10
242.7246582771624
 20
131.7293286493842
 30
0.0
 10
242.7450961858259
 20
131.7721002945989
 30
0.0
 10
242.7719081969157
 20
131.8776156283286
 30
0.0
 10
242.7781910257586
 20
131.9406337297211
 30
0.0
 10
242.7767283045595
 20
132.1508355128393
 30
0.0
 10
242.7500614943176
 20
132.3188243250421
 30
0.0
 10
242.6587360102556
 20
132.6017792171178
 30
0.0
 10
242.6195459516555
 20
132.7014387967272
 30
0.0
 10
242.5160863217046
 20
132.9122055592845
 30
0.0
 10
242.4519553480633
 20
133.0233429797625
 30
0.0
 10
242.2849810580874
 20
133.2556853342603
 30
0.0
 10
242.1823930089112
 20
133.3776976749172
 30
0.0
 10
241.974708836224
 20
133.5662550627125
 30
0.0
 10
241.8952178403744
 20
133.6309961231381
 30
0.0
 10
241.7077734832094
 20
133.7604477527281
 30
0.0
 10
241.6004278596575
 20
133.8246491867482
 30
0.0
 10
241.4766188554553
 20
133.8841277222585
 30
0.0
  0
ELLIPSE
  5
14D
330
1F
100
AcDbEntity
  8
0
  6
HIDDEN
 62
     7
370
     0
100
AcDbEllipse
 10
242.3594325274
 20
136.9016645446
 30
0.0
 11
0.940655310511744
 21
2.766158975077417
 31
0.0
210
0.0
220
0.0
230
1.0
 40
0.8539059128
 41
4.57694022902728
 42
4.685965247133207
  0
ELLIPSE
  5
14E
330
1F
100
AcDbEntity
  8
0
  6
HIDDEN
 62
     7
370
     0
100
AcDbEllipse
 10
241.6086378598
 20
135.2782766207
 30
0.0
 11
2.96839275769608
 21
0.4881156426729377
 31
0.0
210
0.0
220
0.0
230
1.0
 40
0.1367129703
 41
6.20287384585569
 42
8.373258537817643
  0
ELLIPSE
  5
14F
330
1F
100
AcDbEntity
  8
0
  6
HIDDEN
 62
     7
370
     0
100
AcDbEllipse
 10
237.3631834546
 20
127.5971062585
 30
0.0
 11
3.01089176556701
 21
2.994397785440782
 31
0.0
210
0.0
220
0.0
230
1.0
 40
0.9890738004
 41
0.0
 42
6.283185307179586
  0
ELLIPSE
  5
150
330
1F
100
AcDbEntity
  8
0
  6
HIDDEN
 62
     7
370
     0
100
AcDbEllipse
 10
239.1337938118
 20
129.3580170268
 30
0.0
 11
3.518690774465682
 21
-2.323872478491111
 31
0.0
210
0.0
220
0.0
230
1.0
 40
0.89827004
 41
1.182660514095203
 42
2.457784355333611
  0
LINE
  5
151
330
1F
100
AcDbEntity
  8
0
  6
HIDDEN
 62
     7
370
     0
100
AcDbLine
 10
242.3976814522
 20
131.4041430377
 30
0.0
 11
242.6953199869
 21
131.7001510773
 31
0.0
  0
LINE
  5
152
330
1F
100
AcDbEntity
  8
0
  6
HIDDEN
 62
     7
370
     0
100
AcDbLine
 10
238.0225955554
 20
133.4522200291
 30
0.0
 11
237.7249570208
 21
133.1562119895
 31
0.0
  0
ARC
  5
153
330
1F
100
AcDbEntity
  8
0
  6
HIDDEN
 62
     7
370
     0
100
AcDbCircle
 10
239.7996467452
 20
130.0533712725
 30
0.0
 40
4.181737729252696
100
AcDbArc
 50
72.5344011879
 51
66.3578667107
  0
ARC
  5
154
330
1F
100
AcDbEntity
  8
0
  6
HIDDEN
 62
     7
370
     0
100
AcDbCircle
 10
236.6337979461
 20
137.7314794664
 30
0.0
 40
2.101285156929398
100
AcDbArc
 50
135.3393107836
 51
274.5928246005
  0
LINE
  5
155
330
1F
100
AcDbEntity
  8
0
  6
HIDDEN
 62
     7
370
     0
100
AcDbLine
 10
239.9078950833
 20
135.874545451
 30
0.0
 11
237.3880482064
 21
135.6817714213
 31
0.0
  0
LINE
  5
156
330
1F
100
AcDbEntity
  8
0
  6
HIDDEN
 62
     7
370
     0
100
AcDbLine
 10
236.8632091247
 20
135.6416200353
 30
0.0
 11
236.8020564487
 21
135.6369417162
 31
0.0
  0
LINE
  5
157
330
1F
100
AcDbEntity
  8
0
  6
HIDDEN
 62
     7
370
     0
100
AcDbLine
 10
236.8453955959
 20
135.141096856
 30
0.0
 11
240.0776305144
 21
135.3883701946
 31
0.0
  0
ARC
  5
158
330
1F
100
AcDbEntity
  8
0
  6
HIDDEN
 62
     7
370
     0
100
AcDbCircle
 10
236.3243889882
 20
137.4230957474
 30
0.0
 40
2.098709512819024
100
AcDbArc
 50
125.9396517268
 51
274.6558623662
  0
LINE
  5
159
330
1F
100
AcDbEntity
  8
0
  6
HIDDEN
 62
     7
370
     0
100
AcDbLine
 10
238.2376672558
 20
139.9397166064
 30
0.0
 11
238.8674983458
 21
147.13179934
 31
0.0
  0
LINE
  5
15A
330
1F
100
AcDbEntity
  8
0
  6
HIDDEN
 62
     7
370
     0
100
AcDbLine
 10
238.3637565286
 20
147.0849678457
 30
0.0
 11
237.7346566752
 21
139.9012351505
 31
0.0
  0
LINE
  5
15B
330
1F
100
AcDbEntity
  8
0
  6
HIDDEN
 62
     7
370
     0
100
AcDbLine
 10
244.7766975736
 20
136.2470199391
 30
0.0
 11
244.6957947431
 21
136.0256300687
 31
0.0
  0
LINE
  5
15C
330
1F
100
AcDbEntity
  8
0
  6
HIDDEN
 62
     7
370
     0
100
AcDbLine
 10
249.135439385
 20
136.5804736227
 30
0.0
 11
244.7766975736
 21
136.2470199391
 31
0.0
  0
LINE
  5
15D
330
1F
100
AcDbEntity
  8
0
  6
HIDDEN
 62
     7
370
     0
100
AcDbLine
 10
244.572816362
 20
135.732262158
 30
0.0
 11
249.0914316616
 21
136.0779465278
 31
0.0
  0
LINE
  5
15E
330
1F
100
AcDbEntity
  8
0
  6
HIDDEN
 62
     7
370
     0
100
AcDbLine
 10
249.0914316616
 20
136.0779465278
 30
0.0
 11
249.135439385
 21
136.5804736227
 31
0.0
  0
LINE
  5
15F
330
1F
100
AcDbEntity
  8
0
  6
HIDDEN
 62
     7
370
     0
100
AcDbLine
 10
243.4444143631
 20
134.7018656344
 30
0.0
 11
242.3976814522
 21
131.4041430377
 31
0.0
  0
LINE
  5
160
330
1F
100
AcDbEntity
  8
0
  6
HIDDEN
 62
     7
370
     0
100
AcDbLine
 10
245.280760651
 20
138.6724617465
 30
0.0
 11
245.573961462
 21
138.9640563727
 31
0.0
  0
LINE
  5
161
330
1F
100
AcDbEntity
  8
0
  6
HIDDEN
 62
     7
370
     0
100
AcDbLine
 10
244.4693838916
 20
135.9413897536
 30
0.0
 11
245.573961462
 21
138.9640563727
 31
0.0
  0
LINE
  5
162
330
1F
100
AcDbEntity
  8
0
  6
HIDDEN
 62
     7
370
     0
100
AcDbLine
 10
244.4693838916
 20
135.9413897536
 30
0.0
 11
244.7766975736
 21
136.2470199391
 31
0.0
  0
LINE
  5
163
330
1F
100
AcDbEntity
  8
0
  6
HIDDEN
 62
     7
370
     0
100
AcDbLine
 10
249.135439385
 20
136.5804736227
 30
0.0
 11
248.828125703
 21
136.2748434372
 31
0.0
  0
SPLINE
  5
164
330
1F
100
AcDbEntity
  8
0
  6
HIDDEN
 62
     7
370
     0
100
AcDbSpline
210
0.0
220
0.0
230
1.0
 70
     8
 71
     3
 72
    18
 73
    14
 74
     0
 42
0.00000001
 43
0.00000001
 12
1.0
 22
0.0
 32
0.0
 13
1.0
 23
0.0
 33
0.0
 40
0.0
 40
0.0
 40
0.0
 40
0.0
 40
0.2500000000000001
 40
0.2500000000000001
 40
0.375
 40
0.375
 40
0.4999999999999999
 40
0.4999999999999999
 40
0.6249999999999997
 40
0.6249999999999997
 40
0.7499999999999996
 40
0.7499999999999996
 40
1.0
 40
1.0
 40
1.0
 40
1.0
 10
190.3767650858838
 20
131.7008126691607
 30
0.0
 10
190.2414794795815
 20
131.6294599274712
 30
0.0
 10
190.1403117333386
 20
131.4840565208818
 30
0.0
 10
190.0374503904696
 20
131.1545892852761
 30
0.0
 10
190.0113475449464
 20
131.0256557084714
 30
0.0
 10
189.9764575614015
 20
130.7301137091353
 30
0.0
 10
189.9678713031115
 20
130.5657189356133
 30
0.0
 10
189.9677715935459
 20
130.2047573208727
 30
0.0
 10
189.9762599646944
 20
130.0081875287105
 30
0.0
 10
190.010403344215
 20
129.5828327325855
 30
0.0
 10
190.0362003260688
 20
129.353063082786
 30
0.0
 10
190.1396014574568
 20
128.6204743883535
 30
0.0
 10
190.2414594496282
 20
128.083237613436
 30
0.0
 10
190.3767650858838
 20
127.4989495246883
 30
0.0
  0
LINE
  5
165
330
1F
100
AcDbEntity
  8
0
  6
HIDDEN
 62
     7
370
     0
100
AcDbLine
 10
189.4980854294
 20
131.9240015857
 30
0.0
 11
189.4980854294
 21
126.7838490979
 31
0.0
  0
LINE
  5
166
330
1F
100
AcDbEntity
  8
0
  6
HIDDEN
 62
     7
370
     0
100
AcDbLine
 10
163.1980854294
 20
131.2632540431
 30
0.0
 11
163.1980854294
 21
126.4534753266
 31
0.0
  0
LINE
  5
167
330
1F
100
AcDbEntity
  8
0
  6
HIDDEN
 62
     7
370
     0
100
AcDbLine
 10
161.6980854294
 20
130.3972286393
 30
0.0
 11
161.6980854294
 21
126.0204626247
 31
0.0
  0
LINE
  5
168
330
1F
100
AcDbEntity
  8
0
  6
HIDDEN
 62
     7
370
     0
100
AcDbLine
 10
163.1980854294
 20
102.3543302757
 30
0.0
 11
163.1980854294
 21
97.5445515592
 31
0.0
  0
LINE
  5
169
330
1F
100
AcDbEntity
  8
0
  6
HIDDEN
 62
     7
370
     0
100
AcDbLine
 10
161.6980854294
 20
102.7873429776
 30
0.0
 11
161.6980854294
 21
98.410576963
 31
0.0
  0
LINE
  5
16A
330
1F
100
AcDbEntity
  8
0
  6
HIDDEN
 62
     7
370
     0
100
AcDbLine
 10
189.4980854294
 20
102.0239565044
 30
0.0
 11
189.4980854294
 21
96.8838040166
 31
0.0
  0
SPLINE
  5
16B
330
1F
100
AcDbEntity
  8
0
  6
HIDDEN
 62
     7
370
     0
100
AcDbSpline
210
0.0
220
0.0
230
1.0
 70
     8
 71
     3
 72
    18
 73
    14
 74
     0
 42
0.00000001
 43
0.00000001
 12
1.0
 22
0.0
 32
0.0
 13
1.0
 23
0.0
 33
0.0
 40
0.0
 40
0.0
 40
0.0
 40
0.0
 40
0.2499999999999995
 40
0.2499999999999995
 40
0.3749999999999997
 40
0.3749999999999997
 40
0.4999999999999999
 40
0.4999999999999999
 40
0.6250000000000001
 40
0.6250000000000001
 40
0.7500000000000002
 40
0.7500000000000002
 40
1.0
 40
1.0
 40
1.0
 40
1.0
 10
190.3767650858838
 20
101.3088560776235
 30
0.0
 10
190.2414794795815
 20
100.7246544838918
 30
0.0
 10
190.1403117333386
 20
100.1904367966836
 30
0.0
 10
190.0374503904696
 20
99.46454002579523
 30
0.0
 10
190.0113475449464
 20
99.23465953801531
 30
0.0
 10
189.9764575614015
 20
98.80408859322851
 30
0.0
 10
189.9678713031115
 20
98.60639368773434
 30
0.0
 10
189.9677715935459
 20
98.24504564505654
 30
0.0
 10
189.9762599646944
 20
98.08139563511041
 30
0.0
 10
190.010403344215
 20
97.78818436214144
 30
0.0
 10
190.0362003260688
 20
97.65818829602563
 30
0.0
 10
190.1396014574568
 20
97.3241324034637
 30
0.0
 10
190.2414594496282
 20
97.17835623909892
 30
0.0
 10
190.3767650858838
 20
97.10699293315108
 30
0.0
  0
ARC
  5
16C
330
1F
100
AcDbEntity
  8
0
  6
HIDDEN
 62
     7
370
     0
100
AcDbCircle
 10
243.9334337055
 20
141.6958640901
 30
0.0
 40
3.186550599724045
100
AcDbArc
 50
300.9860068706
 51
197.906261028
  0
LINE
  5
16D
330
1F
100
AcDbEntity
  8
0
  6
HIDDEN
 62
     7
370
     0
100
AcDbLine
 10
240.9012370306
 20
140.7161253245
 30
0.0
 11
239.0908680491
 21
135.7620668363
 31
0.0
  0
LINE
  5
16E
330
1F
100
AcDbEntity
  8
0
  6
HIDDEN
 62
     7
370
     0
100
AcDbLine
 10
249.7706219952
 20
147.037271003
 30
0.0
 11
249.2935757988
 21
147.5242921648
 31
0.0
  0
LINE
  5
16F
330
1F
100
AcDbEntity
  8
0
  6
HIDDEN
 62
     7
370
     0
100
AcDbLine
 10
244.4693838916
 20
135.9413897536
 30
0.0
 11
248.828125703
 21
136.2748434372
 31
0.0
  0
LINE
  5
170
330
1F
100
AcDbEntity
  8
0
  6
HIDDEN
 62
     7
370
     0
100
AcDbLine
 10
238.5457135972
 20
146.6609230919
 30
0.0
 11
237.9303535738
 21
139.6340864209
 31
0.0
  0
LINE
  5
171
330
1F
100
AcDbEntity
  8
0
  6
HIDDEN
 62
     7
370
     0
100
AcDbLine
 10
236.4947427667
 20
135.3313115307
 30
0.0
 11
239.0136220117
 21
135.5240115343
 31
0.0
  0
LINE
  5
172
330
1F
100
AcDbEntity
  8
0
  6
HIDDEN
 62
     7
370
     0
100
AcDbLine
 10
249.7706220193
 20
147.0372710006
 30
0.0
 11
248.828125703
 21
136.2748434372
 31
0.0
  0
ARC
  5
173
330
1F
100
AcDbEntity
  8
0
  6
HIDDEN
 62
     7
370
     0
100
AcDbCircle
 10
243.3510364399
 20
141.1137523674
 30
0.0
 40
3.184398217196451
100
AcDbArc
 50
292.8807542393
 51
206.0115136593
  0
SPLINE
  5
174
330
1F
100
AcDbEntity
  8
0
  6
HIDDEN
 62
     7
370
     0
100
AcDbSpline
210
0.0
220
0.0
230
1.0
 70
     8
 71
     3
 72
    10
 73
     6
 74
     0
 42
0.00000001
 43
0.00000001
 12
1.0
 22
0.0
 32
0.0
 13
1.0
 23
0.0
 33
0.0
 40
0.0
 40
0.0
 40
0.0
 40
0.0
 40
0.5
 40
0.5
 40
1.0
 40
1.0
 40
1.0
 40
1.0
 10
240.4891988566045
 20
139.7172289510078
 30
0.0
 10
240.4803512616654
 20
139.8777827339544
 30
0.0
 10
240.4873050055501
 20
140.0245940110288
 30
0.0
 10
240.5267383356714
 20
140.2725639746924
 30
0.0
 10
240.5587280958053
 20
140.3754926895706
 30
0.0
 10
240.6080362195772
 20
140.4245306982812
 30
0.0
  0
SPLINE
  5
175
330
1F
100
AcDbEntity
  8
0
  6
HIDDEN
 62
     7
370
     0
100
AcDbSpline
210
0.0
220
0.0
230
1.0
 70
     8
 71
     3
 72
    10
 73
     6
 74
     0
 42
0.00000001
 43
0.00000001
 12
1.0
 22
0.0
 32
0.0
 13
1.0
 23
0.0
 33
0.0
 40
0.0
 40
0.0
 40
0.0
 40
0.0
 40
0.5
 40
0.5
 40
1.0
 40
1.0
 40
1.0
 40
1.0
 10
245.280760651015
 20
138.6724617464668
 30
0.0
 10
245.2313646085037
 20
138.6233363006448
 30
0.0
 10
245.1350724822627
 20
138.5456760951332
 30
0.0
 10
244.8965019376101
 20
138.3722918405518
 30
0.0
 10
244.7527796310447
 20
138.2760048825932
 30
0.0
 10
244.5891766413949
 20
138.1799151450556
 30
0.0
  0
LINE
  5
176
330
1F
100
AcDbEntity
  8
0
  6
HIDDEN
 62
     7
370
     0
100
AcDbLine
 10
240.9012370306
 20
140.7161253245
 30
0.0
 11
240.6080362196
 21
140.4245306983
 31
0.0
  0
SPLINE
  5
177
330
1F
100
AcDbEntity
  8
0
  6
HIDDEN
 62
     7
370
     0
100
AcDbSpline
210
0.0
220
0.0
230
1.0
 70
     8
 71
     3
 72
    25
 73
    21
 74
     0
 42
0.00000001
 43
0.00000001
 12
1.0
 22
0.0
 32
0.0
 13
1.0
 23
0.0
 33
0.0
 40
0.0
 40
0.0
 40
0.0
 40
0.0
 40
0.0251681869211124
 40
0.0503179529940581
 40
0.075455928611179
 40
0.1005887534962839
 40
0.1257230714551818
 40
0.1885186570104904
 40
0.2512870151622302
 40
0.3139934553866722
 40
0.3766666075645206
 40
0.5018080228611397
 40
0.6267156091364594
 40
0.6890729744833781
 40
0.751400485217442
 40
0.813629333184553
 40
0.8758274970127014
 40
0.9172331324957972
 40
0.9586133247935144
 40
1.0
 40
1.0
 40
1.0
 40
1.0
 10
246.9053633804263
 20
135.2937905877432
 30
0.0
 10
246.9303090298574
 20
135.4376433614356
 30
0.0
 10
246.9801820707489
 20
135.7252436215342
 30
0.0
 10
247.0551159061308
 20
136.1493994502261
 30
0.0
 10
247.1300958669567
 20
136.567990410461
 30
0.0
 10
247.2051341346296
 20
136.9805162252676
 30
0.0
 10
247.3177205640839
 20
137.5901189461293
 30
0.0
 10
247.4679087442116
 20
138.3814067516385
 30
0.0
 10
247.6554176516239
 20
139.3301546908662
 30
0.0
 10
247.8423825651045
 20
140.2370039236326
 30
0.0
 10
248.0903272951334
 20
141.3872077469462
 30
0.0
 10
248.3973136902328
 20
142.7127203369499
 30
0.0
 10
248.698417574761
 20
143.8797047820485
 30
0.0
 10
248.9343275094745
 20
144.7125476205993
 30
0.0
 10
249.1084155481236
 20
145.2855682058838
 30
0.0
 10
249.2794611830611
 20
145.8063669246242
 30
0.0
 10
249.4285275477522
 20
146.2221478570646
 30
0.0
 10
249.5565520752353
 20
146.550433475104
 30
0.0
 10
249.6646943934607
 20
146.8092644776214
 30
0.0
 10
249.7353109927351
 20
146.9612649006139
 30
0.0
 10
249.7706220579776
 20
147.0372710650048
 30
0.0
  0
LWPOLYLINE
  5
178
330
1F
100
AcDbEntity
  8
0
  6
HIDDEN
 62
     7
370
     0
100
AcDbPolyline
 90
       15
 70
   128
 43
0.0
 10
243.4444143631
 20
134.7018656344
 10
243.5154936929
 20
135.1323122537
 10
243.4658538511
 20
135.5851025088
 10
243.2979839865
 20
136.0375316056
 10
243.0203017952
 20
136.4669128599
 10
242.6467314216
 20
136.8517153028
 10
242.1960052443
 20
137.1726433329
 10
241.6907245558
 20
137.4136042788
 10
241.1562262397
 20
137.5625153524
 10
240.6193122734
 20
137.6119095308
 10
240.1069057653
 20
137.5593099835
 10
239.6447009171
 20
137.4073542715
 10
239.2558746101
 20
137.1636620888
 10
238.9599242188
 20
136.8404531789
 10
238.7716899316
 20
136.4539345862
  0
ELLIPSE
  5
179
330
1F
100
AcDbEntity
  8
0
  6
HIDDEN
 62
     7
370
     0
100
AcDbEllipse
 10
242.0581674981
 20
137.6322644438
 30
0.0
 11
0.9406553105117155
 21
2.766158975077417
 31
0.0
210
0.0
220
0.0
230
1.0
 40
0.8539059128
 41
5.186288196584659
 42
7.327234951271431
  0
LINE
  5
17A
330
1F
100
AcDbEntity
  8
0
  6
HIDDEN
 62
     7
370
     0
100
AcDbLine
 10
237.7249570208
 20
133.1562119895
 30
0.0
 11
238.7716899316
 21
136.4539345862
 31
0.0
  0
LINE
  5
17B
330
1F
100
AcDbEntity
  8
0
  6
HIDDEN
 62
     7
370
     0
100
AcDbLine
 10
161.6980854294
 20
126.0204626247
 30
0.0
 11
161.6980854294
 21
116.7430737294
 31
0.0
  0
LINE
  5
17C
330
1F
100
AcDbEntity
  8
0
  6
HIDDEN
 62
     7
370
     0
100
AcDbLine
 10
161.6980854294
 20
112.0647318729
 30
0.0
 11
161.6980854294
 21
102.7873429776
 31
0.0
  0
LINE
  5
17D
330
1F
100
AcDbEntity
  8
0
  6
HIDDEN
 62
     7
370
     0
100
AcDbLine
 10
163.1980854294
 20
111.2554256828
 30
0.0
 11
163.1980854294
 21
102.3543302757
 31
0.0
  0
LINE
  5
17E
330
1F
100
AcDbEntity
  8
0
  6
HIDDEN
 62
     7
370
     0
100
AcDbLine
 10
163.1980854294
 20
126.4534753266
 30
0.0
 11
163.1980854294
 21
117.5523799195
 31
0.0
  0
LINE
  5
17F
330
1F
100
AcDbEntity
  8
0
  6
HIDDEN
 62
     7
370
     0
100
AcDbLine
 10
189.4980854294
 20
126.7838490979
 30
0.0
 11
189.4980854294
 21
102.0239565044
 31
0.0
  0
LINE
  5
180
330
1F
100
AcDbEntity
  8
0
  6
HIDDEN
 62
     7
370
     0
100
AcDbLine
 10
191.4980854294
 20
125.9661770343
 30
0.0
 11
191.4980854294
 21
102.8416285681
 31
0.0
  0
SPLINE
  5
181
330
1F
100
AcDbEntity
  8
0
  6
HIDDEN
 62
     7
370
     0
100
AcDbSpline
210
0.0
220
0.0
230
1.0
 70
     8
 71
     3
 72
    26
 73
    22
 74
     0
 42
0.00000001
 43
0.00000001
 12
1.0
 22
0.0
 32
0.0
 13
1.0
 23
0.0
 33
0.0
 40
0.0
 40
0.0
 40
0.0
 40
0.0
 40
0.1250000000000002
 40
0.1250000000000002
 40
0.2500000000000004
 40
0.2500000000000004
 40
0.3750000000000007
 40
0.3750000000000007
 40
0.4375000000000008
 40
0.4375000000000008
 40
0.5000000000000009
 40
0.5000000000000009
 40
0.562500000000001
 40
0.562500000000001
 40
0.6250000000000011
 40
0.6250000000000011
 40
0.7500000000000008
 40
0.7500000000000008
 40
0.8750000000000004
 40
0.8750000000000004
 40
1.0
 40
1.0
 40
1.0
 40
1.0
 10
167.1980854294435
 20
111.1854050407068
 30
0.0
 10
167.4087287914434
 20
111.4200220716519
 30
0.0
 10
167.6159252292005
 20
111.6579052076113
 30
0.0
 10
168.0174243638328
 20
112.1452195138802
 30
0.0
 10
168.2127007828788
 20
112.3953447386692
 30
0.0
 10
168.5724812755742
 20
112.9139348841202
 30
0.0
 10
168.7377401357236
 20
113.181365868007
 30
0.0
 10
168.9303980451498
 20
113.6127810004055
 30
0.0
 10
168.9853627853598
 20
113.7627998823299
 30
0.0
 10
169.063098570324
 20
114.0755370610599
 30
0.0
 10
169.0843647086323
 20
114.2332913078671
 30
0.0
 10
169.086258637918
 20
114.5519965877129
 30
0.0
 10
169.066032900851
 20
114.7144333878935
 30
0.0
 10
168.9915684905652
 20
115.0253853874761
 30
0.0
 10
168.9379293648192
 20
115.1760566258038
 30
0.0
 10
168.7431850594186
 20
115.6181403837724
 30
0.0
 10
168.5761349462403
 20
115.8881843969401
 30
0.0
 10
168.2158788275367
 20
116.4082920252215
 30
0.0
 10
168.0211264525162
 20
116.6579532380312
 30
0.0
 10
167.618117228044
 20
117.147377349874
 30
0.0
 10
167.4096807096805
 20
117.3867232730379
 30
0.0
 10
167.1980854294444
 20
117.6224005616058
 30
0.0
  0
LINE
  5
182
330
1F
100
AcDbEntity
  8
0
  6
HIDDEN
 62
     7
370
     0
100
AcDbLine
 10
167.1980854294
 20
111.1854050407
 30
0.0
 11
167.1980854294
 21
117.6224005616
 31
0.0
  0
SPLINE
  5
183
330
1F
100
AcDbEntity
  8
0
  6
HIDDEN
 62
     7
370
     0
100
AcDbSpline
210
0.0
220
0.0
230
1.0
 70
     8
 71
     3
 72
     8
 73
     4
 74
     0
 42
0.00000001
 43
0.00000001
 12
1.0
 22
0.0
 32
0.0
 13
1.0
 23
0.0
 33
0.0
 40
0.0000202085968836
 40
0.0000202085968836
 40
0.0000202085968836
 40
0.0000202085968836
 40
0.0040218806502652
 40
0.0040218806502652
 40
0.0040218806502652
 40
0.0040218806502652
 10
163.1980854294435
 20
111.2554256828192
 30
0.0
 10
164.5314085552341
 20
111.2314274516555
 30
0.0
 10
165.8647424284567
 20
111.2080997114872
 30
0.0
 10
167.1980854294435
 20
111.1854050407068
 30
0.0
  0
SPLINE
  5
184
330
1F
100
AcDbEntity
  8
0
  6
HIDDEN
 62
     7
370
     0
100
AcDbSpline
210
0.0
220
0.0
230
1.0
 70
     8
 71
     3
 72
     8
 73
     4
 74
     0
 42
0.00000001
 43
0.00000001
 12
1.0
 22
0.0
 32
0.0
 13
1.0
 23
0.0
 33
0.0
 40
0.0000202082942178
 40
0.0000202082942178
 40
0.0000202082942178
 40
0.0000202082942178
 40
0.0040218803475994
 40
0.0040218803475994
 40
0.0040218803475994
 40
0.0040218803475994
 10
167.1980854294435
 20
117.622400561605
 30
0.0
 10
165.8647424284567
 20
117.5997058908246
 30
0.0
 10
164.5314085552341
 20
117.5763781506562
 30
0.0
 10
163.1980854294435
 20
117.5523799194926
 30
0.0
  0
SPLINE
  5
185
330
1F
100
AcDbEntity
  8
0
  6
HIDDEN
 62
     7
370
     0
100
AcDbSpline
210
0.0
220
0.0
230
1.0
 70
     8
 71
     3
 72
     8
 73
     4
 74
     0
 42
0.00000001
 43
0.00000001
 12
1.0
 22
0.0
 32
0.0
 13
1.0
 23
0.0
 33
0.0
 40
0.0
 40
0.0
 40
0.0
 40
0.0
 40
1.0
 40
1.0
 40
1.0
 40
1.0
 10
161.6980854294426
 20
112.0647318729215
 30
0.0
 10
162.1722968398805
 20
111.7300026456264
 30
0.0
 10
162.6770331869824
 20
111.4709442317935
 30
0.0
 10
163.1980854294435
 20
111.2554256828192
 30
0.0
  0
SPLINE
  5
186
330
1F
100
AcDbEntity
  8
0
  6
HIDDEN
 62
     7
370
     0
100
AcDbSpline
210
0.0
220
0.0
230
1.0
 70
     8
 71
     3
 72
     8
 73
     4
 74
     0
 42
0.00000001
 43
0.00000001
 12
1.0
 22
0.0
 32
0.0
 13
1.0
 23
0.0
 33
0.0
 40
0.0
 40
0.0
 40
0.0
 40
0.0
 40
1.0
 40
1.0
 40
1.0
 40
1.0
 10
163.1980854294435
 20
117.5523799194926
 30
0.0
 10
162.6770331869828
 20
117.3368613705184
 30
0.0
 10
162.1722968398812
 20
117.0778029566857
 30
0.0
 10
161.6980854294435
 20
116.7430737293909
 30
0.0
  0
LINE
  5
187
330
1F
100
AcDbEntity
  8
0
  6
HIDDEN
 62
     7
370
     0
100
AcDbLine
 10
161.6980854294
 20
112.0647318729
 30
0.0
 11
161.6980854294
 21
116.7430737294
 31
0.0
  0
SPLINE
  5
188
330
1F
100
AcDbEntity
  8
0
  6
HIDDEN
 62
     7
370
     0
100
AcDbSpline
210
0.0
220
0.0
230
1.0
 70
     8
 71
     3
 72
    68
 73
    64
 74
     0
 42
0.00000001
 43
0.00000001
 12
1.0
 22
0.0
 32
0.0
 13
1.0
 23
0.0
 33
0.0
 40
-0.03125
 40
-0.03125
 40
0.0
 40
0.0
 40
0.0312500000000001
 40
0.0312500000000001
 40
0.0625000000000002
 40
0.0625000000000002
 40
0.0937500000000003
 40
0.0937500000000003
 40
0.1250000000000004
 40
0.1250000000000004
 40
0.1562500000000004
 40
0.1562500000000004
 40
0.1875000000000006
 40
0.1875000000000006
 40
0.2500000000000005
 40
0.2500000000000005
 40
0.2812500000000005
 40
0.2812500000000005
 40
0.3125000000000004
 40
0.3125000000000004
 40
0.3437500000000004
 40
0.3437500000000004
 40
0.3750000000000004
 40
0.3750000000000004
 40
0.4062500000000004
 40
0.4062500000000004
 40
0.4375000000000004
 40
0.4375000000000004
 40
0.4687500000000003
 40
0.4687500000000003
 40
0.5000000000000003
 40
0.5000000000000003
 40
0.5312500000000003
 40
0.5312500000000003
 40
0.5625000000000003
 40
0.5625000000000003
 40
0.5937500000000002
 40
0.5937500000000002
 40
0.6250000000000002
 40
0.6250000000000002
 40
0.6562500000000002
 40
0.6562500000000002
 40
0.6875000000000002
 40
0.6875000000000002
 40
0.7187500000000002
 40
0.7187500000000002
 40
0.7500000000000001
 40
0.7500000000000001
 40
0.7812500000000001
 40
0.7812500000000001
 40
0.8125000000000001
 40
0.8125000000000001
 40
0.8437500000000001
 40
0.8437500000000001
 40
0.8750000000000001
 40
0.8750000000000001
 40
0.9062500000000001
 40
0.9062500000000001
 40
0.9375
 40
0.9375
 40
0.96875
 40
0.96875
 40
1.0
 40
1.0
 40
1.03125
 40
1.03125
 10
175.4178460941871
 20
116.6617904921476
 30
0.0
 10
175.75273361386
 20
116.9330317288945
 30
0.0
 10
175.9309998357957
 20
117.0506730217663
 30
0.0
 10
176.308024532689
 20
117.2520045457761
 30
0.0
 10
176.5082132540653
 20
117.3358127489897
 30
0.0
 10
176.9148812936963
 20
117.4639047725581
 30
0.0
 10
177.1227964597164
 20
117.5092095695182
 30
0.0
 10
177.5477847589398
 20
117.5623672808238
 30
0.0
 10
177.7638214099238
 20
117.5696494648593
 30
0.0
 10
178.1883323787753
 20
117.546102027322
 30
0.0
 10
178.3988593521651
 20
117.5155978248451
 30
0.0
 10
178.8163445629521
 20
117.4157382113778
 30
0.0
 10
179.0192080965305
 20
117.347142323617
 30
0.0
 10
179.6005246155453
 20
117.0898008803981
 30
0.0
 10
179.9609318683211
 20
116.8432509890882
 30
0.0
 10
180.4056708650827
 20
116.3900124330133
 30
0.0
 10
180.5408600852253
 20
116.2224318535369
 30
0.0
 10
180.7737999598275
 20
115.8635697786255
 30
0.0
 10
180.8704833054823
 20
115.6748112582714
 30
0.0
 10
181.0237145701317
 20
115.2782975820631
 30
0.0
 10
181.0803315274998
 20
115.0679531729762
 30
0.0
 10
181.1457837293347
 20
114.6465646446934
 30
0.0
 10
181.1557420879619
 20
114.4340485255297
 30
0.0
 10
181.1289080787948
 20
114.0052737504295
 30
0.0
 10
181.0918884150219
 20
113.7927075222825
 30
0.0
 10
180.9747251359852
 20
113.3834128782046
 30
0.0
 10
180.8931862584903
 20
113.1825642064969
 30
0.0
 10
180.6919470470863
 20
112.8054374479858
 30
0.0
 10
180.5730153119154
 20
112.6292171264562
 30
0.0
 10
180.2998414988232
 20
112.300461005474
 30
0.0
 10
180.145980724113
 20
112.1491628375745
 30
0.0
 10
179.8160581260971
 20
111.8815756840952
 30
0.0
 10
179.6377363010255
 20
111.7631045233844
 30
0.0
 10
179.259712301103
 20
111.5602177194496
 30
0.0
 10
179.0637833023219
 20
111.4775987650016
 30
0.0
 10
178.6586980144876
 20
111.3481585884708
 30
0.0
 10
178.4473632166176
 20
111.3011833580403
 30
0.0
 10
178.0234784269651
 20
111.2464684031221
 30
0.0
 10
177.8110431537029
 20
111.238238654679
 30
0.0
 10
177.3851910864079
 20
111.2597301524797
 30
0.0
 10
177.1700469229983
 20
111.2901277746981
 30
0.0
 10
176.7549173832579
 20
111.3878702315863
 30
0.0
 10
176.5532924175142
 20
111.4549887453352
 30
0.0
 10
176.1622059182431
 20
111.6266318454955
 30
0.0
 10
175.9723863093522
 20
111.7319779042801
 30
0.0
 10
175.6217956891805
 20
111.9726808459747
 30
0.0
 10
175.458789209534
 20
112.1088037223074
 30
0.0
 10
175.1587268868454
 20
112.4144571915415
 30
0.0
 10
175.0234579896411
 20
112.5829088710302
 30
0.0
 10
174.7925140368082
 20
112.9391895573137
 30
0.0
 10
174.6950318173359
 20
113.1289432367204
 30
0.0
 10
174.5400492579314
 20
113.5315515990047
 30
0.0
 10
174.4851827371143
 20
113.7373913426777
 30
0.0
 10
174.4197748664501
 20
114.1579709790001
 30
0.0
 10
174.4096286206171
 20
114.3754727962978
 30
0.0
 10
174.4362969831567
 20
114.8022129352584
 30
0.0
 10
174.4723343749831
 20
115.0121156443456
 30
0.0
 10
174.589745520551
 20
115.4250044650041
 30
0.0
 10
174.6708730551693
 20
115.625327409788
 30
0.0
 10
174.8706300993586
 20
116.0015659282531
 30
0.0
 10
174.9911325984847
 20
116.1810206735009
 30
0.0
 10
175.2652130438507
 20
116.5113686015906
 30
0.0
 10
175.4178460941871
 20
116.6617904921476
 30
0.0
 10
175.75273361386
 20
116.9330317288945
 30
0.0
  0
CIRCLE
  5
189
330
1F
100
AcDbEntity
  8
0
  6
HIDDEN
 62
     7
370
     0
100
AcDbCircle
 10
177.6980854294
 20
114.4039028012
 30
0.0
 40
3.050000000000011
  0
CIRCLE
  5
18A
330
1F
100
AcDbEntity
  8
0
  6
HIDDEN
 62
     7
370
     0
100
AcDbCircle
 10
203.6980854294
 20
114.4039028012
 30
0.0
 40
2.000000000000028
  0
SPLINE
  5
18B
330
1F
100
AcDbEntity
  8
0
  6
HIDDEN
 62
     7
370
     0
100
AcDbSpline
210
0.0
220
0.0
230
1.0
 70
     8
 71
     3
 72
     9
 73
     5
 74
     0
 42
0.00000001
 43
0.00000001
 12
1.0
 22
0.0
 32
0.0
 13
1.0
 23
0.0
 33
0.0
 40
0.0
 40
0.0
 40
0.0
 40
0.0
 40
0.5023839216244559
 40
1.0
 40
1.0
 40
1.0
 40
1.0
 10
246.5030236942952
 20
135.9972261816533
 30
0.0
 10
246.5708965758603
 20
135.8797119387547
 30
0.0
 10
246.7059981956449
 20
135.6457987145444
 30
0.0
 10
246.8391190927862
 20
135.4107526284286
 30
0.0
 10
246.9053621915715
 20
135.2937899168181
 30
0.0
  0
LINE
  5
18C
330
1F
100
AcDbEntity
  8
0
  6
HIDDEN
 62
     7
370
     0
100
AcDbLine
 10
246.9053631473
 20
135.2937898227
 30
0.0
 11
244.8482305259
 21
114.4039028012
 31
0.0
  0
LINE
  5
18D
330
1F
100
AcDbEntity
  8
0
  6
HIDDEN
 62
     7
370
     0
100
AcDbLine
 10
212.6980854294
 20
124.3343386775
 30
0.0
 11
212.6980854294
 21
128.0198786765
 31
0.0
  0
LINE
  5
18E
330
1F
100
AcDbEntity
  8
0
  6
HIDDEN
 62
     7
370
     0
100
AcDbLine
 10
206.6980854294
 20
128.0192935318
 30
0.0
 11
206.6980854294
 21
124.2074054314
 31
0.0
  0
LINE
  5
18F
330
1F
100
AcDbEntity
  8
0
  6
HIDDEN
 62
     7
370
     0
100
AcDbLine
 10
191.6980854294
 20
94.8539028012
 30
0.0
 11
191.7909786483
 21
94.94679602
 31
0.0
  0
LINE
  5
190
330
1F
100
AcDbEntity
  8
0
  6
HIDDEN
 62
     7
370
     0
100
AcDbLine
 10
191.7909786483
 20
133.8610095823
 30
0.0
 11
191.6980854294
 21
133.9539028012
 31
0.0
  0
ARC
  5
191
330
1F
100
AcDbEntity
  8
0
  6
HIDDEN
 62
     7
370
     0
100
AcDbCircle
 10
191.0838718671
 20
95.6539028012
 30
0.0
 40
1.000000000000008
100
AcDbArc
 50
315.0
 51
0.0
  0
ARC
  5
192
330
1F
100
AcDbEntity
  8
0
  6
HIDDEN
 62
     7
370
     0
100
AcDbCircle
 10
191.0838718671
 20
95.6539028012
 30
0.0
 40
1.0
100
AcDbArc
 50
0.0
 51
52.1052014664
  0
ARC
  5
193
330
1F
100
AcDbEntity
  8
0
  6
HIDDEN
 62
     7
370
     0
100
AcDbCircle
 10
191.0838718671
 20
133.1539028012
 30
0.0
 40
1.000000000000008
100
AcDbArc
 50
351.8087250651
 51
45.0
  0
ARC
  5
194
330
1F
100
AcDbEntity
  8
0
  6
HIDDEN
 62
     7
370
     0
100
AcDbCircle
 10
191.0838718671
 20
133.1539028012
 30
0.0
 40
1.000000000000002
100
AcDbArc
 50
307.8947985336
 51
351.8087250651
  0
LINE
  5
195
330
1F
100
AcDbEntity
  8
0
  6
HIDDEN
 62
     7
370
     0
100
AcDbLine
 10
192.0838718671
 20
95.6539028012
 30
0.0
 11
192.0838718671
 21
133.1539028012
 31
0.0
  0
LINE
  5
196
330
1F
100
AcDbEntity
  8
0
  6
HIDDEN
 62
     7
370
     0
100
AcDbLine
 10
192.0838718671
 20
95.6539028012
 30
0.0
 11
192.0838718671
 21
133.1539028012
 31
0.0
  0
LINE
  5
197
330
1F
100
AcDbEntity
  8
0
  6
HIDDEN
 62
     7
370
     0
100
AcDbLine
 10
212.1980854294
 20
118.3510266417
 30
0.0
 11
212.1980854294
 21
122.2155732923
 31
0.0
  0
LINE
  5
198
330
1F
100
AcDbEntity
  8
0
  6
HIDDEN
 62
     7
370
     0
100
AcDbLine
 10
207.1980854294
 20
124.0437793576
 30
0.0
 11
207.1980854294
 21
118.3508493775
 31
0.0
  0
LINE
  5
199
330
1F
100
AcDbEntity
  8
0
  6
HIDDEN
 62
     7
370
     0
100
AcDbLine
 10
211.9314754294
 20
121.7161892904
 30
0.0
 11
217.0702768527
 21
125.0033336731
 31
0.0
  0
LINE
  5
19A
330
1F
100
AcDbEntity
  8
0
  6
HIDDEN
 62
     7
370
     0
100
AcDbLine
 10
217.1108684013
 20
130.9647422973
 30
0.0
 11
209.3217509162
 21
125.9822664867
 31
0.0
  0
LINE
  5
19B
330
1F
100
AcDbEntity
  8
0
  6
HIDDEN
 62
     7
370
     0
100
AcDbLine
 10
208.2118867888
 20
125.0254831748
 30
0.0
 11
208.2131025816
 21
125.0097851291
 31
0.0
  0
LINE
  5
19C
330
1F
100
AcDbEntity
  8
0
  6
HIDDEN
 62
     7
370
     0
100
AcDbLine
 10
168.1980854294
 20
102.4039028012
 30
0.0
 11
169.2048049415
 21
102.4039028012
 31
0.0
  0
LINE
  5
19D
330
1F
100
AcDbEntity
  8
0
  6
HIDDEN
 62
     7
370
     0
100
AcDbLine
 10
169.2048049415
 20
126.4039028012
 30
0.0
 11
168.1980854294
 21
126.4039028012
 31
0.0
  0
ARC
  5
19E
330
1F
100
AcDbEntity
  8
0
  6
HIDDEN
 62
     7
370
     0
100
AcDbCircle
 10
168.1980854294
 20
103.9039028012
 30
0.0
 40
1.500000000000014
100
AcDbArc
 50
191.0958032831
 51
270.0
  0
ARC
  5
19F
330
1F
100
AcDbEntity
  8
0
  6
HIDDEN
 62
     7
370
     0
100
AcDbCircle
 10
168.1980854294
 20
124.9039028012
 30
0.0
 40
1.5
100
AcDbArc
 50
90.0
 51
168.9041967169
  0
ARC
  5
1A0
330
1F
100
AcDbEntity
  8
0
  6
HIDDEN
 62
     7
370
     0
100
AcDbCircle
 10
169.2048049415
 20
103.9039028012
 30
0.0
 40
1.500000000000032
100
AcDbArc
 50
270.0
 51
315.0
  0
ARC
  5
1A1
330
1F
100
AcDbEntity
  8
0
  6
HIDDEN
 62
     7
370
     0
100
AcDbCircle
 10
169.2048049415
 20
124.9039028012
 30
0.0
 40
1.500000000000022
100
AcDbArc
 50
45.0
 51
90.0
  0
LINE
  5
1A2
330
1F
100
AcDbEntity
  8
0
  6
HIDDEN
 62
     7
370
     0
100
AcDbLine
 10
161.6980854294
 20
102.6404907327
 30
0.0
 11
162.7261252851
 21
103.2340298201
 31
0.0
  0
LINE
  5
1A3
330
1F
100
AcDbEntity
  8
0
  6
HIDDEN
 62
     7
370
     0
100
AcDbLine
 10
162.7261252851
 20
125.5737757822
 30
0.0
 11
161.6980854294
 21
126.1673148696
 31
0.0
  0
LINE
  5
1A4
330
1F
100
AcDbEntity
  8
0
  6
HIDDEN
 62
     7
370
     0
100
AcDbLine
 10
170.2654651133
 20
102.8432426294
 30
0.0
 11
171.3261252851
 21
103.9039028012
 31
0.0
  0
LINE
  5
1A5
330
1F
100
AcDbEntity
  8
0
  6
HIDDEN
 62
     7
370
     0
100
AcDbLine
 10
171.3261252851
 20
124.9039028012
 30
0.0
 11
170.2654651133
 21
125.9645629729
 31
0.0
  0
LINE
  5
1A6
330
1F
100
AcDbEntity
  8
0
  6
HIDDEN
 62
     7
370
     0
100
AcDbLine
 10
162.7261252851
 20
103.2340298201
 30
0.0
 11
165.2261252851
 21
103.9039028012
 31
0.0
  0
LINE
  5
1A7
330
1F
100
AcDbEntity
  8
0
  6
HIDDEN
 62
     7
370
     0
100
AcDbLine
 10
165.2261252851
 20
124.9039028012
 30
0.0
 11
162.7261252851
 21
125.5737757822
 31
0.0
  0
LINE
  5
1A8
330
1F
100
AcDbEntity
  8
0
  6
HIDDEN
 62
     7
370
     0
100
AcDbLine
 10
166.7261252851
 20
125.1925779358
 30
0.0
 11
166.2261252851
 21
124.9039028012
 31
0.0
  0
LINE
  5
1A9
330
1F
100
AcDbEntity
  8
0
  6
HIDDEN
 62
     7
370
     0
100
AcDbLine
 10
166.2261252851
 20
103.9039028012
 30
0.0
 11
166.7261252851
 21
103.6152276666
 31
0.0
  0
LINE
  5
1AA
330
1F
100
AcDbEntity
  8
0
  6
HIDDEN
 62
     7
370
     0
100
AcDbLine
 10
165.2261252851
 20
103.9039028012
 30
0.0
 11
166.2261252851
 21
103.9039028012
 31
0.0
  0
LINE
  5
1AB
330
1F
100
AcDbEntity
  8
0
  6
HIDDEN
 62
     7
370
     0
100
AcDbLine
 10
166.2261252851
 20
124.9039028012
 30
0.0
 11
165.2261252851
 21
124.9039028012
 31
0.0
  0
LINE
  5
1AC
330
1F
100
AcDbEntity
  8
0
  6
HIDDEN
 62
     7
370
     0
100
AcDbLine
 10
171.3261252851
 20
103.9039028012
 30
0.0
 11
181.1980854294
 21
103.9039028012
 31
0.0
  0
LINE
  5
1AD
330
1F
100
AcDbEntity
  8
0
  6
HIDDEN
 62
     7
370
     0
100
AcDbLine
 10
181.1980854294
 20
124.9039028012
 30
0.0
 11
171.3261252851
 21
124.9039028012
 31
0.0
  0
ARC
  5
1AE
330
1F
100
AcDbEntity
  8
0
  6
HIDDEN
 62
     7
370
     0
100
AcDbCircle
 10
181.1980854294
 20
104.4039028012
 30
0.0
 40
0.5
100
AcDbArc
 50
270.0
 51
0.0
  0
ARC
  5
1AF
330
1F
100
AcDbEntity
  8
0
  6
HIDDEN
 62
     7
370
     0
100
AcDbCircle
 10
181.1980854294
 20
124.4039028012
 30
0.0
 40
0.5
100
AcDbArc
 50
0.0
 51
90.0
  0
LINE
  5
1B0
330
1F
100
AcDbEntity
  8
0
  6
HIDDEN
 62
     7
370
     0
100
AcDbLine
 10
181.6980854294
 20
106.1539028012
 30
0.0
 11
182.6980854294
 21
107.1539028012
 31
0.0
  0
LINE
  5
1B1
330
1F
100
AcDbEntity
  8
0
  6
HIDDEN
 62
     7
370
     0
100
AcDbLine
 10
182.6980854294
 20
121.6539028012
 30
0.0
 11
181.6980854294
 21
122.6539028012
 31
0.0
  0
LINE
  5
1B2
330
1F
100
AcDbEntity
  8
0
  6
HIDDEN
 62
     7
370
     0
100
AcDbLine
 10
215.6980854294
 20
121.6539028012
 30
0.0
 11
182.6980854294
 21
121.6539028012
 31
0.0
  0
LINE
  5
1B3
330
1F
100
AcDbEntity
  8
0
  6
HIDDEN
 62
     7
370
     0
100
AcDbLine
 10
182.6980854294
 20
107.1539028012
 30
0.0
 11
215.6980854294
 21
107.1539028012
 31
0.0
  0
LINE
  5
1B4
330
1F
100
AcDbEntity
  8
0
  6
HIDDEN
 62
     7
370
     0
100
AcDbLine
 10
215.6980854294
 20
107.1539028012
 30
0.0
 11
220.0543249174
 21
114.4039028012
 31
0.0
  0
LINE
  5
1B5
330
1F
100
AcDbEntity
  8
0
  6
HIDDEN
 62
     7
370
     0
100
AcDbLine
 10
220.0543249174
 20
114.4039028012
 30
0.0
 11
215.6980854294
 21
121.6539028012
 31
0.0
  0
LINE
  5
1B6
330
1F
100
AcDbEntity
  8
0
  6
HIDDEN
 62
     7
370
     0
100
AcDbLine
 10
237.8414321488
 20
133.0089435258
 30
0.0
 11
237.4150189901
 21
132.584866303
 31
0.0
  0
LINE
  5
1B7
330
1F
100
AcDbEntity
  8
0
  6
HIDDEN
 62
     7
370
     0
100
AcDbLine
 10
242.3511529858
 20
127.6215427012
 30
0.0
 11
242.7775661445
 21
128.045619924
 31
0.0
  0
LINE
  5
1B8
330
1F
100
AcDbEntity
  8
0
  6
HIDDEN
 62
     7
370
     0
100
AcDbLine
 10
235.4758546827
 20
139.62641881
 30
0.0
 11
234.9845709053
 21
139.1378263366
 31
0.0
  0
LINE
  5
1B9
330
1F
100
AcDbEntity
  8
0
  6
HIDDEN
 62
     7
370
     0
100
AcDbLine
 10
242.7378484188
 20
131.7642040571
 30
0.0
 11
244.5878976881
 21
135.7644291149
 31
0.0
  0
LINE
  5
1BA
330
1F
100
AcDbEntity
  8
0
  6
HIDDEN
 62
     7
370
     0
100
AcDbLine
 10
236.8774406645
 20
133.0374745816
 30
0.0
 11
234.4015030571
 21
130.5751004195
 31
0.0
  0
LINE
  5
1BB
330
1F
100
AcDbEntity
  8
0
  6
HIDDEN
 62
     7
370
     0
100
AcDbLine
 10
240.324863852
 20
124.6191120974
 30
0.0
 11
242.8008014594
 21
127.0814862595
 31
0.0
  0
LINE
  5
1BC
330
1F
100
AcDbEntity
  8
0
  6
HIDDEN
 62
     7
370
     0
100
AcDbLine
 10
235.1391918315
 20
139.2084872094
 30
0.0
 11
234.8318781496
 21
138.902857024
 31
0.0
  0
LINE
  5
1BD
330
1F
100
AcDbEntity
  8
0
  6
HIDDEN
 62
     7
370
     0
100
AcDbLine
 10
241.6605229922
 20
143.9683261167
 30
0.0
 11
241.0751635979
 21
143.3861733825
 31
0.0
  0
LINE
  5
1BE
330
1F
100
AcDbEntity
  8
0
  6
HIDDEN
 62
     7
370
     0
100
AcDbLine
 10
245.588200394
 20
138.848277518
 30
0.0
 11
246.1735597883
 21
139.4304302523
 31
0.0
  0
LINE
  5
1BF
330
1F
100
AcDbEntity
  8
0
  6
HIDDEN
 62
     7
370
     0
100
AcDbLine
 10
240.5633015582
 20
140.3557073513
 30
0.0
 11
238.8389726979
 21
136.6273182597
 31
0.0
  0
LINE
  5
1C0
330
1F
100
AcDbEntity
  8
VERMASSUNG
  6
CENTERX2
100
AcDbLine
 10
159.2176428805
 20
114.4039028012
 30
0.0
 11
251.6980854294
 21
114.4039028012
 31
0.0
  0
LINE
  5
1C1
330
1F
100
AcDbEntity
  8
VERMASSUNG
  6
CENTERX2
100
AcDbLine
 10
251.6980854294
 20
149.4039028012
 30
0.0
 11
251.6980854294
 21
114.4039028012
 31
0.0
  0
LINE
  5
1C2
330
1F
100
AcDbEntity
  8
VERMASSUNG
  6
CENTERX2
100
AcDbLine
 10
251.6980854294
 20
149.4039028012
 30
0.0
 11
264.3459979814
 21
149.4039028012
 31
0.0
  0
DIMENSION
  5
1C3
330
1F
100
AcDbEntity
  8
VERMASSUNG
100
AcDbDimension
  2
_D
 10
251.6980854294
 20
166.6020079735
 30
0.0
 11
206.6980854294
 21
166.6020079735
 31
0.0
 70
   160
  1
<>
 71
     2
 42
-1.0
  3
SLDDIMSTYLE0
100
AcDbAlignedDimension
 13
161.6980854294
 23
130.3972286393
 33
0.0
 14
251.6980854294
 24
149.4039028012
 34
0.0
100
AcDbRotatedDimension
  0
DIMENSION
  5
1CE
330
1F
100
AcDbEntity
  8
VERMASSUNG
100
AcDbDimension
  2
_D_1
 10
191.6980854294
 20
158.6150900647
 30
0.0
 11
221.6980854294
 21
158.6150900647
 31
0.0
 70
   160
  1
<>
 71
     2
 42
-1.0
  3
SLDDIMSTYLE1
100
AcDbAlignedDimension
 13
251.6980854294
 23
149.4039028012
 33
0.0
 14
191.6980854294
 24
139.1039028012
 34
0.0
100
AcDbRotatedDimension
  0
DIMENSION
  5
1DB
330
1F
100
AcDbEntity
  8
VERMASSUNG
100
AcDbDimension
  2
_D_2
 10
268.9849761018
 20
114.4039028012
 30
0.0
 11
268.9849761018
 21
131.9039028012
 31
0.0
 70
   160
  1
<>
 71
     2
 42
-1.0
  3
SLDDIMSTYLE1
100
AcDbAlignedDimension
 13
251.6980854294
 23
149.4039028012
 33
0.0
 14
251.6980854294
 24
114.4039028012
 34
0.0
 50
90.0
100
AcDbRotatedDimension
  0
DIMENSION
  5
1E7
330
1F
100
AcDbEntity
  8
VERMASSUNG
100
AcDbDimension
  2
_D_3
 10
264.3459979814
 20
149.4039028012
 30
0.0
 11
259.1807989303
 21
141.2773706051
 31
0.0
 70
   162
  1
<>
 71
     1
 42
-1.0
  3
SLDDIMSTYLE2
100
AcDb2LineAngularDimension
 13
250.6491878292
 23
137.0069000112
 33
0.0
 14
251.696571647
 24
148.9670448692
 34
0.0
 15
251.6980854294
 25
149.4039028012
 35
0.0
 16
259.1807989303
 26
141.2773706051
 36
0.0
  0
DIMENSION
  5
1F0
330
1F
100
AcDbEntity
  8
VERMASSUNG
100
AcDbDimension
  2
_D_4
 10
154.8541434414
 20
89.4039028012
 30
0.0
 11
154.8541434414
 21
114.4039028012
 31
0.0
 70
   160
  1
PSC%%c<>
 71
     2
 42
-1.0
  3
SLDDIMSTYLE0
100
AcDbAlignedDimension
 13
191.9980854294
 23
139.4039028012
 33
0.0
 14
191.9980854294
 24
89.4039028012
 34
0.0
 50
90.0
100
AcDbRotatedDimension
  0
LINE
  5
1FC
330
1F
100
AcDbEntity
  8
0
  6
Continuous
 62
     7
370
    15
100
AcDbLine
 10
69.0370560765
 20
126.1242397748
 30
0.0
 11
69.0411892861
 21
126.2030985825
 31
0.0
  0
LINE
  5
1FD
330
1F
100
AcDbEntity
  8
0
  6
Continuous
 62
     7
370
    15
100
AcDbLine
 10
69.0419473827
 20
126.2175750606
 30
0.0
 11
69.0667699233
 21
126.6912094005
 31
0.0
  0
LINE
  5
1FE
330
1F
100
AcDbEntity
  8
0
  6
Continuous
 62
     7
370
    15
100
AcDbLine
 10
80.2043676518
 20
134.2262041442
 30
0.0
 11
79.9828982122
 21
134.0448253475
 31
0.0
  0
LINE
  5
1FF
330
1F
100
AcDbEntity
  8
0
  6
Continuous
 62
     7
370
    15
100
AcDbLine
 10
79.2552516937
 20
127.121731887
 30
0.0
 11
79.4341711003
 21
126.8982722111
 31
0.0
  0
LINE
  5
200
330
1F
100
AcDbEntity
  8
0
  6
Continuous
 62
     7
370
    15
100
AcDbLine
 10
87.1965577967
 20
148.9090502881
 30
0.0
 11
82.4885665275
 21
149.4038805984
 31
0.0
  0
LINE
  5
201
330
1F
100
AcDbEntity
  8
0
  6
Continuous
 62
     7
370
    15
100
AcDbLine
 10
81.5926315404
 20
147.2352736317
 30
0.0
 11
81.1677645102
 21
146.6385044776
 31
0.0
  0
SPLINE
  5
202
330
1F
100
AcDbEntity
  8
0
  6
Continuous
 62
     7
370
    15
100
AcDbSpline
210
0.0
220
0.0
230
1.0
 70
     8
 71
     3
 72
     9
 73
     5
 74
     0
 42
0.00000001
 43
0.00000001
 12
1.0
 22
0.0
 32
0.0
 13
1.0
 23
0.0
 33
0.0
 40
0.0
 40
0.0
 40
0.0
 40
0.0
 40
0.2298284095122178
 40
1.0
 40
1.0
 40
1.0
 40
1.0
 10
81.70177451352754
 20
147.4487141393421
 30
0.0
 10
81.70182275327886
 20
147.4507798697367
 30
0.0
 10
81.70203264791907
 20
147.4597680117988
 30
0.0
 10
81.69797429958497
 20
147.4355701745818
 30
0.0
 10
81.69484867499375
 20
147.416933687806
 30
0.0
  0
LINE
  5
203
330
1F
100
AcDbEntity
  8
0
  6
Continuous
 62
     7
370
    15
100
AcDbLine
 10
80.1967191651
 20
137.9890360557
 30
0.0
 11
80.5003999408
 21
137.2889068596
 31
0.0
  0
SPLINE
  5
204
330
1F
100
AcDbEntity
  8
0
  6
Continuous
 62
     7
370
    15
100
AcDbSpline
210
0.0
220
0.0
230
1.0
 70
     8
 71
     3
 72
    13
 73
     9
 74
     0
 42
0.00000001
 43
0.00000001
 12
1.0
 22
0.0
 32
0.0
 13
1.0
 23
0.0
 33
0.0
 40
0.0
 40
0.0
 40
0.0
 40
0.0
 40
0.1198484257153165
 40
0.3249904606058402
 40
0.4999813183673389
 40
0.6625092526515703
 40
0.8628092223617214
 40
0.9999999999999999
 40
0.9999999999999999
 40
0.9999999999999999
 40
0.9999999999999999
 10
80.51161050348708
 20
137.2933697574137
 30
0.0
 10
80.52659425964596
 20
137.2627638309528
 30
0.0
 10
80.56722539673949
 20
137.1797703825331
 30
0.0
 10
80.57857279513074
 20
137.0460690209406
 30
0.0
 10
80.57054322861416
 20
136.9309591254447
 30
0.0
 10
80.55462416150402
 20
136.863185229123
 30
0.0
 10
80.54393017030267
 20
136.8331173216129
 30
0.0
 10
80.54538527051447
 20
136.836711690998
 30
0.0
 10
80.54597677215168
 20
136.8381728105543
 30
0.0
  0
LINE
  5
205
330
1F
100
AcDbEntity
  8
0
  6
Continuous
 62
     7
370
    15
100
AcDbLine
 10
79.6757282365
 20
135.7322570555
 30
0.0
 11
79.9742657833
 21
135.700880798
 31
0.0
  0
LINE
  5
206
330
1F
100
AcDbEntity
  8
0
  6
Continuous
 62
     7
370
    15
100
AcDbLine
 10
89.8371795334
 20
147.9295895122
 30
0.0
 11
87.1626194708
 21
148.2106961929
 31
0.0
  0
LINE
  5
207
330
1F
100
AcDbEntity
  8
0
  6
Continuous
 62
     7
370
    15
100
AcDbLine
 10
90.1097860329
 20
147.595386269
 30
0.0
 11
89.8475265272
 21
147.9229324185
 31
0.0
  0
LWPOLYLINE
  5
208
330
1F
100
AcDbEntity
  8
0
  6
Continuous
 62
     7
370
    15
100
AcDbPolyline
 90
        5
 70
   128
 43
0.0
 10
69.0157408968
 20
126.6422404595
 10
68.9533190012
 20
126.5461186566
 10
68.8009481087
 20
126.3114886977
 10
68.5926363945
 20
125.9907169886
 10
68.5475529313
 20
125.9212943413
  0
LWPOLYLINE
  5
209
330
1F
100
AcDbEntity
  8
0
  6
Continuous
 62
     7
370
    15
100
AcDbPolyline
 90
        5
 70
   128
 43
0.0
 10
69.0370560765
 20
126.1242397748
 10
69.0110097781
 20
126.0841314368
 10
68.9190472618
 20
125.9425219767
 10
68.7652616903
 20
125.705712723
 10
68.7306127652
 20
125.652358184
  0
SPLINE
  5
20A
330
1F
100
AcDbEntity
  8
0
  6
Continuous
 62
     7
370
    15
100
AcDbSpline
210
0.0
220
0.0
230
1.0
 70
     8
 71
     3
 72
    25
 73
    21
 74
     0
 42
0.00000001
 43
0.00000001
 12
1.0
 22
0.0
 32
0.0
 13
1.0
 23
0.0
 33
0.0
 40
0.0
 40
0.0
 40
0.0
 40
0.0
 40
0.0251681869211124
 40
0.0503179529940581
 40
0.075455928611179
 40
0.1005887534962839
 40
0.1257230714551818
 40
0.1885186570104904
 40
0.2512870151622302
 40
0.3139934553866722
 40
0.3766666075645206
 40
0.5018080228611397
 40
0.6267156091364594
 40
0.6890729744833781
 40
0.751400485217442
 40
0.813629333184553
 40
0.8758274970127014
 40
0.9172331324957972
 40
0.9586133247935144
 40
1.0
 40
1.0
 40
1.0
 40
1.0
 10
108.0306090877127
 20
135.2937905877432
 30
0.0
 10
107.9175345299986
 20
135.4376433614356
 30
0.0
 10
107.6914681749722
 20
135.7252436215342
 30
0.0
 10
107.3435817346543
 20
136.1493994502261
 30
0.0
 10
106.9894631824989
 20
136.567990410461
 30
0.0
 10
106.6284679759073
 20
136.9805162252676
 30
0.0
 10
106.0771819199127
 20
137.5901189461293
 30
0.0
 10
105.3191437820255
 20
138.3814067516385
 30
0.0
 10
104.3322780054604
 20
139.3301546908662
 30
0.0
 10
103.3078388607883
 20
140.2370039236326
 30
0.0
 10
101.895124424721
 20
141.3872077469462
 30
0.0
 10
100.0441765236406
 20
142.7127203369499
 30
0.0
 10
98.09118051147503
 20
143.8797047820485
 30
0.0
 10
96.47688492395764
 20
144.7125476205993
 30
0.0
 10
95.2426872487912
 20
145.2855682058838
 30
0.0
 10
93.98645998958496
 20
145.8063669246242
 30
0.0
 10
92.8523062469463
 20
146.2221478570646
 30
0.0
 10
91.84849275889167
 20
146.550433475104
 30
0.0
 10
90.98149084711832
 20
146.8092644776214
 30
0.0
 10
90.3977650605902
 20
146.9612649006139
 30
0.0
 10
90.10587930648138
 20
147.0372710650048
 30
0.0
  0
SPLINE
  5
20B
330
1F
100
AcDbEntity
  8
0
  6
Continuous
 62
     7
370
    15
100
AcDbSpline
210
0.0
220
0.0
230
1.0
 70
     8
 71
     3
 72
    25
 73
    21
 74
     0
 42
0.00000001
 43
0.00000001
 12
1.0
 22
0.0
 32
0.0
 13
1.0
 23
0.0
 33
0.0
 40
0.0
 40
0.0
 40
0.0
 40
0.0
 40
0.0245912628407764
 40
0.0493074611676801
 40
0.074148779569157
 40
0.0991153998578211
 40
0.1242075011219035
 40
0.185974907797227
 40
0.248655605033923
 40
0.3104677900726121
 40
0.3733504004007368
 40
0.4982587590561523
 40
0.6233923314069009
 40
0.6851661819010797
 40
0.7487564780536992
 40
0.8104040977933242
 40
0.8743007499927001
 40
0.9149054517091264
 40
0.9568051658800987
 40
1.0
 40
1.0
 40
1.0
 40
1.0
 10
90.10665207372189
 20
147.5242943378255
 30
0.0
 10
90.27922954966112
 20
147.4803593251557
 30
0.0
 10
90.6252612784254
 20
147.3922660887433
 30
0.0
 10
91.14271437423672
 20
147.2490745879687
 30
0.0
 10
91.66046018438232
 20
147.0972867189286
 30
0.0
 10
92.17813128880678
 20
146.9360480673735
 30
0.0
 10
92.94684820603273
 20
146.682683527034
 30
0.0
 10
93.96475667610122
 20
146.3145259918054
 30
0.0
 10
95.21241212623708
 20
145.8046381620782
 30
0.0
 10
96.44524706413281
 20
145.2410070378125
 30
0.0
 10
98.05506745415276
 20
144.4240570096783
 30
0.0
 10
100.0079470284186
 20
143.2774074090709
 30
0.0
 10
101.8541441938859
 20
141.9810289069312
 30
0.0
 10
103.2701245205346
 20
140.8531425282115
 30
0.0
 10
104.2923513374081
 20
139.969058464981
 30
0.0
 10
105.2891582511299
 20
139.0340377846146
 30
0.0
 10
106.1311771151002
 20
138.178097683283
 30
0.0
 10
106.8468630444777
 20
137.3992655236644
 30
0.0
 10
107.4448547685434
 20
136.7156159607871
 30
0.0
 10
107.8333876068573
 20
136.2391091336203
 30
0.0
 10
108.0306107173642
 20
135.9972295564926
 30
0.0
  0
SPLINE
  5
20C
330
1F
100
AcDbEntity
  8
0
  6
Continuous
 62
     7
370
    15
100
AcDbSpline
210
0.0
220
0.0
230
1.0
 70
    24
 71
     3
 72
     9
 73
     5
 74
     0
 42
0.00000001
 43
0.00000001
 12
1.0
 22
0.0
 32
0.0
 13
1.0
 23
0.0
 33
0.0
 40
0.0
 40
0.0
 40
0.0
 40
0.0
 40
0.5023839216244559
 40
1.0
 40
1.0
 40
1.0
 40
1.0
 10
108.0306107431574
 20
135.9972261816533
 30
0.0
 10
108.0306107431574
 20
135.8797119387547
 30
0.0
 10
108.0306107431574
 20
135.6457987145444
 30
0.0
 10
108.0306107431574
 20
135.4107526284286
 30
0.0
 10
108.0306107431574
 20
135.2937899168181
 30
0.0
  0
ARC
  5
20D
330
1F
100
AcDbEntity
  8
0
  6
Continuous
 62
     7
370
    15
100
AcDbCircle
 10
82.5306107432
 20
114.4039028012
 30
0.0
 40
25.50000000000003
100
AcDbArc
 50
356.7695854632
 51
0.0
  0
LINE
  5
20E
330
1F
100
AcDbEntity
  8
0
  6
Continuous
 62
     7
370
    15
100
AcDbLine
 10
78.9117836535
 20
116.0231927796
 30
0.0
 11
107.9900902837
 21
112.966939473
 31
0.0
  0
LINE
  5
20F
330
1F
100
AcDbEntity
  8
0
  6
Continuous
 62
     7
370
    15
100
AcDbLine
 10
81.2611044526
 20
136.5665395432
 30
0.0
 11
78.9117836535
 21
116.0231927796
 31
0.0
  0
LINE
  5
210
330
1F
100
AcDbEntity
  8
0
  6
Continuous
 62
     7
370
    15
100
AcDbLine
 10
81.2611044526
 20
136.5665395432
 30
0.0
 11
85.909751258
 21
136.0779472314
 31
0.0
  0
LINE
  5
211
330
1F
100
AcDbEntity
  8
0
  6
Continuous
 62
     7
370
    15
100
AcDbLine
 10
85.909751258
 20
136.0779472314
 30
0.0
 11
85.9672199145
 21
136.5804739915
 31
0.0
  0
LINE
  5
212
330
1F
100
AcDbEntity
  8
0
  6
Continuous
 62
     7
370
    15
100
AcDbLine
 10
85.9672199145
 20
136.5804739915
 30
0.0
 11
88.8750967711
 21
136.2748437248
 31
0.0
  0
LINE
  5
213
330
1F
100
AcDbEntity
  8
0
  6
Continuous
 62
     7
370
    15
100
AcDbLine
 10
88.9340965219
 20
136.7907573156
 30
0.0
 11
88.8750967711
 21
136.2748437248
 31
0.0
  0
LINE
  5
214
330
1F
100
AcDbEntity
  8
0
  6
Continuous
 62
     7
370
    15
100
AcDbLine
 10
108.0306102663
 20
135.2937903874
 30
0.0
 11
108.0306102663
 21
114.4039028012
 31
0.0
  0
ARC
  5
215
330
1F
100
AcDbEntity
  8
0
  6
Continuous
 62
     7
370
    15
100
AcDbCircle
 10
99.3900846184
 20
135.9235141856
 30
0.0
 40
19.65281992763377
100
AcDbArc
 50
169.7193691092
 51
177.2327328506
  0
LWPOLYLINE
  5
216
330
1F
100
AcDbEntity
  8
0
  6
Continuous
 62
     7
370
    15
100
AcDbPolyline
 90
        3
 70
   128
 43
0.0
 10
79.7884490017
 20
135.7204106324
 10
79.8115646608
 20
135.6547821932
 10
79.8684375036
 20
135.6296886377
  0
LINE
  5
217
330
1F
100
AcDbEntity
  8
0
  6
Continuous
 62
     7
370
    15
100
AcDbLine
 10
78.9117836535
 20
116.0231927796
 30
0.0
 11
74.2851789251
 21
90.2737800651
 31
0.0
  0
ARC
  5
218
330
1F
100
AcDbEntity
  8
0
  6
Continuous
 62
     7
370
    15
100
AcDbCircle
 10
82.5306107432
 20
114.4039028012
 30
0.0
 40
25.50000000000001
100
AcDbArc
 50
249.9646226785
 51
251.1343431058
  0
SPLINE
  5
219
330
1F
100
AcDbEntity
  8
0
  6
Continuous
 62
     7
370
    15
100
AcDbSpline
210
0.0
220
0.0
230
1.0
 70
     8
 71
     3
 72
    10
 73
     6
 74
     0
 42
0.00000001
 43
0.00000001
 12
1.0
 22
0.0
 32
0.0
 13
1.0
 23
0.0
 33
0.0
 40
0.0
 40
0.0
 40
0.0
 40
0.0
 40
0.5
 40
0.5
 40
1.0
 40
1.0
 40
1.0
 40
1.0
 10
73.79430329723164
 20
90.44713064357472
 30
0.0
 10
73.8015974801473
 20
90.60298164439415
 30
0.0
 10
73.80249962055926
 20
90.73832999250371
 30
0.0
 10
73.79083922074909
 20
90.9295034163792
 30
0.0
 10
73.77834775938327
 20
90.98599787805529
 30
0.0
 10
73.76013340093685
 20
90.9928215106795
 30
0.0
  0
ARC
  5
21A
330
1F
100
AcDbEntity
  8
0
  6
Continuous
 62
     7
370
    15
100
AcDbCircle
 10
82.5306107432
 20
114.4039028012
 30
0.0
 40
25.0
100
AcDbArc
 50
248.6692612861
 51
249.462577278
  0
ARC
  5
21B
330
1F
100
AcDbEntity
  8
0
  6
Continuous
 62
     7
370
    15
100
AcDbCircle
 10
82.5306107432
 20
114.4039028012
 30
0.0
 40
25.00000000000002
100
AcDbArc
 50
98.537422722
 51
99.3307387139
  0
SPLINE
  5
21C
330
1F
100
AcDbEntity
  8
0
  6
Continuous
 62
     7
370
    15
100
AcDbSpline
210
0.0
220
0.0
230
1.0
 70
     8
 71
     3
 72
    10
 73
     6
 74
     0
 42
0.00000001
 43
0.00000001
 12
1.0
 22
0.0
 32
0.0
 13
1.0
 23
0.0
 33
0.0
 40
0.0
 40
0.0
 40
0.0
 40
0.0
 40
0.5
 40
0.5
 40
1.0
 40
1.0
 40
1.0
 40
1.0
 10
78.81922686854966
 20
139.1268805695256
 30
0.0
 10
78.8433374550744
 20
139.1305000219586
 30
0.0
 10
78.87458266375688
 20
139.2114828153688
 30
0.0
 10
78.94072393858026
 20
139.4925115598828
 30
0.0
 10
78.9740697619571
 20
139.6856084858846
 30
0.0
 10
79.00279786879877
 20
139.902195553344
 30
0.0
  0
SPLINE
  5
21D
330
1F
100
AcDbEntity
  8
0
  6
Continuous
 62
     7
370
    15
100
AcDbSpline
210
0.0
220
0.0
230
1.0
 70
     8
 71
     3
 72
     8
 73
     4
 74
     0
 42
0.00000001
 43
0.00000001
 12
1.0
 22
0.0
 32
0.0
 13
1.0
 23
0.0
 33
0.0
 40
0.0
 40
0.0
 40
0.0
 40
0.0
 40
1.0
 40
1.0
 40
1.0
 40
1.0
 10
79.00279786879878
 20
139.902195553344
 30
0.0
 10
79.26800850702779
 20
141.9016727451271
 30
0.0
 10
79.53353022141552
 20
143.9000456506315
 30
0.0
 10
79.79921715636499
 20
145.8978320412451
 30
0.0
  0
LWPOLYLINE
  5
21E
330
1F
100
AcDbEntity
  8
0
  6
Continuous
 62
     7
370
    15
100
AcDbPolyline
 90
       37
 70
   128
 43
0.0
 10
79.2369248953
 20
130.579260426
 10
79.1715046067
 20
129.8884304859
 10
79.1208453152
 20
129.2185916253
 10
79.0864864971
 20
128.5900960364
 10
79.069472165
 20
128.0220395573
 10
79.0703189701
 20
127.5316842519
 10
79.0890015338
 20
127.1339266248
 10
79.1249519821
 20
126.8408543118
 10
79.1770781066
 20
126.6613716878
 10
79.2437959604
 20
126.6009316467
 10
79.3230785198
 20
126.6613716878
 10
79.4125166863
 20
126.8408543118
 10
79.5093930934
 20
127.1339266248
 10
79.6107640631
 20
127.5316842519
 10
79.7135492463
 20
128.0220395573
 10
79.8146261509
 20
128.5900960364
 10
79.9109230425
 20
129.2185916253
 10
79.9995144039
 20
129.8884304859
 10
80.0777080145
 20
130.579260426
 10
80.1431285359
 20
131.2700894349
 10
80.1937878273
 20
131.9399282955
 10
80.2281466454
 20
132.5684238844
 10
80.2451609775
 20
133.1364785008
 10
80.2443141725
 20
133.6268347375
 10
80.2256316088
 20
134.0245932959
 10
80.1896811604
 20
134.317665609
 10
80.1375550359
 20
134.4971482329
 10
80.0708369493
 20
134.5575873427
 10
79.9915546227
 20
134.4971482329
 10
79.9021162234
 20
134.317665609
 10
79.8052400492
 20
134.0245932959
 10
79.7038690794
 20
133.6268347375
 10
79.6010836635
 20
133.1364785008
 10
79.5000069916
 20
132.5684238844
 10
79.4037101
 20
131.9399282955
 10
79.3151187386
 20
131.2700894349
 10
79.2369248953
 20
130.579260426
  0
LINE
  5
21F
330
1F
100
AcDbEntity
  8
0
  6
Continuous
 62
     7
370
    15
100
AcDbLine
 10
79.8684375036
 20
135.6296886377
 30
0.0
 11
81.2611044526
 21
136.5665395432
 31
0.0
  0
ELLIPSE
  5
220
330
1F
100
AcDbEntity
  8
0
  6
Continuous
 62
     7
370
    15
100
AcDbEllipse
 10
82.5306107432
 20
118.4186972951
 30
0.0
 11
28.71064475966789
 21
40.66219453338613
 31
0.0
210
0.0
220
0.0
230
1.0
 40
0.4001153713
 41
1.104223144665232
 42
1.138106250217331
  0
LINE
  5
221
330
1F
100
AcDbEntity
  8
0
  6
Continuous
 62
     7
370
    15
100
AcDbLine
 10
85.9672199145
 20
136.5804739915
 30
0.0
 11
85.8212458111
 21
136.4822772019
 31
0.0
  0
ARC
  5
222
330
1F
100
AcDbEntity
  8
0
  6
Continuous
 62
     7
370
    15
100
AcDbCircle
 10
82.5306107432
 20
114.4039028012
 30
0.0
 40
25.50000000000003
100
AcDbArc
 50
251.1343431058
 51
356.7695854632
  0
SPLINE
  5
223
330
1F
100
AcDbEntity
  8
0
  6
Continuous
 62
     7
370
    15
100
AcDbSpline
210
0.0
220
0.0
230
1.0
 70
     8
 71
     3
 72
    18
 73
    14
 74
     0
 42
0.00000001
 43
0.00000001
 12
1.0
 22
0.0
 32
0.0
 13
1.0
 23
0.0
 33
0.0
 40
0.0
 40
0.0
 40
0.0
 40
0.0
 40
0.2500000000000006
 40
0.2500000000000006
 40
0.3750000000000004
 40
0.3750000000000004
 40
0.5000000000000003
 40
0.5000000000000003
 40
0.6250000000000002
 40
0.6250000000000002
 40
0.75
 40
0.75
 40
1.0
 40
1.0
 40
1.0
 40
1.0
 10
76.20734183296253
 20
138.5910123905501
 30
0.0
 10
76.49902666446816
 20
138.6672679522086
 30
0.0
 10
76.77542342533849
 20
138.7339014029602
 30
0.0
 10
77.16537139945862
 20
138.8217642972324
 30
0.0
 10
77.29092335202917
 20
138.8489419728911
 30
0.0
 10
77.52471928113502
 20
138.8978880778491
 30
0.0
 10
77.6341195940673
 20
138.9199200881018
 30
0.0
 10
77.83743725072041
 20
138.959652672761
 30
0.0
 10
77.93207548207332
 20
138.9774804428117
 30
0.0
 10
78.0995076471264
 20
139.0082229504765
 30
0.0
 10
78.17270252968187
 20
139.0212277139733
 30
0.0
 10
78.3607792191034
 20
139.0540286528063
 30
0.0
 10
78.44400695083895
 20
139.0676577142819
 30
0.0
 10
78.47727979848906
 20
139.0731246829461
 30
0.0
  0
SPLINE
  5
224
330
1F
100
AcDbEntity
  8
0
  6
Continuous
 62
     7
370
    15
100
AcDbSpline
210
0.0
220
0.0
230
1.0
 70
     8
 71
     3
 72
    18
 73
    14
 74
     0
 42
0.00000001
 43
0.00000001
 12
1.0
 22
0.0
 32
0.0
 13
1.0
 23
0.0
 33
0.0
 40
0.0
 40
0.0
 40
0.0
 40
0.0
 40
0.2499999999999997
 40
0.2499999999999997
 40
0.4999999999999993
 40
0.4999999999999993
 40
0.6249999999999994
 40
0.6249999999999994
 40
0.7499999999999997
 40
0.7499999999999997
 40
0.8749999999999998
 40
0.8749999999999998
 40
1.0
 40
1.0
 40
1.0
 40
1.0
 10
73.4368351720485
 20
91.11649749566288
 30
0.0
 10
73.40544988838995
 20
91.1287535079615
 30
0.0
 10
73.329606619945
 20
91.15830251017778
 30
0.0
 10
73.09187399345237
 20
91.25381298852102
 30
0.0
 10
72.93407017432936
 20
91.31820065378068
 30
0.0
 10
72.64707438281917
 20
91.44031166985644
 30
0.0
 10
72.54288509700854
 20
91.48536017625064
 30
0.0
 10
72.32440278751325
 20
91.58181747140384
 30
0.0
 10
72.20933558539424
 20
91.6335510801099
 30
0.0
 10
71.96799530506487
 20
91.74449430293224
 30
0.0
 10
71.84122182542897
 20
91.80395967996509
 30
0.0
 10
71.58328886656217
 20
91.92776860851203
 30
0.0
 10
71.45140410481302
 20
91.99243512936125
 30
0.0
 10
71.31673757913023
 20
92.06002111821834
 30
0.0
  0
ELLIPSE
  5
225
330
1F
100
AcDbEntity
  8
0
  6
Continuous
 62
     7
370
    15
100
AcDbEllipse
 10
71.0626960214
 20
127.9840379852
 30
0.0
 11
2.041167293880051
 21
2.61689994894077
 31
0.0
210
0.0
220
0.0
230
1.0
 40
0.7353403728
 41
0.0
 42
6.283185307179586
  0
ARC
  5
226
330
1F
100
AcDbEntity
  8
0
  6
Continuous
 62
     7
370
    15
100
AcDbCircle
 10
82.5306107432
 20
114.4039028012
 30
0.0
 40
25.00000000000001
100
AcDbArc
 50
104.6510072762
 51
243.3489927238
  0
SPLINE
  5
227
330
1F
100
AcDbEntity
  8
0
  6
Continuous
 62
     7
370
    15
100
AcDbSpline
210
0.0
220
0.0
230
1.0
 70
     8
 71
     3
 72
    14
 73
    10
 74
     0
 42
0.00000001
 43
0.00000001
 12
1.0
 22
0.0
 32
0.0
 13
1.0
 23
0.0
 33
0.0
 40
0.0
 40
0.0
 40
0.0
 40
0.0
 40
0.5000000000000026
 40
0.5000000000000026
 40
0.7500000000000017
 40
0.7500000000000017
 40
0.8750000000000009
 40
0.8750000000000009
 40
1.0
 40
1.0
 40
1.0
 40
1.0
 10
69.04682765550938
 20
126.1384962831292
 30
0.0
 10
69.21956630892538
 20
126.0140258505714
 30
0.0
 10
69.38047616116009
 20
125.8589497731939
 30
0.0
 10
69.59419843962415
 20
125.589567771116
 30
0.0
 10
69.66210884237246
 20
125.4928982033808
 30
0.0
 10
69.73971371798072
 20
125.3417023351349
 30
0.0
 10
69.76178108269622
 20
125.2899472413681
 30
0.0
 10
69.7788086310975
 20
125.1902473377987
 30
0.0
 10
69.76995164753433
 20
125.1424402313341
 30
0.0
 10
69.7350304517367
 20
125.1082638558385
 30
0.0
  0
SPLINE
  5
228
330
1F
100
AcDbEntity
  8
0
  6
Continuous
 62
     7
370
    15
100
AcDbSpline
210
0.0
220
0.0
230
1.0
 70
     8
 71
     3
 72
     8
 73
     4
 74
     0
 42
0.00000001
 43
0.00000001
 12
1.0
 22
0.0
 32
0.0
 13
1.0
 23
0.0
 33
0.0
 40
0.0
 40
0.0
 40
0.0
 40
0.0
 40
1.0
 40
1.0
 40
1.0
 40
1.0
 10
69.01574076915065
 20
126.6422402956532
 30
0.0
 10
69.04627054849067
 20
126.4815408696817
 30
0.0
 10
69.0592684882656
 20
126.3118628798615
 30
0.0
 10
69.04682765550938
 20
126.1384962831292
 30
0.0
  0
LINE
  5
229
330
1F
100
AcDbEntity
  8
0
  6
Continuous
 62
     7
370
    15
100
AcDbLine
 10
68.3375331715
 20
126.7170526706
 30
0.0
 11
69.0157408968
 21
126.6422404595
 31
0.0
  0
ARC
  5
22A
330
1F
100
AcDbEntity
  8
0
  6
Continuous
 62
     7
370
    15
100
AcDbCircle
 10
68.5349841975
 20
122.3065725921
 30
0.0
 40
3.047881800995613
100
AcDbArc
 50
61.3404537646
 51
66.8131376365
  0
LWPOLYLINE
  5
22B
330
1F
100
AcDbEntity
  8
0
  6
Continuous
 62
     7
370
    15
100
AcDbPolyline
 90
        4
 70
   128
 43
0.0
 10
68.73089775
 20
125.6520070754
 10
68.8841533989
 20
125.8879995592
 10
68.9989472881
 20
126.0647664465
 10
69.046827513
 20
126.1384964608
  0
LWPOLYLINE
  5
22C
330
1F
100
AcDbEntity
  8
0
  6
Continuous
 62
     7
370
    15
100
AcDbPolyline
 90
       34
 70
   128
 43
0.0
 10
80.059194253
 20
134.0370208644
 10
80.1131755721
 20
133.8984791808
 10
80.1506808635
 20
133.6399719738
 10
80.1703545872
 20
133.2708422713
 10
80.1714859113
 20
132.8044322007
 10
80.1540338576
 20
132.2575987004
 10
80.1186291642
 20
131.6501044356
 10
80.0665512357
 20
131.0039081298
 10
79.9996827405
 20
130.342363628
 10
79.9204399951
 20
129.689381706
 10
79.8316875148
 20
129.0685620778
 10
79.7366327748
 20
128.5023430981
 10
79.638711191
 20
128.011188718
 10
79.5414622549
 20
127.6128518082
 10
79.4484003123
 20
127.321727822
 10
79.3628893003
 20
127.1483407043
 10
79.2880198128
 20
127.0989545308
 10
79.2264975749
 20
127.1753565096
 10
79.1805461191
 20
127.3747843378
 10
79.1518264592
 20
127.69003051
 10
79.1413765542
 20
128.1097002946
 10
79.1495740555
 20
128.6186271034
 10
79.1761228025
 20
129.198415453
 10
79.2200630672
 20
129.8281115167
 10
79.2798067119
 20
130.4849565648
 10
79.3531946979
 20
131.1452083908
 10
79.4375743858
 20
131.7850065105
 10
79.529895927
 20
132.3812261842
 10
79.6268230911
 20
132.9123184704
 10
79.7248522427
 20
133.3590869479
 10
79.8204403978
 20
133.7053843461
 10
79.9101330481
 20
133.9386974149
 10
79.9906880271
 20
134.0505902343
 10
80.059194253
 20
134.0370208644
  0
LWPOLYLINE
  5
22D
330
1F
100
AcDbEntity
  8
0
  6
Continuous
 62
     7
370
    15
100
AcDbPolyline
 90
       26
 70
   128
 43
0.0
 10
79.8869608112
 20
132.5551227354
 10
79.9257340982
 20
132.4359376602
 10
79.9476415992
 20
132.2000895314
 10
79.9513068192
 20
131.8623994164
 10
79.9364994887
 20
131.4440847062
 10
79.9041502319
 20
130.971431049
 10
79.8562914275
 20
130.4741345965
 10
79.7959303159
 20
129.9834430836
 10
79.7268597085
 20
129.530189807
 10
79.6534193356
 20
129.1428527482
 10
79.5802236676
 20
128.8457710915
 10
79.511872274
 20
128.6576104038
 10
79.4526597161
 20
128.5901947566
 10
79.4063063946
 20
128.6477588736
 10
79.375724788
 20
128.8266864293
 10
79.3628369134
 20
129.1157344975
 10
79.36845209
 20
129.4967413567
 10
79.3922178123
 20
129.9457664289
 10
79.4326407045
 20
130.4345962279
 10
79.4871805843
 20
130.9325166665
 10
79.5524108831
 20
131.4082399629
 10
79.6242328502
 20
131.8318762504
 10
79.6981332965
 20
132.1768046044
 10
79.7694693461
 20
132.4213531487
 10
79.8337583106
 20
132.5501587861
 10
79.8869608112
 20
132.5551227354
  0
LINE
  5
22E
330
1F
100
AcDbEntity
  8
0
  6
Continuous
 62
     7
370
    15
100
AcDbLine
 10
79.8993033964
 20
130.9422787898
 30
0.0
 11
79.7621924572
 21
130.7502829157
 31
0.0
  0
LINE
  5
22F
330
1F
100
AcDbEntity
  8
0
  6
Continuous
 62
     7
370
    15
100
AcDbLine
 10
79.7621924572
 20
130.7502829157
 30
0.0
 11
79.8478925276
 21
130.4196205609
 31
0.0
  0
LINE
  5
230
330
1F
100
AcDbEntity
  8
0
  6
Continuous
 62
     7
370
    15
100
AcDbLine
 10
79.8832993165
 20
130.7375535988
 30
0.0
 11
79.7621924572
 21
130.7502829157
 31
0.0
  0
LINE
  5
231
330
1F
100
AcDbEntity
  8
0
  6
Continuous
 62
     7
370
    15
100
AcDbLine
 10
79.6795115016
 20
135.7333914064
 30
0.0
 11
81.0409742549
 21
136.6492484384
 31
0.0
  0
ARC
  5
232
330
1F
100
AcDbEntity
  8
0
  6
Continuous
 62
     7
370
    15
100
AcDbCircle
 10
80.5635846961
 20
135.9507386559
 30
0.0
 40
0.9103983963828473
100
AcDbArc
 50
166.1226798201
 51
193.8121041841
  0
LINE
  5
233
330
1F
100
AcDbEntity
  8
0
  6
Continuous
 62
     7
370
    15
100
AcDbLine
 10
81.0475122558
 20
148.1292352699
 30
0.0
 11
79.6797594663
 21
136.1690920465
 31
0.0
  0
ARC
  5
234
330
1F
100
AcDbEntity
  8
0
  6
Continuous
 62
     7
370
    15
100
AcDbCircle
 10
82.1159377755
 20
148.0896293153
 30
0.0
 40
1.069159353359667
100
AcDbArc
 50
158.1881801867
 51
177.8770485816
  0
LINE
  5
235
330
1F
100
AcDbEntity
  8
0
  6
Continuous
 62
     7
370
    15
100
AcDbLine
 10
82.4847832806
 20
149.4027443849
 30
0.0
 11
81.1233204
 21
148.4868854903
 31
0.0
  0
ARC
  5
236
330
1F
100
AcDbEntity
  8
0
  6
Continuous
 62
     7
370
    15
100
AcDbCircle
 10
81.600722675
 20
149.1853984159
 30
0.0
 40
0.9103858657122
100
AcDbArc
 50
346.1225227232
 51
13.8122150753
  0
LINE
  5
237
330
1F
100
AcDbEntity
  8
0
  6
Continuous
 62
     7
370
    15
100
AcDbLine
 10
81.1167823991
 20
137.0069005214
 30
0.0
 11
82.4845351413
 21
148.9670456074
 31
0.0
  0
ARC
  5
238
330
1F
100
AcDbEntity
  8
0
  6
Continuous
 62
     7
370
    15
100
AcDbCircle
 10
80.0483073502
 20
137.0465149053
 30
0.0
 40
1.069209160764093
100
AcDbArc
 50
338.1886543175
 51
357.8766955087
  0
ARC
  5
239
330
1F
100
AcDbEntity
  8
0
  6
Continuous
 62
     7
370
    15
100
AcDbCircle
 10
81.6430285091
 20
149.176432542
 30
0.0
 40
0.86486241735464
100
AcDbArc
 50
346.1224742043
 51
13.8122641104
  0
LINE
  5
23A
330
1F
100
AcDbEntity
  8
0
  6
Continuous
 62
     7
370
    15
100
AcDbLine
 10
82.4828818727
 20
149.3829109393
 30
0.0
 11
81.1214189885
 21
148.4670520447
 31
0.0
  0
ARC
  5
23B
330
1F
100
AcDbEntity
  8
0
  6
Continuous
 62
     7
370
    15
100
AcDbCircle
 10
82.0644066658
 20
148.0896583676
 30
0.0
 40
1.015702587922283
100
AcDbArc
 50
158.1881884413
 51
177.8768863473
  0
LINE
  5
23C
330
1F
100
AcDbEntity
  8
0
  6
Continuous
 62
     7
370
    15
100
AcDbLine
 10
81.0494013272
 20
148.1272869431
 30
0.0
 11
79.6816486541
 21
136.1671399944
 31
0.0
  0
ARC
  5
23D
330
1F
100
AcDbEntity
  8
0
  6
Continuous
 62
     7
370
    15
100
AcDbCircle
 10
80.5212743069
 20
135.9597039198
 30
0.0
 40
0.8648704884655654
100
AcDbArc
 50
166.1225249566
 51
193.8121784009
  0
LINE
  5
23E
330
1F
100
AcDbEntity
  8
0
  6
Continuous
 62
     7
370
    15
100
AcDbLine
 10
79.6814127967
 20
135.753224852
 30
0.0
 11
81.0428756663
 21
136.6690837466
 31
0.0
  0
ARC
  5
23F
330
1F
100
AcDbEntity
  8
0
  6
Continuous
 62
     7
370
    15
100
AcDbCircle
 10
80.0998672198
 20
137.0464819675
 30
0.0
 40
1.015723558516967
100
AcDbArc
 50
338.1883857874
 51
357.8767788576
  0
LINE
  5
240
330
1F
100
AcDbEntity
  8
0
  6
Continuous
 62
     7
370
    15
100
AcDbLine
 10
81.1148934441
 20
137.0088507109
 30
0.0
 11
82.4826461426
 21
148.9689976596
 31
0.0
  0
ARC
  5
241
330
1F
100
AcDbEntity
  8
0
  6
Continuous
 62
     7
370
    15
100
AcDbCircle
 10
86.1693906956
 20
148.7000931638
 30
0.0
 40
1.04820576864768
100
AcDbArc
 50
347.443747543
 51
11.4988010154
  0
LINE
  5
242
330
1F
100
AcDbEntity
  8
0
  6
Continuous
 62
     7
370
    15
100
AcDbLine
 10
85.824773661
 20
136.5120702111
 30
0.0
 11
87.192526567
 21
148.4722152971
 31
0.0
  0
LINE
  5
243
330
1F
100
AcDbEntity
  8
0
  6
Continuous
 62
     7
370
    15
100
AcDbLine
 10
81.656869224
 20
147.4532813452
 30
0.0
 11
81.3022882353
 21
148.0674029015
 31
0.0
  0
ARC
  5
244
330
1F
100
AcDbEntity
  8
0
  6
Continuous
 62
     7
370
    15
100
AcDbCircle
 10
84.7563189774
 20
136.5516820242
 30
0.0
 40
1.069188714256543
100
AcDbArc
 50
338.1884717201
 51
357.876792744
  0
LINE
  5
245
330
1F
100
AcDbEntity
  8
0
  6
Continuous
 62
     7
370
    15
100
AcDbLine
 10
80.5639901806
 20
136.910996648
 30
0.0
 11
79.9345355622
 21
136.1072596781
 31
0.0
  0
ARC
  5
246
330
1F
100
AcDbEntity
  8
0
  6
Continuous
 62
     7
370
    15
100
AcDbCircle
 10
79.7307576991
 20
146.6195085753
 30
0.0
 40
2.275994630813771
100
AcDbArc
 50
346.1226379007
 51
13.8121032944
  0
LINE
  5
247
330
1F
100
AcDbEntity
  8
0
  6
Continuous
 62
     7
370
    15
100
AcDbLine
 10
85.6723736647
 20
136.1028955005
 30
0.0
 11
85.7489656333
 21
136.1544199907
 31
0.0
  0
LINE
  5
248
330
1F
100
AcDbEntity
  8
0
  6
Continuous
 62
     7
370
    15
100
AcDbLine
 10
81.1748372067
 20
139.3799607329
 30
0.0
 11
81.940319054
 21
146.0736238085
 31
0.0
  0
ARC
  5
249
330
1F
100
AcDbEntity
  8
0
  6
Continuous
 62
     7
370
    15
100
AcDbCircle
 10
78.5037060743
 20
139.47898973
 30
0.0
 40
2.672966192920559
100
AcDbArc
 50
338.1884361143
 51
357.8767997931
  0
LINE
  5
24A
330
1F
100
AcDbEntity
  8
0
  6
Continuous
 62
     7
370
    15
100
AcDbLine
 10
80.2233552236
 20
137.9732613139
 30
0.0
 11
80.9853169044
 21
138.485835182
 31
0.0
  0
ARC
  5
24B
330
1F
100
AcDbEntity
  8
0
  6
Continuous
 62
     7
370
    15
100
AcDbCircle
 10
82.4335399434
 20
138.5166287227
 30
0.0
 40
2.275997503673758
100
AcDbArc
 50
166.1226465377
 51
193.8120762867
  0
LINE
  5
24C
330
1F
100
AcDbEntity
  8
0
  6
Continuous
 62
     7
370
    15
100
AcDbLine
 10
80.9894574482
 20
145.756176921
 30
0.0
 11
80.2239757173
 21
139.0625138454
 31
0.0
  0
ARC
  5
24D
330
1F
100
AcDbEntity
  8
0
  6
Continuous
 62
     7
370
    15
100
AcDbCircle
 10
83.6606016395
 20
145.6571448329
 30
0.0
 40
2.672979357386236
100
AcDbArc
 50
158.1884776781
 51
177.876743951
  0
LINE
  5
24E
330
1F
100
AcDbEntity
  8
0
  6
Continuous
 62
     7
370
    15
100
AcDbLine
 10
81.940939373
 20
147.16287634
 30
0.0
 11
81.1789778668
 21
146.650302472
 31
0.0
  0
LWPOLYLINE
  5
24F
330
1F
100
AcDbEntity
  8
0
  6
Continuous
 62
     7
370
    15
100
AcDbPolyline
 90
       30
 70
   128
 43
0.0
 10
81.3258283447
 20
142.3163556181
 10
81.3829096874
 20
142.8711984925
 10
81.42592771
 20
143.4118685
 10
81.4528708721
 20
143.9130820953
 10
81.4624795599
 20
144.3514053397
 10
81.4543041775
 20
144.7063416861
 10
81.4287272656
 20
144.9612931036
 10
81.3869446425
 20
145.1043405257
 10
81.33090999
 20
145.1287951939
 10
81.2632434677
 20
145.0335134439
 10
81.1871091278
 20
144.8229507231
 10
81.1060669508
 20
144.5069511108
 10
81.0239062553
 20
144.1002909713
 10
80.9444688635
 20
143.6219879113
 10
80.8714691225
 20
143.094402986
 10
80.8083204461
 20
142.5422069304
 10
80.7579757089
 20
141.9912215941
 10
80.7227888286
 20
141.4672073596
 10
80.7044052195
 20
140.9946691864
 10
80.7036842594
 20
140.5957017713
 10
80.7206599416
 20
140.2889595054
 10
80.7545383137
 20
140.0887847565
 10
80.8037353123
 20
140.0045410417
 10
80.8659505706
 20
140.0401622676
 10
80.9382749863
 20
140.1939869546
 10
81.0173266942
 20
140.4588215672
 10
81.0994093914
 20
140.8222813778
 10
81.1806848647
 20
141.2673716121
 10
81.2573528524
 20
141.7732827984
 10
81.3258283447
 20
142.3163556181
  0
LINE
  5
250
330
1F
100
AcDbEntity
  8
0
  6
Continuous
 62
     7
370
    15
100
AcDbLine
 10
81.6119508377
 20
147.2558893882
 30
0.0
 11
81.6078031344
 21
147.2249135994
 31
0.0
  0
LINE
  5
251
330
1F
100
AcDbEntity
  8
0
  6
Continuous
 62
     7
370
    15
100
AcDbLine
 10
88.7214047976
 20
137.1688835942
 30
0.0
 11
89.8271007605
 21
146.8375057601
 31
0.0
  0
LINE
  5
252
330
1F
100
AcDbEntity
  8
0
  6
Continuous
 62
     7
370
    15
100
AcDbLine
 10
90.0954879031
 20
146.8355872356
 30
0.0
 11
88.9897919401
 21
137.1669650697
 31
0.0
  0
ARC
  5
253
330
1F
100
AcDbEntity
  8
0
  6
Continuous
 62
     7
370
    15
100
AcDbCircle
 10
87.2693075005
 20
147.407199859
 30
0.0
 40
2.6204689898698
100
AcDbArc
 50
347.4435390207
 51
11.4989326448
  0
ARC
  5
254
330
1F
100
AcDbEntity
  8
0
  6
Continuous
 62
     7
370
    15
100
AcDbCircle
 10
88.0009837453
 20
147.2550363033
 30
0.0
 40
2.136091099916433
100
AcDbArc
 50
348.6756479039
 51
9.1681877022
  0
ARC
  5
255
330
1F
100
AcDbEntity
  8
0
  6
Continuous
 62
     7
370
    15
100
AcDbCircle
 10
84.6689749571
 20
137.5035184783
 30
0.0
 40
4.066222831730816
100
AcDbArc
 50
342.907938562
 51
355.2794335627
  0
LINE
  5
256
330
1F
100
AcDbEntity
  8
0
  6
Continuous
 62
     7
370
    15
100
AcDbLine
 10
88.5710218131
 20
136.3068029903
 30
0.0
 11
88.8571278334
 21
136.541077184
 31
0.0
  0
ARC
  5
257
330
1F
100
AcDbEntity
  8
0
  6
Continuous
 62
     7
370
    15
100
AcDbCircle
 10
87.1200171073
 20
137.236281482
 30
0.0
 40
1.871059242915058
100
AcDbArc
 50
338.1883548088
 51
357.8768994565
  0
CIRCLE
  5
258
330
1F
100
AcDbEntity
  8
VERMASSUNG
  6
CENTERX2
100
AcDbCircle
 10
82.5306107432
 20
116.8595167584
 30
0.0
 40
32.50000000000001
  0
DIMENSION
  5
259
330
1F
100
AcDbEntity
  8
VERMASSUNG
100
AcDbDimension
  2
_D_5
 10
54.3847851202
 20
133.1095167584
 30
0.0
 11
45.3169169821
 21
138.3448528689
 31
0.0
 70
   160
  1
%%c<> min. 
 71
     2
 42
-1.0
  3
SLDDIMSTYLE3
100
AcDbAlignedDimension
 13
110.6764363662
 23
100.6095167584
 33
0.0
 14
54.3847851202
 24
133.1095167584
 34
0.0
 50
-30.0
100
AcDbRotatedDimension
  0
INSERT
  5
273
330
1F
100
AcDbEntity
  8
VERMASSUNG
100
AcDbBlockReference
  2
SW_CENTERMARKSYMBOL_0
 10
82.5306107432
 20
114.4039028012
 30
0.0
  0
OLE2FRAME
  5
274
330
1F
100
AcDbEntity
  8
0
100
AcDbOle2Frame
 70
     2
  3
Paintbrush-Bild
 10
13.8511154363
 20
38.264191557
 30
0.0
 11
51.6290888628
 21
31.9806341108
 31
0.0
 71
     2
 72
     0
 73
     1
 90
    12928
310
80552BED0767C5B32B40DDAF6807D121434000000000000000006FFBDDFB85D0
310
4940DDAF6807D121434000000000000000006FFBDDFB85D04940416F4BD60AFB
310
3F4000000000000000002BED0767C5B32B40416F4BD60AFB3F40000000000000
310
0000000000000100000000010000010000000100000000000100000000320000
310
D0CF11E0A1B11AE1000000000000000000000000000000003E000300FEFF0900
310
0600000000000000000000000100000001000000000000000010000002000000
310
01000000FEFFFFFF0000000000000000FFFFFFFFFFFFFFFFFFFFFFFFFFFFFFFF
310
FFFFFFFFFFFFFFFFFFFFFFFFFFFFFFFFFFFFFFFFFFFFFFFFFFFFFFFFFFFFFFFF
310
FFFFFFFFFFFFFFFFFFFFFFFFFFFFFFFFFFFFFFFFFFFFFFFFFFFFFFFFFFFFFFFF
310
FFFFFFFFFFFFFFFFFFFFFFFFFFFFFFFFFFFFFFFFFFFFFFFFFFFFFFFFFFFFFFFF
310
FFFFFFFFFFFFFFFFFFFFFFFFFFFFFFFFFFFFFFFFFFFFFFFFFFFFFFFFFFFFFFFF
310
FFFFFFFFFFFFFFFFFFFFFFFFFFFFFFFFFFFFFFFFFFFFFFFFFFFFFFFFFFFFFFFF
310
FFFFFFFFFFFFFFFFFFFFFFFFFFFFFFFFFFFFFFFFFFFFFFFFFFFFFFFFFFFFFFFF
310
FFFFFFFFFFFFFFFFFFFFFFFFFFFFFFFFFFFFFFFFFFFFFFFFFFFFFFFFFFFFFFFF
310
FFFFFFFFFFFFFFFFFFFFFFFFFFFFFFFFFFFFFFFFFFFFFFFFFFFFFFFFFFFFFFFF
310
FFFFFFFFFFFFFFFFFFFFFFFFFFFFFFFFFFFFFFFFFFFFFFFFFFFFFFFFFFFFFFFF
310
FFFFFFFFFFFFFFFFFFFFFFFFFFFFFFFFFFFFFFFFFFFFFFFFFFFFFFFFFFFFFFFF
310
FFFFFFFFFFFFFFFFFFFFFFFFFFFFFFFFFFFFFFFFFFFFFFFFFFFFFFFFFFFFFFFF
310
FFFFFFFFFFFFFFFFFFFFFFFFFFFFFFFFFFFFFFFFFFFFFFFFFFFFFFFFFFFFFFFF
310
FFFFFFFFFFFFFFFFFFFFFFFFFFFFFFFFFFFFFFFFFFFFFFFFFFFFFFFFFFFFFFFF
310
FDFFFFFFFEFFFFFFFEFFFFFFFEFFFFFF05000000060000000700000008000000
310
090000000A0000000B0000000C0000000D0000000E0000000F00000010000000
310
11000000120000001300000014000000150000001600000017000000FEFFFFFF
310
FFFFFFFFFFFFFFFFFFFFFFFFFFFFFFFFFFFFFFFFFFFFFFFFFFFFFFFFFFFFFFFF
310
FFFFFFFFFFFFFFFFFFFFFFFFFFFFFFFFFFFFFFFFFFFFFFFFFFFFFFFFFFFFFFFF
310
FFFFFFFFFFFFFFFFFFFFFFFFFFFFFFFFFFFFFFFFFFFFFFFFFFFFFFFFFFFFFFFF
310
FFFFFFFFFFFFFFFFFFFFFFFFFFFFFFFFFFFFFFFFFFFFFFFFFFFFFFFFFFFFFFFF
310
FFFFFFFFFFFFFFFFFFFFFFFFFFFFFFFFFFFFFFFFFFFFFFFFFFFFFFFFFFFFFFFF
310
FFFFFFFFFFFFFFFFFFFFFFFFFFFFFFFFFFFFFFFFFFFFFFFFFFFFFFFFFFFFFFFF
310
FFFFFFFFFFFFFFFFFFFFFFFFFFFFFFFFFFFFFFFFFFFFFFFFFFFFFFFFFFFFFFFF
310
FFFFFFFFFFFFFFFFFFFFFFFFFFFFFFFFFFFFFFFFFFFFFFFFFFFFFFFFFFFFFFFF
310
FFFFFFFFFFFFFFFFFFFFFFFFFFFFFFFFFFFFFFFFFFFFFFFFFFFFFFFFFFFFFFFF
310
FFFFFFFFFFFFFFFFFFFFFFFFFFFFFFFFFFFFFFFFFFFFFFFFFFFFFFFFFFFFFFFF
310
FFFFFFFFFFFFFFFFFFFFFFFFFFFFFFFFFFFFFFFFFFFFFFFFFFFFFFFFFFFFFFFF
310
FFFFFFFFFFFFFFFFFFFFFFFFFFFFFFFFFFFFFFFFFFFFFFFFFFFFFFFFFFFFFFFF
310
FFFFFFFFFFFFFFFFFFFFFFFFFFFFFFFFFFFFFFFFFFFFFFFFFFFFFFFFFFFFFFFF
310
52006F006F007400200045006E00740072007900000000000000000000000000
310
0000000000000000000000000000000000000000000000000000000000000000
310
16000500FFFFFFFFFFFFFFFF020000000A00030000000000C000000000000046
310
000000000000000000000000F00054244924CD0103000000C000000000000000
310
01004F006C006500000000000000000000000000000000000000000000000000
310
0000000000000000000000000000000000000000000000000000000000000000
310
0A000200FFFFFFFFFFFFFFFFFFFFFFFF00000000000000000000000000000000
310
0000000000000000000000000000000000000000000000001400000000000000
310
010043006F006D0070004F0062006A0000000000000000000000000000000000
310
0000000000000000000000000000000000000000000000000000000000000000
310
120002010100000003000000FFFFFFFF00000000000000000000000000000000
310
0000000000000000000000000000000000000000010000004D00000000000000
310
01004F006C006500310030004E00610074006900760065000000000000000000
310
0000000000000000000000000000000000000000000000000000000000000000
310
1A000200FFFFFFFFFFFFFFFFFFFFFFFF00000000000000000000000000000000
310
0000000000000000000000000000000000000000040000002426000000000000
310
FEFFFFFF02000000FEFFFFFFFFFFFFFFFFFFFFFFFFFFFFFFFFFFFFFFFFFFFFFF
310
FFFFFFFFFFFFFFFFFFFFFFFFFFFFFFFFFFFFFFFFFFFFFFFFFFFFFFFFFFFFFFFF
310
FFFFFFFFFFFFFFFFFFFFFFFFFFFFFFFFFFFFFFFFFFFFFFFFFFFFFFFFFFFFFFFF
310
FFFFFFFFFFFFFFFFFFFFFFFFFFFFFFFFFFFFFFFFFFFFFFFFFFFFFFFFFFFFFFFF
310
FFFFFFFFFFFFFFFFFFFFFFFFFFFFFFFFFFFFFFFFFFFFFFFFFFFFFFFFFFFFFFFF
310
FFFFFFFFFFFFFFFFFFFFFFFFFFFFFFFFFFFFFFFFFFFFFFFFFFFFFFFFFFFFFFFF
310
FFFFFFFFFFFFFFFFFFFFFFFFFFFFFFFFFFFFFFFFFFFFFFFFFFFFFFFFFFFFFFFF
310
FFFFFFFFFFFFFFFFFFFFFFFFFFFFFFFFFFFFFFFFFFFFFFFFFFFFFFFFFFFFFFFF
310
FFFFFFFFFFFFFFFFFFFFFFFFFFFFFFFFFFFFFFFFFFFFFFFFFFFFFFFFFFFFFFFF
310
FFFFFFFFFFFFFFFFFFFFFFFFFFFFFFFFFFFFFFFFFFFFFFFFFFFFFFFFFFFFFFFF
310
FFFFFFFFFFFFFFFFFFFFFFFFFFFFFFFFFFFFFFFFFFFFFFFFFFFFFFFFFFFFFFFF
310
FFFFFFFFFFFFFFFFFFFFFFFFFFFFFFFFFFFFFFFFFFFFFFFFFFFFFFFFFFFFFFFF
310
FFFFFFFFFFFFFFFFFFFFFFFFFFFFFFFFFFFFFFFFFFFFFFFFFFFFFFFFFFFFFFFF
310
FFFFFFFFFFFFFFFFFFFFFFFFFFFFFFFFFFFFFFFFFFFFFFFFFFFFFFFFFFFFFFFF
310
FFFFFFFFFFFFFFFFFFFFFFFFFFFFFFFFFFFFFFFFFFFFFFFFFFFFFFFFFFFFFFFF
310
FFFFFFFFFFFFFFFFFFFFFFFFFFFFFFFFFFFFFFFFFFFFFFFFFFFFFFFFFFFFFFFF
310
0100000200000000000000000000000000000000000000000000000000000000
310
0000000000000000000000000000000000000000000000000000000000000000
310
0100FEFF030A0000FFFFFFFF0A00030000000000C00000000000004607000000
310
5042727573680007000000504272757368000700000050427275736800F439B2
310
7100000000000000000000000000000000000000000000000000000000000000
310
0000000000000000000000000000000000000000000000000000000000000000
310
0000000000000000000000000000000000000000000000000000000000000000
310
0000000000000000000000000000000000000000000000000000000000000000
310
0000000000000000000000000000000000000000000000000000000000000000
310
0000000000000000000000000000000000000000000000000000000000000000
310
0000000000000000000000000000000000000000000000000000000000000000
310
0000000000000000000000000000000000000000000000000000000000000000
310
0000000000000000000000000000000000000000000000000000000000000000
310
0000000000000000000000000000000000000000000000000000000000000000
310
0000000000000000000000000000000000000000000000000000000000000000
310
0000000000000000000000000000000000000000000000000000000000000000
310
20260000424D0E260000000000003E00000028000000B40200006E0000000100
310
01000000000000000000130B0000130B00000200000002000000000000FFFFFF
310
FFFFFFFFFFFFFFFFFFFFFFFFFFFFFFFFFFFFFFFFFFFFFFFFFFFFFFFFFFFFFFFF
310
FFFFFFFFFFFFFFFFFFFFFFFFFFFFFFFFFFFFFFFFFFFFFFFFFFFFFFFFFFFFFFFF
310
FFFFFFFFFFFFFFFFFFFFFFFFFFFFFFFFFFFFFFFFFFFFFFFFF000FFFFFFFFFFFF
310
FFFFFFFFFFFFFFFFFFFFFFFFFFFFFFFFFFFFFFFFFFFFFFFFFFFFFFFFFFFFFFFF
310
FFFFFFFFFFFFFFFFFFFFFFFFFFFFFFFFFFFFFFFFFFFFFFFFFFFFFFFFFFFFFFFF
310
FFFFFFFFFFFFFFFFFFFFFFFFFFFFFFFFF000FFFFFFFFFFFFFFFFFFFFFFFFFFFF
310
FFFFFFFFFFFFFFFFFFFFFFFFFFFFFFFFFFFFFFFFFFFFFFFFFFFFFFFFFFFFFFFF
310
FFFFFFFFFFFFFFFFFFFFFFFFFFFFFFFFFFFFFFFFFFFFFFFFFFFFFFFFFFFFFFFF
310
FFFFFFFFFFFFFFFFF000FFFFFFFFFFFFFFFFFFFFFFFFFFFFFFFFFFFFFFFFFFFF
310
FFFFFFFFFFFFFFFFFFFFFFFFFFFFFFFFFFFFFFFFFFFFFFFFFFFFFFFFFFFFFFFF
310
FFFFFFFFFFFFFFFFFFFFFFFFFFFFFFFFFFFFFFFFFFFFFFFFFFFFFFFFFFFFFFFF
310
F000FFFFFFFFFFFFFFFFFFFFFFFFFFFFFFFFFFFFFFFFFFFFFFFFFFFFFFFFFFFF
310
FFFFFFFFFFFFFFFFFFFFFFFFFFFFFFFFFFFFFFFFFFFFFFFFFFFFFFFFFFFFFFFF
310
FFFFFFFFFFFFFFFFFFFFFFFFFFFFFFFFFFFFFFFFFFFFFFFFF000FFFFFFFFFFFF
310
FFFFFFFFFFFFFFFFFFFFFFFFFFFFFFFFFFFFFFFFFFFFFFFFFFFFFFFFFFFFFFFF
310
FFFFFFFFFFFFFFFFFFFFFFFFFFFFFFFFFFFFFFFFFFFFFFFFFFFFFFFFFFFFFFFF
310
FFFFFFFFFFFFFFFFFFFFFFFFFFFFFFFFF000FFFFFFFFFFFFFFFFFFFFFFFFFFFF
310
FFFFFFFFFFFFFFFFFFFFFFFFFFFFFFFFFFFFFFFFFFFFFFFFFFFFFFFFFFFFFFFF
310
FFFFFFFFFFFFFFFFFFFFFFFFFFFFFFFFFFFFFFFFFFFFFFFFFFFFFFFFFFFFFFFF
310
FFFFFFFFFFFFFFFFF000FFFFFFFFFFFFFFFFFFFFFFFFFFFFFFFFFFFFFFFFFFFF
310
FFFFFFFFFFFFFFFFFFFFFFFFFFFFFFFFFFFFFFFFFFFFFFFFFFFFFFFFFFFFFFFF
310
FFFFFFFFFFFFFFFFFFFFFFFFFFFFFFFFFFFFFFFFFFFFFFFFFFFFFFFFFFFFFFFF
310
F000FFFFFFFFFFFFFFFFFFFFFFFFFFFFFFFFFFFFFFFFFFFFFFFFFFFFFFFFFFFF
310
FFFFFFFFFFFFFFFFFFFFFFFFFFFFFFFFFFFFFFFFFFFFFFFFFFFFFFFFFFFFFFFF
310
FFFFFFFFFFFFFFFFFFFFFFFFFFFFFFFFFFFFFFFFFFFFFFFFF000FFFFFFFFFFFF
310
FFFFFFFFFFFFFFFFFFFFFFFFFFFFFFFFFFFFFFFFFFFFFFFFFFFFFFFFFFFFFFFF
310
FFFFFFFFFFFFFFFFFFFFFFFFFFFFFFFFFFFFFFFFFFFFFFFFFFFFFFFFFFFFFFFF
310
FFFFFFFFFFFFFFFFFFFFFFFFFFFFFFFFF000FFFFFFFFFFFFFFFFFFFFFFFFFFFF
310
FFFFFFFFFFFFFFFFFFFFFFFFFFFFFFFFFFFFFFFFFFFFFFFFFFFFFFFFFFFFFFFF
310
FFFFFFFFFFFFFFFFFFFFFFFFFFFFFFFFFFFFFFFFFFFFFFFFFFFFFFFFFFFFFFFF
310
FFFFFFFFFFFFFFFFF000FFFFFFFFFFFFFFFFFFFFFFFFFFFFFFFFFFFFFFFFFFFF
310
FFFFFFFFFFFFFFFFFFFFFFFFFFFFFFFFFFFFFFFFFFFFFFFFFFFFFFFFFFFFFFFF
310
FFFFFFFFFFFFFFFFFFFFFFFFFFFFFFFFFFFFFFFFFFFFFFFFFFFFFFFFFFFFFFFF
310
F000FFFFFFFFFFFFFFFFFFFFFFFFFFFFFFFFFFFFFFFFFFFFFFFFFFFFFFFFFFFF
310
FFFFFFFFFFFFFFFFFFFFFFFFFFFFFFFFFFFFFFFFFFFFFFFFFFFFFFFFFFFFFFFF
310
FFFFFFFFFFFFFFFFFFFFFFFFFFFFFFFFFFFFFFFFFFFFFFFFF000FFFFFFFFFFFF
310
FFFFFFFFFFFFFFFFFFFFFFFFFFFFFFFFFFFFFFFFFFFFFFFFFFFFFFFFFFFFFFFF
310
FFFFFFFFFFFFFFFFFFFFFFFFFFFFFFFFFFFFFFFFFFFFFFFFFFFFFFFFFFFFFFFF
310
FFFFFFFFFFFFFFFFFFFFFFFFFFFFFFFFF000FFFFFFFFFFFFFFFFFFFFFFFFFFFF
310
FFFFFFFFFFFFFFFFFFFFFFFFFFFFFFFFFFFFFFFFFFFFFFFFFFFFFFFFFFFFFFFF
310
FFFFFFFFFFFFFFFFFFFFFFFFFFFFFFFFFFFFFFFFFFFFFFFFFFFFFFFFFFFFFFFF
310
FFFFFFFFFFFFFFFFF000FFFFFFFFFFFFFFFFFFFFFFFFFFFFFFFFFFFFFFFFFFFF
310
FFFFFFFFFFFFFFFFFFFFFFFFFFFFFFFFFFFFFFFFFFFFFFFFFFFFFFFFFFFFFFFF
310
FFFFFFFFFFFFFFFFFFFFFFFFFFFFFFFFFFFFFFFFFFFFFFFFFFFFFFFFFFFFFFFF
310
F000FFFFFFFFFFFFFFFFFFFFFFFFFFFFFFFFFFFFFFFFFFFFFFFFFFFFFFFFFFFF
310
FFFFFFFFFFFFFFFFFFFFFFFFFFFFFFFFFFFFFFFFFFFFFFFFFFFFFFFFFFFFFFFF
310
FFFFFFFFFFFFFFFFFFFFFFFFFFFFFFFFFFFFFFFFFFFFFFFFF000FFFFFFFFFFFF
310
FFFFFFFFFFFFFFFFFFFFFFFFFFFFFFFFFFFFFFFFFFFFFFFFFFFFFFFFFFFFFFFF
310
FFFFFFFFFFFFFFFFFFFFFFFFFFFFFFFFFFFFFFFFFFFFFFFFFFFFFFFFFFFFFFFF
310
FFFFFFFFFFFFFFFFFFFFFFFFFFFFFFFFF000FFFFFFFFFFFFFFFFFFFFFFFFFFFF
310
FFFFFFFFFFFFFFFFFFFFFFFFFFFFFFFFFFFFFFFFFFFFFFFFFFFFFFFFFFFFFFFF
310
FFFFFFFFFFFFFFFFFFFFFFFFFFFFFFFFFFFFFFFFFFFFFFFFFFFFFFFFFFFFFFFF
310
FFFFFFFFFFFFFFFFF000FFFFF80003FFFFFFFFFFFFFFFFFFFFFFFFFFFFFFFFFF
310
FFFFF00007FFFFFFFFFF00007FFFFFF800000000000000007FFFFFFFFFFFFFFF
310
FFFFFFFC001FFFFFFFFFFFFFFC001FFFFFFFFFFFFFFFFFFFFFFFFFFE0007FFFF
310
F000FFFF8000007FFFFFFFF8000FFFFFC0007FFFFF80007FFFFF0000007FFFFF
310
FFF8000007FFFFF800000000000000007FFFFFF0001FFFFFFFFFFFC00001FFFF
310
FFFFFFFFC00001FFFFFFFF000000000003FFFFE000007FFFF000FFFE0000000F
310
FFFFFFF0000FFFFF80007FFFFF80007FFFFC0000001FFFFFFFC0000001FFFFF8
310
00000000000000007FFFFFF0001FFFFFFFFFFE0000003FFFFFFFFFFE0000003F
310
FFFFFF000000000003FFFF0000000FFFF000FFF800000003FFFFFFF00007FFFF
310
80007FFFFF80007FFFF000000007FFFFFF000000003FFFF80000000000000000
310
7FFFFFF0001FFFFFFFFFF80000000FFFFFFFFFF80000000FFFFFFF0000000000
310
03FFFC00000003FFF000FFE000000000FFFFFFF00007FFFF80003FFFFF80007F
310
FFC000000001FFFFFC000000001FFFF800000000000000007FFFFFF0001FFFFF
310
FFFFE000000003FFFFFFFFE000000003FFFFFF000000000003FFF000000000FF
310
F000FF80000000007FFFFFF00007FFFF80003FFFFF80007FFF8000000000FFFF
310
F80000000007FFF800000000000000007FFFFFF0001FFFFFFFFFC000000001FF
310
FFFFFFC000000001FFFFFF000000000003FFC0000000007FF000FF0000000000
310
3FFFFFE00007FFFF00003FFFFF80007FFE00000000003FFFF00000000003FFF8
310
00000000000000007FFFFFF0001FFFFFFFFF8000000000FFFFFFFF8000000000
310
FFFFFF000000000003FF80000000003FF000FE00000000001FFFFFE00003FFFF
310
00003FFFFF80007FFC00000000001FFFE00000000001FFF8000001FFFE000000
310
7FFFFFF0001FFFFFFFFE00000000003FFFFFFE00000000003FFFFF0000000000
310
03FF00000000001FF000FC00000000000FFFFFE00003FFFF00001FFFFF80007F
310
F800000000001FFFC00000000000FFF8000001FFFE0000007FFFFFF0001FFFFF
310
FFFC00000000001FFFFFFC00000000001FFFFF000000000003FE00000000000F
310
F000F8000000000007FFFFE00003FFFF00001FFFFF80007FF800000000000FFF
310
800000000000FFF8000001FFFE0000007FFFFFF0001FFFFFFFF800000000000F
310
FFFFF800000000000FFFFF000000000003FC000000000007F000F80000000000
310
03FFFFC00003FFFE00001FFFFF80007FF0000000000007FF0000000000007FF8
310
000001FFFE0000007FFFFFF0001FFFFFFFF0000000000007FFFFF00000000000
310
07FFFF000000000003F8000000000003F000F0000000000003FFFFC00001FFFE
310
00001FFFFF80007FE0000000000007FE0000000000003FF8000001FFFE000000
310
7FFFFFF0001FFFFFFFF0000000000007FFFFF0000000000007FFFF0000000000
310
03F800001F800003F000E00001FFF00001FFFFC00001FFFE00000FFFFF80007F
310
E00001FFE00003FE00001FFF00003FF8000001FFFE0000007FFFFFF0001FFFFF
310
FFE000003E000003FFFFE000003E000003FFFF000000000003F00001FFF80001
310
F000E00007FFFC0001FFFFC00001FFFE00000FFFFF80007FC0000FFFFC0003FC
310
0000FFFFC0001FF8000001FFFE0000007FFFFFF0001FFFFFFFC00003FFE00001
310
FFFFC00003FFE00001FFFF0001FFFFFFFFF00007FFFE0001F000E0000FFFFF00
310
00FFFF800001FFFC00000FFFFF80007FC0001FFFFE0001FC0001FFFFE0001FF8
310
000001FFFE0000007FFFFFF0001FFFFFFF80000FFFF80000FFFF80000FFFF800
310
00FFFF0003FFFFFFFFE0000FFFFF8000F000C0003FFFFF8000FFFF800000FFFC
310
000007FFFF80007F80003FFFFF0001FC0003FFFFF0001FF8000001FFFE000000
310
7FFFFFF0001FFFFFFF80003FFFFE0000FFFF80003FFFFE0000FFFF0003FFFFFF
310
FFE0003FFFFF8000F000C0003FFFFF8000FFFF800000FFFC000007FFFF80007F
310
80007FFFFF8001F80007FFFFF8000FF8000001FFFE0000007FFFFFF0001FFFFF
310
FF00007FFFFF00007FFF00007FFFFF00007FFF0003FFFFFFFFE0003FFFFFC000
310
F000C0007FFFFFC000FFFF000000FFFC000007FFFF80007F8000FFFFFF8000F8
310
000FFFFFF8000FF8000001FFFE0000007FFFFFF0001FFFFFFF0000FFFFFF8000
310
7FFF0000FFFFFF80007FFF0003FFFFFFFFC0007FFFFFC00070008000FFFFFFC0
310
00FFFF000000FFF8000007FFFF80007F8000FFFFFF8000F8000FFFFFF8000FF8
310
000001FFFE0000007FFFFFF0001FFFFFFE0001FFFFFFC0003FFE0001FFFFFFC0
310
003FFF0003FFFFFFFFC0007FFFFFE00070008000FFFFFFC0007FFF0000007FF8
310
000003FFFF80007F0001FFFFFF8000F8000FFFFFF8000FF8000001FFFE000000
310
7FFFFFF0001FFFFFFE0001FFFFFFC0003FFE0001FFFFFFC0003FFF0003FFFFFF
310
FFC000FFFFFFE00070008000FFFFFFC0007FFF0000007FF8000003FFFF80007F
310
0001FFFFFF8000F8001FFFFFF8000FF8000001FFFE0000007FFFFFF0001FFFFF
310
FE0003FFFFFFE0003FFE0003FFFFFFE0003FFF0003FFFFFFFFC000FFFFFFE000
310
70008000FFFFFFC0007FFE0000007FF8000003FFFF80007F0001FFFFFF8000F0
310
001FFFFFF8000FF8000001FFFE0000007FFFFFF0001FFFFFFC0003FFFFFFE000
310
1FFC0003FFFFFFE0001FFF0003FFFFFFFFC000FFFFFFC00070008000FFFFFF80
310
007FFE0000007FF0000003FFFF80007F0001FFFFFF0000F0001FFFFFF8000FF8
310
000001FFFE0000007FFFFFF0001FFFFFFC0007FFFFFFF0001FFC0007FFFFFFF0
310
001FFF0003FFFFFFFFC000FFFFFFC00070008001FFFFFF0000FFFE0000003FF0
310
000001FFFF80007F0001FFFFFF0000F8001FFFFFF0000FF8000001FFFE000000
310
7FFFFFF0001FFFFFFC0007FFFFFFF0001FFC0007FFFFFFF0001FFF0003FFFFFF
310
FFC001FFFFFF80007000FFFFFFFFFE0000FFFE0008003FF0008001FFFF80007F
310
FFFFFFFFFC0000FFFFFFFFFFE0000FF8000001FFFE0000007FFFFFF0001FFFFF
310
F8000FFFFFFFF8000FF8000FFFFFFFF8000FFF0003FFFFFFFFFFFFFFFFFF0000
310
7000FFFFFFFFFC0000FFFC0008003FF0008001FFFF80007FFFFFFFFFF80001FF
310
FFFFFFFF80000FF8000001FFFE0000007FFFFFF0001FFFFFF8000FFFFFFFF800
310
0FF8000FFFFFFFF8000FFF0003FFFFFFFFFFFFFFFFFE0000F000FFFFFFFFE000
310
00FFFC000C003FE000C001FFFF80007FFFFFFFFFC00001FFFFFFFFFE00001FF8
310
000001FFFE0000007FFFFFF0001FFFFFF8000FFFFFFFF8000FF8000FFFFFFFF8
310
000FFF0003FFFFFFFFFFFFFFFFF00000F000FFFFFFFE000001FFFC000C001FE0
310
00C000FFFF80007FFFFFFFFE000001FFFFFFFFE000001FF80FFFFFFFFFFFFFC0
310
7FFFFFF0001FFFFFF8000FFFFFFFF8000FF8000FFFFFFFF8000FFF0003FFFFFF
310
FFFFFFFFFF800000F000FFFFFFC0000001FFFC001C001FE001C000FFFF80007F
310
FFFFFF80000003FFFFFFF80000001FF80FFFFFFFFFFFFFC07FFFFFF0001FFFFF
310
F8001FFFFFFFFC000FF8001FFFFFFFFC000FFF0003FFFFFFFFFFFFFFF0000001
310
F000FFFFF800000001FFF8001C001FE001C000FFFF80007FFFFFF800000003FF
310
FFFF800000003FF80FFFFFFFFFFFFFC07FFFFFF0001FFFFFF8001FFFFFFFFC00
310
0FF8001FFFFFFFFC000FFF0003FFFFFFFFFFFFFE00000001F000FFFFC0000000
310
03FFF8001E001FC001E000FFFF80007FFFFF8000000007FFFFFC000000003FF8
310
0FFFFFFFFFFFFFC07FFFFFF0001FFFFFF8001FFFFFFFFC000FF8001FFFFFFFFC
310
000FFF0003FFFFFFFFFFFFE000000003F000FFFE0000000007FFF8001E000FC0
310
01E0007FFF80007FFFFE0000000007FFFFE0000000007FF80FFFFFFFFFFFFFC0
310
7FFFFFF0001FFFFFF0001FFFFFFFFC0007F0001FFFFFFFFC0007FF0003FFFFFF
310
FFFFFF0000000003F000FFF80000000007FFF8001E000FC003E0007FFF80007F
310
FFF0000000000FFFFF8000000000FFF80FFFFFFFFFFFFFC07FFFFFF0001FFFFF
310
F0001FFFFFFFFC0007F0001FFFFFFFFC0007FF0003FFFFFFFFFFFC0000000007
310
F000FFE0000000000FFFF0003E000FC003E0007FFF80007FFFC0000000001FFF
310
FE0000000001FFF80FFFFFFFFFFFFFC07FFFFFF0001FFFFFF0001FFFFFFFFC00
310
07F0001FFFFFFFFC0007FF0003FFFFFFFFFFF0000000000FF000FFC000000000
310
1FFFF0003F000F8003F0003FFF80007FFF80000000003FFFF80000000003FFF8
310
0FFFFFFFFFFFFFC07FFFFFF0001FFFFFF0001FFFFFFFFC0007F0001FFFFFFFFC
310
0007FF0003FFFFFFFFFFE0000000001FF000FF00000000007FFFF0003F000780
310
03F0003FFF80007FFF00000000007FFFF00000000007FFF80FFFFFFFFFFFFFC0
310
7FFFFFF0001FFFFFF0001FFFFFFFFC0007F0001FFFFFFFFC0007FF0003FFFFFF
310
FFFF80000000007FF000FE0000000000FFFFE0003F00078007F0003FFF80007F
310
FE0000000001FFFFE0000000001FFFF80FFFFFFFFFFFFFC07FFFFFF0001FFFFF
310
F0001FFFFFFFFC0007F0001FFFFFFFFC0007FF0003FFFFFFFFFF0000000000FF
310
F000FC0000000003FFFFE0007F00078007F0003FFF80007FFC0000000007FFFF
310
C0000000007FFFF80FFFFFFFFFFFFFC07FFFFFF0001FFFFFF8001FFFFFFFFC00
310
0FF8001FFFFFFFFC000FFF0003FFFFFFFFFE0000000003FFF000FC000000000F
310
FFFFE0007F80070007F8001FFF80007FF8000000001FFFFF8000000001FFFFF8
310
0FFFFFFFFFFFFFC07FFFFFF0001FFFFFF8001FFFFFFFFC000FF8001FFFFFFFFC
310
000FFF0003FFFFFFFFFC000000000FFFF000F8000000007FFFFFE0007F800700
310
07F8001FFF80007FF000000000FFFFFF800000000FFFFFF80FFFFFFFFFFFFFC0
310
7FFFFFF0001FFFFFF8000FFFFFFFF8000FF8000FFFFFFFF8000FFF0003FFFFFF
310
FFFC000000007FFFF000F800000007FFFFFFC0007F8003000FF8001FFF80007F
310
F000000007FFFFFF000000007FFFFFF80FFFFFFFFFFFFFC07FFFFFF0001FFFFF
310
F8000FFFFFFFF8000FF8000FFFFFFFF8000FFF0003FFFFFFFFF80000000FFFFF
310
F000F0000000FFFFFFFFC000FF8003000FF8001FFF80007FE0000000FFFFFFFF
310
0000000FFFFFFFF8000001FFFE0000007FFFFFF0001FFFFFF8000FFFFFFFF800
310
0FF8000FFFFFFFF8000FFF0003FFFFFFFFF8000000FFFFFFF000F000000FFFFF
310
FFFFC000FFC002000FF8000FFF80007FE000001FFFFFFFFE000001FFFFFFFFF8
310
000001FFFE0000007FFFFFF0001FFFFFF8000FFFFFFFF8000FF8000FFFFFFFF8
310
000FFF0003FFFFFFFFF000001FFFFFFFF000E00000FFFFFFFFFFC000FFC00200
310
0FFC000FFF80007FE00001FFFFFFFFFE00001FFFFFFFFFF8000001FFFE000000
310
7FFFFFF0001FFFFFFC000FFFFFFFF8001FFC000FFFFFFFF8001FFF0003FFFFFF
310
FFF00001FFFFFFFFF000E00007FFFFFFFFFF8000FFC000001FFC000FFF80007F
310
C0000FFFFFFFFFFE0000FFFFFFFFFFF8000001FFFE0000007FFFFFF0001FFFFF
310
FC0007FFFFFFF0001FFC0007FFFFFFF0001FFF0003FFFFFFFFF00007FFFFFFFF
310
F000E0001FFFFFFFFFFF8000FFC000001FFC000FFF80007FC0003FFFFFFFFFFE
310
0001FFFFFFFFFFF8000001FFFE0000007FFFFFF0001FFFFFFC0007FFFFFFF000
310
1FFC0007FFFFFFF0001FFF0003FFFFFFFFF0001FFFFFFFFFF000E0003FFFFF00
310
03FF8001FFE000001FFC0007FF80007FC0007FFFFF0007FC0003FFFFF0003FF8
310
000001FFFE0000007FFFFFF0001FFFFFFC0003FFFFFFE0001FFC0003FFFFFFE0
310
001FFF0003FFFFFFFFF0003FFFFFFFFFF000E0003FFFFF0001FF8001FFE00000
310
1FFE0007FF80007FC0007FFFFE0003FC0007FFFFE0003FF8000001FFFE000000
310
7FFFFFF0001FFFFFFE0003FFFFFFE0003FFE0003FFFFFFE0003FFF0003FFFFFF
310
FFF0003FFFFF8001F000E0003FFFFF0001FF0001FFE000001FFE0007FF80007F
310
C0007FFFFE0003FC0007FFFFE0003FF8000001FFFE0000007FFFFFF0001FFFFF
310
FE0001FFFFFFC0003FFE0001FFFFFFC0003FFF0003FFFFFFFFF0003FFFFF0001
310
F000E0003FFFFF0003FF0001FFE000003FFE0007FF80007FC0007FFFFE0003FC
310
0007FFFFE0003FF8000001FFFE0000007FFFFFF0001FFFFFFF0001FFFFFFC000
310
7FFF0001FFFFFFC0007FFF0003FFFFFFFFF0003FFFFF0001F000E0003FFFFE00
310
03FF0003FFF000003FFE0003FF80007FC0007FFFFC0003FE0007FFFFE0003FF8
310
000001FFFE0000007FFFFFF0001FFFFFFF0000FFFFFF80007FFF0000FFFFFF80
310
007FFF0003FFFFFFFFF0003FFFFF0001F000E0003FFFFE0003FF0003FFF00000
310
3FFF0003FF80007FC0007FFFFC0007FE0007FFFFC0003FF8000001FFFE000000
310
7FFFFFF0001FFFFFFF80007FFFFF0000FFFF80007FFFFF0000FFFF0003FFFFFF
310
FFF0003FFFFF0003F000E0003FFFFC0003FE0003FFF000003FFF0003FF80007F
310
E0003FFFF80007FE0003FFFFC0007FF8000001FFFE0000007FFFFFF0001FFFFF
310
FF80003FFFFE0000FFFF80003FFFFE0000FFFF0003FFFFFFFFF0001FFFFE0003
310
F000F0001FFFF80003FE0003FFF000007FFF0001FF80007FE0003FFFF00007FE
310
0001FFFF80007FF8000001FFFE0000007FFFFFF0001FFFFFFFC0000FFFF80001
310
FFFFC0000FFFF80001FFFF0003FFFFFFFFF0001FFFFC0003F000F0000FFFF000
310
07FE0007FFF800007FFF0001FF80007FE0001FFFE00007FF0000FFFE00007FF8
310
000001FFFE0000007FFFFFF0001FFFFFFFC00003FFE00001FFFFC00003FFE000
310
01FFFF0003FFFFFFFFF8000FFFF80003F000F00003FFC00007FC0007FFF80000
310
7FFF8001FF80007FF00007FF80000FFF00007FF80000FFF8000001FFFE000000
310
7F80000000000001FFE000003E000003FFFFE000003E000003FFFF0003FFFFFF
310
FFF80003FFE00007F000F800000000000FFC0007FFF800007FFF8001FF80007F
310
F000000000000FFF000000000000FFF8000001FFFE0000007F80000000000001
310
FFF0000000000007FFFFF0000000000007FFFF0003FFFFFFFFFC00007E000007
310
F000F800000000000FFC0007FFF80000FFFF8000FF80007FF800000000001FFF
310
800000000001FFF8000001FFFE0000007F80000000000001FFF800000000000F
310
FFFFF800000000000FFFFF0003FFFFFFFFFC00000000000FF000FC0000000000
310
1FFC0007FFFC0000FFFF8000FF80007FF800000000003FFFC00000000001FFF8
310
000001FFFE0000007F80000000000001FFF800000000000FFFFFF80000000000
310
0FFFFF0003FFFFFFFFFE00000000001FF000FE00000000003FF8000FFFFC0000
310
FFFF8000FF80007FFC00000000003FFFC00000000003FFF8000001FFFE000000
310
7F80000000000001FFFC00000000001FFFFFFC00000000001FFFFF0003FFFFFF
310
FFFF00000000001FF000FF00000000003FF8000FFFFC0000FFFFC000FF80007F
310
FE00000000007FFFE00000000007FFF8000001FFFE0000007F80000000000001
310
FFFE00000000003FFFFFFE00000000003FFFFF0003FFFFFFFFFF80000000003F
310
F000FF80000000007FF8000FFFFC0001FFFFC0007F80007FFF0000000000FFFF
310
F0000000000FFFF800000000000000007F80000000000001FFFF8000000000FF
310
FFFFFF8000000000FFFFFF0003FFFFFFFFFFC0000000007FF000FFC000000000
310
FFF8000FFFFE0001FFFFC0007F80007FFF8000000001FFFFF8000000001FFFF8
310
00000000000000007F80000000000001FFFFC000000001FFFFFFFFC000000001
310
FFFFFF0003FFFFFFFFFFE000000000FFF000FFE000000003FFF0001FFFFE0001
310
FFFFC0007F80007FFFC000000007FFFFFE000000003FFFF80000000000000000
310
7F80000000000001FFFFE000000003FFFFFFFFE000000003FFFFFF0003FFFFFF
310
FFFFF000000003FFF000FFF80000000FFFF0001FFFFE0001FFFFE0007F80007F
310
FFF00000000FFFFFFF00000000FFFFF800000000000000007F80000000000001
310
FFFFF80000000FFFFFFFFFF80000000FFFFFFF0003FFFFFFFFFFFC0000000FFF
310
F000FFFE0000003FFFF0001FFFFE0003FFFFE0003F80007FFFFC0000003FFFFF
310
FFC0000003FFFFF800000000000000007F80000000000001FFFFFE0000003FFF
310
FFFFFFFE0000003FFFFFFF0003FFFFFFFFFFFF0000003FFFF000FFFF800000FF
310
FFF0001FFFFF0003FFFFE0003F80007FFFFF000001FFFFFFFFF800001FFFFFF8
310
00000000000000007F80000000000001FFFFFFC00001FFFFFFFFFFFFC00001FF
310
FFFFFF0003FFFFFFFFFFFFC00000FFFFF000FFFFF8000FFFFFFFFFFFFFFFFFFF
310
FFFFFFFFFFFFFFFFFFFFF0001FFFFFFFFFFF0000FFFFFFF80000000000000000
310
7FFFFFFFFFFFFFFFFFFFFFFC001FFFFFFFFFFFFFFC001FFFFFFFFFFFFFFFFFFF
310
FFFFFFFC001FFFFFF000FFFFFFFFFFFFFFFFFFFFFFFFFFFFFFFFFFFFFFFFFFFF
310
FFFFFFFFFFFFFFFFFFFFFFFFFFFFFFFFFFFFFFFFFFFFFFFFFFFFFFFFFFFFFFFF
310
FFFFFFFFFFFFFFFFFFFFFFFFFFFFFFFFFFFFFFFFFFFFFFFFFFFFFFFFFFFFFFFF
310
F000FFFFFFFFFFFFFFFFFFFFFFFFFFFFFFFFFFFFFFFFFFFFFFFFFFFFFFFFFFFF
310
FFFFFFFFFFFFFFFFFFFFFFFFFFFFFFFFFFFFFFFFFFFFFFFFFFFFFFFFFFFFFFFF
310
FFFFFFFFFFFFFFFFFFFFFFFFFFFFFFFFFFFFFFFFFFFFFFFFF000FFFFFFFFFFFF
310
FFFFFFFFFFFFFFFFFFFFFFFFFFFFFFFFFFFFFFFFFFFFFFFFFFFFFFFFFFFFFFFF
310
FFFFFFFFFFFFFFFFFFFFFFFFFFFFFFFFFFFFFFFFFFFFFFFFFFFFFFFFFFFFFFFF
310
FFFFFFFFFFFFFFFFFFFFFFFFFFFFFFFFF000FFFFFFFFFFFFFFFFFFFFFFFFFFFF
310
FFFFFFFFFFFFFFFFFFFFFFFFFFFFFFFFFFFFFFFFFFFFFFFFFFFFFFFFFFFFFFFF
310
FFFFFFFFFFFFFFFFFFFFFFFFFFFFFFFFFFFFFFFFFFFFFFFFFFFFFFFFFFFFFFFF
310
FFFFFFFFFFFFFFFFF000FFFFFFFFFFFFFFFFFFFFFFFFFFFFFFFFFFFFFFFFFFFF
310
FFFFFFFFFFFFFFFFFFFFFFFFFFFFFFFFFFFFFFFFFFFFFFFFFFFFFFFFFFFFFFFF
310
FFFFFFFFFFFFFFFFFFFFFFFFFFFFFFFFFFFFFFFFFFFFFFFFFFFFFFFFFFFFFFFF
310
F000FFFFFFFFFFFFFFFFFFFFFFFFFFFFFFFFFFFFFFFFFFFFFFFFFFFFFFFFFFFF
310
FFFFFFFFFFFFFFFFFFFFFFFFFFFFFFFFFFFFFFFFFFFFFFFFFFFFFFFFFFFFFFFF
310
FFFFFFFFFFFFFFFFFFFFFFFFFFFFFFFFFFFFFFFFFFFFFFFFF000FFFFFFFFFFFF
310
FFFFFFFFFFFFFFFFFFFFFFFFFFFFFFFFFFFFFFFFFFFFFFFFFFFFFFFFFFFFFFFF
310
FFFFFFFFFFFFFFFFFFFFFFFFFFFFFFFFFFFFFFFFFFFFFFFFFFFFFFFFFFFFFFFF
310
FFFFFFFFFFFFFFFFFFFFFFFFFFFFFFFFF000FFFFFFFFFFFFFFFFFFFFFFFFFFFF
310
FFFFFFFFFFFFFFFFFFFFFFFFFFFFFFFFFFFFFFFFFFFFFFFFFFFFFFFFFFFFFFFF
310
FFFFFFFFFFFFFFFFFFFFFFFFFFFFFFFFFFFFFFFFFFFFFFFFFFFFFFFFFFFFFFFF
310
FFFFFFFFFFFFFFFFF000FFFFFFFFFFFFFFFFFFFFFFFFFFFFFFFFFFFFFFFFFFFF
310
FFFFFFFFFFFFFFFFFFFFFFFFFFFFFFFFFFFFFFFFFFFFFFFFFFFFFFFFFFFFFFFF
310
FFFFFFFFFFFFFFFFFFFFFFFFFFFFFFFFFFFFFFFFFFFFFFFFFFFFFFFFFFFFFFFF
310
F000FFFFFFFFFFFFFFFFFFFFFFFFFFFFFFFFFFFFFFFFFFFFFFFFFFFFFFFFFFFF
310
FFFFFFFFFFFFFFFFFFFFFFFFFFFFFFFFFFFFFFFFFFFFFFFFFFFFFFFFFFFFFFFF
310
FFFFFFFFFFFFFFFFFFFFFFFFFFFFFFFFFFFFFFFFFFFFFFFFF000FFFFFFFFFFFF
310
FFFFFFFFFFFFFFFFFFFFFFFFFFFFFFFFFFFFFFFFFFFFFFFFFFFFFFFFFFFFFFFF
310
FFFFFFFFFFFFFFFFFFFFFFFFFFFFFFFFFFFFFFFFFFFFFFFFFFFFFFFFFFFFFFFF
310
FFFFFFFFFFFFFFFFFFFFFFFFFFFFFFFFF000FFFFFFFFFFFFFFFFFFFFFFFFFFFF
310
FFFFFFFFFFFFFFFFFFFFFFFFFFFFFFFFFFFFFFFFFFFFFFFFFFFFFFFFFFFFFFFF
310
FFFFFFFFFFFFFFFFFFFFFFFFFFFFFFFFFFFFFFFFFFFFFFFFFFFFFFFFFFFFFFFF
310
FFFFFFFFFFFFFFFFF000FFFFFFFFFFFFFFFFFFFFFFFFFFFFFFFFFFFFFFFFFFFF
310
FFFFFFFFFFFFFFFFFFFFFFFFFFFFFFFFFFFFFFFFFFFFFFFFFFFFFFFFFFFFFFFF
310
FFFFFFFFFFFFFFFFFFFFFFFFFFFFFFFFFFFFFFFFFFFFFFFFFFFFFFFFFFFFFFFF
310
F000FFFFFFFFFFFFFFFFFFFFFFFFFFFFFFFFFFFFFFFFFFFFFFFFFFFFFFFFFFFF
310
FFFFFFFFFFFFFFFFFFFFFFFFFFFFFFFFFFFFFFFFFFFFFFFFFFFFFFFFFFFFFFFF
310
FFFFFFFFFFFFFFFFFFFFFFFFFFFFFFFFFFFFFFFFFFFFFFFFF000FFFFFFFFFFFF
310
FFFFFFFFFFFFFFFFFFFFFFFFFFFFFFFFFFFFFFFFFFFFFFFFFFFFFFFFFFFFFFFF
310
FFFFFFFFFFFFFFFFFFFFFFFFFFFFFFFFFFFFFFFFFFFFFFFFFFFFFFFFFFFFFFFF
310
FFFFFFFFFFFFFFFFFFFFFFFFFFFFFFFFF000FFFFFFFFFFFFFFFFFFFFFFFFFFFF
310
FFFFFFFFFFFFFFFFFFFFFFFFFFFFFFFFFFFFFFFFFFFFFFFFFFFFFFFFFFFFFFFF
310
FFFFFFFFFFFFFFFFFFFFFFFFFFFFFFFFFFFFFFFFFFFFFFFFFFFFFFFFFFFFFFFF
310
FFFFFFFFFFFFFFFFF000FFFFFFFFFFFFFFFFFFFFFFFFFFFFFFFFFFFFFFFFFFFF
310
FFFFFFFFFFFFFFFFFFFFFFFFFFFFFFFFFFFFFFFFFFFFFFFFFFFFFFFFFFFFFFFF
310
FFFFFFFFFFFFFFFFFFFFFFFFFFFFFFFFFFFFFFFFFFFFFFFFFFFFFFFFFFFFFFFF
310
F000FFFFFFFFFFFFFFFFFFFFFFFFFFFFFFFFFFFFFFFFFFFFFFFFFFFFFFFFFFFF
310
FFFFFFFFFFFFFFFFFFFFFFFFFFFFFFFFFFFFFFFFFFFFFFFFFFFFFFFFFFFFFFFF
310
FFFFFFFFFFFFFFFFFFFFFFFFFFFFFFFFFFFFFFFFFFFFFFFFF000FFFFFFFFFFFF
310
FFFFFFFFFFFFFFFFFFFFFFFFFFFFFFFFFFFFFFFFFFFFFFFFFFFFFFFFFFFFFFFF
310
FFFFFFFFFFFFFFFFFFFFFFFFFFFFFFFFFFFFFFFFFFFFFFFFFFFFFFFFFFFFFFFF
310
FFFFFFFFFFFFFFFFFFFFFFFFFFFFFFFFF000FFFFFFFFFFFFFFFFFFFFFFFFFFFF
310
FFFFFFFFFFFFFFFFFFFFFFFFFFFFFFFFFFFFFFFFFFFFFFFFFFFFFFFFFFFFFFFF
310
FFFFFFFFFFFFFFFFFFFFFFFFFFFFFFFFFFFFFFFFFFFFFFFFFFFFFFFFFFFFFFFF
310
FFFFFFFFFFFFFFFFF000FFFFFFFFFFFFFFFFFFFFFFFFFFFFFFFFFFFFFFFFFFFF
310
FFFFFFFFFFFFFFFFFFFFFFFFFFFFFFFFFFFFFFFFFFFFFFFFFFFFFFFFFFFFFFFF
310
FFFFFFFFFFFFFFFFFFFFFFFFFFFFFFFFFFFFFFFFFFFFFFFFFFFFFFFFFFFFFFFF
310
F000FFFFFFFFFFFFFFFFFFFFFFFFFFFFFFFFFFFFFFFFFFFFFFFFFFFFFFFFFFFF
310
FFFFFFFFFFFFFFFFFFFFFFFFFFFFFFFFFFFFFFFFFFFFFFFFFFFFFFFFFFFFFFFF
310
FFFFFFFFFFFFFFFFFFFFFFFFFFFFFFFFFFFFFFFFFFFFFFFFF000FFFFFFFFFFFF
310
FFFFFFFFFFFFFFFFFFFFFFFFFFFFFFFFFFFFFFFFFFFFFFFFFFFFFFFFFFFFFFFF
310
FFFFFFFFFFFFFFFFFFFFFFFFFFFFFFFFFFFFFFFFFFFFFFFFFFFFFFFFFFFFFFFF
310
FFFFFFFFFFFFFFFFFFFFFFFFFFFFFFFFF0000000000000000000000000000000
310
0000000000000000000000000000000000000000000000000000000000000000
310
0000000000000000000000000000000000000000000000000000000000000000
310
0000000000000000000000000000000000000000000000000000000000000000
310
0000000000000000000000000000000000000000000000000000000000000000
310
0000000000000000000000000000000000000000000000000000000000000000
310
0000000000000000000000000000000000000000000000000000000000000000
310
0000000000000000000000000000000000000000000000000000000000000000
310
0000000000000000000000000000000000000000000000000000000000000000
310
0000000000000000000000000000000000000000000000000000000000000000
310
0000000000000000000000000000000000000000000000000000000000000000
310
0000000000000000000000000000000000000000000000000000000000000000
310
0000000000000000000000000000000000000000000000000000000000000000
310
0000000000000000000000000000000000000000000000000000000000000000
310
0000000000000000000000000000000000000000000000000000000000000000
310
0000000000000000000000000000000000000000000000000000000000000000
  1
OLE
  0
ENDSEC
  0
SECTION
  2
OBJECTS
  0
DICTIONARY
  5
C
330
0
100
AcDbDictionary
281
     1
  3
ACAD_GROUP
350
D
  3
ACAD_LAYOUT
350
1A
  3
ACAD_MLINESTYLE
350
17
  3
ACAD_PLOTSETTINGS
350
19
  3
ACAD_PLOTSTYLENAME
350
E
  0
DICTIONARY
  5
D
102
{ACAD_REACTORS
330
C
102
}
330
C
100
AcDbDictionary
281
     1
  0
DICTIONARY
  5
1A
102
{ACAD_REACTORS
330
C
102
}
330
C
100
AcDbDictionary
281
     1
  3
Layout1
350
1E
  3
Layout2
350
26
  3
Model
350
22
  0
DICTIONARY
  5
17
102
{ACAD_REACTORS
330
C
102
}
330
C
100
AcDbDictionary
281
     1
  3
Standard
350
18
  0
DICTIONARY
  5
19
102
{ACAD_REACTORS
330
C
102
}
330
C
100
AcDbDictionary
281
     1
  0
ACDBDICTIONARYWDFLT
  5
E
102
{ACAD_REACTORS
330
C
102
}
330
C
100
AcDbDictionary
281
     1
  3
Normal
350
F
100
AcDbDictionaryWithDefault
340
F
  0
LAYOUT
  5
1E
102
{ACAD_REACTORS
330
1A
102
}
330
1A
100
AcDbPlotSettings
  1

  2
none_device
  4

  6

 40
0.0
 41
0.0
 42
0.0
 43
0.0
 44
0.0
 45
0.0
 46
0.0
 47
0.0
 48
0.0
 49
0.0
140
0.0
141
0.0
142
1.0
143
1.0
 70
   688
 72
     0
 73
     0
 74
     5
  7

 75
    16
147
1.0
148
0.0
149
0.0
100
AcDbLayout
  1
Layout1
 70
     1
 71
     1
 10
0.0
 20
0.0
 11
420.0
 21
297.0
 12
0.0
 22
0.0
 32
0.0
 14
1.0000000000E+20
 24
1.0000000000E+20
 34
1.0000000000E+20
 15
-1.0000000000E+20
 25
-1.0000000000E+20
 35
-1.0000000000E+20
146
0.0
 13
0.0
 23
0.0
 33
0.0
 16
1.0
 26
0.0
 36
0.0
 17
0.0
 27
1.0
 37
0.0
 76
     0
330
1B
  0
LAYOUT
  5
26
102
{ACAD_REACTORS
330
1A
102
}
330
1A
100
AcDbPlotSettings
  1

  2
none_device
  4

  6

 40
0.0
 41
0.0
 42
0.0
 43
0.0
 44
0.0
 45
0.0
 46
0.0
 47
0.0
 48
0.0
 49
0.0
140
0.0
141
0.0
142
1.0
143
1.0
 70
   688
 72
     0
 73
     0
 74
     5
  7

 75
    16
147
1.0
148
0.0
149
0.0
100
AcDbLayout
  1
Layout2
 70
     1
 71
     2
 10
0.0
 20
0.0
 11
0.0
 21
0.0
 12
0.0
 22
0.0
 32
0.0
 14
0.0
 24
0.0
 34
0.0
 15
0.0
 25
0.0
 35
0.0
146
0.0
 13
0.0
 23
0.0
 33
0.0
 16
1.0
 26
0.0
 36
0.0
 17
0.0
 27
1.0
 37
0.0
 76
     0
330
23
  0
LAYOUT
  5
22
102
{ACAD_REACTORS
330
1A
102
}
330
1A
100
AcDbPlotSettings
  1

  2
none_device
  4

  6

 40
0.0
 41
0.0
 42
0.0
 43
0.0
 44
0.0
 45
0.0
 46
0.0
 47
0.0
 48
0.0
 49
0.0
140
0.0
141
0.0
142
1.0
143
1.0
 70
  1712
 72
     0
 73
     0
 74
     0
  7

 75
     0
147
1.0
148
0.0
149
0.0
100
AcDbLayout
  1
Model
 70
     1
 71
     0
 10
0.0
 20
0.0
 11
297.0
 21
210.0
 12
0.0
 22
0.0
 32
0.0
 14
0.0
 24
0.0
 34
0.0
 15
297.0
 25
210.0
 35
0.0
146
0.0
 13
0.0
 23
0.0
 33
0.0
 16
1.0
 26
0.0
 36
0.0
 17
0.0
 27
1.0
 37
0.0
 76
     0
330
1F
331
29
  0
MLINESTYLE
  5
18
102
{ACAD_REACTORS
330
17
102
}
330
17
100
AcDbMlineStyle
  2
Standard
 70
     0
  3

 62
   256
 51
90.0
 52
90.0
 71
     2
 49
0.5
 62
   256
  6
BYLAYER
 49
-0.5
 62
   256
  6
BYLAYER
  0
ACDBPLACEHOLDER
  5
F
102
{ACAD_REACTORS
330
E
102
}
330
E
  0
ENDSEC
  0
EOF
