  0
SECTION
  2
HEADER
  9
$ACADVER
  1
AC1015
  9
$ACADMAINTVER
 70
     6
  9
$DWGCODEPAGE
  3
ANSI_1252
  9
$INSBASE
 10
0.0
 20
0.0
 30
0.0
  9
$EXTMIN
 10
0.0
 20
0.0
 30
0.0
  9
$EXTMAX
 10
297.0
 20
210.0
 30
0.0
  9
$LIMMIN
 10
0.0
 20
0.0
  9
$LIMMAX
 10
297.0
 20
210.0
  9
$ORTHOMODE
 70
     0
  9
$REGENMODE
 70
     1
  9
$FILLMODE
 70
     1
  9
$QTEXTMODE
 70
     0
  9
$MIRRTEXT
 70
     1
  9
$LTSCALE
 40
1.0
  9
$ATTMODE
 70
     1
  9
$TEXTSIZE
 40
2.0
  9
$TRACEWID
 40
1.0
  9
$TEXTSTYLE
  7
Standard
  9
$CLAYER
  8
0
  9
$CELTYPE
  6
ByLayer
  9
$CECOLOR
 62
   256
  9
$CELTSCALE
 40
1.0
  9
$DISPSILH
 70
     0
  9
$DIMSCALE
 40
1.0
  9
$DIMASZ
 40
3.0
  9
$DIMEXO
 40
0.0
  9
$DIMDLI
 40
3.75
  9
$DIMRND
 40
0.0
  9
$DIMDLE
 40
0.0
  9
$DIMEXE
 40
1.0
  9
$DIMTP
 40
0.0
  9
$DIMTM
 40
0.0
  9
$DIMTXT
 40
2.0
  9
$DIMCEN
 40
2.5
  9
$DIMTSZ
 40
0.0
  9
$DIMTOL
 70
     0
  9
$DIMLIM
 70
     0
  9
$DIMTIH
 70
     1
  9
$DIMTOH
 70
     1
  9
$DIMSE1
 70
     0
  9
$DIMSE2
 70
     0
  9
$DIMTAD
 70
     1
  9
$DIMZIN
 70
     0
  9
$DIMBLK
  1

  9
$DIMASO
 70
     1
  9
$DIMSHO
 70
     1
  9
$DIMPOST
  1

  9
$DIMAPOST
  1

  9
$DIMALT
 70
     0
  9
$DIMALTD
 70
     3
  9
$DIMALTF
 40
0.0393700787
  9
$DIMLFAC
 40
1.0
  9
$DIMTOFL
 70
     1
  9
$DIMTVP
 40
0.0
  9
$DIMTIX
 70
     0
  9
$DIMSOXD
 70
     0
  9
$DIMSAH
 70
     0
  9
$DIMBLK1
  1

  9
$DIMBLK2
  1

  9
$DIMSTYLE
  2
ISO-25
  9
$DIMCLRD
 70
     0
  9
$DIMCLRE
 70
     0
  9
$DIMCLRT
 70
     0
  9
$DIMTFAC
 40
1.0
  9
$DIMGAP
 40
1.524
  9
$DIMJUST
 70
     0
  9
$DIMSD1
 70
     0
  9
$DIMSD2
 70
     0
  9
$DIMTOLJ
 70
     0
  9
$DIMTZIN
 70
     0
  9
$DIMALTZ
 70
     0
  9
$DIMALTTZ
 70
     0
  9
$DIMUPT
 70
     0
  9
$DIMDEC
 70
     2
  9
$DIMTDEC
 70
     3
  9
$DIMALTU
 70
     2
  9
$DIMALTTD
 70
     3
  9
$DIMTXSTY
  7
Standard
  9
$DIMAUNIT
 70
     0
  9
$DIMADEC
 70
     2
  9
$DIMALTRND
 40
0.0
  9
$DIMAZIN
 70
     0
  9
$DIMDSEP
 70
    44
  9
$DIMATFIT
 70
     3
  9
$DIMFRAC
 70
     0
  9
$DIMLDRBLK
  1

  9
$DIMLUNIT
 70
     2
  9
$DIMLWD
 70
    -2
  9
$DIMLWE
 70
    -2
  9
$DIMTMOVE
 70
     0
  9
$LUNITS
 70
     2
  9
$LUPREC
 70
     2
  9
$SKETCHINC
 40
1.0
  9
$FILLETRAD
 40
10.0
  9
$AUNITS
 70
     0
  9
$AUPREC
 70
     2
  9
$MENU
  1
.
  9
$ELEVATION
 40
0.0
  9
$PELEVATION
 40
0.0
  9
$THICKNESS
 40
0.0
  9
$LIMCHECK
 70
     0
  9
$CHAMFERA
 40
10.0
  9
$CHAMFERB
 40
10.0
  9
$CHAMFERC
 40
20.0
  9
$CHAMFERD
 40
0.0
  9
$SKPOLY
 70
     0
  9
$TDCREATE
 40
2456071.405717234
  9
$TDUCREATE
 40
2456071.322383901
  9
$TDUPDATE
 40
2456071.40571868
  9
$TDUUPDATE
 40
2456071.322385347
  9
$TDINDWG
 40
0.0000000116
  9
$TDUSRTIMER
 40
0.0000000116
  9
$USRTIMER
 70
     1
  9
$ANGBASE
 50
0.0
  9
$ANGDIR
 70
     0
  9
$PDMODE
 70
     0
  9
$PDSIZE
 40
-1.0
  9
$PLINEWID
 40
0.0
  9
$SPLFRAME
 70
     0
  9
$SPLINETYPE
 70
     6
  9
$SPLINESEGS
 70
     8
  9
$HANDSEED
  5
255
  9
$SURFTAB1
 70
     6
  9
$SURFTAB2
 70
     6
  9
$SURFTYPE
 70
     6
  9
$SURFU
 70
     6
  9
$SURFV
 70
     6
  9
$UCSBASE
  2

  9
$UCSNAME
  2

  9
$UCSORG
 10
0.0
 20
0.0
 30
0.0
  9
$UCSXDIR
 10
1.0
 20
0.0
 30
0.0
  9
$UCSYDIR
 10
0.0
 20
1.0
 30
0.0
  9
$UCSORTHOREF
  2

  9
$UCSORTHOVIEW
 70
     0
  9
$UCSORGTOP
 10
0.0
 20
0.0
 30
0.0
  9
$UCSORGBOTTOM
 10
0.0
 20
0.0
 30
0.0
  9
$UCSORGLEFT
 10
0.0
 20
0.0
 30
0.0
  9
$UCSORGRIGHT
 10
0.0
 20
0.0
 30
0.0
  9
$UCSORGFRONT
 10
0.0
 20
0.0
 30
0.0
  9
$UCSORGBACK
 10
0.0
 20
0.0
 30
0.0
  9
$PUCSBASE
  2

  9
$PUCSNAME
  2

  9
$PUCSORG
 10
0.0
 20
0.0
 30
0.0
  9
$PUCSXDIR
 10
1.0
 20
0.0
 30
0.0
  9
$PUCSYDIR
 10
0.0
 20
1.0
 30
0.0
  9
$PUCSORTHOREF
  2

  9
$PUCSORTHOVIEW
 70
     0
  9
$PUCSORGTOP
 10
0.0
 20
0.0
 30
0.0
  9
$PUCSORGBOTTOM
 10
0.0
 20
0.0
 30
0.0
  9
$PUCSORGLEFT
 10
0.0
 20
0.0
 30
0.0
  9
$PUCSORGRIGHT
 10
0.0
 20
0.0
 30
0.0
  9
$PUCSORGFRONT
 10
0.0
 20
0.0
 30
0.0
  9
$PUCSORGBACK
 10
0.0
 20
0.0
 30
0.0
  9
$USERI1
 70
     0
  9
$USERI2
 70
     0
  9
$USERI3
 70
     0
  9
$USERI4
 70
     0
  9
$USERI5
 70
     0
  9
$USERR1
 40
0.0
  9
$USERR2
 40
0.0
  9
$USERR3
 40
0.0
  9
$USERR4
 40
0.0
  9
$USERR5
 40
0.0
  9
$WORLDVIEW
 70
     1
  9
$SHADEDGE
 70
     3
  9
$SHADEDIF
 70
    70
  9
$TILEMODE
 70
     1
  9
$MAXACTVP
 70
    64
  9
$PINSBASE
 10
0.0
 20
0.0
 30
0.0
  9
$PLIMCHECK
 70
     0
  9
$PEXTMIN
 10
1.0000000000E+20
 20
1.0000000000E+20
 30
1.0000000000E+20
  9
$PEXTMAX
 10
-1.0000000000E+20
 20
-1.0000000000E+20
 30
-1.0000000000E+20
  9
$PLIMMIN
 10
0.0
 20
0.0
  9
$PLIMMAX
 10
420.0
 20
297.0
  9
$UNITMODE
 70
     0
  9
$VISRETAIN
 70
     1
  9
$PLINEGEN
 70
     0
  9
$PSLTSCALE
 70
     1
  9
$TREEDEPTH
 70
  3020
  9
$CMLSTYLE
  2
Standard
  9
$CMLJUST
 70
     0
  9
$CMLSCALE
 40
20.0
  9
$PROXYGRAPHICS
 70
     1
  9
$MEASUREMENT
 70
     1
  9
$CELWEIGHT
370
    -1
  9
$ENDCAPS
280
     0
  9
$JOINSTYLE
280
     0
  9
$LWDISPLAY
290
     1
  9
$INSUNITS
 70
     4
  9
$HYPERLINKBASE
  1

  9
$STYLESHEET
  1

  9
$XEDIT
290
     1
  9
$CEPSNTYPE
380
     0
  9
$PSTYLEMODE
290
     1
  9
$FINGERPRINTGUID
  2
{6FFFB38E-8B1B-46BD-869C-3BB68267AC46}
  9
$VERSIONGUID
  2
{FAEB1C32-E019-11D5-929B-00C0DF256EC4}
  9
$EXTNAMES
290
     1
  9
$PSVPSCALE
 40
0.0
  9
$OLESTARTUP
290
     0
  0
ENDSEC
  0
SECTION
  2
CLASSES
  0
CLASS
  1
ACDBDICTIONARYWDFLT
  2
AcDbDictionaryWithDefault
  3
ObjectDBX Classes
 90
        0
280
     0
281
     0
  0
CLASS
  1
VISUALSTYLE
  2
AcDbVisualStyle
  3
ObjectDBX Classes
 90
     4095
280
     0
281
     0
  0
CLASS
  1
MATERIAL
  2
AcDbMaterial
  3
ObjectDBX Classes
 90
     1153
280
     0
281
     0
  0
CLASS
  1
ACDBPLACEHOLDER
  2
AcDbPlaceHolder
  3
ObjectDBX Classes
 90
        0
280
     0
281
     0
  0
CLASS
  1
LAYOUT
  2
AcDbLayout
  3
ObjectDBX Classes
 90
        0
280
     0
281
     0
  0
ENDSEC
  0
SECTION
  2
TABLES
  0
TABLE
  2
VPORT
  5
8
330
0
100
AcDbSymbolTable
 70
     1
  0
VPORT
  5
29
330
8
100
AcDbSymbolTableRecord
100
AcDbViewportTableRecord
  2
*Active
 70
     0
 10
0.0
 20
0.0
 11
1.0
 21
1.0
 12
148.5
 22
105.0
 13
0.0
 23
0.0
 14
10.0
 24
10.0
 15
10.0
 25
10.0
 16
0.0
 26
0.0
 36
1.0
 17
0.0
 27
0.0
 37
0.0
 40
210.0
 41
1.4142857143
 42
50.0
 43
0.0
 44
0.0
 50
0.0
 51
0.0
 71
     0
 72
  2000
 73
     1
 74
     3
 75
     0
 76
     0
 77
     0
 78
     0
281
     0
 65
     1
110
0.0
120
0.0
130
0.0
111
1.0
121
0.0
131
0.0
112
0.0
122
1.0
132
0.0
 79
     0
146
0.0
  0
ENDTAB
  0
TABLE
  2
LTYPE
  5
5
330
0
100
AcDbSymbolTable
 70
     6
  0
LTYPE
  5
14
330
5
100
AcDbSymbolTableRecord
100
AcDbLinetypeTableRecord
  2
ByBlock
 70
     0
  3

 72
    65
 73
     0
 40
0.0
  0
LTYPE
  5
15
330
5
100
AcDbSymbolTableRecord
100
AcDbLinetypeTableRecord
  2
ByLayer
 70
     0
  3

 72
    65
 73
     0
 40
0.0
  0
LTYPE
  5
16
330
5
100
AcDbSymbolTableRecord
100
AcDbLinetypeTableRecord
  2
Continuous
 70
     0
  3
Solid line
 72
    65
 73
     0
 40
0.0
  0
LTYPE
  5
3F
330
5
100
AcDbSymbolTableRecord
100
AcDbLinetypeTableRecord
  2
HIDDEN
 70
     0
  3
Hidden __ __ __ __ __ __ __ __ __ __ __ __ __ __
 72
    65
 73
     2
 40
1.905
 49
1.27
 74
     0
 49
-0.635
 74
     0
  0
LTYPE
  5
40
330
5
100
AcDbSymbolTableRecord
100
AcDbLinetypeTableRecord
  2
PHANTOM
 70
     0
  3
Phantom ______  __  __  ______  __  __  ______
 72
    65
 73
     6
 40
12.7
 49
6.35
 74
     0
 49
-1.27
 74
     0
 49
1.27
 74
     0
 49
-1.27
 74
     0
 49
1.27
 74
     0
 49
-1.27
 74
     0
  0
LTYPE
  5
41
330
5
100
AcDbSymbolTableRecord
100
AcDbLinetypeTableRecord
  2
CENTER
 70
     0
  3
Center ____ _ ____ _ ____ _ ____ _ ____ _ ____
 72
    65
 73
     4
 40
10.16
 49
6.35
 74
     0
 49
-1.27
 74
     0
 49
1.27
 74
     0
 49
-1.27
 74
     0
  0
LTYPE
  5
42
330
5
100
AcDbSymbolTableRecord
100
AcDbLinetypeTableRecord
  2
CENTERX2
 70
     0
  3
Center (2x) ________  __  ________  __  _____
 72
    65
 73
     4
 40
20.32
 49
12.7
 74
     0
 49
-2.54
 74
     0
 49
2.54
 74
     0
 49
-2.54
 74
     0
  0
LTYPE
  5
43
330
5
100
AcDbSymbolTableRecord
100
AcDbLinetypeTableRecord
  2
DOT2
 70
     0
  3
Dot (.5x) ........................................
 72
    65
 73
     2
 40
0.635
 49
0.0
 74
     0
 49
-0.635
 74
     0
  0
ENDTAB
  0
TABLE
  2
LAYER
  5
2
330
0
100
AcDbSymbolTable
 70
     5
  0
LAYER
  5
10
330
2
100
AcDbSymbolTableRecord
100
AcDbLayerTableRecord
  2
0
 70
     0
 62
     7
  6
Continuous
370
    -3
390
F
  0
LAYER
  5
44
330
2
100
AcDbSymbolTableRecord
100
AcDbLayerTableRecord
  2
FORMAT
 70
     0
 62
     7
  6
Continuous
370
    -3
390
F
  0
LAYER
  5
45
330
2
100
AcDbSymbolTableRecord
100
AcDbLayerTableRecord
  2
VERMASSUNG
 70
     0
 62
     7
  6
Continuous
370
    -3
390
F
  0
LAYER
  5
46
330
2
100
AcDbSymbolTableRecord
100
AcDbLayerTableRecord
  2
KOPF_DÜNN
 70
     0
 62
     7
  6
Continuous
370
    -3
390
F
  0
LAYER
  5
47
330
2
100
AcDbSymbolTableRecord
100
AcDbLayerTableRecord
  2
KOPF_DICK
 70
     0
 62
     7
  6
Continuous
370
    15
390
F
  0
ENDTAB
  0
TABLE
  2
STYLE
  5
3
330
0
100
AcDbSymbolTable
 70
     2
  0
STYLE
  5
11
330
3
100
AcDbSymbolTableRecord
100
AcDbTextStyleTableRecord
  2
Standard
 70
     0
 40
0.0
 41
1.0
 50
0.0
 71
     0
 42
2.0
  3
txt
  4

  0
STYLE
  5
48
330
3
100
AcDbSymbolTableRecord
100
AcDbTextStyleTableRecord
  2
SLDTEXTSTYLE0
 70
     0
 40
0.0
 41
0.7
 50
0.0
 71
     0
 42
0.2
  3
TXT
  4

  0
ENDTAB
  0
TABLE
  2
VIEW
  5
6
330
0
100
AcDbSymbolTable
 70
     0
  0
ENDTAB
  0
TABLE
  2
UCS
  5
7
330
0
100
AcDbSymbolTable
 70
     0
  0
ENDTAB
  0
TABLE
  2
APPID
  5
9
330
0
100
AcDbSymbolTable
 70
     1
  0
APPID
  5
12
330
9
100
AcDbSymbolTableRecord
100
AcDbRegAppTableRecord
  2
ACAD
 70
     0
  0
ENDTAB
  0
TABLE
  2
DIMSTYLE
  5
A
330
0
100
AcDbSymbolTable
 70
     4
100
AcDbDimStyleTable
  0
DIMSTYLE
105
27
330
A
100
AcDbSymbolTableRecord
100
AcDbDimStyleTableRecord
  2
ISO-25
 70
     0
 41
2.5
 42
0.625
 43
3.75
 44
1.25
 73
     0
 74
     0
 77
     1
 78
     8
140
2.5
141
2.5
143
0.0393700787
147
0.625
171
     3
172
     1
178
     0
271
     2
272
     2
274
     3
278
    44
283
     0
284
     8
340
11
  0
DIMSTYLE
105
1AF
102
{ACAD_REACTORS
330
1AE
102
}
330
A
100
AcDbSymbolTableRecord
100
AcDbDimStyleTableRecord
  2
SLDDIMSTYLE0
 70
     0
 41
3.0
 44
0.0
 73
     0
 74
     0
 77
     1
 78
    12
 79
     3
140
2.0
147
0.5
173
     1
178
     0
179
     1
272
     3
276
     2
284
    12
340
48
  0
DIMSTYLE
105
1B8
102
{ACAD_REACTORS
330
1B7
330
1C4
102
}
330
A
100
AcDbSymbolTableRecord
100
AcDbDimStyleTableRecord
  2
SLDDIMSTYLE1
 70
     0
 41
3.0
 44
0.0
 45
0.000000001
 47
0.1
 48
0.1
 71
     1
 73
     0
 74
     0
 77
     1
 78
    12
 79
     3
140
2.0
147
0.5
173
     1
178
     0
271
     2
272
     1
276
     2
284
     8
340
48
  0
DIMSTYLE
105
1D1
102
{ACAD_REACTORS
330
1D0
330
1DB
102
}
330
A
100
AcDbSymbolTableRecord
100
AcDbDimStyleTableRecord
  2
SLDDIMSTYLE2
 70
     0
 41
3.0
 44
0.0
 45
0.000000001
 73
     0
 74
     0
 77
     1
 78
    12
 79
     3
140
2.0
147
0.5
173
     1
178
     0
271
     2
272
     3
276
     2
284
    12
340
48
  0
ENDTAB
  0
TABLE
  2
BLOCK_RECORD
  5
1
330
0
100
AcDbSymbolTable
 70
     7
  0
BLOCK_RECORD
  5
1F
330
1
100
AcDbSymbolTableRecord
100
AcDbBlockTableRecord
  2
*Model_Space
340
22
  0
BLOCK_RECORD
  5
1B
330
1
100
AcDbSymbolTableRecord
100
AcDbBlockTableRecord
  2
*Paper_Space
340
1E
  0
BLOCK_RECORD
  5
23
330
1
100
AcDbSymbolTableRecord
100
AcDbBlockTableRecord
  2
*Paper_Space0
340
26
  0
BLOCK_RECORD
  5
1B0
330
1
100
AcDbSymbolTableRecord
100
AcDbBlockTableRecord
  2
_D
340
0
  0
BLOCK_RECORD
  5
1B9
330
1
100
AcDbSymbolTableRecord
100
AcDbBlockTableRecord
  2
_D_1
340
0
  0
BLOCK_RECORD
  5
1C5
330
1
100
AcDbSymbolTableRecord
100
AcDbBlockTableRecord
  2
_D_2
340
0
  0
BLOCK_RECORD
  5
1D2
330
1
100
AcDbSymbolTableRecord
100
AcDbBlockTableRecord
  2
_D_3
340
0
  0
BLOCK_RECORD
  5
1DC
330
1
100
AcDbSymbolTableRecord
100
AcDbBlockTableRecord
  2
_D_4
340
0
  0
BLOCK_RECORD
  5
248
330
1
100
AcDbSymbolTableRecord
100
AcDbBlockTableRecord
  2
SW_CENTERMARKSYMBOL_0
340
0
102
{BLKREFS
331
253
102
}
  0
ENDTAB
  0
ENDSEC
  0
SECTION
  2
BLOCKS
  0
BLOCK
  5
20
330
1F
100
AcDbEntity
  8
0
100
AcDbBlockBegin
  2
*Model_Space
 70
     0
 10
0.0
 20
0.0
 30
0.0
  3
*Model_Space
  1

  0
ENDBLK
  5
21
330
1F
100
AcDbEntity
  8
0
100
AcDbBlockEnd
  0
BLOCK
  5
1C
330
1B
100
AcDbEntity
 67
     1
  8
0
100
AcDbBlockBegin
  2
*Paper_Space
 70
     0
 10
0.0
 20
0.0
 30
0.0
  3
*Paper_Space
  1

  0
ENDBLK
  5
1D
330
1B
100
AcDbEntity
 67
     1
  8
0
100
AcDbBlockEnd
  0
BLOCK
  5
24
330
23
100
AcDbEntity
  8
0
100
AcDbBlockBegin
  2
*Paper_Space0
 70
     0
 10
0.0
 20
0.0
 30
0.0
  3
*Paper_Space0
  1

  0
ENDBLK
  5
25
330
23
100
AcDbEntity
  8
0
100
AcDbBlockEnd
  0
BLOCK
  5
1B1
330
1B0
100
AcDbEntity
  8
0
100
AcDbBlockBegin
  2
_D
 70
     0
 10
0.0
 20
0.0
 30
0.0
  3
_D
  1

  0
ARC
  5
1B3
330
1B0
100
AcDbEntity
  8
VERMASSUNG
100
AcDbCircle
 10
241.3420032282
 20
87.9216893054
 30
0.0
 40
10.91449993967324
100
AcDbArc
 50
176.9923752066
 51
270.0
  0
SOLID
  5
1B4
330
1B0
100
AcDbEntity
  8
VERMASSUNG
100
AcDbTrace
 10
230.4425373447
 20
88.4943605781
 30
0.0
 11
230.2386442153
 21
85.4676581494
 31
0.0
 12
231.1356475595
 22
85.5410407122
 32
0.0
 13
231.1356475595
 23
85.5410407122
 33
0.0
  0
SOLID
  5
1B5
330
1B0
100
AcDbEntity
  8
VERMASSUNG
100
AcDbTrace
 10
241.3420032282
 20
77.0071893657
 30
0.0
 11
238.4291180766
 21
77.854302164
 31
0.0
 12
238.3087718588
 22
76.9623846858
 32
0.0
 13
238.3087718588
 23
76.9623846858
 33
0.0
  0
MTEXT
  5
1B6
330
1B0
100
AcDbEntity
  8
VERMASSUNG
100
AcDbMText
 10
233.2985477757
 20
84.287435617
 30
0.1
 40
2.0
 41
0.0
 71
     1
 72
     1
  1
93°
  7
SLDTEXTSTYLE0
 11
0.6883063085752955
 21
-0.7254201717456237
 31
0.0
 73
     1
 44
1.0
  0
ENDBLK
  5
1B2
330
1B0
100
AcDbEntity
  8
0
100
AcDbBlockEnd
  0
BLOCK
  5
1BA
330
1B9
100
AcDbEntity
  8
0
100
AcDbBlockBegin
  2
_D_1
 70
     0
 10
0.0
 20
0.0
 30
0.0
  3
_D_1
  1

  0
SOLID
  5
1BC
330
1B9
100
AcDbEntity
  8
VERMASSUNG
100
AcDbTrace
 10
181.3420032282
 20
71.1670665532
 30
0.0
 11
184.3420032282
 21
70.7170665532
 31
0.0
 12
184.3420032282
 22
71.6170665532
 32
0.0
 13
184.3420032282
 23
71.6170665532
 33
0.0
  0
SOLID
  5
1BD
330
1B9
100
AcDbEntity
  8
VERMASSUNG
100
AcDbTrace
 10
241.3420032282
 20
71.1670665532
 30
0.0
 11
238.3420032282
 21
71.6170665532
 31
0.0
 12
238.3420032282
 22
70.7170665532
 32
0.0
 13
238.3420032282
 23
70.7170665532
 33
0.0
  0
LINE
  5
1BE
330
1B9
100
AcDbEntity
  8
VERMASSUNG
100
AcDbLine
 10
181.3420032282
 20
98.2451805202
 30
0.0
 11
181.3420032282
 21
70.1670665532
 31
0.0
  0
LINE
  5
1BF
330
1B9
100
AcDbEntity
  8
VERMASSUNG
100
AcDbLine
 10
241.3420032282
 20
87.9451805202
 30
0.0
 11
241.3420032282
 21
70.1670665532
 31
0.0
  0
LINE
  5
1C0
330
1B9
100
AcDbEntity
  8
VERMASSUNG
100
AcDbLine
 10
181.3420032282
 20
71.1670665532
 30
0.0
 11
241.3420032282
 21
71.1670665532
 31
0.0
  0
MTEXT
  5
1C1
330
1B9
100
AcDbEntity
  8
VERMASSUNG
100
AcDbMText
 10
206.7920030412
 20
73.7452019164
 30
0.1
 40
2.0
 41
0.0
 71
     1
 72
     1
  1
60
  7
SLDTEXTSTYLE0
 73
     1
 44
1.0
  0
MTEXT
  5
1C2
330
1B9
100
AcDbEntity
  8
VERMASSUNG
100
AcDbMText
 10
212.5795031433
 20
73.7452019164
 30
0.1
 40
2.0
 41
0.0
 71
     1
 72
     1
  1

  7
SLDTEXTSTYLE0
 73
     1
 44
1.0
  0
MTEXT
  5
1C3
330
1B9
100
AcDbEntity
  8
VERMASSUNG
100
AcDbMText
 10
212.5920034331
 20
73.2506680536
 30
0.1
 40
1.5
 41
0.0
 71
     1
 72
     1
  1
±0.1
  7
SLDTEXTSTYLE0
 73
     1
 44
1.0
  0
ENDBLK
  5
1BB
330
1B9
100
AcDbEntity
  8
0
100
AcDbBlockEnd
  0
BLOCK
  5
1C6
330
1C5
100
AcDbEntity
  8
0
100
AcDbBlockBegin
  2
_D_2
 70
     0
 10
0.0
 20
0.0
 30
0.0
  3
_D_2
  1

  0
SOLID
  5
1C8
330
1C5
100
AcDbEntity
  8
VERMASSUNG
100
AcDbTrace
 10
252.3462487809
 20
87.9451805202
 30
0.0
 11
252.7962487809
 21
90.9451805202
 31
0.0
 12
251.8962487809
 22
90.9451805202
 32
0.0
 13
251.8962487809
 23
90.9451805202
 33
0.0
  0
SOLID
  5
1C9
330
1C5
100
AcDbEntity
  8
VERMASSUNG
100
AcDbTrace
 10
252.3462487809
 20
122.9451805202
 30
0.0
 11
251.8962487809
 21
119.9451805202
 31
0.0
 12
252.7962487809
 22
119.9451805202
 32
0.0
 13
252.7962487809
 23
119.9451805202
 33
0.0
  0
LINE
  5
1CA
330
1C5
100
AcDbEntity
  8
VERMASSUNG
100
AcDbLine
 10
241.3420032282
 20
87.9451805202
 30
0.0
 11
253.3462487809
 21
87.9451805202
 31
0.0
  0
LINE
  5
1CB
330
1C5
100
AcDbEntity
  8
VERMASSUNG
100
AcDbLine
 10
241.3420032282
 20
122.9451805202
 30
0.0
 11
253.3462487809
 21
122.9451805202
 31
0.0
  0
LINE
  5
1CC
330
1C5
100
AcDbEntity
  8
VERMASSUNG
100
AcDbLine
 10
252.3462487809
 20
87.9451805202
 30
0.0
 11
252.3462487809
 21
122.9451805202
 31
0.0
  0
MTEXT
  5
1CD
330
1C5
100
AcDbEntity
  8
VERMASSUNG
100
AcDbMText
 10
249.7681134178
 20
100.8951803332
 30
0.1
 40
2.0
 41
0.0
 71
     1
 72
     1
  1
35
  7
SLDTEXTSTYLE0
 11
6.123233995736766E-17
 21
1.0
 31
0.0
 73
     1
 44
1.0
  0
MTEXT
  5
1CE
330
1C5
100
AcDbEntity
  8
VERMASSUNG
100
AcDbMText
 10
249.7681134178
 20
106.6826804352
 30
0.1
 40
2.0
 41
0.0
 71
     1
 72
     1
  1

  7
SLDTEXTSTYLE0
 11
6.123233995736766E-17
 21
1.0
 31
0.0
 73
     1
 44
1.0
  0
MTEXT
  5
1CF
330
1C5
100
AcDbEntity
  8
VERMASSUNG
100
AcDbMText
 10
250.2626472806
 20
106.6951807251
 30
0.1
 40
1.5
 41
0.0
 71
     1
 72
     1
  1
±0.1
  7
SLDTEXTSTYLE0
 11
6.123233995736766E-17
 21
1.0
 31
0.0
 73
     1
 44
1.0
  0
ENDBLK
  5
1C7
330
1C5
100
AcDbEntity
  8
0
100
AcDbBlockEnd
  0
BLOCK
  5
1D3
330
1D2
100
AcDbEntity
  8
0
100
AcDbBlockBegin
  2
_D_3
 70
     0
 10
0.0
 20
0.0
 30
0.0
  3
_D_3
  1

  0
SOLID
  5
1D5
330
1D2
100
AcDbEntity
  8
VERMASSUNG
100
AcDbTrace
 10
151.3420032282
 20
61.128996913
 30
0.0
 11
154.3420032282
 21
60.678996913
 31
0.0
 12
154.3420032282
 22
61.578996913
 32
0.0
 13
154.3420032282
 23
61.578996913
 33
0.0
  0
SOLID
  5
1D6
330
1D2
100
AcDbEntity
  8
VERMASSUNG
100
AcDbTrace
 10
241.3420032282
 20
61.128996913
 30
0.0
 11
238.3420032282
 21
61.578996913
 31
0.0
 12
238.3420032282
 22
60.678996913
 32
0.0
 13
238.3420032282
 23
60.678996913
 33
0.0
  0
LINE
  5
1D7
330
1D2
100
AcDbEntity
  8
VERMASSUNG
100
AcDbLine
 10
151.3420032282
 20
106.951854682
 30
0.0
 11
151.3420032282
 21
60.128996913
 31
0.0
  0
LINE
  5
1D8
330
1D2
100
AcDbEntity
  8
VERMASSUNG
100
AcDbLine
 10
241.3420032282
 20
87.9451805202
 30
0.0
 11
241.3420032282
 21
60.128996913
 31
0.0
  0
LINE
  5
1D9
330
1D2
100
AcDbEntity
  8
VERMASSUNG
100
AcDbLine
 10
151.3420032282
 20
61.128996913
 30
0.0
 11
241.3420032282
 21
61.128996913
 31
0.0
  0
MTEXT
  5
1DA
330
1D2
100
AcDbEntity
  8
VERMASSUNG
100
AcDbMText
 10
194.0420031772
 20
63.7071322762
 30
0.1
 40
2.0
 41
0.0
 71
     1
 72
     1
  1
90
  7
SLDTEXTSTYLE0
 73
     1
 44
1.0
  0
ENDBLK
  5
1D4
330
1D2
100
AcDbEntity
  8
0
100
AcDbBlockEnd
  0
BLOCK
  5
1DD
330
1DC
100
AcDbEntity
  8
0
100
AcDbBlockBegin
  2
_D_4
 70
     0
 10
0.0
 20
0.0
 30
0.0
  3
_D_4
  1

  0
SOLID
  5
1DF
330
1DC
100
AcDbEntity
  8
VERMASSUNG
100
AcDbTrace
 10
141.3420032282
 20
147.9451805202
 30
0.0
 11
140.8920032282
 21
144.9451805202
 31
0.0
 12
141.7920032282
 22
144.9451805202
 32
0.0
 13
141.7920032282
 23
144.9451805202
 33
0.0
  0
SOLID
  5
1E0
330
1DC
100
AcDbEntity
  8
VERMASSUNG
100
AcDbTrace
 10
141.3420032282
 20
97.9451805202
 30
0.0
 11
141.7920032282
 21
100.9451805202
 31
0.0
 12
140.8920032282
 22
100.9451805202
 32
0.0
 13
140.8920032282
 23
100.9451805202
 33
0.0
  0
LINE
  5
1E1
330
1DC
100
AcDbEntity
  8
VERMASSUNG
100
AcDbLine
 10
181.6420032282
 20
147.9451805202
 30
0.0
 11
140.3420032282
 21
147.9451805202
 31
0.0
  0
LINE
  5
1E2
330
1DC
100
AcDbEntity
  8
VERMASSUNG
100
AcDbLine
 10
181.6420032282
 20
97.9451805202
 30
0.0
 11
140.3420032282
 21
97.9451805202
 31
0.0
  0
LINE
  5
1E3
330
1DC
100
AcDbEntity
  8
VERMASSUNG
100
AcDbLine
 10
141.3420032282
 20
147.9451805202
 30
0.0
 11
141.3420032282
 21
97.9451805202
 31
0.0
  0
MTEXT
  5
1E4
330
1DC
100
AcDbEntity
  8
VERMASSUNG
100
AcDbMText
 10
138.5638677392
 20
116.5401804109
 30
0.4674154055
 40
2.0
 41
0.0
 71
     1
 72
     1
  1
PSC
  7
SLDTEXTSTYLE0
 11
-7.044195017643634E-15
 21
1.0
 31
0.0
 73
     1
 44
1.0
  0
MTEXT
  5
1E5
330
1DC
100
AcDbEntity
  8
VERMASSUNG
100
AcDbMText
 10
138.7638677487
 20
121.140180513
 30
0.4674154055
 40
2.0
 41
0.0
 71
     1
 72
     1
  1
%%c
  7
SLDTEXTSTYLE0
 11
-7.044195017643634E-15
 21
1.0
 31
0.0
 73
     1
 44
1.0
  0
MTEXT
  5
1E6
330
1DC
100
AcDbEntity
  8
VERMASSUNG
100
AcDbMText
 10
138.5638677392
 20
124.750180993
 30
0.4674154055
 40
2.0
 41
0.0
 71
     1
 72
     1
  1
50
  7
SLDTEXTSTYLE0
 11
-7.044195017643634E-15
 21
1.0
 31
0.0
 73
     1
 44
1.0
  0
ENDBLK
  5
1DE
330
1DC
100
AcDbEntity
  8
0
100
AcDbBlockEnd
  0
BLOCK
  5
249
330
248
100
AcDbEntity
  8
0
100
AcDbBlockBegin
  2
SW_CENTERMARKSYMBOL_0
 70
     0
 10
0.0
 20
0.0
 30
0.0
  3
SW_CENTERMARKSYMBOL_0
  1

  0
LINE
  5
24B
330
248
100
AcDbEntity
  8
VERMASSUNG
 62
     0
100
AcDbLine
 10
0.0
 20
0.0
 30
0.0
 11
0.0
 21
2.5
 31
0.0
  0
LINE
  5
24C
330
248
100
AcDbEntity
  8
VERMASSUNG
 62
     0
100
AcDbLine
 10
0.0
 20
0.0
 30
0.0
 11
-2.5
 21
0.0
 31
0.0
  0
LINE
  5
24D
330
248
100
AcDbEntity
  8
VERMASSUNG
 62
     0
100
AcDbLine
 10
0.0
 20
0.0
 30
0.0
 11
0.0
 21
-2.5
 31
0.0
  0
LINE
  5
24E
330
248
100
AcDbEntity
  8
VERMASSUNG
 62
     0
100
AcDbLine
 10
0.0
 20
0.0
 30
0.0
 11
2.5
 21
0.0
 31
0.0
  0
LINE
  5
24F
330
248
100
AcDbEntity
  8
VERMASSUNG
 62
     0
100
AcDbLine
 10
0.0
 20
5.0
 30
0.0
 11
0.0
 21
27.5
 31
0.0
  0
LINE
  5
250
330
248
100
AcDbEntity
  8
VERMASSUNG
 62
     0
100
AcDbLine
 10
-5.0
 20
0.0
 30
0.0
 11
-27.5
 21
0.0
 31
0.0
  0
LINE
  5
251
330
248
100
AcDbEntity
  8
VERMASSUNG
 62
     0
100
AcDbLine
 10
0.0
 20
-5.0
 30
0.0
 11
0.0
 21
-27.5
 31
0.0
  0
LINE
  5
252
330
248
100
AcDbEntity
  8
VERMASSUNG
 62
     0
100
AcDbLine
 10
5.0
 20
0.0
 30
0.0
 11
27.5
 21
0.0
 31
0.0
  0
ENDBLK
  5
24A
330
248
100
AcDbEntity
  8
0
100
AcDbBlockEnd
  0
ENDSEC
  0
SECTION
  2
ENTITIES
  0
MTEXT
  5
49
330
1F
100
AcDbEntity
  8
KOPF_DÜNN
100
AcDbMText
 10
13.8892156294
 20
23.8442973028
 30
0.0
 40
3.0
 41
0.0
 71
     1
 72
     1
  1
PS5.PDF.LJA.060
  7
SLDTEXTSTYLE0
 73
     1
 44
1.0
  0
MTEXT
  5
4A
330
1F
100
AcDbEntity
  8
VERMASSUNG
100
AcDbMText
 10
13.9329988022
 20
28.8834360957
 30
0.0
 40
3.0
 41
0.0
 71
     1
 72
     1
  1
Klemmhalter links_Turning tool left 55°/93°
  7
SLDTEXTSTYLE0
 73
     1
 44
1.0
  0
MTEXT
  5
4B
330
1F
100
AcDbEntity
  8
VERMASSUNG
100
AcDbMText
 10
98.8601118557
 20
13.8365368179
 30
0.0
 40
2.0
 41
0.0
 71
     1
 72
     1
  1
Datum: 23.05.2012
  7
SLDTEXTSTYLE0
 73
     1
 44
1.0
  0
MTEXT
  5
4C
330
1F
100
AcDbEntity
  8
VERMASSUNG
100
AcDbMText
 10
13.933048693
 20
18.0482802738
 30
0.0
 40
2.0
 41
0.0
 71
     1
 72
     1
  1
PSC ø50 / DN..15 06 ..
  7
SLDTEXTSTYLE0
 73
     1
 44
1.0
  0
MTEXT
  5
4D
330
1F
100
AcDbEntity
  8
VERMASSUNG
100
AcDbMText
 10
13.9808475933
 20
13.9090973692
 30
0.0
 40
2.0
 41
0.0
 71
     1
 72
     1
  1
Gewicht: 716g
  7
SLDTEXTSTYLE0
 73
     1
 44
1.0
  0
ELLIPSE
  5
4E
330
1F
100
AcDbEntity
  8
0
  6
Continuous
 62
     7
100
AcDbEllipse
 10
207.2955100556
 20
108.192703829
 30
0.0
 11
-0.07455845344540535
 21
2.977883509886041
 31
0.0
210
0.0
220
0.0
230
1.0
 40
0.2376870849
 41
5.290959098474636
 42
10.20710295296576
  0
LINE
  5
4F
330
1F
100
AcDbEntity
  8
0
  6
Continuous
 62
     7
370
    15
100
AcDbLine
 10
210.2923973369
 20
147.9451805202
 30
0.0
 11
181.6420032282
 21
147.9451805202
 31
0.0
  0
LINE
  5
50
330
1F
100
AcDbEntity
  8
0
  6
Continuous
 62
     7
370
    15
100
AcDbLine
 10
181.6420032282
 20
97.9451805202
 30
0.0
 11
213.5746762403
 21
97.9451805202
 31
0.0
  0
ARC
  5
51
330
1F
100
AcDbEntity
  8
0
  6
Continuous
 62
     7
370
    15
100
AcDbCircle
 10
181.6420032282
 20
98.2451805202
 30
0.0
 40
0.3000000000000114
100
AcDbArc
 50
180.0
 51
270.0
  0
ARC
  5
52
330
1F
100
AcDbEntity
  8
0
  6
Continuous
 62
     7
370
    15
100
AcDbCircle
 10
181.6420032282
 20
147.6451805202
 30
0.0
 40
0.3000000000000114
100
AcDbArc
 50
90.0
 51
180.0
  0
LWPOLYLINE
  5
53
330
1F
100
AcDbEntity
  8
0
  6
Continuous
 62
     7
370
    15
100
AcDbPolyline
 90
        3
 70
   128
 43
0.0
 10
181.1420032282
 20
105.1053602413
 10
181.2674581717
 20
105.0370581263
 10
181.3420032282
 20
104.9843203682
  0
LWPOLYLINE
  5
54
330
1F
100
AcDbEntity
  8
0
  6
Continuous
 62
     7
370
    15
100
AcDbPolyline
 90
        3
 70
   128
 43
0.0
 10
181.3420032282
 20
140.9060406721
 10
181.2674581717
 20
140.853302914
 10
181.1420032282
 20
140.785000799
  0
ARC
  5
55
330
1F
100
AcDbEntity
  8
0
  6
Continuous
 62
     7
370
    15
100
AcDbCircle
 10
213.5746762403
 20
96.9451805202
 30
0.0
 40
0.999999999999992
100
AcDbArc
 50
15.0
 51
90.0
  0
LINE
  5
56
330
1F
100
AcDbEntity
  8
0
  6
Continuous
 62
     7
370
    15
100
AcDbLine
 10
214.5406020666
 20
97.2039995653
 30
0.0
 11
216.2485304455
 21
90.8299240795
 31
0.0
  0
LINE
  5
57
330
1F
100
AcDbEntity
  8
0
  6
Continuous
 62
     7
370
    15
100
AcDbLine
 10
216.2625821592
 20
90.7905474196
 30
0.0
 11
225.6523810102
 21
89.8036397921
 31
0.0
  0
LINE
  5
58
330
1F
100
AcDbEntity
  8
0
  6
Continuous
 62
     7
370
    15
100
AcDbLine
 10
234.0240515098
 20
100.7608774721
 30
0.0
 11
233.7233036173
 21
101.0570563284
 31
0.0
  0
LINE
  5
59
330
1F
100
AcDbEntity
  8
0
  6
Continuous
 62
     7
370
    15
100
AcDbLine
 10
225.3636026667
 20
89.8339916191
 30
0.0
 11
226.4118444996
 21
88.801674935
 31
0.0
  0
LINE
  5
5A
330
1F
100
AcDbEntity
  8
0
  6
Continuous
 62
     7
370
    15
100
AcDbLine
 10
227.7640072242
 20
94.0474591217
 30
0.0
 11
228.1421835569
 21
93.7063257801
 31
0.0
  0
ELLIPSE
  5
5B
330
1F
100
AcDbEntity
  8
0
  6
Continuous
 62
     7
370
    15
100
AcDbEllipse
 10
274.0826434387
 20
122.9451805202
 30
0.0
 11
141.7799191695018
 21
4.475976195143418
 31
0.0
210
0.0
220
0.0
230
1.0
 40
0.1734804855
 41
2.006235011442714
 42
2.032531596331014
  0
SPLINE
  5
5C
330
1F
100
AcDbEntity
  8
0
  6
Continuous
 62
     7
370
    15
100
AcDbSpline
210
0.0
220
0.0
230
1.0
 70
     8
 71
     3
 72
    12
 73
     8
 74
     0
 42
0.00000001
 43
0.00000001
 12
1.0
 22
0.0
 32
0.0
 13
1.0
 23
0.0
 33
0.0
 40
0.0
 40
0.0
 40
0.0
 40
0.0
 40
0.2500000000000002
 40
0.2500000000000002
 40
0.5000000000000003
 40
0.5000000000000003
 40
1.0
 40
1.0
 40
1.0
 40
1.0
 10
210.2241784244145
 20
142.9714928031824
 30
0.0
 10
209.9226068981457
 20
142.9358416162001
 30
0.0
 10
209.6397992513211
 20
142.8711059264618
 30
0.0
 10
209.1094279043444
 20
142.6841407694062
 30
0.0
 10
208.8735646564965
 20
142.5655778269325
 30
0.0
 10
208.2552331844637
 20
142.1408716064135
 30
0.0
 10
207.9824739464406
 20
141.7769001812614
 30
0.0
 10
207.8473454785481
 20
141.3727503078468
 30
0.0
  0
ELLIPSE
  5
5D
330
1F
100
AcDbEntity
  8
0
  6
Continuous
 62
     7
370
    15
100
AcDbEllipse
 10
211.4480296989
 20
122.9451805202
 30
0.0
 11
1.249956161015689
 21
24.99783415330238
 31
0.0
210
0.0
220
0.0
230
1.0
 40
0.263265937
 41
0.755186470741667
 42
2.761798463895833
  0
SPLINE
  5
5E
330
1F
100
AcDbEntity
  8
0
  6
Continuous
 62
     7
370
    15
100
AcDbSpline
210
0.0
220
0.0
230
1.0
 70
     8
 71
     3
 72
    20
 73
    16
 74
     0
 42
0.00000001
 43
0.00000001
 12
1.0
 22
0.0
 32
0.0
 13
1.0
 23
0.0
 33
0.0
 40
0.0
 40
0.0
 40
0.0
 40
0.0
 40
0.25
 40
0.25
 40
0.375
 40
0.375
 40
0.5
 40
0.5
 40
0.625
 40
0.625
 40
0.75
 40
0.75
 40
0.875
 40
0.875
 40
1.0
 40
1.0
 40
1.0
 40
1.0
 10
207.8473454785481
 20
99.85066437936209
 30
0.0
 10
207.9150616540241
 20
99.73590381426297
 30
0.0
 10
208.0154147849472
 20
99.63118262448637
 30
0.0
 10
208.2198412974145
 20
99.48790339682064
 30
0.0
 10
208.2978338488936
 20
99.44211965044127
 30
0.0
 10
208.4696421153763
 20
99.35732682049245
 30
0.0
 10
208.5633436460211
 20
99.31821525629482
 30
0.0
 10
208.766811166529
 20
99.24611891617742
 30
0.0
 10
208.8765669248222
 20
99.21313256751478
 30
0.0
 10
209.1135685908503
 20
99.1531592409425
 30
0.0
 10
209.240886606001
 20
99.12628816989935
 30
0.0
 10
209.5036613060697
 20
99.08041523963793
 30
0.0
 10
209.6402854373949
 20
99.06108666685618
 30
0.0
 10
209.9243717394369
 20
99.0293736793267
 30
0.0
 10
210.0728286486444
 20
99.01694553593349
 30
0.0
 10
210.2241784244145
 20
99.00832158083824
 30
0.0
  0
ELLIPSE
  5
5F
330
1F
100
AcDbEntity
  8
0
  6
Continuous
 62
     7
370
    15
100
AcDbEllipse
 10
274.0826434387
 20
122.9451805202
 30
0.0
 11
141.7799191695018
 21
4.475976195143418
 31
0.0
210
0.0
220
0.0
230
1.0
 40
0.1734804855
 41
4.239700301301426
 42
4.265996886189725
  0
ELLIPSE
  5
60
330
1F
100
AcDbEntity
  8
0
  6
Continuous
 62
     7
370
    15
100
AcDbEllipse
 10
228.563057264
 20
122.9451805202
 30
0.0
 11
-18.29544563104903
 21
24.99284387523228
 31
0.0
210
0.0
220
0.0
230
1.0
 40
0.0326926316
 41
5.715684932679865
 42
6.259257973531176
  0
SPLINE
  5
61
330
1F
100
AcDbEntity
  8
0
  6
Continuous
 62
     7
370
    15
100
AcDbSpline
210
0.0
220
0.0
230
1.0
 70
     8
 71
     3
 72
    12
 73
     8
 74
     0
 42
0.00000001
 43
0.00000001
 12
1.0
 22
0.0
 32
0.0
 13
1.0
 23
0.0
 33
0.0
 40
0.0
 40
0.0
 40
0.0
 40
0.0
 40
0.4999999999999996
 40
0.4999999999999996
 40
0.7499999999999998
 40
0.7499999999999998
 40
1.0
 40
1.0
 40
1.0
 40
1.0
 10
189.4367473399186
 20
99.29253904293262
 30
0.0
 10
189.4675990504828
 20
99.25320700257012
 30
0.0
 10
189.5094919139434
 20
99.21579523704186
 30
0.0
 10
189.6090127917366
 20
99.16612431242594
 30
0.0
 10
189.6486269564609
 20
99.15073522981812
 30
0.0
 10
189.7457299902404
 20
99.12690201415086
 30
0.0
 10
189.8062286628908
 20
99.11844940466207
 30
0.0
 10
189.8697600418107
 20
99.11844940466206
 30
0.0
  0
LINE
  5
62
330
1F
100
AcDbEntity
  8
0
  6
Continuous
 62
     7
370
    15
100
AcDbLine
 10
189.8697600418
 20
99.1184494047
 30
0.0
 11
192.8142464147
 21
99.1184494047
 31
0.0
  0
SPLINE
  5
63
330
1F
100
AcDbEntity
  8
0
  6
Continuous
 62
     7
370
    15
100
AcDbSpline
210
0.0
220
0.0
230
1.0
 70
     8
 71
     3
 72
    12
 73
     8
 74
     0
 42
0.00000001
 43
0.00000001
 12
1.0
 22
0.0
 32
0.0
 13
1.0
 23
0.0
 33
0.0
 40
0.0
 40
0.0
 40
0.0
 40
0.0
 40
0.2500000000000009
 40
0.2500000000000009
 40
0.5000000000000019
 40
0.5000000000000019
 40
1.0
 40
1.0
 40
1.0
 40
1.0
 10
192.8142464146779
 20
99.11844940466227
 30
0.0
 10
192.8778829688916
 20
99.11844940466227
 30
0.0
 10
192.9374630957578
 20
99.12670617559404
 30
0.0
 10
193.0360998371242
 20
99.15090823760187
 30
0.0
 10
193.0750584615045
 20
99.16615505663599
 30
0.0
 10
193.1744374010124
 20
99.2157599286961
 30
0.0
 10
193.2163953061778
 20
99.25319157681493
 30
0.0
 10
193.2472591165703
 20
99.29253904293259
 30
0.0
  0
ELLIPSE
  5
64
330
1F
100
AcDbEntity
  8
0
  6
Continuous
 62
     7
370
    15
100
AcDbEllipse
 10
180.2857455733
 20
122.9451805202
 30
0.0
 11
-11.7092723497272
 21
24.67718644093743
 31
0.0
210
0.0
220
0.0
230
1.0
 40
0.3419987131
 41
3.310521928178952
 42
4.221709151398942
  0
SPLINE
  5
65
330
1F
100
AcDbEntity
  8
0
  6
Continuous
 62
     7
370
    15
100
AcDbSpline
210
0.0
220
0.0
230
1.0
 70
     8
 71
     3
 72
    12
 73
     8
 74
     0
 42
0.00000001
 43
0.00000001
 12
1.0
 22
0.0
 32
0.0
 13
1.0
 23
0.0
 33
0.0
 40
0.0
 40
0.0
 40
0.0
 40
0.0
 40
0.5000000000000018
 40
0.5000000000000018
 40
0.7500000000000009
 40
0.7500000000000009
 40
1.0
 40
1.0
 40
1.0
 40
1.0
 10
193.2472591165701
 20
114.8487275221199
 30
0.0
 10
193.2164074060059
 20
114.9636305110567
 30
0.0
 10
193.1745145425453
 20
115.0757694071056
 30
0.0
 10
193.0749936647521
 20
115.2277116887064
 30
0.0
 10
193.0353795000278
 20
115.2753762982314
 30
0.0
 10
192.9382764662483
 20
115.3497126288467
 30
0.0
 10
192.8777777935979
 20
115.3763705509839
 30
0.0
 10
192.814246414678
 20
115.3763705509839
 30
0.0
  0
LINE
  5
66
330
1F
100
AcDbEntity
  8
0
  6
Continuous
 62
     7
370
    15
100
AcDbLine
 10
192.8142464147
 20
115.376370551
 30
0.0
 11
189.8697600418
 21
115.376370551
 31
0.0
  0
SPLINE
  5
67
330
1F
100
AcDbEntity
  8
0
  6
Continuous
 62
     7
370
    15
100
AcDbSpline
210
0.0
220
0.0
230
1.0
 70
     8
 71
     3
 72
    12
 73
     8
 74
     0
 42
0.00000001
 43
0.00000001
 12
1.0
 22
0.0
 32
0.0
 13
1.0
 23
0.0
 33
0.0
 40
0.0
 40
0.0
 40
0.0
 40
0.0
 40
0.2500000000000009
 40
0.2500000000000009
 40
0.5000000000000019
 40
0.5000000000000019
 40
1.0
 40
1.0
 40
1.0
 40
1.0
 10
189.8697600418108
 20
115.3763705509835
 30
0.0
 10
189.8061234875971
 20
115.3763705509835
 30
0.0
 10
189.7465433607309
 20
115.3503236479256
 30
0.0
 10
189.6479066193645
 20
115.2748364890256
 30
0.0
 10
189.6089479949842
 20
115.2276174504949
 30
0.0
 10
189.5095690554763
 20
115.0758777994014
 30
0.0
 10
189.4676111503109
 20
114.9636755752172
 30
0.0
 10
189.4367473399184
 20
114.8487275221199
 30
0.0
  0
ELLIPSE
  5
68
330
1F
100
AcDbEntity
  8
0
  6
Continuous
 62
     7
370
    15
100
AcDbEllipse
 10
202.3982608832
 20
122.9451805202
 30
0.0
 11
11.70927234972708
 21
24.67718644093743
 31
0.0
210
0.0
220
0.0
230
1.0
 40
0.3419987131
 41
2.061476155780655
 42
2.972663379000675
  0
SPLINE
  5
69
330
1F
100
AcDbEntity
  8
0
  6
Continuous
 62
     7
370
    15
100
AcDbSpline
210
0.0
220
0.0
230
1.0
 70
     8
 71
     3
 72
    12
 73
     8
 74
     0
 42
0.00000001
 43
0.00000001
 12
1.0
 22
0.0
 32
0.0
 13
1.0
 23
0.0
 33
0.0
 40
0.0
 40
0.0
 40
0.0
 40
0.0
 40
0.4999999999999982
 40
0.4999999999999982
 40
0.7499999999999991
 40
0.7499999999999991
 40
1.0
 40
1.0
 40
1.0
 40
1.0
 10
189.4367473399186
 20
131.0416335182084
 30
0.0
 10
189.4674467232859
 20
130.9272978511445
 30
0.0
 10
189.5087967913924
 20
130.8159444983031
 30
0.0
 10
189.6085527196118
 20
130.6632077260544
 30
0.0
 10
189.6482496373445
 20
130.6153478402023
 30
0.0
 10
189.7455077889922
 20
130.5407447268528
 30
0.0
 10
189.8062839469829
 20
130.5139904893447
 30
0.0
 10
189.8697600418108
 20
130.5139904893447
 30
0.0
  0
LINE
  5
6A
330
1F
100
AcDbEntity
  8
0
  6
Continuous
 62
     7
370
    15
100
AcDbLine
 10
189.8697600418
 20
130.5139904893
 30
0.0
 11
192.8142464147
 21
130.5139904893
 31
0.0
  0
SPLINE
  5
6B
330
1F
100
AcDbEntity
  8
0
  6
Continuous
 62
     7
370
    15
100
AcDbSpline
210
0.0
220
0.0
230
1.0
 70
     8
 71
     3
 72
    12
 73
     8
 74
     0
 42
0.00000001
 43
0.00000001
 12
1.0
 22
0.0
 32
0.0
 13
1.0
 23
0.0
 33
0.0
 40
0.0
 40
0.0
 40
0.0
 40
0.0
 40
0.2499999999999982
 40
0.2499999999999982
 40
0.4999999999999963
 40
0.4999999999999963
 40
1.0
 40
1.0
 40
1.0
 40
1.0
 10
192.8142464146779
 20
130.5139904893447
 30
0.0
 10
192.8779116512084
 20
130.5139904893447
 30
0.0
 10
192.9375178834318
 20
130.5400626378244
 30
0.0
 10
193.0361784083626
 20
130.6156013886455
 30
0.0
 10
193.0751453983779
 20
130.6628523257417
 30
0.0
 10
193.1745322303023
 20
130.8146761437081
 30
0.0
 10
193.2166084777258
 20
130.9274793934732
 30
0.0
 10
193.2472591165701
 20
131.0416335182083
 30
0.0
  0
ELLIPSE
  5
6C
330
1F
100
AcDbEntity
  8
0
  6
Continuous
 62
     7
370
    15
100
AcDbEllipse
 10
180.2857455733
 20
122.9451805202
 30
0.0
 11
11.70927234972706
 21
24.67718644093743
 31
0.0
210
0.0
220
0.0
230
1.0
 40
0.3419987131
 41
5.203068809370452
 42
6.114256032590495
  0
SPLINE
  5
6D
330
1F
100
AcDbEntity
  8
0
  6
Continuous
 62
     7
370
    15
100
AcDbSpline
210
0.0
220
0.0
230
1.0
 70
     8
 71
     3
 72
    12
 73
     8
 74
     0
 42
0.00000001
 43
0.00000001
 12
1.0
 22
0.0
 32
0.0
 13
1.0
 23
0.0
 33
0.0
 40
0.0
 40
0.0
 40
0.0
 40
0.0
 40
0.500000000000001
 40
0.500000000000001
 40
0.7500000000000004
 40
0.7500000000000004
 40
1.0
 40
1.0
 40
1.0
 40
1.0
 10
193.2472591165701
 20
146.5978219973958
 30
0.0
 10
193.2165597332028
 20
146.6369598397917
 30
0.0
 10
193.1752096650963
 20
146.6741196225172
 30
0.0
 10
193.0754537368769
 20
146.724056128145
 30
0.0
 10
193.0357568191442
 20
146.7395089982888
 30
0.0
 10
192.9384986674965
 20
146.7634285418877
 30
0.0
 10
192.8777225095058
 20
146.7719116356662
 30
0.0
 10
192.8142464146779
 20
146.7719116356662
 30
0.0
  0
LINE
  5
6E
330
1F
100
AcDbEntity
  8
0
  6
Continuous
 62
     7
370
    15
100
AcDbLine
 10
192.8142464147
 20
146.7719116357
 30
0.0
 11
189.8697600418
 21
146.7719116357
 31
0.0
  0
SPLINE
  5
6F
330
1F
100
AcDbEntity
  8
0
  6
Continuous
 62
     7
370
    15
100
AcDbSpline
210
0.0
220
0.0
230
1.0
 70
     8
 71
     3
 72
    12
 73
     8
 74
     0
 42
0.00000001
 43
0.00000001
 12
1.0
 22
0.0
 32
0.0
 13
1.0
 23
0.0
 33
0.0
 40
0.0
 40
0.0
 40
0.0
 40
0.0
 40
0.2500000000000016
 40
0.2500000000000016
 40
0.5000000000000032
 40
0.5000000000000032
 40
1.0
 40
1.0
 40
1.0
 40
1.0
 10
189.8697600418108
 20
146.7719116356662
 30
0.0
 10
189.8060948052803
 20
146.7719116356662
 30
0.0
 10
189.7464885730569
 20
146.7636468600003
 30
0.0
 10
189.6478280481261
 20
146.7394280784172
 30
0.0
 10
189.6088610581108
 20
146.724170759108
 30
0.0
 10
189.5094742261864
 20
146.6745374048461
 30
0.0
 10
189.4673979787629
 20
146.636897696672
 30
0.0
 10
189.4367473399186
 20
146.5978219973958
 30
0.0
  0
ELLIPSE
  5
70
330
1F
100
AcDbEntity
  8
0
  6
Continuous
 62
     7
370
    15
100
AcDbEllipse
 10
202.3982608832
 20
122.9451805202
 30
0.0
 11
-11.70927234972695
 21
24.67718644093744
 31
0.0
210
0.0
220
0.0
230
1.0
 40
0.3419987131
 41
0.1689292745891336
 42
1.080116497809151
  0
LINE
  5
71
330
1F
100
AcDbEntity
  8
0
  6
Continuous
 62
     7
370
    15
100
AcDbLine
 10
181.3420032282
 20
98.2451805202
 30
0.0
 11
181.3420032282
 21
147.6451805149
 31
0.0
  0
ELLIPSE
  5
72
330
1F
100
AcDbEntity
  8
0
  6
Continuous
 62
     7
370
    15
100
AcDbEllipse
 10
207.2955100556
 20
108.192703829
 30
0.0
 11
-0.07455845344540535
 21
2.977883509886055
 31
0.0
210
0.0
220
0.0
230
1.0
 40
0.2376870849
 41
5.290959098474652
 42
10.20710295296574
  0
SPLINE
  5
73
330
1F
100
AcDbEntity
  8
0
  6
Continuous
 62
     7
370
    15
100
AcDbSpline
210
0.0
220
0.0
230
1.0
 70
     8
 71
     3
 72
    16
 73
    12
 74
     0
 42
0.00000001
 43
0.00000001
 12
1.0
 22
0.0
 32
0.0
 13
1.0
 23
0.0
 33
0.0
 40
0.0
 40
0.0
 40
0.0
 40
0.0
 40
0.25
 40
0.25
 40
0.5
 40
0.5
 40
0.625
 40
0.625
 40
0.75
 40
0.75
 40
1.0
 40
1.0
 40
1.0
 40
1.0
 10
180.3011422001153
 20
105.5960232389717
 30
0.0
 10
180.3328701613079
 20
105.5952261221508
 30
0.0
 10
180.3674977516585
 20
105.5946350472955
 30
0.0
 10
180.4471915137221
 20
105.593623521861
 30
0.0
 10
180.4922329737259
 20
105.5932234136862
 30
0.0
 10
180.5750857005763
 20
105.5922655417823
 30
0.0
 10
180.6050001617761
 20
105.5918838605219
 30
0.0
 10
180.6709864923341
 20
105.5908076464633
 30
0.0
 10
180.7077201177959
 20
105.5900900805692
 30
0.0
 10
180.8202168373656
 20
105.5873292028876
 30
0.0
 10
180.890558185464
 20
105.584842111016
 30
0.0
 10
180.9470263393691
 20
105.5826688326089
 30
0.0
  0
SPLINE
  5
74
330
1F
100
AcDbEntity
  8
0
  6
Continuous
 62
     7
370
    15
100
AcDbSpline
210
0.0
220
0.0
230
1.0
 70
     8
 71
     3
 72
    14
 73
    10
 74
     0
 42
0.00000001
 43
0.00000001
 12
1.0
 22
0.0
 32
0.0
 13
1.0
 23
0.0
 33
0.0
 40
0.0
 40
0.0
 40
0.0
 40
0.0
 40
0.1249999999999998
 40
0.1249999999999998
 40
0.2499999999999996
 40
0.2499999999999996
 40
0.4999999999999988
 40
0.4999999999999988
 40
1.0
 40
1.0
 40
1.0
 40
1.0
 10
180.9470263393375
 20
105.5826688326316
 30
0.0
 10
180.9596181332823
 20
105.5821842148092
 30
0.0
 10
180.9744892415763
 20
105.5804740368769
 30
0.0
 10
181.0066733330095
 20
105.572358488126
 30
0.0
 10
181.0222774644853
 20
105.5661426998647
 30
0.0
 10
181.0581646041974
 20
105.5479235881632
 30
0.0
 10
181.0720166454661
 20
105.5361585598295
 30
0.0
 10
181.1055063873987
 20
105.5043634234122
 30
0.0
 10
181.1161686479744
 20
105.4865699915691
 30
0.0
 10
181.1243066048694
 20
105.4701388607247
 30
0.0
  0
LINE
  5
75
330
1F
100
AcDbEntity
  8
0
  6
Continuous
 62
     7
370
    15
100
AcDbLine
 10
181.1420032282
 20
116.9607002876
 30
0.0
 11
181.1420032282
 21
105.1053602413
 31
0.0
  0
SPLINE
  5
76
330
1F
100
AcDbEntity
  8
0
  6
Continuous
 62
     7
370
    15
100
AcDbSpline
210
0.0
220
0.0
230
1.0
 70
     8
 71
     3
 72
    16
 73
    12
 74
     0
 42
0.00000001
 43
0.00000001
 12
1.0
 22
0.0
 32
0.0
 13
1.0
 23
0.0
 33
0.0
 40
0.0
 40
0.0
 40
0.0
 40
0.0
 40
0.5000000000000002
 40
0.5000000000000002
 40
0.7500000000000003
 40
0.7500000000000003
 40
0.8750000000000004
 40
0.8750000000000004
 40
0.9375000000000002
 40
0.9375000000000002
 40
1.0
 40
1.0
 40
1.0
 40
1.0
 10
181.1420032282444
 20
116.9607002875897
 30
0.0
 10
181.1420032282444
 20
117.0752300182886
 30
0.0
 10
181.1379459261293
 20
117.1905460934781
 30
0.0
 10
181.1122886833345
 20
117.3654691833057
 30
0.0
 10
181.1009732375924
 20
117.4252984863006
 30
0.0
 10
181.0669418702838
 20
117.5098896725488
 30
0.0
 10
181.0530628890799
 20
117.5385592586928
 30
0.0
 10
181.0171272073126
 20
117.5683670456391
 30
0.0
 10
181.0021768880498
 20
117.5747021989987
 30
0.0
 10
180.972278375308
 20
117.5734767361285
 30
0.0
 10
180.9587455149427
 20
117.5668781500937
 30
0.0
 10
180.9470263393687
 20
117.5582304620373
 30
0.0
  0
SPLINE
  5
77
330
1F
100
AcDbEntity
  8
0
  6
Continuous
 62
     7
370
    15
100
AcDbSpline
210
0.0
220
0.0
230
1.0
 70
     8
 71
     3
 72
    14
 73
    10
 74
     0
 42
0.00000001
 43
0.00000001
 12
1.0
 22
0.0
 32
0.0
 13
1.0
 23
0.0
 33
0.0
 40
0.0
 40
0.0
 40
0.0
 40
0.0
 40
0.25
 40
0.25
 40
0.5
 40
0.5
 40
0.75
 40
0.75
 40
1.0
 40
1.0
 40
1.0
 40
1.0
 10
180.9470263393755
 20
117.5582304620286
 30
0.0
 10
180.8905666734918
 20
117.5165683523298
 30
0.0
 10
180.8196941986296
 20
117.4857348717416
 30
0.0
 10
180.6712278407476
 20
117.4914493803548
 30
0.0
 10
180.6020326375398
 20
117.5270203077877
 30
0.0
 10
180.4923154514703
 20
117.6139642202616
 30
0.0
 10
180.4470695625383
 20
117.6663965336267
 30
0.0
 10
180.3674524315714
 20
117.7749496151452
 30
0.0
 10
180.3328498121145
 20
117.8319327013877
 30
0.0
 10
180.3011422001157
 20
117.8904987840456
 30
0.0
  0
SPLINE
  5
78
330
1F
100
AcDbEntity
  8
0
  6
Continuous
 62
     7
370
    15
100
AcDbSpline
210
0.0
220
0.0
230
1.0
 70
     8
 71
     3
 72
    10
 73
     6
 74
     0
 42
0.00000001
 43
0.00000001
 12
1.0
 22
0.0
 32
0.0
 13
1.0
 23
0.0
 33
0.0
 40
0.0
 40
0.0
 40
0.0
 40
0.0
 40
0.5
 40
0.5
 40
1.0
 40
1.0
 40
1.0
 40
1.0
 10
180.0206828846847
 20
118.7433173756919
 30
0.0
 10
180.0515614682967
 20
118.5936888238322
 30
0.0
 10
180.08755417602
 20
118.4471934063086
 30
0.0
 10
180.1768944275171
 20
118.1620017677678
 30
0.0
 10
180.2293527303627
 20
118.0230987420519
 30
0.0
 10
180.3011422001158
 20
117.8904987840454
 30
0.0
  0
SPLINE
  5
79
330
1F
100
AcDbEntity
  8
0
  6
Continuous
 62
     7
370
    15
100
AcDbSpline
210
0.0
220
0.0
230
1.0
 70
     8
 71
     3
 72
    10
 73
     6
 74
     0
 42
0.00000001
 43
0.00000001
 12
1.0
 22
0.0
 32
0.0
 13
1.0
 23
0.0
 33
0.0
 40
0.0
 40
0.0
 40
0.0
 40
0.0
 40
0.5
 40
0.5
 40
1.0
 40
1.0
 40
1.0
 40
1.0
 10
180.3011422001151
 20
127.9998622562818
 30
0.0
 10
180.2293527303623
 20
127.8672622982755
 30
0.0
 10
180.1768944275168
 20
127.7283592725598
 30
0.0
 10
180.0875541760199
 20
127.4431676340195
 30
0.0
 10
180.0515614682966
 20
127.2966722164961
 30
0.0
 10
180.0206828846847
 20
127.1470436646367
 30
0.0
  0
SPLINE
  5
7A
330
1F
100
AcDbEntity
  8
0
  6
Continuous
 62
     7
370
    15
100
AcDbSpline
210
0.0
220
0.0
230
1.0
 70
     8
 71
     3
 72
    14
 73
    10
 74
     0
 42
0.00000001
 43
0.00000001
 12
1.0
 22
0.0
 32
0.0
 13
1.0
 23
0.0
 33
0.0
 40
0.0
 40
0.0
 40
0.0
 40
0.0
 40
0.25
 40
0.25
 40
0.5
 40
0.5
 40
0.75
 40
0.75
 40
1.0
 40
1.0
 40
1.0
 40
1.0
 10
180.3011422001145
 20
127.9998622562807
 30
0.0
 10
180.3328508995998
 20
128.0584303475992
 30
0.0
 10
180.3674587182404
 20
128.1154246095392
 30
0.0
 10
180.4471171287298
 20
128.2240247443032
 30
0.0
 10
180.4921793986247
 20
128.2763528796818
 30
0.0
 10
180.6027612442031
 20
128.3638538910441
 30
0.0
 10
180.6704053650184
 20
128.3988993472983
 30
0.0
 10
180.8206536554155
 20
128.4046437360543
 30
0.0
 10
180.8906060536458
 20
128.3737636290043
 30
0.0
 10
180.9470263393694
 20
128.3321305782913
 30
0.0
  0
SPLINE
  5
7B
330
1F
100
AcDbEntity
  8
0
  6
Continuous
 62
     7
370
    15
100
AcDbSpline
210
0.0
220
0.0
230
1.0
 70
     8
 71
     3
 72
    16
 73
    12
 74
     0
 42
0.00000001
 43
0.00000001
 12
1.0
 22
0.0
 32
0.0
 13
1.0
 23
0.0
 33
0.0
 40
0.0
 40
0.0
 40
0.0
 40
0.0
 40
0.0624999999999994
 40
0.0624999999999994
 40
0.1249999999999989
 40
0.1249999999999989
 40
0.2499999999999998
 40
0.2499999999999998
 40
0.4999999999999987
 40
0.4999999999999987
 40
1.0
 40
1.0
 40
1.0
 40
1.0
 10
180.9470263393375
 20
128.3321305782379
 30
0.0
 10
180.9587605737844
 20
128.3234717780936
 30
0.0
 10
180.9722923292634
 20
128.3168676928584
 30
0.0
 10
181.0022797896932
 20
128.3156707256842
 30
0.0
 10
181.0172744961014
 20
128.3220924727501
 30
0.0
 10
181.0530149184962
 20
128.3518096261594
 30
0.0
 10
181.0670282554974
 20
128.3806170235428
 30
0.0
 10
181.1011723442788
 20
128.4656967451687
 30
0.0
 10
181.1121442483971
 20
128.5240716944384
 30
0.0
 10
181.1379897886634
 20
128.699787219227
 30
0.0
 10
181.1420032282444
 20
128.8155822270915
 30
0.0
 10
181.1420032282444
 20
128.9296607527389
 30
0.0
  0
LINE
  5
7C
330
1F
100
AcDbEntity
  8
0
  6
Continuous
 62
     7
370
    15
100
AcDbLine
 10
181.1420032282
 20
140.785000799
 30
0.0
 11
181.1420032282
 21
128.9296607527
 31
0.0
  0
SPLINE
  5
7D
330
1F
100
AcDbEntity
  8
0
  6
Continuous
 62
     7
370
    15
100
AcDbSpline
210
0.0
220
0.0
230
1.0
 70
     8
 71
     3
 72
    16
 73
    12
 74
     0
 42
0.00000001
 43
0.00000001
 12
1.0
 22
0.0
 32
0.0
 13
1.0
 23
0.0
 33
0.0
 40
0.0
 40
0.0
 40
0.0
 40
0.0
 40
0.5000000000000027
 40
0.5000000000000027
 40
0.7500000000000013
 40
0.7500000000000013
 40
0.8750000000000007
 40
0.8750000000000007
 40
0.9375000000000003
 40
0.9375000000000003
 40
1.0
 40
1.0
 40
1.0
 40
1.0
 10
181.1420032282445
 20
140.4919349858318
 30
0.0
 10
181.1420032282442
 20
140.4699199712525
 30
0.0
 10
181.1378786853903
 20
140.4445663365488
 30
0.0
 10
181.1119622397571
 20
140.3974058343602
 30
0.0
 10
181.1006846587374
 20
140.3802068461315
 30
0.0
 10
181.066949280196
 20
140.3502288805622
 30
0.0
 10
181.0525604649516
 20
140.3388774720204
 30
0.0
 10
181.0173137755125
 20
140.322189612543
 30
0.0
 10
181.0021083510556
 20
140.3166265856577
 30
0.0
 10
180.9724617718863
 20
140.3096570026225
 30
0.0
 10
180.9587564358888
 20
140.3081436615671
 30
0.0
 10
180.9470263393651
 20
140.3076922077173
 30
0.0
  0
SPLINE
  5
7E
330
1F
100
AcDbEntity
  8
0
  6
Continuous
 62
     7
370
    15
100
AcDbSpline
210
0.0
220
0.0
230
1.0
 70
     8
 71
     3
 72
    14
 73
    10
 74
     0
 42
0.00000001
 43
0.00000001
 12
1.0
 22
0.0
 32
0.0
 13
1.0
 23
0.0
 33
0.0
 40
0.0
 40
0.0
 40
0.0
 40
0.0
 40
0.25
 40
0.25
 40
0.5
 40
0.5
 40
0.75
 40
0.75
 40
1.0
 40
1.0
 40
1.0
 40
1.0
 10
180.9470263393755
 20
140.3076922077198
 30
0.0
 10
180.8905792573173
 20
140.3055197403005
 30
0.0
 10
180.8197288732745
 20
140.3030216423831
 30
0.0
 10
180.671292438458
 20
140.2993751835949
 30
0.0
 10
180.6021031867711
 20
140.2984074367436
 30
0.0
 10
180.4923916385302
 20
140.2971398773809
 30
0.0
 10
180.4471499891878
 20
140.2967370364526
 30
0.0
 10
180.3675019710039
 20
140.295726001525
 30
0.0
 10
180.332875055238
 20
140.2951350411303
 30
0.0
 10
180.3011422001166
 20
140.2943378013569
 30
0.0
  0
SPLINE
  5
7F
330
1F
100
AcDbEntity
  8
0
  6
Continuous
 62
     7
370
    15
100
AcDbSpline
210
0.0
220
0.0
230
1.0
 70
     8
 71
     3
 72
    18
 73
    14
 74
     0
 42
0.00000001
 43
0.00000001
 12
1.0
 22
0.0
 32
0.0
 13
1.0
 23
0.0
 33
0.0
 40
0.0
 40
0.0
 40
0.0
 40
0.0
 40
0.2500000000000001
 40
0.2500000000000001
 40
0.3750000000000001
 40
0.3750000000000001
 40
0.5000000000000001
 40
0.5000000000000001
 40
0.6250000000000001
 40
0.6250000000000001
 40
0.7500000000000002
 40
0.7500000000000002
 40
1.0
 40
1.0
 40
1.0
 40
1.0
 10
180.0206828846848
 20
127.1470436646367
 30
0.0
 10
179.8853972783824
 20
126.4914893292154
 30
0.0
 10
179.7842295321394
 20
125.8118682354178
 30
0.0
 10
179.6813681892705
 20
124.7565042289238
 30
0.0
 10
179.6552653437472
 20
124.3976901643392
 30
0.0
 10
179.6203753602024
 20
123.6715772202163
 30
0.0
 10
179.6117891019124
 20
123.3094875412001
 30
0.0
 10
179.6116893923467
 20
122.5871778837818
 30
0.0
 10
179.6201777634953
 20
122.2269580816734
 30
0.0
 10
179.6543211430159
 20
121.5083920125795
 30
0.0
 10
179.6801181248697
 20
121.1486262966641
 30
0.0
 10
179.7835192562576
 20
120.0819817096697
 30
0.0
 10
179.885377248429
 20
119.3989687703873
 30
0.0
 10
180.0206828846848
 20
118.7433173756919
 30
0.0
  0
LINE
  5
80
330
1F
100
AcDbEntity
  8
0
  6
Continuous
 62
     7
370
    15
100
AcDbLine
 10
179.1420032282
 20
128.085333008
 30
0.0
 11
179.1420032282
 21
117.8050280324
 31
0.0
  0
LINE
  5
81
330
1F
100
AcDbEntity
  8
0
  6
Continuous
 62
     7
370
    15
100
AcDbLine
 10
152.8420032282
 20
127.7549592367
 30
0.0
 11
152.8420032282
 21
118.1354018037
 31
0.0
  0
LINE
  5
82
330
1F
100
AcDbEntity
  8
0
  6
Continuous
 62
     7
370
    15
100
AcDbLine
 10
151.3420032282
 20
127.3219465348
 30
0.0
 11
151.3420032282
 21
118.5684145056
 31
0.0
  0
SPLINE
  5
83
330
1F
100
AcDbEntity
  8
0
  6
Continuous
 62
     7
370
    15
100
AcDbSpline
210
0.0
220
0.0
230
1.0
 70
     8
 71
     3
 72
    18
 73
    14
 74
     0
 42
0.00000001
 43
0.00000001
 12
1.0
 22
0.0
 32
0.0
 13
1.0
 23
0.0
 33
0.0
 40
0.0
 40
0.0
 40
0.0
 40
0.0
 40
0.2499999999999999
 40
0.2499999999999999
 40
0.3749999999999997
 40
0.3749999999999997
 40
0.4999999999999993
 40
0.4999999999999993
 40
0.624999999999999
 40
0.624999999999999
 40
0.7499999999999987
 40
0.7499999999999987
 40
1.0
 40
1.0
 40
1.0
 40
1.0
 10
207.8473454785481
 20
109.8359292427809
 30
0.0
 10
207.893965347265
 20
109.5783333207783
 30
0.0
 10
207.9463188353647
 20
109.2991440360805
 30
0.0
 10
208.0126869449938
 20
108.8498264978967
 30
0.0
 10
208.032843865414
 20
108.6940764804464
 30
0.0
 10
208.0644435010708
 20
108.3773471276664
 30
0.0
 10
208.0760028930585
 20
108.2157475791113
 30
0.0
 10
208.0866789095902
 20
107.8846807823123
 30
0.0
 10
208.0855835814101
 20
107.7135852417941
 30
0.0
 10
208.0679650336292
 20
107.3741129068918
 30
0.0
 10
208.0515263313204
 20
107.2048823157034
 30
0.0
 10
207.9815496668668
 20
106.6984582444434
 30
0.0
 10
207.9084419779602
 20
106.3801062779107
 30
0.0
 10
207.847345478548
 20
106.0930535203285
 30
0.0
  0
LINE
  5
84
330
1F
100
AcDbEntity
  8
0
  6
Continuous
 62
     7
370
    15
100
AcDbLine
 10
179.1420032282
 20
128.085333008
 30
0.0
 11
179.1420032282
 21
140.4652793047
 31
0.0
  0
ARC
  5
85
330
1F
100
AcDbEntity
  8
0
  6
Continuous
 62
     7
370
    15
100
AcDbCircle
 10
179.3419401392
 20
140.4703024159
 30
0.0
 40
0.1999999999999782
100
AcDbArc
 50
181.4391666667
 51
271.4391666667
  0
LINE
  5
86
330
1F
100
AcDbEntity
  8
0
  6
Continuous
 62
     7
370
    15
100
AcDbLine
 10
152.8420032282
 20
127.7549592367
 30
0.0
 11
152.8420032282
 21
139.8045317621
 31
0.0
  0
LINE
  5
87
330
1F
100
AcDbEntity
  8
0
  6
Continuous
 62
     7
370
    15
100
AcDbLine
 10
152.8420032282
 20
139.8045317621
 30
0.0
 11
179.1420032282
 21
140.4652793047
 31
0.0
  0
LINE
  5
88
330
1F
100
AcDbEntity
  8
0
  6
Continuous
 62
     7
370
    15
100
AcDbLine
 10
152.8420032282
 20
106.0858292782
 30
0.0
 11
152.8420032282
 21
118.1354018037
 31
0.0
  0
LINE
  5
89
330
1F
100
AcDbEntity
  8
0
  6
Continuous
 62
     7
370
    15
100
AcDbLine
 10
179.1420032282
 20
105.4250817356
 30
0.0
 11
179.1420032282
 21
117.8050280324
 31
0.0
  0
LINE
  5
8A
330
1F
100
AcDbEntity
  8
0
  6
Continuous
 62
     7
370
    15
100
AcDbLine
 10
152.8420032282
 20
106.0858292782
 30
0.0
 11
179.1420032282
 21
105.4250817356
 31
0.0
  0
ARC
  5
8B
330
1F
100
AcDbEntity
  8
0
  6
Continuous
 62
     7
370
    15
100
AcDbCircle
 10
179.3419401392
 20
105.4200586245
 30
0.0
 40
0.1999999999999924
100
AcDbArc
 50
88.5608333333
 51
178.5608333333
  0
LINE
  5
8C
330
1F
100
AcDbEntity
  8
0
  6
Continuous
 62
     7
370
    15
100
AcDbLine
 10
179.3469632503
 20
105.6199955354
 30
0.0
 11
180.3011422001
 21
105.596023239
 31
0.0
  0
LINE
  5
8D
330
1F
100
AcDbEntity
  8
0
  6
Continuous
 62
     7
370
    15
100
AcDbLine
 10
179.3469632503
 20
140.2703655049
 30
0.0
 11
180.3011422001
 21
140.2943378014
 31
0.0
  0
LINE
  5
8E
330
1F
100
AcDbEntity
  8
0
  6
Continuous
 62
     7
370
    15
100
AcDbLine
 10
151.3420032282
 20
106.951854682
 30
0.0
 11
152.8420032282
 21
106.0858292782
 31
0.0
  0
LINE
  5
8F
330
1F
100
AcDbEntity
  8
0
  6
Continuous
 62
     7
370
    15
100
AcDbLine
 10
151.3420032282
 20
106.951854682
 30
0.0
 11
151.3420032282
 21
118.5684145056
 31
0.0
  0
LINE
  5
90
330
1F
100
AcDbEntity
  8
0
  6
Continuous
 62
     7
370
    15
100
AcDbLine
 10
151.3420032282
 20
138.9385063583
 30
0.0
 11
152.8420032282
 21
139.8045317621
 31
0.0
  0
LINE
  5
91
330
1F
100
AcDbEntity
  8
0
  6
Continuous
 62
     7
370
    15
100
AcDbLine
 10
151.3420032282
 20
127.3219465348
 30
0.0
 11
151.3420032282
 21
138.9385063583
 31
0.0
  0
SPLINE
  5
92
330
1F
100
AcDbEntity
  8
0
  6
Continuous
 62
     7
370
    15
100
AcDbSpline
210
0.0
220
0.0
230
1.0
 70
     8
 71
     3
 72
     8
 73
     4
 74
     0
 42
0.00000001
 43
0.00000001
 12
1.0
 22
0.0
 32
0.0
 13
1.0
 23
0.0
 33
0.0
 40
0.0
 40
0.0
 40
0.0
 40
0.0
 40
1.0
 40
1.0
 40
1.0
 40
1.0
 10
214.5406020665544
 20
97.97631993924085
 30
0.0
 10
215.1127241243177
 20
95.64644548663689
 30
0.0
 10
215.7005669303257
 20
93.32099770159378
 30
0.0
 10
216.296221688821
 20
90.99774961570768
 30
0.0
  0
SPLINE
  5
93
330
1F
100
AcDbEntity
  8
0
  6
Continuous
 62
     7
370
    15
100
AcDbSpline
210
0.0
220
0.0
230
1.0
 70
     8
 71
     3
 72
    10
 73
     6
 74
     0
 42
0.00000001
 43
0.00000001
 12
1.0
 22
0.0
 32
0.0
 13
1.0
 23
0.0
 33
0.0
 40
0.0
 40
0.0
 40
0.0
 40
0.0
 40
0.5
 40
0.5
 40
1.0
 40
1.0
 40
1.0
 40
1.0
 10
213.5746762402654
 20
98.82694305620763
 30
0.0
 10
213.8084828431269
 20
98.8149427940693
 30
0.0
 10
214.0258191987875
 20
98.71518793408164
 30
0.0
 10
214.3661830863135
 20
98.40566103221343
 30
0.0
 10
214.485189112605
 20
98.20198022273884
 30
0.0
 10
214.5406020665544
 20
97.97631993924085
 30
0.0
  0
SPLINE
  5
94
330
1F
100
AcDbEntity
  8
0
  6
Continuous
 62
     7
370
    15
100
AcDbSpline
210
0.0
220
0.0
230
1.0
 70
     8
 71
     3
 72
     8
 73
     4
 74
     0
 42
0.00000001
 43
0.00000001
 12
1.0
 22
0.0
 32
0.0
 13
1.0
 23
0.0
 33
0.0
 40
0.0
 40
0.0
 40
0.0
 40
0.0
 40
1.0
 40
1.0
 40
1.0
 40
1.0
 10
214.1649177127752
 20
143.6334947834383
 30
0.0
 10
214.0009365040977
 20
143.4852480904159
 30
0.0
 10
213.7943442620132
 20
143.3827747267874
 30
0.0
 10
213.5746762402657
 20
143.3580481673708
 30
0.0
  0
LINE
  5
95
330
1F
100
AcDbEntity
  8
0
  6
Continuous
 62
     7
370
    15
100
AcDbLine
 10
231.9342351213
 20
118.8003557673
 30
0.0
 11
214.1649177128
 21
143.6334947834
 31
0.0
  0
LINE
  5
96
330
1F
100
AcDbEntity
  8
0
  6
Continuous
 62
     7
370
    15
100
AcDbLine
 10
231.9342351213
 20
110.4053317687
 30
0.0
 11
231.9342351213
 21
118.8003557673
 31
0.0
  0
ARC
  5
97
330
1F
100
AcDbEntity
  8
0
  6
Continuous
 62
     7
370
    15
100
AcDbCircle
 10
257.1095119414
 20
110.3784170405
 30
0.0
 40
25.17529120723313
100
AcDbArc
 50
179.93874547
 51
202.0689913954
  0
LINE
  5
98
330
1F
100
AcDbEntity
  8
0
  6
Continuous
 62
     7
370
    15
100
AcDbLine
 10
217.9239115424
 20
101.7525201264
 30
0.0
 11
233.7787612366
 21
100.9194869255
 31
0.0
  0
ARC
  5
99
330
1F
100
AcDbEntity
  8
0
  6
Continuous
 62
     7
370
    15
100
AcDbCircle
 10
217.7601609433
 20
99.6856564202
 30
0.0
 40
2.073340261227444
100
AcDbArc
 50
85.4701117843
 51
265.0463583694
  0
LINE
  5
9A
330
1F
100
AcDbEntity
  8
0
  6
Continuous
 62
     7
370
    15
100
AcDbLine
 10
221.254225826
 20
97.4270712934
 30
0.0
 11
217.5811286606
 21
97.6200603124
 31
0.0
  0
LINE
  5
9B
330
1F
100
AcDbEntity
  8
0
  6
Continuous
 62
     7
370
    15
100
AcDbLine
 10
225.7568880669
 20
89.8429235224
 30
0.0
 11
221.254225826
 21
97.4270712934
 31
0.0
  0
ELLIPSE
  5
9C
330
1F
100
AcDbEntity
  8
0
  6
Continuous
 62
     7
370
    15
100
AcDbEllipse
 10
264.5146114246
 20
118.9008280093
 30
0.0
 11
169.6090200775229
 21
-12.49565224517561
 31
0.0
210
0.0
220
0.0
230
1.0
 40
0.1916117708
 41
4.438266976364479
 42
4.495978963589985
  0
LWPOLYLINE
  5
9D
330
1F
100
AcDbEntity
  8
0
  6
Continuous
 62
     7
370
    15
100
AcDbPolyline
 90
       34
 70
   128
 43
0.0
 10
224.7434759977
 20
107.1094774637
 10
224.6612526934
 20
106.4568554328
 10
224.4574821956
 20
105.8278208625
 10
224.1395293012
 20
105.2451087011
 10
223.7188856562
 20
104.7297796844
 10
223.2107544179
 20
104.3004591456
 10
222.6335007731
 20
103.9726638477
 10
222.0079881726
 20
103.7582411667
 10
221.3568242715
 20
103.6649408971
 10
220.7035438299
 20
103.6961351537
 10
220.0717581049
 20
103.8506964947
 10
219.4843014789
 20
104.1230386706
 10
218.9624061647
 20
104.5033185255
 10
218.524934819
 20
104.9777917548
 10
218.1876987959
 20
105.5293096597
 10
217.962886684
 20
106.1379389461
 10
217.8586237787
 20
106.7816821658
 10
217.8786784131
 20
107.4372727616
 10
218.0223257605
 20
108.0810159814
 10
218.2843740314
 20
108.6896452677
 10
218.6553521187
 20
109.2411631726
 10
219.1218519075
 20
109.7156364019
 10
219.6670128802
 20
110.0959162568
 10
220.2711314987
 20
110.3682584327
 10
220.9123733422
 20
110.5228197737
 10
221.5675622596
 20
110.5540140303
 10
222.2130180166
 20
110.4607137607
 10
222.8254121602
 20
110.2462910797
 10
223.3826111706
 20
109.9184957818
 10
223.8644764237
 20
109.489175243
 10
224.2535920538
 20
108.9738462263
 10
224.5358944082
 20
108.3911340649
 10
224.7011803443
 20
107.7620994946
 10
224.7434759977
 20
107.1094774637
  0
SPLINE
  5
9E
330
1F
100
AcDbEntity
  8
0
  6
Continuous
 62
     7
370
    15
100
AcDbSpline
210
0.0
220
0.0
230
1.0
 70
     8
 71
     3
 72
    10
 73
     6
 74
     0
 42
0.00000001
 43
0.00000001
 12
1.0
 22
0.0
 32
0.0
 13
1.0
 23
0.0
 33
0.0
 40
0.0
 40
0.0
 40
0.0
 40
0.0
 40
0.5
 40
0.5
 40
1.0
 40
1.0
 40
1.0
 40
1.0
 10
213.5746762402654
 20
144.3418350540737
 30
0.0
 10
213.6861492552928
 20
144.2048683602937
 30
0.0
 10
213.7899805006342
 20
144.0789331127702
 30
0.0
 10
213.9863913735219
 20
143.8433051403467
 30
0.0
 10
214.0788756366352
 20
143.7337500808907
 30
0.0
 10
214.1649177127755
 20
143.6334947834384
 30
0.0
  0
LINE
  5
9F
330
1F
100
AcDbEntity
  8
0
  6
Continuous
 62
     7
370
    15
100
AcDbLine
 10
215.9800924625
 20
99.1967731731
 30
0.0
 11
215.7229807316
 21
99.2266657448
 31
0.0
  0
SPLINE
  5
A0
330
1F
100
AcDbEntity
  8
0
  6
Continuous
 62
     7
370
    15
100
AcDbSpline
210
0.0
220
0.0
230
1.0
 70
     8
 71
     3
 72
    10
 73
     6
 74
     0
 42
0.00000001
 43
0.00000001
 12
1.0
 22
0.0
 32
0.0
 13
1.0
 23
0.0
 33
0.0
 40
0.0
 40
0.0
 40
0.0
 40
0.0
 40
0.1758283076305016
 40
0.7752175193748723
 40
1.0
 40
1.0
 40
1.0
 40
1.0
 10
216.2549157792428
 20
90.83163502448235
 30
0.0
 10
216.2571985602135
 20
90.81576495618779
 30
0.0
 10
216.2672632183175
 20
90.74579468154069
 30
0.0
 10
216.2812548426361
 20
90.83229341347047
 30
0.0
 10
216.2930144135184
 20
90.96229367632425
 30
0.0
 10
216.296221688821
 20
90.99774961570768
 30
0.0
  0
LINE
  5
A1
330
1F
100
AcDbEntity
  8
0
  6
Continuous
 62
     7
370
    15
100
AcDbLine
 10
219.6531896279
 20
99.0037841541
 30
0.0
 11
215.9800924625
 21
99.1967731731
 31
0.0
  0
LINE
  5
A2
330
1F
100
AcDbEntity
  8
0
  6
Continuous
 62
     7
370
    15
100
AcDbLine
 10
219.6531896279
 20
99.0037841541
 30
0.0
 11
221.254225826
 21
97.4270712934
 31
0.0
  0
ELLIPSE
  5
A3
330
1F
100
AcDbEntity
  8
0
  6
Continuous
 62
     7
370
    15
100
AcDbEllipse
 10
203.8841567188
 20
125.2733455849
 30
0.0
 11
-21.84550201690451
 21
35.45530065444144
 31
0.0
210
0.0
220
0.0
230
1.0
 40
0.047805889
 41
3.10474202724407
 42
3.159793033641259
  0
LINE
  5
A4
330
1F
100
AcDbEntity
  8
0
  6
Continuous
 62
     7
370
    15
100
AcDbLine
 10
219.1457815359
 20
101.0161290065
 30
0.0
 11
226.3522161722
 21
88.8778289834
 31
0.0
  0
ARC
  5
A5
330
1F
100
AcDbEntity
  8
0
  6
Continuous
 62
     7
370
    15
100
AcDbCircle
 10
219.4975405682
 20
101.2150089258
 30
0.0
 40
0.4040886525444788
100
AcDbArc
 50
86.9948239216
 51
209.4832454584
  0
LINE
  5
A6
330
1F
100
AcDbEntity
  8
0
  6
Continuous
 62
     7
370
    15
100
AcDbLine
 10
233.7760279613
 20
100.8694457561
 30
0.0
 11
219.5187253894
 21
101.6185418767
 31
0.0
  0
ARC
  5
A7
330
1F
100
AcDbEntity
  8
0
  6
Continuous
 62
     7
370
    15
100
AcDbCircle
 10
233.7577296374
 20
100.4904145844
 30
0.0
 40
0.3794726048279535
100
AcDbArc
 50
30.8004569596
 51
87.2361023135
  0
LINE
  5
A8
330
1F
100
AcDbEntity
  8
0
  6
Continuous
 62
     7
370
    15
100
AcDbLine
 10
241.2901144735
 20
88.5464234006
 30
0.0
 11
234.0836798373
 21
100.6847234237
 31
0.0
  0
ARC
  5
A9
330
1F
100
AcDbEntity
  8
0
  6
Continuous
 62
     7
370
    15
100
AcDbCircle
 10
240.9383554412
 20
88.3475434813
 30
0.0
 40
0.4040886525445251
100
AcDbArc
 50
266.9948239216
 51
29.4832454584
  0
LINE
  5
AA
330
1F
100
AcDbEntity
  8
0
  6
Continuous
 62
     7
370
    15
100
AcDbLine
 10
226.6598680481
 20
88.6931066509
 30
0.0
 11
240.9171706201
 21
87.9440105304
 31
0.0
  0
ARC
  5
AB
330
1F
100
AcDbEntity
  8
0
  6
Continuous
 62
     7
370
    15
100
AcDbCircle
 10
226.678166372
 20
89.0721378227
 30
0.0
 40
0.3794726048281807
100
AcDbArc
 50
210.8004569596
 51
267.2361023134
  0
ARC
  5
AC
330
1F
100
AcDbEntity
  8
0
  6
Continuous
 62
     7
370
    15
100
AcDbCircle
 10
240.9389284996
 20
88.3470452138
 30
0.0
 40
0.3838842199173358
100
AcDbArc
 50
266.9948239216
 51
29.4832454584
  0
LINE
  5
AD
330
1F
100
AcDbEntity
  8
0
  6
Continuous
 62
     7
370
    15
100
AcDbLine
 10
241.2730995803
 20
88.5359811372
 30
0.0
 11
234.0666649438
 21
100.6742811601
 31
0.0
  0
ARC
  5
AE
330
1F
100
AcDbEntity
  8
0
  6
Continuous
 62
     7
370
    15
100
AcDbCircle
 10
233.7570122532
 20
100.4896877619
 30
0.0
 40
0.3604989756535895
100
AcDbArc
 50
30.8004570242
 51
87.2361021642
  0
LINE
  5
AF
330
1F
100
AcDbEntity
  8
0
  6
Continuous
 62
     7
370
    15
100
AcDbLine
 10
233.7743956619
 20
100.849767376
 30
0.0
 11
219.51709309
 21
101.5988634966
 31
0.0
  0
ARC
  5
B0
330
1F
100
AcDbEntity
  8
0
  6
Continuous
 62
     7
370
    15
100
AcDbCircle
 10
219.4969675099
 20
101.2155071932
 30
0.0
 40
0.3838842199173003
100
AcDbArc
 50
86.9948239216
 51
209.4832454584
  0
LINE
  5
B1
330
1F
100
AcDbEntity
  8
0
  6
Continuous
 62
     7
370
    15
100
AcDbLine
 10
219.1627964292
 20
101.0265712699
 30
0.0
 11
226.3692310654
 21
88.8882712468
 31
0.0
  0
ARC
  5
B2
330
1F
100
AcDbEntity
  8
0
  6
Continuous
 62
     7
370
    15
100
AcDbCircle
 10
226.6788837553
 20
89.0728646441
 30
0.0
 40
0.3604989745865949
100
AcDbArc
 50
210.8004569596
 51
267.2361023135
  0
LINE
  5
B3
330
1F
100
AcDbEntity
  8
0
  6
Continuous
 62
     7
370
    15
100
AcDbLine
 10
226.6615003476
 20
88.712785031
 30
0.0
 11
240.9188029195
 21
87.9636889104
 31
0.0
  0
LINE
  5
B4
330
1F
100
AcDbEntity
  8
0
  6
Continuous
 62
     7
370
    15
100
AcDbLine
 10
219.4479821883
 20
101.2624927055
 30
0.0
 11
219.1627964292
 21
101.0265712699
 31
0.0
  0
LINE
  5
B5
330
1F
100
AcDbEntity
  8
0
  6
Continuous
 62
     7
370
    15
100
AcDbLine
 10
219.4479821883
 20
101.2624927055
 30
0.0
 11
219.51709309
 21
101.5988634966
 31
0.0
  0
LINE
  5
B6
330
1F
100
AcDbEntity
  8
0
  6
Continuous
 62
     7
370
    15
100
AcDbLine
 10
221.1610101487
 20
100.2726991912
 30
0.0
 11
219.4479821883
 21
101.2624927055
 31
0.0
  0
LINE
  5
B7
330
1F
100
AcDbEntity
  8
0
  6
Continuous
 62
     7
370
    15
100
AcDbLine
 10
233.7052847602
 20
100.5133965849
 30
0.0
 11
233.7743956619
 21
100.849767376
 31
0.0
  0
LINE
  5
B8
330
1F
100
AcDbEntity
  8
0
  6
Continuous
 62
     7
370
    15
100
AcDbLine
 10
233.4059102165
 20
100.1424687144
 30
0.0
 11
233.7052847602
 21
100.5133965849
 31
0.0
  0
LINE
  5
B9
330
1F
100
AcDbEntity
  8
0
  6
Continuous
 62
     7
370
    15
100
AcDbLine
 10
221.8236922208
 20
100.2378810643
 30
0.0
 11
221.1610101487
 21
100.2726991912
 31
0.0
  0
LINE
  5
BA
330
1F
100
AcDbEntity
  8
0
  6
Continuous
 62
     7
370
    15
100
AcDbLine
 10
226.6544168245
 20
89.1241926824
 30
0.0
 11
226.3692310654
 21
88.8882712468
 31
0.0
  0
LINE
  5
BB
330
1F
100
AcDbEntity
  8
0
  6
Continuous
 62
     7
370
    15
100
AcDbLine
 10
221.1610101487
 20
100.2726991912
 30
0.0
 11
221.4959665693
 21
99.7085087511
 31
0.0
  0
LINE
  5
BC
330
1F
100
AcDbEntity
  8
0
  6
Continuous
 62
     7
370
    15
100
AcDbLine
 10
226.8671414674
 20
89.5804540469
 30
0.0
 11
226.6544168245
 21
89.1241926824
 31
0.0
  0
LINE
  5
BD
330
1F
100
AcDbEntity
  8
0
  6
Continuous
 62
     7
370
    15
100
AcDbLine
 10
218.2611446294
 20
101.7348014874
 30
0.0
 11
220.2053908329
 21
98.4599721263
 31
0.0
  0
SPLINE
  5
BE
330
1F
100
AcDbEntity
  8
0
  6
Continuous
 62
     7
370
    15
100
AcDbSpline
210
0.0
220
0.0
230
1.0
 70
     8
 71
     3
 72
    14
 73
    10
 74
     0
 42
0.00000001
 43
0.00000001
 12
1.0
 22
0.0
 32
0.0
 13
1.0
 23
0.0
 33
0.0
 40
0.0
 40
0.0
 40
0.0
 40
0.0
 40
0.2210591904779579
 40
0.3460797326519215
 40
0.4396016244131504
 40
0.5338897453199823
 40
0.6146561933587624
 40
0.7517253237593932
 40
1.0
 40
1.0
 40
1.0
 40
1.0
 10
222.0865330161328
 20
99.71834310829978
 30
0.0
 10
222.1160231553321
 20
99.76945739737964
 30
0.0
 10
222.1621915117252
 20
99.84947949219146
 30
0.0
 10
222.1920723521979
 20
99.96320992082389
 30
0.0
 10
222.189271533171
 20
100.0465231529924
 30
0.0
 10
222.1595145911178
 20
100.1117461871936
 30
0.0
 10
222.1008156166264
 20
100.1684947529359
 30
0.0
 10
221.9896508651751
 20
100.2215041712216
 30
0.0
 10
221.8887208300194
 20
100.2314640043013
 30
0.0
 10
221.8236922208414
 20
100.2378810643154
 30
0.0
  0
ARC
  5
BF
330
1F
100
AcDbEntity
  8
0
  6
Continuous
 62
     7
370
    15
100
AcDbCircle
 10
224.2403618563
 20
98.3626678009
 30
0.0
 40
1.010221631361254
100
AcDbArc
 50
86.9948239216
 51
209.4832454584
  0
LINE
  5
C0
330
1F
100
AcDbEntity
  8
0
  6
Continuous
 62
     7
370
    15
100
AcDbLine
 10
222.0865330161
 20
99.7183431083
 30
0.0
 11
222.0853123253
 21
99.7163713373
 31
0.0
  0
SPLINE
  5
C1
330
1F
100
AcDbEntity
  8
0
  6
Continuous
 62
     7
370
    15
100
AcDbSpline
210
0.0
220
0.0
230
1.0
 70
     8
 71
     3
 72
    14
 73
    10
 74
     0
 42
0.00000001
 43
0.00000001
 12
1.0
 22
0.0
 32
0.0
 13
1.0
 23
0.0
 33
0.0
 40
0.0
 40
0.0
 40
0.0
 40
0.0
 40
0.2234968253973695
 40
0.3567622963774706
 40
0.4531212562341425
 40
0.5344619041500394
 40
0.6157317558035409
 40
0.7396161778922125
 40
0.9999999999999999
 40
0.9999999999999999
 40
0.9999999999999999
 40
0.9999999999999999
 10
221.4959665693306
 20
99.70850875112114
 30
0.0
 10
221.5278053516686
 20
99.6599122030984
 30
0.0
 10
221.5786287899013
 20
99.58233876983918
 30
0.0
 10
221.6701095976255
 20
99.50675421113652
 30
0.0
 10
221.7458772227743
 20
99.47545745989719
 30
0.0
 10
221.81509114669
 20
99.47306075294686
 30
0.0
 10
221.8883668512871
 20
99.49684081351816
 30
0.0
 10
221.9895436131042
 20
99.5723815767562
 30
0.0
 10
222.0466300273151
 20
99.65821189570865
 30
0.0
 10
222.0853123252857
 20
99.7163713372943
 30
0.0
  0
LINE
  5
C2
330
1F
100
AcDbEntity
  8
0
  6
Continuous
 62
     7
370
    15
100
AcDbLine
 10
223.3609642755
 20
97.8654680025
 30
0.0
 11
227.3941453408
 21
91.0721000904
 31
0.0
  0
LINE
  5
C3
330
1F
100
AcDbEntity
  8
0
  6
Continuous
 62
     7
370
    15
100
AcDbLine
 10
232.2726209788
 20
98.9522581476
 30
0.0
 11
224.2933239091
 21
99.3715001781
 31
0.0
  0
ARC
  5
C4
330
1F
100
AcDbEntity
  8
0
  6
Continuous
 62
     7
370
    15
100
AcDbCircle
 10
232.226875169
 20
98.0046802183
 30
0.0
 40
0.9486815120698944
100
AcDbArc
 50
30.8004569596
 51
87.2361023135
  0
LINE
  5
C5
330
1F
100
AcDbEntity
  8
0
  6
Continuous
 62
     7
370
    15
100
AcDbLine
 10
237.074931734
 20
91.6970844045
 30
0.0
 11
233.0417506686
 21
98.4904523166
 31
0.0
  0
ARC
  5
C6
330
1F
100
AcDbEntity
  8
0
  6
Continuous
 62
     7
370
    15
100
AcDbCircle
 10
236.1955341534
 20
91.1998846059
 30
0.0
 40
1.010221631330503
100
AcDbArc
 50
266.9948239066
 51
29.4832454793
  0
LINE
  5
C7
330
1F
100
AcDbEntity
  8
0
  6
Continuous
 62
     7
370
    15
100
AcDbLine
 10
228.1632750307
 20
90.6102942594
 30
0.0
 11
236.1425721003
 21
90.1910522286
 31
0.0
  0
ARC
  5
C8
330
1F
100
AcDbEntity
  8
0
  6
Continuous
 62
     7
370
    15
100
AcDbCircle
 10
228.2090208405
 20
91.5578721888
 30
0.0
 40
0.9486815120699391
100
AcDbArc
 50
210.8004569596
 51
267.2361023135
  0
LWPOLYLINE
  5
C9
330
1F
100
AcDbEntity
  8
0
  6
Continuous
 62
     7
370
    15
100
AcDbPolyline
 90
       29
 70
   128
 43
0.0
 10
230.0073813774
 20
92.2427651749
 10
230.5760979059
 20
92.2768072674
 10
231.1268553028
 20
92.4364338901
 10
231.6320362926
 20
92.7136406975
 10
232.0663089909
 20
93.094527383
 10
232.4078971513
 20
93.5599946975
 10
232.639672117
 20
94.0867021664
 10
232.7500117235
 20
94.6482384778
 10
232.7333830822
 20
95.2164458563
 10
232.5906200225
 20
95.7628320113
 10
232.3288812804
 20
96.2599988595
 10
231.9612915295
 20
96.6830163791
 10
231.5062832546
 20
97.0106727053
 10
230.9866724706
 20
97.2265377818
 10
230.4285146321
 20
97.3197872322
 10
229.8597981036
 20
97.2857451397
 10
229.3090407066
 20
97.126118517
 10
228.8038597168
 20
96.8489117095
 10
228.3695870185
 20
96.4680250241
 10
228.0279988582
 20
96.0025577095
 10
227.7962238924
 20
95.4758502406
 10
227.6858842859
 20
94.9143139292
 10
227.7025129273
 20
94.3461065507
 10
227.8452759869
 20
93.7997203958
 10
228.107014729
 20
93.3025535476
 10
228.47460448
 20
92.879536028
 10
228.9296127549
 20
92.5518797018
 10
229.4492235388
 20
92.3360146253
 10
230.0073813774
 20
92.2427651749
  0
LWPOLYLINE
  5
CA
330
1F
100
AcDbEntity
  8
0
  6
Continuous
 62
     7
370
    15
100
AcDbPolyline
 90
        3
 70
   128
 43
0.0
 10
227.9450360103
 20
93.5760960193
 10
228.3465576106
 20
93.4219285804
 10
228.6716877258
 20
93.3518266338
  0
LINE
  5
CB
330
1F
100
AcDbEntity
  8
0
  6
Continuous
 62
     7
370
    15
100
AcDbLine
 10
233.7052847602
 20
100.5133965849
 30
0.0
 11
234.0666649438
 21
100.6742811601
 31
0.0
  0
LINE
  5
CC
330
1F
100
AcDbEntity
  8
0
  6
Continuous
 62
     7
370
    15
100
AcDbLine
 10
240.9117193964
 20
88.3750965618
 30
0.0
 11
241.2730995803
 21
88.5359811372
 31
0.0
  0
LINE
  5
CD
330
1F
100
AcDbEntity
  8
0
  6
Continuous
 62
     7
370
    15
100
AcDbLine
 10
238.9970487765
 20
89.5634693305
 30
0.0
 11
240.9117193964
 21
88.3750965618
 31
0.0
  0
LINE
  5
CE
330
1F
100
AcDbEntity
  8
0
  6
Continuous
 62
     7
370
    15
100
AcDbLine
 10
238.9970487765
 20
89.5634693305
 30
0.0
 11
238.6620923559
 21
90.1276597706
 31
0.0
  0
SPLINE
  5
CF
330
1F
100
AcDbEntity
  8
0
  6
Continuous
 62
     7
370
    15
100
AcDbSpline
210
0.0
220
0.0
230
1.0
 70
     8
 71
     3
 72
    11
 73
     7
 74
     0
 42
0.00000001
 43
0.00000001
 12
1.0
 22
0.0
 32
0.0
 13
1.0
 23
0.0
 33
0.0
 40
0.0
 40
0.0
 40
0.0
 40
0.0
 40
0.3280455501579975
 40
0.655702817371195
 40
0.9906967996087678
 40
0.9999999999999999
 40
0.9999999999999999
 40
0.9999999999999999
 40
0.9999999999999999
 10
233.4059102165257
 20
100.1424687144496
 30
0.0
 10
233.3617442358089
 20
100.0842561879781
 30
0.0
 10
233.2734645503384
 20
99.96790003684214
 30
0.0
 10
233.1468418041389
 20
99.75769431583088
 30
0.0
 10
233.075466917764
 20
99.6168168622923
 30
0.0
 10
233.0447798632987
 20
99.54859234618523
 30
0.0
 10
233.0439506731935
 20
99.54674886219244
 30
0.0
  0
SPLINE
  5
D0
330
1F
100
AcDbEntity
  8
0
  6
Continuous
 62
     7
370
    15
100
AcDbSpline
210
0.0
220
0.0
230
1.0
 70
     8
 71
     3
 72
    11
 73
     7
 74
     0
 42
0.00000001
 43
0.00000001
 12
1.0
 22
0.0
 32
0.0
 13
1.0
 23
0.0
 33
0.0
 40
0.0
 40
0.0
 40
0.0
 40
0.0
 40
0.3280455501580019
 40
0.6557028173712004
 40
0.9906967996087691
 40
1.0
 40
1.0
 40
1.0
 40
1.0
 10
226.8671414673828
 20
89.58045404694377
 30
0.0
 10
226.9012090725663
 20
89.64861153193333
 30
0.0
 10
226.9693039596609
 20
89.78484582900289
 30
0.0
 10
227.1002904875532
 20
89.99075406397073
 30
0.0
 10
227.191346347583
 20
90.11224954206683
 30
0.0
 10
227.2363836194244
 20
90.16634185284465
 30
0.0
 10
227.2376005645119
 20
90.16780347272476
 30
0.0
  0
LINE
  5
D1
330
1F
100
AcDbEntity
  8
0
  6
Continuous
 62
     7
370
    15
100
AcDbLine
 10
240.9117193964
 20
88.3750965618
 30
0.0
 11
240.9188029195
 21
87.9636889104
 31
0.0
  0
LINE
  5
D2
330
1F
100
AcDbEntity
  8
0
  6
Continuous
 62
     7
370
    15
100
AcDbLine
 10
226.6544168245
 20
89.1241926824
 30
0.0
 11
226.6615003476
 21
88.712785031
 31
0.0
  0
LINE
  5
D3
330
1F
100
AcDbEntity
  8
0
  6
Continuous
 62
     7
370
    15
100
AcDbLine
 10
238.3343667044
 20
89.5982874574
 30
0.0
 11
238.9970487765
 21
89.5634693305
 31
0.0
  0
LINE
  5
D4
330
1F
100
AcDbEntity
  8
0
  6
Continuous
 62
     7
370
    15
100
AcDbLine
 10
238.0715259091
 20
90.1178254134
 30
0.0
 11
238.0727465999
 21
90.1197971844
 31
0.0
  0
SPLINE
  5
D5
330
1F
100
AcDbEntity
  8
0
  6
Continuous
 62
     7
370
    15
100
AcDbSpline
210
0.0
220
0.0
230
1.0
 70
     8
 71
     3
 72
    14
 73
    10
 74
     0
 42
0.00000001
 43
0.00000001
 12
1.0
 22
0.0
 32
0.0
 13
1.0
 23
0.0
 33
0.0
 40
0.0
 40
0.0
 40
0.0
 40
0.0
 40
0.2234968253973722
 40
0.3567622963774634
 40
0.453121256234138
 40
0.5344619041500345
 40
0.6157317558035345
 40
0.7396161778921961
 40
1.0
 40
1.0
 40
1.0
 40
1.0
 10
238.6620923558916
 20
90.12765977056678
 30
0.0
 10
238.6302535735535
 20
90.17625631858952
 30
0.0
 10
238.5794301353209
 20
90.25382975184876
 30
0.0
 10
238.4879493275967
 20
90.32941431055141
 30
0.0
 10
238.4121817024479
 20
90.36071106179075
 30
0.0
 10
238.3429677785322
 20
90.36310776874109
 30
0.0
 10
238.2696920739351
 20
90.3393277081698
 30
0.0
 10
238.168515312118
 20
90.26378694493172
 30
0.0
 10
238.1114288979071
 20
90.1779566259793
 30
0.0
 10
238.0727465999365
 20
90.11979718439365
 30
0.0
  0
SPLINE
  5
D6
330
1F
100
AcDbEntity
  8
0
  6
Continuous
 62
     7
370
    15
100
AcDbSpline
210
0.0
220
0.0
230
1.0
 70
     8
 71
     3
 72
    14
 73
    10
 74
     0
 42
0.00000001
 43
0.00000001
 12
1.0
 22
0.0
 32
0.0
 13
1.0
 23
0.0
 33
0.0
 40
0.0
 40
0.0
 40
0.0
 40
0.0
 40
0.2210591904779511
 40
0.3460797326519259
 40
0.4396016244131417
 40
0.5338897453199737
 40
0.6146561933587512
 40
0.7517253237593725
 40
1.0
 40
1.0
 40
1.0
 40
1.0
 10
238.0715259090894
 20
90.11782541338816
 30
0.0
 10
238.0420357698901
 20
90.06671112430828
 30
0.0
 10
237.995867413497
 20
89.98668902949646
 30
0.0
 10
237.9659865730243
 20
89.87295860086405
 30
0.0
 10
237.9687873920512
 20
89.78964536869556
 30
0.0
 10
237.9985443341044
 20
89.72442233449429
 30
0.0
 10
238.0572433085958
 20
89.66767376875204
 30
0.0
 10
238.1684080600471
 20
89.6146643504663
 30
0.0
 10
238.2693380952028
 20
89.60470451738662
 30
0.0
 10
238.3343667043808
 20
89.59828745737254
 30
0.0
  0
LINE
  5
D7
330
1F
100
AcDbEntity
  8
0
  6
Continuous
 62
     7
370
    15
100
AcDbLine
 10
218.0570861099
 20
101.7455229717
 30
0.0
 11
218.1147672964
 21
101.631499385
 31
0.0
  0
LINE
  5
D8
330
1F
100
AcDbEntity
  8
0
  6
Continuous
 62
     7
370
    15
100
AcDbLine
 10
218.6148740481
 20
101.1389903786
 30
0.0
 11
220.2053908329
 21
98.4599721263
 31
0.0
  0
LINE
  5
D9
330
1F
100
AcDbEntity
  8
0
  6
Continuous
 62
     7
370
    15
100
AcDbLine
 10
218.1147672964
 20
101.631499385
 30
0.0
 11
219.7052840812
 21
98.9524811326
 31
0.0
  0
LWPOLYLINE
  5
DA
330
1F
100
AcDbEntity
  8
0
  6
Continuous
 62
     7
370
    15
100
AcDbPolyline
 90
       34
 70
   128
 43
0.0
 10
219.192235031
 20
109.7735939421
 10
219.7466847795
 20
110.1398296914
 10
220.3572126238
 20
110.3965406157
 10
221.0017524969
 20
110.5344485133
 10
221.6570090485
 20
110.5485690335
 10
222.2992995996
 20
110.4383918239
 10
222.9054100961
 20
110.2078989759
 10
223.4534341255
 20
109.8654211017
 10
223.9235646716
 20
109.4233362438
 10
224.2988099914
 20
108.8976225008
 10
224.5656077414
 20
108.3072805373
 10
224.7143151559
 20
107.6736468499
 10
224.7395575614
 20
107.0196226109
 10
224.6404226315
 20
106.3688459604
 10
224.420493361
 20
105.7448376621
 10
224.0877185667
 20
105.1701510018
 10
223.6541255967
 20
104.6655566527
 10
223.1353856307
 20
104.2492919693
 10
222.5502472826
 20
103.9364018417
 10
221.9198589768
 20
103.7381949346
 10
221.2670045892
 20
103.6618349618
 10
220.6152799784
 20
103.7100817718
 10
219.9882401698
 20
103.8811915991
 10
219.4085480159
 20
104.1689800888
 10
218.8971551014
 20
104.563045815
 10
218.4725444988
 20
105.0491462157
 10
218.1500627415
 20
105.6097123558
 10
217.9413651605
 20
106.2244839145
 10
217.85399463
 20
106.8712414459
 10
217.8911089487
 20
107.5266094477
 10
218.0513667084
 20
108.1669012128
 10
218.3289757761
 20
108.7689749285
 10
218.7139026369
 20
109.311070082
 10
219.192235031
 20
109.7735939421
  0
LWPOLYLINE
  5
DB
330
1F
100
AcDbEntity
  8
0
  6
Continuous
 62
     7
370
    15
100
AcDbPolyline
 90
       26
 70
   128
 43
0.0
 10
220.0948186401
 20
108.6318297371
 10
220.5203844385
 20
108.8951594836
 10
220.9948272362
 20
109.0462882616
 10
221.4883360472
 20
109.075720094
 10
221.9699018981
 20
108.9816056706
 10
222.4092662354
 20
108.7698585468
 10
222.7788221817
 20
108.4537835731
 10
223.055349178
 20
108.0532409025
 10
223.2214720161
 20
107.5933981042
 10
223.266752587
 20
107.1031487922
 10
223.1883457459
 20
106.613297134
 10
222.9911780832
 20
106.1546223107
 10
222.687638368
 20
105.7559445484
 10
222.2967991171
 20
105.4423142371
 10
221.8432181981
 20
105.2334379227
 10
221.3553957682
 20
105.1424400723
 10
220.8639835047
 20
105.1750384154
 10
220.3998586475
 20
105.3291846783
 10
219.9921838683
 20
105.5951932844
 10
219.6665748728
 20
105.9563499346
 10
219.4434908717
 20
106.3899618284
 10
219.3369490531
 20
106.8687835357
 10
219.3536438315
 20
107.3627289277
 10
219.4925262125
 20
107.8407615989
 10
219.7448697053
 20
108.2728449984
 10
220.0948186401
 20
108.6318297371
  0
SPLINE
  5
DC
330
1F
100
AcDbEntity
  8
0
  6
Continuous
 62
     7
370
    15
100
AcDbSpline
210
0.0
220
0.0
230
1.0
 70
     8
 71
     3
 72
    11
 73
     7
 74
     0
 42
0.00000001
 43
0.00000001
 12
1.0
 22
0.0
 32
0.0
 13
1.0
 23
0.0
 33
0.0
 40
0.0
 40
0.0
 40
0.0
 40
0.0
 40
0.1081100880371212
 40
0.4711580666043601
 40
0.8135808430835988
 40
1.0
 40
1.0
 40
1.0
 40
1.0
 10
221.4791646029309
 20
105.4717559477315
 30
0.0
 10
221.5199546034484
 20
105.5131686064993
 30
0.0
 10
221.6977228222109
 20
105.6936504522943
 30
0.0
 10
222.0543037323995
 20
106.019375549833
 30
0.0
 10
222.4941400321564
 20
106.3423798856334
 30
0.0
 10
222.742073929393
 20
106.4998172224244
 30
0.0
 10
222.8294717418113
 20
106.555314590803
 30
0.0
  0
SPLINE
  5
DD
330
1F
100
AcDbEntity
  8
0
  6
Continuous
 62
     7
370
    15
100
AcDbSpline
210
0.0
220
0.0
230
1.0
 70
     8
 71
     3
 72
    10
 73
     6
 74
     0
 42
0.00000001
 43
0.00000001
 12
1.0
 22
0.0
 32
0.0
 13
1.0
 23
0.0
 33
0.0
 40
0.0
 40
0.0
 40
0.0
 40
0.0
 40
0.4391165375904091
 40
0.7513669429073263
 40
1.0
 40
1.0
 40
1.0
 40
1.0
 10
222.8294717418113
 20
106.555314590803
 30
0.0
 10
222.7790737127322
 20
106.8138954664222
 30
0.0
 10
222.6928382608737
 20
107.2563500436841
 30
0.0
 10
222.6254218679249
 20
107.8424741210834
 30
0.0
 10
222.6092226329371
 20
108.117113641002
 30
0.0
 10
222.60204170216
 20
108.2388581173724
 30
0.0
  0
SPLINE
  5
DE
330
1F
100
AcDbEntity
  8
0
  6
Continuous
 62
     7
370
    15
100
AcDbSpline
210
0.0
220
0.0
230
1.0
 70
     8
 71
     3
 72
    10
 73
     6
 74
     0
 42
0.00000001
 43
0.00000001
 12
1.0
 22
0.0
 32
0.0
 13
1.0
 23
0.0
 33
0.0
 40
0.0
 40
0.0
 40
0.0
 40
0.0
 40
0.4391165375903769
 40
0.7513669429073201
 40
1.0
 40
1.0
 40
1.0
 40
1.0
 10
222.60204170216
 20
108.2388581173724
 30
0.0
 10
222.3583367963406
 20
108.342319219848
 30
0.0
 10
221.9413363092673
 20
108.5193502483387
 30
0.0
 10
221.3930945178595
 20
108.7196343184486
 30
0.0
 10
221.1375738411554
 20
108.8022295180957
 30
0.0
 10
221.0243045236283
 20
108.8388430008702
 30
0.0
  0
SPLINE
  5
DF
330
1F
100
AcDbEntity
  8
0
  6
Continuous
 62
     7
370
    15
100
AcDbSpline
210
0.0
220
0.0
230
1.0
 70
     8
 71
     3
 72
    11
 73
     7
 74
     0
 42
0.00000001
 43
0.00000001
 12
1.0
 22
0.0
 32
0.0
 13
1.0
 23
0.0
 33
0.0
 40
0.0
 40
0.0
 40
0.0
 40
0.0
 40
0.1864191569163774
 40
0.5288419333956536
 40
0.8918899119628739
 40
1.0
 40
1.0
 40
1.0
 40
1.0
 10
221.0243045236283
 20
108.8388430008702
 30
0.0
 10
220.93690671121
 20
108.7833456324915
 30
0.0
 10
220.6889728139735
 20
108.6259082957005
 30
0.0
 10
220.2491365142165
 20
108.3029039599002
 30
0.0
 10
219.892555604028
 20
107.9771788623615
 30
0.0
 10
219.7147873852655
 20
107.7966970165665
 30
0.0
 10
219.6739973847479
 20
107.7552843577986
 30
0.0
  0
SPLINE
  5
E0
330
1F
100
AcDbEntity
  8
0
  6
Continuous
 62
     7
370
    15
100
AcDbSpline
210
0.0
220
0.0
230
1.0
 70
     8
 71
     3
 72
    10
 73
     6
 74
     0
 42
0.00000001
 43
0.00000001
 12
1.0
 22
0.0
 32
0.0
 13
1.0
 23
0.0
 33
0.0
 40
0.0
 40
0.0
 40
0.0
 40
0.0
 40
0.4391165375904156
 40
0.7513669429073508
 40
0.9999999999999999
 40
0.9999999999999999
 40
0.9999999999999999
 40
0.9999999999999999
 10
219.6739973847479
 20
107.7552843577986
 30
0.0
 10
219.6887160826358
 20
107.5318407641589
 30
0.0
 10
219.7139010667773
 20
107.1495091608296
 30
0.0
 10
219.8084539566504
 20
106.5366608508698
 30
0.0
 10
219.8728717656103
 20
106.2145353054642
 30
0.0
 10
219.9014274243992
 20
106.0717408312293
 30
0.0
  0
SPLINE
  5
E1
330
1F
100
AcDbEntity
  8
0
  6
Continuous
 62
     7
370
    15
100
AcDbSpline
210
0.0
220
0.0
230
1.0
 70
     8
 71
     3
 72
    10
 73
     6
 74
     0
 42
0.00000001
 43
0.00000001
 12
1.0
 22
0.0
 32
0.0
 13
1.0
 23
0.0
 33
0.0
 40
0.0
 40
0.0
 40
0.0
 40
0.0
 40
0.4391165375904298
 40
0.7513669429073772
 40
1.0
 40
1.0
 40
1.0
 40
1.0
 10
219.9014274243992
 20
106.0717408312293
 30
0.0
 10
220.1094529990274
 20
106.0034170107331
 30
0.0
 10
220.4654030183837
 20
105.886508956175
 30
0.0
 10
221.0407813067157
 20
105.6595006535045
 30
0.0
 10
221.344520557392
 20
105.5294194283705
 30
0.0
 10
221.4791646029309
 20
105.4717559477315
 30
0.0
  0
LINE
  5
E2
330
1F
100
AcDbEntity
  8
0
  6
Continuous
 62
     7
370
    15
100
AcDbLine
 10
219.8198979698
 20
106.4945163448
 30
0.0
 11
220.042232192
 21
106.4099666655
 31
0.0
  0
LINE
  5
E3
330
1F
100
AcDbEntity
  8
0
  6
Continuous
 62
     7
370
    15
100
AcDbLine
 10
220.042232192
 20
106.4099666655
 30
0.0
 11
220.8311007812
 21
106.1099742238
 31
0.0
  0
LINE
  5
E4
330
1F
100
AcDbEntity
  8
0
  6
Continuous
 62
     7
370
    15
100
AcDbLine
 10
220.8311007812
 20
106.1099742238
 30
0.0
 11
221.4791646029
 21
105.4717559477
 31
0.0
  0
LINE
  5
E5
330
1F
100
AcDbEntity
  8
0
  6
Continuous
 62
     7
370
    15
100
AcDbLine
 10
222.1814079201
 20
107.1935328669
 30
0.0
 11
222.8294717418
 21
106.5553145908
 31
0.0
  0
LINE
  5
E6
330
1F
100
AcDbEntity
  8
0
  6
Continuous
 62
     7
370
    15
100
AcDbLine
 10
222.1814079201
 20
107.1935328669
 30
0.0
 11
222.0676929003
 21
108.0353046301
 31
0.0
  0
LINE
  5
E7
330
1F
100
AcDbEntity
  8
0
  6
Continuous
 62
     7
370
    15
100
AcDbLine
 10
222.0676929003
 20
108.0353046301
 30
0.0
 11
222.0069863695
 21
108.4846827644
 31
0.0
  0
LINE
  5
E8
330
1F
100
AcDbEntity
  8
0
  6
Continuous
 62
     7
370
    15
100
AcDbLine
 10
220.8311007812
 20
106.1099742238
 30
0.0
 11
221.5062543507
 21
106.6517535453
 31
0.0
  0
LINE
  5
E9
330
1F
100
AcDbEntity
  8
0
  6
Continuous
 62
     7
370
    15
100
AcDbLine
 10
221.5062543507
 20
106.6517535453
 30
0.0
 11
222.1814079201
 21
107.1935328669
 31
0.0
  0
ARC
  5
EA
330
1F
100
AcDbEntity
  8
0
  6
Continuous
 62
     7
370
    15
100
AcDbCircle
 10
220.6433536335
 20
107.8442985284
 30
0.0
 40
1.437089307576826
100
AcDbArc
 50
7.6378856841
 51
29.6687410265
  0
ARC
  5
EB
330
1F
100
AcDbEntity
  8
0
  6
Continuous
 62
     7
370
    15
100
AcDbCircle
 10
220.5595639731
 20
107.8416061754
 30
0.0
 40
1.520517001643538
100
AcDbArc
 50
308.5070439974
 51
7.3187884697
  0
ARC
  5
EC
330
1F
100
AcDbEntity
  8
0
  6
Continuous
 62
     7
370
    15
100
AcDbCircle
 10
220.5627325987
 20
107.8115595039
 30
0.0
 40
1.495119780440991
100
AcDbArc
 50
249.6268417239
 51
309.1289370808
  0
LWPOLYLINE
  5
ED
330
1F
100
AcDbEntity
  8
0
  6
Continuous
 62
     7
370
    15
100
AcDbPolyline
 90
        3
 70
   128
 43
0.0
 10
220.042232192
 20
106.4099666655
 10
219.8686895463
 20
106.4896248271
 10
219.7934352614
 20
106.5335280369
  0
ELLIPSE
  5
EE
330
1F
100
AcDbEntity
  8
0
  6
Continuous
 62
     7
370
    15
100
AcDbEllipse
 10
229.7198320834
 20
95.448034347
 30
0.0
 11
1.636441407150698
 21
1.686705215780734
 31
0.0
210
0.0
220
0.0
230
1.0
 40
0.9711043057
 41
4.542334012156839
 42
6.22759887335226
  0
ELLIPSE
  5
EF
330
1F
100
AcDbEntity
  8
0
  6
Continuous
 62
     7
370
    15
100
AcDbEllipse
 10
229.7198320834
 20
95.448034347
 30
0.0
 11
1.636441407150698
 21
1.686705215780734
 31
0.0
210
0.0
220
0.0
230
1.0
 40
0.9711043057
 41
2.888309247438789
 42
4.542334012156865
  0
SPLINE
  5
F0
330
1F
100
AcDbEntity
  8
0
  6
HIDDEN
 62
     7
370
     0
100
AcDbSpline
210
0.0
220
0.0
230
1.0
 70
     8
 71
     3
 72
    70
 73
    66
 74
     0
 42
0.00000001
 43
0.00000001
 12
1.0
 22
0.0
 32
0.0
 13
1.0
 23
0.0
 33
0.0
 40
-0.0312499999999994
 40
-0.0312499999999994
 40
0.0
 40
0.0
 40
0.0312500000000001
 40
0.0312500000000001
 40
0.0625000000000002
 40
0.0625000000000002
 40
0.0937500000000003
 40
0.0937500000000003
 40
0.1250000000000004
 40
0.1250000000000004
 40
0.1562500000000005
 40
0.1562500000000005
 40
0.1875000000000006
 40
0.1875000000000006
 40
0.2187500000000007
 40
0.2187500000000007
 40
0.2500000000000008
 40
0.2500000000000008
 40
0.2812500000000009
 40
0.2812500000000009
 40
0.3125000000000011
 40
0.3125000000000011
 40
0.3437500000000012
 40
0.3437500000000012
 40
0.3750000000000012
 40
0.3750000000000012
 40
0.4062500000000013
 40
0.4062500000000013
 40
0.4375000000000014
 40
0.4375000000000014
 40
0.4687500000000016
 40
0.4687500000000016
 40
0.5000000000000017
 40
0.5000000000000017
 40
0.5312500000000018
 40
0.5312500000000018
 40
0.5625000000000019
 40
0.5625000000000019
 40
0.593750000000002
 40
0.593750000000002
 40
0.625000000000002
 40
0.625000000000002
 40
0.656250000000002
 40
0.656250000000002
 40
0.687500000000002
 40
0.687500000000002
 40
0.718750000000002
 40
0.718750000000002
 40
0.7500000000000019
 40
0.7500000000000019
 40
0.7812500000000019
 40
0.7812500000000019
 40
0.8125000000000019
 40
0.8125000000000019
 40
0.8437500000000019
 40
0.8437500000000019
 40
0.8750000000000019
 40
0.8750000000000019
 40
0.9062500000000014
 40
0.9062500000000014
 40
0.937500000000001
 40
0.937500000000001
 40
0.9687500000000006
 40
0.9687500000000006
 40
1.0
 40
1.0
 40
1.03125
 40
1.03125
 10
199.1436173143048
 20
133.9467541751358
 30
0.0
 10
199.5403891421839
 20
133.9467541751358
 30
0.0
 10
199.7354238313251
 20
133.9643898373956
 30
0.0
 10
200.1190760110104
 20
134.0333144544286
 30
0.0
 10
200.3096951398817
 20
134.0854493644302
 30
0.0
 10
200.672909501463
 20
134.2209373755315
 30
0.0
 10
200.8451491429741
 20
134.3036443960172
 30
0.0
 10
201.1711192044513
 20
134.4981114732621
 30
0.0
 10
201.3253184263537
 20
134.6107948098223
 30
0.0
 10
201.601771670596
 20
134.8555200557071
 30
0.0
 10
201.7258902252251
 20
134.9884570660773
 30
0.0
 10
201.9452076282304
 20
135.2753677242984
 30
0.0
 10
202.0382968538118
 20
135.4270386903333
 30
0.0
 10
202.1879738010928
 20
135.7387621710612
 30
0.0
 10
202.2456609615421
 20
135.9011222931656
 30
0.0
 10
202.3227948525385
 20
136.230905728253
 30
0.0
 10
202.3418944022278
 20
136.3955100077958
 30
0.0
 10
202.3421111357152
 20
136.7240183184527
 30
0.0
 10
202.3225983210895
 20
136.8895867284115
 30
0.0
 10
202.2459972780103
 20
137.2074702989697
 30
0.0
 10
202.1893221129973
 20
137.3607805629913
 30
0.0
 10
202.038972900053
 20
137.6564873959361
 30
0.0
 10
201.9451169960118
 20
137.7981298279375
 30
0.0
 10
201.7280869286704
 20
138.0587832624184
 30
0.0
 10
201.6040690817429
 20
138.1795376565721
 30
0.0
 10
201.3242538594207
 20
138.4014126253558
 30
0.0
 10
201.1729255032631
 20
138.499027125866
 30
0.0
 10
200.8482598335268
 20
138.6693996104811
 30
0.0
 10
200.6728382152603
 20
138.7427415166594
 30
0.0
 10
200.3096568276212
 20
138.8599110743125
 30
0.0
 10
200.1226691095422
 20
138.9039422545295
 30
0.0
 10
199.737944907758
 20
138.9635032132549
 30
0.0
 10
199.5389890412393
 20
138.9787208438013
 30
0.0
 10
199.1472599916567
 20
138.9788339979222
 30
0.0
 10
198.9524713264828
 20
138.964221743443
 30
0.0
 10
198.5650967487789
 20
138.9047909669547
 30
0.0
 10
198.3757730609365
 20
138.8602225194377
 30
0.0
 10
198.0146326619442
 20
138.7440050032082
 30
0.0
 10
197.8400457778194
 20
138.6714499708707
 30
0.0
 10
197.5121365986325
 20
138.4997834330024
 30
0.0
 10
197.3611249263113
 20
138.4021923714526
 30
0.0
 10
197.0843058616788
 20
138.1833036632061
 30
0.0
 10
196.9575593824386
 20
138.0605389669812
 30
0.0
 10
196.739678432349
 20
137.7992887765957
 30
0.0
 10
196.6473804078946
 20
137.6603321992442
 30
0.0
 10
196.496408587543
 20
137.3649222332327
 30
0.0
 10
196.4384893134486
 20
137.2088013801159
 30
0.0
 10
196.361846738933
 20
136.8920603863285
 30
0.0
 10
196.342186087482
 20
136.7298185025699
 30
0.0
 10
196.3418228831599
 20
136.3971006960825
 30
0.0
 10
196.361131180777
 20
136.2322125231642
 30
0.0
 10
196.4370985218443
 20
135.9055073705658
 30
0.0
 10
196.4946949159857
 20
135.7419341785796
 30
0.0
 10
196.6450109814975
 20
135.4281128808902
 30
0.0
 10
196.7370178836043
 20
135.2781935751871
 30
0.0
 10
196.9544485502302
 20
134.9927713595829
 30
0.0
 10
197.0809017750673
 20
134.8568617205936
 30
0.0
 10
197.3571587198784
 20
134.6119886286237
 30
0.0
 10
197.5079622821912
 20
134.5013919041717
 30
0.0
 10
197.8356693521349
 20
134.3052123402345
 30
0.0
 10
198.0098917345898
 20
134.2215531482608
 30
0.0
 10
198.3706585115136
 20
134.0866479789395
 30
0.0
 10
198.5596328894566
 20
134.0344654668556
 30
0.0
 10
198.9474765115627
 20
133.9643925324327
 30
0.0
 10
199.1436173143048
 20
133.9467541751358
 30
0.0
 10
199.5403891421839
 20
133.9467541751358
 30
0.0
  0
SPLINE
  5
F1
330
1F
100
AcDbEntity
  8
0
  6
HIDDEN
 62
     7
370
     0
100
AcDbSpline
210
0.0
220
0.0
230
1.0
 70
     8
 71
     3
 72
    28
 73
    24
 74
     0
 42
0.00000001
 43
0.00000001
 12
1.0
 22
0.0
 32
0.0
 13
1.0
 23
0.0
 33
0.0
 40
0.0
 40
0.0
 40
0.0
 40
0.0
 40
0.1249999999999999
 40
0.1249999999999999
 40
0.2499999999999998
 40
0.2499999999999998
 40
0.3749999999999998
 40
0.3749999999999998
 40
0.4999999999999997
 40
0.4999999999999997
 40
0.6249999999999996
 40
0.6249999999999996
 40
0.6874999999999997
 40
0.6874999999999997
 40
0.7499999999999997
 40
0.7499999999999997
 40
0.8124999999999998
 40
0.8124999999999998
 40
0.8749999999999999
 40
0.8749999999999999
 40
0.9374999999999999
 40
0.9374999999999999
 40
1.0
 40
1.0
 40
1.0
 40
1.0
 10
213.5746762402654
 20
108.824563613993
 30
0.0
 10
213.316178147777
 20
109.0643475576604
 30
0.0
 10
213.0856863093822
 20
109.3219680965504
 30
0.0
 10
212.6736039422276
 20
109.8710215040816
 30
0.0
 10
212.4911476115267
 20
110.1644615988795
 30
0.0
 10
212.1819651423005
 20
110.7794882733734
 30
0.0
 10
212.056653943404
 20
111.0973873871934
 30
0.0
 10
211.8674751027698
 20
111.7556115736731
 30
0.0
 10
211.8033618666799
 20
112.0972386390682
 30
0.0
 10
211.7502607364829
 20
112.8016668839465
 30
0.0
 10
211.7617691605124
 20
113.1549244399627
 30
0.0
 10
211.8449669570091
 20
113.6855419193132
 30
0.0
 10
211.8841313243108
 20
113.8636419948325
 30
0.0
 10
211.9860686097618
 20
114.2142444447251
 30
0.0
 10
212.0484029911104
 20
114.3858011347802
 30
0.0
 10
212.1969509399529
 20
114.7207563228324
 30
0.0
 10
212.2831506865463
 20
114.8841608094065
 30
0.0
 10
212.4817301055965
 20
115.2016814209421
 30
0.0
 10
212.5935799182294
 20
115.3544727246962
 30
0.0
 10
212.836944889606
 20
115.6395192407781
 30
0.0
 10
212.9691919235024
 20
115.7730167339025
 30
0.0
 10
213.2555425433958
 20
116.0210159655205
 30
0.0
 10
213.4106411532467
 20
116.1360939181217
 30
0.0
 10
213.5746762402654
 20
116.2388846489197
 30
0.0
  0
ELLIPSE
  5
F2
330
1F
100
AcDbEntity
  8
0
  6
HIDDEN
 62
     7
370
     0
100
AcDbEllipse
 10
228.563057264
 20
122.9451805202
 30
0.0
 11
-18.29544563104903
 21
24.99284387523228
 31
0.0
210
0.0
220
0.0
230
1.0
 40
0.0326926316
 41
6.259257973531176
 42
6.93994715873392
  0
SPLINE
  5
F3
330
1F
100
AcDbEntity
  8
0
  6
HIDDEN
 62
     7
370
     0
100
AcDbSpline
210
0.0
220
0.0
230
1.0
 70
     8
 71
     3
 72
    12
 73
     8
 74
     0
 42
0.00000001
 43
0.00000001
 12
1.0
 22
0.0
 32
0.0
 13
1.0
 23
0.0
 33
0.0
 40
0.0
 40
0.0
 40
0.0
 40
0.0
 40
0.4999999999999987
 40
0.4999999999999987
 40
0.7499999999999993
 40
0.7499999999999993
 40
1.0
 40
1.0
 40
1.0
 40
1.0
 10
189.4367473399186
 20
146.597821997396
 30
0.0
 10
189.4674467232859
 20
146.6369598397919
 30
0.0
 10
189.5087967913924
 20
146.6741196225174
 30
0.0
 10
189.6085527196118
 20
146.7240561281451
 30
0.0
 10
189.6482496373445
 20
146.7395089982889
 30
0.0
 10
189.7455077889922
 20
146.7634285418879
 30
0.0
 10
189.8062839469829
 20
146.7719116356663
 30
0.0
 10
189.8697600418108
 20
146.7719116356663
 30
0.0
  0
LINE
  5
F4
330
1F
100
AcDbEntity
  8
0
  6
HIDDEN
 62
     7
370
     0
100
AcDbLine
 10
189.8697600418
 20
146.7719116357
 30
0.0
 11
192.8142464147
 21
146.7719116357
 31
0.0
  0
SPLINE
  5
F5
330
1F
100
AcDbEntity
  8
0
  6
HIDDEN
 62
     7
370
     0
100
AcDbSpline
210
0.0
220
0.0
230
1.0
 70
     8
 71
     3
 72
    12
 73
     8
 74
     0
 42
0.00000001
 43
0.00000001
 12
1.0
 22
0.0
 32
0.0
 13
1.0
 23
0.0
 33
0.0
 40
0.0
 40
0.0
 40
0.0
 40
0.0
 40
0.25
 40
0.25
 40
0.5
 40
0.5
 40
1.0
 40
1.0
 40
1.0
 40
1.0
 10
192.8142464146779
 20
146.7719116356663
 30
0.0
 10
192.8779116512084
 20
146.7719116356663
 30
0.0
 10
192.9375178834318
 20
146.7636468600004
 30
0.0
 10
193.0361784083626
 20
146.7394280784173
 30
0.0
 10
193.0751453983779
 20
146.7241707591081
 30
0.0
 10
193.1745322303023
 20
146.6745374048462
 30
0.0
 10
193.2166084777258
 20
146.6368976966721
 30
0.0
 10
193.2472591165701
 20
146.597821997396
 30
0.0
  0
ELLIPSE
  5
F6
330
1F
100
AcDbEntity
  8
0
  6
HIDDEN
 62
     7
370
     0
100
AcDbEllipse
 10
180.2857455733
 20
122.9451805202
 30
0.0
 11
11.70927234972723
 21
24.67718644093744
 31
0.0
210
0.0
220
0.0
230
1.0
 40
0.3419987131
 41
5.203068809370469
 42
6.114256032590515
  0
SPLINE
  5
F7
330
1F
100
AcDbEntity
  8
0
  6
HIDDEN
 62
     7
370
     0
100
AcDbSpline
210
0.0
220
0.0
230
1.0
 70
     8
 71
     3
 72
    12
 73
     8
 74
     0
 42
0.00000001
 43
0.00000001
 12
1.0
 22
0.0
 32
0.0
 13
1.0
 23
0.0
 33
0.0
 40
0.0
 40
0.0
 40
0.0
 40
0.0
 40
0.4999999999999969
 40
0.4999999999999969
 40
0.7499999999999984
 40
0.7499999999999984
 40
1.0
 40
1.0
 40
1.0
 40
1.0
 10
193.2472591165701
 20
131.0416335182088
 30
0.0
 10
193.2165597332028
 20
130.927297851145
 30
0.0
 10
193.1752096650963
 20
130.8159444983036
 30
0.0
 10
193.0754537368769
 20
130.6632077260549
 30
0.0
 10
193.0357568191442
 20
130.6153478402027
 30
0.0
 10
192.9384986674965
 20
130.5407447268533
 30
0.0
 10
192.8777225095058
 20
130.5139904893452
 30
0.0
 10
192.8142464146779
 20
130.5139904893452
 30
0.0
  0
LINE
  5
F8
330
1F
100
AcDbEntity
  8
0
  6
HIDDEN
 62
     7
370
     0
100
AcDbLine
 10
192.8142464147
 20
130.5139904893
 30
0.0
 11
189.8697600418
 21
130.5139904893
 31
0.0
  0
SPLINE
  5
F9
330
1F
100
AcDbEntity
  8
0
  6
HIDDEN
 62
     7
370
     0
100
AcDbSpline
210
0.0
220
0.0
230
1.0
 70
     8
 71
     3
 72
    12
 73
     8
 74
     0
 42
0.00000001
 43
0.00000001
 12
1.0
 22
0.0
 32
0.0
 13
1.0
 23
0.0
 33
0.0
 40
0.0
 40
0.0
 40
0.0
 40
0.0
 40
0.2500000000000007
 40
0.2500000000000007
 40
0.5000000000000014
 40
0.5000000000000014
 40
1.0
 40
1.0
 40
1.0
 40
1.0
 10
189.8697600418108
 20
130.5139904893452
 30
0.0
 10
189.8060948052803
 20
130.5139904893452
 30
0.0
 10
189.7464885730569
 20
130.5400626378249
 30
0.0
 10
189.6478280481261
 20
130.615601388646
 30
0.0
 10
189.6088610581108
 20
130.6628523257422
 30
0.0
 10
189.5094742261864
 20
130.8146761437087
 30
0.0
 10
189.4673979787629
 20
130.9274793934737
 30
0.0
 10
189.4367473399186
 20
131.0416335182088
 30
0.0
  0
ELLIPSE
  5
FA
330
1F
100
AcDbEntity
  8
0
  6
HIDDEN
 62
     7
370
     0
100
AcDbEllipse
 10
202.3982608832
 20
122.9451805202
 30
0.0
 11
-11.70927234972711
 21
24.67718644093743
 31
0.0
210
0.0
220
0.0
230
1.0
 40
0.3419987131
 41
0.1689292745891139
 42
1.08011649780913
  0
SPLINE
  5
FB
330
1F
100
AcDbEntity
  8
0
  6
HIDDEN
 62
     7
370
     0
100
AcDbSpline
210
0.0
220
0.0
230
1.0
 70
     8
 71
     3
 72
    12
 73
     8
 74
     0
 42
0.00000001
 43
0.00000001
 12
1.0
 22
0.0
 32
0.0
 13
1.0
 23
0.0
 33
0.0
 40
0.0
 40
0.0
 40
0.0
 40
0.0
 40
0.5000000000000028
 40
0.5000000000000028
 40
0.7500000000000013
 40
0.7500000000000013
 40
1.0
 40
1.0
 40
1.0
 40
1.0
 10
189.4367473399186
 20
114.84872752212
 30
0.0
 10
189.4674467232859
 20
114.9630631891839
 30
0.0
 10
189.5087967913924
 20
115.0744165420253
 30
0.0
 10
189.6085527196118
 20
115.227153314274
 30
0.0
 10
189.6482496373445
 20
115.2750132001261
 30
0.0
 10
189.7455077889922
 20
115.3496163134756
 30
0.0
 10
189.8062839469829
 20
115.3763705509837
 30
0.0
 10
189.8697600418108
 20
115.3763705509837
 30
0.0
  0
LINE
  5
FC
330
1F
100
AcDbEntity
  8
0
  6
HIDDEN
 62
     7
370
     0
100
AcDbLine
 10
189.8697600418
 20
115.376370551
 30
0.0
 11
192.8142464147
 21
115.376370551
 31
0.0
  0
SPLINE
  5
FD
330
1F
100
AcDbEntity
  8
0
  6
HIDDEN
 62
     7
370
     0
100
AcDbSpline
210
0.0
220
0.0
230
1.0
 70
     8
 71
     3
 72
    12
 73
     8
 74
     0
 42
0.00000001
 43
0.00000001
 12
1.0
 22
0.0
 32
0.0
 13
1.0
 23
0.0
 33
0.0
 40
0.0
 40
0.0
 40
0.0
 40
0.0
 40
0.2500000000000002
 40
0.2500000000000002
 40
0.5000000000000004
 40
0.5000000000000004
 40
1.0
 40
1.0
 40
1.0
 40
1.0
 10
192.8142464146779
 20
115.3763705509837
 30
0.0
 10
192.8779116512084
 20
115.3763705509837
 30
0.0
 10
192.9375178834318
 20
115.350298402504
 30
0.0
 10
193.0361784083626
 20
115.2747596516829
 30
0.0
 10
193.0751453983779
 20
115.2275087145867
 30
0.0
 10
193.1745322303023
 20
115.0756848966202
 30
0.0
 10
193.2166084777258
 20
114.9628816468551
 30
0.0
 10
193.2472591165701
 20
114.8487275221201
 30
0.0
  0
ELLIPSE
  5
FE
330
1F
100
AcDbEntity
  8
0
  6
HIDDEN
 62
     7
370
     0
100
AcDbEllipse
 10
180.2857455733
 20
122.9451805202
 30
0.0
 11
-11.70927234972714
 21
24.67718644093743
 31
0.0
210
0.0
220
0.0
230
1.0
 40
0.3419987131
 41
3.310521928178957
 42
4.221709151398949
  0
SPLINE
  5
FF
330
1F
100
AcDbEntity
  8
0
  6
HIDDEN
 62
     7
370
     0
100
AcDbSpline
210
0.0
220
0.0
230
1.0
 70
     8
 71
     3
 72
    12
 73
     8
 74
     0
 42
0.00000001
 43
0.00000001
 12
1.0
 22
0.0
 32
0.0
 13
1.0
 23
0.0
 33
0.0
 40
0.0
 40
0.0
 40
0.0
 40
0.0
 40
0.5000000000000018
 40
0.5000000000000018
 40
0.7500000000000009
 40
0.7500000000000009
 40
1.0
 40
1.0
 40
1.0
 40
1.0
 10
193.2472591165701
 20
99.29253904293267
 30
0.0
 10
193.2165597332028
 20
99.25340120053677
 30
0.0
 10
193.1752096650963
 20
99.21624141781126
 30
0.0
 10
193.0754537368769
 20
99.16630491218352
 30
0.0
 10
193.0357568191442
 20
99.15085204203976
 30
0.0
 10
192.9384986674965
 20
99.12693249844072
 30
0.0
 10
192.8777225095058
 20
99.11844940466231
 30
0.0
 10
192.8142464146779
 20
99.11844940466233
 30
0.0
  0
LINE
  5
100
330
1F
100
AcDbEntity
  8
0
  6
HIDDEN
 62
     7
370
     0
100
AcDbLine
 10
192.8142464147
 20
99.1184494047
 30
0.0
 11
189.8697600418
 21
99.1184494047
 31
0.0
  0
SPLINE
  5
101
330
1F
100
AcDbEntity
  8
0
  6
HIDDEN
 62
     7
370
     0
100
AcDbSpline
210
0.0
220
0.0
230
1.0
 70
     8
 71
     3
 72
    12
 73
     8
 74
     0
 42
0.00000001
 43
0.00000001
 12
1.0
 22
0.0
 32
0.0
 13
1.0
 23
0.0
 33
0.0
 40
0.0
 40
0.0
 40
0.0
 40
0.0
 40
0.2499999999999991
 40
0.2499999999999991
 40
0.4999999999999982
 40
0.4999999999999982
 40
1.0
 40
1.0
 40
1.0
 40
1.0
 10
189.8697600418108
 20
99.11844940466233
 30
0.0
 10
189.8060948052803
 20
99.11844940466233
 30
0.0
 10
189.7464885730569
 20
99.1267141803282
 30
0.0
 10
189.6478280481261
 20
99.15093296191134
 30
0.0
 10
189.6088610581108
 20
99.16619028122048
 30
0.0
 10
189.5094742261864
 20
99.21582363548242
 30
0.0
 10
189.4673979787629
 20
99.25346334365653
 30
0.0
 10
189.4367473399186
 20
99.29253904293267
 30
0.0
  0
ELLIPSE
  5
102
330
1F
100
AcDbEntity
  8
0
  6
HIDDEN
 62
     7
370
     0
100
AcDbEllipse
 10
202.3982608832
 20
122.9451805202
 30
0.0
 11
11.70927234972703
 21
24.67718644093743
 31
0.0
210
0.0
220
0.0
230
1.0
 40
0.3419987131
 41
2.06147615578065
 42
2.972663379000669
  0
SPLINE
  5
103
330
1F
100
AcDbEntity
  8
0
  6
HIDDEN
 62
     7
370
     0
100
AcDbSpline
210
0.0
220
0.0
230
1.0
 70
     8
 71
     3
 72
    58
 73
    54
 74
     0
 42
0.00000001
 43
0.00000001
 12
1.0
 22
0.0
 32
0.0
 13
1.0
 23
0.0
 33
0.0
 40
-0.0625000000000002
 40
-0.0625000000000002
 40
0.0
 40
0.0
 40
0.0312499999999999
 40
0.0312499999999999
 40
0.0624999999999998
 40
0.0624999999999998
 40
0.0937499999999996
 40
0.0937499999999996
 40
0.1249999999999995
 40
0.1249999999999995
 40
0.1874999999999995
 40
0.1874999999999995
 40
0.2499999999999996
 40
0.2499999999999996
 40
0.2812499999999996
 40
0.2812499999999996
 40
0.3124999999999996
 40
0.3124999999999996
 40
0.3437499999999997
 40
0.3437499999999997
 40
0.3749999999999997
 40
0.3749999999999997
 40
0.4062499999999998
 40
0.4062499999999998
 40
0.4374999999999998
 40
0.4374999999999998
 40
0.4687499999999998
 40
0.4687499999999998
 40
0.4999999999999998
 40
0.4999999999999998
 40
0.5624999999999998
 40
0.5624999999999998
 40
0.6249999999999997
 40
0.6249999999999997
 40
0.6562499999999997
 40
0.6562499999999997
 40
0.6874999999999997
 40
0.6874999999999997
 40
0.7187499999999997
 40
0.7187499999999997
 40
0.7499999999999997
 40
0.7499999999999997
 40
0.7812499999999997
 40
0.7812499999999997
 40
0.8124999999999997
 40
0.8124999999999997
 40
0.8437499999999997
 40
0.8437499999999997
 40
0.8749999999999996
 40
0.8749999999999996
 40
0.9374999999999998
 40
0.9374999999999998
 40
1.0
 40
1.0
 40
1.03125
 40
1.03125
 10
191.3420032282444
 20
123.2095528907077
 30
0.0
 10
191.3420032282444
 20
122.8129943348926
 30
0.0
 10
191.3549791202549
 20
122.6830275953478
 30
0.0
 10
191.4058114223608
 20
122.4273482572157
 30
0.0
 10
191.4442884936822
 20
122.3003071653742
 30
0.0
 10
191.5446934548386
 20
122.0581289794337
 30
0.0
 10
191.6061276971579
 20
121.9432753208442
 30
0.0
 10
191.7512619633396
 20
121.7259101990384
 30
0.0
 10
191.8357038844869
 20
121.6230347269541
 30
0.0
 10
192.1123759140968
 20
121.3464167745369
 30
0.0
 10
192.3354220690649
 20
121.197424654704
 30
0.0
 10
192.8166860676094
 20
120.9979008597128
 30
0.0
 10
193.0799439229292
 20
120.9453219952105
 30
0.0
 10
193.471409954214
 20
120.945110221623
 30
0.0
 10
193.6039586978275
 20
120.9581011932124
 30
0.0
 10
193.8605030068428
 20
121.0091374165022
 30
0.0
 10
193.9851988932144
 20
121.046898957905
 30
0.0
 10
194.2274018636482
 20
121.1470584971985
 30
0.0
 10
194.3444652268988
 20
121.209656306949
 30
0.0
 10
194.5611515461449
 20
121.3543782909846
 30
0.0
 10
194.6621655142127
 20
121.4370023961529
 30
0.0
 10
194.8489587084981
 20
121.6236227667639
 30
0.0
 10
194.9317590724525
 20
121.7246711346551
 30
0.0
 10
195.0766375113471
 20
121.9411831555289
 30
0.0
 10
195.1392882946744
 20
122.0580725107279
 30
0.0
 10
195.2397286890483
 20
122.3003299127868
 30
0.0
 10
195.2775877008182
 20
122.4249925776022
 30
0.0
 10
195.3288254052818
 20
122.681323773257
 30
0.0
 10
195.3419557800548
 20
122.8139117126074
 30
0.0
 10
195.3420977304937
 20
123.2055433811767
 30
0.0
 10
195.2897568142457
 20
123.468756214211
 30
0.0
 10
195.0906265875076
 20
123.9502635449023
 30
0.0
 10
194.9417894998653
 20
124.1734640261779
 30
0.0
 10
194.6654774633259
 20
124.4503101061396
 30
0.0
 10
194.5627119260746
 20
124.5348222003584
 30
0.0
 10
194.3453949937208
 20
124.6802007970898
 30
0.0
 10
194.230608083184
 20
124.7417162286917
 30
0.0
 10
193.9886885930781
 20
124.8422722889373
 30
0.0
 10
193.861561690578
 20
124.8809110147719
 30
0.0
 10
193.6058928549419
 20
124.9319758816592
 30
0.0
 10
193.4759976495639
 20
124.9450503620355
 30
0.0
 10
193.2119228671395
 20
124.9453087633091
 30
0.0
 10
193.0815937276542
 20
124.9324326953462
 30
0.0
 10
192.8259044135104
 20
124.8818339040182
 30
0.0
 10
192.6989765471227
 20
124.8435285581806
 30
0.0
 10
192.4565242582806
 20
124.7432727257607
 30
0.0
 10
192.341607564299
 20
124.6819217068486
 30
0.0
 10
192.1242167725285
 20
124.5370528712783
 30
0.0
 10
192.0212314928469
 20
124.452688918009
 30
0.0
 10
191.7442671251897
 20
124.1761628642229
 30
0.0
 10
191.5951348468312
 20
123.9533030222272
 30
0.0
 10
191.3951827281167
 20
123.4722005021665
 30
0.0
 10
191.3420032282444
 20
123.2095528907077
 30
0.0
 10
191.3420032282444
 20
122.8129943348926
 30
0.0
  0
LINE
  5
104
330
1F
100
AcDbEntity
  8
0
  6
HIDDEN
 62
     7
370
     0
100
AcDbLine
 10
181.3420032282
 20
147.6451805149
 30
0.0
 11
181.3420032282
 21
98.2451805202
 31
0.0
  0
LINE
  5
105
330
1F
100
AcDbEntity
  8
0
  6
HIDDEN
 62
     7
370
     0
100
AcDbLine
 10
181.3420032282
 20
103.3951805202
 30
0.0
 11
181.3420032282
 21
142.479724236
 31
0.0
  0
SPLINE
  5
106
330
1F
100
AcDbEntity
  8
0
  6
HIDDEN
 62
     7
370
     0
100
AcDbSpline
210
0.0
220
0.0
230
1.0
 70
     8
 71
     3
 72
    14
 73
    10
 74
     0
 42
0.00000001
 43
0.00000001
 12
1.0
 22
0.0
 32
0.0
 13
1.0
 23
0.0
 33
0.0
 40
0.0
 40
0.0
 40
0.0
 40
0.0
 40
0.25
 40
0.25
 40
0.5
 40
0.5
 40
0.75
 40
0.75
 40
1.0
 40
1.0
 40
1.0
 40
1.0
 10
180.3011422001159
 20
135.2396560652377
 30
0.0
 10
180.3328573344467
 20
135.1818728828946
 30
0.0
 10
180.367471859747
 20
135.1254602218196
 30
0.0
 10
180.4471430551624
 20
135.0178607718042
 30
0.0
 10
180.4921989321928
 20
134.9659481448831
 30
0.0
 10
180.6027533446982
 20
134.8797495201858
 30
0.0
 10
180.6701387589024
 20
134.8456601002142
 30
0.0
 10
180.8207682788004
 20
134.8435577081973
 30
0.0
 10
180.8905955155658
 20
134.8769294810421
 30
0.0
 10
180.9470263393692
 20
134.9207421495928
 30
0.0
  0
SPLINE
  5
107
330
1F
100
AcDbEntity
  8
0
  6
HIDDEN
 62
     7
370
     0
100
AcDbSpline
210
0.0
220
0.0
230
1.0
 70
     8
 71
     3
 72
    16
 73
    12
 74
     0
 42
0.00000001
 43
0.00000001
 12
1.0
 22
0.0
 32
0.0
 13
1.0
 23
0.0
 33
0.0
 40
0.0
 40
0.0
 40
0.0
 40
0.0
 40
0.0625000000000001
 40
0.0625000000000001
 40
0.1250000000000002
 40
0.1250000000000002
 40
0.2500000000000023
 40
0.2500000000000023
 40
0.5000000000000016
 40
0.5000000000000016
 40
1.0
 40
1.0
 40
1.0
 40
1.0
 10
180.9470263393375
 20
134.9207421496234
 30
0.0
 10
180.9587605737844
 20
134.9298525628713
 30
0.0
 10
180.9722923292633
 20
134.9379299188177
 30
0.0
 10
181.0022797896931
 20
134.9461767604946
 30
0.0
 10
181.0172744961014
 20
134.9452494429071
 30
0.0
 10
181.0530149184962
 20
134.9324829233753
 30
0.0
 10
181.0670282554974
 20
134.914834276865
 30
0.0
 10
181.1011723442788
 20
134.8601813568334
 30
0.0
 10
181.1121442483971
 20
134.8187816891749
 30
0.0
 10
181.1379897886634
 20
134.6902919454521
 30
0.0
 10
181.1420032282444
 20
134.5996738578134
 30
0.0
 10
181.1420032282444
 20
134.5074547532594
 30
0.0
  0
LINE
  5
108
330
1F
100
AcDbEntity
  8
0
  6
HIDDEN
 62
     7
370
     0
100
AcDbLine
 10
181.1420032282
 20
111.3829062871
 30
0.0
 11
181.1420032282
 21
134.5074547533
 31
0.0
  0
SPLINE
  5
109
330
1F
100
AcDbEntity
  8
0
  6
HIDDEN
 62
     7
370
     0
100
AcDbSpline
210
0.0
220
0.0
230
1.0
 70
     8
 71
     3
 72
    16
 73
    12
 74
     0
 42
0.00000001
 43
0.00000001
 12
1.0
 22
0.0
 32
0.0
 13
1.0
 23
0.0
 33
0.0
 40
0.0
 40
0.0
 40
0.0
 40
0.0
 40
0.500000000000008
 40
0.500000000000008
 40
0.7500000000000095
 40
0.7500000000000095
 40
0.8750000000000078
 40
0.8750000000000078
 40
0.9375000000000039
 40
0.9375000000000039
 40
1.0
 40
1.0
 40
1.0
 40
1.0
 10
181.1420032282444
 20
111.3829062870692
 30
0.0
 10
181.1420032282444
 20
111.2903224361653
 30
0.0
 10
181.1379459261293
 20
111.200109980305
 30
0.0
 10
181.1122886833345
 20
111.0721688531866
 30
0.0
 10
181.1009732375924
 20
111.0297556387747
 30
0.0
 10
181.0669418702838
 20
110.9754415953236
 30
0.0
 10
181.0530628890799
 20
110.9578602599337
 30
0.0
 10
181.0171272073126
 20
110.9450765719987
 30
0.0
 10
181.0021768880498
 20
110.9442010738506
 30
0.0
 10
180.972278375308
 20
110.95244650897
 30
0.0
 10
180.9587455149427
 20
110.9605201691418
 30
0.0
 10
180.9470263393687
 20
110.9696188907359
 30
0.0
  0
SPLINE
  5
10A
330
1F
100
AcDbEntity
  8
0
  6
HIDDEN
 62
     7
370
     0
100
AcDbSpline
210
0.0
220
0.0
230
1.0
 70
     8
 71
     3
 72
    14
 73
    10
 74
     0
 42
0.00000001
 43
0.00000001
 12
1.0
 22
0.0
 32
0.0
 13
1.0
 23
0.0
 33
0.0
 40
0.0
 40
0.0
 40
0.0
 40
0.0
 40
0.25
 40
0.25
 40
0.5
 40
0.5
 40
0.75
 40
0.75
 40
1.0
 40
1.0
 40
1.0
 40
1.0
 10
180.9470263393755
 20
110.9696188907444
 30
0.0
 10
180.8905705747667
 20
111.0134509232392
 30
0.0
 10
180.8197049485169
 20
111.046781959661
 30
0.0
 10
180.6712478673442
 20
111.0447229495136
 30
0.0
 10
180.6020545080367
 20
111.0101269251119
 30
0.0
 10
180.4923390699025
 20
110.924461568449
 30
0.0
 10
180.4470944905712
 20
110.872439123741
 30
0.0
 10
180.3674677811474
 20
110.7648908634111
 30
0.0
 10
180.332857632614
 20
110.7084887006781
 30
0.0
 10
180.3011422001147
 20
110.6507049750886
 30
0.0
  0
SPLINE
  5
10B
330
1F
100
AcDbEntity
  8
0
  6
HIDDEN
 62
     7
370
     0
100
AcDbSpline
210
0.0
220
0.0
230
1.0
 70
     8
 71
     3
 72
    10
 73
     6
 74
     0
 42
0.00000001
 43
0.00000001
 12
1.0
 22
0.0
 32
0.0
 13
1.0
 23
0.0
 33
0.0
 40
0.0
 40
0.0
 40
0.0
 40
0.0
 40
0.5
 40
0.5
 40
1.0
 40
1.0
 40
1.0
 40
1.0
 10
180.3011422001153
 20
110.6507049750896
 30
0.0
 10
180.2293624121918
 20
110.5199262581877
 30
0.0
 10
180.1769028978837
 20
110.3858261086845
 30
0.0
 10
180.0875598337826
 20
110.1177335456958
 30
0.0
 10
180.0515642242828
 20
109.9834881741069
 30
0.0
 10
180.0206828846847
 20
109.8501337966319
 30
0.0
  0
SPLINE
  5
10C
330
1F
100
AcDbEntity
  8
0
  6
HIDDEN
 62
     7
370
     0
100
AcDbSpline
210
0.0
220
0.0
230
1.0
 70
     8
 71
     3
 72
    10
 73
     6
 74
     0
 42
0.00000001
 43
0.00000001
 12
1.0
 22
0.0
 32
0.0
 13
1.0
 23
0.0
 33
0.0
 40
0.0
 40
0.0
 40
0.0
 40
0.0
 40
0.5
 40
0.5
 40
1.0
 40
1.0
 40
1.0
 40
1.0
 10
180.0206828846847
 20
105.6482706521595
 30
0.0
 10
180.051555916497
 20
105.6319875047923
 30
0.0
 10
180.0875427794099
 20
105.6197299150667
 30
0.0
 10
180.1768773653011
 20
105.602626926238
 30
0.0
 10
180.2293332247237
 20
105.5978273303796
 30
0.0
 10
180.3011422001159
 20
105.5960232389717
 30
0.0
  0
SPLINE
  5
10D
330
1F
100
AcDbEntity
  8
0
  6
HIDDEN
 62
     7
370
     0
100
AcDbSpline
210
0.0
220
0.0
230
1.0
 70
     8
 71
     3
 72
     8
 73
     4
 74
     0
 42
0.00000001
 43
0.00000001
 12
1.0
 22
0.0
 32
0.0
 13
1.0
 23
0.0
 33
0.0
 40
0.0
 40
0.0
 40
0.0
 40
0.0
 40
1.0
 40
1.0
 40
1.0
 40
1.0
 10
181.1243066048694
 20
105.4701388607247
 30
0.0
 10
181.1382934134114
 20
105.441898470143
 30
0.0
 10
181.1420032282441
 20
105.4187664273322
 30
0.0
 10
181.1420032282444
 20
105.398426054497
 30
0.0
  0
LINE
  5
10E
330
1F
100
AcDbEntity
  8
0
  6
HIDDEN
 62
     7
370
     0
100
AcDbLine
 10
181.1420032282
 20
105.1053602413
 30
0.0
 11
181.1420032282
 21
105.3984260545
 31
0.0
  0
LINE
  5
10F
330
1F
100
AcDbEntity
  8
0
  6
HIDDEN
 62
     7
370
     0
100
AcDbLine
 10
181.1420032282
 20
140.4919349858
 30
0.0
 11
181.1420032282
 21
140.785000799
 31
0.0
  0
SPLINE
  5
110
330
1F
100
AcDbEntity
  8
0
  6
HIDDEN
 62
     7
370
     0
100
AcDbSpline
210
0.0
220
0.0
230
1.0
 70
     8
 71
     3
 72
    10
 73
     6
 74
     0
 42
0.00000001
 43
0.00000001
 12
1.0
 22
0.0
 32
0.0
 13
1.0
 23
0.0
 33
0.0
 40
0.0
 40
0.0
 40
0.0
 40
0.0
 40
0.5
 40
0.5
 40
1.0
 40
1.0
 40
1.0
 40
1.0
 10
180.3011422001168
 20
140.2943378013568
 30
0.0
 10
180.2293332247242
 20
140.2925337099489
 30
0.0
 10
180.1768773653014
 20
140.2877341140906
 30
0.0
 10
180.0875427794101
 20
140.2706311252619
 30
0.0
 10
180.0515559164971
 20
140.2583735355363
 30
0.0
 10
180.0206828846847
 20
140.2420903881691
 30
0.0
  0
SPLINE
  5
111
330
1F
100
AcDbEntity
  8
0
  6
HIDDEN
 62
     7
370
     0
100
AcDbSpline
210
0.0
220
0.0
230
1.0
 70
     8
 71
     3
 72
    10
 73
     6
 74
     0
 42
0.00000001
 43
0.00000001
 12
1.0
 22
0.0
 32
0.0
 13
1.0
 23
0.0
 33
0.0
 40
0.0
 40
0.0
 40
0.0
 40
0.0
 40
0.5
 40
0.5
 40
1.0
 40
1.0
 40
1.0
 40
1.0
 10
180.0206828846847
 20
136.0402272436967
 30
0.0
 10
180.0515642242829
 20
135.9068728662214
 30
0.0
 10
180.0875598337827
 20
135.7726274946324
 30
0.0
 10
180.1769028978841
 20
135.5045349316431
 30
0.0
 10
180.2293624121922
 20
135.3704347821398
 30
0.0
 10
180.3011422001159
 20
135.2396560652377
 30
0.0
  0
SPLINE
  5
112
330
1F
100
AcDbEntity
  8
0
  6
HIDDEN
 62
     7
370
     0
100
AcDbSpline
210
0.0
220
0.0
230
1.0
 70
     8
 71
     3
 72
    12
 73
     8
 74
     0
 42
0.00000001
 43
0.00000001
 12
1.0
 22
0.0
 32
0.0
 13
1.0
 23
0.0
 33
0.0
 40
0.0
 40
0.0
 40
0.0
 40
0.0
 40
0.4999999999999976
 40
0.4999999999999976
 40
0.7499999999999988
 40
0.7499999999999988
 40
1.0
 40
1.0
 40
1.0
 40
1.0
 10
200.6533343033435
 20
115.4067112850035
 30
0.0
 10
200.5468664578203
 20
115.2746224237484
 30
0.0
 10
200.4613516620096
 20
115.118738263709
 30
0.0
 10
200.4144133686659
 20
114.8404855240222
 30
0.0
 10
200.4125455215711
 20
114.7402175256255
 30
0.0
 10
200.4330781496902
 20
114.5340589281895
 30
0.0
 10
200.4549562356418
 20
114.4272760138206
 30
0.0
 10
200.4841345790628
 20
114.3174224540947
 30
0.0
  0
SPLINE
  5
113
330
1F
100
AcDbEntity
  8
0
  6
HIDDEN
 62
     7
370
     0
100
AcDbSpline
210
0.0
220
0.0
230
1.0
 70
     8
 71
     3
 72
    70
 73
    66
 74
     0
 42
0.00000001
 43
0.00000001
 12
1.0
 22
0.0
 32
0.0
 13
1.0
 23
0.0
 33
0.0
 40
0.0
 40
0.0
 40
0.0
 40
0.0
 40
0.0156250000000003
 40
0.0156250000000003
 40
0.0312500000000005
 40
0.0312500000000005
 40
0.0625000000000008
 40
0.0625000000000008
 40
0.093750000000001
 40
0.093750000000001
 40
0.1250000000000013
 40
0.1250000000000013
 40
0.1875000000000019
 40
0.1875000000000019
 40
0.2187500000000021
 40
0.2187500000000021
 40
0.2500000000000022
 40
0.2500000000000022
 40
0.2812500000000024
 40
0.2812500000000024
 40
0.3125000000000025
 40
0.3125000000000025
 40
0.3437500000000027
 40
0.3437500000000027
 40
0.3750000000000028
 40
0.3750000000000028
 40
0.4062500000000032
 40
0.4062500000000032
 40
0.4375000000000036
 40
0.4375000000000036
 40
0.4687500000000039
 40
0.4687500000000039
 40
0.5000000000000042
 40
0.5000000000000042
 40
0.5156250000000042
 40
0.5156250000000042
 40
0.5312500000000042
 40
0.5312500000000042
 40
0.5625000000000039
 40
0.5625000000000039
 40
0.5937500000000034
 40
0.5937500000000034
 40
0.6250000000000031
 40
0.6250000000000031
 40
0.6875000000000024
 40
0.6875000000000024
 40
0.7187500000000022
 40
0.7187500000000022
 40
0.7500000000000019
 40
0.7500000000000019
 40
0.7812500000000017
 40
0.7812500000000017
 40
0.8125000000000014
 40
0.8125000000000014
 40
0.8437500000000012
 40
0.8437500000000012
 40
0.875000000000001
 40
0.875000000000001
 40
0.9062500000000008
 40
0.9062500000000008
 40
0.9375000000000004
 40
0.9375000000000004
 40
0.9687500000000002
 40
0.9687500000000002
 40
1.0
 40
1.0
 40
1.0
 40
1.0
 10
200.4841345790636
 20
114.3174224540971
 30
0.0
 10
200.5628003445465
 20
114.2921425873189
 30
0.0
 10
200.6392408462746
 20
114.2586216483613
 30
0.0
 10
200.7876893719057
 20
114.1733213517373
 30
0.0
 10
200.8598830256061
 20
114.1210442709807
 30
0.0
 10
201.0593453571936
 20
113.9471729010908
 30
0.0
 10
201.1739892934447
 20
113.8064842928572
 30
0.0
 10
201.3695689772475
 20
113.512004609933
 30
0.0
 10
201.4532952672189
 20
113.3543724765469
 30
0.0
 10
201.5961658630522
 20
113.0311156524739
 30
0.0
 10
201.6552443453208
 20
112.8656916893327
 30
0.0
 10
201.7987850323296
 20
112.3585468055942
 30
0.0
 10
201.8505333136871
 20
111.9998624406492
 30
0.0
 10
201.8360201209428
 20
111.4739405913355
 30
0.0
 10
201.8152698495458
 20
111.2976859588075
 30
0.0
 10
201.7382972104542
 20
110.9652606137314
 30
0.0
 10
201.681025330189
 20
110.8051382418114
 30
0.0
 10
201.5311329018218
 20
110.5197298929576
 30
0.0
 10
201.4395583568984
 20
110.3949697555825
 30
0.0
 10
201.2247260480766
 20
110.1857397171881
 30
0.0
 10
201.1067848248975
 20
110.1061215089458
 30
0.0
 10
200.8535576751124
 20
109.9904713661139
 30
0.0
 10
200.7229045095314
 20
109.9566422696244
 30
0.0
 10
200.4590030544863
 20
109.9273144648261
 30
0.0
 10
200.3245020013254
 20
109.9321837954913
 30
0.0
 10
200.0644605933254
 20
109.9728336400537
 30
0.0
 10
199.9374702027316
 20
110.0083564247379
 30
0.0
 10
199.69107552421
 20
110.1047316700895
 30
0.0
 10
199.5714102108317
 20
110.1659791338936
 30
0.0
 10
199.3503033653144
 20
110.3071938622248
 30
0.0
 10
199.2476350858115
 20
110.3874605976277
 30
0.0
 10
199.0694721438471
 20
110.5650346820216
 30
0.0
 10
198.9932017311781
 20
110.6634999593783
 30
0.0
 10
198.9300603922032
 20
110.8132243123763
 30
0.0
 10
198.9177807802125
 20
110.864079135769
 30
0.0
 10
198.916086279782
 20
110.9610995042984
 30
0.0
 10
198.9265786227616
 20
111.0082466277381
 30
0.0
 10
198.9891199413894
 20
111.142052277124
 30
0.0
 10
199.069623359801
 20
111.2199581444923
 30
0.0
 10
199.2633739498378
 20
111.3709062260781
 30
0.0
 10
199.3758176004038
 20
111.4436190998816
 30
0.0
 10
199.6177887900596
 20
111.5976465601504
 30
0.0
 10
199.7476423762159
 20
111.6786671121031
 30
0.0
 10
200.1449926218047
 20
111.9374654765219
 30
0.0
 10
200.429115065011
 20
112.1370037308301
 30
0.0
 10
200.8333427221328
 20
112.4782484702861
 30
0.0
 10
200.9666582579633
 20
112.600970837521
 30
0.0
 10
201.2097963288182
 20
112.8508404535127
 30
0.0
 10
201.3220777768768
 20
112.9800636576106
 30
0.0
 10
201.5203571964417
 20
113.2443915212302
 30
0.0
 10
201.6022262256079
 20
113.3737886915205
 30
0.0
 10
201.7323030165512
 20
113.6284479429001
 30
0.0
 10
201.7789471303639
 20
113.7513820058412
 30
0.0
 10
201.8357276500495
 20
113.9819221506998
 30
0.0
 10
201.8461505801463
 20
114.0909665358131
 30
0.0
 10
201.834864135252
 20
114.2904563065379
 30
0.0
 10
201.813605055739
 20
114.3823664950065
 30
0.0
 10
201.7416653992568
 20
114.5550585321987
 30
0.0
 10
201.691969353954
 20
114.6335406903934
 30
0.0
 10
201.5658281611633
 20
114.7818641354776
 30
0.0
 10
201.4887840098885
 20
114.8519687404988
 30
0.0
 10
201.3052733940214
 20
114.9916072361519
 30
0.0
 10
201.1973516070322
 20
115.0620110607704
 30
0.0
 10
200.9478923706217
 20
115.219353445761
 30
0.0
 10
200.8034701524969
 20
115.3095965461506
 30
0.0
 10
200.6533343033429
 20
115.4067112850035
 30
0.0
  0
SPLINE
  5
114
330
1F
100
AcDbEntity
  8
0
  6
HIDDEN
 62
     7
370
     0
100
AcDbSpline
210
0.0
220
0.0
230
1.0
 70
     8
 71
     3
 72
    66
 73
    62
 74
     0
 42
0.00000001
 43
0.00000001
 12
1.0
 22
0.0
 32
0.0
 13
1.0
 23
0.0
 33
0.0
 40
-0.0312499999999999
 40
-0.0312499999999999
 40
0.0
 40
0.0
 40
0.0312500000000001
 40
0.0312500000000001
 40
0.0625000000000002
 40
0.0625000000000002
 40
0.0937500000000002
 40
0.0937500000000002
 40
0.1250000000000003
 40
0.1250000000000003
 40
0.1875000000000004
 40
0.1875000000000004
 40
0.2187500000000005
 40
0.2187500000000005
 40
0.2500000000000006
 40
0.2500000000000006
 40
0.2812500000000006
 40
0.2812500000000006
 40
0.3125000000000007
 40
0.3125000000000007
 40
0.3437500000000007
 40
0.3437500000000007
 40
0.3750000000000007
 40
0.3750000000000007
 40
0.4062500000000007
 40
0.4062500000000007
 40
0.4375000000000007
 40
0.4375000000000007
 40
0.4687500000000007
 40
0.4687500000000007
 40
0.5000000000000006
 40
0.5000000000000006
 40
0.5312500000000007
 40
0.5312500000000007
 40
0.5625000000000006
 40
0.5625000000000006
 40
0.5937500000000006
 40
0.5937500000000006
 40
0.6250000000000006
 40
0.6250000000000006
 40
0.6875000000000004
 40
0.6875000000000004
 40
0.7187500000000004
 40
0.7187500000000004
 40
0.7500000000000003
 40
0.7500000000000003
 40
0.7812500000000003
 40
0.7812500000000003
 40
0.8125000000000003
 40
0.8125000000000003
 40
0.8437500000000003
 40
0.8437500000000003
 40
0.8750000000000002
 40
0.8750000000000002
 40
0.9062500000000002
 40
0.9062500000000002
 40
0.9375000000000002
 40
0.9375000000000002
 40
0.9687500000000001
 40
0.9687500000000001
 40
1.0
 40
1.0
 40
1.03125
 40
1.03125
 10
199.1754503204876
 20
117.1420563927543
 30
0.0
 10
199.5085561360011
 20
117.1420563927543
 30
0.0
 10
199.6720470895909
 20
117.1525428008615
 30
0.0
 10
199.9932492349599
 20
117.1938799140607
 30
0.0
 10
200.1526615925162
 20
117.2252900381325
 30
0.0
 10
200.4547003196566
 20
117.307836717576
 30
0.0
 10
200.5977483570183
 20
117.3587266070401
 30
0.0
 10
200.8684815789691
 20
117.4812556190557
 30
0.0
 10
200.9955510939357
 20
117.5529873858255
 30
0.0
 10
201.3385591049085
 20
117.793724419811
 30
0.0
 10
201.5243913663124
 20
117.9947914480939
 30
0.0
 10
201.7121967294711
 20
118.3398496811536
 30
0.0
 10
201.7609368062494
 20
118.4642329907902
 30
0.0
 10
201.8257008583642
 20
118.7234666597781
 30
0.0
 10
201.8418929688983
 20
118.8571881707983
 30
0.0
 10
201.842112376065
 20
119.1331109810897
 30
0.0
 10
201.8255642820316
 20
119.2763568718984
 30
0.0
 10
201.761135128328
 20
119.5581220628769
 30
0.0
 10
201.7134766591431
 20
119.6981437891936
 30
0.0
 10
201.5867806913444
 20
119.9756461973677
 30
0.0
 10
201.5092071055455
 20
120.1096519981545
 30
0.0
 10
201.3286004793653
 20
120.3644297737684
 30
0.0
 10
201.2240474302497
 20
120.4868951318461
 30
0.0
 10
200.9940387899055
 20
120.7111214775926
 30
0.0
 10
200.8691587315306
 20
120.8128363070302
 30
0.0
 10
200.5992591599008
 20
120.994062595922
 30
0.0
 10
200.4531627934178
 20
121.0736830638088
 30
0.0
 10
200.1524501696092
 20
121.2015676486136
 30
0.0
 10
199.9965024812518
 20
121.2509518079106
 30
0.0
 10
199.6727226175033
 20
121.3182593916217
 30
0.0
 10
199.5070242737533
 20
121.3353409350278
 30
0.0
 10
199.1789803937459
 20
121.3354771151786
 30
0.0
 10
199.0136548424092
 20
121.3186033083011
 30
0.0
 10
198.6893263863989
 20
121.2514777073185
 30
0.0
 10
198.5329735855372
 20
121.2021005731521
 30
0.0
 10
198.231257407308
 20
121.0739284076701
 30
0.0
 10
198.0851668775934
 20
120.994298587979
 30
0.0
 10
197.8154531001883
 20
120.8132883567752
 30
0.0
 10
197.6902717665452
 20
120.7114448369178
 30
0.0
 10
197.3436612261176
 20
120.3734671080093
 30
0.0
 10
197.1605183912293
 20
120.1141276793383
 30
0.0
 10
196.97085183109
 20
119.6989232034614
 30
0.0
 10
196.9232140836615
 20
119.5591938642833
 30
0.0
 10
196.8586958487293
 20
119.2778894741228
 30
0.0
 10
196.8419987429875
 20
119.1346572622184
 30
0.0
 10
196.842007715355
 20
118.8583235819713
 30
0.0
 10
196.8581385513015
 20
118.7244508708548
 30
0.0
 10
196.9227982279702
 20
118.4650059878364
 30
0.0
 10
196.9714685826094
 20
118.3405600596133
 30
0.0
 10
197.0968979549281
 20
118.1099395052212
 30
0.0
 10
197.1746416074183
 20
118.0016246590303
 30
0.0
 10
197.3569410944312
 20
117.8026572379594
 30
0.0
 10
197.4599042477254
 20
117.7133552646968
 30
0.0
 10
197.6891052200179
 20
117.5525700492802
 30
0.0
 10
197.816736198126
 20
117.4806547999533
 30
0.0
 10
198.0865818595626
 20
117.3586329761932
 30
0.0
 10
198.2294366029496
 20
117.3077847353819
 30
0.0
 10
198.5318341301957
 20
117.2251726820073
 30
0.0
 10
198.6910493611405
 20
117.1938363356411
 30
0.0
 10
199.0119370924586
 20
117.1525516540128
 30
0.0
 10
199.1754503204876
 20
117.1420563927543
 30
0.0
 10
199.5085561360011
 20
117.1420563927543
 30
0.0
  0
LWPOLYLINE
  5
115
330
1F
100
AcDbEntity
  8
0
  6
HIDDEN
 62
     7
370
     0
100
AcDbPolyline
 90
       29
 70
   128
 43
0.0
 10
199.3420032282
 20
109.411084365
 10
199.8983055631
 20
109.4636524203
 10
200.426712576
 20
109.6187206045
 10
200.9007277329
 20
109.8685131513
 10
201.2965819344
 20
110.2005044193
 10
201.594425398
 20
110.5980469801
 10
201.7793230087
 20
111.0412063897
 10
201.8420032282
 20
111.5077607848
 10
201.7793230087
 20
111.97431518
 10
201.594425398
 20
112.4174745896
 10
201.2965819344
 20
112.8150171504
 10
200.9007277329
 20
113.1470084184
 10
200.426712576
 20
113.3968009652
 10
199.8983055631
 20
113.5518691494
 10
199.3420032282
 20
113.6044372047
 10
198.7857008934
 20
113.5518691494
 10
198.2572938805
 20
113.3968009652
 10
197.7832787236
 20
113.1470084184
 10
197.3874245221
 20
112.8150171504
 10
197.0895810585
 20
112.4174745896
 10
196.9046834478
 20
111.97431518
 10
196.8420032282
 20
111.5077607848
 10
196.9046834478
 20
111.0412063897
 10
197.0895810585
 20
110.5980469801
 10
197.3874245221
 20
110.2005044193
 10
197.7832787236
 20
109.8685131513
 10
198.2572938805
 20
109.6187206045
 10
198.7857008934
 20
109.4636524203
 10
199.3420032282
 20
109.411084365
  0
ARC
  5
116
330
1F
100
AcDbEntity
  8
0
  6
HIDDEN
 62
     7
370
     0
100
AcDbCircle
 10
199.4079141127
 20
115.0423776135
 30
0.0
 40
1.297617229931769
100
AcDbArc
 50
326.035314052
 51
16.3062434521
  0
LINE
  5
117
330
1F
100
AcDbEntity
  8
0
  6
HIDDEN
 62
     7
370
     0
100
AcDbLine
 10
181.1420032282
 20
105.3984260545
 30
0.0
 11
181.1420032282
 21
116.9607002876
 31
0.0
  0
LINE
  5
118
330
1F
100
AcDbEntity
  8
0
  6
HIDDEN
 62
     7
370
     0
100
AcDbLine
 10
181.1420032282
 20
128.9296607527
 30
0.0
 11
181.1420032282
 21
140.4919349858
 31
0.0
  0
CIRCLE
  5
119
330
1F
100
AcDbEntity
  8
0
  6
HIDDEN
 62
     7
370
     0
100
AcDbCircle
 10
167.3420032282
 20
122.9451805202
 30
0.0
 40
3.050000000000011
  0
LINE
  5
11A
330
1F
100
AcDbEntity
  8
0
  6
HIDDEN
 62
     7
370
     0
100
AcDbLine
 10
156.3700430839
 20
133.7338556548
 30
0.0
 11
156.3700430839
 21
112.1565053856
 31
0.0
  0
LINE
  5
11B
330
1F
100
AcDbEntity
  8
0
  6
HIDDEN
 62
     7
370
     0
100
AcDbLine
 10
152.3700430839
 20
134.1150535012
 30
0.0
 11
152.3700430839
 21
111.7753075391
 31
0.0
  0
LINE
  5
11C
330
1F
100
AcDbEntity
  8
0
  6
HIDDEN
 62
     7
370
     0
100
AcDbLine
 10
151.3420032282
 20
111.1817684517
 30
0.0
 11
151.3420032282
 21
134.6929953616
 31
0.0
  0
LINE
  5
11D
330
1F
100
AcDbEntity
  8
0
  6
HIDDEN
 62
     7
370
     0
100
AcDbLine
 10
160.9700430839
 20
133.4451805202
 30
0.0
 11
160.9700430839
 21
112.4451805202
 31
0.0
  0
LINE
  5
11E
330
1F
100
AcDbEntity
  8
0
  6
HIDDEN
 62
     7
370
     0
100
AcDbLine
 10
154.8700430839
 20
133.4451805202
 30
0.0
 11
154.8700430839
 21
112.4451805202
 31
0.0
  0
LINE
  5
11F
330
1F
100
AcDbEntity
  8
0
  6
HIDDEN
 62
     7
370
     0
100
AcDbLine
 10
155.8700430839
 20
133.4451805202
 30
0.0
 11
155.8700430839
 21
112.4451805202
 31
0.0
  0
SPLINE
  5
120
330
1F
100
AcDbEntity
  8
0
  6
HIDDEN
 62
     7
370
     0
100
AcDbSpline
210
0.0
220
0.0
230
1.0
 70
     8
 71
     3
 72
    66
 73
    62
 74
     0
 42
0.00000001
 43
0.00000001
 12
1.0
 22
0.0
 32
0.0
 13
1.0
 23
0.0
 33
0.0
 40
-0.0312499999999997
 40
-0.0312499999999997
 40
0.0
 40
0.0
 40
0.0312500000000001
 40
0.0312500000000001
 40
0.0625000000000002
 40
0.0625000000000002
 40
0.0937500000000002
 40
0.0937500000000002
 40
0.1250000000000003
 40
0.1250000000000003
 40
0.1875000000000006
 40
0.1875000000000006
 40
0.2187500000000007
 40
0.2187500000000007
 40
0.2500000000000009
 40
0.2500000000000009
 40
0.2812500000000011
 40
0.2812500000000011
 40
0.3125000000000012
 40
0.3125000000000012
 40
0.3437500000000013
 40
0.3437500000000013
 40
0.3750000000000014
 40
0.3750000000000014
 40
0.4062500000000016
 40
0.4062500000000016
 40
0.4375000000000016
 40
0.4375000000000016
 40
0.4687500000000017
 40
0.4687500000000017
 40
0.5000000000000018
 40
0.5000000000000018
 40
0.5312500000000019
 40
0.5312500000000019
 40
0.562500000000002
 40
0.562500000000002
 40
0.593750000000002
 40
0.593750000000002
 40
0.6250000000000023
 40
0.6250000000000023
 40
0.6562500000000022
 40
0.6562500000000022
 40
0.6875000000000021
 40
0.6875000000000021
 40
0.7187500000000019
 40
0.7187500000000019
 40
0.7500000000000018
 40
0.7500000000000018
 40
0.7812500000000017
 40
0.7812500000000017
 40
0.8125000000000014
 40
0.8125000000000014
 40
0.8750000000000012
 40
0.8750000000000012
 40
0.9062500000000011
 40
0.9062500000000011
 40
0.9375000000000007
 40
0.9375000000000007
 40
0.9687500000000003
 40
0.9687500000000003
 40
1.0
 40
1.0
 40
1.03125
 40
1.03125
 10
167.1393245812966
 20
125.9951805201643
 30
0.0
 10
167.5446818751921
 20
125.9951805201643
 30
0.0
 10
167.743741766528
 20
125.9751809605477
 30
0.0
 10
168.1349957511077
 20
125.8970374578475
 30
0.0
 10
168.3292685098554
 20
125.8378763563268
 30
0.0
 10
168.6980319364066
 20
125.6844446694325
 30
0.0
 10
168.8727570947849
 20
125.5907178595902
 30
0.0
 10
169.2034343983187
 20
125.3694637571854
 30
0.0
 10
169.3590819423216
 20
125.2414823901908
 30
0.0
 10
169.7785493119902
 20
124.8219272931907
 30
0.0
 10
170.0054374535205
 20
124.4834487344873
 30
0.0
 10
170.2342340769053
 20
123.9335698467691
 30
0.0
 10
170.2934263317541
 20
123.7401700010257
 30
0.0
 10
170.3722337420147
 20
123.3459418506678
 30
0.0
 10
170.3918731582951
 20
123.1473030232355
 30
0.0
 10
170.3921320227166
 20
122.747002737337
 30
0.0
 10
170.3720613380837
 20
122.5436634106159
 30
0.0
 10
170.2937236554538
 20
122.1515718900084
 30
0.0
 10
170.2357738874153
 20
121.9608660216931
 30
0.0
 10
170.0818307455353
 20
121.5901422051066
 30
0.0
 10
169.9868921318126
 20
121.4134155452978
 30
0.0
 10
169.7665347159354
 20
121.0841624343734
 30
0.0
 10
169.6392546900072
 20
120.9290412107769
 30
0.0
 10
169.3574990986766
 20
120.6473645158465
 30
0.0
 10
169.2047107692191
 20
120.5219313309422
 30
0.0
 10
168.8752836870622
 20
120.3011557375881
 30
0.0
 10
168.6967376839105
 20
120.2053244848879
 30
0.0
 10
168.3291653583603
 20
120.0524953543928
 30
0.0
 10
168.1390113316493
 20
119.9943235964486
 30
0.0
 10
167.7454709089469
 20
119.9153303041036
 30
0.0
 10
167.5430368376857
 20
119.8952671784614
 30
0.0
 10
167.1436077623204
 20
119.8950944323427
 30
0.0
 10
166.9435887837644
 20
119.914577806432
 30
0.0
 10
166.5474728363151
 20
119.9935693780331
 30
0.0
 10
166.3567400081232
 20
120.0518495978851
 30
0.0
 10
165.9891085675435
 20
120.2044172184931
 30
0.0
 10
165.8106221353757
 20
120.3000260052664
 30
0.0
 10
165.4804168764117
 20
120.5210380503514
 30
0.0
 10
165.3275282983497
 20
120.6464879491216
 30
0.0
 10
165.0459319038116
 20
120.9277184381269
 30
0.0
 10
164.9183009809361
 20
121.0831013160408
 30
0.0
 10
164.6979755459363
 20
121.4119521740838
 30
0.0
 10
164.603749088971
 20
121.5868402804978
 30
0.0
 10
164.4488145683679
 20
121.9589841318586
 30
0.0
 10
164.3908022827656
 20
122.1497901736675
 30
0.0
 10
164.3123830284875
 20
122.5406631915863
 30
0.0
 10
164.2920689485209
 20
122.7431207529686
 30
0.0
 10
164.291937832217
 20
123.145251357888
 30
0.0
 10
164.3115625255763
 20
123.3439754030631
 30
0.0
 10
164.38972897599
 20
123.7368148741998
 30
0.0
 10
164.4490164213299
 20
123.9314591516024
 30
0.0
 10
164.6780972644128
 20
124.4828989050166
 30
0.0
 10
164.9049281153069
 20
124.8212384707158
 30
0.0
 10
165.3242668166276
 20
125.2409041333673
 30
0.0
 10
165.4796198123776
 20
125.3687501391405
 30
0.0
 10
165.8105876455148
 20
125.5903512138423
 30
0.0
 10
165.9851489457112
 20
125.6839919478192
 30
0.0
 10
166.3527222532859
 20
125.8371460685185
 30
0.0
 10
166.547409114924
 20
125.8966498141645
 30
0.0
 10
166.9398850648605
 20
125.9751725632275
 30
0.0
 10
167.1393245812966
 20
125.9951805201643
 30
0.0
 10
167.5446818751921
 20
125.9951805201643
 30
0.0
  0
SPLINE
  5
121
330
1F
100
AcDbEntity
  8
0
  6
HIDDEN
 62
     7
370
     0
100
AcDbSpline
210
0.0
220
0.0
230
1.0
 70
     8
 71
     3
 72
    66
 73
    62
 74
     0
 42
0.00000001
 43
0.00000001
 12
1.0
 22
0.0
 32
0.0
 13
1.0
 23
0.0
 33
0.0
 40
-0.03125
 40
-0.03125
 40
0.0
 40
0.0
 40
0.0312500000000001
 40
0.0312500000000001
 40
0.0625000000000001
 40
0.0625000000000001
 40
0.0937500000000002
 40
0.0937500000000002
 40
0.1250000000000002
 40
0.1250000000000002
 40
0.1874999999999999
 40
0.1874999999999999
 40
0.2187499999999998
 40
0.2187499999999998
 40
0.2499999999999997
 40
0.2499999999999997
 40
0.2812499999999996
 40
0.2812499999999996
 40
0.3124999999999994
 40
0.3124999999999994
 40
0.3437499999999992
 40
0.3437499999999992
 40
0.3749999999999991
 40
0.3749999999999991
 40
0.4062499999999989
 40
0.4062499999999989
 40
0.437499999999999
 40
0.437499999999999
 40
0.4687499999999991
 40
0.4687499999999991
 40
0.4999999999999991
 40
0.4999999999999991
 40
0.5312499999999992
 40
0.5312499999999992
 40
0.5624999999999992
 40
0.5624999999999992
 40
0.5937499999999993
 40
0.5937499999999993
 40
0.6249999999999993
 40
0.6249999999999993
 40
0.6562499999999994
 40
0.6562499999999994
 40
0.6874999999999994
 40
0.6874999999999994
 40
0.7187499999999996
 40
0.7187499999999996
 40
0.7499999999999996
 40
0.7499999999999996
 40
0.7812499999999997
 40
0.7812499999999997
 40
0.8124999999999998
 40
0.8124999999999998
 40
0.8749999999999999
 40
0.8749999999999999
 40
0.9062499999999999
 40
0.9062499999999999
 40
0.9375
 40
0.9375
 40
0.96875
 40
0.96875
 40
1.0
 40
1.0
 40
1.03125
 40
1.03125
 10
167.5446818751921
 20
125.9951805201643
 30
0.0
 10
167.1393245812965
 20
125.9951805201643
 30
0.0
 10
166.9402646899607
 20
125.9751809605477
 30
0.0
 10
166.549010705381
 20
125.8970374578475
 30
0.0
 10
166.3547379466333
 20
125.8378763563268
 30
0.0
 10
165.985974520082
 20
125.6844446694325
 30
0.0
 10
165.8112493617038
 20
125.5907178595902
 30
0.0
 10
165.48057205817
 20
125.3694637571854
 30
0.0
 10
165.3249245141672
 20
125.2414823901908
 30
0.0
 10
164.9054571444985
 20
124.8219272931907
 30
0.0
 10
164.6785690029682
 20
124.4834487344873
 30
0.0
 10
164.4497723795834
 20
123.9335698467691
 30
0.0
 10
164.3905801247346
 20
123.7401700010257
 30
0.0
 10
164.311772714474
 20
123.3459418506678
 30
0.0
 10
164.2921332981936
 20
123.1473030232355
 30
0.0
 10
164.2918744337721
 20
122.747002737337
 30
0.0
 10
164.311945118405
 20
122.5436634106159
 30
0.0
 10
164.390282801035
 20
122.1515718900084
 30
0.0
 10
164.4482325690734
 20
121.9608660216931
 30
0.0
 10
164.6021757109534
 20
121.5901422051066
 30
0.0
 10
164.6971143246761
 20
121.4134155452978
 30
0.0
 10
164.9174717405533
 20
121.0841624343734
 30
0.0
 10
165.0447517664815
 20
120.9290412107769
 30
0.0
 10
165.3265073578121
 20
120.6473645158465
 30
0.0
 10
165.4792956872696
 20
120.5219313309422
 30
0.0
 10
165.8087227694265
 20
120.3011557375881
 30
0.0
 10
165.9872687725782
 20
120.2053244848879
 30
0.0
 10
166.3548410981284
 20
120.0524953543928
 30
0.0
 10
166.5449951248394
 20
119.9943235964486
 30
0.0
 10
166.9385355475418
 20
119.9153303041036
 30
0.0
 10
167.140969618803
 20
119.8952671784614
 30
0.0
 10
167.5403986941684
 20
119.8950944323427
 30
0.0
 10
167.7404176727243
 20
119.914577806432
 30
0.0
 10
168.1365336201737
 20
119.9935693780331
 30
0.0
 10
168.3272664483655
 20
120.0518495978851
 30
0.0
 10
168.6948978889452
 20
120.2044172184931
 30
0.0
 10
168.873384321113
 20
120.3000260052664
 30
0.0
 10
169.203589580077
 20
120.5210380503514
 30
0.0
 10
169.356478158139
 20
120.6464879491216
 30
0.0
 10
169.6380745526771
 20
120.9277184381269
 30
0.0
 10
169.7657054755526
 20
121.0831013160408
 30
0.0
 10
169.9860309105524
 20
121.4119521740838
 30
0.0
 10
170.0802573675178
 20
121.5868402804978
 30
0.0
 10
170.2351918881208
 20
121.9589841318586
 30
0.0
 10
170.2932041737231
 20
122.1497901736675
 30
0.0
 10
170.3716234280012
 20
122.5406631915863
 30
0.0
 10
170.3919375079678
 20
122.7431207529686
 30
0.0
 10
170.3920686242717
 20
123.145251357888
 30
0.0
 10
170.3724439309124
 20
123.3439754030631
 30
0.0
 10
170.2942774804987
 20
123.7368148741998
 30
0.0
 10
170.2349900351588
 20
123.9314591516024
 30
0.0
 10
170.0059091920759
 20
124.4828989050166
 30
0.0
 10
169.7790783411818
 20
124.8212384707158
 30
0.0
 10
169.3597396398611
 20
125.2409041333673
 30
0.0
 10
169.2043866441111
 20
125.3687501391405
 30
0.0
 10
168.8734188109739
 20
125.5903512138423
 30
0.0
 10
168.6988575107776
 20
125.6839919478192
 30
0.0
 10
168.3312842032027
 20
125.8371460685185
 30
0.0
 10
168.1365973415647
 20
125.8966498141645
 30
0.0
 10
167.7441213916282
 20
125.9751725632275
 30
0.0
 10
167.5446818751921
 20
125.9951805201643
 30
0.0
 10
167.1393245812965
 20
125.9951805201643
 30
0.0
  0
LINE
  5
122
330
1F
100
AcDbEntity
  8
0
  6
HIDDEN
 62
     7
370
     0
100
AcDbLine
 10
171.3420032282
 20
132.9451805202
 30
0.0
 11
171.3420032282
 21
112.9451805202
 31
0.0
  0
LINE
  5
123
330
1F
100
AcDbEntity
  8
0
  6
HIDDEN
 62
     7
370
     0
100
AcDbLine
 10
172.3420032282
 20
130.1951805202
 30
0.0
 11
172.3420032282
 21
115.6951805202
 31
0.0
  0
LINE
  5
124
330
1F
100
AcDbEntity
  8
0
  6
HIDDEN
 62
     7
370
     0
100
AcDbLine
 10
171.3420032282
 20
114.6951805202
 30
0.0
 11
171.3420032282
 21
131.1795329822
 31
0.0
  0
LWPOLYLINE
  5
125
330
1F
100
AcDbEntity
  8
0
  6
HIDDEN
 62
     7
370
     0
100
AcDbPolyline
 90
       34
 70
   128
 43
0.0
 10
223.9482719555
 20
107.8926005698
 10
223.8660486511
 20
107.2399785389
 10
223.6622781533
 20
106.6109439686
 10
223.3443252589
 20
106.0282318072
 10
222.9236816139
 20
105.5129027904
 10
222.4155503756
 20
105.0835822517
 10
221.8382967308
 20
104.7557869537
 10
221.2127841303
 20
104.5413642728
 10
220.5616202293
 20
104.4480640032
 10
219.9083397876
 20
104.4792582597
 10
219.2765540627
 20
104.6338196007
 10
218.6890974366
 20
104.9061617766
 10
218.1672021225
 20
105.2864416316
 10
217.7297307767
 20
105.7609148609
 10
217.3924947536
 20
106.3124327657
 10
217.1676826417
 20
106.9210620521
 10
217.0634197364
 20
107.5648052718
 10
217.0834743709
 20
108.2203958677
 10
217.2271217182
 20
108.8641390874
 10
217.4891699892
 20
109.4727683738
 10
217.8601480764
 20
110.0242862786
 10
218.3266478652
 20
110.4987595079
 10
218.8718088379
 20
110.8790393629
 10
219.4759274564
 20
111.1513815388
 10
220.1171692999
 20
111.3059428798
 10
220.7723582174
 20
111.3371371363
 10
221.4178139743
 20
111.2438368667
 10
222.0302081179
 20
111.0294141858
 10
222.5874071283
 20
110.7016188878
 10
223.0692723814
 20
110.2722983491
 10
223.4583880115
 20
109.7569693323
 10
223.7406903659
 20
109.1742571709
 10
223.9059763021
 20
108.5452226006
 10
223.9482719555
 20
107.8926005698
  0
SPLINE
  5
126
330
1F
100
AcDbEntity
  8
0
  6
HIDDEN
 62
     7
370
     0
100
AcDbSpline
210
0.0
220
0.0
230
1.0
 70
     8
 71
     3
 72
    66
 73
    62
 74
     0
 42
0.00000001
 43
0.00000001
 12
1.0
 22
0.0
 32
0.0
 13
1.0
 23
0.0
 33
0.0
 40
-0.0312499999999997
 40
-0.0312499999999997
 40
0.0
 40
0.0
 40
0.0312500000000003
 40
0.0312500000000003
 40
0.0625000000000005
 40
0.0625000000000005
 40
0.0937500000000008
 40
0.0937500000000008
 40
0.1250000000000011
 40
0.1250000000000011
 40
0.1875000000000016
 40
0.1875000000000016
 40
0.2187500000000017
 40
0.2187500000000017
 40
0.2500000000000019
 40
0.2500000000000019
 40
0.281250000000002
 40
0.281250000000002
 40
0.3125000000000021
 40
0.3125000000000021
 40
0.3437500000000022
 40
0.3437500000000022
 40
0.3750000000000022
 40
0.3750000000000022
 40
0.4062500000000023
 40
0.4062500000000023
 40
0.4375000000000024
 40
0.4375000000000024
 40
0.4687500000000025
 40
0.4687500000000025
 40
0.5000000000000026
 40
0.5000000000000026
 40
0.5312500000000027
 40
0.5312500000000027
 40
0.5625000000000029
 40
0.5625000000000029
 40
0.593750000000003
 40
0.593750000000003
 40
0.6250000000000031
 40
0.6250000000000031
 40
0.6875000000000028
 40
0.6875000000000028
 40
0.7187500000000026
 40
0.7187500000000026
 40
0.7500000000000023
 40
0.7500000000000023
 40
0.7812500000000021
 40
0.7812500000000021
 40
0.8125000000000018
 40
0.8125000000000018
 40
0.8437500000000014
 40
0.8437500000000014
 40
0.8750000000000012
 40
0.8750000000000012
 40
0.9062500000000009
 40
0.9062500000000009
 40
0.9375000000000006
 40
0.9375000000000006
 40
0.9687500000000003
 40
0.9687500000000003
 40
1.0
 40
1.0
 40
1.03125
 40
1.03125
 10
199.5085561360011
 20
124.5549518078471
 30
0.0
 10
199.1754503204876
 20
124.5549518078471
 30
0.0
 10
199.0119593668977
 20
124.5720993959252
 30
0.0
 10
198.6907572215288
 20
124.6385964488141
 30
0.0
 10
198.5313448639725
 20
124.688816918076
 30
0.0
 10
198.2293061368321
 20
124.8173986143254
 30
0.0
 10
198.0862580994704
 20
124.8953821960194
 30
0.0
 10
197.8155248775196
 20
125.0769726514747
 30
0.0
 10
197.688455362553
 20
125.1806156945736
 30
0.0
 10
197.3454473515802
 20
125.5152962186266
 30
0.0
 10
197.1596150901763
 20
125.7784632910756
 30
0.0
 10
196.9718097270176
 20
126.1892151455564
 30
0.0
 10
196.9230696502393
 20
126.3314160507391
 30
0.0
 10
196.8583055981245
 20
126.6145571074854
 30
0.0
 10
196.8421134875904
 20
126.7544127636665
 30
0.0
 10
196.8418940804236
 20
127.0304179861539
 30
0.0
 10
196.8584421744571
 20
127.1673970356389
 30
0.0
 10
196.9228713281606
 20
127.4253782001119
 30
0.0
 10
196.9705297973456
 20
127.547961584167
 30
0.0
 10
197.0972257651443
 20
127.7811370183171
 30
0.0
 10
197.1747993509432
 20
127.8887916229003
 30
0.0
 10
197.3554059771234
 20
128.0861443635084
 30
0.0
 10
197.459959026239
 20
128.1770902857159
 30
0.0
 10
197.6899676665832
 20
128.3383497331304
 30
0.0
 10
197.814847724958
 20
128.4087233747891
 30
0.0
 10
198.0847472965879
 20
128.5310256401971
 30
0.0
 10
198.2308436630709
 20
128.5829902480138
 30
0.0
 10
198.5315562868795
 20
128.6650827950928
 30
0.0
 10
198.6875039752369
 20
128.6959739839612
 30
0.0
 10
199.0112838389854
 20
128.7378187012744
 30
0.0
 10
199.1769821827354
 20
128.7482626602895
 30
0.0
 10
199.5050260627427
 20
128.7483463798788
 30
0.0
 10
199.6703516140795
 20
128.7380305051899
 30
0.0
 10
199.9946800700898
 20
128.6963029136018
 30
0.0
 10
200.1510328709515
 20
128.6654214233405
 30
0.0
 10
200.4527490491807
 20
128.5831511901305
 30
0.0
 10
200.5988395788953
 20
128.5311804523299
 30
0.0
 10
200.8685533563004
 20
128.4090328772567
 30
0.0
 10
200.9937346899435
 20
128.3385860157545
 30
0.0
 10
201.3403452303711
 20
128.0955074772711
 30
0.0
 10
201.5234880652594
 20
127.8974777570797
 30
0.0
 10
201.7131546253987
 20
127.5486266448673
 30
0.0
 10
201.7607923728272
 20
127.4263247615782
 30
0.0
 10
201.8253106077594
 20
127.1688347175662
 30
0.0
 10
201.8420077135012
 20
127.0319249546577
 30
0.0
 10
201.8419987411337
 20
126.7555879042716
 30
0.0
 10
201.8258679051872
 20
126.6156039311879
 30
0.0
 10
201.7612082285186
 20
126.3322883006573
 30
0.0
 10
201.7125378738793
 20
126.1900468046648
 30
0.0
 10
201.5871085015606
 20
125.9155476276349
 30
0.0
 10
201.5093648490704
 20
125.7808056808708
 30
0.0
 10
201.3270653620575
 20
125.5238925522026
 30
0.0
 10
201.2241022087633
 20
125.4035730578814
 30
0.0
 10
200.9949012364708
 20
125.180026794502
 30
0.0
 10
200.8672702583627
 20
125.0760920335094
 30
0.0
 10
200.5974245969261
 20
124.8952335692432
 30
0.0
 10
200.4545698535391
 20
124.8173194746209
 30
0.0
 10
200.152172326293
 20
124.688632278319
 30
0.0
 10
199.9929570953483
 20
124.6385265500108
 30
0.0
 10
199.6720693640301
 20
124.5721134336653
 30
0.0
 10
199.5085561360011
 20
124.5549518078471
 30
0.0
 10
199.1754503204876
 20
124.5549518078471
 30
0.0
  0
LINE
  5
127
330
1F
100
AcDbEntity
  8
0
  6
HIDDEN
 62
     7
370
     0
100
AcDbLine
 10
205.3420032282
 20
115.6951805202
 30
0.0
 11
205.3420032282
 21
130.1951805202
 31
0.0
  0
LINE
  5
128
330
1F
100
AcDbEntity
  8
0
  6
HIDDEN
 62
     7
370
     0
100
AcDbLine
 10
226.1565897532
 20
124.49022572
 30
0.0
 11
231.9342351213
 21
118.8003557673
 31
0.0
  0
SPLINE
  5
129
330
1F
100
AcDbEntity
  8
0
  6
HIDDEN
 62
     7
370
     0
100
AcDbSpline
210
0.0
220
0.0
230
1.0
 70
     8
 71
     3
 72
    14
 73
    10
 74
     0
 42
0.00000001
 43
0.00000001
 12
1.0
 22
0.0
 32
0.0
 13
1.0
 23
0.0
 33
0.0
 40
0.0
 40
0.0
 40
0.0
 40
0.0
 40
0.25
 40
0.25
 40
0.5
 40
0.5
 40
0.75
 40
0.75
 40
1.0
 40
1.0
 40
1.0
 40
1.0
 10
214.5406020665544
 20
108.1872596145289
 30
0.0
 10
214.5133528088706
 20
108.1898799353344
 30
0.0
 10
214.4681887848784
 20
108.2025454819187
 30
0.0
 10
214.3335349727498
 20
108.2623108538022
 30
0.0
 10
214.2417625017414
 20
108.3116036500684
 30
0.0
 10
214.0418450380209
 20
108.4401662825543
 30
0.0
 10
213.9384070261727
 20
108.5159834492202
 30
0.0
 10
213.7471437318079
 20
108.6692596810612
 30
0.0
 10
213.6578007085176
 20
108.747456999313
 30
0.0
 10
213.5746762402644
 20
108.824563613993
 30
0.0
  0
ARC
  5
12A
330
1F
100
AcDbEntity
  8
0
  6
HIDDEN
 62
     7
370
     0
100
AcDbCircle
 10
216.1628543898
 20
101.2574887472
 30
0.0
 40
2.077915037239892
100
AcDbArc
 50
85.5832592288
 51
257.7785959978
  0
SPLINE
  5
12B
330
1F
100
AcDbEntity
  8
0
  6
HIDDEN
 62
     7
370
     0
100
AcDbSpline
210
0.0
220
0.0
230
1.0
 70
     8
 71
     3
 72
    10
 73
     6
 74
     0
 42
0.00000001
 43
0.00000001
 12
1.0
 22
0.0
 32
0.0
 13
1.0
 23
0.0
 33
0.0
 40
0.0
 40
0.0
 40
0.0
 40
0.0
 40
0.5
 40
0.5
 40
1.0
 40
1.0
 40
1.0
 40
1.0
 10
215.4936378589603
 20
108.518801943192
 30
0.0
 10
215.3396817271215
 20
108.4025992981031
 30
0.0
 10
215.1832213852892
 20
108.3131958395304
 30
0.0
 10
214.8657025342931
 20
108.1978286110603
 30
0.0
 10
214.7051545730792
 20
108.1714360511329
 30
0.0
 10
214.5406020665544
 20
108.1872596145289
 30
0.0
  0
SPLINE
  5
12C
330
1F
100
AcDbEntity
  8
0
  6
HIDDEN
 62
     7
370
     0
100
AcDbSpline
210
0.0
220
0.0
230
1.0
 70
     8
 71
     3
 72
    18
 73
    14
 74
     0
 42
0.00000001
 43
0.00000001
 12
1.0
 22
0.0
 32
0.0
 13
1.0
 23
0.0
 33
0.0
 40
0.0
 40
0.0
 40
0.0
 40
0.0
 40
0.0920810654923092
 40
0.1848004698227771
 40
0.2795372830729185
 40
0.3749731304560159
 40
0.4669980983263376
 40
0.5596664775048318
 40
0.6543689728349981
 40
0.749776326145043
 40
0.8413694150320463
 40
0.9336018328768357
 40
1.0
 40
1.0
 40
1.0
 40
1.0
 10
216.1214394306301
 20
104.2128692964983
 30
0.0
 10
216.1211700239164
 20
103.4896292655458
 30
0.0
 10
216.1206293428655
 20
102.0381354453987
 30
0.0
 10
216.1235905901236
 20
100.0311036051986
 30
0.0
 10
216.1293173842713
 20
98.16058090875097
 30
0.0
 10
216.1379473340378
 20
96.48378476714372
 30
0.0
 10
216.1491431538891
 20
95.0134708748208
 30
0.0
 10
216.1627505861533
 20
93.748816785108
 30
0.0
 10
216.1788462721909
 20
92.6859534049668
 30
0.0
 10
216.1970138048417
 20
91.8517073246839
 30
0.0
 10
216.2169591361569
 20
91.26080403733792
 30
0.0
 10
216.2361558383377
 20
90.90698560783584
 30
0.0
 10
216.2493803724121
 20
90.8538683639105
 30
0.0
 10
216.2549157792428
 20
90.83163502448235
 30
0.0
  0
SPLINE
  5
12D
330
1F
100
AcDbEntity
  8
0
  6
HIDDEN
 62
     7
370
     0
100
AcDbSpline
210
0.0
220
0.0
230
1.0
 70
     8
 71
     3
 72
     8
 73
     4
 74
     0
 42
0.00000001
 43
0.00000001
 12
1.0
 22
0.0
 32
0.0
 13
1.0
 23
0.0
 33
0.0
 40
0.0
 40
0.0
 40
0.0
 40
0.0
 40
1.0
 40
1.0
 40
1.0
 40
1.0
 10
216.1214394306301
 20
104.2128692964983
 30
0.0
 10
215.8941790040451
 20
105.6454841983217
 30
0.0
 10
215.6833966596529
 20
107.0805680605189
 30
0.0
 10
215.4936378589603
 20
108.518801943192
 30
0.0
  0
LINE
  5
12E
330
1F
100
AcDbEntity
  8
0
  6
HIDDEN
 62
     7
370
     0
100
AcDbLine
 10
232.1777250385
 20
102.4961997863
 30
0.0
 11
233.7787612366
 21
100.9194869255
 31
0.0
  0
ELLIPSE
  5
12F
330
1F
100
AcDbEntity
  8
0
  6
HIDDEN
 62
     7
370
     0
100
AcDbEllipse
 10
216.3990657645
 20
123.9579756403
 30
0.0
 11
169.6090200775225
 21
-12.49565224517559
 31
0.0
210
0.0
220
0.0
230
1.0
 40
0.1916117708
 41
4.774614174462743
 42
4.858557377180972
  0
SPLINE
  5
130
330
1F
100
AcDbEntity
  8
0
  6
HIDDEN
 62
     7
370
     0
100
AcDbSpline
210
0.0
220
0.0
230
1.0
 70
     8
 71
     3
 72
    25
 73
    21
 74
     0
 42
0.00000001
 43
0.00000001
 12
1.0
 22
0.0
 32
0.0
 13
1.0
 23
0.0
 33
0.0
 40
0.0
 40
0.0
 40
0.0
 40
0.0
 40
0.0270033435982815
 40
0.0537363078622716
 40
0.080199447325157
 40
0.1063933336586282
 40
0.132318556347764
 40
0.1982351306516708
 40
0.2626295121509439
 40
0.3274253985632643
 40
0.3908378905755273
 40
0.5168650202105625
 40
0.6407215610610643
 40
0.7021108387044838
 40
0.7624711757375999
 40
0.822783535725049
 40
0.8821815486364006
 40
0.9218097951792781
 40
0.9610794309234572
 40
1.0
 40
1.0
 40
1.0
 40
1.0
 10
230.2646314598006
 20
102.0729167904232
 30
0.0
 10
230.3581535419183
 20
101.9309646528989
 30
0.0
 10
230.5442612873649
 20
101.6484817175559
 30
0.0
 10
230.8196834113729
 20
101.2317239349995
 30
0.0
 10
231.0905727164966
 20
100.822775637901
 30
0.0
 10
231.3567660733716
 20
100.4219531840755
 30
0.0
 10
231.7536773787241
 20
99.82582474516757
 30
0.0
 10
232.2719817106563
 20
99.05097758207869
 30
0.0
 10
232.9056109834715
 20
98.1104349950688
 30
0.0
 10
233.5166702611052
 20
97.21019021229746
 30
0.0
 10
234.3028221819478
 20
96.06141803254503
 30
0.0
 10
235.2318165467317
 20
94.72188058644643
 30
0.0
 10
236.0944036990236
 20
93.50403273435778
 30
0.0
 10
236.7344539784843
 20
92.61744082867945
 30
0.0
 10
237.1880165499496
 20
91.99826461068895
 30
0.0
 10
237.6147836438241
 20
91.42521294000744
 30
0.0
 10
237.9722804552227
 20
90.95419265726566
 30
0.0
 10
238.2669296212839
 20
90.57310302747332
 30
0.0
 10
238.507977081171
 20
90.26607366707873
 30
0.0
 10
238.658601449444
 20
90.0787293523467
 30
0.0
 10
238.7335774153392
 20
89.98547537815206
 30
0.0
  0
SPLINE
  5
131
330
1F
100
AcDbEntity
  8
0
  6
HIDDEN
 62
     7
370
     0
100
AcDbSpline
210
0.0
220
0.0
230
1.0
 70
     8
 71
     3
 72
     9
 73
     5
 74
     0
 42
0.00000001
 43
0.00000001
 12
1.0
 22
0.0
 32
0.0
 13
1.0
 23
0.0
 33
0.0
 40
0.0
 40
0.0
 40
0.0
 40
0.0
 40
0.4966986434920868
 40
0.9999999999999999
 40
0.9999999999999999
 40
0.9999999999999999
 40
0.9999999999999999
 10
229.8147160537446
 20
102.7736479247119
 30
0.0
 10
229.8884449855117
 20
102.6566121305417
 30
0.0
 10
230.0368829422753
 20
102.4209847623102
 30
0.0
 10
230.188381875245
 20
102.1894490446237
 30
0.0
 10
230.2646314937181
 20
102.0729168038321
 30
0.0
  0
LINE
  5
132
330
1F
100
AcDbEntity
  8
0
  6
HIDDEN
 62
     7
370
     0
100
AcDbLine
 10
216.1214394306
 20
104.2128692965
 30
0.0
 11
229.8147160603
 21
102.7736479281
 31
0.0
  0
ELLIPSE
  5
133
330
1F
100
AcDbEntity
  8
0
  6
HIDDEN
 62
     7
370
     0
100
AcDbEllipse
 10
203.8841567188
 20
125.2733455849
 30
0.0
 11
-21.84550201690451
 21
35.45530065444144
 31
0.0
210
0.0
220
0.0
230
1.0
 40
0.047805889
 41
2.881157822768207
 42
3.10474202724407
  0
SPLINE
  5
134
330
1F
100
AcDbEntity
  8
0
  6
HIDDEN
 62
     7
370
     0
100
AcDbSpline
210
0.0
220
0.0
230
1.0
 70
     8
 71
     3
 72
    36
 73
    32
 74
     0
 42
0.00000001
 43
0.00000001
 12
1.0
 22
0.0
 32
0.0
 13
1.0
 23
0.0
 33
0.0
 40
0.0
 40
0.0
 40
0.0
 40
0.0
 40
0.1250000000000013
 40
0.1250000000000013
 40
0.2500000000000026
 40
0.2500000000000026
 40
0.3125000000000033
 40
0.3125000000000033
 40
0.3750000000000039
 40
0.3750000000000039
 40
0.4375000000000046
 40
0.4375000000000046
 40
0.4687500000000043
 40
0.4687500000000043
 40
0.500000000000004
 40
0.500000000000004
 40
0.5312500000000037
 40
0.5312500000000037
 40
0.5625000000000033
 40
0.5625000000000033
 40
0.6250000000000029
 40
0.6250000000000029
 40
0.6875000000000024
 40
0.6875000000000024
 40
0.7500000000000019
 40
0.7500000000000019
 40
0.8750000000000009
 40
0.8750000000000009
 40
0.9375000000000004
 40
0.9375000000000004
 40
1.0
 40
1.0
 40
1.0
 40
1.0
 10
219.2283614941826
 20
104.9187084014825
 30
0.0
 10
219.3247316823414
 20
104.8238022930245
 30
0.0
 10
219.4903827939569
 20
104.7278732424289
 30
0.0
 10
219.8933346185727
 20
104.5532563242076
 30
0.0
 10
220.1323250400221
 20
104.4734694933213
 30
0.0
 10
220.5473112897558
 20
104.3846896357682
 30
0.0
 10
220.6953157983607
 20
104.3603159755712
 30
0.0
 10
221.0169177245827
 20
104.3296292596094
 30
0.0
 10
221.188787616864
 20
104.3232644674386
 30
0.0
 10
221.5617998826835
 20
104.3443083427874
 30
0.0
 10
221.7655755500964
 20
104.370854273047
 30
0.0
 10
222.1026026337456
 20
104.4677388177252
 30
0.0
 10
222.2195823817084
 20
104.5098031436978
 30
0.0
 10
222.457926911137
 20
104.6215893363249
 30
0.0
 10
222.5806002250666
 20
104.6927479362658
 30
0.0
 10
222.8084152575605
 20
104.8602345184603
 30
0.0
 10
222.9111142594665
 20
104.9547010837473
 30
0.0
 10
223.0837591157053
 20
105.1458632446759
 30
0.0
 10
223.1541276349922
 20
105.2418211872396
 30
0.0
 10
223.3315144556816
 20
105.5242101647196
 30
0.0
 10
223.4044076785142
 20
105.701863429167
 30
0.0
 10
223.5078524050239
 20
106.0315184507379
 30
0.0
 10
223.5380725767291
 20
106.1856155182986
 30
0.0
 10
223.5745309472811
 20
106.4791207117753
 30
0.0
 10
223.5802281380301
 20
106.6184159422702
 30
0.0
 10
223.5723999576744
 20
107.009303410411
 30
0.0
 10
223.5352004608291
 20
107.2382482875941
 30
0.0
 10
223.4508377502343
 20
107.5294375806217
 30
0.0
 10
223.4176742584494
 20
107.6175233820372
 30
0.0
 10
223.3414047015144
 20
107.7706302557733
 30
0.0
 10
223.2981790388156
 20
107.8357386017098
 30
0.0
 10
223.2497238206784
 20
107.8834576762052
 30
0.0
  0
ELLIPSE
  5
135
330
1F
100
AcDbEntity
  8
0
  6
HIDDEN
 62
     7
370
     0
100
AcDbEllipse
 10
224.489064115
 20
102.3063068597
 30
0.0
 11
3.820382603358382
 21
-0.860968698268394
 31
0.0
210
0.0
220
0.0
230
1.0
 40
0.1511474516
 41
3.380155686705613
 42
6.52174834029521
  0
ELLIPSE
  5
136
330
1F
100
AcDbEntity
  8
0
  6
HIDDEN
 62
     7
370
     0
100
AcDbEllipse
 10
218.9883908594
 20
109.3842579016
 30
0.0
 11
3.169172162258378
 21
2.76263081903872
 31
0.0
210
0.0
220
0.0
230
1.0
 40
0.8059898683
 41
3.97360912122122
 42
5.248732962459619
  0
LINE
  5
137
330
1F
100
AcDbEntity
  8
0
  6
HIDDEN
 62
     7
370
     0
100
AcDbLine
 10
218.500457034
 20
105.6355543574
 30
0.0
 11
219.2283614942
 21
104.9187084015
 31
0.0
  0
LINE
  5
138
330
1F
100
AcDbEntity
  8
0
  6
HIDDEN
 62
     7
370
     0
100
AcDbLine
 10
223.2497238207
 20
107.8834576762
 30
0.0
 11
222.5218193604
 21
108.6003036321
 31
0.0
  0
SPLINE
  5
139
330
1F
100
AcDbEntity
  8
0
  6
HIDDEN
 62
     7
370
     0
100
AcDbSpline
210
0.0
220
0.0
230
1.0
 70
     8
 71
     3
 72
    14
 73
    10
 74
     0
 42
0.00000001
 43
0.00000001
 12
1.0
 22
0.0
 32
0.0
 13
1.0
 23
0.0
 33
0.0
 40
0.0
 40
0.0
 40
0.0
 40
0.0
 40
0.25
 40
0.25
 40
0.5
 40
0.5
 40
0.75
 40
0.75
 40
1.0
 40
1.0
 40
1.0
 40
1.0
 10
213.5746762402654
 20
116.2388846489197
 30
0.0
 10
213.6836525080009
 20
116.3071733937472
 30
0.0
 10
213.7890013724241
 20
116.3708831321652
 30
0.0
 10
213.9919634737023
 20
116.4909859537892
 30
0.0
 10
214.0892396082602
 20
116.5471669455809
 30
0.0
 10
214.2616144746981
 20
116.6484015426364
 30
0.0
 10
214.339252874363
 20
116.6950332012732
 30
0.0
 10
214.4632807612684
 20
116.7779576761384
 30
0.0
 10
214.5109182013744
 20
116.8149745948678
 30
0.0
 10
214.5406020665545
 20
116.8485266734634
 30
0.0
  0
ELLIPSE
  5
13A
330
1F
100
AcDbEntity
  8
0
  6
HIDDEN
 62
     7
370
     0
100
AcDbEllipse
 10
215.5403539294
 20
112.7799114029
 30
0.0
 11
-3.085533036944582
 21
3.038656856958568
 31
0.0
210
0.0
220
0.0
230
1.0
 40
0.9698463104
 41
2.322290331121996
 42
5.682517303392444
  0
SPLINE
  5
13B
330
1F
100
AcDbEntity
  8
0
  6
HIDDEN
 62
     7
370
     0
100
AcDbSpline
210
0.0
220
0.0
230
1.0
 70
     8
 71
     3
 72
     8
 73
     4
 74
     0
 42
0.00000001
 43
0.00000001
 12
1.0
 22
0.0
 32
0.0
 13
1.0
 23
0.0
 33
0.0
 40
0.0
 40
0.0
 40
0.0
 40
0.0
 40
1.0
 40
1.0
 40
1.0
 40
1.0
 10
214.5406020665544
 20
116.8485266734634
 30
0.0
 10
214.5803336743351
 20
116.8934358528743
 30
0.0
 10
214.6203258949852
 20
116.936592670674
 30
0.0
 10
214.6605607977089
 20
116.9780144582277
 30
0.0
  0
LWPOLYLINE
  5
13C
330
1F
100
AcDbEntity
  8
0
  6
HIDDEN
 62
     7
370
     0
100
AcDbPolyline
 90
       37
 70
   128
 43
0.0
 10
224.5642776185
 20
107.964527822
 10
224.4794875365
 20
107.2459489186
 10
224.2716565104
 20
106.5492036716
 10
223.9470993809
 20
105.8954623327
 10
223.515677652
 20
105.3045885016
 10
222.9904998546
 20
104.7945355809
 10
222.3875232504
 20
104.3808012703
 10
221.7250689785
 20
104.0759566775
 10
221.0232653765
 20
103.8892643512
 10
220.3034363919
 20
103.8263968433
 10
219.587453664
 20
103.8892643512
 10
218.8970719658
 20
104.0759566775
 10
218.2532681958
 20
104.3808012703
 10
217.6756040059
 20
104.7945355809
 10
217.18163143
 20
105.3045885016
 10
216.7863595749
 20
105.8954623327
 10
216.501798576
 20
106.5492036716
 10
216.3365946751
 20
107.2459489186
 10
216.2957675093
 20
107.964527822
 10
216.3805575913
 20
108.6831067254
 10
216.5883886174
 20
109.3798519725
 10
216.912945747
 20
110.0335933114
 10
217.3443674759
 20
110.6244671424
 10
217.8695452732
 20
111.1345200632
 10
218.4725218774
 20
111.5482543738
 10
219.1349761494
 20
111.8530989666
 10
219.8367797514
 20
112.0397912928
 10
220.556608736
 20
112.1026588007
 10
221.2725914638
 20
112.0397912928
 10
221.962973162
 20
111.8530989666
 10
222.606776932
 20
111.5482543738
 10
223.184441122
 20
111.1345200632
 10
223.6784136979
 20
110.6244671424
 10
224.0736855529
 20
110.0335933114
 10
224.3582465519
 20
109.3798519725
 10
224.5234504527
 20
108.6831067254
 10
224.5642776185
 20
107.964527822
  0
LINE
  5
13D
330
1F
100
AcDbEntity
  8
0
  6
HIDDEN
 62
     7
370
     0
100
AcDbLine
 10
227.0549347363
 20
102.7653574563
 30
0.0
 11
229.4385358341
 21
99.4651504842
 31
0.0
  0
LINE
  5
13E
330
1F
100
AcDbEntity
  8
0
  6
HIDDEN
 62
     7
370
     0
100
AcDbLine
 10
228.9005411121
 20
99.9949718575
 30
0.0
 11
229.4385358341
 21
99.4651504842
 31
0.0
  0
LINE
  5
13F
330
1F
100
AcDbEntity
  8
0
  6
HIDDEN
 62
     7
370
     0
100
AcDbLine
 10
225.0115400473
 20
104.8948130213
 30
0.0
 11
222.5218193604
 21
108.6003036321
 31
0.0
  0
LINE
  5
140
330
1F
100
AcDbEntity
  8
0
  6
HIDDEN
 62
     7
370
     0
100
AcDbLine
 10
227.0549347363
 20
102.7653574563
 30
0.0
 11
228.2319992555
 21
101.606175192
 31
0.0
  0
LINE
  5
141
330
1F
100
AcDbEntity
  8
0
  6
HIDDEN
 62
     7
370
     0
100
AcDbLine
 10
225.4171735076
 20
96.5004012095
 30
0.0
 11
220.6491703263
 21
103.1019241557
 31
0.0
  0
ARC
  5
142
330
1F
100
AcDbEntity
  8
0
  6
HIDDEN
 62
     7
370
     0
100
AcDbCircle
 10
228.5820145775
 20
96.4172825329
 30
0.0
 40
3.165932360569562
100
AcDbArc
 50
178.4955785245
 51
74.3034110805
  0
LINE
  5
143
330
1F
100
AcDbEntity
  8
0
  6
HIDDEN
 62
     7
370
     0
100
AcDbLine
 10
233.8188392968
 20
99.1910980801
 30
0.0
 11
239.01032951
 21
90.446709356
 31
0.0
  0
LINE
  5
144
330
1F
100
AcDbEntity
  8
0
  6
HIDDEN
 62
     7
370
     0
100
AcDbLine
 10
238.7335774642
 20
89.9854768315
 30
0.0
 11
239.0103294639
 21
90.4467093827
 31
0.0
  0
LINE
  5
145
330
1F
100
AcDbEntity
  8
0
  6
HIDDEN
 62
     7
370
     0
100
AcDbLine
 10
219.6531896279
 20
99.0037841541
 30
0.0
 11
224.5565303124
 21
90.7447457603
 31
0.0
  0
ARC
  5
146
330
1F
100
AcDbEntity
  8
0
  6
HIDDEN
 62
     7
370
     0
100
AcDbCircle
 10
255.0513697666
 20
111.7938827585
 30
0.0
 40
24.69110227999339
100
AcDbArc
 50
202.120766975
 51
210.6916809348
  0
LINE
  5
147
330
1F
100
AcDbEntity
  8
0
  6
HIDDEN
 62
     7
370
     0
100
AcDbLine
 10
220.6491703263
 20
103.1019241557
 30
0.0
 11
216.3228753443
 21
103.3292329872
 31
0.0
  0
LINE
  5
148
330
1F
100
AcDbEntity
  8
0
  6
HIDDEN
 62
     7
370
     0
100
AcDbLine
 10
232.1777250385
 20
102.4961997863
 30
0.0
 11
227.0549347363
 21
102.7653574563
 31
0.0
  0
LINE
  5
149
330
1F
100
AcDbEntity
  8
0
  6
HIDDEN
 62
     7
370
     0
100
AcDbLine
 10
220.7461289744
 20
103.0064385273
 30
0.0
 11
220.6491703263
 21
103.1019241557
 31
0.0
  0
LINE
  5
14A
330
1F
100
AcDbEntity
  8
0
  6
HIDDEN
 62
     7
370
     0
100
AcDbLine
 10
152.8420032282
 20
139.8045317621
 30
0.0
 11
152.8420032282
 21
134.9947530456
 31
0.0
  0
LINE
  5
14B
330
1F
100
AcDbEntity
  8
0
  6
HIDDEN
 62
     7
370
     0
100
AcDbLine
 10
179.1420032282
 20
140.4652793047
 30
0.0
 11
179.1420032282
 21
135.3251268169
 31
0.0
  0
SPLINE
  5
14C
330
1F
100
AcDbEntity
  8
0
  6
HIDDEN
 62
     7
370
     0
100
AcDbSpline
210
0.0
220
0.0
230
1.0
 70
     8
 71
     3
 72
    18
 73
    14
 74
     0
 42
0.00000001
 43
0.00000001
 12
1.0
 22
0.0
 32
0.0
 13
1.0
 23
0.0
 33
0.0
 40
0.0
 40
0.0
 40
0.0
 40
0.0
 40
0.2500000000000004
 40
0.2500000000000004
 40
0.3750000000000004
 40
0.3750000000000004
 40
0.5000000000000004
 40
0.5000000000000004
 40
0.6250000000000004
 40
0.6250000000000004
 40
0.7500000000000004
 40
0.7500000000000004
 40
1.0
 40
1.0
 40
1.0
 40
1.0
 10
180.0206828846848
 20
140.2420903881691
 30
0.0
 10
179.8853972783824
 20
140.1707376464796
 30
0.0
 10
179.7842295321394
 20
140.0253342398901
 30
0.0
 10
179.6813681892705
 20
139.6958670042845
 30
0.0
 10
179.6552653437472
 20
139.5669334274797
 30
0.0
 10
179.6203753602024
 20
139.2713914281437
 30
0.0
 10
179.6117891019124
 20
139.1069966546217
 30
0.0
 10
179.6116893923467
 20
138.7460350398811
 30
0.0
 10
179.6201777634953
 20
138.5494652477189
 30
0.0
 10
179.6543211430159
 20
138.1241104515939
 30
0.0
 10
179.6801181248697
 20
137.8943408017943
 30
0.0
 10
179.7835192562576
 20
137.1617521073619
 30
0.0
 10
179.885377248429
 20
136.6245153324444
 30
0.0
 10
180.0206828846848
 20
136.0402272436967
 30
0.0
  0
LINE
  5
14D
330
1F
100
AcDbEntity
  8
0
  6
HIDDEN
 62
     7
370
     0
100
AcDbLine
 10
151.3420032282
 20
138.9385063583
 30
0.0
 11
151.3420032282
 21
134.5617403437
 31
0.0
  0
LINE
  5
14E
330
1F
100
AcDbEntity
  8
0
  6
HIDDEN
 62
     7
370
     0
100
AcDbLine
 10
152.8420032282
 20
110.8956079947
 30
0.0
 11
152.8420032282
 21
106.0858292782
 31
0.0
  0
LINE
  5
14F
330
1F
100
AcDbEntity
  8
0
  6
HIDDEN
 62
     7
370
     0
100
AcDbLine
 10
151.3420032282
 20
111.3286206966
 30
0.0
 11
151.3420032282
 21
106.951854682
 31
0.0
  0
LINE
  5
150
330
1F
100
AcDbEntity
  8
0
  6
HIDDEN
 62
     7
370
     0
100
AcDbLine
 10
179.1420032282
 20
110.5652342234
 30
0.0
 11
179.1420032282
 21
105.4250817356
 31
0.0
  0
SPLINE
  5
151
330
1F
100
AcDbEntity
  8
0
  6
HIDDEN
 62
     7
370
     0
100
AcDbSpline
210
0.0
220
0.0
230
1.0
 70
     8
 71
     3
 72
    18
 73
    14
 74
     0
 42
0.00000001
 43
0.00000001
 12
1.0
 22
0.0
 32
0.0
 13
1.0
 23
0.0
 33
0.0
 40
0.0
 40
0.0
 40
0.0
 40
0.0
 40
0.2499999999999995
 40
0.2499999999999995
 40
0.3749999999999997
 40
0.3749999999999997
 40
0.4999999999999999
 40
0.4999999999999999
 40
0.6250000000000001
 40
0.6250000000000001
 40
0.7500000000000002
 40
0.7500000000000002
 40
1.0
 40
1.0
 40
1.0
 40
1.0
 10
180.0206828846848
 20
109.8501337966319
 30
0.0
 10
179.8853972783824
 20
109.2659322029002
 30
0.0
 10
179.7842295321394
 20
108.731714515692
 30
0.0
 10
179.6813681892705
 20
108.0058177448036
 30
0.0
 10
179.6552653437472
 20
107.7759372570237
 30
0.0
 10
179.6203753602024
 20
107.3453663122369
 30
0.0
 10
179.6117891019124
 20
107.1476714067427
 30
0.0
 10
179.6116893923467
 20
106.7863233640649
 30
0.0
 10
179.6201777634953
 20
106.6226733541188
 30
0.0
 10
179.6543211430159
 20
106.3294620811498
 30
0.0
 10
179.6801181248697
 20
106.199466015034
 30
0.0
 10
179.7835192562576
 20
105.8654101224721
 30
0.0
 10
179.885377248429
 20
105.7196339581073
 30
0.0
 10
180.0206828846847
 20
105.6482706521595
 30
0.0
  0
LWPOLYLINE
  5
152
330
1F
100
AcDbEntity
  8
0
  6
HIDDEN
 62
     7
370
     0
100
AcDbPolyline
 90
       29
 70
   128
 43
0.0
 10
199.3420032282
 20
130.4883806567
 10
199.8983055631
 20
130.540948712
 10
200.426712576
 20
130.6960168962
 10
200.9007277329
 20
130.945809443
 10
201.2965819344
 20
131.277800711
 10
201.594425398
 20
131.6753432718
 10
201.7793230087
 20
132.1185026814
 10
201.8420032282
 20
132.5850570766
 10
201.7793230087
 20
133.0516114717
 10
201.594425398
 20
133.4947708813
 10
201.2965819344
 20
133.8923134422
 10
200.9007277329
 20
134.2243047102
 10
200.426712576
 20
134.4740972569
 10
199.8983055631
 20
134.6291654411
 10
199.3420032282
 20
134.6817334964
 10
198.7857008934
 20
134.6291654411
 10
198.2572938805
 20
134.4740972569
 10
197.7832787236
 20
134.2243047102
 10
197.3874245221
 20
133.8923134422
 10
197.0895810585
 20
133.4947708813
 10
196.9046834478
 20
133.0516114717
 10
196.8420032282
 20
132.5850570766
 10
196.9046834478
 20
132.1185026814
 10
197.0895810585
 20
131.6753432718
 10
197.3874245221
 20
131.277800711
 10
197.7832787236
 20
130.945809443
 10
198.2572938805
 20
130.6960168962
 10
198.7857008934
 20
130.540948712
 10
199.3420032282
 20
130.4883806567
  0
SPLINE
  5
153
330
1F
100
AcDbEntity
  8
0
  6
HIDDEN
 62
     7
370
     0
100
AcDbSpline
210
0.0
220
0.0
230
1.0
 70
     8
 71
     3
 72
    10
 73
     6
 74
     0
 42
0.00000001
 43
0.00000001
 12
1.0
 22
0.0
 32
0.0
 13
1.0
 23
0.0
 33
0.0
 40
0.0
 40
0.0
 40
0.0
 40
0.0
 40
0.5
 40
0.5
 40
1.0
 40
1.0
 40
1.0
 40
1.0
 10
224.4948594486536
 20
97.8631909765901
 30
0.0
 10
224.5445254273604
 20
97.68029177984597
 30
0.0
 10
224.6041196569624
 20
97.51336844809205
 30
0.0
 10
224.7343996274683
 20
97.2258391337065
 30
0.0
 10
224.8049125545519
 20
97.10336054294
 30
0.0
 10
224.8791787856424
 20
97.03022258277511
 30
0.0
  0
ARC
  5
154
330
1F
100
AcDbEntity
  8
0
  6
HIDDEN
 62
     7
370
     0
100
AcDbCircle
 10
227.6159039291
 20
97.3712532367
 30
0.0
 40
3.159576140715962
100
AcDbArc
 50
171.0427555279
 51
81.7562340771
  0
SPLINE
  5
155
330
1F
100
AcDbEntity
  8
0
  6
HIDDEN
 62
     7
370
     0
100
AcDbSpline
210
0.0
220
0.0
230
1.0
 70
     8
 71
     3
 72
    10
 73
     6
 74
     0
 42
0.00000001
 43
0.00000001
 12
1.0
 22
0.0
 32
0.0
 13
1.0
 23
0.0
 33
0.0
 40
0.0
 40
0.0
 40
0.0
 40
0.0
 40
0.5
 40
0.5
 40
1.0
 40
1.0
 40
1.0
 40
1.0
 10
228.9005411121385
 20
99.99497185749853
 30
0.0
 10
228.8263620189198
 20
100.0680240036117
 30
0.0
 10
228.7047866291317
 20
100.1530414357933
 30
0.0
 10
228.4190429294584
 20
100.325963375619
 30
0.0
 10
228.2529311300194
 20
100.4143432608921
 30
0.0
 10
228.0689395706484
 20
100.4981814572211
 30
0.0
  0
LINE
  5
156
330
1F
100
AcDbEntity
  8
0
  6
HIDDEN
 62
     7
370
     0
100
AcDbLine
 10
225.4171735076
 20
96.5004012095
 30
0.0
 11
224.8791787856
 21
97.0302225828
 31
0.0
  0
ELLIPSE
  5
157
330
1F
100
AcDbEntity
  8
0
  6
HIDDEN
 62
     7
370
     0
100
AcDbEllipse
 10
225.4963819518
 20
100.268271939
 30
0.0
 11
-1.651289096608394
 21
2.417222755668859
 31
0.0
210
0.0
220
0.0
230
1.0
 40
0.8531826433
 41
2.077626346985167
 42
4.266950717528246
  0
LWPOLYLINE
  5
158
330
1F
100
AcDbEntity
  8
0
  6
HIDDEN
 62
     7
370
     0
100
AcDbPolyline
 90
       15
 70
   128
 43
0.0
 10
225.0115400473
 20
104.8948130213
 10
225.1692180118
 20
104.5479432521
 10
225.2181653952
 20
104.1441345274
 10
225.1559277716
 20
103.7036355027
 10
224.9856259951
 20
103.2485346386
 10
224.715799708
 20
102.8016525927
 10
224.3599791271
 20
102.3853978967
 10
223.9360065819
 20
102.0206432994
 10
223.4651418264
 20
101.7256791192
 10
222.9709959855
 20
101.5152960918
 10
222.478347595
 20
101.4000437007
 10
222.0119001023
 20
101.3857011821
 10
221.5950431325
 20
101.4729877297
 10
221.2486796347
 20
101.6575264316
 10
220.9901777208
 20
101.9300637466
  0
SPLINE
  5
159
330
1F
100
AcDbEntity
  8
0
  6
HIDDEN
 62
     7
370
     0
100
AcDbSpline
210
0.0
220
0.0
230
1.0
 70
     8
 71
     3
 72
    25
 73
    21
 74
     0
 42
0.00000001
 43
0.00000001
 12
1.0
 22
0.0
 32
0.0
 13
1.0
 23
0.0
 33
0.0
 40
0.0
 40
0.0
 40
0.0
 40
0.0
 40
0.023410154893692
 40
0.0468810947837154
 40
0.0704197027518906
 40
0.0940328027055542
 40
0.1177271541916768
 40
0.1772887606491725
 40
0.2373717144039872
 40
0.297953363569803
 40
0.3590837445591705
 40
0.482930786071628
 40
0.6089757323727214
 40
0.7372074541322466
 40
0.7804364450652971
 40
0.8238894671296241
 40
0.8675909531861732
 40
0.9114986657830227
 40
0.9556276090484753
 40
1.0
 40
1.0
 40
1.0
 40
1.0
 10
239.010329568625
 20
90.44670929821189
 30
0.0
 10
238.9653714999703
 20
90.50203322023533
 30
0.0
 10
238.8753386280194
 20
90.61282471409628
 30
0.0
 10
238.7350251736966
 20
90.78805841136577
 30
0.0
 10
238.5906618182343
 20
90.97015357639593
 30
0.0
 10
238.4418775433992
 20
91.15975272129533
 30
0.0
 10
238.2117198526627
 20
91.45579025823908
 30
0.0
 10
237.889667722008
 20
91.87631749438603
 30
0.0
 10
237.4619755043781
 20
92.44541915868479
 30
0.0
 10
237.008706013574
 20
93.05852185301158
 30
0.0
 10
236.3684237343327
 20
93.93719632712732
 30
0.0
 10
235.5065054358984
 20
95.14262701539593
 30
0.0
 10
234.3859426294935
 20
96.74293242177978
 30
0.0
 10
233.4535760696857
 20
98.09801303047759
 30
0.0
 10
232.7591056046335
 20
99.11764736736214
 30
0.0
 10
232.3315999817616
 20
99.74833534791524
 30
0.0
 10
231.8959934495763
 20
100.3939174753126
 30
0.0
 10
231.4524105499119
 20
101.0542716804735
 30
0.0
 10
231.0015218645763
 20
101.7281542859369
 30
0.0
 10
230.6958756460817
 20
102.1873185919007
 30
0.0
 10
230.5426321541062
 20
102.4175322748409
 30
0.0
  0
LINE
  5
15A
330
1F
100
AcDbEntity
  8
0
  6
HIDDEN
 62
     7
370
     0
100
AcDbLine
 10
218.500457034
 20
105.6355543574
 30
0.0
 11
220.9901777208
 21
101.9300637466
 31
0.0
  0
LINE
  5
15B
330
1F
100
AcDbEntity
  8
0
  6
HIDDEN
 62
     7
370
     0
100
AcDbLine
 10
151.3420032282
 20
134.5617403437
 30
0.0
 11
151.3420032282
 21
125.2843514484
 31
0.0
  0
LINE
  5
15C
330
1F
100
AcDbEntity
  8
0
  6
HIDDEN
 62
     7
370
     0
100
AcDbLine
 10
151.3420032282
 20
120.6060095919
 30
0.0
 11
151.3420032282
 21
111.3286206966
 31
0.0
  0
LINE
  5
15D
330
1F
100
AcDbEntity
  8
0
  6
HIDDEN
 62
     7
370
     0
100
AcDbLine
 10
152.8420032282
 20
119.7967034018
 30
0.0
 11
152.8420032282
 21
110.8956079947
 31
0.0
  0
LINE
  5
15E
330
1F
100
AcDbEntity
  8
0
  6
HIDDEN
 62
     7
370
     0
100
AcDbLine
 10
152.8420032282
 20
134.9947530456
 30
0.0
 11
152.8420032282
 21
126.0936576385
 31
0.0
  0
LINE
  5
15F
330
1F
100
AcDbEntity
  8
0
  6
HIDDEN
 62
     7
370
     0
100
AcDbLine
 10
179.1420032282
 20
135.3251268169
 30
0.0
 11
179.1420032282
 21
110.5652342234
 31
0.0
  0
LINE
  5
160
330
1F
100
AcDbEntity
  8
0
  6
HIDDEN
 62
     7
370
     0
100
AcDbLine
 10
181.1420032282
 20
134.5074547533
 30
0.0
 11
181.1420032282
 21
111.3829062871
 31
0.0
  0
LWPOLYLINE
  5
161
330
1F
100
AcDbEntity
  8
0
  6
HIDDEN
 62
     7
370
     0
100
AcDbPolyline
 90
       32
 70
   128
 43
0.0
 10
199.3420032282
 20
130.2326714466
 10
199.9458987885
 20
130.284174354
 10
200.5250707936
 20
130.4365745411
 10
201.0558078735
 20
130.6836327263
 10
201.5163815899
 20
131.0152343185
 10
201.8879360007
 20
131.4178035095
 10
202.1552596247
 20
131.8748590695
 10
202.3074082012
 20
132.3676890899
 10
202.3381527498
 20
132.876117052
 10
202.2462345848
 20
133.3793278552
 10
202.035416847
 20
133.8567199901
 10
201.7143304391
 20
134.2887489665
 10
201.2961206764
 20
134.6577274675
 10
200.7979091158
 20
134.9485494699
 10
200.2400925972
 20
135.1493086866
 10
199.6455081942
 20
135.2517860119
 10
199.0384982623
 20
135.2517860119
 10
198.4439138593
 20
135.1493086866
 10
197.8860973407
 20
134.9485494699
 10
197.3878857801
 20
134.6577274675
 10
196.9696760174
 20
134.2887489665
 10
196.6485896095
 20
133.8567199901
 10
196.4377718716
 20
133.3793278552
 10
196.3458537067
 20
132.876117052
 10
196.3765982553
 20
132.3676890899
 10
196.5287468318
 20
131.8748590695
 10
196.7960704558
 20
131.4178035095
 10
197.1676248666
 20
131.0152343185
 10
197.628198583
 20
130.6836327263
 10
198.1589356629
 20
130.4365745411
 10
198.738107668
 20
130.284174354
 10
199.3420032282
 20
130.2326714466
  0
SPLINE
  5
162
330
1F
100
AcDbEntity
  8
0
  6
HIDDEN
 62
     7
370
     0
100
AcDbSpline
210
0.0
220
0.0
230
1.0
 70
     8
 71
     3
 72
     8
 73
     4
 74
     0
 42
0.00000001
 43
0.00000001
 12
1.0
 22
0.0
 32
0.0
 13
1.0
 23
0.0
 33
0.0
 40
0.0000202085968836
 40
0.0000202085968836
 40
0.0000202085968836
 40
0.0000202085968836
 40
0.0040218806502652
 40
0.0040218806502652
 40
0.0040218806502652
 40
0.0040218806502652
 10
152.8420032282444
 20
119.7967034018276
 30
0.0
 10
154.175326354035
 20
119.7727051706639
 30
0.0
 10
155.5086602272576
 20
119.7493774304956
 30
0.0
 10
156.8420032282444
 20
119.7266827597152
 30
0.0
  0
SPLINE
  5
163
330
1F
100
AcDbEntity
  8
0
  6
HIDDEN
 62
     7
370
     0
100
AcDbSpline
210
0.0
220
0.0
230
1.0
 70
     8
 71
     3
 72
     8
 73
     4
 74
     0
 42
0.00000001
 43
0.00000001
 12
1.0
 22
0.0
 32
0.0
 13
1.0
 23
0.0
 33
0.0
 40
0.0000202082942178
 40
0.0000202082942178
 40
0.0000202082942178
 40
0.0000202082942178
 40
0.0040218803475994
 40
0.0040218803475994
 40
0.0040218803475994
 40
0.0040218803475994
 10
156.8420032282444
 20
126.1636782806133
 30
0.0
 10
155.5086602272576
 20
126.1409836098329
 30
0.0
 10
154.175326354035
 20
126.1176558696646
 30
0.0
 10
152.8420032282444
 20
126.093657638501
 30
0.0
  0
SPLINE
  5
164
330
1F
100
AcDbEntity
  8
0
  6
HIDDEN
 62
     7
370
     0
100
AcDbSpline
210
0.0
220
0.0
230
1.0
 70
     8
 71
     3
 72
     8
 73
     4
 74
     0
 42
0.00000001
 43
0.00000001
 12
1.0
 22
0.0
 32
0.0
 13
1.0
 23
0.0
 33
0.0
 40
0.0
 40
0.0
 40
0.0
 40
0.0
 40
1.0
 40
1.0
 40
1.0
 40
1.0
 10
151.3420032282434
 20
120.6060095919299
 30
0.0
 10
151.8162146386814
 20
120.2712803646348
 30
0.0
 10
152.3209509857833
 20
120.0122219508019
 30
0.0
 10
152.8420032282444
 20
119.7967034018276
 30
0.0
  0
SPLINE
  5
165
330
1F
100
AcDbEntity
  8
0
  6
HIDDEN
 62
     7
370
     0
100
AcDbSpline
210
0.0
220
0.0
230
1.0
 70
     8
 71
     3
 72
     8
 73
     4
 74
     0
 42
0.00000001
 43
0.00000001
 12
1.0
 22
0.0
 32
0.0
 13
1.0
 23
0.0
 33
0.0
 40
0.0
 40
0.0
 40
0.0
 40
0.0
 40
1.0
 40
1.0
 40
1.0
 40
1.0
 10
152.8420032282444
 20
126.093657638501
 30
0.0
 10
152.3209509857836
 20
125.8781390895268
 30
0.0
 10
151.8162146386821
 20
125.6190806756941
 30
0.0
 10
151.3420032282444
 20
125.2843514483993
 30
0.0
  0
LINE
  5
166
330
1F
100
AcDbEntity
  8
0
  6
HIDDEN
 62
     7
370
     0
100
AcDbLine
 10
151.3420032282
 20
120.6060095919
 30
0.0
 11
151.3420032282
 21
125.2843514484
 31
0.0
  0
LINE
  5
167
330
1F
100
AcDbEntity
  8
0
  6
HIDDEN
 62
     7
370
     0
100
AcDbLine
 10
156.8420032282
 20
119.7266827597
 30
0.0
 11
156.8420032282
 21
126.1636782806
 31
0.0
  0
SPLINE
  5
168
330
1F
100
AcDbEntity
  8
0
  6
HIDDEN
 62
     7
370
     0
100
AcDbSpline
210
0.0
220
0.0
230
1.0
 70
     8
 71
     3
 72
    26
 73
    22
 74
     0
 42
0.00000001
 43
0.00000001
 12
1.0
 22
0.0
 32
0.0
 13
1.0
 23
0.0
 33
0.0
 40
0.0
 40
0.0
 40
0.0
 40
0.0
 40
0.1250000000000002
 40
0.1250000000000002
 40
0.2500000000000003
 40
0.2500000000000003
 40
0.3750000000000005
 40
0.3750000000000005
 40
0.4375000000000006
 40
0.4375000000000006
 40
0.5000000000000007
 40
0.5000000000000007
 40
0.5625000000000008
 40
0.5625000000000008
 40
0.6250000000000009
 40
0.6250000000000009
 40
0.7500000000000006
 40
0.7500000000000006
 40
0.8750000000000002
 40
0.8750000000000002
 40
1.0
 40
1.0
 40
1.0
 40
1.0
 10
156.8420032282444
 20
119.7266827597152
 30
0.0
 10
157.0526465902443
 20
119.9612997906603
 30
0.0
 10
157.2598430280013
 20
120.1991829266197
 30
0.0
 10
157.6613421626336
 20
120.6864972328886
 30
0.0
 10
157.8566185816796
 20
120.9366224576776
 30
0.0
 10
158.2163990743751
 20
121.4552126031285
 30
0.0
 10
158.3816579345245
 20
121.7226435870154
 30
0.0
 10
158.5743158439506
 20
122.1540587194139
 30
0.0
 10
158.6292805841607
 20
122.3040776013383
 30
0.0
 10
158.7070163691248
 20
122.6168147800683
 30
0.0
 10
158.7282825074331
 20
122.7745690268755
 30
0.0
 10
158.7301764367189
 20
123.0932743067213
 30
0.0
 10
158.7099506996518
 20
123.2557111069019
 30
0.0
 10
158.635486289366
 20
123.5666631064845
 30
0.0
 10
158.5818471636201
 20
123.7173343448122
 30
0.0
 10
158.3871028582194
 20
124.1594181027808
 30
0.0
 10
158.2200527450411
 20
124.4294621159485
 30
0.0
 10
157.8597966263375
 20
124.9495697442299
 30
0.0
 10
157.6650442513171
 20
125.1992309570396
 30
0.0
 10
157.2620350268448
 20
125.6886550688823
 30
0.0
 10
157.0535985084813
 20
125.9280009920463
 30
0.0
 10
156.8420032282453
 20
126.1636782806142
 30
0.0
  0
SPLINE
  5
169
330
1F
100
AcDbEntity
  8
0
  6
HIDDEN
 62
     7
370
     0
100
AcDbSpline
210
0.0
220
0.0
230
1.0
 70
     8
 71
     3
 72
    68
 73
    64
 74
     0
 42
0.00000001
 43
0.00000001
 12
1.0
 22
0.0
 32
0.0
 13
1.0
 23
0.0
 33
0.0
 40
-0.0312500000000001
 40
-0.0312500000000001
 40
0.0
 40
0.0
 40
0.0312499999999999
 40
0.0312499999999999
 40
0.0624999999999998
 40
0.0624999999999998
 40
0.0937499999999997
 40
0.0937499999999997
 40
0.1249999999999996
 40
0.1249999999999996
 40
0.1562499999999995
 40
0.1562499999999995
 40
0.1874999999999994
 40
0.1874999999999994
 40
0.2499999999999994
 40
0.2499999999999994
 40
0.2812499999999994
 40
0.2812499999999994
 40
0.3124999999999995
 40
0.3124999999999995
 40
0.3437499999999996
 40
0.3437499999999996
 40
0.3749999999999996
 40
0.3749999999999996
 40
0.4062499999999997
 40
0.4062499999999997
 40
0.4374999999999997
 40
0.4374999999999997
 40
0.4687499999999997
 40
0.4687499999999997
 40
0.4999999999999997
 40
0.4999999999999997
 40
0.5312499999999997
 40
0.5312499999999997
 40
0.5624999999999997
 40
0.5624999999999997
 40
0.5937499999999997
 40
0.5937499999999997
 40
0.6249999999999997
 40
0.6249999999999997
 40
0.6562499999999997
 40
0.6562499999999997
 40
0.6874999999999997
 40
0.6874999999999997
 40
0.7187499999999997
 40
0.7187499999999997
 40
0.7499999999999997
 40
0.7499999999999997
 40
0.7812499999999998
 40
0.7812499999999998
 40
0.8124999999999998
 40
0.8124999999999998
 40
0.8437499999999999
 40
0.8437499999999999
 40
0.8749999999999999
 40
0.8749999999999999
 40
0.9062499999999999
 40
0.9062499999999999
 40
0.9374999999999999
 40
0.9374999999999999
 40
0.9687499999999999
 40
0.9687499999999999
 40
1.0
 40
1.0
 40
1.03125
 40
1.03125
 10
165.061763892988
 20
125.203068211156
 30
0.0
 10
165.3966514126608
 20
125.4743094479029
 30
0.0
 10
165.5749176345965
 20
125.5919507407746
 30
0.0
 10
165.9519423314898
 20
125.7932822647845
 30
0.0
 10
166.1521310528662
 20
125.8770904679981
 30
0.0
 10
166.5587990924971
 20
126.0051824915665
 30
0.0
 10
166.7667142585173
 20
126.0504872885266
 30
0.0
 10
167.1917025577407
 20
126.1036449998321
 30
0.0
 10
167.4077392087246
 20
126.1109271838677
 30
0.0
 10
167.8322501775762
 20
126.0873797463304
 30
0.0
 10
168.042777150966
 20
126.0568755438535
 30
0.0
 10
168.460262361753
 20
125.9570159303862
 30
0.0
 10
168.6631258953313
 20
125.8884200426254
 30
0.0
 10
169.2444424143462
 20
125.6310785994065
 30
0.0
 10
169.604849667122
 20
125.3845287080966
 30
0.0
 10
170.0495886638836
 20
124.9312901520217
 30
0.0
 10
170.1847778840261
 20
124.7637095725453
 30
0.0
 10
170.4177177586284
 20
124.4048474976339
 30
0.0
 10
170.5144011042831
 20
124.2160889772798
 30
0.0
 10
170.6676323689325
 20
123.8195753010715
 30
0.0
 10
170.7242493263007
 20
123.6092308919846
 30
0.0
 10
170.7897015281355
 20
123.1878423637017
 30
0.0
 10
170.7996598867627
 20
122.9753262445381
 30
0.0
 10
170.7728258775956
 20
122.5465514694378
 30
0.0
 10
170.7358062138228
 20
122.3339852412909
 30
0.0
 10
170.618642934786
 20
121.9246905972129
 30
0.0
 10
170.5371040572911
 20
121.7238419255052
 30
0.0
 10
170.3358648458871
 20
121.3467151669942
 30
0.0
 10
170.2169331107163
 20
121.1704948454645
 30
0.0
 10
169.9437592976241
 20
120.8417387244824
 30
0.0
 10
169.7898985229139
 20
120.6904405565829
 30
0.0
 10
169.4599759248979
 20
120.4228534031036
 30
0.0
 10
169.2816540998264
 20
120.3043822423928
 30
0.0
 10
168.9036300999039
 20
120.101495438458
 30
0.0
 10
168.7077011011228
 20
120.01887648401
 30
0.0
 10
168.3026158132884
 20
119.8894363074792
 30
0.0
 10
168.0912810154185
 20
119.8424610770486
 30
0.0
 10
167.667396225766
 20
119.7877461221305
 30
0.0
 10
167.4549609525038
 20
119.7795163736874
 30
0.0
 10
167.0291088852087
 20
119.8010078714881
 30
0.0
 10
166.8139647217992
 20
119.8314054937065
 30
0.0
 10
166.3988351820588
 20
119.9291479505947
 30
0.0
 10
166.197210216315
 20
119.9962664643436
 30
0.0
 10
165.806123717044
 20
120.1679095645039
 30
0.0
 10
165.616304108153
 20
120.2732556232885
 30
0.0
 10
165.2657134879814
 20
120.5139585649831
 30
0.0
 10
165.1027070083348
 20
120.6500814413158
 30
0.0
 10
164.8026446856462
 20
120.9557349105498
 30
0.0
 10
164.6673757884419
 20
121.1241865900386
 30
0.0
 10
164.4364318356091
 20
121.4804672763221
 30
0.0
 10
164.3389496161368
 20
121.6702209557288
 30
0.0
 10
164.1839670567323
 20
122.072829318013
 30
0.0
 10
164.1291005359151
 20
122.278669061686
 30
0.0
 10
164.063692665251
 20
122.6992486980085
 30
0.0
 10
164.0535464194179
 20
122.9167505153062
 30
0.0
 10
164.0802147819575
 20
123.3434906542668
 30
0.0
 10
164.116252173784
 20
123.553393363354
 30
0.0
 10
164.2336633193519
 20
123.9662821840125
 30
0.0
 10
164.3147908539701
 20
124.1666051287964
 30
0.0
 10
164.5145478981595
 20
124.5428436472614
 30
0.0
 10
164.6350503972856
 20
124.7222983925092
 30
0.0
 10
164.9091308426515
 20
125.052646320599
 30
0.0
 10
165.061763892988
 20
125.203068211156
 30
0.0
 10
165.3966514126608
 20
125.4743094479029
 30
0.0
  0
CIRCLE
  5
16A
330
1F
100
AcDbEntity
  8
0
  6
HIDDEN
 62
     7
370
     0
100
AcDbCircle
 10
167.3420032282
 20
122.9451805202
 30
0.0
 40
3.050000000000011
  0
SPLINE
  5
16B
330
1F
100
AcDbEntity
  8
0
  6
HIDDEN
 62
     7
370
     0
100
AcDbSpline
210
0.0
220
0.0
230
1.0
 70
     8
 71
     3
 72
    12
 73
     8
 74
     0
 42
0.00000001
 43
0.00000001
 12
1.0
 22
0.0
 32
0.0
 13
1.0
 23
0.0
 33
0.0
 40
0.0
 40
0.0
 40
0.0
 40
0.0
 40
0.2499999999999996
 40
0.2499999999999996
 40
0.4999999999999991
 40
0.4999999999999991
 40
1.0
 40
1.0
 40
1.0
 40
1.0
 10
214.4407016440499
 20
141.0349011595885
 30
0.0
 10
214.3902880515932
 20
141.1181429568362
 30
0.0
 10
214.3315471834125
 20
141.2123105300896
 30
0.0
 10
214.2034645338801
 20
141.4145545714863
 30
0.0
 10
214.1339261458478
 20
141.5228985979996
 30
0.0
 10
213.9143893898675
 20
141.8617363316449
 30
0.0
 10
213.7538690862998
 20
142.1057510656085
 30
0.0
 10
213.5746762402654
 20
142.3736600019881
 30
0.0
  0
LINE
  5
16C
330
1F
100
AcDbEntity
  8
0
  6
HIDDEN
 62
     7
370
     0
100
AcDbLine
 10
214.440701644
 20
141.0349011596
 30
0.0
 11
214.440701644
 21
122.9451805202
 31
0.0
  0
ELLIPSE
  5
16D
330
1F
100
AcDbEntity
  8
0
  6
HIDDEN
 62
     7
370
     0
100
AcDbEllipse
 10
230.6237903548
 20
122.9451805202
 30
0.0
 11
-0.8050200755768061
 21
25.49961757369236
 31
0.0
210
0.0
220
0.0
230
1.0
 40
0.1734804855
 41
1.504692480315319
 42
1.565319622021314
  0
ELLIPSE
  5
16E
330
1F
100
AcDbEntity
  8
0
  6
HIDDEN
 62
     7
370
     0
100
AcDbEllipse
 10
228.563057264
 20
122.9451805202
 30
0.0
 11
-18.66135454366963
 21
25.49270075273647
 31
0.0
210
0.0
220
0.0
230
1.0
 40
0.0326926316
 41
0.7582212985111532
 42
1.486241851440086
  0
CIRCLE
  5
16F
330
1F
100
AcDbEntity
  8
0
  6
HIDDEN
 62
     7
370
     0
100
AcDbCircle
 10
193.3420032282
 20
122.9451805202
 30
0.0
 40
2.0
  0
SPLINE
  5
170
330
1F
100
AcDbEntity
  8
0
  6
HIDDEN
 62
     7
370
     0
100
AcDbSpline
210
0.0
220
0.0
230
1.0
 70
     8
 71
     3
 72
     9
 73
     5
 74
     0
 42
0.00000001
 43
0.00000001
 12
1.0
 22
0.0
 32
0.0
 13
1.0
 23
0.0
 33
0.0
 40
0.0
 40
0.0
 40
0.0
 40
0.0
 40
0.502391805115665
 40
1.0
 40
1.0
 40
1.0
 40
1.0
 10
230.5426321369182
 20
102.4175323103441
 30
0.0
 10
230.4322630957447
 20
102.5848419353991
 30
0.0
 10
230.2125759112613
 20
102.9178681180546
 30
0.0
 10
229.9994147159737
 20
103.2595768982167
 30
0.0
 10
229.8933439583672
 20
103.4296139874894
 30
0.0
  0
SPLINE
  5
171
330
1F
100
AcDbEntity
  8
0
  6
HIDDEN
 62
     7
370
     0
100
AcDbSpline
210
0.0
220
0.0
230
1.0
 70
     8
 71
     3
 72
     8
 73
     4
 74
     0
 42
0.00000001
 43
0.00000001
 12
1.0
 22
0.0
 32
0.0
 13
1.0
 23
0.0
 33
0.0
 40
0.0
 40
0.0
 40
0.0
 40
0.0
 40
1.0
 40
1.0
 40
1.0
 40
1.0
 10
214.6605607977089
 20
116.9780144582277
 30
0.0
 10
214.6106875459854
 20
117.7949050958041
 30
0.0
 10
214.5705207067253
 20
118.61213704166
 30
0.0
 10
214.5406020665544
 20
119.4297293467333
 30
0.0
  0
LINE
  5
172
330
1F
100
AcDbEntity
  8
0
  6
HIDDEN
 62
     7
370
     0
100
AcDbLine
 10
229.8933439584
 20
103.4296139875
 30
0.0
 11
229.8147160592
 21
102.7736479175
 31
0.0
  0
SPLINE
  5
173
330
1F
100
AcDbEntity
  8
0
  6
HIDDEN
 62
     7
370
     0
100
AcDbSpline
210
0.0
220
0.0
230
1.0
 70
     8
 71
     3
 72
    12
 73
     8
 74
     0
 42
0.00000001
 43
0.00000001
 12
1.0
 22
0.0
 32
0.0
 13
1.0
 23
0.0
 33
0.0
 40
0.0
 40
0.0
 40
0.0
 40
0.0
 40
0.2500000000000001
 40
0.2500000000000001
 40
0.5000000000000001
 40
0.5000000000000001
 40
1.0
 40
1.0
 40
1.0
 40
1.0
 10
214.5406020665544
 20
119.4297293467333
 30
0.0
 10
214.5296052685526
 20
119.7302409132832
 30
0.0
 10
214.5176952660933
 20
120.0189505457385
 30
0.0
 10
214.494177418294
 20
120.6040428072055
 30
0.0
 10
214.4827027752283
 20
120.8965994807728
 30
0.0
 10
214.4531857608098
 20
121.7744514792268
 30
0.0
 10
214.4407016440498
 20
122.3598842305673
 30
0.0
 10
214.4407016440498
 20
122.9451805201643
 30
0.0
  0
ELLIPSE
  5
174
330
1F
100
AcDbEntity
  8
0
  6
HIDDEN
 62
     7
370
     0
100
AcDbEllipse
 10
252.8143311978
 20
115.8424512689
 30
0.0
 11
19.10091880013357
 21
-18.81073292402904
 31
0.0
210
0.0
220
0.0
230
1.0
 40
0.9698463104
 41
3.934644933755895
 42
4.424121277215726
  0
LINE
  5
175
330
1F
100
AcDbEntity
  8
0
  6
HIDDEN
 62
     7
370
     0
100
AcDbLine
 10
226.4132392888
 20
115.8424512689
 30
0.0
 11
226.1957618242
 21
122.9451805202
 31
0.0
  0
LINE
  5
176
330
1F
100
AcDbEntity
  8
0
  6
HIDDEN
 62
     7
370
     0
100
AcDbLine
 10
181.3420032282
 20
103.3951805202
 30
0.0
 11
181.4348964471
 21
103.488073739
 31
0.0
  0
LINE
  5
177
330
1F
100
AcDbEntity
  8
0
  6
HIDDEN
 62
     7
370
     0
100
AcDbLine
 10
181.4348964471
 20
142.4022873014
 30
0.0
 11
181.3420032282
 21
142.4951805202
 31
0.0
  0
ARC
  5
178
330
1F
100
AcDbEntity
  8
0
  6
HIDDEN
 62
     7
370
     0
100
AcDbCircle
 10
180.7277896659
 20
104.1951805202
 30
0.0
 40
1.0
100
AcDbArc
 50
315.0
 51
0.0
  0
ARC
  5
179
330
1F
100
AcDbEntity
  8
0
  6
HIDDEN
 62
     7
370
     0
100
AcDbCircle
 10
180.7277896659
 20
104.1951805202
 30
0.0
 40
1.0
100
AcDbArc
 50
0.0
 51
52.1052014664
  0
ARC
  5
17A
330
1F
100
AcDbEntity
  8
0
  6
HIDDEN
 62
     7
370
     0
100
AcDbCircle
 10
180.7277896659
 20
141.6951805202
 30
0.0
 40
1.000000000000006
100
AcDbArc
 50
351.8087250651
 51
45.0
  0
ARC
  5
17B
330
1F
100
AcDbEntity
  8
0
  6
HIDDEN
 62
     7
370
     0
100
AcDbCircle
 10
180.7277896659
 20
141.6951805202
 30
0.0
 40
1.000000000000006
100
AcDbArc
 50
307.8947985336
 51
351.8087250651
  0
LINE
  5
17C
330
1F
100
AcDbEntity
  8
0
  6
HIDDEN
 62
     7
370
     0
100
AcDbLine
 10
181.7277896659
 20
104.1951805202
 30
0.0
 11
181.7277896659
 21
141.6951805202
 31
0.0
  0
LINE
  5
17D
330
1F
100
AcDbEntity
  8
0
  6
HIDDEN
 62
     7
370
     0
100
AcDbLine
 10
181.7277896659
 20
104.1951805202
 30
0.0
 11
181.7277896659
 21
141.6951805202
 31
0.0
  0
LINE
  5
17E
330
1F
100
AcDbEntity
  8
0
  6
HIDDEN
 62
     7
370
     0
100
AcDbLine
 10
201.8420032282
 20
114.1369946374
 30
0.0
 11
201.8420032282
 21
118.9982339439
 31
0.0
  0
LINE
  5
17F
330
1F
100
AcDbEntity
  8
0
  6
HIDDEN
 62
     7
370
     0
100
AcDbLine
 10
201.8420032282
 20
111.5077607848
 30
0.0
 11
201.8420032282
 21
111.733192441
 31
0.0
  0
LINE
  5
180
330
1F
100
AcDbEntity
  8
0
  6
HIDDEN
 62
     7
370
     0
100
AcDbLine
 10
196.8420032282
 20
118.9980566796
 30
0.0
 11
196.8420032282
 21
111.5077607848
 31
0.0
  0
LINE
  5
181
330
1F
100
AcDbEntity
  8
0
  6
HIDDEN
 62
     7
370
     0
100
AcDbLine
 10
207.3341053487
 20
111.1357372087
 30
0.0
 11
201.1343850649
 21
115.101521061
 31
0.0
  0
LINE
  5
182
330
1F
100
AcDbEntity
  8
0
  6
HIDDEN
 62
     7
370
     0
100
AcDbLine
 10
199.4599697162
 20
110.2371533271
 30
0.0
 11
207.2569147624
 21
105.2496704494
 31
0.0
  0
LINE
  5
183
330
1F
100
AcDbEntity
  8
0
  6
HIDDEN
 62
     7
370
     0
100
AcDbLine
 10
157.8420032282
 20
110.9451805202
 30
0.0
 11
158.8487227403
 21
110.9451805202
 31
0.0
  0
LINE
  5
184
330
1F
100
AcDbEntity
  8
0
  6
HIDDEN
 62
     7
370
     0
100
AcDbLine
 10
158.8487227403
 20
134.9451805202
 30
0.0
 11
157.8420032282
 21
134.9451805202
 31
0.0
  0
ARC
  5
185
330
1F
100
AcDbEntity
  8
0
  6
HIDDEN
 62
     7
370
     0
100
AcDbCircle
 10
158.8487227403
 20
112.4451805202
 30
0.0
 40
1.500000000000022
100
AcDbArc
 50
270.0
 51
315.0
  0
ARC
  5
186
330
1F
100
AcDbEntity
  8
0
  6
HIDDEN
 62
     7
370
     0
100
AcDbCircle
 10
158.8487227403
 20
133.4451805202
 30
0.0
 40
1.500000000000032
100
AcDbArc
 50
45.0
 51
90.0
  0
ARC
  5
187
330
1F
100
AcDbEntity
  8
0
  6
HIDDEN
 62
     7
370
     0
100
AcDbCircle
 10
157.8420032282
 20
112.4451805202
 30
0.0
 40
1.500000000000014
100
AcDbArc
 50
191.0958032831
 51
270.0
  0
ARC
  5
188
330
1F
100
AcDbEntity
  8
0
  6
HIDDEN
 62
     7
370
     0
100
AcDbCircle
 10
157.8420032282
 20
133.4451805202
 30
0.0
 40
1.5
100
AcDbArc
 50
90.0
 51
168.9041967169
  0
LINE
  5
189
330
1F
100
AcDbEntity
  8
0
  6
HIDDEN
 62
     7
370
     0
100
AcDbLine
 10
151.3420032282
 20
111.1817684517
 30
0.0
 11
152.3700430839
 21
111.7753075391
 31
0.0
  0
LINE
  5
18A
330
1F
100
AcDbEntity
  8
0
  6
HIDDEN
 62
     7
370
     0
100
AcDbLine
 10
152.3700430839
 20
134.1150535012
 30
0.0
 11
151.3420032282
 21
134.7085925886
 31
0.0
  0
LINE
  5
18B
330
1F
100
AcDbEntity
  8
0
  6
HIDDEN
 62
     7
370
     0
100
AcDbLine
 10
159.9093829121
 20
111.3845203484
 30
0.0
 11
160.9700430839
 21
112.4451805202
 31
0.0
  0
LINE
  5
18C
330
1F
100
AcDbEntity
  8
0
  6
HIDDEN
 62
     7
370
     0
100
AcDbLine
 10
160.9700430839
 20
133.4451805202
 30
0.0
 11
159.9093829121
 21
134.5058406919
 31
0.0
  0
LINE
  5
18D
330
1F
100
AcDbEntity
  8
0
  6
HIDDEN
 62
     7
370
     0
100
AcDbLine
 10
152.3700430839
 20
111.7753075391
 30
0.0
 11
154.8700430839
 21
112.4451805202
 31
0.0
  0
LINE
  5
18E
330
1F
100
AcDbEntity
  8
0
  6
HIDDEN
 62
     7
370
     0
100
AcDbLine
 10
154.8700430839
 20
133.4451805202
 30
0.0
 11
152.3700430839
 21
134.1150535012
 31
0.0
  0
LINE
  5
18F
330
1F
100
AcDbEntity
  8
0
  6
HIDDEN
 62
     7
370
     0
100
AcDbLine
 10
156.3700430839
 20
133.7338556548
 30
0.0
 11
155.8700430839
 21
133.4451805202
 31
0.0
  0
LINE
  5
190
330
1F
100
AcDbEntity
  8
0
  6
HIDDEN
 62
     7
370
     0
100
AcDbLine
 10
155.8700430839
 20
112.4451805202
 30
0.0
 11
156.3700430839
 21
112.1565053856
 31
0.0
  0
LINE
  5
191
330
1F
100
AcDbEntity
  8
0
  6
HIDDEN
 62
     7
370
     0
100
AcDbLine
 10
154.8700430839
 20
112.4451805202
 30
0.0
 11
155.8700430839
 21
112.4451805202
 31
0.0
  0
LINE
  5
192
330
1F
100
AcDbEntity
  8
0
  6
HIDDEN
 62
     7
370
     0
100
AcDbLine
 10
155.8700430839
 20
133.4451805202
 30
0.0
 11
154.8700430839
 21
133.4451805202
 31
0.0
  0
LINE
  5
193
330
1F
100
AcDbEntity
  8
0
  6
HIDDEN
 62
     7
370
     0
100
AcDbLine
 10
160.9700430839
 20
112.4451805202
 30
0.0
 11
170.8420032282
 21
112.4451805202
 31
0.0
  0
LINE
  5
194
330
1F
100
AcDbEntity
  8
0
  6
HIDDEN
 62
     7
370
     0
100
AcDbLine
 10
170.8420032282
 20
133.4451805202
 30
0.0
 11
160.9700430839
 21
133.4451805202
 31
0.0
  0
ARC
  5
195
330
1F
100
AcDbEntity
  8
0
  6
HIDDEN
 62
     7
370
     0
100
AcDbCircle
 10
170.8420032282
 20
112.9451805202
 30
0.0
 40
0.5
100
AcDbArc
 50
270.0
 51
0.0
  0
ARC
  5
196
330
1F
100
AcDbEntity
  8
0
  6
HIDDEN
 62
     7
370
     0
100
AcDbCircle
 10
170.8420032282
 20
132.9451805202
 30
0.0
 40
0.5
100
AcDbArc
 50
0.0
 51
90.0
  0
LINE
  5
197
330
1F
100
AcDbEntity
  8
0
  6
HIDDEN
 62
     7
370
     0
100
AcDbLine
 10
171.3420032282
 20
114.6951805202
 30
0.0
 11
172.3420032282
 21
115.6951805202
 31
0.0
  0
LINE
  5
198
330
1F
100
AcDbEntity
  8
0
  6
HIDDEN
 62
     7
370
     0
100
AcDbLine
 10
172.3420032282
 20
130.1951805202
 30
0.0
 11
171.3420032282
 21
131.1951805202
 31
0.0
  0
LINE
  5
199
330
1F
100
AcDbEntity
  8
0
  6
HIDDEN
 62
     7
370
     0
100
AcDbLine
 10
218.0472009589
 20
105.3988565435
 30
0.0
 11
218.8424050012
 21
104.6157334375
 31
0.0
  0
LINE
  5
19A
330
1F
100
AcDbEntity
  8
0
  6
HIDDEN
 62
     7
370
     0
100
AcDbLine
 10
223.7541219033
 20
109.6032214899
 30
0.0
 11
222.958917861
 21
110.386344596
 31
0.0
  0
LINE
  5
19B
330
1F
100
AcDbEntity
  8
0
  6
HIDDEN
 62
     7
370
     0
100
AcDbLine
 10
205.3420032282
 20
130.1951805202
 30
0.0
 11
172.3420032282
 21
130.1951805202
 31
0.0
  0
LINE
  5
19C
330
1F
100
AcDbEntity
  8
0
  6
HIDDEN
 62
     7
370
     0
100
AcDbLine
 10
172.3420032282
 20
115.6951805202
 30
0.0
 11
205.3420032282
 21
115.6951805202
 31
0.0
  0
LINE
  5
19D
330
1F
100
AcDbEntity
  8
0
  6
HIDDEN
 62
     7
370
     0
100
AcDbLine
 10
205.3420032282
 20
115.6951805202
 30
0.0
 11
209.6982427162
 21
122.9451805202
 31
0.0
  0
LINE
  5
19E
330
1F
100
AcDbEntity
  8
0
  6
HIDDEN
 62
     7
370
     0
100
AcDbLine
 10
209.6982427162
 20
122.9451805202
 30
0.0
 11
205.3420032282
 21
130.1951805202
 31
0.0
  0
LINE
  5
19F
330
1F
100
AcDbEntity
  8
0
  6
HIDDEN
 62
     7
370
     0
100
AcDbLine
 10
214.6779688328
 20
99.7667566644
 30
0.0
 11
216.2790050309
 21
98.1900438037
 31
0.0
  0
LINE
  5
1A0
330
1F
100
AcDbEntity
  8
0
  6
HIDDEN
 62
     7
370
     0
100
AcDbLine
 10
228.2679488445
 20
101.566557326
 30
0.0
 11
223.2922958839
 21
107.8354960039
 31
0.0
  0
LINE
  5
1A1
330
1F
100
AcDbEntity
  8
0
  6
HIDDEN
 62
     7
370
     0
100
AcDbLine
 10
213.4503000968
 20
108.9434616586
 30
0.0
 11
217.4829924226
 21
104.9720349905
 31
0.0
  0
LINE
  5
1A2
330
1F
100
AcDbEntity
  8
0
  6
HIDDEN
 62
     7
370
     0
100
AcDbLine
 10
223.3770527052
 20
110.9570206535
 30
0.0
 11
218.4873840707
 21
115.7724042344
 31
0.0
  0
LINE
  5
1A3
330
1F
100
AcDbEntity
  8
0
  6
HIDDEN
 62
     7
370
     0
100
AcDbLine
 10
201.8420032282
 20
126.8923043607
 30
0.0
 11
201.8420032282
 21
132.5850570766
 31
0.0
  0
LINE
  5
1A4
330
1F
100
AcDbEntity
  8
0
  6
HIDDEN
 62
     7
370
     0
100
AcDbLine
 10
196.8420032282
 20
132.5850570766
 30
0.0
 11
196.8420032282
 21
126.8921270965
 31
0.0
  0
LINE
  5
1A5
330
1F
100
AcDbEntity
  8
0
  6
HIDDEN
 62
     7
370
     0
100
AcDbLine
 10
230.8084371697
 20
98.6909967248
 30
0.0
 11
229.8360073747
 21
99.6486531261
 31
0.0
  0
LINE
  5
1A6
330
1F
100
AcDbEntity
  8
0
  6
HIDDEN
 62
     7
370
     0
100
AcDbLine
 10
225.3452947785
 20
95.0886640495
 30
0.0
 11
226.3177245734
 21
94.1310076482
 31
0.0
  0
LINE
  5
1A7
330
1F
100
AcDbEntity
  8
0
  6
HIDDEN
 62
     7
370
     0
100
AcDbLine
 10
221.0426829882
 20
101.8582353211
 30
0.0
 11
224.8358595164
 21
97.079125677
 31
0.0
  0
LINE
  5
1A8
330
1F
100
AcDbEntity
  8
0
  6
HIDDEN
 62
     7
370
     0
100
AcDbLine
 10
202.3420032282
 20
132.7486831504
 30
0.0
 11
202.3420032282
 21
136.5607865789
 31
0.0
  0
LINE
  5
1A9
330
1F
100
AcDbEntity
  8
0
  6
HIDDEN
 62
     7
370
     0
100
AcDbLine
 10
196.3420032282
 20
136.5611519105
 30
0.0
 11
196.3420032282
 21
132.7486831504
 31
0.0
  0
LINE
  5
1AA
330
1F
100
AcDbEntity
  8
VERMASSUNG
  6
CENTERX2
100
AcDbLine
 10
148.9629766945
 20
122.9451805202
 30
0.0
 11
241.3420032282
 21
122.9451805202
 31
0.0
  0
LINE
  5
1AB
330
1F
100
AcDbEntity
  8
VERMASSUNG
  6
CENTERX2
100
AcDbLine
 10
241.3420032282
 20
87.9451805202
 30
0.0
 11
241.3420032282
 21
122.9451805202
 31
0.0
  0
LINE
  5
1AC
330
1F
100
AcDbEntity
  8
VERMASSUNG
  6
CENTERX2
100
AcDbLine
 10
241.3420032282
 20
87.9451805202
 30
0.0
 11
254.9801560534
 21
87.9451805202
 31
0.0
  0
LINE
  5
1AD
330
1F
100
AcDbEntity
  8
VERMASSUNG
100
AcDbLine
 10
241.3420032282
 20
87.9451805202
 30
0.0
 11
241.3420032282
 21
73.4552452822
 31
0.0
  0
DIMENSION
  5
1AE
330
1F
100
AcDbEntity
  8
VERMASSUNG
100
AcDbDimension
  2
_D
 10
241.3420032282
 20
73.4552452822
 30
0.0
 11
233.4244048075
 21
80.409170142
 31
0.0
 70
   162
  1
<>
 71
     1
 42
-1.0
  3
SLDDIMSTYLE0
100
AcDb2LineAngularDimension
 13
240.9171706201
 23
87.9440105304
 33
0.0
 14
226.6598680481
 24
88.6931066509
 34
0.0
 15
241.3420032282
 25
87.9451805202
 35
0.0
 16
233.4244048075
 26
80.409170142
 36
0.0
  0
DIMENSION
  5
1B7
330
1F
100
AcDbEntity
  8
VERMASSUNG
100
AcDbDimension
  2
_D_1
 10
241.3420032282
 20
71.1670665532
 30
0.0
 11
211.3420032282
 21
71.1670665532
 31
0.0
 70
   160
  1
<>
 71
     2
 42
-1.0
  3
SLDDIMSTYLE1
100
AcDbAlignedDimension
 13
181.3420032282
 23
98.2451805202
 33
0.0
 14
241.3420032282
 24
87.9451805202
 34
0.0
100
AcDbRotatedDimension
  0
DIMENSION
  5
1C4
330
1F
100
AcDbEntity
  8
VERMASSUNG
100
AcDbDimension
  2
_D_2
 10
252.3462487809
 20
122.9451805202
 30
0.0
 11
252.3462487809
 21
105.4451805202
 31
0.0
 70
   160
  1
<>
 71
     2
 42
-1.0
  3
SLDDIMSTYLE1
100
AcDbAlignedDimension
 13
241.3420032282
 23
87.9451805202
 33
0.0
 14
241.3420032282
 24
122.9451805202
 34
0.0
 50
90.0
100
AcDbRotatedDimension
  0
DIMENSION
  5
1D0
330
1F
100
AcDbEntity
  8
VERMASSUNG
100
AcDbDimension
  2
_D_3
 10
241.3420032282
 20
61.128996913
 30
0.0
 11
196.3420032282
 21
61.128996913
 31
0.0
 70
   160
  1
<>
 71
     2
 42
-1.0
  3
SLDDIMSTYLE2
100
AcDbAlignedDimension
 13
151.3420032282
 23
106.951854682
 33
0.0
 14
241.3420032282
 24
87.9451805202
 34
0.0
100
AcDbRotatedDimension
  0
DIMENSION
  5
1DB
330
1F
100
AcDbEntity
  8
VERMASSUNG
100
AcDbDimension
  2
_D_4
 10
141.3420032282
 20
97.9451805202
 30
0.0
 11
141.3420032282
 21
122.9451805202
 31
0.0
 70
   160
  1
PSC%%c<>
 71
     2
 42
-1.0
  3
SLDDIMSTYLE2
100
AcDbAlignedDimension
 13
181.6420032282
 23
147.9451805202
 33
0.0
 14
181.6420032282
 24
97.9451805202
 34
0.0
 50
90.0
100
AcDbRotatedDimension
  0
ELLIPSE
  5
1E7
330
1F
100
AcDbEntity
  8
0
  6
Continuous
 62
     7
100
AcDbEllipse
 10
67.809288286
 20
108.192703829
 30
0.0
 11
-2.055430283751534
 21
2.557027882226478
 31
0.0
210
0.0
220
0.0
230
1.0
 40
0.7425888588
 41
4.758758796958654
 42
9.674902651449774
  0
LINE
  5
1E8
330
1F
100
AcDbEntity
  8
0
  6
Continuous
 62
     7
370
    15
100
AcDbLine
 10
80.8642536881
 20
87.9436567274
 30
0.0
 11
87.0227778446
 21
89.0295676736
 31
0.0
  0
LINE
  5
1E9
330
1F
100
AcDbEntity
  8
0
  6
Continuous
 62
     7
370
    15
100
AcDbLine
 10
78.058905166
 20
90.6472489086
 30
0.0
 11
78.5086073097
 21
90.0805093197
 31
0.0
  0
SPLINE
  5
1EA
330
1F
100
AcDbEntity
  8
0
  6
Continuous
 62
     7
370
    15
100
AcDbSpline
210
0.0
220
0.0
230
1.0
 70
     8
 71
     3
 72
    10
 73
     6
 74
     0
 42
0.00000001
 43
0.00000001
 12
1.0
 22
0.0
 32
0.0
 13
1.0
 23
0.0
 33
0.0
 40
0.0
 40
0.0
 40
0.0
 40
0.0
 40
0.0589860317167438
 40
0.6246954922273313
 40
1.0
 40
1.0
 40
1.0
 40
1.0
 10
78.52387331649945
 20
90.08752031599214
 30
0.0
 10
78.52823396498788
 20
90.08352958229702
 30
0.0
 10
78.57441570284385
 20
90.04126545166349
 30
0.0
 10
78.58239669084048
 20
89.98883513406979
 30
0.0
 10
78.58386159191146
 20
89.99012303700138
 30
0.0
 10
78.5844458382605
 20
89.99063669120004
 30
0.0
  0
SPLINE
  5
1EB
330
1F
100
AcDbEntity
  8
0
  6
Continuous
 62
     7
370
    15
100
AcDbSpline
210
0.0
220
0.0
230
1.0
 70
     8
 71
     3
 72
    11
 73
     7
 74
     0
 42
0.00000001
 43
0.00000001
 12
1.0
 22
0.0
 32
0.0
 13
1.0
 23
0.0
 33
0.0
 40
0.0
 40
0.0
 40
0.0
 40
0.0
 40
0.0022643216744776
 40
0.3920059675914178
 40
0.7417966326431379
 40
1.0
 40
1.0
 40
1.0
 40
1.0
 10
76.08824615590558
 20
100.3253836033218
 30
0.0
 10
76.08822354792827
 20
100.3254447664628
 30
0.0
 10
76.08430958900703
 20
100.3360335076879
 30
0.0
 10
76.09409051135903
 20
100.3021797701984
 30
0.0
 10
76.10712420404809
 20
100.2060705897258
 30
0.0
 10
76.07563834936285
 20
100.0979890196826
 30
0.0
 10
76.06226691268668
 20
100.052088856446
 30
0.0
  0
LINE
  5
1EC
330
1F
100
AcDbEntity
  8
0
  6
Continuous
 62
     7
370
    15
100
AcDbLine
 10
76.0552466031
 20
100.057350829
 30
0.0
 11
75.8082184125
 21
99.3161279557
 31
0.0
  0
LINE
  5
1ED
330
1F
100
AcDbEntity
  8
0
  6
Continuous
 62
     7
370
    15
100
AcDbLine
 10
74.9134111334
 20
101.6724113223
 30
0.0
 11
74.6099191833
 21
101.6188975272
 31
0.0
  0
LINE
  5
1EE
330
1F
100
AcDbEntity
  8
0
  6
Continuous
 62
     7
370
    15
100
AcDbLine
 10
87.0504926074
 20
89.1293532995
 30
0.0
 11
89.6117833558
 21
89.5809776929
 31
0.0
  0
LINE
  5
1EF
330
1F
100
AcDbEntity
  8
0
  6
Continuous
 62
     7
370
    15
100
AcDbLine
 10
89.6392163936
 20
89.6017238346
 30
0.0
 11
89.869846322
 21
89.9422451702
 31
0.0
  0
LINE
  5
1F0
330
1F
100
AcDbEntity
  8
0
  6
Continuous
 62
     7
370
    15
100
AcDbLine
 10
86.5458899293
 20
102.2136438486
 30
0.0
 11
86.2335015204
 21
102.4397000519
 31
0.0
  0
LINE
  5
1F1
330
1F
100
AcDbEntity
  8
0
  6
Continuous
 62
     7
370
    15
100
AcDbLine
 10
78.2765312701
 20
93.1312426773
 30
0.0
 11
78.3646676805
 21
93.1428842095
 31
0.0
  0
SPLINE
  5
1F2
330
1F
100
AcDbEntity
  8
0
  6
Continuous
 62
     7
370
    15
100
AcDbSpline
210
0.0
220
0.0
230
1.0
 70
     8
 71
     3
 72
    25
 73
    21
 74
     0
 42
0.00000001
 43
0.00000001
 12
1.0
 22
0.0
 32
0.0
 13
1.0
 23
0.0
 33
0.0
 40
0.0
 40
0.0
 40
0.0
 40
0.0
 40
0.023410154893692
 40
0.0468810947837154
 40
0.0704197027518906
 40
0.0940328027055542
 40
0.1177271541916768
 40
0.1772887606491725
 40
0.2373717144039872
 40
0.297953363569803
 40
0.3590837445591705
 40
0.482930786071628
 40
0.6089757323727214
 40
0.7372074541322466
 40
0.7804364450652971
 40
0.8238894671296241
 40
0.8675909531861732
 40
0.9114986657830227
 40
0.9556276090484753
 40
1.0
 40
1.0
 40
1.0
 40
1.0
 10
89.90193696846633
 20
90.44670929821189
 30
0.0
 10
90.0573032920587
 20
90.50203322023533
 30
0.0
 10
90.36843935141445
 20
90.61282471409628
 30
0.0
 10
90.83108060161786
 20
90.78805841136577
 30
0.0
 10
91.29144788470802
 20
90.97015357639593
 30
0.0
 10
91.74921225921959
 20
91.15975272129533
 30
0.0
 10
92.43357714248666
 20
91.45579025823908
 30
0.0
 10
93.33667472066266
 20
91.87631749438603
 30
0.0
 10
94.4438865458603
 20
92.44541915868479
 30
0.0
 10
95.53095608760357
 20
93.05852185301158
 30
0.0
 10
96.95724498741232
 20
93.93719632712732
 30
0.0
 10
98.68143827489888
 20
95.14262701539593
 30
0.0
 10
100.6358169935662
 20
96.74293242177978
 30
0.0
 10
102.0579775706431
 20
98.09801303047759
 30
0.0
 10
103.0279711330755
 20
99.11764736736214
 30
0.0
 10
103.5989503229377
 20
99.74833534791524
 30
0.0
 10
104.1552495567864
 20
100.3939174753126
 30
0.0
 10
104.6961682220694
 20
101.0542716804735
 30
0.0
 10
105.2230147411648
 20
101.7281542859369
 30
0.0
 10
105.5597374378062
 20
102.1873185919007
 30
0.0
 10
105.7285619111299
 20
102.4175322748409
 30
0.0
  0
LINE
  5
1F3
330
1F
100
AcDbEntity
  8
0
  6
Continuous
 62
     7
370
    15
100
AcDbLine
 10
105.7285626534
 20
102.417532712
 30
0.0
 11
105.9496549074
 21
102.0729172823
 31
0.0
  0
SPLINE
  5
1F4
330
1F
100
AcDbEntity
  8
0
  6
Continuous
 62
     7
370
    15
100
AcDbSpline
210
0.0
220
0.0
230
1.0
 70
     8
 71
     3
 72
    25
 73
    21
 74
     0
 42
0.00000001
 43
0.00000001
 12
1.0
 22
0.0
 32
0.0
 13
1.0
 23
0.0
 33
0.0
 40
0.0
 40
0.0
 40
0.0
 40
0.0
 40
0.0270033435982815
 40
0.0537363078622716
 40
0.080199447325157
 40
0.1063933336586282
 40
0.132318556347764
 40
0.1982351306516708
 40
0.2626295121509439
 40
0.3274253985632643
 40
0.3908378905755273
 40
0.5168650202105625
 40
0.6407215610610643
 40
0.7021108387044838
 40
0.7624711757375999
 40
0.822783535725049
 40
0.8821815486364006
 40
0.9218097951792781
 40
0.9610794309234572
 40
1.0
 40
1.0
 40
1.0
 40
1.0
 10
105.9496553334102
 20
102.0729167904232
 30
0.0
 10
105.8460735099941
 20
101.9309646528989
 30
0.0
 10
105.6399470082235
 20
101.6484817175559
 30
0.0
 10
105.3237034206514
 20
101.2317239349995
 30
0.0
 10
105.0044887446502
 20
100.822775637901
 30
0.0
 10
104.6818833275375
 20
100.4219531840755
 30
0.0
 10
104.1876854176628
 20
99.82582474516757
 30
0.0
 10
103.5109026914625
 20
99.05097758207869
 30
0.0
 10
102.6258664293564
 20
98.1104349950688
 30
0.0
 10
101.713215218517
 20
97.21019021229746
 30
0.0
 10
100.4578607329716
 20
96.06141803254503
 30
0.0
 10
98.81869659260441
 20
94.72188058644643
 30
0.0
 10
97.07249158840331
 20
93.50403273435778
 30
0.0
 10
95.62896334211133
 20
92.61744082867945
 30
0.0
 10
94.52753456560632
 20
91.99826461068895
 30
0.0
 10
93.40839283124147
 20
91.42521294000744
 30
0.0
 10
92.39306797515744
 20
90.95419265726566
 30
0.0
 10
91.49447652971485
 20
90.57310302747332
 30
0.0
 10
90.71841701360908
 20
90.26607366707873
 30
0.0
 10
90.19450171428379
 20
90.0787293523467
 30
0.0
 10
89.93371352931355
 20
89.98547537815206
 30
0.0
  0
LINE
  5
1F5
330
1F
100
AcDbEntity
  8
0
  6
Continuous
 62
     7
370
    15
100
AcDbLine
 10
89.9337136302
 20
89.9854771641
 30
0.0
 11
89.901936904
 21
90.4467090813
 31
0.0
  0
LINE
  5
1F6
330
1F
100
AcDbEntity
  8
0
  6
Continuous
 62
     7
370
    15
100
AcDbLine
 10
89.8503909934
 20
90.6290918437
 30
0.0
 11
89.901936904
 21
90.4467090813
 31
0.0
  0
ARC
  5
1F7
330
1F
100
AcDbEntity
  8
0
  6
Continuous
 62
     7
370
    15
100
AcDbCircle
 10
199.0658830441
 20
130.5153158736
 30
0.0
 40
115.9483102593879
100
AcDbArc
 50
193.9840506062
 51
194.6722485733
  0
ELLIPSE
  5
1F8
330
1F
100
AcDbEntity
  8
0
  6
Continuous
 62
     7
370
    15
100
AcDbEllipse
 10
79.9445154969
 20
123.9579756403
 30
0.0
 11
-27.83681865754383
 21
30.95727638660821
 31
0.0
210
0.0
220
0.0
230
1.0
 40
0.5725048794
 41
2.443855282391259
 42
2.445279273645846
  0
LINE
  5
1F9
330
1F
100
AcDbEntity
  8
0
  6
Continuous
 62
     7
370
    15
100
AcDbLine
 10
86.5539291058
 20
102.4961996672
 30
0.0
 11
77.6119460002
 21
100.9194873122
 31
0.0
  0
ARC
  5
1FA
330
1F
100
AcDbEntity
  8
0
  6
Continuous
 62
     7
370
    15
100
AcDbCircle
 10
213.9557980214
 20
134.6618758279
 30
0.0
 40
140.4570922621787
100
AcDbArc
 50
189.9446760837
 51
193.9002757504
  0
LINE
  5
1FB
330
1F
100
AcDbEntity
  8
0
  6
Continuous
 62
     7
370
    15
100
AcDbLine
 10
106.44451502
 20
103.4296139923
 30
0.0
 11
106.44451502
 21
115.8424512332
 31
0.0
  0
SPLINE
  5
1FC
330
1F
100
AcDbEntity
  8
0
  6
Continuous
 62
     7
370
    15
100
AcDbSpline
210
0.0
220
0.0
230
1.0
 70
     8
 71
     3
 72
     9
 73
     5
 74
     0
 42
0.00000001
 43
0.00000001
 12
1.0
 22
0.0
 32
0.0
 13
1.0
 23
0.0
 33
0.0
 40
0.0
 40
0.0
 40
0.0
 40
0.0
 40
0.502391805115665
 40
1.0
 40
1.0
 40
1.0
 40
1.0
 10
105.728561846178
 20
102.4175323103441
 30
0.0
 10
105.8500524595201
 20
102.5848419353991
 30
0.0
 10
106.0918768923731
 20
102.9178681180546
 30
0.0
 10
106.3273447575325
 20
103.2595768982167
 30
0.0
 10
106.4445154968678
 20
103.4296139874894
 30
0.0
  0
SPLINE
  5
1FD
330
1F
100
AcDbEntity
  8
0
  6
Continuous
 62
     7
370
    15
100
AcDbSpline
210
0.0
220
0.0
230
1.0
 70
     8
 71
     3
 72
     8
 73
     4
 74
     0
 42
0.00000001
 43
0.00000001
 12
1.0
 22
0.0
 32
0.0
 13
1.0
 23
0.0
 33
0.0
 40
0.0
 40
0.0
 40
0.0
 40
0.0
 40
1.0
 40
1.0
 40
1.0
 40
1.0
 10
74.68636894671526
 20
97.97631993924085
 30
0.0
 10
75.19962547458425
 20
95.64644548663689
 30
0.0
 10
75.71491621604599
 20
93.32099770159378
 30
0.0
 10
76.23121779870229
 20
90.99774961570768
 30
0.0
  0
SPLINE
  5
1FE
330
1F
100
AcDbEntity
  8
0
  6
Continuous
 62
     7
370
    15
100
AcDbSpline
210
0.0
220
0.0
230
1.0
 70
     8
 71
     3
 72
    10
 73
     6
 74
     0
 42
0.00000001
 43
0.00000001
 12
1.0
 22
0.0
 32
0.0
 13
1.0
 23
0.0
 33
0.0
 40
0.0
 40
0.0
 40
0.0
 40
0.0
 40
0.5
 40
0.5
 40
1.0
 40
1.0
 40
1.0
 40
1.0
 10
74.3634349144559
 20
98.82694305620763
 30
0.0
 10
74.40741328066154
 20
98.8149427940693
 30
0.0
 10
74.46391620000989
 20
98.71518793408164
 30
0.0
 10
74.57943531399938
 20
98.40566103221343
 30
0.0
 10
74.63665742107634
 20
98.20198022273884
 30
0.0
 10
74.68636894671526
 20
97.97631993924085
 30
0.0
  0
ARC
  5
1FF
330
1F
100
AcDbEntity
  8
0
  6
Continuous
 62
     7
370
    15
100
AcDbCircle
 10
80.9445154969
 20
122.9451805202
 30
0.0
 40
25.00000000000001
100
AcDbArc
 50
253.2307257341
 51
254.7374090638
  0
ARC
  5
200
330
1F
100
AcDbEntity
  8
0
  6
Continuous
 62
     7
370
    15
100
AcDbCircle
 10
80.9445154969
 20
122.9451805202
 30
0.0
 40
25.00000000000001
100
AcDbArc
 50
125.2625909362
 51
126.7692742659
  0
SPLINE
  5
201
330
1F
100
AcDbEntity
  8
0
  6
Continuous
 62
     7
370
    15
100
AcDbSpline
210
0.0
220
0.0
230
1.0
 70
     8
 71
     3
 72
     8
 73
     4
 74
     0
 42
0.00000001
 43
0.00000001
 12
1.0
 22
0.0
 32
0.0
 13
1.0
 23
0.0
 33
0.0
 40
0.0
 40
0.0
 40
0.0
 40
0.0
 40
1.0
 40
1.0
 40
1.0
 40
1.0
 10
66.56851196146718
 20
143.6334947834383
 30
0.0
 10
66.5652914919686
 20
143.4852480904159
 30
0.0
 10
66.54637056717486
 20
143.3827747267874
 30
0.0
 10
66.51139960259326
 20
143.3580481673708
 30
0.0
  0
LINE
  5
202
330
1F
100
AcDbEntity
  8
0
  6
Continuous
 62
     7
370
    15
100
AcDbLine
 10
74.1288091172
 20
118.8003559445
 30
0.0
 11
66.5685122017
 21
143.633494511
 31
0.0
  0
LINE
  5
203
330
1F
100
AcDbEntity
  8
0
  6
Continuous
 62
     7
370
    15
100
AcDbLine
 10
75.609078363
 20
110.4053318349
 30
0.0
 11
74.1288091172
 21
118.8003559445
 31
0.0
  0
ARC
  5
204
330
1F
100
AcDbEntity
  8
0
  6
Continuous
 62
     7
370
    15
100
AcDbCircle
 10
79.5395504968
 20
100.4257843077
 30
0.0
 40
5.089234788791505
100
AcDbArc
 50
164.8887230851
 51
213.4566239638
  0
LINE
  5
205
330
1F
100
AcDbEntity
  8
0
  6
Continuous
 62
     7
370
    15
100
AcDbLine
 10
75.6426152889
 20
97.5226763484
 30
0.0
 11
75.2935844589
 21
97.6200610248
 31
0.0
  0
LWPOLYLINE
  5
206
330
1F
100
AcDbEntity
  8
0
  6
Continuous
 62
     7
370
    15
100
AcDbPolyline
 90
       34
 70
   128
 43
0.0
 10
74.902741902
 20
107.1094781009
 10
75.003095169
 20
106.4568556694
 10
75.0775260035
 20
105.827821776
 10
75.1233456772
 20
105.2451081422
 10
75.1388969015
 20
104.729779422
 10
75.123618089
 20
104.3004583416
 10
75.0780619796
 20
103.9726644603
 10
75.0038742203
 20
103.758240476
 10
74.9037365545
 20
103.6649405805
 10
74.7812681016
 20
103.6961342988
 10
74.6408954378
 20
103.8506965933
 10
74.4876914773
 20
104.1230395285
 10
74.3271943297
 20
104.5033190248
 10
74.1652038064
 20
104.9777924863
 10
74.0075751323
 20
105.5293105391
 10
73.8600056734
 20
106.1379391549
 10
73.7278281827
 20
106.7816823569
 10
73.6158208106
 20
107.4372729135
 10
73.5280310851
 20
108.0810161156
 10
73.4676320221
 20
108.6896456627
 10
73.4368071076
 20
109.2411627841
 10
73.4366702031
 20
109.7156362457
 10
73.4672259655
 20
110.0959166733
 10
73.5273707774
 20
110.3682586772
 10
73.6149295349
 20
110.5228200403
 10
73.7267390009
 20
110.5540137586
 10
73.8587572355
 20
110.4607138631
 10
74.0062130731
 20
110.2462908102
 10
74.1637774859
 20
109.9184959975
 10
74.325754505
 20
109.4891749171
 10
74.4862912338
 20
108.9738461969
 10
74.6395846013
 20
108.3911344257
 10
74.7800941695
 20
107.7620996011
 10
74.902741902
 20
107.1094781009
  0
LINE
  5
207
330
1F
100
AcDbEntity
  8
0
  6
Continuous
 62
     7
370
    15
100
AcDbLine
 10
74.6262946282
 20
101.7525199649
 30
0.0
 11
77.6119460002
 21
100.9194873122
 31
0.0
  0
ELLIPSE
  5
208
330
1F
100
AcDbEntity
  8
0
  6
Continuous
 62
     7
370
    15
100
AcDbEllipse
 10
79.9445154969
 20
118.9008280093
 30
0.0
 11
-27.83681865754384
 21
30.95727638660826
 31
0.0
210
0.0
220
0.0
230
1.0
 40
0.5725048794
 41
2.024988872829349
 42
2.071210805626746
  0
LINE
  5
209
330
1F
100
AcDbEntity
  8
0
  6
Continuous
 62
     7
370
    15
100
AcDbLine
 10
106.44451502
 20
115.8424512332
 30
0.0
 11
106.44451502
 21
122.9451805202
 31
0.0
  0
LINE
  5
20A
330
1F
100
AcDbEntity
  8
0
  6
Continuous
 62
     7
370
    15
100
AcDbLine
 10
106.3976657692
 20
124.4902256958
 30
0.0
 11
74.1288091172
 21
118.8003559445
 31
0.0
  0
ARC
  5
20B
330
1F
100
AcDbEntity
  8
0
  6
Continuous
 62
     7
370
    15
100
AcDbCircle
 10
80.9445154969
 20
122.9451805202
 30
0.0
 40
25.50000000000001
100
AcDbArc
 50
0.0
 51
3.4736793437
  0
SPLINE
  5
20C
330
1F
100
AcDbEntity
  8
0
  6
Continuous
 62
     7
370
    15
100
AcDbSpline
210
0.0
220
0.0
230
1.0
 70
     8
 71
     3
 72
    10
 73
     6
 74
     0
 42
0.00000001
 43
0.00000001
 12
1.0
 22
0.0
 32
0.0
 13
1.0
 23
0.0
 33
0.0
 40
0.0
 40
0.0
 40
0.0
 40
0.0
 40
0.5
 40
0.5
 40
1.0
 40
1.0
 40
1.0
 40
1.0
 10
68.0145822117911
 20
144.3418350540737
 30
0.0
 10
67.7879275984339
 20
144.2048683602937
 30
0.0
 10
67.55289753965516
 20
144.0789331127702
 30
0.0
 10
67.07050555204395
 20
143.8433051403467
 30
0.0
 10
66.82303910297125
 20
143.7337500808907
 30
0.0
 10
66.56851196146677
 20
143.6334947834384
 30
0.0
  0
ARC
  5
20D
330
1F
100
AcDbEntity
  8
0
  6
Continuous
 62
     7
370
    15
100
AcDbCircle
 10
80.9445154969
 20
122.9451805202
 30
0.0
 40
25.0
100
AcDbArc
 50
50.9993825277
 51
121.1444410979
  0
SPLINE
  5
20E
330
1F
100
AcDbEntity
  8
0
  6
Continuous
 62
     7
370
    15
100
AcDbSpline
210
0.0
220
0.0
230
1.0
 70
     8
 71
     3
 72
    12
 73
     8
 74
     0
 42
0.00000001
 43
0.00000001
 12
1.0
 22
0.0
 32
0.0
 13
1.0
 23
0.0
 33
0.0
 40
0.0
 40
0.0
 40
0.0
 40
0.0
 40
0.2499999999999996
 40
0.2499999999999996
 40
0.4999999999999991
 40
0.4999999999999991
 40
1.0
 40
1.0
 40
1.0
 40
1.0
 10
98.91705029826942
 20
141.0349011595885
 30
0.0
 10
98.70937492365364
 20
141.1181429568362
 30
0.0
 10
98.50852322001715
 20
141.2123105300896
 30
0.0
 10
98.11550658449968
 20
141.4145545714863
 30
0.0
 10
97.92336293407584
 20
141.5228985979996
 30
0.0
 10
97.36351250738811
 20
141.8617363316449
 30
0.0
 10
97.00856734695962
 20
142.1057510656085
 30
0.0
 10
96.67773465330073
 20
142.3736600019881
 30
0.0
  0
ARC
  5
20F
330
1F
100
AcDbEntity
  8
0
  6
Continuous
 62
     7
370
    15
100
AcDbCircle
 10
80.9445154969
 20
122.9451805202
 30
0.0
 40
25.50000000000009
100
AcDbArc
 50
3.4736793437
 51
45.1861844253
  0
LINE
  5
210
330
1F
100
AcDbEntity
  8
0
  6
Continuous
 62
     7
370
    15
100
AcDbLine
 10
106.44451502
 20
103.4296139923
 30
0.0
 11
106.44451502
 21
102.7736481128
 31
0.0
  0
SPLINE
  5
211
330
1F
100
AcDbEntity
  8
0
  6
Continuous
 62
     7
370
    15
100
AcDbSpline
210
0.0
220
0.0
230
1.0
 70
     8
 71
     3
 72
     9
 73
     5
 74
     0
 42
0.00000001
 43
0.00000001
 12
1.0
 22
0.0
 32
0.0
 13
1.0
 23
0.0
 33
0.0
 40
0.0
 40
0.0
 40
0.0
 40
0.0
 40
0.4966986434920868
 40
0.9999999999999999
 40
0.9999999999999999
 40
0.9999999999999999
 40
0.9999999999999999
 10
106.4445154938916
 20
102.7736479247119
 30
0.0
 10
106.363332886112
 20
102.6566121305417
 30
0.0
 10
106.1998884941387
 20
102.4209847623102
 30
0.0
 10
106.0334327489499
 20
102.1894490446237
 30
0.0
 10
105.9496553465978
 20
102.0729168038321
 30
0.0
  0
SPLINE
  5
212
330
1F
100
AcDbEntity
  8
0
  6
Continuous
 62
     7
370
    15
100
AcDbSpline
210
0.0
220
0.0
230
1.0
 70
     8
 71
     3
 72
    18
 73
    14
 74
     0
 42
0.00000001
 43
0.00000001
 12
1.0
 22
0.0
 32
0.0
 13
1.0
 23
0.0
 33
0.0
 40
0.0
 40
0.0
 40
0.0
 40
0.0
 40
0.2499999999999999
 40
0.2499999999999999
 40
0.3749999999999997
 40
0.3749999999999997
 40
0.4999999999999993
 40
0.4999999999999993
 40
0.624999999999999
 40
0.624999999999999
 40
0.7499999999999987
 40
0.7499999999999987
 40
1.0
 40
1.0
 40
1.0
 40
1.0
 10
69.6107919113812
 20
109.8359292427809
 30
0.0
 10
69.83288478225332
 20
109.5783333207783
 30
0.0
 10
70.01965396795265
 20
109.2991440360805
 30
0.0
 10
70.25508047543677
 20
108.8498264978967
 30
0.0
 10
70.32599472886463
 20
108.6940764804464
 30
0.0
 10
70.44764332179977
 20
108.3773471276664
 30
0.0
 10
70.49881437060391
 20
108.2157475791113
 30
0.0
 10
70.5781166942354
 20
107.8846807823123
 30
0.0
 10
70.6062432400484
 20
107.7135852417941
 30
0.0
 10
70.63128431463777
 20
107.3741129068918
 30
0.0
 10
70.62862874519742
 20
107.2048823157034
 30
0.0
 10
70.56616930597846
 20
106.6984582444434
 30
0.0
 10
70.45167948322157
 20
106.3801062779107
 30
0.0
 10
70.27076188668826
 20
106.0930535203285
 30
0.0
  0
SPLINE
  5
213
330
1F
100
AcDbEntity
  8
0
  6
Continuous
 62
     7
370
    15
100
AcDbSpline
210
0.0
220
0.0
230
1.0
 70
     8
 71
     3
 72
    12
 73
     8
 74
     0
 42
0.00000001
 43
0.00000001
 12
1.0
 22
0.0
 32
0.0
 13
1.0
 23
0.0
 33
0.0
 40
0.0
 40
0.0
 40
0.0
 40
0.0
 40
0.2500000000000002
 40
0.2500000000000002
 40
0.5000000000000003
 40
0.5000000000000003
 40
1.0
 40
1.0
 40
1.0
 40
1.0
 10
65.97966279652229
 20
142.9714928031824
 30
0.0
 10
65.93195355286558
 20
142.9358416162001
 30
0.0
 10
65.84547339634204
 20
142.8711059264618
 30
0.0
 10
65.6018617521719
 20
142.6841407694062
 30
0.0
 10
65.4496448432843
 20
142.5655778269325
 30
0.0
 10
64.92173571593794
 20
142.1408716064135
 30
0.0
 10
64.4908229903066
 20
141.7769001812614
 30
0.0
 10
64.04999947183501
 20
141.3727503078468
 30
0.0
  0
SPLINE
  5
214
330
1F
100
AcDbEntity
  8
0
  6
Continuous
 62
     7
370
    15
100
AcDbSpline
210
0.0
220
0.0
230
1.0
 70
     8
 71
     3
 72
    20
 73
    16
 74
     0
 42
0.00000001
 43
0.00000001
 12
1.0
 22
0.0
 32
0.0
 13
1.0
 23
0.0
 33
0.0
 40
0.0
 40
0.0
 40
0.0
 40
0.0
 40
0.25
 40
0.25
 40
0.375
 40
0.375
 40
0.5
 40
0.5
 40
0.625
 40
0.625
 40
0.75
 40
0.75
 40
0.875
 40
0.875
 40
1.0
 40
1.0
 40
1.0
 40
1.0
 10
71.37146351632218
 20
99.85066437936209
 30
0.0
 10
71.64831772419605
 20
99.73590381426297
 30
0.0
 10
71.91503236498248
 20
99.63118262448637
 30
0.0
 10
72.29728091951135
 20
99.48790339682064
 30
0.0
 10
72.42265892105206
 20
99.44211965044127
 30
0.0
 10
72.66024922956589
 20
99.35732682049245
 30
0.0
 10
72.77267387691411
 20
99.31821525629482
 30
0.0
 10
72.9841786866482
 20
99.24611891617742
 30
0.0
 10
73.08326814712156
 20
99.21313256751478
 30
0.0
 10
73.26668811082912
 20
99.1531592409425
 30
0.0
 10
73.35069038839067
 20
99.12628816989935
 30
0.0
 10
73.49610689656728
 20
99.08041523963793
 30
0.0
 10
73.55851643855598
 20
99.06108666685618
 30
0.0
 10
73.66185771040284
 20
99.0293736793267
 30
0.0
 10
73.70293666482418
 20
99.01694553593349
 30
0.0
 10
73.73155604052754
 20
99.00832158083824
 30
0.0
  0
SPLINE
  5
215
330
1F
100
AcDbEntity
  8
0
  6
Continuous
 62
     7
370
    15
100
AcDbSpline
210
0.0
220
0.0
230
1.0
 70
     8
 71
     3
 72
    13
 73
     9
 74
     0
 42
0.00000001
 43
0.00000001
 12
1.0
 22
0.0
 32
0.0
 13
1.0
 23
0.0
 33
0.0
 40
0.0
 40
0.0
 40
0.0
 40
0.0
 40
0.2759233185808008
 40
0.463665081142669
 40
0.6560936838835828
 40
0.8110483283126746
 40
0.9416218879076976
 40
1.0
 40
1.0
 40
1.0
 40
1.0
 10
65.22602933682785
 20
109.9792079848521
 30
0.0
 10
65.3992997547214
 20
110.0111506187655
 30
0.0
 10
65.69046558581337
 20
110.0648274302128
 30
0.0
 10
66.09935497418797
 20
110.3182886877227
 30
0.0
 10
66.4466481118007
 20
110.5648331682957
 30
0.0
 10
66.79179549329295
 20
110.818277503185
 30
0.0
 10
67.07340529725207
 20
111.0007732010215
 30
0.0
 10
67.21493613648802
 20
111.0816377251441
 30
0.0
 10
67.25866320766792
 20
111.1066214588754
 30
0.0
  0
ELLIPSE
  5
216
330
1F
100
AcDbEntity
  8
0
  6
Continuous
 62
     7
370
    15
100
AcDbEllipse
 10
67.809288286
 20
108.192703829
 30
0.0
 11
-2.055430283751534
 21
2.557027882226492
 31
0.0
210
0.0
220
0.0
230
1.0
 40
0.7425888588
 41
4.758758796958654
 42
9.674902651449777
  0
ARC
  5
217
330
1F
100
AcDbEntity
  8
0
  6
Continuous
 62
     7
370
    15
100
AcDbCircle
 10
80.9445154969
 20
122.9451805202
 30
0.0
 40
25.0
100
AcDbArc
 50
132.514800836
 51
247.485199164
  0
LINE
  5
218
330
1F
100
AcDbEntity
  8
0
  6
Continuous
 62
     7
370
    15
100
AcDbLine
 10
74.6552745927
 20
101.0161287931
 30
0.0
 11
78.0858755693
 21
88.8778291491
 31
0.0
  0
ARC
  5
219
330
1F
100
AcDbEntity
  8
0
  6
Continuous
 62
     7
370
    15
100
AcDbCircle
 10
75.4693010719
 20
101.3719307488
 30
0.0
 40
0.8883885075884561
100
AcDbArc
 50
163.8833610956
 51
203.6096056063
  0
LINE
  5
21A
330
1F
100
AcDbEntity
  8
0
  6
Continuous
 62
     7
370
    15
100
AcDbLine
 10
77.3006418835
 20
100.8694454876
 30
0.0
 11
74.6158274937
 21
101.618541762
 31
0.0
  0
ARC
  5
21B
330
1F
100
AcDbEntity
  8
0
  6
Continuous
 62
     7
370
    15
100
AcDbCircle
 10
77.0540148864
 20
100.6392554187
 30
0.0
 40
0.3373608506393859
100
AcDbArc
 50
7.7456120876
 51
43.0256708283
  0
LINE
  5
21C
330
1F
100
AcDbEntity
  8
0
  6
Continuous
 62
     7
370
    15
100
AcDbLine
 10
80.818898708
 20
88.5464235989
 30
0.0
 11
77.3882977314
 21
100.6847232429
 31
0.0
  0
ARC
  5
21D
330
1F
100
AcDbEntity
  8
0
  6
Continuous
 62
     7
370
    15
100
AcDbCircle
 10
80.0048659547
 20
88.1906211912
 30
0.0
 40
0.8883944376623705
100
AcDbArc
 50
343.8835019539
 51
23.6094702605
  0
LINE
  5
21E
330
1F
100
AcDbEntity
  8
0
  6
Continuous
 62
     7
370
    15
100
AcDbLine
 10
78.1735311843
 20
88.6931069044
 30
0.0
 11
80.8583458361
 21
87.94401063
 31
0.0
  0
ARC
  5
21F
330
1F
100
AcDbEntity
  8
0
  6
Continuous
 62
     7
370
    15
100
AcDbCircle
 10
78.4201724309
 20
88.9233033136
 30
0.0
 40
0.3373755938201958
100
AcDbArc
 50
187.7463582139
 51
223.0248068125
  0
ARC
  5
220
330
1F
100
AcDbEntity
  8
0
  6
Continuous
 62
     7
370
    15
100
AcDbCircle
 10
80.0443622783
 20
88.1979686438
 30
0.0
 40
0.84397508833756
100
AcDbArc
 50
343.8834387834
 51
23.6095095139
  0
LINE
  5
221
330
1F
100
AcDbEntity
  8
0
  6
Continuous
 62
     7
370
    15
100
AcDbLine
 10
80.8176935038
 20
88.5359816102
 30
0.0
 11
77.3870923672
 21
100.6742812542
 31
0.0
  0
ARC
  5
222
330
1F
100
AcDbEntity
  8
0
  6
Continuous
 62
     7
370
    15
100
AcDbCircle
 10
77.0695244709
 20
100.6310866019
 30
0.0
 40
0.3204920385240479
100
AcDbArc
 50
7.7456703742
 51
43.0256706786
  0
LINE
  5
223
330
1F
100
AcDbEntity
  8
0
  6
Continuous
 62
     7
370
    15
100
AcDbLine
 10
77.3038195562
 20
100.8497666416
 30
0.0
 11
74.6190047007
 21
101.598862916
 31
0.0
  0
ARC
  5
224
330
1F
100
AcDbEntity
  8
0
  6
Continuous
 62
     7
370
    15
100
AcDbCircle
 10
75.4298051085
 20
101.3645829743
 30
0.0
 40
0.8439694261898771
100
AcDbArc
 50
163.88340465
 51
203.6096201892
  0
LINE
  5
225
330
1F
100
AcDbEntity
  8
0
  6
Continuous
 62
     7
370
    15
100
AcDbLine
 10
74.6564797241
 20
101.0265707818
 30
0.0
 11
78.0870807007
 21
88.8882711378
 31
0.0
  0
ARC
  5
226
330
1F
100
AcDbEntity
  8
0
  6
Continuous
 62
     7
370
    15
100
AcDbCircle
 10
78.4046694898
 20
88.9314733831
 30
0.0
 40
0.3205137641125843
100
AcDbArc
 50
187.7465119682
 51
223.0243579974
  0
LINE
  5
227
330
1F
100
AcDbEntity
  8
0
  6
Continuous
 62
     7
370
    15
100
AcDbLine
 10
78.1703535117
 20
88.7127838877
 30
0.0
 11
80.8551682653
 21
87.9636876134
 31
0.0
  0
LINE
  5
228
330
1F
100
AcDbEntity
  8
0
  6
Continuous
 62
     7
370
    15
100
AcDbLine
 10
86.9774229009
 20
89.6323382703
 30
0.0
 11
83.5468216915
 21
101.7706379143
 31
0.0
  0
ARC
  5
229
330
1F
100
AcDbEntity
  8
0
  6
Continuous
 62
     7
370
    15
100
AcDbCircle
 10
86.076664313
 20
89.2614698373
 30
0.0
 40
0.9741198223494189
100
AcDbArc
 50
346.2277380501
 51
22.3783858329
  0
LINE
  5
22A
330
1F
100
AcDbEntity
  8
0
  6
Continuous
 62
     7
370
    15
100
AcDbLine
 10
78.53764944
 20
89.580452427
 30
0.0
 11
78.3227574661
 21
89.1241937724
 31
0.0
  0
ARC
  5
22B
330
1F
100
AcDbEntity
  8
0
  6
Continuous
 62
     7
370
    15
100
AcDbCircle
 10
77.4735701036
 20
90.8075798796
 30
0.0
 40
2.220970631401184
100
AcDbArc
 50
343.8833895708
 51
23.609595192
  0
LINE
  5
22C
330
1F
100
AcDbEntity
  8
0
  6
Continuous
 62
     7
370
    15
100
AcDbLine
 10
79.5086358789
 20
91.6970841435
 30
0.0
 11
77.5886524584
 21
98.4904527513
 31
0.0
  0
LINE
  5
22D
330
1F
100
AcDbEntity
  8
0
  6
Continuous
 62
     7
370
    15
100
AcDbLine
 10
75.9655374218
 20
97.8654682485
 30
0.0
 11
77.8855206095
 21
91.0720996407
 31
0.0
  0
ARC
  5
22E
330
1F
100
AcDbEntity
  8
0
  6
Continuous
 62
     7
370
    15
100
AcDbCircle
 10
78.0006131518
 20
98.7549744215
 30
0.0
 40
2.220980517462845
100
AcDbArc
 50
163.8834645124
 51
203.6095374696
  0
LINE
  5
22F
330
1F
100
AcDbEntity
  8
0
  6
Continuous
 62
     7
370
    15
100
AcDbLine
 10
77.3695131879
 20
98.9522583631
 30
0.0
 11
75.8669192087
 21
99.3715006707
 31
0.0
  0
ARC
  5
230
330
1F
100
AcDbEntity
  8
0
  6
Continuous
 62
     7
370
    15
100
AcDbCircle
 10
76.7529268552
 20
98.376774883
 30
0.0
 40
0.8434215681908696
100
AcDbArc
 50
7.7460020286
 51
43.0252101535
  0
LINE
  5
231
330
1F
100
AcDbEntity
  8
0
  6
Continuous
 62
     7
370
    15
100
AcDbLine
 10
78.10465988
 20
90.6102940289
 30
0.0
 11
79.6072537428
 21
90.191053584
 31
0.0
  0
ARC
  5
232
330
1F
100
AcDbEntity
  8
0
  6
Continuous
 62
     7
370
    15
100
AcDbCircle
 10
78.7212368371
 20
91.18577306
 30
0.0
 40
0.8434116784752436
100
AcDbArc
 50
187.7457883966
 51
223.0254237856
  0
LWPOLYLINE
  5
233
330
1F
100
AcDbEntity
  8
0
  6
Continuous
 62
     7
370
    15
100
AcDbPolyline
 90
       29
 70
   128
 43
0.0
 10
78.1469931476
 20
92.2427646664
 10
78.2428176258
 20
92.2768063692
 10
78.3132826559
 20
92.4364331958
 10
78.3548548002
 20
92.7136413602
 10
78.3654495258
 20
93.0945280788
 10
78.3445355132
 20
93.5599937883
 10
78.2931614317
 20
94.0867014078
 10
78.2139033195
 20
94.6482386289
 10
78.1107358284
 20
95.2164459822
 10
77.988831757
 20
95.7628324476
 10
77.8543043066
 20
96.259998515
 10
77.7138990466
 20
96.6830164043
 10
77.5746565428
 20
97.0106724498
 10
77.4435589206
 20
97.2265381214
 10
77.3271799203
 20
97.3197877256
 10
77.2313554421
 20
97.2857460228
 10
77.160890412
 20
97.1261191962
 10
77.1193182677
 20
96.8489110318
 10
77.1087235421
 20
96.4680243132
 10
77.1296375547
 20
96.0025586036
 10
77.1810116362
 20
95.4758509842
 10
77.2602697484
 20
94.9143137631
 10
77.3634372395
 20
94.3461064098
 10
77.4853413109
 20
93.7997199443
 10
77.6198687613
 20
93.302553877
 10
77.7602740213
 20
92.8795359877
 10
77.8995165251
 20
92.5518799422
 10
78.0306141473
 20
92.3360142705
 10
78.1469931476
 20
92.2427646664
  0
ARC
  5
234
330
1F
100
AcDbEntity
  8
0
  6
Continuous
 62
     7
370
    15
100
AcDbCircle
 10
83.1555471515
 20
101.7051146056
 30
0.0
 40
0.3967229129129602
100
AcDbArc
 50
9.5066101994
 51
38.4415181447
  0
LINE
  5
235
330
1F
100
AcDbEntity
  8
0
  6
Continuous
 62
     7
370
    15
100
AcDbLine
 10
75.9720548172
 20
100.2726986853
 30
0.0
 11
74.8921564896
 21
101.2624934164
 31
0.0
  0
LINE
  5
236
330
1F
100
AcDbEntity
  8
0
  6
Continuous
 62
     7
370
    15
100
AcDbLine
 10
76.0968455229
 20
100.2378802595
 30
0.0
 11
75.9720548172
 21
100.2726986853
 31
0.0
  0
SPLINE
  5
237
330
1F
100
AcDbEntity
  8
0
  6
Continuous
 62
     7
370
    15
100
AcDbSpline
210
0.0
220
0.0
230
1.0
 70
     8
 71
     3
 72
    10
 73
     6
 74
     0
 42
0.00000001
 43
0.00000001
 12
1.0
 22
0.0
 32
0.0
 13
1.0
 23
0.0
 33
0.0
 40
0.0
 40
0.0
 40
0.0
 40
0.0
 40
0.4939700365681222
 40
0.9873596480304785
 40
1.0
 40
1.0
 40
1.0
 40
1.0
 10
78.53764944002316
 20
89.580452427017
 30
0.0
 10
78.56019079286874
 20
89.64785429544126
 30
0.0
 10
78.60524701199972
 20
89.78257883368724
 30
0.0
 10
78.6033359079376
 20
89.92825123052721
 30
0.0
 10
78.57151851259535
 20
89.98783696980801
 30
0.0
 10
78.57072373144612
 20
89.98932538901498
 30
0.0
  0
LINE
  5
238
330
1F
100
AcDbEntity
  8
0
  6
Continuous
 62
     7
370
    15
100
AcDbLine
 10
75.9720548172
 20
100.2726986853
 30
0.0
 11
76.0431640897
 21
100.0210981665
 31
0.0
  0
ARC
  5
239
330
1F
100
AcDbEntity
  8
0
  6
Continuous
 62
     7
370
    15
100
AcDbCircle
 10
87.2465455601
 20
90.1607341717
 30
0.0
 40
2.435255100607607
100
AcDbArc
 50
346.2274557766
 51
22.3786470829
  0
LINE
  5
23A
330
1F
100
AcDbEntity
  8
0
  6
Continuous
 62
     7
370
    15
100
AcDbLine
 10
86.7052387562
 20
90.5953891424
 30
0.0
 11
83.6205808096
 21
101.5096589771
 31
0.0
  0
LINE
  5
23B
330
1F
100
AcDbEntity
  8
0
  6
Continuous
 62
     7
370
    15
100
AcDbLine
 10
89.498396695
 20
91.0878985969
 30
0.0
 11
86.4137380499
 21
102.0021684316
 31
0.0
  0
LWPOLYLINE
  5
23C
330
1F
100
AcDbEntity
  8
0
  6
Continuous
 62
     7
370
    15
100
AcDbPolyline
 90
        3
 70
   128
 43
0.0
 10
89.7712723468
 20
90.982569739
 10
89.8142361198
 20
90.8115267602
 10
89.8503909934
 20
90.6290918437
  0
LWPOLYLINE
  5
23D
330
1F
100
AcDbEntity
  8
0
  6
Continuous
 62
     7
370
    15
100
AcDbPolyline
 90
        3
 70
   128
 43
0.0
 10
89.885488816
 20
89.9811521021
 10
89.8710384149
 20
89.9440742878
 10
89.869846322
 20
89.9422451702
  0
LINE
  5
23E
330
1F
100
AcDbEntity
  8
0
  6
Continuous
 62
     7
370
    15
100
AcDbLine
 10
86.898583651
 20
101.1468361912
 30
0.0
 11
89.7712723468
 21
90.982569739
 31
0.0
  0
ARC
  5
23F
330
1F
100
AcDbEntity
  8
0
  6
Continuous
 62
     7
370
    15
100
AcDbCircle
 10
85.2948098715
 20
101.7887795342
 30
0.0
 40
1.13909397774687
100
AcDbArc
 50
10.7971309386
 51
34.8129453732
  0
LWPOLYLINE
  5
240
330
1F
100
AcDbEntity
  8
0
  6
Continuous
 62
     7
370
    15
100
AcDbPolyline
 90
       34
 70
   128
 43
0.0
 10
73.4390525263
 20
109.7735943121
 10
73.4737480175
 20
110.139829464
 10
73.5377964679
 20
110.3965410811
 10
73.628882144
 20
110.534448534
 10
73.7437142175
 20
110.5485692469
 10
73.8781417836
 20
110.4383919237
 10
74.0273061324
 20
110.2078988997
 10
74.1858163033
 20
109.8654208553
 10
74.3479432654
 20
109.423335999
 10
74.5078276027
 20
108.8976221008
 10
74.659689993
 20
108.3072809351
 10
74.7980426181
 20
107.6736472396
 10
74.9178842757
 20
107.0196222362
 10
75.0148838501
 20
106.3688456861
 10
75.0855358433
 20
105.7448372093
 10
75.127286103
 20
105.1701515761
 10
75.1386258867
 20
104.6655572799
 10
75.119145878
 20
104.2492914793
 10
75.0695496913
 20
103.9364024845
 10
74.9916296568
 20
103.7381946889
 10
74.8882020939
 20
103.661835551
 10
74.7630053315
 20
103.7100817857
 10
74.620564666
 20
103.8811918197
 10
74.4660275172
 20
104.1689798084
 10
74.3049794924
 20
104.5630466041
 10
74.1432418231
 20
105.0491466967
 10
73.9866594899
 20
105.609711617
 10
73.8408916745
 20
106.2244832364
 10
73.7112078
 20
106.871242061
 10
73.6022938158
 20
107.5266091002
 10
73.5180868883
 20
108.1669008208
 10
73.4616301138
 20
108.7689747882
 10
73.4349640202
 20
109.3110697192
 10
73.4390525263
 20
109.7735943121
  0
LWPOLYLINE
  5
241
330
1F
100
AcDbEntity
  8
0
  6
Continuous
 62
     7
370
    15
100
AcDbPolyline
 90
       26
 70
   128
 43
0.0
 10
73.801981483
 20
108.6318300885
 10
73.8317456212
 20
108.8951596839
 10
73.8900450174
 20
109.046288192
 10
73.9732167799
 20
109.075719848
 10
74.0760347921
 20
108.9816059766
 10
74.1920384694
 20
108.7698586134
 10
74.3139388155
 20
108.453783564
 10
74.4340766337
 20
108.0532412825
 10
74.5449030887
 20
107.5933979673
 10
74.6394546818
 20
107.1031488327
 10
74.7117905062
 20
106.6132973728
 10
74.7573647764
 20
106.1546228675
 10
74.7733146068
 20
105.7559441624
 10
74.7586374287
 20
105.4423138348
 10
74.714255717
 20
105.2334386704
 10
74.6429578517
 20
105.1424391416
 10
74.5492239598
 20
105.175039157
 10
74.4389432598
 20
105.329184219
 10
74.3190461885
 20
105.5951941607
 10
74.1970648173
 20
105.9563498793
 10
74.0806648623
 20
106.3899624941
 10
73.977159534
 20
106.8687833694
 10
73.8930531893
 20
107.3627289233
 10
73.8336292211
 20
107.8407618997
 10
73.8026226986
 20
108.2728452829
 10
73.801981483
 20
108.6318300885
  0
SPLINE
  5
242
330
1F
100
AcDbEntity
  8
0
  6
Continuous
 62
     7
370
    15
100
AcDbSpline
210
0.0
220
0.0
230
1.0
 70
     8
 71
     3
 72
     9
 73
     5
 74
     0
 42
0.00000001
 43
0.00000001
 12
1.0
 22
0.0
 32
0.0
 13
1.0
 23
0.0
 33
0.0
 40
0.0
 40
0.0
 40
0.0
 40
0.0
 40
0.7383189654680598
 40
0.9999999999999999
 40
0.9999999999999999
 40
0.9999999999999999
 40
0.9999999999999999
 10
74.37928785793767
 20
108.2362517562978
 30
0.0
 10
74.3456430407033
 20
108.1169237286983
 30
0.0
 10
74.30007355270695
 20
107.9553024874996
 30
0.0
 10
74.18704959067028
 20
107.7967693087097
 30
0.0
 10
74.15747336335764
 20
107.7552841824763
 30
0.0
  0
SPLINE
  5
243
330
1F
100
AcDbEntity
  8
0
  6
Continuous
 62
     7
370
    15
100
AcDbSpline
210
0.0
220
0.0
230
1.0
 70
     8
 71
     3
 72
    10
 73
     6
 74
     0
 42
0.00000001
 43
0.00000001
 12
1.0
 22
0.0
 32
0.0
 13
1.0
 23
0.0
 33
0.0
 40
0.0
 40
0.0
 40
0.0
 40
0.0
 40
0.4391160928258167
 40
0.751366292630899
 40
1.0
 40
1.0
 40
1.0
 40
1.0
 10
74.15747336335764
 20
107.7552841824763
 30
0.0
 10
74.3054365563199
 20
107.5318409291324
 30
0.0
 10
74.55861460549241
 20
107.1495098517218
 30
0.0
 10
74.60303980144505
 20
106.5366610640494
 30
0.0
 10
74.52821639349514
 20
106.2145354923646
 30
0.0
 10
74.49504799433336
 20
106.0717407462471
 30
0.0
  0
LINE
  5
244
330
1F
100
AcDbEntity
  8
0
  6
Continuous
 62
     7
370
    15
100
AcDbLine
 10
74.4950479943
 20
106.0717407462
 30
0.0
 11
74.7628549229
 21
105.9187915025
 31
0.0
  0
LINE
  5
245
330
1F
100
AcDbEntity
  8
0
  6
Continuous
 62
     7
370
    15
100
AcDbLine
 10
74.7598714311
 20
106.1184372601
 30
0.0
 11
74.4950479943
 21
106.0717407462
 31
0.0
  0
LINE
  5
246
330
1F
100
AcDbEntity
  8
0
  6
Continuous
 62
     7
370
    15
100
AcDbLine
 10
74.4945371639
 20
107.8147174639
 30
0.0
 11
74.1574733634
 21
107.7552841825
 31
0.0
  0
ELLIPSE
  5
247
330
1F
100
AcDbEntity
  8
0
  6
Continuous
 62
     7
370
    15
100
AcDbEllipse
 10
77.8705929811
 20
95.448034347
 30
0.0
 11
-0.4089826913515537
 21
2.316322506802877
 31
0.0
210
0.0
220
0.0
230
1.0
 40
0.1735685188
 41
2.039026565851776
 42
3.379691594675896
  0
INSERT
  5
253
330
1F
100
AcDbEntity
  8
VERMASSUNG
100
AcDbBlockReference
  2
SW_CENTERMARKSYMBOL_0
 10
80.9445154969
 20
122.9451805202
 30
0.0
  0
OLE2FRAME
  5
254
330
1F
100
AcDbEntity
  8
0
100
AcDbOle2Frame
 70
     2
  3
Paintbrush-Bild
 10
13.8511154363
 20
38.264191557
 30
0.0
 11
51.6290888628
 21
31.9806341108
 31
0.0
 71
     2
 72
     0
 73
     1
 90
    12928
310
80552BED0767C5B32B40DDAF6807D121434000000000000000006FFBDDFB85D0
310
4940DDAF6807D121434000000000000000006FFBDDFB85D04940416F4BD60AFB
310
3F4000000000000000002BED0767C5B32B40416F4BD60AFB3F40000000000000
310
0000000000000100000000010000010000000100000000000100000000320000
310
D0CF11E0A1B11AE1000000000000000000000000000000003E000300FEFF0900
310
0600000000000000000000000100000001000000000000000010000002000000
310
01000000FEFFFFFF0000000000000000FFFFFFFFFFFFFFFFFFFFFFFFFFFFFFFF
310
FFFFFFFFFFFFFFFFFFFFFFFFFFFFFFFFFFFFFFFFFFFFFFFFFFFFFFFFFFFFFFFF
310
FFFFFFFFFFFFFFFFFFFFFFFFFFFFFFFFFFFFFFFFFFFFFFFFFFFFFFFFFFFFFFFF
310
FFFFFFFFFFFFFFFFFFFFFFFFFFFFFFFFFFFFFFFFFFFFFFFFFFFFFFFFFFFFFFFF
310
FFFFFFFFFFFFFFFFFFFFFFFFFFFFFFFFFFFFFFFFFFFFFFFFFFFFFFFFFFFFFFFF
310
FFFFFFFFFFFFFFFFFFFFFFFFFFFFFFFFFFFFFFFFFFFFFFFFFFFFFFFFFFFFFFFF
310
FFFFFFFFFFFFFFFFFFFFFFFFFFFFFFFFFFFFFFFFFFFFFFFFFFFFFFFFFFFFFFFF
310
FFFFFFFFFFFFFFFFFFFFFFFFFFFFFFFFFFFFFFFFFFFFFFFFFFFFFFFFFFFFFFFF
310
FFFFFFFFFFFFFFFFFFFFFFFFFFFFFFFFFFFFFFFFFFFFFFFFFFFFFFFFFFFFFFFF
310
FFFFFFFFFFFFFFFFFFFFFFFFFFFFFFFFFFFFFFFFFFFFFFFFFFFFFFFFFFFFFFFF
310
FFFFFFFFFFFFFFFFFFFFFFFFFFFFFFFFFFFFFFFFFFFFFFFFFFFFFFFFFFFFFFFF
310
FFFFFFFFFFFFFFFFFFFFFFFFFFFFFFFFFFFFFFFFFFFFFFFFFFFFFFFFFFFFFFFF
310
FFFFFFFFFFFFFFFFFFFFFFFFFFFFFFFFFFFFFFFFFFFFFFFFFFFFFFFFFFFFFFFF
310
FFFFFFFFFFFFFFFFFFFFFFFFFFFFFFFFFFFFFFFFFFFFFFFFFFFFFFFFFFFFFFFF
310
FDFFFFFFFEFFFFFFFEFFFFFFFEFFFFFF05000000060000000700000008000000
310
090000000A0000000B0000000C0000000D0000000E0000000F00000010000000
310
11000000120000001300000014000000150000001600000017000000FEFFFFFF
310
FFFFFFFFFFFFFFFFFFFFFFFFFFFFFFFFFFFFFFFFFFFFFFFFFFFFFFFFFFFFFFFF
310
FFFFFFFFFFFFFFFFFFFFFFFFFFFFFFFFFFFFFFFFFFFFFFFFFFFFFFFFFFFFFFFF
310
FFFFFFFFFFFFFFFFFFFFFFFFFFFFFFFFFFFFFFFFFFFFFFFFFFFFFFFFFFFFFFFF
310
FFFFFFFFFFFFFFFFFFFFFFFFFFFFFFFFFFFFFFFFFFFFFFFFFFFFFFFFFFFFFFFF
310
FFFFFFFFFFFFFFFFFFFFFFFFFFFFFFFFFFFFFFFFFFFFFFFFFFFFFFFFFFFFFFFF
310
FFFFFFFFFFFFFFFFFFFFFFFFFFFFFFFFFFFFFFFFFFFFFFFFFFFFFFFFFFFFFFFF
310
FFFFFFFFFFFFFFFFFFFFFFFFFFFFFFFFFFFFFFFFFFFFFFFFFFFFFFFFFFFFFFFF
310
FFFFFFFFFFFFFFFFFFFFFFFFFFFFFFFFFFFFFFFFFFFFFFFFFFFFFFFFFFFFFFFF
310
FFFFFFFFFFFFFFFFFFFFFFFFFFFFFFFFFFFFFFFFFFFFFFFFFFFFFFFFFFFFFFFF
310
FFFFFFFFFFFFFFFFFFFFFFFFFFFFFFFFFFFFFFFFFFFFFFFFFFFFFFFFFFFFFFFF
310
FFFFFFFFFFFFFFFFFFFFFFFFFFFFFFFFFFFFFFFFFFFFFFFFFFFFFFFFFFFFFFFF
310
FFFFFFFFFFFFFFFFFFFFFFFFFFFFFFFFFFFFFFFFFFFFFFFFFFFFFFFFFFFFFFFF
310
FFFFFFFFFFFFFFFFFFFFFFFFFFFFFFFFFFFFFFFFFFFFFFFFFFFFFFFFFFFFFFFF
310
52006F006F007400200045006E00740072007900000000000000000000000000
310
0000000000000000000000000000000000000000000000000000000000000000
310
16000500FFFFFFFFFFFFFFFF020000000A00030000000000C000000000000046
310
000000000000000000000000E03263D9B738CD0103000000C000000000000000
310
01004F006C006500000000000000000000000000000000000000000000000000
310
0000000000000000000000000000000000000000000000000000000000000000
310
0A000200FFFFFFFFFFFFFFFFFFFFFFFF00000000000000000000000000000000
310
0000000000000000000000000000000000000000000000001400000000000000
310
010043006F006D0070004F0062006A0000000000000000000000000000000000
310
0000000000000000000000000000000000000000000000000000000000000000
310
120002010100000003000000FFFFFFFF00000000000000000000000000000000
310
0000000000000000000000000000000000000000010000004D00000000000000
310
01004F006C006500310030004E00610074006900760065000000000000000000
310
0000000000000000000000000000000000000000000000000000000000000000
310
1A000200FFFFFFFFFFFFFFFFFFFFFFFF00000000000000000000000000000000
310
0000000000000000000000000000000000000000040000002426000000000000
310
FEFFFFFF02000000FEFFFFFFFFFFFFFFFFFFFFFFFFFFFFFFFFFFFFFFFFFFFFFF
310
FFFFFFFFFFFFFFFFFFFFFFFFFFFFFFFFFFFFFFFFFFFFFFFFFFFFFFFFFFFFFFFF
310
FFFFFFFFFFFFFFFFFFFFFFFFFFFFFFFFFFFFFFFFFFFFFFFFFFFFFFFFFFFFFFFF
310
FFFFFFFFFFFFFFFFFFFFFFFFFFFFFFFFFFFFFFFFFFFFFFFFFFFFFFFFFFFFFFFF
310
FFFFFFFFFFFFFFFFFFFFFFFFFFFFFFFFFFFFFFFFFFFFFFFFFFFFFFFFFFFFFFFF
310
FFFFFFFFFFFFFFFFFFFFFFFFFFFFFFFFFFFFFFFFFFFFFFFFFFFFFFFFFFFFFFFF
310
FFFFFFFFFFFFFFFFFFFFFFFFFFFFFFFFFFFFFFFFFFFFFFFFFFFFFFFFFFFFFFFF
310
FFFFFFFFFFFFFFFFFFFFFFFFFFFFFFFFFFFFFFFFFFFFFFFFFFFFFFFFFFFFFFFF
310
FFFFFFFFFFFFFFFFFFFFFFFFFFFFFFFFFFFFFFFFFFFFFFFFFFFFFFFFFFFFFFFF
310
FFFFFFFFFFFFFFFFFFFFFFFFFFFFFFFFFFFFFFFFFFFFFFFFFFFFFFFFFFFFFFFF
310
FFFFFFFFFFFFFFFFFFFFFFFFFFFFFFFFFFFFFFFFFFFFFFFFFFFFFFFFFFFFFFFF
310
FFFFFFFFFFFFFFFFFFFFFFFFFFFFFFFFFFFFFFFFFFFFFFFFFFFFFFFFFFFFFFFF
310
FFFFFFFFFFFFFFFFFFFFFFFFFFFFFFFFFFFFFFFFFFFFFFFFFFFFFFFFFFFFFFFF
310
FFFFFFFFFFFFFFFFFFFFFFFFFFFFFFFFFFFFFFFFFFFFFFFFFFFFFFFFFFFFFFFF
310
FFFFFFFFFFFFFFFFFFFFFFFFFFFFFFFFFFFFFFFFFFFFFFFFFFFFFFFFFFFFFFFF
310
FFFFFFFFFFFFFFFFFFFFFFFFFFFFFFFFFFFFFFFFFFFFFFFFFFFFFFFFFFFFFFFF
310
0100000200000000000000000000000000000000000000000000000000000000
310
0000000000000000000000000000000000000000000000000000000000000000
310
0100FEFF030A0000FFFFFFFF0A00030000000000C00000000000004607000000
310
5042727573680007000000504272757368000700000050427275736800F439B2
310
7100000000000000000000000000000000000000000000000000000000000000
310
0000000000000000000000000000000000000000000000000000000000000000
310
0000000000000000000000000000000000000000000000000000000000000000
310
0000000000000000000000000000000000000000000000000000000000000000
310
0000000000000000000000000000000000000000000000000000000000000000
310
0000000000000000000000000000000000000000000000000000000000000000
310
0000000000000000000000000000000000000000000000000000000000000000
310
0000000000000000000000000000000000000000000000000000000000000000
310
0000000000000000000000000000000000000000000000000000000000000000
310
0000000000000000000000000000000000000000000000000000000000000000
310
0000000000000000000000000000000000000000000000000000000000000000
310
0000000000000000000000000000000000000000000000000000000000000000
310
20260000424D0E260000000000003E00000028000000B40200006E0000000100
310
01000000000000000000130B0000130B00000200000002000000000000FFFFFF
310
FFFFFFFFFFFFFFFFFFFFFFFFFFFFFFFFFFFFFFFFFFFFFFFFFFFFFFFFFFFFFFFF
310
FFFFFFFFFFFFFFFFFFFFFFFFFFFFFFFFFFFFFFFFFFFFFFFFFFFFFFFFFFFFFFFF
310
FFFFFFFFFFFFFFFFFFFFFFFFFFFFFFFFFFFFFFFFFFFFFFFFF000FFFFFFFFFFFF
310
FFFFFFFFFFFFFFFFFFFFFFFFFFFFFFFFFFFFFFFFFFFFFFFFFFFFFFFFFFFFFFFF
310
FFFFFFFFFFFFFFFFFFFFFFFFFFFFFFFFFFFFFFFFFFFFFFFFFFFFFFFFFFFFFFFF
310
FFFFFFFFFFFFFFFFFFFFFFFFFFFFFFFFF000FFFFFFFFFFFFFFFFFFFFFFFFFFFF
310
FFFFFFFFFFFFFFFFFFFFFFFFFFFFFFFFFFFFFFFFFFFFFFFFFFFFFFFFFFFFFFFF
310
FFFFFFFFFFFFFFFFFFFFFFFFFFFFFFFFFFFFFFFFFFFFFFFFFFFFFFFFFFFFFFFF
310
FFFFFFFFFFFFFFFFF000FFFFFFFFFFFFFFFFFFFFFFFFFFFFFFFFFFFFFFFFFFFF
310
FFFFFFFFFFFFFFFFFFFFFFFFFFFFFFFFFFFFFFFFFFFFFFFFFFFFFFFFFFFFFFFF
310
FFFFFFFFFFFFFFFFFFFFFFFFFFFFFFFFFFFFFFFFFFFFFFFFFFFFFFFFFFFFFFFF
310
F000FFFFFFFFFFFFFFFFFFFFFFFFFFFFFFFFFFFFFFFFFFFFFFFFFFFFFFFFFFFF
310
FFFFFFFFFFFFFFFFFFFFFFFFFFFFFFFFFFFFFFFFFFFFFFFFFFFFFFFFFFFFFFFF
310
FFFFFFFFFFFFFFFFFFFFFFFFFFFFFFFFFFFFFFFFFFFFFFFFF000FFFFFFFFFFFF
310
FFFFFFFFFFFFFFFFFFFFFFFFFFFFFFFFFFFFFFFFFFFFFFFFFFFFFFFFFFFFFFFF
310
FFFFFFFFFFFFFFFFFFFFFFFFFFFFFFFFFFFFFFFFFFFFFFFFFFFFFFFFFFFFFFFF
310
FFFFFFFFFFFFFFFFFFFFFFFFFFFFFFFFF000FFFFFFFFFFFFFFFFFFFFFFFFFFFF
310
FFFFFFFFFFFFFFFFFFFFFFFFFFFFFFFFFFFFFFFFFFFFFFFFFFFFFFFFFFFFFFFF
310
FFFFFFFFFFFFFFFFFFFFFFFFFFFFFFFFFFFFFFFFFFFFFFFFFFFFFFFFFFFFFFFF
310
FFFFFFFFFFFFFFFFF000FFFFFFFFFFFFFFFFFFFFFFFFFFFFFFFFFFFFFFFFFFFF
310
FFFFFFFFFFFFFFFFFFFFFFFFFFFFFFFFFFFFFFFFFFFFFFFFFFFFFFFFFFFFFFFF
310
FFFFFFFFFFFFFFFFFFFFFFFFFFFFFFFFFFFFFFFFFFFFFFFFFFFFFFFFFFFFFFFF
310
F000FFFFFFFFFFFFFFFFFFFFFFFFFFFFFFFFFFFFFFFFFFFFFFFFFFFFFFFFFFFF
310
FFFFFFFFFFFFFFFFFFFFFFFFFFFFFFFFFFFFFFFFFFFFFFFFFFFFFFFFFFFFFFFF
310
FFFFFFFFFFFFFFFFFFFFFFFFFFFFFFFFFFFFFFFFFFFFFFFFF000FFFFFFFFFFFF
310
FFFFFFFFFFFFFFFFFFFFFFFFFFFFFFFFFFFFFFFFFFFFFFFFFFFFFFFFFFFFFFFF
310
FFFFFFFFFFFFFFFFFFFFFFFFFFFFFFFFFFFFFFFFFFFFFFFFFFFFFFFFFFFFFFFF
310
FFFFFFFFFFFFFFFFFFFFFFFFFFFFFFFFF000FFFFFFFFFFFFFFFFFFFFFFFFFFFF
310
FFFFFFFFFFFFFFFFFFFFFFFFFFFFFFFFFFFFFFFFFFFFFFFFFFFFFFFFFFFFFFFF
310
FFFFFFFFFFFFFFFFFFFFFFFFFFFFFFFFFFFFFFFFFFFFFFFFFFFFFFFFFFFFFFFF
310
FFFFFFFFFFFFFFFFF000FFFFFFFFFFFFFFFFFFFFFFFFFFFFFFFFFFFFFFFFFFFF
310
FFFFFFFFFFFFFFFFFFFFFFFFFFFFFFFFFFFFFFFFFFFFFFFFFFFFFFFFFFFFFFFF
310
FFFFFFFFFFFFFFFFFFFFFFFFFFFFFFFFFFFFFFFFFFFFFFFFFFFFFFFFFFFFFFFF
310
F000FFFFFFFFFFFFFFFFFFFFFFFFFFFFFFFFFFFFFFFFFFFFFFFFFFFFFFFFFFFF
310
FFFFFFFFFFFFFFFFFFFFFFFFFFFFFFFFFFFFFFFFFFFFFFFFFFFFFFFFFFFFFFFF
310
FFFFFFFFFFFFFFFFFFFFFFFFFFFFFFFFFFFFFFFFFFFFFFFFF000FFFFFFFFFFFF
310
FFFFFFFFFFFFFFFFFFFFFFFFFFFFFFFFFFFFFFFFFFFFFFFFFFFFFFFFFFFFFFFF
310
FFFFFFFFFFFFFFFFFFFFFFFFFFFFFFFFFFFFFFFFFFFFFFFFFFFFFFFFFFFFFFFF
310
FFFFFFFFFFFFFFFFFFFFFFFFFFFFFFFFF000FFFFFFFFFFFFFFFFFFFFFFFFFFFF
310
FFFFFFFFFFFFFFFFFFFFFFFFFFFFFFFFFFFFFFFFFFFFFFFFFFFFFFFFFFFFFFFF
310
FFFFFFFFFFFFFFFFFFFFFFFFFFFFFFFFFFFFFFFFFFFFFFFFFFFFFFFFFFFFFFFF
310
FFFFFFFFFFFFFFFFF000FFFFFFFFFFFFFFFFFFFFFFFFFFFFFFFFFFFFFFFFFFFF
310
FFFFFFFFFFFFFFFFFFFFFFFFFFFFFFFFFFFFFFFFFFFFFFFFFFFFFFFFFFFFFFFF
310
FFFFFFFFFFFFFFFFFFFFFFFFFFFFFFFFFFFFFFFFFFFFFFFFFFFFFFFFFFFFFFFF
310
F000FFFFFFFFFFFFFFFFFFFFFFFFFFFFFFFFFFFFFFFFFFFFFFFFFFFFFFFFFFFF
310
FFFFFFFFFFFFFFFFFFFFFFFFFFFFFFFFFFFFFFFFFFFFFFFFFFFFFFFFFFFFFFFF
310
FFFFFFFFFFFFFFFFFFFFFFFFFFFFFFFFFFFFFFFFFFFFFFFFF000FFFFFFFFFFFF
310
FFFFFFFFFFFFFFFFFFFFFFFFFFFFFFFFFFFFFFFFFFFFFFFFFFFFFFFFFFFFFFFF
310
FFFFFFFFFFFFFFFFFFFFFFFFFFFFFFFFFFFFFFFFFFFFFFFFFFFFFFFFFFFFFFFF
310
FFFFFFFFFFFFFFFFFFFFFFFFFFFFFFFFF000FFFFFFFFFFFFFFFFFFFFFFFFFFFF
310
FFFFFFFFFFFFFFFFFFFFFFFFFFFFFFFFFFFFFFFFFFFFFFFFFFFFFFFFFFFFFFFF
310
FFFFFFFFFFFFFFFFFFFFFFFFFFFFFFFFFFFFFFFFFFFFFFFFFFFFFFFFFFFFFFFF
310
FFFFFFFFFFFFFFFFF000FFFFF80003FFFFFFFFFFFFFFFFFFFFFFFFFFFFFFFFFF
310
FFFFF00007FFFFFFFFFF00007FFFFFF800000000000000007FFFFFFFFFFFFFFF
310
FFFFFFFC001FFFFFFFFFFFFFFC001FFFFFFFFFFFFFFFFFFFFFFFFFFE0007FFFF
310
F000FFFF8000007FFFFFFFF8000FFFFFC0007FFFFF80007FFFFF0000007FFFFF
310
FFF8000007FFFFF800000000000000007FFFFFF0001FFFFFFFFFFFC00001FFFF
310
FFFFFFFFC00001FFFFFFFF000000000003FFFFE000007FFFF000FFFE0000000F
310
FFFFFFF0000FFFFF80007FFFFF80007FFFFC0000001FFFFFFFC0000001FFFFF8
310
00000000000000007FFFFFF0001FFFFFFFFFFE0000003FFFFFFFFFFE0000003F
310
FFFFFF000000000003FFFF0000000FFFF000FFF800000003FFFFFFF00007FFFF
310
80007FFFFF80007FFFF000000007FFFFFF000000003FFFF80000000000000000
310
7FFFFFF0001FFFFFFFFFF80000000FFFFFFFFFF80000000FFFFFFF0000000000
310
03FFFC00000003FFF000FFE000000000FFFFFFF00007FFFF80003FFFFF80007F
310
FFC000000001FFFFFC000000001FFFF800000000000000007FFFFFF0001FFFFF
310
FFFFE000000003FFFFFFFFE000000003FFFFFF000000000003FFF000000000FF
310
F000FF80000000007FFFFFF00007FFFF80003FFFFF80007FFF8000000000FFFF
310
F80000000007FFF800000000000000007FFFFFF0001FFFFFFFFFC000000001FF
310
FFFFFFC000000001FFFFFF000000000003FFC0000000007FF000FF0000000000
310
3FFFFFE00007FFFF00003FFFFF80007FFE00000000003FFFF00000000003FFF8
310
00000000000000007FFFFFF0001FFFFFFFFF8000000000FFFFFFFF8000000000
310
FFFFFF000000000003FF80000000003FF000FE00000000001FFFFFE00003FFFF
310
00003FFFFF80007FFC00000000001FFFE00000000001FFF8000001FFFE000000
310
7FFFFFF0001FFFFFFFFE00000000003FFFFFFE00000000003FFFFF0000000000
310
03FF00000000001FF000FC00000000000FFFFFE00003FFFF00001FFFFF80007F
310
F800000000001FFFC00000000000FFF8000001FFFE0000007FFFFFF0001FFFFF
310
FFFC00000000001FFFFFFC00000000001FFFFF000000000003FE00000000000F
310
F000F8000000000007FFFFE00003FFFF00001FFFFF80007FF800000000000FFF
310
800000000000FFF8000001FFFE0000007FFFFFF0001FFFFFFFF800000000000F
310
FFFFF800000000000FFFFF000000000003FC000000000007F000F80000000000
310
03FFFFC00003FFFE00001FFFFF80007FF0000000000007FF0000000000007FF8
310
000001FFFE0000007FFFFFF0001FFFFFFFF0000000000007FFFFF00000000000
310
07FFFF000000000003F8000000000003F000F0000000000003FFFFC00001FFFE
310
00001FFFFF80007FE0000000000007FE0000000000003FF8000001FFFE000000
310
7FFFFFF0001FFFFFFFF0000000000007FFFFF0000000000007FFFF0000000000
310
03F800001F800003F000E00001FFF00001FFFFC00001FFFE00000FFFFF80007F
310
E00001FFE00003FE00001FFF00003FF8000001FFFE0000007FFFFFF0001FFFFF
310
FFE000003E000003FFFFE000003E000003FFFF000000000003F00001FFF80001
310
F000E00007FFFC0001FFFFC00001FFFE00000FFFFF80007FC0000FFFFC0003FC
310
0000FFFFC0001FF8000001FFFE0000007FFFFFF0001FFFFFFFC00003FFE00001
310
FFFFC00003FFE00001FFFF0001FFFFFFFFF00007FFFE0001F000E0000FFFFF00
310
00FFFF800001FFFC00000FFFFF80007FC0001FFFFE0001FC0001FFFFE0001FF8
310
000001FFFE0000007FFFFFF0001FFFFFFF80000FFFF80000FFFF80000FFFF800
310
00FFFF0003FFFFFFFFE0000FFFFF8000F000C0003FFFFF8000FFFF800000FFFC
310
000007FFFF80007F80003FFFFF0001FC0003FFFFF0001FF8000001FFFE000000
310
7FFFFFF0001FFFFFFF80003FFFFE0000FFFF80003FFFFE0000FFFF0003FFFFFF
310
FFE0003FFFFF8000F000C0003FFFFF8000FFFF800000FFFC000007FFFF80007F
310
80007FFFFF8001F80007FFFFF8000FF8000001FFFE0000007FFFFFF0001FFFFF
310
FF00007FFFFF00007FFF00007FFFFF00007FFF0003FFFFFFFFE0003FFFFFC000
310
F000C0007FFFFFC000FFFF000000FFFC000007FFFF80007F8000FFFFFF8000F8
310
000FFFFFF8000FF8000001FFFE0000007FFFFFF0001FFFFFFF0000FFFFFF8000
310
7FFF0000FFFFFF80007FFF0003FFFFFFFFC0007FFFFFC00070008000FFFFFFC0
310
00FFFF000000FFF8000007FFFF80007F8000FFFFFF8000F8000FFFFFF8000FF8
310
000001FFFE0000007FFFFFF0001FFFFFFE0001FFFFFFC0003FFE0001FFFFFFC0
310
003FFF0003FFFFFFFFC0007FFFFFE00070008000FFFFFFC0007FFF0000007FF8
310
000003FFFF80007F0001FFFFFF8000F8000FFFFFF8000FF8000001FFFE000000
310
7FFFFFF0001FFFFFFE0001FFFFFFC0003FFE0001FFFFFFC0003FFF0003FFFFFF
310
FFC000FFFFFFE00070008000FFFFFFC0007FFF0000007FF8000003FFFF80007F
310
0001FFFFFF8000F8001FFFFFF8000FF8000001FFFE0000007FFFFFF0001FFFFF
310
FE0003FFFFFFE0003FFE0003FFFFFFE0003FFF0003FFFFFFFFC000FFFFFFE000
310
70008000FFFFFFC0007FFE0000007FF8000003FFFF80007F0001FFFFFF8000F0
310
001FFFFFF8000FF8000001FFFE0000007FFFFFF0001FFFFFFC0003FFFFFFE000
310
1FFC0003FFFFFFE0001FFF0003FFFFFFFFC000FFFFFFC00070008000FFFFFF80
310
007FFE0000007FF0000003FFFF80007F0001FFFFFF0000F0001FFFFFF8000FF8
310
000001FFFE0000007FFFFFF0001FFFFFFC0007FFFFFFF0001FFC0007FFFFFFF0
310
001FFF0003FFFFFFFFC000FFFFFFC00070008001FFFFFF0000FFFE0000003FF0
310
000001FFFF80007F0001FFFFFF0000F8001FFFFFF0000FF8000001FFFE000000
310
7FFFFFF0001FFFFFFC0007FFFFFFF0001FFC0007FFFFFFF0001FFF0003FFFFFF
310
FFC001FFFFFF80007000FFFFFFFFFE0000FFFE0008003FF0008001FFFF80007F
310
FFFFFFFFFC0000FFFFFFFFFFE0000FF8000001FFFE0000007FFFFFF0001FFFFF
310
F8000FFFFFFFF8000FF8000FFFFFFFF8000FFF0003FFFFFFFFFFFFFFFFFF0000
310
7000FFFFFFFFFC0000FFFC0008003FF0008001FFFF80007FFFFFFFFFF80001FF
310
FFFFFFFF80000FF8000001FFFE0000007FFFFFF0001FFFFFF8000FFFFFFFF800
310
0FF8000FFFFFFFF8000FFF0003FFFFFFFFFFFFFFFFFE0000F000FFFFFFFFE000
310
00FFFC000C003FE000C001FFFF80007FFFFFFFFFC00001FFFFFFFFFE00001FF8
310
000001FFFE0000007FFFFFF0001FFFFFF8000FFFFFFFF8000FF8000FFFFFFFF8
310
000FFF0003FFFFFFFFFFFFFFFFF00000F000FFFFFFFE000001FFFC000C001FE0
310
00C000FFFF80007FFFFFFFFE000001FFFFFFFFE000001FF80FFFFFFFFFFFFFC0
310
7FFFFFF0001FFFFFF8000FFFFFFFF8000FF8000FFFFFFFF8000FFF0003FFFFFF
310
FFFFFFFFFF800000F000FFFFFFC0000001FFFC001C001FE001C000FFFF80007F
310
FFFFFF80000003FFFFFFF80000001FF80FFFFFFFFFFFFFC07FFFFFF0001FFFFF
310
F8001FFFFFFFFC000FF8001FFFFFFFFC000FFF0003FFFFFFFFFFFFFFF0000001
310
F000FFFFF800000001FFF8001C001FE001C000FFFF80007FFFFFF800000003FF
310
FFFF800000003FF80FFFFFFFFFFFFFC07FFFFFF0001FFFFFF8001FFFFFFFFC00
310
0FF8001FFFFFFFFC000FFF0003FFFFFFFFFFFFFE00000001F000FFFFC0000000
310
03FFF8001E001FC001E000FFFF80007FFFFF8000000007FFFFFC000000003FF8
310
0FFFFFFFFFFFFFC07FFFFFF0001FFFFFF8001FFFFFFFFC000FF8001FFFFFFFFC
310
000FFF0003FFFFFFFFFFFFE000000003F000FFFE0000000007FFF8001E000FC0
310
01E0007FFF80007FFFFE0000000007FFFFE0000000007FF80FFFFFFFFFFFFFC0
310
7FFFFFF0001FFFFFF0001FFFFFFFFC0007F0001FFFFFFFFC0007FF0003FFFFFF
310
FFFFFF0000000003F000FFF80000000007FFF8001E000FC003E0007FFF80007F
310
FFF0000000000FFFFF8000000000FFF80FFFFFFFFFFFFFC07FFFFFF0001FFFFF
310
F0001FFFFFFFFC0007F0001FFFFFFFFC0007FF0003FFFFFFFFFFFC0000000007
310
F000FFE0000000000FFFF0003E000FC003E0007FFF80007FFFC0000000001FFF
310
FE0000000001FFF80FFFFFFFFFFFFFC07FFFFFF0001FFFFFF0001FFFFFFFFC00
310
07F0001FFFFFFFFC0007FF0003FFFFFFFFFFF0000000000FF000FFC000000000
310
1FFFF0003F000F8003F0003FFF80007FFF80000000003FFFF80000000003FFF8
310
0FFFFFFFFFFFFFC07FFFFFF0001FFFFFF0001FFFFFFFFC0007F0001FFFFFFFFC
310
0007FF0003FFFFFFFFFFE0000000001FF000FF00000000007FFFF0003F000780
310
03F0003FFF80007FFF00000000007FFFF00000000007FFF80FFFFFFFFFFFFFC0
310
7FFFFFF0001FFFFFF0001FFFFFFFFC0007F0001FFFFFFFFC0007FF0003FFFFFF
310
FFFF80000000007FF000FE0000000000FFFFE0003F00078007F0003FFF80007F
310
FE0000000001FFFFE0000000001FFFF80FFFFFFFFFFFFFC07FFFFFF0001FFFFF
310
F0001FFFFFFFFC0007F0001FFFFFFFFC0007FF0003FFFFFFFFFF0000000000FF
310
F000FC0000000003FFFFE0007F00078007F0003FFF80007FFC0000000007FFFF
310
C0000000007FFFF80FFFFFFFFFFFFFC07FFFFFF0001FFFFFF8001FFFFFFFFC00
310
0FF8001FFFFFFFFC000FFF0003FFFFFFFFFE0000000003FFF000FC000000000F
310
FFFFE0007F80070007F8001FFF80007FF8000000001FFFFF8000000001FFFFF8
310
0FFFFFFFFFFFFFC07FFFFFF0001FFFFFF8001FFFFFFFFC000FF8001FFFFFFFFC
310
000FFF0003FFFFFFFFFC000000000FFFF000F8000000007FFFFFE0007F800700
310
07F8001FFF80007FF000000000FFFFFF800000000FFFFFF80FFFFFFFFFFFFFC0
310
7FFFFFF0001FFFFFF8000FFFFFFFF8000FF8000FFFFFFFF8000FFF0003FFFFFF
310
FFFC000000007FFFF000F800000007FFFFFFC0007F8003000FF8001FFF80007F
310
F000000007FFFFFF000000007FFFFFF80FFFFFFFFFFFFFC07FFFFFF0001FFFFF
310
F8000FFFFFFFF8000FF8000FFFFFFFF8000FFF0003FFFFFFFFF80000000FFFFF
310
F000F0000000FFFFFFFFC000FF8003000FF8001FFF80007FE0000000FFFFFFFF
310
0000000FFFFFFFF8000001FFFE0000007FFFFFF0001FFFFFF8000FFFFFFFF800
310
0FF8000FFFFFFFF8000FFF0003FFFFFFFFF8000000FFFFFFF000F000000FFFFF
310
FFFFC000FFC002000FF8000FFF80007FE000001FFFFFFFFE000001FFFFFFFFF8
310
000001FFFE0000007FFFFFF0001FFFFFF8000FFFFFFFF8000FF8000FFFFFFFF8
310
000FFF0003FFFFFFFFF000001FFFFFFFF000E00000FFFFFFFFFFC000FFC00200
310
0FFC000FFF80007FE00001FFFFFFFFFE00001FFFFFFFFFF8000001FFFE000000
310
7FFFFFF0001FFFFFFC000FFFFFFFF8001FFC000FFFFFFFF8001FFF0003FFFFFF
310
FFF00001FFFFFFFFF000E00007FFFFFFFFFF8000FFC000001FFC000FFF80007F
310
C0000FFFFFFFFFFE0000FFFFFFFFFFF8000001FFFE0000007FFFFFF0001FFFFF
310
FC0007FFFFFFF0001FFC0007FFFFFFF0001FFF0003FFFFFFFFF00007FFFFFFFF
310
F000E0001FFFFFFFFFFF8000FFC000001FFC000FFF80007FC0003FFFFFFFFFFE
310
0001FFFFFFFFFFF8000001FFFE0000007FFFFFF0001FFFFFFC0007FFFFFFF000
310
1FFC0007FFFFFFF0001FFF0003FFFFFFFFF0001FFFFFFFFFF000E0003FFFFF00
310
03FF8001FFE000001FFC0007FF80007FC0007FFFFF0007FC0003FFFFF0003FF8
310
000001FFFE0000007FFFFFF0001FFFFFFC0003FFFFFFE0001FFC0003FFFFFFE0
310
001FFF0003FFFFFFFFF0003FFFFFFFFFF000E0003FFFFF0001FF8001FFE00000
310
1FFE0007FF80007FC0007FFFFE0003FC0007FFFFE0003FF8000001FFFE000000
310
7FFFFFF0001FFFFFFE0003FFFFFFE0003FFE0003FFFFFFE0003FFF0003FFFFFF
310
FFF0003FFFFF8001F000E0003FFFFF0001FF0001FFE000001FFE0007FF80007F
310
C0007FFFFE0003FC0007FFFFE0003FF8000001FFFE0000007FFFFFF0001FFFFF
310
FE0001FFFFFFC0003FFE0001FFFFFFC0003FFF0003FFFFFFFFF0003FFFFF0001
310
F000E0003FFFFF0003FF0001FFE000003FFE0007FF80007FC0007FFFFE0003FC
310
0007FFFFE0003FF8000001FFFE0000007FFFFFF0001FFFFFFF0001FFFFFFC000
310
7FFF0001FFFFFFC0007FFF0003FFFFFFFFF0003FFFFF0001F000E0003FFFFE00
310
03FF0003FFF000003FFE0003FF80007FC0007FFFFC0003FE0007FFFFE0003FF8
310
000001FFFE0000007FFFFFF0001FFFFFFF0000FFFFFF80007FFF0000FFFFFF80
310
007FFF0003FFFFFFFFF0003FFFFF0001F000E0003FFFFE0003FF0003FFF00000
310
3FFF0003FF80007FC0007FFFFC0007FE0007FFFFC0003FF8000001FFFE000000
310
7FFFFFF0001FFFFFFF80007FFFFF0000FFFF80007FFFFF0000FFFF0003FFFFFF
310
FFF0003FFFFF0003F000E0003FFFFC0003FE0003FFF000003FFF0003FF80007F
310
E0003FFFF80007FE0003FFFFC0007FF8000001FFFE0000007FFFFFF0001FFFFF
310
FF80003FFFFE0000FFFF80003FFFFE0000FFFF0003FFFFFFFFF0001FFFFE0003
310
F000F0001FFFF80003FE0003FFF000007FFF0001FF80007FE0003FFFF00007FE
310
0001FFFF80007FF8000001FFFE0000007FFFFFF0001FFFFFFFC0000FFFF80001
310
FFFFC0000FFFF80001FFFF0003FFFFFFFFF0001FFFFC0003F000F0000FFFF000
310
07FE0007FFF800007FFF0001FF80007FE0001FFFE00007FF0000FFFE00007FF8
310
000001FFFE0000007FFFFFF0001FFFFFFFC00003FFE00001FFFFC00003FFE000
310
01FFFF0003FFFFFFFFF8000FFFF80003F000F00003FFC00007FC0007FFF80000
310
7FFF8001FF80007FF00007FF80000FFF00007FF80000FFF8000001FFFE000000
310
7F80000000000001FFE000003E000003FFFFE000003E000003FFFF0003FFFFFF
310
FFF80003FFE00007F000F800000000000FFC0007FFF800007FFF8001FF80007F
310
F000000000000FFF000000000000FFF8000001FFFE0000007F80000000000001
310
FFF0000000000007FFFFF0000000000007FFFF0003FFFFFFFFFC00007E000007
310
F000F800000000000FFC0007FFF80000FFFF8000FF80007FF800000000001FFF
310
800000000001FFF8000001FFFE0000007F80000000000001FFF800000000000F
310
FFFFF800000000000FFFFF0003FFFFFFFFFC00000000000FF000FC0000000000
310
1FFC0007FFFC0000FFFF8000FF80007FF800000000003FFFC00000000001FFF8
310
000001FFFE0000007F80000000000001FFF800000000000FFFFFF80000000000
310
0FFFFF0003FFFFFFFFFE00000000001FF000FE00000000003FF8000FFFFC0000
310
FFFF8000FF80007FFC00000000003FFFC00000000003FFF8000001FFFE000000
310
7F80000000000001FFFC00000000001FFFFFFC00000000001FFFFF0003FFFFFF
310
FFFF00000000001FF000FF00000000003FF8000FFFFC0000FFFFC000FF80007F
310
FE00000000007FFFE00000000007FFF8000001FFFE0000007F80000000000001
310
FFFE00000000003FFFFFFE00000000003FFFFF0003FFFFFFFFFF80000000003F
310
F000FF80000000007FF8000FFFFC0001FFFFC0007F80007FFF0000000000FFFF
310
F0000000000FFFF800000000000000007F80000000000001FFFF8000000000FF
310
FFFFFF8000000000FFFFFF0003FFFFFFFFFFC0000000007FF000FFC000000000
310
FFF8000FFFFE0001FFFFC0007F80007FFF8000000001FFFFF8000000001FFFF8
310
00000000000000007F80000000000001FFFFC000000001FFFFFFFFC000000001
310
FFFFFF0003FFFFFFFFFFE000000000FFF000FFE000000003FFF0001FFFFE0001
310
FFFFC0007F80007FFFC000000007FFFFFE000000003FFFF80000000000000000
310
7F80000000000001FFFFE000000003FFFFFFFFE000000003FFFFFF0003FFFFFF
310
FFFFF000000003FFF000FFF80000000FFFF0001FFFFE0001FFFFE0007F80007F
310
FFF00000000FFFFFFF00000000FFFFF800000000000000007F80000000000001
310
FFFFF80000000FFFFFFFFFF80000000FFFFFFF0003FFFFFFFFFFFC0000000FFF
310
F000FFFE0000003FFFF0001FFFFE0003FFFFE0003F80007FFFFC0000003FFFFF
310
FFC0000003FFFFF800000000000000007F80000000000001FFFFFE0000003FFF
310
FFFFFFFE0000003FFFFFFF0003FFFFFFFFFFFF0000003FFFF000FFFF800000FF
310
FFF0001FFFFF0003FFFFE0003F80007FFFFF000001FFFFFFFFF800001FFFFFF8
310
00000000000000007F80000000000001FFFFFFC00001FFFFFFFFFFFFC00001FF
310
FFFFFF0003FFFFFFFFFFFFC00000FFFFF000FFFFF8000FFFFFFFFFFFFFFFFFFF
310
FFFFFFFFFFFFFFFFFFFFF0001FFFFFFFFFFF0000FFFFFFF80000000000000000
310
7FFFFFFFFFFFFFFFFFFFFFFC001FFFFFFFFFFFFFFC001FFFFFFFFFFFFFFFFFFF
310
FFFFFFFC001FFFFFF000FFFFFFFFFFFFFFFFFFFFFFFFFFFFFFFFFFFFFFFFFFFF
310
FFFFFFFFFFFFFFFFFFFFFFFFFFFFFFFFFFFFFFFFFFFFFFFFFFFFFFFFFFFFFFFF
310
FFFFFFFFFFFFFFFFFFFFFFFFFFFFFFFFFFFFFFFFFFFFFFFFFFFFFFFFFFFFFFFF
310
F000FFFFFFFFFFFFFFFFFFFFFFFFFFFFFFFFFFFFFFFFFFFFFFFFFFFFFFFFFFFF
310
FFFFFFFFFFFFFFFFFFFFFFFFFFFFFFFFFFFFFFFFFFFFFFFFFFFFFFFFFFFFFFFF
310
FFFFFFFFFFFFFFFFFFFFFFFFFFFFFFFFFFFFFFFFFFFFFFFFF000FFFFFFFFFFFF
310
FFFFFFFFFFFFFFFFFFFFFFFFFFFFFFFFFFFFFFFFFFFFFFFFFFFFFFFFFFFFFFFF
310
FFFFFFFFFFFFFFFFFFFFFFFFFFFFFFFFFFFFFFFFFFFFFFFFFFFFFFFFFFFFFFFF
310
FFFFFFFFFFFFFFFFFFFFFFFFFFFFFFFFF000FFFFFFFFFFFFFFFFFFFFFFFFFFFF
310
FFFFFFFFFFFFFFFFFFFFFFFFFFFFFFFFFFFFFFFFFFFFFFFFFFFFFFFFFFFFFFFF
310
FFFFFFFFFFFFFFFFFFFFFFFFFFFFFFFFFFFFFFFFFFFFFFFFFFFFFFFFFFFFFFFF
310
FFFFFFFFFFFFFFFFF000FFFFFFFFFFFFFFFFFFFFFFFFFFFFFFFFFFFFFFFFFFFF
310
FFFFFFFFFFFFFFFFFFFFFFFFFFFFFFFFFFFFFFFFFFFFFFFFFFFFFFFFFFFFFFFF
310
FFFFFFFFFFFFFFFFFFFFFFFFFFFFFFFFFFFFFFFFFFFFFFFFFFFFFFFFFFFFFFFF
310
F000FFFFFFFFFFFFFFFFFFFFFFFFFFFFFFFFFFFFFFFFFFFFFFFFFFFFFFFFFFFF
310
FFFFFFFFFFFFFFFFFFFFFFFFFFFFFFFFFFFFFFFFFFFFFFFFFFFFFFFFFFFFFFFF
310
FFFFFFFFFFFFFFFFFFFFFFFFFFFFFFFFFFFFFFFFFFFFFFFFF000FFFFFFFFFFFF
310
FFFFFFFFFFFFFFFFFFFFFFFFFFFFFFFFFFFFFFFFFFFFFFFFFFFFFFFFFFFFFFFF
310
FFFFFFFFFFFFFFFFFFFFFFFFFFFFFFFFFFFFFFFFFFFFFFFFFFFFFFFFFFFFFFFF
310
FFFFFFFFFFFFFFFFFFFFFFFFFFFFFFFFF000FFFFFFFFFFFFFFFFFFFFFFFFFFFF
310
FFFFFFFFFFFFFFFFFFFFFFFFFFFFFFFFFFFFFFFFFFFFFFFFFFFFFFFFFFFFFFFF
310
FFFFFFFFFFFFFFFFFFFFFFFFFFFFFFFFFFFFFFFFFFFFFFFFFFFFFFFFFFFFFFFF
310
FFFFFFFFFFFFFFFFF000FFFFFFFFFFFFFFFFFFFFFFFFFFFFFFFFFFFFFFFFFFFF
310
FFFFFFFFFFFFFFFFFFFFFFFFFFFFFFFFFFFFFFFFFFFFFFFFFFFFFFFFFFFFFFFF
310
FFFFFFFFFFFFFFFFFFFFFFFFFFFFFFFFFFFFFFFFFFFFFFFFFFFFFFFFFFFFFFFF
310
F000FFFFFFFFFFFFFFFFFFFFFFFFFFFFFFFFFFFFFFFFFFFFFFFFFFFFFFFFFFFF
310
FFFFFFFFFFFFFFFFFFFFFFFFFFFFFFFFFFFFFFFFFFFFFFFFFFFFFFFFFFFFFFFF
310
FFFFFFFFFFFFFFFFFFFFFFFFFFFFFFFFFFFFFFFFFFFFFFFFF000FFFFFFFFFFFF
310
FFFFFFFFFFFFFFFFFFFFFFFFFFFFFFFFFFFFFFFFFFFFFFFFFFFFFFFFFFFFFFFF
310
FFFFFFFFFFFFFFFFFFFFFFFFFFFFFFFFFFFFFFFFFFFFFFFFFFFFFFFFFFFFFFFF
310
FFFFFFFFFFFFFFFFFFFFFFFFFFFFFFFFF000FFFFFFFFFFFFFFFFFFFFFFFFFFFF
310
FFFFFFFFFFFFFFFFFFFFFFFFFFFFFFFFFFFFFFFFFFFFFFFFFFFFFFFFFFFFFFFF
310
FFFFFFFFFFFFFFFFFFFFFFFFFFFFFFFFFFFFFFFFFFFFFFFFFFFFFFFFFFFFFFFF
310
FFFFFFFFFFFFFFFFF000FFFFFFFFFFFFFFFFFFFFFFFFFFFFFFFFFFFFFFFFFFFF
310
FFFFFFFFFFFFFFFFFFFFFFFFFFFFFFFFFFFFFFFFFFFFFFFFFFFFFFFFFFFFFFFF
310
FFFFFFFFFFFFFFFFFFFFFFFFFFFFFFFFFFFFFFFFFFFFFFFFFFFFFFFFFFFFFFFF
310
F000FFFFFFFFFFFFFFFFFFFFFFFFFFFFFFFFFFFFFFFFFFFFFFFFFFFFFFFFFFFF
310
FFFFFFFFFFFFFFFFFFFFFFFFFFFFFFFFFFFFFFFFFFFFFFFFFFFFFFFFFFFFFFFF
310
FFFFFFFFFFFFFFFFFFFFFFFFFFFFFFFFFFFFFFFFFFFFFFFFF000FFFFFFFFFFFF
310
FFFFFFFFFFFFFFFFFFFFFFFFFFFFFFFFFFFFFFFFFFFFFFFFFFFFFFFFFFFFFFFF
310
FFFFFFFFFFFFFFFFFFFFFFFFFFFFFFFFFFFFFFFFFFFFFFFFFFFFFFFFFFFFFFFF
310
FFFFFFFFFFFFFFFFFFFFFFFFFFFFFFFFF000FFFFFFFFFFFFFFFFFFFFFFFFFFFF
310
FFFFFFFFFFFFFFFFFFFFFFFFFFFFFFFFFFFFFFFFFFFFFFFFFFFFFFFFFFFFFFFF
310
FFFFFFFFFFFFFFFFFFFFFFFFFFFFFFFFFFFFFFFFFFFFFFFFFFFFFFFFFFFFFFFF
310
FFFFFFFFFFFFFFFFF000FFFFFFFFFFFFFFFFFFFFFFFFFFFFFFFFFFFFFFFFFFFF
310
FFFFFFFFFFFFFFFFFFFFFFFFFFFFFFFFFFFFFFFFFFFFFFFFFFFFFFFFFFFFFFFF
310
FFFFFFFFFFFFFFFFFFFFFFFFFFFFFFFFFFFFFFFFFFFFFFFFFFFFFFFFFFFFFFFF
310
F000FFFFFFFFFFFFFFFFFFFFFFFFFFFFFFFFFFFFFFFFFFFFFFFFFFFFFFFFFFFF
310
FFFFFFFFFFFFFFFFFFFFFFFFFFFFFFFFFFFFFFFFFFFFFFFFFFFFFFFFFFFFFFFF
310
FFFFFFFFFFFFFFFFFFFFFFFFFFFFFFFFFFFFFFFFFFFFFFFFF000FFFFFFFFFFFF
310
FFFFFFFFFFFFFFFFFFFFFFFFFFFFFFFFFFFFFFFFFFFFFFFFFFFFFFFFFFFFFFFF
310
FFFFFFFFFFFFFFFFFFFFFFFFFFFFFFFFFFFFFFFFFFFFFFFFFFFFFFFFFFFFFFFF
310
FFFFFFFFFFFFFFFFFFFFFFFFFFFFFFFFF000FFFFFFFFFFFFFFFFFFFFFFFFFFFF
310
FFFFFFFFFFFFFFFFFFFFFFFFFFFFFFFFFFFFFFFFFFFFFFFFFFFFFFFFFFFFFFFF
310
FFFFFFFFFFFFFFFFFFFFFFFFFFFFFFFFFFFFFFFFFFFFFFFFFFFFFFFFFFFFFFFF
310
FFFFFFFFFFFFFFFFF000FFFFFFFFFFFFFFFFFFFFFFFFFFFFFFFFFFFFFFFFFFFF
310
FFFFFFFFFFFFFFFFFFFFFFFFFFFFFFFFFFFFFFFFFFFFFFFFFFFFFFFFFFFFFFFF
310
FFFFFFFFFFFFFFFFFFFFFFFFFFFFFFFFFFFFFFFFFFFFFFFFFFFFFFFFFFFFFFFF
310
F000FFFFFFFFFFFFFFFFFFFFFFFFFFFFFFFFFFFFFFFFFFFFFFFFFFFFFFFFFFFF
310
FFFFFFFFFFFFFFFFFFFFFFFFFFFFFFFFFFFFFFFFFFFFFFFFFFFFFFFFFFFFFFFF
310
FFFFFFFFFFFFFFFFFFFFFFFFFFFFFFFFFFFFFFFFFFFFFFFFF000FFFFFFFFFFFF
310
FFFFFFFFFFFFFFFFFFFFFFFFFFFFFFFFFFFFFFFFFFFFFFFFFFFFFFFFFFFFFFFF
310
FFFFFFFFFFFFFFFFFFFFFFFFFFFFFFFFFFFFFFFFFFFFFFFFFFFFFFFFFFFFFFFF
310
FFFFFFFFFFFFFFFFFFFFFFFFFFFFFFFFF0000000000000000000000000000000
310
0000000000000000000000000000000000000000000000000000000000000000
310
0000000000000000000000000000000000000000000000000000000000000000
310
0000000000000000000000000000000000000000000000000000000000000000
310
0000000000000000000000000000000000000000000000000000000000000000
310
0000000000000000000000000000000000000000000000000000000000000000
310
0000000000000000000000000000000000000000000000000000000000000000
310
0000000000000000000000000000000000000000000000000000000000000000
310
0000000000000000000000000000000000000000000000000000000000000000
310
0000000000000000000000000000000000000000000000000000000000000000
310
0000000000000000000000000000000000000000000000000000000000000000
310
0000000000000000000000000000000000000000000000000000000000000000
310
0000000000000000000000000000000000000000000000000000000000000000
310
0000000000000000000000000000000000000000000000000000000000000000
310
0000000000000000000000000000000000000000000000000000000000000000
310
0000000000000000000000000000000000000000000000000000000000000000
  1
OLE
  0
ENDSEC
  0
SECTION
  2
OBJECTS
  0
DICTIONARY
  5
C
330
0
100
AcDbDictionary
281
     1
  3
ACAD_GROUP
350
D
  3
ACAD_LAYOUT
350
1A
  3
ACAD_MLINESTYLE
350
17
  3
ACAD_PLOTSETTINGS
350
19
  3
ACAD_PLOTSTYLENAME
350
E
  0
DICTIONARY
  5
D
102
{ACAD_REACTORS
330
C
102
}
330
C
100
AcDbDictionary
281
     1
  0
DICTIONARY
  5
1A
102
{ACAD_REACTORS
330
C
102
}
330
C
100
AcDbDictionary
281
     1
  3
Layout1
350
1E
  3
Layout2
350
26
  3
Model
350
22
  0
DICTIONARY
  5
17
102
{ACAD_REACTORS
330
C
102
}
330
C
100
AcDbDictionary
281
     1
  3
Standard
350
18
  0
DICTIONARY
  5
19
102
{ACAD_REACTORS
330
C
102
}
330
C
100
AcDbDictionary
281
     1
  0
ACDBDICTIONARYWDFLT
  5
E
102
{ACAD_REACTORS
330
C
102
}
330
C
100
AcDbDictionary
281
     1
  3
Normal
350
F
100
AcDbDictionaryWithDefault
340
F
  0
LAYOUT
  5
1E
102
{ACAD_REACTORS
330
1A
102
}
330
1A
100
AcDbPlotSettings
  1

  2
none_device
  4

  6

 40
0.0
 41
0.0
 42
0.0
 43
0.0
 44
0.0
 45
0.0
 46
0.0
 47
0.0
 48
0.0
 49
0.0
140
0.0
141
0.0
142
1.0
143
1.0
 70
   688
 72
     0
 73
     0
 74
     5
  7

 75
    16
147
1.0
148
0.0
149
0.0
100
AcDbLayout
  1
Layout1
 70
     1
 71
     1
 10
0.0
 20
0.0
 11
420.0
 21
297.0
 12
0.0
 22
0.0
 32
0.0
 14
1.0000000000E+20
 24
1.0000000000E+20
 34
1.0000000000E+20
 15
-1.0000000000E+20
 25
-1.0000000000E+20
 35
-1.0000000000E+20
146
0.0
 13
0.0
 23
0.0
 33
0.0
 16
1.0
 26
0.0
 36
0.0
 17
0.0
 27
1.0
 37
0.0
 76
     0
330
1B
  0
LAYOUT
  5
26
102
{ACAD_REACTORS
330
1A
102
}
330
1A
100
AcDbPlotSettings
  1

  2
none_device
  4

  6

 40
0.0
 41
0.0
 42
0.0
 43
0.0
 44
0.0
 45
0.0
 46
0.0
 47
0.0
 48
0.0
 49
0.0
140
0.0
141
0.0
142
1.0
143
1.0
 70
   688
 72
     0
 73
     0
 74
     5
  7

 75
    16
147
1.0
148
0.0
149
0.0
100
AcDbLayout
  1
Layout2
 70
     1
 71
     2
 10
0.0
 20
0.0
 11
0.0
 21
0.0
 12
0.0
 22
0.0
 32
0.0
 14
0.0
 24
0.0
 34
0.0
 15
0.0
 25
0.0
 35
0.0
146
0.0
 13
0.0
 23
0.0
 33
0.0
 16
1.0
 26
0.0
 36
0.0
 17
0.0
 27
1.0
 37
0.0
 76
     0
330
23
  0
LAYOUT
  5
22
102
{ACAD_REACTORS
330
1A
102
}
330
1A
100
AcDbPlotSettings
  1

  2
none_device
  4

  6

 40
0.0
 41
0.0
 42
0.0
 43
0.0
 44
0.0
 45
0.0
 46
0.0
 47
0.0
 48
0.0
 49
0.0
140
0.0
141
0.0
142
1.0
143
1.0
 70
  1712
 72
     0
 73
     0
 74
     0
  7

 75
     0
147
1.0
148
0.0
149
0.0
100
AcDbLayout
  1
Model
 70
     1
 71
     0
 10
0.0
 20
0.0
 11
297.0
 21
210.0
 12
0.0
 22
0.0
 32
0.0
 14
0.0
 24
0.0
 34
0.0
 15
297.0
 25
210.0
 35
0.0
146
0.0
 13
0.0
 23
0.0
 33
0.0
 16
1.0
 26
0.0
 36
0.0
 17
0.0
 27
1.0
 37
0.0
 76
     0
330
1F
331
29
  0
MLINESTYLE
  5
18
102
{ACAD_REACTORS
330
17
102
}
330
17
100
AcDbMlineStyle
  2
Standard
 70
     0
  3

 62
   256
 51
90.0
 52
90.0
 71
     2
 49
0.5
 62
   256
  6
BYLAYER
 49
-0.5
 62
   256
  6
BYLAYER
  0
ACDBPLACEHOLDER
  5
F
102
{ACAD_REACTORS
330
E
102
}
330
E
  0
ENDSEC
  0
EOF
