  0
SECTION
  2
HEADER
  9
$ACADVER
  1
AC1015
  9
$ACADMAINTVER
 70
     6
  9
$DWGCODEPAGE
  3
ANSI_1252
  9
$INSBASE
 10
0.0
 20
0.0
 30
0.0
  9
$EXTMIN
 10
0.0
 20
0.0
 30
0.0
  9
$EXTMAX
 10
297.0
 20
210.0
 30
0.0
  9
$LIMMIN
 10
0.0
 20
0.0
  9
$LIMMAX
 10
297.0
 20
210.0
  9
$ORTHOMODE
 70
     0
  9
$REGENMODE
 70
     1
  9
$FILLMODE
 70
     1
  9
$QTEXTMODE
 70
     0
  9
$MIRRTEXT
 70
     1
  9
$LTSCALE
 40
1.0
  9
$ATTMODE
 70
     1
  9
$TEXTSIZE
 40
2.0
  9
$TRACEWID
 40
1.0
  9
$TEXTSTYLE
  7
Standard
  9
$CLAYER
  8
0
  9
$CELTYPE
  6
ByLayer
  9
$CECOLOR
 62
   256
  9
$CELTSCALE
 40
1.0
  9
$DISPSILH
 70
     0
  9
$DIMSCALE
 40
1.0
  9
$DIMASZ
 40
3.0
  9
$DIMEXO
 40
0.0
  9
$DIMDLI
 40
3.75
  9
$DIMRND
 40
0.0
  9
$DIMDLE
 40
0.0
  9
$DIMEXE
 40
1.0
  9
$DIMTP
 40
0.0
  9
$DIMTM
 40
0.0
  9
$DIMTXT
 40
2.0
  9
$DIMCEN
 40
2.5
  9
$DIMTSZ
 40
0.0
  9
$DIMTOL
 70
     0
  9
$DIMLIM
 70
     0
  9
$DIMTIH
 70
     1
  9
$DIMTOH
 70
     1
  9
$DIMSE1
 70
     0
  9
$DIMSE2
 70
     0
  9
$DIMTAD
 70
     1
  9
$DIMZIN
 70
     0
  9
$DIMBLK
  1

  9
$DIMASO
 70
     1
  9
$DIMSHO
 70
     1
  9
$DIMPOST
  1

  9
$DIMAPOST
  1

  9
$DIMALT
 70
     0
  9
$DIMALTD
 70
     3
  9
$DIMALTF
 40
0.0393700787
  9
$DIMLFAC
 40
1.0
  9
$DIMTOFL
 70
     1
  9
$DIMTVP
 40
0.0
  9
$DIMTIX
 70
     0
  9
$DIMSOXD
 70
     0
  9
$DIMSAH
 70
     0
  9
$DIMBLK1
  1

  9
$DIMBLK2
  1

  9
$DIMSTYLE
  2
ISO-25
  9
$DIMCLRD
 70
     0
  9
$DIMCLRE
 70
     0
  9
$DIMCLRT
 70
     0
  9
$DIMTFAC
 40
1.0
  9
$DIMGAP
 40
1.524
  9
$DIMJUST
 70
     0
  9
$DIMSD1
 70
     0
  9
$DIMSD2
 70
     0
  9
$DIMTOLJ
 70
     0
  9
$DIMTZIN
 70
     0
  9
$DIMALTZ
 70
     0
  9
$DIMALTTZ
 70
     0
  9
$DIMUPT
 70
     0
  9
$DIMDEC
 70
     2
  9
$DIMTDEC
 70
     3
  9
$DIMALTU
 70
     2
  9
$DIMALTTD
 70
     3
  9
$DIMTXSTY
  7
Standard
  9
$DIMAUNIT
 70
     0
  9
$DIMADEC
 70
     2
  9
$DIMALTRND
 40
0.0
  9
$DIMAZIN
 70
     0
  9
$DIMDSEP
 70
    44
  9
$DIMATFIT
 70
     3
  9
$DIMFRAC
 70
     0
  9
$DIMLDRBLK
  1

  9
$DIMLUNIT
 70
     2
  9
$DIMLWD
 70
    -2
  9
$DIMLWE
 70
    -2
  9
$DIMTMOVE
 70
     0
  9
$LUNITS
 70
     2
  9
$LUPREC
 70
     2
  9
$SKETCHINC
 40
1.0
  9
$FILLETRAD
 40
10.0
  9
$AUNITS
 70
     0
  9
$AUPREC
 70
     2
  9
$MENU
  1
.
  9
$ELEVATION
 40
0.0
  9
$PELEVATION
 40
0.0
  9
$THICKNESS
 40
0.0
  9
$LIMCHECK
 70
     0
  9
$CHAMFERA
 40
10.0
  9
$CHAMFERB
 40
10.0
  9
$CHAMFERC
 40
20.0
  9
$CHAMFERD
 40
0.0
  9
$SKPOLY
 70
     0
  9
$TDCREATE
 40
2456056.473700324
  9
$TDUCREATE
 40
2456056.390366991
  9
$TDUPDATE
 40
2456056.473701945
  9
$TDUUPDATE
 40
2456056.390368611
  9
$TDINDWG
 40
0.0000000116
  9
$TDUSRTIMER
 40
0.0000000116
  9
$USRTIMER
 70
     1
  9
$ANGBASE
 50
0.0
  9
$ANGDIR
 70
     0
  9
$PDMODE
 70
     0
  9
$PDSIZE
 40
-1.0
  9
$PLINEWID
 40
0.0
  9
$SPLFRAME
 70
     0
  9
$SPLINETYPE
 70
     6
  9
$SPLINESEGS
 70
     8
  9
$HANDSEED
  5
2B8
  9
$SURFTAB1
 70
     6
  9
$SURFTAB2
 70
     6
  9
$SURFTYPE
 70
     6
  9
$SURFU
 70
     6
  9
$SURFV
 70
     6
  9
$UCSBASE
  2

  9
$UCSNAME
  2

  9
$UCSORG
 10
0.0
 20
0.0
 30
0.0
  9
$UCSXDIR
 10
1.0
 20
0.0
 30
0.0
  9
$UCSYDIR
 10
0.0
 20
1.0
 30
0.0
  9
$UCSORTHOREF
  2

  9
$UCSORTHOVIEW
 70
     0
  9
$UCSORGTOP
 10
0.0
 20
0.0
 30
0.0
  9
$UCSORGBOTTOM
 10
0.0
 20
0.0
 30
0.0
  9
$UCSORGLEFT
 10
0.0
 20
0.0
 30
0.0
  9
$UCSORGRIGHT
 10
0.0
 20
0.0
 30
0.0
  9
$UCSORGFRONT
 10
0.0
 20
0.0
 30
0.0
  9
$UCSORGBACK
 10
0.0
 20
0.0
 30
0.0
  9
$PUCSBASE
  2

  9
$PUCSNAME
  2

  9
$PUCSORG
 10
0.0
 20
0.0
 30
0.0
  9
$PUCSXDIR
 10
1.0
 20
0.0
 30
0.0
  9
$PUCSYDIR
 10
0.0
 20
1.0
 30
0.0
  9
$PUCSORTHOREF
  2

  9
$PUCSORTHOVIEW
 70
     0
  9
$PUCSORGTOP
 10
0.0
 20
0.0
 30
0.0
  9
$PUCSORGBOTTOM
 10
0.0
 20
0.0
 30
0.0
  9
$PUCSORGLEFT
 10
0.0
 20
0.0
 30
0.0
  9
$PUCSORGRIGHT
 10
0.0
 20
0.0
 30
0.0
  9
$PUCSORGFRONT
 10
0.0
 20
0.0
 30
0.0
  9
$PUCSORGBACK
 10
0.0
 20
0.0
 30
0.0
  9
$USERI1
 70
     0
  9
$USERI2
 70
     0
  9
$USERI3
 70
     0
  9
$USERI4
 70
     0
  9
$USERI5
 70
     0
  9
$USERR1
 40
0.0
  9
$USERR2
 40
0.0
  9
$USERR3
 40
0.0
  9
$USERR4
 40
0.0
  9
$USERR5
 40
0.0
  9
$WORLDVIEW
 70
     1
  9
$SHADEDGE
 70
     3
  9
$SHADEDIF
 70
    70
  9
$TILEMODE
 70
     1
  9
$MAXACTVP
 70
    64
  9
$PINSBASE
 10
0.0
 20
0.0
 30
0.0
  9
$PLIMCHECK
 70
     0
  9
$PEXTMIN
 10
1.0000000000E+20
 20
1.0000000000E+20
 30
1.0000000000E+20
  9
$PEXTMAX
 10
-1.0000000000E+20
 20
-1.0000000000E+20
 30
-1.0000000000E+20
  9
$PLIMMIN
 10
0.0
 20
0.0
  9
$PLIMMAX
 10
420.0
 20
297.0
  9
$UNITMODE
 70
     0
  9
$VISRETAIN
 70
     1
  9
$PLINEGEN
 70
     0
  9
$PSLTSCALE
 70
     1
  9
$TREEDEPTH
 70
  3020
  9
$CMLSTYLE
  2
Standard
  9
$CMLJUST
 70
     0
  9
$CMLSCALE
 40
20.0
  9
$PROXYGRAPHICS
 70
     1
  9
$MEASUREMENT
 70
     1
  9
$CELWEIGHT
370
    -1
  9
$ENDCAPS
280
     0
  9
$JOINSTYLE
280
     0
  9
$LWDISPLAY
290
     1
  9
$INSUNITS
 70
     4
  9
$HYPERLINKBASE
  1

  9
$STYLESHEET
  1

  9
$XEDIT
290
     1
  9
$CEPSNTYPE
380
     0
  9
$PSTYLEMODE
290
     1
  9
$FINGERPRINTGUID
  2
{1299ECB2-81C9-4462-B504-3461BB536FDD}
  9
$VERSIONGUID
  2
{FAEB1C32-E019-11D5-929B-00C0DF256EC4}
  9
$EXTNAMES
290
     1
  9
$PSVPSCALE
 40
0.0
  9
$OLESTARTUP
290
     0
  0
ENDSEC
  0
SECTION
  2
CLASSES
  0
CLASS
  1
ACDBDICTIONARYWDFLT
  2
AcDbDictionaryWithDefault
  3
ObjectDBX Classes
 90
        0
280
     0
281
     0
  0
CLASS
  1
VISUALSTYLE
  2
AcDbVisualStyle
  3
ObjectDBX Classes
 90
     4095
280
     0
281
     0
  0
CLASS
  1
MATERIAL
  2
AcDbMaterial
  3
ObjectDBX Classes
 90
     1153
280
     0
281
     0
  0
CLASS
  1
ACDBPLACEHOLDER
  2
AcDbPlaceHolder
  3
ObjectDBX Classes
 90
        0
280
     0
281
     0
  0
CLASS
  1
LAYOUT
  2
AcDbLayout
  3
ObjectDBX Classes
 90
        0
280
     0
281
     0
  0
ENDSEC
  0
SECTION
  2
TABLES
  0
TABLE
  2
VPORT
  5
8
330
0
100
AcDbSymbolTable
 70
     1
  0
VPORT
  5
29
330
8
100
AcDbSymbolTableRecord
100
AcDbViewportTableRecord
  2
*Active
 70
     0
 10
0.0
 20
0.0
 11
1.0
 21
1.0
 12
148.5
 22
105.0
 13
0.0
 23
0.0
 14
10.0
 24
10.0
 15
10.0
 25
10.0
 16
0.0
 26
0.0
 36
1.0
 17
0.0
 27
0.0
 37
0.0
 40
210.0
 41
1.4142857143
 42
50.0
 43
0.0
 44
0.0
 50
0.0
 51
0.0
 71
     0
 72
  2000
 73
     1
 74
     3
 75
     0
 76
     0
 77
     0
 78
     0
281
     0
 65
     1
110
0.0
120
0.0
130
0.0
111
1.0
121
0.0
131
0.0
112
0.0
122
1.0
132
0.0
 79
     0
146
0.0
  0
ENDTAB
  0
TABLE
  2
LTYPE
  5
5
330
0
100
AcDbSymbolTable
 70
     6
  0
LTYPE
  5
14
330
5
100
AcDbSymbolTableRecord
100
AcDbLinetypeTableRecord
  2
ByBlock
 70
     0
  3

 72
    65
 73
     0
 40
0.0
  0
LTYPE
  5
15
330
5
100
AcDbSymbolTableRecord
100
AcDbLinetypeTableRecord
  2
ByLayer
 70
     0
  3

 72
    65
 73
     0
 40
0.0
  0
LTYPE
  5
16
330
5
100
AcDbSymbolTableRecord
100
AcDbLinetypeTableRecord
  2
Continuous
 70
     0
  3
Solid line
 72
    65
 73
     0
 40
0.0
  0
LTYPE
  5
3F
330
5
100
AcDbSymbolTableRecord
100
AcDbLinetypeTableRecord
  2
HIDDEN
 70
     0
  3
Hidden __ __ __ __ __ __ __ __ __ __ __ __ __ __
 72
    65
 73
     2
 40
1.905
 49
1.27
 74
     0
 49
-0.635
 74
     0
  0
LTYPE
  5
40
330
5
100
AcDbSymbolTableRecord
100
AcDbLinetypeTableRecord
  2
PHANTOM
 70
     0
  3
Phantom ______  __  __  ______  __  __  ______
 72
    65
 73
     6
 40
12.7
 49
6.35
 74
     0
 49
-1.27
 74
     0
 49
1.27
 74
     0
 49
-1.27
 74
     0
 49
1.27
 74
     0
 49
-1.27
 74
     0
  0
LTYPE
  5
41
330
5
100
AcDbSymbolTableRecord
100
AcDbLinetypeTableRecord
  2
CENTER
 70
     0
  3
Center ____ _ ____ _ ____ _ ____ _ ____ _ ____
 72
    65
 73
     4
 40
10.16
 49
6.35
 74
     0
 49
-1.27
 74
     0
 49
1.27
 74
     0
 49
-1.27
 74
     0
  0
LTYPE
  5
42
330
5
100
AcDbSymbolTableRecord
100
AcDbLinetypeTableRecord
  2
CENTERX2
 70
     0
  3
Center (2x) ________  __  ________  __  _____
 72
    65
 73
     4
 40
20.32
 49
12.7
 74
     0
 49
-2.54
 74
     0
 49
2.54
 74
     0
 49
-2.54
 74
     0
  0
LTYPE
  5
43
330
5
100
AcDbSymbolTableRecord
100
AcDbLinetypeTableRecord
  2
DOT2
 70
     0
  3
Dot (.5x) ........................................
 72
    65
 73
     2
 40
0.635
 49
0.0
 74
     0
 49
-0.635
 74
     0
  0
ENDTAB
  0
TABLE
  2
LAYER
  5
2
330
0
100
AcDbSymbolTable
 70
     5
  0
LAYER
  5
10
330
2
100
AcDbSymbolTableRecord
100
AcDbLayerTableRecord
  2
0
 70
     0
 62
     7
  6
Continuous
370
    -3
390
F
  0
LAYER
  5
44
330
2
100
AcDbSymbolTableRecord
100
AcDbLayerTableRecord
  2
FORMAT
 70
     0
 62
     7
  6
Continuous
370
    -3
390
F
  0
LAYER
  5
45
330
2
100
AcDbSymbolTableRecord
100
AcDbLayerTableRecord
  2
VERMASSUNG
 70
     0
 62
     7
  6
Continuous
370
    -3
390
F
  0
LAYER
  5
46
330
2
100
AcDbSymbolTableRecord
100
AcDbLayerTableRecord
  2
KOPF_DÜNN
 70
     0
 62
     7
  6
Continuous
370
    -3
390
F
  0
LAYER
  5
47
330
2
100
AcDbSymbolTableRecord
100
AcDbLayerTableRecord
  2
KOPF_DICK
 70
     0
 62
     7
  6
Continuous
370
    15
390
F
  0
ENDTAB
  0
TABLE
  2
STYLE
  5
3
330
0
100
AcDbSymbolTable
 70
     3
  0
STYLE
  5
11
330
3
100
AcDbSymbolTableRecord
100
AcDbTextStyleTableRecord
  2
Standard
 70
     0
 40
0.0
 41
1.0
 50
0.0
 71
     0
 42
2.0
  3
txt
  4

  0
STYLE
  5
48
330
3
100
AcDbSymbolTableRecord
100
AcDbTextStyleTableRecord
  2
SLDTEXTSTYLE0
 70
     0
 40
0.0
 41
0.7
 50
0.0
 71
     0
 42
0.2
  3
TXT
  4

  0
STYLE
  5
4C
330
3
100
AcDbSymbolTableRecord
100
AcDbTextStyleTableRecord
  2
SLDTEXTSTYLE1
 70
     0
 40
0.0
 41
0.65
 50
0.0
 71
     0
 42
0.2
  3
TXT
  4

  0
ENDTAB
  0
TABLE
  2
VIEW
  5
6
330
0
100
AcDbSymbolTable
 70
     0
  0
ENDTAB
  0
TABLE
  2
UCS
  5
7
330
0
100
AcDbSymbolTable
 70
     0
  0
ENDTAB
  0
TABLE
  2
APPID
  5
9
330
0
100
AcDbSymbolTable
 70
     1
  0
APPID
  5
12
330
9
100
AcDbSymbolTableRecord
100
AcDbRegAppTableRecord
  2
ACAD
 70
     0
  0
ENDTAB
  0
TABLE
  2
DIMSTYLE
  5
A
330
0
100
AcDbSymbolTable
 70
     3
100
AcDbDimStyleTable
  0
DIMSTYLE
105
27
330
A
100
AcDbSymbolTableRecord
100
AcDbDimStyleTableRecord
  2
ISO-25
 70
     0
 41
2.5
 42
0.625
 43
3.75
 44
1.25
 73
     0
 74
     0
 77
     1
 78
     8
140
2.5
141
2.5
143
0.0393700787
147
0.625
171
     3
172
     1
178
     0
271
     2
272
     2
274
     3
278
    44
283
     0
284
     8
340
11
  0
DIMSTYLE
105
195
102
{ACAD_REACTORS
330
194
330
19F
330
1E3
330
1ED
330
1F7
330
201
330
20A
330
213
330
2A0
330
2AA
102
}
330
A
100
AcDbSymbolTableRecord
100
AcDbDimStyleTableRecord
  2
SLDDIMSTYLE0
 70
     0
 41
3.0
 44
0.0
 45
0.000000001
 73
     0
 74
     0
 77
     1
 78
    12
 79
     3
140
2.0
147
0.5
173
     1
178
     0
271
     2
272
     3
276
     2
284
    12
340
48
  0
DIMSTYLE
105
21E
102
{ACAD_REACTORS
330
21D
102
}
330
A
100
AcDbSymbolTableRecord
100
AcDbDimStyleTableRecord
  2
SLDDIMSTYLE1
 70
     0
 41
3.0
 44
0.0
 45
0.000000001
 73
     0
 74
     0
 77
     1
 78
    12
 79
     3
140
2.0
141
0.0
147
0.5
173
     1
178
     0
271
     2
272
     3
276
     2
284
    12
340
48
  0
ENDTAB
  0
TABLE
  2
BLOCK_RECORD
  5
1
330
0
100
AcDbSymbolTable
 70
    13
  0
BLOCK_RECORD
  5
1F
330
1
100
AcDbSymbolTableRecord
100
AcDbBlockTableRecord
  2
*Model_Space
340
22
  0
BLOCK_RECORD
  5
1B
330
1
100
AcDbSymbolTableRecord
100
AcDbBlockTableRecord
  2
*Paper_Space
340
1E
  0
BLOCK_RECORD
  5
23
330
1
100
AcDbSymbolTableRecord
100
AcDbBlockTableRecord
  2
*Paper_Space0
340
26
  0
BLOCK_RECORD
  5
196
330
1
100
AcDbSymbolTableRecord
100
AcDbBlockTableRecord
  2
_D
340
0
  0
BLOCK_RECORD
  5
1A0
330
1
100
AcDbSymbolTableRecord
100
AcDbBlockTableRecord
  2
_D_1
340
0
  0
BLOCK_RECORD
  5
1E4
330
1
100
AcDbSymbolTableRecord
100
AcDbBlockTableRecord
  2
_D_2
340
0
  0
BLOCK_RECORD
  5
1EE
330
1
100
AcDbSymbolTableRecord
100
AcDbBlockTableRecord
  2
_D_3
340
0
  0
BLOCK_RECORD
  5
1F8
330
1
100
AcDbSymbolTableRecord
100
AcDbBlockTableRecord
  2
_D_4
340
0
  0
BLOCK_RECORD
  5
202
330
1
100
AcDbSymbolTableRecord
100
AcDbBlockTableRecord
  2
_D_5
340
0
  0
BLOCK_RECORD
  5
20B
330
1
100
AcDbSymbolTableRecord
100
AcDbBlockTableRecord
  2
_D_6
340
0
  0
BLOCK_RECORD
  5
214
330
1
100
AcDbSymbolTableRecord
100
AcDbBlockTableRecord
  2
_D_7
340
0
  0
BLOCK_RECORD
  5
21F
330
1
100
AcDbSymbolTableRecord
100
AcDbBlockTableRecord
  2
_D_8
340
0
  0
BLOCK_RECORD
  5
226
330
1
100
AcDbSymbolTableRecord
100
AcDbBlockTableRecord
  2
SW_CENTERMARKSYMBOL_0
340
0
102
{BLKREFS
331
231
102
}
  0
BLOCK_RECORD
  5
2A1
330
1
100
AcDbSymbolTableRecord
100
AcDbBlockTableRecord
  2
_D_9
340
0
  0
BLOCK_RECORD
  5
2AB
330
1
100
AcDbSymbolTableRecord
100
AcDbBlockTableRecord
  2
_D_10
340
0
  0
ENDTAB
  0
ENDSEC
  0
SECTION
  2
BLOCKS
  0
BLOCK
  5
20
330
1F
100
AcDbEntity
  8
0
100
AcDbBlockBegin
  2
*Model_Space
 70
     0
 10
0.0
 20
0.0
 30
0.0
  3
*Model_Space
  1

  0
ENDBLK
  5
21
330
1F
100
AcDbEntity
  8
0
100
AcDbBlockEnd
  0
BLOCK
  5
1C
330
1B
100
AcDbEntity
 67
     1
  8
0
100
AcDbBlockBegin
  2
*Paper_Space
 70
     0
 10
0.0
 20
0.0
 30
0.0
  3
*Paper_Space
  1

  0
ENDBLK
  5
1D
330
1B
100
AcDbEntity
 67
     1
  8
0
100
AcDbBlockEnd
  0
BLOCK
  5
24
330
23
100
AcDbEntity
  8
0
100
AcDbBlockBegin
  2
*Paper_Space0
 70
     0
 10
0.0
 20
0.0
 30
0.0
  3
*Paper_Space0
  1

  0
ENDBLK
  5
25
330
23
100
AcDbEntity
  8
0
100
AcDbBlockEnd
  0
BLOCK
  5
197
330
196
100
AcDbEntity
  8
0
100
AcDbBlockBegin
  2
_D
 70
     0
 10
0.0
 20
0.0
 30
0.0
  3
_D
  1

  0
SOLID
  5
199
330
196
100
AcDbEntity
  8
VERMASSUNG
100
AcDbTrace
 10
169.4155690385
 20
184.4580071082
 30
0.0
 11
172.4155690385
 21
184.0080071082
 31
0.0
 12
172.4155690385
 22
184.9080071082
 32
0.0
 13
172.4155690385
 23
184.9080071082
 33
0.0
  0
SOLID
  5
19A
330
196
100
AcDbEntity
  8
VERMASSUNG
100
AcDbTrace
 10
267.4155690385
 20
184.4580071082
 30
0.0
 11
264.4155690385
 21
184.9080071082
 31
0.0
 12
264.4155690385
 22
184.0080071082
 32
0.0
 13
264.4155690385
 23
184.0080071082
 33
0.0
  0
LINE
  5
19B
330
196
100
AcDbEntity
  8
VERMASSUNG
100
AcDbLine
 10
169.4155690385
 20
171.413555368
 30
0.0
 11
169.4155690385
 21
185.4580071082
 31
0.0
  0
LINE
  5
19C
330
196
100
AcDbEntity
  8
VERMASSUNG
100
AcDbLine
 10
267.4155690385
 20
175.713555368
 30
0.0
 11
267.4155690385
 21
185.4580071082
 31
0.0
  0
LINE
  5
19D
330
196
100
AcDbEntity
  8
VERMASSUNG
100
AcDbLine
 10
169.4155690385
 20
184.4580071082
 30
0.0
 11
267.4155690385
 21
184.4580071082
 31
0.0
  0
MTEXT
  5
19E
330
196
100
AcDbEntity
  8
VERMASSUNG
100
AcDbMText
 10
216.1155689875
 20
187.0361424713
 30
4.6
 40
2.0
 41
0.0
 71
     1
 72
     1
  1
98
  7
SLDTEXTSTYLE0
 73
     1
 44
1.0
  0
ENDBLK
  5
198
330
196
100
AcDbEntity
  8
0
100
AcDbBlockEnd
  0
BLOCK
  5
1A1
330
1A0
100
AcDbEntity
  8
0
100
AcDbBlockBegin
  2
_D_1
 70
     0
 10
0.0
 20
0.0
 30
0.0
  3
_D_1
  1

  0
SOLID
  5
1A3
330
1A0
100
AcDbEntity
  8
VERMASSUNG
100
AcDbTrace
 10
139.4155690385
 20
192.713555368
 30
0.0
 11
142.4155690385
 21
192.263555368
 31
0.0
 12
142.4155690385
 22
193.163555368
 32
0.0
 13
142.4155690385
 23
193.163555368
 33
0.0
  0
SOLID
  5
1A4
330
1A0
100
AcDbEntity
  8
VERMASSUNG
100
AcDbTrace
 10
267.4155690385
 20
192.713555368
 30
0.0
 11
264.4155690385
 21
193.163555368
 31
0.0
 12
264.4155690385
 22
192.263555368
 32
0.0
 13
264.4155690385
 23
192.263555368
 33
0.0
  0
LINE
  5
1A5
330
1A0
100
AcDbEntity
  8
VERMASSUNG
100
AcDbLine
 10
139.4155690385
 20
162.7068812061
 30
0.0
 11
139.4155690385
 21
193.713555368
 31
0.0
  0
LINE
  5
1A6
330
1A0
100
AcDbEntity
  8
VERMASSUNG
100
AcDbLine
 10
267.4155690385
 20
175.713555368
 30
0.0
 11
267.4155690385
 21
193.713555368
 31
0.0
  0
LINE
  5
1A7
330
1A0
100
AcDbEntity
  8
VERMASSUNG
100
AcDbLine
 10
139.4155690385
 20
192.713555368
 30
0.0
 11
267.4155690385
 21
192.713555368
 31
0.0
  0
MTEXT
  5
1A8
330
1A0
100
AcDbEntity
  8
VERMASSUNG
100
AcDbMText
 10
200.6155689055
 20
195.2916907311
 30
4.6
 40
2.0
 41
0.0
 71
     1
 72
     1
  1
128
  7
SLDTEXTSTYLE0
 73
     1
 44
1.0
  0
ENDBLK
  5
1A2
330
1A0
100
AcDbEntity
  8
0
100
AcDbBlockEnd
  0
BLOCK
  5
1E5
330
1E4
100
AcDbEntity
  8
0
100
AcDbBlockBegin
  2
_D_2
 70
     0
 10
0.0
 20
0.0
 30
0.0
  3
_D_2
  1

  0
SOLID
  5
1E7
330
1E4
100
AcDbEntity
  8
VERMASSUNG
100
AcDbTrace
 10
108.2214285563
 20
146.713555368
 30
0.0
 11
108.6714285563
 21
149.713555368
 31
0.0
 12
107.7714285563
 22
149.713555368
 32
0.0
 13
107.7714285563
 23
149.713555368
 33
0.0
  0
SOLID
  5
1E8
330
1E4
100
AcDbEntity
  8
VERMASSUNG
100
AcDbTrace
 10
108.2214285563
 20
176.713555368
 30
0.0
 11
107.7714285563
 21
173.713555368
 31
0.0
 12
108.6714285563
 22
173.713555368
 32
0.0
 13
108.6714285563
 23
173.713555368
 33
0.0
  0
LINE
  5
1E9
330
1E4
100
AcDbEntity
  8
VERMASSUNG
100
AcDbLine
 10
99.7214285563
 20
146.713555368
 30
0.0
 11
109.2214285563
 21
146.713555368
 31
0.0
  0
LINE
  5
1EA
330
1E4
100
AcDbEntity
  8
VERMASSUNG
100
AcDbLine
 10
83.678941667
 20
176.713555368
 30
0.0
 11
109.2214285563
 21
176.713555368
 31
0.0
  0
LINE
  5
1EB
330
1E4
100
AcDbEntity
  8
VERMASSUNG
100
AcDbLine
 10
108.2214285563
 20
146.713555368
 30
0.0
 11
108.2214285563
 21
176.713555368
 31
0.0
  0
MTEXT
  5
1EC
330
1E4
100
AcDbEntity
  8
VERMASSUNG
100
AcDbMText
 10
105.6432931932
 20
159.4135553169
 30
-35.1455939098
 40
2.0
 41
0.0
 71
     1
 72
     1
  1
30
  7
SLDTEXTSTYLE0
 11
6.123233995736766E-17
 21
1.0
 31
0.0
 73
     1
 44
1.0
  0
ENDBLK
  5
1E6
330
1E4
100
AcDbEntity
  8
0
100
AcDbBlockEnd
  0
BLOCK
  5
1EF
330
1EE
100
AcDbEntity
  8
0
100
AcDbBlockBegin
  2
_D_3
 70
     0
 10
0.0
 20
0.0
 30
0.0
  3
_D_3
  1

  0
SOLID
  5
1F1
330
1EE
100
AcDbEntity
  8
VERMASSUNG
100
AcDbTrace
 10
114.2214285563
 20
176.713555368
 30
0.0
 11
113.7714285563
 21
173.713555368
 31
0.0
 12
114.6714285563
 22
173.713555368
 32
0.0
 13
114.6714285563
 23
173.713555368
 33
0.0
  0
SOLID
  5
1F2
330
1EE
100
AcDbEntity
  8
VERMASSUNG
100
AcDbTrace
 10
114.2214285563
 20
116.713555368
 30
0.0
 11
114.6714285563
 21
119.713555368
 31
0.0
 12
113.7714285563
 22
119.713555368
 32
0.0
 13
113.7714285563
 23
119.713555368
 33
0.0
  0
LINE
  5
1F3
330
1EE
100
AcDbEntity
  8
VERMASSUNG
100
AcDbLine
 10
83.678941667
 20
176.713555368
 30
0.0
 11
115.2214285563
 21
176.713555368
 31
0.0
  0
LINE
  5
1F4
330
1EE
100
AcDbEntity
  8
VERMASSUNG
100
AcDbLine
 10
83.678941667
 20
116.713555368
 30
0.0
 11
115.2214285563
 21
116.713555368
 31
0.0
  0
LINE
  5
1F5
330
1EE
100
AcDbEntity
  8
VERMASSUNG
100
AcDbLine
 10
114.2214285563
 20
176.713555368
 30
0.0
 11
114.2214285563
 21
116.713555368
 31
0.0
  0
MTEXT
  5
1F6
330
1EE
100
AcDbEntity
  8
VERMASSUNG
100
AcDbMText
 10
111.6432931932
 20
144.4135553169
 30
-35.1455939098
 40
2.0
 41
0.0
 71
     1
 72
     1
  1
60
  7
SLDTEXTSTYLE0
 11
-7.044195017643634E-15
 21
1.0
 31
0.0
 73
     1
 44
1.0
  0
ENDBLK
  5
1F0
330
1EE
100
AcDbEntity
  8
0
100
AcDbBlockEnd
  0
BLOCK
  5
1F9
330
1F8
100
AcDbEntity
  8
0
100
AcDbBlockBegin
  2
_D_4
 70
     0
 10
0.0
 20
0.0
 30
0.0
  3
_D_4
  1

  0
SOLID
  5
1FB
330
1F8
100
AcDbEntity
  8
VERMASSUNG
100
AcDbTrace
 10
99.4592678576
 20
156.713555368
 30
0.0
 11
99.9092678576
 21
159.713555368
 31
0.0
 12
99.0092678576
 22
159.713555368
 32
0.0
 13
99.0092678576
 23
159.713555368
 33
0.0
  0
SOLID
  5
1FC
330
1F8
100
AcDbEntity
  8
VERMASSUNG
100
AcDbTrace
 10
99.4592678576
 20
176.713555368
 30
0.0
 11
99.0092678576
 21
173.713555368
 31
0.0
 12
99.9092678576
 22
173.713555368
 32
0.0
 13
99.9092678576
 23
173.713555368
 33
0.0
  0
LINE
  5
1FD
330
1F8
100
AcDbEntity
  8
VERMASSUNG
100
AcDbLine
 10
81.4714285563
 20
156.713555368
 30
0.0
 11
100.4592678576
 21
156.713555368
 31
0.0
  0
LINE
  5
1FE
330
1F8
100
AcDbEntity
  8
VERMASSUNG
100
AcDbLine
 10
83.678941667
 20
176.713555368
 30
0.0
 11
100.4592678576
 21
176.713555368
 31
0.0
  0
LINE
  5
1FF
330
1F8
100
AcDbEntity
  8
VERMASSUNG
100
AcDbLine
 10
99.4592678576
 20
156.713555368
 30
0.0
 11
99.4592678576
 21
176.713555368
 31
0.0
  0
MTEXT
  5
200
330
1F8
100
AcDbEntity
  8
VERMASSUNG
100
AcDbMText
 10
96.8811324945
 20
164.4135553169
 30
-35.1455939098
 40
2.0
 41
0.0
 71
     1
 72
     1
  1
20
  7
SLDTEXTSTYLE0
 11
2.832769448823990E-16
 21
1.0
 31
0.0
 73
     1
 44
1.0
  0
ENDBLK
  5
1FA
330
1F8
100
AcDbEntity
  8
0
100
AcDbBlockEnd
  0
BLOCK
  5
203
330
202
100
AcDbEntity
  8
0
100
AcDbBlockBegin
  2
_D_5
 70
     0
 10
0.0
 20
0.0
 30
0.0
  3
_D_5
  1

  0
SOLID
  5
205
330
202
100
AcDbEntity
  8
VERMASSUNG
100
AcDbTrace
 10
57.2214285563
 20
182.0570457405
 30
0.0
 11
60.2214285563
 21
181.6070457405
 31
0.0
 12
60.2214285563
 22
182.5070457405
 32
0.0
 13
60.2214285563
 23
182.5070457405
 33
0.0
  0
SOLID
  5
206
330
202
100
AcDbEntity
  8
VERMASSUNG
100
AcDbTrace
 10
77.2214285563
 20
182.0570457405
 30
0.0
 11
74.2214285563
 21
182.5070457405
 31
0.0
 12
74.2214285563
 22
181.6070457405
 32
0.0
 13
74.2214285563
 23
181.6070457405
 33
0.0
  0
LINE
  5
207
330
202
100
AcDbEntity
  8
VERMASSUNG
100
AcDbLine
 10
77.2214285563
 20
176.713555368
 30
0.0
 11
77.2214285563
 21
183.0570457405
 31
0.0
  0
LINE
  5
208
330
202
100
AcDbEntity
  8
VERMASSUNG
100
AcDbLine
 10
57.2214285563
 20
182.0570457405
 30
0.0
 11
77.2214285563
 21
182.0570457405
 31
0.0
  0
MTEXT
  5
209
330
202
100
AcDbEntity
  8
VERMASSUNG
100
AcDbMText
 10
64.9214285053
 20
184.6351811037
 30
-35.1455939098
 40
2.0
 41
0.0
 71
     1
 72
     1
  1
20
  7
SLDTEXTSTYLE0
 73
     1
 44
1.0
  0
ENDBLK
  5
204
330
202
100
AcDbEntity
  8
0
100
AcDbBlockEnd
  0
BLOCK
  5
20C
330
20B
100
AcDbEntity
  8
0
100
AcDbBlockBegin
  2
_D_6
 70
     0
 10
0.0
 20
0.0
 30
0.0
  3
_D_6
  1

  0
SOLID
  5
20E
330
20B
100
AcDbEntity
  8
VERMASSUNG
100
AcDbTrace
 10
57.2214285563
 20
189.1836201366
 30
0.0
 11
60.2214285563
 21
188.7336201366
 31
0.0
 12
60.2214285563
 22
189.6336201366
 32
0.0
 13
60.2214285563
 23
189.6336201366
 33
0.0
  0
SOLID
  5
20F
330
20B
100
AcDbEntity
  8
VERMASSUNG
100
AcDbTrace
 10
92.2214285563
 20
189.1836201366
 30
0.0
 11
89.2214285563
 21
189.6336201366
 31
0.0
 12
89.2214285563
 22
188.7336201366
 32
0.0
 13
89.2214285563
 23
188.7336201366
 33
0.0
  0
LINE
  5
210
330
20B
100
AcDbEntity
  8
VERMASSUNG
100
AcDbLine
 10
92.2214285563
 20
166.078472099
 30
0.0
 11
92.2214285563
 21
190.1836201366
 31
0.0
  0
LINE
  5
211
330
20B
100
AcDbEntity
  8
VERMASSUNG
100
AcDbLine
 10
57.2214285563
 20
189.1836201366
 30
0.0
 11
92.2214285563
 21
189.1836201366
 31
0.0
  0
MTEXT
  5
212
330
20B
100
AcDbEntity
  8
VERMASSUNG
100
AcDbMText
 10
72.4214285053
 20
191.7617554998
 30
-35.1455939098
 40
2.0
 41
0.0
 71
     1
 72
     1
  1
35
  7
SLDTEXTSTYLE0
 73
     1
 44
1.0
  0
ENDBLK
  5
20D
330
20B
100
AcDbEntity
  8
0
100
AcDbBlockEnd
  0
BLOCK
  5
215
330
214
100
AcDbEntity
  8
0
100
AcDbBlockBegin
  2
_D_7
 70
     0
 10
0.0
 20
0.0
 30
0.0
  3
_D_7
  1

  0
SOLID
  5
217
330
214
100
AcDbEntity
  8
VERMASSUNG
100
AcDbTrace
 10
31.2214285563
 20
194.885263351
 30
0.0
 11
34.2214285563
 21
194.435263351
 31
0.0
 12
34.2214285563
 22
195.335263351
 32
0.0
 13
34.2214285563
 23
195.335263351
 33
0.0
  0
SOLID
  5
218
330
214
100
AcDbEntity
  8
VERMASSUNG
100
AcDbTrace
 10
92.2214285563
 20
194.885263351
 30
0.0
 11
89.2214285563
 21
195.335263351
 31
0.0
 12
89.2214285563
 22
194.435263351
 32
0.0
 13
89.2214285563
 23
194.435263351
 33
0.0
  0
LINE
  5
219
330
214
100
AcDbEntity
  8
VERMASSUNG
100
AcDbLine
 10
31.2214285563
 20
175.713555368
 30
0.0
 11
31.2214285563
 21
195.885263351
 31
0.0
  0
LINE
  5
21A
330
214
100
AcDbEntity
  8
VERMASSUNG
100
AcDbLine
 10
92.2214285563
 20
166.078472099
 30
0.0
 11
92.2214285563
 21
195.885263351
 31
0.0
  0
LINE
  5
21B
330
214
100
AcDbEntity
  8
VERMASSUNG
100
AcDbLine
 10
31.2214285563
 20
194.885263351
 30
0.0
 11
92.2214285563
 21
194.885263351
 31
0.0
  0
MTEXT
  5
21C
330
214
100
AcDbEntity
  8
VERMASSUNG
100
AcDbMText
 10
59.6214283984
 20
197.4633987141
 30
-35.1455939098
 40
2.0
 41
0.0
 71
     1
 72
     1
  1
61
  7
SLDTEXTSTYLE0
 73
     1
 44
1.0
  0
ENDBLK
  5
216
330
214
100
AcDbEntity
  8
0
100
AcDbBlockEnd
  0
BLOCK
  5
220
330
21F
100
AcDbEntity
  8
0
100
AcDbBlockBegin
  2
_D_8
 70
     0
 10
0.0
 20
0.0
 30
0.0
  3
_D_8
  1

  0
SOLID
  5
222
330
21F
100
AcDbEntity
  8
VERMASSUNG
100
AcDbTrace
 10
87.5802422679
 20
172.7585631434
 30
0.0
 11
90.1501596338
 21
174.3704020723
 31
0.0
 12
89.5641469588
 22
175.0534753808
 32
0.0
 13
89.5641469588
 23
175.0534753808
 33
0.0
  0
LINE
  5
223
330
21F
100
AcDbEntity
  8
VERMASSUNG
100
AcDbLine
 10
87.5802422679
 20
172.7585631434
 30
0.0
 11
100.822312546
 21
184.1190143992
 31
0.0
  0
LINE
  5
224
330
21F
100
AcDbEntity
  8
VERMASSUNG
100
AcDbLine
 10
87.5802422679
 20
172.7585631434
 30
0.0
 11
57.2214285563
 21
146.713555368
 31
0.0
  0
MTEXT
  5
225
330
21F
100
AcDbEntity
  8
VERMASSUNG
100
AcDbMText
 10
94.2869704249
 20
181.9076586314
 30
-35.1455939098
 40
2.0
 41
0.0
 71
     1
 72
     1
  1
R40
  7
SLDTEXTSTYLE0
 11
0.7589703427905429
 21
0.6511251943861532
 31
0.0
 73
     1
 44
1.0
  0
ENDBLK
  5
221
330
21F
100
AcDbEntity
  8
0
100
AcDbBlockEnd
  0
BLOCK
  5
227
330
226
100
AcDbEntity
  8
0
100
AcDbBlockBegin
  2
SW_CENTERMARKSYMBOL_0
 70
     0
 10
0.0
 20
0.0
 30
0.0
  3
SW_CENTERMARKSYMBOL_0
  1

  0
LINE
  5
229
330
226
100
AcDbEntity
  8
VERMASSUNG
 62
     0
100
AcDbLine
 10
0.0
 20
0.0
 30
0.0
 11
0.0
 21
2.5
 31
0.0
  0
LINE
  5
22A
330
226
100
AcDbEntity
  8
VERMASSUNG
 62
     0
100
AcDbLine
 10
0.0
 20
0.0
 30
0.0
 11
-2.5
 21
0.0
 31
0.0
  0
LINE
  5
22B
330
226
100
AcDbEntity
  8
VERMASSUNG
 62
     0
100
AcDbLine
 10
0.0
 20
0.0
 30
0.0
 11
0.0
 21
-2.5
 31
0.0
  0
LINE
  5
22C
330
226
100
AcDbEntity
  8
VERMASSUNG
 62
     0
100
AcDbLine
 10
0.0
 20
0.0
 30
0.0
 11
2.5
 21
0.0
 31
0.0
  0
LINE
  5
22D
330
226
100
AcDbEntity
  8
VERMASSUNG
 62
     0
100
AcDbLine
 10
0.0
 20
5.0
 30
0.0
 11
0.0
 21
42.5
 31
0.0
  0
LINE
  5
22E
330
226
100
AcDbEntity
  8
VERMASSUNG
 62
     0
100
AcDbLine
 10
-5.0
 20
0.0
 30
0.0
 11
-42.5
 21
0.0
 31
0.0
  0
LINE
  5
22F
330
226
100
AcDbEntity
  8
VERMASSUNG
 62
     0
100
AcDbLine
 10
0.0
 20
-5.0
 30
0.0
 11
0.0
 21
-42.5
 31
0.0
  0
LINE
  5
230
330
226
100
AcDbEntity
  8
VERMASSUNG
 62
     0
100
AcDbLine
 10
5.0
 20
0.0
 30
0.0
 11
42.5
 21
0.0
 31
0.0
  0
ENDBLK
  5
228
330
226
100
AcDbEntity
  8
0
100
AcDbBlockEnd
  0
BLOCK
  5
2A2
330
2A1
100
AcDbEntity
  8
0
100
AcDbBlockBegin
  2
_D_9
 70
     0
 10
0.0
 20
0.0
 30
0.0
  3
_D_9
  1

  0
SOLID
  5
2A4
330
2A1
100
AcDbEntity
  8
VERMASSUNG
100
AcDbTrace
 10
192.4155690385
 20
29.1451171987
 30
0.0
 11
195.4155690385
 21
28.6951171987
 31
0.0
 12
195.4155690385
 22
29.5951171987
 32
0.0
 13
195.4155690385
 23
29.5951171987
 33
0.0
  0
SOLID
  5
2A5
330
2A1
100
AcDbEntity
  8
VERMASSUNG
100
AcDbTrace
 10
267.4155690385
 20
29.1451171987
 30
0.0
 11
264.4155690385
 21
29.5951171987
 31
0.0
 12
264.4155690385
 22
28.6951171987
 32
0.0
 13
264.4155690385
 23
28.6951171987
 33
0.0
  0
LINE
  5
2A6
330
2A1
100
AcDbEntity
  8
VERMASSUNG
100
AcDbLine
 10
192.4155690385
 20
64.1451171987
 30
0.0
 11
192.4155690385
 21
28.1451171987
 31
0.0
  0
LINE
  5
2A7
330
2A1
100
AcDbEntity
  8
VERMASSUNG
100
AcDbLine
 10
267.4155690385
 20
40.1451171987
 30
0.0
 11
267.4155690385
 21
28.1451171987
 31
0.0
  0
LINE
  5
2A8
330
2A1
100
AcDbEntity
  8
VERMASSUNG
100
AcDbLine
 10
192.4155690385
 20
29.1451171987
 30
0.0
 11
267.4155690385
 21
29.1451171987
 31
0.0
  0
MTEXT
  5
2A9
330
2A1
100
AcDbEntity
  8
VERMASSUNG
100
AcDbMText
 10
227.6155689875
 20
31.7232525618
 30
0.1
 40
2.0
 41
0.0
 71
     1
 72
     1
  1
75
  7
SLDTEXTSTYLE0
 73
     1
 44
1.0
  0
ENDBLK
  5
2A3
330
2A1
100
AcDbEntity
  8
0
100
AcDbBlockEnd
  0
BLOCK
  5
2AC
330
2AB
100
AcDbEntity
  8
0
100
AcDbBlockBegin
  2
_D_10
 70
     0
 10
0.0
 20
0.0
 30
0.0
  3
_D_10
  1

  0
SOLID
  5
2AE
330
2AB
100
AcDbEntity
  8
VERMASSUNG
100
AcDbTrace
 10
130.0311767542
 20
90.1451171987
 30
0.0
 11
129.5811767542
 21
87.1451171987
 31
0.0
 12
130.4811767542
 22
87.1451171987
 32
0.0
 13
130.4811767542
 23
87.1451171987
 33
0.0
  0
SOLID
  5
2AF
330
2AB
100
AcDbEntity
  8
VERMASSUNG
100
AcDbTrace
 10
130.0311767542
 20
40.1451171987
 30
0.0
 11
130.4811767542
 21
43.1451171987
 31
0.0
 12
129.5811767542
 22
43.1451171987
 32
0.0
 13
129.5811767542
 23
43.1451171987
 33
0.0
  0
LINE
  5
2B0
330
2AB
100
AcDbEntity
  8
VERMASSUNG
100
AcDbLine
 10
169.7155690385
 20
90.1451171987
 30
0.0
 11
129.0311767542
 21
90.1451171987
 31
0.0
  0
LINE
  5
2B1
330
2AB
100
AcDbEntity
  8
VERMASSUNG
100
AcDbLine
 10
169.7155690385
 20
40.1451171987
 30
0.0
 11
129.0311767542
 21
40.1451171987
 31
0.0
  0
LINE
  5
2B2
330
2AB
100
AcDbEntity
  8
VERMASSUNG
100
AcDbLine
 10
130.0311767542
 20
90.1451171987
 30
0.0
 11
130.0311767542
 21
40.1451171987
 31
0.0
  0
MTEXT
  5
2B3
330
2AB
100
AcDbEntity
  8
VERMASSUNG
100
AcDbMText
 10
127.2530412652
 20
58.7401170895
 30
0.1
 40
2.0
 41
0.0
 71
     1
 72
     1
  1
PSC
  7
SLDTEXTSTYLE0
 11
-7.044195017643634E-15
 21
1.0
 31
0.0
 73
     1
 44
1.0
  0
MTEXT
  5
2B4
330
2AB
100
AcDbEntity
  8
VERMASSUNG
100
AcDbMText
 10
127.4530412747
 20
63.3401171916
 30
0.1
 40
2.0
 41
0.0
 71
     1
 72
     1
  1
%%c
  7
SLDTEXTSTYLE0
 11
-7.044195017643634E-15
 21
1.0
 31
0.0
 73
     1
 44
1.0
  0
MTEXT
  5
2B5
330
2AB
100
AcDbEntity
  8
VERMASSUNG
100
AcDbMText
 10
127.2530412652
 20
66.9501176715
 30
0.1
 40
2.0
 41
0.0
 71
     1
 72
     1
  1
50
  7
SLDTEXTSTYLE0
 11
-7.044195017643634E-15
 21
1.0
 31
0.0
 73
     1
 44
1.0
  0
ENDBLK
  5
2AD
330
2AB
100
AcDbEntity
  8
0
100
AcDbBlockEnd
  0
ENDSEC
  0
SECTION
  2
ENTITIES
  0
MTEXT
  5
49
330
1F
100
AcDbEntity
  8
KOPF_DÜNN
100
AcDbMText
 10
13.8892156294
 20
23.8442973028
 30
0.0
 40
3.0
 41
0.0
 71
     1
 72
     1
  1
PS5.V20.R21.098
  7
SLDTEXTSTYLE0
 73
     1
 44
1.0
  0
MTEXT
  5
4A
330
1F
100
AcDbEntity
  8
VERMASSUNG
100
AcDbMText
 10
13.9329988022
 20
28.8834360957
 30
0.0
 40
3.0
 41
0.0
 71
     1
 72
     1
  1
Werkzeughalter axial doppelt_Tool holder axial double
  7
SLDTEXTSTYLE0
 73
     1
 44
1.0
  0
MTEXT
  5
4B
330
1F
100
AcDbEntity
  8
VERMASSUNG
100
AcDbMText
 10
98.8601118557
 20
13.8365368179
 30
0.0
 40
2.0
 41
0.0
 71
     1
 72
     1
  1
Datum: 08.05.2012
  7
SLDTEXTSTYLE0
 73
     1
 44
1.0
  0
MTEXT
  5
4D
330
1F
100
AcDbEntity
  8
VERMASSUNG
100
AcDbMText
 10
13.933048693
 20
18.0482802738
 30
0.0
 40
2.0
 41
0.0
 71
     1
 72
     1
  1
PSC ø 50 / 20x20
  7
SLDTEXTSTYLE1
 73
     1
 44
1.0
  0
MTEXT
  5
4E
330
1F
100
AcDbEntity
  8
VERMASSUNG
100
AcDbMText
 10
13.9808475933
 20
13.9090973692
 30
0.0
 40
2.0
 41
0.0
 71
     1
 72
     1
  1
Gewicht: 2069g
  7
SLDTEXTSTYLE0
 73
     1
 44
1.0
  0
ARC
  5
4F
330
1F
100
AcDbEntity
  8
0
  6
Continuous
 62
     7
370
    15
100
AcDbCircle
 10
265.4155690385
 20
138.713555368
 30
0.0
 40
5.000000000000021
100
AcDbArc
 50
34.8676403736
 51
66.4218215218
  0
ARC
  5
50
330
1F
100
AcDbEntity
  8
0
  6
Continuous
 62
     7
370
    15
100
AcDbCircle
 10
265.4155690385
 20
138.713555368
 30
0.0
 40
4.999999999999972
100
AcDbArc
 50
293.5781784782
 51
314.3485712347
  0
ARC
  5
51
330
1F
100
AcDbEntity
  8
0
  6
Continuous
 62
     7
370
    15
100
AcDbCircle
 10
265.4155690385
 20
154.713555368
 30
0.0
 40
5.000000000000022
100
AcDbArc
 50
44.7464248226
 51
66.4218215218
  0
ARC
  5
52
330
1F
100
AcDbEntity
  8
0
  6
Continuous
 62
     7
370
    15
100
AcDbCircle
 10
265.4155690385
 20
154.713555368
 30
0.0
 40
5.000000000000021
100
AcDbArc
 50
293.5781784782
 51
324.396505774
  0
ARC
  5
53
330
1F
100
AcDbEntity
  8
0
  6
Continuous
 62
     7
370
    15
100
AcDbCircle
 10
189.4155690385
 20
120.713555368
 30
0.0
 40
1.0
100
AcDbArc
 50
0.0
 51
90.0
  0
ARC
  5
54
330
1F
100
AcDbEntity
  8
0
  6
Continuous
 62
     7
370
    15
100
AcDbCircle
 10
189.4155690385
 20
172.713555368
 30
0.0
 40
1.000000000000028
100
AcDbArc
 50
270.0
 51
0.0
  0
LINE
  5
55
330
1F
100
AcDbEntity
  8
0
  6
Continuous
 62
     7
370
    15
100
AcDbLine
 10
169.7155690385
 20
121.713555368
 30
0.0
 11
189.4155690385
 21
121.713555368
 31
0.0
  0
LINE
  5
56
330
1F
100
AcDbEntity
  8
0
  6
Continuous
 62
     7
370
    15
100
AcDbLine
 10
189.4155690385
 20
171.713555368
 30
0.0
 11
169.7155690385
 21
171.713555368
 31
0.0
  0
ARC
  5
57
330
1F
100
AcDbEntity
  8
0
  6
Continuous
 62
     7
370
    15
100
AcDbCircle
 10
169.7155690385
 20
122.013555368
 30
0.0
 40
0.3000000000000398
100
AcDbArc
 50
180.0
 51
270.0
  0
ARC
  5
58
330
1F
100
AcDbEntity
  8
0
  6
Continuous
 62
     7
370
    15
100
AcDbCircle
 10
169.7155690385
 20
171.413555368
 30
0.0
 40
0.3000000000000398
100
AcDbArc
 50
90.0
 51
180.0
  0
LWPOLYLINE
  5
59
330
1F
100
AcDbEntity
  8
0
  6
Continuous
 62
     7
370
    15
100
AcDbPolyline
 90
        3
 70
   128
 43
0.0
 10
169.2155690385
 20
128.8737350891
 10
169.341023982
 20
128.8054329741
 10
169.4155690385
 20
128.752695216
  0
LWPOLYLINE
  5
5A
330
1F
100
AcDbEntity
  8
0
  6
Continuous
 62
     7
370
    15
100
AcDbPolyline
 90
        3
 70
   128
 43
0.0
 10
169.4155690385
 20
164.6744155199
 10
169.341023982
 20
164.6216777618
 10
169.2155690385
 20
164.5533756468
  0
LWPOLYLINE
  5
5B
330
1F
100
AcDbEntity
  8
0
  6
Continuous
 62
     7
370
    15
100
AcDbPolyline
 90
       29
 70
   128
 43
0.0
 10
269.1341490208
 20
135.8396244323
 10
269.0414083816
 20
135.45067084
 10
268.9557482263
 20
135.2075030102
 10
268.8814639128
 20
135.1223143932
 10
268.8222803668
 20
135.1993767019
 10
268.7811652984
 20
135.4348257105
 10
268.7601803887
 20
135.8168550225
 10
268.7603779089
 20
136.3263080929
 10
268.7817479544
 20
136.9376388176
 10
268.8232189419
 20
137.6201925213
 10
268.8827113429
 20
138.3397431112
 10
268.95724196
 20
139.0602093162
 10
269.0430735169
 20
139.7454639522
 10
269.1359020608
 20
140.3611454906
 10
269.2310727811
 20
140.8763810881
 10
269.3238134203
 20
141.2653346804
 10
269.4094735756
 20
141.5085025102
 10
269.4837578891
 20
141.5936911272
 10
269.5429414351
 20
141.5166288185
 10
269.5840565035
 20
141.2811798099
 10
269.6050414132
 20
140.8991504979
 10
269.604843893
 20
140.3896974275
 10
269.5834738475
 20
139.7783667028
 10
269.54200286
 20
139.0958129991
 10
269.482510459
 20
138.3762624092
 10
269.4079798419
 20
137.6557962042
 10
269.322148285
 20
136.9705415681
 10
269.2293197411
 20
136.3548600298
 10
269.1341490208
 20
135.8396244323
  0
LWPOLYLINE
  5
5C
330
1F
100
AcDbEntity
  8
0
  6
Continuous
 62
     7
370
    15
100
AcDbPolyline
 90
       26
 70
   128
 43
0.0
 10
269.1453325316
 20
136.4207886618
 10
269.0657305654
 20
136.0929867915
 10
268.9934726205
 20
135.9075042047
 10
268.9330989294
 20
135.8759954543
 10
268.8884029931
 20
136.0004403512
 10
268.8621932217
 20
136.2730195648
 10
268.8561164715
 20
136.6766059406
 10
268.870554567
 20
137.1858406623
 10
268.9046003097
 20
137.7687266395
 10
268.9561144802
 20
138.3886390025
 10
269.0218602539
 20
139.0066263778
 10
269.0977065819
 20
139.5838583458
 10
269.1788877606
 20
140.0840652989
 10
269.2603028778
 20
140.4758173947
 10
269.3368363224
 20
140.7344994082
 10
269.4036792166
 20
140.8438573972
 10
269.4566315755
 20
140.797019997
 10
269.4923662076
 20
140.5969301738
 10
269.5086377746
 20
140.2561603069
 10
269.5044238741
 20
139.7961222205
 10
269.4799892809
 20
139.2457217993
 10
269.4368693104
 20
138.6395427261
 10
269.377773349
 20
138.0156734614
 10
269.3064146132
 20
137.4133140056
 10
269.2272768349
 20
136.8703128185
 10
269.1453325316
 20
136.4207886618
  0
ARC
  5
5D
330
1F
100
AcDbEntity
  8
0
  6
Continuous
 62
     7
370
    15
100
AcDbCircle
 10
247.1071106997
 20
140.4416009656
 30
0.0
 40
21.96728909290265
100
AcDbArc
 50
352.7052189291
 51
356.5109926792
  0
LWPOLYLINE
  5
5E
330
1F
100
AcDbEntity
  8
0
  6
Continuous
 62
     7
370
    15
100
AcDbPolyline
 90
       29
 70
   128
 43
0.0
 10
269.1341490208
 20
152.6695055688
 10
269.0414083816
 20
153.2256751358
 10
268.9557482263
 20
153.8715566984
 10
268.8814639128
 20
154.5747630582
 10
268.8222803668
 20
155.3000325119
 10
268.7811652984
 20
156.0109970207
 10
268.7601803887
 20
156.6720058554
 10
268.7603779089
 20
157.2499132728
 10
268.7817479544
 20
157.715740582
 10
268.8232189419
 20
158.0461292565
 10
268.8827113429
 20
158.2245122286
 10
268.95724196
 20
158.2419446313
 10
269.0430735169
 20
158.0975523309
 10
269.1359020608
 20
157.7985757605
 10
269.2310727811
 20
157.3600068537
 10
269.3238134203
 20
156.8038372868
 10
269.4094735756
 20
156.1579557241
 10
269.4837578891
 20
155.4547493644
 10
269.5429414351
 20
154.7294799106
 10
269.5840565035
 20
154.0185154018
 10
269.6050414132
 20
153.3575065672
 10
269.604843893
 20
152.7795991497
 10
269.5834738475
 20
152.3137718405
 10
269.54200286
 20
151.983383166
 10
269.482510459
 20
151.8050001939
 10
269.4079798419
 20
151.7875677913
 10
269.322148285
 20
151.9319600916
 10
269.2293197411
 20
152.230936662
 10
269.1341490208
 20
152.6695055688
  0
LWPOLYLINE
  5
5F
330
1F
100
AcDbEntity
  8
0
  6
Continuous
 62
     7
370
    15
100
AcDbPolyline
 90
       26
 70
   128
 43
0.0
 10
269.1453325316
 20
153.2107172556
 10
269.0657305654
 20
153.6949798086
 10
268.9934726205
 20
154.2621687669
 10
268.9330989294
 20
154.8766455621
 10
268.8884029931
 20
155.4998003573
 10
268.8621932217
 20
156.0924780449
 10
268.8561164715
 20
156.6174385062
 10
268.870554567
 20
157.0416965446
 10
268.9046003097
 20
157.3385944674
 10
268.9561144802
 20
157.489477086
 10
269.0218602539
 20
157.4848638906
 10
269.0977065819
 20
157.3250447454
 10
269.1788877606
 20
157.0200616749
 10
269.2603028778
 20
156.5890778871
 10
269.3368363224
 20
156.0591736785
 10
269.4036792166
 20
155.4636448793
 10
269.4566315755
 20
154.8399107542
 10
269.4923662076
 20
154.2271628122
 10
269.5086377746
 20
153.6639022601
 10
269.5044238741
 20
153.1855208298
 10
269.4799892809
 20
152.8220769859
 10
269.4368693104
 20
152.5964072419
 10
269.377773349
 20
152.5226912578
 10
269.3064146132
 20
152.6055608798
 10
269.2272768349
 20
152.8398091049
 10
269.1453325316
 20
153.2107172556
  0
ARC
  5
60
330
1F
100
AcDbEntity
  8
0
  6
Continuous
 62
     7
370
    15
100
AcDbCircle
 10
251.9728761693
 20
153.6387198401
 30
0.0
 40
17.08802983425322
100
AcDbArc
 50
0.3073422973
 51
8.8355882993
  0
CIRCLE
  5
61
330
1F
100
AcDbEntity
  8
0
  6
Continuous
 62
     7
370
    15
100
AcDbCircle
 10
254.9155690385
 20
126.713555368
 30
0.0
 40
4.171999999999987
  0
LINE
  5
62
330
1F
100
AcDbEntity
  8
0
  6
Continuous
 62
     7
370
    15
100
AcDbLine
 10
257.6354150546
 20
127.6809079313
 30
0.0
 11
255.4377401523
 21
129.552687394
 31
0.0
  0
LINE
  5
63
330
1F
100
AcDbEntity
  8
0
  6
Continuous
 62
     7
370
    15
100
AcDbLine
 10
252.7178941362
 20
128.5853348306
 30
0.0
 11
255.4377401523
 21
129.552687394
 31
0.0
  0
LINE
  5
64
330
1F
100
AcDbEntity
  8
0
  6
Continuous
 62
     7
370
    15
100
AcDbLine
 10
252.1957230224
 20
125.7462028046
 30
0.0
 11
252.7178941362
 21
128.5853348306
 31
0.0
  0
LINE
  5
65
330
1F
100
AcDbEntity
  8
0
  6
Continuous
 62
     7
370
    15
100
AcDbLine
 10
257.1132439409
 20
124.8417759053
 30
0.0
 11
254.3933979247
 21
123.8744233419
 31
0.0
  0
LINE
  5
66
330
1F
100
AcDbEntity
  8
0
  6
Continuous
 62
     7
370
    15
100
AcDbLine
 10
252.1957230224
 20
125.7462028046
 30
0.0
 11
254.3933979247
 21
123.8744233419
 31
0.0
  0
LINE
  5
67
330
1F
100
AcDbEntity
  8
0
  6
Continuous
 62
     7
370
    15
100
AcDbLine
 10
257.1132439409
 20
124.8417759053
 30
0.0
 11
257.6354150546
 21
127.6809079313
 31
0.0
  0
LINE
  5
68
330
1F
100
AcDbEntity
  8
0
  6
Continuous
 62
     7
370
    15
100
AcDbLine
 10
232.3124263819
 20
128.8896219001
 30
0.0
 11
229.4794688131
 21
129.4443152807
 31
0.0
  0
LINE
  5
69
330
1F
100
AcDbEntity
  8
0
  6
Continuous
 62
     7
370
    15
100
AcDbLine
 10
228.5187116951
 20
124.5374888358
 30
0.0
 11
227.5826114697
 21
127.2682487486
 31
0.0
  0
LINE
  5
6A
330
1F
100
AcDbEntity
  8
0
  6
Continuous
 62
     7
370
    15
100
AcDbLine
 10
228.5187116951
 20
124.5374888358
 30
0.0
 11
231.351669264
 21
123.9827954552
 31
0.0
  0
LINE
  5
6B
330
1F
100
AcDbEntity
  8
0
  6
Continuous
 62
     7
370
    15
100
AcDbLine
 10
233.2485266073
 20
126.1588619873
 30
0.0
 11
231.351669264
 21
123.9827954552
 31
0.0
  0
LINE
  5
6C
330
1F
100
AcDbEntity
  8
0
  6
Continuous
 62
     7
370
    15
100
AcDbLine
 10
233.2485266073
 20
126.1588619873
 30
0.0
 11
232.3124263819
 21
128.8896219001
 31
0.0
  0
CIRCLE
  5
6D
330
1F
100
AcDbEntity
  8
0
  6
Continuous
 62
     7
370
    15
100
AcDbCircle
 10
230.4155690385
 20
126.713555368
 30
0.0
 40
4.172000000000017
  0
LINE
  5
6E
330
1F
100
AcDbEntity
  8
0
  6
Continuous
 62
     7
370
    15
100
AcDbLine
 10
227.5826114697
 20
127.2682487486
 30
0.0
 11
229.4794688131
 21
129.4443152807
 31
0.0
  0
CIRCLE
  5
6F
330
1F
100
AcDbEntity
  8
0
  6
Continuous
 62
     7
370
    15
100
AcDbCircle
 10
230.4155690385
 20
166.713555368
 30
0.0
 40
4.171999999999989
  0
LINE
  5
70
330
1F
100
AcDbEntity
  8
0
  6
Continuous
 62
     7
370
    15
100
AcDbLine
 10
232.3124263819
 20
164.5374888358
 30
0.0
 11
229.4794688131
 21
163.9827954552
 31
0.0
  0
LINE
  5
71
330
1F
100
AcDbEntity
  8
0
  6
Continuous
 62
     7
370
    15
100
AcDbLine
 10
233.2485266073
 20
167.2682487486
 30
0.0
 11
231.351669264
 21
169.4443152807
 31
0.0
  0
LINE
  5
72
330
1F
100
AcDbEntity
  8
0
  6
Continuous
 62
     7
370
    15
100
AcDbLine
 10
232.3124263819
 20
164.5374888358
 30
0.0
 11
233.2485266073
 21
167.2682487486
 31
0.0
  0
LINE
  5
73
330
1F
100
AcDbEntity
  8
0
  6
Continuous
 62
     7
370
    15
100
AcDbLine
 10
228.5187116951
 20
168.8896219001
 30
0.0
 11
231.351669264
 21
169.4443152807
 31
0.0
  0
LINE
  5
74
330
1F
100
AcDbEntity
  8
0
  6
Continuous
 62
     7
370
    15
100
AcDbLine
 10
227.5826114697
 20
166.1588619873
 30
0.0
 11
228.5187116951
 21
168.8896219001
 31
0.0
  0
LINE
  5
75
330
1F
100
AcDbEntity
  8
0
  6
Continuous
 62
     7
370
    15
100
AcDbLine
 10
227.5826114697
 20
166.1588619873
 30
0.0
 11
229.4794688131
 21
163.9827954552
 31
0.0
  0
CIRCLE
  5
76
330
1F
100
AcDbEntity
  8
0
  6
Continuous
 62
     7
370
    15
100
AcDbCircle
 10
254.9155690385
 20
166.713555368
 30
0.0
 40
4.171999999999987
  0
LINE
  5
77
330
1F
100
AcDbEntity
  8
0
  6
Continuous
 62
     7
370
    15
100
AcDbLine
 10
257.6354150546
 20
165.7462028046
 30
0.0
 11
257.1132439409
 21
168.5853348306
 31
0.0
  0
LINE
  5
78
330
1F
100
AcDbEntity
  8
0
  6
Continuous
 62
     7
370
    15
100
AcDbLine
 10
252.7178941362
 20
164.8417759053
 30
0.0
 11
252.1957230224
 21
167.6809079313
 31
0.0
  0
LINE
  5
79
330
1F
100
AcDbEntity
  8
0
  6
Continuous
 62
     7
370
    15
100
AcDbLine
 10
257.1132439409
 20
168.5853348306
 30
0.0
 11
254.3933979247
 21
169.552687394
 31
0.0
  0
LINE
  5
7A
330
1F
100
AcDbEntity
  8
0
  6
Continuous
 62
     7
370
    15
100
AcDbLine
 10
257.6354150546
 20
165.7462028046
 30
0.0
 11
255.4377401523
 21
163.8744233419
 31
0.0
  0
LINE
  5
7B
330
1F
100
AcDbEntity
  8
0
  6
Continuous
 62
     7
370
    15
100
AcDbLine
 10
252.1957230224
 20
167.6809079313
 30
0.0
 11
254.3933979247
 21
169.552687394
 31
0.0
  0
LINE
  5
7C
330
1F
100
AcDbEntity
  8
0
  6
Continuous
 62
     7
370
    15
100
AcDbLine
 10
252.7178941362
 20
164.8417759053
 30
0.0
 11
255.4377401523
 21
163.8744233419
 31
0.0
  0
LINE
  5
7D
330
1F
100
AcDbEntity
  8
0
  6
Continuous
 62
     7
370
    15
100
AcDbLine
 10
208.7926448569
 20
166.4774027301
 30
0.0
 11
207.1495927642
 21
164.1038583017
 31
0.0
  0
LINE
  5
7E
330
1F
100
AcDbEntity
  8
0
  6
Continuous
 62
     7
370
    15
100
AcDbLine
 10
208.7926448569
 20
166.4774027301
 30
0.0
 11
207.5586211313
 21
169.0870997964
 31
0.0
  0
CIRCLE
  5
7F
330
1F
100
AcDbEntity
  8
0
  6
Continuous
 62
     7
370
    15
100
AcDbCircle
 10
205.9155690385
 20
166.713555368
 30
0.0
 40
4.172000000000008
  0
LINE
  5
80
330
1F
100
AcDbEntity
  8
0
  6
Continuous
 62
     7
370
    15
100
AcDbLine
 10
207.5586211313
 20
169.0870997964
 30
0.0
 11
204.6815453128
 21
169.3232524342
 31
0.0
  0
LINE
  5
81
330
1F
100
AcDbEntity
  8
0
  6
Continuous
 62
     7
370
    15
100
AcDbLine
 10
204.2725169458
 20
164.3400109395
 30
0.0
 11
207.1495927642
 21
164.1038583017
 31
0.0
  0
LINE
  5
82
330
1F
100
AcDbEntity
  8
0
  6
Continuous
 62
     7
370
    15
100
AcDbLine
 10
203.0384932201
 20
166.9497080058
 30
0.0
 11
204.6815453128
 21
169.3232524342
 31
0.0
  0
LINE
  5
83
330
1F
100
AcDbEntity
  8
0
  6
Continuous
 62
     7
370
    15
100
AcDbLine
 10
204.2725169458
 20
164.3400109395
 30
0.0
 11
203.0384932201
 21
166.9497080058
 31
0.0
  0
CIRCLE
  5
84
330
1F
100
AcDbEntity
  8
0
  6
Continuous
 62
     7
370
    15
100
AcDbCircle
 10
205.9155690385
 20
126.713555368
 30
0.0
 40
4.171999999999982
  0
LINE
  5
85
330
1F
100
AcDbEntity
  8
0
  6
Continuous
 62
     7
370
    15
100
AcDbLine
 10
204.2725169458
 20
129.0870997964
 30
0.0
 11
207.1495927642
 21
129.3232524342
 31
0.0
  0
LINE
  5
86
330
1F
100
AcDbEntity
  8
0
  6
Continuous
 62
     7
370
    15
100
AcDbLine
 10
203.0384932201
 20
126.4774027301
 30
0.0
 11
204.2725169458
 21
129.0870997964
 31
0.0
  0
LINE
  5
87
330
1F
100
AcDbEntity
  8
0
  6
Continuous
 62
     7
370
    15
100
AcDbLine
 10
203.0384932201
 20
126.4774027301
 30
0.0
 11
204.6815453128
 21
124.1038583017
 31
0.0
  0
LINE
  5
88
330
1F
100
AcDbEntity
  8
0
  6
Continuous
 62
     7
370
    15
100
AcDbLine
 10
207.5586211313
 20
124.3400109395
 30
0.0
 11
204.6815453128
 21
124.1038583017
 31
0.0
  0
LINE
  5
89
330
1F
100
AcDbEntity
  8
0
  6
Continuous
 62
     7
370
    15
100
AcDbLine
 10
207.5586211313
 20
124.3400109395
 30
0.0
 11
208.7926448569
 21
126.9497080058
 31
0.0
  0
LINE
  5
8A
330
1F
100
AcDbEntity
  8
0
  6
Continuous
 62
     7
370
    15
100
AcDbLine
 10
208.7926448569
 20
126.9497080058
 30
0.0
 11
207.1495927642
 21
129.3232524342
 31
0.0
  0
CIRCLE
  5
8B
330
1F
100
AcDbEntity
  8
0
  6
Continuous
 62
     7
370
    15
100
AcDbCircle
 10
254.9155690385
 20
126.713555368
 30
0.0
 40
5.5
  0
LINE
  5
8C
330
1F
100
AcDbEntity
  8
0
  6
Continuous
 62
     7
370
    15
100
AcDbLine
 10
190.4155690385
 20
117.713555368
 30
0.0
 11
266.4155690385
 21
117.713555368
 31
0.0
  0
LINE
  5
8D
330
1F
100
AcDbEntity
  8
0
  6
Continuous
 62
     7
370
    15
100
AcDbLine
 10
190.4155690385
 20
146.713555368
 30
0.0
 11
190.4155690385
 21
117.713555368
 31
0.0
  0
LINE
  5
8E
330
1F
100
AcDbEntity
  8
0
  6
Continuous
 62
     7
370
    15
100
AcDbLine
 10
190.4155690385
 20
175.713555368
 30
0.0
 11
190.4155690385
 21
146.713555368
 31
0.0
  0
LINE
  5
8F
330
1F
100
AcDbEntity
  8
0
  6
Continuous
 62
     7
370
    15
100
AcDbLine
 10
266.4155690385
 20
175.713555368
 30
0.0
 11
190.4155690385
 21
175.713555368
 31
0.0
  0
LINE
  5
90
330
1F
100
AcDbEntity
  8
0
  6
Continuous
 62
     7
370
    15
100
AcDbLine
 10
266.4155690385
 20
117.713555368
 30
0.0
 11
266.4155690385
 21
175.713555368
 31
0.0
  0
CIRCLE
  5
91
330
1F
100
AcDbEntity
  8
0
  6
Continuous
 62
     7
370
    15
100
AcDbCircle
 10
205.9155690385
 20
166.713555368
 30
0.0
 40
5.5
  0
CIRCLE
  5
92
330
1F
100
AcDbEntity
  8
0
  6
Continuous
 62
     7
370
    15
100
AcDbCircle
 10
230.4155690385
 20
166.713555368
 30
0.0
 40
5.5
  0
CIRCLE
  5
93
330
1F
100
AcDbEntity
  8
0
  6
Continuous
 62
     7
370
    15
100
AcDbCircle
 10
254.9155690385
 20
166.713555368
 30
0.0
 40
5.5
  0
CIRCLE
  5
94
330
1F
100
AcDbEntity
  8
0
  6
Continuous
 62
     7
370
    15
100
AcDbCircle
 10
205.9155690385
 20
126.713555368
 30
0.0
 40
5.5
  0
CIRCLE
  5
95
330
1F
100
AcDbEntity
  8
0
  6
Continuous
 62
     7
370
    15
100
AcDbCircle
 10
230.4155690385
 20
126.713555368
 30
0.0
 40
5.5
  0
LINE
  5
96
330
1F
100
AcDbEntity
  8
0
  6
Continuous
 62
     7
370
    15
100
AcDbLine
 10
266.4155690385
 20
117.713555368
 30
0.0
 11
266.4155690385
 21
116.713555368
 31
0.0
  0
LINE
  5
97
330
1F
100
AcDbEntity
  8
0
  6
Continuous
 62
     7
370
    15
100
AcDbLine
 10
266.4155690385
 20
116.713555368
 30
0.0
 11
190.4168831001
 21
116.713555368
 31
0.0
  0
SPLINE
  5
98
330
1F
100
AcDbEntity
  8
0
  6
Continuous
 62
     7
370
    15
100
AcDbSpline
210
0.0
220
0.0
230
1.0
 70
     8
 71
     3
 72
     8
 73
     4
 74
     0
 42
0.00000001
 43
0.00000001
 12
1.0
 22
0.0
 32
0.0
 13
1.0
 23
0.0
 33
0.0
 40
0.0
 40
0.0
 40
0.0
 40
0.0
 40
0.000620059350925
 40
0.000620059350925
 40
0.000620059350925
 40
0.000620059350925
 10
190.4168831000952
 20
116.7135553679542
 30
0.0
 10
190.4159228627178
 20
116.8597031812892
 30
0.0
 10
190.4155690385139
 20
117.0058531645529
 30
0.0
 10
190.4155690385139
 20
117.1520025551453
 30
0.0
  0
LINE
  5
99
330
1F
100
AcDbEntity
  8
0
  6
Continuous
 62
     7
370
    15
100
AcDbLine
 10
190.4155690385
 20
117.1520025551
 30
0.0
 11
190.4155690385
 21
117.713555368
 31
0.0
  0
SPLINE
  5
9A
330
1F
100
AcDbEntity
  8
0
  6
Continuous
 62
     7
370
    15
100
AcDbSpline
210
0.0
220
0.0
230
1.0
 70
     8
 71
     3
 72
     8
 73
     4
 74
     0
 42
0.00000001
 43
0.00000001
 12
1.0
 22
0.0
 32
0.0
 13
1.0
 23
0.0
 33
0.0
 40
0.0
 40
0.0
 40
0.0
 40
0.0
 40
0.0006200593509252
 40
0.0006200593509252
 40
0.0006200593509252
 40
0.0006200593509252
 10
190.4155690385139
 20
176.2751081807629
 30
0.0
 10
190.4155690385139
 20
176.4212575713553
 30
0.0
 10
190.4159228627178
 20
176.5674075546191
 30
0.0
 10
190.4168831000952
 20
176.7135553679542
 30
0.0
  0
LINE
  5
9B
330
1F
100
AcDbEntity
  8
0
  6
Continuous
 62
     7
370
    15
100
AcDbLine
 10
190.4168831001
 20
176.713555368
 30
0.0
 11
266.4155690385
 21
176.713555368
 31
0.0
  0
LINE
  5
9C
330
1F
100
AcDbEntity
  8
0
  6
Continuous
 62
     7
370
    15
100
AcDbLine
 10
266.4155690385
 20
176.713555368
 30
0.0
 11
266.4155690385
 21
175.713555368
 31
0.0
  0
LINE
  5
9D
330
1F
100
AcDbEntity
  8
0
  6
Continuous
 62
     7
370
    15
100
AcDbLine
 10
190.4155690385
 20
175.713555368
 30
0.0
 11
190.4155690385
 21
176.2751081808
 31
0.0
  0
LINE
  5
9E
330
1F
100
AcDbEntity
  8
0
  6
Continuous
 62
     7
370
    15
100
AcDbLine
 10
266.4155690385
 20
176.713555368
 30
0.0
 11
267.4155690385
 21
175.713555368
 31
0.0
  0
LINE
  5
9F
330
1F
100
AcDbEntity
  8
0
  6
Continuous
 62
     7
370
    15
100
AcDbLine
 10
266.4155690385
 20
175.713555368
 30
0.0
 11
267.4155690385
 21
175.713555368
 31
0.0
  0
LINE
  5
A0
330
1F
100
AcDbEntity
  8
0
  6
Continuous
 62
     7
370
    15
100
AcDbLine
 10
266.4155690385
 20
117.713555368
 30
0.0
 11
267.4155690385
 21
117.713555368
 31
0.0
  0
LINE
  5
A1
330
1F
100
AcDbEntity
  8
0
  6
Continuous
 62
     7
370
    15
100
AcDbLine
 10
266.4155690385
 20
116.713555368
 30
0.0
 11
267.4155690385
 21
117.713555368
 31
0.0
  0
LINE
  5
A2
330
1F
100
AcDbEntity
  8
0
  6
Continuous
 62
     7
370
    15
100
AcDbLine
 10
267.4155690385
 20
175.713555368
 30
0.0
 11
267.4155690385
 21
117.713555368
 31
0.0
  0
SPLINE
  5
A3
330
1F
100
AcDbEntity
  8
0
  6
Continuous
 62
     7
370
    15
100
AcDbSpline
210
0.0
220
0.0
230
1.0
 70
    24
 71
     3
 72
    10
 73
     6
 74
     0
 42
0.00000001
 43
0.00000001
 12
1.0
 22
0.0
 32
0.0
 13
1.0
 23
0.0
 33
0.0
 40
0.0
 40
0.0
 40
0.0
 40
0.0
 40
0.5
 40
0.5
 40
1.0
 40
1.0
 40
1.0
 40
1.0
 10
190.4155690385139
 20
176.7135553679542
 30
0.0
 10
190.4155690385139
 20
176.7135553679542
 30
0.0
 10
190.4156786945153
 20
176.7135553679542
 30
0.0
 10
190.4161170143786
 20
176.7135553679542
 30
0.0
 10
190.4164455434719
 20
176.7135553679542
 30
0.0
 10
190.4168831000952
 20
176.7135553679542
 30
0.0
  0
LINE
  5
A4
330
1F
100
AcDbEntity
  8
0
  6
Continuous
 62
     7
370
    15
100
AcDbLine
 10
190.4155690385
 20
176.2751081808
 30
0.0
 11
190.4155690385
 21
176.713555368
 31
0.0
  0
LINE
  5
A5
330
1F
100
AcDbEntity
  8
0
  6
Continuous
 62
     7
370
    15
100
AcDbLine
 10
190.4155690385
 20
116.713555368
 30
0.0
 11
190.4155690385
 21
117.1520025551
 31
0.0
  0
SPLINE
  5
A6
330
1F
100
AcDbEntity
  8
0
  6
Continuous
 62
     7
370
    15
100
AcDbSpline
210
0.0
220
0.0
230
1.0
 70
     8
 71
     3
 72
    12
 73
     8
 74
     0
 42
0.00000001
 43
0.00000001
 12
1.0
 22
0.0
 32
0.0
 13
1.0
 23
0.0
 33
0.0
 40
0.0
 40
0.0
 40
0.0
 40
0.0
 40
0.2499999999999998
 40
0.2499999999999998
 40
0.4999999999999996
 40
0.4999999999999996
 40
1.0
 40
1.0
 40
1.0
 40
1.0
 10
177.9433258520803
 20
154.2823653371346
 30
0.0
 10
177.8796606155498
 20
154.2823653371346
 30
0.0
 10
177.8200543833264
 20
154.3084374856143
 30
0.0
 10
177.7213938583956
 20
154.3839762364354
 30
0.0
 10
177.6824268683803
 20
154.4312271735316
 30
0.0
 10
177.5830400364559
 20
154.5830509914981
 30
0.0
 10
177.5409637890324
 20
154.6958542412631
 30
0.0
 10
177.5103131501881
 20
154.8100083659982
 30
0.0
  0
LINE
  5
A7
330
1F
100
AcDbEntity
  8
0
  6
Continuous
 62
     7
370
    15
100
AcDbLine
 10
180.8878122249
 20
154.2823653371
 30
0.0
 11
177.9433258521
 21
154.2823653371
 31
0.0
  0
SPLINE
  5
A8
330
1F
100
AcDbEntity
  8
0
  6
Continuous
 62
     7
370
    15
100
AcDbSpline
210
0.0
220
0.0
230
1.0
 70
     8
 71
     3
 72
    12
 73
     8
 74
     0
 42
0.00000001
 43
0.00000001
 12
1.0
 22
0.0
 32
0.0
 13
1.0
 23
0.0
 33
0.0
 40
0.0
 40
0.0
 40
0.0
 40
0.0
 40
0.4999999999999987
 40
0.4999999999999987
 40
0.7499999999999993
 40
0.7499999999999993
 40
1.0
 40
1.0
 40
1.0
 40
1.0
 10
181.3208249268397
 20
154.8100083659982
 30
0.0
 10
181.2901255434724
 20
154.6956726989344
 30
0.0
 10
181.2487754753658
 20
154.584319346093
 30
0.0
 10
181.1490195471464
 20
154.4315825738443
 30
0.0
 10
181.1093226294137
 20
154.3837226879921
 30
0.0
 10
181.012064477766
 20
154.3091195746427
 30
0.0
 10
180.9512883197754
 20
154.2823653371346
 30
0.0
 10
180.8878122249474
 20
154.2823653371346
 30
0.0
  0
ELLIPSE
  5
A9
330
1F
100
AcDbEntity
  8
0
  6
Continuous
 62
     7
370
    15
100
AcDbEllipse
 10
168.3593113835
 20
146.713555368
 30
0.0
 11
11.70927234972708
 21
24.67718644093742
 31
0.0
210
0.0
220
0.0
230
1.0
 40
0.3419987131
 41
5.203068809370451
 42
6.114256032590492
  0
SPLINE
  5
AA
330
1F
100
AcDbEntity
  8
0
  6
Continuous
 62
     7
370
    15
100
AcDbSpline
210
0.0
220
0.0
230
1.0
 70
     8
 71
     3
 72
    12
 73
     8
 74
     0
 42
0.00000001
 43
0.00000001
 12
1.0
 22
0.0
 32
0.0
 13
1.0
 23
0.0
 33
0.0
 40
0.0
 40
0.0
 40
0.0
 40
0.0
 40
0.2499999999999991
 40
0.2499999999999991
 40
0.4999999999999982
 40
0.4999999999999982
 40
1.0
 40
1.0
 40
1.0
 40
1.0
 10
180.8878122249474
 20
170.540286483456
 30
0.0
 10
180.9514774614779
 20
170.540286483456
 30
0.0
 10
181.0110836937013
 20
170.5320217077902
 30
0.0
 10
181.1097442186321
 20
170.507802926207
 30
0.0
 10
181.1487112086474
 20
170.4925456068979
 30
0.0
 10
181.2480980405718
 20
170.442912252636
 30
0.0
 10
181.2901742879953
 20
170.4052725444618
 30
0.0
 10
181.3208249268397
 20
170.3661968451857
 30
0.0
  0
LINE
  5
AB
330
1F
100
AcDbEntity
  8
0
  6
Continuous
 62
     7
370
    15
100
AcDbLine
 10
177.9433258521
 20
170.5402864835
 30
0.0
 11
180.8878122249
 21
170.5402864835
 31
0.0
  0
SPLINE
  5
AC
330
1F
100
AcDbEntity
  8
0
  6
Continuous
 62
     7
370
    15
100
AcDbSpline
210
0.0
220
0.0
230
1.0
 70
     8
 71
     3
 72
    12
 73
     8
 74
     0
 42
0.00000001
 43
0.00000001
 12
1.0
 22
0.0
 32
0.0
 13
1.0
 23
0.0
 33
0.0
 40
0.0
 40
0.0
 40
0.0
 40
0.0
 40
0.4999999999999968
 40
0.4999999999999968
 40
0.7499999999999983
 40
0.7499999999999983
 40
1.0
 40
1.0
 40
1.0
 40
1.0
 10
177.5103131501881
 20
170.3661968451857
 30
0.0
 10
177.5410125335554
 20
170.4053346875816
 30
0.0
 10
177.5823626016619
 20
170.4424944703071
 30
0.0
 10
177.6821185298813
 20
170.4924309759348
 30
0.0
 10
177.7218154476141
 20
170.5078838460786
 30
0.0
 10
177.8190735992617
 20
170.5318033896777
 30
0.0
 10
177.8798497572524
 20
170.540286483456
 30
0.0
 10
177.9433258520803
 20
170.540286483456
 30
0.0
  0
ELLIPSE
  5
AD
330
1F
100
AcDbEntity
  8
0
  6
Continuous
 62
     7
370
    15
100
AcDbEllipse
 10
190.4718266935
 20
146.713555368
 30
0.0
 11
-11.70927234972695
 21
24.67718644093742
 31
0.0
210
0.0
220
0.0
230
1.0
 40
0.3419987131
 41
0.1689292745891359
 42
1.080116497809151
  0
SPLINE
  5
AE
330
1F
100
AcDbEntity
  8
0
  6
Continuous
 62
     7
370
    15
100
AcDbSpline
210
0.0
220
0.0
230
1.0
 70
     8
 71
     3
 72
    12
 73
     8
 74
     0
 42
0.00000001
 43
0.00000001
 12
1.0
 22
0.0
 32
0.0
 13
1.0
 23
0.0
 33
0.0
 40
0.0
 40
0.0
 40
0.0
 40
0.0
 40
0.25
 40
0.25
 40
0.5
 40
0.5
 40
1.0
 40
1.0
 40
1.0
 40
1.0
 10
177.9433258520803
 20
122.8868242524522
 30
0.0
 10
177.8796892978666
 20
122.8868242524522
 30
0.0
 10
177.8201091710004
 20
122.8950810233839
 30
0.0
 10
177.721472429634
 20
122.9192830853918
 30
0.0
 10
177.6825138052537
 20
122.9345299044259
 30
0.0
 10
177.5831348657458
 20
122.984134776486
 30
0.0
 10
177.5411769605804
 20
123.0215664246048
 30
0.0
 10
177.5103131501879
 20
123.0609138907225
 30
0.0
  0
LINE
  5
AF
330
1F
100
AcDbEntity
  8
0
  6
Continuous
 62
     7
370
    15
100
AcDbLine
 10
180.8878122249
 20
122.8868242525
 30
0.0
 11
177.9433258521
 21
122.8868242525
 31
0.0
  0
SPLINE
  5
B0
330
1F
100
AcDbEntity
  8
0
  6
Continuous
 62
     7
370
    15
100
AcDbSpline
210
0.0
220
0.0
230
1.0
 70
     8
 71
     3
 72
    12
 73
     8
 74
     0
 42
0.00000001
 43
0.00000001
 12
1.0
 22
0.0
 32
0.0
 13
1.0
 23
0.0
 33
0.0
 40
0.0
 40
0.0
 40
0.0
 40
0.0
 40
0.5000000000000018
 40
0.5000000000000018
 40
0.7500000000000009
 40
0.7500000000000009
 40
1.0
 40
1.0
 40
1.0
 40
1.0
 10
181.3208249268397
 20
123.0609138907225
 30
0.0
 10
181.2899732162754
 20
123.02158185036
 30
0.0
 10
181.2480803528148
 20
122.9841700848318
 30
0.0
 10
181.1485594750216
 20
122.9344991602159
 30
0.0
 10
181.1089453102973
 20
122.919110077608
 30
0.0
 10
181.0118422765179
 20
122.8952768619408
 30
0.0
 10
180.9513436038674
 20
122.886824252452
 30
0.0
 10
180.8878122249475
 20
122.886824252452
 30
0.0
  0
ELLIPSE
  5
B1
330
1F
100
AcDbEntity
  8
0
  6
Continuous
 62
     7
370
    15
100
AcDbEllipse
 10
168.3593113835
 20
146.713555368
 30
0.0
 11
-11.7092723497272
 21
24.67718644093742
 31
0.0
210
0.0
220
0.0
230
1.0
 40
0.3419987131
 41
3.310521928178953
 42
4.22170915139894
  0
SPLINE
  5
B2
330
1F
100
AcDbEntity
  8
0
  6
Continuous
 62
     7
370
    15
100
AcDbSpline
210
0.0
220
0.0
230
1.0
 70
     8
 71
     3
 72
    12
 73
     8
 74
     0
 42
0.00000001
 43
0.00000001
 12
1.0
 22
0.0
 32
0.0
 13
1.0
 23
0.0
 33
0.0
 40
0.0
 40
0.0
 40
0.0
 40
0.0
 40
0.2499999999999984
 40
0.2499999999999984
 40
0.4999999999999968
 40
0.4999999999999968
 40
1.0
 40
1.0
 40
1.0
 40
1.0
 10
180.8878122249474
 20
139.1447453987734
 30
0.0
 10
180.9514487791611
 20
139.1447453987734
 30
0.0
 10
181.0110289060273
 20
139.1186984957154
 30
0.0
 10
181.1096656473937
 20
139.0432113368155
 30
0.0
 10
181.148624271774
 20
138.9959922982848
 30
0.0
 10
181.2480032112819
 20
138.8442526471912
 30
0.0
 10
181.2899611164474
 20
138.7320504230071
 30
0.0
 10
181.3208249268398
 20
138.6171023699098
 30
0.0
  0
LINE
  5
B3
330
1F
100
AcDbEntity
  8
0
  6
Continuous
 62
     7
370
    15
100
AcDbLine
 10
177.9433258521
 20
139.1447453988
 30
0.0
 11
180.8878122249
 21
139.1447453988
 31
0.0
  0
SPLINE
  5
B4
330
1F
100
AcDbEntity
  8
0
  6
Continuous
 62
     7
370
    15
100
AcDbSpline
210
0.0
220
0.0
230
1.0
 70
     8
 71
     3
 72
    12
 73
     8
 74
     0
 42
0.00000001
 43
0.00000001
 12
1.0
 22
0.0
 32
0.0
 13
1.0
 23
0.0
 33
0.0
 40
0.0
 40
0.0
 40
0.0
 40
0.0
 40
0.5000000000000022
 40
0.5000000000000022
 40
0.7500000000000011
 40
0.7500000000000011
 40
1.0
 40
1.0
 40
1.0
 40
1.0
 10
177.5103131501881
 20
138.6171023699098
 30
0.0
 10
177.5411648607523
 20
138.7320053588466
 30
0.0
 10
177.5830577242129
 20
138.8441442548955
 30
0.0
 10
177.6825786020061
 20
138.9960865364963
 30
0.0
 10
177.7221927667304
 20
139.0437511460212
 30
0.0
 10
177.8192958005099
 20
139.1180874766366
 30
0.0
 10
177.8797944731603
 20
139.1447453987738
 30
0.0
 10
177.9433258520802
 20
139.1447453987738
 30
0.0
  0
ELLIPSE
  5
B5
330
1F
100
AcDbEntity
  8
0
  6
Continuous
 62
     7
370
    15
100
AcDbEllipse
 10
190.4718266935
 20
146.713555368
 30
0.0
 11
11.70927234972709
 21
24.67718644093745
 31
0.0
210
0.0
220
0.0
230
1.0
 40
0.3419987131
 41
2.061476155780657
 42
2.972663379000673
  0
LINE
  5
B6
330
1F
100
AcDbEntity
  8
0
  6
Continuous
 62
     7
370
    15
100
AcDbLine
 10
169.4155690385
 20
122.013555368
 30
0.0
 11
169.4155690385
 21
171.4135553555
 31
0.0
  0
SPLINE
  5
B7
330
1F
100
AcDbEntity
  8
0
  6
Continuous
 62
     7
370
    15
100
AcDbSpline
210
0.0
220
0.0
230
1.0
 70
     8
 71
     3
 72
    16
 73
    12
 74
     0
 42
0.00000001
 43
0.00000001
 12
1.0
 22
0.0
 32
0.0
 13
1.0
 23
0.0
 33
0.0
 40
0.0
 40
0.0
 40
0.0
 40
0.0
 40
0.2500000000000004
 40
0.2500000000000004
 40
0.5000000000000009
 40
0.5000000000000009
 40
0.6250000000000007
 40
0.6250000000000007
 40
0.7500000000000004
 40
0.7500000000000004
 40
1.0
 40
1.0
 40
1.0
 40
1.0
 10
168.3747080103848
 20
129.3643980867616
 30
0.0
 10
168.4064359715775
 20
129.3636009699406
 30
0.0
 10
168.441063561928
 20
129.3630098950854
 30
0.0
 10
168.5207573239917
 20
129.3619983696509
 30
0.0
 10
168.5657987839953
 20
129.361598261476
 30
0.0
 10
168.6486515108458
 20
129.3606403895722
 30
0.0
 10
168.6785659720456
 20
129.3602587083118
 30
0.0
 10
168.7445523026036
 20
129.3591824942532
 30
0.0
 10
168.7812859280654
 20
129.3584649283591
 30
0.0
 10
168.8937826476352
 20
129.3557040506774
 30
0.0
 10
168.9641239957335
 20
129.3532169588059
 30
0.0
 10
169.0205921496386
 20
129.3510436803987
 30
0.0
  0
SPLINE
  5
B8
330
1F
100
AcDbEntity
  8
0
  6
Continuous
 62
     7
370
    15
100
AcDbSpline
210
0.0
220
0.0
230
1.0
 70
     8
 71
     3
 72
    14
 73
    10
 74
     0
 42
0.00000001
 43
0.00000001
 12
1.0
 22
0.0
 32
0.0
 13
1.0
 23
0.0
 33
0.0
 40
0.0
 40
0.0
 40
0.0
 40
0.0
 40
0.1250000000000008
 40
0.1250000000000008
 40
0.2500000000000016
 40
0.2500000000000016
 40
0.5000000000000048
 40
0.5000000000000048
 40
1.0
 40
1.0
 40
1.0
 40
1.0
 10
169.020592149607
 20
129.3510436804215
 30
0.0
 10
169.0331839435518
 20
129.3505590625991
 30
0.0
 10
169.0480550518458
 20
129.3488488846668
 30
0.0
 10
169.080239143279
 20
129.3407333359159
 30
0.0
 10
169.0958432747548
 20
129.3345175476546
 30
0.0
 10
169.1317304144669
 20
129.3162984359531
 30
0.0
 10
169.1455824557356
 20
129.3045334076194
 30
0.0
 10
169.1790721976682
 20
129.2727382712021
 30
0.0
 10
169.1897344582439
 20
129.254944839359
 30
0.0
 10
169.1978724151389
 20
129.2385137085146
 30
0.0
  0
LINE
  5
B9
330
1F
100
AcDbEntity
  8
0
  6
Continuous
 62
     7
370
    15
100
AcDbLine
 10
169.2155690385
 20
140.7290751354
 30
0.0
 11
169.2155690385
 21
128.8737350891
 31
0.0
  0
SPLINE
  5
BA
330
1F
100
AcDbEntity
  8
0
  6
Continuous
 62
     7
370
    15
100
AcDbSpline
210
0.0
220
0.0
230
1.0
 70
     8
 71
     3
 72
    16
 73
    12
 74
     0
 42
0.00000001
 43
0.00000001
 12
1.0
 22
0.0
 32
0.0
 13
1.0
 23
0.0
 33
0.0
 40
0.0
 40
0.0
 40
0.0
 40
0.0
 40
0.5
 40
0.5
 40
0.7500000000000001
 40
0.7500000000000001
 40
0.8749999999999996
 40
0.8749999999999996
 40
0.9374999999999998
 40
0.9374999999999998
 40
1.0
 40
1.0
 40
1.0
 40
1.0
 10
169.2155690385139
 20
140.7290751353795
 30
0.0
 10
169.2155690385139
 20
140.8436048660785
 30
0.0
 10
169.2115117363988
 20
140.958920941268
 30
0.0
 10
169.185854493604
 20
141.1338440310955
 30
0.0
 10
169.1745390478619
 20
141.1936733340905
 30
0.0
 10
169.1405076805532
 20
141.2782645203386
 30
0.0
 10
169.1266286993495
 20
141.3069341064827
 30
0.0
 10
169.0906930175821
 20
141.336741893429
 30
0.0
 10
169.0757426983193
 20
141.3430770467886
 30
0.0
 10
169.0458441855775
 20
141.3418515839184
 30
0.0
 10
169.0323113252122
 20
141.3352529978835
 30
0.0
 10
169.0205921496382
 20
141.3266053098271
 30
0.0
  0
SPLINE
  5
BB
330
1F
100
AcDbEntity
  8
0
  6
Continuous
 62
     7
370
    15
100
AcDbSpline
210
0.0
220
0.0
230
1.0
 70
     8
 71
     3
 72
    14
 73
    10
 74
     0
 42
0.00000001
 43
0.00000001
 12
1.0
 22
0.0
 32
0.0
 13
1.0
 23
0.0
 33
0.0
 40
0.0
 40
0.0
 40
0.0
 40
0.0
 40
0.25
 40
0.25
 40
0.5
 40
0.5
 40
0.75
 40
0.75
 40
1.0
 40
1.0
 40
1.0
 40
1.0
 10
169.020592149645
 20
141.3266053098185
 30
0.0
 10
168.9641324837613
 20
141.2849432001197
 30
0.0
 10
168.8932600088991
 20
141.2541097195315
 30
0.0
 10
168.7447936510171
 20
141.2598242281447
 30
0.0
 10
168.6755984478094
 20
141.2953951555776
 30
0.0
 10
168.5658812617398
 20
141.3823390680514
 30
0.0
 10
168.5206353728078
 20
141.4347713814166
 30
0.0
 10
168.441018241841
 20
141.5433244629351
 30
0.0
 10
168.4064156223841
 20
141.6003075491776
 30
0.0
 10
168.3747080103853
 20
141.6588736318355
 30
0.0
  0
SPLINE
  5
BC
330
1F
100
AcDbEntity
  8
0
  6
Continuous
 62
     7
370
    15
100
AcDbSpline
210
0.0
220
0.0
230
1.0
 70
     8
 71
     3
 72
    10
 73
     6
 74
     0
 42
0.00000001
 43
0.00000001
 12
1.0
 22
0.0
 32
0.0
 13
1.0
 23
0.0
 33
0.0
 40
0.0
 40
0.0
 40
0.0
 40
0.0
 40
0.5
 40
0.5
 40
1.0
 40
1.0
 40
1.0
 40
1.0
 10
168.0942486949543
 20
142.5116922234817
 30
0.0
 10
168.1251272785662
 20
142.3620636716221
 30
0.0
 10
168.1611199862895
 20
142.2155682540985
 30
0.0
 10
168.2504602377867
 20
141.9303766155577
 30
0.0
 10
168.3029185406322
 20
141.7914735898418
 30
0.0
 10
168.3747080103853
 20
141.6588736318353
 30
0.0
  0
SPLINE
  5
BD
330
1F
100
AcDbEntity
  8
0
  6
Continuous
 62
     7
370
    15
100
AcDbSpline
210
0.0
220
0.0
230
1.0
 70
     8
 71
     3
 72
    10
 73
     6
 74
     0
 42
0.00000001
 43
0.00000001
 12
1.0
 22
0.0
 32
0.0
 13
1.0
 23
0.0
 33
0.0
 40
0.0
 40
0.0
 40
0.0
 40
0.0
 40
0.5
 40
0.5
 40
1.0
 40
1.0
 40
1.0
 40
1.0
 10
168.3747080103846
 20
151.7682371040717
 30
0.0
 10
168.3029185406318
 20
151.6356371460654
 30
0.0
 10
168.2504602377863
 20
151.4967341203497
 30
0.0
 10
168.1611199862894
 20
151.2115424818094
 30
0.0
 10
168.1251272785662
 20
151.065047064286
 30
0.0
 10
168.0942486949543
 20
150.9154185124266
 30
0.0
  0
SPLINE
  5
BE
330
1F
100
AcDbEntity
  8
0
  6
Continuous
 62
     7
370
    15
100
AcDbSpline
210
0.0
220
0.0
230
1.0
 70
     8
 71
     3
 72
    14
 73
    10
 74
     0
 42
0.00000001
 43
0.00000001
 12
1.0
 22
0.0
 32
0.0
 13
1.0
 23
0.0
 33
0.0
 40
0.0
 40
0.0
 40
0.0
 40
0.0
 40
0.25
 40
0.25
 40
0.5
 40
0.5
 40
0.75
 40
0.75
 40
1.0
 40
1.0
 40
1.0
 40
1.0
 10
168.374708010384
 20
151.7682371040706
 30
0.0
 10
168.4064167098693
 20
151.8268051953891
 30
0.0
 10
168.44102452851
 20
151.8837994573291
 30
0.0
 10
168.5206829389993
 20
151.9923995920931
 30
0.0
 10
168.5657452088942
 20
152.0447277274717
 30
0.0
 10
168.6763270544726
 20
152.132228738834
 30
0.0
 10
168.7439711752879
 20
152.1672741950882
 30
0.0
 10
168.894219465685
 20
152.1730185838443
 30
0.0
 10
168.9641718639153
 20
152.1421384767943
 30
0.0
 10
169.0205921496388
 20
152.1005054260812
 30
0.0
  0
SPLINE
  5
BF
330
1F
100
AcDbEntity
  8
0
  6
Continuous
 62
     7
370
    15
100
AcDbSpline
210
0.0
220
0.0
230
1.0
 70
     8
 71
     3
 72
    16
 73
    12
 74
     0
 42
0.00000001
 43
0.00000001
 12
1.0
 22
0.0
 32
0.0
 13
1.0
 23
0.0
 33
0.0
 40
0.0
 40
0.0
 40
0.0
 40
0.0
 40
0.0625000000000004
 40
0.0625000000000004
 40
0.1250000000000009
 40
0.1250000000000009
 40
0.2500000000000017
 40
0.2500000000000017
 40
0.5000000000000034
 40
0.5000000000000034
 40
1.0
 40
1.0
 40
1.0
 40
1.0
 10
169.020592149607
 20
152.1005054260278
 30
0.0
 10
169.0323263840539
 20
152.0918466258835
 30
0.0
 10
169.0458581395328
 20
152.0852425406483
 30
0.0
 10
169.0758455999627
 20
152.0840455734741
 30
0.0
 10
169.0908403063709
 20
152.09046732054
 30
0.0
 10
169.1265807287657
 20
152.1201844739493
 30
0.0
 10
169.1405940657669
 20
152.1489918713327
 30
0.0
 10
169.1747381545483
 20
152.2340715929586
 30
0.0
 10
169.1857100586666
 20
152.2924465422283
 30
0.0
 10
169.211555598933
 20
152.4681620670169
 30
0.0
 10
169.2155690385139
 20
152.5839570748814
 30
0.0
 10
169.2155690385139
 20
152.6980356005288
 30
0.0
  0
LINE
  5
C0
330
1F
100
AcDbEntity
  8
0
  6
Continuous
 62
     7
370
    15
100
AcDbLine
 10
169.2155690385
 20
164.5533756468
 30
0.0
 11
169.2155690385
 21
152.6980356005
 31
0.0
  0
SPLINE
  5
C1
330
1F
100
AcDbEntity
  8
0
  6
Continuous
 62
     7
370
    15
100
AcDbSpline
210
0.0
220
0.0
230
1.0
 70
     8
 71
     3
 72
    16
 73
    12
 74
     0
 42
0.00000001
 43
0.00000001
 12
1.0
 22
0.0
 32
0.0
 13
1.0
 23
0.0
 33
0.0
 40
0.0
 40
0.0
 40
0.0
 40
0.0
 40
0.5000000000000032
 40
0.5000000000000032
 40
0.7500000000000038
 40
0.7500000000000038
 40
0.8750000000000041
 40
0.8750000000000041
 40
0.937500000000002
 40
0.937500000000002
 40
1.0
 40
1.0
 40
1.0
 40
1.0
 10
169.215569038514
 20
164.2603098336218
 30
0.0
 10
169.2155690385137
 20
164.2382948190424
 30
0.0
 10
169.2114444956598
 20
164.2129411843387
 30
0.0
 10
169.1855280500266
 20
164.1657806821501
 30
0.0
 10
169.1742504690069
 20
164.1485816939214
 30
0.0
 10
169.1405150904655
 20
164.1186037283521
 30
0.0
 10
169.1261262752211
 20
164.1072523198102
 30
0.0
 10
169.090879585782
 20
164.0905644603328
 30
0.0
 10
169.0756741613251
 20
164.0850014334476
 30
0.0
 10
169.0460275821557
 20
164.0780318504124
 30
0.0
 10
169.0323222461583
 20
164.076518509357
 30
0.0
 10
169.0205921496346
 20
164.0760670555071
 30
0.0
  0
SPLINE
  5
C2
330
1F
100
AcDbEntity
  8
0
  6
Continuous
 62
     7
370
    15
100
AcDbSpline
210
0.0
220
0.0
230
1.0
 70
     8
 71
     3
 72
    14
 73
    10
 74
     0
 42
0.00000001
 43
0.00000001
 12
1.0
 22
0.0
 32
0.0
 13
1.0
 23
0.0
 33
0.0
 40
0.0
 40
0.0
 40
0.0
 40
0.0
 40
0.25
 40
0.25
 40
0.5
 40
0.5
 40
0.75
 40
0.75
 40
1.0
 40
1.0
 40
1.0
 40
1.0
 10
169.020592149645
 20
164.0760670555097
 30
0.0
 10
168.9641450675868
 20
164.0738945880904
 30
0.0
 10
168.893294683544
 20
164.071396490173
 30
0.0
 10
168.7448582487275
 20
164.0677500313848
 30
0.0
 10
168.6756689970406
 20
164.0667822845335
 30
0.0
 10
168.5659574487997
 20
164.0655147251708
 30
0.0
 10
168.5207157994574
 20
164.0651118842425
 30
0.0
 10
168.4410677812735
 20
164.0641008493148
 30
0.0
 10
168.4064408655074
 20
164.0635098889202
 30
0.0
 10
168.3747080103861
 20
164.0627126491468
 30
0.0
  0
SPLINE
  5
C3
330
1F
100
AcDbEntity
  8
0
  6
Continuous
 62
     7
370
    15
100
AcDbSpline
210
0.0
220
0.0
230
1.0
 70
     8
 71
     3
 72
    18
 73
    14
 74
     0
 42
0.00000001
 43
0.00000001
 12
1.0
 22
0.0
 32
0.0
 13
1.0
 23
0.0
 33
0.0
 40
0.0
 40
0.0
 40
0.0
 40
0.0
 40
0.2499999999999999
 40
0.2499999999999999
 40
0.3749999999999999
 40
0.3749999999999999
 40
0.5
 40
0.5
 40
0.6249999999999999
 40
0.6249999999999999
 40
0.7499999999999999
 40
0.7499999999999999
 40
1.0
 40
1.0
 40
1.0
 40
1.0
 10
168.0942486949542
 20
150.9154185124266
 30
0.0
 10
167.9589630886519
 20
150.2598641770054
 30
0.0
 10
167.8577953424089
 20
149.5802430832078
 30
0.0
 10
167.75493399954
 20
148.5248790767137
 30
0.0
 10
167.7288311540167
 20
148.1660650121291
 30
0.0
 10
167.6939411704719
 20
147.4399520680062
 30
0.0
 10
167.6853549121819
 20
147.07786238899
 30
0.0
 10
167.6852552026162
 20
146.3555527315716
 30
0.0
 10
167.6937435737648
 20
145.9953329294633
 30
0.0
 10
167.7278869532854
 20
145.2767668603693
 30
0.0
 10
167.7536839351392
 20
144.9170011444539
 30
0.0
 10
167.8570850665271
 20
143.8503565574596
 30
0.0
 10
167.9589430586985
 20
143.1673436181772
 30
0.0
 10
168.0942486949542
 20
142.5116922234817
 30
0.0
  0
LINE
  5
C4
330
1F
100
AcDbEntity
  8
0
  6
Continuous
 62
     7
370
    15
100
AcDbLine
 10
167.2155690385
 20
151.8537078558
 30
0.0
 11
167.2155690385
 21
141.5734028801
 31
0.0
  0
LINE
  5
C5
330
1F
100
AcDbEntity
  8
0
  6
Continuous
 62
     7
370
    15
100
AcDbLine
 10
140.9155690385
 20
151.5233340845
 30
0.0
 11
140.9155690385
 21
141.9037766515
 31
0.0
  0
LINE
  5
C6
330
1F
100
AcDbEntity
  8
0
  6
Continuous
 62
     7
370
    15
100
AcDbLine
 10
139.4155690385
 20
151.0903213826
 30
0.0
 11
139.4155690385
 21
142.3367893533
 31
0.0
  0
LINE
  5
C7
330
1F
100
AcDbEntity
  8
0
  6
Continuous
 62
     7
370
    15
100
AcDbLine
 10
167.2155690385
 20
129.1934565834
 30
0.0
 11
167.2155690385
 21
141.5734028801
 31
0.0
  0
ARC
  5
C8
330
1F
100
AcDbEntity
  8
0
  6
Continuous
 62
     7
370
    15
100
AcDbCircle
 10
167.4155059494
 20
129.1884334723
 30
0.0
 40
0.2000000000000059
100
AcDbArc
 50
88.5608333333
 51
178.5608333333
  0
LINE
  5
C9
330
1F
100
AcDbEntity
  8
0
  6
Continuous
 62
     7
370
    15
100
AcDbLine
 10
140.9155690385
 20
129.854204126
 30
0.0
 11
140.9155690385
 21
141.9037766515
 31
0.0
  0
LINE
  5
CA
330
1F
100
AcDbEntity
  8
0
  6
Continuous
 62
     7
370
    15
100
AcDbLine
 10
140.9155690385
 20
129.854204126
 30
0.0
 11
167.2155690385
 21
129.1934565834
 31
0.0
  0
LINE
  5
CB
330
1F
100
AcDbEntity
  8
0
  6
Continuous
 62
     7
370
    15
100
AcDbLine
 10
140.9155690385
 20
151.5233340845
 30
0.0
 11
140.9155690385
 21
163.5729066099
 31
0.0
  0
LINE
  5
CC
330
1F
100
AcDbEntity
  8
0
  6
Continuous
 62
     7
370
    15
100
AcDbLine
 10
140.9155690385
 20
163.5729066099
 30
0.0
 11
167.2155690385
 21
164.2336541525
 31
0.0
  0
LINE
  5
CD
330
1F
100
AcDbEntity
  8
0
  6
Continuous
 62
     7
370
    15
100
AcDbLine
 10
167.2155690385
 20
151.8537078558
 30
0.0
 11
167.2155690385
 21
164.2336541525
 31
0.0
  0
ARC
  5
CE
330
1F
100
AcDbEntity
  8
0
  6
Continuous
 62
     7
370
    15
100
AcDbCircle
 10
167.4155059494
 20
164.2386772636
 30
0.0
 40
0.2000000000000336
100
AcDbArc
 50
181.4391666667
 51
271.4391666667
  0
LINE
  5
CF
330
1F
100
AcDbEntity
  8
0
  6
Continuous
 62
     7
370
    15
100
AcDbLine
 10
167.4205290606
 20
129.3883703832
 30
0.0
 11
168.3747080104
 21
129.3643980868
 31
0.0
  0
LINE
  5
D0
330
1F
100
AcDbEntity
  8
0
  6
Continuous
 62
     7
370
    15
100
AcDbLine
 10
167.4205290606
 20
164.0387403527
 30
0.0
 11
168.3747080104
 21
164.0627126491
 31
0.0
  0
LINE
  5
D1
330
1F
100
AcDbEntity
  8
0
  6
Continuous
 62
     7
370
    15
100
AcDbLine
 10
139.4155690385
 20
162.7068812061
 30
0.0
 11
140.9155690385
 21
163.5729066099
 31
0.0
  0
LINE
  5
D2
330
1F
100
AcDbEntity
  8
0
  6
Continuous
 62
     7
370
    15
100
AcDbLine
 10
139.4155690385
 20
151.0903213826
 30
0.0
 11
139.4155690385
 21
162.7068812061
 31
0.0
  0
LINE
  5
D3
330
1F
100
AcDbEntity
  8
0
  6
Continuous
 62
     7
370
    15
100
AcDbLine
 10
139.4155690385
 20
130.7202295298
 30
0.0
 11
140.9155690385
 21
129.854204126
 31
0.0
  0
LINE
  5
D4
330
1F
100
AcDbEntity
  8
0
  6
Continuous
 62
     7
370
    15
100
AcDbLine
 10
139.4155690385
 20
130.7202295298
 30
0.0
 11
139.4155690385
 21
142.3367893533
 31
0.0
  0
CIRCLE
  5
D5
330
1F
100
AcDbEntity
  8
0
  6
HIDDEN
 62
     7
370
     0
100
AcDbCircle
 10
254.9155690385
 20
126.713555368
 30
0.0
 40
4.25
  0
CIRCLE
  5
D6
330
1F
100
AcDbEntity
  8
0
  6
HIDDEN
 62
     7
370
     0
100
AcDbCircle
 10
205.9155690385
 20
166.713555368
 30
0.0
 40
4.25
  0
CIRCLE
  5
D7
330
1F
100
AcDbEntity
  8
0
  6
HIDDEN
 62
     7
370
     0
100
AcDbCircle
 10
205.9155690385
 20
126.713555368
 30
0.0
 40
4.25
  0
CIRCLE
  5
D8
330
1F
100
AcDbEntity
  8
0
  6
HIDDEN
 62
     7
370
     0
100
AcDbCircle
 10
230.4155690385
 20
166.713555368
 30
0.0
 40
4.25
  0
CIRCLE
  5
D9
330
1F
100
AcDbEntity
  8
0
  6
HIDDEN
 62
     7
370
     0
100
AcDbCircle
 10
230.4155690385
 20
126.713555368
 30
0.0
 40
4.25
  0
CIRCLE
  5
DA
330
1F
100
AcDbEntity
  8
0
  6
HIDDEN
 62
     7
370
     0
100
AcDbCircle
 10
254.9155690385
 20
166.713555368
 30
0.0
 40
4.25
  0
LINE
  5
DB
330
1F
100
AcDbEntity
  8
0
  6
HIDDEN
 62
     7
370
     0
100
AcDbLine
 10
190.4155690385
 20
120.7184441363
 30
0.0
 11
190.4155690385
 21
172.7086665996
 31
0.0
  0
SPLINE
  5
DC
330
1F
100
AcDbEntity
  8
0
  6
HIDDEN
 62
     7
370
     0
100
AcDbSpline
210
0.0
220
0.0
230
1.0
 70
    24
 71
     3
 72
     9
 73
     5
 74
     0
 42
0.00000001
 43
0.00000001
 12
1.0
 22
0.0
 32
0.0
 13
1.0
 23
0.0
 33
0.0
 40
0.0
 40
0.0
 40
0.0
 40
0.0
 40
0.5
 40
1.0
 40
1.0
 40
1.0
 40
1.0
 10
190.4168831000952
 20
116.7135553679542
 30
0.0
 10
190.4164439558205
 20
116.7135553679542
 30
0.0
 10
190.4157870368978
 20
116.7135553679542
 30
0.0
 10
190.4155690385139
 20
116.7135553679542
 30
0.0
 10
190.4155690385139
 20
116.7135553679542
 30
0.0
  0
SPLINE
  5
DD
330
1F
100
AcDbEntity
  8
0
  6
HIDDEN
 62
     7
370
     0
100
AcDbSpline
210
0.0
220
0.0
230
1.0
 70
     8
 71
     3
 72
    58
 73
    54
 74
     0
 42
0.00000001
 43
0.00000001
 12
1.0
 22
0.0
 32
0.0
 13
1.0
 23
0.0
 33
0.0
 40
-0.0625000000000003
 40
-0.0625000000000003
 40
0.0
 40
0.0
 40
0.0312499999999999
 40
0.0312499999999999
 40
0.0624999999999998
 40
0.0624999999999998
 40
0.0937499999999997
 40
0.0937499999999997
 40
0.1249999999999996
 40
0.1249999999999996
 40
0.1874999999999994
 40
0.1874999999999994
 40
0.2499999999999993
 40
0.2499999999999993
 40
0.2812499999999992
 40
0.2812499999999992
 40
0.3124999999999991
 40
0.3124999999999991
 40
0.3437499999999991
 40
0.3437499999999991
 40
0.3749999999999989
 40
0.3749999999999989
 40
0.4062499999999989
 40
0.4062499999999989
 40
0.4374999999999988
 40
0.4374999999999988
 40
0.4687499999999987
 40
0.4687499999999987
 40
0.4999999999999986
 40
0.4999999999999986
 40
0.5624999999999984
 40
0.5624999999999984
 40
0.6249999999999983
 40
0.6249999999999983
 40
0.6562499999999984
 40
0.6562499999999984
 40
0.6874999999999986
 40
0.6874999999999986
 40
0.7187499999999988
 40
0.7187499999999988
 40
0.7499999999999989
 40
0.7499999999999989
 40
0.781249999999999
 40
0.781249999999999
 40
0.8124999999999991
 40
0.8124999999999991
 40
0.8437499999999993
 40
0.8437499999999993
 40
0.8749999999999994
 40
0.8749999999999994
 40
0.9374999999999997
 40
0.9374999999999997
 40
1.0
 40
1.0
 40
1.03125
 40
1.03125
 10
179.4155690385139
 20
146.4491829974107
 30
0.0
 10
179.4155690385139
 20
146.8457415532259
 30
0.0
 10
179.4285449305244
 20
146.9757082927706
 30
0.0
 10
179.4793772326303
 20
147.2313876309028
 30
0.0
 10
179.5178543039517
 20
147.3584287227442
 30
0.0
 10
179.6182592651081
 20
147.6006069086848
 30
0.0
 10
179.6796935074274
 20
147.7154605672742
 30
0.0
 10
179.8248277736091
 20
147.9328256890801
 30
0.0
 10
179.9092696947565
 20
148.0357011611643
 30
0.0
 10
180.1859417243663
 20
148.3123191135815
 30
0.0
 10
180.4089878793345
 20
148.4613112334144
 30
0.0
 10
180.8902518778789
 20
148.6608350284056
 30
0.0
 10
181.1535097331987
 20
148.7134138929079
 30
0.0
 10
181.5449757644835
 20
148.7136256664954
 30
0.0
 10
181.677524508097
 20
148.700634694906
 30
0.0
 10
181.9340688171123
 20
148.6495984716162
 30
0.0
 10
182.058764703484
 20
148.6118369302134
 30
0.0
 10
182.3009676739177
 20
148.5116773909199
 30
0.0
 10
182.4180310371684
 20
148.4490795811694
 30
0.0
 10
182.6347173564145
 20
148.3043575971338
 30
0.0
 10
182.7357313244822
 20
148.2217334919656
 30
0.0
 10
182.9225245187677
 20
148.0351131213545
 30
0.0
 10
183.005324882722
 20
147.9340647534634
 30
0.0
 10
183.1502033216165
 20
147.7175527325895
 30
0.0
 10
183.2128541049439
 20
147.6006633773905
 30
0.0
 10
183.3132944993178
 20
147.3584059753316
 30
0.0
 10
183.3511535110878
 20
147.2337433105162
 30
0.0
 10
183.4023912155513
 20
146.9774121148614
 30
0.0
 10
183.4155215903244
 20
146.844824175511
 30
0.0
 10
183.4156635407632
 20
146.4531925069417
 30
0.0
 10
183.3633226245152
 20
146.1899796739075
 30
0.0
 10
183.1641923977771
 20
145.7084723432161
 30
0.0
 10
183.0153553101348
 20
145.4852718619405
 30
0.0
 10
182.7390432735954
 20
145.2084257819788
 30
0.0
 10
182.6362777363441
 20
145.1239136877601
 30
0.0
 10
182.4189608039903
 20
144.9785350910286
 30
0.0
 10
182.3041738934535
 20
144.9170196594268
 30
0.0
 10
182.0622544033476
 20
144.8164635991812
 30
0.0
 10
181.9351275008476
 20
144.7778248733466
 30
0.0
 10
181.6794586652114
 20
144.7267600064592
 30
0.0
 10
181.5495634598334
 20
144.7136855260829
 30
0.0
 10
181.285488677409
 20
144.7134271248093
 30
0.0
 10
181.1551595379237
 20
144.7263031927723
 30
0.0
 10
180.8994702237799
 20
144.7769019841002
 30
0.0
 10
180.7725423573922
 20
144.8152073299379
 30
0.0
 10
180.5300900685501
 20
144.9154631623578
 30
0.0
 10
180.4151733745685
 20
144.9768141812698
 30
0.0
 10
180.197782582798
 20
145.1216830168401
 30
0.0
 10
180.0947973031165
 20
145.2060469701094
 30
0.0
 10
179.8178329354592
 20
145.4825730238955
 30
0.0
 10
179.6687006571007
 20
145.7054328658912
 30
0.0
 10
179.4687485383863
 20
146.1865353859519
 30
0.0
 10
179.4155690385139
 20
146.4491829974107
 30
0.0
 10
179.4155690385139
 20
146.8457415532259
 30
0.0
  0
SPLINE
  5
DE
330
1F
100
AcDbEntity
  8
0
  6
HIDDEN
 62
     7
370
     0
100
AcDbSpline
210
0.0
220
0.0
230
1.0
 70
     8
 71
     3
 72
    12
 73
     8
 74
     0
 42
0.00000001
 43
0.00000001
 12
1.0
 22
0.0
 32
0.0
 13
1.0
 23
0.0
 33
0.0
 40
0.0
 40
0.0
 40
0.0
 40
0.0
 40
0.2500000000000007
 40
0.2500000000000007
 40
0.5000000000000013
 40
0.5000000000000013
 40
1.0
 40
1.0
 40
1.0
 40
1.0
 10
177.9433258520803
 20
139.1447453987736
 30
0.0
 10
177.8796606155498
 20
139.1447453987736
 30
0.0
 10
177.8200543833264
 20
139.1186732502939
 30
0.0
 10
177.7213938583956
 20
139.0431344994728
 30
0.0
 10
177.6824268683803
 20
138.9958835623765
 30
0.0
 10
177.5830400364559
 20
138.8440597444101
 30
0.0
 10
177.5409637890324
 20
138.731256494645
 30
0.0
 10
177.5103131501881
 20
138.6171023699099
 30
0.0
  0
LINE
  5
DF
330
1F
100
AcDbEntity
  8
0
  6
HIDDEN
 62
     7
370
     0
100
AcDbLine
 10
180.8878122249
 20
139.1447453988
 30
0.0
 11
177.9433258521
 21
139.1447453988
 31
0.0
  0
SPLINE
  5
E0
330
1F
100
AcDbEntity
  8
0
  6
HIDDEN
 62
     7
370
     0
100
AcDbSpline
210
0.0
220
0.0
230
1.0
 70
     8
 71
     3
 72
    12
 73
     8
 74
     0
 42
0.00000001
 43
0.00000001
 12
1.0
 22
0.0
 32
0.0
 13
1.0
 23
0.0
 33
0.0
 40
0.0
 40
0.0
 40
0.0
 40
0.0
 40
0.5000000000000004
 40
0.5000000000000004
 40
0.7500000000000002
 40
0.7500000000000002
 40
1.0
 40
1.0
 40
1.0
 40
1.0
 10
181.3208249268397
 20
138.6171023699099
 30
0.0
 10
181.2901255434724
 20
138.7314380369738
 30
0.0
 10
181.2487754753658
 20
138.8427913898151
 30
0.0
 10
181.1490195471464
 20
138.9955281620639
 30
0.0
 10
181.1093226294137
 20
139.043388047916
 30
0.0
 10
181.012064477766
 20
139.1179911612655
 30
0.0
 10
180.9512883197754
 20
139.1447453987736
 30
0.0
 10
180.8878122249474
 20
139.1447453987736
 30
0.0
  0
ELLIPSE
  5
E1
330
1F
100
AcDbEntity
  8
0
  6
HIDDEN
 62
     7
370
     0
100
AcDbEllipse
 10
168.3593113835
 20
146.713555368
 30
0.0
 11
-11.70927234972715
 21
24.67718644093742
 31
0.0
210
0.0
220
0.0
230
1.0
 40
0.3419987131
 41
3.31052192817896
 42
4.221709151398948
  0
SPLINE
  5
E2
330
1F
100
AcDbEntity
  8
0
  6
HIDDEN
 62
     7
370
     0
100
AcDbSpline
210
0.0
220
0.0
230
1.0
 70
     8
 71
     3
 72
    12
 73
     8
 74
     0
 42
0.00000001
 43
0.00000001
 12
1.0
 22
0.0
 32
0.0
 13
1.0
 23
0.0
 33
0.0
 40
0.0
 40
0.0
 40
0.0
 40
0.0
 40
0.2500000000000009
 40
0.2500000000000009
 40
0.5000000000000019
 40
0.5000000000000019
 40
1.0
 40
1.0
 40
1.0
 40
1.0
 10
180.8878122249474
 20
122.8868242524522
 30
0.0
 10
180.9514774614779
 20
122.8868242524522
 30
0.0
 10
181.0110836937013
 20
122.8950890281181
 30
0.0
 10
181.1097442186321
 20
122.9193078097012
 30
0.0
 10
181.1487112086474
 20
122.9345651290104
 30
0.0
 10
181.2480980405718
 20
122.9841984832723
 30
0.0
 10
181.2901742879953
 20
123.0218381914464
 30
0.0
 10
181.3208249268397
 20
123.0609138907226
 30
0.0
  0
LINE
  5
E3
330
1F
100
AcDbEntity
  8
0
  6
HIDDEN
 62
     7
370
     0
100
AcDbLine
 10
177.9433258521
 20
122.8868242525
 30
0.0
 11
180.8878122249
 21
122.8868242525
 31
0.0
  0
SPLINE
  5
E4
330
1F
100
AcDbEntity
  8
0
  6
HIDDEN
 62
     7
370
     0
100
AcDbSpline
210
0.0
220
0.0
230
1.0
 70
     8
 71
     3
 72
    12
 73
     8
 74
     0
 42
0.00000001
 43
0.00000001
 12
1.0
 22
0.0
 32
0.0
 13
1.0
 23
0.0
 33
0.0
 40
0.0
 40
0.0
 40
0.0
 40
0.0
 40
0.4999999999999996
 40
0.4999999999999996
 40
0.7499999999999998
 40
0.7499999999999998
 40
1.0
 40
1.0
 40
1.0
 40
1.0
 10
177.5103131501881
 20
123.0609138907226
 30
0.0
 10
177.5410125335554
 20
123.0217760483267
 30
0.0
 10
177.5823626016619
 20
122.9846162656012
 30
0.0
 10
177.6821185298814
 20
122.9346797599734
 30
0.0
 10
177.7218154476141
 20
122.9192268898297
 30
0.0
 10
177.8190735992617
 20
122.8953073462306
 30
0.0
 10
177.8798497572524
 20
122.8868242524522
 30
0.0
 10
177.9433258520803
 20
122.8868242524522
 30
0.0
  0
ELLIPSE
  5
E5
330
1F
100
AcDbEntity
  8
0
  6
HIDDEN
 62
     7
370
     0
100
AcDbEllipse
 10
190.4718266935
 20
146.713555368
 30
0.0
 11
11.70927234972703
 21
24.67718644093745
 31
0.0
210
0.0
220
0.0
230
1.0
 40
0.3419987131
 41
2.061476155780648
 42
2.972663379000666
  0
SPLINE
  5
E6
330
1F
100
AcDbEntity
  8
0
  6
HIDDEN
 62
     7
370
     0
100
AcDbSpline
210
0.0
220
0.0
230
1.0
 70
     8
 71
     3
 72
    12
 73
     8
 74
     0
 42
0.00000001
 43
0.00000001
 12
1.0
 22
0.0
 32
0.0
 13
1.0
 23
0.0
 33
0.0
 40
0.0
 40
0.0
 40
0.0
 40
0.0
 40
0.25
 40
0.25
 40
0.5
 40
0.5
 40
1.0
 40
1.0
 40
1.0
 40
1.0
 10
177.9433258520803
 20
170.5402864834562
 30
0.0
 10
177.8796606155498
 20
170.5402864834562
 30
0.0
 10
177.8200543833264
 20
170.5320217077904
 30
0.0
 10
177.7213938583956
 20
170.5078029262072
 30
0.0
 10
177.6824268683803
 20
170.4925456068981
 30
0.0
 10
177.5830400364559
 20
170.4429122526361
 30
0.0
 10
177.5409637890324
 20
170.405272544462
 30
0.0
 10
177.5103131501881
 20
170.3661968451859
 30
0.0
  0
LINE
  5
E7
330
1F
100
AcDbEntity
  8
0
  6
HIDDEN
 62
     7
370
     0
100
AcDbLine
 10
180.8878122249
 20
170.5402864835
 30
0.0
 11
177.9433258521
 21
170.5402864835
 31
0.0
  0
SPLINE
  5
E8
330
1F
100
AcDbEntity
  8
0
  6
HIDDEN
 62
     7
370
     0
100
AcDbSpline
210
0.0
220
0.0
230
1.0
 70
     8
 71
     3
 72
    12
 73
     8
 74
     0
 42
0.00000001
 43
0.00000001
 12
1.0
 22
0.0
 32
0.0
 13
1.0
 23
0.0
 33
0.0
 40
0.0
 40
0.0
 40
0.0
 40
0.0
 40
0.5
 40
0.5
 40
0.75
 40
0.75
 40
1.0
 40
1.0
 40
1.0
 40
1.0
 10
181.3208249268396
 20
170.3661968451859
 30
0.0
 10
181.2901255434724
 20
170.4053346875818
 30
0.0
 10
181.2487754753658
 20
170.4424944703073
 30
0.0
 10
181.1490195471464
 20
170.492430975935
 30
0.0
 10
181.1093226294136
 20
170.5078838460788
 30
0.0
 10
181.012064477766
 20
170.5318033896778
 30
0.0
 10
180.9512883197754
 20
170.5402864834562
 30
0.0
 10
180.8878122249474
 20
170.5402864834562
 30
0.0
  0
ELLIPSE
  5
E9
330
1F
100
AcDbEntity
  8
0
  6
HIDDEN
 62
     7
370
     0
100
AcDbEllipse
 10
168.3593113835
 20
146.713555368
 30
0.0
 11
11.70927234972726
 21
24.67718644093742
 31
0.0
210
0.0
220
0.0
230
1.0
 40
0.3419987131
 41
5.203068809370468
 42
6.114256032590513
  0
SPLINE
  5
EA
330
1F
100
AcDbEntity
  8
0
  6
HIDDEN
 62
     7
370
     0
100
AcDbSpline
210
0.0
220
0.0
230
1.0
 70
     8
 71
     3
 72
    12
 73
     8
 74
     0
 42
0.00000001
 43
0.00000001
 12
1.0
 22
0.0
 32
0.0
 13
1.0
 23
0.0
 33
0.0
 40
0.0
 40
0.0
 40
0.0
 40
0.0
 40
0.25
 40
0.25
 40
0.5
 40
0.5
 40
1.0
 40
1.0
 40
1.0
 40
1.0
 10
180.8878122249474
 20
154.2823653371351
 30
0.0
 10
180.9514774614779
 20
154.2823653371351
 30
0.0
 10
181.0110836937013
 20
154.3084374856148
 30
0.0
 10
181.1097442186321
 20
154.3839762364359
 30
0.0
 10
181.1487112086474
 20
154.4312271735321
 30
0.0
 10
181.2480980405718
 20
154.5830509914985
 30
0.0
 10
181.2901742879953
 20
154.6958542412636
 30
0.0
 10
181.3208249268397
 20
154.8100083659987
 30
0.0
  0
LINE
  5
EB
330
1F
100
AcDbEntity
  8
0
  6
HIDDEN
 62
     7
370
     0
100
AcDbLine
 10
177.9433258521
 20
154.2823653371
 30
0.0
 11
180.8878122249
 21
154.2823653371
 31
0.0
  0
SPLINE
  5
EC
330
1F
100
AcDbEntity
  8
0
  6
HIDDEN
 62
     7
370
     0
100
AcDbSpline
210
0.0
220
0.0
230
1.0
 70
     8
 71
     3
 72
    12
 73
     8
 74
     0
 42
0.00000001
 43
0.00000001
 12
1.0
 22
0.0
 32
0.0
 13
1.0
 23
0.0
 33
0.0
 40
0.0
 40
0.0
 40
0.0
 40
0.0
 40
0.5000000000000032
 40
0.5000000000000032
 40
0.7500000000000016
 40
0.7500000000000016
 40
1.0
 40
1.0
 40
1.0
 40
1.0
 10
177.5103131501881
 20
154.8100083659987
 30
0.0
 10
177.5410125335554
 20
154.6956726989349
 30
0.0
 10
177.5823626016619
 20
154.5843193460935
 30
0.0
 10
177.6821185298814
 20
154.4315825738448
 30
0.0
 10
177.7218154476141
 20
154.3837226879926
 30
0.0
 10
177.8190735992617
 20
154.3091195746432
 30
0.0
 10
177.8798497572524
 20
154.2823653371351
 30
0.0
 10
177.9433258520803
 20
154.2823653371351
 30
0.0
  0
ELLIPSE
  5
ED
330
1F
100
AcDbEntity
  8
0
  6
HIDDEN
 62
     7
370
     0
100
AcDbEllipse
 10
190.4718266935
 20
146.713555368
 30
0.0
 11
-11.70927234972711
 21
24.67718644093742
 31
0.0
210
0.0
220
0.0
230
1.0
 40
0.3419987131
 41
0.1689292745891155
 42
1.080116497809132
  0
LINE
  5
EE
330
1F
100
AcDbEntity
  8
0
  6
HIDDEN
 62
     7
370
     0
100
AcDbLine
 10
169.4155690385
 20
171.4135553555
 30
0.0
 11
169.4155690385
 21
122.013555368
 31
0.0
  0
LINE
  5
EF
330
1F
100
AcDbEntity
  8
0
  6
HIDDEN
 62
     7
370
     0
100
AcDbLine
 10
169.4155690385
 20
127.163555368
 30
0.0
 11
169.4155690385
 21
166.263555368
 31
0.0
  0
SPLINE
  5
F0
330
1F
100
AcDbEntity
  8
0
  6
HIDDEN
 62
     7
370
     0
100
AcDbSpline
210
0.0
220
0.0
230
1.0
 70
     8
 71
     3
 72
    14
 73
    10
 74
     0
 42
0.00000001
 43
0.00000001
 12
1.0
 22
0.0
 32
0.0
 13
1.0
 23
0.0
 33
0.0
 40
0.0
 40
0.0
 40
0.0
 40
0.0
 40
0.25
 40
0.25
 40
0.5
 40
0.5
 40
0.75
 40
0.75
 40
1.0
 40
1.0
 40
1.0
 40
1.0
 10
168.3747080103855
 20
159.0080309130276
 30
0.0
 10
168.4064231447162
 20
158.9502477306844
 30
0.0
 10
168.4410376700166
 20
158.8938350696095
 30
0.0
 10
168.5207088654319
 20
158.7862356195941
 30
0.0
 10
168.5657647424623
 20
158.734322992673
 30
0.0
 10
168.6763191549677
 20
158.6481243679757
 30
0.0
 10
168.7437045691719
 20
158.614034948004
 30
0.0
 10
168.8943340890699
 20
158.6119325559872
 30
0.0
 10
168.9641613258354
 20
158.6453043288319
 30
0.0
 10
169.0205921496388
 20
158.6891169973826
 30
0.0
  0
SPLINE
  5
F1
330
1F
100
AcDbEntity
  8
0
  6
HIDDEN
 62
     7
370
     0
100
AcDbSpline
210
0.0
220
0.0
230
1.0
 70
     8
 71
     3
 72
    16
 73
    12
 74
     0
 42
0.00000001
 43
0.00000001
 12
1.0
 22
0.0
 32
0.0
 13
1.0
 23
0.0
 33
0.0
 40
0.0
 40
0.0
 40
0.0
 40
0.0
 40
0.0624999999999968
 40
0.0624999999999968
 40
0.1249999999999936
 40
0.1249999999999936
 40
0.2499999999999913
 40
0.2499999999999913
 40
0.4999999999999959
 40
0.4999999999999959
 40
1.0
 40
1.0
 40
1.0
 40
1.0
 10
169.020592149607
 20
158.6891169974132
 30
0.0
 10
169.0323263840539
 20
158.6982274106612
 30
0.0
 10
169.0458581395328
 20
158.7063047666076
 30
0.0
 10
169.0758455999627
 20
158.7145516082845
 30
0.0
 10
169.0908403063709
 20
158.7136242906969
 30
0.0
 10
169.1265807287657
 20
158.7008577711651
 30
0.0
 10
169.1405940657669
 20
158.6832091246548
 30
0.0
 10
169.1747381545483
 20
158.6285562046232
 30
0.0
 10
169.1857100586666
 20
158.5871565369648
 30
0.0
 10
169.211555598933
 20
158.458666793242
 30
0.0
 10
169.2155690385139
 20
158.3680487056033
 30
0.0
 10
169.2155690385139
 20
158.2758296010492
 30
0.0
  0
LINE
  5
F2
330
1F
100
AcDbEntity
  8
0
  6
HIDDEN
 62
     7
370
     0
100
AcDbLine
 10
169.2155690385
 20
135.1512811349
 30
0.0
 11
169.2155690385
 21
158.275829601
 31
0.0
  0
SPLINE
  5
F3
330
1F
100
AcDbEntity
  8
0
  6
HIDDEN
 62
     7
370
     0
100
AcDbSpline
210
0.0
220
0.0
230
1.0
 70
     8
 71
     3
 72
    16
 73
    12
 74
     0
 42
0.00000001
 43
0.00000001
 12
1.0
 22
0.0
 32
0.0
 13
1.0
 23
0.0
 33
0.0
 40
0.0
 40
0.0
 40
0.0
 40
0.0
 40
0.5
 40
0.5
 40
0.75
 40
0.75
 40
0.875
 40
0.875
 40
0.9375
 40
0.9375
 40
1.0
 40
1.0
 40
1.0
 40
1.0
 10
169.2155690385139
 20
135.1512811348591
 30
0.0
 10
169.2155690385139
 20
135.0586972839552
 30
0.0
 10
169.2115117363988
 20
134.9684848280949
 30
0.0
 10
169.185854493604
 20
134.8405437009766
 30
0.0
 10
169.1745390478619
 20
134.7981304865647
 30
0.0
 10
169.1405076805532
 20
134.7438164431135
 30
0.0
 10
169.1266286993495
 20
134.7262351077237
 30
0.0
 10
169.0906930175821
 20
134.7134514197887
 30
0.0
 10
169.0757426983193
 20
134.7125759216406
 30
0.0
 10
169.0458441855775
 20
134.72082135676
 30
0.0
 10
169.0323113252122
 20
134.7288950169317
 30
0.0
 10
169.0205921496382
 20
134.7379937385258
 30
0.0
  0
SPLINE
  5
F4
330
1F
100
AcDbEntity
  8
0
  6
HIDDEN
 62
     7
370
     0
100
AcDbSpline
210
0.0
220
0.0
230
1.0
 70
     8
 71
     3
 72
    14
 73
    10
 74
     0
 42
0.00000001
 43
0.00000001
 12
1.0
 22
0.0
 32
0.0
 13
1.0
 23
0.0
 33
0.0
 40
0.0
 40
0.0
 40
0.0
 40
0.0
 40
0.25
 40
0.25
 40
0.5
 40
0.5
 40
0.75
 40
0.75
 40
1.0
 40
1.0
 40
1.0
 40
1.0
 10
169.020592149645
 20
134.7379937385344
 30
0.0
 10
168.9641363850363
 20
134.7818257710291
 30
0.0
 10
168.8932707587864
 20
134.8151568074509
 30
0.0
 10
168.7448136776138
 20
134.8130977973035
 30
0.0
 10
168.6756203183062
 20
134.7785017729018
 30
0.0
 10
168.565904880172
 20
134.6928364162389
 30
0.0
 10
168.5206603008407
 20
134.6408139715309
 30
0.0
 10
168.4410335914169
 20
134.533265711201
 30
0.0
 10
168.4064234428835
 20
134.476863548468
 30
0.0
 10
168.3747080103842
 20
134.4190798228785
 30
0.0
  0
SPLINE
  5
F5
330
1F
100
AcDbEntity
  8
0
  6
HIDDEN
 62
     7
370
     0
100
AcDbSpline
210
0.0
220
0.0
230
1.0
 70
     8
 71
     3
 72
    10
 73
     6
 74
     0
 42
0.00000001
 43
0.00000001
 12
1.0
 22
0.0
 32
0.0
 13
1.0
 23
0.0
 33
0.0
 40
0.0
 40
0.0
 40
0.0
 40
0.0
 40
0.5
 40
0.5
 40
1.0
 40
1.0
 40
1.0
 40
1.0
 10
168.3747080103848
 20
134.4190798228795
 30
0.0
 10
168.3029282224613
 20
134.2883011059776
 30
0.0
 10
168.2504687081533
 20
134.1542009564744
 30
0.0
 10
168.1611256440521
 20
133.8861083934857
 30
0.0
 10
168.1251300345524
 20
133.7518630218968
 30
0.0
 10
168.0942486949543
 20
133.6185086444218
 30
0.0
  0
SPLINE
  5
F6
330
1F
100
AcDbEntity
  8
0
  6
HIDDEN
 62
     7
370
     0
100
AcDbSpline
210
0.0
220
0.0
230
1.0
 70
     8
 71
     3
 72
    10
 73
     6
 74
     0
 42
0.00000001
 43
0.00000001
 12
1.0
 22
0.0
 32
0.0
 13
1.0
 23
0.0
 33
0.0
 40
0.0
 40
0.0
 40
0.0
 40
0.0
 40
0.5
 40
0.5
 40
1.0
 40
1.0
 40
1.0
 40
1.0
 10
168.0942486949543
 20
129.4166454999493
 30
0.0
 10
168.1251217267665
 20
129.4003623525822
 30
0.0
 10
168.1611085896794
 20
129.3881047628566
 30
0.0
 10
168.2504431755706
 20
129.3710017740279
 30
0.0
 10
168.3028990349932
 20
129.3662021781695
 30
0.0
 10
168.3747080103855
 20
129.3643980867616
 30
0.0
  0
SPLINE
  5
F7
330
1F
100
AcDbEntity
  8
0
  6
HIDDEN
 62
     7
370
     0
100
AcDbSpline
210
0.0
220
0.0
230
1.0
 70
     8
 71
     3
 72
     8
 73
     4
 74
     0
 42
0.00000001
 43
0.00000001
 12
1.0
 22
0.0
 32
0.0
 13
1.0
 23
0.0
 33
0.0
 40
0.0
 40
0.0
 40
0.0
 40
0.0
 40
1.0
 40
1.0
 40
1.0
 40
1.0
 10
169.1978724151389
 20
129.2385137085146
 30
0.0
 10
169.211859223681
 20
129.2102733179329
 30
0.0
 10
169.2155690385136
 20
129.1871412751221
 30
0.0
 10
169.2155690385139
 20
129.166800902287
 30
0.0
  0
LINE
  5
F8
330
1F
100
AcDbEntity
  8
0
  6
HIDDEN
 62
     7
370
     0
100
AcDbLine
 10
169.2155690385
 20
128.8737350891
 30
0.0
 11
169.2155690385
 21
129.1668009023
 31
0.0
  0
LINE
  5
F9
330
1F
100
AcDbEntity
  8
0
  6
HIDDEN
 62
     7
370
     0
100
AcDbLine
 10
169.2155690385
 20
164.2603098336
 30
0.0
 11
169.2155690385
 21
164.5533756468
 31
0.0
  0
SPLINE
  5
FA
330
1F
100
AcDbEntity
  8
0
  6
HIDDEN
 62
     7
370
     0
100
AcDbSpline
210
0.0
220
0.0
230
1.0
 70
     8
 71
     3
 72
    10
 73
     6
 74
     0
 42
0.00000001
 43
0.00000001
 12
1.0
 22
0.0
 32
0.0
 13
1.0
 23
0.0
 33
0.0
 40
0.0
 40
0.0
 40
0.0
 40
0.0
 40
0.5
 40
0.5
 40
1.0
 40
1.0
 40
1.0
 40
1.0
 10
168.3747080103863
 20
164.0627126491467
 30
0.0
 10
168.3028990349937
 20
164.0609085577388
 30
0.0
 10
168.250443175571
 20
164.0561089618805
 30
0.0
 10
168.1611085896796
 20
164.0390059730517
 30
0.0
 10
168.1251217267666
 20
164.0267483833262
 30
0.0
 10
168.0942486949543
 20
164.010465235959
 30
0.0
  0
SPLINE
  5
FB
330
1F
100
AcDbEntity
  8
0
  6
HIDDEN
 62
     7
370
     0
100
AcDbSpline
210
0.0
220
0.0
230
1.0
 70
     8
 71
     3
 72
    10
 73
     6
 74
     0
 42
0.00000001
 43
0.00000001
 12
1.0
 22
0.0
 32
0.0
 13
1.0
 23
0.0
 33
0.0
 40
0.0
 40
0.0
 40
0.0
 40
0.0
 40
0.5
 40
0.5
 40
1.0
 40
1.0
 40
1.0
 40
1.0
 10
168.0942486949543
 20
159.8086020914866
 30
0.0
 10
168.1251300345524
 20
159.6752477140113
 30
0.0
 10
168.1611256440522
 20
159.5410023424222
 30
0.0
 10
168.2504687081536
 20
159.272909779433
 30
0.0
 10
168.3029282224618
 20
159.1388096299296
 30
0.0
 10
168.3747080103855
 20
159.0080309130276
 30
0.0
  0
LINE
  5
FC
330
1F
100
AcDbEntity
  8
0
  6
HIDDEN
 62
     7
370
     0
100
AcDbLine
 10
259.4155690385
 20
144.713555368
 30
0.0
 11
259.4155690385
 21
132.713555368
 31
0.0
  0
LINE
  5
FD
330
1F
100
AcDbEntity
  8
0
  6
HIDDEN
 62
     7
370
     0
100
AcDbLine
 10
267.4155690385
 20
132.713555368
 30
0.0
 11
267.4155690385
 21
144.713555368
 31
0.0
  0
LINE
  5
FE
330
1F
100
AcDbEntity
  8
0
  6
HIDDEN
 62
     7
370
     0
100
AcDbLine
 10
259.4155690385
 20
148.713555368
 30
0.0
 11
259.4155690385
 21
160.713555368
 31
0.0
  0
LINE
  5
FF
330
1F
100
AcDbEntity
  8
0
  6
HIDDEN
 62
     7
370
     0
100
AcDbLine
 10
267.4155690385
 20
160.713555368
 30
0.0
 11
267.4155690385
 21
148.713555368
 31
0.0
  0
LINE
  5
100
330
1F
100
AcDbEntity
  8
0
  6
HIDDEN
 62
     7
370
     0
100
AcDbLine
 10
169.2155690385
 20
129.1668009023
 30
0.0
 11
169.2155690385
 21
140.7290751354
 31
0.0
  0
LINE
  5
101
330
1F
100
AcDbEntity
  8
0
  6
HIDDEN
 62
     7
370
     0
100
AcDbLine
 10
169.2155690385
 20
152.6980356005
 30
0.0
 11
169.2155690385
 21
164.2603098336
 31
0.0
  0
CIRCLE
  5
102
330
1F
100
AcDbEntity
  8
0
  6
HIDDEN
 62
     7
370
     0
100
AcDbCircle
 10
155.4155690385
 20
146.713555368
 30
0.0
 40
3.049999999999983
  0
SPLINE
  5
103
330
1F
100
AcDbEntity
  8
0
  6
HIDDEN
 62
     7
370
     0
100
AcDbSpline
210
0.0
220
0.0
230
1.0
 70
     8
 71
     3
 72
    24
 73
    20
 74
     0
 42
0.00000001
 43
0.00000001
 12
1.0
 22
0.0
 32
0.0
 13
1.0
 23
0.0
 33
0.0
 40
0.0
 40
0.0
 40
0.0
 40
0.0
 40
0.1249999999999992
 40
0.1249999999999992
 40
0.2499999999999983
 40
0.2499999999999983
 40
0.3749999999999975
 40
0.3749999999999975
 40
0.4999999999999966
 40
0.4999999999999966
 40
0.562499999999996
 40
0.562499999999996
 40
0.6249999999999954
 40
0.6249999999999954
 40
0.7499999999999969
 40
0.7499999999999969
 40
0.8749999999999984
 40
0.8749999999999984
 40
1.0
 40
1.0
 40
1.0
 40
1.0
 10
236.4155690385138
 20
146.1069037439897
 30
0.0
 10
236.2047005049342
 20
146.0339209440931
 30
0.0
 10
236.0026096146223
 20
145.9451814010699
 30
0.0
 10
235.6222002174375
 20
145.7263552873267
 30
0.0
 10
235.4410979257025
 20
145.5934375915381
 30
0.0
 10
235.132874485887
 20
145.2877048193925
 30
0.0
 10
235.0028910375962
 20
145.1110775115723
 30
0.0
 10
234.8263615093717
 20
144.7429933196758
 30
0.0
 10
234.7775396799386
 20
144.5460982466523
 30
0.0
 10
234.7762799920606
 20
144.2686593226126
 30
0.0
 10
234.7876571896905
 20
144.1770279644381
 30
0.0
 10
234.8329238440184
 20
144.0048835959236
 30
0.0
 10
234.8664764247039
 20
143.9240103530188
 30
0.0
 10
234.9990180328797
 20
143.6954526795517
 30
0.0
 10
235.1277412224835
 20
143.5675614130365
 30
0.0
 10
235.4367524913699
 20
143.3592106802494
 30
0.0
 10
235.613527439278
 20
143.2793861856064
 30
0.0
 10
235.9999344989633
 20
143.1497606085475
 30
0.0
 10
236.2039278368804
 20
143.1019028931799
 30
0.0
 10
236.4155690385138
 20
143.0639783203555
 30
0.0
  0
SPLINE
  5
104
330
1F
100
AcDbEntity
  8
0
  6
HIDDEN
 62
     7
370
     0
100
AcDbSpline
210
0.0
220
0.0
230
1.0
 70
     8
 71
     3
 72
    26
 73
    22
 74
     0
 42
0.00000001
 43
0.00000001
 12
1.0
 22
0.0
 32
0.0
 13
1.0
 23
0.0
 33
0.0
 40
0.0
 40
0.0
 40
0.0
 40
0.0
 40
0.1249999999999983
 40
0.1249999999999983
 40
0.2499999999999966
 40
0.2499999999999966
 40
0.3124999999999969
 40
0.3124999999999969
 40
0.3749999999999971
 40
0.3749999999999971
 40
0.4999999999999977
 40
0.4999999999999977
 40
0.6249999999999982
 40
0.6249999999999982
 40
0.7499999999999987
 40
0.7499999999999987
 40
0.812499999999999
 40
0.812499999999999
 40
0.8749999999999992
 40
0.8749999999999992
 40
1.0
 40
1.0
 40
1.0
 40
1.0
 10
236.4155690385138
 20
143.0639783203555
 30
0.0
 10
236.4593075296739
 20
143.0788273790836
 30
0.0
 10
236.5071609778188
 20
143.1239018937104
 30
0.0
 10
236.6139685165179
 20
143.2728609741106
 30
0.0
 10
236.6717163703253
 20
143.3755972693466
 30
0.0
 10
236.7644365466454
 20
143.5661427885954
 30
0.0
 10
236.7968080780436
 20
143.6367182213719
 30
0.0
 10
236.8624968568424
 20
143.786649309345
 30
0.0
 10
236.8959441713368
 20
143.8662104161802
 30
0.0
 10
236.9987842939424
 20
144.1185003255502
 30
0.0
 10
237.0713734084343
 20
144.3066683121046
 30
0.0
 10
237.2159254097536
 20
144.69324112007
 30
0.0
 10
237.2902694183039
 20
144.8972696802535
 30
0.0
 10
237.4288837578816
 20
145.2959440215724
 30
0.0
 10
237.4956490554328
 20
145.4958199504726
 30
0.0
 10
237.5696547943091
 20
145.7814895281912
 30
0.0
 10
237.5899082872479
 20
145.8749396310262
 30
0.0
 10
237.6162723089482
 20
146.0600409285163
 30
0.0
 10
237.621915609107
 20
146.1514891933409
 30
0.0
 10
237.6129982201196
 20
146.4123960336738
 30
0.0
 10
237.5723547727548
 20
146.5749751880339
 30
0.0
 10
237.5171130633638
 20
146.7135553679542
 30
0.0
  0
LINE
  5
105
330
1F
100
AcDbEntity
  8
0
  6
HIDDEN
 62
     7
370
     0
100
AcDbLine
 10
236.5989378578
 20
146.713555368
 30
0.0
 11
239.0174905667
 21
146.713555368
 31
0.0
  0
SPLINE
  5
106
330
1F
100
AcDbEntity
  8
0
  6
HIDDEN
 62
     7
370
     0
100
AcDbSpline
210
0.0
220
0.0
230
1.0
 70
     8
 71
     3
 72
     8
 73
     4
 74
     0
 42
0.00000001
 43
0.00000001
 12
1.0
 22
0.0
 32
0.0
 13
1.0
 23
0.0
 33
0.0
 40
0.0
 40
0.0
 40
0.0
 40
0.0
 40
1.0
 40
1.0
 40
1.0
 40
1.0
 10
236.5989378578354
 20
146.7135553679541
 30
0.0
 10
236.5310595242301
 20
146.5446652419882
 30
0.0
 10
236.4693697699575
 20
146.337892878294
 30
0.0
 10
236.4155690385138
 20
146.1069037439897
 30
0.0
  0
LINE
  5
107
330
1F
100
AcDbEntity
  8
0
  6
HIDDEN
 62
     7
370
     0
100
AcDbLine
 10
259.4155690385
 20
141.4329392829
 30
0.0
 11
259.4155690385
 21
137.1035718454
 31
0.0
  0
SPLINE
  5
108
330
1F
100
AcDbEntity
  8
0
  6
HIDDEN
 62
     7
370
     0
100
AcDbSpline
210
0.0
220
0.0
230
1.0
 70
     8
 71
     3
 72
    24
 73
    20
 74
     0
 42
0.00000001
 43
0.00000001
 12
1.0
 22
0.0
 32
0.0
 13
1.0
 23
0.0
 33
0.0
 40
0.0
 40
0.0
 40
0.0
 40
0.0
 40
0.124999999999999
 40
0.124999999999999
 40
0.249999999999998
 40
0.249999999999998
 40
0.374999999999997
 40
0.374999999999997
 40
0.499999999999996
 40
0.499999999999996
 40
0.5624999999999954
 40
0.5624999999999954
 40
0.6249999999999948
 40
0.6249999999999948
 40
0.7499999999999966
 40
0.7499999999999966
 40
0.8749999999999983
 40
0.8749999999999983
 40
1.0
 40
1.0
 40
1.0
 40
1.0
 10
236.4155690385138
 20
150.3631324155528
 30
0.0
 10
236.2047005049342
 20
150.325346299256
 30
0.0
 10
236.0026096146223
 20
150.2778359683854
 30
0.0
 10
235.6222002174375
 20
150.1510334024929
 30
0.0
 10
235.4410979257025
 20
150.0700015363166
 30
0.0
 10
235.132874485887
 20
149.8638137028304
 30
0.0
 10
235.0028910375962
 20
149.7355586350511
 30
0.0
 10
234.8263615093717
 20
149.4365804135499
 30
0.0
 10
234.7775396799387
 20
149.2606927568706
 30
0.0
 10
234.7762799920606
 20
148.9837823374996
 30
0.0
 10
234.7876571896905
 20
148.8873371473248
 30
0.0
 10
234.8329238440184
 20
148.6965171795886
 30
0.0
 10
234.8664764247039
 20
148.6019299834684
 30
0.0
 10
234.9990180328797
 20
148.3213820243299
 30
0.0
 10
235.1277412224835
 20
148.1454551809488
 30
0.0
 10
235.4367524913699
 20
147.8370548509329
 30
0.0
 10
235.6135274392779
 20
147.7063171752386
 30
0.0
 10
235.9999344989632
 20
147.4829119127434
 30
0.0
 10
236.2039278368804
 20
147.3934572166273
 30
0.0
 10
236.4155690385138
 20
147.3202069919186
 30
0.0
  0
SPLINE
  5
109
330
1F
100
AcDbEntity
  8
0
  6
HIDDEN
 62
     7
370
     0
100
AcDbSpline
210
0.0
220
0.0
230
1.0
 70
     8
 71
     3
 72
     8
 73
     4
 74
     0
 42
0.00000001
 43
0.00000001
 12
1.0
 22
0.0
 32
0.0
 13
1.0
 23
0.0
 33
0.0
 40
0.0
 40
0.0
 40
0.0
 40
0.0
 40
1.0
 40
1.0
 40
1.0
 40
1.0
 10
236.4155690385138
 20
147.3202069919186
 30
0.0
 10
236.4695399059942
 20
147.0884873921584
 30
0.0
 10
236.5302431134163
 20
146.8844768302515
 30
0.0
 10
236.5989378578354
 20
146.7135553679542
 30
0.0
  0
SPLINE
  5
10A
330
1F
100
AcDbEntity
  8
0
  6
HIDDEN
 62
     7
370
     0
100
AcDbSpline
210
0.0
220
0.0
230
1.0
 70
     8
 71
     3
 72
    22
 73
    18
 74
     0
 42
0.00000001
 43
0.00000001
 12
1.0
 22
0.0
 32
0.0
 13
1.0
 23
0.0
 33
0.0
 40
0.0
 40
0.0
 40
0.0
 40
0.0
 40
0.0625
 40
0.0625
 40
0.125
 40
0.125
 40
0.25
 40
0.25
 40
0.375
 40
0.375
 40
0.5
 40
0.5
 40
0.625
 40
0.625
 40
0.75
 40
0.75
 40
1.0
 40
1.0
 40
1.0
 40
1.0
 10
237.5171130633638
 20
146.7135553679542
 30
0.0
 10
237.5446956241286
 20
146.782749393186
 30
0.0
 10
237.5685995898463
 20
146.8572969492249
 30
0.0
 10
237.6043495046206
 20
147.0163737473084
 30
0.0
 10
237.6160279603585
 20
147.1019068364229
 30
0.0
 10
237.6248524413277
 20
147.3644726926389
 30
0.0
 10
237.5949311248727
 20
147.54787206058
 30
0.0
 10
237.4954650143126
 20
147.9321804131711
 30
0.0
 10
237.429506671799
 20
148.129359474643
 30
0.0
 10
237.2899393915665
 20
148.5308058778095
 30
0.0
 10
237.2177571415704
 20
148.7289212249496
 30
0.0
 10
237.0712840258716
 20
149.1207306922526
 30
0.0
 10
237.0005344668339
 20
149.3042086445286
 30
0.0
 10
236.8620940109354
 20
149.644048870131
 30
0.0
 10
236.796617726536
 20
149.7946603559522
 30
0.0
 10
236.6103576251509
 20
150.1779518795967
 30
0.0
 10
236.5029828715002
 20
150.3334557370659
 30
0.0
 10
236.4155690385138
 20
150.3631324155528
 30
0.0
  0
LINE
  5
10B
330
1F
100
AcDbEntity
  8
0
  6
HIDDEN
 62
     7
370
     0
100
AcDbLine
 10
259.4155690385
 20
156.3235388905
 30
0.0
 11
259.4155690385
 21
151.994171453
 31
0.0
  0
LINE
  5
10C
330
1F
100
AcDbEntity
  8
0
  6
HIDDEN
 62
     7
370
     0
100
AcDbLine
 10
144.4436088941
 20
157.5022305025
 30
0.0
 11
144.4436088941
 21
135.9248802334
 31
0.0
  0
LINE
  5
10D
330
1F
100
AcDbEntity
  8
0
  6
HIDDEN
 62
     7
370
     0
100
AcDbLine
 10
140.4436088941
 20
157.883428349
 30
0.0
 11
140.4436088941
 21
135.5436823869
 31
0.0
  0
LINE
  5
10E
330
1F
100
AcDbEntity
  8
0
  6
HIDDEN
 62
     7
370
     0
100
AcDbLine
 10
139.4155690385
 20
134.9501432995
 30
0.0
 11
139.4155690385
 21
158.4769674364
 31
0.0
  0
LINE
  5
10F
330
1F
100
AcDbEntity
  8
0
  6
HIDDEN
 62
     7
370
     0
100
AcDbLine
 10
149.0436088941
 20
157.213555368
 30
0.0
 11
149.0436088941
 21
136.213555368
 31
0.0
  0
LINE
  5
110
330
1F
100
AcDbEntity
  8
0
  6
HIDDEN
 62
     7
370
     0
100
AcDbLine
 10
142.9436088941
 20
157.213555368
 30
0.0
 11
142.9436088941
 21
136.213555368
 31
0.0
  0
LINE
  5
111
330
1F
100
AcDbEntity
  8
0
  6
HIDDEN
 62
     7
370
     0
100
AcDbLine
 10
143.9436088941
 20
157.213555368
 30
0.0
 11
143.9436088941
 21
136.213555368
 31
0.0
  0
LINE
  5
112
330
1F
100
AcDbEntity
  8
0
  6
HIDDEN
 62
     7
370
     0
100
AcDbLine
 10
159.4155690385
 20
156.713555368
 30
0.0
 11
159.4155690385
 21
136.713555368
 31
0.0
  0
SPLINE
  5
113
330
1F
100
AcDbEntity
  8
0
  6
HIDDEN
 62
     7
370
     0
100
AcDbSpline
210
0.0
220
0.0
230
1.0
 70
     8
 71
     3
 72
    66
 73
    62
 74
     0
 42
0.00000001
 43
0.00000001
 12
1.0
 22
0.0
 32
0.0
 13
1.0
 23
0.0
 33
0.0
 40
-0.0312500000000007
 40
-0.0312500000000007
 40
0.0
 40
0.0
 40
0.0312499999999998
 40
0.0312499999999998
 40
0.0624999999999996
 40
0.0624999999999996
 40
0.0937499999999994
 40
0.0937499999999994
 40
0.1249999999999992
 40
0.1249999999999992
 40
0.1874999999999988
 40
0.1874999999999988
 40
0.2187499999999987
 40
0.2187499999999987
 40
0.2499999999999986
 40
0.2499999999999986
 40
0.2812499999999984
 40
0.2812499999999984
 40
0.3124999999999983
 40
0.3124999999999983
 40
0.3437499999999981
 40
0.3437499999999981
 40
0.374999999999998
 40
0.374999999999998
 40
0.4062499999999978
 40
0.4062499999999978
 40
0.4374999999999977
 40
0.4374999999999977
 40
0.4687499999999976
 40
0.4687499999999976
 40
0.4999999999999974
 40
0.4999999999999974
 40
0.5312499999999973
 40
0.5312499999999973
 40
0.5624999999999971
 40
0.5624999999999971
 40
0.593749999999997
 40
0.593749999999997
 40
0.624999999999997
 40
0.624999999999997
 40
0.656249999999997
 40
0.656249999999997
 40
0.687499999999997
 40
0.687499999999997
 40
0.7187499999999971
 40
0.7187499999999971
 40
0.7499999999999971
 40
0.7499999999999971
 40
0.7812499999999972
 40
0.7812499999999972
 40
0.8124999999999973
 40
0.8124999999999973
 40
0.8749999999999978
 40
0.8749999999999978
 40
0.9062499999999981
 40
0.9062499999999981
 40
0.9374999999999987
 40
0.9374999999999987
 40
0.9687499999999993
 40
0.9687499999999993
 40
1.0
 40
1.0
 40
1.03125
 40
1.03125
 10
155.212890391566
 20
149.7635553679542
 30
0.0
 10
155.6182476854617
 20
149.7635553679542
 30
0.0
 10
155.8173075767975
 20
149.7435558083376
 30
0.0
 10
156.2085615613772
 20
149.6654123056374
 30
0.0
 10
156.4028343201249
 20
149.6062512041166
 30
0.0
 10
156.7715977466762
 20
149.4528195172223
 30
0.0
 10
156.9463229050544
 20
149.3590927073801
 30
0.0
 10
157.2770002085882
 20
149.1378386049752
 30
0.0
 10
157.4326477525911
 20
149.0098572379807
 30
0.0
 10
157.8521151222597
 20
148.5903021409806
 30
0.0
 10
158.07900326379
 20
148.2518235822772
 30
0.0
 10
158.3077998871748
 20
147.701944694559
 30
0.0
 10
158.3669921420236
 20
147.5085448488156
 30
0.0
 10
158.4457995522842
 20
147.1143166984577
 30
0.0
 10
158.4654389685646
 20
146.9156778710253
 30
0.0
 10
158.4656978329861
 20
146.5153775851269
 30
0.0
 10
158.4456271483532
 20
146.3120382584059
 30
0.0
 10
158.3672894657232
 20
145.9199467377983
 30
0.0
 10
158.3093396976848
 20
145.729240869483
 30
0.0
 10
158.1553965558048
 20
145.3585170528964
 30
0.0
 10
158.0604579420821
 20
145.1817903930877
 30
0.0
 10
157.840100526205
 20
144.8525372821633
 30
0.0
 10
157.7128205002767
 20
144.6974160585668
 30
0.0
 10
157.4310649089461
 20
144.4157393636364
 30
0.0
 10
157.2782765794886
 20
144.2903061787321
 30
0.0
 10
156.9488494973317
 20
144.069530585378
 30
0.0
 10
156.77030349418
 20
143.9736993326778
 30
0.0
 10
156.4027311686299
 20
143.8208702021827
 30
0.0
 10
156.2125771419188
 20
143.7626984442385
 30
0.0
 10
155.8190367192164
 20
143.6837051518935
 30
0.0
 10
155.6166026479552
 20
143.6636420262513
 30
0.0
 10
155.2171735725898
 20
143.6634692801326
 30
0.0
 10
155.0171545940339
 20
143.6829526542219
 30
0.0
 10
154.6210386465846
 20
143.761944225823
 30
0.0
 10
154.4303058183927
 20
143.820224445675
 30
0.0
 10
154.062674377813
 20
143.9727920662831
 30
0.0
 10
153.8841879456452
 20
144.0684008530563
 30
0.0
 10
153.5539826866812
 20
144.2894128981413
 30
0.0
 10
153.4010941086192
 20
144.4148627969115
 30
0.0
 10
153.1194977140812
 20
144.6960932859168
 30
0.0
 10
152.9918667912056
 20
144.8514761638307
 30
0.0
 10
152.7715413562059
 20
145.1803270218737
 30
0.0
 10
152.6773148992405
 20
145.3552151282877
 30
0.0
 10
152.5223803786374
 20
145.7273589796485
 30
0.0
 10
152.4643680930351
 20
145.9181650214574
 30
0.0
 10
152.385948838757
 20
146.3090380393761
 30
0.0
 10
152.3656347587905
 20
146.5114956007584
 30
0.0
 10
152.3655036424865
 20
146.9136262056779
 30
0.0
 10
152.3851283358458
 20
147.112350250853
 30
0.0
 10
152.4632947862595
 20
147.5051897219897
 30
0.0
 10
152.5225822315994
 20
147.6998339993922
 30
0.0
 10
152.7516630746823
 20
148.2512737528065
 30
0.0
 10
152.9784939255765
 20
148.5896133185056
 30
0.0
 10
153.3978326268972
 20
149.0092789811571
 30
0.0
 10
153.5531856226471
 20
149.1371249869304
 30
0.0
 10
153.8841534557843
 20
149.3587260616322
 30
0.0
 10
154.0587147559806
 20
149.4523667956091
 30
0.0
 10
154.4262880635555
 20
149.6055209163084
 30
0.0
 10
154.6209749251936
 20
149.6650246619544
 30
0.0
 10
155.01345087513
 20
149.7435474110174
 30
0.0
 10
155.212890391566
 20
149.7635553679542
 30
0.0
 10
155.6182476854617
 20
149.7635553679542
 30
0.0
  0
SPLINE
  5
114
330
1F
100
AcDbEntity
  8
0
  6
HIDDEN
 62
     7
370
     0
100
AcDbSpline
210
0.0
220
0.0
230
1.0
 70
     8
 71
     3
 72
    66
 73
    62
 74
     0
 42
0.00000001
 43
0.00000001
 12
1.0
 22
0.0
 32
0.0
 13
1.0
 23
0.0
 33
0.0
 40
-0.03125
 40
-0.03125
 40
0.0
 40
0.0
 40
0.0312499999999999
 40
0.0312499999999999
 40
0.0624999999999998
 40
0.0624999999999998
 40
0.0937499999999998
 40
0.0937499999999998
 40
0.1249999999999997
 40
0.1249999999999997
 40
0.1874999999999996
 40
0.1874999999999996
 40
0.2187499999999996
 40
0.2187499999999996
 40
0.2499999999999996
 40
0.2499999999999996
 40
0.2812499999999996
 40
0.2812499999999996
 40
0.3124999999999996
 40
0.3124999999999996
 40
0.3437499999999996
 40
0.3437499999999996
 40
0.3749999999999995
 40
0.3749999999999995
 40
0.4062499999999995
 40
0.4062499999999995
 40
0.4374999999999995
 40
0.4374999999999995
 40
0.4687499999999994
 40
0.4687499999999994
 40
0.4999999999999994
 40
0.4999999999999994
 40
0.5312499999999994
 40
0.5312499999999994
 40
0.5624999999999996
 40
0.5624999999999996
 40
0.5937499999999996
 40
0.5937499999999996
 40
0.6249999999999996
 40
0.6249999999999996
 40
0.6562499999999997
 40
0.6562499999999997
 40
0.6874999999999997
 40
0.6874999999999997
 40
0.7187499999999997
 40
0.7187499999999997
 40
0.7499999999999997
 40
0.7499999999999997
 40
0.7812499999999998
 40
0.7812499999999998
 40
0.8124999999999998
 40
0.8124999999999998
 40
0.8749999999999999
 40
0.8749999999999999
 40
0.9062499999999999
 40
0.9062499999999999
 40
0.9374999999999999
 40
0.9374999999999999
 40
0.96875
 40
0.96875
 40
1.0
 40
1.0
 40
1.03125
 40
1.03125
 10
155.6182476854617
 20
149.7635553679542
 30
0.0
 10
155.212890391566
 20
149.7635553679542
 30
0.0
 10
155.0138305002302
 20
149.7435558083376
 30
0.0
 10
154.6225765156505
 20
149.6654123056374
 30
0.0
 10
154.4283037569029
 20
149.6062512041166
 30
0.0
 10
154.0595403303516
 20
149.4528195172223
 30
0.0
 10
153.8848151719733
 20
149.3590927073801
 30
0.0
 10
153.5541378684395
 20
149.1378386049752
 30
0.0
 10
153.3984903244366
 20
149.0098572379807
 30
0.0
 10
152.979022954768
 20
148.5903021409806
 30
0.0
 10
152.7521348132377
 20
148.2518235822772
 30
0.0
 10
152.523338189853
 20
147.701944694559
 30
0.0
 10
152.4641459350041
 20
147.5085448488156
 30
0.0
 10
152.3853385247436
 20
147.1143166984577
 30
0.0
 10
152.3656991084632
 20
146.9156778710253
 30
0.0
 10
152.3654402440416
 20
146.5153775851269
 30
0.0
 10
152.3855109286745
 20
146.3120382584059
 30
0.0
 10
152.4638486113045
 20
145.9199467377983
 30
0.0
 10
152.5217983793429
 20
145.729240869483
 30
0.0
 10
152.6757415212229
 20
145.3585170528964
 30
0.0
 10
152.7706801349456
 20
145.1817903930877
 30
0.0
 10
152.9910375508228
 20
144.8525372821633
 30
0.0
 10
153.1183175767511
 20
144.6974160585668
 30
0.0
 10
153.4000731680816
 20
144.4157393636364
 30
0.0
 10
153.5528614975391
 20
144.2903061787321
 30
0.0
 10
153.882288579696
 20
144.069530585378
 30
0.0
 10
154.0608345828477
 20
143.9736993326778
 30
0.0
 10
154.4284069083979
 20
143.8208702021827
 30
0.0
 10
154.6185609351089
 20
143.7626984442385
 30
0.0
 10
155.0121013578114
 20
143.6837051518935
 30
0.0
 10
155.2145354290725
 20
143.6636420262513
 30
0.0
 10
155.6139645044379
 20
143.6634692801326
 30
0.0
 10
155.8139834829938
 20
143.6829526542219
 30
0.0
 10
156.2100994304432
 20
143.761944225823
 30
0.0
 10
156.400832258635
 20
143.820224445675
 30
0.0
 10
156.7684636992147
 20
143.9727920662831
 30
0.0
 10
156.9469501313825
 20
144.0684008530563
 30
0.0
 10
157.2771553903465
 20
144.2894128981413
 30
0.0
 10
157.4300439684085
 20
144.4148627969115
 30
0.0
 10
157.7116403629466
 20
144.6960932859168
 30
0.0
 10
157.8392712858221
 20
144.8514761638307
 30
0.0
 10
158.0595967208219
 20
145.1803270218737
 30
0.0
 10
158.1538231777872
 20
145.3552151282877
 30
0.0
 10
158.3087576983903
 20
145.7273589796485
 30
0.0
 10
158.3667699839926
 20
145.9181650214574
 30
0.0
 10
158.4451892382707
 20
146.3090380393761
 30
0.0
 10
158.4655033182373
 20
146.5114956007584
 30
0.0
 10
158.4656344345412
 20
146.9136262056779
 30
0.0
 10
158.4460097411819
 20
147.112350250853
 30
0.0
 10
158.3678432907682
 20
147.5051897219897
 30
0.0
 10
158.3085558454283
 20
147.6998339993922
 30
0.0
 10
158.0794750023454
 20
148.2512737528065
 30
0.0
 10
157.8526441514512
 20
148.5896133185056
 30
0.0
 10
157.4333054501306
 20
149.0092789811571
 30
0.0
 10
157.2779524543806
 20
149.1371249869304
 30
0.0
 10
156.9469846212434
 20
149.3587260616322
 30
0.0
 10
156.7724233210471
 20
149.4523667956091
 30
0.0
 10
156.4048500134723
 20
149.6055209163084
 30
0.0
 10
156.2101631518342
 20
149.6650246619544
 30
0.0
 10
155.8176872018977
 20
149.7435474110174
 30
0.0
 10
155.6182476854617
 20
149.7635553679542
 30
0.0
 10
155.212890391566
 20
149.7635553679542
 30
0.0
  0
LINE
  5
115
330
1F
100
AcDbEntity
  8
0
  6
HIDDEN
 62
     7
370
     0
100
AcDbLine
 10
160.4155690385
 20
153.963555368
 30
0.0
 11
160.4155690385
 21
139.463555368
 31
0.0
  0
LINE
  5
116
330
1F
100
AcDbEntity
  8
0
  6
HIDDEN
 62
     7
370
     0
100
AcDbLine
 10
159.4155690385
 20
138.463555368
 30
0.0
 11
159.4155690385
 21
154.9434587826
 31
0.0
  0
LINE
  5
117
330
1F
100
AcDbEntity
  8
0
  6
HIDDEN
 62
     7
370
     0
100
AcDbLine
 10
184.4155690385
 20
153.963555368
 30
0.0
 11
184.4155690385
 21
139.463555368
 31
0.0
  0
LINE
  5
118
330
1F
100
AcDbEntity
  8
0
  6
HIDDEN
 62
     7
370
     0
100
AcDbLine
 10
186.2181508956
 20
150.963555368
 30
0.0
 11
186.2181508956
 21
142.463555368
 31
0.0
  0
LINE
  5
119
330
1F
100
AcDbEntity
  8
0
  6
HIDDEN
 62
     7
370
     0
100
AcDbLine
 10
192.4155690385
 20
156.713555368
 30
0.0
 11
192.4155690385
 21
176.713555368
 31
0.0
  0
LINE
  5
11A
330
1F
100
AcDbEntity
  8
0
  6
HIDDEN
 62
     7
370
     0
100
AcDbLine
 10
192.4155690385
 20
156.713555368
 30
0.0
 11
200.9155690385
 21
156.713555368
 31
0.0
  0
LINE
  5
11B
330
1F
100
AcDbEntity
  8
0
  6
HIDDEN
 62
     7
370
     0
100
AcDbLine
 10
200.9155690385
 20
156.713555368
 30
0.0
 11
200.9155690385
 21
176.713555368
 31
0.0
  0
LINE
  5
11C
330
1F
100
AcDbEntity
  8
0
  6
HIDDEN
 62
     7
370
     0
100
AcDbLine
 10
192.4155690385
 20
176.713555368
 30
0.0
 11
200.9155690385
 21
176.713555368
 31
0.0
  0
LINE
  5
11D
330
1F
100
AcDbEntity
  8
0
  6
HIDDEN
 62
     7
370
     0
100
AcDbLine
 10
200.9155690385
 20
136.713555368
 30
0.0
 11
200.9155690385
 21
116.713555368
 31
0.0
  0
LINE
  5
11E
330
1F
100
AcDbEntity
  8
0
  6
HIDDEN
 62
     7
370
     0
100
AcDbLine
 10
192.4155690385
 20
136.713555368
 30
0.0
 11
200.9155690385
 21
136.713555368
 31
0.0
  0
LINE
  5
11F
330
1F
100
AcDbEntity
  8
0
  6
HIDDEN
 62
     7
370
     0
100
AcDbLine
 10
192.4155690385
 20
136.713555368
 30
0.0
 11
192.4155690385
 21
116.713555368
 31
0.0
  0
LINE
  5
120
330
1F
100
AcDbEntity
  8
0
  6
HIDDEN
 62
     7
370
     0
100
AcDbLine
 10
192.4155690385
 20
116.713555368
 30
0.0
 11
200.9155690385
 21
116.713555368
 31
0.0
  0
LINE
  5
121
330
1F
100
AcDbEntity
  8
0
  6
HIDDEN
 62
     7
370
     0
100
AcDbLine
 10
236.4155690385
 20
142.463555368
 30
0.0
 11
236.4155690385
 21
150.963555368
 31
0.0
  0
LINE
  5
122
330
1F
100
AcDbEntity
  8
0
  6
HIDDEN
 62
     7
370
     0
100
AcDbLine
 10
236.4155690385
 20
146.106903744
 30
0.0
 11
236.4155690385
 21
147.3202069919
 31
0.0
  0
LINE
  5
123
330
1F
100
AcDbEntity
  8
0
  6
HIDDEN
 62
     7
370
     0
100
AcDbLine
 10
265.46701188
 20
147.713555368
 30
0.0
 11
265.46701188
 21
145.713555368
 31
0.0
  0
LINE
  5
124
330
1F
100
AcDbEntity
  8
0
  6
HIDDEN
 62
     7
370
     0
100
AcDbLine
 10
267.4155690385
 20
144.588555368
 30
0.0
 11
267.4155690385
 21
148.8187630033
 31
0.0
  0
LINE
  5
125
330
1F
100
AcDbEntity
  8
0
  6
HIDDEN
 62
     7
370
     0
100
AcDbLine
 10
264.3155690385
 20
147.713555368
 30
0.0
 11
264.3155690385
 21
145.713555368
 31
0.0
  0
LINE
  5
126
330
1F
100
AcDbEntity
  8
0
  6
HIDDEN
 62
     7
370
     0
100
AcDbLine
 10
200.9155690385
 20
156.713555368
 30
0.0
 11
267.4155690385
 21
156.713555368
 31
0.0
  0
CIRCLE
  5
127
330
1F
100
AcDbEntity
  8
0
  6
HIDDEN
 62
     7
370
     0
100
AcDbCircle
 10
230.4155690385
 20
166.713555368
 30
0.0
 40
4.25
  0
CIRCLE
  5
128
330
1F
100
AcDbEntity
  8
0
  6
HIDDEN
 62
     7
370
     0
100
AcDbCircle
 10
254.9155690385
 20
166.713555368
 30
0.0
 40
4.25
  0
CIRCLE
  5
129
330
1F
100
AcDbEntity
  8
0
  6
HIDDEN
 62
     7
370
     0
100
AcDbCircle
 10
205.9155690385
 20
166.713555368
 30
0.0
 40
4.249999999999972
  0
LINE
  5
12A
330
1F
100
AcDbEntity
  8
0
  6
HIDDEN
 62
     7
370
     0
100
AcDbLine
 10
267.4155690385
 20
156.713555368
 30
0.0
 11
267.4155690385
 21
175.713555368
 31
0.0
  0
LINE
  5
12B
330
1F
100
AcDbEntity
  8
0
  6
HIDDEN
 62
     7
370
     0
100
AcDbLine
 10
266.4155690385
 20
176.713555368
 30
0.0
 11
267.4155690385
 21
175.713555368
 31
0.0
  0
LINE
  5
12C
330
1F
100
AcDbEntity
  8
0
  6
HIDDEN
 62
     7
370
     0
100
AcDbLine
 10
200.9155690385
 20
176.713555368
 30
0.0
 11
266.4155690385
 21
176.713555368
 31
0.0
  0
LINE
  5
12D
330
1F
100
AcDbEntity
  8
0
  6
HIDDEN
 62
     7
370
     0
100
AcDbLine
 10
200.9155690385
 20
136.713555368
 30
0.0
 11
267.4155690385
 21
136.713555368
 31
0.0
  0
CIRCLE
  5
12E
330
1F
100
AcDbEntity
  8
0
  6
HIDDEN
 62
     7
370
     0
100
AcDbCircle
 10
230.4155690385
 20
126.713555368
 30
0.0
 40
4.25
  0
CIRCLE
  5
12F
330
1F
100
AcDbEntity
  8
0
  6
HIDDEN
 62
     7
370
     0
100
AcDbCircle
 10
254.9155690385
 20
126.713555368
 30
0.0
 40
4.25
  0
CIRCLE
  5
130
330
1F
100
AcDbEntity
  8
0
  6
HIDDEN
 62
     7
370
     0
100
AcDbCircle
 10
205.9155690385
 20
126.713555368
 30
0.0
 40
4.25
  0
LINE
  5
131
330
1F
100
AcDbEntity
  8
0
  6
HIDDEN
 62
     7
370
     0
100
AcDbLine
 10
200.9155690385
 20
116.713555368
 30
0.0
 11
266.4155690385
 21
116.713555368
 31
0.0
  0
LINE
  5
132
330
1F
100
AcDbEntity
  8
0
  6
HIDDEN
 62
     7
370
     0
100
AcDbLine
 10
267.4155690385
 20
136.713555368
 30
0.0
 11
267.4155690385
 21
117.713555368
 31
0.0
  0
LINE
  5
133
330
1F
100
AcDbEntity
  8
0
  6
HIDDEN
 62
     7
370
     0
100
AcDbLine
 10
267.4155690385
 20
117.713555368
 30
0.0
 11
266.4155690385
 21
116.713555368
 31
0.0
  0
LINE
  5
134
330
1F
100
AcDbEntity
  8
0
  6
HIDDEN
 62
     7
370
     0
100
AcDbLine
 10
140.9155690385
 20
163.5729066099
 30
0.0
 11
140.9155690385
 21
158.7631278934
 31
0.0
  0
LINE
  5
135
330
1F
100
AcDbEntity
  8
0
  6
HIDDEN
 62
     7
370
     0
100
AcDbLine
 10
139.4155690385
 20
162.7068812061
 30
0.0
 11
139.4155690385
 21
158.3301151915
 31
0.0
  0
LINE
  5
136
330
1F
100
AcDbEntity
  8
0
  6
HIDDEN
 62
     7
370
     0
100
AcDbLine
 10
167.2155690385
 20
134.3336090712
 30
0.0
 11
167.2155690385
 21
129.1934565834
 31
0.0
  0
LINE
  5
137
330
1F
100
AcDbEntity
  8
0
  6
HIDDEN
 62
     7
370
     0
100
AcDbLine
 10
167.2155690385
 20
164.2336541525
 30
0.0
 11
167.2155690385
 21
159.0935016647
 31
0.0
  0
SPLINE
  5
138
330
1F
100
AcDbEntity
  8
0
  6
HIDDEN
 62
     7
370
     0
100
AcDbSpline
210
0.0
220
0.0
230
1.0
 70
     8
 71
     3
 72
    18
 73
    14
 74
     0
 42
0.00000001
 43
0.00000001
 12
1.0
 22
0.0
 32
0.0
 13
1.0
 23
0.0
 33
0.0
 40
0.0
 40
0.0
 40
0.0
 40
0.0
 40
0.2500000000000007
 40
0.2500000000000007
 40
0.3750000000000006
 40
0.3750000000000006
 40
0.5000000000000006
 40
0.5000000000000006
 40
0.6250000000000004
 40
0.6250000000000004
 40
0.7500000000000003
 40
0.7500000000000003
 40
1.0
 40
1.0
 40
1.0
 40
1.0
 10
168.0942486949542
 20
133.6185086444218
 30
0.0
 10
167.9589630886519
 20
133.0343070506901
 30
0.0
 10
167.8577953424089
 20
132.5000893634819
 30
0.0
 10
167.75493399954
 20
131.7741925925935
 30
0.0
 10
167.7288311540167
 20
131.5443121048136
 30
0.0
 10
167.6939411704719
 20
131.1137411600268
 30
0.0
 10
167.6853549121819
 20
130.9160462545326
 30
0.0
 10
167.6852552026162
 20
130.5546982118548
 30
0.0
 10
167.6937435737648
 20
130.3910482019087
 30
0.0
 10
167.7278869532853
 20
130.0978369289397
 30
0.0
 10
167.7536839351392
 20
129.9678408628239
 30
0.0
 10
167.8570850665271
 20
129.633784970262
 30
0.0
 10
167.9589430586985
 20
129.4880088058972
 30
0.0
 10
168.0942486949542
 20
129.4166454999493
 30
0.0
  0
SPLINE
  5
139
330
1F
100
AcDbEntity
  8
0
  6
HIDDEN
 62
     7
370
     0
100
AcDbSpline
210
0.0
220
0.0
230
1.0
 70
     8
 71
     3
 72
    18
 73
    14
 74
     0
 42
0.00000001
 43
0.00000001
 12
1.0
 22
0.0
 32
0.0
 13
1.0
 23
0.0
 33
0.0
 40
0.0
 40
0.0
 40
0.0
 40
0.0
 40
0.2499999999999998
 40
0.2499999999999998
 40
0.3749999999999999
 40
0.3749999999999999
 40
0.5
 40
0.5
 40
0.625
 40
0.625
 40
0.7500000000000001
 40
0.7500000000000001
 40
1.0
 40
1.0
 40
1.0
 40
1.0
 10
168.0942486949542
 20
164.010465235959
 30
0.0
 10
167.9589630886519
 20
163.9391124942695
 30
0.0
 10
167.8577953424089
 20
163.79370908768
 30
0.0
 10
167.75493399954
 20
163.4642418520744
 30
0.0
 10
167.7288311540167
 20
163.3353082752697
 30
0.0
 10
167.6939411704719
 20
163.0397662759335
 30
0.0
 10
167.6853549121819
 20
162.8753715024116
 30
0.0
 10
167.6852552026162
 20
162.514409887671
 30
0.0
 10
167.6937435737648
 20
162.3178400955088
 30
0.0
 10
167.7278869532853
 20
161.8924852993838
 30
0.0
 10
167.7536839351392
 20
161.6627156495842
 30
0.0
 10
167.8570850665271
 20
160.9301269551518
 30
0.0
 10
167.9589430586985
 20
160.3928901802342
 30
0.0
 10
168.0942486949542
 20
159.8086020914866
 30
0.0
  0
LINE
  5
13A
330
1F
100
AcDbEntity
  8
0
  6
HIDDEN
 62
     7
370
     0
100
AcDbLine
 10
140.9155690385
 20
134.6639828425
 30
0.0
 11
140.9155690385
 21
129.854204126
 31
0.0
  0
LINE
  5
13B
330
1F
100
AcDbEntity
  8
0
  6
HIDDEN
 62
     7
370
     0
100
AcDbLine
 10
139.4155690385
 20
135.0969955444
 30
0.0
 11
139.4155690385
 21
130.7202295298
 31
0.0
  0
LINE
  5
13C
330
1F
100
AcDbEntity
  8
0
  6
HIDDEN
 62
     7
370
     0
100
AcDbLine
 10
139.4155690385
 20
158.3301151915
 30
0.0
 11
139.4155690385
 21
149.0527262962
 31
0.0
  0
LINE
  5
13D
330
1F
100
AcDbEntity
  8
0
  6
HIDDEN
 62
     7
370
     0
100
AcDbLine
 10
139.4155690385
 20
144.3743844397
 30
0.0
 11
139.4155690385
 21
135.0969955444
 31
0.0
  0
LINE
  5
13E
330
1F
100
AcDbEntity
  8
0
  6
HIDDEN
 62
     7
370
     0
100
AcDbLine
 10
140.9155690385
 20
143.5650782496
 30
0.0
 11
140.9155690385
 21
134.6639828425
 31
0.0
  0
LINE
  5
13F
330
1F
100
AcDbEntity
  8
0
  6
HIDDEN
 62
     7
370
     0
100
AcDbLine
 10
140.9155690385
 20
158.7631278934
 30
0.0
 11
140.9155690385
 21
149.8620324863
 31
0.0
  0
LINE
  5
140
330
1F
100
AcDbEntity
  8
0
  6
HIDDEN
 62
     7
370
     0
100
AcDbLine
 10
167.2155690385
 20
159.0935016647
 30
0.0
 11
167.2155690385
 21
134.3336090712
 31
0.0
  0
LINE
  5
141
330
1F
100
AcDbEntity
  8
0
  6
HIDDEN
 62
     7
370
     0
100
AcDbLine
 10
169.2155690385
 20
158.275829601
 30
0.0
 11
169.2155690385
 21
135.1512811349
 31
0.0
  0
SPLINE
  5
142
330
1F
100
AcDbEntity
  8
0
  6
HIDDEN
 62
     7
370
     0
100
AcDbSpline
210
0.0
220
0.0
230
1.0
 70
     8
 71
     3
 72
     8
 73
     4
 74
     0
 42
0.00000001
 43
0.00000001
 12
1.0
 22
0.0
 32
0.0
 13
1.0
 23
0.0
 33
0.0
 40
0.0000202085968836
 40
0.0000202085968836
 40
0.0000202085968836
 40
0.0000202085968836
 40
0.0040218806502652
 40
0.0040218806502652
 40
0.0040218806502652
 40
0.0040218806502652
 10
140.9155690385139
 20
143.5650782496174
 30
0.0
 10
142.2488921643045
 20
143.5410800184538
 30
0.0
 10
143.5822260375271
 20
143.5177522782855
 30
0.0
 10
144.9155690385139
 20
143.4950576075051
 30
0.0
  0
SPLINE
  5
143
330
1F
100
AcDbEntity
  8
0
  6
HIDDEN
 62
     7
370
     0
100
AcDbSpline
210
0.0
220
0.0
230
1.0
 70
     8
 71
     3
 72
     8
 73
     4
 74
     0
 42
0.00000001
 43
0.00000001
 12
1.0
 22
0.0
 32
0.0
 13
1.0
 23
0.0
 33
0.0
 40
0.0000202082942178
 40
0.0000202082942178
 40
0.0000202082942178
 40
0.0000202082942178
 40
0.0040218803475994
 40
0.0040218803475994
 40
0.0040218803475994
 40
0.0040218803475994
 10
144.9155690385139
 20
149.9320531284033
 30
0.0
 10
143.5822260375271
 20
149.9093584576228
 30
0.0
 10
142.2488921643045
 20
149.8860307174545
 30
0.0
 10
140.9155690385139
 20
149.8620324862909
 30
0.0
  0
SPLINE
  5
144
330
1F
100
AcDbEntity
  8
0
  6
HIDDEN
 62
     7
370
     0
100
AcDbSpline
210
0.0
220
0.0
230
1.0
 70
     8
 71
     3
 72
     8
 73
     4
 74
     0
 42
0.00000001
 43
0.00000001
 12
1.0
 22
0.0
 32
0.0
 13
1.0
 23
0.0
 33
0.0
 40
0.0
 40
0.0
 40
0.0
 40
0.0
 40
1.0
 40
1.0
 40
1.0
 40
1.0
 10
139.415569038513
 20
144.3743844397198
 30
0.0
 10
139.8897804489509
 20
144.0396552124247
 30
0.0
 10
140.3945167960528
 20
143.7805967985917
 30
0.0
 10
140.9155690385139
 20
143.5650782496174
 30
0.0
  0
SPLINE
  5
145
330
1F
100
AcDbEntity
  8
0
  6
HIDDEN
 62
     7
370
     0
100
AcDbSpline
210
0.0
220
0.0
230
1.0
 70
     8
 71
     3
 72
     8
 73
     4
 74
     0
 42
0.00000001
 43
0.00000001
 12
1.0
 22
0.0
 32
0.0
 13
1.0
 23
0.0
 33
0.0
 40
0.0
 40
0.0
 40
0.0
 40
0.0
 40
1.0
 40
1.0
 40
1.0
 40
1.0
 10
140.9155690385139
 20
149.8620324862909
 30
0.0
 10
140.3945167960531
 20
149.6465139373167
 30
0.0
 10
139.8897804489516
 20
149.387455523484
 30
0.0
 10
139.4155690385139
 20
149.0527262961892
 30
0.0
  0
LINE
  5
146
330
1F
100
AcDbEntity
  8
0
  6
HIDDEN
 62
     7
370
     0
100
AcDbLine
 10
139.4155690385
 20
144.3743844397
 30
0.0
 11
139.4155690385
 21
149.0527262962
 31
0.0
  0
LINE
  5
147
330
1F
100
AcDbEntity
  8
0
  6
HIDDEN
 62
     7
370
     0
100
AcDbLine
 10
144.9155690385
 20
143.4950576075
 30
0.0
 11
144.9155690385
 21
149.9320531284
 31
0.0
  0
SPLINE
  5
148
330
1F
100
AcDbEntity
  8
0
  6
HIDDEN
 62
     7
370
     0
100
AcDbSpline
210
0.0
220
0.0
230
1.0
 70
     8
 71
     3
 72
    26
 73
    22
 74
     0
 42
0.00000001
 43
0.00000001
 12
1.0
 22
0.0
 32
0.0
 13
1.0
 23
0.0
 33
0.0
 40
0.0
 40
0.0
 40
0.0
 40
0.0
 40
0.1250000000000002
 40
0.1250000000000002
 40
0.2500000000000003
 40
0.2500000000000003
 40
0.3750000000000005
 40
0.3750000000000005
 40
0.4375000000000006
 40
0.4375000000000006
 40
0.5000000000000007
 40
0.5000000000000007
 40
0.5625000000000008
 40
0.5625000000000008
 40
0.6250000000000009
 40
0.6250000000000009
 40
0.7500000000000006
 40
0.7500000000000006
 40
0.8750000000000002
 40
0.8750000000000002
 40
1.0
 40
1.0
 40
1.0
 40
1.0
 10
144.9155690385139
 20
143.4950576075051
 30
0.0
 10
145.1262124005138
 20
143.7296746384501
 30
0.0
 10
145.3334088382708
 20
143.9675577744096
 30
0.0
 10
145.7349079729032
 20
144.4548720806785
 30
0.0
 10
145.9301843919492
 20
144.7049973054675
 30
0.0
 10
146.2899648846446
 20
145.2235874509184
 30
0.0
 10
146.455223744794
 20
145.4910184348053
 30
0.0
 10
146.6478816542202
 20
145.9224335672038
 30
0.0
 10
146.7028463944302
 20
146.0724524491281
 30
0.0
 10
146.7805821793943
 20
146.3851896278582
 30
0.0
 10
146.8018483177026
 20
146.5429438746654
 30
0.0
 10
146.8037422469884
 20
146.8616491545112
 30
0.0
 10
146.7835165099214
 20
147.0240859546917
 30
0.0
 10
146.7090520996355
 20
147.3350379542744
 30
0.0
 10
146.6554129738896
 20
147.4857091926021
 30
0.0
 10
146.4606686684889
 20
147.9277929505706
 30
0.0
 10
146.2936185553106
 20
148.1978369637384
 30
0.0
 10
145.933362436607
 20
148.7179445920198
 30
0.0
 10
145.7386100615866
 20
148.9676058048294
 30
0.0
 10
145.3356008371144
 20
149.4570299166722
 30
0.0
 10
145.1271643187509
 20
149.6963758398362
 30
0.0
 10
144.9155690385148
 20
149.932053128404
 30
0.0
  0
SPLINE
  5
149
330
1F
100
AcDbEntity
  8
0
  6
HIDDEN
 62
     7
370
     0
100
AcDbSpline
210
0.0
220
0.0
230
1.0
 70
     8
 71
     3
 72
    68
 73
    64
 74
     0
 42
0.00000001
 43
0.00000001
 12
1.0
 22
0.0
 32
0.0
 13
1.0
 23
0.0
 33
0.0
 40
-0.0312499999999998
 40
-0.0312499999999998
 40
0.0
 40
0.0
 40
0.0312500000000002
 40
0.0312500000000002
 40
0.0625000000000005
 40
0.0625000000000005
 40
0.0937500000000007
 40
0.0937500000000007
 40
0.1250000000000009
 40
0.1250000000000009
 40
0.1875000000000011
 40
0.1875000000000011
 40
0.2187500000000012
 40
0.2187500000000012
 40
0.2500000000000013
 40
0.2500000000000013
 40
0.2812500000000014
 40
0.2812500000000014
 40
0.3125000000000015
 40
0.3125000000000015
 40
0.3437500000000016
 40
0.3437500000000016
 40
0.3750000000000016
 40
0.3750000000000016
 40
0.4062500000000017
 40
0.4062500000000017
 40
0.4375000000000018
 40
0.4375000000000018
 40
0.4687500000000018
 40
0.4687500000000018
 40
0.5000000000000019
 40
0.5000000000000019
 40
0.5312500000000019
 40
0.5312500000000019
 40
0.5625000000000019
 40
0.5625000000000019
 40
0.5937500000000019
 40
0.5937500000000019
 40
0.6250000000000019
 40
0.6250000000000019
 40
0.6562500000000019
 40
0.6562500000000019
 40
0.6875000000000019
 40
0.6875000000000019
 40
0.7187500000000019
 40
0.7187500000000019
 40
0.7500000000000017
 40
0.7500000000000017
 40
0.7812500000000016
 40
0.7812500000000016
 40
0.8125000000000013
 40
0.8125000000000013
 40
0.8437500000000011
 40
0.8437500000000011
 40
0.8750000000000009
 40
0.8750000000000009
 40
0.9062500000000007
 40
0.9062500000000007
 40
0.9375000000000004
 40
0.9375000000000004
 40
0.9687500000000002
 40
0.9687500000000002
 40
1.0
 40
1.0
 40
1.03125
 40
1.03125
 10
152.7993953258504
 20
148.6103729445708
 30
0.0
 10
153.0898598081422
 20
148.9288051855713
 30
0.0
 10
153.2487761065236
 20
149.071322711275
 30
0.0
 10
153.5923567921615
 20
149.3250372483647
 30
0.0
 10
153.7785281450672
 20
149.4366010748736
 30
0.0
 10
154.1630582176529
 20
149.6208501115427
 30
0.0
 10
154.3626687198176
 20
149.6947643776315
 30
0.0
 10
154.7765083047912
 20
149.8064062671916
 30
0.0
 10
154.9893181144624
 20
149.8433303214805
 30
0.0
 10
155.6252495888031
 20
149.895932142056
 30
0.0
 10
156.0603158094308
 20
149.8537237513958
 30
0.0
 10
156.6725586764185
 20
149.6798891462004
 30
0.0
 10
156.8724037645305
 20
149.6032709183883
 30
0.0
 10
157.2567810732587
 20
149.4130960500454
 30
0.0
 10
157.4373294641212
 20
149.3017366158269
 30
0.0
 10
157.7753893918307
 20
149.0466313471045
 30
0.0
 10
157.934421208242
 20
148.9011255589118
 30
0.0
 10
158.2192178884644
 20
148.5828869047389
 30
0.0
 10
158.3441634173393
 20
148.4118345862198
 30
0.0
 10
158.558465557753
 20
148.0452740001067
 30
0.0
 10
158.6483643369278
 20
147.847205266304
 30
0.0
 10
158.7820166260568
 20
147.4426225130946
 30
0.0
 10
158.8270245613708
 20
147.2350073330775
 30
0.0
 10
158.8718040419882
 20
146.8087175766487
 30
0.0
 10
158.8707303809724
 20
146.5920792787003
 30
0.0
 10
158.8227105872569
 20
146.169119251743
 30
0.0
 10
158.775297610032
 20
145.9581225664836
 30
0.0
 10
158.6369823612153
 20
145.5523338510518
 30
0.0
 10
158.5473015029932
 20
145.3593871923893
 30
0.0
 10
158.328618792666
 20
144.9924805694058
 30
0.0
 10
158.1991710748373
 20
144.8189754211838
 30
0.0
 10
157.9126654708078
 20
144.5049733231931
 30
0.0
 10
157.7538066525698
 20
144.3618703967388
 30
0.0
 10
157.4088088306169
 20
144.1065394808857
 30
0.0
 10
157.2265917264966
 20
143.9970073032853
 30
0.0
 10
156.8437516498576
 20
143.812080476497
 30
0.0
 10
156.6410074247844
 20
143.7362646496556
 30
0.0
 10
156.2291788503211
 20
143.6236841574135
 30
0.0
 10
156.0199600737215
 20
143.5863439378288
 30
0.0
 10
155.5949672394871
 20
143.5491129182987
 30
0.0
 10
155.3778099624139
 20
143.5496788822303
 30
0.0
 10
154.9534321232607
 20
143.5890765861197
 30
0.0
 10
154.7443154754111
 20
143.6275058207539
 30
0.0
 10
154.3323744865171
 20
143.7427108552913
 30
0.0
 10
154.129806381624
 20
143.8199757857958
 30
0.0
 10
153.7482059391566
 20
144.0076580559277
 30
0.0
 10
153.5668950032775
 20
144.1185714077397
 30
0.0
 10
153.2243031063434
 20
144.3765248464705
 30
0.0
 10
153.0654794893892
 20
144.5222405420799
 30
0.0
 10
152.7824347102889
 20
144.8385616997894
 30
0.0
 10
152.656424778303
 20
145.0105954111885
 30
0.0
 10
152.4393177344882
 20
145.3831379891775
 30
0.0
 10
152.3518824382143
 20
145.5772597744516
 30
0.0
 10
152.2186891576667
 20
145.9810345035311
 30
0.0
 10
152.1727885755621
 20
146.1935314301387
 30
0.0
 10
152.1284720346283
 20
146.6191272909968
 30
0.0
 10
152.1293142221107
 20
146.831961129266
 30
0.0
 10
152.1771529165317
 20
147.2577008590959
 30
0.0
 10
152.2246887720009
 20
147.4694630245091
 30
0.0
 10
152.3614273672288
 20
147.8729525589663
 30
0.0
 10
152.4517109125044
 20
148.0687111799194
 30
0.0
 10
152.6714218047694
 20
148.4383114066675
 30
0.0
 10
152.7993953258504
 20
148.6103729445708
 30
0.0
 10
153.0898598081422
 20
148.9288051855713
 30
0.0
  0
CIRCLE
  5
14A
330
1F
100
AcDbEntity
  8
0
  6
HIDDEN
 62
     7
370
     0
100
AcDbCircle
 10
155.4155690385
 20
146.713555368
 30
0.0
 40
3.049999999999983
  0
LINE
  5
14B
330
1F
100
AcDbEntity
  8
0
  6
HIDDEN
 62
     7
370
     0
100
AcDbLine
 10
200.9155690385
 20
156.713555368
 30
0.0
 11
192.4155690385
 21
156.713555368
 31
0.0
  0
LINE
  5
14C
330
1F
100
AcDbEntity
  8
0
  6
HIDDEN
 62
     7
370
     0
100
AcDbLine
 10
200.9155690385
 20
176.713555368
 30
0.0
 11
192.4155690385
 21
176.713555368
 31
0.0
  0
LINE
  5
14D
330
1F
100
AcDbEntity
  8
0
  6
HIDDEN
 62
     7
370
     0
100
AcDbLine
 10
200.9155690385
 20
136.713555368
 30
0.0
 11
192.4155690385
 21
136.713555368
 31
0.0
  0
LINE
  5
14E
330
1F
100
AcDbEntity
  8
0
  6
HIDDEN
 62
     7
370
     0
100
AcDbLine
 10
200.9155690385
 20
116.713555368
 30
0.0
 11
192.4155690385
 21
116.713555368
 31
0.0
  0
CIRCLE
  5
14F
330
1F
100
AcDbEntity
  8
0
  6
HIDDEN
 62
     7
370
     0
100
AcDbCircle
 10
181.4155690385
 20
146.713555368
 30
0.0
 40
1.999999999999972
  0
SPLINE
  5
150
330
1F
100
AcDbEntity
  8
0
  6
HIDDEN
 62
     7
370
     0
100
AcDbSpline
210
0.0
220
0.0
230
1.0
 70
     8
 71
     3
 72
    18
 73
    14
 74
     0
 42
0.00000001
 43
0.00000001
 12
1.0
 22
0.0
 32
0.0
 13
1.0
 23
0.0
 33
0.0
 40
0.0
 40
0.0
 40
0.0
 40
0.0
 40
0.1250000000000013
 40
0.1250000000000013
 40
0.2500000000000026
 40
0.2500000000000026
 40
0.3750000000000038
 40
0.3750000000000038
 40
0.5000000000000051
 40
0.5000000000000051
 40
0.7500000000000026
 40
0.7500000000000026
 40
1.0
 40
1.0
 40
1.0
 40
1.0
 10
191.4155690385139
 20
127.3486386369171
 30
0.0
 10
191.3050466187374
 20
127.3486386369171
 30
0.0
 10
191.2012097584257
 20
127.3872164790419
 30
0.0
 10
191.0214045267488
 20
127.5063077904964
 30
0.0
 10
190.9454592475026
 20
127.5851979782538
 30
0.0
 10
190.8157114946818
 20
127.7571095045947
 30
0.0
 10
190.7613329170672
 20
127.8511213452966
 30
0.0
 10
190.6685950428575
 20
128.0438167846062
 30
0.0
 10
190.6297245561508
 20
128.1435660713026
 30
0.0
 10
190.529538392436
 20
128.4502650371447
 30
0.0
 10
190.485768012561
 20
128.6600815641735
 30
0.0
 10
190.4287044101684
 20
129.0815919121212
 30
0.0
 10
190.4155690385139
 20
129.2943808333498
 30
0.0
 10
190.4155690385139
 20
129.5089048338689
 30
0.0
  0
SPLINE
  5
151
330
1F
100
AcDbEntity
  8
0
  6
HIDDEN
 62
     7
370
     0
100
AcDbSpline
210
0.0
220
0.0
230
1.0
 70
    24
 71
     3
 72
    16
 73
    12
 74
     0
 42
0.00000001
 43
0.00000001
 12
1.0
 22
0.0
 32
0.0
 13
1.0
 23
0.0
 33
0.0
 40
0.0
 40
0.0
 40
0.0
 40
0.0
 40
0.2500000000000024
 40
0.2500000000000024
 40
0.5000000000000049
 40
0.5000000000000049
 40
0.6250000000000039
 40
0.6250000000000039
 40
0.7500000000000029
 40
0.7500000000000029
 40
1.0
 40
1.0
 40
1.0
 40
1.0
 10
190.4155690385139
 20
116.7135553679542
 30
0.0
 10
190.4155690385139
 20
116.7135553679542
 30
0.0
 10
190.4326037920071
 20
116.7135553679542
 30
0.0
 10
190.5041757719725
 20
116.7135553679542
 30
0.0
 10
190.5584754854885
 20
116.7135553679542
 30
0.0
 10
190.676319941587
 20
116.7135553679542
 30
0.0
 10
190.721160918136
 20
116.7135553679542
 30
0.0
 10
190.8247746023672
 20
116.7135553679542
 30
0.0
 10
190.8840071945289
 20
116.7135553679542
 30
0.0
 10
191.0807067565383
 20
116.7135553679542
 30
0.0
 10
191.2449957256208
 20
116.7135553679542
 30
0.0
 10
191.4155690385139
 20
116.7135553679542
 30
0.0
  0
LINE
  5
152
330
1F
100
AcDbEntity
  8
0
  6
HIDDEN
 62
     7
370
     0
100
AcDbLine
 10
190.4155690385
 20
129.5089048339
 30
0.0
 11
190.4155690385
 21
116.713555368
 31
0.0
  0
SPLINE
  5
153
330
1F
100
AcDbEntity
  8
0
  6
HIDDEN
 62
     7
370
     0
100
AcDbSpline
210
0.0
220
0.0
230
1.0
 70
     8
 71
     3
 72
    18
 73
    14
 74
     0
 42
0.00000001
 43
0.00000001
 12
1.0
 22
0.0
 32
0.0
 13
1.0
 23
0.0
 33
0.0
 40
0.0
 40
0.0
 40
0.0
 40
0.0
 40
0.25
 40
0.25
 40
0.5
 40
0.5
 40
0.625
 40
0.625
 40
0.75
 40
0.75
 40
0.875
 40
0.875
 40
1.0
 40
1.0
 40
1.0
 40
1.0
 10
190.4155690385139
 20
163.9182059020391
 30
0.0
 10
190.4155690385139
 20
164.131099807171
 30
0.0
 10
190.4284886838985
 20
164.3432065949081
 30
0.0
 10
190.4854676856195
 20
164.765523012416
 30
0.0
 10
190.5298722516891
 20
164.9777261806753
 30
0.0
 10
190.6292857531382
 20
165.2822718503119
 30
0.0
 10
190.6679232378267
 20
165.3817060177431
 30
0.0
 10
190.7606369007186
 20
165.5747323849717
 30
0.0
 10
190.8151766702388
 20
165.669181227674
 30
0.0
 10
190.9450292495558
 20
165.8414535788707
 30
0.0
 10
191.0210431716283
 20
165.9203967519464
 30
0.0
 10
191.200035239265
 20
166.0392817614995
 30
0.0
 10
191.3070480660179
 20
166.0784720989912
 30
0.0
 10
191.4155690385139
 20
166.0784720989912
 30
0.0
  0
SPLINE
  5
154
330
1F
100
AcDbEntity
  8
0
  6
HIDDEN
 62
     7
370
     0
100
AcDbSpline
210
0.0
220
0.0
230
1.0
 70
    24
 71
     3
 72
    16
 73
    12
 74
     0
 42
0.00000001
 43
0.00000001
 12
1.0
 22
0.0
 32
0.0
 13
1.0
 23
0.0
 33
0.0
 40
0.0
 40
0.0
 40
0.0
 40
0.0
 40
0.1250000000000015
 40
0.1250000000000015
 40
0.250000000000003
 40
0.250000000000003
 40
0.500000000000002
 40
0.500000000000002
 40
0.750000000000001
 40
0.750000000000001
 40
1.0
 40
1.0
 40
1.0
 40
1.0
 10
191.4155690385139
 20
176.7135553679542
 30
0.0
 10
191.3310396259185
 20
176.7135553679542
 30
0.0
 10
191.2466701494468
 20
176.7135553679541
 30
0.0
 10
191.088027216426
 20
176.7135553679542
 30
0.0
 10
191.0162343756183
 20
176.7135553679542
 30
0.0
 10
190.8180551998755
 20
176.7135553679542
 30
0.0
 10
190.7154175691994
 20
176.7135553679541
 30
0.0
 10
190.5583356401978
 20
176.7135553679542
 30
0.0
 10
190.5043247598807
 20
176.7135553679542
 30
0.0
 10
190.4321973018461
 20
176.7135553679542
 30
0.0
 10
190.4155690385139
 20
176.7135553679542
 30
0.0
 10
190.4155690385139
 20
176.7135553679542
 30
0.0
  0
LINE
  5
155
330
1F
100
AcDbEntity
  8
0
  6
HIDDEN
 62
     7
370
     0
100
AcDbLine
 10
190.4155690385
 20
176.713555368
 30
0.0
 11
190.4155690385
 21
163.918205902
 31
0.0
  0
LINE
  5
156
330
1F
100
AcDbEntity
  8
0
  6
HIDDEN
 62
     7
370
     0
100
AcDbLine
 10
266.4155690385
 20
176.713555368
 30
0.0
 11
267.4155690385
 21
175.713555368
 31
0.0
  0
LINE
  5
157
330
1F
100
AcDbEntity
  8
0
  6
HIDDEN
 62
     7
370
     0
100
AcDbLine
 10
267.4155690385
 20
175.713555368
 30
0.0
 11
267.4155690385
 21
166.078472099
 31
0.0
  0
LINE
  5
158
330
1F
100
AcDbEntity
  8
0
  6
HIDDEN
 62
     7
370
     0
100
AcDbLine
 10
266.4155690385
 20
176.713555368
 30
0.0
 11
191.4155690385
 21
176.713555368
 31
0.0
  0
LINE
  5
159
330
1F
100
AcDbEntity
  8
0
  6
HIDDEN
 62
     7
370
     0
100
AcDbLine
 10
267.4155690385
 20
117.713555368
 30
0.0
 11
266.4155690385
 21
116.713555368
 31
0.0
  0
LINE
  5
15A
330
1F
100
AcDbEntity
  8
0
  6
HIDDEN
 62
     7
370
     0
100
AcDbLine
 10
191.4155690385
 20
116.713555368
 30
0.0
 11
266.4155690385
 21
116.713555368
 31
0.0
  0
LINE
  5
15B
330
1F
100
AcDbEntity
  8
0
  6
HIDDEN
 62
     7
370
     0
100
AcDbLine
 10
267.4155690385
 20
127.3486386369
 30
0.0
 11
267.4155690385
 21
117.713555368
 31
0.0
  0
LINE
  5
15C
330
1F
100
AcDbEntity
  8
0
  6
HIDDEN
 62
     7
370
     0
100
AcDbLine
 10
267.4155690385
 20
127.3486386369
 30
0.0
 11
191.4155690385
 21
127.3486386369
 31
0.0
  0
LINE
  5
15D
330
1F
100
AcDbEntity
  8
0
  6
HIDDEN
 62
     7
370
     0
100
AcDbLine
 10
191.4155690385
 20
166.078472099
 30
0.0
 11
267.4155690385
 21
166.078472099
 31
0.0
  0
LINE
  5
15E
330
1F
100
AcDbEntity
  8
0
  6
HIDDEN
 62
     7
370
     0
100
AcDbLine
 10
267.4155690385
 20
166.078472099
 30
0.0
 11
267.4155690385
 21
127.3486386369
 31
0.0
  0
LINE
  5
15F
330
1F
100
AcDbEntity
  8
0
  6
HIDDEN
 62
     7
370
     0
100
AcDbLine
 10
190.4155690385
 20
129.5089048339
 30
0.0
 11
190.4155690385
 21
163.918205902
 31
0.0
  0
LINE
  5
160
330
1F
100
AcDbEntity
  8
0
  6
HIDDEN
 62
     7
370
     0
100
AcDbLine
 10
169.4155690385
 20
127.163555368
 30
0.0
 11
169.5084622573
 21
127.2564485868
 31
0.0
  0
LINE
  5
161
330
1F
100
AcDbEntity
  8
0
  6
HIDDEN
 62
     7
370
     0
100
AcDbLine
 10
169.5084622573
 20
166.1706621491
 30
0.0
 11
169.4155690385
 21
166.263555368
 31
0.0
  0
ARC
  5
162
330
1F
100
AcDbEntity
  8
0
  6
HIDDEN
 62
     7
370
     0
100
AcDbCircle
 10
168.8013554761
 20
127.963555368
 30
0.0
 40
1.000000000000018
100
AcDbArc
 50
315.0
 51
0.0
  0
ARC
  5
163
330
1F
100
AcDbEntity
  8
0
  6
HIDDEN
 62
     7
370
     0
100
AcDbCircle
 10
168.8013554761
 20
127.963555368
 30
0.0
 40
1.0
100
AcDbArc
 50
0.0
 51
52.1052014664
  0
ARC
  5
164
330
1F
100
AcDbEntity
  8
0
  6
HIDDEN
 62
     7
370
     0
100
AcDbCircle
 10
168.8013554761
 20
165.463555368
 30
0.0
 40
1.00000000000003
100
AcDbArc
 50
351.8087250651
 51
45.0
  0
ARC
  5
165
330
1F
100
AcDbEntity
  8
0
  6
HIDDEN
 62
     7
370
     0
100
AcDbCircle
 10
168.8013554761
 20
165.463555368
 30
0.0
 40
1.00000000000003
100
AcDbArc
 50
307.8947985336
 51
351.8087250651
  0
LINE
  5
166
330
1F
100
AcDbEntity
  8
0
  6
HIDDEN
 62
     7
370
     0
100
AcDbLine
 10
169.8013554761
 20
127.963555368
 30
0.0
 11
169.8013554761
 21
165.463555368
 31
0.0
  0
LINE
  5
167
330
1F
100
AcDbEntity
  8
0
  6
HIDDEN
 62
     7
370
     0
100
AcDbLine
 10
169.8013554761
 20
127.963555368
 30
0.0
 11
169.8013554761
 21
165.463555368
 31
0.0
  0
LINE
  5
168
330
1F
100
AcDbEntity
  8
0
  6
HIDDEN
 62
     7
370
     0
100
AcDbLine
 10
267.4155690385
 20
144.713555368
 30
0.0
 11
259.4155690385
 21
144.713555368
 31
0.0
  0
LINE
  5
169
330
1F
100
AcDbEntity
  8
0
  6
HIDDEN
 62
     7
370
     0
100
AcDbLine
 10
259.4155690385
 20
132.713555368
 30
0.0
 11
267.4155690385
 21
132.713555368
 31
0.0
  0
LINE
  5
16A
330
1F
100
AcDbEntity
  8
0
  6
HIDDEN
 62
     7
370
     0
100
AcDbLine
 10
267.4155690385
 20
160.713555368
 30
0.0
 11
259.4155690385
 21
160.713555368
 31
0.0
  0
LINE
  5
16B
330
1F
100
AcDbEntity
  8
0
  6
HIDDEN
 62
     7
370
     0
100
AcDbLine
 10
259.4155690385
 20
148.713555368
 30
0.0
 11
267.4155690385
 21
148.713555368
 31
0.0
  0
LINE
  5
16C
330
1F
100
AcDbEntity
  8
0
  6
HIDDEN
 62
     7
370
     0
100
AcDbLine
 10
259.4155690385
 20
141.4373690229
 30
0.0
 11
239.0174905667
 21
146.713555368
 31
0.0
  0
LINE
  5
16D
330
1F
100
AcDbEntity
  8
0
  6
HIDDEN
 62
     7
370
     0
100
AcDbLine
 10
236.0506970962
 20
143.1427220666
 30
0.0
 11
259.4155690385
 21
137.0991421055
 31
0.0
  0
LINE
  5
16E
330
1F
100
AcDbEntity
  8
0
  6
HIDDEN
 62
     7
370
     0
100
AcDbLine
 10
259.4155690385
 20
156.3279686304
 30
0.0
 11
236.0557796715
 21
150.2857033331
 31
0.0
  0
LINE
  5
16F
330
1F
100
AcDbEntity
  8
0
  6
HIDDEN
 62
     7
370
     0
100
AcDbLine
 10
239.0174905667
 20
146.713555368
 30
0.0
 11
259.4155690385
 21
151.989741713
 31
0.0
  0
ARC
  5
170
330
1F
100
AcDbEntity
  8
0
  6
HIDDEN
 62
     7
370
     0
100
AcDbCircle
 10
146.9222885506
 20
136.213555368
 30
0.0
 40
1.5
100
AcDbArc
 50
270.0
 51
315.0
  0
ARC
  5
171
330
1F
100
AcDbEntity
  8
0
  6
HIDDEN
 62
     7
370
     0
100
AcDbCircle
 10
146.9222885506
 20
157.213555368
 30
0.0
 40
1.5
100
AcDbArc
 50
45.0
 51
90.0
  0
LINE
  5
172
330
1F
100
AcDbEntity
  8
0
  6
HIDDEN
 62
     7
370
     0
100
AcDbLine
 10
145.9155690385
 20
134.713555368
 30
0.0
 11
146.9222885506
 21
134.713555368
 31
0.0
  0
LINE
  5
173
330
1F
100
AcDbEntity
  8
0
  6
HIDDEN
 62
     7
370
     0
100
AcDbLine
 10
146.9222885506
 20
158.713555368
 30
0.0
 11
145.9155690385
 21
158.713555368
 31
0.0
  0
ARC
  5
174
330
1F
100
AcDbEntity
  8
0
  6
HIDDEN
 62
     7
370
     0
100
AcDbCircle
 10
145.9155690385
 20
136.213555368
 30
0.0
 40
1.500000000000014
100
AcDbArc
 50
191.0958032831
 51
270.0
  0
ARC
  5
175
330
1F
100
AcDbEntity
  8
0
  6
HIDDEN
 62
     7
370
     0
100
AcDbCircle
 10
145.9155690385
 20
157.213555368
 30
0.0
 40
1.500000000000014
100
AcDbArc
 50
90.0
 51
168.9041967169
  0
LINE
  5
176
330
1F
100
AcDbEntity
  8
0
  6
HIDDEN
 62
     7
370
     0
100
AcDbLine
 10
139.4155690385
 20
134.9501432995
 30
0.0
 11
140.4436088941
 21
135.5436823869
 31
0.0
  0
LINE
  5
177
330
1F
100
AcDbEntity
  8
0
  6
HIDDEN
 62
     7
370
     0
100
AcDbLine
 10
140.4436088941
 20
157.883428349
 30
0.0
 11
139.4155690385
 21
158.4769674364
 31
0.0
  0
LINE
  5
178
330
1F
100
AcDbEntity
  8
0
  6
HIDDEN
 62
     7
370
     0
100
AcDbLine
 10
147.9829487223
 20
135.1528951962
 30
0.0
 11
149.0436088941
 21
136.213555368
 31
0.0
  0
LINE
  5
179
330
1F
100
AcDbEntity
  8
0
  6
HIDDEN
 62
     7
370
     0
100
AcDbLine
 10
149.0436088941
 20
157.213555368
 30
0.0
 11
147.9829487223
 21
158.2742155397
 31
0.0
  0
LINE
  5
17A
330
1F
100
AcDbEntity
  8
0
  6
HIDDEN
 62
     7
370
     0
100
AcDbLine
 10
140.4436088941
 20
135.5436823869
 30
0.0
 11
142.9436088941
 21
136.213555368
 31
0.0
  0
LINE
  5
17B
330
1F
100
AcDbEntity
  8
0
  6
HIDDEN
 62
     7
370
     0
100
AcDbLine
 10
142.9436088941
 20
157.213555368
 30
0.0
 11
140.4436088941
 21
157.883428349
 31
0.0
  0
LINE
  5
17C
330
1F
100
AcDbEntity
  8
0
  6
HIDDEN
 62
     7
370
     0
100
AcDbLine
 10
144.4436088941
 20
157.5022305025
 30
0.0
 11
143.9436088941
 21
157.213555368
 31
0.0
  0
LINE
  5
17D
330
1F
100
AcDbEntity
  8
0
  6
HIDDEN
 62
     7
370
     0
100
AcDbLine
 10
143.9436088941
 20
136.213555368
 30
0.0
 11
144.4436088941
 21
135.9248802334
 31
0.0
  0
LINE
  5
17E
330
1F
100
AcDbEntity
  8
0
  6
HIDDEN
 62
     7
370
     0
100
AcDbLine
 10
142.9436088941
 20
136.213555368
 30
0.0
 11
143.9436088941
 21
136.213555368
 31
0.0
  0
LINE
  5
17F
330
1F
100
AcDbEntity
  8
0
  6
HIDDEN
 62
     7
370
     0
100
AcDbLine
 10
143.9436088941
 20
157.213555368
 30
0.0
 11
142.9436088941
 21
157.213555368
 31
0.0
  0
ARC
  5
180
330
1F
100
AcDbEntity
  8
0
  6
HIDDEN
 62
     7
370
     0
100
AcDbCircle
 10
158.9155690385
 20
136.713555368
 30
0.0
 40
0.5
100
AcDbArc
 50
270.0
 51
0.0
  0
ARC
  5
181
330
1F
100
AcDbEntity
  8
0
  6
HIDDEN
 62
     7
370
     0
100
AcDbCircle
 10
158.9155690385
 20
156.713555368
 30
0.0
 40
0.5
100
AcDbArc
 50
0.0
 51
90.0
  0
LINE
  5
182
330
1F
100
AcDbEntity
  8
0
  6
HIDDEN
 62
     7
370
     0
100
AcDbLine
 10
149.0436088941
 20
136.213555368
 30
0.0
 11
158.9155690385
 21
136.213555368
 31
0.0
  0
LINE
  5
183
330
1F
100
AcDbEntity
  8
0
  6
HIDDEN
 62
     7
370
     0
100
AcDbLine
 10
158.9155690385
 20
157.213555368
 30
0.0
 11
149.0436088941
 21
157.213555368
 31
0.0
  0
LINE
  5
184
330
1F
100
AcDbEntity
  8
0
  6
HIDDEN
 62
     7
370
     0
100
AcDbLine
 10
159.4155690385
 20
138.463555368
 30
0.0
 11
160.4155690385
 21
139.463555368
 31
0.0
  0
LINE
  5
185
330
1F
100
AcDbEntity
  8
0
  6
HIDDEN
 62
     7
370
     0
100
AcDbLine
 10
160.4155690385
 20
153.963555368
 30
0.0
 11
159.4155690385
 21
154.963555368
 31
0.0
  0
LINE
  5
186
330
1F
100
AcDbEntity
  8
0
  6
HIDDEN
 62
     7
370
     0
100
AcDbLine
 10
160.4155690385
 20
139.463555368
 30
0.0
 11
184.4155690385
 21
139.463555368
 31
0.0
  0
LINE
  5
187
330
1F
100
AcDbEntity
  8
0
  6
HIDDEN
 62
     7
370
     0
100
AcDbLine
 10
184.4155690385
 20
153.963555368
 30
0.0
 11
160.4155690385
 21
153.963555368
 31
0.0
  0
LINE
  5
188
330
1F
100
AcDbEntity
  8
0
  6
HIDDEN
 62
     7
370
     0
100
AcDbLine
 10
184.4155690385
 20
139.463555368
 30
0.0
 11
186.2181508956
 21
142.463555368
 31
0.0
  0
LINE
  5
189
330
1F
100
AcDbEntity
  8
0
  6
HIDDEN
 62
     7
370
     0
100
AcDbLine
 10
186.2181508956
 20
150.963555368
 30
0.0
 11
184.4155690385
 21
153.963555368
 31
0.0
  0
LINE
  5
18A
330
1F
100
AcDbEntity
  8
0
  6
HIDDEN
 62
     7
370
     0
100
AcDbLine
 10
186.2181508956
 20
142.463555368
 30
0.0
 11
236.4155690385
 21
142.463555368
 31
0.0
  0
LINE
  5
18B
330
1F
100
AcDbEntity
  8
0
  6
HIDDEN
 62
     7
370
     0
100
AcDbLine
 10
236.4155690385
 20
150.963555368
 30
0.0
 11
186.2181508956
 21
150.963555368
 31
0.0
  0
LINE
  5
18C
330
1F
100
AcDbEntity
  8
0
  6
HIDDEN
 62
     7
370
     0
100
AcDbLine
 10
236.4155690385
 20
142.463555368
 30
0.0
 11
237.9624425341
 21
146.713555368
 31
0.0
  0
LINE
  5
18D
330
1F
100
AcDbEntity
  8
0
  6
HIDDEN
 62
     7
370
     0
100
AcDbLine
 10
237.9624425341
 20
146.713555368
 30
0.0
 11
236.4155690385
 21
150.963555368
 31
0.0
  0
LINE
  5
18E
330
1F
100
AcDbEntity
  8
0
  6
HIDDEN
 62
     7
370
     0
100
AcDbLine
 10
267.4155690385
 20
148.838555368
 30
0.0
 11
265.46701188
 21
147.713555368
 31
0.0
  0
LINE
  5
18F
330
1F
100
AcDbEntity
  8
0
  6
HIDDEN
 62
     7
370
     0
100
AcDbLine
 10
265.46701188
 20
145.713555368
 30
0.0
 11
267.4155690385
 21
144.588555368
 31
0.0
  0
LINE
  5
190
330
1F
100
AcDbEntity
  8
0
  6
HIDDEN
 62
     7
370
     0
100
AcDbLine
 10
264.3155690385
 20
145.713555368
 30
0.0
 11
265.46701188
 21
145.713555368
 31
0.0
  0
LINE
  5
191
330
1F
100
AcDbEntity
  8
0
  6
HIDDEN
 62
     7
370
     0
100
AcDbLine
 10
265.46701188
 20
147.713555368
 30
0.0
 11
264.3155690385
 21
147.713555368
 31
0.0
  0
LINE
  5
192
330
1F
100
AcDbEntity
  8
0
  6
HIDDEN
 62
     7
370
     0
100
AcDbLine
 10
264.3155690385
 20
147.713555368
 30
0.0
 11
263.7155690385
 21
146.713555368
 31
0.0
  0
LINE
  5
193
330
1F
100
AcDbEntity
  8
0
  6
HIDDEN
 62
     7
370
     0
100
AcDbLine
 10
263.7155690385
 20
146.713555368
 30
0.0
 11
264.3155690385
 21
145.713555368
 31
0.0
  0
DIMENSION
  5
194
330
1F
100
AcDbEntity
  8
VERMASSUNG
100
AcDbDimension
  2
_D
 10
267.4155690385
 20
184.4580071082
 30
0.0
 11
218.4155690385
 21
184.4580071082
 31
0.0
 70
   160
  1
<>
 71
     2
 42
-1.0
  3
SLDDIMSTYLE0
100
AcDbAlignedDimension
 13
169.4155690385
 23
171.413555368
 33
0.0
 14
267.4155690385
 24
175.713555368
 34
0.0
100
AcDbRotatedDimension
  0
DIMENSION
  5
19F
330
1F
100
AcDbEntity
  8
VERMASSUNG
100
AcDbDimension
  2
_D_1
 10
267.4155690385
 20
192.713555368
 30
0.0
 11
203.4155690385
 21
192.713555368
 31
0.0
 70
   160
  1
<>
 71
     2
 42
-1.0
  3
SLDDIMSTYLE0
100
AcDbAlignedDimension
 13
139.4155690385
 23
162.7068812061
 33
0.0
 14
267.4155690385
 24
175.713555368
 34
0.0
100
AcDbRotatedDimension
  0
LINE
  5
1A9
330
1F
100
AcDbEntity
  8
VERMASSUNG
  6
CENTERX2
370
     0
100
AcDbLine
 10
268.4155690385
 20
146.713555368
 30
0.0
 11
134.6094903067
 21
146.713555368
 31
0.0
  0
LINE
  5
1AA
330
1F
100
AcDbEntity
  8
0
  6
Continuous
 62
     7
370
    15
100
AcDbLine
 10
56.2214285088
 20
122.2135560087
 30
0.0
 11
57.2214285563
 21
123.2135561726
 31
0.0
  0
LINE
  5
1AB
330
1F
100
AcDbEntity
  8
0
  6
Continuous
 62
     7
370
    15
100
AcDbLine
 10
57.2214285563
 20
130.2135554574
 30
0.0
 11
56.2214285088
 21
131.2135556213
 31
0.0
  0
LINE
  5
1AC
330
1F
100
AcDbEntity
  8
0
  6
Continuous
 62
     7
370
    15
100
AcDbLine
 10
56.2214285088
 20
162.2135551146
 30
0.0
 11
57.2214285563
 21
163.2135552785
 31
0.0
  0
LINE
  5
1AD
330
1F
100
AcDbEntity
  8
0
  6
Continuous
 62
     7
370
    15
100
AcDbLine
 10
57.2214285563
 20
170.2135545633
 30
0.0
 11
56.2214285088
 21
171.2135547272
 31
0.0
  0
CIRCLE
  5
1AE
330
1F
100
AcDbEntity
  8
0
  6
Continuous
 62
     7
370
    15
100
AcDbCircle
 10
44.8875584013
 20
138.3451942772
 30
0.0
 40
3.231352109277049
  0
CIRCLE
  5
1AF
330
1F
100
AcDbEntity
  8
0
  6
Continuous
 62
     7
370
    15
100
AcDbCircle
 10
44.8849572422
 20
138.3471920355
 30
0.0
 40
2.484627349026916
  0
CIRCLE
  5
1B0
330
1F
100
AcDbEntity
  8
0
  6
Continuous
 62
     7
370
    15
100
AcDbCircle
 10
44.9200881831
 20
138.3855476258
 30
0.0
 40
2.086279699095541
  0
ARC
  5
1B1
330
1F
100
AcDbEntity
  8
0
  6
Continuous
 62
     7
370
    15
100
AcDbCircle
 10
45.4316735708
 20
138.9289202537
 30
0.0
 40
2.102485979227012
100
AcDbArc
 50
146.1388679214
 51
305.2396546121
  0
CIRCLE
  5
1B2
330
1F
100
AcDbEntity
  8
0
  6
Continuous
 62
     7
370
    15
100
AcDbCircle
 10
44.8151396428
 20
155.0000639945
 30
0.0
 40
3.231352082078735
  0
CIRCLE
  5
1B3
330
1F
100
AcDbEntity
  8
0
  6
Continuous
 62
     7
370
    15
100
AcDbCircle
 10
44.8168047164
 20
155.002890821
 30
0.0
 40
2.484627535859617
  0
CIRCLE
  5
1B4
330
1F
100
AcDbEntity
  8
0
  6
Continuous
 62
     7
370
    15
100
AcDbCircle
 10
44.8591536089
 20
154.9726948886
 30
0.0
 40
2.086280171294062
  0
ARC
  5
1B5
330
1F
100
AcDbEntity
  8
0
  6
Continuous
 62
     7
370
    15
100
AcDbCircle
 10
45.4608014745
 20
154.5311121792
 30
0.0
 40
2.102485704692365
100
AcDbArc
 50
63.1360044181
 51
222.2368042511
  0
CIRCLE
  5
1B6
330
1F
100
AcDbEntity
  8
0
  6
Continuous
 62
     7
370
    15
100
AcDbCircle
 10
45.2214285563
 20
154.713555368
 30
0.0
 40
4.582575694955847
  0
CIRCLE
  5
1B7
330
1F
100
AcDbEntity
  8
0
  6
Continuous
 62
     7
370
    15
100
AcDbCircle
 10
45.2214285563
 20
154.713555368
 30
0.0
 40
6.0
  0
CIRCLE
  5
1B8
330
1F
100
AcDbEntity
  8
0
  6
Continuous
 62
     7
370
    15
100
AcDbCircle
 10
45.2214285563
 20
138.713555368
 30
0.0
 40
4.582575694955817
  0
CIRCLE
  5
1B9
330
1F
100
AcDbEntity
  8
0
  6
Continuous
 62
     7
370
    15
100
AcDbCircle
 10
45.2214285563
 20
138.713555368
 30
0.0
 40
5.999999999999987
  0
LINE
  5
1BA
330
1F
100
AcDbEntity
  8
0
  6
Continuous
 62
     7
370
    15
100
AcDbLine
 10
57.2214285563
 20
123.2135561726
 30
0.0
 11
57.2214285563
 21
130.2135554574
 31
0.0
  0
LINE
  5
1BB
330
1F
100
AcDbEntity
  8
0
  6
Continuous
 62
     7
370
    15
100
AcDbLine
 10
57.2214285563
 20
163.2135552785
 30
0.0
 11
57.2214285563
 21
170.2135545633
 31
0.0
  0
CIRCLE
  5
1BC
330
1F
100
AcDbEntity
  8
0
  6
Continuous
 62
     7
370
    15
100
AcDbCircle
 10
57.2214285563
 20
146.713555368
 30
0.0
 40
2.125000000000028
  0
LINE
  5
1BD
330
1F
100
AcDbEntity
  8
0
  6
Continuous
 62
     7
370
    15
100
AcDbLine
 10
77.2214281093
 20
117.7135562024
 30
0.0
 11
84.7713826876
 21
117.7135562024
 31
0.0
  0
LINE
  5
1BE
330
1F
100
AcDbEntity
  8
0
  6
Continuous
 62
     7
370
    15
100
AcDbLine
 10
77.2214281093
 20
136.7135555915
 30
0.0
 11
77.2214281093
 21
117.7135562024
 31
0.0
  0
LINE
  5
1BF
330
1F
100
AcDbEntity
  8
0
  6
Continuous
 62
     7
370
    15
100
AcDbLine
 10
56.2214285088
 20
136.7135555915
 30
0.0
 11
77.2214281093
 21
136.7135555915
 31
0.0
  0
LINE
  5
1C0
330
1F
100
AcDbEntity
  8
0
  6
Continuous
 62
     7
370
    15
100
AcDbLine
 10
56.2214285088
 20
136.7135555915
 30
0.0
 11
56.2214285088
 21
117.7135562024
 31
0.0
  0
LINE
  5
1C1
330
1F
100
AcDbEntity
  8
0
  6
Continuous
 62
     7
370
    15
100
AcDbLine
 10
32.2214281838
 20
117.7135562024
 30
0.0
 11
56.2214285088
 21
117.7135562024
 31
0.0
  0
LINE
  5
1C2
330
1F
100
AcDbEntity
  8
0
  6
Continuous
 62
     7
370
    15
100
AcDbLine
 10
32.2214281838
 20
175.7135545335
 30
0.0
 11
32.2214281838
 21
117.7135562024
 31
0.0
  0
LINE
  5
1C3
330
1F
100
AcDbEntity
  8
0
  6
Continuous
 62
     7
370
    15
100
AcDbLine
 10
56.2214285088
 20
175.7135545335
 30
0.0
 11
32.2214281838
 21
175.7135545335
 31
0.0
  0
LINE
  5
1C4
330
1F
100
AcDbEntity
  8
0
  6
Continuous
 62
     7
370
    15
100
AcDbLine
 10
56.2214285088
 20
156.7135551444
 30
0.0
 11
56.2214285088
 21
175.7135545335
 31
0.0
  0
LINE
  5
1C5
330
1F
100
AcDbEntity
  8
0
  6
Continuous
 62
     7
370
    15
100
AcDbLine
 10
56.2214285088
 20
156.7135551444
 30
0.0
 11
77.2214281093
 21
156.7135551444
 31
0.0
  0
LINE
  5
1C6
330
1F
100
AcDbEntity
  8
0
  6
Continuous
 62
     7
370
    15
100
AcDbLine
 10
77.2214281093
 20
156.7135551444
 30
0.0
 11
77.2214281093
 21
175.7135545335
 31
0.0
  0
LINE
  5
1C7
330
1F
100
AcDbEntity
  8
0
  6
Continuous
 62
     7
370
    15
100
AcDbLine
 10
84.7713826876
 20
175.7135545335
 30
0.0
 11
77.2214281093
 21
175.7135545335
 31
0.0
  0
LINE
  5
1C8
330
1F
100
AcDbEntity
  8
0
  6
Continuous
 62
     7
370
    15
100
AcDbLine
 10
92.2214287053
 20
166.0784730188
 30
0.0
 11
92.2214287053
 21
127.3486377171
 31
0.0
  0
ARC
  5
1C9
330
1F
100
AcDbEntity
  8
0
  6
Continuous
 62
     7
370
    15
100
AcDbCircle
 10
57.2214285563
 20
146.713555368
 30
0.0
 40
40.00000000000001
100
AcDbArc
 50
313.5311521674
 51
331.0449756281
  0
ARC
  5
1CA
330
1F
100
AcDbEntity
  8
0
  6
Continuous
 62
     7
370
    15
100
AcDbCircle
 10
57.2214285563
 20
146.713555368
 30
0.0
 40
39.99999999999999
100
AcDbArc
 50
28.9550243719
 51
46.4688478326
  0
LINE
  5
1CB
330
1F
100
AcDbEntity
  8
0
  6
Continuous
 62
     7
370
    15
100
AcDbLine
 10
77.2214281093
 20
176.7135546974
 30
0.0
 11
83.6789413075
 21
176.7135546974
 31
0.0
  0
LINE
  5
1CC
330
1F
100
AcDbEntity
  8
0
  6
Continuous
 62
     7
370
    15
100
AcDbLine
 10
77.2214281093
 20
175.7135545335
 30
0.0
 11
77.2214281093
 21
176.7135546974
 31
0.0
  0
ARC
  5
1CD
330
1F
100
AcDbEntity
  8
0
  6
Continuous
 62
     7
370
    15
100
AcDbCircle
 10
57.2214285563
 20
146.713555368
 30
0.0
 40
40.00000000000001
100
AcDbArc
 50
46.4688478326
 51
48.5903778907
  0
LINE
  5
1CE
330
1F
100
AcDbEntity
  8
0
  6
Continuous
 62
     7
370
    15
100
AcDbLine
 10
83.6789413075
 20
116.7135560385
 30
0.0
 11
77.2214281093
 21
116.7135560385
 31
0.0
  0
LINE
  5
1CF
330
1F
100
AcDbEntity
  8
0
  6
Continuous
 62
     7
370
    15
100
AcDbLine
 10
77.2214281093
 20
116.7135560385
 30
0.0
 11
77.2214281093
 21
117.7135562024
 31
0.0
  0
ARC
  5
1D0
330
1F
100
AcDbEntity
  8
0
  6
Continuous
 62
     7
370
    15
100
AcDbCircle
 10
57.2214285563
 20
146.713555368
 30
0.0
 40
40.00000000000001
100
AcDbArc
 50
311.4096221093
 51
313.5311521674
  0
CIRCLE
  5
1D1
330
1F
100
AcDbEntity
  8
0
  6
Continuous
 62
     7
370
    15
100
AcDbCircle
 10
57.2214285563
 20
146.713555368
 30
0.0
 40
1.0
  0
LINE
  5
1D2
330
1F
100
AcDbEntity
  8
0
  6
Continuous
 62
     7
370
    15
100
AcDbLine
 10
32.2214281838
 20
176.7135546974
 30
0.0
 11
56.2214285088
 21
176.7135546974
 31
0.0
  0
LINE
  5
1D3
330
1F
100
AcDbEntity
  8
0
  6
Continuous
 62
     7
370
    15
100
AcDbLine
 10
32.2214281838
 20
176.7135546974
 30
0.0
 11
32.2214281838
 21
175.7135545335
 31
0.0
  0
LINE
  5
1D4
330
1F
100
AcDbEntity
  8
0
  6
Continuous
 62
     7
370
    15
100
AcDbLine
 10
56.2214285088
 20
176.7135546974
 30
0.0
 11
56.2214285088
 21
175.7135545335
 31
0.0
  0
LINE
  5
1D5
330
1F
100
AcDbEntity
  8
0
  6
Continuous
 62
     7
370
    15
100
AcDbLine
 10
56.2214285088
 20
116.7135560385
 30
0.0
 11
32.2214281838
 21
116.7135560385
 31
0.0
  0
LINE
  5
1D6
330
1F
100
AcDbEntity
  8
0
  6
Continuous
 62
     7
370
    15
100
AcDbLine
 10
32.2214281838
 20
116.7135560385
 30
0.0
 11
32.2214281838
 21
117.7135562024
 31
0.0
  0
LINE
  5
1D7
330
1F
100
AcDbEntity
  8
0
  6
Continuous
 62
     7
370
    15
100
AcDbLine
 10
56.2214285088
 20
117.7135562024
 30
0.0
 11
56.2214285088
 21
116.7135560385
 31
0.0
  0
LINE
  5
1D8
330
1F
100
AcDbEntity
  8
0
  6
Continuous
 62
     7
370
    15
100
AcDbLine
 10
31.2214280199
 20
175.7135545335
 30
0.0
 11
32.2214281838
 21
175.7135545335
 31
0.0
  0
LINE
  5
1D9
330
1F
100
AcDbEntity
  8
0
  6
Continuous
 62
     7
370
    15
100
AcDbLine
 10
32.2214281838
 20
176.7135546974
 30
0.0
 11
31.2214280199
 21
175.7135545335
 31
0.0
  0
LINE
  5
1DA
330
1F
100
AcDbEntity
  8
0
  6
Continuous
 62
     7
370
    15
100
AcDbLine
 10
31.2214280199
 20
117.7135562024
 30
0.0
 11
31.2214280199
 21
175.7135545335
 31
0.0
  0
LINE
  5
1DB
330
1F
100
AcDbEntity
  8
0
  6
Continuous
 62
     7
370
    15
100
AcDbLine
 10
31.2214280199
 20
117.7135562024
 30
0.0
 11
32.2214281838
 21
117.7135562024
 31
0.0
  0
LINE
  5
1DC
330
1F
100
AcDbEntity
  8
0
  6
Continuous
 62
     7
370
    15
100
AcDbLine
 10
31.2214280199
 20
117.7135562024
 30
0.0
 11
32.2214281838
 21
116.7135560385
 31
0.0
  0
ELLIPSE
  5
1DD
330
1F
100
AcDbEntity
  8
0
  6
Continuous
 62
     7
370
    15
100
AcDbEllipse
 10
46.0534788507
 20
139.2682555642
 30
0.0
 11
-1.927938436701105
 21
-1.285292291134084
 31
0.0
210
0.0
220
0.0
230
1.0
 40
0.906307787
 41
0.0
 42
1.302403511362467
  0
ELLIPSE
  5
1DE
330
1F
100
AcDbEntity
  8
0
  6
Continuous
 62
     7
370
    15
100
AcDbEllipse
 10
46.0534788507
 20
139.2682555642
 30
0.0
 11
-1.927938436701105
 21
-1.285292291134084
 31
0.0
210
0.0
220
0.0
230
1.0
 40
0.906307787
 41
5.111749946332019
 42
6.283185307179586
  0
ELLIPSE
  5
1DF
330
1F
100
AcDbEntity
  8
0
  6
Continuous
 62
     7
370
    15
100
AcDbEllipse
 10
46.0534788507
 20
154.1588551717
 30
0.0
 11
-1.927938436701105
 21
1.285292291134084
 31
0.0
210
0.0
220
0.0
230
1.0
 40
0.906307787
 41
0.0
 42
1.216461331419803
  0
ELLIPSE
  5
1E0
330
1F
100
AcDbEntity
  8
0
  6
Continuous
 62
     7
370
    15
100
AcDbEllipse
 10
46.0534788507
 20
154.1588551717
 30
0.0
 11
-1.927938436701105
 21
1.285292291134084
 31
0.0
210
0.0
220
0.0
230
1.0
 40
0.906307787
 41
5.027106022272986
 42
6.283185307179586
  0
LINE
  5
1E1
330
1F
100
AcDbEntity
  8
0
  6
Continuous
 62
     7
370
    15
100
AcDbLine
 10
77.2214281093
 20
176.7135546974
 30
0.0
 11
56.2214285088
 21
176.7135546974
 31
0.0
  0
LINE
  5
1E2
330
1F
100
AcDbEntity
  8
0
  6
Continuous
 62
     7
370
    15
100
AcDbLine
 10
77.2214281093
 20
116.7135560385
 30
0.0
 11
56.2214285088
 21
116.7135560385
 31
0.0
  0
DIMENSION
  5
1E3
330
1F
100
AcDbEntity
  8
VERMASSUNG
100
AcDbDimension
  2
_D_2
 10
108.2214285563
 20
176.713555368
 30
0.0
 11
108.2214285563
 21
161.713555368
 31
0.0
 70
   160
  1
<>
 71
     2
 42
-1.0
  3
SLDDIMSTYLE0
100
AcDbAlignedDimension
 13
99.7214285563
 23
146.713555368
 33
0.0
 14
83.678941667
 24
176.713555368
 34
0.0
 50
90.0
100
AcDbRotatedDimension
  0
DIMENSION
  5
1ED
330
1F
100
AcDbEntity
  8
VERMASSUNG
100
AcDbDimension
  2
_D_3
 10
114.2214285563
 20
116.713555368
 30
0.0
 11
114.2214285563
 21
146.713555368
 31
0.0
 70
   160
  1
<>
 71
     2
 42
-1.0
  3
SLDDIMSTYLE0
100
AcDbAlignedDimension
 13
83.678941667
 23
176.713555368
 33
0.0
 14
83.678941667
 24
116.713555368
 34
0.0
 50
90.0
100
AcDbRotatedDimension
  0
DIMENSION
  5
1F7
330
1F
100
AcDbEntity
  8
VERMASSUNG
100
AcDbDimension
  2
_D_4
 10
99.4592678576
 20
176.713555368
 30
0.0
 11
99.4592678576
 21
166.713555368
 31
0.0
 70
   160
  1
<>
 71
     2
 42
-1.0
  3
SLDDIMSTYLE0
100
AcDbAlignedDimension
 13
81.4714285563
 23
156.713555368
 33
0.0
 14
83.678941667
 24
176.713555368
 34
0.0
 50
90.0
100
AcDbRotatedDimension
  0
DIMENSION
  5
201
330
1F
100
AcDbEntity
  8
VERMASSUNG
100
AcDbDimension
  2
_D_5
 10
77.2214285563
 20
182.0570457405
 30
0.0
 11
67.2214285563
 21
182.0570457405
 31
0.0
 70
   160
  1
<>
 71
     2
 42
-1.0
  3
SLDDIMSTYLE0
100
AcDbAlignedDimension
 13
57.2214285563
 23
189.213555368
 33
0.0
 14
77.2214285563
 24
176.713555368
 34
0.0
100
AcDbRotatedDimension
  0
DIMENSION
  5
20A
330
1F
100
AcDbEntity
  8
VERMASSUNG
100
AcDbDimension
  2
_D_6
 10
92.2214285563
 20
189.1836201366
 30
0.0
 11
74.7214285563
 21
189.1836201366
 31
0.0
 70
   160
  1
<>
 71
     2
 42
-1.0
  3
SLDDIMSTYLE0
100
AcDbAlignedDimension
 13
57.2214285563
 23
189.213555368
 33
0.0
 14
92.2214285563
 24
166.078472099
 34
0.0
100
AcDbRotatedDimension
  0
DIMENSION
  5
213
330
1F
100
AcDbEntity
  8
VERMASSUNG
100
AcDbDimension
  2
_D_7
 10
92.2214285563
 20
194.885263351
 30
0.0
 11
61.7214285563
 21
194.885263351
 31
0.0
 70
   160
  1
<>
 71
     2
 42
-1.0
  3
SLDDIMSTYLE0
100
AcDbAlignedDimension
 13
31.2214285563
 23
175.713555368
 33
0.0
 14
92.2214285563
 24
166.078472099
 34
0.0
100
AcDbRotatedDimension
  0
DIMENSION
  5
21D
330
1F
100
AcDbEntity
  8
VERMASSUNG
100
AcDbDimension
  2
_D_8
 10
57.2214285563
 20
146.713555368
 30
0.0
 11
98.4188322907
 21
182.0570557405
 31
0.0
 70
   164
  1
<>
 71
     1
 42
-1.0
  3
SLDDIMSTYLE1
100
AcDbRadialDimension
 15
87.5802422679
 25
172.7585631434
 35
0.0
 40
0.0
  0
INSERT
  5
231
330
1F
100
AcDbEntity
  8
VERMASSUNG
100
AcDbBlockReference
  2
SW_CENTERMARKSYMBOL_0
 10
57.2214285563
 20
146.713555368
 30
0.0
  0
ARC
  5
232
330
1F
100
AcDbEntity
  8
0
  6
Continuous
 62
     7
370
    15
100
AcDbCircle
 10
265.4155690385
 20
53.1451171987
 30
0.0
 40
4.999999999999996
100
AcDbArc
 50
34.3408746466
 51
66.4218215218
  0
ARC
  5
233
330
1F
100
AcDbEntity
  8
0
  6
Continuous
 62
     7
370
    15
100
AcDbCircle
 10
265.4155690385
 20
53.1451171987
 30
0.0
 40
5.000000000000002
100
AcDbArc
 50
293.5781784782
 51
313.6815083391
  0
LINE
  5
234
330
1F
100
AcDbEntity
  8
0
  6
Continuous
 62
     7
370
    15
100
AcDbLine
 10
234.9155676676
 20
64.1451171512
 30
0.0
 11
233.915565641
 21
65.1451171987
 31
0.0
  0
LINE
  5
235
330
1F
100
AcDbEntity
  8
0
  6
Continuous
 62
     7
370
    15
100
AcDbLine
 10
226.9155700816
 20
65.1451171987
 30
0.0
 11
225.915568055
 21
64.1451171512
 31
0.0
  0
LINE
  5
236
330
1F
100
AcDbEntity
  8
0
  6
Continuous
 62
     7
370
    15
100
AcDbLine
 10
259.4155726148
 20
64.1451171512
 30
0.0
 11
258.4155705882
 21
65.1451171987
 31
0.0
  0
LINE
  5
237
330
1F
100
AcDbEntity
  8
0
  6
Continuous
 62
     7
370
    15
100
AcDbLine
 10
251.4155713035
 20
65.1451171987
 30
0.0
 11
250.4155692769
 21
64.1451171512
 31
0.0
  0
LINE
  5
238
330
1F
100
AcDbEntity
  8
0
  6
Continuous
 62
     7
370
    15
100
AcDbLine
 10
210.415570171
 20
64.1451171512
 30
0.0
 11
209.4155681444
 21
65.1451171987
 31
0.0
  0
LINE
  5
239
330
1F
100
AcDbEntity
  8
0
  6
Continuous
 62
     7
370
    15
100
AcDbLine
 10
202.4155688597
 20
65.1451171987
 30
0.0
 11
201.4155705584
 21
64.1451171512
 31
0.0
  0
ARC
  5
23A
330
1F
100
AcDbEntity
  8
0
  6
Continuous
 62
     7
370
    15
100
AcDbCircle
 10
189.4155690385
 20
39.1451171987
 30
0.0
 40
1.0
100
AcDbArc
 50
0.0
 51
90.0
  0
ARC
  5
23B
330
1F
100
AcDbEntity
  8
0
  6
Continuous
 62
     7
370
    15
100
AcDbCircle
 10
189.4155690385
 20
91.1451171987
 30
0.0
 40
1.000000000000014
100
AcDbArc
 50
270.0
 51
0.0
  0
LINE
  5
23C
330
1F
100
AcDbEntity
  8
0
  6
Continuous
 62
     7
370
    15
100
AcDbLine
 10
169.7155690528
 20
40.1451168262
 30
0.0
 11
189.4155685915
 21
40.1451168262
 31
0.0
  0
LINE
  5
23D
330
1F
100
AcDbEntity
  8
0
  6
Continuous
 62
     7
370
    15
100
AcDbLine
 10
179.415568815
 20
90.1451175712
 30
0.0
 11
169.7155690528
 21
90.1451175712
 31
0.0
  0
LINE
  5
23E
330
1F
100
AcDbEntity
  8
0
  6
Continuous
 62
     7
370
    15
100
AcDbLine
 10
189.4155685915
 20
90.1451175712
 30
0.0
 11
183.3908354057
 21
90.1451175712
 31
0.0
  0
ARC
  5
23F
330
1F
100
AcDbEntity
  8
0
  6
Continuous
 62
     7
370
    15
100
AcDbCircle
 10
169.7155690385
 20
40.4451171987
 30
0.0
 40
0.3000000000000398
100
AcDbArc
 50
180.0
 51
270.0
  0
ARC
  5
240
330
1F
100
AcDbEntity
  8
0
  6
Continuous
 62
     7
370
    15
100
AcDbCircle
 10
169.7155690385
 20
89.8451171987
 30
0.0
 40
0.3000000000000398
100
AcDbArc
 50
90.0
 51
180.0
  0
ARC
  5
241
330
1F
100
AcDbEntity
  8
0
  6
Continuous
 62
     7
370
    15
100
AcDbCircle
 10
168.8013554761
 20
46.3951171987
 30
0.0
 40
1.000000000000018
100
AcDbArc
 50
52.1052014664
 51
135.0
  0
LWPOLYLINE
  5
242
330
1F
100
AcDbEntity
  8
0
  6
Continuous
 62
     7
370
    15
100
AcDbPolyline
 90
        3
 70
   128
 43
0.0
 10
169.4155690385
 20
83.1059766613
 10
169.3410239788
 20
83.0532395892
 10
169.2155690436
 20
82.9849382542
  0
LINE
  5
243
330
1F
100
AcDbEntity
  8
0
  6
Continuous
 62
     7
370
    15
100
AcDbLine
 10
152.1786210252
 20
81.1674361729
 30
0.0
 11
146.7725933654
 21
81.0316176765
 31
0.0
  0
LINE
  5
244
330
1F
100
AcDbEntity
  8
0
  6
Continuous
 62
     7
370
    15
100
AcDbLine
 10
167.2155690504
 20
81.5452159994
 30
0.0
 11
158.8421995876
 21
81.3348469936
 31
0.0
  0
ARC
  5
245
330
1F
100
AcDbEntity
  8
0
  6
Continuous
 62
     7
370
    15
100
AcDbCircle
 10
167.4155059494
 20
81.5502390944
 30
0.0
 40
0.2000000000000048
100
AcDbArc
 50
181.4391666667
 51
271.4391666667
  0
LINE
  5
246
330
1F
100
AcDbEntity
  8
0
  6
Continuous
 62
     7
370
    15
100
AcDbLine
 10
169.0205921369
 20
81.390500968
 30
0.0
 11
167.4205291676
 21
81.3503013604
 31
0.0
  0
ARC
  5
247
330
1F
100
AcDbEntity
  8
0
  6
Continuous
 62
     7
370
    15
100
AcDbCircle
 10
169.0155690385
 20
81.5904382486
 30
0.0
 40
0.2000000000000171
100
AcDbArc
 50
271.4391666667
 51
0.0
  0
LINE
  5
248
330
1F
100
AcDbEntity
  8
0
  6
Continuous
 62
     7
370
    15
100
AcDbLine
 10
140.9155690236
 20
47.1657653951
 30
0.0
 11
167.2155690504
 21
46.5050181054
 31
0.0
  0
ARC
  5
249
330
1F
100
AcDbEntity
  8
0
  6
Continuous
 62
     7
370
    15
100
AcDbCircle
 10
167.4155059494
 20
46.499995303
 30
0.0
 40
0.2000000000000052
100
AcDbArc
 50
88.5608333333
 51
178.5608333333
  0
LINE
  5
24A
330
1F
100
AcDbEntity
  8
0
  6
Continuous
 62
     7
370
    15
100
AcDbLine
 10
167.4205291676
 20
46.6999327444
 30
0.0
 11
167.6948427813
 21
46.6930409573
 31
0.0
  0
LINE
  5
24B
330
1F
100
AcDbEntity
  8
0
  6
Continuous
 62
     7
370
    15
100
AcDbLine
 10
139.4155697091
 20
48.0317910813
 30
0.0
 11
140.9155690236
 21
47.1657653951
 31
0.0
  0
LINE
  5
24C
330
1F
100
AcDbEntity
  8
0
  6
Continuous
 62
     7
370
    15
100
AcDbLine
 10
167.701687653
 20
46.7096632027
 30
0.0
 11
168.0942487329
 21
47.1022231184
 31
0.0
  0
ARC
  5
24D
330
1F
100
AcDbEntity
  8
0
  6
Continuous
 62
     7
370
    15
100
AcDbCircle
 10
250.5735200014
 20
54.6729557356
 30
0.0
 40
19.04024110404824
100
AcDbArc
 50
344.4799670408
 51
1.547195273
  0
LWPOLYLINE
  5
24E
330
1F
100
AcDbEntity
  8
0
  6
Continuous
 62
     7
370
    15
100
AcDbPolyline
 90
       29
 70
   128
 43
0.0
 10
269.1341471983
 20
50.5004953273
 10
269.0414098216
 20
50.0403623708
 10
268.9557504965
 20
49.7160982021
 10
268.8814607574
 20
49.5439637132
 10
268.8222807957
 20
49.5325885393
 10
268.781168492
 20
49.6825445123
 10
268.7601802064
 20
49.9863121339
 10
268.7603813721
 20
50.4286596232
 10
268.7817496372
 20
50.9874047391
 10
268.8232195689
 20
51.6345305048
 10
268.8827124549
 20
52.3375859164
 10
268.9572406126
 20
53.0613194831
 10
269.0430713011
 20
53.7694375642
 10
269.1359055353
 20
54.4264334865
 10
269.2310718013
 20
54.9993626453
 10
269.3238166286
 20
55.4594956018
 10
269.4094759537
 20
55.7837597706
 10
269.4837582423
 20
55.9558951907
 10
269.5429382039
 20
55.9672694333
 10
269.5840579582
 20
55.8173134603
 10
269.6050387932
 20
55.5135458388
 10
269.6048450781
 20
55.0711983495
 10
269.583476813
 20
54.5124532335
 10
269.5419994308
 20
53.8653283991
 10
269.4825139953
 20
53.1622720562
 10
269.407978387
 20
52.4385394209
 10
269.3221476985
 20
51.7304204084
 10
269.2293209149
 20
51.0734244861
 10
269.1341471983
 20
50.5004953273
  0
LWPOLYLINE
  5
24F
330
1F
100
AcDbEntity
  8
0
  6
Continuous
 62
     7
370
    15
100
AcDbPolyline
 90
       26
 70
   128
 43
0.0
 10
269.1453305198
 20
51.0195959039
 10
269.0657285167
 20
50.6298988738
 10
268.9934727861
 20
50.3734107741
 10
268.9331007315
 20
50.266248142
 10
268.8884046985
 20
50.3151453711
 10
268.862193556
 20
50.5170281656
 10
268.8561138822
 20
50.859211912
 10
268.8705531074
 20
51.3201970287
 10
268.9046022607
 20
51.8710175209
 10
268.956115575
 20
52.4770626478
 10
269.0218594981
 20
53.1002534233
 10
269.0977064086
 20
53.7014323898
 10
269.1788879348
 20
54.2428241723
 10
269.260300429
 20
54.6904122137
 10
269.3368327929
 20
55.016072435
 10
269.403679402
 20
55.1993427478
 10
269.4566306783
 20
55.2287073486
 10
269.4923636628
 20
55.1023212873
 10
269.5086357309
 20
54.8281250202
 10
269.5044261528
 20
54.4233489462
 10
269.4799882485
 20
53.9134256222
 10
269.4368717386
 20
53.3303953387
 10
269.3777737333
 20
52.7108916693
 10
269.3064120723
 20
52.0938420348
 10
269.2272794558
 20
51.5180155315
 10
269.1453305198
 20
51.0195959039
  0
LINE
  5
250
330
1F
100
AcDbEntity
  8
0
  6
Continuous
 62
     7
370
    15
100
AcDbLine
 10
233.915565641
 20
65.1451171987
 30
0.0
 11
226.9155700816
 21
65.1451171987
 31
0.0
  0
LINE
  5
251
330
1F
100
AcDbEntity
  8
0
  6
Continuous
 62
     7
370
    15
100
AcDbLine
 10
258.4155705882
 20
65.1451171987
 30
0.0
 11
251.4155713035
 21
65.1451171987
 31
0.0
  0
LINE
  5
252
330
1F
100
AcDbEntity
  8
0
  6
Continuous
 62
     7
370
    15
100
AcDbLine
 10
209.4155681444
 20
65.1451171987
 30
0.0
 11
202.4155688597
 21
65.1451171987
 31
0.0
  0
SPLINE
  5
253
330
1F
100
AcDbEntity
  8
0
  6
Continuous
 62
     7
370
    15
100
AcDbSpline
210
0.0
220
0.0
230
1.0
 70
     8
 71
     3
 72
    16
 73
    12
 74
     0
 42
0.00000001
 43
0.00000001
 12
1.0
 22
0.0
 32
0.0
 13
1.0
 23
0.0
 33
0.0
 40
0.0
 40
0.0
 40
0.0
 40
0.0
 40
0.1250000000000015
 40
0.1250000000000015
 40
0.250000000000003
 40
0.250000000000003
 40
0.500000000000002
 40
0.500000000000002
 40
0.750000000000001
 40
0.750000000000001
 40
1.0
 40
1.0
 40
1.0
 40
1.0
 10
191.4155690385139
 20
91.60263030935953
 30
0.0
 10
191.3310396259185
 20
91.60263030935953
 30
0.0
 10
191.2466701494468
 20
91.58605072936494
 30
0.0
 10
191.088027216426
 20
91.52453077292508
 30
0.0
 10
191.0162343756183
 20
91.48130996569849
 30
0.0
 10
190.8180551998755
 20
91.32318044703764
 30
0.0
 10
190.7154175691994
 20
91.18507264181939
 30
0.0
 10
190.5583356401978
 20
90.88667559800012
 30
0.0
 10
190.5043247598807
 20
90.72836079022211
 30
0.0
 10
190.4321973018461
 20
90.39839152523425
 30
0.0
 10
190.4155690385139
 20
90.23175389356541
 30
0.0
 10
190.4155690385139
 20
90.06498878746781
 30
0.0
  0
LINE
  5
254
330
1F
100
AcDbEntity
  8
0
  6
Continuous
 62
     7
370
    15
100
AcDbLine
 10
190.4155687554
 20
90.0649884396
 30
0.0
 11
190.4155687554
 21
100.1451173477
 31
0.0
  0
SPLINE
  5
255
330
1F
100
AcDbEntity
  8
0
  6
Continuous
 62
     7
370
    15
100
AcDbSpline
210
0.0
220
0.0
230
1.0
 70
    24
 71
     3
 72
    18
 73
    14
 74
     0
 42
0.00000001
 43
0.00000001
 12
1.0
 22
0.0
 32
0.0
 13
1.0
 23
0.0
 33
0.0
 40
0.0
 40
0.0
 40
0.0
 40
0.0
 40
0.25
 40
0.25
 40
0.5
 40
0.5
 40
0.625
 40
0.625
 40
0.75
 40
0.75
 40
0.875
 40
0.875
 40
1.0
 40
1.0
 40
1.0
 40
1.0
 10
190.4155690385139
 20
100.1451171987136
 30
0.0
 10
190.4155690385139
 20
100.1451171987136
 30
0.0
 10
190.4284886838985
 20
100.1451171987136
 30
0.0
 10
190.4854676856195
 20
100.1451171987136
 30
0.0
 10
190.5298722516891
 20
100.1451171987136
 30
0.0
 10
190.6292857531382
 20
100.1451171987136
 30
0.0
 10
190.6679232378267
 20
100.1451171987136
 30
0.0
 10
190.7606369007186
 20
100.1451171987136
 30
0.0
 10
190.8151766702388
 20
100.1451171987136
 30
0.0
 10
190.9450292495558
 20
100.1451171987136
 30
0.0
 10
191.0210431716283
 20
100.1451171987136
 30
0.0
 10
191.200035239265
 20
100.1451171987136
 30
0.0
 10
191.3070480660179
 20
100.1451171987136
 30
0.0
 10
191.4155690385139
 20
100.1451171987136
 30
0.0
  0
LINE
  5
256
330
1F
100
AcDbEntity
  8
0
  6
Continuous
 62
     7
370
    15
100
AcDbLine
 10
191.4155689193
 20
100.1451173477
 30
0.0
 11
267.4155664755
 21
100.1451173477
 31
0.0
  0
LINE
  5
257
330
1F
100
AcDbEntity
  8
0
  6
Continuous
 62
     7
370
    15
100
AcDbLine
 10
267.4155664755
 20
92.69507133
 30
0.0
 11
267.4155664755
 21
100.1451173477
 31
0.0
  0
ARC
  5
258
330
1F
100
AcDbEntity
  8
0
  6
Continuous
 62
     7
370
    15
100
AcDbCircle
 10
296.4155690385
 20
65.1451171987
 30
0.0
 40
39.99999999999999
100
AcDbArc
 50
136.4688478326
 51
138.5903778907
  0
LINE
  5
259
330
1F
100
AcDbEntity
  8
0
  6
Continuous
 62
     7
370
    15
100
AcDbLine
 10
266.4155718995
 20
91.6026299499
 30
0.0
 11
191.4155689193
 21
91.6026299499
 31
0.0
  0
ARC
  5
25A
330
1F
100
AcDbEntity
  8
0
  6
Continuous
 62
     7
370
    15
100
AcDbCircle
 10
196.6655690385
 20
85.1451171987
 30
0.0
 40
4.25
100
AcDbArc
 50
0.0
 51
180.0
  0
LINE
  5
25B
330
1F
100
AcDbEntity
  8
0
  6
Continuous
 62
     7
370
    15
100
AcDbLine
 10
192.4155690832
 20
85.1451167517
 30
0.0
 11
192.4155690832
 21
64.1451171512
 31
0.0
  0
ARC
  5
25C
330
1F
100
AcDbEntity
  8
0
  6
Continuous
 62
     7
370
    15
100
AcDbCircle
 10
196.6655690385
 20
64.1451171987
 30
0.0
 40
4.25
100
AcDbArc
 50
180.0
 51
0.0
  0
LINE
  5
25D
330
1F
100
AcDbEntity
  8
0
  6
Continuous
 62
     7
370
    15
100
AcDbLine
 10
200.9155695452
 20
64.1451171512
 30
0.0
 11
266.4155718995
 21
64.1451171512
 31
0.0
  0
LINE
  5
25E
330
1F
100
AcDbEntity
  8
0
  6
Continuous
 62
     7
370
    15
100
AcDbLine
 10
266.4155718995
 20
40.1451168262
 30
0.0
 11
266.4155718995
 21
64.1451171512
 31
0.0
  0
LINE
  5
25F
330
1F
100
AcDbEntity
  8
0
  6
Continuous
 62
     7
370
    15
100
AcDbLine
 10
190.4168837829
 20
40.1451168262
 30
0.0
 11
266.4155718995
 21
40.1451168262
 31
0.0
  0
SPLINE
  5
260
330
1F
100
AcDbEntity
  8
0
  6
Continuous
 62
     7
370
    15
100
AcDbSpline
210
0.0
220
0.0
230
1.0
 70
     8
 71
     3
 72
    10
 73
     6
 74
     0
 42
0.00000001
 43
0.00000001
 12
1.0
 22
0.0
 32
0.0
 13
1.0
 23
0.0
 33
0.0
 40
0.0
 40
0.0
 40
0.0
 40
0.0
 40
0.5
 40
0.5
 40
1.0
 40
1.0
 40
1.0
 40
1.0
 10
190.4155690385139
 20
40.22524560995935
 30
0.0
 10
190.4155690385139
 20
40.21188185336166
 30
0.0
 10
190.4156786945153
 20
40.1984930318885
 30
0.0
 10
190.4161170143786
 20
40.171775374382
 30
0.0
 10
190.4164455434719
 20
40.15843639357416
 30
0.0
 10
190.4168831000952
 20
40.14511719871359
 30
0.0
  0
LINE
  5
261
330
1F
100
AcDbEntity
  8
0
  6
Continuous
 62
     7
370
    15
100
AcDbLine
 10
266.4155718995
 20
85.1451167517
 30
0.0
 11
266.4155718995
 21
91.6026299499
 31
0.0
  0
LINE
  5
262
330
1F
100
AcDbEntity
  8
0
  6
Continuous
 62
     7
370
    15
100
AcDbLine
 10
266.4155718995
 20
85.1451167517
 30
0.0
 11
200.9155695452
 21
85.1451167517
 31
0.0
  0
LINE
  5
263
330
1F
100
AcDbEntity
  8
0
  6
Continuous
 62
     7
370
    15
100
AcDbLine
 10
190.4155687554
 20
90.0649884396
 30
0.0
 11
190.4155687554
 21
40.2252459579
 31
0.0
  0
LINE
  5
264
330
1F
100
AcDbEntity
  8
0
  6
Continuous
 62
     7
370
    15
100
AcDbLine
 10
267.4155664755
 20
92.69507133
 30
0.0
 11
267.4155664755
 21
85.1451167517
 31
0.0
  0
LINE
  5
265
330
1F
100
AcDbEntity
  8
0
  6
Continuous
 62
     7
370
    15
100
AcDbLine
 10
267.4155664755
 20
85.1451167517
 30
0.0
 11
266.4155718995
 21
85.1451167517
 31
0.0
  0
LINE
  5
266
330
1F
100
AcDbEntity
  8
0
  6
Continuous
 62
     7
370
    15
100
AcDbLine
 10
266.4155718995
 20
64.1451171512
 30
0.0
 11
267.4155664755
 21
64.1451171512
 31
0.0
  0
LINE
  5
267
330
1F
100
AcDbEntity
  8
0
  6
Continuous
 62
     7
370
    15
100
AcDbLine
 10
267.4155664755
 20
64.1451171512
 30
0.0
 11
267.4155664755
 21
40.1451168262
 31
0.0
  0
LINE
  5
268
330
1F
100
AcDbEntity
  8
0
  6
Continuous
 62
     7
370
    15
100
AcDbLine
 10
266.4155718995
 20
40.1451168262
 30
0.0
 11
267.4155664755
 21
40.1451168262
 31
0.0
  0
SPLINE
  5
269
330
1F
100
AcDbEntity
  8
0
  6
Continuous
 62
     7
370
    15
100
AcDbSpline
210
0.0
220
0.0
230
1.0
 70
     8
 71
     3
 72
     8
 73
     4
 74
     0
 42
0.00000001
 43
0.00000001
 12
1.0
 22
0.0
 32
0.0
 13
1.0
 23
0.0
 33
0.0
 40
0.0
 40
0.0
 40
0.0
 40
0.0
 40
0.0006200593509252
 40
0.0006200593509252
 40
0.0006200593509252
 40
0.0006200593509252
 10
190.4155690385139
 20
39.70667001152224
 30
0.0
 10
190.4155690385139
 20
39.85281940211468
 30
0.0
 10
190.4159228627178
 20
39.99896938537846
 30
0.0
 10
190.4168831000952
 20
40.14511719871357
 30
0.0
  0
LINE
  5
26A
330
1F
100
AcDbEntity
  8
0
  6
Continuous
 62
     7
370
    15
100
AcDbLine
 10
266.4155718995
 20
40.1451168262
 30
0.0
 11
266.4155718995
 21
39.1451166623
 31
0.0
  0
LINE
  5
26B
330
1F
100
AcDbEntity
  8
0
  6
Continuous
 62
     7
370
    15
100
AcDbLine
 10
266.4155718995
 20
39.1451166623
 30
0.0
 11
190.4155687554
 21
39.1451166623
 31
0.0
  0
LINE
  5
26C
330
1F
100
AcDbEntity
  8
0
  6
Continuous
 62
     7
370
    15
100
AcDbLine
 10
190.4155687554
 20
39.1451166623
 30
0.0
 11
190.4155687554
 21
39.7066706472
 31
0.0
  0
LINE
  5
26D
330
1F
100
AcDbEntity
  8
0
  6
Continuous
 62
     7
370
    15
100
AcDbLine
 10
266.4155718995
 20
39.1451166623
 30
0.0
 11
267.4155664755
 21
40.1451168262
 31
0.0
  0
LINE
  5
26E
330
1F
100
AcDbEntity
  8
0
  6
Continuous
 62
     7
370
    15
100
AcDbLine
 10
190.4155687554
 20
39.7066706472
 30
0.0
 11
190.4155687554
 21
40.2252459579
 31
0.0
  0
SPLINE
  5
26F
330
1F
100
AcDbEntity
  8
0
  6
Continuous
 62
     7
370
    15
100
AcDbSpline
210
0.0
220
0.0
230
1.0
 70
     8
 71
     3
 72
    17
 73
    13
 74
     0
 42
0.00000001
 43
0.00000001
 12
1.0
 22
0.0
 32
0.0
 13
1.0
 23
0.0
 33
0.0
 40
0.0
 40
0.0
 40
0.0
 40
0.0
 40
0.10713733061689
 40
0.214266381017664
 40
0.3216098156908729
 40
0.4290956033398351
 40
0.5363476963701325
 40
0.6433543549574706
 40
0.7504869607540899
 40
0.857919952825008
 40
0.9653598706450023
 40
1.0
 40
1.0
 40
1.0
 40
1.0
 10
179.4155688149964
 20
90.14511757124261
 30
0.0
 10
179.4376096085582
 20
90.14330384781479
 30
0.0
 10
179.4816894922368
 20
90.13967654113463
 30
0.0
 10
179.8252167247657
 20
90.11445280669204
 30
0.0
 10
180.3317051563587
 20
90.08633269088851
 30
0.0
 10
180.9651448402771
 20
90.06603379575581
 30
0.0
 10
181.6481030771877
 20
90.06298472684834
 30
0.0
 10
182.3030889516087
 20
90.07822551760617
 30
0.0
 10
182.8626212793116
 20
90.105489864038
 30
0.0
 10
183.2444506921366
 20
90.13141891774313
 30
0.0
 10
183.4262836662315
 20
90.14596198714372
 30
0.0
 10
183.3977838614784
 20
90.1437076837896
 30
0.0
 10
183.3908354057109
 20
90.14315806854562
 30
0.0
  0
SPLINE
  5
270
330
1F
100
AcDbEntity
  8
0
  6
Continuous
 62
     7
370
    15
100
AcDbSpline
210
0.0
220
0.0
230
1.0
 70
     8
 71
     3
 72
    12
 73
     8
 74
     0
 42
0.00000001
 43
0.00000001
 12
1.0
 22
0.0
 32
0.0
 13
1.0
 23
0.0
 33
0.0
 40
0.0
 40
0.0
 40
0.0
 40
0.0
 40
0.25
 40
0.25
 40
0.5
 40
0.5
 40
1.0
 40
1.0
 40
1.0
 40
1.0
 10
177.9433258520803
 20
72.7139271678941
 30
0.0
 10
177.8796606155498
 20
72.7139271678941
 30
0.0
 10
177.8200543833264
 20
72.73999931637378
 30
0.0
 10
177.7213938583956
 20
72.8155380671949
 30
0.0
 10
177.6824268683803
 20
72.86278900429112
 30
0.0
 10
177.5830400364559
 20
73.01461282225756
 30
0.0
 10
177.5409637890324
 20
73.12741607202264
 30
0.0
 10
177.5103131501881
 20
73.24157019675772
 30
0.0
  0
LINE
  5
271
330
1F
100
AcDbEntity
  8
0
  6
Continuous
 62
     7
370
    15
100
AcDbLine
 10
180.8878119229
 20
72.7139273338
 30
0.0
 11
177.9433257071
 21
72.7139273338
 31
0.0
  0
SPLINE
  5
272
330
1F
100
AcDbEntity
  8
0
  6
Continuous
 62
     7
370
    15
100
AcDbSpline
210
0.0
220
0.0
230
1.0
 70
     8
 71
     3
 72
    12
 73
     8
 74
     0
 42
0.00000001
 43
0.00000001
 12
1.0
 22
0.0
 32
0.0
 13
1.0
 23
0.0
 33
0.0
 40
0.0
 40
0.0
 40
0.0
 40
0.0
 40
0.5
 40
0.5
 40
0.75
 40
0.75
 40
1.0
 40
1.0
 40
1.0
 40
1.0
 10
181.3208249268396
 20
73.24157019675772
 30
0.0
 10
181.2901255434724
 20
73.12723452969387
 30
0.0
 10
181.2487754753658
 20
73.0158811768525
 30
0.0
 10
181.1490195471464
 20
72.86314440460379
 30
0.0
 10
181.1093226294136
 20
72.81528451875165
 30
0.0
 10
181.012064477766
 20
72.74068140540219
 30
0.0
 10
180.9512883197754
 20
72.71392716789411
 30
0.0
 10
180.8878122249474
 20
72.71392716789411
 30
0.0
  0
ELLIPSE
  5
273
330
1F
100
AcDbEntity
  8
0
  6
Continuous
 62
     7
370
    15
100
AcDbEllipse
 10
168.3593113835
 20
65.1451171987
 30
0.0
 11
11.70927234972715
 21
24.67718644093742
 31
0.0
210
0.0
220
0.0
230
1.0
 40
0.3419987131
 41
5.203068809370454
 42
6.114256032590497
  0
SPLINE
  5
274
330
1F
100
AcDbEntity
  8
0
  6
Continuous
 62
     7
370
    15
100
AcDbSpline
210
0.0
220
0.0
230
1.0
 70
     8
 71
     3
 72
    12
 73
     8
 74
     0
 42
0.00000001
 43
0.00000001
 12
1.0
 22
0.0
 32
0.0
 13
1.0
 23
0.0
 33
0.0
 40
0.0
 40
0.0
 40
0.0
 40
0.0
 40
0.25
 40
0.25
 40
0.5
 40
0.5
 40
1.0
 40
1.0
 40
1.0
 40
1.0
 10
180.8878122249474
 20
88.97184831421548
 30
0.0
 10
180.9514774614779
 20
88.97184831421548
 30
0.0
 10
181.0110836937013
 20
88.96358353854963
 30
0.0
 10
181.1097442186321
 20
88.93936475696647
 30
0.0
 10
181.1487112086474
 20
88.92410743765731
 30
0.0
 10
181.2480980405718
 20
88.8744740833954
 30
0.0
 10
181.2901742879953
 20
88.83683437522127
 30
0.0
 10
181.3208249268397
 20
88.79775867594513
 30
0.0
  0
LINE
  5
275
330
1F
100
AcDbEntity
  8
0
  6
Continuous
 62
     7
370
    15
100
AcDbLine
 10
177.9433257071
 20
88.9718485676
 30
0.0
 11
180.8878119229
 21
88.9718485676
 31
0.0
  0
SPLINE
  5
276
330
1F
100
AcDbEntity
  8
0
  6
Continuous
 62
     7
370
    15
100
AcDbSpline
210
0.0
220
0.0
230
1.0
 70
     8
 71
     3
 72
    12
 73
     8
 74
     0
 42
0.00000001
 43
0.00000001
 12
1.0
 22
0.0
 32
0.0
 13
1.0
 23
0.0
 33
0.0
 40
0.0
 40
0.0
 40
0.0
 40
0.0
 40
0.5000000000000032
 40
0.5000000000000032
 40
0.7500000000000016
 40
0.7500000000000016
 40
1.0
 40
1.0
 40
1.0
 40
1.0
 10
177.5103131501881
 20
88.79775867594513
 30
0.0
 10
177.5410125335554
 20
88.83689651834105
 30
0.0
 10
177.5823626016619
 20
88.87405630106655
 30
0.0
 10
177.6821185298814
 20
88.92399280669429
 30
0.0
 10
177.7218154476141
 20
88.93944567683805
 30
0.0
 10
177.8190735992617
 20
88.96336522043708
 30
0.0
 10
177.8798497572524
 20
88.97184831421548
 30
0.0
 10
177.9433258520803
 20
88.97184831421548
 30
0.0
  0
ELLIPSE
  5
277
330
1F
100
AcDbEntity
  8
0
  6
Continuous
 62
     7
370
    15
100
AcDbEllipse
 10
190.4718266935
 20
65.1451171987
 30
0.0
 11
-11.709272349727
 21
24.67718644093743
 31
0.0
210
0.0
220
0.0
230
1.0
 40
0.3419987131
 41
0.1689292745891296
 42
1.080116497809148
  0
SPLINE
  5
278
330
1F
100
AcDbEntity
  8
0
  6
Continuous
 62
     7
370
    15
100
AcDbSpline
210
0.0
220
0.0
230
1.0
 70
     8
 71
     3
 72
    12
 73
     8
 74
     0
 42
0.00000001
 43
0.00000001
 12
1.0
 22
0.0
 32
0.0
 13
1.0
 23
0.0
 33
0.0
 40
0.0
 40
0.0
 40
0.0
 40
0.0
 40
0.2499999999999998
 40
0.2499999999999998
 40
0.4999999999999996
 40
0.4999999999999996
 40
1.0
 40
1.0
 40
1.0
 40
1.0
 10
177.9433258520803
 20
41.31838608321151
 30
0.0
 10
177.8796606155498
 20
41.3183860832115
 30
0.0
 10
177.8200543833264
 20
41.32665085887736
 30
0.0
 10
177.7213938583956
 20
41.35086964046051
 30
0.0
 10
177.6824268683803
 20
41.36612695976967
 30
0.0
 10
177.5830400364559
 20
41.41576031403159
 30
0.0
 10
177.5409637890324
 20
41.4534000222057
 30
0.0
 10
177.5103131501881
 20
41.49247572148183
 30
0.0
  0
LINE
  5
279
330
1F
100
AcDbEntity
  8
0
  6
Continuous
 62
     7
370
    15
100
AcDbLine
 10
180.8878119229
 20
41.3183858298
 30
0.0
 11
177.9433257071
 21
41.3183858298
 31
0.0
  0
SPLINE
  5
27A
330
1F
100
AcDbEntity
  8
0
  6
Continuous
 62
     7
370
    15
100
AcDbSpline
210
0.0
220
0.0
230
1.0
 70
     8
 71
     3
 72
    12
 73
     8
 74
     0
 42
0.00000001
 43
0.00000001
 12
1.0
 22
0.0
 32
0.0
 13
1.0
 23
0.0
 33
0.0
 40
0.0
 40
0.0
 40
0.0
 40
0.0
 40
0.4999999999999987
 40
0.4999999999999987
 40
0.7499999999999993
 40
0.7499999999999993
 40
1.0
 40
1.0
 40
1.0
 40
1.0
 10
181.3208249268397
 20
41.49247572148184
 30
0.0
 10
181.2901255434724
 20
41.45333787908594
 30
0.0
 10
181.2487754753658
 20
41.41617809636045
 30
0.0
 10
181.1490195471464
 20
41.36624159073271
 30
0.0
 10
181.1093226294137
 20
41.35078872058894
 30
0.0
 10
181.012064477766
 20
41.32686917698989
 30
0.0
 10
180.9512883197754
 20
41.31838608321151
 30
0.0
 10
180.8878122249474
 20
41.31838608321151
 30
0.0
  0
ELLIPSE
  5
27B
330
1F
100
AcDbEntity
  8
0
  6
Continuous
 62
     7
370
    15
100
AcDbEllipse
 10
168.3593113835
 20
65.1451171987
 30
0.0
 11
-11.70927234972726
 21
24.67718644093744
 31
0.0
210
0.0
220
0.0
230
1.0
 40
0.3419987131
 41
3.310521928178945
 42
4.221709151398932
  0
SPLINE
  5
27C
330
1F
100
AcDbEntity
  8
0
  6
Continuous
 62
     7
370
    15
100
AcDbSpline
210
0.0
220
0.0
230
1.0
 70
     8
 71
     3
 72
    12
 73
     8
 74
     0
 42
0.00000001
 43
0.00000001
 12
1.0
 22
0.0
 32
0.0
 13
1.0
 23
0.0
 33
0.0
 40
0.0
 40
0.0
 40
0.0
 40
0.0
 40
0.2499999999999991
 40
0.2499999999999991
 40
0.4999999999999982
 40
0.4999999999999982
 40
1.0
 40
1.0
 40
1.0
 40
1.0
 10
180.8878122249474
 20
57.57630722953255
 30
0.0
 10
180.9514774614779
 20
57.57630722953255
 30
0.0
 10
181.0110836937013
 20
57.55023508105287
 30
0.0
 10
181.1097442186321
 20
57.47469633023177
 30
0.0
 10
181.1487112086474
 20
57.42744539313554
 30
0.0
 10
181.2480980405718
 20
57.2756215751691
 30
0.0
 10
181.2901742879953
 20
57.16281832540403
 30
0.0
 10
181.3208249268397
 20
57.04866420066892
 30
0.0
  0
LINE
  5
27D
330
1F
100
AcDbEntity
  8
0
  6
Continuous
 62
     7
370
    15
100
AcDbLine
 10
177.9433257071
 20
57.5763070636
 30
0.0
 11
180.8878119229
 21
57.5763070636
 31
0.0
  0
SPLINE
  5
27E
330
1F
100
AcDbEntity
  8
0
  6
Continuous
 62
     7
370
    15
100
AcDbSpline
210
0.0
220
0.0
230
1.0
 70
     8
 71
     3
 72
    12
 73
     8
 74
     0
 42
0.00000001
 43
0.00000001
 12
1.0
 22
0.0
 32
0.0
 13
1.0
 23
0.0
 33
0.0
 40
0.0
 40
0.0
 40
0.0
 40
0.0
 40
0.4999999999999968
 40
0.4999999999999968
 40
0.7499999999999983
 40
0.7499999999999983
 40
1.0
 40
1.0
 40
1.0
 40
1.0
 10
177.5103131501881
 20
57.04866420066893
 30
0.0
 10
177.5410125335554
 20
57.16299986773279
 30
0.0
 10
177.5823626016619
 20
57.27435322057413
 30
0.0
 10
177.6821185298813
 20
57.42708999282287
 30
0.0
 10
177.7218154476141
 20
57.47494987867501
 30
0.0
 10
177.8190735992617
 20
57.54955299202447
 30
0.0
 10
177.8798497572524
 20
57.57630722953255
 30
0.0
 10
177.9433258520803
 20
57.57630722953255
 30
0.0
  0
ELLIPSE
  5
27F
330
1F
100
AcDbEntity
  8
0
  6
Continuous
 62
     7
370
    15
100
AcDbEllipse
 10
190.4718266935
 20
65.1451171987
 30
0.0
 11
11.70927234972717
 21
24.67718644093745
 31
0.0
210
0.0
220
0.0
230
1.0
 40
0.3419987131
 41
2.061476155780666
 42
2.972663379000683
  0
LINE
  5
280
330
1F
100
AcDbEntity
  8
0
  6
Continuous
 62
     7
370
    15
100
AcDbLine
 10
169.4155690385
 20
40.4451163166
 30
0.0
 11
169.4155690385
 21
89.8451180809
 31
0.0
  0
SPLINE
  5
281
330
1F
100
AcDbEntity
  8
0
  6
Continuous
 62
     7
370
    15
100
AcDbSpline
210
0.0
220
0.0
230
1.0
 70
     8
 71
     3
 72
    14
 73
    10
 74
     0
 42
0.00000001
 43
0.00000001
 12
1.0
 22
0.0
 32
0.0
 13
1.0
 23
0.0
 33
0.0
 40
0.0
 40
0.0
 40
0.0
 40
0.0
 40
0.25
 40
0.25
 40
0.5
 40
0.5
 40
0.75
 40
0.75
 40
1.0
 40
1.0
 40
1.0
 40
1.0
 10
168.3747080103855
 20
78.07997968623951
 30
0.0
 10
168.4064231447162
 20
78.11426088123375
 30
0.0
 10
168.4410376700166
 20
78.14751314960154
 30
0.0
 10
168.5207088654319
 20
78.21080360670638
 30
0.0
 10
168.5657647424623
 20
78.24123751547532
 30
0.0
 10
168.6763191549677
 20
78.2924802129256
 30
0.0
 10
168.7437045691719
 20
78.31323771337567
 30
0.0
 10
168.8943340890699
 20
78.31872349131955
 30
0.0
 10
168.9641613258354
 20
78.30231249071413
 30
0.0
 10
169.0205921496388
 20
78.2795250615024
 30
0.0
  0
SPLINE
  5
282
330
1F
100
AcDbEntity
  8
0
  6
Continuous
 62
     7
370
    15
100
AcDbSpline
210
0.0
220
0.0
230
1.0
 70
     8
 71
     3
 72
    16
 73
    12
 74
     0
 42
0.00000001
 43
0.00000001
 12
1.0
 22
0.0
 32
0.0
 13
1.0
 23
0.0
 33
0.0
 40
0.0
 40
0.0
 40
0.0
 40
0.0
 40
0.0624999999999968
 40
0.0624999999999968
 40
0.1249999999999936
 40
0.1249999999999936
 40
0.2499999999999913
 40
0.2499999999999913
 40
0.4999999999999959
 40
0.4999999999999959
 40
1.0
 40
1.0
 40
1.0
 40
1.0
 10
169.020592149607
 20
78.27952506145849
 30
0.0
 10
169.0323263840539
 20
78.27478663981132
 30
0.0
 10
169.0458581395328
 20
78.27182436266463
 30
0.0
 10
169.0758455999627
 20
78.27520354028634
 30
0.0
 10
169.0908403063709
 20
78.28208334802189
 30
0.0
 10
169.1265807287657
 20
78.3090270075744
 30
0.0
 10
169.1405940657669
 20
78.33210147402869
 30
0.0
 10
169.1747381545483
 20
78.39878919630307
 30
0.0
 10
169.1857100586666
 20
78.44229267238573
 30
0.0
 10
169.211555598933
 20
78.57100789533426
 30
0.0
 10
169.2155690385139
 20
78.65239807596531
 30
0.0
 10
169.2155690385139
 20
78.73088188610916
 30
0.0
  0
LINE
  5
283
330
1F
100
AcDbEntity
  8
0
  6
Continuous
 62
     7
370
    15
100
AcDbLine
 10
169.2155690436
 20
82.9849382542
 30
0.0
 11
169.2155690436
 21
78.7308821135
 31
0.0
  0
SPLINE
  5
284
330
1F
100
AcDbEntity
  8
0
  6
Continuous
 62
     7
370
    15
100
AcDbSpline
210
0.0
220
0.0
230
1.0
 70
     8
 71
     3
 72
    10
 73
     6
 74
     0
 42
0.00000001
 43
0.00000001
 12
1.0
 22
0.0
 32
0.0
 13
1.0
 23
0.0
 33
0.0
 40
0.0
 40
0.0
 40
0.0
 40
0.0
 40
0.5
 40
0.5
 40
1.0
 40
1.0
 40
1.0
 40
1.0
 10
168.3747080103846
 20
48.03035780670962
 30
0.0
 10
168.3029185406318
 20
47.9558838047197
 30
0.0
 10
168.2504602377863
 20
47.8812283218107
 30
0.0
 10
168.1611199862894
 20
47.73632028288959
 30
0.0
 10
168.1251272785662
 20
47.66589542392052
 30
0.0
 10
168.0942486949543
 20
47.59831287939014
 30
0.0
  0
SPLINE
  5
285
330
1F
100
AcDbEntity
  8
0
  6
Continuous
 62
     7
370
    15
100
AcDbSpline
210
0.0
220
0.0
230
1.0
 70
     8
 71
     3
 72
    14
 73
    10
 74
     0
 42
0.00000001
 43
0.00000001
 12
1.0
 22
0.0
 32
0.0
 13
1.0
 23
0.0
 33
0.0
 40
0.0
 40
0.0
 40
0.0
 40
0.0
 40
0.25
 40
0.25
 40
0.5
 40
0.5
 40
0.75
 40
0.75
 40
1.0
 40
1.0
 40
1.0
 40
1.0
 10
168.374708010384
 20
48.03035780670896
 30
0.0
 10
168.4064167098693
 20
48.06325223755938
 30
0.0
 10
168.44102452851
 20
48.09547554721693
 30
0.0
 10
168.5206829389993
 20
48.15700805695931
 30
0.0
 10
168.5657452088942
 20
48.18675750282285
 30
0.0
 10
168.6763270544726
 20
48.23579999631352
 30
0.0
 10
168.7439711752879
 20
48.25495060775251
 30
0.0
 10
168.894219465685
 20
48.25400490031709
 30
0.0
 10
168.9641718639153
 20
48.23331688313439
 30
0.0
 10
169.0205921496388
 20
48.20677267164802
 30
0.0
  0
SPLINE
  5
286
330
1F
100
AcDbEntity
  8
0
  6
Continuous
 62
     7
370
    15
100
AcDbSpline
210
0.0
220
0.0
230
1.0
 70
     8
 71
     3
 72
    16
 73
    12
 74
     0
 42
0.00000001
 43
0.00000001
 12
1.0
 22
0.0
 32
0.0
 13
1.0
 23
0.0
 33
0.0
 40
0.0
 40
0.0
 40
0.0
 40
0.0
 40
0.0625000000000004
 40
0.0625000000000004
 40
0.1250000000000009
 40
0.1250000000000009
 40
0.2500000000000017
 40
0.2500000000000017
 40
0.5000000000000034
 40
0.5000000000000034
 40
1.0
 40
1.0
 40
1.0
 40
1.0
 10
169.020592149607
 20
48.2067726716434
 30
0.0
 10
169.0323263840539
 20
48.2012520331553
 30
0.0
 10
169.0458581395328
 20
48.19573797628367
 30
0.0
 10
169.0758455999627
 20
48.18690641307957
 30
0.0
 10
169.0908403063709
 20
48.18426958980003
 30
0.0
 10
169.1265807287657
 20
48.18185389025624
 30
0.0
 10
169.1405940657669
 20
48.18560083324944
 30
0.0
 10
169.1747381545483
 20
48.19958778925059
 30
0.0
 10
169.1857100586666
 20
48.21368921510971
 30
0.0
 10
169.211555598933
 20
48.26060698582512
 30
0.0
 10
169.2155690385139
 20
48.2983894614471
 30
0.0
 10
169.2155690385139
 20
48.33901164363325
 30
0.0
  0
LINE
  5
287
330
1F
100
AcDbEntity
  8
0
  6
Continuous
 62
     7
370
    15
100
AcDbLine
 10
169.2155690436
 20
68.3654581342
 30
0.0
 11
169.2155690436
 21
48.3390120469
 31
0.0
  0
SPLINE
  5
288
330
1F
100
AcDbEntity
  8
0
  6
Continuous
 62
     7
370
    15
100
AcDbSpline
210
0.0
220
0.0
230
1.0
 70
     8
 71
     3
 72
    16
 73
    12
 74
     0
 42
0.00000001
 43
0.00000001
 12
1.0
 22
0.0
 32
0.0
 13
1.0
 23
0.0
 33
0.0
 40
0.0
 40
0.0
 40
0.0
 40
0.0
 40
0.5000000000000032
 40
0.5000000000000032
 40
0.7500000000000038
 40
0.7500000000000038
 40
0.8750000000000041
 40
0.8750000000000041
 40
0.937500000000002
 40
0.937500000000002
 40
1.0
 40
1.0
 40
1.0
 40
1.0
 10
169.215569038514
 20
68.36545806639789
 30
0.0
 10
169.2155690385137
 20
68.48541184497333
 30
0.0
 10
169.2114444956598
 20
68.60514316662722
 30
0.0
 10
169.1855280500266
 20
68.78027631284031
 30
0.0
 10
169.1742504690069
 20
68.83836802397914
 30
0.0
 10
169.1405150904655
 20
68.91771358731935
 30
0.0
 10
169.1261262752211
 20
68.9448539012953
 30
0.0
 10
169.090879585782
 20
68.96893575541289
 30
0.0
 10
169.0756741613251
 20
68.97321074085795
 30
0.0
 10
169.0460275821557
 20
68.96781979617147
 30
0.0
 10
169.0323222461583
 20
68.9593093054025
 30
0.0
 10
169.0205921496346
 20
68.94905386299504
 30
0.0
  0
SPLINE
  5
289
330
1F
100
AcDbEntity
  8
0
  6
Continuous
 62
     7
370
    15
100
AcDbSpline
210
0.0
220
0.0
230
1.0
 70
     8
 71
     3
 72
    14
 73
    10
 74
     0
 42
0.00000001
 43
0.00000001
 12
1.0
 22
0.0
 32
0.0
 13
1.0
 23
0.0
 33
0.0
 40
0.0
 40
0.0
 40
0.0
 40
0.0
 40
0.25
 40
0.25
 40
0.5
 40
0.5
 40
0.75
 40
0.75
 40
1.0
 40
1.0
 40
1.0
 40
1.0
 10
169.020592149645
 20
68.94905386298034
 30
0.0
 10
168.9641450675868
 20
68.8997030500591
 30
0.0
 10
168.893294683544
 20
68.86266107817042
 30
0.0
 10
168.7448582487275
 20
68.86712100999004
 30
0.0
 10
168.6756689970406
 20
68.90760854361957
 30
0.0
 10
168.5659574487997
 20
69.0072294019302
 30
0.0
 10
168.5207157994574
 20
69.06751455985349
 30
0.0
 10
168.4410677812735
 20
69.1923000536783
 30
0.0
 10
168.4064408655074
 20
69.25779426384481
 30
0.0
 10
168.3747080103861
 20
69.32501410318716
 30
0.0
  0
SPLINE
  5
28A
330
1F
100
AcDbEntity
  8
0
  6
Continuous
 62
     7
370
    15
100
AcDbSpline
210
0.0
220
0.0
230
1.0
 70
     8
 71
     3
 72
    10
 73
     6
 74
     0
 42
0.00000001
 43
0.00000001
 12
1.0
 22
0.0
 32
0.0
 13
1.0
 23
0.0
 33
0.0
 40
0.0
 40
0.0
 40
0.0
 40
0.0
 40
0.5
 40
0.5
 40
1.0
 40
1.0
 40
1.0
 40
1.0
 10
168.3747080103863
 20
69.325014103189
 30
0.0
 10
168.3028990349937
 20
69.47712735523541
 30
0.0
 10
168.250443175571
 20
69.6347609968051
 30
0.0
 10
168.1611085896796
 20
69.95419263730963
 30
0.0
 10
168.1251217267666
 20
70.1162551063688
 30
0.0
 10
168.0942486949543
 20
70.27959913203661
 30
0.0
  0
SPLINE
  5
28B
330
1F
100
AcDbEntity
  8
0
  6
Continuous
 62
     7
370
    15
100
AcDbSpline
210
0.0
220
0.0
230
1.0
 70
     8
 71
     3
 72
    10
 73
     6
 74
     0
 42
0.00000001
 43
0.00000001
 12
1.0
 22
0.0
 32
0.0
 13
1.0
 23
0.0
 33
0.0
 40
0.0
 40
0.0
 40
0.0
 40
0.0
 40
0.5
 40
0.5
 40
1.0
 40
1.0
 40
1.0
 40
1.0
 10
168.0942486949543
 20
77.55743958471399
 30
0.0
 10
168.1251300345524
 20
77.65323898904977
 30
0.0
 10
168.1611256440522
 20
77.7449001307007
 30
0.0
 10
168.2504687081536
 20
77.91943017941091
 30
0.0
 10
168.3029282224618
 20
78.00239222024312
 30
0.0
 10
168.3747080103855
 20
78.07997968623951
 30
0.0
  0
SPLINE
  5
28C
330
1F
100
AcDbEntity
  8
0
  6
Continuous
 62
     7
370
    15
100
AcDbSpline
210
0.0
220
0.0
230
1.0
 70
     8
 71
     3
 72
    18
 73
    14
 74
     0
 42
0.00000001
 43
0.00000001
 12
1.0
 22
0.0
 32
0.0
 13
1.0
 23
0.0
 33
0.0
 40
0.0
 40
0.0
 40
0.0
 40
0.0
 40
0.2499999999999998
 40
0.2499999999999998
 40
0.3749999999999999
 40
0.3749999999999999
 40
0.5
 40
0.5
 40
0.625
 40
0.625
 40
0.7500000000000001
 40
0.7500000000000001
 40
1.0
 40
1.0
 40
1.0
 40
1.0
 10
168.0942486949542
 20
70.2795991320366
 30
0.0
 10
167.9589630886519
 20
70.99537255146245
 30
0.0
 10
167.8577953424089
 20
71.69618269842897
 30
0.0
 10
167.75493399954
 20
72.72459408774763
 30
0.0
 10
167.7288311540167
 20
73.0644770460258
 30
0.0
 10
167.6939411704719
 20
73.73228880065511
 30
0.0
 10
167.6853549121819
 20
74.05548058121033
 30
0.0
 10
167.6852552026162
 20
74.68113064607029
 30
0.0
 10
167.6937435737648
 20
74.98358702308026
 30
0.0
 10
167.7278869532853
 20
75.56773694388026
 30
0.0
 10
167.7536839351392
 20
75.85050104057478
 30
0.0
 10
167.8570850665271
 20
76.65919583950065
 30
0.0
 10
167.9589430586985
 20
77.13769745159276
 30
0.0
 10
168.0942486949542
 20
77.55743958471399
 30
0.0
  0
LINE
  5
28D
330
1F
100
AcDbEntity
  8
0
  6
Continuous
 62
     7
370
    15
100
AcDbLine
 10
140.9155690236
 20
69.3250139855
 30
0.0
 11
140.9155690236
 21
77.6557949983
 31
0.0
  0
LINE
  5
28E
330
1F
100
AcDbEntity
  8
0
  6
Continuous
 62
     7
370
    15
100
AcDbLine
 10
167.2155690504
 20
69.3250139855
 30
0.0
 11
167.2155690504
 21
78.2280191459
 31
0.0
  0
LINE
  5
28F
330
1F
100
AcDbEntity
  8
0
  6
Continuous
 62
     7
370
    15
100
AcDbLine
 10
140.9155690236
 20
48.4545426123
 30
0.0
 11
140.9155690236
 21
69.3250139855
 31
0.0
  0
LINE
  5
290
330
1F
100
AcDbEntity
  8
0
  6
Continuous
 62
     7
370
    15
100
AcDbLine
 10
167.2155690504
 20
47.8823175334
 30
0.0
 11
167.2155690504
 21
69.3250139855
 31
0.0
  0
LINE
  5
291
330
1F
100
AcDbEntity
  8
0
  6
Continuous
 62
     7
370
    15
100
AcDbLine
 10
139.4155697091
 20
69.3250139855
 30
0.0
 11
139.4155697091
 21
76.905795341
 31
0.0
  0
LINE
  5
292
330
1F
100
AcDbEntity
  8
0
  6
Continuous
 62
     7
370
    15
100
AcDbLine
 10
139.4155697091
 20
49.2045422696
 30
0.0
 11
139.4155697091
 21
69.3250139855
 31
0.0
  0
LINE
  5
293
330
1F
100
AcDbEntity
  8
0
  6
Continuous
 62
     7
370
    15
100
AcDbLine
 10
167.2155690504
 20
78.2280191459
 30
0.0
 11
167.2155690504
 21
81.5452159994
 31
0.0
  0
LINE
  5
294
330
1F
100
AcDbEntity
  8
0
  6
Continuous
 62
     7
370
    15
100
AcDbLine
 10
140.9155690236
 20
77.6557949983
 30
0.0
 11
140.9155690236
 21
80.6779144012
 31
0.0
  0
SPLINE
  5
295
330
1F
100
AcDbEntity
  8
0
  6
Continuous
 62
     7
370
    15
100
AcDbSpline
210
0.0
220
0.0
230
1.0
 70
     8
 71
     3
 72
     8
 73
     4
 74
     0
 42
0.00000001
 43
0.00000001
 12
1.0
 22
0.0
 32
0.0
 13
1.0
 23
0.0
 33
0.0
 40
0.0000202082942178
 40
0.0000202082942178
 40
0.0000202082942178
 40
0.0000202082942178
 40
0.0040218803475994
 40
0.0040218803475994
 40
0.0040218803475994
 40
0.0040218803475994
 10
144.9155690385139
 20
80.76998095715093
 30
0.0
 10
143.5822260375271
 20
80.73922788042098
 30
0.0
 10
142.2488921643045
 20
80.70853886893734
 30
0.0
 10
140.9155690385139
 20
80.67791395712399
 30
0.0
  0
SPLINE
  5
296
330
1F
100
AcDbEntity
  8
0
  6
Continuous
 62
     7
370
    15
100
AcDbSpline
210
0.0
220
0.0
230
1.0
 70
     8
 71
     3
 72
    12
 73
     8
 74
     0
 42
0.00000001
 43
0.00000001
 12
1.0
 22
0.0
 32
0.0
 13
1.0
 23
0.0
 33
0.0
 40
0.0
 40
0.0
 40
0.0
 40
0.0
 40
0.0583245778705122
 40
0.2535553028598371
 40
0.5293292863279843
 40
0.8119597681484104
 40
0.9999999999999999
 40
0.9999999999999999
 40
0.9999999999999999
 40
0.9999999999999999
 10
146.7726529700791
 20
81.0292297654231
 30
0.0
 10
146.7812867705824
 20
81.03013211472988
 30
0.0
 10
146.8188206196277
 20
81.03405491126134
 30
0.0
 10
146.5558398153355
 20
81.00679765422555
 30
0.0
 10
146.0627249953119
 20
80.94777193349273
 30
0.0
 10
145.4660427689203
 20
80.86328778957488
 30
0.0
 10
145.0727115760404
 20
80.79661716971277
 30
0.0
 10
144.9155696792638
 20
80.76998122561768
 30
0.0
  0
SPLINE
  5
297
330
1F
100
AcDbEntity
  8
0
  6
Continuous
 62
     7
370
    15
100
AcDbSpline
210
0.0
220
0.0
230
1.0
 70
     8
 71
     3
 72
    15
 73
    11
 74
     0
 42
0.00000001
 43
0.00000001
 12
1.0
 22
0.0
 32
0.0
 13
1.0
 23
0.0
 33
0.0
 40
0.0
 40
0.0
 40
0.0
 40
0.0
 40
0.1194911902388236
 40
0.2591629481514984
 40
0.4048882018253529
 40
0.5540164354350036
 40
0.7027433663977015
 40
0.84590416810377
 40
0.9792778431130827
 40
1.0
 40
1.0
 40
1.0
 40
1.0
 10
152.944628254894
 20
81.09990597296552
 30
0.0
 10
153.1791431906391
 20
81.08554169712464
 30
0.0
 10
153.6877797019317
 20
81.05438719889311
 30
0.0
 10
154.717637180252
 20
81.02942774166297
 30
0.0
 10
155.8860781562309
 20
81.05002030102928
 30
0.0
 10
157.0388635932595
 20
81.12094229576147
 30
0.0
 10
158.0204968007959
 20
81.22123395732388
 30
0.0
 10
158.6423314980456
 20
81.30270266926381
 30
0.0
 10
158.9046810635998
 20
81.34104508597241
 30
0.0
 10
158.8496666161425
 20
81.33315174228615
 30
0.0
 10
158.8422685055172
 20
81.3320902787526
 30
0.0
  0
SPLINE
  5
298
330
1F
100
AcDbEntity
  8
0
  6
Continuous
 62
     7
370
    15
100
AcDbSpline
210
0.0
220
0.0
230
1.0
 70
     8
 71
     3
 72
    10
 73
     6
 74
     0
 42
0.00000001
 43
0.00000001
 12
1.0
 22
0.0
 32
0.0
 13
1.0
 23
0.0
 33
0.0
 40
0.0
 40
0.0
 40
0.0
 40
0.0
 40
0.2241121256275593
 40
0.6644880310366933
 40
1.0
 40
1.0
 40
1.0
 40
1.0
 10
152.1787551356589
 20
81.16211273301438
 30
0.0
 10
152.170337894057
 20
81.16293535660512
 30
0.0
 10
152.1453809387686
 20
81.16537441932229
 30
0.0
 10
152.4315505849364
 20
81.13738103744507
 30
0.0
 10
152.789739174865
 20
81.11121903256864
 30
0.0
 10
152.944628254894
 20
81.09990597296552
 30
0.0
  0
SPLINE
  5
299
330
1F
100
AcDbEntity
  8
0
  6
Continuous
 62
     7
370
    15
100
AcDbSpline
210
0.0
220
0.0
230
1.0
 70
     8
 71
     3
 72
     8
 73
     4
 74
     0
 42
0.00000001
 43
0.00000001
 12
1.0
 22
0.0
 32
0.0
 13
1.0
 23
0.0
 33
0.0
 40
0.0
 40
0.0
 40
0.0
 40
0.0
 40
1.0
 40
1.0
 40
1.0
 40
1.0
 10
140.9155690385139
 20
80.67791395712399
 30
0.0
 10
140.3945167960531
 20
80.40288383046727
 30
0.0
 10
139.8897804489516
 20
80.14169705631694
 30
0.0
 10
139.4155690385139
 20
79.90038618235798
 30
0.0
  0
LINE
  5
29A
330
1F
100
AcDbEntity
  8
0
  6
Continuous
 62
     7
370
    15
100
AcDbLine
 10
139.4155697091
 20
76.905795341
 30
0.0
 11
139.4155697091
 21
79.9003857799
 31
0.0
  0
LINE
  5
29B
330
1F
100
AcDbEntity
  8
0
  6
Continuous
 62
     7
370
    15
100
AcDbLine
 10
267.4155664755
 20
64.1451171512
 30
0.0
 11
267.4155664755
 21
85.1451167517
 31
0.0
  0
LINE
  5
29C
330
1F
100
AcDbEntity
  8
0
  6
Continuous
 62
     7
370
    15
100
AcDbLine
 10
167.2155690504
 20
47.8823175334
 30
0.0
 11
167.2155690504
 21
46.5050181054
 31
0.0
  0
LINE
  5
29D
330
1F
100
AcDbEntity
  8
0
  6
Continuous
 62
     7
370
    15
100
AcDbLine
 10
140.9155690236
 20
48.4545426123
 30
0.0
 11
140.9155690236
 21
47.1657653951
 31
0.0
  0
SPLINE
  5
29E
330
1F
100
AcDbEntity
  8
0
  6
Continuous
 62
     7
370
    15
100
AcDbSpline
210
0.0
220
0.0
230
1.0
 70
     8
 71
     3
 72
    10
 73
     6
 74
     0
 42
0.00000001
 43
0.00000001
 12
1.0
 22
0.0
 32
0.0
 13
1.0
 23
0.0
 33
0.0
 40
0.0
 40
0.0
 40
0.0
 40
0.0
 40
0.359941185125859
 40
0.7301023657646475
 40
1.0
 40
1.0
 40
1.0
 40
1.0
 10
168.0942487329354
 20
47.5983125768979
 30
0.0
 10
168.0077851790811
 20
47.40816138730186
 30
0.0
 10
167.8324030671412
 20
47.02245994741666
 30
0.0
 10
167.7023652703381
 20
46.73136797576851
 30
0.0
 10
167.697477768836
 20
46.72048217306192
 30
0.0
 10
167.6954168252757
 20
46.71589188803033
 30
0.0
  0
LINE
  5
29F
330
1F
100
AcDbEntity
  8
0
  6
Continuous
 62
     7
370
    15
100
AcDbLine
 10
139.4155697091
 20
49.2045422696
 30
0.0
 11
139.4155697091
 21
48.0317910813
 31
0.0
  0
DIMENSION
  5
2A0
330
1F
100
AcDbEntity
  8
VERMASSUNG
100
AcDbDimension
  2
_D_9
 10
267.4155690385
 20
29.1451171987
 30
0.0
 11
229.9155690385
 21
29.1451171987
 31
0.0
 70
   160
  1
<>
 71
     2
 42
-1.0
  3
SLDDIMSTYLE0
100
AcDbAlignedDimension
 13
192.4155690385
 23
64.1451171987
 33
0.0
 14
267.4155690385
 24
40.1451171987
 34
0.0
100
AcDbRotatedDimension
  0
DIMENSION
  5
2AA
330
1F
100
AcDbEntity
  8
VERMASSUNG
100
AcDbDimension
  2
_D_10
 10
130.0311767542
 20
40.1451171987
 30
0.0
 11
130.0311767542
 21
65.1451171987
 31
0.0
 70
   160
  1
PSC%%c<>
 71
     2
 42
-1.0
  3
SLDDIMSTYLE0
100
AcDbAlignedDimension
 13
169.7155690385
 23
90.1451171987
 33
0.0
 14
169.7155690385
 24
40.1451171987
 34
0.0
 50
90.0
100
AcDbRotatedDimension
  0
LINE
  5
2B6
330
1F
100
AcDbEntity
  8
VERMASSUNG
  6
CENTERX2
370
     0
100
AcDbLine
 10
137.4155690385
 20
65.1451171987
 30
0.0
 11
274.9478303615
 21
65.1451171987
 31
0.0
  0
OLE2FRAME
  5
2B7
330
1F
100
AcDbEntity
  8
0
100
AcDbOle2Frame
 70
     2
  3
Paintbrush-Bild
 10
13.8511154363
 20
38.264191557
 30
0.0
 11
51.6290888628
 21
31.9806341108
 31
0.0
 71
     2
 72
     0
 73
     1
 90
    12928
310
80552BED0767C5B32B40DDAF6807D121434000000000000000006FFBDDFB85D0
310
4940DDAF6807D121434000000000000000006FFBDDFB85D04940416F4BD60AFB
310
3F4000000000000000002BED0767C5B32B40416F4BD60AFB3F40000000000000
310
0000000000000100000000010000010000000100000000000100000000320000
310
D0CF11E0A1B11AE1000000000000000000000000000000003E000300FEFF0900
310
0600000000000000000000000100000001000000000000000010000002000000
310
01000000FEFFFFFF0000000000000000FFFFFFFFFFFFFFFFFFFFFFFFFFFFFFFF
310
FFFFFFFFFFFFFFFFFFFFFFFFFFFFFFFFFFFFFFFFFFFFFFFFFFFFFFFFFFFFFFFF
310
FFFFFFFFFFFFFFFFFFFFFFFFFFFFFFFFFFFFFFFFFFFFFFFFFFFFFFFFFFFFFFFF
310
FFFFFFFFFFFFFFFFFFFFFFFFFFFFFFFFFFFFFFFFFFFFFFFFFFFFFFFFFFFFFFFF
310
FFFFFFFFFFFFFFFFFFFFFFFFFFFFFFFFFFFFFFFFFFFFFFFFFFFFFFFFFFFFFFFF
310
FFFFFFFFFFFFFFFFFFFFFFFFFFFFFFFFFFFFFFFFFFFFFFFFFFFFFFFFFFFFFFFF
310
FFFFFFFFFFFFFFFFFFFFFFFFFFFFFFFFFFFFFFFFFFFFFFFFFFFFFFFFFFFFFFFF
310
FFFFFFFFFFFFFFFFFFFFFFFFFFFFFFFFFFFFFFFFFFFFFFFFFFFFFFFFFFFFFFFF
310
FFFFFFFFFFFFFFFFFFFFFFFFFFFFFFFFFFFFFFFFFFFFFFFFFFFFFFFFFFFFFFFF
310
FFFFFFFFFFFFFFFFFFFFFFFFFFFFFFFFFFFFFFFFFFFFFFFFFFFFFFFFFFFFFFFF
310
FFFFFFFFFFFFFFFFFFFFFFFFFFFFFFFFFFFFFFFFFFFFFFFFFFFFFFFFFFFFFFFF
310
FFFFFFFFFFFFFFFFFFFFFFFFFFFFFFFFFFFFFFFFFFFFFFFFFFFFFFFFFFFFFFFF
310
FFFFFFFFFFFFFFFFFFFFFFFFFFFFFFFFFFFFFFFFFFFFFFFFFFFFFFFFFFFFFFFF
310
FFFFFFFFFFFFFFFFFFFFFFFFFFFFFFFFFFFFFFFFFFFFFFFFFFFFFFFFFFFFFFFF
310
FDFFFFFFFEFFFFFFFEFFFFFFFEFFFFFF05000000060000000700000008000000
310
090000000A0000000B0000000C0000000D0000000E0000000F00000010000000
310
11000000120000001300000014000000150000001600000017000000FEFFFFFF
310
FFFFFFFFFFFFFFFFFFFFFFFFFFFFFFFFFFFFFFFFFFFFFFFFFFFFFFFFFFFFFFFF
310
FFFFFFFFFFFFFFFFFFFFFFFFFFFFFFFFFFFFFFFFFFFFFFFFFFFFFFFFFFFFFFFF
310
FFFFFFFFFFFFFFFFFFFFFFFFFFFFFFFFFFFFFFFFFFFFFFFFFFFFFFFFFFFFFFFF
310
FFFFFFFFFFFFFFFFFFFFFFFFFFFFFFFFFFFFFFFFFFFFFFFFFFFFFFFFFFFFFFFF
310
FFFFFFFFFFFFFFFFFFFFFFFFFFFFFFFFFFFFFFFFFFFFFFFFFFFFFFFFFFFFFFFF
310
FFFFFFFFFFFFFFFFFFFFFFFFFFFFFFFFFFFFFFFFFFFFFFFFFFFFFFFFFFFFFFFF
310
FFFFFFFFFFFFFFFFFFFFFFFFFFFFFFFFFFFFFFFFFFFFFFFFFFFFFFFFFFFFFFFF
310
FFFFFFFFFFFFFFFFFFFFFFFFFFFFFFFFFFFFFFFFFFFFFFFFFFFFFFFFFFFFFFFF
310
FFFFFFFFFFFFFFFFFFFFFFFFFFFFFFFFFFFFFFFFFFFFFFFFFFFFFFFFFFFFFFFF
310
FFFFFFFFFFFFFFFFFFFFFFFFFFFFFFFFFFFFFFFFFFFFFFFFFFFFFFFFFFFFFFFF
310
FFFFFFFFFFFFFFFFFFFFFFFFFFFFFFFFFFFFFFFFFFFFFFFFFFFFFFFFFFFFFFFF
310
FFFFFFFFFFFFFFFFFFFFFFFFFFFFFFFFFFFFFFFFFFFFFFFFFFFFFFFFFFFFFFFF
310
FFFFFFFFFFFFFFFFFFFFFFFFFFFFFFFFFFFFFFFFFFFFFFFFFFFFFFFFFFFFFFFF
310
52006F006F007400200045006E00740072007900000000000000000000000000
310
0000000000000000000000000000000000000000000000000000000000000000
310
16000500FFFFFFFFFFFFFFFF020000000A00030000000000C000000000000046
310
00000000000000000000000080AE380AFC2CCD0103000000C000000000000000
310
01004F006C006500000000000000000000000000000000000000000000000000
310
0000000000000000000000000000000000000000000000000000000000000000
310
0A000200FFFFFFFFFFFFFFFFFFFFFFFF00000000000000000000000000000000
310
0000000000000000000000000000000000000000000000001400000000000000
310
010043006F006D0070004F0062006A0000000000000000000000000000000000
310
0000000000000000000000000000000000000000000000000000000000000000
310
120002010100000003000000FFFFFFFF00000000000000000000000000000000
310
0000000000000000000000000000000000000000010000004D00000000000000
310
01004F006C006500310030004E00610074006900760065000000000000000000
310
0000000000000000000000000000000000000000000000000000000000000000
310
1A000200FFFFFFFFFFFFFFFFFFFFFFFF00000000000000000000000000000000
310
0000000000000000000000000000000000000000040000002426000000000000
310
FEFFFFFF02000000FEFFFFFFFFFFFFFFFFFFFFFFFFFFFFFFFFFFFFFFFFFFFFFF
310
FFFFFFFFFFFFFFFFFFFFFFFFFFFFFFFFFFFFFFFFFFFFFFFFFFFFFFFFFFFFFFFF
310
FFFFFFFFFFFFFFFFFFFFFFFFFFFFFFFFFFFFFFFFFFFFFFFFFFFFFFFFFFFFFFFF
310
FFFFFFFFFFFFFFFFFFFFFFFFFFFFFFFFFFFFFFFFFFFFFFFFFFFFFFFFFFFFFFFF
310
FFFFFFFFFFFFFFFFFFFFFFFFFFFFFFFFFFFFFFFFFFFFFFFFFFFFFFFFFFFFFFFF
310
FFFFFFFFFFFFFFFFFFFFFFFFFFFFFFFFFFFFFFFFFFFFFFFFFFFFFFFFFFFFFFFF
310
FFFFFFFFFFFFFFFFFFFFFFFFFFFFFFFFFFFFFFFFFFFFFFFFFFFFFFFFFFFFFFFF
310
FFFFFFFFFFFFFFFFFFFFFFFFFFFFFFFFFFFFFFFFFFFFFFFFFFFFFFFFFFFFFFFF
310
FFFFFFFFFFFFFFFFFFFFFFFFFFFFFFFFFFFFFFFFFFFFFFFFFFFFFFFFFFFFFFFF
310
FFFFFFFFFFFFFFFFFFFFFFFFFFFFFFFFFFFFFFFFFFFFFFFFFFFFFFFFFFFFFFFF
310
FFFFFFFFFFFFFFFFFFFFFFFFFFFFFFFFFFFFFFFFFFFFFFFFFFFFFFFFFFFFFFFF
310
FFFFFFFFFFFFFFFFFFFFFFFFFFFFFFFFFFFFFFFFFFFFFFFFFFFFFFFFFFFFFFFF
310
FFFFFFFFFFFFFFFFFFFFFFFFFFFFFFFFFFFFFFFFFFFFFFFFFFFFFFFFFFFFFFFF
310
FFFFFFFFFFFFFFFFFFFFFFFFFFFFFFFFFFFFFFFFFFFFFFFFFFFFFFFFFFFFFFFF
310
FFFFFFFFFFFFFFFFFFFFFFFFFFFFFFFFFFFFFFFFFFFFFFFFFFFFFFFFFFFFFFFF
310
FFFFFFFFFFFFFFFFFFFFFFFFFFFFFFFFFFFFFFFFFFFFFFFFFFFFFFFFFFFFFFFF
310
0100000200000000000000000000000000000000000000000000000000000000
310
0000000000000000000000000000000000000000000000000000000000000000
310
0100FEFF030A0000FFFFFFFF0A00030000000000C00000000000004607000000
310
5042727573680007000000504272757368000700000050427275736800F439B2
310
7100000000000000000000000000000000000000000000000000000000000000
310
0000000000000000000000000000000000000000000000000000000000000000
310
0000000000000000000000000000000000000000000000000000000000000000
310
0000000000000000000000000000000000000000000000000000000000000000
310
0000000000000000000000000000000000000000000000000000000000000000
310
0000000000000000000000000000000000000000000000000000000000000000
310
0000000000000000000000000000000000000000000000000000000000000000
310
0000000000000000000000000000000000000000000000000000000000000000
310
0000000000000000000000000000000000000000000000000000000000000000
310
0000000000000000000000000000000000000000000000000000000000000000
310
0000000000000000000000000000000000000000000000000000000000000000
310
0000000000000000000000000000000000000000000000000000000000000000
310
20260000424D0E260000000000003E00000028000000B40200006E0000000100
310
01000000000000000000130B0000130B00000200000002000000000000FFFFFF
310
FFFFFFFFFFFFFFFFFFFFFFFFFFFFFFFFFFFFFFFFFFFFFFFFFFFFFFFFFFFFFFFF
310
FFFFFFFFFFFFFFFFFFFFFFFFFFFFFFFFFFFFFFFFFFFFFFFFFFFFFFFFFFFFFFFF
310
FFFFFFFFFFFFFFFFFFFFFFFFFFFFFFFFFFFFFFFFFFFFFFFFF000FFFFFFFFFFFF
310
FFFFFFFFFFFFFFFFFFFFFFFFFFFFFFFFFFFFFFFFFFFFFFFFFFFFFFFFFFFFFFFF
310
FFFFFFFFFFFFFFFFFFFFFFFFFFFFFFFFFFFFFFFFFFFFFFFFFFFFFFFFFFFFFFFF
310
FFFFFFFFFFFFFFFFFFFFFFFFFFFFFFFFF000FFFFFFFFFFFFFFFFFFFFFFFFFFFF
310
FFFFFFFFFFFFFFFFFFFFFFFFFFFFFFFFFFFFFFFFFFFFFFFFFFFFFFFFFFFFFFFF
310
FFFFFFFFFFFFFFFFFFFFFFFFFFFFFFFFFFFFFFFFFFFFFFFFFFFFFFFFFFFFFFFF
310
FFFFFFFFFFFFFFFFF000FFFFFFFFFFFFFFFFFFFFFFFFFFFFFFFFFFFFFFFFFFFF
310
FFFFFFFFFFFFFFFFFFFFFFFFFFFFFFFFFFFFFFFFFFFFFFFFFFFFFFFFFFFFFFFF
310
FFFFFFFFFFFFFFFFFFFFFFFFFFFFFFFFFFFFFFFFFFFFFFFFFFFFFFFFFFFFFFFF
310
F000FFFFFFFFFFFFFFFFFFFFFFFFFFFFFFFFFFFFFFFFFFFFFFFFFFFFFFFFFFFF
310
FFFFFFFFFFFFFFFFFFFFFFFFFFFFFFFFFFFFFFFFFFFFFFFFFFFFFFFFFFFFFFFF
310
FFFFFFFFFFFFFFFFFFFFFFFFFFFFFFFFFFFFFFFFFFFFFFFFF000FFFFFFFFFFFF
310
FFFFFFFFFFFFFFFFFFFFFFFFFFFFFFFFFFFFFFFFFFFFFFFFFFFFFFFFFFFFFFFF
310
FFFFFFFFFFFFFFFFFFFFFFFFFFFFFFFFFFFFFFFFFFFFFFFFFFFFFFFFFFFFFFFF
310
FFFFFFFFFFFFFFFFFFFFFFFFFFFFFFFFF000FFFFFFFFFFFFFFFFFFFFFFFFFFFF
310
FFFFFFFFFFFFFFFFFFFFFFFFFFFFFFFFFFFFFFFFFFFFFFFFFFFFFFFFFFFFFFFF
310
FFFFFFFFFFFFFFFFFFFFFFFFFFFFFFFFFFFFFFFFFFFFFFFFFFFFFFFFFFFFFFFF
310
FFFFFFFFFFFFFFFFF000FFFFFFFFFFFFFFFFFFFFFFFFFFFFFFFFFFFFFFFFFFFF
310
FFFFFFFFFFFFFFFFFFFFFFFFFFFFFFFFFFFFFFFFFFFFFFFFFFFFFFFFFFFFFFFF
310
FFFFFFFFFFFFFFFFFFFFFFFFFFFFFFFFFFFFFFFFFFFFFFFFFFFFFFFFFFFFFFFF
310
F000FFFFFFFFFFFFFFFFFFFFFFFFFFFFFFFFFFFFFFFFFFFFFFFFFFFFFFFFFFFF
310
FFFFFFFFFFFFFFFFFFFFFFFFFFFFFFFFFFFFFFFFFFFFFFFFFFFFFFFFFFFFFFFF
310
FFFFFFFFFFFFFFFFFFFFFFFFFFFFFFFFFFFFFFFFFFFFFFFFF000FFFFFFFFFFFF
310
FFFFFFFFFFFFFFFFFFFFFFFFFFFFFFFFFFFFFFFFFFFFFFFFFFFFFFFFFFFFFFFF
310
FFFFFFFFFFFFFFFFFFFFFFFFFFFFFFFFFFFFFFFFFFFFFFFFFFFFFFFFFFFFFFFF
310
FFFFFFFFFFFFFFFFFFFFFFFFFFFFFFFFF000FFFFFFFFFFFFFFFFFFFFFFFFFFFF
310
FFFFFFFFFFFFFFFFFFFFFFFFFFFFFFFFFFFFFFFFFFFFFFFFFFFFFFFFFFFFFFFF
310
FFFFFFFFFFFFFFFFFFFFFFFFFFFFFFFFFFFFFFFFFFFFFFFFFFFFFFFFFFFFFFFF
310
FFFFFFFFFFFFFFFFF000FFFFFFFFFFFFFFFFFFFFFFFFFFFFFFFFFFFFFFFFFFFF
310
FFFFFFFFFFFFFFFFFFFFFFFFFFFFFFFFFFFFFFFFFFFFFFFFFFFFFFFFFFFFFFFF
310
FFFFFFFFFFFFFFFFFFFFFFFFFFFFFFFFFFFFFFFFFFFFFFFFFFFFFFFFFFFFFFFF
310
F000FFFFFFFFFFFFFFFFFFFFFFFFFFFFFFFFFFFFFFFFFFFFFFFFFFFFFFFFFFFF
310
FFFFFFFFFFFFFFFFFFFFFFFFFFFFFFFFFFFFFFFFFFFFFFFFFFFFFFFFFFFFFFFF
310
FFFFFFFFFFFFFFFFFFFFFFFFFFFFFFFFFFFFFFFFFFFFFFFFF000FFFFFFFFFFFF
310
FFFFFFFFFFFFFFFFFFFFFFFFFFFFFFFFFFFFFFFFFFFFFFFFFFFFFFFFFFFFFFFF
310
FFFFFFFFFFFFFFFFFFFFFFFFFFFFFFFFFFFFFFFFFFFFFFFFFFFFFFFFFFFFFFFF
310
FFFFFFFFFFFFFFFFFFFFFFFFFFFFFFFFF000FFFFFFFFFFFFFFFFFFFFFFFFFFFF
310
FFFFFFFFFFFFFFFFFFFFFFFFFFFFFFFFFFFFFFFFFFFFFFFFFFFFFFFFFFFFFFFF
310
FFFFFFFFFFFFFFFFFFFFFFFFFFFFFFFFFFFFFFFFFFFFFFFFFFFFFFFFFFFFFFFF
310
FFFFFFFFFFFFFFFFF000FFFFFFFFFFFFFFFFFFFFFFFFFFFFFFFFFFFFFFFFFFFF
310
FFFFFFFFFFFFFFFFFFFFFFFFFFFFFFFFFFFFFFFFFFFFFFFFFFFFFFFFFFFFFFFF
310
FFFFFFFFFFFFFFFFFFFFFFFFFFFFFFFFFFFFFFFFFFFFFFFFFFFFFFFFFFFFFFFF
310
F000FFFFFFFFFFFFFFFFFFFFFFFFFFFFFFFFFFFFFFFFFFFFFFFFFFFFFFFFFFFF
310
FFFFFFFFFFFFFFFFFFFFFFFFFFFFFFFFFFFFFFFFFFFFFFFFFFFFFFFFFFFFFFFF
310
FFFFFFFFFFFFFFFFFFFFFFFFFFFFFFFFFFFFFFFFFFFFFFFFF000FFFFFFFFFFFF
310
FFFFFFFFFFFFFFFFFFFFFFFFFFFFFFFFFFFFFFFFFFFFFFFFFFFFFFFFFFFFFFFF
310
FFFFFFFFFFFFFFFFFFFFFFFFFFFFFFFFFFFFFFFFFFFFFFFFFFFFFFFFFFFFFFFF
310
FFFFFFFFFFFFFFFFFFFFFFFFFFFFFFFFF000FFFFFFFFFFFFFFFFFFFFFFFFFFFF
310
FFFFFFFFFFFFFFFFFFFFFFFFFFFFFFFFFFFFFFFFFFFFFFFFFFFFFFFFFFFFFFFF
310
FFFFFFFFFFFFFFFFFFFFFFFFFFFFFFFFFFFFFFFFFFFFFFFFFFFFFFFFFFFFFFFF
310
FFFFFFFFFFFFFFFFF000FFFFF80003FFFFFFFFFFFFFFFFFFFFFFFFFFFFFFFFFF
310
FFFFF00007FFFFFFFFFF00007FFFFFF800000000000000007FFFFFFFFFFFFFFF
310
FFFFFFFC001FFFFFFFFFFFFFFC001FFFFFFFFFFFFFFFFFFFFFFFFFFE0007FFFF
310
F000FFFF8000007FFFFFFFF8000FFFFFC0007FFFFF80007FFFFF0000007FFFFF
310
FFF8000007FFFFF800000000000000007FFFFFF0001FFFFFFFFFFFC00001FFFF
310
FFFFFFFFC00001FFFFFFFF000000000003FFFFE000007FFFF000FFFE0000000F
310
FFFFFFF0000FFFFF80007FFFFF80007FFFFC0000001FFFFFFFC0000001FFFFF8
310
00000000000000007FFFFFF0001FFFFFFFFFFE0000003FFFFFFFFFFE0000003F
310
FFFFFF000000000003FFFF0000000FFFF000FFF800000003FFFFFFF00007FFFF
310
80007FFFFF80007FFFF000000007FFFFFF000000003FFFF80000000000000000
310
7FFFFFF0001FFFFFFFFFF80000000FFFFFFFFFF80000000FFFFFFF0000000000
310
03FFFC00000003FFF000FFE000000000FFFFFFF00007FFFF80003FFFFF80007F
310
FFC000000001FFFFFC000000001FFFF800000000000000007FFFFFF0001FFFFF
310
FFFFE000000003FFFFFFFFE000000003FFFFFF000000000003FFF000000000FF
310
F000FF80000000007FFFFFF00007FFFF80003FFFFF80007FFF8000000000FFFF
310
F80000000007FFF800000000000000007FFFFFF0001FFFFFFFFFC000000001FF
310
FFFFFFC000000001FFFFFF000000000003FFC0000000007FF000FF0000000000
310
3FFFFFE00007FFFF00003FFFFF80007FFE00000000003FFFF00000000003FFF8
310
00000000000000007FFFFFF0001FFFFFFFFF8000000000FFFFFFFF8000000000
310
FFFFFF000000000003FF80000000003FF000FE00000000001FFFFFE00003FFFF
310
00003FFFFF80007FFC00000000001FFFE00000000001FFF8000001FFFE000000
310
7FFFFFF0001FFFFFFFFE00000000003FFFFFFE00000000003FFFFF0000000000
310
03FF00000000001FF000FC00000000000FFFFFE00003FFFF00001FFFFF80007F
310
F800000000001FFFC00000000000FFF8000001FFFE0000007FFFFFF0001FFFFF
310
FFFC00000000001FFFFFFC00000000001FFFFF000000000003FE00000000000F
310
F000F8000000000007FFFFE00003FFFF00001FFFFF80007FF800000000000FFF
310
800000000000FFF8000001FFFE0000007FFFFFF0001FFFFFFFF800000000000F
310
FFFFF800000000000FFFFF000000000003FC000000000007F000F80000000000
310
03FFFFC00003FFFE00001FFFFF80007FF0000000000007FF0000000000007FF8
310
000001FFFE0000007FFFFFF0001FFFFFFFF0000000000007FFFFF00000000000
310
07FFFF000000000003F8000000000003F000F0000000000003FFFFC00001FFFE
310
00001FFFFF80007FE0000000000007FE0000000000003FF8000001FFFE000000
310
7FFFFFF0001FFFFFFFF0000000000007FFFFF0000000000007FFFF0000000000
310
03F800001F800003F000E00001FFF00001FFFFC00001FFFE00000FFFFF80007F
310
E00001FFE00003FE00001FFF00003FF8000001FFFE0000007FFFFFF0001FFFFF
310
FFE000003E000003FFFFE000003E000003FFFF000000000003F00001FFF80001
310
F000E00007FFFC0001FFFFC00001FFFE00000FFFFF80007FC0000FFFFC0003FC
310
0000FFFFC0001FF8000001FFFE0000007FFFFFF0001FFFFFFFC00003FFE00001
310
FFFFC00003FFE00001FFFF0001FFFFFFFFF00007FFFE0001F000E0000FFFFF00
310
00FFFF800001FFFC00000FFFFF80007FC0001FFFFE0001FC0001FFFFE0001FF8
310
000001FFFE0000007FFFFFF0001FFFFFFF80000FFFF80000FFFF80000FFFF800
310
00FFFF0003FFFFFFFFE0000FFFFF8000F000C0003FFFFF8000FFFF800000FFFC
310
000007FFFF80007F80003FFFFF0001FC0003FFFFF0001FF8000001FFFE000000
310
7FFFFFF0001FFFFFFF80003FFFFE0000FFFF80003FFFFE0000FFFF0003FFFFFF
310
FFE0003FFFFF8000F000C0003FFFFF8000FFFF800000FFFC000007FFFF80007F
310
80007FFFFF8001F80007FFFFF8000FF8000001FFFE0000007FFFFFF0001FFFFF
310
FF00007FFFFF00007FFF00007FFFFF00007FFF0003FFFFFFFFE0003FFFFFC000
310
F000C0007FFFFFC000FFFF000000FFFC000007FFFF80007F8000FFFFFF8000F8
310
000FFFFFF8000FF8000001FFFE0000007FFFFFF0001FFFFFFF0000FFFFFF8000
310
7FFF0000FFFFFF80007FFF0003FFFFFFFFC0007FFFFFC00070008000FFFFFFC0
310
00FFFF000000FFF8000007FFFF80007F8000FFFFFF8000F8000FFFFFF8000FF8
310
000001FFFE0000007FFFFFF0001FFFFFFE0001FFFFFFC0003FFE0001FFFFFFC0
310
003FFF0003FFFFFFFFC0007FFFFFE00070008000FFFFFFC0007FFF0000007FF8
310
000003FFFF80007F0001FFFFFF8000F8000FFFFFF8000FF8000001FFFE000000
310
7FFFFFF0001FFFFFFE0001FFFFFFC0003FFE0001FFFFFFC0003FFF0003FFFFFF
310
FFC000FFFFFFE00070008000FFFFFFC0007FFF0000007FF8000003FFFF80007F
310
0001FFFFFF8000F8001FFFFFF8000FF8000001FFFE0000007FFFFFF0001FFFFF
310
FE0003FFFFFFE0003FFE0003FFFFFFE0003FFF0003FFFFFFFFC000FFFFFFE000
310
70008000FFFFFFC0007FFE0000007FF8000003FFFF80007F0001FFFFFF8000F0
310
001FFFFFF8000FF8000001FFFE0000007FFFFFF0001FFFFFFC0003FFFFFFE000
310
1FFC0003FFFFFFE0001FFF0003FFFFFFFFC000FFFFFFC00070008000FFFFFF80
310
007FFE0000007FF0000003FFFF80007F0001FFFFFF0000F0001FFFFFF8000FF8
310
000001FFFE0000007FFFFFF0001FFFFFFC0007FFFFFFF0001FFC0007FFFFFFF0
310
001FFF0003FFFFFFFFC000FFFFFFC00070008001FFFFFF0000FFFE0000003FF0
310
000001FFFF80007F0001FFFFFF0000F8001FFFFFF0000FF8000001FFFE000000
310
7FFFFFF0001FFFFFFC0007FFFFFFF0001FFC0007FFFFFFF0001FFF0003FFFFFF
310
FFC001FFFFFF80007000FFFFFFFFFE0000FFFE0008003FF0008001FFFF80007F
310
FFFFFFFFFC0000FFFFFFFFFFE0000FF8000001FFFE0000007FFFFFF0001FFFFF
310
F8000FFFFFFFF8000FF8000FFFFFFFF8000FFF0003FFFFFFFFFFFFFFFFFF0000
310
7000FFFFFFFFFC0000FFFC0008003FF0008001FFFF80007FFFFFFFFFF80001FF
310
FFFFFFFF80000FF8000001FFFE0000007FFFFFF0001FFFFFF8000FFFFFFFF800
310
0FF8000FFFFFFFF8000FFF0003FFFFFFFFFFFFFFFFFE0000F000FFFFFFFFE000
310
00FFFC000C003FE000C001FFFF80007FFFFFFFFFC00001FFFFFFFFFE00001FF8
310
000001FFFE0000007FFFFFF0001FFFFFF8000FFFFFFFF8000FF8000FFFFFFFF8
310
000FFF0003FFFFFFFFFFFFFFFFF00000F000FFFFFFFE000001FFFC000C001FE0
310
00C000FFFF80007FFFFFFFFE000001FFFFFFFFE000001FF80FFFFFFFFFFFFFC0
310
7FFFFFF0001FFFFFF8000FFFFFFFF8000FF8000FFFFFFFF8000FFF0003FFFFFF
310
FFFFFFFFFF800000F000FFFFFFC0000001FFFC001C001FE001C000FFFF80007F
310
FFFFFF80000003FFFFFFF80000001FF80FFFFFFFFFFFFFC07FFFFFF0001FFFFF
310
F8001FFFFFFFFC000FF8001FFFFFFFFC000FFF0003FFFFFFFFFFFFFFF0000001
310
F000FFFFF800000001FFF8001C001FE001C000FFFF80007FFFFFF800000003FF
310
FFFF800000003FF80FFFFFFFFFFFFFC07FFFFFF0001FFFFFF8001FFFFFFFFC00
310
0FF8001FFFFFFFFC000FFF0003FFFFFFFFFFFFFE00000001F000FFFFC0000000
310
03FFF8001E001FC001E000FFFF80007FFFFF8000000007FFFFFC000000003FF8
310
0FFFFFFFFFFFFFC07FFFFFF0001FFFFFF8001FFFFFFFFC000FF8001FFFFFFFFC
310
000FFF0003FFFFFFFFFFFFE000000003F000FFFE0000000007FFF8001E000FC0
310
01E0007FFF80007FFFFE0000000007FFFFE0000000007FF80FFFFFFFFFFFFFC0
310
7FFFFFF0001FFFFFF0001FFFFFFFFC0007F0001FFFFFFFFC0007FF0003FFFFFF
310
FFFFFF0000000003F000FFF80000000007FFF8001E000FC003E0007FFF80007F
310
FFF0000000000FFFFF8000000000FFF80FFFFFFFFFFFFFC07FFFFFF0001FFFFF
310
F0001FFFFFFFFC0007F0001FFFFFFFFC0007FF0003FFFFFFFFFFFC0000000007
310
F000FFE0000000000FFFF0003E000FC003E0007FFF80007FFFC0000000001FFF
310
FE0000000001FFF80FFFFFFFFFFFFFC07FFFFFF0001FFFFFF0001FFFFFFFFC00
310
07F0001FFFFFFFFC0007FF0003FFFFFFFFFFF0000000000FF000FFC000000000
310
1FFFF0003F000F8003F0003FFF80007FFF80000000003FFFF80000000003FFF8
310
0FFFFFFFFFFFFFC07FFFFFF0001FFFFFF0001FFFFFFFFC0007F0001FFFFFFFFC
310
0007FF0003FFFFFFFFFFE0000000001FF000FF00000000007FFFF0003F000780
310
03F0003FFF80007FFF00000000007FFFF00000000007FFF80FFFFFFFFFFFFFC0
310
7FFFFFF0001FFFFFF0001FFFFFFFFC0007F0001FFFFFFFFC0007FF0003FFFFFF
310
FFFF80000000007FF000FE0000000000FFFFE0003F00078007F0003FFF80007F
310
FE0000000001FFFFE0000000001FFFF80FFFFFFFFFFFFFC07FFFFFF0001FFFFF
310
F0001FFFFFFFFC0007F0001FFFFFFFFC0007FF0003FFFFFFFFFF0000000000FF
310
F000FC0000000003FFFFE0007F00078007F0003FFF80007FFC0000000007FFFF
310
C0000000007FFFF80FFFFFFFFFFFFFC07FFFFFF0001FFFFFF8001FFFFFFFFC00
310
0FF8001FFFFFFFFC000FFF0003FFFFFFFFFE0000000003FFF000FC000000000F
310
FFFFE0007F80070007F8001FFF80007FF8000000001FFFFF8000000001FFFFF8
310
0FFFFFFFFFFFFFC07FFFFFF0001FFFFFF8001FFFFFFFFC000FF8001FFFFFFFFC
310
000FFF0003FFFFFFFFFC000000000FFFF000F8000000007FFFFFE0007F800700
310
07F8001FFF80007FF000000000FFFFFF800000000FFFFFF80FFFFFFFFFFFFFC0
310
7FFFFFF0001FFFFFF8000FFFFFFFF8000FF8000FFFFFFFF8000FFF0003FFFFFF
310
FFFC000000007FFFF000F800000007FFFFFFC0007F8003000FF8001FFF80007F
310
F000000007FFFFFF000000007FFFFFF80FFFFFFFFFFFFFC07FFFFFF0001FFFFF
310
F8000FFFFFFFF8000FF8000FFFFFFFF8000FFF0003FFFFFFFFF80000000FFFFF
310
F000F0000000FFFFFFFFC000FF8003000FF8001FFF80007FE0000000FFFFFFFF
310
0000000FFFFFFFF8000001FFFE0000007FFFFFF0001FFFFFF8000FFFFFFFF800
310
0FF8000FFFFFFFF8000FFF0003FFFFFFFFF8000000FFFFFFF000F000000FFFFF
310
FFFFC000FFC002000FF8000FFF80007FE000001FFFFFFFFE000001FFFFFFFFF8
310
000001FFFE0000007FFFFFF0001FFFFFF8000FFFFFFFF8000FF8000FFFFFFFF8
310
000FFF0003FFFFFFFFF000001FFFFFFFF000E00000FFFFFFFFFFC000FFC00200
310
0FFC000FFF80007FE00001FFFFFFFFFE00001FFFFFFFFFF8000001FFFE000000
310
7FFFFFF0001FFFFFFC000FFFFFFFF8001FFC000FFFFFFFF8001FFF0003FFFFFF
310
FFF00001FFFFFFFFF000E00007FFFFFFFFFF8000FFC000001FFC000FFF80007F
310
C0000FFFFFFFFFFE0000FFFFFFFFFFF8000001FFFE0000007FFFFFF0001FFFFF
310
FC0007FFFFFFF0001FFC0007FFFFFFF0001FFF0003FFFFFFFFF00007FFFFFFFF
310
F000E0001FFFFFFFFFFF8000FFC000001FFC000FFF80007FC0003FFFFFFFFFFE
310
0001FFFFFFFFFFF8000001FFFE0000007FFFFFF0001FFFFFFC0007FFFFFFF000
310
1FFC0007FFFFFFF0001FFF0003FFFFFFFFF0001FFFFFFFFFF000E0003FFFFF00
310
03FF8001FFE000001FFC0007FF80007FC0007FFFFF0007FC0003FFFFF0003FF8
310
000001FFFE0000007FFFFFF0001FFFFFFC0003FFFFFFE0001FFC0003FFFFFFE0
310
001FFF0003FFFFFFFFF0003FFFFFFFFFF000E0003FFFFF0001FF8001FFE00000
310
1FFE0007FF80007FC0007FFFFE0003FC0007FFFFE0003FF8000001FFFE000000
310
7FFFFFF0001FFFFFFE0003FFFFFFE0003FFE0003FFFFFFE0003FFF0003FFFFFF
310
FFF0003FFFFF8001F000E0003FFFFF0001FF0001FFE000001FFE0007FF80007F
310
C0007FFFFE0003FC0007FFFFE0003FF8000001FFFE0000007FFFFFF0001FFFFF
310
FE0001FFFFFFC0003FFE0001FFFFFFC0003FFF0003FFFFFFFFF0003FFFFF0001
310
F000E0003FFFFF0003FF0001FFE000003FFE0007FF80007FC0007FFFFE0003FC
310
0007FFFFE0003FF8000001FFFE0000007FFFFFF0001FFFFFFF0001FFFFFFC000
310
7FFF0001FFFFFFC0007FFF0003FFFFFFFFF0003FFFFF0001F000E0003FFFFE00
310
03FF0003FFF000003FFE0003FF80007FC0007FFFFC0003FE0007FFFFE0003FF8
310
000001FFFE0000007FFFFFF0001FFFFFFF0000FFFFFF80007FFF0000FFFFFF80
310
007FFF0003FFFFFFFFF0003FFFFF0001F000E0003FFFFE0003FF0003FFF00000
310
3FFF0003FF80007FC0007FFFFC0007FE0007FFFFC0003FF8000001FFFE000000
310
7FFFFFF0001FFFFFFF80007FFFFF0000FFFF80007FFFFF0000FFFF0003FFFFFF
310
FFF0003FFFFF0003F000E0003FFFFC0003FE0003FFF000003FFF0003FF80007F
310
E0003FFFF80007FE0003FFFFC0007FF8000001FFFE0000007FFFFFF0001FFFFF
310
FF80003FFFFE0000FFFF80003FFFFE0000FFFF0003FFFFFFFFF0001FFFFE0003
310
F000F0001FFFF80003FE0003FFF000007FFF0001FF80007FE0003FFFF00007FE
310
0001FFFF80007FF8000001FFFE0000007FFFFFF0001FFFFFFFC0000FFFF80001
310
FFFFC0000FFFF80001FFFF0003FFFFFFFFF0001FFFFC0003F000F0000FFFF000
310
07FE0007FFF800007FFF0001FF80007FE0001FFFE00007FF0000FFFE00007FF8
310
000001FFFE0000007FFFFFF0001FFFFFFFC00003FFE00001FFFFC00003FFE000
310
01FFFF0003FFFFFFFFF8000FFFF80003F000F00003FFC00007FC0007FFF80000
310
7FFF8001FF80007FF00007FF80000FFF00007FF80000FFF8000001FFFE000000
310
7F80000000000001FFE000003E000003FFFFE000003E000003FFFF0003FFFFFF
310
FFF80003FFE00007F000F800000000000FFC0007FFF800007FFF8001FF80007F
310
F000000000000FFF000000000000FFF8000001FFFE0000007F80000000000001
310
FFF0000000000007FFFFF0000000000007FFFF0003FFFFFFFFFC00007E000007
310
F000F800000000000FFC0007FFF80000FFFF8000FF80007FF800000000001FFF
310
800000000001FFF8000001FFFE0000007F80000000000001FFF800000000000F
310
FFFFF800000000000FFFFF0003FFFFFFFFFC00000000000FF000FC0000000000
310
1FFC0007FFFC0000FFFF8000FF80007FF800000000003FFFC00000000001FFF8
310
000001FFFE0000007F80000000000001FFF800000000000FFFFFF80000000000
310
0FFFFF0003FFFFFFFFFE00000000001FF000FE00000000003FF8000FFFFC0000
310
FFFF8000FF80007FFC00000000003FFFC00000000003FFF8000001FFFE000000
310
7F80000000000001FFFC00000000001FFFFFFC00000000001FFFFF0003FFFFFF
310
FFFF00000000001FF000FF00000000003FF8000FFFFC0000FFFFC000FF80007F
310
FE00000000007FFFE00000000007FFF8000001FFFE0000007F80000000000001
310
FFFE00000000003FFFFFFE00000000003FFFFF0003FFFFFFFFFF80000000003F
310
F000FF80000000007FF8000FFFFC0001FFFFC0007F80007FFF0000000000FFFF
310
F0000000000FFFF800000000000000007F80000000000001FFFF8000000000FF
310
FFFFFF8000000000FFFFFF0003FFFFFFFFFFC0000000007FF000FFC000000000
310
FFF8000FFFFE0001FFFFC0007F80007FFF8000000001FFFFF8000000001FFFF8
310
00000000000000007F80000000000001FFFFC000000001FFFFFFFFC000000001
310
FFFFFF0003FFFFFFFFFFE000000000FFF000FFE000000003FFF0001FFFFE0001
310
FFFFC0007F80007FFFC000000007FFFFFE000000003FFFF80000000000000000
310
7F80000000000001FFFFE000000003FFFFFFFFE000000003FFFFFF0003FFFFFF
310
FFFFF000000003FFF000FFF80000000FFFF0001FFFFE0001FFFFE0007F80007F
310
FFF00000000FFFFFFF00000000FFFFF800000000000000007F80000000000001
310
FFFFF80000000FFFFFFFFFF80000000FFFFFFF0003FFFFFFFFFFFC0000000FFF
310
F000FFFE0000003FFFF0001FFFFE0003FFFFE0003F80007FFFFC0000003FFFFF
310
FFC0000003FFFFF800000000000000007F80000000000001FFFFFE0000003FFF
310
FFFFFFFE0000003FFFFFFF0003FFFFFFFFFFFF0000003FFFF000FFFF800000FF
310
FFF0001FFFFF0003FFFFE0003F80007FFFFF000001FFFFFFFFF800001FFFFFF8
310
00000000000000007F80000000000001FFFFFFC00001FFFFFFFFFFFFC00001FF
310
FFFFFF0003FFFFFFFFFFFFC00000FFFFF000FFFFF8000FFFFFFFFFFFFFFFFFFF
310
FFFFFFFFFFFFFFFFFFFFF0001FFFFFFFFFFF0000FFFFFFF80000000000000000
310
7FFFFFFFFFFFFFFFFFFFFFFC001FFFFFFFFFFFFFFC001FFFFFFFFFFFFFFFFFFF
310
FFFFFFFC001FFFFFF000FFFFFFFFFFFFFFFFFFFFFFFFFFFFFFFFFFFFFFFFFFFF
310
FFFFFFFFFFFFFFFFFFFFFFFFFFFFFFFFFFFFFFFFFFFFFFFFFFFFFFFFFFFFFFFF
310
FFFFFFFFFFFFFFFFFFFFFFFFFFFFFFFFFFFFFFFFFFFFFFFFFFFFFFFFFFFFFFFF
310
F000FFFFFFFFFFFFFFFFFFFFFFFFFFFFFFFFFFFFFFFFFFFFFFFFFFFFFFFFFFFF
310
FFFFFFFFFFFFFFFFFFFFFFFFFFFFFFFFFFFFFFFFFFFFFFFFFFFFFFFFFFFFFFFF
310
FFFFFFFFFFFFFFFFFFFFFFFFFFFFFFFFFFFFFFFFFFFFFFFFF000FFFFFFFFFFFF
310
FFFFFFFFFFFFFFFFFFFFFFFFFFFFFFFFFFFFFFFFFFFFFFFFFFFFFFFFFFFFFFFF
310
FFFFFFFFFFFFFFFFFFFFFFFFFFFFFFFFFFFFFFFFFFFFFFFFFFFFFFFFFFFFFFFF
310
FFFFFFFFFFFFFFFFFFFFFFFFFFFFFFFFF000FFFFFFFFFFFFFFFFFFFFFFFFFFFF
310
FFFFFFFFFFFFFFFFFFFFFFFFFFFFFFFFFFFFFFFFFFFFFFFFFFFFFFFFFFFFFFFF
310
FFFFFFFFFFFFFFFFFFFFFFFFFFFFFFFFFFFFFFFFFFFFFFFFFFFFFFFFFFFFFFFF
310
FFFFFFFFFFFFFFFFF000FFFFFFFFFFFFFFFFFFFFFFFFFFFFFFFFFFFFFFFFFFFF
310
FFFFFFFFFFFFFFFFFFFFFFFFFFFFFFFFFFFFFFFFFFFFFFFFFFFFFFFFFFFFFFFF
310
FFFFFFFFFFFFFFFFFFFFFFFFFFFFFFFFFFFFFFFFFFFFFFFFFFFFFFFFFFFFFFFF
310
F000FFFFFFFFFFFFFFFFFFFFFFFFFFFFFFFFFFFFFFFFFFFFFFFFFFFFFFFFFFFF
310
FFFFFFFFFFFFFFFFFFFFFFFFFFFFFFFFFFFFFFFFFFFFFFFFFFFFFFFFFFFFFFFF
310
FFFFFFFFFFFFFFFFFFFFFFFFFFFFFFFFFFFFFFFFFFFFFFFFF000FFFFFFFFFFFF
310
FFFFFFFFFFFFFFFFFFFFFFFFFFFFFFFFFFFFFFFFFFFFFFFFFFFFFFFFFFFFFFFF
310
FFFFFFFFFFFFFFFFFFFFFFFFFFFFFFFFFFFFFFFFFFFFFFFFFFFFFFFFFFFFFFFF
310
FFFFFFFFFFFFFFFFFFFFFFFFFFFFFFFFF000FFFFFFFFFFFFFFFFFFFFFFFFFFFF
310
FFFFFFFFFFFFFFFFFFFFFFFFFFFFFFFFFFFFFFFFFFFFFFFFFFFFFFFFFFFFFFFF
310
FFFFFFFFFFFFFFFFFFFFFFFFFFFFFFFFFFFFFFFFFFFFFFFFFFFFFFFFFFFFFFFF
310
FFFFFFFFFFFFFFFFF000FFFFFFFFFFFFFFFFFFFFFFFFFFFFFFFFFFFFFFFFFFFF
310
FFFFFFFFFFFFFFFFFFFFFFFFFFFFFFFFFFFFFFFFFFFFFFFFFFFFFFFFFFFFFFFF
310
FFFFFFFFFFFFFFFFFFFFFFFFFFFFFFFFFFFFFFFFFFFFFFFFFFFFFFFFFFFFFFFF
310
F000FFFFFFFFFFFFFFFFFFFFFFFFFFFFFFFFFFFFFFFFFFFFFFFFFFFFFFFFFFFF
310
FFFFFFFFFFFFFFFFFFFFFFFFFFFFFFFFFFFFFFFFFFFFFFFFFFFFFFFFFFFFFFFF
310
FFFFFFFFFFFFFFFFFFFFFFFFFFFFFFFFFFFFFFFFFFFFFFFFF000FFFFFFFFFFFF
310
FFFFFFFFFFFFFFFFFFFFFFFFFFFFFFFFFFFFFFFFFFFFFFFFFFFFFFFFFFFFFFFF
310
FFFFFFFFFFFFFFFFFFFFFFFFFFFFFFFFFFFFFFFFFFFFFFFFFFFFFFFFFFFFFFFF
310
FFFFFFFFFFFFFFFFFFFFFFFFFFFFFFFFF000FFFFFFFFFFFFFFFFFFFFFFFFFFFF
310
FFFFFFFFFFFFFFFFFFFFFFFFFFFFFFFFFFFFFFFFFFFFFFFFFFFFFFFFFFFFFFFF
310
FFFFFFFFFFFFFFFFFFFFFFFFFFFFFFFFFFFFFFFFFFFFFFFFFFFFFFFFFFFFFFFF
310
FFFFFFFFFFFFFFFFF000FFFFFFFFFFFFFFFFFFFFFFFFFFFFFFFFFFFFFFFFFFFF
310
FFFFFFFFFFFFFFFFFFFFFFFFFFFFFFFFFFFFFFFFFFFFFFFFFFFFFFFFFFFFFFFF
310
FFFFFFFFFFFFFFFFFFFFFFFFFFFFFFFFFFFFFFFFFFFFFFFFFFFFFFFFFFFFFFFF
310
F000FFFFFFFFFFFFFFFFFFFFFFFFFFFFFFFFFFFFFFFFFFFFFFFFFFFFFFFFFFFF
310
FFFFFFFFFFFFFFFFFFFFFFFFFFFFFFFFFFFFFFFFFFFFFFFFFFFFFFFFFFFFFFFF
310
FFFFFFFFFFFFFFFFFFFFFFFFFFFFFFFFFFFFFFFFFFFFFFFFF000FFFFFFFFFFFF
310
FFFFFFFFFFFFFFFFFFFFFFFFFFFFFFFFFFFFFFFFFFFFFFFFFFFFFFFFFFFFFFFF
310
FFFFFFFFFFFFFFFFFFFFFFFFFFFFFFFFFFFFFFFFFFFFFFFFFFFFFFFFFFFFFFFF
310
FFFFFFFFFFFFFFFFFFFFFFFFFFFFFFFFF000FFFFFFFFFFFFFFFFFFFFFFFFFFFF
310
FFFFFFFFFFFFFFFFFFFFFFFFFFFFFFFFFFFFFFFFFFFFFFFFFFFFFFFFFFFFFFFF
310
FFFFFFFFFFFFFFFFFFFFFFFFFFFFFFFFFFFFFFFFFFFFFFFFFFFFFFFFFFFFFFFF
310
FFFFFFFFFFFFFFFFF000FFFFFFFFFFFFFFFFFFFFFFFFFFFFFFFFFFFFFFFFFFFF
310
FFFFFFFFFFFFFFFFFFFFFFFFFFFFFFFFFFFFFFFFFFFFFFFFFFFFFFFFFFFFFFFF
310
FFFFFFFFFFFFFFFFFFFFFFFFFFFFFFFFFFFFFFFFFFFFFFFFFFFFFFFFFFFFFFFF
310
F000FFFFFFFFFFFFFFFFFFFFFFFFFFFFFFFFFFFFFFFFFFFFFFFFFFFFFFFFFFFF
310
FFFFFFFFFFFFFFFFFFFFFFFFFFFFFFFFFFFFFFFFFFFFFFFFFFFFFFFFFFFFFFFF
310
FFFFFFFFFFFFFFFFFFFFFFFFFFFFFFFFFFFFFFFFFFFFFFFFF000FFFFFFFFFFFF
310
FFFFFFFFFFFFFFFFFFFFFFFFFFFFFFFFFFFFFFFFFFFFFFFFFFFFFFFFFFFFFFFF
310
FFFFFFFFFFFFFFFFFFFFFFFFFFFFFFFFFFFFFFFFFFFFFFFFFFFFFFFFFFFFFFFF
310
FFFFFFFFFFFFFFFFFFFFFFFFFFFFFFFFF000FFFFFFFFFFFFFFFFFFFFFFFFFFFF
310
FFFFFFFFFFFFFFFFFFFFFFFFFFFFFFFFFFFFFFFFFFFFFFFFFFFFFFFFFFFFFFFF
310
FFFFFFFFFFFFFFFFFFFFFFFFFFFFFFFFFFFFFFFFFFFFFFFFFFFFFFFFFFFFFFFF
310
FFFFFFFFFFFFFFFFF000FFFFFFFFFFFFFFFFFFFFFFFFFFFFFFFFFFFFFFFFFFFF
310
FFFFFFFFFFFFFFFFFFFFFFFFFFFFFFFFFFFFFFFFFFFFFFFFFFFFFFFFFFFFFFFF
310
FFFFFFFFFFFFFFFFFFFFFFFFFFFFFFFFFFFFFFFFFFFFFFFFFFFFFFFFFFFFFFFF
310
F000FFFFFFFFFFFFFFFFFFFFFFFFFFFFFFFFFFFFFFFFFFFFFFFFFFFFFFFFFFFF
310
FFFFFFFFFFFFFFFFFFFFFFFFFFFFFFFFFFFFFFFFFFFFFFFFFFFFFFFFFFFFFFFF
310
FFFFFFFFFFFFFFFFFFFFFFFFFFFFFFFFFFFFFFFFFFFFFFFFF000FFFFFFFFFFFF
310
FFFFFFFFFFFFFFFFFFFFFFFFFFFFFFFFFFFFFFFFFFFFFFFFFFFFFFFFFFFFFFFF
310
FFFFFFFFFFFFFFFFFFFFFFFFFFFFFFFFFFFFFFFFFFFFFFFFFFFFFFFFFFFFFFFF
310
FFFFFFFFFFFFFFFFFFFFFFFFFFFFFFFFF0000000000000000000000000000000
310
0000000000000000000000000000000000000000000000000000000000000000
310
0000000000000000000000000000000000000000000000000000000000000000
310
0000000000000000000000000000000000000000000000000000000000000000
310
0000000000000000000000000000000000000000000000000000000000000000
310
0000000000000000000000000000000000000000000000000000000000000000
310
0000000000000000000000000000000000000000000000000000000000000000
310
0000000000000000000000000000000000000000000000000000000000000000
310
0000000000000000000000000000000000000000000000000000000000000000
310
0000000000000000000000000000000000000000000000000000000000000000
310
0000000000000000000000000000000000000000000000000000000000000000
310
0000000000000000000000000000000000000000000000000000000000000000
310
0000000000000000000000000000000000000000000000000000000000000000
310
0000000000000000000000000000000000000000000000000000000000000000
310
0000000000000000000000000000000000000000000000000000000000000000
310
0000000000000000000000000000000000000000000000000000000000000000
  1
OLE
  0
ENDSEC
  0
SECTION
  2
OBJECTS
  0
DICTIONARY
  5
C
330
0
100
AcDbDictionary
281
     1
  3
ACAD_GROUP
350
D
  3
ACAD_LAYOUT
350
1A
  3
ACAD_MLINESTYLE
350
17
  3
ACAD_PLOTSETTINGS
350
19
  3
ACAD_PLOTSTYLENAME
350
E
  0
DICTIONARY
  5
D
102
{ACAD_REACTORS
330
C
102
}
330
C
100
AcDbDictionary
281
     1
  0
DICTIONARY
  5
1A
102
{ACAD_REACTORS
330
C
102
}
330
C
100
AcDbDictionary
281
     1
  3
Layout1
350
1E
  3
Layout2
350
26
  3
Model
350
22
  0
DICTIONARY
  5
17
102
{ACAD_REACTORS
330
C
102
}
330
C
100
AcDbDictionary
281
     1
  3
Standard
350
18
  0
DICTIONARY
  5
19
102
{ACAD_REACTORS
330
C
102
}
330
C
100
AcDbDictionary
281
     1
  0
ACDBDICTIONARYWDFLT
  5
E
102
{ACAD_REACTORS
330
C
102
}
330
C
100
AcDbDictionary
281
     1
  3
Normal
350
F
100
AcDbDictionaryWithDefault
340
F
  0
LAYOUT
  5
1E
102
{ACAD_REACTORS
330
1A
102
}
330
1A
100
AcDbPlotSettings
  1

  2
none_device
  4

  6

 40
0.0
 41
0.0
 42
0.0
 43
0.0
 44
0.0
 45
0.0
 46
0.0
 47
0.0
 48
0.0
 49
0.0
140
0.0
141
0.0
142
1.0
143
1.0
 70
   688
 72
     0
 73
     0
 74
     5
  7

 75
    16
147
1.0
148
0.0
149
0.0
100
AcDbLayout
  1
Layout1
 70
     1
 71
     1
 10
0.0
 20
0.0
 11
420.0
 21
297.0
 12
0.0
 22
0.0
 32
0.0
 14
1.0000000000E+20
 24
1.0000000000E+20
 34
1.0000000000E+20
 15
-1.0000000000E+20
 25
-1.0000000000E+20
 35
-1.0000000000E+20
146
0.0
 13
0.0
 23
0.0
 33
0.0
 16
1.0
 26
0.0
 36
0.0
 17
0.0
 27
1.0
 37
0.0
 76
     0
330
1B
  0
LAYOUT
  5
26
102
{ACAD_REACTORS
330
1A
102
}
330
1A
100
AcDbPlotSettings
  1

  2
none_device
  4

  6

 40
0.0
 41
0.0
 42
0.0
 43
0.0
 44
0.0
 45
0.0
 46
0.0
 47
0.0
 48
0.0
 49
0.0
140
0.0
141
0.0
142
1.0
143
1.0
 70
   688
 72
     0
 73
     0
 74
     5
  7

 75
    16
147
1.0
148
0.0
149
0.0
100
AcDbLayout
  1
Layout2
 70
     1
 71
     2
 10
0.0
 20
0.0
 11
0.0
 21
0.0
 12
0.0
 22
0.0
 32
0.0
 14
0.0
 24
0.0
 34
0.0
 15
0.0
 25
0.0
 35
0.0
146
0.0
 13
0.0
 23
0.0
 33
0.0
 16
1.0
 26
0.0
 36
0.0
 17
0.0
 27
1.0
 37
0.0
 76
     0
330
23
  0
LAYOUT
  5
22
102
{ACAD_REACTORS
330
1A
102
}
330
1A
100
AcDbPlotSettings
  1

  2
none_device
  4

  6

 40
0.0
 41
0.0
 42
0.0
 43
0.0
 44
0.0
 45
0.0
 46
0.0
 47
0.0
 48
0.0
 49
0.0
140
0.0
141
0.0
142
1.0
143
1.0
 70
  1712
 72
     0
 73
     0
 74
     0
  7

 75
     0
147
1.0
148
0.0
149
0.0
100
AcDbLayout
  1
Model
 70
     1
 71
     0
 10
0.0
 20
0.0
 11
297.0
 21
210.0
 12
0.0
 22
0.0
 32
0.0
 14
0.0
 24
0.0
 34
0.0
 15
297.0
 25
210.0
 35
0.0
146
0.0
 13
0.0
 23
0.0
 33
0.0
 16
1.0
 26
0.0
 36
0.0
 17
0.0
 27
1.0
 37
0.0
 76
     0
330
1F
331
29
  0
MLINESTYLE
  5
18
102
{ACAD_REACTORS
330
17
102
}
330
17
100
AcDbMlineStyle
  2
Standard
 70
     0
  3

 62
   256
 51
90.0
 52
90.0
 71
     2
 49
0.5
 62
   256
  6
BYLAYER
 49
-0.5
 62
   256
  6
BYLAYER
  0
ACDBPLACEHOLDER
  5
F
102
{ACAD_REACTORS
330
E
102
}
330
E
  0
ENDSEC
  0
EOF
