  0
SECTION
  2
HEADER
  9
$ACADVER
  1
AC1015
  9
$ACADMAINTVER
 70
     6
  9
$DWGCODEPAGE
  3
ANSI_1252
  9
$INSBASE
 10
0.0
 20
0.0
 30
0.0
  9
$EXTMIN
 10
0.0
 20
0.0
 30
0.0
  9
$EXTMAX
 10
297.0
 20
210.0
 30
0.0
  9
$LIMMIN
 10
0.0
 20
0.0
  9
$LIMMAX
 10
297.0
 20
210.0
  9
$ORTHOMODE
 70
     0
  9
$REGENMODE
 70
     1
  9
$FILLMODE
 70
     1
  9
$QTEXTMODE
 70
     0
  9
$MIRRTEXT
 70
     1
  9
$LTSCALE
 40
1.0
  9
$ATTMODE
 70
     1
  9
$TEXTSIZE
 40
2.0
  9
$TRACEWID
 40
1.0
  9
$TEXTSTYLE
  7
Standard
  9
$CLAYER
  8
0
  9
$CELTYPE
  6
ByLayer
  9
$CECOLOR
 62
   256
  9
$CELTSCALE
 40
1.0
  9
$DISPSILH
 70
     0
  9
$DIMSCALE
 40
1.0
  9
$DIMASZ
 40
3.0
  9
$DIMEXO
 40
0.0
  9
$DIMDLI
 40
3.75
  9
$DIMRND
 40
0.0
  9
$DIMDLE
 40
0.0
  9
$DIMEXE
 40
1.0
  9
$DIMTP
 40
0.0
  9
$DIMTM
 40
0.0
  9
$DIMTXT
 40
2.0
  9
$DIMCEN
 40
2.5
  9
$DIMTSZ
 40
0.0
  9
$DIMTOL
 70
     0
  9
$DIMLIM
 70
     0
  9
$DIMTIH
 70
     1
  9
$DIMTOH
 70
     1
  9
$DIMSE1
 70
     0
  9
$DIMSE2
 70
     0
  9
$DIMTAD
 70
     1
  9
$DIMZIN
 70
     0
  9
$DIMBLK
  1

  9
$DIMASO
 70
     1
  9
$DIMSHO
 70
     1
  9
$DIMPOST
  1

  9
$DIMAPOST
  1

  9
$DIMALT
 70
     0
  9
$DIMALTD
 70
     3
  9
$DIMALTF
 40
0.0393700787
  9
$DIMLFAC
 40
1.0
  9
$DIMTOFL
 70
     1
  9
$DIMTVP
 40
0.0
  9
$DIMTIX
 70
     0
  9
$DIMSOXD
 70
     0
  9
$DIMSAH
 70
     0
  9
$DIMBLK1
  1

  9
$DIMBLK2
  1

  9
$DIMSTYLE
  2
ISO-25
  9
$DIMCLRD
 70
     0
  9
$DIMCLRE
 70
     0
  9
$DIMCLRT
 70
     0
  9
$DIMTFAC
 40
1.0
  9
$DIMGAP
 40
1.524
  9
$DIMJUST
 70
     0
  9
$DIMSD1
 70
     0
  9
$DIMSD2
 70
     0
  9
$DIMTOLJ
 70
     0
  9
$DIMTZIN
 70
     0
  9
$DIMALTZ
 70
     0
  9
$DIMALTTZ
 70
     0
  9
$DIMUPT
 70
     0
  9
$DIMDEC
 70
     2
  9
$DIMTDEC
 70
     3
  9
$DIMALTU
 70
     2
  9
$DIMALTTD
 70
     3
  9
$DIMTXSTY
  7
Standard
  9
$DIMAUNIT
 70
     0
  9
$DIMADEC
 70
     2
  9
$DIMALTRND
 40
0.0
  9
$DIMAZIN
 70
     0
  9
$DIMDSEP
 70
    44
  9
$DIMATFIT
 70
     3
  9
$DIMFRAC
 70
     0
  9
$DIMLDRBLK
  1

  9
$DIMLUNIT
 70
     2
  9
$DIMLWD
 70
    -2
  9
$DIMLWE
 70
    -2
  9
$DIMTMOVE
 70
     0
  9
$LUNITS
 70
     2
  9
$LUPREC
 70
     2
  9
$SKETCHINC
 40
1.0
  9
$FILLETRAD
 40
10.0
  9
$AUNITS
 70
     0
  9
$AUPREC
 70
     2
  9
$MENU
  1
.
  9
$ELEVATION
 40
0.0
  9
$PELEVATION
 40
0.0
  9
$THICKNESS
 40
0.0
  9
$LIMCHECK
 70
     0
  9
$CHAMFERA
 40
10.0
  9
$CHAMFERB
 40
10.0
  9
$CHAMFERC
 40
20.0
  9
$CHAMFERD
 40
0.0
  9
$SKPOLY
 70
     0
  9
$TDCREATE
 40
2456736.658661574
  9
$TDUCREATE
 40
2456736.616994908
  9
$TDUPDATE
 40
2456736.658663195
  9
$TDUUPDATE
 40
2456736.616996528
  9
$TDINDWG
 40
0.0000000116
  9
$TDUSRTIMER
 40
0.0000000116
  9
$USRTIMER
 70
     1
  9
$ANGBASE
 50
0.0
  9
$ANGDIR
 70
     0
  9
$PDMODE
 70
     0
  9
$PDSIZE
 40
-1.0
  9
$PLINEWID
 40
0.0
  9
$SPLFRAME
 70
     0
  9
$SPLINETYPE
 70
     6
  9
$SPLINESEGS
 70
     8
  9
$HANDSEED
  5
2E2
  9
$SURFTAB1
 70
     6
  9
$SURFTAB2
 70
     6
  9
$SURFTYPE
 70
     6
  9
$SURFU
 70
     6
  9
$SURFV
 70
     6
  9
$UCSBASE
  2

  9
$UCSNAME
  2

  9
$UCSORG
 10
0.0
 20
0.0
 30
0.0
  9
$UCSXDIR
 10
1.0
 20
0.0
 30
0.0
  9
$UCSYDIR
 10
0.0
 20
1.0
 30
0.0
  9
$UCSORTHOREF
  2

  9
$UCSORTHOVIEW
 70
     0
  9
$UCSORGTOP
 10
0.0
 20
0.0
 30
0.0
  9
$UCSORGBOTTOM
 10
0.0
 20
0.0
 30
0.0
  9
$UCSORGLEFT
 10
0.0
 20
0.0
 30
0.0
  9
$UCSORGRIGHT
 10
0.0
 20
0.0
 30
0.0
  9
$UCSORGFRONT
 10
0.0
 20
0.0
 30
0.0
  9
$UCSORGBACK
 10
0.0
 20
0.0
 30
0.0
  9
$PUCSBASE
  2

  9
$PUCSNAME
  2

  9
$PUCSORG
 10
0.0
 20
0.0
 30
0.0
  9
$PUCSXDIR
 10
1.0
 20
0.0
 30
0.0
  9
$PUCSYDIR
 10
0.0
 20
1.0
 30
0.0
  9
$PUCSORTHOREF
  2

  9
$PUCSORTHOVIEW
 70
     0
  9
$PUCSORGTOP
 10
0.0
 20
0.0
 30
0.0
  9
$PUCSORGBOTTOM
 10
0.0
 20
0.0
 30
0.0
  9
$PUCSORGLEFT
 10
0.0
 20
0.0
 30
0.0
  9
$PUCSORGRIGHT
 10
0.0
 20
0.0
 30
0.0
  9
$PUCSORGFRONT
 10
0.0
 20
0.0
 30
0.0
  9
$PUCSORGBACK
 10
0.0
 20
0.0
 30
0.0
  9
$USERI1
 70
     0
  9
$USERI2
 70
     0
  9
$USERI3
 70
     0
  9
$USERI4
 70
     0
  9
$USERI5
 70
     0
  9
$USERR1
 40
0.0
  9
$USERR2
 40
0.0
  9
$USERR3
 40
0.0
  9
$USERR4
 40
0.0
  9
$USERR5
 40
0.0
  9
$WORLDVIEW
 70
     1
  9
$SHADEDGE
 70
     3
  9
$SHADEDIF
 70
    70
  9
$TILEMODE
 70
     1
  9
$MAXACTVP
 70
    64
  9
$PINSBASE
 10
0.0
 20
0.0
 30
0.0
  9
$PLIMCHECK
 70
     0
  9
$PEXTMIN
 10
1.0000000000E+20
 20
1.0000000000E+20
 30
1.0000000000E+20
  9
$PEXTMAX
 10
-1.0000000000E+20
 20
-1.0000000000E+20
 30
-1.0000000000E+20
  9
$PLIMMIN
 10
0.0
 20
0.0
  9
$PLIMMAX
 10
420.0
 20
297.0
  9
$UNITMODE
 70
     0
  9
$VISRETAIN
 70
     1
  9
$PLINEGEN
 70
     0
  9
$PSLTSCALE
 70
     1
  9
$TREEDEPTH
 70
  3020
  9
$CMLSTYLE
  2
Standard
  9
$CMLJUST
 70
     0
  9
$CMLSCALE
 40
20.0
  9
$PROXYGRAPHICS
 70
     1
  9
$MEASUREMENT
 70
     1
  9
$CELWEIGHT
370
    -1
  9
$ENDCAPS
280
     0
  9
$JOINSTYLE
280
     0
  9
$LWDISPLAY
290
     1
  9
$INSUNITS
 70
     4
  9
$HYPERLINKBASE
  1

  9
$STYLESHEET
  1

  9
$XEDIT
290
     1
  9
$CEPSNTYPE
380
     0
  9
$PSTYLEMODE
290
     1
  9
$FINGERPRINTGUID
  2
{8BEB3357-9A7E-4C34-B2C0-43C54AB5DF95}
  9
$VERSIONGUID
  2
{FAEB1C32-E019-11D5-929B-00C0DF256EC4}
  9
$EXTNAMES
290
     1
  9
$PSVPSCALE
 40
0.0
  9
$OLESTARTUP
290
     0
  0
ENDSEC
  0
SECTION
  2
CLASSES
  0
CLASS
  1
ACDBDICTIONARYWDFLT
  2
AcDbDictionaryWithDefault
  3
ObjectDBX Classes
 90
        0
280
     0
281
     0
  0
CLASS
  1
VISUALSTYLE
  2
AcDbVisualStyle
  3
ObjectDBX Classes
 90
     4095
280
     0
281
     0
  0
CLASS
  1
MATERIAL
  2
AcDbMaterial
  3
ObjectDBX Classes
 90
     1153
280
     0
281
     0
  0
CLASS
  1
ACDBPLACEHOLDER
  2
AcDbPlaceHolder
  3
ObjectDBX Classes
 90
        0
280
     0
281
     0
  0
CLASS
  1
LAYOUT
  2
AcDbLayout
  3
ObjectDBX Classes
 90
        0
280
     0
281
     0
  0
ENDSEC
  0
SECTION
  2
TABLES
  0
TABLE
  2
VPORT
  5
8
330
0
100
AcDbSymbolTable
 70
     1
  0
VPORT
  5
29
330
8
100
AcDbSymbolTableRecord
100
AcDbViewportTableRecord
  2
*Active
 70
     0
 10
0.0
 20
0.0
 11
1.0
 21
1.0
 12
148.5
 22
105.0
 13
0.0
 23
0.0
 14
10.0
 24
10.0
 15
10.0
 25
10.0
 16
0.0
 26
0.0
 36
1.0
 17
0.0
 27
0.0
 37
0.0
 40
210.0
 41
1.4142857143
 42
50.0
 43
0.0
 44
0.0
 50
0.0
 51
0.0
 71
     0
 72
  2000
 73
     1
 74
     3
 75
     0
 76
     0
 77
     0
 78
     0
281
     0
 65
     1
110
0.0
120
0.0
130
0.0
111
1.0
121
0.0
131
0.0
112
0.0
122
1.0
132
0.0
 79
     0
146
0.0
  0
ENDTAB
  0
TABLE
  2
LTYPE
  5
5
330
0
100
AcDbSymbolTable
 70
     6
  0
LTYPE
  5
14
330
5
100
AcDbSymbolTableRecord
100
AcDbLinetypeTableRecord
  2
ByBlock
 70
     0
  3

 72
    65
 73
     0
 40
0.0
  0
LTYPE
  5
15
330
5
100
AcDbSymbolTableRecord
100
AcDbLinetypeTableRecord
  2
ByLayer
 70
     0
  3

 72
    65
 73
     0
 40
0.0
  0
LTYPE
  5
16
330
5
100
AcDbSymbolTableRecord
100
AcDbLinetypeTableRecord
  2
Continuous
 70
     0
  3
Solid line
 72
    65
 73
     0
 40
0.0
  0
LTYPE
  5
3F
330
5
100
AcDbSymbolTableRecord
100
AcDbLinetypeTableRecord
  2
HIDDEN
 70
     0
  3
Hidden __ __ __ __ __ __ __ __ __ __ __ __ __ __
 72
    65
 73
     2
 40
1.905
 49
1.27
 74
     0
 49
-0.635
 74
     0
  0
LTYPE
  5
40
330
5
100
AcDbSymbolTableRecord
100
AcDbLinetypeTableRecord
  2
PHANTOM
 70
     0
  3
Phantom ______  __  __  ______  __  __  ______
 72
    65
 73
     6
 40
12.7
 49
6.35
 74
     0
 49
-1.27
 74
     0
 49
1.27
 74
     0
 49
-1.27
 74
     0
 49
1.27
 74
     0
 49
-1.27
 74
     0
  0
LTYPE
  5
41
330
5
100
AcDbSymbolTableRecord
100
AcDbLinetypeTableRecord
  2
CENTER
 70
     0
  3
Center ____ _ ____ _ ____ _ ____ _ ____ _ ____
 72
    65
 73
     4
 40
10.16
 49
6.35
 74
     0
 49
-1.27
 74
     0
 49
1.27
 74
     0
 49
-1.27
 74
     0
  0
LTYPE
  5
42
330
5
100
AcDbSymbolTableRecord
100
AcDbLinetypeTableRecord
  2
CENTERX2
 70
     0
  3
Center (2x) ________  __  ________  __  _____
 72
    65
 73
     4
 40
20.32
 49
12.7
 74
     0
 49
-2.54
 74
     0
 49
2.54
 74
     0
 49
-2.54
 74
     0
  0
LTYPE
  5
43
330
5
100
AcDbSymbolTableRecord
100
AcDbLinetypeTableRecord
  2
DOT2
 70
     0
  3
Dot (.5x) ........................................
 72
    65
 73
     2
 40
0.635
 49
0.0
 74
     0
 49
-0.635
 74
     0
  0
ENDTAB
  0
TABLE
  2
LAYER
  5
2
330
0
100
AcDbSymbolTable
 70
     5
  0
LAYER
  5
10
330
2
100
AcDbSymbolTableRecord
100
AcDbLayerTableRecord
  2
0
 70
     0
 62
     7
  6
Continuous
370
    -3
390
F
  0
LAYER
  5
44
330
2
100
AcDbSymbolTableRecord
100
AcDbLayerTableRecord
  2
FORMAT
 70
     0
 62
     7
  6
Continuous
370
    -3
390
F
  0
LAYER
  5
45
330
2
100
AcDbSymbolTableRecord
100
AcDbLayerTableRecord
  2
VERMASSUNG
 70
     0
 62
     7
  6
Continuous
370
    -3
390
F
  0
LAYER
  5
46
330
2
100
AcDbSymbolTableRecord
100
AcDbLayerTableRecord
  2
KOPF_DÜNN
 70
     0
 62
     7
  6
Continuous
370
    -3
390
F
  0
LAYER
  5
47
330
2
100
AcDbSymbolTableRecord
100
AcDbLayerTableRecord
  2
KOPF_DICK
 70
     0
 62
     7
  6
Continuous
370
    15
390
F
  0
ENDTAB
  0
TABLE
  2
STYLE
  5
3
330
0
100
AcDbSymbolTable
 70
     2
  0
STYLE
  5
11
330
3
100
AcDbSymbolTableRecord
100
AcDbTextStyleTableRecord
  2
Standard
 70
     0
 40
0.0
 41
1.0
 50
0.0
 71
     0
 42
2.0
  3
txt
  4

  0
STYLE
  5
48
330
3
100
AcDbSymbolTableRecord
100
AcDbTextStyleTableRecord
  2
SLDTEXTSTYLE0
 70
     0
 40
0.0
 41
0.7
 50
0.0
 71
     0
 42
0.2
  3
TXT
  4

  0
ENDTAB
  0
TABLE
  2
VIEW
  5
6
330
0
100
AcDbSymbolTable
 70
     0
  0
ENDTAB
  0
TABLE
  2
UCS
  5
7
330
0
100
AcDbSymbolTable
 70
     0
  0
ENDTAB
  0
TABLE
  2
APPID
  5
9
330
0
100
AcDbSymbolTable
 70
     1
  0
APPID
  5
12
330
9
100
AcDbSymbolTableRecord
100
AcDbRegAppTableRecord
  2
ACAD
 70
     0
  0
ENDTAB
  0
TABLE
  2
DIMSTYLE
  5
A
330
0
100
AcDbSymbolTable
 70
     5
100
AcDbDimStyleTable
  0
DIMSTYLE
105
27
330
A
100
AcDbSymbolTableRecord
100
AcDbDimStyleTableRecord
  2
ISO-25
 70
     0
 41
2.5
 42
0.625
 43
3.75
 44
1.25
 73
     0
 74
     0
 77
     1
 78
     8
140
2.5
141
2.5
143
0.0393700787
147
0.625
171
     3
172
     1
178
     0
271
     2
272
     2
274
     3
278
    44
283
     0
284
     8
340
11
  0
DIMSTYLE
105
18D
102
{ACAD_REACTORS
330
18C
102
}
330
A
100
AcDbSymbolTableRecord
100
AcDbDimStyleTableRecord
  2
SLDDIMSTYLE0
 70
     0
 41
3.0
 44
0.0
 73
     0
 74
     0
 77
     1
 78
    12
 79
     3
140
2.0
147
0.5
173
     1
178
     0
179
     2
272
     3
276
     2
284
    12
340
48
  0
DIMSTYLE
105
197
102
{ACAD_REACTORS
330
196
330
1A1
330
1AB
330
1F6
330
200
330
215
330
21F
330
231
330
23B
330
2D7
102
}
330
A
100
AcDbSymbolTableRecord
100
AcDbDimStyleTableRecord
  2
SLDDIMSTYLE1
 70
     0
 41
3.0
 44
0.0
 45
0.000000001
 73
     0
 74
     0
 77
     1
 78
    12
 79
     3
140
2.0
147
0.5
173
     1
178
     0
271
     2
272
     3
276
     2
284
    12
340
48
  0
DIMSTYLE
105
20A
102
{ACAD_REACTORS
330
209
102
}
330
A
100
AcDbSymbolTableRecord
100
AcDbDimStyleTableRecord
  2
SLDDIMSTYLE2
 70
     0
 41
3.0
 44
0.0
 45
0.000000001
 73
     0
 74
     0
 77
     1
 78
    12
 79
     3
140
2.0
147
0.5
172
     1
173
     1
178
     0
271
     2
272
     3
276
     2
284
    12
289
     0
340
48
  0
DIMSTYLE
105
229
102
{ACAD_REACTORS
330
228
102
}
330
A
100
AcDbSymbolTableRecord
100
AcDbDimStyleTableRecord
  2
SLDDIMSTYLE3
 70
     0
 41
3.0
 44
0.0
 45
0.000000001
 73
     0
 74
     0
 77
     1
 78
    12
 79
     3
140
2.0
141
0.0
147
0.5
173
     1
178
     0
271
     2
272
     3
276
     2
284
    12
340
48
  0
ENDTAB
  0
TABLE
  2
BLOCK_RECORD
  5
1
330
0
100
AcDbSymbolTable
 70
    15
  0
BLOCK_RECORD
  5
1F
330
1
100
AcDbSymbolTableRecord
100
AcDbBlockTableRecord
  2
*Model_Space
340
22
  0
BLOCK_RECORD
  5
1B
330
1
100
AcDbSymbolTableRecord
100
AcDbBlockTableRecord
  2
*Paper_Space
340
1E
  0
BLOCK_RECORD
  5
23
330
1
100
AcDbSymbolTableRecord
100
AcDbBlockTableRecord
  2
*Paper_Space0
340
26
  0
BLOCK_RECORD
  5
18E
330
1
100
AcDbSymbolTableRecord
100
AcDbBlockTableRecord
  2
_D
340
0
  0
BLOCK_RECORD
  5
198
330
1
100
AcDbSymbolTableRecord
100
AcDbBlockTableRecord
  2
_D_1
340
0
  0
BLOCK_RECORD
  5
1A2
330
1
100
AcDbSymbolTableRecord
100
AcDbBlockTableRecord
  2
_D_2
340
0
  0
BLOCK_RECORD
  5
1AC
330
1
100
AcDbSymbolTableRecord
100
AcDbBlockTableRecord
  2
_D_3
340
0
  0
BLOCK_RECORD
  5
1F7
330
1
100
AcDbSymbolTableRecord
100
AcDbBlockTableRecord
  2
_D_4
340
0
  0
BLOCK_RECORD
  5
201
330
1
100
AcDbSymbolTableRecord
100
AcDbBlockTableRecord
  2
_D_5
340
0
  0
BLOCK_RECORD
  5
20B
330
1
100
AcDbSymbolTableRecord
100
AcDbBlockTableRecord
  2
_D_6
340
0
  0
BLOCK_RECORD
  5
216
330
1
100
AcDbSymbolTableRecord
100
AcDbBlockTableRecord
  2
_D_7
340
0
  0
BLOCK_RECORD
  5
220
330
1
100
AcDbSymbolTableRecord
100
AcDbBlockTableRecord
  2
_D_8
340
0
  0
BLOCK_RECORD
  5
22A
330
1
100
AcDbSymbolTableRecord
100
AcDbBlockTableRecord
  2
_D_9
340
0
  0
BLOCK_RECORD
  5
232
330
1
100
AcDbSymbolTableRecord
100
AcDbBlockTableRecord
  2
_D_10
340
0
  0
BLOCK_RECORD
  5
23C
330
1
100
AcDbSymbolTableRecord
100
AcDbBlockTableRecord
  2
_D_11
340
0
  0
BLOCK_RECORD
  5
244
330
1
100
AcDbSymbolTableRecord
100
AcDbBlockTableRecord
  2
SW_CENTERMARKSYMBOL_0
340
0
102
{BLKREFS
331
24F
102
}
  0
BLOCK_RECORD
  5
2D8
330
1
100
AcDbSymbolTableRecord
100
AcDbBlockTableRecord
  2
_D_12
340
0
  0
ENDTAB
  0
ENDSEC
  0
SECTION
  2
BLOCKS
  0
BLOCK
  5
20
330
1F
100
AcDbEntity
  8
0
100
AcDbBlockBegin
  2
*Model_Space
 70
     0
 10
0.0
 20
0.0
 30
0.0
  3
*Model_Space
  1

  0
ENDBLK
  5
21
330
1F
100
AcDbEntity
  8
0
100
AcDbBlockEnd
  0
BLOCK
  5
1C
330
1B
100
AcDbEntity
 67
     1
  8
0
100
AcDbBlockBegin
  2
*Paper_Space
 70
     0
 10
0.0
 20
0.0
 30
0.0
  3
*Paper_Space
  1

  0
ENDBLK
  5
1D
330
1B
100
AcDbEntity
 67
     1
  8
0
100
AcDbBlockEnd
  0
BLOCK
  5
24
330
23
100
AcDbEntity
  8
0
100
AcDbBlockBegin
  2
*Paper_Space0
 70
     0
 10
0.0
 20
0.0
 30
0.0
  3
*Paper_Space0
  1

  0
ENDBLK
  5
25
330
23
100
AcDbEntity
  8
0
100
AcDbBlockEnd
  0
BLOCK
  5
18F
330
18E
100
AcDbEntity
  8
0
100
AcDbBlockBegin
  2
_D
 70
     0
 10
0.0
 20
0.0
 30
0.0
  3
_D
  1

  0
ARC
  5
191
330
18E
100
AcDbEntity
  8
VERMASSUNG
100
AcDbCircle
 10
268.0512174055
 20
146.7621678167
 30
0.0
 40
34.17699570405775
100
AcDbArc
 50
180.0
 51
210.0
  0
ARC
  5
192
330
18E
100
AcDbEntity
  8
VERMASSUNG
100
AcDbCircle
 10
268.0512174055
 20
146.7621678167
 30
0.0
 40
34.17699570405775
100
AcDbArc
 50
210.0
 51
223.027977575
  0
SOLID
  5
193
330
18E
100
AcDbEntity
  8
VERMASSUNG
100
AcDbTrace
 10
233.8742217014
 20
146.7621678167
 30
0.0
 11
233.5559417835
 21
143.7453486484
 31
0.0
 12
234.4550795309
 22
143.7847353352
 32
0.0
 13
234.4550795309
 23
143.7847353352
 33
0.0
  0
SOLID
  5
194
330
18E
100
AcDbEntity
  8
VERMASSUNG
100
AcDbTrace
 10
238.4530709008
 20
129.6736699646
 30
0.0
 11
237.4673922963
 21
132.5426310464
 31
0.0
 12
236.6690228222
 22
132.127172044
 32
0.0
 13
236.6690228222
 23
132.127172044
 33
0.0
  0
MTEXT
  5
195
330
18E
100
AcDbEntity
  8
VERMASSUNG
100
AcDbMText
 10
241.4189976928
 20
129.5104186544
 30
0.1
 40
2.0
 41
0.0
 71
     1
 72
     1
  1
30°
  7
SLDTEXTSTYLE0
 11
0.6181053787439386
 21
-0.7860952491701069
 31
0.0
 73
     1
 44
1.0
  0
ENDBLK
  5
190
330
18E
100
AcDbEntity
  8
0
100
AcDbBlockEnd
  0
BLOCK
  5
199
330
198
100
AcDbEntity
  8
0
100
AcDbBlockBegin
  2
_D_1
 70
     0
 10
0.0
 20
0.0
 30
0.0
  3
_D_1
  1

  0
SOLID
  5
19B
330
198
100
AcDbEntity
  8
VERMASSUNG
100
AcDbTrace
 10
170.0512174055
 20
186.7621678167
 30
0.0
 11
173.0512174055
 21
186.3121678167
 31
0.0
 12
173.0512174055
 22
187.2121678167
 32
0.0
 13
173.0512174055
 23
187.2121678167
 33
0.0
  0
SOLID
  5
19C
330
198
100
AcDbEntity
  8
VERMASSUNG
100
AcDbTrace
 10
268.0512174055
 20
186.7621678167
 30
0.0
 11
265.0512174055
 21
187.2121678167
 31
0.0
 12
265.0512174055
 22
186.3121678167
 32
0.0
 13
265.0512174055
 23
186.3121678167
 33
0.0
  0
LINE
  5
19D
330
198
100
AcDbEntity
  8
VERMASSUNG
100
AcDbLine
 10
170.0512174055
 20
171.4621678167
 30
0.0
 11
170.0512174055
 21
187.7621678167
 31
0.0
  0
LINE
  5
19E
330
198
100
AcDbEntity
  8
VERMASSUNG
100
AcDbLine
 10
268.0512174055
 20
180.7621678167
 30
0.0
 11
268.0512174055
 21
187.7621678167
 31
0.0
  0
LINE
  5
19F
330
198
100
AcDbEntity
  8
VERMASSUNG
100
AcDbLine
 10
170.0512174055
 20
186.7621678167
 30
0.0
 11
268.0512174055
 21
186.7621678167
 31
0.0
  0
MTEXT
  5
1A0
330
198
100
AcDbEntity
  8
VERMASSUNG
100
AcDbMText
 10
216.7512173545
 20
189.3403031798
 30
4.6
 40
2.0
 41
0.0
 71
     1
 72
     1
  1
98
  7
SLDTEXTSTYLE0
 73
     1
 44
1.0
  0
ENDBLK
  5
19A
330
198
100
AcDbEntity
  8
0
100
AcDbBlockEnd
  0
BLOCK
  5
1A3
330
1A2
100
AcDbEntity
  8
0
100
AcDbBlockBegin
  2
_D_2
 70
     0
 10
0.0
 20
0.0
 30
0.0
  3
_D_2
  1

  0
SOLID
  5
1A5
330
1A2
100
AcDbEntity
  8
VERMASSUNG
100
AcDbTrace
 10
140.0512174055
 20
192.7621678167
 30
0.0
 11
143.0512174055
 21
192.3121678167
 31
0.0
 12
143.0512174055
 22
193.2121678167
 32
0.0
 13
143.0512174055
 23
193.2121678167
 33
0.0
  0
SOLID
  5
1A6
330
1A2
100
AcDbEntity
  8
VERMASSUNG
100
AcDbTrace
 10
268.0512174055
 20
192.7621678167
 30
0.0
 11
265.0512174055
 21
193.2121678167
 31
0.0
 12
265.0512174055
 22
192.3121678167
 32
0.0
 13
265.0512174055
 23
192.3121678167
 33
0.0
  0
LINE
  5
1A7
330
1A2
100
AcDbEntity
  8
VERMASSUNG
100
AcDbLine
 10
140.0512174055
 20
162.7554936548
 30
0.0
 11
140.0512174055
 21
193.7621678167
 31
0.0
  0
LINE
  5
1A8
330
1A2
100
AcDbEntity
  8
VERMASSUNG
100
AcDbLine
 10
268.0512174055
 20
180.7621678167
 30
0.0
 11
268.0512174055
 21
193.7621678167
 31
0.0
  0
LINE
  5
1A9
330
1A2
100
AcDbEntity
  8
VERMASSUNG
100
AcDbLine
 10
140.0512174055
 20
192.7621678167
 30
0.0
 11
268.0512174055
 21
192.7621678167
 31
0.0
  0
MTEXT
  5
1AA
330
1A2
100
AcDbEntity
  8
VERMASSUNG
100
AcDbMText
 10
201.2512172725
 20
195.3403031798
 30
4.6
 40
2.0
 41
0.0
 71
     1
 72
     1
  1
128
  7
SLDTEXTSTYLE0
 73
     1
 44
1.0
  0
ENDBLK
  5
1A4
330
1A2
100
AcDbEntity
  8
0
100
AcDbBlockEnd
  0
BLOCK
  5
1AD
330
1AC
100
AcDbEntity
  8
0
100
AcDbBlockBegin
  2
_D_3
 70
     0
 10
0.0
 20
0.0
 30
0.0
  3
_D_3
  1

  0
SOLID
  5
1AF
330
1AC
100
AcDbEntity
  8
VERMASSUNG
100
AcDbTrace
 10
130.0512174055
 20
171.7621678167
 30
0.0
 11
129.6012174055
 21
168.7621678167
 31
0.0
 12
130.5012174055
 22
168.7621678167
 32
0.0
 13
130.5012174055
 23
168.7621678167
 33
0.0
  0
SOLID
  5
1B0
330
1AC
100
AcDbEntity
  8
VERMASSUNG
100
AcDbTrace
 10
130.0512174055
 20
121.7621678167
 30
0.0
 11
130.5012174055
 21
124.7621678167
 31
0.0
 12
129.6012174055
 22
124.7621678167
 32
0.0
 13
129.6012174055
 23
124.7621678167
 33
0.0
  0
LINE
  5
1B1
330
1AC
100
AcDbEntity
  8
VERMASSUNG
100
AcDbLine
 10
170.3512174055
 20
171.7621678167
 30
0.0
 11
129.0512174055
 21
171.7621678167
 31
0.0
  0
LINE
  5
1B2
330
1AC
100
AcDbEntity
  8
VERMASSUNG
100
AcDbLine
 10
170.3512174055
 20
121.7621678167
 30
0.0
 11
129.0512174055
 21
121.7621678167
 31
0.0
  0
LINE
  5
1B3
330
1AC
100
AcDbEntity
  8
VERMASSUNG
100
AcDbLine
 10
130.0512174055
 20
171.7621678167
 30
0.0
 11
130.0512174055
 21
121.7621678167
 31
0.0
  0
MTEXT
  5
1B4
330
1AC
100
AcDbEntity
  8
VERMASSUNG
100
AcDbMText
 10
127.2730819165
 20
140.3571677074
 30
4.6
 40
2.0
 41
0.0
 71
     1
 72
     1
  1
PSC
  7
SLDTEXTSTYLE0
 11
-7.044195017643634E-15
 21
1.0
 31
0.0
 73
     1
 44
1.0
  0
MTEXT
  5
1B5
330
1AC
100
AcDbEntity
  8
VERMASSUNG
100
AcDbMText
 10
127.473081926
 20
144.9571678095
 30
4.6
 40
2.0
 41
0.0
 71
     1
 72
     1
  1
%%c
  7
SLDTEXTSTYLE0
 11
-7.044195017643634E-15
 21
1.0
 31
0.0
 73
     1
 44
1.0
  0
MTEXT
  5
1B6
330
1AC
100
AcDbEntity
  8
VERMASSUNG
100
AcDbMText
 10
127.2730819165
 20
148.5671682895
 30
4.6
 40
2.0
 41
0.0
 71
     1
 72
     1
  1
50
  7
SLDTEXTSTYLE0
 11
-7.044195017643634E-15
 21
1.0
 31
0.0
 73
     1
 44
1.0
  0
ENDBLK
  5
1AE
330
1AC
100
AcDbEntity
  8
0
100
AcDbBlockEnd
  0
BLOCK
  5
1F8
330
1F7
100
AcDbEntity
  8
0
100
AcDbBlockBegin
  2
_D_4
 70
     0
 10
0.0
 20
0.0
 30
0.0
  3
_D_4
  1

  0
SOLID
  5
1FA
330
1F7
100
AcDbEntity
  8
VERMASSUNG
100
AcDbTrace
 10
100.405225994
 20
156.7621678167
 30
0.0
 11
100.855225994
 21
159.7621678167
 31
0.0
 12
99.955225994
 22
159.7621678167
 32
0.0
 13
99.955225994
 23
159.7621678167
 33
0.0
  0
SOLID
  5
1FB
330
1F7
100
AcDbEntity
  8
VERMASSUNG
100
AcDbTrace
 10
100.405225994
 20
181.7621678167
 30
0.0
 11
99.955225994
 21
178.7621678167
 31
0.0
 12
100.855225994
 22
178.7621678167
 32
0.0
 13
100.855225994
 23
178.7621678167
 33
0.0
  0
LINE
  5
1FC
330
1F7
100
AcDbEntity
  8
VERMASSUNG
100
AcDbLine
 10
78.1521911991
 20
156.7621678167
 30
0.0
 11
101.405225994
 21
156.7621678167
 31
0.0
  0
LINE
  5
1FD
330
1F7
100
AcDbEntity
  8
VERMASSUNG
100
AcDbLine
 10
80.2652726458
 20
181.7621678167
 30
0.0
 11
101.405225994
 21
181.7621678167
 31
0.0
  0
LINE
  5
1FE
330
1F7
100
AcDbEntity
  8
VERMASSUNG
100
AcDbLine
 10
100.405225994
 20
156.7621678167
 30
0.0
 11
100.405225994
 21
181.7621678167
 31
0.0
  0
MTEXT
  5
1FF
330
1F7
100
AcDbEntity
  8
VERMASSUNG
100
AcDbMText
 10
97.8270906309
 20
166.9621677656
 30
-33.9
 40
2.0
 41
0.0
 71
     1
 72
     1
  1
25
  7
SLDTEXTSTYLE0
 11
6.123233995736766E-17
 21
1.0
 31
0.0
 73
     1
 44
1.0
  0
ENDBLK
  5
1F9
330
1F7
100
AcDbEntity
  8
0
100
AcDbBlockEnd
  0
BLOCK
  5
202
330
201
100
AcDbEntity
  8
0
100
AcDbBlockBegin
  2
_D_5
 70
     0
 10
0.0
 20
0.0
 30
0.0
  3
_D_5
  1

  0
SOLID
  5
204
330
201
100
AcDbEntity
  8
VERMASSUNG
100
AcDbTrace
 10
48.1521911991
 20
190.0133869829
 30
0.0
 11
51.1521911991
 21
189.5633869829
 31
0.0
 12
51.1521911991
 22
190.4633869829
 32
0.0
 13
51.1521911991
 23
190.4633869829
 33
0.0
  0
SOLID
  5
205
330
201
100
AcDbEntity
  8
VERMASSUNG
100
AcDbTrace
 10
73.1521911991
 20
190.0133869829
 30
0.0
 11
70.1521911991
 21
190.4633869829
 31
0.0
 12
70.1521911991
 22
189.5633869829
 32
0.0
 13
70.1521911991
 23
189.5633869829
 33
0.0
  0
LINE
  5
206
330
201
100
AcDbEntity
  8
VERMASSUNG
100
AcDbLine
 10
73.1521911991
 20
181.7621678167
 30
0.0
 11
73.1521911991
 21
191.0133869829
 31
0.0
  0
LINE
  5
207
330
201
100
AcDbEntity
  8
VERMASSUNG
100
AcDbLine
 10
48.1521911991
 20
190.0133869829
 30
0.0
 11
73.1521911991
 21
190.0133869829
 31
0.0
  0
MTEXT
  5
208
330
201
100
AcDbEntity
  8
VERMASSUNG
100
AcDbMText
 10
58.3521911481
 20
192.5915223461
 30
-33.9
 40
2.0
 41
0.0
 71
     1
 72
     1
  1
25
  7
SLDTEXTSTYLE0
 73
     1
 44
1.0
  0
ENDBLK
  5
203
330
201
100
AcDbEntity
  8
0
100
AcDbBlockEnd
  0
BLOCK
  5
20C
330
20B
100
AcDbEntity
  8
0
100
AcDbBlockBegin
  2
_D_6
 70
     0
 10
0.0
 20
0.0
 30
0.0
  3
_D_6
  1

  0
SOLID
  5
20E
330
20B
100
AcDbEntity
  8
VERMASSUNG
100
AcDbTrace
 10
47.1521911991
 20
190.0133869829
 30
0.0
 11
44.1521911991
 21
190.4633869829
 31
0.0
 12
44.1521911991
 22
189.5633869829
 32
0.0
 13
44.1521911991
 23
189.5633869829
 33
0.0
  0
SOLID
  5
20F
330
20B
100
AcDbEntity
  8
VERMASSUNG
100
AcDbTrace
 10
48.1521911991
 20
190.0133869829
 30
0.0
 11
51.1521911991
 21
189.5633869829
 31
0.0
 12
51.1521911991
 22
190.4633869829
 32
0.0
 13
51.1521911991
 23
190.4633869829
 33
0.0
  0
LINE
  5
210
330
20B
100
AcDbEntity
  8
VERMASSUNG
100
AcDbLine
 10
47.1521911991
 20
181.7621678167
 30
0.0
 11
47.1521911991
 21
191.0133869829
 31
0.0
  0
LINE
  5
211
330
20B
100
AcDbEntity
  8
VERMASSUNG
100
AcDbLine
 10
47.1521911991
 20
190.0133869829
 30
0.0
 11
39.3264050604
 21
190.0133869829
 31
0.0
  0
LINE
  5
212
330
20B
100
AcDbEntity
  8
VERMASSUNG
100
AcDbLine
 10
47.1521911991
 20
190.0133869829
 30
0.0
 11
48.1521911991
 21
190.0133869829
 31
0.0
  0
LINE
  5
213
330
20B
100
AcDbEntity
  8
VERMASSUNG
100
AcDbLine
 10
48.1521911991
 20
190.0133869829
 30
0.0
 11
54.1521911991
 21
190.0133869829
 31
0.0
  0
MTEXT
  5
214
330
20B
100
AcDbEntity
  8
VERMASSUNG
100
AcDbMText
 10
39.3264050604
 20
192.5915223461
 30
-33.9
 40
2.0
 41
0.0
 71
     1
 72
     1
  1
1
  7
SLDTEXTSTYLE0
 73
     1
 44
1.0
  0
ENDBLK
  5
20D
330
20B
100
AcDbEntity
  8
0
100
AcDbBlockEnd
  0
BLOCK
  5
217
330
216
100
AcDbEntity
  8
0
100
AcDbBlockBegin
  2
_D_7
 70
     0
 10
0.0
 20
0.0
 30
0.0
  3
_D_7
  1

  0
SOLID
  5
219
330
216
100
AcDbEntity
  8
VERMASSUNG
100
AcDbTrace
 10
48.1521911991
 20
197.8424913667
 30
0.0
 11
51.1521911991
 21
197.3924913667
 31
0.0
 12
51.1521911991
 22
198.2924913667
 32
0.0
 13
51.1521911991
 23
198.2924913667
 33
0.0
  0
SOLID
  5
21A
330
216
100
AcDbEntity
  8
VERMASSUNG
100
AcDbTrace
 10
93.1521911991
 20
197.8424913667
 30
0.0
 11
90.1521911991
 21
198.2924913667
 31
0.0
 12
90.1521911991
 22
197.3924913667
 32
0.0
 13
90.1521911991
 23
197.3924913667
 33
0.0
  0
LINE
  5
21B
330
216
100
AcDbEntity
  8
VERMASSUNG
100
AcDbLine
 10
48.1521911991
 20
196.7621678167
 30
0.0
 11
48.1521911991
 21
198.8424913667
 31
0.0
  0
LINE
  5
21C
330
216
100
AcDbEntity
  8
VERMASSUNG
100
AcDbLine
 10
93.1521911991
 20
161.9690741424
 30
0.0
 11
93.1521911991
 21
198.8424913667
 31
0.0
  0
LINE
  5
21D
330
216
100
AcDbEntity
  8
VERMASSUNG
100
AcDbLine
 10
48.1521911991
 20
197.8424913667
 30
0.0
 11
93.1521911991
 21
197.8424913667
 31
0.0
  0
MTEXT
  5
21E
330
216
100
AcDbEntity
  8
VERMASSUNG
100
AcDbMText
 10
68.2521910851
 20
200.4206267299
 30
-33.9
 40
2.0
 41
0.0
 71
     1
 72
     1
  1
45
  7
SLDTEXTSTYLE0
 73
     1
 44
1.0
  0
ENDBLK
  5
218
330
216
100
AcDbEntity
  8
0
100
AcDbBlockEnd
  0
BLOCK
  5
221
330
220
100
AcDbEntity
  8
0
100
AcDbBlockBegin
  2
_D_8
 70
     0
 10
0.0
 20
0.0
 30
0.0
  3
_D_8
  1

  0
SOLID
  5
223
330
220
100
AcDbEntity
  8
VERMASSUNG
100
AcDbTrace
 10
12.1516603281
 20
146.7621678167
 30
0.0
 11
12.6016603281
 21
149.7621678167
 31
0.0
 12
11.7016603281
 22
149.7621678167
 32
0.0
 13
11.7016603281
 23
149.7621678167
 33
0.0
  0
SOLID
  5
224
330
220
100
AcDbEntity
  8
VERMASSUNG
100
AcDbTrace
 10
12.1516603281
 20
181.7621678167
 30
0.0
 11
11.7016603281
 21
178.7621678167
 31
0.0
 12
12.6016603281
 22
178.7621678167
 32
0.0
 13
12.6016603281
 23
178.7621678167
 33
0.0
  0
LINE
  5
225
330
220
100
AcDbEntity
  8
VERMASSUNG
100
AcDbLine
 10
28.1521911991
 20
181.7621678167
 30
0.0
 11
11.1516603281
 21
181.7621678167
 31
0.0
  0
LINE
  5
226
330
220
100
AcDbEntity
  8
VERMASSUNG
100
AcDbLine
 10
12.1516603281
 20
146.7621678167
 30
0.0
 11
12.1516603281
 21
181.7621678167
 31
0.0
  0
MTEXT
  5
227
330
220
100
AcDbEntity
  8
VERMASSUNG
100
AcDbMText
 10
9.573524965
 20
161.9621677656
 30
-33.9
 40
2.0
 41
0.0
 71
     1
 72
     1
  1
35
  7
SLDTEXTSTYLE0
 11
6.123233995736766E-17
 21
1.0
 31
0.0
 73
     1
 44
1.0
  0
ENDBLK
  5
222
330
220
100
AcDbEntity
  8
0
100
AcDbBlockEnd
  0
BLOCK
  5
22B
330
22A
100
AcDbEntity
  8
0
100
AcDbBlockBegin
  2
_D_9
 70
     0
 10
0.0
 20
0.0
 30
0.0
  3
_D_9
  1

  0
SOLID
  5
22D
330
22A
100
AcDbEntity
  8
VERMASSUNG
100
AcDbTrace
 10
85.7510348884
 20
175.789343932
 30
0.0
 11
88.4006930004
 21
177.2664396938
 31
0.0
 12
87.8507044003
 22
177.9788388374
 32
0.0
 13
87.8507044003
 23
177.9788388374
 33
0.0
  0
LINE
  5
22E
330
22A
100
AcDbEntity
  8
VERMASSUNG
100
AcDbLine
 10
85.7510348884
 20
175.789343932
 30
0.0
 11
103.7081251518
 21
189.6526325455
 31
0.0
  0
LINE
  5
22F
330
22A
100
AcDbEntity
  8
VERMASSUNG
100
AcDbLine
 10
85.7510348884
 20
175.789343932
 30
0.0
 11
48.1521911991
 21
146.7621678167
 31
0.0
  0
MTEXT
  5
230
330
22A
100
AcDbEntity
  8
VERMASSUNG
100
AcDbMText
 10
95.4840528354
 20
186.5595181516
 30
-33.9
 40
2.0
 41
0.0
 71
     1
 72
     1
  1
R47.5
  7
SLDTEXTSTYLE0
 11
0.7915546039837105
 21
0.6110984445342593
 31
0.0
 73
     1
 44
1.0
  0
ENDBLK
  5
22C
330
22A
100
AcDbEntity
  8
0
100
AcDbBlockEnd
  0
BLOCK
  5
233
330
232
100
AcDbEntity
  8
0
100
AcDbBlockBegin
  2
_D_10
 70
     0
 10
0.0
 20
0.0
 30
0.0
  3
_D_10
  1

  0
SOLID
  5
235
330
232
100
AcDbEntity
  8
VERMASSUNG
100
AcDbTrace
 10
22.1521911991
 20
197.8424913667
 30
0.0
 11
25.1521911991
 21
197.3924913667
 31
0.0
 12
25.1521911991
 22
198.2924913667
 32
0.0
 13
25.1521911991
 23
198.2924913667
 33
0.0
  0
SOLID
  5
236
330
232
100
AcDbEntity
  8
VERMASSUNG
100
AcDbTrace
 10
48.1521911991
 20
197.8424913667
 30
0.0
 11
45.1521911991
 21
198.2924913667
 31
0.0
 12
45.1521911991
 22
197.3924913667
 32
0.0
 13
45.1521911991
 23
197.3924913667
 33
0.0
  0
LINE
  5
237
330
232
100
AcDbEntity
  8
VERMASSUNG
100
AcDbLine
 10
22.1521911991
 20
174.7621678167
 30
0.0
 11
22.1521911991
 21
198.8424913667
 31
0.0
  0
LINE
  5
238
330
232
100
AcDbEntity
  8
VERMASSUNG
100
AcDbLine
 10
48.1521911991
 20
196.7621678167
 30
0.0
 11
48.1521911991
 21
198.8424913667
 31
0.0
  0
LINE
  5
239
330
232
100
AcDbEntity
  8
VERMASSUNG
100
AcDbLine
 10
22.1521911991
 20
197.8424913667
 30
0.0
 11
48.1521911991
 21
197.8424913667
 31
0.0
  0
MTEXT
  5
23A
330
232
100
AcDbEntity
  8
VERMASSUNG
100
AcDbMText
 10
32.8521911481
 20
200.4206267299
 30
-33.9
 40
2.0
 41
0.0
 71
     1
 72
     1
  1
26
  7
SLDTEXTSTYLE0
 73
     1
 44
1.0
  0
ENDBLK
  5
234
330
232
100
AcDbEntity
  8
0
100
AcDbBlockEnd
  0
BLOCK
  5
23D
330
23C
100
AcDbEntity
  8
0
100
AcDbBlockBegin
  2
_D_11
 70
     0
 10
0.0
 20
0.0
 30
0.0
  3
_D_11
  1

  0
SOLID
  5
23F
330
23C
100
AcDbEntity
  8
VERMASSUNG
100
AcDbTrace
 10
12.1516603281
 20
146.7621678167
 30
0.0
 11
11.7016603281
 21
143.7621678167
 31
0.0
 12
12.6016603281
 22
143.7621678167
 32
0.0
 13
12.6016603281
 23
143.7621678167
 33
0.0
  0
SOLID
  5
240
330
23C
100
AcDbEntity
  8
VERMASSUNG
100
AcDbTrace
 10
12.1516603281
 20
120.7621678167
 30
0.0
 11
12.6016603281
 21
123.7621678167
 31
0.0
 12
11.7016603281
 22
123.7621678167
 32
0.0
 13
11.7016603281
 23
123.7621678167
 33
0.0
  0
LINE
  5
241
330
23C
100
AcDbEntity
  8
VERMASSUNG
100
AcDbLine
 10
37.1521911991
 20
120.7621678167
 30
0.0
 11
11.1516603281
 21
120.7621678167
 31
0.0
  0
LINE
  5
242
330
23C
100
AcDbEntity
  8
VERMASSUNG
100
AcDbLine
 10
12.1516603281
 20
146.7621678167
 30
0.0
 11
12.1516603281
 21
120.7621678167
 31
0.0
  0
MTEXT
  5
243
330
23C
100
AcDbEntity
  8
VERMASSUNG
100
AcDbMText
 10
9.573524965
 20
131.4621677656
 30
-33.9
 40
2.0
 41
0.0
 71
     1
 72
     1
  1
26
  7
SLDTEXTSTYLE0
 11
-7.044195017643634E-15
 21
1.0
 31
0.0
 73
     1
 44
1.0
  0
ENDBLK
  5
23E
330
23C
100
AcDbEntity
  8
0
100
AcDbBlockEnd
  0
BLOCK
  5
245
330
244
100
AcDbEntity
  8
0
100
AcDbBlockBegin
  2
SW_CENTERMARKSYMBOL_0
 70
     0
 10
0.0
 20
0.0
 30
0.0
  3
SW_CENTERMARKSYMBOL_0
  1

  0
LINE
  5
247
330
244
100
AcDbEntity
  8
VERMASSUNG
 62
     0
100
AcDbLine
 10
0.0
 20
0.0
 30
0.0
 11
0.0
 21
2.5
 31
0.0
  0
LINE
  5
248
330
244
100
AcDbEntity
  8
VERMASSUNG
 62
     0
100
AcDbLine
 10
0.0
 20
0.0
 30
0.0
 11
-2.5
 21
0.0
 31
0.0
  0
LINE
  5
249
330
244
100
AcDbEntity
  8
VERMASSUNG
 62
     0
100
AcDbLine
 10
0.0
 20
0.0
 30
0.0
 11
0.0
 21
-2.5
 31
0.0
  0
LINE
  5
24A
330
244
100
AcDbEntity
  8
VERMASSUNG
 62
     0
100
AcDbLine
 10
0.0
 20
0.0
 30
0.0
 11
2.5
 21
0.0
 31
0.0
  0
LINE
  5
24B
330
244
100
AcDbEntity
  8
VERMASSUNG
 62
     0
100
AcDbLine
 10
0.0
 20
5.0
 30
0.0
 11
0.0
 21
50.0
 31
0.0
  0
LINE
  5
24C
330
244
100
AcDbEntity
  8
VERMASSUNG
 62
     0
100
AcDbLine
 10
-5.0
 20
0.0
 30
0.0
 11
-50.0
 21
0.0
 31
0.0
  0
LINE
  5
24D
330
244
100
AcDbEntity
  8
VERMASSUNG
 62
     0
100
AcDbLine
 10
0.0
 20
-5.0
 30
0.0
 11
0.0
 21
-50.0
 31
0.0
  0
LINE
  5
24E
330
244
100
AcDbEntity
  8
VERMASSUNG
 62
     0
100
AcDbLine
 10
5.0
 20
0.0
 30
0.0
 11
50.0
 21
0.0
 31
0.0
  0
ENDBLK
  5
246
330
244
100
AcDbEntity
  8
0
100
AcDbBlockEnd
  0
BLOCK
  5
2D9
330
2D8
100
AcDbEntity
  8
0
100
AcDbBlockBegin
  2
_D_12
 70
     0
 10
0.0
 20
0.0
 30
0.0
  3
_D_12
  1

  0
SOLID
  5
2DB
330
2D8
100
AcDbEntity
  8
VERMASSUNG
100
AcDbTrace
 10
193.0512174055
 20
101.3170124578
 30
0.0
 11
196.0512174055
 21
100.8670124578
 31
0.0
 12
196.0512174055
 22
101.7670124578
 32
0.0
 13
196.0512174055
 23
101.7670124578
 33
0.0
  0
SOLID
  5
2DC
330
2D8
100
AcDbEntity
  8
VERMASSUNG
100
AcDbTrace
 10
268.0512174055
 20
101.3170124578
 30
0.0
 11
265.0512174055
 21
101.7670124578
 31
0.0
 12
265.0512174055
 22
100.8670124578
 32
0.0
 13
265.0512174055
 23
100.8670124578
 33
0.0
  0
LINE
  5
2DD
330
2D8
100
AcDbEntity
  8
VERMASSUNG
100
AcDbLine
 10
193.0512174055
 20
73.8149609815
 30
0.0
 11
193.0512174055
 21
102.3170124578
 31
0.0
  0
LINE
  5
2DE
330
2D8
100
AcDbEntity
  8
VERMASSUNG
100
AcDbLine
 10
268.0512174055
 20
93.8149609815
 30
0.0
 11
268.0512174055
 21
102.3170124578
 31
0.0
  0
LINE
  5
2DF
330
2D8
100
AcDbEntity
  8
VERMASSUNG
100
AcDbLine
 10
193.0512174055
 20
101.3170124578
 30
0.0
 11
268.0512174055
 21
101.3170124578
 31
0.0
  0
MTEXT
  5
2E0
330
2D8
100
AcDbEntity
  8
VERMASSUNG
100
AcDbMText
 10
228.2512173545
 20
103.895147821
 30
-1.9
 40
2.0
 41
0.0
 71
     1
 72
     1
  1
75
  7
SLDTEXTSTYLE0
 73
     1
 44
1.0
  0
ENDBLK
  5
2DA
330
2D8
100
AcDbEntity
  8
0
100
AcDbBlockEnd
  0
ENDSEC
  0
SECTION
  2
ENTITIES
  0
MTEXT
  5
49
330
1F
100
AcDbEntity
  8
KOPF_DÜNN
100
AcDbMText
 10
13.8892156294
 20
23.8442973028
 30
0.0
 40
3.0
 41
0.0
 71
     1
 72
     1
  1
PS5.V25.R11.098
  7
SLDTEXTSTYLE0
 73
     1
 44
1.0
  0
MTEXT
  5
4A
330
1F
100
AcDbEntity
  8
VERMASSUNG
100
AcDbMText
 10
13.9329988022
 20
28.8834360957
 30
0.0
 40
3.0
 41
0.0
 71
     1
 72
     1
  1
Werkzeughalter axial rechts_Tool holder axial right
  7
SLDTEXTSTYLE0
 73
     1
 44
1.0
  0
MTEXT
  5
4B
330
1F
100
AcDbEntity
  8
VERMASSUNG
100
AcDbMText
 10
98.8601118557
 20
13.8365368179
 30
0.0
 40
2.0
 41
0.0
 71
     1
 72
     1
  1
Datum: 19.03.2014
  7
SLDTEXTSTYLE0
 73
     1
 44
1.0
  0
MTEXT
  5
4C
330
1F
100
AcDbEntity
  8
VERMASSUNG
100
AcDbMText
 10
13.933048693
 20
18.0482802738
 30
0.0
 40
2.0
 41
0.0
 71
     1
 72
     1
  1
PSC ø50 / 25x25
  7
SLDTEXTSTYLE0
 73
     1
 44
1.0
  0
MTEXT
  5
4D
330
1F
100
AcDbEntity
  8
VERMASSUNG
100
AcDbMText
 10
13.9808475933
 20
13.9090973692
 30
0.0
 40
2.0
 41
0.0
 71
     1
 72
     1
  1
Gewicht: 2015g
  7
SLDTEXTSTYLE0
 73
     1
 44
1.0
  0
ARC
  5
4E
330
1F
100
AcDbEntity
  8
0
  6
Continuous
 62
     7
370
    15
100
AcDbCircle
 10
190.0512174055
 20
120.7621678167
 30
0.0
 40
1.000000000000018
100
AcDbArc
 50
29.9964368795
 51
90.0
  0
ARC
  5
4F
330
1F
100
AcDbEntity
  8
0
  6
Continuous
 62
     7
370
    15
100
AcDbCircle
 10
190.0512174055
 20
172.7621678167
 30
0.0
 40
1.0
100
AcDbArc
 50
270.0
 51
0.0
  0
ARC
  5
50
330
1F
100
AcDbEntity
  8
0
  6
Continuous
 62
     7
370
    15
100
AcDbCircle
 10
170.3512174055
 20
122.0621678167
 30
0.0
 40
0.2999999999999972
100
AcDbArc
 50
180.0
 51
270.0
  0
ARC
  5
51
330
1F
100
AcDbEntity
  8
0
  6
Continuous
 62
     7
370
    15
100
AcDbCircle
 10
170.3512174055
 20
171.4621678167
 30
0.0
 40
0.2999999999999829
100
AcDbArc
 50
90.0
 51
180.0
  0
LINE
  5
52
330
1F
100
AcDbEntity
  8
0
  6
Continuous
 62
     7
370
    15
100
AcDbLine
 10
170.3512174055
 20
121.7621678167
 30
0.0
 11
190.0512174055
 21
121.7621678167
 31
0.0
  0
LINE
  5
53
330
1F
100
AcDbEntity
  8
0
  6
Continuous
 62
     7
370
    15
100
AcDbLine
 10
190.0512174055
 20
171.7621678167
 30
0.0
 11
170.3512174055
 21
171.7621678167
 31
0.0
  0
LWPOLYLINE
  5
54
330
1F
100
AcDbEntity
  8
0
  6
Continuous
 62
     7
370
    15
100
AcDbPolyline
 90
        3
 70
   128
 43
0.0
 10
169.8512174055
 20
128.9223475378
 10
169.976672349
 20
128.8540454228
 10
170.0512174055
 20
128.8013076647
  0
LWPOLYLINE
  5
55
330
1F
100
AcDbEntity
  8
0
  6
Continuous
 62
     7
370
    15
100
AcDbPolyline
 90
        3
 70
   128
 43
0.0
 10
170.0512174055
 20
164.7230279686
 10
169.976672349
 20
164.6702902105
 10
169.8512174055
 20
164.6019880955
  0
SPLINE
  5
56
330
1F
100
AcDbEntity
  8
0
  6
Continuous
 62
     7
370
    15
100
AcDbSpline
210
0.0
220
0.0
230
1.0
 70
     8
 71
     3
 72
     9
 73
     5
 74
     0
 42
0.00000001
 43
0.00000001
 12
1.0
 22
0.0
 32
0.0
 13
1.0
 23
0.0
 33
0.0
 40
0.0
 40
0.0
 40
0.0
 40
0.0
 40
0.4999999965534792
 40
1.0
 40
1.0
 40
1.0
 40
1.0
 10
190.9172428094656
 20
121.2621678166636
 30
0.0
 10
191.061580377725
 20
121.1788344832735
 30
0.0
 10
191.3502555162335
 20
121.0121678153446
 30
0.0
 10
191.6389306470325
 20
120.8455011499351
 30
0.0
 10
191.783268213427
 20
120.7621678166559
 30
0.0
  0
ARC
  5
57
330
1F
100
AcDbEntity
  8
0
  6
Continuous
 62
     7
370
    15
100
AcDbCircle
 10
256.0512174055
 20
151.7621678167
 30
0.0
 40
5.000000000000022
100
AcDbArc
 50
44.7464248226
 51
66.4218215218
  0
ARC
  5
58
330
1F
100
AcDbEntity
  8
0
  6
Continuous
 62
     7
370
    15
100
AcDbCircle
 10
256.0512174055
 20
151.7621678167
 30
0.0
 40
5.000000000000025
100
AcDbArc
 50
293.5781784782
 51
324.396505774
  0
LINE
  5
59
330
1F
100
AcDbEntity
  8
0
  6
Continuous
 62
     7
370
    15
100
AcDbLine
 10
192.0512174055
 20
139.6207386055
 30
0.0
 11
192.0512174055
 21
135.7621678167
 31
0.0
  0
LINE
  5
5A
330
1F
100
AcDbEntity
  8
0
  6
Continuous
 62
     7
370
    15
100
AcDbLine
 10
192.0512174055
 20
135.7621678167
 30
0.0
 11
191.0512174055
 21
136.176381379
 31
0.0
  0
LINE
  5
5B
330
1F
100
AcDbEntity
  8
0
  6
Continuous
 62
     7
370
    15
100
AcDbLine
 10
191.0512174055
 20
136.176381379
 30
0.0
 11
191.0512174055
 21
139.6207393881
 31
0.0
  0
LINE
  5
5C
330
1F
100
AcDbEntity
  8
0
  6
Continuous
 62
     7
370
    15
100
AcDbLine
 10
192.0512174055
 20
139.6207386055
 30
0.0
 11
191.0512174055
 21
139.6207394345
 31
0.0
  0
LINE
  5
5D
330
1F
100
AcDbEntity
  8
0
  6
Continuous
 62
     7
370
    15
100
AcDbLine
 10
195.0512174055
 20
174.7621678167
 30
0.0
 11
195.0512174055
 21
178.7621678167
 31
0.0
  0
ARC
  5
5E
330
1F
100
AcDbEntity
  8
0
  6
Continuous
 62
     7
370
    15
100
AcDbCircle
 10
214.0512174055
 20
174.7621678167
 30
0.0
 40
19.0
100
AcDbArc
 50
180.0
 51
270.0
  0
LINE
  5
5F
330
1F
100
AcDbEntity
  8
0
  6
Continuous
 62
     7
370
    15
100
AcDbLine
 10
257.0512174055
 20
155.7621678167
 30
0.0
 11
214.0512174055
 21
155.7621678167
 31
0.0
  0
LINE
  5
60
330
1F
100
AcDbEntity
  8
0
  6
Continuous
 62
     7
370
    15
100
AcDbLine
 10
257.0512174055
 20
141.5660153939
 30
0.0
 11
257.0512174055
 21
155.7621678167
 31
0.0
  0
LINE
  5
61
330
1F
100
AcDbEntity
  8
0
  6
Continuous
 62
     7
370
    15
100
AcDbLine
 10
246.9986585222
 20
135.7621678167
 30
0.0
 11
257.0512174055
 21
141.5660153939
 31
0.0
  0
LINE
  5
62
330
1F
100
AcDbEntity
  8
0
  6
Continuous
 62
     7
370
    15
100
AcDbLine
 10
192.0512174055
 20
135.7621678167
 30
0.0
 11
246.9986585222
 21
135.7621678167
 31
0.0
  0
SPLINE
  5
63
330
1F
100
AcDbEntity
  8
0
  6
Continuous
 62
     7
370
    15
100
AcDbSpline
210
0.0
220
0.0
230
1.0
 70
     8
 71
     3
 72
    27
 73
    23
 74
     0
 42
0.00000001
 43
0.00000001
 12
1.0
 22
0.0
 32
0.0
 13
1.0
 23
0.0
 33
0.0
 40
0.0
 40
0.0
 40
0.0
 40
0.0
 40
0.0303039763775401
 40
0.0625107632608417
 40
0.1249953962416197
 40
0.1874839538189742
 40
0.2187300105607762
 40
0.2499763560206204
 40
0.3124648394543662
 40
0.374933427684626
 40
0.4373804644104459
 40
0.4998211515972059
 40
0.5622799368006254
 40
0.6247792603918575
 40
0.6873118300193428
 40
0.7498652933859014
 40
0.7811458823262832
 40
0.8124257461758986
 40
0.8749732958779455
 40
0.9374946727815192
 40
0.9697490587808048
 40
1.0
 40
1.0
 40
1.0
 40
1.0
 10
192.0512219625703
 20
153.9035962450838
 30
0.0
 10
192.05052787408
 20
153.7591974635434
 30
0.0
 10
192.0490961147373
 20
153.4613329874241
 30
0.0
 10
192.0353536677101
 20
152.8658626240598
 30
0.0
 10
192.005895149025
 20
152.1174436394744
 30
0.0
 10
191.9662616097266
 20
151.3741079046542
 30
0.0
 10
191.9323812890797
 20
150.779541081217
 30
0.0
 10
191.8981463145758
 20
150.1849945583426
 30
0.0
 10
191.8569419086401
 20
149.4418254430205
 30
0.0
 10
191.8162685210111
 20
148.5497509785121
 30
0.0
 10
191.7895175249734
 20
147.6573550956662
 30
0.0
 10
191.7801782992959
 20
146.7646381212447
 30
0.0
 10
191.7894442336531
 20
145.8716714209408
 30
0.0
 10
191.8161059872022
 20
144.9786322882735
 30
0.0
 10
191.8567573017894
 20
144.0856918889385
 30
0.0
 10
191.8980156903174
 20
143.3417468702785
 30
0.0
 10
191.9322702653693
 20
142.7465665466953
 30
0.0
 10
191.9662114766972
 20
142.1513968773388
 30
0.0
 10
192.0058743435069
 20
141.4074443105848
 30
0.0
 10
192.0353369862399
 20
140.6583422866002
 30
0.0
 10
192.0491105845655
 20
140.0627233247271
 30
0.0
 10
192.050538621459
 20
139.7648846992177
 30
0.0
 10
192.0512297539119
 20
139.6207386055319
 30
0.0
  0
LINE
  5
64
330
1F
100
AcDbEntity
  8
0
  6
Continuous
 62
     7
370
    15
100
AcDbLine
 10
192.0512174055
 20
178.7621678167
 30
0.0
 11
192.0512174055
 21
153.9035962452
 31
0.0
  0
LINE
  5
65
330
1F
100
AcDbEntity
  8
0
  6
Continuous
 62
     7
370
    15
100
AcDbLine
 10
195.0512174055
 20
178.7621678167
 30
0.0
 11
192.0512174055
 21
178.7621678167
 31
0.0
  0
SPLINE
  5
66
330
1F
100
AcDbEntity
  8
0
  6
Continuous
 62
     7
370
    15
100
AcDbSpline
210
0.0
220
0.0
230
1.0
 70
     8
 71
     3
 72
    20
 73
    16
 74
     0
 42
0.00000001
 43
0.00000001
 12
1.0
 22
0.0
 32
0.0
 13
1.0
 23
0.0
 33
0.0
 40
0.0
 40
0.0
 40
0.0
 40
0.0
 40
0.0401298102753335
 40
0.0809275407445061
 40
0.1224026651054728
 40
0.184906438016112
 40
0.2470275634848056
 40
0.3732183011340753
 40
0.5001824930958648
 40
0.6270739647752944
 40
0.7531323942271497
 40
0.8151881858997583
 40
0.8776293655723835
 40
0.939565984266152
 40
0.9999999999999999
 40
0.9999999999999999
 40
0.9999999999999999
 40
0.9999999999999999
 10
191.0512174055023
 20
139.6207394344727
 30
0.0
 10
191.05058170924
 20
139.8107436931929
 30
0.0
 10
191.0492997361928
 20
140.1939146397713
 30
0.0
 10
191.0403849767216
 20
140.7743591231896
 30
0.0
 10
191.0258588353381
 20
141.4615941419352
 30
0.0
 10
191.0045739703252
 20
142.2511273398166
 30
0.0
 10
190.9698272473228
 20
143.4450029018693
 30
0.0
 10
190.9299093020513
 20
144.948764829639
 30
0.0
 10
190.9108663191083
 20
146.7644287656759
 30
0.0
 10
190.9300073095696
 20
148.5794581390288
 30
0.0
 10
190.9698681312598
 20
150.0819177294655
 30
0.0
 10
191.0046720806173
 20
151.2745633155577
 30
0.0
 10
191.0282674946137
 20
152.1607112754654
 30
0.0
 10
191.0468686942549
 20
153.0378862894274
 30
0.0
 10
191.0497797501487
 20
153.6173981731246
 30
0.0
 10
191.0512174055022
 20
153.9035961687559
 30
0.0
  0
LINE
  5
67
330
1F
100
AcDbEntity
  8
0
  6
Continuous
 62
     7
370
    15
100
AcDbLine
 10
192.051219684
 20
153.9035962451
 30
0.0
 11
191.0512182664
 21
153.9035961688
 31
0.0
  0
LINE
  5
68
330
1F
100
AcDbEntity
  8
0
  6
Continuous
 62
     7
370
    15
100
AcDbLine
 10
191.0512174055
 20
153.9035962452
 30
0.0
 11
191.0512174055
 21
178.3479542543
 31
0.0
  0
LINE
  5
69
330
1F
100
AcDbEntity
  8
0
  6
Continuous
 62
     7
370
    15
100
AcDbLine
 10
192.0512174055
 20
178.7621678167
 30
0.0
 11
191.0512174055
 21
178.3479542543
 31
0.0
  0
SPLINE
  5
6A
330
1F
100
AcDbEntity
  8
0
  6
Continuous
 62
     7
370
    15
100
AcDbSpline
210
0.0
220
0.0
230
1.0
 70
     8
 71
     3
 72
    20
 73
    16
 74
     0
 42
0.00000001
 43
0.00000001
 12
1.0
 22
0.0
 32
0.0
 13
1.0
 23
0.0
 33
0.0
 40
0.0
 40
0.0
 40
0.0
 40
0.0
 40
0.0404284233840483
 40
0.081332174520855
 40
0.1227207772933227
 40
0.1851274286644142
 40
0.2472980799015615
 40
0.373177563710399
 40
0.4997501692779511
 40
0.6263772393145939
 40
0.7523876505094943
 40
0.8146199876283728
 40
0.8771006241915327
 40
0.9390900817409125
 40
1.0
 40
1.0
 40
1.0
 40
1.0
 10
191.0512174055023
 20
124.3418616160671
 30
0.0
 10
191.0507674655862
 20
124.4507233132861
 30
0.0
 10
191.0498622956904
 20
124.6697266237232
 30
0.0
 10
191.0435999563989
 20
125.0052098626971
 30
0.0
 10
191.0334736393434
 20
125.4052246688738
 30
0.0
 10
191.0187354983837
 20
125.8712259949062
 30
0.0
 10
190.9948738643186
 20
126.5872157720619
 30
0.0
 10
190.9679021489309
 20
127.5114078174875
 30
0.0
 10
190.9551920376056
 20
128.6647040841697
 30
0.0
 10
190.9678235060235
 20
129.8571876477227
 30
0.0
 10
190.9947530685641
 20
130.8779840583652
 30
0.0
 10
191.0187074485654
 20
131.7079266867022
 30
0.0
 10
191.0350937951601
 20
132.3342564766153
 30
0.0
 10
191.0481435393612
 20
132.9635551208567
 30
0.0
 10
191.0501988012128
 20
133.3868829203597
 30
0.0
 10
191.0512174055023
 20
133.5966875796178
 30
0.0
  0
SPLINE
  5
6B
330
1F
100
AcDbEntity
  8
0
  6
Continuous
 62
     7
370
    15
100
AcDbSpline
210
0.0
220
0.0
230
1.0
 70
     8
 71
     3
 72
    10
 73
     6
 74
     0
 42
0.00000001
 43
0.00000001
 12
1.0
 22
0.0
 32
0.0
 13
1.0
 23
0.0
 33
0.0
 40
0.0
 40
0.0
 40
0.0
 40
0.0
 40
0.0001923182363362
 40
0.5369072167450767
 40
1.0
 40
1.0
 40
1.0
 40
1.0
 10
190.9172649297374
 20
121.2622145919224
 30
0.0
 10
190.9172575603723
 20
121.2621990081261
 30
0.0
 10
190.8966840286151
 20
121.2186927196565
 30
0.0
 10
190.987638457654
 20
121.3469796928785
 30
0.0
 10
191.0253702896498
 20
121.6014764580261
 30
0.0
 10
191.0428469898342
 20
121.7193547434716
 30
0.0
  0
LINE
  5
6C
330
1F
100
AcDbEntity
  8
0
  6
Continuous
 62
     7
370
    15
100
AcDbLine
 10
247.2666077147
 20
134.7621678167
 30
0.0
 11
246.9986585222
 21
135.7621678167
 31
0.0
  0
LINE
  5
6D
330
1F
100
AcDbEntity
  8
0
  6
Continuous
 62
     7
370
    15
100
AcDbLine
 10
247.2666077147
 20
134.7621678167
 30
0.0
 11
223.0178964087
 21
120.7621678167
 31
0.0
  0
LINE
  5
6E
330
1F
100
AcDbEntity
  8
0
  6
Continuous
 62
     7
370
    15
100
AcDbLine
 10
192.0512174055
 20
120.7621678167
 30
0.0
 11
223.0178964087
 21
120.7621678167
 31
0.0
  0
LINE
  5
6F
330
1F
100
AcDbEntity
  8
0
  6
Continuous
 62
     7
370
    15
100
AcDbLine
 10
192.0512174055
 20
123.6347548349
 30
0.0
 11
192.0512174055
 21
120.7621678167
 31
0.0
  0
SPLINE
  5
70
330
1F
100
AcDbEntity
  8
0
  6
Continuous
 62
     7
370
    15
100
AcDbSpline
210
0.0
220
0.0
230
1.0
 70
     8
 71
     3
 72
    27
 73
    23
 74
     0
 42
0.00000001
 43
0.00000001
 12
1.0
 22
0.0
 32
0.0
 13
1.0
 23
0.0
 33
0.0
 40
0.0
 40
0.0
 40
0.0
 40
0.0
 40
0.030350740661368
 40
0.0625592882243041
 40
0.125104302428228
 40
0.1876506163660483
 40
0.2189246042228349
 40
0.2501983805352187
 40
0.3127446224171151
 40
0.3752737489177492
 40
0.4377728825893333
 40
0.5002467389727722
 40
0.5627071060800559
 40
0.6251673262089376
 40
0.6876365147575604
 40
0.7501158070468104
 40
0.7813576685750343
 40
0.8125993591296096
 40
0.8750768844278474
 40
0.9375423230589254
 40
0.9696809028521506
 40
1.0
 40
1.0
 40
1.0
 40
1.0
 10
192.0512174055024
 20
132.8895807984312
 30
0.0
 10
192.0507241881497
 20
132.7959058448491
 30
0.0
 10
192.0497075629915
 20
132.6028219762898
 30
0.0
 10
192.0400642851522
 20
132.2167490295674
 30
0.0
 10
192.019347108097
 20
131.7314649278009
 30
0.0
 10
191.9918497642563
 20
131.249247224522
 30
0.0
 10
191.9684410730814
 20
130.8635115663937
 30
0.0
 10
191.9449074575236
 20
130.4777798114927
 30
0.0
 10
191.9169488446668
 20
129.9956266184876
 30
0.0
 10
191.8894903486896
 20
129.4170125577495
 30
0.0
 10
191.8717127554168
 20
128.8384249151632
 30
0.0
 10
191.8655630010842
 20
128.2599247074534
 30
0.0
 10
191.8718068650825
 20
127.6815451429605
 30
0.0
 10
191.8896534139691
 20
127.103305459481
 30
0.0
 10
191.9171388203896
 20
126.5252041318258
 30
0.0
 10
191.9450892012278
 20
126.0435412690603
 30
0.0
 10
191.9686002927014
 20
125.6582140202778
 30
0.0
 10
191.991979025465
 20
125.2728883275915
 30
0.0
 10
192.0194300938619
 20
124.7912273160621
 30
0.0
 10
192.0400912555478
 20
124.3066162386563
 30
0.0
 10
192.0497159687872
 20
123.9211024035496
 30
0.0
 10
192.0507267416905
 20
123.7283321319765
 30
0.0
 10
192.0512174055024
 20
123.6347548348805
 30
0.0
  0
LINE
  5
71
330
1F
100
AcDbEntity
  8
0
  6
Continuous
 62
     7
370
    15
100
AcDbLine
 10
192.0512174055
 20
135.7621678167
 30
0.0
 11
192.0512174055
 21
132.8895807984
 31
0.0
  0
LINE
  5
72
330
1F
100
AcDbEntity
  8
0
  6
Continuous
 62
     7
370
    15
100
AcDbLine
 10
192.0512174055
 20
132.8895807984
 30
0.0
 11
191.0512174055
 21
133.5966875796
 31
0.0
  0
LINE
  5
73
330
1F
100
AcDbEntity
  8
0
  6
Continuous
 62
     7
370
    15
100
AcDbLine
 10
191.0512174055
 20
133.5966875796
 30
0.0
 11
191.0512174055
 21
136.176381379
 31
0.0
  0
LINE
  5
74
330
1F
100
AcDbEntity
  8
0
  6
Continuous
 62
     7
370
    15
100
AcDbLine
 10
257.0512174055
 20
141.5660153939
 30
0.0
 11
258.0512174055
 21
140.9886651248
 31
0.0
  0
LINE
  5
75
330
1F
100
AcDbEntity
  8
0
  6
Continuous
 62
     7
370
    15
100
AcDbLine
 10
258.0512174055
 20
140.9886651248
 30
0.0
 11
247.2666077147
 21
134.7621678167
 31
0.0
  0
ARC
  5
76
330
1F
100
AcDbEntity
  8
0
  6
Continuous
 62
     7
370
    15
100
AcDbCircle
 10
214.0512174055
 20
174.7621678167
 30
0.0
 40
18.0
100
AcDbArc
 50
180.0
 51
270.0
  0
LINE
  5
77
330
1F
100
AcDbEntity
  8
0
  6
Continuous
 62
     7
370
    15
100
AcDbLine
 10
257.0512174055
 20
155.7621678167
 30
0.0
 11
257.0512174055
 21
156.7621678167
 31
0.0
  0
LINE
  5
78
330
1F
100
AcDbEntity
  8
0
  6
Continuous
 62
     7
370
    15
100
AcDbLine
 10
258.0512174055
 20
155.7621678167
 30
0.0
 11
257.0512174055
 21
156.7621678167
 31
0.0
  0
LINE
  5
79
330
1F
100
AcDbEntity
  8
0
  6
Continuous
 62
     7
370
    15
100
AcDbLine
 10
257.0512174055
 20
155.7621678167
 30
0.0
 11
258.0512174055
 21
155.7621678167
 31
0.0
  0
LINE
  5
7A
330
1F
100
AcDbEntity
  8
0
  6
Continuous
 62
     7
370
    15
100
AcDbLine
 10
192.0512174055
 20
181.7621678167
 30
0.0
 11
192.0512174055
 21
178.7621678167
 31
0.0
  0
LINE
  5
7B
330
1F
100
AcDbEntity
  8
0
  6
Continuous
 62
     7
370
    15
100
AcDbLine
 10
191.0512174055
 20
178.3479542543
 30
0.0
 11
191.0512174055
 21
180.7621678167
 31
0.0
  0
LINE
  5
7C
330
1F
100
AcDbEntity
  8
0
  6
Continuous
 62
     7
370
    15
100
AcDbLine
 10
192.0512174055
 20
181.7621678167
 30
0.0
 11
191.0512174055
 21
180.7621678167
 31
0.0
  0
LINE
  5
7D
330
1F
100
AcDbEntity
  8
0
  6
Continuous
 62
     7
370
    15
100
AcDbLine
 10
196.0512174055
 20
180.7621678167
 30
0.0
 11
196.0512174055
 21
178.3479542543
 31
0.0
  0
LINE
  5
7E
330
1F
100
AcDbEntity
  8
0
  6
Continuous
 62
     7
370
    15
100
AcDbLine
 10
196.0512174055
 20
178.3479542543
 30
0.0
 11
195.0512174055
 21
178.7621678167
 31
0.0
  0
LINE
  5
7F
330
1F
100
AcDbEntity
  8
0
  6
Continuous
 62
     7
370
    15
100
AcDbLine
 10
195.0512174055
 20
178.7621678167
 30
0.0
 11
195.0512174055
 21
181.7621678167
 31
0.0
  0
LINE
  5
80
330
1F
100
AcDbEntity
  8
0
  6
Continuous
 62
     7
370
    15
100
AcDbLine
 10
196.0512174055
 20
180.7621678167
 30
0.0
 11
195.0512174055
 21
181.7621678167
 31
0.0
  0
LINE
  5
81
330
1F
100
AcDbEntity
  8
0
  6
Continuous
 62
     7
370
    15
100
AcDbLine
 10
258.0512174055
 20
155.7621678167
 30
0.0
 11
258.0512174055
 21
140.9886651248
 31
0.0
  0
LINE
  5
82
330
1F
100
AcDbEntity
  8
0
  6
Continuous
 62
     7
370
    15
100
AcDbLine
 10
196.0512174055
 20
178.3479542543
 30
0.0
 11
196.0512174055
 21
174.7621678167
 31
0.0
  0
LINE
  5
83
330
1F
100
AcDbEntity
  8
0
  6
Continuous
 62
     7
370
    15
100
AcDbLine
 10
214.0512174055
 20
156.7621678167
 30
0.0
 11
257.0512174055
 21
156.7621678167
 31
0.0
  0
LINE
  5
84
330
1F
100
AcDbEntity
  8
0
  6
Continuous
 62
     7
370
    15
100
AcDbLine
 10
192.0512174055
 20
181.7621678167
 30
0.0
 11
195.0512174055
 21
181.7621678167
 31
0.0
  0
LINE
  5
85
330
1F
100
AcDbEntity
  8
0
  6
Continuous
 62
     7
370
    15
100
AcDbLine
 10
170.0512174055
 20
122.0621678167
 30
0.0
 11
170.0512174055
 21
171.4621678167
 31
0.0
  0
SPLINE
  5
86
330
1F
100
AcDbEntity
  8
0
  6
Continuous
 62
     7
370
    15
100
AcDbSpline
210
0.0
220
0.0
230
1.0
 70
     8
 71
     3
 72
    12
 73
     8
 74
     0
 42
0.00000001
 43
0.00000001
 12
1.0
 22
0.0
 32
0.0
 13
1.0
 23
0.0
 33
0.0
 40
0.0
 40
0.0
 40
0.0
 40
0.0
 40
0.2499999999999993
 40
0.2499999999999993
 40
0.4999999999999987
 40
0.4999999999999987
 40
1.0
 40
1.0
 40
1.0
 40
1.0
 10
178.5789742190688
 20
154.3309777858363
 30
0.0
 10
178.5153089825382
 20
154.3309777858363
 30
0.0
 10
178.4557027503149
 20
154.357049934316
 30
0.0
 10
178.3570422253841
 20
154.4325886851371
 30
0.0
 10
178.3180752353688
 20
154.4798396222333
 30
0.0
 10
178.2186884034444
 20
154.6316634401997
 30
0.0
 10
178.1766121560209
 20
154.7444666899648
 30
0.0
 10
178.1459615171765
 20
154.8586208146999
 30
0.0
  0
LINE
  5
87
330
1F
100
AcDbEntity
  8
0
  6
Continuous
 62
     7
370
    15
100
AcDbLine
 10
181.5234605919
 20
154.3309777858
 30
0.0
 11
178.5789742191
 21
154.3309777858
 31
0.0
  0
SPLINE
  5
88
330
1F
100
AcDbEntity
  8
0
  6
Continuous
 62
     7
370
    15
100
AcDbSpline
210
0.0
220
0.0
230
1.0
 70
     8
 71
     3
 72
    12
 73
     8
 74
     0
 42
0.00000001
 43
0.00000001
 12
1.0
 22
0.0
 32
0.0
 13
1.0
 23
0.0
 33
0.0
 40
0.0
 40
0.0
 40
0.0
 40
0.0
 40
0.5000000000000037
 40
0.5000000000000037
 40
0.7500000000000018
 40
0.7500000000000018
 40
1.0
 40
1.0
 40
1.0
 40
1.0
 10
181.9564732938281
 20
154.8586208146999
 30
0.0
 10
181.9257739104608
 20
154.744285147636
 30
0.0
 10
181.8844238423543
 20
154.6329317947947
 30
0.0
 10
181.7846679141349
 20
154.480195022546
 30
0.0
 10
181.7449709964021
 20
154.4323351366938
 30
0.0
 10
181.6477128447545
 20
154.3577320233444
 30
0.0
 10
181.5869366867638
 20
154.3309777858363
 30
0.0
 10
181.5234605919359
 20
154.3309777858363
 30
0.0
  0
ELLIPSE
  5
89
330
1F
100
AcDbEntity
  8
0
  6
Continuous
 62
     7
370
    15
100
AcDbEllipse
 10
168.9949597505
 20
146.7621678167
 30
0.0
 11
11.70927234972708
 21
24.67718644093742
 31
0.0
210
0.0
220
0.0
230
1.0
 40
0.3419987131
 41
5.203068809370451
 42
6.114256032590495
  0
SPLINE
  5
8A
330
1F
100
AcDbEntity
  8
0
  6
Continuous
 62
     7
370
    15
100
AcDbSpline
210
0.0
220
0.0
230
1.0
 70
     8
 71
     3
 72
    12
 73
     8
 74
     0
 42
0.00000001
 43
0.00000001
 12
1.0
 22
0.0
 32
0.0
 13
1.0
 23
0.0
 33
0.0
 40
0.0
 40
0.0
 40
0.0
 40
0.0
 40
0.2499999999999998
 40
0.2499999999999998
 40
0.4999999999999996
 40
0.4999999999999996
 40
1.0
 40
1.0
 40
1.0
 40
1.0
 10
181.5234605919359
 20
170.5888989321578
 30
0.0
 10
181.5871258284664
 20
170.5888989321578
 30
0.0
 10
181.6467320606898
 20
170.5806341564919
 30
0.0
 10
181.7453925856206
 20
170.5564153749088
 30
0.0
 10
181.7843595756358
 20
170.5411580555996
 30
0.0
 10
181.8837464075603
 20
170.4915247013377
 30
0.0
 10
181.9258226549838
 20
170.4538849931635
 30
0.0
 10
181.9564732938281
 20
170.4148092938874
 30
0.0
  0
LINE
  5
8B
330
1F
100
AcDbEntity
  8
0
  6
Continuous
 62
     7
370
    15
100
AcDbLine
 10
178.5789742191
 20
170.5888989322
 30
0.0
 11
181.5234605919
 21
170.5888989322
 31
0.0
  0
SPLINE
  5
8C
330
1F
100
AcDbEntity
  8
0
  6
Continuous
 62
     7
370
    15
100
AcDbSpline
210
0.0
220
0.0
230
1.0
 70
     8
 71
     3
 72
    12
 73
     8
 74
     0
 42
0.00000001
 43
0.00000001
 12
1.0
 22
0.0
 32
0.0
 13
1.0
 23
0.0
 33
0.0
 40
0.0
 40
0.0
 40
0.0
 40
0.0
 40
0.5000000000000004
 40
0.5000000000000004
 40
0.7500000000000002
 40
0.7500000000000002
 40
1.0
 40
1.0
 40
1.0
 40
1.0
 10
178.1459615171765
 20
170.4148092938874
 30
0.0
 10
178.1766609005439
 20
170.4539471362833
 30
0.0
 10
178.2180109686504
 20
170.4911069190088
 30
0.0
 10
178.3177668968698
 20
170.5410434246366
 30
0.0
 10
178.3574638146025
 20
170.5564962947803
 30
0.0
 10
178.4547219662501
 20
170.5804158383794
 30
0.0
 10
178.5154981242408
 20
170.5888989321578
 30
0.0
 10
178.5789742190688
 20
170.5888989321578
 30
0.0
  0
ELLIPSE
  5
8D
330
1F
100
AcDbEntity
  8
0
  6
Continuous
 62
     7
370
    15
100
AcDbEllipse
 10
191.1074750605
 20
146.7621678167
 30
0.0
 11
-11.70927234972694
 21
24.67718644093745
 31
0.0
210
0.0
220
0.0
230
1.0
 40
0.3419987131
 41
0.1689292745891353
 42
1.080116497809151
  0
SPLINE
  5
8E
330
1F
100
AcDbEntity
  8
0
  6
Continuous
 62
     7
370
    15
100
AcDbSpline
210
0.0
220
0.0
230
1.0
 70
     8
 71
     3
 72
    12
 73
     8
 74
     0
 42
0.00000001
 43
0.00000001
 12
1.0
 22
0.0
 32
0.0
 13
1.0
 23
0.0
 33
0.0
 40
0.0
 40
0.0
 40
0.0
 40
0.0
 40
0.2499999999999991
 40
0.2499999999999991
 40
0.4999999999999982
 40
0.4999999999999982
 40
1.0
 40
1.0
 40
1.0
 40
1.0
 10
178.5789742190688
 20
122.9354367011539
 30
0.0
 10
178.5153089825382
 20
122.9354367011539
 30
0.0
 10
178.4557027503149
 20
122.9437014768197
 30
0.0
 10
178.3570422253841
 20
122.9679202584029
 30
0.0
 10
178.3180752353688
 20
122.983177577712
 30
0.0
 10
178.2186884034444
 20
123.032810931974
 30
0.0
 10
178.1766121560209
 20
123.0704506401481
 30
0.0
 10
178.1459615171765
 20
123.1095263394242
 30
0.0
  0
LINE
  5
8F
330
1F
100
AcDbEntity
  8
0
  6
Continuous
 62
     7
370
    15
100
AcDbLine
 10
181.5234605919
 20
122.9354367012
 30
0.0
 11
178.5789742191
 21
122.9354367012
 31
0.0
  0
SPLINE
  5
90
330
1F
100
AcDbEntity
  8
0
  6
Continuous
 62
     7
370
    15
100
AcDbSpline
210
0.0
220
0.0
230
1.0
 70
     8
 71
     3
 72
    12
 73
     8
 74
     0
 42
0.00000001
 43
0.00000001
 12
1.0
 22
0.0
 32
0.0
 13
1.0
 23
0.0
 33
0.0
 40
0.0
 40
0.0
 40
0.0
 40
0.0
 40
0.5000000000000013
 40
0.5000000000000013
 40
0.7500000000000007
 40
0.7500000000000007
 40
1.0
 40
1.0
 40
1.0
 40
1.0
 10
181.9564732938281
 20
123.1095263394242
 30
0.0
 10
181.9257739104608
 20
123.0703884970283
 30
0.0
 10
181.8844238423543
 20
123.0332287143028
 30
0.0
 10
181.7846679141349
 20
122.9832922086751
 30
0.0
 10
181.7449709964022
 20
122.9678393385313
 30
0.0
 10
181.6477128447545
 20
122.9439197949323
 30
0.0
 10
181.5869366867638
 20
122.9354367011539
 30
0.0
 10
181.5234605919359
 20
122.9354367011539
 30
0.0
  0
ELLIPSE
  5
91
330
1F
100
AcDbEntity
  8
0
  6
Continuous
 62
     7
370
    15
100
AcDbEllipse
 10
168.9949597505
 20
146.7621678167
 30
0.0
 11
-11.7092723497272
 21
24.67718644093742
 31
0.0
210
0.0
220
0.0
230
1.0
 40
0.3419987131
 41
3.31052192817895
 42
4.221709151398942
  0
SPLINE
  5
92
330
1F
100
AcDbEntity
  8
0
  6
Continuous
 62
     7
370
    15
100
AcDbSpline
210
0.0
220
0.0
230
1.0
 70
     8
 71
     3
 72
    12
 73
     8
 74
     0
 42
0.00000001
 43
0.00000001
 12
1.0
 22
0.0
 32
0.0
 13
1.0
 23
0.0
 33
0.0
 40
0.0
 40
0.0
 40
0.0
 40
0.0
 40
0.25
 40
0.25
 40
0.5
 40
0.5
 40
1.0
 40
1.0
 40
1.0
 40
1.0
 10
181.5234605919359
 20
139.1933578474751
 30
0.0
 10
181.5871258284664
 20
139.1933578474751
 30
0.0
 10
181.6467320606898
 20
139.1672856989954
 30
0.0
 10
181.7453925856206
 20
139.0917469481743
 30
0.0
 10
181.7843595756358
 20
139.0444960110781
 30
0.0
 10
181.8837464075603
 20
138.8926721931117
 30
0.0
 10
181.9258226549838
 20
138.7798689433466
 30
0.0
 10
181.9564732938281
 20
138.6657148186115
 30
0.0
  0
LINE
  5
93
330
1F
100
AcDbEntity
  8
0
  6
Continuous
 62
     7
370
    15
100
AcDbLine
 10
178.5789742191
 20
139.1933578475
 30
0.0
 11
181.5234605919
 21
139.1933578475
 31
0.0
  0
SPLINE
  5
94
330
1F
100
AcDbEntity
  8
0
  6
Continuous
 62
     7
370
    15
100
AcDbSpline
210
0.0
220
0.0
230
1.0
 70
     8
 71
     3
 72
    12
 73
     8
 74
     0
 42
0.00000001
 43
0.00000001
 12
1.0
 22
0.0
 32
0.0
 13
1.0
 23
0.0
 33
0.0
 40
0.0
 40
0.0
 40
0.0
 40
0.0
 40
0.4999999999999987
 40
0.4999999999999987
 40
0.7499999999999993
 40
0.7499999999999993
 40
1.0
 40
1.0
 40
1.0
 40
1.0
 10
178.1459615171765
 20
138.6657148186115
 30
0.0
 10
178.1766609005439
 20
138.7800504856754
 30
0.0
 10
178.2180109686504
 20
138.8914038385167
 30
0.0
 10
178.3177668968698
 20
139.0441406107655
 30
0.0
 10
178.3574638146025
 20
139.0920004966176
 30
0.0
 10
178.4547219662501
 20
139.166603609967
 30
0.0
 10
178.5154981242408
 20
139.1933578474751
 30
0.0
 10
178.5789742190688
 20
139.1933578474751
 30
0.0
  0
ELLIPSE
  5
95
330
1F
100
AcDbEntity
  8
0
  6
Continuous
 62
     7
370
    15
100
AcDbEllipse
 10
191.1074750605
 20
146.7621678167
 30
0.0
 11
11.70927234972709
 21
24.67718644093745
 31
0.0
210
0.0
220
0.0
230
1.0
 40
0.3419987131
 41
2.061476155780654
 42
2.972663379000674
  0
LINE
  5
96
330
1F
100
AcDbEntity
  8
0
  6
Continuous
 62
     7
370
    15
100
AcDbLine
 10
192.0512174055
 20
123.6347548349
 30
0.0
 11
191.0512174055
 21
124.3418616161
 31
0.0
  0
LINE
  5
97
330
1F
100
AcDbEntity
  8
0
  6
Continuous
 62
     7
370
    15
100
AcDbLine
 10
196.8512174055
 20
180.7621678167
 30
0.0
 11
196.0512174055
 21
180.7621678167
 31
0.0
  0
LINE
  5
98
330
1F
100
AcDbEntity
  8
0
  6
Continuous
 62
     7
370
    15
100
AcDbLine
 10
195.0512174055
 20
181.7621678167
 30
0.0
 11
196.8512174055
 21
181.7621678167
 31
0.0
  0
LINE
  5
99
330
1F
100
AcDbEntity
  8
0
  6
Continuous
 62
     7
370
    15
100
AcDbLine
 10
257.0512174055
 20
156.7621678167
 30
0.0
 11
257.0512174055
 21
157.5621678167
 31
0.0
  0
LINE
  5
9A
330
1F
100
AcDbEntity
  8
0
  6
Continuous
 62
     7
370
    15
100
AcDbLine
 10
258.0512174055
 20
157.5621678167
 30
0.0
 11
258.0512174055
 21
155.7621678167
 31
0.0
  0
CIRCLE
  5
9B
330
1F
100
AcDbEntity
  8
0
  6
Continuous
 62
     7
370
    15
100
AcDbCircle
 10
250.0512174055
 20
169.2621678167
 30
0.0
 40
5.5
  0
CIRCLE
  5
9C
330
1F
100
AcDbEntity
  8
0
  6
Continuous
 62
     7
370
    15
100
AcDbCircle
 10
210.0512174055
 20
169.2621678167
 30
0.0
 40
5.5
  0
LINE
  5
9D
330
1F
100
AcDbEntity
  8
0
  6
Continuous
 62
     7
370
    15
100
AcDbLine
 10
257.0512174055
 20
180.7621678167
 30
0.0
 11
196.8512174055
 21
180.7621678167
 31
0.0
  0
LINE
  5
9E
330
1F
100
AcDbEntity
  8
0
  6
Continuous
 62
     7
370
    15
100
AcDbLine
 10
257.0512174055
 20
157.5621678167
 30
0.0
 11
257.0512174055
 21
180.7621678167
 31
0.0
  0
CIRCLE
  5
9F
330
1F
100
AcDbEntity
  8
0
  6
Continuous
 62
     7
370
    15
100
AcDbCircle
 10
230.0512174055
 20
169.2621678167
 30
0.0
 40
5.5
  0
LINE
  5
A0
330
1F
100
AcDbEntity
  8
0
  6
Continuous
 62
     7
370
    15
100
AcDbLine
 10
257.0512174055
 20
180.7621678167
 30
0.0
 11
258.0512174055
 21
180.7621678167
 31
0.0
  0
LINE
  5
A1
330
1F
100
AcDbEntity
  8
0
  6
Continuous
 62
     7
370
    15
100
AcDbLine
 10
258.0512174055
 20
180.7621678167
 30
0.0
 11
258.0512174055
 21
157.5621678167
 31
0.0
  0
LINE
  5
A2
330
1F
100
AcDbEntity
  8
0
  6
Continuous
 62
     7
370
    15
100
AcDbLine
 10
257.0512174055
 20
180.7621678167
 30
0.0
 11
257.0512174055
 21
181.7621678167
 31
0.0
  0
LINE
  5
A3
330
1F
100
AcDbEntity
  8
0
  6
Continuous
 62
     7
370
    15
100
AcDbLine
 10
258.0512174055
 20
180.7621678167
 30
0.0
 11
257.0512174055
 21
181.7621678167
 31
0.0
  0
LINE
  5
A4
330
1F
100
AcDbEntity
  8
0
  6
Continuous
 62
     7
370
    15
100
AcDbLine
 10
196.8512174055
 20
181.7621678167
 30
0.0
 11
257.0512174055
 21
181.7621678167
 31
0.0
  0
SPLINE
  5
A5
330
1F
100
AcDbEntity
  8
0
  6
Continuous
 62
     7
370
    15
100
AcDbSpline
210
0.0
220
0.0
230
1.0
 70
     8
 71
     3
 72
    16
 73
    12
 74
     0
 42
0.00000001
 43
0.00000001
 12
1.0
 22
0.0
 32
0.0
 13
1.0
 23
0.0
 33
0.0
 40
0.0
 40
0.0
 40
0.0
 40
0.0
 40
0.2499999999999995
 40
0.2499999999999995
 40
0.499999999999999
 40
0.499999999999999
 40
0.6249999999999994
 40
0.6249999999999994
 40
0.7499999999999998
 40
0.7499999999999998
 40
1.0
 40
1.0
 40
1.0
 40
1.0
 10
169.0103563773733
 20
129.4130105354633
 30
0.0
 10
169.042084338566
 20
129.4122134186424
 30
0.0
 10
169.0767119289165
 20
129.4116223437871
 30
0.0
 10
169.1564056909802
 20
129.4106108183526
 30
0.0
 10
169.2014471509839
 20
129.4102107101778
 30
0.0
 10
169.2842998778343
 20
129.4092528382739
 30
0.0
 10
169.3142143390341
 20
129.4088711570135
 30
0.0
 10
169.3802006695921
 20
129.407794942955
 30
0.0
 10
169.4169342950539
 20
129.4070773770608
 30
0.0
 10
169.5294310146236
 20
129.4043164993792
 30
0.0
 10
169.599772362722
 20
129.4018294075076
 30
0.0
 10
169.6562405166271
 20
129.3996561291005
 30
0.0
  0
SPLINE
  5
A6
330
1F
100
AcDbEntity
  8
0
  6
Continuous
 62
     7
370
    15
100
AcDbSpline
210
0.0
220
0.0
230
1.0
 70
     8
 71
     3
 72
    14
 73
    10
 74
     0
 42
0.00000001
 43
0.00000001
 12
1.0
 22
0.0
 32
0.0
 13
1.0
 23
0.0
 33
0.0
 40
0.0
 40
0.0
 40
0.0
 40
0.0
 40
0.1250000000000039
 40
0.1250000000000039
 40
0.2500000000000077
 40
0.2500000000000077
 40
0.5000000000000061
 40
0.5000000000000061
 40
1.0
 40
1.0
 40
1.0
 40
1.0
 10
169.6562405165955
 20
129.3996561291232
 30
0.0
 10
169.6688323105402
 20
129.3991715113008
 30
0.0
 10
169.6837034188343
 20
129.3974613333685
 30
0.0
 10
169.7158875102675
 20
129.3893457846176
 30
0.0
 10
169.7314916417433
 20
129.3831299963563
 30
0.0
 10
169.7673787814554
 20
129.3649108846547
 30
0.0
 10
169.7812308227241
 20
129.3531458563211
 30
0.0
 10
169.8147205646567
 20
129.3213507199038
 30
0.0
 10
169.8253828252324
 20
129.3035572880606
 30
0.0
 10
169.8335207821274
 20
129.2871261572163
 30
0.0
  0
LINE
  5
A7
330
1F
100
AcDbEntity
  8
0
  6
Continuous
 62
     7
370
    15
100
AcDbLine
 10
169.8512174055
 20
140.7776875841
 30
0.0
 11
169.8512174055
 21
128.9223475378
 31
0.0
  0
SPLINE
  5
A8
330
1F
100
AcDbEntity
  8
0
  6
Continuous
 62
     7
370
    15
100
AcDbSpline
210
0.0
220
0.0
230
1.0
 70
     8
 71
     3
 72
    16
 73
    12
 74
     0
 42
0.00000001
 43
0.00000001
 12
1.0
 22
0.0
 32
0.0
 13
1.0
 23
0.0
 33
0.0
 40
0.0
 40
0.0
 40
0.0
 40
0.0
 40
0.5000000000000044
 40
0.5000000000000044
 40
0.7500000000000049
 40
0.7500000000000049
 40
0.8750000000000024
 40
0.8750000000000024
 40
0.9375000000000012
 40
0.9375000000000012
 40
1.0
 40
1.0
 40
1.0
 40
1.0
 10
169.8512174055023
 20
140.7776875840812
 30
0.0
 10
169.8512174055023
 20
140.8922173147802
 30
0.0
 10
169.8471601033873
 20
141.0075333899697
 30
0.0
 10
169.8215028605925
 20
141.1824564797973
 30
0.0
 10
169.8101874148504
 20
141.2422857827922
 30
0.0
 10
169.7761560475417
 20
141.3268769690404
 30
0.0
 10
169.7622770663379
 20
141.3555465551844
 30
0.0
 10
169.7263413845706
 20
141.3853543421307
 30
0.0
 10
169.7113910653078
 20
141.3916894954903
 30
0.0
 10
169.6814925525659
 20
141.3904640326201
 30
0.0
 10
169.6679596922007
 20
141.3838654465853
 30
0.0
 10
169.6562405166267
 20
141.3752177585289
 30
0.0
  0
SPLINE
  5
A9
330
1F
100
AcDbEntity
  8
0
  6
Continuous
 62
     7
370
    15
100
AcDbSpline
210
0.0
220
0.0
230
1.0
 70
     8
 71
     3
 72
    14
 73
    10
 74
     0
 42
0.00000001
 43
0.00000001
 12
1.0
 22
0.0
 32
0.0
 13
1.0
 23
0.0
 33
0.0
 40
0.0
 40
0.0
 40
0.0
 40
0.0
 40
0.25
 40
0.25
 40
0.5
 40
0.5
 40
0.75
 40
0.75
 40
1.0
 40
1.0
 40
1.0
 40
1.0
 10
169.6562405166335
 20
141.3752177585202
 30
0.0
 10
169.5997808507498
 20
141.3335556488214
 30
0.0
 10
169.5289083758876
 20
141.3027221682332
 30
0.0
 10
169.3804420180056
 20
141.3084366768464
 30
0.0
 10
169.3112468147978
 20
141.3440076042793
 30
0.0
 10
169.2015296287283
 20
141.4309515167532
 30
0.0
 10
169.1562837397963
 20
141.4833838301183
 30
0.0
 10
169.0766666088294
 20
141.5919369116368
 30
0.0
 10
169.0420639893725
 20
141.6489199978793
 30
0.0
 10
169.0103563773738
 20
141.7074860805372
 30
0.0
  0
SPLINE
  5
AA
330
1F
100
AcDbEntity
  8
0
  6
Continuous
 62
     7
370
    15
100
AcDbSpline
210
0.0
220
0.0
230
1.0
 70
     8
 71
     3
 72
    10
 73
     6
 74
     0
 42
0.00000001
 43
0.00000001
 12
1.0
 22
0.0
 32
0.0
 13
1.0
 23
0.0
 33
0.0
 40
0.0
 40
0.0
 40
0.0
 40
0.0
 40
0.5
 40
0.5
 40
1.0
 40
1.0
 40
1.0
 40
1.0
 10
168.7298970619428
 20
142.5603046721835
 30
0.0
 10
168.7607756455547
 20
142.4106761203238
 30
0.0
 10
168.7967683532781
 20
142.2641807028002
 30
0.0
 10
168.8861086047752
 20
141.9789890642594
 30
0.0
 10
168.9385669076208
 20
141.8400860385435
 30
0.0
 10
169.0103563773739
 20
141.707486080537
 30
0.0
  0
SPLINE
  5
AB
330
1F
100
AcDbEntity
  8
0
  6
Continuous
 62
     7
370
    15
100
AcDbSpline
210
0.0
220
0.0
230
1.0
 70
     8
 71
     3
 72
    10
 73
     6
 74
     0
 42
0.00000001
 43
0.00000001
 12
1.0
 22
0.0
 32
0.0
 13
1.0
 23
0.0
 33
0.0
 40
0.0
 40
0.0
 40
0.0
 40
0.0
 40
0.5
 40
0.5
 40
1.0
 40
1.0
 40
1.0
 40
1.0
 10
169.0103563773732
 20
151.8168495527735
 30
0.0
 10
168.9385669076203
 20
151.6842495947671
 30
0.0
 10
168.8861086047748
 20
151.5453465690514
 30
0.0
 10
168.7967683532779
 20
151.2601549305111
 30
0.0
 10
168.7607756455546
 20
151.1136595129877
 30
0.0
 10
168.7298970619428
 20
150.9640309611283
 30
0.0
  0
SPLINE
  5
AC
330
1F
100
AcDbEntity
  8
0
  6
Continuous
 62
     7
370
    15
100
AcDbSpline
210
0.0
220
0.0
230
1.0
 70
     8
 71
     3
 72
    14
 73
    10
 74
     0
 42
0.00000001
 43
0.00000001
 12
1.0
 22
0.0
 32
0.0
 13
1.0
 23
0.0
 33
0.0
 40
0.0
 40
0.0
 40
0.0
 40
0.0
 40
0.25
 40
0.25
 40
0.5
 40
0.5
 40
0.75
 40
0.75
 40
1.0
 40
1.0
 40
1.0
 40
1.0
 10
169.0103563773725
 20
151.8168495527723
 30
0.0
 10
169.0420650768579
 20
151.8754176440908
 30
0.0
 10
169.0766728954985
 20
151.9324119060309
 30
0.0
 10
169.1563313059878
 20
152.0410120407948
 30
0.0
 10
169.2013935758827
 20
152.0933401761734
 30
0.0
 10
169.3119754214611
 20
152.1808411875357
 30
0.0
 10
169.3796195422763
 20
152.2158866437899
 30
0.0
 10
169.5298678326734
 20
152.2216310325459
 30
0.0
 10
169.5998202309038
 20
152.1907509254959
 30
0.0
 10
169.6562405166273
 20
152.1491178747829
 30
0.0
  0
SPLINE
  5
AD
330
1F
100
AcDbEntity
  8
0
  6
Continuous
 62
     7
370
    15
100
AcDbSpline
210
0.0
220
0.0
230
1.0
 70
     8
 71
     3
 72
    16
 73
    12
 74
     0
 42
0.00000001
 43
0.00000001
 12
1.0
 22
0.0
 32
0.0
 13
1.0
 23
0.0
 33
0.0
 40
0.0
 40
0.0
 40
0.0
 40
0.0
 40
0.0625000000000001
 40
0.0625000000000001
 40
0.1250000000000001
 40
0.1250000000000001
 40
0.2500000000000001
 40
0.2500000000000001
 40
0.5
 40
0.5
 40
1.0
 40
1.0
 40
1.0
 40
1.0
 10
169.6562405165955
 20
152.1491178747295
 30
0.0
 10
169.6679747510424
 20
152.1404590745852
 30
0.0
 10
169.6815065065213
 20
152.1338549893499
 30
0.0
 10
169.7114939669511
 20
152.1326580221758
 30
0.0
 10
169.7264886733594
 20
152.1390797692417
 30
0.0
 10
169.7622290957542
 20
152.168796922651
 30
0.0
 10
169.7762424327554
 20
152.1976043200343
 30
0.0
 10
169.8103865215368
 20
152.2826840416602
 30
0.0
 10
169.8213584256551
 20
152.34105899093
 30
0.0
 10
169.8472039659214
 20
152.5167745157186
 30
0.0
 10
169.8512174055024
 20
152.6325695235831
 30
0.0
 10
169.8512174055024
 20
152.7466480492305
 30
0.0
  0
LINE
  5
AE
330
1F
100
AcDbEntity
  8
0
  6
Continuous
 62
     7
370
    15
100
AcDbLine
 10
169.8512174055
 20
164.6019880955
 30
0.0
 11
169.8512174055
 21
152.7466480492
 31
0.0
  0
SPLINE
  5
AF
330
1F
100
AcDbEntity
  8
0
  6
Continuous
 62
     7
370
    15
100
AcDbSpline
210
0.0
220
0.0
230
1.0
 70
     8
 71
     3
 72
    16
 73
    12
 74
     0
 42
0.00000001
 43
0.00000001
 12
1.0
 22
0.0
 32
0.0
 13
1.0
 23
0.0
 33
0.0
 40
0.0
 40
0.0
 40
0.0
 40
0.0
 40
0.4999999999999973
 40
0.4999999999999973
 40
0.7499999999999978
 40
0.7499999999999978
 40
0.8749999999999989
 40
0.8749999999999989
 40
0.9374999999999994
 40
0.9374999999999994
 40
1.0
 40
1.0
 40
1.0
 40
1.0
 10
169.8512174055025
 20
164.3089222823235
 30
0.0
 10
169.8512174055022
 20
164.2869072677441
 30
0.0
 10
169.8470928626482
 20
164.2615536330404
 30
0.0
 10
169.8211764170151
 20
164.2143931308518
 30
0.0
 10
169.8098988359953
 20
164.1971941426231
 30
0.0
 10
169.7761634574539
 20
164.1672161770538
 30
0.0
 10
169.7617746422096
 20
164.1558647685119
 30
0.0
 10
169.7265279527705
 20
164.1391769090345
 30
0.0
 10
169.7113225283136
 20
164.1336138821493
 30
0.0
 10
169.6816759491442
 20
164.1266442991141
 30
0.0
 10
169.6679706131468
 20
164.1251309580587
 30
0.0
 10
169.656240516623
 20
164.1246795042089
 30
0.0
  0
SPLINE
  5
B0
330
1F
100
AcDbEntity
  8
0
  6
Continuous
 62
     7
370
    15
100
AcDbSpline
210
0.0
220
0.0
230
1.0
 70
     8
 71
     3
 72
    14
 73
    10
 74
     0
 42
0.00000001
 43
0.00000001
 12
1.0
 22
0.0
 32
0.0
 13
1.0
 23
0.0
 33
0.0
 40
0.0
 40
0.0
 40
0.0
 40
0.0
 40
0.25
 40
0.25
 40
0.5
 40
0.5
 40
0.75
 40
0.75
 40
1.0
 40
1.0
 40
1.0
 40
1.0
 10
169.6562405166335
 20
164.1246795042114
 30
0.0
 10
169.5997934345753
 20
164.1225070367921
 30
0.0
 10
169.5289430505324
 20
164.1200089388747
 30
0.0
 10
169.380506615716
 20
164.1163624800865
 30
0.0
 10
169.3113173640291
 20
164.1153947332352
 30
0.0
 10
169.2016058157882
 20
164.1141271738725
 30
0.0
 10
169.1563641664459
 20
164.1137243329442
 30
0.0
 10
169.076716148262
 20
164.1127132980166
 30
0.0
 10
169.042089232496
 20
164.112122337622
 30
0.0
 10
169.0103563773746
 20
164.1113250978485
 30
0.0
  0
SPLINE
  5
B1
330
1F
100
AcDbEntity
  8
0
  6
Continuous
 62
     7
370
    15
100
AcDbSpline
210
0.0
220
0.0
230
1.0
 70
     8
 71
     3
 72
    18
 73
    14
 74
     0
 42
0.00000001
 43
0.00000001
 12
1.0
 22
0.0
 32
0.0
 13
1.0
 23
0.0
 33
0.0
 40
0.0
 40
0.0
 40
0.0
 40
0.0
 40
0.2499999999999998
 40
0.2499999999999998
 40
0.3749999999999998
 40
0.3749999999999998
 40
0.4999999999999998
 40
0.4999999999999998
 40
0.6249999999999998
 40
0.6249999999999998
 40
0.7499999999999998
 40
0.7499999999999998
 40
1.0
 40
1.0
 40
1.0
 40
1.0
 10
168.7298970619427
 20
150.9640309611283
 30
0.0
 10
168.5946114556404
 20
150.308476625707
 30
0.0
 10
168.4934437093974
 20
149.6288555319094
 30
0.0
 10
168.3905823665285
 20
148.5734915254154
 30
0.0
 10
168.3644795210052
 20
148.2146774608308
 30
0.0
 10
168.3295895374604
 20
147.4885645167079
 30
0.0
 10
168.3210032791704
 20
147.1264748376917
 30
0.0
 10
168.3209035696047
 20
146.4041651802734
 30
0.0
 10
168.3293919407533
 20
146.043945378165
 30
0.0
 10
168.3635353202739
 20
145.3253793090711
 30
0.0
 10
168.3893323021277
 20
144.9656135931557
 30
0.0
 10
168.4927334335156
 20
143.8989690061613
 30
0.0
 10
168.594591425687
 20
143.215956066879
 30
0.0
 10
168.7298970619427
 20
142.5603046721835
 30
0.0
  0
LINE
  5
B2
330
1F
100
AcDbEntity
  8
0
  6
Continuous
 62
     7
370
    15
100
AcDbLine
 10
167.8512174055
 20
151.9023203045
 30
0.0
 11
167.8512174055
 21
141.6220153288
 31
0.0
  0
LINE
  5
B3
330
1F
100
AcDbEntity
  8
0
  6
Continuous
 62
     7
370
    15
100
AcDbLine
 10
141.5512174055
 20
151.5719465332
 30
0.0
 11
141.5512174055
 21
141.9523891002
 31
0.0
  0
LINE
  5
B4
330
1F
100
AcDbEntity
  8
0
  6
Continuous
 62
     7
370
    15
100
AcDbLine
 10
140.0512174055
 20
151.1389338313
 30
0.0
 11
140.0512174055
 21
142.3854018021
 31
0.0
  0
LINE
  5
B5
330
1F
100
AcDbEntity
  8
0
  6
Continuous
 62
     7
370
    15
100
AcDbLine
 10
167.8512174055
 20
129.2420690321
 30
0.0
 11
167.8512174055
 21
141.6220153288
 31
0.0
  0
ARC
  5
B6
330
1F
100
AcDbEntity
  8
0
  6
Continuous
 62
     7
370
    15
100
AcDbCircle
 10
168.0511543164
 20
129.237045921
 30
0.0
 40
0.2000000000000059
100
AcDbArc
 50
88.5608333333
 51
178.5608333333
  0
LINE
  5
B7
330
1F
100
AcDbEntity
  8
0
  6
Continuous
 62
     7
370
    15
100
AcDbLine
 10
167.8512174055
 20
151.9023203045
 30
0.0
 11
167.8512174055
 21
164.2822666012
 31
0.0
  0
ARC
  5
B8
330
1F
100
AcDbEntity
  8
0
  6
Continuous
 62
     7
370
    15
100
AcDbCircle
 10
168.0511543164
 20
164.2872897123
 30
0.0
 40
0.2000000000000052
100
AcDbArc
 50
181.4391666667
 51
271.4391666667
  0
LINE
  5
B9
330
1F
100
AcDbEntity
  8
0
  6
Continuous
 62
     7
370
    15
100
AcDbLine
 10
141.5512174055
 20
129.9028165747
 30
0.0
 11
141.5512174055
 21
141.9523891002
 31
0.0
  0
LINE
  5
BA
330
1F
100
AcDbEntity
  8
0
  6
Continuous
 62
     7
370
    15
100
AcDbLine
 10
141.5512174055
 20
129.9028165747
 30
0.0
 11
167.8512174055
 21
129.2420690321
 31
0.0
  0
LINE
  5
BB
330
1F
100
AcDbEntity
  8
0
  6
Continuous
 62
     7
370
    15
100
AcDbLine
 10
141.5512174055
 20
151.5719465332
 30
0.0
 11
141.5512174055
 21
163.6215190586
 31
0.0
  0
LINE
  5
BC
330
1F
100
AcDbEntity
  8
0
  6
Continuous
 62
     7
370
    15
100
AcDbLine
 10
141.5512174055
 20
163.6215190586
 30
0.0
 11
167.8512174055
 21
164.2822666012
 31
0.0
  0
LINE
  5
BD
330
1F
100
AcDbEntity
  8
0
  6
Continuous
 62
     7
370
    15
100
AcDbLine
 10
168.0561774276
 20
164.0873528014
 30
0.0
 11
169.0103563774
 21
164.1113250978
 31
0.0
  0
LINE
  5
BE
330
1F
100
AcDbEntity
  8
0
  6
Continuous
 62
     7
370
    15
100
AcDbLine
 10
168.0561774276
 20
129.4369828319
 30
0.0
 11
169.0103563774
 21
129.4130105355
 31
0.0
  0
LINE
  5
BF
330
1F
100
AcDbEntity
  8
0
  6
Continuous
 62
     7
370
    15
100
AcDbLine
 10
140.0512174055
 20
162.7554936548
 30
0.0
 11
141.5512174055
 21
163.6215190586
 31
0.0
  0
LINE
  5
C0
330
1F
100
AcDbEntity
  8
0
  6
Continuous
 62
     7
370
    15
100
AcDbLine
 10
140.0512174055
 20
151.1389338313
 30
0.0
 11
140.0512174055
 21
162.7554936548
 31
0.0
  0
LINE
  5
C1
330
1F
100
AcDbEntity
  8
0
  6
Continuous
 62
     7
370
    15
100
AcDbLine
 10
140.0512174055
 20
130.7688419785
 30
0.0
 11
141.5512174055
 21
129.9028165747
 31
0.0
  0
LINE
  5
C2
330
1F
100
AcDbEntity
  8
0
  6
Continuous
 62
     7
370
    15
100
AcDbLine
 10
140.0512174055
 20
130.7688419785
 30
0.0
 11
140.0512174055
 21
142.3854018021
 31
0.0
  0
LINE
  5
C3
330
1F
100
AcDbEntity
  8
0
  6
Continuous
 62
     7
370
    15
100
AcDbLine
 10
192.0512174055
 20
120.7621678167
 30
0.0
 11
191.0512174055
 21
121.7621678167
 31
0.0
  0
LINE
  5
C4
330
1F
100
AcDbEntity
  8
0
  6
Continuous
 62
     7
370
    15
100
AcDbLine
 10
191.0512174055
 20
121.7621678167
 30
0.0
 11
191.0512174055
 21
124.3418616161
 31
0.0
  0
SPLINE
  5
C5
330
1F
100
AcDbEntity
  8
0
  6
Continuous
 62
     7
370
    15
100
AcDbSpline
210
0.0
220
0.0
230
1.0
 70
    24
 71
     3
 72
    11
 73
     7
 74
     0
 42
0.00000001
 43
0.00000001
 12
1.0
 22
0.0
 32
0.0
 13
1.0
 23
0.0
 33
0.0
 40
0.0
 40
0.0
 40
0.0
 40
0.0
 40
0.329239301795221
 40
0.6687123222992656
 40
0.9997794287485502
 40
0.9999999999999999
 40
0.9999999999999999
 40
0.9999999999999999
 40
0.9999999999999999
 10
192.0512174055023
 20
120.7621678166559
 30
0.0
 10
192.0312967625725
 20
120.7621678166559
 30
0.0
 10
191.9908362849727
 20
120.7621678166558
 30
0.0
 10
191.8315913310792
 20
120.7621678166562
 30
0.0
 10
191.7752574275708
 20
120.7621678166552
 30
0.0
 10
191.7832789211193
 20
120.7621678166559
 30
0.0
 10
191.7832842618277
 20
120.7621678166559
 30
0.0
  0
LINE
  5
C6
330
1F
100
AcDbEntity
  8
0
  6
Continuous
 62
     7
370
    15
100
AcDbLine
 10
267.0512174055
 20
146.1848175475
 30
0.0
 11
267.0512174055
 21
181.7621678167
 31
0.0
  0
LINE
  5
C7
330
1F
100
AcDbEntity
  8
0
  6
Continuous
 62
     7
370
    15
100
AcDbLine
 10
257.0512174055
 20
181.7621678167
 30
0.0
 11
267.0512174055
 21
181.7621678167
 31
0.0
  0
LINE
  5
C8
330
1F
100
AcDbEntity
  8
0
  6
Continuous
 62
     7
370
    15
100
AcDbLine
 10
258.0512174055
 20
140.9886651248
 30
0.0
 11
267.0512174055
 21
146.1848175475
 31
0.0
  0
LINE
  5
C9
330
1F
100
AcDbEntity
  8
0
  6
Continuous
 62
     7
370
    15
100
AcDbLine
 10
268.0512174055
 20
180.7621678167
 30
0.0
 11
268.0512174055
 21
146.7621678167
 31
0.0
  0
LINE
  5
CA
330
1F
100
AcDbEntity
  8
0
  6
Continuous
 62
     7
370
    15
100
AcDbLine
 10
268.0512174055
 20
180.7621678167
 30
0.0
 11
267.0512174055
 21
181.7621678167
 31
0.0
  0
LINE
  5
CB
330
1F
100
AcDbEntity
  8
0
  6
Continuous
 62
     7
370
    15
100
AcDbLine
 10
268.0512174055
 20
146.7621678167
 30
0.0
 11
267.0512174055
 21
146.1848175475
 31
0.0
  0
LWPOLYLINE
  5
CC
330
1F
100
AcDbEntity
  8
0
  6
Continuous
 62
     7
370
    15
100
AcDbPolyline
 90
       29
 70
   128
 43
0.0
 10
259.7697973878
 20
149.7181180175
 10
259.6770567486
 20
150.2742875845
 10
259.5913965933
 20
150.9201691471
 10
259.5171122798
 20
151.6233755069
 10
259.4579287338
 20
152.3486449606
 10
259.4168136654
 20
153.0596094694
 10
259.3958287557
 20
153.7206183041
 10
259.3960262759
 20
154.2985257216
 10
259.4173963214
 20
154.7643530307
 10
259.4588673089
 20
155.0947417052
 10
259.5183597099
 20
155.2731246773
 10
259.592890327
 20
155.29055708
 10
259.6787218838
 20
155.1461647796
 10
259.7715504278
 20
154.8471882092
 10
259.8667211481
 20
154.4086193024
 10
259.9594617873
 20
153.8524497355
 10
260.0451219426
 20
153.2065681729
 10
260.1194062561
 20
152.5033618131
 10
260.1785898021
 20
151.7780923593
 10
260.2197048705
 20
151.0671278505
 10
260.2406897801
 20
150.4061190159
 10
260.24049226
 20
149.8282115984
 10
260.2191222145
 20
149.3623842892
 10
260.177651227
 20
149.0319956147
 10
260.118158826
 20
148.8536126426
 10
260.0436282089
 20
148.83618024
 10
259.957796652
 20
148.9805725403
 10
259.8649681081
 20
149.2795491107
 10
259.7697973878
 20
149.7181180175
  0
LWPOLYLINE
  5
CD
330
1F
100
AcDbEntity
  8
0
  6
Continuous
 62
     7
370
    15
100
AcDbPolyline
 90
       25
 70
   128
 43
0.0
 10
259.7809808986
 20
150.2593297043
 10
259.6981880976
 20
150.7658017767
 10
259.6235779485
 20
151.3607008878
 10
259.5622350095
 20
152.0034856464
 10
259.5183397006
 20
152.6503513335
 10
259.4948834147
 20
153.2572151214
 10
259.4934646587
 20
153.7827202458
 10
259.5141801186
 20
154.191054401
 10
259.55561807
 20
154.4543902892
 10
259.614954585
 20
154.5547820047
 10
259.6881459782
 20
154.485388018
 10
259.770204377
 20
154.2509374146
 10
259.8555376373
 20
153.8674076157
 10
259.9383304383
 20
153.3609355433
 10
260.0129405874
 20
152.7660364321
 10
260.0742835264
 20
152.1232516735
 10
260.1181788352
 20
151.4763859865
 10
260.1416351212
 20
150.8695221986
 10
260.1430538772
 20
150.3440170742
 10
260.1223384173
 20
149.9356829189
 10
260.0809004659
 20
149.6723470308
 10
260.0215639509
 20
149.5719553153
 10
259.9483725577
 20
149.641349302
 10
259.8663141589
 20
149.8757999054
 10
259.7809808986
 20
150.2593297043
  0
ARC
  5
CE
330
1F
100
AcDbEntity
  8
0
  6
Continuous
 62
     7
370
    15
100
AcDbCircle
 10
242.6085245358
 20
150.6873322887
 30
0.0
 40
17.08802983475401
100
AcDbArc
 50
0.3073422978
 51
8.8355882988
  0
CIRCLE
  5
CF
330
1F
100
AcDbEntity
  8
0
  6
Continuous
 62
     7
370
    15
100
AcDbCircle
 10
210.0512174055
 20
169.2621678167
 30
0.0
 40
4.171999999999993
  0
LINE
  5
D0
330
1F
100
AcDbEntity
  8
0
  6
Continuous
 62
     7
370
    15
100
AcDbLine
 10
208.1248157156
 20
171.4121235981
 30
0.0
 11
210.9499328843
 21
172.0054585088
 31
0.0
  0
LINE
  5
D1
330
1F
100
AcDbEntity
  8
0
  6
Continuous
 62
     7
370
    15
100
AcDbLine
 10
207.2261002368
 20
168.668832906
 30
0.0
 11
209.1525019267
 21
166.5188771245
 31
0.0
  0
LINE
  5
D2
330
1F
100
AcDbEntity
  8
0
  6
Continuous
 62
     7
370
    15
100
AcDbLine
 10
212.8763345742
 20
169.8555027273
 30
0.0
 11
210.9499328843
 21
172.0054585088
 31
0.0
  0
LINE
  5
D3
330
1F
100
AcDbEntity
  8
0
  6
Continuous
 62
     7
370
    15
100
AcDbLine
 10
211.9776190955
 20
167.1122120352
 30
0.0
 11
209.1525019267
 21
166.5188771245
 31
0.0
  0
LINE
  5
D4
330
1F
100
AcDbEntity
  8
0
  6
Continuous
 62
     7
370
    15
100
AcDbLine
 10
207.2261002368
 20
168.668832906
 30
0.0
 11
208.1248157156
 21
171.4121235981
 31
0.0
  0
LINE
  5
D5
330
1F
100
AcDbEntity
  8
0
  6
Continuous
 62
     7
370
    15
100
AcDbLine
 10
211.9776190955
 20
167.1122120352
 30
0.0
 11
212.8763345742
 21
169.8555027273
 31
0.0
  0
LINE
  5
D6
330
1F
100
AcDbEntity
  8
0
  6
Continuous
 62
     7
370
    15
100
AcDbLine
 10
231.9562552845
 20
171.4310763009
 30
0.0
 11
229.1254064992
 21
171.9964332572
 31
0.0
  0
LINE
  5
D7
330
1F
100
AcDbEntity
  8
0
  6
Continuous
 62
     7
370
    15
100
AcDbLine
 10
227.2203686202
 20
169.8275247729
 30
0.0
 11
229.1254064992
 21
171.9964332572
 31
0.0
  0
LINE
  5
D8
330
1F
100
AcDbEntity
  8
0
  6
Continuous
 62
     7
370
    15
100
AcDbLine
 10
228.1461795265
 20
167.0932593324
 30
0.0
 11
227.2203686202
 21
169.8275247729
 31
0.0
  0
LINE
  5
D9
330
1F
100
AcDbEntity
  8
0
  6
Continuous
 62
     7
370
    15
100
AcDbLine
 10
228.1461795265
 20
167.0932593324
 30
0.0
 11
230.9770283118
 21
166.5279023762
 31
0.0
  0
LINE
  5
DA
330
1F
100
AcDbEntity
  8
0
  6
Continuous
 62
     7
370
    15
100
AcDbLine
 10
232.8820661908
 20
168.6968108604
 30
0.0
 11
230.9770283118
 21
166.5279023762
 31
0.0
  0
LINE
  5
DB
330
1F
100
AcDbEntity
  8
0
  6
Continuous
 62
     7
370
    15
100
AcDbLine
 10
232.8820661908
 20
168.6968108604
 30
0.0
 11
231.9562552845
 21
171.4310763009
 31
0.0
  0
CIRCLE
  5
DC
330
1F
100
AcDbEntity
  8
0
  6
Continuous
 62
     7
370
    15
100
AcDbCircle
 10
230.0512174055
 20
169.2621678167
 30
0.0
 40
4.171999999999991
  0
CIRCLE
  5
DD
330
1F
100
AcDbEntity
  8
0
  6
Continuous
 62
     7
370
    15
100
AcDbCircle
 10
250.0512174055
 20
169.2621678167
 30
0.0
 40
4.171999999999993
  0
LINE
  5
DE
330
1F
100
AcDbEntity
  8
0
  6
Continuous
 62
     7
370
    15
100
AcDbLine
 10
252.9195184857
 20
169.5880239918
 30
0.0
 11
251.2031682199
 21
171.9091175053
 31
0.0
  0
LINE
  5
DF
330
1F
100
AcDbEntity
  8
0
  6
Continuous
 62
     7
370
    15
100
AcDbLine
 10
247.1829163253
 20
168.9363116415
 30
0.0
 11
248.8992665911
 21
166.615218128
 31
0.0
  0
LINE
  5
E0
330
1F
100
AcDbEntity
  8
0
  6
Continuous
 62
     7
370
    15
100
AcDbLine
 10
251.7675676712
 20
166.9410743031
 30
0.0
 11
248.8992665911
 21
166.615218128
 31
0.0
  0
LINE
  5
E1
330
1F
100
AcDbEntity
  8
0
  6
Continuous
 62
     7
370
    15
100
AcDbLine
 10
248.3348671398
 20
171.5832613302
 30
0.0
 11
251.2031682199
 21
171.9091175053
 31
0.0
  0
LINE
  5
E2
330
1F
100
AcDbEntity
  8
0
  6
Continuous
 62
     7
370
    15
100
AcDbLine
 10
247.1829163253
 20
168.9363116415
 30
0.0
 11
248.3348671398
 21
171.5832613302
 31
0.0
  0
LINE
  5
E3
330
1F
100
AcDbEntity
  8
0
  6
Continuous
 62
     7
370
    15
100
AcDbLine
 10
251.7675676712
 20
166.9410743031
 30
0.0
 11
252.9195184857
 21
169.5880239918
 31
0.0
  0
LINE
  5
E4
330
1F
100
AcDbEntity
  8
0
  6
HIDDEN
 62
     7
370
     0
100
AcDbLine
 10
191.0512174055
 20
133.5966875796
 30
0.0
 11
191.0512174055
 21
139.6207393415
 31
0.0
  0
LINE
  5
E5
330
1F
100
AcDbEntity
  8
0
  6
HIDDEN
 62
     7
370
     0
100
AcDbLine
 10
191.0512174055
 20
121.7621678167
 30
0.0
 11
191.0512174055
 21
124.3418616161
 31
0.0
  0
SPLINE
  5
E6
330
1F
100
AcDbEntity
  8
0
  6
HIDDEN
 62
     7
370
     0
100
AcDbSpline
210
0.0
220
0.0
230
1.0
 70
     8
 71
     3
 72
     9
 73
     5
 74
     0
 42
0.00000001
 43
0.00000001
 12
1.0
 22
0.0
 32
0.0
 13
1.0
 23
0.0
 33
0.0
 40
0.0
 40
0.0
 40
0.0
 40
0.0
 40
0.4939752747042693
 40
1.0
 40
1.0
 40
1.0
 40
1.0
 10
191.0512174055023
 20
121.7621678166559
 30
0.0
 10
191.0261379130984
 20
121.6190701004625
 30
0.0
 10
190.9753671687144
 20
121.3293841110593
 30
0.0
 10
190.9367872981445
 20
121.2847835689774
 30
0.0
 10
190.9172649297374
 20
121.2622145919224
 30
0.0
  0
LINE
  5
E7
330
1F
100
AcDbEntity
  8
0
  6
HIDDEN
 62
     7
370
     0
100
AcDbLine
 10
191.0428469898
 20
121.7193547435
 30
0.0
 11
191.0512174055
 21
121.7621678167
 31
0.0
  0
LINE
  5
E8
330
1F
100
AcDbEntity
  8
0
  6
HIDDEN
 62
     7
370
     0
100
AcDbLine
 10
191.0512174055
 20
121.7621678167
 30
0.0
 11
191.0512174055
 21
172.7434576971
 31
0.0
  0
LINE
  5
E9
330
1F
100
AcDbEntity
  8
0
  6
HIDDEN
 62
     7
370
     0
100
AcDbLine
 10
170.0512174055
 20
171.4621678138
 30
0.0
 11
170.0512174055
 21
122.0621678167
 31
0.0
  0
SPLINE
  5
EA
330
1F
100
AcDbEntity
  8
0
  6
HIDDEN
 62
     7
370
     0
100
AcDbSpline
210
0.0
220
0.0
230
1.0
 70
     8
 71
     3
 72
    58
 73
    54
 74
     0
 42
0.00000001
 43
0.00000001
 12
1.0
 22
0.0
 32
0.0
 13
1.0
 23
0.0
 33
0.0
 40
-0.0625000000000003
 40
-0.0625000000000003
 40
0.0
 40
0.0
 40
0.0312499999999999
 40
0.0312499999999999
 40
0.0624999999999998
 40
0.0624999999999998
 40
0.0937499999999998
 40
0.0937499999999998
 40
0.1249999999999997
 40
0.1249999999999997
 40
0.1874999999999995
 40
0.1874999999999995
 40
0.2499999999999994
 40
0.2499999999999994
 40
0.2812499999999993
 40
0.2812499999999993
 40
0.3124999999999992
 40
0.3124999999999992
 40
0.3437499999999991
 40
0.3437499999999991
 40
0.3749999999999991
 40
0.3749999999999991
 40
0.4062499999999989
 40
0.4062499999999989
 40
0.4374999999999989
 40
0.4374999999999989
 40
0.4687499999999988
 40
0.4687499999999988
 40
0.4999999999999987
 40
0.4999999999999987
 40
0.5624999999999989
 40
0.5624999999999989
 40
0.6249999999999992
 40
0.6249999999999992
 40
0.6562499999999992
 40
0.6562499999999992
 40
0.6874999999999992
 40
0.6874999999999992
 40
0.7187499999999993
 40
0.7187499999999993
 40
0.7499999999999993
 40
0.7499999999999993
 40
0.7812499999999993
 40
0.7812499999999993
 40
0.8124999999999993
 40
0.8124999999999993
 40
0.8437499999999994
 40
0.8437499999999994
 40
0.8749999999999994
 40
0.8749999999999994
 40
0.9374999999999997
 40
0.9374999999999997
 40
1.0
 40
1.0
 40
1.03125
 40
1.03125
 10
182.3155898315169
 20
144.7621678166559
 30
0.0
 10
181.9190311924951
 20
144.7621678166559
 30
0.0
 10
181.789064497485
 20
144.7751437128232
 30
0.0
 10
181.533385347069
 20
144.8259759626153
 30
0.0
 10
181.4063443999185
 20
144.864452980612
 30
0.0
 10
181.1641666429621
 20
144.9648576773231
 30
0.0
 10
181.0493131606193
 20
145.0262917456909
 30
0.0
 10
180.8319481918691
 20
145.171425714884
 30
0.0
 10
180.7290728016071
 20
145.2558674337264
 30
0.0
 10
180.4524547397957
 20
145.5325391216286
 30
0.0
 10
180.3034620256576
 20
145.7555856915361
 30
0.0
 10
180.1039377220225
 20
146.2368505061723
 30
0.0
 10
180.0513588618996
 20
146.5001084981144
 30
0.0
 10
180.0511471161695
 20
146.8915747636956
 30
0.0
 10
180.0641381090025
 20
147.0241235283951
 30
0.0
 10
180.1151743751101
 20
147.2806678744774
 30
0.0
 10
180.1529359659542
 20
147.405363881733
 30
0.0
 10
180.2530957206031
 20
147.6475671661917
 30
0.0
 10
180.3156937555234
 20
147.76463081529
 30
0.0
 10
180.4604160968465
 20
147.9813173561487
 30
0.0
 10
180.5430403439039
 20
148.0823313070269
 30
0.0
 10
180.7296607238291
 20
148.2691242286218
 30
0.0
 10
180.830709243222
 20
148.3519245853829
 30
0.0
 10
181.0472210660047
 20
148.496802679727
 30
0.0
 10
181.1641101690709
 20
148.5594532478746
 30
0.0
 10
181.406367178253
 20
148.6598933907621
 30
0.0
 10
181.5310296381047
 20
148.6977523255665
 30
0.0
 10
181.7873605223747
 20
148.748989965141
 30
0.0
 10
181.9199485100307
 20
148.762120362956
 30
0.0
 10
182.3115801905442
 20
148.7622623298347
 30
0.0
 10
182.5747927644297
 20
148.7099214504392
 30
0.0
 10
183.0562995747676
 20
148.5107916205133
 30
0.0
 10
183.2794995724806
 20
148.3619551213671
 30
0.0
 10
183.5563459125759
 20
148.0856432802375
 30
0.0
 10
183.6408582130096
 20
147.9828776690206
 30
0.0
 10
183.7862371362971
 20
147.7655605484939
 30
0.0
 10
183.8477527456482
 20
147.6507734526162
 30
0.0
 10
183.9483090692395
 20
147.4088535394241
 30
0.0
 10
183.9869478555305
 20
147.2817264802868
 30
0.0
 10
184.0380127857969
 20
147.0260573711294
 30
0.0
 10
184.0510872647088
 20
146.896162051529
 30
0.0
 10
184.0513456318204
 20
146.6320871223639
 30
0.0
 10
184.0384695683421
 20
146.5017581821168
 30
0.0
 10
183.9878707189032
 20
146.2460687174845
 30
0.0
 10
183.949565299621
 20
146.1191406665384
 30
0.0
 10
183.8493092162333
 20
145.8766880127781
 30
0.0
 10
183.7879580324773
 20
145.7617711639377
 30
0.0
 10
183.6430889143609
 20
145.5443802459197
 30
0.0
 10
183.5587247651235
 20
145.4413948900389
 30
0.0
 10
183.282198351088
 20
145.1644306156149
 30
0.0
 10
183.0593389235731
 20
145.0152989379846
 30
0.0
 10
182.5782372153589
 20
144.8153473332814
 30
0.0
 10
182.3155898315169
 20
144.7621678166559
 30
0.0
 10
181.9190311924951
 20
144.7621678166559
 30
0.0
  0
SPLINE
  5
EB
330
1F
100
AcDbEntity
  8
0
  6
HIDDEN
 62
     7
370
     0
100
AcDbSpline
210
0.0
220
0.0
230
1.0
 70
     8
 71
     3
 72
    12
 73
     8
 74
     0
 42
0.00000001
 43
0.00000001
 12
1.0
 22
0.0
 32
0.0
 13
1.0
 23
0.0
 33
0.0
 40
0.0
 40
0.0
 40
0.0
 40
0.0
 40
0.2499999999999984
 40
0.2499999999999984
 40
0.4999999999999968
 40
0.4999999999999968
 40
1.0
 40
1.0
 40
1.0
 40
1.0
 10
178.5789742190688
 20
139.1933578474753
 30
0.0
 10
178.5153089825382
 20
139.1933578474753
 30
0.0
 10
178.4557027503149
 20
139.1672856989956
 30
0.0
 10
178.3570422253841
 20
139.0917469481745
 30
0.0
 10
178.3180752353688
 20
139.0444960110783
 30
0.0
 10
178.2186884034444
 20
138.8926721931118
 30
0.0
 10
178.1766121560209
 20
138.7798689433468
 30
0.0
 10
178.1459615171765
 20
138.6657148186116
 30
0.0
  0
LINE
  5
EC
330
1F
100
AcDbEntity
  8
0
  6
HIDDEN
 62
     7
370
     0
100
AcDbLine
 10
181.5234605919
 20
139.1933578475
 30
0.0
 11
178.5789742191
 21
139.1933578475
 31
0.0
  0
SPLINE
  5
ED
330
1F
100
AcDbEntity
  8
0
  6
HIDDEN
 62
     7
370
     0
100
AcDbSpline
210
0.0
220
0.0
230
1.0
 70
     8
 71
     3
 72
    12
 73
     8
 74
     0
 42
0.00000001
 43
0.00000001
 12
1.0
 22
0.0
 32
0.0
 13
1.0
 23
0.0
 33
0.0
 40
0.0
 40
0.0
 40
0.0
 40
0.0
 40
0.499999999999995
 40
0.499999999999995
 40
0.7499999999999974
 40
0.7499999999999974
 40
1.0
 40
1.0
 40
1.0
 40
1.0
 10
181.9564732938281
 20
138.6657148186117
 30
0.0
 10
181.9257739104608
 20
138.7800504856755
 30
0.0
 10
181.8844238423543
 20
138.8914038385168
 30
0.0
 10
181.7846679141348
 20
139.0441406107656
 30
0.0
 10
181.7449709964021
 20
139.0920004966177
 30
0.0
 10
181.6477128447545
 20
139.1666036099672
 30
0.0
 10
181.5869366867638
 20
139.1933578474753
 30
0.0
 10
181.5234605919359
 20
139.1933578474753
 30
0.0
  0
ELLIPSE
  5
EE
330
1F
100
AcDbEntity
  8
0
  6
HIDDEN
 62
     7
370
     0
100
AcDbEllipse
 10
168.9949597505
 20
146.7621678167
 30
0.0
 11
-11.70927234972715
 21
24.67718644093742
 31
0.0
210
0.0
220
0.0
230
1.0
 40
0.3419987131
 41
3.310521928178957
 42
4.221709151398949
  0
SPLINE
  5
EF
330
1F
100
AcDbEntity
  8
0
  6
HIDDEN
 62
     7
370
     0
100
AcDbSpline
210
0.0
220
0.0
230
1.0
 70
     8
 71
     3
 72
    12
 73
     8
 74
     0
 42
0.00000001
 43
0.00000001
 12
1.0
 22
0.0
 32
0.0
 13
1.0
 23
0.0
 33
0.0
 40
0.0
 40
0.0
 40
0.0
 40
0.0
 40
0.2499999999999996
 40
0.2499999999999996
 40
0.4999999999999991
 40
0.4999999999999991
 40
1.0
 40
1.0
 40
1.0
 40
1.0
 10
181.5234605919359
 20
122.9354367011539
 30
0.0
 10
181.5871258284664
 20
122.9354367011539
 30
0.0
 10
181.6467320606898
 20
122.9437014768198
 30
0.0
 10
181.7453925856206
 20
122.9679202584029
 30
0.0
 10
181.7843595756358
 20
122.9831775777121
 30
0.0
 10
181.8837464075603
 20
123.032810931974
 30
0.0
 10
181.9258226549838
 20
123.0704506401481
 30
0.0
 10
181.9564732938281
 20
123.1095263394243
 30
0.0
  0
LINE
  5
F0
330
1F
100
AcDbEntity
  8
0
  6
HIDDEN
 62
     7
370
     0
100
AcDbLine
 10
178.5789742191
 20
122.9354367012
 30
0.0
 11
181.5234605919
 21
122.9354367012
 31
0.0
  0
SPLINE
  5
F1
330
1F
100
AcDbEntity
  8
0
  6
HIDDEN
 62
     7
370
     0
100
AcDbSpline
210
0.0
220
0.0
230
1.0
 70
     8
 71
     3
 72
    12
 73
     8
 74
     0
 42
0.00000001
 43
0.00000001
 12
1.0
 22
0.0
 32
0.0
 13
1.0
 23
0.0
 33
0.0
 40
0.0
 40
0.0
 40
0.0
 40
0.0
 40
0.5000000000000032
 40
0.5000000000000032
 40
0.7500000000000016
 40
0.7500000000000016
 40
1.0
 40
1.0
 40
1.0
 40
1.0
 10
178.1459615171765
 20
123.1095263394243
 30
0.0
 10
178.1766609005439
 20
123.0703884970284
 30
0.0
 10
178.2180109686504
 20
123.0332287143029
 30
0.0
 10
178.3177668968698
 20
122.9832922086751
 30
0.0
 10
178.3574638146025
 20
122.9678393385314
 30
0.0
 10
178.4547219662501
 20
122.9439197949323
 30
0.0
 10
178.5154981242408
 20
122.9354367011539
 30
0.0
 10
178.5789742190688
 20
122.9354367011539
 30
0.0
  0
ELLIPSE
  5
F2
330
1F
100
AcDbEntity
  8
0
  6
HIDDEN
 62
     7
370
     0
100
AcDbEllipse
 10
191.1074750605
 20
146.7621678167
 30
0.0
 11
11.70927234972706
 21
24.67718644093742
 31
0.0
210
0.0
220
0.0
230
1.0
 40
0.3419987131
 41
2.061476155780649
 42
2.97266337900067
  0
SPLINE
  5
F3
330
1F
100
AcDbEntity
  8
0
  6
HIDDEN
 62
     7
370
     0
100
AcDbSpline
210
0.0
220
0.0
230
1.0
 70
     8
 71
     3
 72
    12
 73
     8
 74
     0
 42
0.00000001
 43
0.00000001
 12
1.0
 22
0.0
 32
0.0
 13
1.0
 23
0.0
 33
0.0
 40
0.0
 40
0.0
 40
0.0
 40
0.0
 40
0.2499999999999984
 40
0.2499999999999984
 40
0.4999999999999968
 40
0.4999999999999968
 40
1.0
 40
1.0
 40
1.0
 40
1.0
 10
178.5789742190688
 20
170.5888989321579
 30
0.0
 10
178.5153089825383
 20
170.5888989321579
 30
0.0
 10
178.4557027503149
 20
170.5806341564921
 30
0.0
 10
178.3570422253841
 20
170.5564153749089
 30
0.0
 10
178.3180752353688
 20
170.5411580555998
 30
0.0
 10
178.2186884034444
 20
170.4915247013379
 30
0.0
 10
178.1766121560209
 20
170.4538849931637
 30
0.0
 10
178.1459615171765
 20
170.4148092938876
 30
0.0
  0
LINE
  5
F4
330
1F
100
AcDbEntity
  8
0
  6
HIDDEN
 62
     7
370
     0
100
AcDbLine
 10
181.5234605919
 20
170.5888989322
 30
0.0
 11
178.5789742191
 21
170.5888989322
 31
0.0
  0
SPLINE
  5
F5
330
1F
100
AcDbEntity
  8
0
  6
HIDDEN
 62
     7
370
     0
100
AcDbSpline
210
0.0
220
0.0
230
1.0
 70
     8
 71
     3
 72
    12
 73
     8
 74
     0
 42
0.00000001
 43
0.00000001
 12
1.0
 22
0.0
 32
0.0
 13
1.0
 23
0.0
 33
0.0
 40
0.0
 40
0.0
 40
0.0
 40
0.0
 40
0.4999999999999982
 40
0.4999999999999982
 40
0.7499999999999991
 40
0.7499999999999991
 40
1.0
 40
1.0
 40
1.0
 40
1.0
 10
181.9564732938281
 20
170.4148092938876
 30
0.0
 10
181.9257739104608
 20
170.4539471362835
 30
0.0
 10
181.8844238423543
 20
170.491106919009
 30
0.0
 10
181.7846679141348
 20
170.5410434246367
 30
0.0
 10
181.7449709964021
 20
170.5564962947805
 30
0.0
 10
181.6477128447545
 20
170.5804158383795
 30
0.0
 10
181.5869366867638
 20
170.5888989321579
 30
0.0
 10
181.5234605919359
 20
170.5888989321579
 30
0.0
  0
ELLIPSE
  5
F6
330
1F
100
AcDbEntity
  8
0
  6
HIDDEN
 62
     7
370
     0
100
AcDbEllipse
 10
168.9949597505
 20
146.7621678167
 30
0.0
 11
11.70927234972726
 21
24.67718644093742
 31
0.0
210
0.0
220
0.0
230
1.0
 40
0.3419987131
 41
5.20306880937047
 42
6.114256032590515
  0
SPLINE
  5
F7
330
1F
100
AcDbEntity
  8
0
  6
HIDDEN
 62
     7
370
     0
100
AcDbSpline
210
0.0
220
0.0
230
1.0
 70
     8
 71
     3
 72
    12
 73
     8
 74
     0
 42
0.00000001
 43
0.00000001
 12
1.0
 22
0.0
 32
0.0
 13
1.0
 23
0.0
 33
0.0
 40
0.0
 40
0.0
 40
0.0
 40
0.0
 40
0.2499999999999984
 40
0.2499999999999984
 40
0.4999999999999968
 40
0.4999999999999968
 40
1.0
 40
1.0
 40
1.0
 40
1.0
 10
181.5234605919359
 20
154.3309777858368
 30
0.0
 10
181.5871258284664
 20
154.3309777858368
 30
0.0
 10
181.6467320606897
 20
154.3570499343165
 30
0.0
 10
181.7453925856206
 20
154.4325886851376
 30
0.0
 10
181.7843595756358
 20
154.4798396222338
 30
0.0
 10
181.8837464075603
 20
154.6316634402002
 30
0.0
 10
181.9258226549838
 20
154.7444666899653
 30
0.0
 10
181.9564732938281
 20
154.8586208147004
 30
0.0
  0
LINE
  5
F8
330
1F
100
AcDbEntity
  8
0
  6
HIDDEN
 62
     7
370
     0
100
AcDbLine
 10
178.5789742191
 20
154.3309777858
 30
0.0
 11
181.5234605919
 21
154.3309777858
 31
0.0
  0
SPLINE
  5
F9
330
1F
100
AcDbEntity
  8
0
  6
HIDDEN
 62
     7
370
     0
100
AcDbSpline
210
0.0
220
0.0
230
1.0
 70
     8
 71
     3
 72
    12
 73
     8
 74
     0
 42
0.00000001
 43
0.00000001
 12
1.0
 22
0.0
 32
0.0
 13
1.0
 23
0.0
 33
0.0
 40
0.0
 40
0.0
 40
0.0
 40
0.0
 40
0.4999999999999972
 40
0.4999999999999972
 40
0.7499999999999986
 40
0.7499999999999986
 40
1.0
 40
1.0
 40
1.0
 40
1.0
 10
178.1459615171765
 20
154.8586208147004
 30
0.0
 10
178.1766609005439
 20
154.7442851476366
 30
0.0
 10
178.2180109686504
 20
154.6329317947952
 30
0.0
 10
178.3177668968698
 20
154.4801950225465
 30
0.0
 10
178.3574638146025
 20
154.4323351366943
 30
0.0
 10
178.4547219662501
 20
154.3577320233449
 30
0.0
 10
178.5154981242408
 20
154.3309777858368
 30
0.0
 10
178.5789742190688
 20
154.3309777858368
 30
0.0
  0
ELLIPSE
  5
FA
330
1F
100
AcDbEntity
  8
0
  6
HIDDEN
 62
     7
370
     0
100
AcDbEllipse
 10
191.1074750605
 20
146.7621678167
 30
0.0
 11
-11.70927234972711
 21
24.67718644093745
 31
0.0
210
0.0
220
0.0
230
1.0
 40
0.3419987131
 41
0.1689292745891172
 42
1.080116497809133
  0
LINE
  5
FB
330
1F
100
AcDbEntity
  8
0
  6
HIDDEN
 62
     7
370
     0
100
AcDbLine
 10
196.0512174055
 20
180.7621678167
 30
0.0
 11
195.0512174055
 21
181.7621678167
 31
0.0
  0
LINE
  5
FC
330
1F
100
AcDbEntity
  8
0
  6
HIDDEN
 62
     7
370
     0
100
AcDbLine
 10
258.0512174055
 20
155.7621678167
 30
0.0
 11
257.0512174055
 21
156.7621678167
 31
0.0
  0
LINE
  5
FD
330
1F
100
AcDbEntity
  8
0
  6
HIDDEN
 62
     7
370
     0
100
AcDbLine
 10
257.0512174055
 20
156.7621678167
 30
0.0
 11
214.0512174055
 21
156.7621678167
 31
0.0
  0
ARC
  5
FE
330
1F
100
AcDbEntity
  8
0
  6
HIDDEN
 62
     7
370
     0
100
AcDbCircle
 10
214.0512174055
 20
174.7621678167
 30
0.0
 40
18.0
100
AcDbArc
 50
180.0
 51
270.0
  0
LINE
  5
FF
330
1F
100
AcDbEntity
  8
0
  6
HIDDEN
 62
     7
370
     0
100
AcDbLine
 10
196.0512174055
 20
174.7621678167
 30
0.0
 11
196.0512174055
 21
180.7621678167
 31
0.0
  0
CIRCLE
  5
100
330
1F
100
AcDbEntity
  8
0
  6
HIDDEN
 62
     7
370
     0
100
AcDbCircle
 10
210.0512174055
 20
169.2621678167
 30
0.0
 40
4.249999999999972
  0
CIRCLE
  5
101
330
1F
100
AcDbEntity
  8
0
  6
HIDDEN
 62
     7
370
     0
100
AcDbCircle
 10
230.0512174055
 20
169.2621678167
 30
0.0
 40
4.25
  0
CIRCLE
  5
102
330
1F
100
AcDbEntity
  8
0
  6
HIDDEN
 62
     7
370
     0
100
AcDbCircle
 10
250.0512174055
 20
169.2621678167
 30
0.0
 40
4.249999999999972
  0
LINE
  5
103
330
1F
100
AcDbEntity
  8
0
  6
HIDDEN
 62
     7
370
     0
100
AcDbLine
 10
170.0512174055
 20
127.2121678167
 30
0.0
 11
170.0512174055
 21
166.2919076364
 31
0.0
  0
SPLINE
  5
104
330
1F
100
AcDbEntity
  8
0
  6
HIDDEN
 62
     7
370
     0
100
AcDbSpline
210
0.0
220
0.0
230
1.0
 70
     8
 71
     3
 72
    14
 73
    10
 74
     0
 42
0.00000001
 43
0.00000001
 12
1.0
 22
0.0
 32
0.0
 13
1.0
 23
0.0
 33
0.0
 40
0.0
 40
0.0
 40
0.0
 40
0.0
 40
0.25
 40
0.25
 40
0.5
 40
0.5
 40
0.75
 40
0.75
 40
1.0
 40
1.0
 40
1.0
 40
1.0
 10
169.010356377374
 20
159.0566433617292
 30
0.0
 10
169.0420715117047
 20
158.9988601793861
 30
0.0
 10
169.0766860370051
 20
158.9424475183112
 30
0.0
 10
169.1563572324204
 20
158.8348480682958
 30
0.0
 10
169.2014131094508
 20
158.7829354413747
 30
0.0
 10
169.3119675219562
 20
158.6967368166775
 30
0.0
 10
169.3793529361604
 20
158.6626473967058
 30
0.0
 10
169.5299824560584
 20
158.6605450046889
 30
0.0
 10
169.5998096928238
 20
158.6939167775337
 30
0.0
 10
169.6562405166272
 20
158.7377294460844
 30
0.0
  0
SPLINE
  5
105
330
1F
100
AcDbEntity
  8
0
  6
HIDDEN
 62
     7
370
     0
100
AcDbSpline
210
0.0
220
0.0
230
1.0
 70
     8
 71
     3
 72
    16
 73
    12
 74
     0
 42
0.00000001
 43
0.00000001
 12
1.0
 22
0.0
 32
0.0
 13
1.0
 23
0.0
 33
0.0
 40
0.0
 40
0.0
 40
0.0
 40
0.0
 40
0.0624999999999988
 40
0.0624999999999988
 40
0.1249999999999976
 40
0.1249999999999976
 40
0.2499999999999933
 40
0.2499999999999933
 40
0.4999999999999939
 40
0.4999999999999939
 40
1.0
 40
1.0
 40
1.0
 40
1.0
 10
169.6562405165955
 20
158.737729446115
 30
0.0
 10
169.6679747510424
 20
158.7468398593629
 30
0.0
 10
169.6815065065213
 20
158.7549172153093
 30
0.0
 10
169.7114939669511
 20
158.7631640569862
 30
0.0
 10
169.7264886733594
 20
158.7622367393986
 30
0.0
 10
169.7622290957542
 20
158.7494702198669
 30
0.0
 10
169.7762424327554
 20
158.7318215733565
 30
0.0
 10
169.8103865215368
 20
158.677168653325
 30
0.0
 10
169.8213584256551
 20
158.6357689856665
 30
0.0
 10
169.8472039659214
 20
158.5072792419437
 30
0.0
 10
169.8512174055024
 20
158.416661154305
 30
0.0
 10
169.8512174055024
 20
158.3244420497509
 30
0.0
  0
LINE
  5
106
330
1F
100
AcDbEntity
  8
0
  6
HIDDEN
 62
     7
370
     0
100
AcDbLine
 10
169.8512174055
 20
135.1998935836
 30
0.0
 11
169.8512174055
 21
158.3244420498
 31
0.0
  0
SPLINE
  5
107
330
1F
100
AcDbEntity
  8
0
  6
HIDDEN
 62
     7
370
     0
100
AcDbSpline
210
0.0
220
0.0
230
1.0
 70
     8
 71
     3
 72
    16
 73
    12
 74
     0
 42
0.00000001
 43
0.00000001
 12
1.0
 22
0.0
 32
0.0
 13
1.0
 23
0.0
 33
0.0
 40
0.0
 40
0.0
 40
0.0
 40
0.0
 40
0.4999999999999977
 40
0.4999999999999977
 40
0.7499999999999964
 40
0.7499999999999964
 40
0.8749999999999953
 40
0.8749999999999953
 40
0.9374999999999978
 40
0.9374999999999978
 40
1.0
 40
1.0
 40
1.0
 40
1.0
 10
169.8512174055023
 20
135.1998935835608
 30
0.0
 10
169.8512174055023
 20
135.1073097326569
 30
0.0
 10
169.8471601033873
 20
135.0170972767967
 30
0.0
 10
169.8215028605925
 20
134.8891561496783
 30
0.0
 10
169.8101874148504
 20
134.8467429352663
 30
0.0
 10
169.7761560475417
 20
134.7924288918152
 30
0.0
 10
169.7622770663379
 20
134.7748475564253
 30
0.0
 10
169.7263413845705
 20
134.7620638684903
 30
0.0
 10
169.7113910653078
 20
134.7611883703423
 30
0.0
 10
169.6814925525659
 20
134.7694338054616
 30
0.0
 10
169.6679596922007
 20
134.7775074656334
 30
0.0
 10
169.6562405166267
 20
134.7866061872275
 30
0.0
  0
SPLINE
  5
108
330
1F
100
AcDbEntity
  8
0
  6
HIDDEN
 62
     7
370
     0
100
AcDbSpline
210
0.0
220
0.0
230
1.0
 70
     8
 71
     3
 72
    14
 73
    10
 74
     0
 42
0.00000001
 43
0.00000001
 12
1.0
 22
0.0
 32
0.0
 13
1.0
 23
0.0
 33
0.0
 40
0.0
 40
0.0
 40
0.0
 40
0.0
 40
0.25
 40
0.25
 40
0.5
 40
0.5
 40
0.75
 40
0.75
 40
1.0
 40
1.0
 40
1.0
 40
1.0
 10
169.6562405166335
 20
134.786606187236
 30
0.0
 10
169.5997847520247
 20
134.8304382197308
 30
0.0
 10
169.5289191257749
 20
134.8637692561526
 30
0.0
 10
169.3804620446022
 20
134.8617102460052
 30
0.0
 10
169.3112686852947
 20
134.8271142216035
 30
0.0
 10
169.2015532471605
 20
134.7414488649406
 30
0.0
 10
169.1563086678292
 20
134.6894264202326
 30
0.0
 10
169.0766819584054
 20
134.5818781599027
 30
0.0
 10
169.042071809872
 20
134.5254759971697
 30
0.0
 10
169.0103563773727
 20
134.4676922715802
 30
0.0
  0
SPLINE
  5
109
330
1F
100
AcDbEntity
  8
0
  6
HIDDEN
 62
     7
370
     0
100
AcDbSpline
210
0.0
220
0.0
230
1.0
 70
     8
 71
     3
 72
    10
 73
     6
 74
     0
 42
0.00000001
 43
0.00000001
 12
1.0
 22
0.0
 32
0.0
 13
1.0
 23
0.0
 33
0.0
 40
0.0
 40
0.0
 40
0.0
 40
0.0
 40
0.5
 40
0.5
 40
1.0
 40
1.0
 40
1.0
 40
1.0
 10
169.0103563773733
 20
134.4676922715812
 30
0.0
 10
168.9385765894498
 20
134.3369135546793
 30
0.0
 10
168.8861170751418
 20
134.2028134051761
 30
0.0
 10
168.7967740110406
 20
133.9347208421874
 30
0.0
 10
168.7607784015408
 20
133.8004754705985
 30
0.0
 10
168.7298970619428
 20
133.6671210931235
 30
0.0
  0
SPLINE
  5
10A
330
1F
100
AcDbEntity
  8
0
  6
HIDDEN
 62
     7
370
     0
100
AcDbSpline
210
0.0
220
0.0
230
1.0
 70
     8
 71
     3
 72
    10
 73
     6
 74
     0
 42
0.00000001
 43
0.00000001
 12
1.0
 22
0.0
 32
0.0
 13
1.0
 23
0.0
 33
0.0
 40
0.0
 40
0.0
 40
0.0
 40
0.0
 40
0.5
 40
0.5
 40
1.0
 40
1.0
 40
1.0
 40
1.0
 10
168.7298970619428
 20
129.465257948651
 30
0.0
 10
168.760770093755
 20
129.4489748012839
 30
0.0
 10
168.7967569566679
 20
129.4367172115583
 30
0.0
 10
168.8860915425591
 20
129.4196142227296
 30
0.0
 10
168.9385474019817
 20
129.4148146268713
 30
0.0
 10
169.010356377374
 20
129.4130105354633
 30
0.0
  0
SPLINE
  5
10B
330
1F
100
AcDbEntity
  8
0
  6
HIDDEN
 62
     7
370
     0
100
AcDbSpline
210
0.0
220
0.0
230
1.0
 70
     8
 71
     3
 72
     8
 73
     4
 74
     0
 42
0.00000001
 43
0.00000001
 12
1.0
 22
0.0
 32
0.0
 13
1.0
 23
0.0
 33
0.0
 40
0.0
 40
0.0
 40
0.0
 40
0.0
 40
1.0
 40
1.0
 40
1.0
 40
1.0
 10
169.8335207821274
 20
129.2871261572163
 30
0.0
 10
169.8475075906694
 20
129.2588857666346
 30
0.0
 10
169.8512174055021
 20
129.2357537238238
 30
0.0
 10
169.8512174055024
 20
129.2154133509886
 30
0.0
  0
LINE
  5
10C
330
1F
100
AcDbEntity
  8
0
  6
HIDDEN
 62
     7
370
     0
100
AcDbLine
 10
169.8512174055
 20
128.9223475378
 30
0.0
 11
169.8512174055
 21
129.215413351
 31
0.0
  0
LINE
  5
10D
330
1F
100
AcDbEntity
  8
0
  6
HIDDEN
 62
     7
370
     0
100
AcDbLine
 10
169.8512174055
 20
164.3089222823
 30
0.0
 11
169.8512174055
 21
164.6019880955
 31
0.0
  0
SPLINE
  5
10E
330
1F
100
AcDbEntity
  8
0
  6
HIDDEN
 62
     7
370
     0
100
AcDbSpline
210
0.0
220
0.0
230
1.0
 70
     8
 71
     3
 72
    10
 73
     6
 74
     0
 42
0.00000001
 43
0.00000001
 12
1.0
 22
0.0
 32
0.0
 13
1.0
 23
0.0
 33
0.0
 40
0.0
 40
0.0
 40
0.0
 40
0.0
 40
0.5
 40
0.5
 40
1.0
 40
1.0
 40
1.0
 40
1.0
 10
169.0103563773748
 20
164.1113250978484
 30
0.0
 10
168.9385474019822
 20
164.1095210064405
 30
0.0
 10
168.8860915425595
 20
164.1047214105822
 30
0.0
 10
168.7967569566681
 20
164.0876184217535
 30
0.0
 10
168.7607700937551
 20
164.0753608320279
 30
0.0
 10
168.7298970619428
 20
164.0590776846607
 30
0.0
  0
SPLINE
  5
10F
330
1F
100
AcDbEntity
  8
0
  6
HIDDEN
 62
     7
370
     0
100
AcDbSpline
210
0.0
220
0.0
230
1.0
 70
     8
 71
     3
 72
    10
 73
     6
 74
     0
 42
0.00000001
 43
0.00000001
 12
1.0
 22
0.0
 32
0.0
 13
1.0
 23
0.0
 33
0.0
 40
0.0
 40
0.0
 40
0.0
 40
0.0
 40
0.5
 40
0.5
 40
1.0
 40
1.0
 40
1.0
 40
1.0
 10
168.7298970619428
 20
159.8572145401883
 30
0.0
 10
168.7607784015409
 20
159.723860162713
 30
0.0
 10
168.7967740110407
 20
159.5896147911239
 30
0.0
 10
168.8861170751421
 20
159.3215222281348
 30
0.0
 10
168.9385765894503
 20
159.1874220786313
 30
0.0
 10
169.010356377374
 20
159.0566433617293
 30
0.0
  0
LINE
  5
110
330
1F
100
AcDbEntity
  8
0
  6
HIDDEN
 62
     7
370
     0
100
AcDbLine
 10
250.0512174055
 20
145.7621678167
 30
0.0
 11
250.0512174055
 21
157.7621678167
 31
0.0
  0
LINE
  5
111
330
1F
100
AcDbEntity
  8
0
  6
HIDDEN
 62
     7
370
     0
100
AcDbLine
 10
258.0512174055
 20
157.7621678167
 30
0.0
 11
258.0512174055
 21
145.7621678167
 31
0.0
  0
LINE
  5
112
330
1F
100
AcDbEntity
  8
0
  6
HIDDEN
 62
     7
370
     0
100
AcDbLine
 10
169.8512174055
 20
129.215413351
 30
0.0
 11
169.8512174055
 21
140.7776875841
 31
0.0
  0
LINE
  5
113
330
1F
100
AcDbEntity
  8
0
  6
HIDDEN
 62
     7
370
     0
100
AcDbLine
 10
169.8512174055
 20
152.7466480492
 30
0.0
 11
169.8512174055
 21
164.3089222823
 31
0.0
  0
CIRCLE
  5
114
330
1F
100
AcDbEntity
  8
0
  6
HIDDEN
 62
     7
370
     0
100
AcDbCircle
 10
156.0512174055
 20
146.7621678167
 30
0.0
 40
3.050000000000011
  0
SPLINE
  5
115
330
1F
100
AcDbEntity
  8
0
  6
HIDDEN
 62
     7
370
     0
100
AcDbSpline
210
0.0
220
0.0
230
1.0
 70
     8
 71
     3
 72
    34
 73
    30
 74
     0
 42
0.00000001
 43
0.00000001
 12
1.0
 22
0.0
 32
0.0
 13
1.0
 23
0.0
 33
0.0
 40
0.0
 40
0.0
 40
0.0
 40
0.0
 40
0.1250000000000006
 40
0.1250000000000006
 40
0.1875000000000008
 40
0.1875000000000008
 40
0.250000000000001
 40
0.250000000000001
 40
0.3125000000000012
 40
0.3125000000000012
 40
0.3750000000000013
 40
0.3750000000000013
 40
0.4375000000000016
 40
0.4375000000000016
 40
0.5000000000000017
 40
0.5000000000000017
 40
0.5625000000000019
 40
0.5625000000000019
 40
0.625000000000002
 40
0.625000000000002
 40
0.7500000000000012
 40
0.7500000000000012
 40
0.8125000000000009
 40
0.8125000000000009
 40
0.8750000000000007
 40
0.8750000000000007
 40
0.9375000000000003
 40
0.9375000000000003
 40
1.0
 40
1.0
 40
1.0
 40
1.0
 10
228.0512174055023
 20
146.2647816801683
 30
0.0
 10
228.1788057877719
 20
146.2088317731254
 30
0.0
 10
228.3100486322214
 20
146.2005993170804
 30
0.0
 10
228.5107434508182
 20
146.256641297335
 30
0.0
 10
228.5767007338046
 20
146.2864010820397
 30
0.0
 10
228.7064411963923
 20
146.3669726644923
 30
0.0
 10
228.7707716343245
 20
146.4183456162362
 30
0.0
 10
228.8931882943129
 20
146.5403580810328
 30
0.0
 10
228.9509463799915
 20
146.6104048210232
 30
0.0
 10
229.0573386136197
 20
146.76843593081
 30
0.0
 10
229.1064353163334
 20
146.8575435781826
 30
0.0
 10
229.1884627094055
 20
147.0495937651702
 30
0.0
 10
229.2214000910614
 20
147.1520354480449
 30
0.0
 10
229.2670824585605
 20
147.3699961925109
 30
0.0
 10
229.2796754473271
 20
147.487368765353
 30
0.0
 10
229.2801598848874
 20
147.7258877390766
 30
0.0
 10
229.2684970568363
 20
147.846904133188
 30
0.0
 10
229.2235085343921
 20
148.0927117877265
 30
0.0
 10
229.1900127376306
 20
148.2173812540335
 30
0.0
 10
229.0676357911544
 20
148.5823865266613
 30
0.0
 10
228.9555391054195
 20
148.8214423264541
 30
0.0
 10
228.772727699382
 20
149.1548129122675
 30
0.0
 10
228.7081316739765
 20
149.2635918025988
 30
0.0
 10
228.5777787515139
 20
149.468496552023
 30
0.0
 10
228.5119231867142
 20
149.5649461736689
 30
0.0
 10
228.3792417067516
 20
149.7458815321622
 30
0.0
 10
228.3118219965881
 20
149.8309853956935
 30
0.0
 10
228.1798678573478
 20
149.9832079216715
 30
0.0
 10
228.115080175593
 20
150.0507972176698
 30
0.0
 10
228.0512174055023
 20
150.1094122065884
 30
0.0
  0
SPLINE
  5
116
330
1F
100
AcDbEntity
  8
0
  6
HIDDEN
 62
     7
370
     0
100
AcDbSpline
210
0.0
220
0.0
230
1.0
 70
     8
 71
     3
 72
    36
 73
    32
 74
     0
 42
0.00000001
 43
0.00000001
 12
1.0
 22
0.0
 32
0.0
 13
1.0
 23
0.0
 33
0.0
 40
0.0
 40
0.0
 40
0.0
 40
0.0
 40
0.124999999999999
 40
0.124999999999999
 40
0.2499999999999979
 40
0.2499999999999979
 40
0.3124999999999982
 40
0.3124999999999982
 40
0.3749999999999984
 40
0.3749999999999984
 40
0.4062499999999986
 40
0.4062499999999986
 40
0.4374999999999986
 40
0.4374999999999986
 40
0.4687499999999987
 40
0.4687499999999987
 40
0.4999999999999988
 40
0.4999999999999988
 40
0.5624999999999989
 40
0.5624999999999989
 40
0.593749999999999
 40
0.593749999999999
 40
0.6249999999999991
 40
0.6249999999999991
 40
0.6874999999999992
 40
0.6874999999999992
 40
0.7499999999999993
 40
0.7499999999999993
 40
0.8749999999999997
 40
0.8749999999999997
 40
1.0
 40
1.0
 40
1.0
 40
1.0
 10
228.0512174055023
 20
150.1094122065884
 30
0.0
 10
227.5161192008788
 20
150.1251362227078
 30
0.0
 10
226.9817668816454
 20
150.1272347460654
 30
0.0
 10
225.9153195999481
 20
150.0901506877932
 30
0.0
 10
225.3794863353394
 20
150.0518885068598
 30
0.0
 10
224.6007078825361
 20
149.9295496884461
 30
0.0
 10
224.3443597344538
 20
149.8776107504872
 30
0.0
 10
223.8462934887427
 20
149.7354717400223
 30
0.0
 10
223.609108482677
 20
149.6471335179252
 30
0.0
 10
223.2819912435535
 20
149.4662150033874
 30
0.0
 10
223.1796027091256
 20
149.3984815138984
 30
0.0
 10
222.9936647720627
 20
149.2450343680576
 30
0.0
 10
222.9087928644958
 20
149.1578256370715
 30
0.0
 10
222.768355599533
 20
148.9652682399656
 30
0.0
 10
222.7121534826754
 20
148.8594297885448
 30
0.0
 10
222.636026488707
 20
148.6299819303349
 30
0.0
 10
222.6171437215297
 20
148.5105132666535
 30
0.0
 10
222.6207026900338
 20
148.1366413822383
 30
0.0
 10
222.7083801350808
 20
147.8808867987507
 30
0.0
 10
222.9248814825437
 20
147.5478976260186
 30
0.0
 10
223.011318900549
 20
147.4438382079962
 30
0.0
 10
223.1996870028669
 20
147.2558967839855
 30
0.0
 10
223.3025450363454
 20
147.170584949153
 30
0.0
 10
223.6323109805172
 20
146.9361478054751
 30
0.0
 10
223.8701712641383
 20
146.8147044637344
 30
0.0
 10
224.3656795848958
 20
146.6153392728494
 30
0.0
 10
224.6245525231118
 20
146.5378584541485
 30
0.0
 10
225.4004303381611
 20
146.3553980552647
 30
0.0
 10
225.9257023236996
 20
146.2949562263174
 30
0.0
 10
226.9844772723377
 20
146.236195850018
 30
0.0
 10
227.5188310428127
 20
146.2395678989423
 30
0.0
 10
228.0512174055023
 20
146.2647816801683
 30
0.0
  0
LINE
  5
117
330
1F
100
AcDbEntity
  8
0
  6
HIDDEN
 62
     7
370
     0
100
AcDbLine
 10
250.0512174055
 20
153.4930863939
 30
0.0
 11
250.0512174055
 21
149.2620184702
 31
0.0
  0
LINE
  5
118
330
1F
100
AcDbEntity
  8
0
  6
HIDDEN
 62
     7
370
     0
100
AcDbLine
 10
145.0792572611
 20
157.5508429513
 30
0.0
 11
145.0792572611
 21
135.9734926821
 31
0.0
  0
LINE
  5
119
330
1F
100
AcDbEntity
  8
0
  6
HIDDEN
 62
     7
370
     0
100
AcDbLine
 10
141.0792572611
 20
157.9320407977
 30
0.0
 11
141.0792572611
 21
135.5922948356
 31
0.0
  0
LINE
  5
11A
330
1F
100
AcDbEntity
  8
0
  6
HIDDEN
 62
     7
370
     0
100
AcDbLine
 10
140.0512174055
 20
134.9987557482
 30
0.0
 11
140.0512174055
 21
158.5255798851
 31
0.0
  0
LINE
  5
11B
330
1F
100
AcDbEntity
  8
0
  6
HIDDEN
 62
     7
370
     0
100
AcDbLine
 10
149.6792572611
 20
157.2621678167
 30
0.0
 11
149.6792572611
 21
136.2621678167
 31
0.0
  0
LINE
  5
11C
330
1F
100
AcDbEntity
  8
0
  6
HIDDEN
 62
     7
370
     0
100
AcDbLine
 10
143.5792572611
 20
157.2621678167
 30
0.0
 11
143.5792572611
 21
136.2621678167
 31
0.0
  0
LINE
  5
11D
330
1F
100
AcDbEntity
  8
0
  6
HIDDEN
 62
     7
370
     0
100
AcDbLine
 10
144.5792572611
 20
157.2621678167
 30
0.0
 11
144.5792572611
 21
136.2621678167
 31
0.0
  0
SPLINE
  5
11E
330
1F
100
AcDbEntity
  8
0
  6
HIDDEN
 62
     7
370
     0
100
AcDbSpline
210
0.0
220
0.0
230
1.0
 70
     8
 71
     3
 72
    66
 73
    62
 74
     0
 42
0.00000001
 43
0.00000001
 12
1.0
 22
0.0
 32
0.0
 13
1.0
 23
0.0
 33
0.0
 40
-0.0312499999999999
 40
-0.0312499999999999
 40
0.0
 40
0.0
 40
0.0312499999999998
 40
0.0312499999999998
 40
0.0624999999999996
 40
0.0624999999999996
 40
0.0937499999999995
 40
0.0937499999999995
 40
0.1249999999999993
 40
0.1249999999999993
 40
0.1874999999999991
 40
0.1874999999999991
 40
0.218749999999999
 40
0.218749999999999
 40
0.249999999999999
 40
0.249999999999999
 40
0.281249999999999
 40
0.281249999999999
 40
0.3124999999999989
 40
0.3124999999999989
 40
0.3437499999999989
 40
0.3437499999999989
 40
0.3749999999999989
 40
0.3749999999999989
 40
0.4062499999999989
 40
0.4062499999999989
 40
0.4374999999999989
 40
0.4374999999999989
 40
0.4687499999999989
 40
0.4687499999999989
 40
0.4999999999999989
 40
0.4999999999999989
 40
0.5312499999999988
 40
0.5312499999999988
 40
0.5624999999999988
 40
0.5624999999999988
 40
0.5937499999999987
 40
0.5937499999999987
 40
0.6249999999999988
 40
0.6249999999999988
 40
0.656249999999999
 40
0.656249999999999
 40
0.6874999999999991
 40
0.6874999999999991
 40
0.7187499999999993
 40
0.7187499999999993
 40
0.7499999999999994
 40
0.7499999999999994
 40
0.7812499999999996
 40
0.7812499999999996
 40
0.8124999999999998
 40
0.8124999999999998
 40
0.875
 40
0.875
 40
0.9062500000000002
 40
0.9062500000000002
 40
0.9375000000000001
 40
0.9375000000000001
 40
0.9687500000000001
 40
0.9687500000000001
 40
1.0
 40
1.0
 40
1.03125
 40
1.03125
 10
155.8485387585545
 20
149.8121678166559
 30
0.0
 10
156.2538960524501
 20
149.8121678166559
 30
0.0
 10
156.452955943786
 20
149.7921682570393
 30
0.0
 10
156.8442099283657
 20
149.7140247543391
 30
0.0
 10
157.0384826871133
 20
149.6548636528184
 30
0.0
 10
157.4072461136646
 20
149.501431965924
 30
0.0
 10
157.5819712720429
 20
149.4077051560818
 30
0.0
 10
157.9126485755767
 20
149.186451053677
 30
0.0
 10
158.0682961195796
 20
149.0584696866824
 30
0.0
 10
158.4877634892482
 20
148.6389145896823
 30
0.0
 10
158.7146516307785
 20
148.3004360309789
 30
0.0
 10
158.9434482541632
 20
147.7505571432607
 30
0.0
 10
159.0026405090121
 20
147.5571572975173
 30
0.0
 10
159.0814479192726
 20
147.1629291471594
 30
0.0
 10
159.101087335553
 20
146.964290319727
 30
0.0
 10
159.1013461999746
 20
146.5639900338286
 30
0.0
 10
159.0812755153417
 20
146.3606507071075
 30
0.0
 10
159.0029378327118
 20
145.9685591865
 30
0.0
 10
158.9449880646733
 20
145.7778533181848
 30
0.0
 10
158.7910449227933
 20
145.4071295015982
 30
0.0
 10
158.6961063090706
 20
145.2304028417894
 30
0.0
 10
158.4757488931934
 20
144.901149730865
 30
0.0
 10
158.3484688672652
 20
144.7460285072685
 30
0.0
 10
158.0667132759346
 20
144.4643518123382
 30
0.0
 10
157.9139249464771
 20
144.3389186274338
 30
0.0
 10
157.5844978643202
 20
144.1181430340797
 30
0.0
 10
157.4059518611685
 20
144.0223117813795
 30
0.0
 10
157.0383795356183
 20
143.8694826508844
 30
0.0
 10
156.8482255089073
 20
143.8113108929402
 30
0.0
 10
156.4546850862048
 20
143.7323176005953
 30
0.0
 10
156.2522510149437
 20
143.712254474953
 30
0.0
 10
155.8528219395783
 20
143.7120817288342
 30
0.0
 10
155.6528029610224
 20
143.7315651029236
 30
0.0
 10
155.256687013573
 20
143.8105566745247
 30
0.0
 10
155.0659541853812
 20
143.8688368943767
 30
0.0
 10
154.6983227448015
 20
144.0214045149847
 30
0.0
 10
154.5198363126337
 20
144.117013301758
 30
0.0
 10
154.1896310536696
 20
144.338025346843
 30
0.0
 10
154.0367424756077
 20
144.4634752456132
 30
0.0
 10
153.7551460810696
 20
144.7447057346185
 30
0.0
 10
153.6275151581941
 20
144.9000886125324
 30
0.0
 10
153.4071897231943
 20
145.2289394705754
 30
0.0
 10
153.312963266229
 20
145.4038275769894
 30
0.0
 10
153.1580287456258
 20
145.7759714283502
 30
0.0
 10
153.1000164600236
 20
145.9667774701591
 30
0.0
 10
153.0215972057455
 20
146.3576504880779
 30
0.0
 10
153.0012831257789
 20
146.5601080494602
 30
0.0
 10
153.0011520094749
 20
146.9622386543796
 30
0.0
 10
153.0207767028343
 20
147.1609626995547
 30
0.0
 10
153.0989431532479
 20
147.5538021706914
 30
0.0
 10
153.1582305985879
 20
147.7484464480939
 30
0.0
 10
153.3873114416708
 20
148.2998862015082
 30
0.0
 10
153.6141422925649
 20
148.6382257672073
 30
0.0
 10
154.0334809938856
 20
149.0578914298588
 30
0.0
 10
154.1888339896356
 20
149.1857374356321
 30
0.0
 10
154.5198018227728
 20
149.4073385103339
 30
0.0
 10
154.6943631229692
 20
149.5009792443108
 30
0.0
 10
155.0619364305439
 20
149.6541333650101
 30
0.0
 10
155.256623292182
 20
149.7136371106561
 30
0.0
 10
155.6490992421185
 20
149.7921598597191
 30
0.0
 10
155.8485387585545
 20
149.8121678166559
 30
0.0
 10
156.2538960524501
 20
149.8121678166559
 30
0.0
  0
SPLINE
  5
11F
330
1F
100
AcDbEntity
  8
0
  6
HIDDEN
 62
     7
370
     0
100
AcDbSpline
210
0.0
220
0.0
230
1.0
 70
     8
 71
     3
 72
    66
 73
    62
 74
     0
 42
0.00000001
 43
0.00000001
 12
1.0
 22
0.0
 32
0.0
 13
1.0
 23
0.0
 33
0.0
 40
-0.0312500000000002
 40
-0.0312500000000002
 40
0.0
 40
0.0
 40
0.0312499999999999
 40
0.0312499999999999
 40
0.0624999999999997
 40
0.0624999999999997
 40
0.0937499999999996
 40
0.0937499999999996
 40
0.1249999999999995
 40
0.1249999999999995
 40
0.1874999999999992
 40
0.1874999999999992
 40
0.2187499999999991
 40
0.2187499999999991
 40
0.2499999999999989
 40
0.2499999999999989
 40
0.2812499999999988
 40
0.2812499999999988
 40
0.3124999999999987
 40
0.3124999999999987
 40
0.3437499999999986
 40
0.3437499999999986
 40
0.3749999999999984
 40
0.3749999999999984
 40
0.4062499999999983
 40
0.4062499999999983
 40
0.4374999999999984
 40
0.4374999999999984
 40
0.4687499999999984
 40
0.4687499999999984
 40
0.4999999999999986
 40
0.4999999999999986
 40
0.5312499999999987
 40
0.5312499999999987
 40
0.5624999999999988
 40
0.5624999999999988
 40
0.5937499999999988
 40
0.5937499999999988
 40
0.6249999999999989
 40
0.6249999999999989
 40
0.656249999999999
 40
0.656249999999999
 40
0.6874999999999991
 40
0.6874999999999991
 40
0.7187499999999992
 40
0.7187499999999992
 40
0.7499999999999992
 40
0.7499999999999992
 40
0.7812499999999993
 40
0.7812499999999993
 40
0.8124999999999994
 40
0.8124999999999994
 40
0.8749999999999996
 40
0.8749999999999996
 40
0.9062499999999997
 40
0.9062499999999997
 40
0.9374999999999997
 40
0.9374999999999997
 40
0.9687499999999998
 40
0.9687499999999998
 40
1.0
 40
1.0
 40
1.03125
 40
1.03125
 10
156.2538960524501
 20
149.8121678166559
 30
0.0
 10
155.8485387585545
 20
149.8121678166559
 30
0.0
 10
155.6494788672187
 20
149.7921682570393
 30
0.0
 10
155.258224882639
 20
149.7140247543391
 30
0.0
 10
155.0639521238913
 20
149.6548636528184
 30
0.0
 10
154.69518869734
 20
149.501431965924
 30
0.0
 10
154.5204635389618
 20
149.4077051560818
 30
0.0
 10
154.189786235428
 20
149.186451053677
 30
0.0
 10
154.0341386914251
 20
149.0584696866824
 30
0.0
 10
153.6146713217565
 20
148.6389145896823
 30
0.0
 10
153.3877831802262
 20
148.3004360309789
 30
0.0
 10
153.1589865568414
 20
147.7505571432607
 30
0.0
 10
153.0997943019925
 20
147.5571572975173
 30
0.0
 10
153.020986891732
 20
147.1629291471594
 30
0.0
 10
153.0013474754516
 20
146.964290319727
 30
0.0
 10
153.00108861103
 20
146.5639900338286
 30
0.0
 10
153.021159295663
 20
146.3606507071075
 30
0.0
 10
153.099496978293
 20
145.9685591865
 30
0.0
 10
153.1574467463314
 20
145.7778533181848
 30
0.0
 10
153.3113898882114
 20
145.4071295015982
 30
0.0
 10
153.4063285019341
 20
145.2304028417893
 30
0.0
 10
153.6266859178112
 20
144.901149730865
 30
0.0
 10
153.7539659437395
 20
144.7460285072685
 30
0.0
 10
154.0357215350701
 20
144.4643518123382
 30
0.0
 10
154.1885098645276
 20
144.3389186274338
 30
0.0
 10
154.5179369466845
 20
144.1181430340797
 30
0.0
 10
154.6964829498362
 20
144.0223117813795
 30
0.0
 10
155.0640552753864
 20
143.8694826508844
 30
0.0
 10
155.2542093020974
 20
143.8113108929402
 30
0.0
 10
155.6477497247998
 20
143.7323176005953
 30
0.0
 10
155.850183796061
 20
143.712254474953
 30
0.0
 10
156.2496128714264
 20
143.7120817288342
 30
0.0
 10
156.4496318499823
 20
143.7315651029236
 30
0.0
 10
156.8457477974317
 20
143.8105566745247
 30
0.0
 10
157.0364806256235
 20
143.8688368943767
 30
0.0
 10
157.4041120662032
 20
144.0214045149847
 30
0.0
 10
157.582598498371
 20
144.117013301758
 30
0.0
 10
157.912803757335
 20
144.338025346843
 30
0.0
 10
158.065692335397
 20
144.4634752456132
 30
0.0
 10
158.347288729935
 20
144.7447057346185
 30
0.0
 10
158.4749196528105
 20
144.9000886125324
 30
0.0
 10
158.6952450878103
 20
145.2289394705754
 30
0.0
 10
158.7894715447757
 20
145.4038275769894
 30
0.0
 10
158.9444060653788
 20
145.7759714283502
 30
0.0
 10
159.0024183509811
 20
145.9667774701591
 30
0.0
 10
159.0808376052592
 20
146.3576504880779
 30
0.0
 10
159.1011516852257
 20
146.5601080494602
 30
0.0
 10
159.1012828015297
 20
146.9622386543796
 30
0.0
 10
159.0816581081704
 20
147.1609626995547
 30
0.0
 10
159.0034916577567
 20
147.5538021706914
 30
0.0
 10
158.9442042124168
 20
147.7484464480939
 30
0.0
 10
158.7151233693339
 20
148.2998862015082
 30
0.0
 10
158.4882925184397
 20
148.6382257672073
 30
0.0
 10
158.0689538171191
 20
149.0578914298588
 30
0.0
 10
157.9136008213691
 20
149.1857374356321
 30
0.0
 10
157.5826329882319
 20
149.4073385103339
 30
0.0
 10
157.4080716880356
 20
149.5009792443108
 30
0.0
 10
157.0404983804607
 20
149.6541333650101
 30
0.0
 10
156.8458115188226
 20
149.7136371106561
 30
0.0
 10
156.4533355688862
 20
149.7921598597191
 30
0.0
 10
156.2538960524501
 20
149.8121678166559
 30
0.0
 10
155.8485387585545
 20
149.8121678166559
 30
0.0
  0
LINE
  5
120
330
1F
100
AcDbEntity
  8
0
  6
HIDDEN
 62
     7
370
     0
100
AcDbLine
 10
160.0512174055
 20
156.7621678134
 30
0.0
 11
160.0512174055
 21
136.7621678167
 31
0.0
  0
LINE
  5
121
330
1F
100
AcDbEntity
  8
0
  6
HIDDEN
 62
     7
370
     0
100
AcDbLine
 10
161.0512174055
 20
154.0121678167
 30
0.0
 11
161.0512174055
 21
139.5121678167
 31
0.0
  0
LINE
  5
122
330
1F
100
AcDbEntity
  8
0
  6
HIDDEN
 62
     7
370
     0
100
AcDbLine
 10
160.0512174055
 20
138.5121678167
 30
0.0
 11
160.0512174055
 21
154.9920712313
 31
0.0
  0
LINE
  5
123
330
1F
100
AcDbEntity
  8
0
  6
HIDDEN
 62
     7
370
     0
100
AcDbLine
 10
185.0512174055
 20
154.0121678167
 30
0.0
 11
185.0512174055
 21
139.5121678167
 31
0.0
  0
LINE
  5
124
330
1F
100
AcDbEntity
  8
0
  6
HIDDEN
 62
     7
370
     0
100
AcDbLine
 10
186.8537992626
 20
151.0121678167
 30
0.0
 11
186.8537992626
 21
142.5121678167
 31
0.0
  0
LINE
  5
125
330
1F
100
AcDbEntity
  8
0
  6
HIDDEN
 62
     7
370
     0
100
AcDbLine
 10
192.0512174055
 20
120.7621678167
 30
0.0
 11
191.0512174055
 21
121.7621678167
 31
0.0
  0
LINE
  5
126
330
1F
100
AcDbEntity
  8
0
  6
HIDDEN
 62
     7
370
     0
100
AcDbLine
 10
192.0512174055
 20
120.7621678167
 30
0.0
 11
191.0512174055
 21
121.7621678167
 31
0.0
  0
SPLINE
  5
127
330
1F
100
AcDbEntity
  8
0
  6
HIDDEN
 62
     7
370
     0
100
AcDbSpline
210
0.0
220
0.0
230
1.0
 70
    24
 71
     3
 72
    34
 73
    30
 74
     0
 42
0.00000001
 43
0.00000001
 12
1.0
 22
0.0
 32
0.0
 13
1.0
 23
0.0
 33
0.0
 40
0.0
 40
0.0
 40
0.0
 40
0.0
 40
0.1247027544240534
 40
0.249706175419552
 40
0.3098573401325187
 40
0.374743122823603
 40
0.4315711106418569
 40
0.4642555400858939
 40
0.4816653931717082
 40
0.4906372322231811
 40
0.4951898802033444
 40
0.4974828863458594
 40
0.4986335599599547
 40
0.4992099394032968
 40
0.4994983897841135
 40
0.4996426801393172
 40
0.4997148416081191
 40
0.4997509264153204
 40
0.4997689698371208
 40
0.499777991802571
 40
0.4997825028489337
 40
0.4997847583880249
 40
0.4997870139377215
 40
0.5068490112841794
 40
0.596912736223903
 40
0.6759915707792229
 40
0.7498759239492662
 40
0.8749137817861418
 40
1.0
 40
1.0
 40
1.0
 40
1.0
 10
191.7832842618277
 20
120.7621678166559
 30
0.0
 10
191.7850555056273
 20
120.7621678166559
 30
0.0
 10
191.7886022638122
 20
120.7621678166559
 30
0.0
 10
191.8115970558064
 20
120.7621678166559
 30
0.0
 10
191.8361997197436
 20
120.7621678166559
 30
0.0
 10
191.8569304476306
 20
120.7621678166559
 30
0.0
 10
191.8763579751682
 20
120.7621678166559
 30
0.0
 10
191.8903644114055
 20
120.7621678166559
 30
0.0
 10
191.8982344321732
 20
120.7621678166559
 30
0.0
 10
191.9023886712138
 20
120.7621678166559
 30
0.0
 10
191.9045208662982
 20
120.7621678166559
 30
0.0
 10
191.9056007661985
 20
120.7621678166559
 30
0.0
 10
191.9061441706615
 20
120.7621678166559
 30
0.0
 10
191.9064167370191
 20
120.7621678166559
 30
0.0
 10
191.9065532362901
 20
120.7621678166559
 30
0.0
 10
191.9066215399562
 20
120.7621678166559
 30
0.0
 10
191.9066557052979
 20
120.7621678166559
 30
0.0
 10
191.906672791346
 20
120.7621678166559
 30
0.0
 10
191.9066813352144
 20
120.7621678166559
 30
0.0
 10
191.9066856073597
 20
120.7621678166559
 30
0.0
 10
191.906687743485
 20
120.7621678166559
 30
0.0
 10
191.9066889641448
 20
120.7621678166559
 30
0.0
 10
191.9076450357549
 20
120.7621678166605
 30
0.0
 10
191.9208592713431
 20
120.7621678166267
 30
0.0
 10
191.9450605109935
 20
120.762167816667
 30
0.0
 10
191.9772752133372
 20
120.7621678166533
 30
0.0
 10
192.0104128787731
 20
120.7621678166571
 30
0.0
 10
192.0426153463561
 20
120.7621678166555
 30
0.0
 10
192.0483496828841
 20
120.7621678166558
 30
0.0
 10
192.0512174055023
 20
120.7621678166559
 30
0.0
  0
LINE
  5
128
330
1F
100
AcDbEntity
  8
0
  6
HIDDEN
 62
     7
370
     0
100
AcDbLine
 10
193.0512174055
 20
181.7621678167
 30
0.0
 11
193.0512174055
 21
156.7621678167
 31
0.0
  0
LINE
  5
129
330
1F
100
AcDbEntity
  8
0
  6
HIDDEN
 62
     7
370
     0
100
AcDbLine
 10
193.0512174055
 20
156.7621678167
 30
0.0
 11
203.0512174055
 21
156.7621678167
 31
0.0
  0
LINE
  5
12A
330
1F
100
AcDbEntity
  8
0
  6
HIDDEN
 62
     7
370
     0
100
AcDbLine
 10
203.0512174055
 20
181.7621678167
 30
0.0
 11
203.0512174055
 21
156.7621678167
 31
0.0
  0
LINE
  5
12B
330
1F
100
AcDbEntity
  8
0
  6
HIDDEN
 62
     7
370
     0
100
AcDbLine
 10
203.0512174055
 20
181.7621678167
 30
0.0
 11
193.0512174055
 21
181.7621678167
 31
0.0
  0
LINE
  5
12C
330
1F
100
AcDbEntity
  8
0
  6
HIDDEN
 62
     7
370
     0
100
AcDbLine
 10
228.0512174055
 20
142.5121678167
 30
0.0
 11
228.0512174055
 21
151.0121678167
 31
0.0
  0
LINE
  5
12D
330
1F
100
AcDbEntity
  8
0
  6
HIDDEN
 62
     7
370
     0
100
AcDbLine
 10
203.0512174055
 20
156.7621678167
 30
0.0
 11
258.0512174055
 21
156.7621678167
 31
0.0
  0
CIRCLE
  5
12E
330
1F
100
AcDbEntity
  8
0
  6
HIDDEN
 62
     7
370
     0
100
AcDbCircle
 10
250.0512174055
 20
169.2621678167
 30
0.0
 40
4.25
  0
CIRCLE
  5
12F
330
1F
100
AcDbEntity
  8
0
  6
HIDDEN
 62
     7
370
     0
100
AcDbCircle
 10
210.0512174055
 20
169.2621678167
 30
0.0
 40
4.25
  0
CIRCLE
  5
130
330
1F
100
AcDbEntity
  8
0
  6
HIDDEN
 62
     7
370
     0
100
AcDbCircle
 10
230.0512174055
 20
169.2621678167
 30
0.0
 40
4.25
  0
LINE
  5
131
330
1F
100
AcDbEntity
  8
0
  6
HIDDEN
 62
     7
370
     0
100
AcDbLine
 10
257.0512174055
 20
181.7621678167
 30
0.0
 11
258.0512174055
 21
180.7621678167
 31
0.0
  0
LINE
  5
132
330
1F
100
AcDbEntity
  8
0
  6
HIDDEN
 62
     7
370
     0
100
AcDbLine
 10
257.0512174055
 20
181.7621678167
 30
0.0
 11
203.0512174055
 21
181.7621678167
 31
0.0
  0
LINE
  5
133
330
1F
100
AcDbEntity
  8
0
  6
HIDDEN
 62
     7
370
     0
100
AcDbLine
 10
258.0512174055
 20
180.7621678167
 30
0.0
 11
258.0512174055
 21
156.7621678167
 31
0.0
  0
LINE
  5
134
330
1F
100
AcDbEntity
  8
0
  6
HIDDEN
 62
     7
370
     0
100
AcDbLine
 10
141.5512174055
 20
163.6215190586
 30
0.0
 11
141.5512174055
 21
158.8117403421
 31
0.0
  0
LINE
  5
135
330
1F
100
AcDbEntity
  8
0
  6
HIDDEN
 62
     7
370
     0
100
AcDbLine
 10
140.0512174055
 20
162.7554936548
 30
0.0
 11
140.0512174055
 21
158.3787276402
 31
0.0
  0
LINE
  5
136
330
1F
100
AcDbEntity
  8
0
  6
HIDDEN
 62
     7
370
     0
100
AcDbLine
 10
167.8512174055
 20
134.3822215199
 30
0.0
 11
167.8512174055
 21
129.2420690321
 31
0.0
  0
LINE
  5
137
330
1F
100
AcDbEntity
  8
0
  6
HIDDEN
 62
     7
370
     0
100
AcDbLine
 10
167.8512174055
 20
164.2822666012
 30
0.0
 11
167.8512174055
 21
159.1421141134
 31
0.0
  0
SPLINE
  5
138
330
1F
100
AcDbEntity
  8
0
  6
HIDDEN
 62
     7
370
     0
100
AcDbSpline
210
0.0
220
0.0
230
1.0
 70
     8
 71
     3
 72
    18
 73
    14
 74
     0
 42
0.00000001
 43
0.00000001
 12
1.0
 22
0.0
 32
0.0
 13
1.0
 23
0.0
 33
0.0
 40
0.0
 40
0.0
 40
0.0
 40
0.0
 40
0.2500000000000003
 40
0.2500000000000003
 40
0.3750000000000003
 40
0.3750000000000003
 40
0.5000000000000002
 40
0.5000000000000002
 40
0.6250000000000001
 40
0.6250000000000001
 40
0.7500000000000001
 40
0.7500000000000001
 40
1.0
 40
1.0
 40
1.0
 40
1.0
 10
168.7298970619427
 20
133.6671210931235
 30
0.0
 10
168.5946114556404
 20
133.0829194993918
 30
0.0
 10
168.4934437093974
 20
132.5487018121836
 30
0.0
 10
168.3905823665285
 20
131.8228050412952
 30
0.0
 10
168.3644795210052
 20
131.5929245535153
 30
0.0
 10
168.3295895374604
 20
131.1623536087285
 30
0.0
 10
168.3210032791704
 20
130.9646587032343
 30
0.0
 10
168.3209035696047
 20
130.6033106605565
 30
0.0
 10
168.3293919407533
 20
130.4396606506104
 30
0.0
 10
168.3635353202739
 20
130.1464493776414
 30
0.0
 10
168.3893323021277
 20
130.0164533115256
 30
0.0
 10
168.4927334335156
 20
129.6823974189637
 30
0.0
 10
168.594591425687
 20
129.5366212545989
 30
0.0
 10
168.7298970619427
 20
129.465257948651
 30
0.0
  0
SPLINE
  5
139
330
1F
100
AcDbEntity
  8
0
  6
HIDDEN
 62
     7
370
     0
100
AcDbSpline
210
0.0
220
0.0
230
1.0
 70
     8
 71
     3
 72
    18
 73
    14
 74
     0
 42
0.00000001
 43
0.00000001
 12
1.0
 22
0.0
 32
0.0
 13
1.0
 23
0.0
 33
0.0
 40
0.0
 40
0.0
 40
0.0
 40
0.0
 40
0.2499999999999998
 40
0.2499999999999998
 40
0.3749999999999997
 40
0.3749999999999997
 40
0.4999999999999996
 40
0.4999999999999996
 40
0.6249999999999994
 40
0.6249999999999994
 40
0.7499999999999993
 40
0.7499999999999993
 40
1.0
 40
1.0
 40
1.0
 40
1.0
 10
168.7298970619427
 20
164.0590776846607
 30
0.0
 10
168.5946114556404
 20
163.9877249429711
 30
0.0
 10
168.4934437093974
 20
163.8423215363817
 30
0.0
 10
168.3905823665285
 20
163.5128543007761
 30
0.0
 10
168.3644795210052
 20
163.3839207239714
 30
0.0
 10
168.3295895374604
 20
163.0883787246352
 30
0.0
 10
168.3210032791704
 20
162.9239839511133
 30
0.0
 10
168.3209035696047
 20
162.5630223363727
 30
0.0
 10
168.3293919407533
 20
162.3664525442105
 30
0.0
 10
168.3635353202739
 20
161.9410977480855
 30
0.0
 10
168.3893323021277
 20
161.7113280982859
 30
0.0
 10
168.4927334335156
 20
160.9787394038535
 30
0.0
 10
168.594591425687
 20
160.4415026289359
 30
0.0
 10
168.7298970619427
 20
159.8572145401883
 30
0.0
  0
LINE
  5
13A
330
1F
100
AcDbEntity
  8
0
  6
HIDDEN
 62
     7
370
     0
100
AcDbLine
 10
141.5512174055
 20
134.7125952912
 30
0.0
 11
141.5512174055
 21
129.9028165747
 31
0.0
  0
LINE
  5
13B
330
1F
100
AcDbEntity
  8
0
  6
HIDDEN
 62
     7
370
     0
100
AcDbLine
 10
140.0512174055
 20
135.1456079931
 30
0.0
 11
140.0512174055
 21
130.7688419785
 31
0.0
  0
LINE
  5
13C
330
1F
100
AcDbEntity
  8
0
  6
HIDDEN
 62
     7
370
     0
100
AcDbLine
 10
140.0512174055
 20
158.3787276402
 30
0.0
 11
140.0512174055
 21
149.1013387449
 31
0.0
  0
LINE
  5
13D
330
1F
100
AcDbEntity
  8
0
  6
HIDDEN
 62
     7
370
     0
100
AcDbLine
 10
140.0512174055
 20
144.4229968884
 30
0.0
 11
140.0512174055
 21
135.1456079931
 31
0.0
  0
LINE
  5
13E
330
1F
100
AcDbEntity
  8
0
  6
HIDDEN
 62
     7
370
     0
100
AcDbLine
 10
141.5512174055
 20
143.6136906983
 30
0.0
 11
141.5512174055
 21
134.7125952912
 31
0.0
  0
LINE
  5
13F
330
1F
100
AcDbEntity
  8
0
  6
HIDDEN
 62
     7
370
     0
100
AcDbLine
 10
141.5512174055
 20
158.8117403421
 30
0.0
 11
141.5512174055
 21
149.910644935
 31
0.0
  0
LINE
  5
140
330
1F
100
AcDbEntity
  8
0
  6
HIDDEN
 62
     7
370
     0
100
AcDbLine
 10
167.8512174055
 20
159.1421141134
 30
0.0
 11
167.8512174055
 21
134.3822215199
 31
0.0
  0
LINE
  5
141
330
1F
100
AcDbEntity
  8
0
  6
HIDDEN
 62
     7
370
     0
100
AcDbLine
 10
169.8512174055
 20
158.3244420498
 30
0.0
 11
169.8512174055
 21
135.1998935836
 31
0.0
  0
SPLINE
  5
142
330
1F
100
AcDbEntity
  8
0
  6
HIDDEN
 62
     7
370
     0
100
AcDbSpline
210
0.0
220
0.0
230
1.0
 70
     8
 71
     3
 72
     8
 73
     4
 74
     0
 42
0.00000001
 43
0.00000001
 12
1.0
 22
0.0
 32
0.0
 13
1.0
 23
0.0
 33
0.0
 40
0.0000202085968836
 40
0.0000202085968836
 40
0.0000202085968836
 40
0.0000202085968836
 40
0.0040218806502652
 40
0.0040218806502652
 40
0.0040218806502652
 40
0.0040218806502652
 10
141.5512174055023
 20
143.6136906983191
 30
0.0
 10
142.884540531293
 20
143.5896924671555
 30
0.0
 10
144.2178744045156
 20
143.5663647269872
 30
0.0
 10
145.5512174055024
 20
143.5436700562068
 30
0.0
  0
SPLINE
  5
143
330
1F
100
AcDbEntity
  8
0
  6
HIDDEN
 62
     7
370
     0
100
AcDbSpline
210
0.0
220
0.0
230
1.0
 70
     8
 71
     3
 72
     8
 73
     4
 74
     0
 42
0.00000001
 43
0.00000001
 12
1.0
 22
0.0
 32
0.0
 13
1.0
 23
0.0
 33
0.0
 40
0.0000202082942178
 40
0.0000202082942178
 40
0.0000202082942178
 40
0.0000202082942178
 40
0.0040218803475995
 40
0.0040218803475995
 40
0.0040218803475995
 40
0.0040218803475995
 10
145.5512174055024
 20
149.980665577105
 30
0.0
 10
144.2178744045156
 20
149.9579709063245
 30
0.0
 10
142.884540531293
 20
149.9346431661562
 30
0.0
 10
141.5512174055023
 20
149.9106449349926
 30
0.0
  0
SPLINE
  5
144
330
1F
100
AcDbEntity
  8
0
  6
HIDDEN
 62
     7
370
     0
100
AcDbSpline
210
0.0
220
0.0
230
1.0
 70
     8
 71
     3
 72
     8
 73
     4
 74
     0
 42
0.00000001
 43
0.00000001
 12
1.0
 22
0.0
 32
0.0
 13
1.0
 23
0.0
 33
0.0
 40
0.0
 40
0.0
 40
0.0
 40
0.0
 40
1.0
 40
1.0
 40
1.0
 40
1.0
 10
140.0512174055014
 20
144.4229968884215
 30
0.0
 10
140.5254288159394
 20
144.0882676611264
 30
0.0
 10
141.0301651630413
 20
143.8292092472934
 30
0.0
 10
141.5512174055023
 20
143.6136906983191
 30
0.0
  0
SPLINE
  5
145
330
1F
100
AcDbEntity
  8
0
  6
HIDDEN
 62
     7
370
     0
100
AcDbSpline
210
0.0
220
0.0
230
1.0
 70
     8
 71
     3
 72
     8
 73
     4
 74
     0
 42
0.00000001
 43
0.00000001
 12
1.0
 22
0.0
 32
0.0
 13
1.0
 23
0.0
 33
0.0
 40
0.0
 40
0.0
 40
0.0
 40
0.0
 40
1.0
 40
1.0
 40
1.0
 40
1.0
 10
141.5512174055023
 20
149.9106449349926
 30
0.0
 10
141.0301651630416
 20
149.6951263860184
 30
0.0
 10
140.52542881594
 20
149.4360679721857
 30
0.0
 10
140.0512174055023
 20
149.1013387448909
 30
0.0
  0
LINE
  5
146
330
1F
100
AcDbEntity
  8
0
  6
HIDDEN
 62
     7
370
     0
100
AcDbLine
 10
140.0512174055
 20
144.4229968884
 30
0.0
 11
140.0512174055
 21
149.1013387449
 31
0.0
  0
LINE
  5
147
330
1F
100
AcDbEntity
  8
0
  6
HIDDEN
 62
     7
370
     0
100
AcDbLine
 10
145.5512174055
 20
143.5436700562
 30
0.0
 11
145.5512174055
 21
149.9806655771
 31
0.0
  0
SPLINE
  5
148
330
1F
100
AcDbEntity
  8
0
  6
HIDDEN
 62
     7
370
     0
100
AcDbSpline
210
0.0
220
0.0
230
1.0
 70
     8
 71
     3
 72
    26
 73
    22
 74
     0
 42
0.00000001
 43
0.00000001
 12
1.0
 22
0.0
 32
0.0
 13
1.0
 23
0.0
 33
0.0
 40
0.0
 40
0.0
 40
0.0
 40
0.0
 40
0.1250000000000002
 40
0.1250000000000002
 40
0.2500000000000005
 40
0.2500000000000005
 40
0.3750000000000006
 40
0.3750000000000006
 40
0.4375000000000007
 40
0.4375000000000007
 40
0.5000000000000008
 40
0.5000000000000008
 40
0.5625000000000009
 40
0.5625000000000009
 40
0.625000000000001
 40
0.625000000000001
 40
0.7500000000000007
 40
0.7500000000000007
 40
0.8750000000000004
 40
0.8750000000000004
 40
1.0
 40
1.0
 40
1.0
 40
1.0
 10
145.5512174055024
 20
143.5436700562068
 30
0.0
 10
145.7618607675023
 20
143.7782870871519
 30
0.0
 10
145.9690572052593
 20
144.0161702231113
 30
0.0
 10
146.3705563398917
 20
144.5034845293802
 30
0.0
 10
146.5658327589377
 20
144.7536097541692
 30
0.0
 10
146.9256132516331
 20
145.2721998996201
 30
0.0
 10
147.0908721117825
 20
145.539630883507
 30
0.0
 10
147.2835300212086
 20
145.9710460159055
 30
0.0
 10
147.3384947614187
 20
146.1210648978299
 30
0.0
 10
147.4162305463829
 20
146.4338020765599
 30
0.0
 10
147.4374966846911
 20
146.5915563233671
 30
0.0
 10
147.4393906139769
 20
146.9102616032129
 30
0.0
 10
147.4191648769098
 20
147.0726984033934
 30
0.0
 10
147.344700466624
 20
147.3836504029761
 30
0.0
 10
147.2910613408781
 20
147.5343216413038
 30
0.0
 10
147.0963170354774
 20
147.9764053992724
 30
0.0
 10
146.9292669222991
 20
148.2464494124401
 30
0.0
 10
146.5690108035955
 20
148.7665570407215
 30
0.0
 10
146.3742584285751
 20
149.0162182535312
 30
0.0
 10
145.9712492041028
 20
149.5056423653739
 30
0.0
 10
145.7628126857393
 20
149.7449882885379
 30
0.0
 10
145.5512174055033
 20
149.9806655771058
 30
0.0
  0
SPLINE
  5
149
330
1F
100
AcDbEntity
  8
0
  6
HIDDEN
 62
     7
370
     0
100
AcDbSpline
210
0.0
220
0.0
230
1.0
 70
     8
 71
     3
 72
    68
 73
    64
 74
     0
 42
0.00000001
 43
0.00000001
 12
1.0
 22
0.0
 32
0.0
 13
1.0
 23
0.0
 33
0.0
 40
-0.0312500000000001
 40
-0.0312500000000001
 40
0.0
 40
0.0
 40
0.0312499999999999
 40
0.0312499999999999
 40
0.0624999999999999
 40
0.0624999999999999
 40
0.0937499999999998
 40
0.0937499999999998
 40
0.1249999999999998
 40
0.1249999999999998
 40
0.1874999999999996
 40
0.1874999999999996
 40
0.2187499999999996
 40
0.2187499999999996
 40
0.2499999999999995
 40
0.2499999999999995
 40
0.2812499999999994
 40
0.2812499999999994
 40
0.3124999999999994
 40
0.3124999999999994
 40
0.3437499999999993
 40
0.3437499999999993
 40
0.3749999999999992
 40
0.3749999999999992
 40
0.4062499999999992
 40
0.4062499999999992
 40
0.4374999999999991
 40
0.4374999999999991
 40
0.4687499999999991
 40
0.4687499999999991
 40
0.499999999999999
 40
0.499999999999999
 40
0.5312499999999989
 40
0.5312499999999989
 40
0.5624999999999989
 40
0.5624999999999989
 40
0.5937499999999988
 40
0.5937499999999988
 40
0.6249999999999988
 40
0.6249999999999988
 40
0.6562499999999987
 40
0.6562499999999987
 40
0.6874999999999987
 40
0.6874999999999987
 40
0.7187499999999986
 40
0.7187499999999986
 40
0.7499999999999987
 40
0.7499999999999987
 40
0.7812499999999989
 40
0.7812499999999989
 40
0.812499999999999
 40
0.812499999999999
 40
0.8437499999999992
 40
0.8437499999999992
 40
0.8749999999999993
 40
0.8749999999999993
 40
0.9062499999999996
 40
0.9062499999999996
 40
0.9374999999999997
 40
0.9374999999999997
 40
0.9687499999999999
 40
0.9687499999999999
 40
1.0
 40
1.0
 40
1.03125
 40
1.03125
 10
153.4350436928388
 20
148.6589853932725
 30
0.0
 10
153.7255081751306
 20
148.977417634273
 30
0.0
 10
153.8844244735121
 20
149.1199351599767
 30
0.0
 10
154.2280051591499
 20
149.3736496970664
 30
0.0
 10
154.4141765120556
 20
149.4852135235754
 30
0.0
 10
154.7987065846414
 20
149.6694625602444
 30
0.0
 10
154.9983170868061
 20
149.7433768263332
 30
0.0
 10
155.4121566717796
 20
149.8550187158934
 30
0.0
 10
155.6249664814509
 20
149.8919427701822
 30
0.0
 10
156.2608979557916
 20
149.9445445907577
 30
0.0
 10
156.6959641764193
 20
149.9023362000975
 30
0.0
 10
157.308207043407
 20
149.7285015949021
 30
0.0
 10
157.508052131519
 20
149.6518833670901
 30
0.0
 10
157.8924294402471
 20
149.4617084987471
 30
0.0
 10
158.0729778311097
 20
149.3503490645285
 30
0.0
 10
158.4110377588192
 20
149.0952437958062
 30
0.0
 10
158.5700695752305
 20
148.9497380076135
 30
0.0
 10
158.8548662554529
 20
148.6314993534406
 30
0.0
 10
158.9798117843278
 20
148.4604470349215
 30
0.0
 10
159.1941139247415
 20
148.0938864488084
 30
0.0
 10
159.2840127039162
 20
147.8958177150057
 30
0.0
 10
159.4176649930452
 20
147.4912349617963
 30
0.0
 10
159.4626729283592
 20
147.2836197817792
 30
0.0
 10
159.5074524089766
 20
146.8573300253504
 30
0.0
 10
159.5063787479608
 20
146.640691727402
 30
0.0
 10
159.4583589542453
 20
146.2177317004447
 30
0.0
 10
159.4109459770205
 20
146.0067350151853
 30
0.0
 10
159.2726307282038
 20
145.6009462997535
 30
0.0
 10
159.1829498699816
 20
145.407999641091
 30
0.0
 10
158.9642671596544
 20
145.0410930181075
 30
0.0
 10
158.8348194418258
 20
144.8675878698855
 30
0.0
 10
158.5483138377963
 20
144.5535857718948
 30
0.0
 10
158.3894550195583
 20
144.4104828454405
 30
0.0
 10
158.0444571976054
 20
144.1551519295875
 30
0.0
 10
157.8622400934851
 20
144.045619751987
 30
0.0
 10
157.4794000168461
 20
143.8606929251987
 30
0.0
 10
157.2766557917729
 20
143.7848770983573
 30
0.0
 10
156.8648272173096
 20
143.6722966061152
 30
0.0
 10
156.65560844071
 20
143.6349563865305
 30
0.0
 10
156.2306156064756
 20
143.5977253670004
 30
0.0
 10
156.0134583294024
 20
143.598291330932
 30
0.0
 10
155.5890804902492
 20
143.6376890348214
 30
0.0
 10
155.3799638423995
 20
143.6761182694557
 30
0.0
 10
154.9680228535055
 20
143.791323303993
 30
0.0
 10
154.7654547486125
 20
143.8685882344975
 30
0.0
 10
154.3838543061451
 20
144.0562705046294
 30
0.0
 10
154.2025433702659
 20
144.1671838564414
 30
0.0
 10
153.8599514733319
 20
144.4251372951722
 30
0.0
 10
153.7011278563777
 20
144.5708529907816
 30
0.0
 10
153.4180830772774
 20
144.8871741484911
 30
0.0
 10
153.2920731452915
 20
145.0592078598903
 30
0.0
 10
153.0749661014766
 20
145.4317504378793
 30
0.0
 10
152.9875308052027
 20
145.6258722231533
 30
0.0
 10
152.8543375246552
 20
146.0296469522328
 30
0.0
 10
152.8084369425506
 20
146.2421438788404
 30
0.0
 10
152.7641204016167
 20
146.6677397396985
 30
0.0
 10
152.7649625890992
 20
146.8805735779677
 30
0.0
 10
152.8128012835201
 20
147.3063133077976
 30
0.0
 10
152.8603371389893
 20
147.5180754732108
 30
0.0
 10
152.9970757342172
 20
147.9215650076681
 30
0.0
 10
153.0873592794929
 20
148.1173236286211
 30
0.0
 10
153.3070701717579
 20
148.4869238553693
 30
0.0
 10
153.4350436928388
 20
148.6589853932725
 30
0.0
 10
153.7255081751306
 20
148.977417634273
 30
0.0
  0
CIRCLE
  5
14A
330
1F
100
AcDbEntity
  8
0
  6
HIDDEN
 62
     7
370
     0
100
AcDbCircle
 10
156.0512174055
 20
146.7621678167
 30
0.0
 40
3.050000000000011
  0
CIRCLE
  5
14B
330
1F
100
AcDbEntity
  8
0
  6
HIDDEN
 62
     7
370
     0
100
AcDbCircle
 10
182.0512174055
 20
146.7621678167
 30
0.0
 40
2.0
  0
LINE
  5
14C
330
1F
100
AcDbEntity
  8
0
  6
HIDDEN
 62
     7
370
     0
100
AcDbLine
 10
258.0512174055
 20
140.9886651248
 30
0.0
 11
258.0512174055
 21
156.7621678167
 31
0.0
  0
LINE
  5
14D
330
1F
100
AcDbEntity
  8
0
  6
HIDDEN
 62
     7
370
     0
100
AcDbLine
 10
203.0512174055
 20
156.7621678167
 30
0.0
 11
193.0512174055
 21
156.7621678167
 31
0.0
  0
LINE
  5
14E
330
1F
100
AcDbEntity
  8
0
  6
HIDDEN
 62
     7
370
     0
100
AcDbLine
 10
193.0512174055
 20
181.7621678167
 30
0.0
 11
203.0512174055
 21
181.7621678167
 31
0.0
  0
LINE
  5
14F
330
1F
100
AcDbEntity
  8
0
  6
HIDDEN
 62
     7
370
     0
100
AcDbLine
 10
192.0512174055
 20
120.7621678167
 30
0.0
 11
191.0512174055
 21
121.7621678167
 31
0.0
  0
LINE
  5
150
330
1F
100
AcDbEntity
  8
0
  6
HIDDEN
 62
     7
370
     0
100
AcDbLine
 10
191.0512174055
 20
136.176381379
 30
0.0
 11
191.0512174055
 21
121.7621678167
 31
0.0
  0
LINE
  5
151
330
1F
100
AcDbEntity
  8
0
  6
HIDDEN
 62
     7
370
     0
100
AcDbLine
 10
192.0512174055
 20
120.7621678167
 30
0.0
 11
192.0512174055
 21
135.7621678167
 31
0.0
  0
LINE
  5
152
330
1F
100
AcDbEntity
  8
0
  6
HIDDEN
 62
     7
370
     0
100
AcDbLine
 10
192.0512174055
 20
120.7621678167
 30
0.0
 11
223.0178964087
 21
120.7621678167
 31
0.0
  0
LINE
  5
153
330
1F
100
AcDbEntity
  8
0
  6
HIDDEN
 62
     7
370
     0
100
AcDbLine
 10
223.0178964087
 20
120.7621678167
 30
0.0
 11
248.9986585222
 21
135.7621678167
 31
0.0
  0
SPLINE
  5
154
330
1F
100
AcDbEntity
  8
0
  6
HIDDEN
 62
     7
370
     0
100
AcDbSpline
210
0.0
220
0.0
230
1.0
 70
     8
 71
     3
 72
    22
 73
    18
 74
     0
 42
0.00000001
 43
0.00000001
 12
1.0
 22
0.0
 32
0.0
 13
1.0
 23
0.0
 33
0.0
 40
0.0
 40
0.0
 40
0.0
 40
0.0
 40
0.2500000000000082
 40
0.2500000000000082
 40
0.3750000000000087
 40
0.3750000000000087
 40
0.4375000000000093
 40
0.4375000000000093
 40
0.5000000000000099
 40
0.5000000000000099
 40
0.5625000000000104
 40
0.5625000000000104
 40
0.6250000000000111
 40
0.6250000000000111
 40
0.7500000000000068
 40
0.7500000000000068
 40
1.0
 40
1.0
 40
1.0
 40
1.0
 10
192.0512174055023
 20
161.9690741424014
 30
0.0
 10
191.9749207224935
 20
162.1948498959867
 30
0.0
 10
191.8911877813181
 20
162.4140864794804
 30
0.0
 10
191.739202375765
 20
162.7197384887685
 30
0.0
 10
191.6835348754638
 20
162.8190722700039
 30
0.0
 10
191.587432404044
 20
162.9493143371483
 30
0.0
 10
191.553340391849
 20
162.9896095178081
 30
0.0
 10
191.4773071751885
 20
163.0570024598372
 30
0.0
 10
191.4354941705047
 20
163.0837423215898
 30
0.0
 10
191.3473977854152
 20
163.0991420624828
 30
0.0
 10
191.3007763327202
 20
163.0834819037964
 30
0.0
 10
191.2270840413689
 20
163.0113155669608
 30
0.0
 10
191.1992073143304
 20
162.9594370311608
 30
0.0
 10
191.1333931788112
 20
162.7948729383757
 30
0.0
 10
191.1099355994924
 20
162.6712186658322
 30
0.0
 10
191.0586417206158
 20
162.3040206113649
 30
0.0
 10
191.0512174055023
 20
162.0541044676192
 30
0.0
 10
191.0512174055023
 20
161.8037767731472
 30
0.0
  0
SPLINE
  5
155
330
1F
100
AcDbEntity
  8
0
  6
HIDDEN
 62
     7
370
     0
100
AcDbSpline
210
0.0
220
0.0
230
1.0
 70
    24
 71
     3
 72
    18
 73
    14
 74
     0
 42
0.00000001
 43
0.00000001
 12
1.0
 22
0.0
 32
0.0
 13
1.0
 23
0.0
 33
0.0
 40
0.0
 40
0.0
 40
0.0
 40
0.0
 40
0.1250000000000006
 40
0.1250000000000006
 40
0.2500000000000013
 40
0.2500000000000013
 40
0.3750000000000019
 40
0.3750000000000019
 40
0.5000000000000026
 40
0.5000000000000026
 40
0.7500000000000012
 40
0.7500000000000012
 40
1.0
 40
1.0
 40
1.0
 40
1.0
 10
191.0512174055023
 20
180.7621678166558
 30
0.0
 10
191.0512174055023
 20
180.7621678166558
 30
0.0
 10
191.0558771060738
 20
180.7668275172273
 30
0.0
 10
191.079384593658
 20
180.7903350048115
 30
0.0
 10
191.0983286036758
 20
180.8092790148293
 30
0.0
 10
191.1570775533945
 20
180.8680279645481
 30
0.0
 10
191.1976100321234
 20
180.908560443277
 30
0.0
 10
191.2960251742192
 20
181.0069755853727
 30
0.0
 10
191.3533773215826
 20
181.0643277327361
 30
0.0
 10
191.5283827349695
 20
181.239333146123
 30
0.0
 10
191.6460790847564
 20
181.3570294959099
 30
0.0
 10
191.8592448017664
 20
181.5701952129199
 30
0.0
 10
191.958452510628
 20
181.6694029217815
 30
0.0
 10
192.0512174055028
 20
181.7621678166564
 30
0.0
  0
LINE
  5
156
330
1F
100
AcDbEntity
  8
0
  6
HIDDEN
 62
     7
370
     0
100
AcDbLine
 10
191.0512174055
 20
180.7621678167
 30
0.0
 11
191.0512174055
 21
161.8037767731
 31
0.0
  0
LINE
  5
157
330
1F
100
AcDbEntity
  8
0
  6
HIDDEN
 62
     7
370
     0
100
AcDbLine
 10
268.0512174055
 20
180.7621678167
 30
0.0
 11
268.0512174055
 21
161.9690741424
 31
0.0
  0
LINE
  5
158
330
1F
100
AcDbEntity
  8
0
  6
HIDDEN
 62
     7
370
     0
100
AcDbLine
 10
267.0512174055
 20
181.7621678167
 30
0.0
 11
268.0512174055
 21
180.7621678167
 31
0.0
  0
LINE
  5
159
330
1F
100
AcDbEntity
  8
0
  6
HIDDEN
 62
     7
370
     0
100
AcDbLine
 10
192.0512174055
 20
181.7621678167
 30
0.0
 11
267.0512174055
 21
181.7621678167
 31
0.0
  0
LINE
  5
15A
330
1F
100
AcDbEntity
  8
0
  6
HIDDEN
 62
     7
370
     0
100
AcDbLine
 10
192.0512174055
 20
135.7621678167
 30
0.0
 11
191.0512174055
 21
136.176381379
 31
0.0
  0
LINE
  5
15B
330
1F
100
AcDbEntity
  8
0
  6
HIDDEN
 62
     7
370
     0
100
AcDbLine
 10
191.0512174055
 20
161.8037767731
 30
0.0
 11
191.0512174055
 21
136.176381379
 31
0.0
  0
LINE
  5
15C
330
1F
100
AcDbEntity
  8
0
  6
HIDDEN
 62
     7
370
     0
100
AcDbLine
 10
192.0512174055
 20
135.7621678167
 30
0.0
 11
192.0512174055
 21
161.9690741424
 31
0.0
  0
LINE
  5
15D
330
1F
100
AcDbEntity
  8
0
  6
HIDDEN
 62
     7
370
     0
100
AcDbLine
 10
268.0512174055
 20
161.9690741424
 30
0.0
 11
192.0512174055
 21
161.9690741424
 31
0.0
  0
LINE
  5
15E
330
1F
100
AcDbEntity
  8
0
  6
HIDDEN
 62
     7
370
     0
100
AcDbLine
 10
192.0512174055
 20
135.7621678167
 30
0.0
 11
248.9986585222
 21
135.7621678167
 31
0.0
  0
LINE
  5
15F
330
1F
100
AcDbEntity
  8
0
  6
HIDDEN
 62
     7
370
     0
100
AcDbLine
 10
268.0512174055
 20
146.7621678167
 30
0.0
 11
268.0512174055
 21
161.9690741424
 31
0.0
  0
LINE
  5
160
330
1F
100
AcDbEntity
  8
0
  6
HIDDEN
 62
     7
370
     0
100
AcDbLine
 10
268.0512174055
 20
146.7621678167
 30
0.0
 11
248.9986585222
 21
135.7621678167
 31
0.0
  0
LINE
  5
161
330
1F
100
AcDbEntity
  8
0
  6
HIDDEN
 62
     7
370
     0
100
AcDbLine
 10
170.0512174055
 20
127.2121678167
 30
0.0
 11
170.1441106243
 21
127.3050610355
 31
0.0
  0
LINE
  5
162
330
1F
100
AcDbEntity
  8
0
  6
HIDDEN
 62
     7
370
     0
100
AcDbLine
 10
170.1441106243
 20
166.2192745978
 30
0.0
 11
170.0512174055
 21
166.3121678167
 31
0.0
  0
ARC
  5
163
330
1F
100
AcDbEntity
  8
0
  6
HIDDEN
 62
     7
370
     0
100
AcDbCircle
 10
169.4370038431
 20
128.0121678167
 30
0.0
 40
1.0
100
AcDbArc
 50
315.0
 51
0.0
  0
ARC
  5
164
330
1F
100
AcDbEntity
  8
0
  6
HIDDEN
 62
     7
370
     0
100
AcDbCircle
 10
169.4370038431
 20
128.0121678167
 30
0.0
 40
1.000000000000004
100
AcDbArc
 50
0.0
 51
52.1052014664
  0
ARC
  5
165
330
1F
100
AcDbEntity
  8
0
  6
HIDDEN
 62
     7
370
     0
100
AcDbCircle
 10
169.4370038431
 20
165.5121678167
 30
0.0
 40
1.000000000000006
100
AcDbArc
 50
351.8087250651
 51
45.0
  0
ARC
  5
166
330
1F
100
AcDbEntity
  8
0
  6
HIDDEN
 62
     7
370
     0
100
AcDbCircle
 10
169.4370038431
 20
165.5121678167
 30
0.0
 40
1.000000000000006
100
AcDbArc
 50
307.8947985336
 51
351.8087250651
  0
LINE
  5
167
330
1F
100
AcDbEntity
  8
0
  6
HIDDEN
 62
     7
370
     0
100
AcDbLine
 10
170.4370038431
 20
128.0121678167
 30
0.0
 11
170.4370038431
 21
165.5121678167
 31
0.0
  0
LINE
  5
168
330
1F
100
AcDbEntity
  8
0
  6
HIDDEN
 62
     7
370
     0
100
AcDbLine
 10
170.4370038431
 20
128.0121678167
 30
0.0
 11
170.4370038431
 21
165.5121678167
 31
0.0
  0
LINE
  5
169
330
1F
100
AcDbEntity
  8
0
  6
HIDDEN
 62
     7
370
     0
100
AcDbLine
 10
258.0512174055
 20
157.7621678167
 30
0.0
 11
250.0512174055
 21
157.7621678167
 31
0.0
  0
LINE
  5
16A
330
1F
100
AcDbEntity
  8
0
  6
HIDDEN
 62
     7
370
     0
100
AcDbLine
 10
250.0512174055
 20
145.7621678167
 30
0.0
 11
258.0512174055
 21
145.7621678167
 31
0.0
  0
LINE
  5
16B
330
1F
100
AcDbEntity
  8
0
  6
HIDDEN
 62
     7
370
     0
100
AcDbLine
 10
250.0512174055
 20
153.4980292332
 30
0.0
 11
225.0681714771
 21
150.0006888181
 31
0.0
  0
LINE
  5
16C
330
1F
100
AcDbEntity
  8
0
  6
HIDDEN
 62
     7
370
     0
100
AcDbLine
 10
228.3658150264
 20
146.2213675601
 30
0.0
 11
250.0512174055
 21
149.2570756309
 31
0.0
  0
ARC
  5
16D
330
1F
100
AcDbEntity
  8
0
  6
HIDDEN
 62
     7
370
     0
100
AcDbCircle
 10
146.5512174055
 20
136.2621678167
 30
0.0
 40
1.5
100
AcDbArc
 50
191.0958032831
 51
270.0
  0
ARC
  5
16E
330
1F
100
AcDbEntity
  8
0
  6
HIDDEN
 62
     7
370
     0
100
AcDbCircle
 10
146.5512174055
 20
157.2621678167
 30
0.0
 40
1.5
100
AcDbArc
 50
90.0
 51
168.9041967169
  0
ARC
  5
16F
330
1F
100
AcDbEntity
  8
0
  6
HIDDEN
 62
     7
370
     0
100
AcDbCircle
 10
147.5579369176
 20
136.2621678167
 30
0.0
 40
1.5
100
AcDbArc
 50
270.0
 51
315.0
  0
ARC
  5
170
330
1F
100
AcDbEntity
  8
0
  6
HIDDEN
 62
     7
370
     0
100
AcDbCircle
 10
147.5579369176
 20
157.2621678167
 30
0.0
 40
1.500000000000012
100
AcDbArc
 50
45.0
 51
90.0
  0
LINE
  5
171
330
1F
100
AcDbEntity
  8
0
  6
HIDDEN
 62
     7
370
     0
100
AcDbLine
 10
146.5512174055
 20
134.7621678167
 30
0.0
 11
147.5579369176
 21
134.7621678167
 31
0.0
  0
LINE
  5
172
330
1F
100
AcDbEntity
  8
0
  6
HIDDEN
 62
     7
370
     0
100
AcDbLine
 10
147.5579369176
 20
158.7621678167
 30
0.0
 11
146.5512174055
 21
158.7621678167
 31
0.0
  0
LINE
  5
173
330
1F
100
AcDbEntity
  8
0
  6
HIDDEN
 62
     7
370
     0
100
AcDbLine
 10
140.0512174055
 20
134.9987557482
 30
0.0
 11
141.0792572611
 21
135.5922948356
 31
0.0
  0
LINE
  5
174
330
1F
100
AcDbEntity
  8
0
  6
HIDDEN
 62
     7
370
     0
100
AcDbLine
 10
141.0792572611
 20
157.9320407977
 30
0.0
 11
140.0512174055
 21
158.5255798851
 31
0.0
  0
LINE
  5
175
330
1F
100
AcDbEntity
  8
0
  6
HIDDEN
 62
     7
370
     0
100
AcDbLine
 10
148.6185970893
 20
135.2015076449
 30
0.0
 11
149.6792572611
 21
136.2621678167
 31
0.0
  0
LINE
  5
176
330
1F
100
AcDbEntity
  8
0
  6
HIDDEN
 62
     7
370
     0
100
AcDbLine
 10
149.6792572611
 20
157.2621678167
 30
0.0
 11
148.6185970893
 21
158.3228279884
 31
0.0
  0
LINE
  5
177
330
1F
100
AcDbEntity
  8
0
  6
HIDDEN
 62
     7
370
     0
100
AcDbLine
 10
141.0792572611
 20
135.5922948356
 30
0.0
 11
143.5792572611
 21
136.2621678167
 31
0.0
  0
LINE
  5
178
330
1F
100
AcDbEntity
  8
0
  6
HIDDEN
 62
     7
370
     0
100
AcDbLine
 10
143.5792572611
 20
157.2621678167
 30
0.0
 11
141.0792572611
 21
157.9320407977
 31
0.0
  0
LINE
  5
179
330
1F
100
AcDbEntity
  8
0
  6
HIDDEN
 62
     7
370
     0
100
AcDbLine
 10
145.0792572611
 20
157.5508429513
 30
0.0
 11
144.5792572611
 21
157.2621678167
 31
0.0
  0
LINE
  5
17A
330
1F
100
AcDbEntity
  8
0
  6
HIDDEN
 62
     7
370
     0
100
AcDbLine
 10
144.5792572611
 20
136.2621678167
 30
0.0
 11
145.0792572611
 21
135.9734926821
 31
0.0
  0
LINE
  5
17B
330
1F
100
AcDbEntity
  8
0
  6
HIDDEN
 62
     7
370
     0
100
AcDbLine
 10
149.6792572611
 20
136.2621678167
 30
0.0
 11
159.5512174055
 21
136.2621678167
 31
0.0
  0
LINE
  5
17C
330
1F
100
AcDbEntity
  8
0
  6
HIDDEN
 62
     7
370
     0
100
AcDbLine
 10
159.5512174055
 20
157.2621678167
 30
0.0
 11
149.6792572611
 21
157.2621678167
 31
0.0
  0
LINE
  5
17D
330
1F
100
AcDbEntity
  8
0
  6
HIDDEN
 62
     7
370
     0
100
AcDbLine
 10
143.5792572611
 20
136.2621678167
 30
0.0
 11
144.5792572611
 21
136.2621678167
 31
0.0
  0
LINE
  5
17E
330
1F
100
AcDbEntity
  8
0
  6
HIDDEN
 62
     7
370
     0
100
AcDbLine
 10
144.5792572611
 20
157.2621678167
 30
0.0
 11
143.5792572611
 21
157.2621678167
 31
0.0
  0
ARC
  5
17F
330
1F
100
AcDbEntity
  8
0
  6
HIDDEN
 62
     7
370
     0
100
AcDbCircle
 10
159.5512174055
 20
136.7621678167
 30
0.0
 40
0.5
100
AcDbArc
 50
270.0
 51
0.0
  0
ARC
  5
180
330
1F
100
AcDbEntity
  8
0
  6
HIDDEN
 62
     7
370
     0
100
AcDbCircle
 10
159.5512174055
 20
156.7621678167
 30
0.0
 40
0.5
100
AcDbArc
 50
0.0
 51
90.0
  0
LINE
  5
181
330
1F
100
AcDbEntity
  8
0
  6
HIDDEN
 62
     7
370
     0
100
AcDbLine
 10
160.0512174055
 20
138.5121678167
 30
0.0
 11
161.0512174055
 21
139.5121678167
 31
0.0
  0
LINE
  5
182
330
1F
100
AcDbEntity
  8
0
  6
HIDDEN
 62
     7
370
     0
100
AcDbLine
 10
161.0512174055
 20
154.0121678167
 30
0.0
 11
160.0512174055
 21
155.0121678167
 31
0.0
  0
LINE
  5
183
330
1F
100
AcDbEntity
  8
0
  6
HIDDEN
 62
     7
370
     0
100
AcDbLine
 10
161.0512174055
 20
139.5121678167
 30
0.0
 11
185.0512174055
 21
139.5121678167
 31
0.0
  0
LINE
  5
184
330
1F
100
AcDbEntity
  8
0
  6
HIDDEN
 62
     7
370
     0
100
AcDbLine
 10
185.0512174055
 20
154.0121678167
 30
0.0
 11
161.0512174055
 21
154.0121678167
 31
0.0
  0
LINE
  5
185
330
1F
100
AcDbEntity
  8
0
  6
HIDDEN
 62
     7
370
     0
100
AcDbLine
 10
185.0512174055
 20
139.5121678167
 30
0.0
 11
186.8537992626
 21
142.5121678167
 31
0.0
  0
LINE
  5
186
330
1F
100
AcDbEntity
  8
0
  6
HIDDEN
 62
     7
370
     0
100
AcDbLine
 10
186.8537992626
 20
151.0121678167
 30
0.0
 11
185.0512174055
 21
154.0121678167
 31
0.0
  0
LINE
  5
187
330
1F
100
AcDbEntity
  8
0
  6
HIDDEN
 62
     7
370
     0
100
AcDbLine
 10
186.8537992626
 20
142.5121678167
 30
0.0
 11
228.0512174055
 21
142.5121678167
 31
0.0
  0
LINE
  5
188
330
1F
100
AcDbEntity
  8
0
  6
HIDDEN
 62
     7
370
     0
100
AcDbLine
 10
228.0512174055
 20
151.0121678167
 30
0.0
 11
186.8537992626
 21
151.0121678167
 31
0.0
  0
LINE
  5
189
330
1F
100
AcDbEntity
  8
0
  6
HIDDEN
 62
     7
370
     0
100
AcDbLine
 10
228.0512174055
 20
142.5121678167
 30
0.0
 11
230.6048750364
 21
146.7621678167
 31
0.0
  0
LINE
  5
18A
330
1F
100
AcDbEntity
  8
0
  6
HIDDEN
 62
     7
370
     0
100
AcDbLine
 10
230.6048750364
 20
146.7621678167
 30
0.0
 11
228.0512174055
 21
151.0121678167
 31
0.0
  0
LINE
  5
18B
330
1F
100
AcDbEntity
  8
VERMASSUNG
  6
CENTERX2
100
AcDbLine
 10
136.5706935888
 20
146.7621678167
 30
0.0
 11
273.8271869541
 21
146.7621678167
 31
0.0
  0
DIMENSION
  5
18C
330
1F
100
AcDbEntity
  8
VERMASSUNG
100
AcDbDimension
  2
_D
 10
247.2666077147
 20
134.7621678167
 30
0.0
 11
241.1848434516
 21
125.6371829427
 31
0.0
 70
   162
  1
<>
 71
     1
 42
-1.0
  3
SLDDIMSTYLE0
100
AcDb2LineAngularDimension
 13
273.8271869541
 23
146.7621678167
 33
0.0
 14
136.5706935888
 24
146.7621678167
 34
0.0
 15
223.0178964087
 25
120.7621678167
 35
0.0
 16
235.03877459
 26
137.9165104241
 36
0.0
  0
DIMENSION
  5
196
330
1F
100
AcDbEntity
  8
VERMASSUNG
100
AcDbDimension
  2
_D_1
 10
268.0512174055
 20
186.7621678167
 30
0.0
 11
219.0512174055
 21
186.7621678167
 31
0.0
 70
   160
  1
<>
 71
     2
 42
-1.0
  3
SLDDIMSTYLE1
100
AcDbAlignedDimension
 13
170.0512174055
 23
171.4621678167
 33
0.0
 14
268.0512174055
 24
180.7621678167
 34
0.0
100
AcDbRotatedDimension
  0
DIMENSION
  5
1A1
330
1F
100
AcDbEntity
  8
VERMASSUNG
100
AcDbDimension
  2
_D_2
 10
268.0512174055
 20
192.7621678167
 30
0.0
 11
204.0512174055
 21
192.7621678167
 31
0.0
 70
   160
  1
<>
 71
     2
 42
-1.0
  3
SLDDIMSTYLE1
100
AcDbAlignedDimension
 13
140.0512174055
 23
162.7554936548
 33
0.0
 14
268.0512174055
 24
180.7621678167
 34
0.0
100
AcDbRotatedDimension
  0
DIMENSION
  5
1AB
330
1F
100
AcDbEntity
  8
VERMASSUNG
100
AcDbDimension
  2
_D_3
 10
130.0512174055
 20
121.7621678167
 30
0.0
 11
130.0512174055
 21
146.7621678167
 31
0.0
 70
   160
  1
PSC%%c<>
 71
     2
 42
-1.0
  3
SLDDIMSTYLE1
100
AcDbAlignedDimension
 13
170.3512174055
 23
171.7621678167
 33
0.0
 14
170.3512174055
 24
121.7621678167
 34
0.0
 50
90.0
100
AcDbRotatedDimension
  0
LINE
  5
1B7
330
1F
100
AcDbEntity
  8
0
  6
Continuous
 62
     7
370
    15
100
AcDbLine
 10
47.1521911991
 20
164.7621678167
 30
0.0
 11
48.1521911991
 21
165.7621678167
 31
0.0
  0
LINE
  5
1B8
330
1F
100
AcDbEntity
  8
0
  6
Continuous
 62
     7
370
    15
100
AcDbLine
 10
48.1521911991
 20
172.7621678167
 30
0.0
 11
47.1521911991
 21
173.7621678167
 31
0.0
  0
LINE
  5
1B9
330
1F
100
AcDbEntity
  8
0
  6
Continuous
 62
     7
370
    15
100
AcDbLine
 10
93.1521911991
 20
146.7621678167
 30
0.0
 11
74.1521911991
 21
146.7621678167
 31
0.0
  0
LINE
  5
1BA
330
1F
100
AcDbEntity
  8
0
  6
Continuous
 62
     7
370
    15
100
AcDbLine
 10
74.1521911991
 20
180.7621678167
 30
0.0
 11
74.1521911991
 21
146.7621678167
 31
0.0
  0
LINE
  5
1BB
330
1F
100
AcDbEntity
  8
0
  6
Continuous
 62
     7
370
    15
100
AcDbLine
 10
81.3222077804
 20
180.7621678167
 30
0.0
 11
74.1521911991
 21
180.7621678167
 31
0.0
  0
ARC
  5
1BC
330
1F
100
AcDbEntity
  8
0
  6
Continuous
 62
     7
370
    15
100
AcDbCircle
 10
48.1521911991
 20
146.7621678167
 30
0.0
 40
47.50000000000001
100
AcDbArc
 50
18.671718064
 51
45.7079368052
  0
LINE
  5
1BD
330
1F
100
AcDbEntity
  8
0
  6
Continuous
 62
     7
370
    15
100
AcDbLine
 10
93.1521911991
 20
146.7621678167
 30
0.0
 11
93.1521911991
 21
161.9690741424
 31
0.0
  0
LINE
  5
1BE
330
1F
100
AcDbEntity
  8
0
  6
Continuous
 62
     7
370
    15
100
AcDbLine
 10
78.1521911991
 20
120.7621678167
 30
0.0
 11
93.1521911991
 21
135.7621678167
 31
0.0
  0
LINE
  5
1BF
330
1F
100
AcDbEntity
  8
0
  6
Continuous
 62
     7
370
    15
100
AcDbLine
 10
37.1521911991
 20
120.7621678167
 30
0.0
 11
78.1521911991
 21
120.7621678167
 31
0.0
  0
LINE
  5
1C0
330
1F
100
AcDbEntity
  8
0
  6
Continuous
 62
     7
370
    15
100
AcDbLine
 10
23.1521911991
 20
134.7621678167
 30
0.0
 11
37.1521911991
 21
120.7621678167
 31
0.0
  0
LINE
  5
1C1
330
1F
100
AcDbEntity
  8
0
  6
Continuous
 62
     7
370
    15
100
AcDbLine
 10
23.1521911991
 20
140.9886651248
 30
0.0
 11
23.1521911991
 21
134.7621678167
 31
0.0
  0
LINE
  5
1C2
330
1F
100
AcDbEntity
  8
0
  6
Continuous
 62
     7
370
    15
100
AcDbLine
 10
23.1521911991
 20
140.9886651248
 30
0.0
 11
73.1521911991
 21
140.9886651248
 31
0.0
  0
LINE
  5
1C3
330
1F
100
AcDbEntity
  8
0
  6
Continuous
 62
     7
370
    15
100
AcDbLine
 10
73.1521911991
 20
140.9886651248
 30
0.0
 11
73.1521911991
 21
146.1848175475
 31
0.0
  0
LINE
  5
1C4
330
1F
100
AcDbEntity
  8
0
  6
Continuous
 62
     7
370
    15
100
AcDbLine
 10
74.1521911991
 20
146.7621678167
 30
0.0
 11
73.1521911991
 21
146.1848175475
 31
0.0
  0
LINE
  5
1C5
330
1F
100
AcDbEntity
  8
0
  6
Continuous
 62
     7
370
    15
100
AcDbLine
 10
93.1521911991
 20
146.7621678167
 30
0.0
 11
93.1521911991
 21
135.7621678167
 31
0.0
  0
LINE
  5
1C6
330
1F
100
AcDbEntity
  8
0
  6
Continuous
 62
     7
370
    15
100
AcDbLine
 10
74.1521911991
 20
180.7621678167
 30
0.0
 11
73.1521911991
 21
181.7621678167
 31
0.0
  0
LINE
  5
1C7
330
1F
100
AcDbEntity
  8
0
  6
Continuous
 62
     7
370
    15
100
AcDbLine
 10
73.1521911991
 20
181.7621678167
 30
0.0
 11
80.2652726458
 21
181.7621678167
 31
0.0
  0
ARC
  5
1C8
330
1F
100
AcDbEntity
  8
0
  6
Continuous
 62
     7
370
    15
100
AcDbCircle
 10
48.1521911991
 20
146.7621678167
 30
0.0
 40
47.50000000000001
100
AcDbArc
 50
45.7079368052
 51
47.463101637
  0
LINE
  5
1C9
330
1F
100
AcDbEntity
  8
0
  6
Continuous
 62
     7
370
    15
100
AcDbLine
 10
73.1521911991
 20
146.1848175475
 30
0.0
 11
73.1521911991
 21
181.7621678167
 31
0.0
  0
LINE
  5
1CA
330
1F
100
AcDbEntity
  8
0
  6
Continuous
 62
     7
370
    15
100
AcDbLine
 10
23.1521911991
 20
155.7621678167
 30
0.0
 11
23.1521911991
 21
140.9886651248
 31
0.0
  0
LINE
  5
1CB
330
1F
100
AcDbEntity
  8
0
  6
Continuous
 62
     7
370
    15
100
AcDbLine
 10
26.3521911991
 20
155.7621678167
 30
0.0
 11
23.1521911991
 21
155.7621678167
 31
0.0
  0
ARC
  5
1CC
330
1F
100
AcDbEntity
  8
0
  6
Continuous
 62
     7
370
    15
100
AcDbCircle
 10
26.3521911991
 20
157.5621678167
 30
0.0
 40
1.799999999999983
100
AcDbArc
 50
270.0
 51
0.0
  0
LINE
  5
1CD
330
1F
100
AcDbEntity
  8
0
  6
Continuous
 62
     7
370
    15
100
AcDbLine
 10
28.1521911991
 20
180.7621678167
 30
0.0
 11
28.1521911991
 21
157.5621678167
 31
0.0
  0
LINE
  5
1CE
330
1F
100
AcDbEntity
  8
0
  6
Continuous
 62
     7
370
    15
100
AcDbLine
 10
47.1521911991
 20
180.7621678167
 30
0.0
 11
28.1521911991
 21
180.7621678167
 31
0.0
  0
LINE
  5
1CF
330
1F
100
AcDbEntity
  8
0
  6
Continuous
 62
     7
370
    15
100
AcDbLine
 10
47.1521911991
 20
180.7621678167
 30
0.0
 11
47.1521911991
 21
156.7621678167
 31
0.0
  0
CIRCLE
  5
1D0
330
1F
100
AcDbEntity
  8
0
  6
Continuous
 62
     7
370
    15
100
AcDbCircle
 10
36.1521911991
 20
151.7621678167
 30
0.0
 40
6.0
  0
LINE
  5
1D1
330
1F
100
AcDbEntity
  8
0
  6
Continuous
 62
     7
370
    15
100
AcDbLine
 10
47.1521911991
 20
156.7621678167
 30
0.0
 11
73.1521911991
 21
156.7621678167
 31
0.0
  0
LINE
  5
1D2
330
1F
100
AcDbEntity
  8
0
  6
Continuous
 62
     7
370
    15
100
AcDbLine
 10
28.1521911991
 20
180.7621678167
 30
0.0
 11
28.1521911991
 21
181.7621678167
 31
0.0
  0
LINE
  5
1D3
330
1F
100
AcDbEntity
  8
0
  6
Continuous
 62
     7
370
    15
100
AcDbLine
 10
47.1521911991
 20
181.7621678167
 30
0.0
 11
47.1521911991
 21
180.7621678167
 31
0.0
  0
LINE
  5
1D4
330
1F
100
AcDbEntity
  8
0
  6
Continuous
 62
     7
370
    15
100
AcDbLine
 10
28.1521911991
 20
181.7621678167
 30
0.0
 11
47.1521911991
 21
181.7621678167
 31
0.0
  0
ARC
  5
1D5
330
1F
100
AcDbEntity
  8
0
  6
Continuous
 62
     7
370
    15
100
AcDbCircle
 10
26.3521911991
 20
157.5621678167
 30
0.0
 40
0.7999999999999972
100
AcDbArc
 50
270.0
 51
0.0
  0
LINE
  5
1D6
330
1F
100
AcDbEntity
  8
0
  6
Continuous
 62
     7
370
    15
100
AcDbLine
 10
27.1521911991
 20
157.5621678167
 30
0.0
 11
27.1521911991
 21
180.7621678167
 31
0.0
  0
LINE
  5
1D7
330
1F
100
AcDbEntity
  8
0
  6
Continuous
 62
     7
370
    15
100
AcDbLine
 10
27.1521911991
 20
180.7621678167
 30
0.0
 11
28.1521911991
 21
180.7621678167
 31
0.0
  0
LINE
  5
1D8
330
1F
100
AcDbEntity
  8
0
  6
Continuous
 62
     7
370
    15
100
AcDbLine
 10
27.1521911991
 20
180.7621678167
 30
0.0
 11
28.1521911991
 21
181.7621678167
 31
0.0
  0
LINE
  5
1D9
330
1F
100
AcDbEntity
  8
0
  6
Continuous
 62
     7
370
    15
100
AcDbLine
 10
23.1521911991
 20
155.7621678167
 30
0.0
 11
23.1521911991
 21
156.7621678167
 31
0.0
  0
LINE
  5
1DA
330
1F
100
AcDbEntity
  8
0
  6
Continuous
 62
     7
370
    15
100
AcDbLine
 10
23.1521911991
 20
156.7621678167
 30
0.0
 11
26.3521911991
 21
156.7621678167
 31
0.0
  0
LINE
  5
1DB
330
1F
100
AcDbEntity
  8
0
  6
Continuous
 62
     7
370
    15
100
AcDbLine
 10
22.1521911991
 20
141.5660153939
 30
0.0
 11
22.1521911991
 21
155.7621678167
 31
0.0
  0
LINE
  5
1DC
330
1F
100
AcDbEntity
  8
0
  6
Continuous
 62
     7
370
    15
100
AcDbLine
 10
22.1521911991
 20
155.7621678167
 30
0.0
 11
23.1521911991
 21
155.7621678167
 31
0.0
  0
LINE
  5
1DD
330
1F
100
AcDbEntity
  8
0
  6
Continuous
 62
     7
370
    15
100
AcDbLine
 10
22.1521911991
 20
141.5660153939
 30
0.0
 11
23.1521911991
 21
140.9886651248
 31
0.0
  0
LINE
  5
1DE
330
1F
100
AcDbEntity
  8
0
  6
Continuous
 62
     7
370
    15
100
AcDbLine
 10
22.1521911991
 20
155.7621678167
 30
0.0
 11
23.1521911991
 21
156.7621678167
 31
0.0
  0
LINE
  5
1DF
330
1F
100
AcDbEntity
  8
0
  6
Continuous
 62
     7
370
    15
100
AcDbLine
 10
22.1521911991
 20
135.7621678167
 30
0.0
 11
22.1521911991
 21
141.5660153939
 31
0.0
  0
LINE
  5
1E0
330
1F
100
AcDbEntity
  8
0
  6
Continuous
 62
     7
370
    15
100
AcDbLine
 10
23.1521911991
 20
134.7621678167
 30
0.0
 11
22.1521911991
 21
135.7621678167
 31
0.0
  0
ELLIPSE
  5
1E1
330
1F
100
AcDbEntity
  8
0
  6
Continuous
 62
     7
370
    15
100
AcDbEllipse
 10
37.0752681222
 20
151.377552432
 30
0.0
 11
-2.062867682030237
 21
0.8595282008459152
 31
0.0
210
0.0
220
0.0
230
1.0
 40
0.9396926208
 41
0.0
 42
1.15096186720226
  0
ELLIPSE
  5
1E2
330
1F
100
AcDbEntity
  8
0
  6
Continuous
 62
     7
370
    15
100
AcDbEllipse
 10
37.0752681222
 20
151.377552432
 30
0.0
 11
-2.062867682030237
 21
0.8595282008459152
 31
0.0
210
0.0
220
0.0
230
1.0
 40
0.9396926208
 41
4.98325511940911
 42
6.283185307179586
  0
LINE
  5
1E3
330
1F
100
AcDbEntity
  8
0
  6
Continuous
 62
     7
370
    15
100
AcDbLine
 10
23.1521911991
 20
174.7621678167
 30
0.0
 11
23.1521911991
 21
156.7621678167
 31
0.0
  0
LINE
  5
1E4
330
1F
100
AcDbEntity
  8
0
  6
Continuous
 62
     7
370
    15
100
AcDbLine
 10
22.1521911991
 20
155.7621678167
 30
0.0
 11
22.1521911991
 21
174.7621678167
 31
0.0
  0
LINE
  5
1E5
330
1F
100
AcDbEntity
  8
0
  6
Continuous
 62
     7
370
    15
100
AcDbLine
 10
27.1521911991
 20
180.7621678167
 30
0.0
 11
26.3521911991
 21
180.7621678167
 31
0.0
  0
LINE
  5
1E6
330
1F
100
AcDbEntity
  8
0
  6
Continuous
 62
     7
370
    15
100
AcDbLine
 10
26.3521911991
 20
181.7621678167
 30
0.0
 11
28.1521911991
 21
181.7621678167
 31
0.0
  0
LINE
  5
1E7
330
1F
100
AcDbEntity
  8
0
  6
Continuous
 62
     7
370
    15
100
AcDbLine
 10
26.3521911991
 20
180.7621678167
 30
0.0
 11
25.5664047615
 21
180.7621678167
 31
0.0
  0
LINE
  5
1E8
330
1F
100
AcDbEntity
  8
0
  6
Continuous
 62
     7
370
    15
100
AcDbLine
 10
25.5664047615
 20
180.7621678167
 30
0.0
 11
25.1521911991
 21
181.7621678167
 31
0.0
  0
LINE
  5
1E9
330
1F
100
AcDbEntity
  8
0
  6
Continuous
 62
     7
370
    15
100
AcDbLine
 10
25.1521911991
 20
181.7621678167
 30
0.0
 11
26.3521911991
 21
181.7621678167
 31
0.0
  0
LINE
  5
1EA
330
1F
100
AcDbEntity
  8
0
  6
Continuous
 62
     7
370
    15
100
AcDbLine
 10
23.1521911991
 20
178.3479542543
 30
0.0
 11
23.1521911991
 21
174.7621678167
 31
0.0
  0
LINE
  5
1EB
330
1F
100
AcDbEntity
  8
0
  6
Continuous
 62
     7
370
    15
100
AcDbLine
 10
25.5664047615
 20
180.7621678167
 30
0.0
 11
23.1521911991
 21
178.3479542543
 31
0.0
  0
LINE
  5
1EC
330
1F
100
AcDbEntity
  8
0
  6
Continuous
 62
     7
370
    15
100
AcDbLine
 10
23.1521911991
 20
178.3479542543
 30
0.0
 11
22.1521911991
 21
178.7621678167
 31
0.0
  0
LINE
  5
1ED
330
1F
100
AcDbEntity
  8
0
  6
Continuous
 62
     7
370
    15
100
AcDbLine
 10
22.1521911991
 20
178.7621678167
 30
0.0
 11
25.1521911991
 21
181.7621678167
 31
0.0
  0
LINE
  5
1EE
330
1F
100
AcDbEntity
  8
0
  6
Continuous
 62
     7
370
    15
100
AcDbLine
 10
22.1521911991
 20
174.7621678167
 30
0.0
 11
22.1521911991
 21
178.7621678167
 31
0.0
  0
LINE
  5
1EF
330
1F
100
AcDbEntity
  8
0
  6
Continuous
 62
     7
370
    15
100
AcDbLine
 10
47.1521911991
 20
181.7621678167
 30
0.0
 11
73.1521911991
 21
181.7621678167
 31
0.0
  0
CIRCLE
  5
1F0
330
1F
100
AcDbEntity
  8
0
  6
Continuous
 62
     7
370
    15
100
AcDbCircle
 10
35.7459022586
 20
152.0486767942
 30
0.0
 40
3.231352231505663
  0
CIRCLE
  5
1F1
330
1F
100
AcDbEntity
  8
0
  6
Continuous
 62
     7
370
    15
100
AcDbCircle
 10
35.7480787991
 20
152.052442045
 30
0.0
 40
2.485659139059424
  0
CIRCLE
  5
1F2
330
1F
100
AcDbEntity
  8
0
  6
Continuous
 62
     7
370
    15
100
AcDbCircle
 10
35.7899167
 20
152.021306528
 30
0.0
 40
2.086279827990107
  0
ARC
  5
1F3
330
1F
100
AcDbEntity
  8
0
  6
Continuous
 62
     7
370
    15
100
AcDbCircle
 10
36.3915639629
 20
151.5797248921
 30
0.0
 40
2.10248569640212
100
AcDbArc
 50
63.1360051934
 51
222.2368139698
  0
CIRCLE
  5
1F4
330
1F
100
AcDbEntity
  8
0
  6
Continuous
 62
     7
370
    15
100
AcDbCircle
 10
36.1521911991
 20
151.7621678167
 30
0.0
 40
4.582575694955862
  0
LINE
  5
1F5
330
1F
100
AcDbEntity
  8
0
  6
Continuous
 62
     7
370
    15
100
AcDbLine
 10
48.1521911991
 20
165.7621678167
 30
0.0
 11
48.1521911991
 21
172.7621678167
 31
0.0
  0
DIMENSION
  5
1F6
330
1F
100
AcDbEntity
  8
VERMASSUNG
100
AcDbDimension
  2
_D_4
 10
100.405225994
 20
181.7621678167
 30
0.0
 11
100.405225994
 21
169.2621678167
 31
0.0
 70
   160
  1
<>
 71
     2
 42
-1.0
  3
SLDDIMSTYLE1
100
AcDbAlignedDimension
 13
78.1521911991
 23
156.7621678167
 33
0.0
 14
80.2652726458
 24
181.7621678167
 34
0.0
 50
90.0
100
AcDbRotatedDimension
  0
DIMENSION
  5
200
330
1F
100
AcDbEntity
  8
VERMASSUNG
100
AcDbDimension
  2
_D_5
 10
73.1521911991
 20
190.0133869829
 30
0.0
 11
60.6521911991
 21
190.0133869829
 31
0.0
 70
   160
  1
<>
 71
     2
 42
-1.0
  3
SLDDIMSTYLE1
100
AcDbAlignedDimension
 13
48.1521911991
 23
196.7621678167
 33
0.0
 14
73.1521911991
 24
181.7621678167
 34
0.0
100
AcDbRotatedDimension
  0
DIMENSION
  5
209
330
1F
100
AcDbEntity
  8
VERMASSUNG
100
AcDbDimension
  2
_D_6
 10
48.1521911991
 20
190.0133869829
 30
0.0
 11
40.7264051269
 21
190.0133869829
 31
0.0
 70
   160
  1
<>
 71
     2
 42
-1.0
  3
SLDDIMSTYLE2
100
AcDbAlignedDimension
 13
47.1521911991
 23
181.7621678167
 33
0.0
 14
48.1521911991
 24
196.7621678167
 34
0.0
100
AcDbRotatedDimension
  0
DIMENSION
  5
215
330
1F
100
AcDbEntity
  8
VERMASSUNG
100
AcDbDimension
  2
_D_7
 10
93.1521911991
 20
197.8424913667
 30
0.0
 11
70.6521911991
 21
197.8424913667
 31
0.0
 70
   160
  1
<>
 71
     2
 42
-1.0
  3
SLDDIMSTYLE1
100
AcDbAlignedDimension
 13
48.1521911991
 23
196.7621678167
 33
0.0
 14
93.1521911991
 24
161.9690741424
 34
0.0
100
AcDbRotatedDimension
  0
DIMENSION
  5
21F
330
1F
100
AcDbEntity
  8
VERMASSUNG
100
AcDbDimension
  2
_D_8
 10
12.1516603281
 20
181.7621678167
 30
0.0
 11
12.1516603281
 21
164.2621678167
 31
0.0
 70
   160
  1
<>
 71
     2
 42
-1.0
  3
SLDDIMSTYLE1
100
AcDbAlignedDimension
 13
-1.8478088009
 23
146.7621678167
 33
0.0
 14
28.1521911991
 24
181.7621678167
 34
0.0
 50
90.0
100
AcDbRotatedDimension
  0
DIMENSION
  5
228
330
1F
100
AcDbEntity
  8
VERMASSUNG
100
AcDbDimension
  2
_D_9
 10
48.1521911991
 20
146.7621678167
 30
0.0
 11
100.405235994
 21
187.1027280764
 31
0.0
 70
   164
  1
<>
 71
     1
 42
-1.0
  3
SLDDIMSTYLE3
100
AcDbRadialDimension
 15
85.7510348884
 25
175.789343932
 35
0.0
 40
0.0
  0
DIMENSION
  5
231
330
1F
100
AcDbEntity
  8
VERMASSUNG
100
AcDbDimension
  2
_D_10
 10
48.1521911991
 20
197.8424913667
 30
0.0
 11
35.1521911991
 21
197.8424913667
 31
0.0
 70
   160
  1
<>
 71
     2
 42
-1.0
  3
SLDDIMSTYLE1
100
AcDbAlignedDimension
 13
22.1521911991
 23
174.7621678167
 33
0.0
 14
48.1521911991
 24
196.7621678167
 34
0.0
100
AcDbRotatedDimension
  0
DIMENSION
  5
23B
330
1F
100
AcDbEntity
  8
VERMASSUNG
100
AcDbDimension
  2
_D_11
 10
12.1516603281
 20
120.7621678167
 30
0.0
 11
12.1516603281
 21
133.7621678167
 31
0.0
 70
   160
  1
<>
 71
     2
 42
-1.0
  3
SLDDIMSTYLE1
100
AcDbAlignedDimension
 13
-1.8478088009
 23
146.7621678167
 33
0.0
 14
37.1521911991
 24
120.7621678167
 34
0.0
 50
90.0
100
AcDbRotatedDimension
  0
INSERT
  5
24F
330
1F
100
AcDbEntity
  8
VERMASSUNG
100
AcDbBlockReference
  2
SW_CENTERMARKSYMBOL_0
 10
48.1521911991
 20
146.7621678167
 30
0.0
  0
ARC
  5
250
330
1F
100
AcDbEntity
  8
0
  6
Continuous
 62
     7
370
    15
100
AcDbCircle
 10
190.0512174055
 20
22.8149609815
 30
0.0
 40
1.000000000000001
100
AcDbArc
 50
29.9971628549
 51
90.0
  0
ARC
  5
251
330
1F
100
AcDbEntity
  8
0
  6
Continuous
 62
     7
370
    15
100
AcDbCircle
 10
190.0512174055
 20
74.8149609815
 30
0.0
 40
1.0
100
AcDbArc
 50
270.0
 51
0.0
  0
LINE
  5
252
330
1F
100
AcDbEntity
  8
0
  6
Continuous
 62
     7
370
    15
100
AcDbLine
 10
170.3512174055
 20
23.8149609815
 30
0.0
 11
190.0512174055
 21
23.8149609815
 31
0.0
  0
LINE
  5
253
330
1F
100
AcDbEntity
  8
0
  6
Continuous
 62
     7
370
    15
100
AcDbLine
 10
180.0766780557
 20
73.8149609815
 30
0.0
 11
170.3512174055
 21
73.8149609815
 31
0.0
  0
LINE
  5
254
330
1F
100
AcDbEntity
  8
0
  6
Continuous
 62
     7
370
    15
100
AcDbLine
 10
190.0512174055
 20
73.8149609815
 30
0.0
 11
184.0493010739
 21
73.8149609815
 31
0.0
  0
ARC
  5
255
330
1F
100
AcDbEntity
  8
0
  6
Continuous
 62
     7
370
    15
100
AcDbCircle
 10
170.3512174055
 20
24.1149609815
 30
0.0
 40
0.2999999999999936
100
AcDbArc
 50
180.0
 51
270.0
  0
ARC
  5
256
330
1F
100
AcDbEntity
  8
0
  6
Continuous
 62
     7
370
    15
100
AcDbCircle
 10
170.3512174055
 20
73.5149609815
 30
0.0
 40
0.2999999999999972
100
AcDbArc
 50
90.0
 51
180.0
  0
ARC
  5
257
330
1F
100
AcDbEntity
  8
0
  6
Continuous
 62
     7
370
    15
100
AcDbCircle
 10
169.4370038431
 20
30.0649609815
 30
0.0
 40
1.000000000000008
100
AcDbArc
 50
52.1052014664
 51
135.0
  0
LWPOLYLINE
  5
258
330
1F
100
AcDbEntity
  8
0
  6
Continuous
 62
     7
370
    15
100
AcDbPolyline
 90
        3
 70
   128
 43
0.0
 10
170.0512174055
 20
66.7758211335
 10
169.976672349
 20
66.7230833753
 10
169.8512174055
 20
66.6547812604
  0
LINE
  5
259
330
1F
100
AcDbEntity
  8
0
  6
Continuous
 62
     7
370
    15
100
AcDbLine
 10
152.7713755475
 20
64.8362016501
 30
0.0
 11
147.4291284986
 21
64.7019858094
 31
0.0
  0
LINE
  5
25A
330
1F
100
AcDbEntity
  8
0
  6
Continuous
 62
     7
370
    15
100
AcDbLine
 10
167.8512174055
 20
65.2150597661
 30
0.0
 11
159.4920346425
 21
65.0050479992
 31
0.0
  0
ARC
  5
25B
330
1F
100
AcDbEntity
  8
0
  6
Continuous
 62
     7
370
    15
100
AcDbCircle
 10
168.0511543164
 20
65.2200828772
 30
0.0
 40
0.2000000000000048
100
AcDbArc
 50
181.4391666667
 51
271.4391666667
  0
LINE
  5
25C
330
1F
100
AcDbEntity
  8
0
  6
Continuous
 62
     7
370
    15
100
AcDbLine
 10
169.6562405166
 20
65.0603451204
 30
0.0
 11
168.0561774276
 21
65.0201459663
 31
0.0
  0
ARC
  5
25D
330
1F
100
AcDbEntity
  8
0
  6
Continuous
 62
     7
370
    15
100
AcDbCircle
 10
169.6512174055
 20
65.2602820314
 30
0.0
 40
0.2000000000000059
100
AcDbArc
 50
271.4391666667
 51
0.0
  0
SPLINE
  5
25E
330
1F
100
AcDbEntity
  8
0
  6
Continuous
 62
     7
370
    15
100
AcDbSpline
210
0.0
220
0.0
230
1.0
 70
     8
 71
     3
 72
     9
 73
     5
 74
     0
 42
0.00000001
 43
0.00000001
 12
1.0
 22
0.0
 32
0.0
 13
1.0
 23
0.0
 33
0.0
 40
0.0
 40
0.0
 40
0.0
 40
0.0
 40
0.5000016363469115
 40
1.0
 40
1.0
 40
1.0
 40
1.0
 10
190.9172479790444
 20
23.31496184356252
 30
0.0
 10
191.0615861656402
 20
23.23162851637225
 30
0.0
 10
191.3502615940856
 20
23.06496240743886
 30
0.0
 10
191.6389398655119
 20
22.89829460833884
 30
0.0
 10
191.7832785288473
 20
22.81496098151517
 30
0.0
  0
LINE
  5
25F
330
1F
100
AcDbEntity
  8
0
  6
Continuous
 62
     7
370
    15
100
AcDbLine
 10
141.5512174055
 20
30.8356097396
 30
0.0
 11
167.8512174055
 21
30.1748621969
 31
0.0
  0
ARC
  5
260
330
1F
100
AcDbEntity
  8
0
  6
Continuous
 62
     7
370
    15
100
AcDbCircle
 10
168.0511543164
 20
30.1698390858
 30
0.0
 40
0.2000000000000051
100
AcDbArc
 50
88.5608333333
 51
178.5608333333
  0
LINE
  5
261
330
1F
100
AcDbEntity
  8
0
  6
Continuous
 62
     7
370
    15
100
AcDbLine
 10
168.0561774276
 20
30.3697759968
 30
0.0
 11
168.3304911231
 21
30.3628842819
 31
0.0
  0
LINE
  5
262
330
1F
100
AcDbEntity
  8
0
  6
Continuous
 62
     7
370
    15
100
AcDbLine
 10
140.0512174055
 20
31.7016351434
 30
0.0
 11
141.5512174055
 21
30.8356097396
 31
0.0
  0
LINE
  5
263
330
1F
100
AcDbEntity
  8
0
  6
Continuous
 62
     7
370
    15
100
AcDbLine
 10
168.3373360397
 20
30.3795067405
 30
0.0
 11
168.7298970619
 21
30.7720677627
 31
0.0
  0
ARC
  5
264
330
1F
100
AcDbEntity
  8
0
  6
Continuous
 62
     7
370
    15
100
AcDbCircle
 10
256.0512174055
 20
36.8149609815
 30
0.0
 40
5.000000000000002
100
AcDbArc
 50
34.3408746466
 51
66.4218215218
  0
ARC
  5
265
330
1F
100
AcDbEntity
  8
0
  6
Continuous
 62
     7
370
    15
100
AcDbCircle
 10
256.0512174055
 20
36.8149609815
 30
0.0
 40
5.000000000000012
100
AcDbArc
 50
293.5781784782
 51
313.6815083391
  0
LINE
  5
266
330
1F
100
AcDbEntity
  8
0
  6
Continuous
 62
     7
370
    15
100
AcDbLine
 10
214.5512174055
 20
47.8149609815
 30
0.0
 11
213.5512174055
 21
48.8149609815
 31
0.0
  0
LINE
  5
267
330
1F
100
AcDbEntity
  8
0
  6
Continuous
 62
     7
370
    15
100
AcDbLine
 10
206.5512174055
 20
48.8149609815
 30
0.0
 11
205.5512174055
 21
47.8149609815
 31
0.0
  0
LINE
  5
268
330
1F
100
AcDbEntity
  8
0
  6
Continuous
 62
     7
370
    15
100
AcDbLine
 10
234.5512174055
 20
47.8149609815
 30
0.0
 11
233.5512174055
 21
48.8149609815
 31
0.0
  0
LINE
  5
269
330
1F
100
AcDbEntity
  8
0
  6
Continuous
 62
     7
370
    15
100
AcDbLine
 10
226.5512174055
 20
48.8149609815
 30
0.0
 11
225.5512174055
 21
47.8149609815
 31
0.0
  0
LINE
  5
26A
330
1F
100
AcDbEntity
  8
0
  6
Continuous
 62
     7
370
    15
100
AcDbLine
 10
254.5512174055
 20
47.8149609815
 30
0.0
 11
253.5512174055
 21
48.8149609815
 31
0.0
  0
LINE
  5
26B
330
1F
100
AcDbEntity
  8
0
  6
Continuous
 62
     7
370
    15
100
AcDbLine
 10
246.5512174055
 20
48.8149609815
 30
0.0
 11
245.5512174055
 21
47.8149609815
 31
0.0
  0
LINE
  5
26C
330
1F
100
AcDbEntity
  8
0
  6
Continuous
 62
     7
370
    15
100
AcDbLine
 10
192.0512174055
 20
80.9280424282
 30
0.0
 11
192.0512174055
 21
25.8149609815
 31
0.0
  0
LINE
  5
26D
330
1F
100
AcDbEntity
  8
0
  6
Continuous
 62
     7
370
    15
100
AcDbLine
 10
192.0512174055
 20
25.8149609815
 30
0.0
 11
191.0512174055
 21
26.2291745439
 31
0.0
  0
LINE
  5
26E
330
1F
100
AcDbEntity
  8
0
  6
Continuous
 62
     7
370
    15
100
AcDbLine
 10
191.0512174055
 20
26.2291745439
 30
0.0
 11
191.0512174055
 21
80.5364048326
 31
0.0
  0
SPLINE
  5
26F
330
1F
100
AcDbEntity
  8
0
  6
Continuous
 62
     7
370
    15
100
AcDbSpline
210
0.0
220
0.0
230
1.0
 70
     8
 71
     3
 72
    18
 73
    14
 74
     0
 42
0.00000001
 43
0.00000001
 12
1.0
 22
0.0
 32
0.0
 13
1.0
 23
0.0
 33
0.0
 40
0.0
 40
0.0
 40
0.0
 40
0.0
 40
0.1250000000000006
 40
0.1250000000000006
 40
0.2500000000000013
 40
0.2500000000000013
 40
0.3750000000000019
 40
0.3750000000000019
 40
0.5000000000000026
 40
0.5000000000000026
 40
0.7500000000000012
 40
0.7500000000000012
 40
1.0
 40
1.0
 40
1.0
 40
1.0
 10
191.0512174055023
 20
80.536404832639
 30
0.0
 10
191.0512174055023
 20
80.61951679864396
 30
0.0
 10
191.0558771060738
 20
80.70181200953807
 30
0.0
 10
191.0793845936579
 20
80.86391553502561
 30
0.0
 10
191.0983286036758
 20
80.94340772857345
 30
0.0
 10
191.1570775533945
 20
81.08718786110678
 30
0.0
 10
191.1976100321234
 20
81.15079180229465
 30
0.0
 10
191.2960251742192
 20
81.24066454274714
 30
0.0
 10
191.3533773215825
 20
81.26671081632294
 30
0.0
 10
191.5283827349694
 20
81.29344846417413
 30
0.0
 10
191.6460790847564
 20
81.24898823558057
 30
0.0
 10
191.8592448017664
 20
81.1182211048427
 30
0.0
 10
191.958452510628
 20
81.02914674998051
 30
0.0
 10
192.0512174055028
 20
80.928042428179
 30
0.0
  0
LINE
  5
270
330
1F
100
AcDbEntity
  8
0
  6
Continuous
 62
     7
370
    15
100
AcDbLine
 10
268.0512174055
 20
93.8149609815
 30
0.0
 11
192.0512174055
 21
93.8149609815
 31
0.0
  0
LINE
  5
271
330
1F
100
AcDbEntity
  8
0
  6
Continuous
 62
     7
370
    15
100
AcDbLine
 10
268.0512174055
 20
81.9849775628
 30
0.0
 11
268.0512174055
 21
93.8149609815
 31
0.0
  0
ARC
  5
272
330
1F
100
AcDbEntity
  8
0
  6
Continuous
 62
     7
370
    15
100
AcDbCircle
 10
302.0512174055
 20
48.8149609815
 30
0.0
 40
47.50000000000075
100
AcDbArc
 50
135.7079368052
 51
137.463101637
  0
LINE
  5
273
330
1F
100
AcDbEntity
  8
0
  6
Continuous
 62
     7
370
    15
100
AcDbLine
 10
192.0512174055
 20
80.9280424282
 30
0.0
 11
267.0512174055
 21
80.9280424282
 31
0.0
  0
LINE
  5
274
330
1F
100
AcDbEntity
  8
0
  6
Continuous
 62
     7
370
    15
100
AcDbLine
 10
191.0512174055
 20
80.5364048326
 30
0.0
 11
191.0512174055
 21
92.8149609815
 31
0.0
  0
SPLINE
  5
275
330
1F
100
AcDbEntity
  8
0
  6
Continuous
 62
     7
370
    15
100
AcDbSpline
210
0.0
220
0.0
230
1.0
 70
    24
 71
     3
 72
    22
 73
    18
 74
     0
 42
0.00000001
 43
0.00000001
 12
1.0
 22
0.0
 32
0.0
 13
1.0
 23
0.0
 33
0.0
 40
0.0
 40
0.0
 40
0.0
 40
0.0
 40
0.2500000000000082
 40
0.2500000000000082
 40
0.3750000000000087
 40
0.3750000000000087
 40
0.4375000000000093
 40
0.4375000000000093
 40
0.5000000000000099
 40
0.5000000000000099
 40
0.5625000000000104
 40
0.5625000000000104
 40
0.6250000000000111
 40
0.6250000000000111
 40
0.7500000000000068
 40
0.7500000000000068
 40
1.0
 40
1.0
 40
1.0
 40
1.0
 10
192.0512174055023
 20
93.81496098151517
 30
0.0
 10
191.9749207224935
 20
93.73866429850636
 30
0.0
 10
191.891187781318
 20
93.65493135733091
 30
0.0
 10
191.739202375765
 20
93.50294595177789
 30
0.0
 10
191.6835348754637
 20
93.44727845147662
 30
0.0
 10
191.587432404044
 20
93.35117598005688
 30
0.0
 10
191.553340391849
 20
93.31708396786186
 30
0.0
 10
191.4773071751884
 20
93.24105075120131
 30
0.0
 10
191.4354941705047
 20
93.19923774651757
 30
0.0
 10
191.3473977854152
 20
93.11114136142804
 30
0.0
 10
191.3007763327202
 20
93.06451990873302
 30
0.0
 10
191.2270840413689
 20
92.99082761738178
 30
0.0
 10
191.1992073143304
 20
92.96295089034327
 30
0.0
 10
191.1333931788111
 20
92.89713675482403
 30
0.0
 10
191.1099355994923
 20
92.8736791755052
 30
0.0
 10
191.0586417206157
 20
92.82238529662861
 30
0.0
 10
191.0512174055023
 20
92.81496098151514
 30
0.0
 10
191.0512174055023
 20
92.81496098151514
 30
0.0
  0
LINE
  5
276
330
1F
100
AcDbEntity
  8
0
  6
Continuous
 62
     7
370
    15
100
AcDbLine
 10
267.0512174055
 20
73.8149609815
 30
0.0
 11
267.0512174055
 21
80.9280424282
 31
0.0
  0
LINE
  5
277
330
1F
100
AcDbEntity
  8
0
  6
Continuous
 62
     7
370
    15
100
AcDbLine
 10
203.0512174055
 20
73.8149609815
 30
0.0
 11
267.0512174055
 21
73.8149609815
 31
0.0
  0
ARC
  5
278
330
1F
100
AcDbEntity
  8
0
  6
Continuous
 62
     7
370
    15
100
AcDbCircle
 10
198.0512174055
 20
73.8149609815
 30
0.0
 40
5.000000000000028
100
AcDbArc
 50
0.0
 51
180.0
  0
LINE
  5
279
330
1F
100
AcDbEntity
  8
0
  6
Continuous
 62
     7
370
    15
100
AcDbLine
 10
193.0512174055
 20
47.8149609815
 30
0.0
 11
193.0512174055
 21
73.8149609815
 31
0.0
  0
ARC
  5
27A
330
1F
100
AcDbEntity
  8
0
  6
Continuous
 62
     7
370
    15
100
AcDbCircle
 10
198.0512174055
 20
47.8149609815
 30
0.0
 40
5.0
100
AcDbArc
 50
180.0
 51
0.0
  0
LINE
  5
27B
330
1F
100
AcDbEntity
  8
0
  6
Continuous
 62
     7
370
    15
100
AcDbLine
 10
257.0512174055
 20
47.8149609815
 30
0.0
 11
203.0512174055
 21
47.8149609815
 31
0.0
  0
LINE
  5
27C
330
1F
100
AcDbEntity
  8
0
  6
Continuous
 62
     7
370
    15
100
AcDbLine
 10
257.0512174055
 20
28.8149609815
 30
0.0
 11
257.0512174055
 21
47.8149609815
 31
0.0
  0
LINE
  5
27D
330
1F
100
AcDbEntity
  8
0
  6
Continuous
 62
     7
370
    15
100
AcDbLine
 10
196.8512174055
 20
28.8149609815
 30
0.0
 11
257.0512174055
 21
28.8149609815
 31
0.0
  0
ARC
  5
27E
330
1F
100
AcDbEntity
  8
0
  6
Continuous
 62
     7
370
    15
100
AcDbCircle
 10
196.8512174055
 20
27.0149609815
 30
0.0
 40
1.80000000000004
100
AcDbArc
 50
90.0
 51
180.0
  0
LINE
  5
27F
330
1F
100
AcDbEntity
  8
0
  6
Continuous
 62
     7
370
    15
100
AcDbLine
 10
195.0512174055
 20
25.8149609815
 30
0.0
 11
195.0512174055
 21
27.0149609815
 31
0.0
  0
LINE
  5
280
330
1F
100
AcDbEntity
  8
0
  6
Continuous
 62
     7
370
    15
100
AcDbLine
 10
192.0512174055
 20
25.8149609815
 30
0.0
 11
195.0512174055
 21
25.8149609815
 31
0.0
  0
LINE
  5
281
330
1F
100
AcDbEntity
  8
0
  6
Continuous
 62
     7
370
    15
100
AcDbLine
 10
268.0512174055
 20
81.9849775628
 30
0.0
 11
268.0512174055
 21
74.8149609815
 31
0.0
  0
LINE
  5
282
330
1F
100
AcDbEntity
  8
0
  6
Continuous
 62
     7
370
    15
100
AcDbLine
 10
268.0512174055
 20
74.8149609815
 30
0.0
 11
267.0512174055
 21
73.8149609815
 31
0.0
  0
LINE
  5
283
330
1F
100
AcDbEntity
  8
0
  6
Continuous
 62
     7
370
    15
100
AcDbLine
 10
258.0512174055
 20
47.8149609815
 30
0.0
 11
258.0512174055
 21
28.8149609815
 31
0.0
  0
LINE
  5
284
330
1F
100
AcDbEntity
  8
0
  6
Continuous
 62
     7
370
    15
100
AcDbLine
 10
258.0512174055
 20
28.8149609815
 30
0.0
 11
257.0512174055
 21
28.8149609815
 31
0.0
  0
LINE
  5
285
330
1F
100
AcDbEntity
  8
0
  6
Continuous
 62
     7
370
    15
100
AcDbLine
 10
257.0512174055
 20
47.8149609815
 30
0.0
 11
258.0512174055
 21
47.8149609815
 31
0.0
  0
LINE
  5
286
330
1F
100
AcDbEntity
  8
0
  6
Continuous
 62
     7
370
    15
100
AcDbLine
 10
257.0512174055
 20
27.8149609815
 30
0.0
 11
257.0512174055
 21
28.8149609815
 31
0.0
  0
LINE
  5
287
330
1F
100
AcDbEntity
  8
0
  6
Continuous
 62
     7
370
    15
100
AcDbLine
 10
257.0512174055
 20
27.8149609815
 30
0.0
 11
258.0512174055
 21
28.8149609815
 31
0.0
  0
ARC
  5
288
330
1F
100
AcDbEntity
  8
0
  6
Continuous
 62
     7
370
    15
100
AcDbCircle
 10
196.8512174055
 20
27.0149609815
 30
0.0
 40
0.8000000000000114
100
AcDbArc
 50
90.0
 51
180.0
  0
LINE
  5
289
330
1F
100
AcDbEntity
  8
0
  6
Continuous
 62
     7
370
    15
100
AcDbLine
 10
257.0512174055
 20
27.8149609815
 30
0.0
 11
196.8512174055
 21
27.8149609815
 31
0.0
  0
LINE
  5
28A
330
1F
100
AcDbEntity
  8
0
  6
Continuous
 62
     7
370
    15
100
AcDbLine
 10
192.0512174055
 20
25.8149609815
 30
0.0
 11
192.0512174055
 21
22.8149609815
 31
0.0
  0
LINE
  5
28B
330
1F
100
AcDbEntity
  8
0
  6
Continuous
 62
     7
370
    15
100
AcDbLine
 10
192.0512174055
 20
22.8149609815
 30
0.0
 11
191.0512174055
 21
23.8149609815
 31
0.0
  0
LINE
  5
28C
330
1F
100
AcDbEntity
  8
0
  6
Continuous
 62
     7
370
    15
100
AcDbLine
 10
191.0512174055
 20
23.8149609815
 30
0.0
 11
191.0512174055
 21
26.2291745439
 31
0.0
  0
LINE
  5
28D
330
1F
100
AcDbEntity
  8
0
  6
Continuous
 62
     7
370
    15
100
AcDbLine
 10
196.0512174055
 20
27.0149609815
 30
0.0
 11
196.0512174055
 21
26.2291745439
 31
0.0
  0
LINE
  5
28E
330
1F
100
AcDbEntity
  8
0
  6
Continuous
 62
     7
370
    15
100
AcDbLine
 10
196.0512174055
 20
26.2291745439
 30
0.0
 11
195.0512174055
 21
25.8149609815
 31
0.0
  0
LINE
  5
28F
330
1F
100
AcDbEntity
  8
0
  6
Continuous
 62
     7
370
    15
100
AcDbLine
 10
196.0512174055
 20
26.2291745439
 30
0.0
 11
196.0512174055
 21
23.8149609815
 31
0.0
  0
LINE
  5
290
330
1F
100
AcDbEntity
  8
0
  6
Continuous
 62
     7
370
    15
100
AcDbLine
 10
196.0512174055
 20
23.8149609815
 30
0.0
 11
195.0512174055
 21
22.8149609815
 31
0.0
  0
LINE
  5
291
330
1F
100
AcDbEntity
  8
0
  6
Continuous
 62
     7
370
    15
100
AcDbLine
 10
195.0512174055
 20
22.8149609815
 30
0.0
 11
195.0512174055
 21
25.8149609815
 31
0.0
  0
LINE
  5
292
330
1F
100
AcDbEntity
  8
0
  6
Continuous
 62
     7
370
    15
100
AcDbLine
 10
195.0512174055
 20
22.8149609815
 30
0.0
 11
192.0512174055
 21
22.8149609815
 31
0.0
  0
LINE
  5
293
330
1F
100
AcDbEntity
  8
0
  6
Continuous
 62
     7
370
    15
100
AcDbLine
 10
196.0512174055
 20
23.8149609815
 30
0.0
 11
214.0512174055
 21
23.8149609815
 31
0.0
  0
LINE
  5
294
330
1F
100
AcDbEntity
  8
0
  6
Continuous
 62
     7
370
    15
100
AcDbLine
 10
214.0512174055
 20
22.8149609815
 30
0.0
 11
195.0512174055
 21
22.8149609815
 31
0.0
  0
SPLINE
  5
295
330
1F
100
AcDbEntity
  8
0
  6
Continuous
 62
     7
370
    15
100
AcDbSpline
210
0.0
220
0.0
230
1.0
 70
     8
 71
     3
 72
    10
 73
     6
 74
     0
 42
0.00000001
 43
0.00000001
 12
1.0
 22
0.0
 32
0.0
 13
1.0
 23
0.0
 33
0.0
 40
0.0
 40
0.0
 40
0.0
 40
0.0
 40
0.0003704619379741
 40
0.6891533586970093
 40
1.0
 40
1.0
 40
1.0
 40
1.0
 10
190.9172769416967
 20
23.31502956199647
 30
0.0
 10
190.9172658812722
 20
23.31500617490404
 30
0.0
 10
190.8966906807148
 20
23.27150023908571
 30
0.0
 10
190.9713711563777
 20
23.36242460940178
 30
0.0
 10
191.0026688030852
 20
23.55616478179434
 30
0.0
 10
191.012401176919
 20
23.61641058244409
 30
0.0
  0
SPLINE
  5
296
330
1F
100
AcDbEntity
  8
0
  6
Continuous
 62
     7
370
    15
100
AcDbSpline
210
0.0
220
0.0
230
1.0
 70
     8
 71
     3
 72
    17
 73
    13
 74
     0
 42
0.00000001
 43
0.00000001
 12
1.0
 22
0.0
 32
0.0
 13
1.0
 23
0.0
 33
0.0
 40
0.0
 40
0.0
 40
0.0
 40
0.0
 40
0.0365735935859609
 40
0.14358687589502
 40
0.2507247428087178
 40
0.3581616156950122
 40
0.4656070153414241
 40
0.5727545681896897
 40
0.6797634693671776
 40
0.7870084759434228
 40
0.8944963472087989
 40
1.0
 40
1.0
 40
1.0
 40
1.0
 10
180.0766780556949
 20
73.81294288568004
 30
0.0
 10
180.0696789357956
 20
73.81349691217218
 30
0.0
 10
180.0422005924931
 20
73.81567200423633
 30
0.0
 10
180.2265578326393
 20
73.80094651141536
 30
0.0
 10
180.6105720332121
 20
73.77495118091068
 30
0.0
 10
181.1725160302088
 20
73.747727151981
 30
0.0
 10
181.8299464562098
 20
73.73270980669527
 30
0.0
 10
182.5122909416629
 20
73.73609956233751
 30
0.0
 10
183.1429692215556
 20
73.75654594711258
 30
0.0
 10
183.6470720498607
 20
73.78465458152696
 30
0.0
 10
183.987093571182
 20
73.80968862774657
 30
0.0
 10
184.0286944234836
 20
73.81311468699406
 30
0.0
 10
184.0493010738959
 20
73.81481175811878
 30
0.0
  0
SPLINE
  5
297
330
1F
100
AcDbEntity
  8
0
  6
Continuous
 62
     7
370
    15
100
AcDbSpline
210
0.0
220
0.0
230
1.0
 70
     8
 71
     3
 72
    12
 73
     8
 74
     0
 42
0.00000001
 43
0.00000001
 12
1.0
 22
0.0
 32
0.0
 13
1.0
 23
0.0
 33
0.0
 40
0.0
 40
0.0
 40
0.0
 40
0.0
 40
0.2499999999999984
 40
0.2499999999999984
 40
0.4999999999999968
 40
0.4999999999999968
 40
1.0
 40
1.0
 40
1.0
 40
1.0
 10
178.5789742190688
 20
56.38377095069569
 30
0.0
 10
178.5153089825382
 20
56.38377095069569
 30
0.0
 10
178.4557027503149
 20
56.40984309917535
 30
0.0
 10
178.357042225384
 20
56.48538184999646
 30
0.0
 10
178.3180752353688
 20
56.53263278709267
 30
0.0
 10
178.2186884034443
 20
56.68445660505913
 30
0.0
 10
178.1766121560208
 20
56.79725985482419
 30
0.0
 10
178.1459615171765
 20
56.9114139795593
 30
0.0
  0
LINE
  5
298
330
1F
100
AcDbEntity
  8
0
  6
Continuous
 62
     7
370
    15
100
AcDbLine
 10
181.5234605919
 20
56.3837709507
 30
0.0
 11
178.5789742191
 21
56.3837709507
 31
0.0
  0
SPLINE
  5
299
330
1F
100
AcDbEntity
  8
0
  6
Continuous
 62
     7
370
    15
100
AcDbSpline
210
0.0
220
0.0
230
1.0
 70
     8
 71
     3
 72
    12
 73
     8
 74
     0
 42
0.00000001
 43
0.00000001
 12
1.0
 22
0.0
 32
0.0
 13
1.0
 23
0.0
 33
0.0
 40
0.0
 40
0.0
 40
0.0
 40
0.0
 40
0.4999999999999982
 40
0.4999999999999982
 40
0.7499999999999991
 40
0.7499999999999991
 40
1.0
 40
1.0
 40
1.0
 40
1.0
 10
181.9564732938281
 20
56.91141397955929
 30
0.0
 10
181.9257739104608
 20
56.79707831249544
 30
0.0
 10
181.8844238423543
 20
56.68572495965408
 30
0.0
 10
181.7846679141348
 20
56.53298818740534
 30
0.0
 10
181.7449709964021
 20
56.48512830155322
 30
0.0
 10
181.6477128447545
 20
56.41052518820376
 30
0.0
 10
181.5869366867638
 20
56.38377095069568
 30
0.0
 10
181.5234605919359
 20
56.38377095069569
 30
0.0
  0
ELLIPSE
  5
29A
330
1F
100
AcDbEntity
  8
0
  6
Continuous
 62
     7
370
    15
100
AcDbEllipse
 10
168.9949597505
 20
48.8149609815
 30
0.0
 11
11.70927234972711
 21
24.67718644093741
 31
0.0
210
0.0
220
0.0
230
1.0
 40
0.3419987131
 41
5.203068809370453
 42
6.114256032590498
  0
SPLINE
  5
29B
330
1F
100
AcDbEntity
  8
0
  6
Continuous
 62
     7
370
    15
100
AcDbSpline
210
0.0
220
0.0
230
1.0
 70
     8
 71
     3
 72
    12
 73
     8
 74
     0
 42
0.00000001
 43
0.00000001
 12
1.0
 22
0.0
 32
0.0
 13
1.0
 23
0.0
 33
0.0
 40
0.0
 40
0.0
 40
0.0
 40
0.0
 40
0.2499999999999984
 40
0.2499999999999984
 40
0.4999999999999968
 40
0.4999999999999968
 40
1.0
 40
1.0
 40
1.0
 40
1.0
 10
181.5234605919359
 20
72.6416920970171
 30
0.0
 10
181.5871258284664
 20
72.6416920970171
 30
0.0
 10
181.6467320606897
 20
72.63342732135122
 30
0.0
 10
181.7453925856206
 20
72.60920853976808
 30
0.0
 10
181.7843595756358
 20
72.59395122045893
 30
0.0
 10
181.8837464075603
 20
72.544317866197
 30
0.0
 10
181.9258226549838
 20
72.5066781580229
 30
0.0
 10
181.9564732938281
 20
72.46760245874675
 30
0.0
  0
LINE
  5
29C
330
1F
100
AcDbEntity
  8
0
  6
Continuous
 62
     7
370
    15
100
AcDbLine
 10
178.5789742191
 20
72.641692097
 30
0.0
 11
181.5234605919
 21
72.641692097
 31
0.0
  0
SPLINE
  5
29D
330
1F
100
AcDbEntity
  8
0
  6
Continuous
 62
     7
370
    15
100
AcDbSpline
210
0.0
220
0.0
230
1.0
 70
     8
 71
     3
 72
    12
 73
     8
 74
     0
 42
0.00000001
 43
0.00000001
 12
1.0
 22
0.0
 32
0.0
 13
1.0
 23
0.0
 33
0.0
 40
0.0
 40
0.0
 40
0.0
 40
0.0
 40
0.4999999999999972
 40
0.4999999999999972
 40
0.7499999999999986
 40
0.7499999999999986
 40
1.0
 40
1.0
 40
1.0
 40
1.0
 10
178.1459615171765
 20
72.46760245874675
 30
0.0
 10
178.1766609005438
 20
72.50674030114266
 30
0.0
 10
178.2180109686503
 20
72.54390008386814
 30
0.0
 10
178.3177668968698
 20
72.5938365894959
 30
0.0
 10
178.3574638146025
 20
72.60928945963965
 30
0.0
 10
178.4547219662501
 20
72.63320900323869
 30
0.0
 10
178.5154981242408
 20
72.6416920970171
 30
0.0
 10
178.5789742190688
 20
72.6416920970171
 30
0.0
  0
ELLIPSE
  5
29E
330
1F
100
AcDbEntity
  8
0
  6
Continuous
 62
     7
370
    15
100
AcDbEllipse
 10
191.1074750605
 20
48.8149609815
 30
0.0
 11
-11.70927234972697
 21
24.67718644093743
 31
0.0
210
0.0
220
0.0
230
1.0
 40
0.3419987131
 41
0.1689292745891291
 42
1.080116497809146
  0
SPLINE
  5
29F
330
1F
100
AcDbEntity
  8
0
  6
Continuous
 62
     7
370
    15
100
AcDbSpline
210
0.0
220
0.0
230
1.0
 70
     8
 71
     3
 72
    12
 73
     8
 74
     0
 42
0.00000001
 43
0.00000001
 12
1.0
 22
0.0
 32
0.0
 13
1.0
 23
0.0
 33
0.0
 40
0.0
 40
0.0
 40
0.0
 40
0.0
 40
0.2499999999999993
 40
0.2499999999999993
 40
0.4999999999999987
 40
0.4999999999999987
 40
1.0
 40
1.0
 40
1.0
 40
1.0
 10
178.5789742190688
 20
24.98822986601308
 30
0.0
 10
178.5153089825382
 20
24.98822986601308
 30
0.0
 10
178.4557027503149
 20
24.99649464167893
 30
0.0
 10
178.357042225384
 20
25.02071342326209
 30
0.0
 10
178.3180752353688
 20
25.03597074257123
 30
0.0
 10
178.2186884034443
 20
25.08560409683317
 30
0.0
 10
178.1766121560209
 20
25.12324380500728
 30
0.0
 10
178.1459615171765
 20
25.16231950428342
 30
0.0
  0
LINE
  5
2A0
330
1F
100
AcDbEntity
  8
0
  6
Continuous
 62
     7
370
    15
100
AcDbLine
 10
181.5234605919
 20
24.988229866
 30
0.0
 11
178.5789742191
 21
24.988229866
 31
0.0
  0
SPLINE
  5
2A1
330
1F
100
AcDbEntity
  8
0
  6
Continuous
 62
     7
370
    15
100
AcDbSpline
210
0.0
220
0.0
230
1.0
 70
     8
 71
     3
 72
    12
 73
     8
 74
     0
 42
0.00000001
 43
0.00000001
 12
1.0
 22
0.0
 32
0.0
 13
1.0
 23
0.0
 33
0.0
 40
0.0
 40
0.0
 40
0.0
 40
0.0
 40
0.5000000000000037
 40
0.5000000000000037
 40
0.7500000000000018
 40
0.7500000000000018
 40
1.0
 40
1.0
 40
1.0
 40
1.0
 10
181.9564732938281
 20
25.16231950428341
 30
0.0
 10
181.9257739104608
 20
25.12318166188751
 30
0.0
 10
181.8844238423543
 20
25.08602187916203
 30
0.0
 10
181.7846679141348
 20
25.03608537353428
 30
0.0
 10
181.7449709964021
 20
25.02063250339052
 30
0.0
 10
181.6477128447545
 20
24.99671295979148
 30
0.0
 10
181.5869366867638
 20
24.98822986601309
 30
0.0
 10
181.5234605919359
 20
24.98822986601308
 30
0.0
  0
ELLIPSE
  5
2A2
330
1F
100
AcDbEntity
  8
0
  6
Continuous
 62
     7
370
    15
100
AcDbEllipse
 10
168.9949597505
 20
48.8149609815
 30
0.0
 11
-11.70927234972729
 21
24.67718644093743
 31
0.0
210
0.0
220
0.0
230
1.0
 40
0.3419987131
 41
3.310521928178941
 42
4.221709151398933
  0
SPLINE
  5
2A3
330
1F
100
AcDbEntity
  8
0
  6
Continuous
 62
     7
370
    15
100
AcDbSpline
210
0.0
220
0.0
230
1.0
 70
     8
 71
     3
 72
    12
 73
     8
 74
     0
 42
0.00000001
 43
0.00000001
 12
1.0
 22
0.0
 32
0.0
 13
1.0
 23
0.0
 33
0.0
 40
0.0
 40
0.0
 40
0.0
 40
0.0
 40
0.2499999999999998
 40
0.2499999999999998
 40
0.4999999999999996
 40
0.4999999999999996
 40
1.0
 40
1.0
 40
1.0
 40
1.0
 10
181.5234605919359
 20
41.24615101233416
 30
0.0
 10
181.5871258284664
 20
41.24615101233416
 30
0.0
 10
181.6467320606897
 20
41.22007886385448
 30
0.0
 10
181.7453925856206
 20
41.14454011303337
 30
0.0
 10
181.7843595756358
 20
41.09728917593715
 30
0.0
 10
181.8837464075603
 20
40.94546535797071
 30
0.0
 10
181.9258226549838
 20
40.83266210820564
 30
0.0
 10
181.9564732938281
 20
40.71850798347054
 30
0.0
  0
LINE
  5
2A4
330
1F
100
AcDbEntity
  8
0
  6
Continuous
 62
     7
370
    15
100
AcDbLine
 10
178.5789742191
 20
41.2461510123
 30
0.0
 11
181.5234605919
 21
41.2461510123
 31
0.0
  0
SPLINE
  5
2A5
330
1F
100
AcDbEntity
  8
0
  6
Continuous
 62
     7
370
    15
100
AcDbSpline
210
0.0
220
0.0
230
1.0
 70
     8
 71
     3
 72
    12
 73
     8
 74
     0
 42
0.00000001
 43
0.00000001
 12
1.0
 22
0.0
 32
0.0
 13
1.0
 23
0.0
 33
0.0
 40
0.0
 40
0.0
 40
0.0
 40
0.0
 40
0.5000000000000004
 40
0.5000000000000004
 40
0.7500000000000002
 40
0.7500000000000002
 40
1.0
 40
1.0
 40
1.0
 40
1.0
 10
178.1459615171765
 20
40.71850798347056
 30
0.0
 10
178.1766609005438
 20
40.83284365053441
 30
0.0
 10
178.2180109686503
 20
40.94419700337574
 30
0.0
 10
178.3177668968698
 20
41.09693377562449
 30
0.0
 10
178.3574638146025
 20
41.14479366147661
 30
0.0
 10
178.4547219662501
 20
41.21939677482607
 30
0.0
 10
178.5154981242408
 20
41.24615101233416
 30
0.0
 10
178.5789742190688
 20
41.24615101233416
 30
0.0
  0
ELLIPSE
  5
2A6
330
1F
100
AcDbEntity
  8
0
  6
Continuous
 62
     7
370
    15
100
AcDbEllipse
 10
191.1074750605
 20
48.8149609815
 30
0.0
 11
11.70927234972717
 21
24.67718644093745
 31
0.0
210
0.0
220
0.0
230
1.0
 40
0.3419987131
 41
2.061476155780664
 42
2.972663379000686
  0
LINE
  5
2A7
330
1F
100
AcDbEntity
  8
0
  6
Continuous
 62
     7
370
    15
100
AcDbLine
 10
170.0512174055
 20
24.1149609815
 30
0.0
 11
170.0512174055
 21
73.5149609815
 31
0.0
  0
SPLINE
  5
2A8
330
1F
100
AcDbEntity
  8
0
  6
Continuous
 62
     7
370
    15
100
AcDbSpline
210
0.0
220
0.0
230
1.0
 70
     8
 71
     3
 72
    14
 73
    10
 74
     0
 42
0.00000001
 43
0.00000001
 12
1.0
 22
0.0
 32
0.0
 13
1.0
 23
0.0
 33
0.0
 40
0.0
 40
0.0
 40
0.0
 40
0.0
 40
0.25
 40
0.25
 40
0.5
 40
0.5
 40
0.75
 40
0.75
 40
1.0
 40
1.0
 40
1.0
 40
1.0
 10
169.010356377374
 20
61.74982346904111
 30
0.0
 10
169.0420715117047
 20
61.78410466403533
 30
0.0
 10
169.076686037005
 20
61.81735693240311
 30
0.0
 10
169.1563572324204
 20
61.88064738950794
 30
0.0
 10
169.2014131094508
 20
61.91108129827691
 30
0.0
 10
169.3119675219562
 20
61.96232399572717
 30
0.0
 10
169.3793529361604
 20
61.98308149617726
 30
0.0
 10
169.5299824560584
 20
61.98856727412113
 30
0.0
 10
169.5998096928238
 20
61.9721562735157
 30
0.0
 10
169.6562405166272
 20
61.94936884430396
 30
0.0
  0
SPLINE
  5
2A9
330
1F
100
AcDbEntity
  8
0
  6
Continuous
 62
     7
370
    15
100
AcDbSpline
210
0.0
220
0.0
230
1.0
 70
     8
 71
     3
 72
    16
 73
    12
 74
     0
 42
0.00000001
 43
0.00000001
 12
1.0
 22
0.0
 32
0.0
 13
1.0
 23
0.0
 33
0.0
 40
0.0
 40
0.0
 40
0.0
 40
0.0
 40
0.0624999999999988
 40
0.0624999999999988
 40
0.1249999999999976
 40
0.1249999999999976
 40
0.2499999999999933
 40
0.2499999999999933
 40
0.4999999999999939
 40
0.4999999999999939
 40
1.0
 40
1.0
 40
1.0
 40
1.0
 10
169.6562405165954
 20
61.94936884426006
 30
0.0
 10
169.6679747510424
 20
61.94463042261292
 30
0.0
 10
169.6815065065213
 20
61.9416681454662
 30
0.0
 10
169.7114939669511
 20
61.94504732308792
 30
0.0
 10
169.7264886733594
 20
61.95192713082346
 30
0.0
 10
169.7622290957542
 20
61.97887079037598
 30
0.0
 10
169.7762424327554
 20
62.00194525683028
 30
0.0
 10
169.8103865215367
 20
62.06863297910465
 30
0.0
 10
169.8213584256551
 20
62.1121364551873
 30
0.0
 10
169.8472039659214
 20
62.24085167813585
 30
0.0
 10
169.8512174055023
 20
62.32224185876691
 30
0.0
 10
169.8512174055023
 20
62.40072566891076
 30
0.0
  0
LINE
  5
2AA
330
1F
100
AcDbEntity
  8
0
  6
Continuous
 62
     7
370
    15
100
AcDbLine
 10
169.8512174055
 20
66.6547812604
 30
0.0
 11
169.8512174055
 21
62.4007256689
 31
0.0
  0
SPLINE
  5
2AB
330
1F
100
AcDbEntity
  8
0
  6
Continuous
 62
     7
370
    15
100
AcDbSpline
210
0.0
220
0.0
230
1.0
 70
     8
 71
     3
 72
    10
 73
     6
 74
     0
 42
0.00000001
 43
0.00000001
 12
1.0
 22
0.0
 32
0.0
 13
1.0
 23
0.0
 33
0.0
 40
0.0
 40
0.0
 40
0.0
 40
0.0
 40
0.5
 40
0.5
 40
1.0
 40
1.0
 40
1.0
 40
1.0
 10
169.0103563773731
 20
31.70020158951122
 30
0.0
 10
168.9385669076202
 20
31.6257275875213
 30
0.0
 10
168.8861086047748
 20
31.55107210461229
 30
0.0
 10
168.7967683532779
 20
31.40616406569116
 30
0.0
 10
168.7607756455546
 20
31.33573920672209
 30
0.0
 10
168.7298970619427
 20
31.26815666219171
 30
0.0
  0
SPLINE
  5
2AC
330
1F
100
AcDbEntity
  8
0
  6
Continuous
 62
     7
370
    15
100
AcDbSpline
210
0.0
220
0.0
230
1.0
 70
     8
 71
     3
 72
    14
 73
    10
 74
     0
 42
0.00000001
 43
0.00000001
 12
1.0
 22
0.0
 32
0.0
 13
1.0
 23
0.0
 33
0.0
 40
0.0
 40
0.0
 40
0.0
 40
0.0
 40
0.25
 40
0.25
 40
0.5
 40
0.5
 40
0.75
 40
0.75
 40
1.0
 40
1.0
 40
1.0
 40
1.0
 10
169.0103563773725
 20
31.70020158951056
 30
0.0
 10
169.0420650768579
 20
31.73309602036096
 30
0.0
 10
169.0766728954984
 20
31.76531933001852
 30
0.0
 10
169.1563313059878
 20
31.82685183976089
 30
0.0
 10
169.2013935758827
 20
31.85660128562442
 30
0.0
 10
169.311975421461
 20
31.90564377911507
 30
0.0
 10
169.3796195422763
 20
31.92479439055407
 30
0.0
 10
169.5298678326734
 20
31.92384868311865
 30
0.0
 10
169.5998202309038
 20
31.90316066593595
 30
0.0
 10
169.6562405166273
 20
31.87661645444959
 30
0.0
  0
SPLINE
  5
2AD
330
1F
100
AcDbEntity
  8
0
  6
Continuous
 62
     7
370
    15
100
AcDbSpline
210
0.0
220
0.0
230
1.0
 70
     8
 71
     3
 72
    16
 73
    12
 74
     0
 42
0.00000001
 43
0.00000001
 12
1.0
 22
0.0
 32
0.0
 13
1.0
 23
0.0
 33
0.0
 40
0.0
 40
0.0
 40
0.0
 40
0.0
 40
0.0625000000000001
 40
0.0625000000000001
 40
0.1250000000000001
 40
0.1250000000000001
 40
0.2500000000000001
 40
0.2500000000000001
 40
0.5
 40
0.5
 40
1.0
 40
1.0
 40
1.0
 40
1.0
 10
169.6562405165955
 20
31.87661645444498
 30
0.0
 10
169.6679747510424
 20
31.87109581595687
 30
0.0
 10
169.6815065065213
 20
31.86558175908524
 30
0.0
 10
169.7114939669511
 20
31.85675019588115
 30
0.0
 10
169.7264886733594
 20
31.85411337260161
 30
0.0
 10
169.7622290957542
 20
31.8516976730578
 30
0.0
 10
169.7762424327554
 20
31.85544461605101
 30
0.0
 10
169.8103865215367
 20
31.86943157205216
 30
0.0
 10
169.8213584256551
 20
31.8835329979113
 30
0.0
 10
169.8472039659214
 20
31.9304507686267
 30
0.0
 10
169.8512174055023
 20
31.96823324424868
 30
0.0
 10
169.8512174055023
 20
32.00885542643483
 30
0.0
  0
LINE
  5
2AE
330
1F
100
AcDbEntity
  8
0
  6
Continuous
 62
     7
370
    15
100
AcDbLine
 10
169.8512174055
 20
52.0353018492
 30
0.0
 11
169.8512174055
 21
32.0088554264
 31
0.0
  0
SPLINE
  5
2AF
330
1F
100
AcDbEntity
  8
0
  6
Continuous
 62
     7
370
    15
100
AcDbSpline
210
0.0
220
0.0
230
1.0
 70
     8
 71
     3
 72
    16
 73
    12
 74
     0
 42
0.00000001
 43
0.00000001
 12
1.0
 22
0.0
 32
0.0
 13
1.0
 23
0.0
 33
0.0
 40
0.0
 40
0.0
 40
0.0
 40
0.0
 40
0.4999999999999973
 40
0.4999999999999973
 40
0.7499999999999978
 40
0.7499999999999978
 40
0.8749999999999989
 40
0.8749999999999989
 40
0.9374999999999994
 40
0.9374999999999994
 40
1.0
 40
1.0
 40
1.0
 40
1.0
 10
169.8512174055024
 20
52.0353018491995
 30
0.0
 10
169.8512174055022
 20
52.15525562777493
 30
0.0
 10
169.8470928626482
 20
52.27498694942882
 30
0.0
 10
169.8211764170151
 20
52.4501200956419
 30
0.0
 10
169.8098988359953
 20
52.50821180678074
 30
0.0
 10
169.7761634574539
 20
52.58755737012095
 30
0.0
 10
169.7617746422095
 20
52.6146976840969
 30
0.0
 10
169.7265279527705
 20
52.63877953821449
 30
0.0
 10
169.7113225283135
 20
52.64305452365955
 30
0.0
 10
169.6816759491442
 20
52.63766357897308
 30
0.0
 10
169.6679706131468
 20
52.62915308820412
 30
0.0
 10
169.656240516623
 20
52.61889764579666
 30
0.0
  0
SPLINE
  5
2B0
330
1F
100
AcDbEntity
  8
0
  6
Continuous
 62
     7
370
    15
100
AcDbSpline
210
0.0
220
0.0
230
1.0
 70
     8
 71
     3
 72
    14
 73
    10
 74
     0
 42
0.00000001
 43
0.00000001
 12
1.0
 22
0.0
 32
0.0
 13
1.0
 23
0.0
 33
0.0
 40
0.0
 40
0.0
 40
0.0
 40
0.0
 40
0.25
 40
0.25
 40
0.5
 40
0.5
 40
0.75
 40
0.75
 40
1.0
 40
1.0
 40
1.0
 40
1.0
 10
169.6562405166335
 20
52.61889764578195
 30
0.0
 10
169.5997934345752
 20
52.56954683286072
 30
0.0
 10
169.5289430505324
 20
52.53250486097205
 30
0.0
 10
169.380506615716
 20
52.53696479279168
 30
0.0
 10
169.3113173640291
 20
52.57745232642121
 30
0.0
 10
169.2016058157882
 20
52.67707318473181
 30
0.0
 10
169.1563641664458
 20
52.73735834265511
 30
0.0
 10
169.076716148262
 20
52.86214383647989
 30
0.0
 10
169.042089232496
 20
52.92763804664641
 30
0.0
 10
169.0103563773746
 20
52.99485788598874
 30
0.0
  0
SPLINE
  5
2B1
330
1F
100
AcDbEntity
  8
0
  6
Continuous
 62
     7
370
    15
100
AcDbSpline
210
0.0
220
0.0
230
1.0
 70
     8
 71
     3
 72
    10
 73
     6
 74
     0
 42
0.00000001
 43
0.00000001
 12
1.0
 22
0.0
 32
0.0
 13
1.0
 23
0.0
 33
0.0
 40
0.0
 40
0.0
 40
0.0
 40
0.0
 40
0.5
 40
0.5
 40
1.0
 40
1.0
 40
1.0
 40
1.0
 10
169.0103563773748
 20
52.9948578859906
 30
0.0
 10
168.9385474019822
 20
53.14697113803702
 30
0.0
 10
168.8860915425594
 20
53.30460477960671
 30
0.0
 10
168.796756956668
 20
53.62403642011125
 30
0.0
 10
168.760770093755
 20
53.78609888917042
 30
0.0
 10
168.7298970619427
 20
53.94944291483824
 30
0.0
  0
SPLINE
  5
2B2
330
1F
100
AcDbEntity
  8
0
  6
Continuous
 62
     7
370
    15
100
AcDbSpline
210
0.0
220
0.0
230
1.0
 70
     8
 71
     3
 72
    10
 73
     6
 74
     0
 42
0.00000001
 43
0.00000001
 12
1.0
 22
0.0
 32
0.0
 13
1.0
 23
0.0
 33
0.0
 40
0.0
 40
0.0
 40
0.0
 40
0.0
 40
0.5
 40
0.5
 40
1.0
 40
1.0
 40
1.0
 40
1.0
 10
168.7298970619427
 20
61.22728336751555
 30
0.0
 10
168.7607784015408
 20
61.32308277185134
 30
0.0
 10
168.7967740110407
 20
61.41474391350228
 30
0.0
 10
168.8861170751421
 20
61.58927396221249
 30
0.0
 10
168.9385765894502
 20
61.67223600304471
 30
0.0
 10
169.010356377374
 20
61.74982346904111
 30
0.0
  0
SPLINE
  5
2B3
330
1F
100
AcDbEntity
  8
0
  6
Continuous
 62
     7
370
    15
100
AcDbSpline
210
0.0
220
0.0
230
1.0
 70
     8
 71
     3
 72
    18
 73
    14
 74
     0
 42
0.00000001
 43
0.00000001
 12
1.0
 22
0.0
 32
0.0
 13
1.0
 23
0.0
 33
0.0
 40
0.0
 40
0.0
 40
0.0
 40
0.0
 40
0.2499999999999998
 40
0.2499999999999998
 40
0.3749999999999997
 40
0.3749999999999997
 40
0.4999999999999996
 40
0.4999999999999996
 40
0.6249999999999994
 40
0.6249999999999994
 40
0.7499999999999993
 40
0.7499999999999993
 40
1.0
 40
1.0
 40
1.0
 40
1.0
 10
168.7298970619427
 20
53.94944291483822
 30
0.0
 10
168.5946114556403
 20
54.66521633426408
 30
0.0
 10
168.4934437093974
 20
55.36602648123058
 30
0.0
 10
168.3905823665285
 20
56.39443787054924
 30
0.0
 10
168.3644795210052
 20
56.7343208288274
 30
0.0
 10
168.3295895374603
 20
57.40213258345671
 30
0.0
 10
168.3210032791704
 20
57.72532436401193
 30
0.0
 10
168.3209035696047
 20
58.35097442887189
 30
0.0
 10
168.3293919407533
 20
58.65343080588185
 30
0.0
 10
168.3635353202739
 20
59.23758072668184
 30
0.0
 10
168.3893323021276
 20
59.52034482337636
 30
0.0
 10
168.4927334335156
 20
60.32903962230221
 30
0.0
 10
168.594591425687
 20
60.80754123439431
 30
0.0
 10
168.7298970619427
 20
61.22728336751555
 30
0.0
  0
LINE
  5
2B4
330
1F
100
AcDbEntity
  8
0
  6
Continuous
 62
     7
370
    15
100
AcDbLine
 10
141.5512174055
 20
52.994857886
 30
0.0
 11
141.5512174055
 21
61.3256389961
 31
0.0
  0
LINE
  5
2B5
330
1F
100
AcDbEntity
  8
0
  6
Continuous
 62
     7
370
    15
100
AcDbLine
 10
167.8512174055
 20
52.994857886
 30
0.0
 11
167.8512174055
 21
61.8978631535
 31
0.0
  0
LINE
  5
2B6
330
1F
100
AcDbEntity
  8
0
  6
Continuous
 62
     7
370
    15
100
AcDbLine
 10
167.8512174055
 20
31.552161905
 30
0.0
 11
167.8512174055
 21
52.994857886
 31
0.0
  0
LINE
  5
2B7
330
1F
100
AcDbEntity
  8
0
  6
Continuous
 62
     7
370
    15
100
AcDbLine
 10
141.5512174055
 20
32.1243860624
 30
0.0
 11
141.5512174055
 21
52.994857886
 31
0.0
  0
LINE
  5
2B8
330
1F
100
AcDbEntity
  8
0
  6
Continuous
 62
     7
370
    15
100
AcDbLine
 10
140.0512174055
 20
52.994857886
 30
0.0
 11
140.0512174055
 21
60.5756389961
 31
0.0
  0
LINE
  5
2B9
330
1F
100
AcDbEntity
  8
0
  6
Continuous
 62
     7
370
    15
100
AcDbLine
 10
140.0512174055
 20
32.8743860624
 30
0.0
 11
140.0512174055
 21
52.994857886
 31
0.0
  0
LINE
  5
2BA
330
1F
100
AcDbEntity
  8
0
  6
Continuous
 62
     7
370
    15
100
AcDbLine
 10
167.8512174055
 20
61.8978631535
 30
0.0
 11
167.8512174055
 21
65.2150597661
 31
0.0
  0
LINE
  5
2BB
330
1F
100
AcDbEntity
  8
0
  6
Continuous
 62
     7
370
    15
100
AcDbLine
 10
141.5512174055
 20
61.3256389961
 30
0.0
 11
141.5512174055
 21
64.3477577399
 31
0.0
  0
SPLINE
  5
2BC
330
1F
100
AcDbEntity
  8
0
  6
Continuous
 62
     7
370
    15
100
AcDbSpline
210
0.0
220
0.0
230
1.0
 70
     8
 71
     3
 72
     8
 73
     4
 74
     0
 42
0.00000001
 43
0.00000001
 12
1.0
 22
0.0
 32
0.0
 13
1.0
 23
0.0
 33
0.0
 40
0.0000202082942178
 40
0.0000202082942178
 40
0.0000202082942178
 40
0.0000202082942178
 40
0.0040218803475995
 40
0.0040218803475995
 40
0.0040218803475995
 40
0.0040218803475995
 10
145.5512174055023
 20
64.43982473995253
 30
0.0
 10
144.2178744045155
 20
64.40907166322258
 30
0.0
 10
142.8845405312929
 20
64.37838265173893
 30
0.0
 10
141.5512174055023
 20
64.34775773992558
 30
0.0
  0
SPLINE
  5
2BD
330
1F
100
AcDbEntity
  8
0
  6
Continuous
 62
     7
370
    15
100
AcDbSpline
210
0.0
220
0.0
230
1.0
 70
     8
 71
     3
 72
    14
 73
    10
 74
     0
 42
0.00000001
 43
0.00000001
 12
1.0
 22
0.0
 32
0.0
 13
1.0
 23
0.0
 33
0.0
 40
0.0
 40
0.0
 40
0.0
 40
0.0
 40
0.0581152347113017
 40
0.154684620111428
 40
0.2537782824752864
 40
0.3909362575851159
 40
0.529680741498228
 40
0.8121000209871801
 40
1.0
 40
1.0
 40
1.0
 40
1.0
 10
147.4291468487868
 20
64.70125541041044
 30
0.0
 10
147.4302773027375
 20
64.70137331137522
 30
0.0
 10
147.4332862183992
 20
64.70168712695285
 30
0.0
 10
147.3570106782203
 20
64.69375964282114
 30
0.0
 10
147.208585309413
 20
64.67768667049664
 30
0.0
 10
146.9799798923342
 20
64.65138897896644
 30
0.0
 10
146.5855940675337
 20
64.60168203495375
 30
0.0
 10
146.1023537150082
 20
64.53321825047517
 30
0.0
 10
145.7085487247454
 20
64.46648552053591
 30
0.0
 10
145.5512174055023
 20
64.43982473995253
 30
0.0
  0
SPLINE
  5
2BE
330
1F
100
AcDbEntity
  8
0
  6
Continuous
 62
     7
370
    15
100
AcDbSpline
210
0.0
220
0.0
230
1.0
 70
     8
 71
     3
 72
    22
 73
    18
 74
     0
 42
0.00000001
 43
0.00000001
 12
1.0
 22
0.0
 32
0.0
 13
1.0
 23
0.0
 33
0.0
 40
0.0
 40
0.0
 40
0.0
 40
0.0
 40
0.0590732554725935
 40
0.1193975166078276
 40
0.1883060884322869
 40
0.259053144582259
 40
0.3309221188202043
 40
0.4047811275823819
 40
0.4782910730341869
 40
0.5539400782635597
 40
0.6271979930086614
 40
0.7027383041671418
 40
0.7732007814857377
 40
0.8460064499098859
 40
0.911659110811547
 40
0.9794716210683062
 40
1.0
 40
1.0
 40
1.0
 40
1.0
 10
153.5802759339847
 20
64.76975009251517
 30
0.0
 10
153.6912067401044
 20
64.76261591580477
 30
0.0
 10
153.9154175553039
 20
64.74819648055534
 30
0.0
 10
154.3293402244901
 20
64.72817873554506
 30
0.0
 10
154.8069678278825
 20
64.71254928820612
 30
0.0
 10
155.3474280721397
 20
64.70519994570198
 30
0.0
 10
155.9206980100947
 20
64.70914764800663
 30
0.0
 10
156.506947316523
 20
64.72574050529639
 30
0.0
 10
157.0924576909796
 20
64.75489414665857
 30
0.0
 10
157.6493186595377
 20
64.79428822414636
 30
0.0
 10
158.1668882750771
 20
64.84093819797116
 30
0.0
 10
158.6136608774648
 20
64.88899692001719
 30
0.0
 10
158.9848272230658
 20
64.93425306507328
 30
0.0
 10
159.2581373163414
 20
64.97072080375547
 30
0.0
 10
159.4301055004462
 20
64.99494451107375
 30
0.0
 10
159.5053311790514
 20
65.00587518044803
 30
0.0
 10
159.4945641969329
 20
65.00431393967813
 30
0.0
 10
159.4920621993765
 20
65.0039511434416
 30
0.0
  0
SPLINE
  5
2BF
330
1F
100
AcDbEntity
  8
0
  6
Continuous
 62
     7
370
    15
100
AcDbSpline
210
0.0
220
0.0
230
1.0
 70
     8
 71
     3
 72
    12
 73
     8
 74
     0
 42
0.00000001
 43
0.00000001
 12
1.0
 22
0.0
 32
0.0
 13
1.0
 23
0.0
 33
0.0
 40
0.0
 40
0.0
 40
0.0
 40
0.0
 40
0.2242535478257892
 40
0.4415254162113478
 40
0.6648557241215909
 40
0.8312142302999095
 40
1.0
 40
1.0
 40
1.0
 40
1.0
 10
152.7713787568077
 20
64.83607390965106
 30
0.0
 10
152.7793211248004
 20
64.83530221579574
 30
0.0
 10
152.7949585912648
 20
64.83378285320835
 30
0.0
 10
152.9260043675502
 20
64.82141211092105
 30
0.0
 10
153.1118757062246
 20
64.80508039055108
 30
0.0
 10
153.3341551039351
 20
64.78704291203341
 30
0.0
 10
153.4978404965591
 20
64.77554213027572
 30
0.0
 10
153.5802759339847
 20
64.76975009251517
 30
0.0
  0
SPLINE
  5
2C0
330
1F
100
AcDbEntity
  8
0
  6
Continuous
 62
     7
370
    15
100
AcDbSpline
210
0.0
220
0.0
230
1.0
 70
     8
 71
     3
 72
     8
 73
     4
 74
     0
 42
0.00000001
 43
0.00000001
 12
1.0
 22
0.0
 32
0.0
 13
1.0
 23
0.0
 33
0.0
 40
0.0
 40
0.0
 40
0.0
 40
0.0
 40
1.0
 40
1.0
 40
1.0
 40
1.0
 10
141.5512174055023
 20
64.34775773992558
 30
0.0
 10
141.0301651630416
 20
64.07272761326887
 30
0.0
 10
140.52542881594
 20
63.81154083911854
 30
0.0
 10
140.0512174055023
 20
63.57022996515957
 30
0.0
  0
LINE
  5
2C1
330
1F
100
AcDbEntity
  8
0
  6
Continuous
 62
     7
370
    15
100
AcDbLine
 10
140.0512174055
 20
60.5756389961
 30
0.0
 11
140.0512174055
 21
63.5702299652
 31
0.0
  0
LINE
  5
2C2
330
1F
100
AcDbEntity
  8
0
  6
Continuous
 62
     7
370
    15
100
AcDbLine
 10
257.0512174055
 20
27.0149609815
 30
0.0
 11
257.0512174055
 21
27.8149609815
 31
0.0
  0
LINE
  5
2C3
330
1F
100
AcDbEntity
  8
0
  6
Continuous
 62
     7
370
    15
100
AcDbLine
 10
258.0512174055
 20
28.8149609815
 30
0.0
 11
258.0512174055
 21
27.0149609815
 31
0.0
  0
LINE
  5
2C4
330
1F
100
AcDbEntity
  8
0
  6
Continuous
 62
     7
370
    15
100
AcDbLine
 10
258.0512174055
 20
47.8149609815
 30
0.0
 11
258.0512174055
 21
73.8149609815
 31
0.0
  0
LINE
  5
2C5
330
1F
100
AcDbEntity
  8
0
  6
Continuous
 62
     7
370
    15
100
AcDbLine
 10
258.0512174055
 20
23.8149609815
 30
0.0
 11
257.0512174055
 21
23.8149609815
 31
0.0
  0
LINE
  5
2C6
330
1F
100
AcDbEntity
  8
0
  6
Continuous
 62
     7
370
    15
100
AcDbLine
 10
257.0512174055
 20
23.8149609815
 30
0.0
 11
257.0512174055
 21
27.0149609815
 31
0.0
  0
LINE
  5
2C7
330
1F
100
AcDbEntity
  8
0
  6
Continuous
 62
     7
370
    15
100
AcDbLine
 10
258.0512174055
 20
27.0149609815
 30
0.0
 11
258.0512174055
 21
23.8149609815
 31
0.0
  0
LINE
  5
2C8
330
1F
100
AcDbEntity
  8
0
  6
Continuous
 62
     7
370
    15
100
AcDbLine
 10
214.0512174055
 20
23.8149609815
 30
0.0
 11
257.0512174055
 21
23.8149609815
 31
0.0
  0
LINE
  5
2C9
330
1F
100
AcDbEntity
  8
0
  6
Continuous
 62
     7
370
    15
100
AcDbLine
 10
257.0512174055
 20
22.8149609815
 30
0.0
 11
257.0512174055
 21
23.8149609815
 31
0.0
  0
LINE
  5
2CA
330
1F
100
AcDbEntity
  8
0
  6
Continuous
 62
     7
370
    15
100
AcDbLine
 10
257.0512174055
 20
22.8149609815
 30
0.0
 11
258.0512174055
 21
23.8149609815
 31
0.0
  0
LINE
  5
2CB
330
1F
100
AcDbEntity
  8
0
  6
Continuous
 62
     7
370
    15
100
AcDbLine
 10
257.0512174055
 20
22.8149609815
 30
0.0
 11
214.0512174055
 21
22.8149609815
 31
0.0
  0
SPLINE
  5
2CC
330
1F
100
AcDbEntity
  8
0
  6
Continuous
 62
     7
370
    15
100
AcDbSpline
210
0.0
220
0.0
230
1.0
 70
    24
 71
     3
 72
    11
 73
     7
 74
     0
 42
0.00000001
 43
0.00000001
 12
1.0
 22
0.0
 32
0.0
 13
1.0
 23
0.0
 33
0.0
 40
0.0
 40
0.0
 40
0.0
 40
0.0
 40
0.328870724196289
 40
0.6685624978583021
 40
0.9993953321510581
 40
0.9999999999999999
 40
0.9999999999999999
 40
0.9999999999999999
 40
0.9999999999999999
 10
192.0512219625703
 20
22.81496098151517
 30
0.0
 10
192.0313151890645
 20
22.81496098151523
 30
0.0
 10
191.9908466364081
 20
22.81496098151539
 30
0.0
 10
191.8316323692226
 20
22.81496098151427
 30
0.0
 10
191.7752725091355
 20
22.81496098151704
 30
0.0
 10
191.7833079769225
 20
22.81496098151516
 30
0.0
 10
191.7833226366667
 20
22.81496098151517
 30
0.0
  0
LINE
  5
2CD
330
1F
100
AcDbEntity
  8
0
  6
Continuous
 62
     7
370
    15
100
AcDbLine
 10
167.8512174055
 20
31.552161905
 30
0.0
 11
167.8512174055
 21
30.1748621969
 31
0.0
  0
LINE
  5
2CE
330
1F
100
AcDbEntity
  8
0
  6
Continuous
 62
     7
370
    15
100
AcDbLine
 10
141.5512174055
 20
32.1243860624
 30
0.0
 11
141.5512174055
 21
30.8356097396
 31
0.0
  0
SPLINE
  5
2CF
330
1F
100
AcDbEntity
  8
0
  6
Continuous
 62
     7
370
    15
100
AcDbSpline
210
0.0
220
0.0
230
1.0
 70
     8
 71
     3
 72
    10
 73
     6
 74
     0
 42
0.00000001
 43
0.00000001
 12
1.0
 22
0.0
 32
0.0
 13
1.0
 23
0.0
 33
0.0
 40
0.0
 40
0.0
 40
0.0
 40
0.0
 40
0.3599412485529688
 40
0.7301023945709357
 40
1.0
 40
1.0
 40
1.0
 40
1.0
 10
168.7298970619427
 20
31.26815666219171
 30
0.0
 10
168.6434335049057
 20
31.07800535629866
 30
0.0
 10
168.4680514104956
 20
30.69230373326593
 30
0.0
 10
168.3380135560932
 20
30.40121112884476
 30
0.0
 10
168.3331261399331
 20
30.39032585013921
 30
0.0
 10
168.3310652323752
 20
30.38573578610147
 30
0.0
  0
LINE
  5
2D0
330
1F
100
AcDbEntity
  8
0
  6
Continuous
 62
     7
370
    15
100
AcDbLine
 10
140.0512174055
 20
32.8743860624
 30
0.0
 11
140.0512174055
 21
31.7016351434
 31
0.0
  0
LWPOLYLINE
  5
2D1
330
1F
100
AcDbEntity
  8
0
  6
Continuous
 62
     7
370
    15
100
AcDbPolyline
 90
       29
 70
   128
 43
0.0
 10
259.7697973878
 20
34.1703393954
 10
259.6770567486
 20
33.7102063257
 10
259.5913965933
 20
33.3859422357
 10
259.5171122798
 20
33.213807081
 10
259.4579287338
 20
33.2024324369
 10
259.4168136654
 20
33.3523886756
 10
259.3958287557
 20
33.6561563652
 10
259.3960262759
 20
34.0985033252
 10
259.4173963214
 20
34.6572484319
 10
259.4588673089
 20
35.3043738727
 10
259.5183597099
 20
36.0074300758
 10
259.592890327
 20
36.7311628673
 10
259.6787218838
 20
37.4392812632
 10
259.7715504278
 20
38.0962772502
 10
259.8667211481
 20
38.6692063062
 10
259.9594617873
 20
39.1293393758
 10
260.0451219426
 20
39.4536034658
 10
260.1194062561
 20
39.6257386205
 10
260.1785898021
 20
39.6371132646
 10
260.2197048705
 20
39.4871570259
 10
260.2406897801
 20
39.1833893364
 10
260.24049226
 20
38.7410423764
 10
260.2191222145
 20
38.1822972696
 10
260.177651227
 20
37.5351718288
 10
260.118158826
 20
36.8321156258
 10
260.0436282089
 20
36.1083828342
 10
259.957796652
 20
35.4002644383
 10
259.8649681081
 20
34.7432684513
 10
259.7697973878
 20
34.1703393954
  0
LWPOLYLINE
  5
2D2
330
1F
100
AcDbEntity
  8
0
  6
Continuous
 62
     7
370
    15
100
AcDbPolyline
 90
       25
 70
   128
 43
0.0
 10
259.7809808986
 20
34.6894394235
 10
259.6981880976
 20
34.2862539037
 10
259.6235779485
 20
34.0284641744
 10
259.5622350095
 20
33.9336381795
 10
259.5183397006
 20
34.0082381539
 10
259.4948834147
 20
34.2471802327
 10
259.4934646587
 20
34.634180908
 10
259.5141801186
 20
35.1428667234
 10
259.55561807
 20
35.7385715811
 10
259.614954585
 20
36.3806991797
 10
259.6881459782
 20
37.0254895844
 10
259.770204377
 20
37.6290013947
 10
259.8555376373
 20
38.150106278
 10
259.9383304383
 20
38.5532917978
 10
260.0129405874
 20
38.8110815272
 10
260.0742835264
 20
38.9059075221
 10
260.1181788352
 20
38.8313075476
 10
260.1416351212
 20
38.5923654689
 10
260.1430538772
 20
38.2053647935
 10
260.1223384173
 20
37.6966789782
 10
260.0809004659
 20
37.1009741204
 10
260.0215639509
 20
36.4588465218
 10
259.9483725577
 20
35.8140561171
 10
259.8663141589
 20
35.2105443069
 10
259.7809808986
 20
34.6894394235
  0
LINE
  5
2D3
330
1F
100
AcDbEntity
  8
0
  6
Continuous
 62
     7
370
    15
100
AcDbLine
 10
213.5512174055
 20
48.8149609815
 30
0.0
 11
206.5512174055
 21
48.8149609815
 31
0.0
  0
LINE
  5
2D4
330
1F
100
AcDbEntity
  8
0
  6
Continuous
 62
     7
370
    15
100
AcDbLine
 10
233.5512174055
 20
48.8149609815
 30
0.0
 11
226.5512174055
 21
48.8149609815
 31
0.0
  0
LINE
  5
2D5
330
1F
100
AcDbEntity
  8
0
  6
Continuous
 62
     7
370
    15
100
AcDbLine
 10
253.5512174055
 20
48.8149609815
 30
0.0
 11
246.5512174055
 21
48.8149609815
 31
0.0
  0
LINE
  5
2D6
330
1F
100
AcDbEntity
  8
VERMASSUNG
  6
CENTERX2
100
AcDbLine
 10
135.9862381073
 20
48.8149609815
 30
0.0
 11
271.5528455645
 21
48.8149609815
 31
0.0
  0
DIMENSION
  5
2D7
330
1F
100
AcDbEntity
  8
VERMASSUNG
100
AcDbDimension
  2
_D_12
 10
268.0512174055
 20
101.3170124578
 30
0.0
 11
230.5512174055
 21
101.3170124578
 31
0.0
 70
   160
  1
<>
 71
     2
 42
-1.0
  3
SLDDIMSTYLE1
100
AcDbAlignedDimension
 13
193.0512174055
 23
73.8149609815
 33
0.0
 14
268.0512174055
 24
93.8149609815
 34
0.0
100
AcDbRotatedDimension
  0
OLE2FRAME
  5
2E1
330
1F
100
AcDbEntity
  8
0
100
AcDbOle2Frame
 70
     2
  3
Paintbrush-Bild
 10
13.8511154363
 20
38.264191557
 30
0.0
 11
51.6290888628
 21
31.9806341108
 31
0.0
 71
     2
 72
     0
 73
     1
 90
    12928
310
80552BED0767C5B32B40DDAF6807D121434000000000000000006FFBDDFB85D0
310
4940DDAF6807D121434000000000000000006FFBDDFB85D04940416F4BD60AFB
310
3F4000000000000000002BED0767C5B32B40416F4BD60AFB3F40000000000000
310
0000000000000100000000010000010000000100000000000100000000320000
310
D0CF11E0A1B11AE1000000000000000000000000000000003E000300FEFF0900
310
0600000000000000000000000100000001000000000000000010000002000000
310
01000000FEFFFFFF0000000000000000FFFFFFFFFFFFFFFFFFFFFFFFFFFFFFFF
310
FFFFFFFFFFFFFFFFFFFFFFFFFFFFFFFFFFFFFFFFFFFFFFFFFFFFFFFFFFFFFFFF
310
FFFFFFFFFFFFFFFFFFFFFFFFFFFFFFFFFFFFFFFFFFFFFFFFFFFFFFFFFFFFFFFF
310
FFFFFFFFFFFFFFFFFFFFFFFFFFFFFFFFFFFFFFFFFFFFFFFFFFFFFFFFFFFFFFFF
310
FFFFFFFFFFFFFFFFFFFFFFFFFFFFFFFFFFFFFFFFFFFFFFFFFFFFFFFFFFFFFFFF
310
FFFFFFFFFFFFFFFFFFFFFFFFFFFFFFFFFFFFFFFFFFFFFFFFFFFFFFFFFFFFFFFF
310
FFFFFFFFFFFFFFFFFFFFFFFFFFFFFFFFFFFFFFFFFFFFFFFFFFFFFFFFFFFFFFFF
310
FFFFFFFFFFFFFFFFFFFFFFFFFFFFFFFFFFFFFFFFFFFFFFFFFFFFFFFFFFFFFFFF
310
FFFFFFFFFFFFFFFFFFFFFFFFFFFFFFFFFFFFFFFFFFFFFFFFFFFFFFFFFFFFFFFF
310
FFFFFFFFFFFFFFFFFFFFFFFFFFFFFFFFFFFFFFFFFFFFFFFFFFFFFFFFFFFFFFFF
310
FFFFFFFFFFFFFFFFFFFFFFFFFFFFFFFFFFFFFFFFFFFFFFFFFFFFFFFFFFFFFFFF
310
FFFFFFFFFFFFFFFFFFFFFFFFFFFFFFFFFFFFFFFFFFFFFFFFFFFFFFFFFFFFFFFF
310
FFFFFFFFFFFFFFFFFFFFFFFFFFFFFFFFFFFFFFFFFFFFFFFFFFFFFFFFFFFFFFFF
310
FFFFFFFFFFFFFFFFFFFFFFFFFFFFFFFFFFFFFFFFFFFFFFFFFFFFFFFFFFFFFFFF
310
FDFFFFFFFEFFFFFFFEFFFFFFFEFFFFFF05000000060000000700000008000000
310
090000000A0000000B0000000C0000000D0000000E0000000F00000010000000
310
11000000120000001300000014000000150000001600000017000000FEFFFFFF
310
FFFFFFFFFFFFFFFFFFFFFFFFFFFFFFFFFFFFFFFFFFFFFFFFFFFFFFFFFFFFFFFF
310
FFFFFFFFFFFFFFFFFFFFFFFFFFFFFFFFFFFFFFFFFFFFFFFFFFFFFFFFFFFFFFFF
310
FFFFFFFFFFFFFFFFFFFFFFFFFFFFFFFFFFFFFFFFFFFFFFFFFFFFFFFFFFFFFFFF
310
FFFFFFFFFFFFFFFFFFFFFFFFFFFFFFFFFFFFFFFFFFFFFFFFFFFFFFFFFFFFFFFF
310
FFFFFFFFFFFFFFFFFFFFFFFFFFFFFFFFFFFFFFFFFFFFFFFFFFFFFFFFFFFFFFFF
310
FFFFFFFFFFFFFFFFFFFFFFFFFFFFFFFFFFFFFFFFFFFFFFFFFFFFFFFFFFFFFFFF
310
FFFFFFFFFFFFFFFFFFFFFFFFFFFFFFFFFFFFFFFFFFFFFFFFFFFFFFFFFFFFFFFF
310
FFFFFFFFFFFFFFFFFFFFFFFFFFFFFFFFFFFFFFFFFFFFFFFFFFFFFFFFFFFFFFFF
310
FFFFFFFFFFFFFFFFFFFFFFFFFFFFFFFFFFFFFFFFFFFFFFFFFFFFFFFFFFFFFFFF
310
FFFFFFFFFFFFFFFFFFFFFFFFFFFFFFFFFFFFFFFFFFFFFFFFFFFFFFFFFFFFFFFF
310
FFFFFFFFFFFFFFFFFFFFFFFFFFFFFFFFFFFFFFFFFFFFFFFFFFFFFFFFFFFFFFFF
310
FFFFFFFFFFFFFFFFFFFFFFFFFFFFFFFFFFFFFFFFFFFFFFFFFFFFFFFFFFFFFFFF
310
FFFFFFFFFFFFFFFFFFFFFFFFFFFFFFFFFFFFFFFFFFFFFFFFFFFFFFFFFFFFFFFF
310
52006F006F007400200045006E00740072007900000000000000000000000000
310
0000000000000000000000000000000000000000000000000000000000000000
310
16000500FFFFFFFFFFFFFFFF020000000A00030000000000C000000000000046
310
0000000000000000000000004011194A8243CF0103000000C000000000000000
310
01004F006C006500000000000000000000000000000000000000000000000000
310
0000000000000000000000000000000000000000000000000000000000000000
310
0A000200FFFFFFFFFFFFFFFFFFFFFFFF00000000000000000000000000000000
310
0000000000000000000000000000000000000000000000001400000000000000
310
010043006F006D0070004F0062006A0000000000000000000000000000000000
310
0000000000000000000000000000000000000000000000000000000000000000
310
120002010100000003000000FFFFFFFF00000000000000000000000000000000
310
0000000000000000000000000000000000000000010000004D00000000000000
310
01004F006C006500310030004E00610074006900760065000000000000000000
310
0000000000000000000000000000000000000000000000000000000000000000
310
1A000200FFFFFFFFFFFFFFFFFFFFFFFF00000000000000000000000000000000
310
0000000000000000000000000000000000000000040000002426000000000000
310
FEFFFFFF02000000FEFFFFFFFFFFFFFFFFFFFFFFFFFFFFFFFFFFFFFFFFFFFFFF
310
FFFFFFFFFFFFFFFFFFFFFFFFFFFFFFFFFFFFFFFFFFFFFFFFFFFFFFFFFFFFFFFF
310
FFFFFFFFFFFFFFFFFFFFFFFFFFFFFFFFFFFFFFFFFFFFFFFFFFFFFFFFFFFFFFFF
310
FFFFFFFFFFFFFFFFFFFFFFFFFFFFFFFFFFFFFFFFFFFFFFFFFFFFFFFFFFFFFFFF
310
FFFFFFFFFFFFFFFFFFFFFFFFFFFFFFFFFFFFFFFFFFFFFFFFFFFFFFFFFFFFFFFF
310
FFFFFFFFFFFFFFFFFFFFFFFFFFFFFFFFFFFFFFFFFFFFFFFFFFFFFFFFFFFFFFFF
310
FFFFFFFFFFFFFFFFFFFFFFFFFFFFFFFFFFFFFFFFFFFFFFFFFFFFFFFFFFFFFFFF
310
FFFFFFFFFFFFFFFFFFFFFFFFFFFFFFFFFFFFFFFFFFFFFFFFFFFFFFFFFFFFFFFF
310
FFFFFFFFFFFFFFFFFFFFFFFFFFFFFFFFFFFFFFFFFFFFFFFFFFFFFFFFFFFFFFFF
310
FFFFFFFFFFFFFFFFFFFFFFFFFFFFFFFFFFFFFFFFFFFFFFFFFFFFFFFFFFFFFFFF
310
FFFFFFFFFFFFFFFFFFFFFFFFFFFFFFFFFFFFFFFFFFFFFFFFFFFFFFFFFFFFFFFF
310
FFFFFFFFFFFFFFFFFFFFFFFFFFFFFFFFFFFFFFFFFFFFFFFFFFFFFFFFFFFFFFFF
310
FFFFFFFFFFFFFFFFFFFFFFFFFFFFFFFFFFFFFFFFFFFFFFFFFFFFFFFFFFFFFFFF
310
FFFFFFFFFFFFFFFFFFFFFFFFFFFFFFFFFFFFFFFFFFFFFFFFFFFFFFFFFFFFFFFF
310
FFFFFFFFFFFFFFFFFFFFFFFFFFFFFFFFFFFFFFFFFFFFFFFFFFFFFFFFFFFFFFFF
310
FFFFFFFFFFFFFFFFFFFFFFFFFFFFFFFFFFFFFFFFFFFFFFFFFFFFFFFFFFFFFFFF
310
0100000200000000000000000000000000000000000000000000000000000000
310
0000000000000000000000000000000000000000000000000000000000000000
310
0100FEFF030A0000FFFFFFFF0A00030000000000C00000000000004607000000
310
5042727573680007000000504272757368000700000050427275736800F439B2
310
7100000000000000000000000000000000000000000000000000000000000000
310
0000000000000000000000000000000000000000000000000000000000000000
310
0000000000000000000000000000000000000000000000000000000000000000
310
0000000000000000000000000000000000000000000000000000000000000000
310
0000000000000000000000000000000000000000000000000000000000000000
310
0000000000000000000000000000000000000000000000000000000000000000
310
0000000000000000000000000000000000000000000000000000000000000000
310
0000000000000000000000000000000000000000000000000000000000000000
310
0000000000000000000000000000000000000000000000000000000000000000
310
0000000000000000000000000000000000000000000000000000000000000000
310
0000000000000000000000000000000000000000000000000000000000000000
310
0000000000000000000000000000000000000000000000000000000000000000
310
20260000424D0E260000000000003E00000028000000B40200006E0000000100
310
01000000000000000000130B0000130B00000200000002000000000000FFFFFF
310
FFFFFFFFFFFFFFFFFFFFFFFFFFFFFFFFFFFFFFFFFFFFFFFFFFFFFFFFFFFFFFFF
310
FFFFFFFFFFFFFFFFFFFFFFFFFFFFFFFFFFFFFFFFFFFFFFFFFFFFFFFFFFFFFFFF
310
FFFFFFFFFFFFFFFFFFFFFFFFFFFFFFFFFFFFFFFFFFFFFFFFF000FFFFFFFFFFFF
310
FFFFFFFFFFFFFFFFFFFFFFFFFFFFFFFFFFFFFFFFFFFFFFFFFFFFFFFFFFFFFFFF
310
FFFFFFFFFFFFFFFFFFFFFFFFFFFFFFFFFFFFFFFFFFFFFFFFFFFFFFFFFFFFFFFF
310
FFFFFFFFFFFFFFFFFFFFFFFFFFFFFFFFF000FFFFFFFFFFFFFFFFFFFFFFFFFFFF
310
FFFFFFFFFFFFFFFFFFFFFFFFFFFFFFFFFFFFFFFFFFFFFFFFFFFFFFFFFFFFFFFF
310
FFFFFFFFFFFFFFFFFFFFFFFFFFFFFFFFFFFFFFFFFFFFFFFFFFFFFFFFFFFFFFFF
310
FFFFFFFFFFFFFFFFF000FFFFFFFFFFFFFFFFFFFFFFFFFFFFFFFFFFFFFFFFFFFF
310
FFFFFFFFFFFFFFFFFFFFFFFFFFFFFFFFFFFFFFFFFFFFFFFFFFFFFFFFFFFFFFFF
310
FFFFFFFFFFFFFFFFFFFFFFFFFFFFFFFFFFFFFFFFFFFFFFFFFFFFFFFFFFFFFFFF
310
F000FFFFFFFFFFFFFFFFFFFFFFFFFFFFFFFFFFFFFFFFFFFFFFFFFFFFFFFFFFFF
310
FFFFFFFFFFFFFFFFFFFFFFFFFFFFFFFFFFFFFFFFFFFFFFFFFFFFFFFFFFFFFFFF
310
FFFFFFFFFFFFFFFFFFFFFFFFFFFFFFFFFFFFFFFFFFFFFFFFF000FFFFFFFFFFFF
310
FFFFFFFFFFFFFFFFFFFFFFFFFFFFFFFFFFFFFFFFFFFFFFFFFFFFFFFFFFFFFFFF
310
FFFFFFFFFFFFFFFFFFFFFFFFFFFFFFFFFFFFFFFFFFFFFFFFFFFFFFFFFFFFFFFF
310
FFFFFFFFFFFFFFFFFFFFFFFFFFFFFFFFF000FFFFFFFFFFFFFFFFFFFFFFFFFFFF
310
FFFFFFFFFFFFFFFFFFFFFFFFFFFFFFFFFFFFFFFFFFFFFFFFFFFFFFFFFFFFFFFF
310
FFFFFFFFFFFFFFFFFFFFFFFFFFFFFFFFFFFFFFFFFFFFFFFFFFFFFFFFFFFFFFFF
310
FFFFFFFFFFFFFFFFF000FFFFFFFFFFFFFFFFFFFFFFFFFFFFFFFFFFFFFFFFFFFF
310
FFFFFFFFFFFFFFFFFFFFFFFFFFFFFFFFFFFFFFFFFFFFFFFFFFFFFFFFFFFFFFFF
310
FFFFFFFFFFFFFFFFFFFFFFFFFFFFFFFFFFFFFFFFFFFFFFFFFFFFFFFFFFFFFFFF
310
F000FFFFFFFFFFFFFFFFFFFFFFFFFFFFFFFFFFFFFFFFFFFFFFFFFFFFFFFFFFFF
310
FFFFFFFFFFFFFFFFFFFFFFFFFFFFFFFFFFFFFFFFFFFFFFFFFFFFFFFFFFFFFFFF
310
FFFFFFFFFFFFFFFFFFFFFFFFFFFFFFFFFFFFFFFFFFFFFFFFF000FFFFFFFFFFFF
310
FFFFFFFFFFFFFFFFFFFFFFFFFFFFFFFFFFFFFFFFFFFFFFFFFFFFFFFFFFFFFFFF
310
FFFFFFFFFFFFFFFFFFFFFFFFFFFFFFFFFFFFFFFFFFFFFFFFFFFFFFFFFFFFFFFF
310
FFFFFFFFFFFFFFFFFFFFFFFFFFFFFFFFF000FFFFFFFFFFFFFFFFFFFFFFFFFFFF
310
FFFFFFFFFFFFFFFFFFFFFFFFFFFFFFFFFFFFFFFFFFFFFFFFFFFFFFFFFFFFFFFF
310
FFFFFFFFFFFFFFFFFFFFFFFFFFFFFFFFFFFFFFFFFFFFFFFFFFFFFFFFFFFFFFFF
310
FFFFFFFFFFFFFFFFF000FFFFFFFFFFFFFFFFFFFFFFFFFFFFFFFFFFFFFFFFFFFF
310
FFFFFFFFFFFFFFFFFFFFFFFFFFFFFFFFFFFFFFFFFFFFFFFFFFFFFFFFFFFFFFFF
310
FFFFFFFFFFFFFFFFFFFFFFFFFFFFFFFFFFFFFFFFFFFFFFFFFFFFFFFFFFFFFFFF
310
F000FFFFFFFFFFFFFFFFFFFFFFFFFFFFFFFFFFFFFFFFFFFFFFFFFFFFFFFFFFFF
310
FFFFFFFFFFFFFFFFFFFFFFFFFFFFFFFFFFFFFFFFFFFFFFFFFFFFFFFFFFFFFFFF
310
FFFFFFFFFFFFFFFFFFFFFFFFFFFFFFFFFFFFFFFFFFFFFFFFF000FFFFFFFFFFFF
310
FFFFFFFFFFFFFFFFFFFFFFFFFFFFFFFFFFFFFFFFFFFFFFFFFFFFFFFFFFFFFFFF
310
FFFFFFFFFFFFFFFFFFFFFFFFFFFFFFFFFFFFFFFFFFFFFFFFFFFFFFFFFFFFFFFF
310
FFFFFFFFFFFFFFFFFFFFFFFFFFFFFFFFF000FFFFFFFFFFFFFFFFFFFFFFFFFFFF
310
FFFFFFFFFFFFFFFFFFFFFFFFFFFFFFFFFFFFFFFFFFFFFFFFFFFFFFFFFFFFFFFF
310
FFFFFFFFFFFFFFFFFFFFFFFFFFFFFFFFFFFFFFFFFFFFFFFFFFFFFFFFFFFFFFFF
310
FFFFFFFFFFFFFFFFF000FFFFFFFFFFFFFFFFFFFFFFFFFFFFFFFFFFFFFFFFFFFF
310
FFFFFFFFFFFFFFFFFFFFFFFFFFFFFFFFFFFFFFFFFFFFFFFFFFFFFFFFFFFFFFFF
310
FFFFFFFFFFFFFFFFFFFFFFFFFFFFFFFFFFFFFFFFFFFFFFFFFFFFFFFFFFFFFFFF
310
F000FFFFFFFFFFFFFFFFFFFFFFFFFFFFFFFFFFFFFFFFFFFFFFFFFFFFFFFFFFFF
310
FFFFFFFFFFFFFFFFFFFFFFFFFFFFFFFFFFFFFFFFFFFFFFFFFFFFFFFFFFFFFFFF
310
FFFFFFFFFFFFFFFFFFFFFFFFFFFFFFFFFFFFFFFFFFFFFFFFF000FFFFFFFFFFFF
310
FFFFFFFFFFFFFFFFFFFFFFFFFFFFFFFFFFFFFFFFFFFFFFFFFFFFFFFFFFFFFFFF
310
FFFFFFFFFFFFFFFFFFFFFFFFFFFFFFFFFFFFFFFFFFFFFFFFFFFFFFFFFFFFFFFF
310
FFFFFFFFFFFFFFFFFFFFFFFFFFFFFFFFF000FFFFFFFFFFFFFFFFFFFFFFFFFFFF
310
FFFFFFFFFFFFFFFFFFFFFFFFFFFFFFFFFFFFFFFFFFFFFFFFFFFFFFFFFFFFFFFF
310
FFFFFFFFFFFFFFFFFFFFFFFFFFFFFFFFFFFFFFFFFFFFFFFFFFFFFFFFFFFFFFFF
310
FFFFFFFFFFFFFFFFF000FFFFF80003FFFFFFFFFFFFFFFFFFFFFFFFFFFFFFFFFF
310
FFFFF00007FFFFFFFFFF00007FFFFFF800000000000000007FFFFFFFFFFFFFFF
310
FFFFFFFC001FFFFFFFFFFFFFFC001FFFFFFFFFFFFFFFFFFFFFFFFFFE0007FFFF
310
F000FFFF8000007FFFFFFFF8000FFFFFC0007FFFFF80007FFFFF0000007FFFFF
310
FFF8000007FFFFF800000000000000007FFFFFF0001FFFFFFFFFFFC00001FFFF
310
FFFFFFFFC00001FFFFFFFF000000000003FFFFE000007FFFF000FFFE0000000F
310
FFFFFFF0000FFFFF80007FFFFF80007FFFFC0000001FFFFFFFC0000001FFFFF8
310
00000000000000007FFFFFF0001FFFFFFFFFFE0000003FFFFFFFFFFE0000003F
310
FFFFFF000000000003FFFF0000000FFFF000FFF800000003FFFFFFF00007FFFF
310
80007FFFFF80007FFFF000000007FFFFFF000000003FFFF80000000000000000
310
7FFFFFF0001FFFFFFFFFF80000000FFFFFFFFFF80000000FFFFFFF0000000000
310
03FFFC00000003FFF000FFE000000000FFFFFFF00007FFFF80003FFFFF80007F
310
FFC000000001FFFFFC000000001FFFF800000000000000007FFFFFF0001FFFFF
310
FFFFE000000003FFFFFFFFE000000003FFFFFF000000000003FFF000000000FF
310
F000FF80000000007FFFFFF00007FFFF80003FFFFF80007FFF8000000000FFFF
310
F80000000007FFF800000000000000007FFFFFF0001FFFFFFFFFC000000001FF
310
FFFFFFC000000001FFFFFF000000000003FFC0000000007FF000FF0000000000
310
3FFFFFE00007FFFF00003FFFFF80007FFE00000000003FFFF00000000003FFF8
310
00000000000000007FFFFFF0001FFFFFFFFF8000000000FFFFFFFF8000000000
310
FFFFFF000000000003FF80000000003FF000FE00000000001FFFFFE00003FFFF
310
00003FFFFF80007FFC00000000001FFFE00000000001FFF8000001FFFE000000
310
7FFFFFF0001FFFFFFFFE00000000003FFFFFFE00000000003FFFFF0000000000
310
03FF00000000001FF000FC00000000000FFFFFE00003FFFF00001FFFFF80007F
310
F800000000001FFFC00000000000FFF8000001FFFE0000007FFFFFF0001FFFFF
310
FFFC00000000001FFFFFFC00000000001FFFFF000000000003FE00000000000F
310
F000F8000000000007FFFFE00003FFFF00001FFFFF80007FF800000000000FFF
310
800000000000FFF8000001FFFE0000007FFFFFF0001FFFFFFFF800000000000F
310
FFFFF800000000000FFFFF000000000003FC000000000007F000F80000000000
310
03FFFFC00003FFFE00001FFFFF80007FF0000000000007FF0000000000007FF8
310
000001FFFE0000007FFFFFF0001FFFFFFFF0000000000007FFFFF00000000000
310
07FFFF000000000003F8000000000003F000F0000000000003FFFFC00001FFFE
310
00001FFFFF80007FE0000000000007FE0000000000003FF8000001FFFE000000
310
7FFFFFF0001FFFFFFFF0000000000007FFFFF0000000000007FFFF0000000000
310
03F800001F800003F000E00001FFF00001FFFFC00001FFFE00000FFFFF80007F
310
E00001FFE00003FE00001FFF00003FF8000001FFFE0000007FFFFFF0001FFFFF
310
FFE000003E000003FFFFE000003E000003FFFF000000000003F00001FFF80001
310
F000E00007FFFC0001FFFFC00001FFFE00000FFFFF80007FC0000FFFFC0003FC
310
0000FFFFC0001FF8000001FFFE0000007FFFFFF0001FFFFFFFC00003FFE00001
310
FFFFC00003FFE00001FFFF0001FFFFFFFFF00007FFFE0001F000E0000FFFFF00
310
00FFFF800001FFFC00000FFFFF80007FC0001FFFFE0001FC0001FFFFE0001FF8
310
000001FFFE0000007FFFFFF0001FFFFFFF80000FFFF80000FFFF80000FFFF800
310
00FFFF0003FFFFFFFFE0000FFFFF8000F000C0003FFFFF8000FFFF800000FFFC
310
000007FFFF80007F80003FFFFF0001FC0003FFFFF0001FF8000001FFFE000000
310
7FFFFFF0001FFFFFFF80003FFFFE0000FFFF80003FFFFE0000FFFF0003FFFFFF
310
FFE0003FFFFF8000F000C0003FFFFF8000FFFF800000FFFC000007FFFF80007F
310
80007FFFFF8001F80007FFFFF8000FF8000001FFFE0000007FFFFFF0001FFFFF
310
FF00007FFFFF00007FFF00007FFFFF00007FFF0003FFFFFFFFE0003FFFFFC000
310
F000C0007FFFFFC000FFFF000000FFFC000007FFFF80007F8000FFFFFF8000F8
310
000FFFFFF8000FF8000001FFFE0000007FFFFFF0001FFFFFFF0000FFFFFF8000
310
7FFF0000FFFFFF80007FFF0003FFFFFFFFC0007FFFFFC00070008000FFFFFFC0
310
00FFFF000000FFF8000007FFFF80007F8000FFFFFF8000F8000FFFFFF8000FF8
310
000001FFFE0000007FFFFFF0001FFFFFFE0001FFFFFFC0003FFE0001FFFFFFC0
310
003FFF0003FFFFFFFFC0007FFFFFE00070008000FFFFFFC0007FFF0000007FF8
310
000003FFFF80007F0001FFFFFF8000F8000FFFFFF8000FF8000001FFFE000000
310
7FFFFFF0001FFFFFFE0001FFFFFFC0003FFE0001FFFFFFC0003FFF0003FFFFFF
310
FFC000FFFFFFE00070008000FFFFFFC0007FFF0000007FF8000003FFFF80007F
310
0001FFFFFF8000F8001FFFFFF8000FF8000001FFFE0000007FFFFFF0001FFFFF
310
FE0003FFFFFFE0003FFE0003FFFFFFE0003FFF0003FFFFFFFFC000FFFFFFE000
310
70008000FFFFFFC0007FFE0000007FF8000003FFFF80007F0001FFFFFF8000F0
310
001FFFFFF8000FF8000001FFFE0000007FFFFFF0001FFFFFFC0003FFFFFFE000
310
1FFC0003FFFFFFE0001FFF0003FFFFFFFFC000FFFFFFC00070008000FFFFFF80
310
007FFE0000007FF0000003FFFF80007F0001FFFFFF0000F0001FFFFFF8000FF8
310
000001FFFE0000007FFFFFF0001FFFFFFC0007FFFFFFF0001FFC0007FFFFFFF0
310
001FFF0003FFFFFFFFC000FFFFFFC00070008001FFFFFF0000FFFE0000003FF0
310
000001FFFF80007F0001FFFFFF0000F8001FFFFFF0000FF8000001FFFE000000
310
7FFFFFF0001FFFFFFC0007FFFFFFF0001FFC0007FFFFFFF0001FFF0003FFFFFF
310
FFC001FFFFFF80007000FFFFFFFFFE0000FFFE0008003FF0008001FFFF80007F
310
FFFFFFFFFC0000FFFFFFFFFFE0000FF8000001FFFE0000007FFFFFF0001FFFFF
310
F8000FFFFFFFF8000FF8000FFFFFFFF8000FFF0003FFFFFFFFFFFFFFFFFF0000
310
7000FFFFFFFFFC0000FFFC0008003FF0008001FFFF80007FFFFFFFFFF80001FF
310
FFFFFFFF80000FF8000001FFFE0000007FFFFFF0001FFFFFF8000FFFFFFFF800
310
0FF8000FFFFFFFF8000FFF0003FFFFFFFFFFFFFFFFFE0000F000FFFFFFFFE000
310
00FFFC000C003FE000C001FFFF80007FFFFFFFFFC00001FFFFFFFFFE00001FF8
310
000001FFFE0000007FFFFFF0001FFFFFF8000FFFFFFFF8000FF8000FFFFFFFF8
310
000FFF0003FFFFFFFFFFFFFFFFF00000F000FFFFFFFE000001FFFC000C001FE0
310
00C000FFFF80007FFFFFFFFE000001FFFFFFFFE000001FF80FFFFFFFFFFFFFC0
310
7FFFFFF0001FFFFFF8000FFFFFFFF8000FF8000FFFFFFFF8000FFF0003FFFFFF
310
FFFFFFFFFF800000F000FFFFFFC0000001FFFC001C001FE001C000FFFF80007F
310
FFFFFF80000003FFFFFFF80000001FF80FFFFFFFFFFFFFC07FFFFFF0001FFFFF
310
F8001FFFFFFFFC000FF8001FFFFFFFFC000FFF0003FFFFFFFFFFFFFFF0000001
310
F000FFFFF800000001FFF8001C001FE001C000FFFF80007FFFFFF800000003FF
310
FFFF800000003FF80FFFFFFFFFFFFFC07FFFFFF0001FFFFFF8001FFFFFFFFC00
310
0FF8001FFFFFFFFC000FFF0003FFFFFFFFFFFFFE00000001F000FFFFC0000000
310
03FFF8001E001FC001E000FFFF80007FFFFF8000000007FFFFFC000000003FF8
310
0FFFFFFFFFFFFFC07FFFFFF0001FFFFFF8001FFFFFFFFC000FF8001FFFFFFFFC
310
000FFF0003FFFFFFFFFFFFE000000003F000FFFE0000000007FFF8001E000FC0
310
01E0007FFF80007FFFFE0000000007FFFFE0000000007FF80FFFFFFFFFFFFFC0
310
7FFFFFF0001FFFFFF0001FFFFFFFFC0007F0001FFFFFFFFC0007FF0003FFFFFF
310
FFFFFF0000000003F000FFF80000000007FFF8001E000FC003E0007FFF80007F
310
FFF0000000000FFFFF8000000000FFF80FFFFFFFFFFFFFC07FFFFFF0001FFFFF
310
F0001FFFFFFFFC0007F0001FFFFFFFFC0007FF0003FFFFFFFFFFFC0000000007
310
F000FFE0000000000FFFF0003E000FC003E0007FFF80007FFFC0000000001FFF
310
FE0000000001FFF80FFFFFFFFFFFFFC07FFFFFF0001FFFFFF0001FFFFFFFFC00
310
07F0001FFFFFFFFC0007FF0003FFFFFFFFFFF0000000000FF000FFC000000000
310
1FFFF0003F000F8003F0003FFF80007FFF80000000003FFFF80000000003FFF8
310
0FFFFFFFFFFFFFC07FFFFFF0001FFFFFF0001FFFFFFFFC0007F0001FFFFFFFFC
310
0007FF0003FFFFFFFFFFE0000000001FF000FF00000000007FFFF0003F000780
310
03F0003FFF80007FFF00000000007FFFF00000000007FFF80FFFFFFFFFFFFFC0
310
7FFFFFF0001FFFFFF0001FFFFFFFFC0007F0001FFFFFFFFC0007FF0003FFFFFF
310
FFFF80000000007FF000FE0000000000FFFFE0003F00078007F0003FFF80007F
310
FE0000000001FFFFE0000000001FFFF80FFFFFFFFFFFFFC07FFFFFF0001FFFFF
310
F0001FFFFFFFFC0007F0001FFFFFFFFC0007FF0003FFFFFFFFFF0000000000FF
310
F000FC0000000003FFFFE0007F00078007F0003FFF80007FFC0000000007FFFF
310
C0000000007FFFF80FFFFFFFFFFFFFC07FFFFFF0001FFFFFF8001FFFFFFFFC00
310
0FF8001FFFFFFFFC000FFF0003FFFFFFFFFE0000000003FFF000FC000000000F
310
FFFFE0007F80070007F8001FFF80007FF8000000001FFFFF8000000001FFFFF8
310
0FFFFFFFFFFFFFC07FFFFFF0001FFFFFF8001FFFFFFFFC000FF8001FFFFFFFFC
310
000FFF0003FFFFFFFFFC000000000FFFF000F8000000007FFFFFE0007F800700
310
07F8001FFF80007FF000000000FFFFFF800000000FFFFFF80FFFFFFFFFFFFFC0
310
7FFFFFF0001FFFFFF8000FFFFFFFF8000FF8000FFFFFFFF8000FFF0003FFFFFF
310
FFFC000000007FFFF000F800000007FFFFFFC0007F8003000FF8001FFF80007F
310
F000000007FFFFFF000000007FFFFFF80FFFFFFFFFFFFFC07FFFFFF0001FFFFF
310
F8000FFFFFFFF8000FF8000FFFFFFFF8000FFF0003FFFFFFFFF80000000FFFFF
310
F000F0000000FFFFFFFFC000FF8003000FF8001FFF80007FE0000000FFFFFFFF
310
0000000FFFFFFFF8000001FFFE0000007FFFFFF0001FFFFFF8000FFFFFFFF800
310
0FF8000FFFFFFFF8000FFF0003FFFFFFFFF8000000FFFFFFF000F000000FFFFF
310
FFFFC000FFC002000FF8000FFF80007FE000001FFFFFFFFE000001FFFFFFFFF8
310
000001FFFE0000007FFFFFF0001FFFFFF8000FFFFFFFF8000FF8000FFFFFFFF8
310
000FFF0003FFFFFFFFF000001FFFFFFFF000E00000FFFFFFFFFFC000FFC00200
310
0FFC000FFF80007FE00001FFFFFFFFFE00001FFFFFFFFFF8000001FFFE000000
310
7FFFFFF0001FFFFFFC000FFFFFFFF8001FFC000FFFFFFFF8001FFF0003FFFFFF
310
FFF00001FFFFFFFFF000E00007FFFFFFFFFF8000FFC000001FFC000FFF80007F
310
C0000FFFFFFFFFFE0000FFFFFFFFFFF8000001FFFE0000007FFFFFF0001FFFFF
310
FC0007FFFFFFF0001FFC0007FFFFFFF0001FFF0003FFFFFFFFF00007FFFFFFFF
310
F000E0001FFFFFFFFFFF8000FFC000001FFC000FFF80007FC0003FFFFFFFFFFE
310
0001FFFFFFFFFFF8000001FFFE0000007FFFFFF0001FFFFFFC0007FFFFFFF000
310
1FFC0007FFFFFFF0001FFF0003FFFFFFFFF0001FFFFFFFFFF000E0003FFFFF00
310
03FF8001FFE000001FFC0007FF80007FC0007FFFFF0007FC0003FFFFF0003FF8
310
000001FFFE0000007FFFFFF0001FFFFFFC0003FFFFFFE0001FFC0003FFFFFFE0
310
001FFF0003FFFFFFFFF0003FFFFFFFFFF000E0003FFFFF0001FF8001FFE00000
310
1FFE0007FF80007FC0007FFFFE0003FC0007FFFFE0003FF8000001FFFE000000
310
7FFFFFF0001FFFFFFE0003FFFFFFE0003FFE0003FFFFFFE0003FFF0003FFFFFF
310
FFF0003FFFFF8001F000E0003FFFFF0001FF0001FFE000001FFE0007FF80007F
310
C0007FFFFE0003FC0007FFFFE0003FF8000001FFFE0000007FFFFFF0001FFFFF
310
FE0001FFFFFFC0003FFE0001FFFFFFC0003FFF0003FFFFFFFFF0003FFFFF0001
310
F000E0003FFFFF0003FF0001FFE000003FFE0007FF80007FC0007FFFFE0003FC
310
0007FFFFE0003FF8000001FFFE0000007FFFFFF0001FFFFFFF0001FFFFFFC000
310
7FFF0001FFFFFFC0007FFF0003FFFFFFFFF0003FFFFF0001F000E0003FFFFE00
310
03FF0003FFF000003FFE0003FF80007FC0007FFFFC0003FE0007FFFFE0003FF8
310
000001FFFE0000007FFFFFF0001FFFFFFF0000FFFFFF80007FFF0000FFFFFF80
310
007FFF0003FFFFFFFFF0003FFFFF0001F000E0003FFFFE0003FF0003FFF00000
310
3FFF0003FF80007FC0007FFFFC0007FE0007FFFFC0003FF8000001FFFE000000
310
7FFFFFF0001FFFFFFF80007FFFFF0000FFFF80007FFFFF0000FFFF0003FFFFFF
310
FFF0003FFFFF0003F000E0003FFFFC0003FE0003FFF000003FFF0003FF80007F
310
E0003FFFF80007FE0003FFFFC0007FF8000001FFFE0000007FFFFFF0001FFFFF
310
FF80003FFFFE0000FFFF80003FFFFE0000FFFF0003FFFFFFFFF0001FFFFE0003
310
F000F0001FFFF80003FE0003FFF000007FFF0001FF80007FE0003FFFF00007FE
310
0001FFFF80007FF8000001FFFE0000007FFFFFF0001FFFFFFFC0000FFFF80001
310
FFFFC0000FFFF80001FFFF0003FFFFFFFFF0001FFFFC0003F000F0000FFFF000
310
07FE0007FFF800007FFF0001FF80007FE0001FFFE00007FF0000FFFE00007FF8
310
000001FFFE0000007FFFFFF0001FFFFFFFC00003FFE00001FFFFC00003FFE000
310
01FFFF0003FFFFFFFFF8000FFFF80003F000F00003FFC00007FC0007FFF80000
310
7FFF8001FF80007FF00007FF80000FFF00007FF80000FFF8000001FFFE000000
310
7F80000000000001FFE000003E000003FFFFE000003E000003FFFF0003FFFFFF
310
FFF80003FFE00007F000F800000000000FFC0007FFF800007FFF8001FF80007F
310
F000000000000FFF000000000000FFF8000001FFFE0000007F80000000000001
310
FFF0000000000007FFFFF0000000000007FFFF0003FFFFFFFFFC00007E000007
310
F000F800000000000FFC0007FFF80000FFFF8000FF80007FF800000000001FFF
310
800000000001FFF8000001FFFE0000007F80000000000001FFF800000000000F
310
FFFFF800000000000FFFFF0003FFFFFFFFFC00000000000FF000FC0000000000
310
1FFC0007FFFC0000FFFF8000FF80007FF800000000003FFFC00000000001FFF8
310
000001FFFE0000007F80000000000001FFF800000000000FFFFFF80000000000
310
0FFFFF0003FFFFFFFFFE00000000001FF000FE00000000003FF8000FFFFC0000
310
FFFF8000FF80007FFC00000000003FFFC00000000003FFF8000001FFFE000000
310
7F80000000000001FFFC00000000001FFFFFFC00000000001FFFFF0003FFFFFF
310
FFFF00000000001FF000FF00000000003FF8000FFFFC0000FFFFC000FF80007F
310
FE00000000007FFFE00000000007FFF8000001FFFE0000007F80000000000001
310
FFFE00000000003FFFFFFE00000000003FFFFF0003FFFFFFFFFF80000000003F
310
F000FF80000000007FF8000FFFFC0001FFFFC0007F80007FFF0000000000FFFF
310
F0000000000FFFF800000000000000007F80000000000001FFFF8000000000FF
310
FFFFFF8000000000FFFFFF0003FFFFFFFFFFC0000000007FF000FFC000000000
310
FFF8000FFFFE0001FFFFC0007F80007FFF8000000001FFFFF8000000001FFFF8
310
00000000000000007F80000000000001FFFFC000000001FFFFFFFFC000000001
310
FFFFFF0003FFFFFFFFFFE000000000FFF000FFE000000003FFF0001FFFFE0001
310
FFFFC0007F80007FFFC000000007FFFFFE000000003FFFF80000000000000000
310
7F80000000000001FFFFE000000003FFFFFFFFE000000003FFFFFF0003FFFFFF
310
FFFFF000000003FFF000FFF80000000FFFF0001FFFFE0001FFFFE0007F80007F
310
FFF00000000FFFFFFF00000000FFFFF800000000000000007F80000000000001
310
FFFFF80000000FFFFFFFFFF80000000FFFFFFF0003FFFFFFFFFFFC0000000FFF
310
F000FFFE0000003FFFF0001FFFFE0003FFFFE0003F80007FFFFC0000003FFFFF
310
FFC0000003FFFFF800000000000000007F80000000000001FFFFFE0000003FFF
310
FFFFFFFE0000003FFFFFFF0003FFFFFFFFFFFF0000003FFFF000FFFF800000FF
310
FFF0001FFFFF0003FFFFE0003F80007FFFFF000001FFFFFFFFF800001FFFFFF8
310
00000000000000007F80000000000001FFFFFFC00001FFFFFFFFFFFFC00001FF
310
FFFFFF0003FFFFFFFFFFFFC00000FFFFF000FFFFF8000FFFFFFFFFFFFFFFFFFF
310
FFFFFFFFFFFFFFFFFFFFF0001FFFFFFFFFFF0000FFFFFFF80000000000000000
310
7FFFFFFFFFFFFFFFFFFFFFFC001FFFFFFFFFFFFFFC001FFFFFFFFFFFFFFFFFFF
310
FFFFFFFC001FFFFFF000FFFFFFFFFFFFFFFFFFFFFFFFFFFFFFFFFFFFFFFFFFFF
310
FFFFFFFFFFFFFFFFFFFFFFFFFFFFFFFFFFFFFFFFFFFFFFFFFFFFFFFFFFFFFFFF
310
FFFFFFFFFFFFFFFFFFFFFFFFFFFFFFFFFFFFFFFFFFFFFFFFFFFFFFFFFFFFFFFF
310
F000FFFFFFFFFFFFFFFFFFFFFFFFFFFFFFFFFFFFFFFFFFFFFFFFFFFFFFFFFFFF
310
FFFFFFFFFFFFFFFFFFFFFFFFFFFFFFFFFFFFFFFFFFFFFFFFFFFFFFFFFFFFFFFF
310
FFFFFFFFFFFFFFFFFFFFFFFFFFFFFFFFFFFFFFFFFFFFFFFFF000FFFFFFFFFFFF
310
FFFFFFFFFFFFFFFFFFFFFFFFFFFFFFFFFFFFFFFFFFFFFFFFFFFFFFFFFFFFFFFF
310
FFFFFFFFFFFFFFFFFFFFFFFFFFFFFFFFFFFFFFFFFFFFFFFFFFFFFFFFFFFFFFFF
310
FFFFFFFFFFFFFFFFFFFFFFFFFFFFFFFFF000FFFFFFFFFFFFFFFFFFFFFFFFFFFF
310
FFFFFFFFFFFFFFFFFFFFFFFFFFFFFFFFFFFFFFFFFFFFFFFFFFFFFFFFFFFFFFFF
310
FFFFFFFFFFFFFFFFFFFFFFFFFFFFFFFFFFFFFFFFFFFFFFFFFFFFFFFFFFFFFFFF
310
FFFFFFFFFFFFFFFFF000FFFFFFFFFFFFFFFFFFFFFFFFFFFFFFFFFFFFFFFFFFFF
310
FFFFFFFFFFFFFFFFFFFFFFFFFFFFFFFFFFFFFFFFFFFFFFFFFFFFFFFFFFFFFFFF
310
FFFFFFFFFFFFFFFFFFFFFFFFFFFFFFFFFFFFFFFFFFFFFFFFFFFFFFFFFFFFFFFF
310
F000FFFFFFFFFFFFFFFFFFFFFFFFFFFFFFFFFFFFFFFFFFFFFFFFFFFFFFFFFFFF
310
FFFFFFFFFFFFFFFFFFFFFFFFFFFFFFFFFFFFFFFFFFFFFFFFFFFFFFFFFFFFFFFF
310
FFFFFFFFFFFFFFFFFFFFFFFFFFFFFFFFFFFFFFFFFFFFFFFFF000FFFFFFFFFFFF
310
FFFFFFFFFFFFFFFFFFFFFFFFFFFFFFFFFFFFFFFFFFFFFFFFFFFFFFFFFFFFFFFF
310
FFFFFFFFFFFFFFFFFFFFFFFFFFFFFFFFFFFFFFFFFFFFFFFFFFFFFFFFFFFFFFFF
310
FFFFFFFFFFFFFFFFFFFFFFFFFFFFFFFFF000FFFFFFFFFFFFFFFFFFFFFFFFFFFF
310
FFFFFFFFFFFFFFFFFFFFFFFFFFFFFFFFFFFFFFFFFFFFFFFFFFFFFFFFFFFFFFFF
310
FFFFFFFFFFFFFFFFFFFFFFFFFFFFFFFFFFFFFFFFFFFFFFFFFFFFFFFFFFFFFFFF
310
FFFFFFFFFFFFFFFFF000FFFFFFFFFFFFFFFFFFFFFFFFFFFFFFFFFFFFFFFFFFFF
310
FFFFFFFFFFFFFFFFFFFFFFFFFFFFFFFFFFFFFFFFFFFFFFFFFFFFFFFFFFFFFFFF
310
FFFFFFFFFFFFFFFFFFFFFFFFFFFFFFFFFFFFFFFFFFFFFFFFFFFFFFFFFFFFFFFF
310
F000FFFFFFFFFFFFFFFFFFFFFFFFFFFFFFFFFFFFFFFFFFFFFFFFFFFFFFFFFFFF
310
FFFFFFFFFFFFFFFFFFFFFFFFFFFFFFFFFFFFFFFFFFFFFFFFFFFFFFFFFFFFFFFF
310
FFFFFFFFFFFFFFFFFFFFFFFFFFFFFFFFFFFFFFFFFFFFFFFFF000FFFFFFFFFFFF
310
FFFFFFFFFFFFFFFFFFFFFFFFFFFFFFFFFFFFFFFFFFFFFFFFFFFFFFFFFFFFFFFF
310
FFFFFFFFFFFFFFFFFFFFFFFFFFFFFFFFFFFFFFFFFFFFFFFFFFFFFFFFFFFFFFFF
310
FFFFFFFFFFFFFFFFFFFFFFFFFFFFFFFFF000FFFFFFFFFFFFFFFFFFFFFFFFFFFF
310
FFFFFFFFFFFFFFFFFFFFFFFFFFFFFFFFFFFFFFFFFFFFFFFFFFFFFFFFFFFFFFFF
310
FFFFFFFFFFFFFFFFFFFFFFFFFFFFFFFFFFFFFFFFFFFFFFFFFFFFFFFFFFFFFFFF
310
FFFFFFFFFFFFFFFFF000FFFFFFFFFFFFFFFFFFFFFFFFFFFFFFFFFFFFFFFFFFFF
310
FFFFFFFFFFFFFFFFFFFFFFFFFFFFFFFFFFFFFFFFFFFFFFFFFFFFFFFFFFFFFFFF
310
FFFFFFFFFFFFFFFFFFFFFFFFFFFFFFFFFFFFFFFFFFFFFFFFFFFFFFFFFFFFFFFF
310
F000FFFFFFFFFFFFFFFFFFFFFFFFFFFFFFFFFFFFFFFFFFFFFFFFFFFFFFFFFFFF
310
FFFFFFFFFFFFFFFFFFFFFFFFFFFFFFFFFFFFFFFFFFFFFFFFFFFFFFFFFFFFFFFF
310
FFFFFFFFFFFFFFFFFFFFFFFFFFFFFFFFFFFFFFFFFFFFFFFFF000FFFFFFFFFFFF
310
FFFFFFFFFFFFFFFFFFFFFFFFFFFFFFFFFFFFFFFFFFFFFFFFFFFFFFFFFFFFFFFF
310
FFFFFFFFFFFFFFFFFFFFFFFFFFFFFFFFFFFFFFFFFFFFFFFFFFFFFFFFFFFFFFFF
310
FFFFFFFFFFFFFFFFFFFFFFFFFFFFFFFFF000FFFFFFFFFFFFFFFFFFFFFFFFFFFF
310
FFFFFFFFFFFFFFFFFFFFFFFFFFFFFFFFFFFFFFFFFFFFFFFFFFFFFFFFFFFFFFFF
310
FFFFFFFFFFFFFFFFFFFFFFFFFFFFFFFFFFFFFFFFFFFFFFFFFFFFFFFFFFFFFFFF
310
FFFFFFFFFFFFFFFFF000FFFFFFFFFFFFFFFFFFFFFFFFFFFFFFFFFFFFFFFFFFFF
310
FFFFFFFFFFFFFFFFFFFFFFFFFFFFFFFFFFFFFFFFFFFFFFFFFFFFFFFFFFFFFFFF
310
FFFFFFFFFFFFFFFFFFFFFFFFFFFFFFFFFFFFFFFFFFFFFFFFFFFFFFFFFFFFFFFF
310
F000FFFFFFFFFFFFFFFFFFFFFFFFFFFFFFFFFFFFFFFFFFFFFFFFFFFFFFFFFFFF
310
FFFFFFFFFFFFFFFFFFFFFFFFFFFFFFFFFFFFFFFFFFFFFFFFFFFFFFFFFFFFFFFF
310
FFFFFFFFFFFFFFFFFFFFFFFFFFFFFFFFFFFFFFFFFFFFFFFFF000FFFFFFFFFFFF
310
FFFFFFFFFFFFFFFFFFFFFFFFFFFFFFFFFFFFFFFFFFFFFFFFFFFFFFFFFFFFFFFF
310
FFFFFFFFFFFFFFFFFFFFFFFFFFFFFFFFFFFFFFFFFFFFFFFFFFFFFFFFFFFFFFFF
310
FFFFFFFFFFFFFFFFFFFFFFFFFFFFFFFFF000FFFFFFFFFFFFFFFFFFFFFFFFFFFF
310
FFFFFFFFFFFFFFFFFFFFFFFFFFFFFFFFFFFFFFFFFFFFFFFFFFFFFFFFFFFFFFFF
310
FFFFFFFFFFFFFFFFFFFFFFFFFFFFFFFFFFFFFFFFFFFFFFFFFFFFFFFFFFFFFFFF
310
FFFFFFFFFFFFFFFFF000FFFFFFFFFFFFFFFFFFFFFFFFFFFFFFFFFFFFFFFFFFFF
310
FFFFFFFFFFFFFFFFFFFFFFFFFFFFFFFFFFFFFFFFFFFFFFFFFFFFFFFFFFFFFFFF
310
FFFFFFFFFFFFFFFFFFFFFFFFFFFFFFFFFFFFFFFFFFFFFFFFFFFFFFFFFFFFFFFF
310
F000FFFFFFFFFFFFFFFFFFFFFFFFFFFFFFFFFFFFFFFFFFFFFFFFFFFFFFFFFFFF
310
FFFFFFFFFFFFFFFFFFFFFFFFFFFFFFFFFFFFFFFFFFFFFFFFFFFFFFFFFFFFFFFF
310
FFFFFFFFFFFFFFFFFFFFFFFFFFFFFFFFFFFFFFFFFFFFFFFFF000FFFFFFFFFFFF
310
FFFFFFFFFFFFFFFFFFFFFFFFFFFFFFFFFFFFFFFFFFFFFFFFFFFFFFFFFFFFFFFF
310
FFFFFFFFFFFFFFFFFFFFFFFFFFFFFFFFFFFFFFFFFFFFFFFFFFFFFFFFFFFFFFFF
310
FFFFFFFFFFFFFFFFFFFFFFFFFFFFFFFFF0000000000000000000000000000000
310
0000000000000000000000000000000000000000000000000000000000000000
310
0000000000000000000000000000000000000000000000000000000000000000
310
0000000000000000000000000000000000000000000000000000000000000000
310
0000000000000000000000000000000000000000000000000000000000000000
310
0000000000000000000000000000000000000000000000000000000000000000
310
0000000000000000000000000000000000000000000000000000000000000000
310
0000000000000000000000000000000000000000000000000000000000000000
310
0000000000000000000000000000000000000000000000000000000000000000
310
0000000000000000000000000000000000000000000000000000000000000000
310
0000000000000000000000000000000000000000000000000000000000000000
310
0000000000000000000000000000000000000000000000000000000000000000
310
0000000000000000000000000000000000000000000000000000000000000000
310
0000000000000000000000000000000000000000000000000000000000000000
310
0000000000000000000000000000000000000000000000000000000000000000
310
0000000000000000000000000000000000000000000000000000000000000000
  1
OLE
  0
ENDSEC
  0
SECTION
  2
OBJECTS
  0
DICTIONARY
  5
C
330
0
100
AcDbDictionary
281
     1
  3
ACAD_GROUP
350
D
  3
ACAD_LAYOUT
350
1A
  3
ACAD_MLINESTYLE
350
17
  3
ACAD_PLOTSETTINGS
350
19
  3
ACAD_PLOTSTYLENAME
350
E
  0
DICTIONARY
  5
D
102
{ACAD_REACTORS
330
C
102
}
330
C
100
AcDbDictionary
281
     1
  0
DICTIONARY
  5
1A
102
{ACAD_REACTORS
330
C
102
}
330
C
100
AcDbDictionary
281
     1
  3
Layout1
350
1E
  3
Layout2
350
26
  3
Model
350
22
  0
DICTIONARY
  5
17
102
{ACAD_REACTORS
330
C
102
}
330
C
100
AcDbDictionary
281
     1
  3
Standard
350
18
  0
DICTIONARY
  5
19
102
{ACAD_REACTORS
330
C
102
}
330
C
100
AcDbDictionary
281
     1
  0
ACDBDICTIONARYWDFLT
  5
E
102
{ACAD_REACTORS
330
C
102
}
330
C
100
AcDbDictionary
281
     1
  3
Normal
350
F
100
AcDbDictionaryWithDefault
340
F
  0
LAYOUT
  5
1E
102
{ACAD_REACTORS
330
1A
102
}
330
1A
100
AcDbPlotSettings
  1

  2
none_device
  4

  6

 40
0.0
 41
0.0
 42
0.0
 43
0.0
 44
0.0
 45
0.0
 46
0.0
 47
0.0
 48
0.0
 49
0.0
140
0.0
141
0.0
142
1.0
143
1.0
 70
   688
 72
     0
 73
     0
 74
     5
  7

 75
    16
147
1.0
148
0.0
149
0.0
100
AcDbLayout
  1
Layout1
 70
     1
 71
     1
 10
0.0
 20
0.0
 11
420.0
 21
297.0
 12
0.0
 22
0.0
 32
0.0
 14
1.0000000000E+20
 24
1.0000000000E+20
 34
1.0000000000E+20
 15
-1.0000000000E+20
 25
-1.0000000000E+20
 35
-1.0000000000E+20
146
0.0
 13
0.0
 23
0.0
 33
0.0
 16
1.0
 26
0.0
 36
0.0
 17
0.0
 27
1.0
 37
0.0
 76
     0
330
1B
  0
LAYOUT
  5
26
102
{ACAD_REACTORS
330
1A
102
}
330
1A
100
AcDbPlotSettings
  1

  2
none_device
  4

  6

 40
0.0
 41
0.0
 42
0.0
 43
0.0
 44
0.0
 45
0.0
 46
0.0
 47
0.0
 48
0.0
 49
0.0
140
0.0
141
0.0
142
1.0
143
1.0
 70
   688
 72
     0
 73
     0
 74
     5
  7

 75
    16
147
1.0
148
0.0
149
0.0
100
AcDbLayout
  1
Layout2
 70
     1
 71
     2
 10
0.0
 20
0.0
 11
0.0
 21
0.0
 12
0.0
 22
0.0
 32
0.0
 14
0.0
 24
0.0
 34
0.0
 15
0.0
 25
0.0
 35
0.0
146
0.0
 13
0.0
 23
0.0
 33
0.0
 16
1.0
 26
0.0
 36
0.0
 17
0.0
 27
1.0
 37
0.0
 76
     0
330
23
  0
LAYOUT
  5
22
102
{ACAD_REACTORS
330
1A
102
}
330
1A
100
AcDbPlotSettings
  1

  2
none_device
  4

  6

 40
0.0
 41
0.0
 42
0.0
 43
0.0
 44
0.0
 45
0.0
 46
0.0
 47
0.0
 48
0.0
 49
0.0
140
0.0
141
0.0
142
1.0
143
1.0
 70
  1712
 72
     0
 73
     0
 74
     0
  7

 75
     0
147
1.0
148
0.0
149
0.0
100
AcDbLayout
  1
Model
 70
     1
 71
     0
 10
0.0
 20
0.0
 11
297.0
 21
210.0
 12
0.0
 22
0.0
 32
0.0
 14
0.0
 24
0.0
 34
0.0
 15
297.0
 25
210.0
 35
0.0
146
0.0
 13
0.0
 23
0.0
 33
0.0
 16
1.0
 26
0.0
 36
0.0
 17
0.0
 27
1.0
 37
0.0
 76
     0
330
1F
331
29
  0
MLINESTYLE
  5
18
102
{ACAD_REACTORS
330
17
102
}
330
17
100
AcDbMlineStyle
  2
Standard
 70
     0
  3

 62
   256
 51
90.0
 52
90.0
 71
     2
 49
0.5
 62
   256
  6
BYLAYER
 49
-0.5
 62
   256
  6
BYLAYER
  0
ACDBPLACEHOLDER
  5
F
102
{ACAD_REACTORS
330
E
102
}
330
E
  0
ENDSEC
  0
EOF
