  0
SECTION
  2
HEADER
  9
$ACADVER
  1
AC1015
  9
$ACADMAINTVER
 70
     6
  9
$DWGCODEPAGE
  3
ANSI_1252
  9
$INSBASE
 10
0.0
 20
0.0
 30
0.0
  9
$EXTMIN
 10
0.0
 20
0.0
 30
0.0
  9
$EXTMAX
 10
297.0
 20
210.0
 30
0.0
  9
$LIMMIN
 10
0.0
 20
0.0
  9
$LIMMAX
 10
297.0
 20
210.0
  9
$ORTHOMODE
 70
     0
  9
$REGENMODE
 70
     1
  9
$FILLMODE
 70
     1
  9
$QTEXTMODE
 70
     0
  9
$MIRRTEXT
 70
     1
  9
$LTSCALE
 40
1.0
  9
$ATTMODE
 70
     1
  9
$TEXTSIZE
 40
2.0
  9
$TRACEWID
 40
1.0
  9
$TEXTSTYLE
  7
Standard
  9
$CLAYER
  8
0
  9
$CELTYPE
  6
ByLayer
  9
$CECOLOR
 62
   256
  9
$CELTSCALE
 40
1.0
  9
$DISPSILH
 70
     0
  9
$DIMSCALE
 40
1.0
  9
$DIMASZ
 40
3.0
  9
$DIMEXO
 40
0.0
  9
$DIMDLI
 40
3.75
  9
$DIMRND
 40
0.0
  9
$DIMDLE
 40
0.0
  9
$DIMEXE
 40
1.0
  9
$DIMTP
 40
0.0
  9
$DIMTM
 40
0.0
  9
$DIMTXT
 40
2.0
  9
$DIMCEN
 40
2.5
  9
$DIMTSZ
 40
0.0
  9
$DIMTOL
 70
     0
  9
$DIMLIM
 70
     0
  9
$DIMTIH
 70
     1
  9
$DIMTOH
 70
     1
  9
$DIMSE1
 70
     0
  9
$DIMSE2
 70
     0
  9
$DIMTAD
 70
     1
  9
$DIMZIN
 70
     0
  9
$DIMBLK
  1

  9
$DIMASO
 70
     1
  9
$DIMSHO
 70
     1
  9
$DIMPOST
  1

  9
$DIMAPOST
  1

  9
$DIMALT
 70
     0
  9
$DIMALTD
 70
     3
  9
$DIMALTF
 40
0.0393700787
  9
$DIMLFAC
 40
1.0
  9
$DIMTOFL
 70
     1
  9
$DIMTVP
 40
0.0
  9
$DIMTIX
 70
     0
  9
$DIMSOXD
 70
     0
  9
$DIMSAH
 70
     0
  9
$DIMBLK1
  1

  9
$DIMBLK2
  1

  9
$DIMSTYLE
  2
ISO-25
  9
$DIMCLRD
 70
     0
  9
$DIMCLRE
 70
     0
  9
$DIMCLRT
 70
     0
  9
$DIMTFAC
 40
1.0
  9
$DIMGAP
 40
1.524
  9
$DIMJUST
 70
     0
  9
$DIMSD1
 70
     0
  9
$DIMSD2
 70
     0
  9
$DIMTOLJ
 70
     0
  9
$DIMTZIN
 70
     0
  9
$DIMALTZ
 70
     0
  9
$DIMALTTZ
 70
     0
  9
$DIMUPT
 70
     0
  9
$DIMDEC
 70
     2
  9
$DIMTDEC
 70
     3
  9
$DIMALTU
 70
     2
  9
$DIMALTTD
 70
     3
  9
$DIMTXSTY
  7
Standard
  9
$DIMAUNIT
 70
     0
  9
$DIMADEC
 70
     2
  9
$DIMALTRND
 40
0.0
  9
$DIMAZIN
 70
     0
  9
$DIMDSEP
 70
    44
  9
$DIMATFIT
 70
     3
  9
$DIMFRAC
 70
     0
  9
$DIMLDRBLK
  1

  9
$DIMLUNIT
 70
     2
  9
$DIMLWD
 70
    -2
  9
$DIMLWE
 70
    -2
  9
$DIMTMOVE
 70
     0
  9
$LUNITS
 70
     2
  9
$LUPREC
 70
     2
  9
$SKETCHINC
 40
1.0
  9
$FILLETRAD
 40
10.0
  9
$AUNITS
 70
     0
  9
$AUPREC
 70
     2
  9
$MENU
  1
.
  9
$ELEVATION
 40
0.0
  9
$PELEVATION
 40
0.0
  9
$THICKNESS
 40
0.0
  9
$LIMCHECK
 70
     0
  9
$CHAMFERA
 40
0.0
  9
$CHAMFERB
 40
0.0
  9
$CHAMFERC
 40
0.0
  9
$CHAMFERD
 40
0.0
  9
$SKPOLY
 70
     0
  9
$TDCREATE
 40
2458176.38119522
  9
$TDUCREATE
 40
2458176.339528553
  9
$TDUPDATE
 40
2458176.38119625
  9
$TDUUPDATE
 40
2458176.339529583
  9
$TDINDWG
 40
0.0000000116
  9
$TDUSRTIMER
 40
0.0000000116
  9
$USRTIMER
 70
     1
  9
$ANGBASE
 50
0.0
  9
$ANGDIR
 70
     0
  9
$PDMODE
 70
     0
  9
$PDSIZE
 40
-1.0
  9
$PLINEWID
 40
0.0
  9
$SPLFRAME
 70
     0
  9
$SPLINETYPE
 70
     6
  9
$SPLINESEGS
 70
     8
  9
$HANDSEED
  5
1B6
  9
$SURFTAB1
 70
     6
  9
$SURFTAB2
 70
     6
  9
$SURFTYPE
 70
     6
  9
$SURFU
 70
     6
  9
$SURFV
 70
     6
  9
$UCSBASE
  2

  9
$UCSNAME
  2

  9
$UCSORG
 10
0.0
 20
0.0
 30
0.0
  9
$UCSXDIR
 10
1.0
 20
0.0
 30
0.0
  9
$UCSYDIR
 10
0.0
 20
1.0
 30
0.0
  9
$UCSORTHOREF
  2

  9
$UCSORTHOVIEW
 70
     0
  9
$UCSORGTOP
 10
0.0
 20
0.0
 30
0.0
  9
$UCSORGBOTTOM
 10
0.0
 20
0.0
 30
0.0
  9
$UCSORGLEFT
 10
0.0
 20
0.0
 30
0.0
  9
$UCSORGRIGHT
 10
0.0
 20
0.0
 30
0.0
  9
$UCSORGFRONT
 10
0.0
 20
0.0
 30
0.0
  9
$UCSORGBACK
 10
0.0
 20
0.0
 30
0.0
  9
$PUCSBASE
  2

  9
$PUCSNAME
  2

  9
$PUCSORG
 10
0.0
 20
0.0
 30
0.0
  9
$PUCSXDIR
 10
1.0
 20
0.0
 30
0.0
  9
$PUCSYDIR
 10
0.0
 20
1.0
 30
0.0
  9
$PUCSORTHOREF
  2

  9
$PUCSORTHOVIEW
 70
     0
  9
$PUCSORGTOP
 10
0.0
 20
0.0
 30
0.0
  9
$PUCSORGBOTTOM
 10
0.0
 20
0.0
 30
0.0
  9
$PUCSORGLEFT
 10
0.0
 20
0.0
 30
0.0
  9
$PUCSORGRIGHT
 10
0.0
 20
0.0
 30
0.0
  9
$PUCSORGFRONT
 10
0.0
 20
0.0
 30
0.0
  9
$PUCSORGBACK
 10
0.0
 20
0.0
 30
0.0
  9
$USERI1
 70
     0
  9
$USERI2
 70
     0
  9
$USERI3
 70
     0
  9
$USERI4
 70
     0
  9
$USERI5
 70
     0
  9
$USERR1
 40
0.0
  9
$USERR2
 40
0.0
  9
$USERR3
 40
0.0
  9
$USERR4
 40
0.0
  9
$USERR5
 40
0.0
  9
$WORLDVIEW
 70
     1
  9
$SHADEDGE
 70
     3
  9
$SHADEDIF
 70
    70
  9
$TILEMODE
 70
     1
  9
$MAXACTVP
 70
    64
  9
$PINSBASE
 10
0.0
 20
0.0
 30
0.0
  9
$PLIMCHECK
 70
     0
  9
$PEXTMIN
 10
1.0000000000E+20
 20
1.0000000000E+20
 30
1.0000000000E+20
  9
$PEXTMAX
 10
-1.0000000000E+20
 20
-1.0000000000E+20
 30
-1.0000000000E+20
  9
$PLIMMIN
 10
0.0
 20
0.0
  9
$PLIMMAX
 10
420.0
 20
297.0
  9
$UNITMODE
 70
     0
  9
$VISRETAIN
 70
     1
  9
$PLINEGEN
 70
     0
  9
$PSLTSCALE
 70
     1
  9
$TREEDEPTH
 70
  3020
  9
$CMLSTYLE
  2
Standard
  9
$CMLJUST
 70
     0
  9
$CMLSCALE
 40
20.0
  9
$PROXYGRAPHICS
 70
     1
  9
$MEASUREMENT
 70
     1
  9
$CELWEIGHT
370
    -1
  9
$ENDCAPS
280
     0
  9
$JOINSTYLE
280
     0
  9
$LWDISPLAY
290
     1
  9
$INSUNITS
 70
     4
  9
$HYPERLINKBASE
  1

  9
$STYLESHEET
  1

  9
$XEDIT
290
     1
  9
$CEPSNTYPE
380
     0
  9
$PSTYLEMODE
290
     1
  9
$FINGERPRINTGUID
  2
{72C3E3E3-80FB-47D1-B268-90C9881F5B7E}
  9
$VERSIONGUID
  2
{FAEB1C32-E019-11D5-929B-00C0DF256EC4}
  9
$EXTNAMES
290
     1
  9
$PSVPSCALE
 40
0.0
  9
$OLESTARTUP
290
     0
  0
ENDSEC
  0
SECTION
  2
CLASSES
  0
CLASS
  1
ACDBDICTIONARYWDFLT
  2
AcDbDictionaryWithDefault
  3
ObjectDBX Classes
 90
        0
280
     0
281
     0
  0
CLASS
  1
VISUALSTYLE
  2
AcDbVisualStyle
  3
ObjectDBX Classes
 90
     4095
280
     0
281
     0
  0
CLASS
  1
MATERIAL
  2
AcDbMaterial
  3
ObjectDBX Classes
 90
     1153
280
     0
281
     0
  0
CLASS
  1
SCALE
  2
AcDbScale
  3
ObjectDBX Classes
 90
     1153
280
     0
281
     0
  0
CLASS
  1
TABLESTYLE
  2
AcDbTableStyle
  3
ObjectDBX Classes
 90
     4095
280
     0
281
     0
  0
CLASS
  1
MLEADERSTYLE
  2
AcDbMLeaderStyle
  3
ACDB_MLEADERSTYLE_CLASS
 90
     4095
280
     0
281
     0
  0
CLASS
  1
SUN
  2
AcDbSun
  3
SCENEOE
 90
     1153
280
     0
281
     0
  0
CLASS
  1
ACDBPLACEHOLDER
  2
AcDbPlaceHolder
  3
ObjectDBX Classes
 90
        0
280
     0
281
     0
  0
CLASS
  1
LAYOUT
  2
AcDbLayout
  3
ObjectDBX Classes
 90
        0
280
     0
281
     0
  0
ENDSEC
  0
SECTION
  2
TABLES
  0
TABLE
  2
VPORT
  5
8
330
0
100
AcDbSymbolTable
 70
     1
  0
VPORT
  5
29
330
8
100
AcDbSymbolTableRecord
100
AcDbViewportTableRecord
  2
*Active
 70
     0
 10
0.0
 20
0.0
 11
1.0
 21
1.0
 12
148.5
 22
105.0
 13
0.0
 23
0.0
 14
10.0
 24
10.0
 15
10.0
 25
10.0
 16
0.0
 26
0.0
 36
1.0
 17
0.0
 27
0.0
 37
0.0
 40
210.0
 41
1.4142857143
 42
50.0
 43
0.0
 44
0.0
 50
0.0
 51
0.0
 71
     0
 72
  2000
 73
     1
 74
     3
 75
     0
 76
     0
 77
     0
 78
     0
281
     0
 65
     1
110
0.0
120
0.0
130
0.0
111
1.0
121
0.0
131
0.0
112
0.0
122
1.0
132
0.0
 79
     0
146
0.0
  0
ENDTAB
  0
TABLE
  2
LTYPE
  5
5
330
0
100
AcDbSymbolTable
 70
     6
  0
LTYPE
  5
14
330
5
100
AcDbSymbolTableRecord
100
AcDbLinetypeTableRecord
  2
ByBlock
 70
     0
  3

 72
    65
 73
     0
 40
0.0
  0
LTYPE
  5
15
330
5
100
AcDbSymbolTableRecord
100
AcDbLinetypeTableRecord
  2
ByLayer
 70
     0
  3

 72
    65
 73
     0
 40
0.0
  0
LTYPE
  5
16
330
5
100
AcDbSymbolTableRecord
100
AcDbLinetypeTableRecord
  2
Continuous
 70
     0
  3
Solid line
 72
    65
 73
     0
 40
0.0
  0
LTYPE
  5
6E
330
5
100
AcDbSymbolTableRecord
100
AcDbLinetypeTableRecord
  2
HIDDEN
 70
     0
  3
Hidden __ __ __ __ __ __ __ __ __ __ __ __ __ __
 72
    65
 73
     2
 40
1.905
 49
1.27
 74
     0
 49
-0.635
 74
     0
  0
LTYPE
  5
6F
330
5
100
AcDbSymbolTableRecord
100
AcDbLinetypeTableRecord
  2
PHANTOM
 70
     0
  3
Phantom ______  __  __  ______  __  __  ______
 72
    65
 73
     6
 40
12.7
 49
6.35
 74
     0
 49
-1.27
 74
     0
 49
1.27
 74
     0
 49
-1.27
 74
     0
 49
1.27
 74
     0
 49
-1.27
 74
     0
  0
LTYPE
  5
70
330
5
100
AcDbSymbolTableRecord
100
AcDbLinetypeTableRecord
  2
CENTER
 70
     0
  3
Center ____ _ ____ _ ____ _ ____ _ ____ _ ____
 72
    65
 73
     4
 40
10.16
 49
6.35
 74
     0
 49
-1.27
 74
     0
 49
1.27
 74
     0
 49
-1.27
 74
     0
  0
LTYPE
  5
71
330
5
100
AcDbSymbolTableRecord
100
AcDbLinetypeTableRecord
  2
CENTERX2
 70
     0
  3
Center (2x) ________  __  ________  __  _____
 72
    65
 73
     4
 40
20.32
 49
12.7
 74
     0
 49
-2.54
 74
     0
 49
2.54
 74
     0
 49
-2.54
 74
     0
  0
LTYPE
  5
72
330
5
100
AcDbSymbolTableRecord
100
AcDbLinetypeTableRecord
  2
DOT2
 70
     0
  3
Dot (.5x) ........................................
 72
    65
 73
     2
 40
0.635
 49
0.0
 74
     0
 49
-0.635
 74
     0
  0
ENDTAB
  0
TABLE
  2
LAYER
  5
2
330
0
100
AcDbSymbolTable
 70
     5
  0
LAYER
  5
10
330
2
100
AcDbSymbolTableRecord
100
AcDbLayerTableRecord
  2
0
 70
     0
 62
     7
  6
Continuous
370
    -3
390
F
  0
LAYER
  5
73
330
2
100
AcDbSymbolTableRecord
100
AcDbLayerTableRecord
  2
FORMAT
 70
     0
 62
     7
  6
Continuous
370
    -3
390
F
  0
LAYER
  5
74
330
2
100
AcDbSymbolTableRecord
100
AcDbLayerTableRecord
  2
VERMASSUNG
 70
     0
 62
     7
  6
Continuous
370
    -3
390
F
  0
LAYER
  5
75
330
2
100
AcDbSymbolTableRecord
100
AcDbLayerTableRecord
  2
KOPF_DÜNN
 70
     0
 62
     7
  6
Continuous
370
    -3
390
F
  0
LAYER
  5
76
330
2
100
AcDbSymbolTableRecord
100
AcDbLayerTableRecord
  2
KOPF_DICK
 70
     0
 62
     7
  6
Continuous
370
    25
390
F
  0
ENDTAB
  0
TABLE
  2
STYLE
  5
3
330
0
100
AcDbSymbolTable
 70
     3
  0
STYLE
  5
11
330
3
100
AcDbSymbolTableRecord
100
AcDbTextStyleTableRecord
  2
Standard
 70
     0
 40
0.0
 41
1.0
 50
0.0
 71
     0
 42
2.0
  3
txt
  4

  0
STYLE
  5
77
330
3
100
AcDbSymbolTableRecord
100
AcDbTextStyleTableRecord
  2
SLDTEXTSTYLE0
 70
     0
 40
0.0
 41
0.7
 50
0.0
 71
     0
 42
2.0
  3
TXT
  4

  0
STYLE
  5
1A3
330
3
100
AcDbSymbolTableRecord
100
AcDbTextStyleTableRecord
  2
SLDTEXTSTYLE1
 70
     0
 40
0.0
 41
0.65
 50
0.0
 71
     0
 42
2.0
  3
TXT
  4

  0
ENDTAB
  0
TABLE
  2
VIEW
  5
6
330
0
100
AcDbSymbolTable
 70
     0
  0
ENDTAB
  0
TABLE
  2
UCS
  5
7
330
0
100
AcDbSymbolTable
 70
     0
  0
ENDTAB
  0
TABLE
  2
APPID
  5
9
330
0
100
AcDbSymbolTable
 70
     1
  0
APPID
  5
12
330
9
100
AcDbSymbolTableRecord
100
AcDbRegAppTableRecord
  2
ACAD
 70
     0
  0
ENDTAB
  0
TABLE
  2
DIMSTYLE
  5
A
330
0
100
AcDbSymbolTable
 70
     5
100
AcDbDimStyleTable
  0
DIMSTYLE
105
27
330
A
100
AcDbSymbolTableRecord
100
AcDbDimStyleTableRecord
  2
ISO-25
 70
     0
 41
2.5
 42
0.625
 43
3.75
 44
1.25
 73
     0
 74
     0
 77
     1
 78
     8
140
2.5
141
2.5
143
0.0393700787
147
0.625
171
     3
172
     1
178
     0
271
     2
272
     2
274
     3
278
    44
283
     0
284
     8
340
11
  0
DIMSTYLE
105
118
102
{ACAD_REACTORS
330
117
330
124
330
130
102
}
330
A
100
AcDbSymbolTableRecord
100
AcDbDimStyleTableRecord
  2
SLDDIMSTYLE0
 70
     0
 41
3.0
 44
0.0
 45
0.000000001
 73
     0
 74
     0
 77
     1
 78
    12
 79
     3
140
2.0
147
0.5
173
     1
178
     0
271
     2
272
     3
276
     2
284
    12
340
77
  0
DIMSTYLE
105
18C
102
{ACAD_REACTORS
330
18B
102
}
330
A
100
AcDbSymbolTableRecord
100
AcDbDimStyleTableRecord
  2
SLDDIMSTYLE1
 70
     0
 41
3.0
 44
0.0
 45
0.000000001
 73
     0
 74
     0
 77
     1
 78
     8
 79
     2
140
2.0
144
0.2
147
0.5
172
     1
173
     1
178
     0
271
     2
272
     3
276
     2
284
    12
289
     0
340
77
  0
DIMSTYLE
105
199
102
{ACAD_REACTORS
330
198
102
}
330
A
100
AcDbSymbolTableRecord
100
AcDbDimStyleTableRecord
  2
SLDDIMSTYLE2
 70
     0
 41
3.0
 44
0.0
 45
0.000000001
 73
     0
 74
     0
 77
     1
 78
    12
 79
     3
140
2.0
144
0.2
147
0.5
173
     1
178
     0
271
     2
272
     3
276
     2
284
    12
340
77
  0
DIMSTYLE
105
1AB
330
A
100
AcDbSymbolTableRecord
100
AcDbDimStyleTableRecord
  2
SLDDIMSTYLE3
 70
     0
 41
3.0
 44
0.0
 45
0.000000001
146
3.0
147
0.0
173
     1
178
     0
271
     0
272
     0
276
     2
340
11
  0
ENDTAB
  0
TABLE
  2
BLOCK_RECORD
  5
1
330
0
100
AcDbSymbolTable
 70
     9
  0
BLOCK_RECORD
  5
1F
330
1
100
AcDbSymbolTableRecord
100
AcDbBlockTableRecord
  2
*Model_Space
340
22
  0
BLOCK_RECORD
  5
1B
330
1
100
AcDbSymbolTableRecord
100
AcDbBlockTableRecord
  2
*Paper_Space
340
1E
  0
BLOCK_RECORD
  5
23
330
1
100
AcDbSymbolTableRecord
100
AcDbBlockTableRecord
  2
*Paper_Space0
340
26
  0
BLOCK_RECORD
  5
119
330
1
100
AcDbSymbolTableRecord
100
AcDbBlockTableRecord
  2
_D
340
0
  0
BLOCK_RECORD
  5
125
330
1
100
AcDbSymbolTableRecord
100
AcDbBlockTableRecord
  2
_D_1
340
0
  0
BLOCK_RECORD
  5
131
330
1
100
AcDbSymbolTableRecord
100
AcDbBlockTableRecord
  2
_D_2
340
0
  0
BLOCK_RECORD
  5
140
330
1
100
AcDbSymbolTableRecord
100
AcDbBlockTableRecord
  2
SW_DOWELSYMBOL_0
340
0
102
{BLKREFS
331
146
102
}
  0
BLOCK_RECORD
  5
18D
330
1
100
AcDbSymbolTableRecord
100
AcDbBlockTableRecord
  2
_D_3
340
0
  0
BLOCK_RECORD
  5
19A
330
1
100
AcDbSymbolTableRecord
100
AcDbBlockTableRecord
  2
_D_4
340
0
  0
BLOCK_RECORD
  5
1A5
330
1
100
AcDbSymbolTableRecord
100
AcDbBlockTableRecord
  2
SW_NOTE_0
340
0
102
{BLKREFS
331
1AA
102
}
  0
BLOCK_RECORD
  5
1AD
330
1
100
AcDbSymbolTableRecord
100
AcDbBlockTableRecord
  2
SW_DOWELSYMBOL_1
340
0
102
{BLKREFS
331
1B3
102
}
  0
ENDTAB
  0
ENDSEC
  0
SECTION
  2
BLOCKS
  0
BLOCK
  5
20
330
1F
100
AcDbEntity
  8
0
100
AcDbBlockBegin
  2
*Model_Space
 70
     0
 10
0.0
 20
0.0
 30
0.0
  3
*Model_Space
  1

  0
ENDBLK
  5
21
330
1F
100
AcDbEntity
  8
0
100
AcDbBlockEnd
  0
BLOCK
  5
1C
330
1B
100
AcDbEntity
 67
     1
  8
0
100
AcDbBlockBegin
  2
*Paper_Space
 70
     0
 10
0.0
 20
0.0
 30
0.0
  3
*Paper_Space
  1

  0
ENDBLK
  5
1D
330
1B
100
AcDbEntity
 67
     1
  8
0
100
AcDbBlockEnd
  0
BLOCK
  5
24
330
23
100
AcDbEntity
  8
0
100
AcDbBlockBegin
  2
*Paper_Space0
 70
     0
 10
0.0
 20
0.0
 30
0.0
  3
*Paper_Space0
  1

  0
ENDBLK
  5
25
330
23
100
AcDbEntity
  8
0
100
AcDbBlockEnd
  0
BLOCK
  5
11A
330
119
100
AcDbEntity
  8
0
100
AcDbBlockBegin
  2
_D
 70
     0
 10
0.0
 20
0.0
 30
0.0
  3
_D
  1

  0
SOLID
  5
11C
330
119
100
AcDbEntity
  8
VERMASSUNG
100
AcDbTrace
 10
57.5276415575
 20
162.4309510483
 30
0.0
 11
57.0776415575
 21
159.4309510483
 31
0.0
 12
57.9776415575
 22
159.4309510483
 32
0.0
 13
57.9776415575
 23
159.4309510483
 33
0.0
  0
SOLID
  5
11D
330
119
100
AcDbEntity
  8
VERMASSUNG
100
AcDbTrace
 10
57.5276415575
 20
99.4309510483
 30
0.0
 11
57.9776415575
 21
102.4309510483
 31
0.0
 12
57.0776415575
 22
102.4309510483
 32
0.0
 13
57.0776415575
 23
102.4309510483
 33
0.0
  0
LINE
  5
11E
330
119
100
AcDbEntity
  8
VERMASSUNG
100
AcDbLine
 10
109.7705929327
 20
162.4309510483
 30
0.0
 11
56.5276415575
 21
162.4309510483
 31
0.0
  0
LINE
  5
11F
330
119
100
AcDbEntity
  8
VERMASSUNG
100
AcDbLine
 10
109.7705929327
 20
99.4309510483
 30
0.0
 11
56.5276415575
 21
99.4309510483
 31
0.0
  0
LINE
  5
120
330
119
100
AcDbEntity
  8
VERMASSUNG
100
AcDbLine
 10
57.5276415575
 20
162.4309510483
 30
0.0
 11
57.5276415575
 21
99.4309510483
 31
0.0
  0
MTEXT
  5
121
330
119
100
AcDbEntity
  8
VERMASSUNG
100
AcDbMText
 10
54.7495063013
 20
124.8268761456
 30
0.0
 40
2.0
 41
0.0
 71
     1
 72
     1
  1
PSC
  7
SLDTEXTSTYLE0
 11
-7.044195017643634E-15
 21
1.0
 31
0.0
 73
     1
 44
1.0
  0
MTEXT
  5
122
330
119
100
AcDbEntity
  8
VERMASSUNG
100
AcDbMText
 10
54.9495062526
 20
130.6268760718
 30
0.0
 40
2.0
 41
0.0
 71
     1
 72
     1
  1
%%c
  7
SLDTEXTSTYLE0
 11
-7.044195017643634E-15
 21
1.0
 31
0.0
 73
     1
 44
1.0
  0
MTEXT
  5
123
330
119
100
AcDbEntity
  8
VERMASSUNG
100
AcDbMText
 10
54.9495059615
 20
134.236673811
 30
0.0
 40
2.0
 41
0.0
 71
     1
 72
     1
  1
63
  7
SLDTEXTSTYLE0
 11
-7.044195017643634E-15
 21
1.0
 31
0.0
 73
     1
 44
1.0
  0
ENDBLK
  5
11B
330
119
100
AcDbEntity
  8
0
100
AcDbBlockEnd
  0
BLOCK
  5
126
330
125
100
AcDbEntity
  8
0
100
AcDbBlockBegin
  2
_D_1
 70
     0
 10
0.0
 20
0.0
 30
0.0
  3
_D_1
  1

  0
ARC
  5
128
330
125
100
AcDbEntity
  8
VERMASSUNG
100
AcDbCircle
 10
103.5824246447
 20
176.5780140398
 30
0.0
 40
4.246860806920064
100
AcDbArc
 50
153.4349488229
 51
206.5650511771
  0
ARC
  5
129
330
125
100
AcDbEntity
  8
VERMASSUNG
100
AcDbCircle
 10
101.9587612206
 20
176.5780140398
 30
0.0
 40
4.24686080692009
100
AcDbArc
 50
333.4349488229
 51
26.5650511771
  0
SOLID
  5
12A
330
125
100
AcDbEntity
  8
VERMASSUNG
100
AcDbTrace
 10
71.2705929327
 20
174.6787601487
 30
0.0
 11
74.2705929327
 21
174.2287601487
 31
0.0
 12
74.2705929327
 22
175.1287601487
 32
0.0
 13
74.2705929327
 23
175.1287601487
 33
0.0
  0
SOLID
  5
12B
330
125
100
AcDbEntity
  8
VERMASSUNG
100
AcDbTrace
 10
134.2705929327
 20
174.6787601487
 30
0.0
 11
131.2705929327
 21
175.1287601487
 31
0.0
 12
131.2705929327
 22
174.2287601487
 32
0.0
 13
131.2705929327
 23
174.2287601487
 33
0.0
  0
LINE
  5
12C
330
125
100
AcDbEntity
  8
VERMASSUNG
100
AcDbLine
 10
71.2705929327
 20
151.1170668173
 30
0.0
 11
71.2705929327
 21
175.6787601487
 31
0.0
  0
LINE
  5
12D
330
125
100
AcDbEntity
  8
VERMASSUNG
100
AcDbLine
 10
134.2705929327
 20
162.4309510483
 30
0.0
 11
134.2705929327
 21
175.6787601487
 31
0.0
  0
LINE
  5
12E
330
125
100
AcDbEntity
  8
VERMASSUNG
100
AcDbLine
 10
71.2705929327
 20
174.6787601487
 30
0.0
 11
134.2705929327
 21
174.6787601487
 31
0.0
  0
MTEXT
  5
12F
330
125
100
AcDbEntity
  8
VERMASSUNG
100
AcDbMText
 10
101.3714168626
 20
177.2568957447
 30
0.0
 40
2.0
 41
0.0
 71
     1
 72
     1
  1
63
  7
SLDTEXTSTYLE0
 73
     1
 44
1.0
  0
ENDBLK
  5
127
330
125
100
AcDbEntity
  8
0
100
AcDbBlockEnd
  0
BLOCK
  5
132
330
131
100
AcDbEntity
  8
0
100
AcDbBlockBegin
  2
_D_2
 70
     0
 10
0.0
 20
0.0
 30
0.0
  3
_D_2
  1

  0
SOLID
  5
134
330
131
100
AcDbEntity
  8
VERMASSUNG
100
AcDbTrace
 10
109.2705929327
 20
168.6787601487
 30
0.0
 11
112.2705929327
 21
168.2287601487
 31
0.0
 12
112.2705929327
 22
169.1287601487
 32
0.0
 13
112.2705929327
 23
169.1287601487
 33
0.0
  0
SOLID
  5
135
330
131
100
AcDbEntity
  8
VERMASSUNG
100
AcDbTrace
 10
134.2705929327
 20
168.6787601487
 30
0.0
 11
131.2705929327
 21
169.1287601487
 31
0.0
 12
131.2705929327
 22
168.2287601487
 32
0.0
 13
131.2705929327
 23
168.2287601487
 33
0.0
  0
LINE
  5
136
330
131
100
AcDbEntity
  8
VERMASSUNG
100
AcDbLine
 10
109.2705929327
 20
161.9309510483
 30
0.0
 11
109.2705929327
 21
169.6787601487
 31
0.0
  0
LINE
  5
137
330
131
100
AcDbEntity
  8
VERMASSUNG
100
AcDbLine
 10
134.2705929327
 20
162.4309510483
 30
0.0
 11
134.2705929327
 21
169.6787601487
 31
0.0
  0
LINE
  5
138
330
131
100
AcDbEntity
  8
VERMASSUNG
100
AcDbLine
 10
109.2705929327
 20
168.6787601487
 30
0.0
 11
134.2705929327
 21
168.6787601487
 31
0.0
  0
MTEXT
  5
139
330
131
100
AcDbEntity
  8
VERMASSUNG
100
AcDbMText
 10
120.3714168626
 20
171.2568957447
 30
0.0
 40
2.0
 41
0.0
 71
     1
 72
     1
  1
25
  7
SLDTEXTSTYLE0
 73
     1
 44
1.0
  0
ENDBLK
  5
133
330
131
100
AcDbEntity
  8
0
100
AcDbBlockEnd
  0
BLOCK
  5
141
330
140
100
AcDbEntity
  8
0
100
AcDbBlockBegin
  2
SW_DOWELSYMBOL_0
 70
     0
 10
0.0
 20
0.0
 30
0.0
  3
SW_DOWELSYMBOL_0
  1

  0
CIRCLE
  5
143
330
140
100
AcDbEntity
  8
VERMASSUNG
 62
     0
100
AcDbCircle
 10
0.0
 20
0.0
 30
0.0
 40
1.379978686380903
  0
HATCH
  5
144
330
140
100
AcDbEntity
  8
0
  6
Continuous
 62
     0
370
    18
100
AcDbHatch
 10
0.0
 20
0.0
 30
0.0
210
0.0
220
0.0
230
1.0
  2
SOLID
 70
     1
 71
     0
 91
        1
 92
        0
 93
        3
 72
     2
 10
0.0
 20
0.0
 40
1.379978686380903
 50
0.0
 51
90.0
 73
     1
 72
     1
 10
0.0
 20
1.3799786863809
 11
0.0
 21
0.0
 72
     1
 10
0.0
 20
0.0
 11
1.3799786863809
 21
0.0
 97
        0
 75
     0
 76
     1
 98
        1
 10
0.0
 20
0.0
  0
HATCH
  5
145
330
140
100
AcDbEntity
  8
0
  6
Continuous
 62
     0
370
    18
100
AcDbHatch
 10
0.0
 20
0.0
 30
0.0
210
0.0
220
0.0
230
1.0
  2
SOLID
 70
     1
 71
     0
 91
        1
 92
        0
 93
        3
 72
     2
 10
0.0
 20
0.0
 40
1.379978686380903
 50
180.0
 51
270.0000000000008
 73
     1
 72
     1
 10
0.0
 20
-1.3799786863809
 11
0.0
 21
0.0
 72
     1
 10
0.0
 20
0.0
 11
-1.3799786863809
 21
0.0
 97
        0
 75
     0
 76
     1
 98
        1
 10
0.0
 20
0.0
  0
ENDBLK
  5
142
330
140
100
AcDbEntity
  8
0
100
AcDbBlockEnd
  0
BLOCK
  5
18E
330
18D
100
AcDbEntity
  8
0
100
AcDbBlockBegin
  2
_D_3
 70
     0
 10
0.0
 20
0.0
 30
0.0
  3
_D_3
  1

  0
SOLID
  5
190
330
18D
100
AcDbEntity
  8
VERMASSUNG
100
AcDbTrace
 10
246.1038155675
 20
152.4690642327
 30
0.0
 11
246.5538155675
 21
155.4690642327
 31
0.0
 12
245.6538155675
 22
155.4690642327
 32
0.0
 13
245.6538155675
 23
155.4690642327
 33
0.0
  0
SOLID
  5
191
330
18D
100
AcDbEntity
  8
VERMASSUNG
100
AcDbTrace
 10
246.1038155675
 20
152.3021142327
 30
0.0
 11
245.6538155675
 21
149.3021142327
 31
0.0
 12
246.5538155675
 22
149.3021142327
 32
0.0
 13
246.5538155675
 23
149.3021142327
 33
0.0
  0
LINE
  5
192
330
18D
100
AcDbEntity
  8
VERMASSUNG
100
AcDbLine
 10
239.0209640641
 20
152.4690642327
 30
0.0
 11
247.1038155675
 21
152.4690642327
 31
0.0
  0
LINE
  5
193
330
18D
100
AcDbEntity
  8
VERMASSUNG
100
AcDbLine
 10
241.6093549365
 20
152.3021142327
 30
0.0
 11
247.1038155675
 21
152.3021142327
 31
0.0
  0
LINE
  5
194
330
18D
100
AcDbEntity
  8
VERMASSUNG
100
AcDbLine
 10
246.1038155675
 20
152.4690642327
 30
0.0
 11
246.1038155675
 21
168.5996434095
 31
0.0
  0
LINE
  5
195
330
18D
100
AcDbEntity
  8
VERMASSUNG
100
AcDbLine
 10
246.1038155675
 20
152.4690642327
 30
0.0
 11
246.1038155675
 21
152.3021142327
 31
0.0
  0
LINE
  5
196
330
18D
100
AcDbEntity
  8
VERMASSUNG
100
AcDbLine
 10
246.1038155675
 20
152.3021142327
 30
0.0
 11
246.1038155675
 21
146.3021142327
 31
0.0
  0
MTEXT
  5
197
330
18D
100
AcDbEntity
  8
VERMASSUNG
100
AcDbMText
 10
243.5256799715
 20
163.7996436472
 30
0.0
 40
2.0
 41
0.0
 71
     1
 72
     1
  1
0.03
  7
SLDTEXTSTYLE0
 11
-7.044195017643634E-15
 21
1.0
 31
0.0
 73
     1
 44
1.0
  0
ENDBLK
  5
18F
330
18D
100
AcDbEntity
  8
0
100
AcDbBlockEnd
  0
BLOCK
  5
19B
330
19A
100
AcDbEntity
  8
0
100
AcDbBlockBegin
  2
_D_4
 70
     0
 10
0.0
 20
0.0
 30
0.0
  3
_D_4
  1

  0
SOLID
  5
19D
330
19A
100
AcDbEntity
  8
VERMASSUNG
100
AcDbTrace
 10
213.6169988126
 20
123.4853146898
 30
0.0
 11
216.6169988126
 21
123.0353146898
 31
0.0
 12
216.6169988126
 22
123.9353146898
 32
0.0
 13
216.6169988126
 23
123.9353146898
 33
0.0
  0
SOLID
  5
19E
330
19A
100
AcDbEntity
  8
VERMASSUNG
100
AcDbTrace
 10
231.5166988126
 20
123.4853146898
 30
0.0
 11
228.5166988126
 21
123.9353146898
 31
0.0
 12
228.5166988126
 22
123.0353146898
 32
0.0
 13
228.5166988126
 23
123.0353146898
 33
0.0
  0
LINE
  5
19F
330
19A
100
AcDbEntity
  8
VERMASSUNG
100
AcDbLine
 10
213.6169988126
 20
135.6004957904
 30
0.0
 11
213.6169988126
 21
122.4853146898
 31
0.0
  0
LINE
  5
1A0
330
19A
100
AcDbEntity
  8
VERMASSUNG
100
AcDbLine
 10
231.5166988126
 20
144.0106245936
 30
0.0
 11
231.5166988126
 21
122.4853146898
 31
0.0
  0
LINE
  5
1A1
330
19A
100
AcDbEntity
  8
VERMASSUNG
100
AcDbLine
 10
213.6169988126
 20
123.4853146898
 30
0.0
 11
231.5166988126
 21
123.4853146898
 31
0.0
  0
MTEXT
  5
1A2
330
19A
100
AcDbEntity
  8
VERMASSUNG
100
AcDbMText
 10
220.1668489314
 20
126.0634502857
 30
0.0
 40
2.0
 41
0.0
 71
     1
 72
     1
  1
3.58
  7
SLDTEXTSTYLE0
 73
     1
 44
1.0
  0
ENDBLK
  5
19C
330
19A
100
AcDbEntity
  8
0
100
AcDbBlockEnd
  0
BLOCK
  5
1A6
330
1A5
100
AcDbEntity
  8
0
100
AcDbBlockBegin
  2
SW_NOTE_0
 70
     0
 10
0.0
 20
0.0
 30
0.0
  3
SW_NOTE_0
  1

  0
MTEXT
  5
1A8
330
1A5
100
AcDbEntity
  8
VERMASSUNG
 62
     0
100
AcDbMText
 10
-23.2233470354
 20
3.700944055
 30
0.0
 40
2.0
 41
0.0
 71
     1
 72
     1
  1
Theoretical center of mass
  7
SLDTEXTSTYLE0
 73
     1
 44
1.0
  0
MTEXT
  5
1A9
330
1A5
100
AcDbEntity
  8
VERMASSUNG
 62
     0
100
AcDbMText
 10
-23.2233470354
 20
0.7009440289
 30
0.0
 40
2.0
 41
0.0
 71
     1
 72
     1
  1
X=3.58 Y=0.03 Z=0
  7
SLDTEXTSTYLE0
 73
     1
 44
1.0
  0
ENDBLK
  5
1A7
330
1A5
100
AcDbEntity
  8
0
100
AcDbBlockEnd
  0
BLOCK
  5
1AE
330
1AD
100
AcDbEntity
  8
0
100
AcDbBlockBegin
  2
SW_DOWELSYMBOL_1
 70
     0
 10
0.0
 20
0.0
 30
0.0
  3
SW_DOWELSYMBOL_1
  1

  0
CIRCLE
  5
1B0
330
1AD
100
AcDbEntity
  8
VERMASSUNG
 62
     0
100
AcDbCircle
 10
0.0
 20
0.0
 30
0.0
 40
1.237540079624165
  0
HATCH
  5
1B1
330
1AD
100
AcDbEntity
  8
0
  6
Continuous
 62
     0
370
    18
100
AcDbHatch
 10
0.0
 20
0.0
 30
0.0
210
0.0
220
0.0
230
1.0
  2
SOLID
 70
     1
 71
     0
 91
        1
 92
        0
 93
        3
 72
     2
 10
0.0
 20
0.0
 40
1.237540079624165
 50
0.0
 51
90.0
 73
     1
 72
     1
 10
0.0
 20
1.237540079624178
 11
0.0
 21
0.0
 72
     1
 10
0.0
 20
0.0
 11
1.237540079624178
 21
0.0
 97
        0
 75
     0
 76
     1
 98
        1
 10
0.0
 20
0.0
  0
HATCH
  5
1B2
330
1AD
100
AcDbEntity
  8
0
  6
Continuous
 62
     0
370
    18
100
AcDbHatch
 10
0.0
 20
0.0
 30
0.0
210
0.0
220
0.0
230
1.0
  2
SOLID
 70
     1
 71
     0
 91
        1
 92
        0
 93
        3
 72
     2
 10
0.0
 20
0.0
 40
1.237540079624165
 50
180.0
 51
270.0000000000008
 73
     1
 72
     1
 10
0.0
 20
-1.237540079624178
 11
0.0
 21
0.0
 72
     1
 10
0.0
 20
0.0
 11
-1.237540079624178
 21
0.0
 97
        0
 75
     0
 76
     1
 98
        1
 10
0.0
 20
0.0
  0
ENDBLK
  5
1AF
330
1AD
100
AcDbEntity
  8
0
100
AcDbBlockEnd
  0
ENDSEC
  0
SECTION
  2
ENTITIES
  0
MTEXT
  5
78
330
1F
100
AcDbEntity
  8
KOPF_DÜNN
100
AcDbMText
 10
13.8892156294
 20
23.8442973028
 30
0.0
 40
3.0
 41
0.0
 71
     1
 72
     1
  1
PS6.000.001.025
  7
SLDTEXTSTYLE0
 73
     1
 44
1.0
  0
MTEXT
  5
79
330
1F
100
AcDbEntity
  8
VERMASSUNG
100
AcDbMText
 10
13.9329988022
 20
28.8834360957
 30
0.0
 40
3.0
 41
0.0
 71
     1
 72
     1
  1
Trennstellenverschluss / Blanking plug
  7
SLDTEXTSTYLE0
 73
     1
 44
1.0
  0
MTEXT
  5
7A
330
1F
100
AcDbEntity
  8
VERMASSUNG
100
AcDbMText
 10
98.8601118557
 20
13.8365368761
 30
0.0
 40
2.0
 41
0.0
 71
     1
 72
     1
  1
Datum: 07.03.2010
  7
SLDTEXTSTYLE0
 73
     1
 44
1.0
  0
MTEXT
  5
7B
330
1F
100
AcDbEntity
  8
VERMASSUNG
100
AcDbMText
 10
13.933048693
 20
18.0482802738
 30
0.0
 40
2.0
 41
0.0
 71
     1
 72
     1
  1
PSC 63
  7
SLDTEXTSTYLE0
 73
     1
 44
1.0
  0
MTEXT
  5
7C
330
1F
100
AcDbEntity
  8
VERMASSUNG
100
AcDbMText
 10
13.9808475933
 20
13.9090974274
 30
0.0
 40
2.0
 41
0.0
 71
     1
 72
     1
  1
Gewicht: 826g
  7
SLDTEXTSTYLE0
 73
     1
 44
1.0
  0
ARC
  5
7D
330
1F
100
AcDbEntity
  8
0
  6
Continuous
 62
     7
370
    25
100
AcDbCircle
 10
133.6705929327
 20
100.0309510483
 30
0.0
 40
0.6000000000000227
100
AcDbArc
 50
270.0
 51
0.0
  0
ARC
  5
7E
330
1F
100
AcDbEntity
  8
0
  6
Continuous
 62
     7
370
    25
100
AcDbCircle
 10
133.6705929327
 20
161.8309510483
 30
0.0
 40
0.6000000000000227
100
AcDbArc
 50
0.0
 51
90.0
  0
LINE
  5
7F
330
1F
100
AcDbEntity
  8
0
  6
Continuous
 62
     7
370
    25
100
AcDbLine
 10
123.245974577
 20
99.4309510483
 30
0.0
 11
133.6705929327
 21
99.4309510483
 31
0.0
  0
LINE
  5
80
330
1F
100
AcDbEntity
  8
0
  6
Continuous
 62
     7
370
    25
100
AcDbLine
 10
109.7705929327
 20
99.4309510483
 30
0.0
 11
119.2705929327
 21
99.4309510483
 31
0.0
  0
LINE
  5
81
330
1F
100
AcDbEntity
  8
0
  6
Continuous
 62
     7
370
    25
100
AcDbLine
 10
133.6705929327
 20
162.4309510483
 30
0.0
 11
109.7705929327
 21
162.4309510483
 31
0.0
  0
ARC
  5
82
330
1F
100
AcDbEntity
  8
0
  6
Continuous
 62
     7
370
    25
100
AcDbCircle
 10
109.7705929327
 20
99.9309510483
 30
0.0
 40
0.5
100
AcDbArc
 50
180.0
 51
270.0
  0
ARC
  5
83
330
1F
100
AcDbEntity
  8
0
  6
Continuous
 62
     7
370
    25
100
AcDbCircle
 10
109.7705929327
 20
161.9309510483
 30
0.0
 40
0.5
100
AcDbArc
 50
90.0
 51
180.0
  0
LWPOLYLINE
  5
84
330
1F
100
AcDbEntity
  8
0
  6
Continuous
 62
     7
370
    25
100
AcDbPolyline
 90
        3
 70
   128
 43
0.0
 10
109.0705929327
 20
108.3911307694
 10
109.1960478762
 20
108.3228286545
 10
109.2705929327
 20
108.2700908964
  0
ARC
  5
85
330
1F
100
AcDbEntity
  8
0
  6
Continuous
 62
     7
370
    25
100
AcDbCircle
 10
108.6563793703
 20
154.3809510483
 30
0.0
 40
1.000000000000008
100
AcDbArc
 50
225.0
 51
307.8947985336
  0
ARC
  5
86
330
1F
100
AcDbEntity
  8
0
  6
Continuous
 62
     7
370
    25
100
AcDbCircle
 10
107.2705298436
 20
110.3058291526
 30
0.0
 40
0.2000000000000059
100
AcDbArc
 50
88.5608333333
 51
178.5608333333
  0
LINE
  5
87
330
1F
100
AcDbEntity
  8
0
  6
Continuous
 62
     7
370
    25
100
AcDbLine
 10
98.2088826385
 20
110.5334892714
 30
0.0
 11
107.0705929327
 21
110.3108522638
 31
0.0
  0
LINE
  5
88
330
1F
100
AcDbEntity
  8
0
  6
Continuous
 62
     7
370
    25
100
AcDbLine
 10
79.6365003381
 20
111.0000921598
 30
0.0
 11
89.5399064033
 21
110.7512841286
 31
0.0
  0
ARC
  5
89
330
1F
100
AcDbEntity
  8
0
  6
Continuous
 62
     7
370
    25
100
AcDbCircle
 10
108.8705929327
 20
110.2656299985
 30
0.0
 40
0.2000000000000028
100
AcDbArc
 50
0.0
 51
88.5608333333
  0
LINE
  5
8A
330
1F
100
AcDbEntity
  8
0
  6
Continuous
 62
     7
370
    25
100
AcDbLine
 10
107.2755529547
 20
110.5057660636
 30
0.0
 11
108.8756160438
 21
110.4655669094
 31
0.0
  0
ARC
  5
8B
330
1F
100
AcDbEntity
  8
0
  6
Continuous
 62
     7
370
    25
100
AcDbCircle
 10
107.2705298436
 20
154.356072944
 30
0.0
 40
0.199999999999991
100
AcDbArc
 50
181.4391666667
 51
271.4391666667
  0
LINE
  5
8C
330
1F
100
AcDbEntity
  8
0
  6
Continuous
 62
     7
370
    25
100
AcDbLine
 10
107.0705929327
 20
154.3510498329
 30
0.0
 11
72.7705929327
 21
153.4893144446
 31
0.0
  0
LINE
  5
8D
330
1F
100
AcDbEntity
  8
0
  6
Continuous
 62
     7
370
    25
100
AcDbLine
 10
107.4763320818
 20
154.1611803036
 30
0.0
 11
107.2755529547
 21
154.1561360331
 31
0.0
  0
LINE
  5
8E
330
1F
100
AcDbEntity
  8
0
  6
Continuous
 62
     7
370
    25
100
AcDbLine
 10
72.7705929327
 20
153.4893144446
 30
0.0
 11
71.2705929327
 21
152.6232890408
 31
0.0
  0
LINE
  5
8F
330
1F
100
AcDbEntity
  8
0
  6
Continuous
 62
     7
370
    25
100
AcDbLine
 10
107.9492725891
 20
153.6738442671
 30
0.0
 11
107.486527493
 21
154.1365893632
 31
0.0
  0
LINE
  5
90
330
1F
100
AcDbEntity
  8
0
  6
Continuous
 62
     7
370
    25
100
AcDbLine
 10
134.2705929327
 20
130.9309510483
 30
0.0
 11
134.2705929327
 21
161.8309510483
 31
0.0
  0
LINE
  5
91
330
1F
100
AcDbEntity
  8
0
  6
Continuous
 62
     7
370
    25
100
AcDbLine
 10
134.2705929327
 20
100.0309510483
 30
0.0
 11
134.2705929327
 21
130.9309510483
 31
0.0
  0
ARC
  5
92
330
1F
100
AcDbEntity
  8
0
  6
Continuous
 62
     7
370
    25
100
AcDbCircle
 10
121.2705338346
 20
67.9662517931
 30
0.0
 40
31.52819472841109
100
AcDbArc
 50
86.4077040829
 51
93.6369084886
  0
SPLINE
  5
93
330
1F
100
AcDbEntity
  8
0
  6
Continuous
 62
     7
370
    25
100
AcDbSpline
210
0.0
220
0.0
230
1.0
 70
     8
 71
     3
 72
    12
 73
     8
 74
     0
 42
0.000000001
 43
0.00000001
 40
0.0
 40
0.0
 40
0.0
 40
0.0
 40
0.2500000000000001
 40
0.2500000000000001
 40
0.5000000000000001
 40
0.5000000000000001
 40
1.0
 40
1.0
 40
1.0
 40
1.0
 10
119.7983497462533
 20
100.8624590894497
 30
0.0
 10
119.7352697077599
 20
100.8624590894497
 30
0.0
 10
119.6761210855785
 20
100.8703650156622
 30
0.0
 10
119.5776485355094
 20
100.8936901770984
 30
0.0
 10
119.5386119235247
 20
100.9084029669301
 30
0.0
 10
119.4387154567456
 20
100.956358767661
 30
0.0
 10
119.396294575679
 20
100.9926209242411
 30
0.0
 10
119.365337044361
 20
101.0302085882056
 30
0.0
  0
LINE
  5
94
330
1F
100
AcDbEntity
  8
0
  6
Continuous
 62
     7
370
    25
100
AcDbLine
 10
122.7428361191
 20
100.8624590894
 30
0.0
 11
119.7983497463
 21
100.8624590894
 31
0.0
  0
SPLINE
  5
95
330
1F
100
AcDbEntity
  8
0
  6
Continuous
 62
     7
370
    25
100
AcDbSpline
210
0.0
220
0.0
230
1.0
 70
     8
 71
     3
 72
    12
 73
     8
 74
     0
 42
0.000000001
 43
0.00000001
 40
0.0
 40
0.0
 40
0.0
 40
0.0
 40
0.4999999999999981
 40
0.4999999999999981
 40
0.749999999999999
 40
0.749999999999999
 40
1.0
 40
1.0
 40
1.0
 40
1.0
 10
123.1758488210126
 20
101.0302085882056
 30
0.0
 10
123.1451265790935
 20
100.9929066052526
 30
0.0
 10
123.1022893645583
 20
100.9562947732062
 30
0.0
 10
123.0028623403585
 20
100.908529989921
 30
0.0
 10
122.9631101455419
 20
100.8935724744386
 30
0.0
 10
122.8650686886837
 20
100.8703825286694
 30
0.0
 10
122.8055126330962
 20
100.8624590894497
 30
0.0
 10
122.7428361191204
 20
100.8624590894497
 30
0.0
  0
ELLIPSE
  5
96
330
1F
100
AcDbEntity
  8
0
  6
Continuous
 62
     7
370
    25
100
AcDbEllipse
 10
106.9234387433
 20
130.9309510483
 30
0.0
 11
-14.75368316065632
 21
31.09325491558117
 31
0.0
210
0.0
220
0.0
230
1.0
 40
0.3419987131
 41
3.300734856217119
 42
4.23149622336077
  0
SPLINE
  5
97
330
1F
100
AcDbEntity
  8
0
  6
Continuous
 62
     7
370
    25
100
AcDbSpline
210
0.0
220
0.0
230
1.0
 70
     8
 71
     3
 72
    12
 73
     8
 74
     0
 42
0.000000001
 43
0.00000001
 40
0.0
 40
0.0
 40
0.0
 40
0.0
 40
0.2499999999999982
 40
0.2499999999999982
 40
0.4999999999999963
 40
0.4999999999999963
 40
1.0
 40
1.0
 40
1.0
 40
1.0
 10
122.7428361191204
 20
121.5428846169866
 30
0.0
 10
122.8059161576137
 20
121.5428846169866
 30
0.0
 10
122.8650647797951
 20
121.5175202977716
 30
0.0
 10
122.9635373298642
 20
121.4433554373987
 30
0.0
 10
123.0025739418489
 20
121.3968350968446
 30
0.0
 10
123.102470408628
 20
121.2466927539993
 30
0.0
 10
123.1448912896946
 20
121.1349995470272
 30
0.0
 10
123.1758488210126
 20
121.0215817276374
 30
0.0
  0
LINE
  5
98
330
1F
100
AcDbEntity
  8
0
  6
Continuous
 62
     7
370
    25
100
AcDbLine
 10
119.7983497463
 20
121.542884617
 30
0.0
 11
122.7428361191
 21
121.542884617
 31
0.0
  0
SPLINE
  5
99
330
1F
100
AcDbEntity
  8
0
  6
Continuous
 62
     7
370
    25
100
AcDbSpline
210
0.0
220
0.0
230
1.0
 70
     8
 71
     3
 72
    12
 73
     8
 74
     0
 42
0.000000001
 43
0.00000001
 40
0.0
 40
0.0
 40
0.0
 40
0.0
 40
0.4999999999999971
 40
0.4999999999999971
 40
0.7499999999999986
 40
0.7499999999999986
 40
1.0
 40
1.0
 40
1.0
 40
1.0
 10
119.365337044361
 20
121.0215817276374
 30
0.0
 10
119.3960592862801
 20
121.1341375270466
 30
0.0
 10
119.4388965008153
 20
121.2468953867862
 30
0.0
 10
119.5383235250151
 20
121.3964362725825
 30
0.0
 10
119.5780757198317
 20
121.4437290042894
 30
0.0
 10
119.6761171766899
 20
121.5174652976108
 30
0.0
 10
119.7356732322774
 20
121.5428846169866
 30
0.0
 10
119.7983497462533
 20
121.5428846169866
 30
0.0
  0
ELLIPSE
  5
9A
330
1F
100
AcDbEntity
  8
0
  6
Continuous
 62
     7
370
    25
100
AcDbEllipse
 10
135.617747122
 20
130.9309510483
 30
0.0
 11
14.75368316065624
 21
31.09325491558116
 31
0.0
210
0.0
220
0.0
230
1.0
 40
0.3419987131
 41
2.05168908381883
 42
2.982450450962503
  0
SPLINE
  5
9B
330
1F
100
AcDbEntity
  8
0
  6
Continuous
 62
     7
370
    25
100
AcDbSpline
210
0.0
220
0.0
230
1.0
 70
     8
 71
     3
 72
    12
 73
     8
 74
     0
 42
0.000000001
 43
0.00000001
 40
0.0
 40
0.0
 40
0.0
 40
0.0
 40
0.2500000000000001
 40
0.2500000000000001
 40
0.5000000000000001
 40
0.5000000000000001
 40
1.0
 40
1.0
 40
1.0
 40
1.0
 10
119.7983497462533
 20
140.3190174796591
 30
0.0
 10
119.7352927913554
 20
140.3190174796591
 30
0.0
 10
119.6761626416099
 20
140.3443638330398
 30
0.0
 10
119.5777150910766
 20
140.4184832151793
 30
0.0
 10
119.5386828528885
 20
140.4649797298773
 30
0.0
 10
119.4387929684315
 20
140.6150542368859
 30
0.0
 10
119.3964939948222
 20
140.7261719460007
 30
0.0
 10
119.365337044361
 20
140.8403203690082
 30
0.0
  0
LINE
  5
9C
330
1F
100
AcDbEntity
  8
0
  6
Continuous
 62
     7
370
    25
100
AcDbLine
 10
122.7428361191
 20
140.3190174797
 30
0.0
 11
119.7983497463
 21
140.3190174797
 31
0.0
  0
SPLINE
  5
9D
330
1F
100
AcDbEntity
  8
0
  6
Continuous
 62
     7
370
    25
100
AcDbSpline
210
0.0
220
0.0
230
1.0
 70
     8
 71
     3
 72
    12
 73
     8
 74
     0
 42
0.000000001
 43
0.00000001
 40
0.0
 40
0.0
 40
0.0
 40
0.0
 40
0.5000000000000019
 40
0.5000000000000019
 40
0.7500000000000009
 40
0.7500000000000009
 40
1.0
 40
1.0
 40
1.0
 40
1.0
 10
123.1758488210126
 20
140.8403203690082
 30
0.0
 10
123.1447036230505
 20
140.7262150031429
 30
0.0
 10
123.102429356716
 20
140.6151086759241
 30
0.0
 10
123.0024838228908
 20
140.4649510684939
 30
0.0
 10
122.9627535181867
 20
140.4179583768765
 30
0.0
 10
122.8658654681805
 20
140.344982792338
 30
0.0
 10
122.8058002264339
 20
140.319017479659
 30
0.0
 10
122.7428361191204
 20
140.319017479659
 30
0.0
  0
ELLIPSE
  5
9E
330
1F
100
AcDbEntity
  8
0
  6
Continuous
 62
     7
370
    25
100
AcDbEllipse
 10
106.9234387433
 20
130.9309510483
 30
0.0
 11
14.75368316065624
 21
31.09325491558116
 31
0.0
210
0.0
220
0.0
230
1.0
 40
0.3419987131
 41
5.193281737408629
 42
6.124043104552333
  0
SPLINE
  5
9F
330
1F
100
AcDbEntity
  8
0
  6
Continuous
 62
     7
370
    25
100
AcDbSpline
210
0.0
220
0.0
230
1.0
 70
     8
 71
     3
 72
    12
 73
     8
 74
     0
 42
0.000000001
 43
0.00000001
 40
0.0
 40
0.0
 40
0.0
 40
0.0
 40
0.2500000000000009
 40
0.2500000000000009
 40
0.5000000000000018
 40
0.5000000000000018
 40
1.0
 40
1.0
 40
1.0
 40
1.0
 10
122.7428361191204
 20
160.999443007196
 30
0.0
 10
122.8058930740182
 20
160.999443007196
 30
0.0
 10
122.8650232237637
 20
160.9915426761165
 30
0.0
 10
122.963470774297
 20
160.9682319281114
 30
0.0
 10
123.0025030124851
 20
160.9535268018278
 30
0.0
 10
123.1023928969421
 20
160.9055932736412
 30
0.0
 10
123.1446918705514
 20
160.8695233008764
 30
0.0
 10
123.1758488210126
 20
160.8316935084402
 30
0.0
  0
LINE
  5
A0
330
1F
100
AcDbEntity
  8
0
  6
Continuous
 62
     7
370
    25
100
AcDbLine
 10
119.7983497463
 20
160.9994430072
 30
0.0
 11
122.7428361191
 21
160.9994430072
 31
0.0
  0
SPLINE
  5
A1
330
1F
100
AcDbEntity
  8
0
  6
Continuous
 62
     7
370
    25
100
AcDbSpline
210
0.0
220
0.0
230
1.0
 70
     8
 71
     3
 72
    12
 73
     8
 74
     0
 42
0.000000001
 43
0.00000001
 40
0.0
 40
0.0
 40
0.0
 40
0.0
 40
0.5000000000000019
 40
0.5000000000000019
 40
0.7500000000000009
 40
0.7500000000000009
 40
1.0
 40
1.0
 40
1.0
 40
1.0
 10
119.365337044361
 20
160.8316935084402
 30
0.0
 10
119.3964822423231
 20
160.8695090313604
 30
0.0
 10
119.4387565086576
 20
160.905575889444
 30
0.0
 10
119.5387020424829
 20
160.9535359544552
 30
0.0
 10
119.5784323471869
 20
160.9683969283529
 30
0.0
 10
119.6753203971931
 20
160.991348074484
 30
0.0
 10
119.7353856389397
 20
160.9994430071961
 30
0.0
 10
119.7983497462532
 20
160.9994430071961
 30
0.0
  0
ELLIPSE
  5
A2
330
1F
100
AcDbEntity
  8
0
  6
Continuous
 62
     7
370
    25
100
AcDbEllipse
 10
135.617747122
 20
130.9309510483
 30
0.0
 11
-14.75368316065617
 21
31.09325491558116
 31
0.0
210
0.0
220
0.0
230
1.0
 40
0.3419987131
 41
0.1591422026272931
 42
1.08990356977097
  0
LINE
  5
A3
330
1F
100
AcDbEntity
  8
0
  6
Continuous
 62
     7
370
    25
100
AcDbLine
 10
109.2705929327
 20
130.9309510483
 30
0.0
 11
109.2705929327
 21
161.9309510483
 31
0.0
  0
LINE
  5
A4
330
1F
100
AcDbEntity
  8
0
  6
Continuous
 62
     7
370
    25
100
AcDbLine
 10
109.2705929327
 20
99.9309510483
 30
0.0
 11
109.2705929327
 21
130.9309510483
 31
0.0
  0
LINE
  5
A5
330
1F
100
AcDbEntity
  8
0
  6
Continuous
 62
     7
370
    25
100
AcDbLine
 10
109.0705929327
 20
114.1407496946
 30
0.0
 11
109.0705929327
 21
108.3911307694
 31
0.0
  0
SPLINE
  5
A6
330
1F
100
AcDbEntity
  8
0
  6
Continuous
 62
     7
370
    25
100
AcDbSpline
210
0.0
220
0.0
230
1.0
 70
     8
 71
     3
 72
    16
 73
    12
 74
     0
 42
0.000000001
 43
0.00000001
 40
0.0
 40
0.0
 40
0.0
 40
0.0
 40
0.5000000000000041
 40
0.5000000000000041
 40
0.7500000000000062
 40
0.7500000000000062
 40
0.8750000000000072
 40
0.8750000000000072
 40
0.9375000000000036
 40
0.9375000000000036
 40
1.0
 40
1.0
 40
1.0
 40
1.0
 10
109.0705929326868
 20
114.1407496945818
 30
0.0
 10
109.0705929326868
 20
114.2205734055623
 30
0.0
 10
109.0664466576089
 20
114.3024295234464
 30
0.0
 10
109.0404810622153
 20
114.4312446445303
 30
0.0
 10
109.0290201568379
 20
114.4760353162319
 30
0.0
 10
108.9947084190635
 20
114.5421661239632
 30
0.0
 10
108.9806836831339
 20
114.5650131821663
 30
0.0
 10
108.9446607201001
 20
114.5914439354085
 30
0.0
 10
108.9299062110104
 20
114.5978716045507
 30
0.0
 10
108.9005540498636
 20
114.6008325277059
 30
0.0
 10
108.8872141753595
 20
114.5978511361978
 30
0.0
 10
108.8756160438112
 20
114.5931081485165
 30
0.0
  0
SPLINE
  5
A7
330
1F
100
AcDbEntity
  8
0
  6
Continuous
 62
     7
370
    25
100
AcDbSpline
210
0.0
220
0.0
230
1.0
 70
     8
 71
     3
 72
    12
 73
     8
 74
     0
 42
0.000000001
 43
0.00000001
 40
0.0
 40
0.0
 40
0.0
 40
0.0
 40
0.2499999999999998
 40
0.2499999999999998
 40
0.4999999999999996
 40
0.4999999999999996
 40
1.0
 40
1.0
 40
1.0
 40
1.0
 10
108.8756160438182
 20
114.5931081485111
 30
0.0
 10
108.845424202101
 20
114.5807613724165
 30
0.0
 10
108.8120652326864
 20
114.5702636859467
 30
0.0
 10
108.7389279481058
 20
114.5568426313675
 30
0.0
 10
108.6986860754518
 20
114.5542322201206
 30
0.0
 10
108.5809802984833
 20
114.5622026728627
 30
0.0
 10
108.5105698207039
 20
114.5872904304806
 30
0.0
 10
108.4540806462356
 20
114.6165800728088
 30
0.0
  0
SPLINE
  5
A8
330
1F
100
AcDbEntity
  8
0
  6
Continuous
 62
     7
370
    25
100
AcDbSpline
210
0.0
220
0.0
230
1.0
 70
     8
 71
     3
 72
    12
 73
     8
 74
     0
 42
0.000000001
 43
0.00000001
 40
0.0
 40
0.0
 40
0.0
 40
0.0
 40
0.2499999999999957
 40
0.2499999999999957
 40
0.499999999999994
 40
0.499999999999994
 40
1.0
 40
1.0
 40
1.0
 40
1.0
 10
108.4540806462353
 20
114.6165800728087
 30
0.0
 10
108.3659267084975
 20
114.6622878979004
 30
0.0
 10
108.3055732838688
 20
114.7177051362197
 30
0.0
 10
108.199311325802
 20
114.8359978632749
 30
0.0
 10
108.1570791592399
 20
114.8977929786838
 30
0.0
 10
108.0460084639227
 20
115.0892136051988
 30
0.0
 10
107.9930716874959
 20
115.2249602700843
 30
0.0
 10
107.9492725891271
 20
115.367749803898
 30
0.0
  0
SPLINE
  5
A9
330
1F
100
AcDbEntity
  8
0
  6
Continuous
 62
     7
370
    25
100
AcDbSpline
210
0.0
220
0.0
230
1.0
 70
     8
 71
     3
 72
    12
 73
     8
 74
     0
 42
0.000000001
 43
0.00000001
 40
0.0
 40
0.0
 40
0.0
 40
0.0
 40
0.4999999999999999
 40
0.4999999999999999
 40
0.7499999999999999
 40
0.7499999999999999
 40
1.0
 40
1.0
 40
1.0
 40
1.0
 10
107.9492725891271
 20
124.3504672382216
 30
0.0
 10
107.9930191299637
 20
124.5896411652682
 30
0.0
 10
108.0459034851952
 20
124.827084020184
 30
0.0
 10
108.1574705725314
 20
125.1759220565996
 30
0.0
 10
108.2000541690744
 20
125.2908309642101
 30
0.0
 10
108.3049708961562
 20
125.5107134091203
 30
0.0
 10
108.366504504001
 20
125.6190743301346
 30
0.0
 10
108.4540806462271
 20
125.7060799177338
 30
0.0
  0
SPLINE
  5
AA
330
1F
100
AcDbEntity
  8
0
  6
Continuous
 62
     7
370
    25
100
AcDbSpline
210
0.0
220
0.0
230
1.0
 70
     8
 71
     3
 72
    12
 73
     8
 74
     0
 42
0.000000001
 43
0.00000001
 40
0.0
 40
0.0
 40
0.0
 40
0.0
 40
0.5000000000000001
 40
0.5000000000000001
 40
0.75
 40
0.75
 40
1.0
 40
1.0
 40
1.0
 40
1.0
 10
108.4540806462303
 20
125.7060799177339
 30
0.0
 10
108.5105171471375
 20
125.7621487373757
 30
0.0
 10
108.5796017778263
 20
125.8092614161301
 30
0.0
 10
108.6984040495442
 20
125.8205818626259
 30
0.0
 10
108.7385893250143
 20
125.8135809721344
 30
0.0
 10
108.8119703724181
 20
125.7833696754756
 30
0.0
 10
108.8453799361607
 20
125.760790865094
 30
0.0
 10
108.8756160438172
 20
125.7347035437398
 30
0.0
  0
SPLINE
  5
AB
330
1F
100
AcDbEntity
  8
0
  6
Continuous
 62
     7
370
    25
100
AcDbSpline
210
0.0
220
0.0
230
1.0
 70
     8
 71
     3
 72
    16
 73
    12
 74
     0
 42
0.000000001
 43
0.00000001
 40
0.0
 40
0.0
 40
0.0
 40
0.0
 40
0.0625000000000016
 40
0.0625000000000016
 40
0.1250000000000031
 40
0.1250000000000031
 40
0.2499999999999992
 40
0.2499999999999992
 40
0.4999999999999994
 40
0.4999999999999994
 40
1.0
 40
1.0
 40
1.0
 40
1.0
 10
108.87561604378
 20
125.7347035436829
 30
0.0
 10
108.8871964513679
 20
125.7247121182731
 30
0.0
 10
108.9005059781292
 20
125.7164547118914
 30
0.0
 10
108.9298074082153
 20
125.7107054270793
 30
0.0
 10
108.9446215080996
 20
125.7143157257874
 30
0.0
 10
108.9804499098025
 20
125.73723618507
 30
0.0
 10
108.9945695341655
 20
125.7630316933156
 30
0.0
 10
109.029073678254
 20
125.8411867177346
 30
0.0
 10
109.0401782289586
 20
125.8973295604706
 30
0.0
 10
109.0663544061748
 20
126.0682356160043
 30
0.0
 10
109.0705929326868
 20
126.1854507085831
 30
0.0
 10
109.0705929326868
 20
126.3030153078049
 30
0.0
  0
LINE
  5
AC
330
1F
100
AcDbEntity
  8
0
  6
Continuous
 62
     7
370
    25
100
AcDbLine
 10
109.0705929327
 20
152.3490881426
 30
0.0
 11
109.0705929327
 21
126.3030153078
 31
0.0
  0
SPLINE
  5
AD
330
1F
100
AcDbEntity
  8
0
  6
Continuous
 62
     7
370
    25
100
AcDbSpline
210
0.0
220
0.0
230
1.0
 70
     8
 71
     3
 72
    16
 73
    12
 74
     0
 42
0.000000001
 43
0.00000001
 40
0.0
 40
0.0
 40
0.0
 40
0.0
 40
0.5000000000000029
 40
0.5000000000000029
 40
0.7500000000000027
 40
0.7500000000000027
 40
0.8750000000000009
 40
0.8750000000000009
 40
0.9375000000000006
 40
0.9375000000000006
 40
1.0
 40
1.0
 40
1.0
 40
1.0
 10
109.0705929326868
 20
152.349088142582
 30
0.0
 10
109.0705929326868
 20
152.3863619834922
 30
0.0
 10
109.0664466576089
 20
152.4206580755109
 30
0.0
 10
109.0404810622153
 20
152.4627562646472
 30
0.0
 10
109.0290201568379
 20
152.4756699062119
 30
0.0
 10
108.9947084190635
 20
152.4873817569514
 30
0.0
 10
108.980683683134
 20
152.4903951888076
 30
0.0
 10
108.9446607201001
 20
152.4870977260317
 30
0.0
 10
108.9299062110105
 20
152.4842762410439
 30
0.0
 10
108.9005540498636
 20
152.4755945000525
 30
0.0
 10
108.8872141753595
 20
152.4703051824455
 30
0.0
 10
108.8756160438112
 20
152.4650414527198
 30
0.0
  0
SPLINE
  5
AE
330
1F
100
AcDbEntity
  8
0
  6
Continuous
 62
     7
370
    25
100
AcDbSpline
210
0.0
220
0.0
230
1.0
 70
     8
 71
     3
 72
    12
 73
     8
 74
     0
 42
0.000000001
 43
0.00000001
 40
0.0
 40
0.0
 40
0.0
 40
0.0
 40
0.2499999999999997
 40
0.2499999999999997
 40
0.4999999999999993
 40
0.4999999999999993
 40
1.0
 40
1.0
 40
1.0
 40
1.0
 10
108.8756160438182
 20
152.4650414527148
 30
0.0
 10
108.8454176023776
 20
152.4513361042954
 30
0.0
 10
108.8120502470416
 20
152.439288498845
 30
0.0
 10
108.7388949712117
 20
152.4225285106154
 30
0.0
 10
108.6986422721877
 20
152.4181196210744
 30
0.0
 10
108.5809135289129
 20
152.421049386172
 30
0.0
 10
108.510455080854
 20
152.4434161464278
 30
0.0
 10
108.4540806462357
 20
152.4701931544334
 30
0.0
  0
SPLINE
  5
AF
330
1F
100
AcDbEntity
  8
0
  6
Continuous
 62
     7
370
    25
100
AcDbSpline
210
0.0
220
0.0
230
1.0
 70
     8
 71
     3
 72
    12
 73
     8
 74
     0
 42
0.000000001
 43
0.00000001
 40
0.0
 40
0.0
 40
0.0
 40
0.0
 40
0.5
 40
0.5
 40
0.75
 40
0.75
 40
1.0
 40
1.0
 40
1.0
 40
1.0
 10
107.9492725891271
 20
153.0746361028492
 30
0.0
 10
107.9930229197129
 20
152.9780720021005
 30
0.0
 10
108.0459130390933
 20
152.8764478208649
 30
0.0
 10
108.1575243597074
 20
152.7196935875194
 30
0.0
 10
108.2000838128905
 20
152.6668268694254
 30
0.0
 10
108.3050607360871
 20
152.5636709658954
 30
0.0
 10
108.366627876922
 20
152.5117319036889
 30
0.0
 10
108.4540806462357
 20
152.4701931544334
 30
0.0
  0
SPLINE
  5
B0
330
1F
100
AcDbEntity
  8
0
  6
Continuous
 62
     7
370
    25
100
AcDbSpline
210
0.0
220
0.0
230
1.0
 70
     8
 71
     3
 72
    16
 73
    12
 74
     0
 42
0.000000001
 43
0.00000001
 40
0.0
 40
0.0
 40
0.0
 40
0.0
 40
0.25
 40
0.25
 40
0.3750000000000001
 40
0.3750000000000001
 40
0.5000000000000002
 40
0.5000000000000002
 40
0.7500000000000001
 40
0.7500000000000001
 40
1.0
 40
1.0
 40
1.0
 40
1.0
 10
107.9492725891271
 20
115.367749803898
 30
0.0
 10
107.7880401116427
 20
115.893384146911
 30
0.0
 10
107.6675602720031
 20
116.4862156744699
 30
0.0
 10
107.5451797546897
 20
117.4759873655948
 30
0.0
 10
107.5142020942923
 20
117.822791011419
 30
0.0
 10
107.4725883566643
 20
118.5517796106591
 30
0.0
 10
107.4623524437315
 20
118.9270545627483
 30
0.0
 10
107.4621640466754
 20
120.0832546089683
 30
0.0
 10
107.502308749313
 20
120.894610621768
 30
0.0
 10
107.6664625042526
 20
122.600454867556
 30
0.0
 10
107.7880141546622
 20
123.4688246602529
 30
0.0
 10
107.9492725891271
 20
124.3504672382216
 30
0.0
  0
LINE
  5
B1
330
1F
100
AcDbEntity
  8
0
  6
Continuous
 62
     7
370
    25
100
AcDbLine
 10
107.0705929327
 20
125.7060799177
 30
0.0
 11
107.0705929327
 21
152.6133515549
 31
0.0
  0
LINE
  5
B2
330
1F
100
AcDbEntity
  8
0
  6
Continuous
 62
     7
370
    25
100
AcDbLine
 10
72.7705929327
 20
125.7060799177
 30
0.0
 11
72.7705929327
 21
151.8670668173
 31
0.0
  0
LINE
  5
B3
330
1F
100
AcDbEntity
  8
0
  6
Continuous
 62
     7
370
    25
100
AcDbLine
 10
107.0705929327
 20
114.4734216723
 30
0.0
 11
107.0705929327
 21
125.7060799177
 31
0.0
  0
LINE
  5
B4
330
1F
100
AcDbEntity
  8
0
  6
Continuous
 62
     7
370
    25
100
AcDbLine
 10
72.7705929327
 20
115.2197064099
 30
0.0
 11
72.7705929327
 21
125.7060799177
 31
0.0
  0
LINE
  5
B5
330
1F
100
AcDbEntity
  8
0
  6
Continuous
 62
     7
370
    25
100
AcDbLine
 10
71.2705929327
 20
125.7060799177
 30
0.0
 11
71.2705929327
 21
151.1170668173
 31
0.0
  0
LINE
  5
B6
330
1F
100
AcDbEntity
  8
0
  6
Continuous
 62
     7
370
    25
100
AcDbLine
 10
71.2705929327
 20
115.9697064099
 30
0.0
 11
71.2705929327
 21
125.7060799177
 31
0.0
  0
LINE
  5
B7
330
1F
100
AcDbEntity
  8
0
  6
Continuous
 62
     7
370
    25
100
AcDbLine
 10
107.0705929327
 20
110.3108522638
 30
0.0
 11
107.0705929327
 21
114.4734216723
 31
0.0
  0
SPLINE
  5
B8
330
1F
100
AcDbEntity
  8
0
  6
Continuous
 62
     7
370
    25
100
AcDbSpline
210
0.0
220
0.0
230
1.0
 70
     8
 71
     3
 72
     8
 73
     4
 74
     0
 42
0.000000001
 43
0.00000001
 40
0.0000249638557296
 40
0.0000249638557296
 40
0.0000249638557296
 40
0.0000249638557296
 40
0.0049776420541172
 40
0.0049776420541172
 40
0.0049776420541172
 40
0.0049776420541172
 10
72.77059293268681
 20
111.4339614351207
 30
0.0
 10
74.42056916719635
 20
111.3976122221827
 30
0.0
 10
76.07057048694138
 20
111.3611876360506
 30
0.0
 10
77.7205929326868
 20
111.3246877578398
 30
0.0
  0
LINE
  5
B9
330
1F
100
AcDbEntity
  8
0
  6
Continuous
 62
     7
370
    25
100
AcDbLine
 10
72.7705929327
 20
111.4339614351
 30
0.0
 11
72.7705929327
 21
115.2197064099
 31
0.0
  0
SPLINE
  5
BA
330
1F
100
AcDbEntity
  8
0
  6
Continuous
 62
     7
370
    25
100
AcDbSpline
210
0.0
220
0.0
230
1.0
 70
     8
 71
     3
 72
    12
 73
     8
 74
     0
 42
0.000000001
 43
0.00000001
 40
0.0
 40
0.0
 40
0.0
 40
0.0
 40
0.3217007750382246
 40
0.6482385293902442
 40
0.795330004719726
 40
0.9461094724574186
 40
1.0
 40
1.0
 40
1.0
 40
1.0
 10
77.7205929326868
 20
111.3246877578398
 30
0.0
 10
78.01928528627784
 20
111.268409292222
 30
0.0
 10
78.6211610262693
 20
111.15500617784
 30
0.0
 10
79.23506593126848
 20
111.0600066906914
 30
0.0
 10
79.54330149493217
 20
111.014921972613
 30
0.0
 10
79.65585158964048
 20
110.9991429318455
 30
0.0
 10
79.6405687094267
 20
111.0012907382124
 30
0.0
 10
79.63654465853462
 20
111.0018562652601
 30
0.0
  0
SPLINE
  5
BB
330
1F
100
AcDbEntity
  8
0
  6
Continuous
 62
     7
370
    25
100
AcDbSpline
210
0.0
220
0.0
230
1.0
 70
     8
 71
     3
 72
    27
 73
    23
 74
     0
 42
0.000000001
 43
0.00000001
 40
0.0
 40
0.0
 40
0.0
 40
0.0
 40
0.0322524045785721
 40
0.0816430999251084
 40
0.1290586612648772
 40
0.1777432041577071
 40
0.2272475226158284
 40
0.2780116234121251
 40
0.3309569209659097
 40
0.3852748754781229
 40
0.4412837295085769
 40
0.498833721364616
 40
0.5562818536597498
 40
0.6154087749742462
 40
0.6725513772536963
 40
0.7314550518215064
 40
0.7867561477595285
 40
0.8438515416930652
 40
0.8960134612747823
 40
0.9498846523531244
 40
0.9989419924478983
 40
1.0
 40
1.0
 40
1.0
 40
1.0
 10
98.20891859201322
 20
110.5349203418026
 30
0.0
 10
98.20887634184183
 20
110.5349286801759
 30
0.0
 10
98.20876939059242
 20
110.5349497877693
 30
0.0
 10
98.08516615118631
 20
110.5531413031638
 30
0.0
 10
97.85924497758566
 20
110.5852378843843
 30
0.0
 10
97.53603201023087
 20
110.6287675245743
 30
0.0
 10
97.12080132643028
 20
110.680423788981
 30
0.0
 10
96.61678759126178
 20
110.73669090297
 30
0.0
 10
96.03039991717945
 20
110.7931457041494
 30
0.0
 10
95.37019568524785
 20
110.8449571728355
 30
0.0
 10
94.652055794233
 20
110.8870759023769
 30
0.0
 10
93.89893988291634
 20
110.9150737601773
 30
0.0
 10
93.13100840024465
 20
110.9265740697975
 30
0.0
 10
92.38509839494785
 20
110.9211144748216
 30
0.0
 10
91.67602435047822
 20
110.9008524591261
 30
0.0
 10
91.04559403154468
 20
110.8704439960175
 30
0.0
 10
90.49904196567194
 20
110.8347890086341
 30
0.0
 10
90.07297952953023
 20
110.800988822346
 30
0.0
 10
89.7583602297696
 20
110.7727138213343
 30
0.0
 10
89.58924319136047
 20
110.7563542731806
 30
0.0
 10
89.52063037639513
 20
110.7495323774933
 30
0.0
 10
89.53951151530343
 20
110.7513929271197
 30
0.0
 10
89.53991012348425
 20
110.7514322060163
 30
0.0
  0
SPLINE
  5
BC
330
1F
100
AcDbEntity
  8
0
  6
Continuous
 62
     7
370
    25
100
AcDbSpline
210
0.0
220
0.0
230
1.0
 70
     8
 71
     3
 72
     8
 73
     4
 74
     0
 42
0.000000001
 43
0.00000001
 40
0.0
 40
0.0
 40
0.0
 40
0.0
 40
1.0
 40
1.0
 40
1.0
 40
1.0
 10
71.27059293268456
 20
112.1824717346786
 30
0.0
 10
71.73735354406236
 20
111.9529422422945
 30
0.0
 10
72.24310109084242
 20
111.7010114672032
 30
0.0
 10
72.77059293268681
 20
111.4339614351207
 30
0.0
  0
LINE
  5
BD
330
1F
100
AcDbEntity
  8
0
  6
Continuous
 62
     7
370
    25
100
AcDbLine
 10
71.2705929327
 20
112.1824717347
 30
0.0
 11
71.2705929327
 21
115.9697064099
 31
0.0
  0
LINE
  5
BE
330
1F
100
AcDbEntity
  8
0
  6
Continuous
 62
     7
370
    25
100
AcDbLine
 10
107.0705929327
 20
154.3510498329
 30
0.0
 11
107.0705929327
 21
152.6133515549
 31
0.0
  0
LINE
  5
BF
330
1F
100
AcDbEntity
  8
0
  6
Continuous
 62
     7
370
    25
100
AcDbLine
 10
72.7705929327
 20
153.4893144446
 30
0.0
 11
72.7705929327
 21
151.8670668173
 31
0.0
  0
SPLINE
  5
C0
330
1F
100
AcDbEntity
  8
0
  6
Continuous
 62
     7
370
    25
100
AcDbSpline
210
0.0
220
0.0
230
1.0
 70
     8
 71
     3
 72
    11
 73
     7
 74
     0
 42
0.000000001
 43
0.00000001
 40
0.0
 40
0.0
 40
0.0
 40
0.0
 40
0.120899420587578
 40
0.5020312010339265
 40
0.749485890252519
 40
1.0
 40
1.0
 40
1.0
 40
1.0
 10
107.4771838869806
 20
154.1272755582176
 30
0.0
 10
107.4730185235568
 20
154.1366560641426
 30
0.0
 10
107.4557219774506
 20
154.1756083323416
 30
0.0
 10
107.5543302745836
 20
153.9535194838527
 30
0.0
 10
107.7254508250332
 20
153.5702520473062
 30
0.0
 10
107.8743603776106
 20
153.2405166936508
 30
0.0
 10
107.9492725891271
 20
153.0746361028492
 30
0.0
  0
LINE
  5
C1
330
1F
100
AcDbEntity
  8
0
  6
Continuous
 62
     7
370
    25
100
AcDbLine
 10
71.2705929327
 20
152.6232890408
 30
0.0
 11
71.2705929327
 21
151.1170668173
 31
0.0
  0
SPLINE
  5
C2
330
1F
100
AcDbEntity
  8
0
  6
HIDDEN
 62
     7
370
    18
100
AcDbSpline
210
0.0
220
0.0
230
1.0
 70
     8
 71
     3
 72
    16
 73
    12
 74
     0
 42
0.000000001
 43
0.00000001
 40
0.0
 40
0.0
 40
0.0
 40
0.0
 40
0.0625000000000007
 40
0.0625000000000007
 40
0.1250000000000014
 40
0.1250000000000014
 40
0.2500000000000017
 40
0.2500000000000017
 40
0.5000000000000023
 40
0.5000000000000023
 40
1.0
 40
1.0
 40
1.0
 40
1.0
 10
108.8756160437802
 20
152.4650414527239
 30
0.0
 10
108.8872289436196
 20
152.470311884935
 30
0.0
 10
108.9005801280521
 20
152.4756053221661
 30
0.0
 10
108.9299799676712
 20
152.4842949373676
 30
0.0
 10
108.9448206922265
 20
152.4871191917943
 30
0.0
 10
108.9806539001951
 20
152.4903787348095
 30
0.0
 10
108.9947671080167
 20
152.487379987666
 30
0.0
 10
109.0292584792355
 20
152.4755517474074
 30
0.0
 10
109.040342550346
 20
152.4629276521251
 30
0.0
 10
109.0664653681419
 20
152.4207333197019
 30
0.0
 10
109.0705929326868
 20
152.3861992470905
 30
0.0
 10
109.0705929326868
 20
152.349088142582
 30
0.0
  0
LINE
  5
C3
330
1F
100
AcDbEntity
  8
0
  6
HIDDEN
 62
     7
370
    18
100
AcDbLine
 10
72.8008213723
 20
130.9309510483
 30
0.0
 11
72.8008213723
 21
146.2439020912
 31
0.0
  0
LINE
  5
C4
330
1F
100
AcDbEntity
  8
0
  6
HIDDEN
 62
     7
370
    18
100
AcDbLine
 10
72.8008213723
 20
115.6180000054
 30
0.0
 11
72.8008213723
 21
130.9309510483
 31
0.0
  0
LINE
  5
C5
330
1F
100
AcDbEntity
  8
0
  6
HIDDEN
 62
     7
370
    18
100
AcDbLine
 10
79.3008213723
 20
130.9309510483
 30
0.0
 11
79.3008213723
 21
145.2773612098
 31
0.0
  0
LINE
  5
C6
330
1F
100
AcDbEntity
  8
0
  6
HIDDEN
 62
     7
370
    18
100
AcDbLine
 10
79.3008213723
 20
116.5845408868
 30
0.0
 11
79.3008213723
 21
130.9309510483
 31
0.0
  0
SPLINE
  5
C7
330
1F
100
AcDbEntity
  8
0
  6
HIDDEN
 62
     7
370
    18
100
AcDbSpline
210
0.0
220
0.0
230
1.0
 70
     8
 71
     3
 72
    10
 73
     6
 74
     0
 42
0.000000001
 43
0.00000001
 40
0.0
 40
0.0
 40
0.0
 40
0.0
 40
0.0917948358217052
 40
0.9779092350018844
 40
1.0
 40
1.0
 40
1.0
 40
1.0
 10
90.54215581149481
 20
110.8365813480793
 30
0.0
 10
90.55528924832656
 20
110.837557340998
 30
0.0
 10
90.69520244769255
 20
110.847954793969
 30
0.0
 10
90.86128284161168
 20
110.8594688756205
 30
0.0
 10
91.03110107739097
 20
110.867903254284
 30
0.0
 10
91.03523165810881
 20
110.8681084082341
 30
0.0
  0
LINE
  5
C8
330
1F
100
AcDbEntity
  8
0
  6
HIDDEN
 62
     7
370
    18
100
AcDbLine
 10
85.1008213723
 20
130.9309510483
 30
0.0
 11
85.1008213723
 21
144.9309510483
 31
0.0
  0
LINE
  5
C9
330
1F
100
AcDbEntity
  8
0
  6
HIDDEN
 62
     7
370
    18
100
AcDbLine
 10
85.1008213723
 20
116.9309510483
 30
0.0
 11
85.1008213723
 21
130.9309510483
 31
0.0
  0
LINE
  5
CA
330
1F
100
AcDbEntity
  8
0
  6
HIDDEN
 62
     7
370
    18
100
AcDbLine
 10
77.7008213723
 20
130.9309510483
 30
0.0
 11
77.7008213723
 21
144.9309510483
 31
0.0
  0
LINE
  5
CB
330
1F
100
AcDbEntity
  8
0
  6
HIDDEN
 62
     7
370
    18
100
AcDbLine
 10
77.7008213723
 20
116.9309510483
 30
0.0
 11
77.7008213723
 21
130.9309510483
 31
0.0
  0
LINE
  5
CC
330
1F
100
AcDbEntity
  8
0
  6
HIDDEN
 62
     7
370
    18
100
AcDbLine
 10
78.7008213723
 20
130.9309510483
 30
0.0
 11
78.7008213723
 21
144.9309510483
 31
0.0
  0
LINE
  5
CD
330
1F
100
AcDbEntity
  8
0
  6
HIDDEN
 62
     7
370
    18
100
AcDbLine
 10
78.7008213723
 20
116.9309510483
 30
0.0
 11
78.7008213723
 21
130.9309510483
 31
0.0
  0
SPLINE
  5
CE
330
1F
100
AcDbEntity
  8
0
  6
HIDDEN
 62
     7
370
    18
100
AcDbSpline
210
0.0
220
0.0
230
1.0
 70
     8
 71
     3
 72
    25
 73
    21
 74
     0
 42
0.000000001
 43
0.00000001
 40
0.0
 40
0.0
 40
0.0
 40
0.0
 40
0.0549750651531312
 40
0.1115904166097497
 40
0.1665511143376578
 40
0.2230332448707666
 40
0.2792895739877785
 40
0.3371819341542647
 40
0.3932068848019524
 40
0.4509852466146927
 40
0.5048857621704553
 40
0.5603942416835926
 40
0.6136660432572568
 40
0.6683896474005888
 40
0.7234252935747335
 40
0.779970277341359
 40
0.8364764672746607
 40
0.8946772928864213
 40
0.9501157183199552
 40
0.9999999999999999
 40
0.9999999999999999
 40
0.9999999999999999
 40
0.9999999999999999
 10
97.77059293268681
 20
116.9453334359327
 30
0.0
 10
97.72525242539085
 20
116.9582492811038
 30
0.0
 10
97.6332185899718
 20
116.9844663404105
 30
0.0
 10
97.36043153662199
 20
117.0582276009974
 30
0.0
 10
96.99515038291814
 20
117.1489573333771
 30
0.0
 10
96.54077633648784
 20
117.2491336687739
 30
0.0
 10
96.00088117609117
 20
117.3491899551645
 30
0.0
 10
95.3968006795265
 20
117.4361419321497
 30
0.0
 10
94.73813559431424
 20
117.500264197193
 30
0.0
 10
94.06464065732587
 20
117.5320890662435
 30
0.0
 10
93.38494443461084
 20
117.5295006927574
 30
0.0
 10
92.73446787165886
 20
117.4946054897647
 30
0.0
 10
92.11068167013153
 20
117.4314937331889
 30
0.0
 10
91.53391897932758
 20
117.3478465630277
 30
0.0
 10
91.00696116850335
 20
117.2504117686883
 30
0.0
 10
90.55051245222104
 20
117.1501047488617
 30
0.0
 10
90.17529333960931
 20
117.0568257848147
 30
0.0
 10
89.90780813365129
 20
116.9844644682336
 30
0.0
 10
89.74611646675942
 20
116.9383759027764
 30
0.0
 10
89.73328077319792
 20
116.9346288885313
 30
0.0
 10
89.72720136856879
 20
116.9328541799316
 30
0.0
  0
SPLINE
  5
CF
330
1F
100
AcDbEntity
  8
0
  6
HIDDEN
 62
     7
370
    18
100
AcDbSpline
210
0.0
220
0.0
230
1.0
 70
     8
 71
     3
 72
    36
 73
    32
 74
     0
 42
0.000000001
 43
0.00000001
 40
0.0
 40
0.0
 40
0.0
 40
0.0
 40
0.007260827141346
 40
0.0339691556498937
 40
0.0882971088653519
 40
0.1159770860563156
 40
0.1427431203793622
 40
0.1971329733815404
 40
0.2248099183853726
 40
0.252495433831972
 40
0.3087720925039
 40
0.3374283766033615
 40
0.3655845582880827
 40
0.3939428457375591
 40
0.4229517956774966
 40
0.452191972972847
 40
0.4795469938032733
 40
0.5352456355268839
 40
0.5636643357258432
 40
0.5901846104660766
 40
0.6441079384602382
 40
0.6715662761009047
 40
0.6985154310944034
 40
0.7532694909612091
 40
0.7811286795862284
 40
0.8090875017342747
 40
0.8659430010723264
 40
0.8949114908456415
 40
0.9207742265810168
 40
0.9732876644712233
 40
1.0
 40
1.0
 40
1.0
 40
1.0
 10
89.72343047498362
 20
144.930130792161
 30
0.0
 10
89.722576705247
 20
144.9303775369175
 30
0.0
 10
89.71858241692317
 20
144.9315319110506
 30
0.0
 10
89.74710932486848
 20
144.9232846482213
 30
0.0
 10
89.82437062573966
 20
144.9010842603488
 30
0.0
 10
89.95742877720664
 20
144.8641407897634
 30
0.0
 10
90.1231014539053
 20
144.8194077544883
 30
0.0
 10
90.3372486005638
 20
144.7642457342801
 30
0.0
 10
90.5970252715976
 20
144.702497540103
 30
0.0
 10
90.88979196394074
 20
144.637083138593
 30
0.0
 10
91.22672674543695
 20
144.5695838681072
 30
0.0
 10
91.59953402766949
 20
144.5060694597537
 30
0.0
 10
91.89624046112726
 20
144.4616858982147
 30
0.0
 10
92.20806838880058
 20
144.4218857778273
 30
0.0
 10
92.53598782085456
 20
144.3877097101402
 30
0.0
 10
92.86993524670959
 20
144.3611963627775
 30
0.0
 10
93.31692830759731
 20
144.3368052909913
 30
0.0
 10
93.77023188782249
 20
144.3289665790817
 30
0.0
 10
94.21750743799845
 20
144.33843841585
 30
0.0
 10
94.65317594000739
 20
144.358398902927
 30
0.0
 10
95.07491236601301
 20
144.3929798755917
 30
0.0
 10
95.47796973622138
 20
144.4396004953257
 30
0.0
 10
95.86843816915419
 20
144.493219467093
 30
0.0
 10
96.23367592925376
 20
144.5550194827136
 30
0.0
 10
96.56706079248848
 20
144.6203227450861
 30
0.0
 10
96.88101526350307
 20
144.6871612518998
 30
0.0
 10
97.15578504675335
 20
144.75244579497
 30
0.0
 10
97.37700231534669
 20
144.8088738755763
 30
0.0
 10
97.55798811303703
 20
144.8568508032452
 30
0.0
 10
97.69327392181533
 20
144.8945218179886
 30
0.0
 10
97.75109691391069
 20
144.9110095407132
 30
0.0
 10
97.77059293268681
 20
144.9165686607132
 30
0.0
  0
SPLINE
  5
D0
330
1F
100
AcDbEntity
  8
0
  6
HIDDEN
 62
     7
370
    18
100
AcDbSpline
210
0.0
220
0.0
230
1.0
 70
     8
 71
     3
 72
    10
 73
     6
 74
     0
 42
0.000000001
 43
0.00000001
 40
0.0
 40
0.0
 40
0.0
 40
0.0
 40
0.3573854676163565
 40
0.7160348463502302
 40
1.0
 40
1.0
 40
1.0
 40
1.0
 10
97.77059293268681
 20
144.9165686607132
 30
0.0
 10
97.78118298862539
 20
144.9193755169169
 30
0.0
 10
97.80240055275131
 20
144.9249991559081
 30
0.0
 10
97.81828537244408
 20
144.9279878183603
 30
0.0
 10
97.81911196027916
 20
144.928156157543
 30
0.0
 10
97.81947722145793
 20
144.9282305450015
 30
0.0
  0
SPLINE
  5
D1
330
1F
100
AcDbEntity
  8
0
  6
HIDDEN
 62
     7
370
    18
100
AcDbSpline
210
0.0
220
0.0
230
1.0
 70
    24
 71
     3
 72
     9
 73
     5
 74
     0
 42
0.000000001
 43
0.00000001
 40
0.0
 40
0.0
 40
0.0
 40
0.0
 40
0.0268273759243098
 40
1.0
 40
1.0
 40
1.0
 40
1.0
 10
97.81925131983085
 20
116.9337743311578
 30
0.0
 10
97.81969883691721
 20
116.9336680206697
 30
0.0
 10
97.8363801958258
 20
116.9297052593303
 30
0.0
 10
97.80303934042557
 20
116.9376255884549
 30
0.0
 10
97.77059293268681
 20
116.9453334359327
 30
0.0
  0
LINE
  5
D2
330
1F
100
AcDbEntity
  8
0
  6
HIDDEN
 62
     7
370
    18
100
AcDbLine
 10
98.2705929327
 20
130.9309510483
 30
0.0
 11
98.2705929327
 21
144.4309510483
 31
0.0
  0
LINE
  5
D3
330
1F
100
AcDbEntity
  8
0
  6
HIDDEN
 62
     7
370
    18
100
AcDbLine
 10
98.2705929327
 20
117.4309510483
 30
0.0
 11
98.2705929327
 21
130.9309510483
 31
0.0
  0
LINE
  5
D4
330
1F
100
AcDbEntity
  8
0
  6
HIDDEN
 62
     7
370
    18
100
AcDbLine
 10
99.5205929327
 20
130.9309510483
 30
0.0
 11
99.5205929327
 21
139.9309510483
 31
0.0
  0
LINE
  5
D5
330
1F
100
AcDbEntity
  8
0
  6
HIDDEN
 62
     7
370
    18
100
AcDbLine
 10
99.5205929327
 20
121.9309510483
 30
0.0
 11
99.5205929327
 21
130.9309510483
 31
0.0
  0
LINE
  5
D6
330
1F
100
AcDbEntity
  8
0
  6
HIDDEN
 62
     7
370
    18
100
AcDbLine
 10
124.2705929327
 20
130.9309510483
 30
0.0
 11
124.2705929327
 21
139.9309510483
 31
0.0
  0
LINE
  5
D7
330
1F
100
AcDbEntity
  8
0
  6
HIDDEN
 62
     7
370
    18
100
AcDbLine
 10
124.2705929327
 20
121.9309510483
 30
0.0
 11
124.2705929327
 21
130.9309510483
 31
0.0
  0
LINE
  5
D8
330
1F
100
AcDbEntity
  8
0
  6
HIDDEN
 62
     7
370
    18
100
AcDbLine
 10
97.8205929327
 20
110.933195068
 30
0.0
 11
89.7205929327
 21
110.933195068
 31
0.0
  0
LINE
  5
D9
330
1F
100
AcDbEntity
  8
0
  6
HIDDEN
 62
     7
370
    18
100
AcDbLine
 10
77.7205929327
 20
111.3246877578
 30
0.0
 11
77.7205929327
 21
112.9309510483
 31
0.0
  0
LINE
  5
DA
330
1F
100
AcDbEntity
  8
0
  6
HIDDEN
 62
     7
370
    18
100
AcDbLine
 10
97.8205929327
 20
148.4309510483
 30
0.0
 11
89.7205929327
 21
148.4309510483
 31
0.0
  0
LINE
  5
DB
330
1F
100
AcDbEntity
  8
0
  6
HIDDEN
 62
     7
370
    18
100
AcDbLine
 10
132.3220357742
 20
130.9309510483
 30
0.0
 11
132.3220357742
 21
131.9309510483
 31
0.0
  0
LINE
  5
DC
330
1F
100
AcDbEntity
  8
0
  6
HIDDEN
 62
     7
370
    18
100
AcDbLine
 10
132.3220357742
 20
129.9309510483
 30
0.0
 11
132.3220357742
 21
130.9309510483
 31
0.0
  0
LINE
  5
DD
330
1F
100
AcDbEntity
  8
0
  6
HIDDEN
 62
     7
370
    18
100
AcDbLine
 10
121.2705929327
 20
99.9309510483
 30
0.0
 11
123.2705929327
 21
99.9309510483
 31
0.0
  0
LINE
  5
DE
330
1F
100
AcDbEntity
  8
0
  6
HIDDEN
 62
     7
370
    18
100
AcDbLine
 10
119.2705929327
 20
99.9309510483
 30
0.0
 11
121.2705929327
 21
99.9309510483
 31
0.0
  0
LINE
  5
DF
330
1F
100
AcDbEntity
  8
0
  6
HIDDEN
 62
     7
370
    18
100
AcDbLine
 10
131.1479432019
 20
130.9309510483
 30
0.0
 11
131.1479432019
 21
131.9309510483
 31
0.0
  0
LINE
  5
E0
330
1F
100
AcDbEntity
  8
0
  6
HIDDEN
 62
     7
370
    18
100
AcDbLine
 10
131.1479432019
 20
129.9309510483
 30
0.0
 11
131.1479432019
 21
130.9309510483
 31
0.0
  0
LINE
  5
E1
330
1F
100
AcDbEntity
  8
0
  6
HIDDEN
 62
     7
370
    18
100
AcDbLine
 10
109.2705929327
 20
106.6809510483
 30
0.0
 11
109.3634861515
 21
106.7738442671
 31
0.0
  0
LINE
  5
E2
330
1F
100
AcDbEntity
  8
0
  6
HIDDEN
 62
     7
370
    18
100
AcDbLine
 10
109.3634861515
 20
155.0880578295
 30
0.0
 11
109.2705929327
 21
155.1809510483
 31
0.0
  0
ARC
  5
E3
330
1F
100
AcDbEntity
  8
0
  6
HIDDEN
 62
     7
370
    18
100
AcDbCircle
 10
108.6563793703
 20
107.4809510483
 30
0.0
 40
1.000000000000014
100
AcDbArc
 50
315.0
 51
0.0
  0
ARC
  5
E4
330
1F
100
AcDbEntity
  8
0
  6
HIDDEN
 62
     7
370
    18
100
AcDbCircle
 10
108.6563793703
 20
107.4809510483
 30
0.0
 40
1.000000000000014
100
AcDbArc
 50
0.0
 51
52.1052014664
  0
ARC
  5
E5
330
1F
100
AcDbEntity
  8
0
  6
HIDDEN
 62
     7
370
    18
100
AcDbCircle
 10
108.6563793703
 20
154.3809510483
 30
0.0
 40
1.000000000000018
100
AcDbArc
 50
343.125
 51
45.0
  0
ARC
  5
E6
330
1F
100
AcDbEntity
  8
0
  6
HIDDEN
 62
     7
370
    18
100
AcDbCircle
 10
108.6563793703
 20
154.3809510483
 30
0.0
 40
1.000000000000008
100
AcDbArc
 50
307.8947985336
 51
343.125
  0
LINE
  5
E7
330
1F
100
AcDbEntity
  8
0
  6
HIDDEN
 62
     7
370
    18
100
AcDbLine
 10
109.6563793703
 20
107.4809510483
 30
0.0
 11
109.6563793703
 21
154.3809510483
 31
0.0
  0
LINE
  5
E8
330
1F
100
AcDbEntity
  8
0
  6
HIDDEN
 62
     7
370
    18
100
AcDbLine
 10
71.2705929327
 20
114.7345222039
 30
0.0
 11
72.8008213723
 21
115.6180000054
 31
0.0
  0
LINE
  5
E9
330
1F
100
AcDbEntity
  8
0
  6
HIDDEN
 62
     7
370
    18
100
AcDbLine
 10
72.8008213723
 20
146.2439020912
 30
0.0
 11
71.2705929327
 21
147.1273798928
 31
0.0
  0
ARC
  5
EA
330
1F
100
AcDbEntity
  8
0
  6
HIDDEN
 62
     7
370
    18
100
AcDbCircle
 10
82.2723942476
 20
116.9309510483
 30
0.0
 40
2.000000000000014
100
AcDbArc
 50
270.0
 51
315.0
  0
ARC
  5
EB
330
1F
100
AcDbEntity
  8
0
  6
HIDDEN
 62
     7
370
    18
100
AcDbCircle
 10
82.2723942476
 20
144.9309510483
 30
0.0
 40
2.000000000000028
100
AcDbArc
 50
45.0
 51
90.0
  0
LINE
  5
EC
330
1F
100
AcDbEntity
  8
0
  6
HIDDEN
 62
     7
370
    18
100
AcDbLine
 10
81.2705929327
 20
114.9309510483
 30
0.0
 11
82.2723942476
 21
114.9309510483
 31
0.0
  0
LINE
  5
ED
330
1F
100
AcDbEntity
  8
0
  6
HIDDEN
 62
     7
370
    18
100
AcDbLine
 10
82.2723942476
 20
146.9309510483
 30
0.0
 11
81.2705929327
 21
146.9309510483
 31
0.0
  0
ARC
  5
EE
330
1F
100
AcDbEntity
  8
0
  6
HIDDEN
 62
     7
370
    18
100
AcDbCircle
 10
81.2705929327
 20
116.9309510483
 30
0.0
 40
2.000000000000032
100
AcDbArc
 50
189.9742217944
 51
270.0
  0
ARC
  5
EF
330
1F
100
AcDbEntity
  8
0
  6
HIDDEN
 62
     7
370
    18
100
AcDbCircle
 10
81.2705929327
 20
144.9309510483
 30
0.0
 40
2.000000000000032
100
AcDbArc
 50
90.0
 51
170.0257782056
  0
LINE
  5
F0
330
1F
100
AcDbEntity
  8
0
  6
HIDDEN
 62
     7
370
    18
100
AcDbLine
 10
83.68660781
 20
115.5167374859
 30
0.0
 11
85.1008213723
 21
116.9309510483
 31
0.0
  0
LINE
  5
F1
330
1F
100
AcDbEntity
  8
0
  6
HIDDEN
 62
     7
370
    18
100
AcDbLine
 10
85.1008213723
 20
144.9309510483
 30
0.0
 11
83.68660781
 21
146.3451646107
 31
0.0
  0
LINE
  5
F2
330
1F
100
AcDbEntity
  8
0
  6
HIDDEN
 62
     7
370
    18
100
AcDbLine
 10
72.8008213723
 20
115.6180000054
 30
0.0
 11
77.7008213723
 21
116.9309510483
 31
0.0
  0
LINE
  5
F3
330
1F
100
AcDbEntity
  8
0
  6
HIDDEN
 62
     7
370
    18
100
AcDbLine
 10
77.7008213723
 20
144.9309510483
 30
0.0
 11
72.8008213723
 21
146.2439020912
 31
0.0
  0
LINE
  5
F4
330
1F
100
AcDbEntity
  8
0
  6
HIDDEN
 62
     7
370
    18
100
AcDbLine
 10
79.3008213723
 20
145.2773612098
 30
0.0
 11
78.7008213723
 21
144.9309510483
 31
0.0
  0
LINE
  5
F5
330
1F
100
AcDbEntity
  8
0
  6
HIDDEN
 62
     7
370
    18
100
AcDbLine
 10
78.7008213723
 20
116.9309510483
 30
0.0
 11
79.3008213723
 21
116.5845408868
 31
0.0
  0
LINE
  5
F6
330
1F
100
AcDbEntity
  8
0
  6
HIDDEN
 62
     7
370
    18
100
AcDbLine
 10
85.1008213723
 20
116.9309510483
 30
0.0
 11
89.7272013686
 21
116.9309510483
 31
0.0
  0
LINE
  5
F7
330
1F
100
AcDbEntity
  8
0
  6
HIDDEN
 62
     7
370
    18
100
AcDbLine
 10
89.723430475
 20
144.9309510483
 30
0.0
 11
85.1008213723
 21
144.9309510483
 31
0.0
  0
ARC
  5
F8
330
1F
100
AcDbEntity
  8
0
  6
HIDDEN
 62
     7
370
    18
100
AcDbCircle
 10
97.7705929327
 20
117.4309510483
 30
0.0
 40
0.5000000000000002
100
AcDbArc
 50
275.5682401931
 51
0.0
  0
ARC
  5
F9
330
1F
100
AcDbEntity
  8
0
  6
HIDDEN
 62
     7
370
    18
100
AcDbCircle
 10
97.7705929327
 20
144.4309510483
 30
0.0
 40
0.5000000000000133
100
AcDbArc
 50
0.0
 51
84.4068078678
  0
LINE
  5
FA
330
1F
100
AcDbEntity
  8
0
  6
HIDDEN
 62
     7
370
    18
100
AcDbLine
 10
77.7008213723
 20
116.9309510483
 30
0.0
 11
78.7008213723
 21
116.9309510483
 31
0.0
  0
LINE
  5
FB
330
1F
100
AcDbEntity
  8
0
  6
HIDDEN
 62
     7
370
    18
100
AcDbLine
 10
78.7008213723
 20
144.9309510483
 30
0.0
 11
77.7008213723
 21
144.9309510483
 31
0.0
  0
LINE
  5
FC
330
1F
100
AcDbEntity
  8
0
  6
HIDDEN
 62
     7
370
    18
100
AcDbLine
 10
98.2705929327
 20
120.6809510483
 30
0.0
 11
99.5205929327
 21
121.9309510483
 31
0.0
  0
LINE
  5
FD
330
1F
100
AcDbEntity
  8
0
  6
HIDDEN
 62
     7
370
    18
100
AcDbLine
 10
99.5205929327
 20
139.9309510483
 30
0.0
 11
98.2705929327
 21
141.1809510483
 31
0.0
  0
LINE
  5
FE
330
1F
100
AcDbEntity
  8
0
  6
HIDDEN
 62
     7
370
    18
100
AcDbLine
 10
99.5205929327
 20
121.9309510483
 30
0.0
 11
124.2705929327
 21
121.9309510483
 31
0.0
  0
LINE
  5
FF
330
1F
100
AcDbEntity
  8
0
  6
HIDDEN
 62
     7
370
    18
100
AcDbLine
 10
124.2705929327
 20
139.9309510483
 30
0.0
 11
99.5205929327
 21
139.9309510483
 31
0.0
  0
LINE
  5
100
330
1F
100
AcDbEntity
  8
0
  6
HIDDEN
 62
     7
370
    18
100
AcDbLine
 10
124.2705929327
 20
121.9309510483
 30
0.0
 11
128.4673618561
 21
130.9309510483
 31
0.0
  0
LINE
  5
101
330
1F
100
AcDbEntity
  8
0
  6
HIDDEN
 62
     7
370
    18
100
AcDbLine
 10
128.4673618561
 20
130.9309510483
 30
0.0
 11
124.2705929327
 21
139.9309510483
 31
0.0
  0
LINE
  5
102
330
1F
100
AcDbEntity
  8
0
  6
HIDDEN
 62
     7
370
    18
100
AcDbLine
 10
98.2138950742
 20
110.5398929265
 30
0.0
 11
97.8205929327
 21
110.933195068
 31
0.0
  0
LINE
  5
103
330
1F
100
AcDbEntity
  8
0
  6
HIDDEN
 62
     7
370
    18
100
AcDbLine
 10
89.7205929327
 20
110.933195068
 30
0.0
 11
89.539368278
 21
110.7519704133
 31
0.0
  0
LINE
  5
104
330
1F
100
AcDbEntity
  8
0
  6
HIDDEN
 62
     7
370
    18
100
AcDbLine
 10
77.7205929327
 20
112.9309510483
 30
0.0
 11
71.2705929327
 21
112.9309510483
 31
0.0
  0
LINE
  5
105
330
1F
100
AcDbEntity
  8
0
  6
HIDDEN
 62
     7
370
    18
100
AcDbLine
 10
79.643118292
 20
111.0084256891
 30
0.0
 11
77.7205929327
 21
112.9309510483
 31
0.0
  0
LINE
  5
106
330
1F
100
AcDbEntity
  8
0
  6
HIDDEN
 62
     7
370
    18
100
AcDbLine
 10
97.8205929327
 20
110.933195068
 30
0.0
 11
97.8205929327
 21
116.9337692411
 31
0.0
  0
LINE
  5
107
330
1F
100
AcDbEntity
  8
0
  6
HIDDEN
 62
     7
370
    18
100
AcDbLine
 10
89.7205929327
 20
116.932847048
 30
0.0
 11
89.7205929327
 21
110.933195068
 31
0.0
  0
LINE
  5
108
330
1F
100
AcDbEntity
  8
0
  6
HIDDEN
 62
     7
370
    18
100
AcDbLine
 10
97.8205929327
 20
144.9282307542
 30
0.0
 11
97.8205929327
 21
148.4309510483
 31
0.0
  0
LINE
  5
109
330
1F
100
AcDbEntity
  8
0
  6
HIDDEN
 62
     7
370
    18
100
AcDbLine
 10
89.7205929327
 20
148.4309510483
 30
0.0
 11
89.7205929327
 21
144.9301311327
 31
0.0
  0
LINE
  5
10A
330
1F
100
AcDbEntity
  8
0
  6
HIDDEN
 62
     7
370
    18
100
AcDbLine
 10
97.8205929327
 20
148.4309510483
 30
0.0
 11
93.7705929327
 21
150.8644365554
 31
0.0
  0
LINE
  5
10B
330
1F
100
AcDbEntity
  8
0
  6
HIDDEN
 62
     7
370
    18
100
AcDbLine
 10
93.7705929327
 20
150.8644365554
 30
0.0
 11
89.7205929327
 21
148.4309510483
 31
0.0
  0
LINE
  5
10C
330
1F
100
AcDbEntity
  8
0
  6
HIDDEN
 62
     7
370
    18
100
AcDbLine
 10
134.2705929327
 20
133.0559510483
 30
0.0
 11
132.3220357742
 21
131.9309510483
 31
0.0
  0
LINE
  5
10D
330
1F
100
AcDbEntity
  8
0
  6
HIDDEN
 62
     7
370
    18
100
AcDbLine
 10
132.3220357742
 20
129.9309510483
 30
0.0
 11
134.2705929327
 21
128.8059510483
 31
0.0
  0
LINE
  5
10E
330
1F
100
AcDbEntity
  8
0
  6
HIDDEN
 62
     7
370
    18
100
AcDbLine
 10
123.2705929327
 20
99.9309510483
 30
0.0
 11
121.2705929327
 21
101.1326722864
 31
0.0
  0
LINE
  5
10F
330
1F
100
AcDbEntity
  8
0
  6
HIDDEN
 62
     7
370
    18
100
AcDbLine
 10
121.2705929327
 20
101.1326722864
 30
0.0
 11
119.2705929327
 21
99.9309510483
 31
0.0
  0
LINE
  5
110
330
1F
100
AcDbEntity
  8
0
  6
HIDDEN
 62
     7
370
    18
100
AcDbLine
 10
119.2705929327
 20
99.9309510483
 30
0.0
 11
119.2705929327
 21
99.4309510483
 31
0.0
  0
LINE
  5
111
330
1F
100
AcDbEntity
  8
0
  6
HIDDEN
 62
     7
370
    18
100
AcDbLine
 10
123.2705929327
 20
99.4309510483
 30
0.0
 11
123.2705929327
 21
99.9309510483
 31
0.0
  0
LINE
  5
112
330
1F
100
AcDbEntity
  8
0
  6
HIDDEN
 62
     7
370
    18
100
AcDbLine
 10
131.1479432019
 20
129.9309510483
 30
0.0
 11
132.3220357742
 21
129.9309510483
 31
0.0
  0
LINE
  5
113
330
1F
100
AcDbEntity
  8
0
  6
HIDDEN
 62
     7
370
    18
100
AcDbLine
 10
132.3220357742
 20
131.9309510483
 30
0.0
 11
131.1479432019
 21
131.9309510483
 31
0.0
  0
LINE
  5
114
330
1F
100
AcDbEntity
  8
0
  6
HIDDEN
 62
     7
370
    18
100
AcDbLine
 10
131.1479432019
 20
131.9309510483
 30
0.0
 11
130.5705929327
 21
130.9309510483
 31
0.0
  0
LINE
  5
115
330
1F
100
AcDbEntity
  8
0
  6
HIDDEN
 62
     7
370
    18
100
AcDbLine
 10
130.5705929327
 20
130.9309510483
 30
0.0
 11
131.1479432019
 21
129.9309510483
 31
0.0
  0
CIRCLE
  5
116
330
1F
100
AcDbEntity
  8
VERMASSUNG
100
AcDbCircle
 10
112.8505929327
 20
130.9609510483
 30
0.0
 40
1.379978686380886
  0
DIMENSION
  5
117
330
1F
100
AcDbEntity
  8
VERMASSUNG
100
AcDbDimension
  2
_D
 10
57.5276415575
 20
99.4309510483
 30
0.0
 11
57.5276415575
 21
130.9309510483
 31
0.0
 70
   160
  1
PSC %%c<>
 71
     2
 42
-1.0
  3
SLDDIMSTYLE0
100
AcDbAlignedDimension
 13
109.7705929327
 23
162.4309510483
 33
0.0
 14
109.7705929327
 24
99.4309510483
 34
0.0
 50
90.0
100
AcDbRotatedDimension
  0
DIMENSION
  5
124
330
1F
100
AcDbEntity
  8
VERMASSUNG
100
AcDbDimension
  2
_D_1
 10
134.2705929327
 20
174.6787601487
 30
0.0
 11
102.7705929327
 21
174.6787601487
 31
0.0
 70
   160
  1
(<>)
 71
     2
 42
-1.0
  3
SLDDIMSTYLE0
100
AcDbAlignedDimension
 13
71.2705929327
 23
151.1170668173
 33
0.0
 14
134.2705929327
 24
162.4309510483
 34
0.0
100
AcDbRotatedDimension
  0
DIMENSION
  5
130
330
1F
100
AcDbEntity
  8
VERMASSUNG
100
AcDbDimension
  2
_D_2
 10
134.2705929327
 20
168.6787601487
 30
0.0
 11
121.7705929327
 21
168.6787601487
 31
0.0
 70
   160
  1
<>
 71
     2
 42
-1.0
  3
SLDDIMSTYLE0
100
AcDbAlignedDimension
 13
109.2705929327
 23
161.9309510483
 33
0.0
 14
134.2705929327
 24
162.4309510483
 34
0.0
100
AcDbRotatedDimension
  0
CIRCLE
  5
13A
330
1F
100
AcDbEntity
  8
0
  6
Continuous
 62
     7
370
    18
100
AcDbCircle
 10
110.9913300229
 20
131.1878911389
 30
0.0
 40
3.98763631363019
  0
MTEXT
  5
13B
330
1F
100
AcDbEntity
  8
0
  6
Continuous
 62
     7
370
    18
100
AcDbMText
 10
115.048544358
 20
139.5657957198
 30
0.0
 40
3.5
 41
0.0
 71
     1
 72
     1
  1
B
  7
SLDTEXTSTYLE0
 73
     1
 44
1.0
  0
LINE
  5
13C
330
1F
100
AcDbEntity
  8
0
  6
HIDDEN
 62
     7
370
    18
100
AcDbLine
 10
118.2705929327
 20
140.9309510483
 30
0.0
 11
98.5205929327
 21
140.9309510483
 31
0.0
  0
LINE
  5
13D
330
1F
100
AcDbEntity
  8
0
  6
HIDDEN
 62
     7
370
    18
100
AcDbLine
 10
98.5205929327
 20
120.9309510483
 30
0.0
 11
118.2705929327
 21
120.9309510483
 31
0.0
  0
LINE
  5
13E
330
1F
100
AcDbEntity
  8
0
  6
HIDDEN
 62
     7
370
    18
100
AcDbLine
 10
118.2705929327
 20
140.9309510483
 30
0.0
 11
118.2705929327
 21
140.876170002
 31
0.0
  0
LWPOLYLINE
  5
13F
330
1F
100
AcDbEntity
  8
0
  6
HIDDEN
 62
     7
370
    18
100
AcDbPolyline
 90
       31
 70
   128
 43
0.0
 10
118.2705760002
 20
140.876170002
 10
118.2705929327
 20
140.7124270557
 10
118.2705929327
 20
140.4415162113
 10
118.2705929327
 20
140.0664056247
 10
118.2705929327
 20
139.5912050862
 10
118.2705929327
 20
139.0211209921
 10
118.2705929327
 20
138.3623993031
 10
118.2705929327
 20
137.6222571119
 10
118.2705929327
 20
136.8088035712
 10
118.2705929327
 20
135.9309510483
 10
118.2705929327
 20
134.9983174791
 10
118.2705929327
 20
134.0211209921
 10
118.2705929327
 20
133.0100679565
 10
118.2705929327
 20
131.976235681
 10
118.2705929327
 20
130.9309510483
 10
118.2705929327
 20
129.8856664156
 10
118.2705929327
 20
128.8518341401
 10
118.2705929327
 20
127.8407811046
 10
118.2705929327
 20
126.8635846176
 10
118.2705929327
 20
125.9309510483
 10
118.2705929327
 20
125.0530985254
 10
118.2705929327
 20
124.2396449847
 10
118.2705929327
 20
123.4995027935
 10
118.2705929327
 20
122.8407811046
 10
118.2705929327
 20
122.2706970105
 10
118.2705929327
 20
121.7954964719
 10
118.2705929327
 20
121.4203858854
 10
118.2705929327
 20
121.149475041
 10
118.2705929327
 20
120.9857320946
 10
118.2705929327
 20
120.9309510483
 10
118.2705929327
 20
120.9309510483
  0
INSERT
  5
146
330
1F
100
AcDbEntity
  8
VERMASSUNG
100
AcDbBlockReference
  2
SW_DOWELSYMBOL_0
 10
112.8505929327
 20
130.9609510483
 30
0.0
  0
LINE
  5
147
330
1F
100
AcDbEntity
  8
VERMASSUNG
  6
CENTERX2
370
    18
100
AcDbLine
 10
69.4622032068
 20
130.9309510483
 30
0.0
 11
138.2692042041
 21
130.9309510483
 31
0.0
  0
SPLINE
  5
148
330
1F
100
AcDbEntity
  8
0
  6
Continuous
 62
     7
370
    25
100
AcDbSpline
210
0.0
220
0.0
230
1.0
 70
     8
 71
     3
 72
    60
 73
    56
 74
     0
 42
0.000000001
 43
0.00000001
 40
0.0
 40
0.0
 40
0.0
 40
0.0
 40
0.0035846531773682
 40
0.0227371581750811
 40
0.0419291078554455
 40
0.0611710004150945
 40
0.0804671517962709
 40
0.0998162898600563
 40
0.1192129310654687
 40
0.1386491111421445
 40
0.158115972285976
 40
0.1776049825189972
 40
0.1971086389021564
 40
0.2166207947008491
 40
0.2361367172004433
 40
0.2556522455426904
 40
0.2751651000246811
 40
0.2946739765970834
 40
0.3141781775714084
 40
0.3336774401679628
 40
0.3531718142189735
 40
0.3726615525024584
 40
0.3921470721703027
 40
0.4116289004726141
 40
0.4311076079015047
 40
0.4505838237979305
 40
0.4700581793677452
 40
0.4895313489774227
 40
0.5090040277398697
 40
0.5284768589338189
 40
0.5479503319950219
 40
0.5674251266084186
 40
0.5869019249496589
 40
0.6063814060445705
 40
0.6258642376359028
 40
0.6453510931904085
 40
0.664842587827487
 40
0.6843393019128537
 40
0.7038417133635944
 40
0.7233501596173633
 40
0.742864789012881
 40
0.7623854438935743
 40
0.7819115509815765
 40
0.8014419618241537
 40
0.8209747563312473
 40
0.8405058036030166
 40
0.8600305017195292
 40
0.8795427871243964
 40
0.8990350639061089
 40
0.9184984773573286
 40
0.9379235551268339
 40
0.957301310748956
 40
0.9766248830439437
 40
0.9958914068665594
 40
1.0
 40
1.0
 40
1.0
 40
1.0
 10
236.7537090494567
 20
19.66649096534471
 30
0.0
 10
236.8151799843823
 20
19.644377706789
 30
0.0
 10
237.2050850327697
 20
19.50411513948625
 30
0.0
 10
237.9640235995116
 20
19.33182181397683
 30
0.0
 10
239.0289670927075
 20
19.15546133744221
 30
0.0
 10
240.1332323106736
 20
19.07709389362035
 30
0.0
 10
241.2688513239134
 20
19.08709173922088
 30
0.0
 10
242.4336252246023
 20
19.18837761615799
 30
0.0
 10
243.6234997746084
 20
19.38009907184913
 30
0.0
 10
244.8346681028043
 20
19.66196337848827
 30
0.0
 10
246.0630987631884
 20
20.03305410645093
 30
0.0
 10
247.3047302986201
 20
20.49215226650832
 30
0.0
 10
248.5554933762399
 20
21.03768430937613
 30
0.0
 10
249.8113397088921
 20
21.66778448112094
 30
0.0
 10
251.0682536226218
 20
22.38028696921808
 30
0.0
 10
252.3222632938286
 20
23.17278776574974
 30
0.0
 10
253.5694637695004
 20
24.04263934296193
 30
0.0
 10
254.8060187906939
 20
24.98699094718431
 30
0.0
 10
256.0281428383013
 20
26.00279424082078
 30
0.0
 10
257.2321163345626
 20
27.08679325505997
 30
0.0
 10
258.4142682795639
 20
28.23554966098159
 30
0.0
 10
259.5710057659716
 20
29.44542968017536
 30
0.0
 10
260.6988001296971
 20
30.7126399815117
 30
0.0
 10
261.7942116523195
 20
32.03321228431493
 30
0.0
 10
262.8538944425088
 20
33.4030264299431
 30
0.0
 10
263.8746052267987
 20
34.81781658656731
 30
0.0
 10
264.8532110849162
 20
36.2731875589809
 30
0.0
 10
265.7867048569802
 20
37.76462374961205
 30
0.0
 10
266.6722020319096
 20
39.28750785942582
 30
0.0
 10
267.5069702372636
 20
40.83711694102017
 30
0.0
 10
268.2884119561911
 20
42.40865855692159
 30
0.0
 10
269.0140950644488
 20
43.99727239018519
 30
0.0
 10
269.6817499035527
 20
45.59806053073749
 30
0.0
 10
270.2892830499966
 20
47.20608862091019
 30
0.0
 10
270.8347639610438
 20
48.81640983249936
 30
0.0
 10
271.3164548986585
 20
50.4240748648286
 30
0.0
 10
271.732794645961
 20
52.02414422448629
 30
0.0
 10
272.0824105669566
 20
53.61170865816707
 30
0.0
 10
272.3641185450861
 20
55.18189667802292
 30
0.0
 10
272.5769246737346
 20
56.72988723653577
 30
0.0
 10
272.7200253274476
 20
58.25092582370479
 30
0.0
 10
272.7928130314864
 20
59.74032290475631
 30
0.0
 10
272.7948718718952
 20
61.19346765947071
 30
0.0
 10
272.7259905955938
 20
62.60583749663838
 30
0.0
 10
272.5861593140976
 20
63.97295181058109
 30
0.0
 10
272.3755960319015
 20
65.29041789394861
 30
0.0
 10
272.0947616178219
 20
66.55392224344686
 30
0.0
 10
271.744390440305
 20
67.75927554467711
 30
0.0
 10
271.3254560897817
 20
68.90234995142112
 30
0.0
 10
270.8394157446976
 20
69.97937246621063
 30
0.0
 10
270.2874939724202
 20
70.98595890951134
 30
0.0
 10
269.673371159834
 20
71.92099500537586
 30
0.0
 10
268.9931874540399
 20
72.77250039906382
 30
0.0
 10
268.4608609142965
 20
73.36196465042431
 30
0.0
 10
268.1386010083285
 20
73.64144394864347
 30
0.0
 10
268.0819580901633
 20
73.690567413042
 30
0.0
  0
LINE
  5
149
330
1F
100
AcDbEntity
  8
0
  6
Continuous
 62
     7
370
    25
100
AcDbLine
 10
228.5393277874
 20
24.1073947373
 30
0.0
 11
234.5926004161
 21
20.6129148308
 31
0.0
  0
LINE
  5
14A
330
1F
100
AcDbEntity
  8
0
  6
Continuous
 62
     7
370
    25
100
AcDbLine
 10
217.6927486955
 20
30.3689915652
 30
0.0
 11
223.1096256849
 21
27.2418950414
 31
0.0
  0
LINE
  5
14B
330
1F
100
AcDbEntity
  8
0
  6
Continuous
 62
     7
370
    25
100
AcDbLine
 10
254.6070666635
 20
81.8029732822
 30
0.0
 11
249.1901896741
 21
84.930069806
 31
0.0
  0
LINE
  5
14C
330
1F
100
AcDbEntity
  8
0
  6
Continuous
 62
     7
370
    25
100
AcDbLine
 10
266.0900413947
 20
75.1739930717
 30
0.0
 11
260.036768766
 21
78.6684729781
 31
0.0
  0
SPLINE
  5
14D
330
1F
100
AcDbEntity
  8
0
  6
Continuous
 62
     7
370
    25
100
AcDbSpline
210
0.0
220
0.0
230
1.0
 70
     8
 71
     3
 72
    47
 73
    43
 74
     0
 42
0.000000001
 43
0.00000001
 40
0.0
 40
0.0
 40
0.0
 40
0.0
 40
0.0141837901986497
 40
0.0394039467481899
 40
0.0646791434824689
 40
0.0900143465739408
 40
0.1154082382328566
 40
0.1408547936856857
 40
0.1663451531182793
 40
0.1918695580924733
 40
0.2174185224005905
 40
0.2429837566281906
 40
0.2685584868648968
 40
0.2941374760708889
 40
0.3197161665094638
 40
0.345291984540683
 40
0.3708634960403187
 40
0.3964299052440298
 40
0.4219909126566223
 40
0.4475465598939244
 40
0.4730971084676577
 40
0.4986430372197989
 40
0.5241848866303629
 40
0.5497232742386162
 40
0.5752588848943094
 40
0.6007924222099226
 40
0.6263246136639563
 40
0.6518562105180067
 40
0.6773879144052629
 40
0.7029202856280728
 40
0.7284540331693925
 40
0.7539898947910987
 40
0.7795286199465816
 40
0.805070953177713
 40
0.8306176040023858
 40
0.8561692628745081
 40
0.8817265524053219
 40
0.9072900165003334
 40
0.9328600386931604
 40
0.9584368125848004
 40
0.98402020457335
 40
1.0
 40
1.0
 40
1.0
 40
1.0
 10
246.4757604823534
 20
86.03137293711362
 30
0.0
 10
246.2847426307677
 20
86.08359115028723
 30
0.0
 10
245.7540764867807
 20
86.22865841808807
 30
0.0
 10
244.8410480820922
 20
86.36769452174556
 30
0.0
 10
243.743896746202
 20
86.45611347796142
 30
0.0
 10
242.6123151825298
 20
86.4499145013236
 30
0.0
 10
241.4521188728269
 20
86.35426323053387
 30
0.0
 10
240.2663660721207
 20
86.16786211703887
 30
0.0
 10
239.0590774962413
 20
85.89157670733304
 30
0.0
 10
237.8341730119553
 20
85.52616193154522
 30
0.0
 10
236.595680614192
 20
85.07283525667472
 30
0.0
 10
235.3476297613935
 20
84.53312733606342
 30
0.0
 10
234.0940363111892
 20
83.90885567932038
 30
0.0
 10
232.8388975603463
 20
83.20214337512374
 30
0.0
 10
231.5861698306211
 20
82.41533507534196
 30
0.0
 10
230.3397603027834
 20
81.55104544266372
 30
0.0
 10
229.1035150755853
 20
80.61207524113864
 30
0.0
 10
227.8812271667906
 20
79.60145193185981
 30
0.0
 10
226.6766395283939
 20
78.52239465408962
 30
0.0
 10
225.4934352879585
 20
77.37832670025509
 30
0.0
 10
224.3352324583968
 20
76.17285272869748
 30
0.0
 10
223.2055758801957
 20
74.90975551429983
 30
0.0
 10
222.1079233575641
 20
73.59299153957235
 30
0.0
 10
221.0456440862704
 20
72.22666821031196
 30
0.0
 10
220.0219986791933
 20
70.81504625089168
 30
0.0
 10
219.0401399232016
 20
69.36251343115372
 30
0.0
 10
218.1030945545085
 20
67.87358303078547
 30
0.0
 10
217.2137555044435
 20
66.35287729143644
 30
0.0
 10
216.3748833632391
 20
64.80511226364429
 30
0.0
 10
215.5890821661207
 20
63.23508870210826
 30
0.0
 10
214.8588033114099
 20
61.64766877619033
 30
0.0
 10
214.186326293028
 20
60.04776184314945
 30
0.0
 10
213.5737628387696
 20
58.44030893767884
 30
0.0
 10
213.0230483556605
 20
56.83027080023193
 30
0.0
 10
212.5359292454664
 20
55.22260998883205
 30
0.0
 10
212.113984381796
 20
53.62228389669896
 30
0.0
 10
211.758561101156
 20
52.03420457280271
 30
0.0
 10
211.4709407297239
 20
50.46331494672583
 30
0.0
 10
211.2517573960224
 20
48.91424645357873
 30
0.0
 10
211.1031543987942
 20
47.39254099302411
 30
0.0
 10
211.0310238065559
 20
46.08690330223748
 30
0.0
 10
211.0238992016712
 20
45.29837210351531
 30
0.0
 10
211.0211600053863
 20
44.99520557499004
 30
0.0
  0
SPLINE
  5
14E
330
1F
100
AcDbEntity
  8
0
  6
Continuous
 62
     7
370
    25
100
AcDbSpline
210
0.0
220
0.0
230
1.0
 70
     8
 71
     3
 72
    19
 73
    15
 74
     0
 42
0.000000001
 43
0.00000001
 40
0.0
 40
0.0
 40
0.0
 40
0.0
 40
0.047127583849196
 40
0.1365873168497518
 40
0.2260678630778158
 40
0.3155412114437241
 40
0.4049896864578438
 40
0.4943897707278569
 40
0.5837123743139879
 40
0.672923179668461
 40
0.7619856601860931
 40
0.8508651312524126
 40
0.939535048375617
 40
1.0
 40
1.0
 40
1.0
 40
1.0
 10
211.0211600053863
 20
44.99520557499004
 30
0.0
 10
211.0231320434545
 20
44.74181426143748
 30
0.0
 10
211.0288474942894
 20
44.00742397862713
 30
0.0
 10
211.0923717340851
 20
42.82320248612245
 30
0.0
 10
211.2348956052367
 20
41.46107808628707
 30
0.0
 10
211.4488051712759
 20
40.14949658117809
 30
0.0
 10
211.7323752082873
 20
38.89213409962223
 30
0.0
 10
212.0851865736132
 20
37.69332109846392
 30
0.0
 10
212.5060625006694
 20
36.55695245062148
 30
0.0
 10
212.9938909722056
 20
35.48717319903924
 30
0.0
 10
213.5462555316319
 20
34.48662352580811
 30
0.0
 10
214.1640037298515
 20
33.562529309493
 30
0.0
 10
214.7638231144371
 20
32.79412996564498
 30
0.0
 10
215.1826159224294
 20
32.36889628019058
 30
0.0
 10
215.3524104653727
 20
32.19649036039475
 30
0.0
  0
LINE
  5
14F
330
1F
100
AcDbEntity
  8
0
  6
Continuous
 62
     7
370
    25
100
AcDbLine
 10
194.7189487651
 20
54.369715799
 30
0.0
 11
211.0305173672
 21
44.2718486733
 31
0.0
  0
LINE
  5
150
330
1F
100
AcDbEntity
  8
0
  6
Continuous
 62
     7
370
    25
100
AcDbLine
 10
231.7398784623
 20
82.4982952945
 30
0.0
 11
215.7114589739
 21
91.1051097961
 31
0.0
  0
LINE
  5
151
330
1F
100
AcDbEntity
  8
0
  6
Continuous
 62
     7
370
    25
100
AcDbLine
 10
210.3327199845
 20
92.2856230572
 30
0.0
 11
209.0536197671
 21
92.1112010672
 31
0.0
  0
LINE
  5
152
330
1F
100
AcDbEntity
  8
0
  6
Continuous
 62
     7
370
    25
100
AcDbLine
 10
192.3924479956
 20
57.8418002462
 30
0.0
 11
192.8810550933
 21
56.6469012244
 31
0.0
  0
LWPOLYLINE
  5
153
330
1F
100
AcDbEntity
  8
0
  6
Continuous
 62
     7
370
    25
100
AcDbPolyline
 90
      106
 70
   128
 43
0.0
 10
228.91598627
 20
35.0350259832
 10
228.9550945941
 20
36.566528036
 10
229.072277321
 20
38.1376999141
 10
229.2671182504
 20
39.7429191742
 10
229.538916691
 20
41.3764375432
 10
229.8867019482
 20
43.0324090536
 10
230.3092280557
 20
44.7049048733
 10
230.8049829955
 20
46.3879376398
 10
231.3721913315
 20
48.075483893
 10
232.0088234295
 20
49.7615019457
 10
232.7125994085
 20
51.4399554574
 10
233.4809996771
 20
53.1048362473
 10
234.3112754706
 20
54.7501848255
 10
235.200452802
 20
56.3701124465
 10
236.1453495842
 20
57.9588185979
 10
237.1425835327
 20
59.5106168557
 10
238.1885827019
 20
61.0199500921
 10
239.2796052421
 20
62.4814186114
 10
240.4117453257
 20
63.8897896545
 10
241.5809482943
 20
65.2400213529
 10
242.7830304144
 20
66.5272786956
 10
244.0136880979
 20
67.7469555827
 10
245.2685156819
 20
68.89468661
 10
246.5430212344
 20
69.9663607564
 10
247.8326423589
 20
70.9581426752
 10
249.1327629878
 20
71.8664823884
 10
250.4387285079
 20
72.6881285816
 10
251.7458641381
 20
73.4201392129
 10
253.0494906933
 20
74.0598936554
 10
254.3449412539
 20
74.60510232
 10
255.6275788432
 20
75.0538153394
 10
256.8928114304
 20
75.4044221041
 10
258.1361105342
 20
75.655671127
 10
259.3530250524
 20
75.8066612968
 10
260.5391987129
 20
75.856853474
 10
261.6903852208
 20
75.8060670668
 10
262.8024634045
 20
75.6544826917
 10
263.8714536796
 20
75.4026455936
 10
264.8935279269
 20
75.0514561398
 10
265.865027273
 20
74.6021709581
 10
266.7824759202
 20
74.0563987537
 10
267.6425864141
 20
73.4160927038
 10
268.4422833519
 20
72.6835458927
 10
269.1787007479
 20
71.8613806652
 10
269.8492044242
 20
70.952538739
 10
270.4513946444
 20
69.960275881
 10
270.9831140169
 20
68.8881413738
 10
271.4424593479
 20
67.7399749732
 10
271.8277882275
 20
66.5198871352
 10
272.1377190293
 20
65.2322441872
 10
272.3711427644
 20
63.8816557791
 10
272.5272243982
 20
62.4729572023
 10
272.6054054851
 20
61.0111912813
 10
272.6054054851
 20
59.5015904073
 10
272.5272243982
 20
57.9495585247
 10
272.3711427644
 20
56.3606519293
 10
272.1377190293
 20
54.7405582133
 10
271.8277882275
 20
53.0950767783
 10
271.4424593479
 20
51.4300976857
 10
270.9831140169
 20
49.7515824547
 10
270.4513946444
 20
48.0655378276
 10
269.8492044242
 20
46.3780009405
 10
269.1787007479
 20
44.6950119479
 10
268.4422833519
 20
43.022597293
 10
267.6425864141
 20
41.3667400507
 10
266.7824759202
 20
39.7333715625
 10
265.865027273
 20
38.1283356972
 10
264.8935279269
 20
36.5573812459
 10
263.8714536796
 20
35.0261299844
 10
262.8024634045
 20
33.540062986
 10
261.6903852208
 20
32.1045004702
 10
260.5391987129
 20
30.7245824124
 10
259.3530250524
 20
29.4052476324
 10
258.1361105342
 20
28.1512182063
 10
256.8928114304
 20
26.9669846389
 10
255.6275788432
 20
25.8567849525
 10
254.3449412539
 20
24.8245961333
 10
253.0494906933
 20
23.8741094174
 10
251.7458641381
 20
23.0087286769
 10
250.4387285079
 20
22.2315526335
 10
249.1327629878
 20
21.5453631324
 10
247.8326423589
 20
20.952615519
 10
246.5430212344
 20
20.455432581
 10
245.2685156819
 20
20.0555939385
 10
244.0136880979
 20
19.7545318758
 10
242.7830304144
 20
19.553321646
 10
241.5809482943
 20
19.4526845149
 10
240.4117453257
 20
19.4529831999
 10
239.2796052421
 20
19.5542131258
 10
238.1885827019
 20
19.7560138329
 10
237.1425835327
 20
20.0576621349
 10
236.1453495842
 20
20.4580785836
 10
235.200452802
 20
20.9558301319
 10
234.3112754706
 20
21.5491354584
 10
233.4809996771
 20
22.2358680101
 10
232.7125994085
 20
23.0135727339
 10
232.0088234295
 20
23.8794637962
 10
231.3721913315
 20
24.8304420742
 10
230.8049829955
 20
25.8631035223
 10
230.3092280557
 20
26.9737498189
 10
229.8867019482
 20
28.1584073788
 10
229.538916691
 20
29.4128345783
 10
229.2671182504
 20
30.7325411474
 10
229.072277321
 20
32.1128018589
 10
228.9550945941
 20
33.5486774404
 10
228.91598627
 20
35.0350259832
  0
ARC
  5
154
330
1F
100
AcDbEntity
  8
0
  6
Continuous
 62
     7
370
    25
100
AcDbCircle
 10
260.7805456043
 20
65.9766372019
 30
0.0
 40
10.61916010400232
100
AcDbArc
 50
47.0546974207
 51
72.9108234992
  0
ARC
  5
155
330
1F
100
AcDbEntity
  8
0
  6
Continuous
 62
     7
370
    25
100
AcDbCircle
 10
239.8992563582
 20
29.8057723016
 30
0.0
 40
10.61388991778531
100
AcDbArc
 50
227.218240194
 51
252.3050211673
  0
ELLIPSE
  5
156
330
1F
100
AcDbEntity
  8
0
  6
Continuous
 62
     7
370
    25
100
AcDbEllipse
 10
231.4282271336
 20
58.8117505832
 30
0.0
 11
-1.492208257994406
 21
35.86954772120482
 31
0.0
210
0.0
220
0.0
230
1.0
 40
0.4444802122
 41
2.401404845694029
 42
2.866866793327967
  0
SPLINE
  5
157
330
1F
100
AcDbEntity
  8
0
  6
Continuous
 62
     7
370
    25
100
AcDbSpline
210
0.0
220
0.0
230
1.0
 70
     8
 71
     3
 72
    12
 73
     8
 74
     0
 42
0.000000001
 43
0.00000001
 40
0.0
 40
0.0
 40
0.0
 40
0.0
 40
0.2499999999999982
 40
0.2499999999999982
 40
0.4999999999999963
 40
0.4999999999999963
 40
1.0
 40
1.0
 40
1.0
 40
1.0
 10
221.3525957281639
 20
32.41438865371219
 30
0.0
 10
221.3972000511401
 20
32.38863912615216
 30
0.0
 10
221.4446147770188
 20
32.3470106480171
 30
0.0
 10
221.5307387647572
 20
32.25577654388373
 30
0.0
 10
221.5687453312663
 20
32.20786170438033
 30
0.0
 10
221.6732926722364
 20
32.06406196330747
 30
0.0
 10
221.7289299817207
 20
31.97034588508965
 30
0.0
 10
221.7773987541227
 20
31.88044205380035
 30
0.0
  0
LINE
  5
158
330
1F
100
AcDbEntity
  8
0
  6
Continuous
 62
     7
370
    25
100
AcDbLine
 10
219.2705291816
 20
33.6163393072
 30
0.0
 11
221.3525953518
 21
32.4143880913
 31
0.0
  0
SPLINE
  5
159
330
1F
100
AcDbEntity
  8
0
  6
Continuous
 62
     7
370
    25
100
AcDbSpline
210
0.0
220
0.0
230
1.0
 70
     8
 71
     3
 72
    12
 73
     8
 74
     0
 42
0.000000001
 43
0.00000001
 40
0.0
 40
0.0
 40
0.0
 40
0.0
 40
0.4999999999999971
 40
0.4999999999999971
 40
0.7499999999999986
 40
0.7499999999999986
 40
1.0
 40
1.0
 40
1.0
 40
1.0
 10
219.0829600370612
 20
33.4359084161275
 30
0.0
 10
219.0783074575577
 20
33.50004705546649
 30
0.0
 10
219.082709467731
 20
33.55968702675187
 30
0.0
 10
219.119240188613
 20
33.62170897023785
 30
0.0
 10
219.1367726745076
 20
33.63799269014027
 30
0.0
 10
219.1897006855807
 20
33.6487142326981
 30
0.0
 10
219.2262104587448
 20
33.64192474090758
 30
0.0
 10
219.2705294467982
 20
33.61633993369227
 30
0.0
  0
ELLIPSE
  5
15A
330
1F
100
AcDbEntity
  8
0
  6
Continuous
 62
     7
370
    25
100
AcDbEllipse
 10
251.7181671697
 20
47.0986175214
 30
0.0
 11
31.80943151884463
 21
16.64440996219793
 31
0.0
210
0.0
220
0.0
230
1.0
 40
0.4445305117
 41
2.950908281021529
 42
3.578705763440479
  0
SPLINE
  5
15B
330
1F
100
AcDbEntity
  8
0
  6
Continuous
 62
     7
370
    25
100
AcDbSpline
210
0.0
220
0.0
230
1.0
 70
     8
 71
     3
 72
    12
 73
     8
 74
     0
 42
0.000000001
 43
0.00000001
 40
0.0
 40
0.0
 40
0.0
 40
0.0
 40
0.2500000000000014
 40
0.2500000000000014
 40
0.5000000000000028
 40
0.5000000000000028
 40
1.0
 40
1.0
 40
1.0
 40
1.0
 10
247.170529446798
 20
81.94055732303795
 30
0.0
 10
247.1259251238218
 20
81.966306850598
 30
0.0
 10
247.1020360140965
 20
81.99434986464476
 30
0.0
 10
247.0848478818774
 20
82.0457752095327
 30
0.0
 10
247.0901396770974
 20
82.06868631121621
 30
0.0
 10
247.1256688767905
 20
82.13159529897663
 30
0.0
 10
247.1746518081868
 20
82.16489576401254
 30
0.0
 10
247.232960037061
 20
82.1931385060946
 30
0.0
  0
LINE
  5
15C
330
1F
100
AcDbEntity
  8
0
  6
Continuous
 62
     7
370
    25
100
AcDbLine
 10
249.252596027
 20
80.7386066502
 30
0.0
 11
247.1705298568
 21
81.940557866
 31
0.0
  0
SPLINE
  5
15D
330
1F
100
AcDbEntity
  8
0
  6
Continuous
 62
     7
370
    25
100
AcDbSpline
210
0.0
220
0.0
230
1.0
 70
     8
 71
     3
 72
    12
 73
     8
 74
     0
 42
0.000000001
 43
0.00000001
 40
0.0
 40
0.0
 40
0.0
 40
0.0
 40
0.4999999999999963
 40
0.4999999999999963
 40
0.7499999999999981
 40
0.7499999999999981
 40
1.0
 40
1.0
 40
1.0
 40
1.0
 10
249.9273987541225
 20
80.63767214376743
 30
0.0
 10
249.8260858795041
 20
80.63472594513577
 30
0.0
 10
249.7160635473653
 20
80.63607910923515
 30
0.0
 10
249.5400166499091
 20
80.6546243225973
 30
0.0
 10
249.4784665920965
 20
80.66375966669075
 30
0.0
 10
249.3570013800875
 20
80.69261667017197
 30
0.0
 10
249.2969147162171
 20
80.71302123584256
 30
0.0
 10
249.2525957281637
 20
80.73860604305789
 30
0.0
  0
ELLIPSE
  5
15E
330
1F
100
AcDbEntity
  8
0
  6
Continuous
 62
     7
370
    25
100
AcDbEllipse
 10
231.4282271336
 20
58.8117505832
 30
0.0
 11
31.80943151884466
 21
16.64440996219794
 31
0.0
210
0.0
220
0.0
230
1.0
 40
0.4445305117
 41
0.2747775750656701
 42
0.7400769945754279
  0
ELLIPSE
  5
15F
330
1F
100
AcDbEntity
  8
0
  6
Continuous
 62
     7
370
    25
100
AcDbEllipse
 10
251.7181671697
 20
47.0986175214
 30
0.0
 11
-1.492208257994463
 21
35.8695477212048
 31
0.0
210
0.0
220
0.0
230
1.0
 40
0.4444802122
 41
5.846123912132794
 42
6.473758866427502
  0
SPLINE
  5
160
330
1F
100
AcDbEntity
  8
0
  6
Continuous
 62
     7
370
    25
100
AcDbSpline
210
0.0
220
0.0
230
1.0
 70
     8
 71
     3
 72
    12
 73
     8
 74
     0
 42
0.000000001
 43
0.00000001
 40
0.0
 40
0.0
 40
0.0
 40
0.0
 40
0.2500000000000001
 40
0.2500000000000001
 40
0.5000000000000001
 40
0.5000000000000001
 40
1.0
 40
1.0
 40
1.0
 40
1.0
 10
219.2705294467982
 20
48.94781870545359
 30
0.0
 10
219.225941446389
 20
48.97355881019629
 30
0.0
 10
219.1897164942113
 20
49.02161725630661
 30
0.0
 10
219.1365867516269
 20
49.13184098807947
 30
0.0
 10
219.1193848858325
 20
49.19174310007218
 30
0.0
 10
219.082646193988
 20
49.3746271764681
 30
0.0
 10
219.0782416252509
 20
49.49734984265101
 30
0.0
 10
219.0829600370611
 20
49.61871735690389
 30
0.0
  0
LINE
  5
161
330
1F
100
AcDbEntity
  8
0
  6
Continuous
 62
     7
370
    25
100
AcDbLine
 10
221.3525953518
 20
47.7458675113
 30
0.0
 11
219.2705291816
 21
48.9478187271
 31
0.0
  0
SPLINE
  5
162
330
1F
100
AcDbEntity
  8
0
  6
Continuous
 62
     7
370
    25
100
AcDbSpline
210
0.0
220
0.0
230
1.0
 70
     8
 71
     3
 72
    12
 73
     8
 74
     0
 42
0.000000001
 43
0.00000001
 40
0.0
 40
0.0
 40
0.0
 40
0.0
 40
0.5000000000000019
 40
0.5000000000000019
 40
0.7500000000000009
 40
0.7500000000000009
 40
1.0
 40
1.0
 40
1.0
 40
1.0
 10
221.7773987541227
 20
48.06325099457673
 30
0.0
 10
221.7286361607513
 20
47.96735645279042
 30
0.0
 10
221.6732406204295
 20
47.87916749138225
 30
0.0
 10
221.5686555685167
 20
47.77777835591865
 30
0.0
 10
221.5300537052238
 20
47.74955866705569
 30
0.0
 10
221.4453145969832
 20
47.72015246805212
 30
0.0
 10
221.3971180754166
 20
47.72016522149116
 30
0.0
 10
221.3525957281638
 20
47.7458674254734
 30
0.0
  0
ELLIPSE
  5
163
330
1F
100
AcDbEntity
  8
0
  6
Continuous
 62
     7
370
    25
100
AcDbEllipse
 10
231.4282271336
 20
58.8117505832
 30
0.0
 11
15.74977695339348
 21
27.27992902100311
 31
0.0
210
0.0
220
0.0
230
1.0
 40
0.1059897947
 41
1.105338485463661
 42
2.036099852607341
  0
SPLINE
  5
164
330
1F
100
AcDbEntity
  8
0
  6
Continuous
 62
     7
370
    25
100
AcDbSpline
210
0.0
220
0.0
230
1.0
 70
     8
 71
     3
 72
    12
 73
     8
 74
     0
 42
0.000000001
 43
0.00000001
 40
0.0
 40
0.0
 40
0.0
 40
0.0
 40
0.2500000000000009
 40
0.2500000000000009
 40
0.5000000000000018
 40
0.5000000000000018
 40
1.0
 40
1.0
 40
1.0
 40
1.0
 10
235.9758648565086
 20
73.07411245418456
 30
0.0
 10
236.0204528569178
 20
73.04837234944186
 30
0.0
 10
236.0443416084217
 20
73.00743775548263
 30
0.0
 10
236.0615442212667
 20
72.91796105654772
 30
0.0
 10
236.0562661807299
 20
72.87104053696807
 30
0.0
 10
236.0207802938124
 20
72.72986437651635
 30
0.0
 10
235.9721180992638
 20
72.63778645953785
 30
0.0
 10
235.9134342662456
 20
72.54758264731285
 30
0.0
  0
LINE
  5
165
330
1F
100
AcDbEntity
  8
0
  6
Continuous
 62
     7
370
    25
100
AcDbLine
 10
233.8937984238
 20
74.2760639531
 30
0.0
 11
235.975864594
 21
73.0741127373
 31
0.0
  0
SPLINE
  5
166
330
1F
100
AcDbEntity
  8
0
  6
Continuous
 62
     7
370
    25
100
AcDbSpline
210
0.0
220
0.0
230
1.0
 70
     8
 71
     3
 72
    12
 73
     8
 74
     0
 42
0.000000001
 43
0.00000001
 40
0.0
 40
0.0
 40
0.0
 40
0.0
 40
0.5000000000000019
 40
0.5000000000000019
 40
0.7500000000000009
 40
0.7500000000000009
 40
1.0
 40
1.0
 40
1.0
 40
1.0
 10
233.2189955491841
 20
74.10304900964002
 30
0.0
 10
233.3217032078376
 20
74.16779160444432
 30
0.0
 10
233.4301596656415
 20
74.2253391924558
 30
0.0
 10
233.6070092928194
 20
74.28499731497948
 30
0.0
 10
233.6683317116031
 20
74.30009644246489
 30
0.0
 10
233.7884434394666
 20
74.30907582456975
 30
0.0
 10
233.8492762278902
 20
74.30176593814694
 30
0.0
 10
233.8937985751429
 20
74.27606373416472
 30
0.0
  0
ELLIPSE
  5
167
330
1F
100
AcDbEntity
  8
0
  6
Continuous
 62
     7
370
    25
100
AcDbEllipse
 10
251.7181671697
 20
47.0986175214
 30
0.0
 11
28.60476721209415
 21
-16.52780421459562
 31
0.0
210
0.0
220
0.0
230
1.0
 40
0.9534948969
 41
2.676532761479947
 42
3.607294128623639
  0
ARC
  5
168
330
1F
100
AcDbEntity
  8
0
  6
Continuous
 62
     7
370
    25
100
AcDbCircle
 10
243.8410004259
 20
75.6388408211
 30
0.0
 40
10.72104293732725
100
AcDbArc
 50
60.0699064346
 51
75.3033196476
  0
ARC
  5
169
330
1F
100
AcDbEntity
  8
0
  6
Continuous
 62
     7
370
    25
100
AcDbCircle
 10
223.0710681153
 20
39.6576110677
 30
0.0
 40
10.73334859417958
100
AcDbArc
 50
224.4997745769
 51
239.928194436
  0
LWPOLYLINE
  5
16A
330
1F
100
AcDbEntity
  8
0
  6
Continuous
 62
     7
370
    25
100
AcDbPolyline
 90
       28
 70
   128
 43
0.0
 10
249.2629835788
 20
46.7810975075
 10
249.3034865356
 20
47.204632326
 10
249.4228114254
 20
47.6520976943
 10
249.6145257501
 20
48.0993709073
 10
249.8682939006
 20
48.5223391793
 10
250.1704353557
 20
48.8982002686
 10
250.5046614901
 20
49.2066913518
 10
250.8529541044
 20
49.431181507
 10
251.1965366438
 20
49.5595687014
 10
251.5168865663
 20
49.5849313297
 10
251.7967335733
 20
49.5059021019
 10
252.0209911919
 20
49.3267414775
 10
252.177569533
 20
49.0571081368
 10
252.2580273729
 20
48.7115380269
 10
252.2580273729
 20
48.308660947
 10
252.177569533
 20
47.8701961925
 10
252.0209911919
 20
47.4197813473
 10
251.7967335733
 20
46.9816983876
 10
251.5168865663
 20
46.5795646831
 10
251.1965366438
 20
46.2350591636
 10
250.8529541044
 20
45.9667544019
 10
250.5046614901
 20
45.7891144643
 10
250.1704353557
 20
45.7117162665
 10
249.8682939006
 20
45.7387322572
 10
249.6145257501
 20
45.8687060591
 10
249.4228114254
 20
46.0946306244
 10
249.3034865356
 20
46.4043264075
 10
249.2629835788
 20
46.7810975075
  0
LINE
  5
16B
330
1F
100
AcDbEntity
  8
0
  6
Continuous
 62
     7
370
    25
100
AcDbLine
 10
233.8937984238
 20
74.2760639531
 30
0.0
 11
219.2705291816
 21
48.9478187271
 31
0.0
  0
LINE
  5
16C
330
1F
100
AcDbEntity
  8
0
  6
Continuous
 62
     7
370
    25
100
AcDbLine
 10
233.218995769
 20
74.1030492941
 30
0.0
 11
219.0829599006
 21
49.6187170243
 31
0.0
  0
LWPOLYLINE
  5
16D
330
1F
100
AcDbEntity
  8
0
  6
Continuous
 62
     7
370
    25
100
AcDbPolyline
 90
       18
 70
   128
 43
0.0
 10
192.3172962135
 20
59.8498302836
 10
192.3578098716
 20
61.3916887585
 10
192.4791967466
 20
62.9744745066
 10
192.6809971743
 20
64.5921836455
 10
192.9624446091
 20
66.238679145
 10
193.3224722087
 20
67.9077155899
 10
193.7597141518
 20
69.5929618508
 10
194.2725109064
 20
71.2880246818
 10
194.858918449
 20
72.9864745516
 10
195.5167122162
 20
74.681868647
 10
196.2433956659
 20
76.3677759677
 10
197.0362141064
 20
78.0378008989
 10
197.8921586477
 20
79.6856079264
 10
198.8079833241
 20
81.3049482511
 10
199.7802143132
 20
82.8896772784
 10
200.8051624487
 20
84.4337846558
 10
201.8789400131
 20
85.9314123322
 10
202.9974745672
 20
87.3768800318
  0
ARC
  5
16E
330
1F
100
AcDbEntity
  8
0
  6
Continuous
 62
     7
370
    25
100
AcDbCircle
 10
248.5693618162
 20
48.9163841506
 30
0.0
 40
1.528196236676905
100
AcDbArc
 50
303.8806183028
 51
356.12475867
  0
LWPOLYLINE
  5
16F
330
1F
100
AcDbEntity
  8
0
  6
Continuous
 62
     7
370
    25
100
AcDbPolyline
 90
       12
 70
   128
 43
0.0
 10
211.5595627197
 20
92.319668312
 10
210.8353386045
 20
92.3327285866
 10
210.078903431
 20
92.2457451956
 10
209.2971073793
 20
92.0595076171
 10
208.4970307905
 20
91.7757001825
 10
207.6859192184
 20
91.3968934794
 10
206.8711180684
 20
90.9265187877
 10
206.0600064963
 20
90.3688360033
 10
205.2599299076
 20
89.7288946712
 10
204.4781338558
 20
89.0124897416
 10
203.7216986824
 20
88.2261116714
 10
202.9974745672
 20
87.3768800318
  0
ARC
  5
170
330
1F
100
AcDbEntity
  8
0
  6
Continuous
 62
     7
370
    25
100
AcDbCircle
 10
198.3911082351
 20
59.2453522675
 30
0.0
 40
6.103817342126693
100
AcDbArc
 50
174.3165234664
 51
233.0142147617
  0
ARC
  5
171
330
1F
100
AcDbEntity
  8
0
  6
Continuous
 62
     7
370
    25
100
AcDbCircle
 10
210.6822373499
 20
81.616798756
 30
0.0
 40
10.73876699333817
100
AcDbArc
 50
62.0744455229
 51
85.3138822463
  0
ARC
  5
172
330
1F
100
AcDbEntity
  8
0
  6
Continuous
 62
     7
370
    25
100
AcDbCircle
 10
236.8987692799
 20
58.726059618
 30
0.0
 40
45.07821746286636
100
AcDbArc
 50
140.2455254016
 51
177.343113626
  0
LINE
  5
173
330
1F
100
AcDbEntity
  8
0
  6
Continuous
 62
     7
370
    25
100
AcDbLine
 10
202.2430011978
 20
87.5535365847
 30
0.0
 11
202.9974745672
 21
87.3768800318
 31
0.0
  0
LINE
  5
174
330
1F
100
AcDbEntity
  8
0
  6
Continuous
 62
     7
370
    25
100
AcDbLine
 10
191.8690091618
 20
60.8156512853
 30
0.0
 11
192.3172962135
 21
59.8498302836
 31
0.0
  0
ARC
  5
175
330
1F
100
AcDbEntity
  8
0
  6
Continuous
 62
     7
370
    25
100
AcDbCircle
 10
211.6229865418
 20
80.9042786008
 30
0.0
 40
11.49768484480349
100
AcDbArc
 50
102.912818326
 51
144.6680407587
  0
ARC
  5
176
330
1F
100
AcDbEntity
  8
0
  6
Continuous
 62
     7
370
    25
100
AcDbCircle
 10
199.6365190657
 20
60.6498485011
 30
0.0
 40
7.7692792889574
100
AcDbArc
 50
178.7771683004
 51
201.1880245628
  0
LWPOLYLINE
  5
177
330
1F
100
AcDbEntity
  8
0
  6
Continuous
 62
     7
370
    25
100
AcDbPolyline
 90
       39
 70
   128
 43
0.0
 10
228.0674569398
 20
35.0350259832
 10
228.1065771177
 20
36.5813398557
 10
228.223795406
 20
38.1673866698
 10
228.4187035069
 20
39.787597499
 10
228.6906152172
 20
41.4362798676
 10
229.0385756472
 20
43.1076431305
 10
229.4613638555
 20
44.7958181496
 10
229.9574928486
 20
46.4948723131
 10
230.5252201176
 20
48.1988391929
 10
231.162552907
 20
49.9017333723
 10
231.8672521654
 20
51.5975747814
 10
232.6368417654
 20
53.2804031443
 10
233.4686190404
 20
54.9443114389
 10
234.3596626869
 20
56.5834535007
 10
235.3068419844
 20
58.1920706379
 10
236.306829966
 20
59.7645129233
 10
237.3561152723
 20
61.295258205
 10
238.4510113713
 20
62.7789295959
 10
239.5876730215
 20
64.2103141032
 10
240.7621074676
 20
65.5843873432
 10
241.9701889282
 20
66.8963188625
 10
243.2076737426
 20
68.141502175
 10
244.4702161755
 20
69.3155638862
 10
245.753381259
 20
70.414378711
 10
247.0526615851
 20
71.4340898144
 10
248.3634932758
 20
72.3711104262
 10
249.6812721994
 20
73.2221544953
 10
251.0013696114
 20
73.98423051
 10
252.319148535
 20
74.6546616006
 10
253.6299802257
 20
75.2310950441
 10
254.9292605518
 20
75.7115010743
 10
256.2124256353
 20
76.0941971201
 10
257.4749680682
 20
76.3778358738
 10
258.7124528826
 20
76.5614221158
 10
259.9205343432
 20
76.6443117614
 10
261.0949687893
 20
76.6262116702
 10
262.2316304395
 20
76.5071887697
 10
263.3265265385
 20
76.2876575068
 10
263.9010894996
 20
76.126945922
  0
LWPOLYLINE
  5
178
330
1F
100
AcDbEntity
  8
0
  6
Continuous
 62
     7
370
    25
100
AcDbPolyline
 90
       13
 70
   128
 43
0.0
 10
232.690220749
 20
22.0157488888
 10
232.6368417654
 20
22.0653482454
 10
231.8672521654
 20
22.8596273695
 10
231.162552907
 20
23.7418403334
 10
230.5252201176
 20
24.7088857372
 10
229.9574928486
 20
25.7573686644
 10
229.4613638555
 20
26.8836044854
 10
229.0385756472
 20
28.0836386295
 10
228.6906152172
 20
29.3532553313
 10
228.4187035069
 20
30.6879951217
 10
228.223795406
 20
32.0831698475
 10
228.1065771177
 20
33.5338793068
 10
228.0674569398
 20
35.0350259832
  0
LWPOLYLINE
  5
179
330
1F
100
AcDbEntity
  8
0
  6
Continuous
 62
     7
370
    25
100
AcDbPolyline
 90
       39
 70
   128
 43
0.0
 10
211.1676052192
 20
44.7911027176
 10
211.2067253971
 20
46.3374165901
 10
211.3239436854
 20
47.9234634042
 10
211.5188517863
 20
49.5436742334
 10
211.7907634966
 20
51.192356602
 10
212.1387239266
 20
52.8637198649
 10
212.5615121349
 20
54.5518948839
 10
213.057641128
 20
56.2509490475
 10
213.625368397
 20
57.9549159272
 10
214.2627011864
 20
59.6578101067
 10
214.9674004448
 20
61.3536515158
 10
215.7369900448
 20
63.0364798787
 10
216.5687673198
 20
64.7003881733
 10
217.4598109663
 20
66.3395302351
 10
218.4069902638
 20
67.9481473722
 10
219.4069782454
 20
69.5205896577
 10
220.4562635517
 20
71.0513349394
 10
221.5511596507
 20
72.5350063302
 10
222.6878213009
 20
73.9663908376
 10
223.862255747
 20
75.3404640776
 10
225.0703372076
 20
76.6523955968
 10
226.307822022
 20
77.8975789094
 10
227.5703644549
 20
79.0716406206
 10
228.8535295384
 20
80.1704554454
 10
230.1528098645
 20
81.1901665488
 10
231.4636415552
 20
82.1271871605
 10
232.7814204788
 20
82.9782312297
 10
234.1015178908
 20
83.7403072443
 10
235.4192968144
 20
84.4107383349
 10
236.7301285051
 20
84.9871717785
 10
238.0294088312
 20
85.4675778087
 10
239.3125739147
 20
85.8502738544
 10
240.5751163476
 20
86.1339126082
 10
241.812601162
 20
86.3174988502
 10
243.0206826226
 20
86.4003884958
 10
244.1951170687
 20
86.3822884045
 10
245.3317787189
 20
86.2632655041
 10
246.4266748179
 20
86.0437342412
 10
246.5609494089
 20
86.0091175384
  0
ARC
  5
17A
330
1F
100
AcDbEntity
  8
0
  6
Continuous
 62
     7
370
    25
100
AcDbCircle
 10
229.0906846827
 20
43.7654184264
 30
0.0
 40
17.95240389808172
100
AcDbArc
 50
176.7247060505
 51
220.3814387876
  0
LINE
  5
17B
330
1F
100
AcDbEntity
  8
0
  6
Continuous
 62
     7
370
    25
100
AcDbLine
 10
235.975864594
 20
73.0741127373
 30
0.0
 11
233.2689127842
 21
68.3855339222
 31
0.0
  0
LINE
  5
17C
330
1F
100
AcDbEntity
  8
0
  6
Continuous
 62
     7
370
    25
100
AcDbLine
 10
224.0597282614
 20
52.4347584794
 30
0.0
 11
221.3525953518
 21
47.7458675113
 31
0.0
  0
LINE
  5
17D
330
1F
100
AcDbEntity
  8
0
  6
Continuous
 62
     7
370
    25
100
AcDbLine
 10
202.9974745672
 20
87.3768800318
 30
0.0
 11
223.8190658051
 21
75.5807973708
 31
0.0
  0
LINE
  5
17E
330
1F
100
AcDbEntity
  8
0
  6
Continuous
 62
     7
370
    25
100
AcDbLine
 10
192.3172962135
 20
59.8498302836
 30
0.0
 11
211.2107050227
 21
48.380734591
 31
0.0
  0
LINE
  5
17F
330
1F
100
AcDbEntity
  8
0
  6
Continuous
 62
     7
370
    25
100
AcDbLine
 10
219.2705291816
 20
33.6163393072
 30
0.0
 11
221.3556246565
 21
32.4122487694
 31
0.0
  0
LINE
  5
180
330
1F
100
AcDbEntity
  8
0
  6
Continuous
 62
     7
370
    25
100
AcDbLine
 10
249.9265326958
 20
80.6376658273
 30
0.0
 11
247.2329598761
 21
82.1931385708
 31
0.0
  0
LINE
  5
181
330
1F
100
AcDbEntity
  8
0
  6
Continuous
 62
     7
370
    25
100
AcDbLine
 10
219.0829599006
 20
33.4359085232
 30
0.0
 11
221.7777951501
 21
31.8797082785
 31
0.0
  0
LINE
  5
182
330
1F
100
AcDbEntity
  8
0
  6
Continuous
 62
     7
370
    25
100
AcDbLine
 10
211.5595627197
 20
92.319668312
 30
0.0
 11
230.8883850233
 21
81.9178428521
 31
0.0
  0
CIRCLE
  5
183
330
1F
100
AcDbEntity
  8
0
  6
Continuous
 62
     7
370
    18
100
AcDbCircle
 10
222.220686737
 20
153.5871516714
 30
0.0
 40
19.93818390646417
  0
LINE
  5
184
330
1F
100
AcDbEntity
  8
0
  6
Continuous
 62
     7
370
    25
100
AcDbLine
 10
213.6169976205
 20
152.3021142327
 30
0.0
 11
213.6169976205
 21
171.5731340789
 31
0.0
  0
LINE
  5
185
330
1F
100
AcDbEntity
  8
0
  6
Continuous
 62
     7
370
    25
100
AcDbLine
 10
213.6169976205
 20
135.6004941606
 30
0.0
 11
213.6169976205
 21
152.3021142327
 31
0.0
  0
LINE
  5
186
330
1F
100
AcDbEntity
  8
0
  6
Continuous
 62
     7
370
    25
100
AcDbLine
 10
212.6169993192
 20
171.0596605533
 30
0.0
 11
212.6169993192
 21
136.1139695489
 31
0.0
  0
LINE
  5
187
330
1F
100
AcDbEntity
  8
0
  6
Continuous
 62
     7
370
    25
100
AcDbLine
 10
202.6169995428
 20
149.9499712934
 30
0.0
 11
202.6169995428
 21
157.2236581103
 31
0.0
  0
LINE
  5
188
330
1F
100
AcDbEntity
  8
VERMASSUNG
100
AcDbLine
 10
225.7876919784
 20
152.4690642327
 30
0.0
 11
239.0209640641
 21
152.4690642327
 31
0.0
  0
LINE
  5
189
330
1F
100
AcDbEntity
  8
VERMASSUNG
100
AcDbLine
 10
231.5166988126
 20
144.0106245936
 30
0.0
 11
231.5166988126
 21
163.3008315767
 31
0.0
  0
CIRCLE
  5
18A
330
1F
100
AcDbEntity
  8
VERMASSUNG
100
AcDbCircle
 10
231.5166988126
 20
152.4690642327
 30
0.0
 40
1.237540079624176
  0
DIMENSION
  5
18B
330
1F
100
AcDbEntity
  8
VERMASSUNG
100
AcDbDimension
  2
_D_3
 10
246.1038155675
 20
152.3021142327
 30
0.0
 11
246.1038155675
 21
166.1996435284
 31
0.0
 70
   160
  1
<>
 71
     2
 42
-1.0
  3
SLDDIMSTYLE1
100
AcDbAlignedDimension
 13
239.0209640641
 23
152.4690642327
 33
0.0
 14
241.6093549365
 24
152.3021142327
 34
0.0
 50
90.0
100
AcDbRotatedDimension
  0
DIMENSION
  5
198
330
1F
100
AcDbEntity
  8
VERMASSUNG
100
AcDbDimension
  2
_D_4
 10
231.5166988126
 20
123.4853146898
 30
0.0
 11
222.5668488126
 21
123.4853146898
 31
0.0
 70
   160
  1
<>
 71
     2
 42
-1.0
  3
SLDDIMSTYLE2
100
AcDbAlignedDimension
 13
213.6169988126
 23
135.6004957904
 33
0.0
 14
231.5166988126
 24
144.0106245936
 34
0.0
100
AcDbRotatedDimension
  0
MTEXT
  5
1A4
330
1F
100
AcDbEntity
  8
VERMASSUNG
100
AcDbMText
 10
198.194160404
 20
189.1262289385
 30
0.0
 40
2.0
 41
0.0
 71
     2
 72
     1
  1
DETAIL B (5 : 1)
  7
SLDTEXTSTYLE1
 73
     1
 44
1.0
  0
INSERT
  5
1AA
330
1F
100
AcDbEntity
  8
VERMASSUNG
100
AcDbBlockReference
  2
SW_NOTE_0
 10
197.4651172529
 20
171.2246753046
 30
0.0
  0
LEADER
  5
1AC
330
1F
100
AcDbEntity
  8
VERMASSUNG
100
AcDbLeader
  3
SLDDIMSTYLE3
 76
     2
 10
230.6078208189
 20
153.3089727047
 30
0.0
 10
197.4651172529
 20
171.2246753046
 30
0.0
  0
INSERT
  5
1B3
330
1F
100
AcDbEntity
  8
VERMASSUNG
100
AcDbBlockReference
  2
SW_DOWELSYMBOL_1
 10
231.5166988126
 20
152.4690642327
 30
0.0
  0
LINE
  5
1B4
330
1F
100
AcDbEntity
  8
VERMASSUNG
  6
CENTERX2
370
    18
100
AcDbLine
 10
252.1312904194
 20
152.3021142327
 30
0.0
 11
192.310079385
 21
152.3021142327
 31
0.0
  0
OLE2FRAME
  5
1B5
330
1F
100
AcDbEntity
  8
0
100
AcDbOle2Frame
 70
     2
  3
Paintbrush-Bild
 10
13.8511154363
 20
38.264191557
 30
0.0
 11
51.6290888628
 21
31.9806341108
 31
0.0
 71
     2
 72
     0
 73
     1
 90
    12928
310
80552BED0767C5B32B40DDAF6807D121434000000000000000006FFBDDFB85D0
310
4940DDAF6807D121434000000000000000006FFBDDFB85D04940416F4BD60AFB
310
3F4000000000000000002BED0767C5B32B40416F4BD60AFB3F40000000000000
310
0000000000000100000000010000010000000100000000000100000000320000
310
D0CF11E0A1B11AE1000000000000000000000000000000003E000300FEFF0900
310
0600000000000000000000000100000001000000000000000010000002000000
310
01000000FEFFFFFF0000000000000000FFFFFFFFFFFFFFFFFFFFFFFFFFFFFFFF
310
FFFFFFFFFFFFFFFFFFFFFFFFFFFFFFFFFFFFFFFFFFFFFFFFFFFFFFFFFFFFFFFF
310
FFFFFFFFFFFFFFFFFFFFFFFFFFFFFFFFFFFFFFFFFFFFFFFFFFFFFFFFFFFFFFFF
310
FFFFFFFFFFFFFFFFFFFFFFFFFFFFFFFFFFFFFFFFFFFFFFFFFFFFFFFFFFFFFFFF
310
FFFFFFFFFFFFFFFFFFFFFFFFFFFFFFFFFFFFFFFFFFFFFFFFFFFFFFFFFFFFFFFF
310
FFFFFFFFFFFFFFFFFFFFFFFFFFFFFFFFFFFFFFFFFFFFFFFFFFFFFFFFFFFFFFFF
310
FFFFFFFFFFFFFFFFFFFFFFFFFFFFFFFFFFFFFFFFFFFFFFFFFFFFFFFFFFFFFFFF
310
FFFFFFFFFFFFFFFFFFFFFFFFFFFFFFFFFFFFFFFFFFFFFFFFFFFFFFFFFFFFFFFF
310
FFFFFFFFFFFFFFFFFFFFFFFFFFFFFFFFFFFFFFFFFFFFFFFFFFFFFFFFFFFFFFFF
310
FFFFFFFFFFFFFFFFFFFFFFFFFFFFFFFFFFFFFFFFFFFFFFFFFFFFFFFFFFFFFFFF
310
FFFFFFFFFFFFFFFFFFFFFFFFFFFFFFFFFFFFFFFFFFFFFFFFFFFFFFFFFFFFFFFF
310
FFFFFFFFFFFFFFFFFFFFFFFFFFFFFFFFFFFFFFFFFFFFFFFFFFFFFFFFFFFFFFFF
310
FFFFFFFFFFFFFFFFFFFFFFFFFFFFFFFFFFFFFFFFFFFFFFFFFFFFFFFFFFFFFFFF
310
FFFFFFFFFFFFFFFFFFFFFFFFFFFFFFFFFFFFFFFFFFFFFFFFFFFFFFFFFFFFFFFF
310
FDFFFFFFFEFFFFFFFEFFFFFFFEFFFFFF05000000060000000700000008000000
310
090000000A0000000B0000000C0000000D0000000E0000000F00000010000000
310
11000000120000001300000014000000150000001600000017000000FEFFFFFF
310
FFFFFFFFFFFFFFFFFFFFFFFFFFFFFFFFFFFFFFFFFFFFFFFFFFFFFFFFFFFFFFFF
310
FFFFFFFFFFFFFFFFFFFFFFFFFFFFFFFFFFFFFFFFFFFFFFFFFFFFFFFFFFFFFFFF
310
FFFFFFFFFFFFFFFFFFFFFFFFFFFFFFFFFFFFFFFFFFFFFFFFFFFFFFFFFFFFFFFF
310
FFFFFFFFFFFFFFFFFFFFFFFFFFFFFFFFFFFFFFFFFFFFFFFFFFFFFFFFFFFFFFFF
310
FFFFFFFFFFFFFFFFFFFFFFFFFFFFFFFFFFFFFFFFFFFFFFFFFFFFFFFFFFFFFFFF
310
FFFFFFFFFFFFFFFFFFFFFFFFFFFFFFFFFFFFFFFFFFFFFFFFFFFFFFFFFFFFFFFF
310
FFFFFFFFFFFFFFFFFFFFFFFFFFFFFFFFFFFFFFFFFFFFFFFFFFFFFFFFFFFFFFFF
310
FFFFFFFFFFFFFFFFFFFFFFFFFFFFFFFFFFFFFFFFFFFFFFFFFFFFFFFFFFFFFFFF
310
FFFFFFFFFFFFFFFFFFFFFFFFFFFFFFFFFFFFFFFFFFFFFFFFFFFFFFFFFFFFFFFF
310
FFFFFFFFFFFFFFFFFFFFFFFFFFFFFFFFFFFFFFFFFFFFFFFFFFFFFFFFFFFFFFFF
310
FFFFFFFFFFFFFFFFFFFFFFFFFFFFFFFFFFFFFFFFFFFFFFFFFFFFFFFFFFFFFFFF
310
FFFFFFFFFFFFFFFFFFFFFFFFFFFFFFFFFFFFFFFFFFFFFFFFFFFFFFFFFFFFFFFF
310
FFFFFFFFFFFFFFFFFFFFFFFFFFFFFFFFFFFFFFFFFFFFFFFFFFFFFFFFFFFFFFFF
310
52006F006F007400200045006E00740072007900000000000000000000000000
310
0000000000000000000000000000000000000000000000000000000000000000
310
16000500FFFFFFFFFFFFFFFF020000000A00030000000000C000000000000046
310
000000000000000000000000A049D50BD9AED30103000000C000000000000000
310
01004F006C006500000000000000000000000000000000000000000000000000
310
0000000000000000000000000000000000000000000000000000000000000000
310
0A000200FFFFFFFFFFFFFFFFFFFFFFFF00000000000000000000000000000000
310
0000000000000000000000000000000000000000000000001400000000000000
310
010043006F006D0070004F0062006A0000000000000000000000000000000000
310
0000000000000000000000000000000000000000000000000000000000000000
310
120002010100000003000000FFFFFFFF00000000000000000000000000000000
310
0000000000000000000000000000000000000000010000004D00000000000000
310
01004F006C006500310030004E00610074006900760065000000000000000000
310
0000000000000000000000000000000000000000000000000000000000000000
310
1A000200FFFFFFFFFFFFFFFFFFFFFFFF00000000000000000000000000000000
310
0000000000000000000000000000000000000000040000002426000000000000
310
FEFFFFFF02000000FEFFFFFFFFFFFFFFFFFFFFFFFFFFFFFFFFFFFFFFFFFFFFFF
310
FFFFFFFFFFFFFFFFFFFFFFFFFFFFFFFFFFFFFFFFFFFFFFFFFFFFFFFFFFFFFFFF
310
FFFFFFFFFFFFFFFFFFFFFFFFFFFFFFFFFFFFFFFFFFFFFFFFFFFFFFFFFFFFFFFF
310
FFFFFFFFFFFFFFFFFFFFFFFFFFFFFFFFFFFFFFFFFFFFFFFFFFFFFFFFFFFFFFFF
310
FFFFFFFFFFFFFFFFFFFFFFFFFFFFFFFFFFFFFFFFFFFFFFFFFFFFFFFFFFFFFFFF
310
FFFFFFFFFFFFFFFFFFFFFFFFFFFFFFFFFFFFFFFFFFFFFFFFFFFFFFFFFFFFFFFF
310
FFFFFFFFFFFFFFFFFFFFFFFFFFFFFFFFFFFFFFFFFFFFFFFFFFFFFFFFFFFFFFFF
310
FFFFFFFFFFFFFFFFFFFFFFFFFFFFFFFFFFFFFFFFFFFFFFFFFFFFFFFFFFFFFFFF
310
FFFFFFFFFFFFFFFFFFFFFFFFFFFFFFFFFFFFFFFFFFFFFFFFFFFFFFFFFFFFFFFF
310
FFFFFFFFFFFFFFFFFFFFFFFFFFFFFFFFFFFFFFFFFFFFFFFFFFFFFFFFFFFFFFFF
310
FFFFFFFFFFFFFFFFFFFFFFFFFFFFFFFFFFFFFFFFFFFFFFFFFFFFFFFFFFFFFFFF
310
FFFFFFFFFFFFFFFFFFFFFFFFFFFFFFFFFFFFFFFFFFFFFFFFFFFFFFFFFFFFFFFF
310
FFFFFFFFFFFFFFFFFFFFFFFFFFFFFFFFFFFFFFFFFFFFFFFFFFFFFFFFFFFFFFFF
310
FFFFFFFFFFFFFFFFFFFFFFFFFFFFFFFFFFFFFFFFFFFFFFFFFFFFFFFFFFFFFFFF
310
FFFFFFFFFFFFFFFFFFFFFFFFFFFFFFFFFFFFFFFFFFFFFFFFFFFFFFFFFFFFFFFF
310
FFFFFFFFFFFFFFFFFFFFFFFFFFFFFFFFFFFFFFFFFFFFFFFFFFFFFFFFFFFFFFFF
310
0100000200000000000000000000000000000000000000000000000000000000
310
0000000000000000000000000000000000000000000000000000000000000000
310
0100FEFF030A0000FFFFFFFF0A00030000000000C00000000000004607000000
310
5042727573680007000000504272757368000700000050427275736800F439B2
310
7100000000000000000000000000000000000000000000000000000000000000
310
0000000000000000000000000000000000000000000000000000000000000000
310
0000000000000000000000000000000000000000000000000000000000000000
310
0000000000000000000000000000000000000000000000000000000000000000
310
0000000000000000000000000000000000000000000000000000000000000000
310
0000000000000000000000000000000000000000000000000000000000000000
310
0000000000000000000000000000000000000000000000000000000000000000
310
0000000000000000000000000000000000000000000000000000000000000000
310
0000000000000000000000000000000000000000000000000000000000000000
310
0000000000000000000000000000000000000000000000000000000000000000
310
0000000000000000000000000000000000000000000000000000000000000000
310
0000000000000000000000000000000000000000000000000000000000000000
310
20260000424D0E260000000000003E00000028000000B40200006E0000000100
310
01000000000000000000130B0000130B00000200000002000000000000FFFFFF
310
FFFFFFFFFFFFFFFFFFFFFFFFFFFFFFFFFFFFFFFFFFFFFFFFFFFFFFFFFFFFFFFF
310
FFFFFFFFFFFFFFFFFFFFFFFFFFFFFFFFFFFFFFFFFFFFFFFFFFFFFFFFFFFFFFFF
310
FFFFFFFFFFFFFFFFFFFFFFFFFFFFFFFFFFFFFFFFFFFFFFFFF000FFFFFFFFFFFF
310
FFFFFFFFFFFFFFFFFFFFFFFFFFFFFFFFFFFFFFFFFFFFFFFFFFFFFFFFFFFFFFFF
310
FFFFFFFFFFFFFFFFFFFFFFFFFFFFFFFFFFFFFFFFFFFFFFFFFFFFFFFFFFFFFFFF
310
FFFFFFFFFFFFFFFFFFFFFFFFFFFFFFFFF000FFFFFFFFFFFFFFFFFFFFFFFFFFFF
310
FFFFFFFFFFFFFFFFFFFFFFFFFFFFFFFFFFFFFFFFFFFFFFFFFFFFFFFFFFFFFFFF
310
FFFFFFFFFFFFFFFFFFFFFFFFFFFFFFFFFFFFFFFFFFFFFFFFFFFFFFFFFFFFFFFF
310
FFFFFFFFFFFFFFFFF000FFFFFFFFFFFFFFFFFFFFFFFFFFFFFFFFFFFFFFFFFFFF
310
FFFFFFFFFFFFFFFFFFFFFFFFFFFFFFFFFFFFFFFFFFFFFFFFFFFFFFFFFFFFFFFF
310
FFFFFFFFFFFFFFFFFFFFFFFFFFFFFFFFFFFFFFFFFFFFFFFFFFFFFFFFFFFFFFFF
310
F000FFFFFFFFFFFFFFFFFFFFFFFFFFFFFFFFFFFFFFFFFFFFFFFFFFFFFFFFFFFF
310
FFFFFFFFFFFFFFFFFFFFFFFFFFFFFFFFFFFFFFFFFFFFFFFFFFFFFFFFFFFFFFFF
310
FFFFFFFFFFFFFFFFFFFFFFFFFFFFFFFFFFFFFFFFFFFFFFFFF000FFFFFFFFFFFF
310
FFFFFFFFFFFFFFFFFFFFFFFFFFFFFFFFFFFFFFFFFFFFFFFFFFFFFFFFFFFFFFFF
310
FFFFFFFFFFFFFFFFFFFFFFFFFFFFFFFFFFFFFFFFFFFFFFFFFFFFFFFFFFFFFFFF
310
FFFFFFFFFFFFFFFFFFFFFFFFFFFFFFFFF000FFFFFFFFFFFFFFFFFFFFFFFFFFFF
310
FFFFFFFFFFFFFFFFFFFFFFFFFFFFFFFFFFFFFFFFFFFFFFFFFFFFFFFFFFFFFFFF
310
FFFFFFFFFFFFFFFFFFFFFFFFFFFFFFFFFFFFFFFFFFFFFFFFFFFFFFFFFFFFFFFF
310
FFFFFFFFFFFFFFFFF000FFFFFFFFFFFFFFFFFFFFFFFFFFFFFFFFFFFFFFFFFFFF
310
FFFFFFFFFFFFFFFFFFFFFFFFFFFFFFFFFFFFFFFFFFFFFFFFFFFFFFFFFFFFFFFF
310
FFFFFFFFFFFFFFFFFFFFFFFFFFFFFFFFFFFFFFFFFFFFFFFFFFFFFFFFFFFFFFFF
310
F000FFFFFFFFFFFFFFFFFFFFFFFFFFFFFFFFFFFFFFFFFFFFFFFFFFFFFFFFFFFF
310
FFFFFFFFFFFFFFFFFFFFFFFFFFFFFFFFFFFFFFFFFFFFFFFFFFFFFFFFFFFFFFFF
310
FFFFFFFFFFFFFFFFFFFFFFFFFFFFFFFFFFFFFFFFFFFFFFFFF000FFFFFFFFFFFF
310
FFFFFFFFFFFFFFFFFFFFFFFFFFFFFFFFFFFFFFFFFFFFFFFFFFFFFFFFFFFFFFFF
310
FFFFFFFFFFFFFFFFFFFFFFFFFFFFFFFFFFFFFFFFFFFFFFFFFFFFFFFFFFFFFFFF
310
FFFFFFFFFFFFFFFFFFFFFFFFFFFFFFFFF000FFFFFFFFFFFFFFFFFFFFFFFFFFFF
310
FFFFFFFFFFFFFFFFFFFFFFFFFFFFFFFFFFFFFFFFFFFFFFFFFFFFFFFFFFFFFFFF
310
FFFFFFFFFFFFFFFFFFFFFFFFFFFFFFFFFFFFFFFFFFFFFFFFFFFFFFFFFFFFFFFF
310
FFFFFFFFFFFFFFFFF000FFFFFFFFFFFFFFFFFFFFFFFFFFFFFFFFFFFFFFFFFFFF
310
FFFFFFFFFFFFFFFFFFFFFFFFFFFFFFFFFFFFFFFFFFFFFFFFFFFFFFFFFFFFFFFF
310
FFFFFFFFFFFFFFFFFFFFFFFFFFFFFFFFFFFFFFFFFFFFFFFFFFFFFFFFFFFFFFFF
310
F000FFFFFFFFFFFFFFFFFFFFFFFFFFFFFFFFFFFFFFFFFFFFFFFFFFFFFFFFFFFF
310
FFFFFFFFFFFFFFFFFFFFFFFFFFFFFFFFFFFFFFFFFFFFFFFFFFFFFFFFFFFFFFFF
310
FFFFFFFFFFFFFFFFFFFFFFFFFFFFFFFFFFFFFFFFFFFFFFFFF000FFFFFFFFFFFF
310
FFFFFFFFFFFFFFFFFFFFFFFFFFFFFFFFFFFFFFFFFFFFFFFFFFFFFFFFFFFFFFFF
310
FFFFFFFFFFFFFFFFFFFFFFFFFFFFFFFFFFFFFFFFFFFFFFFFFFFFFFFFFFFFFFFF
310
FFFFFFFFFFFFFFFFFFFFFFFFFFFFFFFFF000FFFFFFFFFFFFFFFFFFFFFFFFFFFF
310
FFFFFFFFFFFFFFFFFFFFFFFFFFFFFFFFFFFFFFFFFFFFFFFFFFFFFFFFFFFFFFFF
310
FFFFFFFFFFFFFFFFFFFFFFFFFFFFFFFFFFFFFFFFFFFFFFFFFFFFFFFFFFFFFFFF
310
FFFFFFFFFFFFFFFFF000FFFFFFFFFFFFFFFFFFFFFFFFFFFFFFFFFFFFFFFFFFFF
310
FFFFFFFFFFFFFFFFFFFFFFFFFFFFFFFFFFFFFFFFFFFFFFFFFFFFFFFFFFFFFFFF
310
FFFFFFFFFFFFFFFFFFFFFFFFFFFFFFFFFFFFFFFFFFFFFFFFFFFFFFFFFFFFFFFF
310
F000FFFFFFFFFFFFFFFFFFFFFFFFFFFFFFFFFFFFFFFFFFFFFFFFFFFFFFFFFFFF
310
FFFFFFFFFFFFFFFFFFFFFFFFFFFFFFFFFFFFFFFFFFFFFFFFFFFFFFFFFFFFFFFF
310
FFFFFFFFFFFFFFFFFFFFFFFFFFFFFFFFFFFFFFFFFFFFFFFFF000FFFFFFFFFFFF
310
FFFFFFFFFFFFFFFFFFFFFFFFFFFFFFFFFFFFFFFFFFFFFFFFFFFFFFFFFFFFFFFF
310
FFFFFFFFFFFFFFFFFFFFFFFFFFFFFFFFFFFFFFFFFFFFFFFFFFFFFFFFFFFFFFFF
310
FFFFFFFFFFFFFFFFFFFFFFFFFFFFFFFFF000FFFFFFFFFFFFFFFFFFFFFFFFFFFF
310
FFFFFFFFFFFFFFFFFFFFFFFFFFFFFFFFFFFFFFFFFFFFFFFFFFFFFFFFFFFFFFFF
310
FFFFFFFFFFFFFFFFFFFFFFFFFFFFFFFFFFFFFFFFFFFFFFFFFFFFFFFFFFFFFFFF
310
FFFFFFFFFFFFFFFFF000FFFFF80003FFFFFFFFFFFFFFFFFFFFFFFFFFFFFFFFFF
310
FFFFF00007FFFFFFFFFF00007FFFFFF800000000000000007FFFFFFFFFFFFFFF
310
FFFFFFFC001FFFFFFFFFFFFFFC001FFFFFFFFFFFFFFFFFFFFFFFFFFE0007FFFF
310
F000FFFF8000007FFFFFFFF8000FFFFFC0007FFFFF80007FFFFF0000007FFFFF
310
FFF8000007FFFFF800000000000000007FFFFFF0001FFFFFFFFFFFC00001FFFF
310
FFFFFFFFC00001FFFFFFFF000000000003FFFFE000007FFFF000FFFE0000000F
310
FFFFFFF0000FFFFF80007FFFFF80007FFFFC0000001FFFFFFFC0000001FFFFF8
310
00000000000000007FFFFFF0001FFFFFFFFFFE0000003FFFFFFFFFFE0000003F
310
FFFFFF000000000003FFFF0000000FFFF000FFF800000003FFFFFFF00007FFFF
310
80007FFFFF80007FFFF000000007FFFFFF000000003FFFF80000000000000000
310
7FFFFFF0001FFFFFFFFFF80000000FFFFFFFFFF80000000FFFFFFF0000000000
310
03FFFC00000003FFF000FFE000000000FFFFFFF00007FFFF80003FFFFF80007F
310
FFC000000001FFFFFC000000001FFFF800000000000000007FFFFFF0001FFFFF
310
FFFFE000000003FFFFFFFFE000000003FFFFFF000000000003FFF000000000FF
310
F000FF80000000007FFFFFF00007FFFF80003FFFFF80007FFF8000000000FFFF
310
F80000000007FFF800000000000000007FFFFFF0001FFFFFFFFFC000000001FF
310
FFFFFFC000000001FFFFFF000000000003FFC0000000007FF000FF0000000000
310
3FFFFFE00007FFFF00003FFFFF80007FFE00000000003FFFF00000000003FFF8
310
00000000000000007FFFFFF0001FFFFFFFFF8000000000FFFFFFFF8000000000
310
FFFFFF000000000003FF80000000003FF000FE00000000001FFFFFE00003FFFF
310
00003FFFFF80007FFC00000000001FFFE00000000001FFF8000001FFFE000000
310
7FFFFFF0001FFFFFFFFE00000000003FFFFFFE00000000003FFFFF0000000000
310
03FF00000000001FF000FC00000000000FFFFFE00003FFFF00001FFFFF80007F
310
F800000000001FFFC00000000000FFF8000001FFFE0000007FFFFFF0001FFFFF
310
FFFC00000000001FFFFFFC00000000001FFFFF000000000003FE00000000000F
310
F000F8000000000007FFFFE00003FFFF00001FFFFF80007FF800000000000FFF
310
800000000000FFF8000001FFFE0000007FFFFFF0001FFFFFFFF800000000000F
310
FFFFF800000000000FFFFF000000000003FC000000000007F000F80000000000
310
03FFFFC00003FFFE00001FFFFF80007FF0000000000007FF0000000000007FF8
310
000001FFFE0000007FFFFFF0001FFFFFFFF0000000000007FFFFF00000000000
310
07FFFF000000000003F8000000000003F000F0000000000003FFFFC00001FFFE
310
00001FFFFF80007FE0000000000007FE0000000000003FF8000001FFFE000000
310
7FFFFFF0001FFFFFFFF0000000000007FFFFF0000000000007FFFF0000000000
310
03F800001F800003F000E00001FFF00001FFFFC00001FFFE00000FFFFF80007F
310
E00001FFE00003FE00001FFF00003FF8000001FFFE0000007FFFFFF0001FFFFF
310
FFE000003E000003FFFFE000003E000003FFFF000000000003F00001FFF80001
310
F000E00007FFFC0001FFFFC00001FFFE00000FFFFF80007FC0000FFFFC0003FC
310
0000FFFFC0001FF8000001FFFE0000007FFFFFF0001FFFFFFFC00003FFE00001
310
FFFFC00003FFE00001FFFF0001FFFFFFFFF00007FFFE0001F000E0000FFFFF00
310
00FFFF800001FFFC00000FFFFF80007FC0001FFFFE0001FC0001FFFFE0001FF8
310
000001FFFE0000007FFFFFF0001FFFFFFF80000FFFF80000FFFF80000FFFF800
310
00FFFF0003FFFFFFFFE0000FFFFF8000F000C0003FFFFF8000FFFF800000FFFC
310
000007FFFF80007F80003FFFFF0001FC0003FFFFF0001FF8000001FFFE000000
310
7FFFFFF0001FFFFFFF80003FFFFE0000FFFF80003FFFFE0000FFFF0003FFFFFF
310
FFE0003FFFFF8000F000C0003FFFFF8000FFFF800000FFFC000007FFFF80007F
310
80007FFFFF8001F80007FFFFF8000FF8000001FFFE0000007FFFFFF0001FFFFF
310
FF00007FFFFF00007FFF00007FFFFF00007FFF0003FFFFFFFFE0003FFFFFC000
310
F000C0007FFFFFC000FFFF000000FFFC000007FFFF80007F8000FFFFFF8000F8
310
000FFFFFF8000FF8000001FFFE0000007FFFFFF0001FFFFFFF0000FFFFFF8000
310
7FFF0000FFFFFF80007FFF0003FFFFFFFFC0007FFFFFC00070008000FFFFFFC0
310
00FFFF000000FFF8000007FFFF80007F8000FFFFFF8000F8000FFFFFF8000FF8
310
000001FFFE0000007FFFFFF0001FFFFFFE0001FFFFFFC0003FFE0001FFFFFFC0
310
003FFF0003FFFFFFFFC0007FFFFFE00070008000FFFFFFC0007FFF0000007FF8
310
000003FFFF80007F0001FFFFFF8000F8000FFFFFF8000FF8000001FFFE000000
310
7FFFFFF0001FFFFFFE0001FFFFFFC0003FFE0001FFFFFFC0003FFF0003FFFFFF
310
FFC000FFFFFFE00070008000FFFFFFC0007FFF0000007FF8000003FFFF80007F
310
0001FFFFFF8000F8001FFFFFF8000FF8000001FFFE0000007FFFFFF0001FFFFF
310
FE0003FFFFFFE0003FFE0003FFFFFFE0003FFF0003FFFFFFFFC000FFFFFFE000
310
70008000FFFFFFC0007FFE0000007FF8000003FFFF80007F0001FFFFFF8000F0
310
001FFFFFF8000FF8000001FFFE0000007FFFFFF0001FFFFFFC0003FFFFFFE000
310
1FFC0003FFFFFFE0001FFF0003FFFFFFFFC000FFFFFFC00070008000FFFFFF80
310
007FFE0000007FF0000003FFFF80007F0001FFFFFF0000F0001FFFFFF8000FF8
310
000001FFFE0000007FFFFFF0001FFFFFFC0007FFFFFFF0001FFC0007FFFFFFF0
310
001FFF0003FFFFFFFFC000FFFFFFC00070008001FFFFFF0000FFFE0000003FF0
310
000001FFFF80007F0001FFFFFF0000F8001FFFFFF0000FF8000001FFFE000000
310
7FFFFFF0001FFFFFFC0007FFFFFFF0001FFC0007FFFFFFF0001FFF0003FFFFFF
310
FFC001FFFFFF80007000FFFFFFFFFE0000FFFE0008003FF0008001FFFF80007F
310
FFFFFFFFFC0000FFFFFFFFFFE0000FF8000001FFFE0000007FFFFFF0001FFFFF
310
F8000FFFFFFFF8000FF8000FFFFFFFF8000FFF0003FFFFFFFFFFFFFFFFFF0000
310
7000FFFFFFFFFC0000FFFC0008003FF0008001FFFF80007FFFFFFFFFF80001FF
310
FFFFFFFF80000FF8000001FFFE0000007FFFFFF0001FFFFFF8000FFFFFFFF800
310
0FF8000FFFFFFFF8000FFF0003FFFFFFFFFFFFFFFFFE0000F000FFFFFFFFE000
310
00FFFC000C003FE000C001FFFF80007FFFFFFFFFC00001FFFFFFFFFE00001FF8
310
000001FFFE0000007FFFFFF0001FFFFFF8000FFFFFFFF8000FF8000FFFFFFFF8
310
000FFF0003FFFFFFFFFFFFFFFFF00000F000FFFFFFFE000001FFFC000C001FE0
310
00C000FFFF80007FFFFFFFFE000001FFFFFFFFE000001FF80FFFFFFFFFFFFFC0
310
7FFFFFF0001FFFFFF8000FFFFFFFF8000FF8000FFFFFFFF8000FFF0003FFFFFF
310
FFFFFFFFFF800000F000FFFFFFC0000001FFFC001C001FE001C000FFFF80007F
310
FFFFFF80000003FFFFFFF80000001FF80FFFFFFFFFFFFFC07FFFFFF0001FFFFF
310
F8001FFFFFFFFC000FF8001FFFFFFFFC000FFF0003FFFFFFFFFFFFFFF0000001
310
F000FFFFF800000001FFF8001C001FE001C000FFFF80007FFFFFF800000003FF
310
FFFF800000003FF80FFFFFFFFFFFFFC07FFFFFF0001FFFFFF8001FFFFFFFFC00
310
0FF8001FFFFFFFFC000FFF0003FFFFFFFFFFFFFE00000001F000FFFFC0000000
310
03FFF8001E001FC001E000FFFF80007FFFFF8000000007FFFFFC000000003FF8
310
0FFFFFFFFFFFFFC07FFFFFF0001FFFFFF8001FFFFFFFFC000FF8001FFFFFFFFC
310
000FFF0003FFFFFFFFFFFFE000000003F000FFFE0000000007FFF8001E000FC0
310
01E0007FFF80007FFFFE0000000007FFFFE0000000007FF80FFFFFFFFFFFFFC0
310
7FFFFFF0001FFFFFF0001FFFFFFFFC0007F0001FFFFFFFFC0007FF0003FFFFFF
310
FFFFFF0000000003F000FFF80000000007FFF8001E000FC003E0007FFF80007F
310
FFF0000000000FFFFF8000000000FFF80FFFFFFFFFFFFFC07FFFFFF0001FFFFF
310
F0001FFFFFFFFC0007F0001FFFFFFFFC0007FF0003FFFFFFFFFFFC0000000007
310
F000FFE0000000000FFFF0003E000FC003E0007FFF80007FFFC0000000001FFF
310
FE0000000001FFF80FFFFFFFFFFFFFC07FFFFFF0001FFFFFF0001FFFFFFFFC00
310
07F0001FFFFFFFFC0007FF0003FFFFFFFFFFF0000000000FF000FFC000000000
310
1FFFF0003F000F8003F0003FFF80007FFF80000000003FFFF80000000003FFF8
310
0FFFFFFFFFFFFFC07FFFFFF0001FFFFFF0001FFFFFFFFC0007F0001FFFFFFFFC
310
0007FF0003FFFFFFFFFFE0000000001FF000FF00000000007FFFF0003F000780
310
03F0003FFF80007FFF00000000007FFFF00000000007FFF80FFFFFFFFFFFFFC0
310
7FFFFFF0001FFFFFF0001FFFFFFFFC0007F0001FFFFFFFFC0007FF0003FFFFFF
310
FFFF80000000007FF000FE0000000000FFFFE0003F00078007F0003FFF80007F
310
FE0000000001FFFFE0000000001FFFF80FFFFFFFFFFFFFC07FFFFFF0001FFFFF
310
F0001FFFFFFFFC0007F0001FFFFFFFFC0007FF0003FFFFFFFFFF0000000000FF
310
F000FC0000000003FFFFE0007F00078007F0003FFF80007FFC0000000007FFFF
310
C0000000007FFFF80FFFFFFFFFFFFFC07FFFFFF0001FFFFFF8001FFFFFFFFC00
310
0FF8001FFFFFFFFC000FFF0003FFFFFFFFFE0000000003FFF000FC000000000F
310
FFFFE0007F80070007F8001FFF80007FF8000000001FFFFF8000000001FFFFF8
310
0FFFFFFFFFFFFFC07FFFFFF0001FFFFFF8001FFFFFFFFC000FF8001FFFFFFFFC
310
000FFF0003FFFFFFFFFC000000000FFFF000F8000000007FFFFFE0007F800700
310
07F8001FFF80007FF000000000FFFFFF800000000FFFFFF80FFFFFFFFFFFFFC0
310
7FFFFFF0001FFFFFF8000FFFFFFFF8000FF8000FFFFFFFF8000FFF0003FFFFFF
310
FFFC000000007FFFF000F800000007FFFFFFC0007F8003000FF8001FFF80007F
310
F000000007FFFFFF000000007FFFFFF80FFFFFFFFFFFFFC07FFFFFF0001FFFFF
310
F8000FFFFFFFF8000FF8000FFFFFFFF8000FFF0003FFFFFFFFF80000000FFFFF
310
F000F0000000FFFFFFFFC000FF8003000FF8001FFF80007FE0000000FFFFFFFF
310
0000000FFFFFFFF8000001FFFE0000007FFFFFF0001FFFFFF8000FFFFFFFF800
310
0FF8000FFFFFFFF8000FFF0003FFFFFFFFF8000000FFFFFFF000F000000FFFFF
310
FFFFC000FFC002000FF8000FFF80007FE000001FFFFFFFFE000001FFFFFFFFF8
310
000001FFFE0000007FFFFFF0001FFFFFF8000FFFFFFFF8000FF8000FFFFFFFF8
310
000FFF0003FFFFFFFFF000001FFFFFFFF000E00000FFFFFFFFFFC000FFC00200
310
0FFC000FFF80007FE00001FFFFFFFFFE00001FFFFFFFFFF8000001FFFE000000
310
7FFFFFF0001FFFFFFC000FFFFFFFF8001FFC000FFFFFFFF8001FFF0003FFFFFF
310
FFF00001FFFFFFFFF000E00007FFFFFFFFFF8000FFC000001FFC000FFF80007F
310
C0000FFFFFFFFFFE0000FFFFFFFFFFF8000001FFFE0000007FFFFFF0001FFFFF
310
FC0007FFFFFFF0001FFC0007FFFFFFF0001FFF0003FFFFFFFFF00007FFFFFFFF
310
F000E0001FFFFFFFFFFF8000FFC000001FFC000FFF80007FC0003FFFFFFFFFFE
310
0001FFFFFFFFFFF8000001FFFE0000007FFFFFF0001FFFFFFC0007FFFFFFF000
310
1FFC0007FFFFFFF0001FFF0003FFFFFFFFF0001FFFFFFFFFF000E0003FFFFF00
310
03FF8001FFE000001FFC0007FF80007FC0007FFFFF0007FC0003FFFFF0003FF8
310
000001FFFE0000007FFFFFF0001FFFFFFC0003FFFFFFE0001FFC0003FFFFFFE0
310
001FFF0003FFFFFFFFF0003FFFFFFFFFF000E0003FFFFF0001FF8001FFE00000
310
1FFE0007FF80007FC0007FFFFE0003FC0007FFFFE0003FF8000001FFFE000000
310
7FFFFFF0001FFFFFFE0003FFFFFFE0003FFE0003FFFFFFE0003FFF0003FFFFFF
310
FFF0003FFFFF8001F000E0003FFFFF0001FF0001FFE000001FFE0007FF80007F
310
C0007FFFFE0003FC0007FFFFE0003FF8000001FFFE0000007FFFFFF0001FFFFF
310
FE0001FFFFFFC0003FFE0001FFFFFFC0003FFF0003FFFFFFFFF0003FFFFF0001
310
F000E0003FFFFF0003FF0001FFE000003FFE0007FF80007FC0007FFFFE0003FC
310
0007FFFFE0003FF8000001FFFE0000007FFFFFF0001FFFFFFF0001FFFFFFC000
310
7FFF0001FFFFFFC0007FFF0003FFFFFFFFF0003FFFFF0001F000E0003FFFFE00
310
03FF0003FFF000003FFE0003FF80007FC0007FFFFC0003FE0007FFFFE0003FF8
310
000001FFFE0000007FFFFFF0001FFFFFFF0000FFFFFF80007FFF0000FFFFFF80
310
007FFF0003FFFFFFFFF0003FFFFF0001F000E0003FFFFE0003FF0003FFF00000
310
3FFF0003FF80007FC0007FFFFC0007FE0007FFFFC0003FF8000001FFFE000000
310
7FFFFFF0001FFFFFFF80007FFFFF0000FFFF80007FFFFF0000FFFF0003FFFFFF
310
FFF0003FFFFF0003F000E0003FFFFC0003FE0003FFF000003FFF0003FF80007F
310
E0003FFFF80007FE0003FFFFC0007FF8000001FFFE0000007FFFFFF0001FFFFF
310
FF80003FFFFE0000FFFF80003FFFFE0000FFFF0003FFFFFFFFF0001FFFFE0003
310
F000F0001FFFF80003FE0003FFF000007FFF0001FF80007FE0003FFFF00007FE
310
0001FFFF80007FF8000001FFFE0000007FFFFFF0001FFFFFFFC0000FFFF80001
310
FFFFC0000FFFF80001FFFF0003FFFFFFFFF0001FFFFC0003F000F0000FFFF000
310
07FE0007FFF800007FFF0001FF80007FE0001FFFE00007FF0000FFFE00007FF8
310
000001FFFE0000007FFFFFF0001FFFFFFFC00003FFE00001FFFFC00003FFE000
310
01FFFF0003FFFFFFFFF8000FFFF80003F000F00003FFC00007FC0007FFF80000
310
7FFF8001FF80007FF00007FF80000FFF00007FF80000FFF8000001FFFE000000
310
7F80000000000001FFE000003E000003FFFFE000003E000003FFFF0003FFFFFF
310
FFF80003FFE00007F000F800000000000FFC0007FFF800007FFF8001FF80007F
310
F000000000000FFF000000000000FFF8000001FFFE0000007F80000000000001
310
FFF0000000000007FFFFF0000000000007FFFF0003FFFFFFFFFC00007E000007
310
F000F800000000000FFC0007FFF80000FFFF8000FF80007FF800000000001FFF
310
800000000001FFF8000001FFFE0000007F80000000000001FFF800000000000F
310
FFFFF800000000000FFFFF0003FFFFFFFFFC00000000000FF000FC0000000000
310
1FFC0007FFFC0000FFFF8000FF80007FF800000000003FFFC00000000001FFF8
310
000001FFFE0000007F80000000000001FFF800000000000FFFFFF80000000000
310
0FFFFF0003FFFFFFFFFE00000000001FF000FE00000000003FF8000FFFFC0000
310
FFFF8000FF80007FFC00000000003FFFC00000000003FFF8000001FFFE000000
310
7F80000000000001FFFC00000000001FFFFFFC00000000001FFFFF0003FFFFFF
310
FFFF00000000001FF000FF00000000003FF8000FFFFC0000FFFFC000FF80007F
310
FE00000000007FFFE00000000007FFF8000001FFFE0000007F80000000000001
310
FFFE00000000003FFFFFFE00000000003FFFFF0003FFFFFFFFFF80000000003F
310
F000FF80000000007FF8000FFFFC0001FFFFC0007F80007FFF0000000000FFFF
310
F0000000000FFFF800000000000000007F80000000000001FFFF8000000000FF
310
FFFFFF8000000000FFFFFF0003FFFFFFFFFFC0000000007FF000FFC000000000
310
FFF8000FFFFE0001FFFFC0007F80007FFF8000000001FFFFF8000000001FFFF8
310
00000000000000007F80000000000001FFFFC000000001FFFFFFFFC000000001
310
FFFFFF0003FFFFFFFFFFE000000000FFF000FFE000000003FFF0001FFFFE0001
310
FFFFC0007F80007FFFC000000007FFFFFE000000003FFFF80000000000000000
310
7F80000000000001FFFFE000000003FFFFFFFFE000000003FFFFFF0003FFFFFF
310
FFFFF000000003FFF000FFF80000000FFFF0001FFFFE0001FFFFE0007F80007F
310
FFF00000000FFFFFFF00000000FFFFF800000000000000007F80000000000001
310
FFFFF80000000FFFFFFFFFF80000000FFFFFFF0003FFFFFFFFFFFC0000000FFF
310
F000FFFE0000003FFFF0001FFFFE0003FFFFE0003F80007FFFFC0000003FFFFF
310
FFC0000003FFFFF800000000000000007F80000000000001FFFFFE0000003FFF
310
FFFFFFFE0000003FFFFFFF0003FFFFFFFFFFFF0000003FFFF000FFFF800000FF
310
FFF0001FFFFF0003FFFFE0003F80007FFFFF000001FFFFFFFFF800001FFFFFF8
310
00000000000000007F80000000000001FFFFFFC00001FFFFFFFFFFFFC00001FF
310
FFFFFF0003FFFFFFFFFFFFC00000FFFFF000FFFFF8000FFFFFFFFFFFFFFFFFFF
310
FFFFFFFFFFFFFFFFFFFFF0001FFFFFFFFFFF0000FFFFFFF80000000000000000
310
7FFFFFFFFFFFFFFFFFFFFFFC001FFFFFFFFFFFFFFC001FFFFFFFFFFFFFFFFFFF
310
FFFFFFFC001FFFFFF000FFFFFFFFFFFFFFFFFFFFFFFFFFFFFFFFFFFFFFFFFFFF
310
FFFFFFFFFFFFFFFFFFFFFFFFFFFFFFFFFFFFFFFFFFFFFFFFFFFFFFFFFFFFFFFF
310
FFFFFFFFFFFFFFFFFFFFFFFFFFFFFFFFFFFFFFFFFFFFFFFFFFFFFFFFFFFFFFFF
310
F000FFFFFFFFFFFFFFFFFFFFFFFFFFFFFFFFFFFFFFFFFFFFFFFFFFFFFFFFFFFF
310
FFFFFFFFFFFFFFFFFFFFFFFFFFFFFFFFFFFFFFFFFFFFFFFFFFFFFFFFFFFFFFFF
310
FFFFFFFFFFFFFFFFFFFFFFFFFFFFFFFFFFFFFFFFFFFFFFFFF000FFFFFFFFFFFF
310
FFFFFFFFFFFFFFFFFFFFFFFFFFFFFFFFFFFFFFFFFFFFFFFFFFFFFFFFFFFFFFFF
310
FFFFFFFFFFFFFFFFFFFFFFFFFFFFFFFFFFFFFFFFFFFFFFFFFFFFFFFFFFFFFFFF
310
FFFFFFFFFFFFFFFFFFFFFFFFFFFFFFFFF000FFFFFFFFFFFFFFFFFFFFFFFFFFFF
310
FFFFFFFFFFFFFFFFFFFFFFFFFFFFFFFFFFFFFFFFFFFFFFFFFFFFFFFFFFFFFFFF
310
FFFFFFFFFFFFFFFFFFFFFFFFFFFFFFFFFFFFFFFFFFFFFFFFFFFFFFFFFFFFFFFF
310
FFFFFFFFFFFFFFFFF000FFFFFFFFFFFFFFFFFFFFFFFFFFFFFFFFFFFFFFFFFFFF
310
FFFFFFFFFFFFFFFFFFFFFFFFFFFFFFFFFFFFFFFFFFFFFFFFFFFFFFFFFFFFFFFF
310
FFFFFFFFFFFFFFFFFFFFFFFFFFFFFFFFFFFFFFFFFFFFFFFFFFFFFFFFFFFFFFFF
310
F000FFFFFFFFFFFFFFFFFFFFFFFFFFFFFFFFFFFFFFFFFFFFFFFFFFFFFFFFFFFF
310
FFFFFFFFFFFFFFFFFFFFFFFFFFFFFFFFFFFFFFFFFFFFFFFFFFFFFFFFFFFFFFFF
310
FFFFFFFFFFFFFFFFFFFFFFFFFFFFFFFFFFFFFFFFFFFFFFFFF000FFFFFFFFFFFF
310
FFFFFFFFFFFFFFFFFFFFFFFFFFFFFFFFFFFFFFFFFFFFFFFFFFFFFFFFFFFFFFFF
310
FFFFFFFFFFFFFFFFFFFFFFFFFFFFFFFFFFFFFFFFFFFFFFFFFFFFFFFFFFFFFFFF
310
FFFFFFFFFFFFFFFFFFFFFFFFFFFFFFFFF000FFFFFFFFFFFFFFFFFFFFFFFFFFFF
310
FFFFFFFFFFFFFFFFFFFFFFFFFFFFFFFFFFFFFFFFFFFFFFFFFFFFFFFFFFFFFFFF
310
FFFFFFFFFFFFFFFFFFFFFFFFFFFFFFFFFFFFFFFFFFFFFFFFFFFFFFFFFFFFFFFF
310
FFFFFFFFFFFFFFFFF000FFFFFFFFFFFFFFFFFFFFFFFFFFFFFFFFFFFFFFFFFFFF
310
FFFFFFFFFFFFFFFFFFFFFFFFFFFFFFFFFFFFFFFFFFFFFFFFFFFFFFFFFFFFFFFF
310
FFFFFFFFFFFFFFFFFFFFFFFFFFFFFFFFFFFFFFFFFFFFFFFFFFFFFFFFFFFFFFFF
310
F000FFFFFFFFFFFFFFFFFFFFFFFFFFFFFFFFFFFFFFFFFFFFFFFFFFFFFFFFFFFF
310
FFFFFFFFFFFFFFFFFFFFFFFFFFFFFFFFFFFFFFFFFFFFFFFFFFFFFFFFFFFFFFFF
310
FFFFFFFFFFFFFFFFFFFFFFFFFFFFFFFFFFFFFFFFFFFFFFFFF000FFFFFFFFFFFF
310
FFFFFFFFFFFFFFFFFFFFFFFFFFFFFFFFFFFFFFFFFFFFFFFFFFFFFFFFFFFFFFFF
310
FFFFFFFFFFFFFFFFFFFFFFFFFFFFFFFFFFFFFFFFFFFFFFFFFFFFFFFFFFFFFFFF
310
FFFFFFFFFFFFFFFFFFFFFFFFFFFFFFFFF000FFFFFFFFFFFFFFFFFFFFFFFFFFFF
310
FFFFFFFFFFFFFFFFFFFFFFFFFFFFFFFFFFFFFFFFFFFFFFFFFFFFFFFFFFFFFFFF
310
FFFFFFFFFFFFFFFFFFFFFFFFFFFFFFFFFFFFFFFFFFFFFFFFFFFFFFFFFFFFFFFF
310
FFFFFFFFFFFFFFFFF000FFFFFFFFFFFFFFFFFFFFFFFFFFFFFFFFFFFFFFFFFFFF
310
FFFFFFFFFFFFFFFFFFFFFFFFFFFFFFFFFFFFFFFFFFFFFFFFFFFFFFFFFFFFFFFF
310
FFFFFFFFFFFFFFFFFFFFFFFFFFFFFFFFFFFFFFFFFFFFFFFFFFFFFFFFFFFFFFFF
310
F000FFFFFFFFFFFFFFFFFFFFFFFFFFFFFFFFFFFFFFFFFFFFFFFFFFFFFFFFFFFF
310
FFFFFFFFFFFFFFFFFFFFFFFFFFFFFFFFFFFFFFFFFFFFFFFFFFFFFFFFFFFFFFFF
310
FFFFFFFFFFFFFFFFFFFFFFFFFFFFFFFFFFFFFFFFFFFFFFFFF000FFFFFFFFFFFF
310
FFFFFFFFFFFFFFFFFFFFFFFFFFFFFFFFFFFFFFFFFFFFFFFFFFFFFFFFFFFFFFFF
310
FFFFFFFFFFFFFFFFFFFFFFFFFFFFFFFFFFFFFFFFFFFFFFFFFFFFFFFFFFFFFFFF
310
FFFFFFFFFFFFFFFFFFFFFFFFFFFFFFFFF000FFFFFFFFFFFFFFFFFFFFFFFFFFFF
310
FFFFFFFFFFFFFFFFFFFFFFFFFFFFFFFFFFFFFFFFFFFFFFFFFFFFFFFFFFFFFFFF
310
FFFFFFFFFFFFFFFFFFFFFFFFFFFFFFFFFFFFFFFFFFFFFFFFFFFFFFFFFFFFFFFF
310
FFFFFFFFFFFFFFFFF000FFFFFFFFFFFFFFFFFFFFFFFFFFFFFFFFFFFFFFFFFFFF
310
FFFFFFFFFFFFFFFFFFFFFFFFFFFFFFFFFFFFFFFFFFFFFFFFFFFFFFFFFFFFFFFF
310
FFFFFFFFFFFFFFFFFFFFFFFFFFFFFFFFFFFFFFFFFFFFFFFFFFFFFFFFFFFFFFFF
310
F000FFFFFFFFFFFFFFFFFFFFFFFFFFFFFFFFFFFFFFFFFFFFFFFFFFFFFFFFFFFF
310
FFFFFFFFFFFFFFFFFFFFFFFFFFFFFFFFFFFFFFFFFFFFFFFFFFFFFFFFFFFFFFFF
310
FFFFFFFFFFFFFFFFFFFFFFFFFFFFFFFFFFFFFFFFFFFFFFFFF000FFFFFFFFFFFF
310
FFFFFFFFFFFFFFFFFFFFFFFFFFFFFFFFFFFFFFFFFFFFFFFFFFFFFFFFFFFFFFFF
310
FFFFFFFFFFFFFFFFFFFFFFFFFFFFFFFFFFFFFFFFFFFFFFFFFFFFFFFFFFFFFFFF
310
FFFFFFFFFFFFFFFFFFFFFFFFFFFFFFFFF000FFFFFFFFFFFFFFFFFFFFFFFFFFFF
310
FFFFFFFFFFFFFFFFFFFFFFFFFFFFFFFFFFFFFFFFFFFFFFFFFFFFFFFFFFFFFFFF
310
FFFFFFFFFFFFFFFFFFFFFFFFFFFFFFFFFFFFFFFFFFFFFFFFFFFFFFFFFFFFFFFF
310
FFFFFFFFFFFFFFFFF000FFFFFFFFFFFFFFFFFFFFFFFFFFFFFFFFFFFFFFFFFFFF
310
FFFFFFFFFFFFFFFFFFFFFFFFFFFFFFFFFFFFFFFFFFFFFFFFFFFFFFFFFFFFFFFF
310
FFFFFFFFFFFFFFFFFFFFFFFFFFFFFFFFFFFFFFFFFFFFFFFFFFFFFFFFFFFFFFFF
310
F000FFFFFFFFFFFFFFFFFFFFFFFFFFFFFFFFFFFFFFFFFFFFFFFFFFFFFFFFFFFF
310
FFFFFFFFFFFFFFFFFFFFFFFFFFFFFFFFFFFFFFFFFFFFFFFFFFFFFFFFFFFFFFFF
310
FFFFFFFFFFFFFFFFFFFFFFFFFFFFFFFFFFFFFFFFFFFFFFFFF000FFFFFFFFFFFF
310
FFFFFFFFFFFFFFFFFFFFFFFFFFFFFFFFFFFFFFFFFFFFFFFFFFFFFFFFFFFFFFFF
310
FFFFFFFFFFFFFFFFFFFFFFFFFFFFFFFFFFFFFFFFFFFFFFFFFFFFFFFFFFFFFFFF
310
FFFFFFFFFFFFFFFFFFFFFFFFFFFFFFFFF0000000000000000000000000000000
310
0000000000000000000000000000000000000000000000000000000000000000
310
0000000000000000000000000000000000000000000000000000000000000000
310
0000000000000000000000000000000000000000000000000000000000000000
310
0000000000000000000000000000000000000000000000000000000000000000
310
0000000000000000000000000000000000000000000000000000000000000000
310
0000000000000000000000000000000000000000000000000000000000000000
310
0000000000000000000000000000000000000000000000000000000000000000
310
0000000000000000000000000000000000000000000000000000000000000000
310
0000000000000000000000000000000000000000000000000000000000000000
310
0000000000000000000000000000000000000000000000000000000000000000
310
0000000000000000000000000000000000000000000000000000000000000000
310
0000000000000000000000000000000000000000000000000000000000000000
310
0000000000000000000000000000000000000000000000000000000000000000
310
0000000000000000000000000000000000000000000000000000000000000000
310
0000000000000000000000000000000000000000000000000000000000000000
  1
OLE
  0
ENDSEC
  0
SECTION
  2
OBJECTS
  0
DICTIONARY
  5
C
330
0
100
AcDbDictionary
281
     1
  3
ACAD_GROUP
350
D
  3
ACAD_LAYOUT
350
1A
  3
ACAD_MLINESTYLE
350
17
  3
ACAD_PLOTSETTINGS
350
19
  3
ACAD_PLOTSTYLENAME
350
E
  3
ACAD_SCALELIST
350
47
  0
DICTIONARY
  5
D
102
{ACAD_REACTORS
330
C
102
}
330
C
100
AcDbDictionary
281
     1
  0
DICTIONARY
  5
1A
102
{ACAD_REACTORS
330
C
102
}
330
C
100
AcDbDictionary
281
     1
  3
Layout1
350
1E
  3
Layout2
350
26
  3
Model
350
22
  0
DICTIONARY
  5
17
102
{ACAD_REACTORS
330
C
102
}
330
C
100
AcDbDictionary
281
     1
  3
Standard
350
18
  0
DICTIONARY
  5
19
102
{ACAD_REACTORS
330
C
102
}
330
C
100
AcDbDictionary
281
     1
  0
ACDBDICTIONARYWDFLT
  5
E
102
{ACAD_REACTORS
330
C
102
}
330
C
100
AcDbDictionary
281
     1
  3
Normal
350
F
100
AcDbDictionaryWithDefault
340
F
  0
DICTIONARY
  5
47
102
{ACAD_REACTORS
330
C
102
}
330
C
100
AcDbDictionary
281
     1
  3
A0
350
48
  3
A1
350
49
  3
A2
350
4A
  3
A3
350
4B
  3
A4
350
4C
  3
A5
350
4D
  3
A6
350
4E
  3
A7
350
4F
  3
A8
350
50
  3
A9
350
51
  3
B0
350
52
  3
B1
350
53
  3
B2
350
54
  3
B3
350
55
  3
B4
350
56
  3
B5
350
57
  3
B6
350
58
  3
B7
350
59
  3
B8
350
5A
  3
B9
350
5B
  3
C0
350
5C
  3
C1
350
5D
  3
C2
350
5E
  3
C3
350
5F
  3
C4
350
60
  3
C5
350
61
  3
C6
350
62
  3
C7
350
63
  3
C8
350
64
  3
C9
350
65
  3
D0
350
66
  3
D1
350
67
  3
D2
350
68
  0
LAYOUT
  5
1E
102
{ACAD_REACTORS
330
1A
102
}
330
1A
100
AcDbPlotSettings
  1

  2
none_device
  4

  6

 40
0.0
 41
0.0
 42
0.0
 43
0.0
 44
0.0
 45
0.0
 46
0.0
 47
0.0
 48
0.0
 49
0.0
140
0.0
141
0.0
142
1.0
143
1.0
 70
   688
 72
     1
 73
     0
 74
     5
  7

 75
    16
147
1.0
148
0.0
149
0.0
100
AcDbLayout
  1
Layout1
 70
     1
 71
     1
 10
0.0
 20
0.0
 11
420.0
 21
297.0
 12
0.0
 22
0.0
 32
0.0
 14
1.0000000000E+20
 24
1.0000000000E+20
 34
1.0000000000E+20
 15
-1.0000000000E+20
 25
-1.0000000000E+20
 35
-1.0000000000E+20
146
0.0
 13
0.0
 23
0.0
 33
0.0
 16
1.0
 26
0.0
 36
0.0
 17
0.0
 27
1.0
 37
0.0
 76
     0
330
1B
  0
LAYOUT
  5
26
102
{ACAD_REACTORS
330
1A
102
}
330
1A
100
AcDbPlotSettings
  1

  2
none_device
  4

  6

 40
0.0
 41
0.0
 42
0.0
 43
0.0
 44
0.0
 45
0.0
 46
0.0
 47
0.0
 48
0.0
 49
0.0
140
0.0
141
0.0
142
1.0
143
1.0
 70
   688
 72
     1
 73
     0
 74
     5
  7

 75
    16
147
1.0
148
0.0
149
0.0
100
AcDbLayout
  1
Layout2
 70
     1
 71
     2
 10
0.0
 20
0.0
 11
0.0
 21
0.0
 12
0.0
 22
0.0
 32
0.0
 14
0.0
 24
0.0
 34
0.0
 15
0.0
 25
0.0
 35
0.0
146
0.0
 13
0.0
 23
0.0
 33
0.0
 16
1.0
 26
0.0
 36
0.0
 17
0.0
 27
1.0
 37
0.0
 76
     0
330
23
  0
LAYOUT
  5
22
102
{ACAD_REACTORS
330
1A
102
}
330
1A
100
AcDbPlotSettings
  1

  2
none_device
  4
Letter_(8.50_x_11.00_Inches)
  6

 40
6.35
 41
6.35
 42
6.35000508
 43
6.35000508
 44
215.9
 45
279.4
 46
0.0
 47
0.0
 48
0.0
 49
0.0
140
0.0
141
0.0
142
1.0
143
1.0
 70
  1712
 72
     1
 73
     0
 74
     0
  7

 75
     0
147
1.0
148
0.0
149
0.0
100
AcDbLayout
  1
Model
 70
     1
 71
     0
 10
0.0
 20
0.0
 11
297.0
 21
210.0
 12
0.0
 22
0.0
 32
0.0
 14
0.0
 24
0.0
 34
0.0
 15
297.0
 25
210.0
 35
0.0
146
0.0
 13
0.0
 23
0.0
 33
0.0
 16
1.0
 26
0.0
 36
0.0
 17
0.0
 27
1.0
 37
0.0
 76
     0
330
1F
331
29
  0
MLINESTYLE
  5
18
102
{ACAD_REACTORS
330
17
102
}
330
17
100
AcDbMlineStyle
  2
Standard
 70
     0
  3

 62
   256
 51
90.0
 52
90.0
 71
     2
 49
0.5
 62
   256
  6
BYLAYER
 49
-0.5
 62
   256
  6
BYLAYER
  0
ACDBPLACEHOLDER
  5
F
102
{ACAD_REACTORS
330
E
102
}
330
E
  0
SCALE
  5
48
102
{ACAD_REACTORS
330
47
102
}
330
47
100
AcDbScale
 70
     0
300
1:1
140
1.0
141
1.0
290
     1
  0
SCALE
  5
49
102
{ACAD_REACTORS
330
47
102
}
330
47
100
AcDbScale
 70
     0
300
1:2
140
1.0
141
2.0
290
     0
  0
SCALE
  5
4A
102
{ACAD_REACTORS
330
47
102
}
330
47
100
AcDbScale
 70
     0
300
1:4
140
1.0
141
4.0
290
     0
  0
SCALE
  5
4B
102
{ACAD_REACTORS
330
47
102
}
330
47
100
AcDbScale
 70
     0
300
1:5
140
1.0
141
5.0
290
     0
  0
SCALE
  5
4C
102
{ACAD_REACTORS
330
47
102
}
330
47
100
AcDbScale
 70
     0
300
1:8
140
1.0
141
8.0
290
     0
  0
SCALE
  5
4D
102
{ACAD_REACTORS
330
47
102
}
330
47
100
AcDbScale
 70
     0
300
1:10
140
1.0
141
10.0
290
     0
  0
SCALE
  5
4E
102
{ACAD_REACTORS
330
47
102
}
330
47
100
AcDbScale
 70
     0
300
1:16
140
1.0
141
16.0
290
     0
  0
SCALE
  5
4F
102
{ACAD_REACTORS
330
47
102
}
330
47
100
AcDbScale
 70
     0
300
1:20
140
1.0
141
20.0
290
     0
  0
SCALE
  5
50
102
{ACAD_REACTORS
330
47
102
}
330
47
100
AcDbScale
 70
     0
300
1:30
140
1.0
141
30.0
290
     0
  0
SCALE
  5
51
102
{ACAD_REACTORS
330
47
102
}
330
47
100
AcDbScale
 70
     0
300
1:40
140
1.0
141
40.0
290
     0
  0
SCALE
  5
52
102
{ACAD_REACTORS
330
47
102
}
330
47
100
AcDbScale
 70
     0
300
1:50
140
1.0
141
50.0
290
     0
  0
SCALE
  5
53
102
{ACAD_REACTORS
330
47
102
}
330
47
100
AcDbScale
 70
     0
300
1:100
140
1.0
141
100.0
290
     0
  0
SCALE
  5
54
102
{ACAD_REACTORS
330
47
102
}
330
47
100
AcDbScale
 70
     0
300
2:1
140
2.0
141
1.0
290
     0
  0
SCALE
  5
55
102
{ACAD_REACTORS
330
47
102
}
330
47
100
AcDbScale
 70
     0
300
4:1
140
4.0
141
1.0
290
     0
  0
SCALE
  5
56
102
{ACAD_REACTORS
330
47
102
}
330
47
100
AcDbScale
 70
     0
300
8:1
140
8.0
141
1.0
290
     0
  0
SCALE
  5
57
102
{ACAD_REACTORS
330
47
102
}
330
47
100
AcDbScale
 70
     0
300
10:1
140
10.0
141
1.0
290
     0
  0
SCALE
  5
58
102
{ACAD_REACTORS
330
47
102
}
330
47
100
AcDbScale
 70
     0
300
100:1
140
100.0
141
1.0
290
     0
  0
SCALE
  5
59
102
{ACAD_REACTORS
330
47
102
}
330
47
100
AcDbScale
 70
     0
300
1/128" = 1'-0"
140
0.0078125
141
12.0
290
     0
  0
SCALE
  5
5A
102
{ACAD_REACTORS
330
47
102
}
330
47
100
AcDbScale
 70
     0
300
1/64" = 1'-0"
140
0.015625
141
12.0
290
     0
  0
SCALE
  5
5B
102
{ACAD_REACTORS
330
47
102
}
330
47
100
AcDbScale
 70
     0
300
1/32" = 1'-0"
140
0.03125
141
12.0
290
     0
  0
SCALE
  5
5C
102
{ACAD_REACTORS
330
47
102
}
330
47
100
AcDbScale
 70
     0
300
1/16" = 1'-0"
140
0.0625
141
12.0
290
     0
  0
SCALE
  5
5D
102
{ACAD_REACTORS
330
47
102
}
330
47
100
AcDbScale
 70
     0
300
3/32" = 1'-0"
140
0.09375
141
12.0
290
     0
  0
SCALE
  5
5E
102
{ACAD_REACTORS
330
47
102
}
330
47
100
AcDbScale
 70
     0
300
1/8" = 1'-0"
140
0.125
141
12.0
290
     0
  0
SCALE
  5
5F
102
{ACAD_REACTORS
330
47
102
}
330
47
100
AcDbScale
 70
     0
300
3/16" = 1'-0"
140
0.1875
141
12.0
290
     0
  0
SCALE
  5
60
102
{ACAD_REACTORS
330
47
102
}
330
47
100
AcDbScale
 70
     0
300
1/4" = 1'-0"
140
0.25
141
12.0
290
     0
  0
SCALE
  5
61
102
{ACAD_REACTORS
330
47
102
}
330
47
100
AcDbScale
 70
     0
300
3/8" = 1'-0"
140
0.375
141
12.0
290
     0
  0
SCALE
  5
62
102
{ACAD_REACTORS
330
47
102
}
330
47
100
AcDbScale
 70
     0
300
1/2" = 1'-0"
140
0.5
141
12.0
290
     0
  0
SCALE
  5
63
102
{ACAD_REACTORS
330
47
102
}
330
47
100
AcDbScale
 70
     0
300
3/4" = 1'-0"
140
0.75
141
12.0
290
     0
  0
SCALE
  5
64
102
{ACAD_REACTORS
330
47
102
}
330
47
100
AcDbScale
 70
     0
300
1" = 1'-0"
140
1.0
141
12.0
290
     0
  0
SCALE
  5
65
102
{ACAD_REACTORS
330
47
102
}
330
47
100
AcDbScale
 70
     0
300
1-1/2" = 1'-0"
140
1.5
141
12.0
290
     0
  0
SCALE
  5
66
102
{ACAD_REACTORS
330
47
102
}
330
47
100
AcDbScale
 70
     0
300
3" = 1'-0"
140
3.0
141
12.0
290
     0
  0
SCALE
  5
67
102
{ACAD_REACTORS
330
47
102
}
330
47
100
AcDbScale
 70
     0
300
6" = 1'-0"
140
6.0
141
12.0
290
     0
  0
SCALE
  5
68
102
{ACAD_REACTORS
330
47
102
}
330
47
100
AcDbScale
 70
     0
300
1'-0" = 1'-0"
140
12.0
141
12.0
290
     0
  0
ENDSEC
  0
EOF
