  0
SECTION
  2
HEADER
  9
$ACADVER
  1
AC1015
  9
$ACADMAINTVER
 70
     6
  9
$DWGCODEPAGE
  3
ANSI_1252
  9
$INSBASE
 10
0.0
 20
0.0
 30
0.0
  9
$EXTMIN
 10
0.0
 20
0.0
 30
0.0
  9
$EXTMAX
 10
297.0
 20
210.0
 30
0.0
  9
$LIMMIN
 10
0.0
 20
0.0
  9
$LIMMAX
 10
297.0
 20
210.0
  9
$ORTHOMODE
 70
     0
  9
$REGENMODE
 70
     1
  9
$FILLMODE
 70
     1
  9
$QTEXTMODE
 70
     0
  9
$MIRRTEXT
 70
     1
  9
$LTSCALE
 40
1.0
  9
$ATTMODE
 70
     1
  9
$TEXTSIZE
 40
2.0
  9
$TRACEWID
 40
1.0
  9
$TEXTSTYLE
  7
Standard
  9
$CLAYER
  8
0
  9
$CELTYPE
  6
ByLayer
  9
$CECOLOR
 62
   256
  9
$CELTSCALE
 40
1.0
  9
$DISPSILH
 70
     0
  9
$DIMSCALE
 40
1.0
  9
$DIMASZ
 40
3.0
  9
$DIMEXO
 40
0.0
  9
$DIMDLI
 40
3.75
  9
$DIMRND
 40
0.0
  9
$DIMDLE
 40
0.0
  9
$DIMEXE
 40
1.0
  9
$DIMTP
 40
0.0
  9
$DIMTM
 40
0.0
  9
$DIMTXT
 40
2.0
  9
$DIMCEN
 40
2.5
  9
$DIMTSZ
 40
0.0
  9
$DIMTOL
 70
     0
  9
$DIMLIM
 70
     0
  9
$DIMTIH
 70
     1
  9
$DIMTOH
 70
     1
  9
$DIMSE1
 70
     0
  9
$DIMSE2
 70
     0
  9
$DIMTAD
 70
     1
  9
$DIMZIN
 70
     0
  9
$DIMBLK
  1

  9
$DIMASO
 70
     1
  9
$DIMSHO
 70
     1
  9
$DIMPOST
  1

  9
$DIMAPOST
  1

  9
$DIMALT
 70
     0
  9
$DIMALTD
 70
     3
  9
$DIMALTF
 40
0.0393700787
  9
$DIMLFAC
 40
1.0
  9
$DIMTOFL
 70
     1
  9
$DIMTVP
 40
0.0
  9
$DIMTIX
 70
     0
  9
$DIMSOXD
 70
     0
  9
$DIMSAH
 70
     0
  9
$DIMBLK1
  1

  9
$DIMBLK2
  1

  9
$DIMSTYLE
  2
ISO-25
  9
$DIMCLRD
 70
     0
  9
$DIMCLRE
 70
     0
  9
$DIMCLRT
 70
     0
  9
$DIMTFAC
 40
1.0
  9
$DIMGAP
 40
1.524
  9
$DIMJUST
 70
     0
  9
$DIMSD1
 70
     0
  9
$DIMSD2
 70
     0
  9
$DIMTOLJ
 70
     0
  9
$DIMTZIN
 70
     0
  9
$DIMALTZ
 70
     0
  9
$DIMALTTZ
 70
     0
  9
$DIMUPT
 70
     0
  9
$DIMDEC
 70
     2
  9
$DIMTDEC
 70
     2
  9
$DIMALTU
 70
     2
  9
$DIMALTTD
 70
     3
  9
$DIMTXSTY
  7
Standard
  9
$DIMAUNIT
 70
     0
  9
$DIMADEC
 70
     0
  9
$DIMALTRND
 40
0.0
  9
$DIMAZIN
 70
     0
  9
$DIMDSEP
 70
    44
  9
$DIMATFIT
 70
     3
  9
$DIMFRAC
 70
     0
  9
$DIMLDRBLK
  1

  9
$DIMLUNIT
 70
     2
  9
$DIMLWD
 70
    -2
  9
$DIMLWE
 70
    -2
  9
$DIMTMOVE
 70
     0
  9
$LUNITS
 70
     2
  9
$LUPREC
 70
     2
  9
$SKETCHINC
 40
1.0
  9
$FILLETRAD
 40
10.0
  9
$AUNITS
 70
     0
  9
$AUPREC
 70
     0
  9
$MENU
  1
.
  9
$ELEVATION
 40
0.0
  9
$PELEVATION
 40
0.0
  9
$THICKNESS
 40
0.0
  9
$LIMCHECK
 70
     0
  9
$CHAMFERA
 40
10.0
  9
$CHAMFERB
 40
10.0
  9
$CHAMFERC
 40
20.0
  9
$CHAMFERD
 40
0.0
  9
$SKPOLY
 70
     0
  9
$TDCREATE
 40
2455358.662430162
  9
$TDUCREATE
 40
2455358.579096829
  9
$TDUPDATE
 40
2455358.662430174
  9
$TDUUPDATE
 40
2455358.57909684
  9
$TDINDWG
 40
0.0000000116
  9
$TDUSRTIMER
 40
0.0000000116
  9
$USRTIMER
 70
     1
  9
$ANGBASE
 50
0.0
  9
$ANGDIR
 70
     0
  9
$PDMODE
 70
     0
  9
$PDSIZE
 40
-1.0
  9
$PLINEWID
 40
0.0
  9
$SPLFRAME
 70
     0
  9
$SPLINETYPE
 70
     6
  9
$SPLINESEGS
 70
     8
  9
$HANDSEED
  5
2B8
  9
$SURFTAB1
 70
     6
  9
$SURFTAB2
 70
     6
  9
$SURFTYPE
 70
     6
  9
$SURFU
 70
     6
  9
$SURFV
 70
     6
  9
$UCSBASE
  2

  9
$UCSNAME
  2

  9
$UCSORG
 10
0.0
 20
0.0
 30
0.0
  9
$UCSXDIR
 10
1.0
 20
0.0
 30
0.0
  9
$UCSYDIR
 10
0.0
 20
1.0
 30
0.0
  9
$UCSORTHOREF
  2

  9
$UCSORTHOVIEW
 70
     0
  9
$UCSORGTOP
 10
0.0
 20
0.0
 30
0.0
  9
$UCSORGBOTTOM
 10
0.0
 20
0.0
 30
0.0
  9
$UCSORGLEFT
 10
0.0
 20
0.0
 30
0.0
  9
$UCSORGRIGHT
 10
0.0
 20
0.0
 30
0.0
  9
$UCSORGFRONT
 10
0.0
 20
0.0
 30
0.0
  9
$UCSORGBACK
 10
0.0
 20
0.0
 30
0.0
  9
$PUCSBASE
  2

  9
$PUCSNAME
  2

  9
$PUCSORG
 10
0.0
 20
0.0
 30
0.0
  9
$PUCSXDIR
 10
1.0
 20
0.0
 30
0.0
  9
$PUCSYDIR
 10
0.0
 20
1.0
 30
0.0
  9
$PUCSORTHOREF
  2

  9
$PUCSORTHOVIEW
 70
     0
  9
$PUCSORGTOP
 10
0.0
 20
0.0
 30
0.0
  9
$PUCSORGBOTTOM
 10
0.0
 20
0.0
 30
0.0
  9
$PUCSORGLEFT
 10
0.0
 20
0.0
 30
0.0
  9
$PUCSORGRIGHT
 10
0.0
 20
0.0
 30
0.0
  9
$PUCSORGFRONT
 10
0.0
 20
0.0
 30
0.0
  9
$PUCSORGBACK
 10
0.0
 20
0.0
 30
0.0
  9
$USERI1
 70
     0
  9
$USERI2
 70
     0
  9
$USERI3
 70
     0
  9
$USERI4
 70
     0
  9
$USERI5
 70
     0
  9
$USERR1
 40
0.0
  9
$USERR2
 40
0.0
  9
$USERR3
 40
0.0
  9
$USERR4
 40
0.0
  9
$USERR5
 40
0.0
  9
$WORLDVIEW
 70
     1
  9
$SHADEDGE
 70
     3
  9
$SHADEDIF
 70
    70
  9
$TILEMODE
 70
     1
  9
$MAXACTVP
 70
    64
  9
$PINSBASE
 10
0.0
 20
0.0
 30
0.0
  9
$PLIMCHECK
 70
     0
  9
$PEXTMIN
 10
1.0000000000E+20
 20
1.0000000000E+20
 30
1.0000000000E+20
  9
$PEXTMAX
 10
-1.0000000000E+20
 20
-1.0000000000E+20
 30
-1.0000000000E+20
  9
$PLIMMIN
 10
0.0
 20
0.0
  9
$PLIMMAX
 10
420.0
 20
297.0
  9
$UNITMODE
 70
     0
  9
$VISRETAIN
 70
     1
  9
$PLINEGEN
 70
     0
  9
$PSLTSCALE
 70
     1
  9
$TREEDEPTH
 70
  3020
  9
$CMLSTYLE
  2
Standard
  9
$CMLJUST
 70
     0
  9
$CMLSCALE
 40
20.0
  9
$PROXYGRAPHICS
 70
     1
  9
$MEASUREMENT
 70
     1
  9
$CELWEIGHT
370
    -1
  9
$ENDCAPS
280
     0
  9
$JOINSTYLE
280
     0
  9
$LWDISPLAY
290
     1
  9
$INSUNITS
 70
     4
  9
$HYPERLINKBASE
  1

  9
$STYLESHEET
  1

  9
$XEDIT
290
     1
  9
$CEPSNTYPE
380
     0
  9
$PSTYLEMODE
290
     1
  9
$FINGERPRINTGUID
  2
{17A2B4B1-0B8D-4893-AF84-F9DE11BB52A7}
  9
$VERSIONGUID
  2
{FAEB1C32-E019-11D5-929B-00C0DF256EC4}
  9
$EXTNAMES
290
     1
  9
$PSVPSCALE
 40
0.0
  9
$OLESTARTUP
290
     0
  0
ENDSEC
  0
SECTION
  2
CLASSES
  0
CLASS
  1
ACDBDICTIONARYWDFLT
  2
AcDbDictionaryWithDefault
  3
ObjectDBX Classes
 90
        0
280
     0
281
     0
  0
CLASS
  1
VISUALSTYLE
  2
AcDbVisualStyle
  3
ObjectDBX Classes
 90
     4095
280
     0
281
     0
  0
CLASS
  1
DICTIONARYVAR
  2
AcDbDictionaryVar
  3
ObjectDBX Classes
 90
        0
280
     0
281
     0
  0
CLASS
  1
ACDBPLACEHOLDER
  2
AcDbPlaceHolder
  3
ObjectDBX Classes
 90
        0
280
     0
281
     0
  0
CLASS
  1
LAYOUT
  2
AcDbLayout
  3
ObjectDBX Classes
 90
        0
280
     0
281
     0
  0
ENDSEC
  0
SECTION
  2
TABLES
  0
TABLE
  2
VPORT
  5
8
330
0
100
AcDbSymbolTable
 70
     1
  0
VPORT
  5
29
330
8
100
AcDbSymbolTableRecord
100
AcDbViewportTableRecord
  2
*Active
 70
     0
 10
0.0
 20
0.0
 11
1.0
 21
1.0
 12
148.5
 22
105.0
 13
0.0
 23
0.0
 14
10.0
 24
10.0
 15
10.0
 25
10.0
 16
0.0
 26
0.0
 36
1.0
 17
0.0
 27
0.0
 37
0.0
 40
210.0
 41
1.4142857143
 42
50.0
 43
0.0
 44
0.0
 50
0.0
 51
0.0
 71
     0
 72
  2000
 73
     1
 74
     3
 75
     0
 76
     0
 77
     0
 78
     0
281
     0
 65
     1
110
0.0
120
0.0
130
0.0
111
1.0
121
0.0
131
0.0
112
0.0
122
1.0
132
0.0
 79
     0
146
0.0
  0
ENDTAB
  0
TABLE
  2
LTYPE
  5
5
330
0
100
AcDbSymbolTable
 70
     6
  0
LTYPE
  5
14
330
5
100
AcDbSymbolTableRecord
100
AcDbLinetypeTableRecord
  2
ByBlock
 70
     0
  3

 72
    65
 73
     0
 40
0.0
  0
LTYPE
  5
15
330
5
100
AcDbSymbolTableRecord
100
AcDbLinetypeTableRecord
  2
ByLayer
 70
     0
  3

 72
    65
 73
     0
 40
0.0
  0
LTYPE
  5
16
330
5
100
AcDbSymbolTableRecord
100
AcDbLinetypeTableRecord
  2
Continuous
 70
     0
  3
Solid line
 72
    65
 73
     0
 40
0.0
  0
LTYPE
  5
3B
330
5
100
AcDbSymbolTableRecord
100
AcDbLinetypeTableRecord
  2
HIDDEN
 70
     0
  3
Hidden __ __ __ __ __ __ __ __ __ __ __ __ __ __
 72
    65
 73
     2
 40
1.905
 49
1.27
 74
     0
 49
-0.635
 74
     0
  0
LTYPE
  5
3C
330
5
100
AcDbSymbolTableRecord
100
AcDbLinetypeTableRecord
  2
PHANTOM
 70
     0
  3
Phantom ______  __  __  ______  __  __  ______
 72
    65
 73
     6
 40
12.7
 49
6.35
 74
     0
 49
-1.27
 74
     0
 49
1.27
 74
     0
 49
-1.27
 74
     0
 49
1.27
 74
     0
 49
-1.27
 74
     0
  0
LTYPE
  5
3D
330
5
100
AcDbSymbolTableRecord
100
AcDbLinetypeTableRecord
  2
CENTER
 70
     0
  3
Center ____ _ ____ _ ____ _ ____ _ ____ _ ____
 72
    65
 73
     4
 40
10.16
 49
6.35
 74
     0
 49
-1.27
 74
     0
 49
1.27
 74
     0
 49
-1.27
 74
     0
  0
LTYPE
  5
3E
330
5
100
AcDbSymbolTableRecord
100
AcDbLinetypeTableRecord
  2
CENTERX2
 70
     0
  3
Center (2x) ________  __  ________  __  _____
 72
    65
 73
     4
 40
20.32
 49
12.7
 74
     0
 49
-2.54
 74
     0
 49
2.54
 74
     0
 49
-2.54
 74
     0
  0
LTYPE
  5
3F
330
5
100
AcDbSymbolTableRecord
100
AcDbLinetypeTableRecord
  2
DOT2
 70
     0
  3
Dot (.5x) ........................................
 72
    65
 73
     2
 40
0.635
 49
0.0
 74
     0
 49
-0.635
 74
     0
  0
ENDTAB
  0
TABLE
  2
LAYER
  5
2
330
0
100
AcDbSymbolTable
 70
     5
  0
LAYER
  5
10
330
2
100
AcDbSymbolTableRecord
100
AcDbLayerTableRecord
  2
0
 70
     0
 62
     7
  6
Continuous
370
    -3
390
F
  0
LAYER
  5
40
330
2
100
AcDbSymbolTableRecord
100
AcDbLayerTableRecord
  2
FORMAT
 70
     0
 62
     7
  6
Continuous
370
    -3
390
F
  0
LAYER
  5
41
330
2
100
AcDbSymbolTableRecord
100
AcDbLayerTableRecord
  2
VERMASSUNG
 70
     0
 62
     7
  6
Continuous
370
    -3
390
F
  0
LAYER
  5
42
330
2
100
AcDbSymbolTableRecord
100
AcDbLayerTableRecord
  2
KOPF_DÜNN
 70
     0
 62
     7
  6
Continuous
370
    -3
390
F
  0
LAYER
  5
43
330
2
100
AcDbSymbolTableRecord
100
AcDbLayerTableRecord
  2
KOPF_DICK
 70
     0
 62
     7
  6
Continuous
370
    15
390
F
  0
ENDTAB
  0
TABLE
  2
STYLE
  5
3
330
0
100
AcDbSymbolTable
 70
     3
  0
STYLE
  5
11
330
3
100
AcDbSymbolTableRecord
100
AcDbTextStyleTableRecord
  2
Standard
 70
     0
 40
0.0
 41
1.0
 50
0.0
 71
     0
 42
2.5
  3
txt
  4

  0
STYLE
  5
44
330
3
100
AcDbSymbolTableRecord
100
AcDbTextStyleTableRecord
  2
SLDTEXTSTYLE0
 70
     0
 40
0.0
 41
0.7
 50
0.0
 71
     0
 42
0.2
  3
TXT
  4

  0
STYLE
  5
48
330
3
100
AcDbSymbolTableRecord
100
AcDbTextStyleTableRecord
  2
SLDTEXTSTYLE1
 70
     0
 40
0.0
 41
0.6384615385
 50
0.0
 71
     0
 42
0.2
  3
TXT
  4

  0
ENDTAB
  0
TABLE
  2
VIEW
  5
6
330
0
100
AcDbSymbolTable
 70
     0
  0
ENDTAB
  0
TABLE
  2
UCS
  5
7
330
0
100
AcDbSymbolTable
 70
     0
  0
ENDTAB
  0
TABLE
  2
APPID
  5
9
330
0
100
AcDbSymbolTable
 70
     1
  0
APPID
  5
12
330
9
100
AcDbSymbolTableRecord
100
AcDbRegAppTableRecord
  2
ACAD
 70
     0
  0
ENDTAB
  0
TABLE
  2
DIMSTYLE
  5
A
330
0
100
AcDbSymbolTable
 70
     2
100
AcDbDimStyleTable
  0
DIMSTYLE
105
27
330
A
100
AcDbSymbolTableRecord
100
AcDbDimStyleTableRecord
  2
ISO-25
 70
     0
 41
2.5
 42
0.625
 43
3.75
 44
1.25
 73
     0
 74
     0
 77
     1
 78
     8
140
2.5
141
2.5
143
0.0393700787
147
0.625
171
     3
172
     1
271
     2
272
     2
274
     3
278
    44
283
     0
284
     8
340
11
  0
DIMSTYLE
105
19F
102
{ACAD_REACTORS
330
19E
330
1AB
330
1B6
330
1C1
330
1CB
330
1D5
330
1DF
330
1E9
330
1F3
330
1FD
102
}
330
A
100
AcDbSymbolTableRecord
100
AcDbDimStyleTableRecord
  2
SLDDIMSTYLE0
 70
     0
 41
3.0
 44
0.0
 45
0.000000001
 73
     0
 74
     0
 77
     1
 78
    12
140
2.0
147
0.5
173
     1
271
     2
272
     3
284
    12
340
44
  0
ENDTAB
  0
TABLE
  2
BLOCK_RECORD
  5
1
330
0
100
AcDbSymbolTable
 70
    12
  0
BLOCK_RECORD
  5
1F
330
1
100
AcDbSymbolTableRecord
100
AcDbBlockTableRecord
  2
*Model_Space
340
22
  0
BLOCK_RECORD
  5
1B
330
1
100
AcDbSymbolTableRecord
100
AcDbBlockTableRecord
  2
*Paper_Space
340
1E
  0
BLOCK_RECORD
  5
23
330
1
100
AcDbSymbolTableRecord
100
AcDbBlockTableRecord
  2
*Paper_Space0
340
26
  0
BLOCK_RECORD
  5
1A0
330
1
100
AcDbSymbolTableRecord
100
AcDbBlockTableRecord
  2
*D1
340
0
  0
BLOCK_RECORD
  5
1AC
330
1
100
AcDbSymbolTableRecord
100
AcDbBlockTableRecord
  2
*D2
340
0
  0
BLOCK_RECORD
  5
1B7
330
1
100
AcDbSymbolTableRecord
100
AcDbBlockTableRecord
  2
*D3
340
0
  0
BLOCK_RECORD
  5
1C2
330
1
100
AcDbSymbolTableRecord
100
AcDbBlockTableRecord
  2
*D4
340
0
  0
BLOCK_RECORD
  5
1CC
330
1
100
AcDbSymbolTableRecord
100
AcDbBlockTableRecord
  2
*D5
340
0
  0
BLOCK_RECORD
  5
1D6
330
1
100
AcDbSymbolTableRecord
100
AcDbBlockTableRecord
  2
*D6
340
0
  0
BLOCK_RECORD
  5
1E0
330
1
100
AcDbSymbolTableRecord
100
AcDbBlockTableRecord
  2
*D7
340
0
  0
BLOCK_RECORD
  5
1EA
330
1
100
AcDbSymbolTableRecord
100
AcDbBlockTableRecord
  2
*D8
340
0
  0
BLOCK_RECORD
  5
1F4
330
1
100
AcDbSymbolTableRecord
100
AcDbBlockTableRecord
  2
*D9
340
0
  0
BLOCK_RECORD
  5
1FE
330
1
100
AcDbSymbolTableRecord
100
AcDbBlockTableRecord
  2
*D10
340
0
  0
BLOCK_RECORD
  5
2A6
330
1
100
AcDbSymbolTableRecord
100
AcDbBlockTableRecord
  2
SW_CENTERMARKSYMBOL_0
340
0
102
{BLKREFS
331
2B1
102
}
  0
ENDTAB
  0
ENDSEC
  0
SECTION
  2
BLOCKS
  0
BLOCK
  5
20
330
1F
100
AcDbEntity
  8
0
100
AcDbBlockBegin
  2
*Model_Space
 70
     0
 10
0.0
 20
0.0
 30
0.0
  3
*Model_Space
  1

  0
ENDBLK
  5
21
330
1F
100
AcDbEntity
  8
0
100
AcDbBlockEnd
  0
BLOCK
  5
1C
330
1B
100
AcDbEntity
 67
     1
  8
0
100
AcDbBlockBegin
  2
*Paper_Space
 70
     0
 10
0.0
 20
0.0
 30
0.0
  3
*Paper_Space
  1

  0
ENDBLK
  5
1D
330
1B
100
AcDbEntity
 67
     1
  8
0
100
AcDbBlockEnd
  0
BLOCK
  5
24
330
23
100
AcDbEntity
  8
0
100
AcDbBlockBegin
  2
*Paper_Space0
 70
     0
 10
0.0
 20
0.0
 30
0.0
  3
*Paper_Space0
  1

  0
ENDBLK
  5
25
330
23
100
AcDbEntity
  8
0
100
AcDbBlockEnd
  0
BLOCK
  5
1A1
330
1A0
100
AcDbEntity
  8
0
100
AcDbBlockBegin
  2
*D1
 70
     1
 10
0.0
 20
0.0
 30
0.0
  3
*D1
  1

  0
SOLID
  5
1A3
330
1A0
100
AcDbEntity
  8
VERMASSUNG
100
AcDbTrace
 10
18.0539352461
 20
148.2705114255
 30
0.0
 11
17.6039352461
 21
145.2705114255
 31
0.0
 12
18.5039352461
 22
145.2705114255
 32
0.0
 13
18.5039352461
 23
145.2705114255
 33
0.0
  0
SOLID
  5
1A4
330
1A0
100
AcDbEntity
  8
VERMASSUNG
100
AcDbTrace
 10
18.0539352461
 20
85.2705114255
 30
0.0
 11
18.5039352461
 21
88.2705114255
 31
0.0
 12
17.6039352461
 22
88.2705114255
 32
0.0
 13
17.6039352461
 23
88.2705114255
 33
0.0
  0
LINE
  5
1A5
330
1A0
100
AcDbEntity
  8
VERMASSUNG
100
AcDbLine
 10
62.0940152339
 20
148.2705114255
 30
0.0
 11
17.0539352461
 21
148.2705114255
 31
0.0
  0
LINE
  5
1A6
330
1A0
100
AcDbEntity
  8
VERMASSUNG
100
AcDbLine
 10
62.0940152339
 20
85.2705114255
 30
0.0
 11
17.0539352461
 21
85.2705114255
 31
0.0
  0
LINE
  5
1A7
330
1A0
100
AcDbEntity
  8
VERMASSUNG
100
AcDbLine
 10
18.0539352461
 20
148.2705114255
 30
0.0
 11
18.0539352461
 21
85.2705114255
 31
0.0
  0
MTEXT
  5
1A8
330
1A0
100
AcDbEntity
  8
VERMASSUNG
100
AcDbMText
 10
15.2757999899
 20
110.6661610446
 30
0.0
 40
2.0
 41
0.0
 71
     1
 72
     1
  1
PSC 
  7
SLDTEXTSTYLE0
 11
-7.044195017643634E-15
 21
1.0
 31
0.0
 73
     1
 44
1.0
  0
MTEXT
  5
1A9
330
1A0
100
AcDbEntity
  8
VERMASSUNG
100
AcDbMText
 10
15.4757999412
 20
116.4661609709
 30
0.0
 40
2.0
 41
0.0
 71
     1
 72
     1
  1
%%c
  7
SLDTEXTSTYLE0
 11
-7.044195017643634E-15
 21
1.0
 31
0.0
 73
     1
 44
1.0
  0
MTEXT
  5
1AA
330
1A0
100
AcDbEntity
  8
VERMASSUNG
100
AcDbMText
 10
15.4757996501
 20
120.075577802
 30
0.0
 40
2.0
 41
0.0
 71
     1
 72
     1
  1
63
  7
SLDTEXTSTYLE0
 11
-7.044195017643634E-15
 21
1.0
 31
0.0
 73
     1
 44
1.0
  0
ENDBLK
  5
1A2
330
1A0
100
AcDbEntity
  8
0
100
AcDbBlockEnd
  0
BLOCK
  5
1AD
330
1AC
100
AcDbEntity
  8
0
100
AcDbBlockBegin
  2
*D2
 70
     1
 10
0.0
 20
0.0
 30
0.0
  3
*D2
  1

  0
SOLID
  5
1AF
330
1AC
100
AcDbEntity
  8
VERMASSUNG
100
AcDbTrace
 10
175.1668834869
 20
141.7705114255
 30
0.0
 11
174.7168834869
 21
138.7705114255
 31
0.0
 12
175.6168834869
 22
138.7705114255
 32
0.0
 13
175.6168834869
 23
138.7705114255
 33
0.0
  0
SOLID
  5
1B0
330
1AC
100
AcDbEntity
  8
VERMASSUNG
100
AcDbTrace
 10
175.1668834869
 20
91.7705114255
 30
0.0
 11
175.6168834869
 21
94.7705114255
 31
0.0
 12
174.7168834869
 22
94.7705114255
 32
0.0
 13
174.7168834869
 23
94.7705114255
 33
0.0
  0
LINE
  5
1B1
330
1AC
100
AcDbEntity
  8
VERMASSUNG
100
AcDbLine
 10
160.7940152339
 20
141.7705114255
 30
0.0
 11
176.1668834869
 21
141.7705114255
 31
0.0
  0
LINE
  5
1B2
330
1AC
100
AcDbEntity
  8
VERMASSUNG
100
AcDbLine
 10
160.7940152339
 20
91.7705114255
 30
0.0
 11
176.1668834869
 21
91.7705114255
 31
0.0
  0
LINE
  5
1B3
330
1AC
100
AcDbEntity
  8
VERMASSUNG
100
AcDbLine
 10
175.1668834869
 20
141.7705114255
 30
0.0
 11
175.1668834869
 21
91.7705114255
 31
0.0
  0
MTEXT
  5
1B4
330
1AC
100
AcDbEntity
  8
VERMASSUNG
100
AcDbMText
 10
172.5887479492
 20
113.5668346028
 30
0.0
 40
2.0
 41
0.0
 71
     1
 72
     1
  1
%%c
  7
SLDTEXTSTYLE0
 11
-7.044195017643634E-15
 21
1.0
 31
0.0
 73
     1
 44
1.0
  0
MTEXT
  5
1B5
330
1AC
100
AcDbEntity
  8
VERMASSUNG
100
AcDbMText
 10
172.588747891
 20
117.1749042437
 30
0.0
 40
2.0
 41
0.0
 71
     1
 72
     1
  1
50
  7
SLDTEXTSTYLE0
 11
-7.044195017643634E-15
 21
1.0
 31
0.0
 73
     1
 44
1.0
  0
ENDBLK
  5
1AE
330
1AC
100
AcDbEntity
  8
0
100
AcDbBlockEnd
  0
BLOCK
  5
1B8
330
1B7
100
AcDbEntity
  8
0
100
AcDbBlockBegin
  2
*D3
 70
     1
 10
0.0
 20
0.0
 30
0.0
  3
*D3
  1

  0
SOLID
  5
1BA
330
1B7
100
AcDbEntity
  8
VERMASSUNG
100
AcDbTrace
 10
169.1668834869
 20
129.2705114255
 30
0.0
 11
168.7168834869
 21
126.2705114255
 31
0.0
 12
169.6168834869
 22
126.2705114255
 32
0.0
 13
169.6168834869
 23
126.2705114255
 33
0.0
  0
SOLID
  5
1BB
330
1B7
100
AcDbEntity
  8
VERMASSUNG
100
AcDbTrace
 10
169.1668834869
 20
104.2705114255
 30
0.0
 11
169.6168834869
 21
107.2705114255
 31
0.0
 12
168.7168834869
 22
107.2705114255
 32
0.0
 13
168.7168834869
 23
107.2705114255
 33
0.0
  0
LINE
  5
1BC
330
1B7
100
AcDbEntity
  8
VERMASSUNG
100
AcDbLine
 10
161.2940152339
 20
129.2705114255
 30
0.0
 11
170.1668834869
 21
129.2705114255
 31
0.0
  0
LINE
  5
1BD
330
1B7
100
AcDbEntity
  8
VERMASSUNG
100
AcDbLine
 10
161.2940152339
 20
104.2705114255
 30
0.0
 11
170.1668834869
 21
104.2705114255
 31
0.0
  0
LINE
  5
1BE
330
1B7
100
AcDbEntity
  8
VERMASSUNG
100
AcDbLine
 10
169.1668834869
 20
129.2705114255
 30
0.0
 11
169.1668834869
 21
104.2705114255
 31
0.0
  0
MTEXT
  5
1BF
330
1B7
100
AcDbEntity
  8
VERMASSUNG
100
AcDbMText
 10
166.5887479492
 20
113.5668346028
 30
0.0
 40
2.0
 41
0.0
 71
     1
 72
     1
  1
%%c
  7
SLDTEXTSTYLE0
 11
-7.044195017643634E-15
 21
1.0
 31
0.0
 73
     1
 44
1.0
  0
MTEXT
  5
1C0
330
1B7
100
AcDbEntity
  8
VERMASSUNG
100
AcDbMText
 10
166.588747891
 20
117.1749042437
 30
0.0
 40
2.0
 41
0.0
 71
     1
 72
     1
  1
25
  7
SLDTEXTSTYLE0
 11
-7.044195017643634E-15
 21
1.0
 31
0.0
 73
     1
 44
1.0
  0
ENDBLK
  5
1B9
330
1B7
100
AcDbEntity
  8
0
100
AcDbBlockEnd
  0
BLOCK
  5
1C3
330
1C2
100
AcDbEntity
  8
0
100
AcDbBlockBegin
  2
*D4
 70
     1
 10
0.0
 20
0.0
 30
0.0
  3
*D4
  1

  0
SOLID
  5
1C5
330
1C2
100
AcDbEntity
  8
VERMASSUNG
100
AcDbTrace
 10
23.7940152339
 20
164.6606722424
 30
0.0
 11
26.7940152339
 21
164.2106722424
 31
0.0
 12
26.7940152339
 22
165.1106722424
 32
0.0
 13
26.7940152339
 23
165.1106722424
 33
0.0
  0
SOLID
  5
1C6
330
1C2
100
AcDbEntity
  8
VERMASSUNG
100
AcDbTrace
 10
161.7940152339
 20
164.6606722424
 30
0.0
 11
158.7940152339
 21
165.1106722424
 31
0.0
 12
158.7940152339
 22
164.2106722424
 32
0.0
 13
158.7940152339
 23
164.2106722424
 33
0.0
  0
LINE
  5
1C7
330
1C2
100
AcDbEntity
  8
VERMASSUNG
100
AcDbLine
 10
23.7940152339
 20
137.062849418
 30
0.0
 11
23.7940152339
 21
165.6606722424
 31
0.0
  0
LINE
  5
1C8
330
1C2
100
AcDbEntity
  8
VERMASSUNG
100
AcDbLine
 10
161.7940152339
 20
140.7705114255
 30
0.0
 11
161.7940152339
 21
165.6606722424
 31
0.0
  0
LINE
  5
1C9
330
1C2
100
AcDbEntity
  8
VERMASSUNG
100
AcDbLine
 10
23.7940152339
 20
164.6606722424
 30
0.0
 11
161.7940152339
 21
164.6606722424
 31
0.0
  0
MTEXT
  5
1CA
330
1C2
100
AcDbEntity
  8
VERMASSUNG
100
AcDbMText
 10
90.8944178455
 20
167.2388078384
 30
0.0
 40
2.0
 41
0.0
 71
     1
 72
     1
  1
138
  7
SLDTEXTSTYLE0
 73
     1
 44
1.0
  0
ENDBLK
  5
1C4
330
1C2
100
AcDbEntity
  8
0
100
AcDbBlockEnd
  0
BLOCK
  5
1CD
330
1CC
100
AcDbEntity
  8
0
100
AcDbBlockBegin
  2
*D5
 70
     1
 10
0.0
 20
0.0
 30
0.0
  3
*D5
  1

  0
SOLID
  5
1CF
330
1CC
100
AcDbEntity
  8
VERMASSUNG
100
AcDbTrace
 10
61.7940152339
 20
158.6606722424
 30
0.0
 11
64.7940152339
 21
158.2106722424
 31
0.0
 12
64.7940152339
 22
159.1106722424
 32
0.0
 13
64.7940152339
 23
159.1106722424
 33
0.0
  0
SOLID
  5
1D0
330
1CC
100
AcDbEntity
  8
VERMASSUNG
100
AcDbTrace
 10
161.7940152339
 20
158.6606722424
 30
0.0
 11
158.7940152339
 21
159.1106722424
 31
0.0
 12
158.7940152339
 22
158.2106722424
 32
0.0
 13
158.7940152339
 23
158.2106722424
 33
0.0
  0
LINE
  5
1D1
330
1CC
100
AcDbEntity
  8
VERMASSUNG
100
AcDbLine
 10
61.7940152339
 20
147.9705114255
 30
0.0
 11
61.7940152339
 21
159.6606722424
 31
0.0
  0
LINE
  5
1D2
330
1CC
100
AcDbEntity
  8
VERMASSUNG
100
AcDbLine
 10
161.7940152339
 20
140.7705114255
 30
0.0
 11
161.7940152339
 21
159.6606722424
 31
0.0
  0
LINE
  5
1D3
330
1CC
100
AcDbEntity
  8
VERMASSUNG
100
AcDbLine
 10
61.7940152339
 20
158.6606722424
 30
0.0
 11
161.7940152339
 21
158.6606722424
 31
0.0
  0
MTEXT
  5
1D4
330
1CC
100
AcDbEntity
  8
VERMASSUNG
100
AcDbMText
 10
109.8944178455
 20
161.2388078384
 30
0.0
 40
2.0
 41
0.0
 71
     1
 72
     1
  1
100
  7
SLDTEXTSTYLE0
 73
     1
 44
1.0
  0
ENDBLK
  5
1CE
330
1CC
100
AcDbEntity
  8
0
100
AcDbBlockEnd
  0
BLOCK
  5
1D7
330
1D6
100
AcDbEntity
  8
0
100
AcDbBlockBegin
  2
*D6
 70
     1
 10
0.0
 20
0.0
 30
0.0
  3
*D6
  1

  0
SOLID
  5
1D9
330
1D6
100
AcDbEntity
  8
VERMASSUNG
100
AcDbTrace
 10
83.7940152339
 20
152.6606722424
 30
0.0
 11
86.7940152339
 21
152.2106722424
 31
0.0
 12
86.7940152339
 22
153.1106722424
 32
0.0
 13
86.7940152339
 23
153.1106722424
 33
0.0
  0
SOLID
  5
1DA
330
1D6
100
AcDbEntity
  8
VERMASSUNG
100
AcDbTrace
 10
161.7940152339
 20
152.6606722424
 30
0.0
 11
158.7940152339
 21
153.1106722424
 31
0.0
 12
158.7940152339
 22
152.2106722424
 32
0.0
 13
158.7940152339
 23
152.2106722424
 33
0.0
  0
LINE
  5
1DB
330
1D6
100
AcDbEntity
  8
VERMASSUNG
100
AcDbLine
 10
83.7940152339
 20
148.2705114255
 30
0.0
 11
83.7940152339
 21
153.6606722424
 31
0.0
  0
LINE
  5
1DC
330
1D6
100
AcDbEntity
  8
VERMASSUNG
100
AcDbLine
 10
161.7940152339
 20
140.7705114255
 30
0.0
 11
161.7940152339
 21
153.6606722424
 31
0.0
  0
LINE
  5
1DD
330
1D6
100
AcDbEntity
  8
VERMASSUNG
100
AcDbLine
 10
83.7940152339
 20
152.6606722424
 30
0.0
 11
161.7940152339
 21
152.6606722424
 31
0.0
  0
MTEXT
  5
1DE
330
1D6
100
AcDbEntity
  8
VERMASSUNG
100
AcDbMText
 10
121.3943732318
 20
155.2388078384
 30
0.0
 40
2.0
 41
0.0
 71
     1
 72
     1
  1
78
  7
SLDTEXTSTYLE0
 73
     1
 44
1.0
  0
ENDBLK
  5
1D8
330
1D6
100
AcDbEntity
  8
0
100
AcDbBlockEnd
  0
BLOCK
  5
1E1
330
1E0
100
AcDbEntity
  8
0
100
AcDbBlockBegin
  2
*D7
 70
     1
 10
0.0
 20
0.0
 30
0.0
  3
*D7
  1

  0
SOLID
  5
1E3
330
1E0
100
AcDbEntity
  8
VERMASSUNG
100
AcDbTrace
 10
110.7940152339
 20
75.2705114255
 30
0.0
 11
113.7940152339
 21
74.8205114255
 31
0.0
 12
113.7940152339
 22
75.7205114255
 32
0.0
 13
113.7940152339
 23
75.7205114255
 33
0.0
  0
SOLID
  5
1E4
330
1E0
100
AcDbEntity
  8
VERMASSUNG
100
AcDbTrace
 10
161.7940152339
 20
75.2705114255
 30
0.0
 11
158.7940152339
 21
75.7205114255
 31
0.0
 12
158.7940152339
 22
74.8205114255
 32
0.0
 13
158.7940152339
 23
74.8205114255
 33
0.0
  0
LINE
  5
1E5
330
1E0
100
AcDbEntity
  8
VERMASSUNG
100
AcDbLine
 10
110.7940152339
 20
104.3705114255
 30
0.0
 11
110.7940152339
 21
74.2705114255
 31
0.0
  0
LINE
  5
1E6
330
1E0
100
AcDbEntity
  8
VERMASSUNG
100
AcDbLine
 10
161.7940152339
 20
92.7705114255
 30
0.0
 11
161.7940152339
 21
74.2705114255
 31
0.0
  0
LINE
  5
1E7
330
1E0
100
AcDbEntity
  8
VERMASSUNG
100
AcDbLine
 10
110.7940152339
 20
75.2705114255
 30
0.0
 11
161.7940152339
 21
75.2705114255
 31
0.0
  0
MTEXT
  5
1E8
330
1E0
100
AcDbEntity
  8
VERMASSUNG
100
AcDbMText
 10
135.0948215452
 20
77.8486470214
 30
0.0
 40
2.0
 41
0.0
 71
     1
 72
     1
  1
51
  7
SLDTEXTSTYLE0
 73
     1
 44
1.0
  0
ENDBLK
  5
1E2
330
1E0
100
AcDbEntity
  8
0
100
AcDbBlockEnd
  0
BLOCK
  5
1EB
330
1EA
100
AcDbEntity
  8
0
100
AcDbBlockBegin
  2
*D8
 70
     1
 10
0.0
 20
0.0
 30
0.0
  3
*D8
  1

  0
SOLID
  5
1ED
330
1EA
100
AcDbEntity
  8
VERMASSUNG
100
AcDbTrace
 10
120.2940152339
 20
82.3148264938
 30
0.0
 11
123.2940152339
 21
81.8648264938
 31
0.0
 12
123.2940152339
 22
82.7648264938
 32
0.0
 13
123.2940152339
 23
82.7648264938
 33
0.0
  0
SOLID
  5
1EE
330
1EA
100
AcDbEntity
  8
VERMASSUNG
100
AcDbTrace
 10
135.7940152339
 20
82.3148264938
 30
0.0
 11
132.7940152339
 21
82.7648264938
 31
0.0
 12
132.7940152339
 22
81.8648264938
 32
0.0
 13
132.7940152339
 23
81.8648264938
 33
0.0
  0
LINE
  5
1EF
330
1EA
100
AcDbEntity
  8
VERMASSUNG
100
AcDbLine
 10
120.2940152339
 20
110.1953847501
 30
0.0
 11
120.2940152339
 21
81.3148264938
 31
0.0
  0
LINE
  5
1F0
330
1EA
100
AcDbEntity
  8
VERMASSUNG
100
AcDbLine
 10
135.7940152339
 20
110.4621843506
 30
0.0
 11
135.7940152339
 21
81.3148264938
 31
0.0
  0
LINE
  5
1F1
330
1EA
100
AcDbEntity
  8
VERMASSUNG
100
AcDbLine
 10
120.2940152339
 20
82.3148264938
 30
0.0
 11
135.7940152339
 21
82.3148264938
 31
0.0
  0
MTEXT
  5
1F2
330
1EA
100
AcDbEntity
  8
VERMASSUNG
100
AcDbMText
 10
125.8449107726
 20
84.8929620898
 30
0.0
 40
2.0
 41
0.0
 71
     1
 72
     1
  1
15.5
  7
SLDTEXTSTYLE0
 73
     1
 44
1.0
  0
ENDBLK
  5
1EC
330
1EA
100
AcDbEntity
  8
0
100
AcDbBlockEnd
  0
BLOCK
  5
1F5
330
1F4
100
AcDbEntity
  8
0
100
AcDbBlockBegin
  2
*D9
 70
     1
 10
0.0
 20
0.0
 30
0.0
  3
*D9
  1

  0
SOLID
  5
1F7
330
1F4
100
AcDbEntity
  8
VERMASSUNG
100
AcDbTrace
 10
135.7940152339
 20
82.3148264938
 30
0.0
 11
138.7940152339
 21
81.8648264938
 31
0.0
 12
138.7940152339
 22
82.7648264938
 32
0.0
 13
138.7940152339
 23
82.7648264938
 33
0.0
  0
SOLID
  5
1F8
330
1F4
100
AcDbEntity
  8
VERMASSUNG
100
AcDbTrace
 10
151.2940152339
 20
82.3148264938
 30
0.0
 11
148.2940152339
 21
82.7648264938
 31
0.0
 12
148.2940152339
 22
81.8648264938
 32
0.0
 13
148.2940152339
 23
81.8648264938
 33
0.0
  0
LINE
  5
1F9
330
1F4
100
AcDbEntity
  8
VERMASSUNG
100
AcDbLine
 10
135.7940152339
 20
110.4621843506
 30
0.0
 11
135.7940152339
 21
81.3148264938
 31
0.0
  0
LINE
  5
1FA
330
1F4
100
AcDbEntity
  8
VERMASSUNG
100
AcDbLine
 10
151.2940152339
 20
110.8623837514
 30
0.0
 11
151.2940152339
 21
81.3148264938
 31
0.0
  0
LINE
  5
1FB
330
1F4
100
AcDbEntity
  8
VERMASSUNG
100
AcDbLine
 10
135.7940152339
 20
82.3148264938
 30
0.0
 11
151.2940152339
 21
82.3148264938
 31
0.0
  0
MTEXT
  5
1FC
330
1F4
100
AcDbEntity
  8
VERMASSUNG
100
AcDbMText
 10
141.3449107726
 20
84.8929620898
 30
0.0
 40
2.0
 41
0.0
 71
     1
 72
     1
  1
15.5
  7
SLDTEXTSTYLE0
 73
     1
 44
1.0
  0
ENDBLK
  5
1F6
330
1F4
100
AcDbEntity
  8
0
100
AcDbBlockEnd
  0
BLOCK
  5
1FF
330
1FE
100
AcDbEntity
  8
0
100
AcDbBlockBegin
  2
*D10
 70
     1
 10
0.0
 20
0.0
 30
0.0
  3
*D10
  1

  0
SOLID
  5
201
330
1FE
100
AcDbEntity
  8
VERMASSUNG
100
AcDbTrace
 10
151.2940152339
 20
82.3148264938
 30
0.0
 11
154.2940152339
 21
81.8648264938
 31
0.0
 12
154.2940152339
 22
82.7648264938
 32
0.0
 13
154.2940152339
 23
82.7648264938
 33
0.0
  0
SOLID
  5
202
330
1FE
100
AcDbEntity
  8
VERMASSUNG
100
AcDbTrace
 10
161.7940152339
 20
82.3148264938
 30
0.0
 11
158.7940152339
 21
82.7648264938
 31
0.0
 12
158.7940152339
 22
81.8648264938
 32
0.0
 13
158.7940152339
 23
81.8648264938
 33
0.0
  0
LINE
  5
203
330
1FE
100
AcDbEntity
  8
VERMASSUNG
100
AcDbLine
 10
151.2940152339
 20
110.8623837514
 30
0.0
 11
151.2940152339
 21
81.3148264938
 31
0.0
  0
LINE
  5
204
330
1FE
100
AcDbEntity
  8
VERMASSUNG
100
AcDbLine
 10
161.7940152339
 20
92.7705114255
 30
0.0
 11
161.7940152339
 21
81.3148264938
 31
0.0
  0
LINE
  5
205
330
1FE
100
AcDbEntity
  8
VERMASSUNG
100
AcDbLine
 10
151.2940152339
 20
82.3148264938
 30
0.0
 11
161.7940152339
 21
82.3148264938
 31
0.0
  0
MTEXT
  5
206
330
1FE
100
AcDbEntity
  8
VERMASSUNG
100
AcDbMText
 10
154.3449107726
 20
84.8929620898
 30
0.0
 40
2.0
 41
0.0
 71
     1
 72
     1
  1
10.5
  7
SLDTEXTSTYLE0
 73
     1
 44
1.0
  0
ENDBLK
  5
200
330
1FE
100
AcDbEntity
  8
0
100
AcDbBlockEnd
  0
BLOCK
  5
2A7
330
2A6
100
AcDbEntity
  8
0
100
AcDbBlockBegin
  2
SW_CENTERMARKSYMBOL_0
 70
     0
 10
0.0
 20
0.0
 30
0.0
  3
SW_CENTERMARKSYMBOL_0
  1

  0
LINE
  5
2A9
330
2A6
100
AcDbEntity
  8
VERMASSUNG
 62
     0
100
AcDbLine
 10
0.0
 20
0.0
 30
0.0
 11
0.0
 21
2.5
 31
0.0
  0
LINE
  5
2AA
330
2A6
100
AcDbEntity
  8
VERMASSUNG
 62
     0
100
AcDbLine
 10
0.0
 20
0.0
 30
0.0
 11
-2.5
 21
0.0
 31
0.0
  0
LINE
  5
2AB
330
2A6
100
AcDbEntity
  8
VERMASSUNG
 62
     0
100
AcDbLine
 10
0.0
 20
0.0
 30
0.0
 11
0.0
 21
-2.5
 31
0.0
  0
LINE
  5
2AC
330
2A6
100
AcDbEntity
  8
VERMASSUNG
 62
     0
100
AcDbLine
 10
0.0
 20
0.0
 30
0.0
 11
2.5
 21
0.0
 31
0.0
  0
LINE
  5
2AD
330
2A6
100
AcDbEntity
  8
VERMASSUNG
 62
     0
100
AcDbLine
 10
0.0
 20
5.0
 30
0.0
 11
0.0
 21
33.7
 31
0.0
  0
LINE
  5
2AE
330
2A6
100
AcDbEntity
  8
VERMASSUNG
 62
     0
100
AcDbLine
 10
-5.0
 20
0.0
 30
0.0
 11
-33.7
 21
0.0
 31
0.0
  0
LINE
  5
2AF
330
2A6
100
AcDbEntity
  8
VERMASSUNG
 62
     0
100
AcDbLine
 10
0.0
 20
-5.0
 30
0.0
 11
0.0
 21
-33.7
 31
0.0
  0
LINE
  5
2B0
330
2A6
100
AcDbEntity
  8
VERMASSUNG
 62
     0
100
AcDbLine
 10
5.0
 20
0.0
 30
0.0
 11
33.7
 21
0.0
 31
0.0
  0
ENDBLK
  5
2A8
330
2A6
100
AcDbEntity
  8
0
100
AcDbBlockEnd
  0
ENDSEC
  0
SECTION
  2
ENTITIES
  0
MTEXT
  5
45
330
1F
100
AcDbEntity
  8
KOPF_DÜNN
100
AcDbMText
 10
13.8892156294
 20
23.8442973028
 30
0.0
 40
3.0
 41
0.0
 71
     1
 72
     1
  1
PS6.B25.K01.100
  7
SLDTEXTSTYLE0
 73
     1
 44
1.0
  0
MTEXT
  5
46
330
1F
100
AcDbEntity
  8
VERMASSUNG
100
AcDbMText
 10
13.9329988022
 20
28.8834360957
 30
0.0
 40
3.0
 41
0.0
 71
     1
 72
     1
  1
Bohrstangenhalter / Boring bar holder
  7
SLDTEXTSTYLE0
 73
     1
 44
1.0
  0
MTEXT
  5
47
330
1F
100
AcDbEntity
  8
VERMASSUNG
100
AcDbMText
 10
98.8601118557
 20
13.8365368761
 30
0.0
 40
2.0
 41
0.0
 71
     1
 72
     1
  1
Datum: 08.03.2010
  7
SLDTEXTSTYLE0
 73
     1
 44
1.0
  0
MTEXT
  5
49
330
1F
100
AcDbEntity
  8
VERMASSUNG
100
AcDbMText
 10
13.933048693
 20
18.0482802738
 30
0.0
 40
2.0
 41
0.0
 71
     1
 72
     1
  1
PSC 63 / ø 25
  7
SLDTEXTSTYLE1
 73
     1
 44
1.0
  0
MTEXT
  5
4A
330
1F
100
AcDbEntity
  8
VERMASSUNG
100
AcDbMText
 10
13.9808475933
 20
13.9090974274
 30
0.0
 40
2.0
 41
0.0
 71
     1
 72
     1
  1
Gewicht: 1709g
  7
SLDTEXTSTYLE0
 73
     1
 44
1.0
  0
SPLINE
  5
4B
330
1F
100
AcDbEntity
  8
0
  6
Continuous
 62
     7
370
    15
100
AcDbSpline
210
0.0
220
0.0
230
1.0
 70
    24
 71
     1
 72
     4
 73
     2
 74
     0
 42
0.00000001
 43
0.00000001
 40
0.0
 40
0.0
 40
1.0
 40
1.0
 10
62.09401524819916
 20
85.27051091882296
 30
0.0
 10
83.79401511474063
 20
85.27051091882296
 30
0.0
  0
SPLINE
  5
4C
330
1F
100
AcDbEntity
  8
0
  6
Continuous
 62
     7
370
    15
100
AcDbSpline
210
0.0
220
0.0
230
1.0
 70
    24
 71
     1
 72
     4
 73
     2
 74
     0
 42
0.00000001
 43
0.00000001
 40
0.0
 40
0.0
 40
1.0
 40
1.0
 10
83.79401511474063
 20
148.270511932102
 30
0.0
 10
62.09401524819916
 20
148.270511932102
 30
0.0
  0
ARC
  5
4D
330
1F
100
AcDbEntity
  8
0
  6
Continuous
 62
     7
370
    15
100
AcDbCircle
 10
62.0940152339
 20
85.5705114255
 30
0.0
 40
0.3000000000000114
100
AcDbArc
 50
180.0
 51
270.0
  0
ARC
  5
4E
330
1F
100
AcDbEntity
  8
0
  6
Continuous
 62
     7
370
    15
100
AcDbCircle
 10
62.0940152339
 20
147.9705114255
 30
0.0
 40
0.3000000000000114
100
AcDbArc
 50
90.0
 51
180.0
  0
ARC
  5
4F
330
1F
100
AcDbEntity
  8
0
  6
Continuous
 62
     7
370
    15
100
AcDbCircle
 10
86.7940152339
 20
88.7705114255
 30
0.0
 40
3.0
100
AcDbArc
 50
90.0
 51
180.0
  0
ARC
  5
50
330
1F
100
AcDbEntity
  8
0
  6
Continuous
 62
     7
370
    15
100
AcDbCircle
 10
86.7940152339
 20
144.7705114255
 30
0.0
 40
3.0
100
AcDbArc
 50
180.0
 51
270.0
  0
SPLINE
  5
51
330
1F
100
AcDbEntity
  8
0
  6
Continuous
 62
     7
370
    15
100
AcDbSpline
210
0.0
220
0.0
230
1.0
 70
    24
 71
     1
 72
     4
 73
     2
 74
     0
 42
0.00000001
 43
0.00000001
 40
0.0
 40
0.0
 40
1.0
 40
1.0
 10
115.8045666567843
 20
141.7705117979915
 30
0.0
 10
86.79401560647895
 20
141.7705117979915
 30
0.0
  0
SPLINE
  5
52
330
1F
100
AcDbEntity
  8
0
  6
Continuous
 62
     7
370
    15
100
AcDbSpline
210
0.0
220
0.0
230
1.0
 70
    24
 71
     1
 72
     4
 73
     2
 74
     0
 42
0.00000001
 43
0.00000001
 40
0.0
 40
0.0
 40
1.0
 40
1.0
 10
131.3045645408194
 20
141.7705117979915
 30
0.0
 10
124.7385392241042
 20
141.7705117979915
 30
0.0
  0
SPLINE
  5
53
330
1F
100
AcDbEntity
  8
0
  6
Continuous
 62
     7
370
    15
100
AcDbSpline
210
0.0
220
0.0
230
1.0
 70
    24
 71
     1
 72
     4
 73
     2
 74
     0
 42
0.00000001
 43
0.00000001
 40
0.0
 40
0.0
 40
1.0
 40
1.0
 10
146.8045661501448
 20
141.7705117979915
 30
0.0
 10
140.2385408334296
 20
141.7705117979915
 30
0.0
  0
SPLINE
  5
54
330
1F
100
AcDbEntity
  8
0
  6
Continuous
 62
     7
370
    15
100
AcDbSpline
210
0.0
220
0.0
230
1.0
 70
    24
 71
     1
 72
     4
 73
     2
 74
     0
 42
0.00000001
 43
0.00000001
 40
0.0
 40
0.0
 40
1.0
 40
1.0
 10
160.7940146975081
 20
141.7705117979915
 30
0.0
 10
155.738542442755
 20
141.7705117979915
 30
0.0
  0
SPLINE
  5
55
330
1F
100
AcDbEntity
  8
0
  6
Continuous
 62
     7
370
    15
100
AcDbSpline
210
0.0
220
0.0
230
1.0
 70
    24
 71
     1
 72
     4
 73
     2
 74
     0
 42
0.00000001
 43
0.00000001
 40
0.0
 40
0.0
 40
1.0
 40
1.0
 10
86.79401560647895
 20
91.77051105293341
 30
0.0
 10
160.7940146975081
 20
91.77051105293341
 30
0.0
  0
ARC
  5
56
330
1F
100
AcDbEntity
  8
0
  6
Continuous
 62
     7
370
    15
100
AcDbCircle
 10
160.7940152339
 20
140.7705114255
 30
0.0
 40
1.0
100
AcDbArc
 50
0.0
 51
90.0
  0
ARC
  5
57
330
1F
100
AcDbEntity
  8
0
  6
Continuous
 62
     7
370
    15
100
AcDbCircle
 10
160.7940152339
 20
92.7705114255
 30
0.0
 40
1.0
100
AcDbArc
 50
270.0
 51
0.0
  0
LWPOLYLINE
  5
58
330
1F
100
AcDbEntity
  8
0
  6
Continuous
 62
     7
370
    15
100
AcDbPolyline
 90
        3
 70
   128
 43
0.0
 10
61.594015239
 20
94.2306909034
 10
61.7194701742
 20
94.1623895684
 10
61.7940152339
 20
94.1096506337
  0
LWPOLYLINE
  5
59
330
1F
100
AcDbEntity
  8
0
  6
Continuous
 62
     7
370
    15
100
AcDbPolyline
 90
        3
 70
   128
 43
0.0
 10
61.7940152339
 20
139.4313722173
 10
61.7194701742
 20
139.3786332825
 10
61.594015239
 20
139.3103319475
  0
LINE
  5
5A
330
1F
100
AcDbEntity
  8
0
  6
Continuous
 62
     7
370
    15
100
AcDbLine
 10
135.7940161876
 20
141.770511798
 30
0.0
 11
139.9940127782
 21
141.770511798
 31
0.0
  0
LINE
  5
5B
330
1F
100
AcDbEntity
  8
0
  6
Continuous
 62
     7
370
    15
100
AcDbLine
 10
131.5940121464
 20
141.770511798
 30
0.0
 11
135.7940161876
 21
141.770511798
 31
0.0
  0
LINE
  5
5C
330
1F
100
AcDbEntity
  8
0
  6
Continuous
 62
     7
370
    15
100
AcDbLine
 10
151.2940177969
 20
141.770511798
 30
0.0
 11
155.4940143876
 21
141.770511798
 31
0.0
  0
LINE
  5
5D
330
1F
100
AcDbEntity
  8
0
  6
Continuous
 62
     7
370
    15
100
AcDbLine
 10
147.0940137558
 20
141.770511798
 30
0.0
 11
151.2940177969
 21
141.770511798
 31
0.0
  0
LINE
  5
5E
330
1F
100
AcDbEntity
  8
0
  6
Continuous
 62
     7
370
    15
100
AcDbLine
 10
120.2940145783
 20
141.770511798
 30
0.0
 11
124.4940186195
 21
141.770511798
 31
0.0
  0
LINE
  5
5F
330
1F
100
AcDbEntity
  8
0
  6
Continuous
 62
     7
370
    15
100
AcDbLine
 10
116.0940142624
 20
141.770511798
 30
0.0
 11
120.2940145783
 21
141.770511798
 31
0.0
  0
CIRCLE
  5
60
330
1F
100
AcDbEntity
  8
0
  6
Continuous
 62
     7
370
    15
100
AcDbCircle
 10
135.7940152339
 20
116.7705114255
 30
0.0
 40
4.200000000000003
  0
LINE
  5
61
330
1F
100
AcDbEntity
  8
0
  6
Continuous
 62
     7
370
    15
100
AcDbLine
 10
138.2940138034
 20
118.2138871424
 30
0.0
 11
135.7940161876
 21
119.6572628593
 31
0.0
  0
LINE
  5
62
330
1F
100
AcDbEntity
  8
0
  6
Continuous
 62
     7
370
    15
100
AcDbLine
 10
133.2940185718
 20
118.2138871424
 30
0.0
 11
135.7940161876
 21
119.6572628593
 31
0.0
  0
LINE
  5
63
330
1F
100
AcDbEntity
  8
0
  6
Continuous
 62
     7
370
    15
100
AcDbLine
 10
133.2940185718
 20
115.3271357085
 30
0.0
 11
133.2940185718
 21
118.2138871424
 31
0.0
  0
LINE
  5
64
330
1F
100
AcDbEntity
  8
0
  6
Continuous
 62
     7
370
    15
100
AcDbLine
 10
133.2940185718
 20
115.3271357085
 30
0.0
 11
135.7940161876
 21
113.8837599916
 31
0.0
  0
LINE
  5
65
330
1F
100
AcDbEntity
  8
0
  6
Continuous
 62
     7
370
    15
100
AcDbLine
 10
138.2940138034
 20
115.3271357085
 30
0.0
 11
135.7940161876
 21
113.8837599916
 31
0.0
  0
LINE
  5
66
330
1F
100
AcDbEntity
  8
0
  6
Continuous
 62
     7
370
    15
100
AcDbLine
 10
138.2940138034
 20
115.3271357085
 30
0.0
 11
138.2940138034
 21
118.2138871424
 31
0.0
  0
CIRCLE
  5
67
330
1F
100
AcDbEntity
  8
0
  6
Continuous
 62
     7
370
    15
100
AcDbCircle
 10
151.2940152339
 20
116.7705114255
 30
0.0
 40
4.200000000000003
  0
LINE
  5
68
330
1F
100
AcDbEntity
  8
0
  6
Continuous
 62
     7
370
    15
100
AcDbLine
 10
153.7940154128
 20
118.2138871424
 30
0.0
 11
151.2940177969
 21
119.6572628593
 31
0.0
  0
LINE
  5
69
330
1F
100
AcDbEntity
  8
0
  6
Continuous
 62
     7
370
    15
100
AcDbLine
 10
148.7940127306
 20
118.2138871424
 30
0.0
 11
151.2940177969
 21
119.6572628593
 31
0.0
  0
LINE
  5
6A
330
1F
100
AcDbEntity
  8
0
  6
Continuous
 62
     7
370
    15
100
AcDbLine
 10
148.7940127306
 20
115.3271357085
 30
0.0
 11
148.7940127306
 21
118.2138871424
 31
0.0
  0
LINE
  5
6B
330
1F
100
AcDbEntity
  8
0
  6
Continuous
 62
     7
370
    15
100
AcDbLine
 10
148.7940127306
 20
115.3271357085
 30
0.0
 11
151.2940177969
 21
113.8837599916
 31
0.0
  0
LINE
  5
6C
330
1F
100
AcDbEntity
  8
0
  6
Continuous
 62
     7
370
    15
100
AcDbLine
 10
153.7940154128
 20
115.3271357085
 30
0.0
 11
151.2940177969
 21
113.8837599916
 31
0.0
  0
LINE
  5
6D
330
1F
100
AcDbEntity
  8
0
  6
Continuous
 62
     7
370
    15
100
AcDbLine
 10
153.7940154128
 20
115.3271357085
 30
0.0
 11
153.7940154128
 21
118.2138871424
 31
0.0
  0
CIRCLE
  5
6E
330
1F
100
AcDbEntity
  8
0
  6
Continuous
 62
     7
370
    15
100
AcDbCircle
 10
120.2940152339
 20
116.7705114255
 30
0.0
 40
4.200000000000003
  0
LINE
  5
6F
330
1F
100
AcDbEntity
  8
0
  6
Continuous
 62
     7
370
    15
100
AcDbLine
 10
122.7940159194
 20
118.2138871424
 30
0.0
 11
120.2940145783
 21
119.6572628593
 31
0.0
  0
LINE
  5
70
330
1F
100
AcDbEntity
  8
0
  6
Continuous
 62
     7
370
    15
100
AcDbLine
 10
117.7940169625
 20
118.2138871424
 30
0.0
 11
120.2940145783
 21
119.6572628593
 31
0.0
  0
LINE
  5
71
330
1F
100
AcDbEntity
  8
0
  6
Continuous
 62
     7
370
    15
100
AcDbLine
 10
117.7940169625
 20
115.3271357085
 30
0.0
 11
117.7940169625
 21
118.2138871424
 31
0.0
  0
LINE
  5
72
330
1F
100
AcDbEntity
  8
0
  6
Continuous
 62
     7
370
    15
100
AcDbLine
 10
117.7940169625
 20
115.3271357085
 30
0.0
 11
120.2940145783
 21
113.8837599916
 31
0.0
  0
LINE
  5
73
330
1F
100
AcDbEntity
  8
0
  6
Continuous
 62
     7
370
    15
100
AcDbLine
 10
122.7940159194
 20
115.3271357085
 30
0.0
 11
120.2940145783
 21
113.8837599916
 31
0.0
  0
LINE
  5
74
330
1F
100
AcDbEntity
  8
0
  6
Continuous
 62
     7
370
    15
100
AcDbLine
 10
122.7940159194
 20
115.3271357085
 30
0.0
 11
122.7940159194
 21
118.2138871424
 31
0.0
  0
SPLINE
  5
75
330
1F
100
AcDbEntity
  8
0
  6
Continuous
 62
     7
370
    15
100
AcDbSpline
210
0.0
220
0.0
230
1.0
 70
     8
 71
     3
 72
    12
 73
     8
 74
     0
 42
0.00000001
 43
0.00000001
 40
0.0
 40
0.0
 40
0.0
 40
0.0
 40
0.2500000000000014
 40
0.2500000000000014
 40
0.5000000000000028
 40
0.5000000000000028
 40
1.0
 40
1.0
 40
1.0
 40
1.0
 10
72.32177204751636
 20
126.1585778567983
 30
0.0
 10
72.25869200902301
 20
126.1585778567983
 30
0.0
 10
72.1995433868416
 20
126.1839421760132
 30
0.0
 10
72.10107083677251
 20
126.2581070363861
 30
0.0
 10
72.0620342247878
 20
126.3046273769403
 30
0.0
 10
71.96213775800875
 20
126.4547697197855
 30
0.0
 10
71.9197168769421
 20
126.5664629267577
 30
0.0
 10
71.88875934562414
 20
126.6798807461474
 30
0.0
  0
LINE
  5
76
330
1F
100
AcDbEntity
  8
0
  6
Continuous
 62
     7
370
    15
100
AcDbLine
 10
75.2662584461
 20
126.1585782537
 30
0.0
 11
72.3217722304
 21
126.1585782537
 31
0.0
  0
SPLINE
  5
77
330
1F
100
AcDbEntity
  8
0
  6
Continuous
 62
     7
370
    15
100
AcDbSpline
210
0.0
220
0.0
230
1.0
 70
     8
 71
     3
 72
    12
 73
     8
 74
     0
 42
0.00000001
 43
0.00000001
 40
0.0
 40
0.0
 40
0.0
 40
0.0
 40
0.4999999999999953
 40
0.4999999999999953
 40
0.7499999999999977
 40
0.7499999999999977
 40
1.0
 40
1.0
 40
1.0
 40
1.0
 10
75.6992711222757
 20
126.6798807461474
 30
0.0
 10
75.6685488803566
 20
126.5673249467383
 30
0.0
 10
75.62571166582146
 20
126.4545670869987
 30
0.0
 10
75.52628464162166
 20
126.3050262012023
 30
0.0
 10
75.486532446805
 20
126.2577334694954
 30
0.0
 10
75.38849098994676
 20
126.183997176174
 30
0.0
 10
75.3289349343593
 20
126.1585778567983
 30
0.0
 10
75.26625842038348
 20
126.1585778567983
 30
0.0
  0
ELLIPSE
  5
78
330
1F
100
AcDbEntity
  8
0
  6
Continuous
 62
     7
370
    15
100
AcDbEllipse
 10
59.4468610446
 20
116.7705114255
 30
0.0
 11
14.75368316065614
 21
31.09325491558116
 31
0.0
210
0.0
220
0.0
230
0.9999999999999999
 40
0.3419987131
 41
5.19328173740862
 42
6.124043104552325
  0
SPLINE
  5
79
330
1F
100
AcDbEntity
  8
0
  6
Continuous
 62
     7
370
    15
100
AcDbSpline
210
0.0
220
0.0
230
1.0
 70
     8
 71
     3
 72
    12
 73
     8
 74
     0
 42
0.00000001
 43
0.00000001
 40
0.0
 40
0.0
 40
0.0
 40
0.0
 40
0.2499999999999991
 40
0.2499999999999991
 40
0.4999999999999982
 40
0.4999999999999982
 40
1.0
 40
1.0
 40
1.0
 40
1.0
 10
75.26625842038348
 20
146.8390033843355
 30
0.0
 10
75.32933845887683
 20
146.8390033843355
 30
0.0
 10
75.38848708105824
 20
146.831097458123
 30
0.0
 10
75.48695963112732
 20
146.8077722966868
 30
0.0
 10
75.52599624311205
 20
146.7930595068551
 30
0.0
 10
75.62589270989109
 20
146.7451037061242
 30
0.0
 10
75.66831359095772
 20
146.7088415495441
 30
0.0
 10
75.6992711222757
 20
146.6712538855796
 30
0.0
  0
LINE
  5
7A
330
1F
100
AcDbEntity
  8
0
  6
Continuous
 62
     7
370
    15
100
AcDbLine
 10
72.3217722304
 20
146.8390039423
 30
0.0
 11
75.2662584461
 21
146.8390039423
 31
0.0
  0
SPLINE
  5
7B
330
1F
100
AcDbEntity
  8
0
  6
Continuous
 62
     7
370
    15
100
AcDbSpline
210
0.0
220
0.0
230
1.0
 70
     8
 71
     3
 72
    12
 73
     8
 74
     0
 42
0.00000001
 43
0.00000001
 40
0.0
 40
0.0
 40
0.0
 40
0.0
 40
0.5
 40
0.5
 40
0.75
 40
0.75
 40
1.0
 40
1.0
 40
1.0
 40
1.0
 10
71.88875934562414
 20
146.6712538855796
 30
0.0
 10
71.91948158754325
 20
146.7085558685326
 30
0.0
 10
71.96231880207839
 20
146.7451677005791
 30
0.0
 10
72.06174582627818
 20
146.7929324838642
 30
0.0
 10
72.10149802109486
 20
146.8078899993466
 30
0.0
 10
72.19953947795304
 20
146.8310799451158
 30
0.0
 10
72.25909553354055
 20
146.8390033843355
 30
0.0
 10
72.32177204751636
 20
146.8390033843355
 30
0.0
  0
ELLIPSE
  5
7C
330
1F
100
AcDbEntity
  8
0
  6
Continuous
 62
     7
370
    15
100
AcDbEllipse
 10
88.1411694233
 20
116.7705114255
 30
0.0
 11
-14.75368316065608
 21
31.09325491558116
 31
0.0
210
0.0
220
0.0
230
1.0
 40
0.3419987131
 41
0.1591422026273023
 42
1.089903569770979
  0
SPLINE
  5
7D
330
1F
100
AcDbEntity
  8
0
  6
Continuous
 62
     7
370
    15
100
AcDbSpline
210
0.0
220
0.0
230
1.0
 70
     8
 71
     3
 72
    12
 73
     8
 74
     0
 42
0.00000001
 43
0.00000001
 40
0.0
 40
0.0
 40
0.0
 40
0.0
 40
0.2500000000000001
 40
0.2500000000000001
 40
0.5000000000000001
 40
0.5000000000000001
 40
1.0
 40
1.0
 40
1.0
 40
1.0
 10
72.32177204751636
 20
86.70201946658932
 30
0.0
 10
72.25871509261856
 20
86.7020194665893
 30
0.0
 10
72.19958494287299
 20
86.70991979766886
 30
0.0
 10
72.1011373923397
 20
86.73323054567389
 30
0.0
 10
72.06210515415162
 20
86.74793567195753
 30
0.0
 10
71.96221526969465
 20
86.79586920014418
 30
0.0
 10
71.91991629608535
 20
86.83193917290893
 30
0.0
 10
71.88875934562408
 20
86.86976896534514
 30
0.0
  0
LINE
  5
7E
330
1F
100
AcDbEntity
  8
0
  6
Continuous
 62
     7
370
    15
100
AcDbLine
 10
75.2662584461
 20
86.7020189086
 30
0.0
 11
72.3217722304
 21
86.7020189086
 31
0.0
  0
SPLINE
  5
7F
330
1F
100
AcDbEntity
  8
0
  6
Continuous
 62
     7
370
    15
100
AcDbSpline
210
0.0
220
0.0
230
1.0
 70
     8
 71
     3
 72
    12
 73
     8
 74
     0
 42
0.00000001
 43
0.00000001
 40
0.0
 40
0.0
 40
0.0
 40
0.0
 40
0.5000000000000019
 40
0.5000000000000019
 40
0.7500000000000009
 40
0.7500000000000009
 40
1.0
 40
1.0
 40
1.0
 40
1.0
 10
75.6992711222757
 20
86.86976896534516
 30
0.0
 10
75.6681259243136
 20
86.83195344242498
 30
0.0
 10
75.62585165797917
 20
86.79588658434136
 30
0.0
 10
75.52590612415386
 20
86.74792651933008
 30
0.0
 10
75.4861758194498
 20
86.73306554543244
 30
0.0
 10
75.38928776944361
 20
86.7101143993013
 30
0.0
 10
75.32922252769704
 20
86.70201946658925
 30
0.0
 10
75.2662584203835
 20
86.70201946658926
 30
0.0
  0
ELLIPSE
  5
80
330
1F
100
AcDbEntity
  8
0
  6
Continuous
 62
     7
370
    15
100
AcDbEllipse
 10
59.4468610446
 20
116.7705114255
 30
0.0
 11
-14.75368316065629
 21
31.09325491558116
 31
0.0
210
0.0
220
0.0
230
1.0
 40
0.3419987131
 41
3.300734856217121
 42
4.231496223360772
  0
SPLINE
  5
81
330
1F
100
AcDbEntity
  8
0
  6
Continuous
 62
     7
370
    15
100
AcDbSpline
210
0.0
220
0.0
230
1.0
 70
     8
 71
     3
 72
    12
 73
     8
 74
     0
 42
0.00000001
 43
0.00000001
 40
0.0
 40
0.0
 40
0.0
 40
0.0
 40
0.2500000000000009
 40
0.2500000000000009
 40
0.5000000000000018
 40
0.5000000000000018
 40
1.0
 40
1.0
 40
1.0
 40
1.0
 10
75.26625842038348
 20
107.3824449941262
 30
0.0
 10
75.32931537528127
 20
107.3824449941262
 30
0.0
 10
75.38844552502685
 20
107.3570986407455
 30
0.0
 10
75.48689307556015
 20
107.282979258606
 30
0.0
 10
75.52592531374822
 20
107.236482743908
 30
0.0
 10
75.62581519820519
 20
107.0864082368994
 30
0.0
 10
75.66811417181451
 20
106.9752905277845
 30
0.0
 10
75.69927112227576
 20
106.8611421047771
 30
0.0
  0
LINE
  5
82
330
1F
100
AcDbEntity
  8
0
  6
Continuous
 62
     7
370
    15
100
AcDbLine
 10
72.3217722304
 20
107.3824445972
 30
0.0
 11
75.2662584461
 21
107.3824445972
 31
0.0
  0
SPLINE
  5
83
330
1F
100
AcDbEntity
  8
0
  6
Continuous
 62
     7
370
    15
100
AcDbSpline
210
0.0
220
0.0
230
1.0
 70
     8
 71
     3
 72
    12
 73
     8
 74
     0
 42
0.00000001
 43
0.00000001
 40
0.0
 40
0.0
 40
0.0
 40
0.0
 40
0.5000000000000019
 40
0.5000000000000019
 40
0.7500000000000009
 40
0.7500000000000009
 40
1.0
 40
1.0
 40
1.0
 40
1.0
 10
71.88875934562414
 20
106.861142104777
 30
0.0
 10
71.91990454358624
 20
106.9752474706424
 30
0.0
 10
71.96217880992067
 20
107.0863537978611
 30
0.0
 10
72.06212434374598
 20
107.2365114052914
 30
0.0
 10
72.10185464845004
 20
107.2835040969088
 30
0.0
 10
72.19874269845624
 20
107.3564796814473
 30
0.0
 10
72.25880794020281
 20
107.3824449941263
 30
0.0
 10
72.32177204751635
 20
107.3824449941263
 30
0.0
  0
ELLIPSE
  5
84
330
1F
100
AcDbEntity
  8
0
  6
Continuous
 62
     7
370
    15
100
AcDbEllipse
 10
88.1411694233
 20
116.7705114255
 30
0.0
 11
14.75368316065621
 21
31.09325491558119
 31
0.0
210
0.0
220
0.0
230
1.0
 40
0.3419987131
 41
2.051689083818825
 42
2.982450450962501
  0
LINE
  5
85
330
1F
100
AcDbEntity
  8
0
  6
Continuous
 62
     7
370
    15
100
AcDbLine
 10
83.7940151147
 20
85.2705109188
 30
0.0
 11
83.7940151147
 21
148.2705119321
 31
0.0
  0
LINE
  5
86
330
1F
100
AcDbEntity
  8
0
  6
Continuous
 62
     7
370
    15
100
AcDbLine
 10
61.7940152339
 20
85.5705122718
 30
0.0
 11
61.7940152339
 21
147.9705105791
 31
0.0
  0
LINE
  5
87
330
1F
100
AcDbEntity
  8
0
  6
Continuous
 62
     7
370
    15
100
AcDbLine
 10
71.8887593873
 20
106.861142374
 30
0.0
 11
71.8887593873
 21
86.8697687307
 31
0.0
  0
LINE
  5
88
330
1F
100
AcDbEntity
  8
0
  6
Continuous
 62
     7
370
    15
100
AcDbLine
 10
72.3217722304
 20
107.3824445972
 30
0.0
 11
72.3217722304
 21
86.7020189086
 31
0.0
  0
LINE
  5
89
330
1F
100
AcDbEntity
  8
0
  6
Continuous
 62
     7
370
    15
100
AcDbLine
 10
72.3217722304
 20
146.8390039423
 30
0.0
 11
72.3217722304
 21
126.1585782537
 31
0.0
  0
LINE
  5
8A
330
1F
100
AcDbEntity
  8
0
  6
Continuous
 62
     7
370
    15
100
AcDbLine
 10
71.8887593873
 20
146.6712541202
 30
0.0
 11
71.8887593873
 21
126.6798804769
 31
0.0
  0
LINE
  5
8B
330
1F
100
AcDbEntity
  8
0
  6
Continuous
 62
     7
370
    15
100
AcDbLine
 10
75.2662584461
 20
107.3824445972
 30
0.0
 11
75.2662584461
 21
86.7020189086
 31
0.0
  0
LINE
  5
8C
330
1F
100
AcDbEntity
  8
0
  6
Continuous
 62
     7
370
    15
100
AcDbLine
 10
75.6992712892
 20
106.861142374
 30
0.0
 11
75.6992712892
 21
86.8697687307
 31
0.0
  0
LINE
  5
8D
330
1F
100
AcDbEntity
  8
0
  6
Continuous
 62
     7
370
    15
100
AcDbLine
 10
75.6992712892
 20
146.6712541202
 30
0.0
 11
75.6992712892
 21
126.6798804769
 31
0.0
  0
LINE
  5
8E
330
1F
100
AcDbEntity
  8
0
  6
Continuous
 62
     7
370
    15
100
AcDbLine
 10
75.2662584461
 20
146.8390039423
 30
0.0
 11
75.2662584461
 21
126.1585782537
 31
0.0
  0
SPLINE
  5
8F
330
1F
100
AcDbEntity
  8
0
  6
Continuous
 62
     7
370
    15
100
AcDbSpline
210
0.0
220
0.0
230
1.0
 70
     8
 71
     3
 72
    12
 73
     8
 74
     0
 42
0.00000001
 43
0.00000001
 40
0.0
 40
0.0
 40
0.0
 40
0.0
 40
0.212461852793713
 40
0.4248401943878938
 40
0.6393940875418823
 40
0.8554194567337722
 40
1.0
 40
1.0
 40
1.0
 40
1.0
 10
151.2940177969496
 20
141.3621771404416
 30
0.0
 10
151.795178878749
 20
141.3713424293777
 30
0.0
 10
152.797304053747
 20
141.3896694047007
 30
0.0
 10
154.1388666530873
 20
141.5180228064157
 30
0.0
 10
155.1513931141125
 20
141.6579677746174
 30
0.0
 10
155.7358021706035
 20
141.7599135463011
 30
0.0
 10
155.7377581975879
 20
141.7604173112077
 30
0.0
 10
155.738542442755
 20
141.7606192896039
 30
0.0
  0
SPLINE
  5
90
330
1F
100
AcDbEntity
  8
0
  6
Continuous
 62
     7
370
    15
100
AcDbSpline
210
0.0
220
0.0
230
1.0
 70
     8
 71
     3
 72
    12
 73
     8
 74
     0
 42
0.00000001
 43
0.00000001
 40
0.0
 40
0.0
 40
0.0
 40
0.0
 40
0.2022759447912302
 40
0.4136987915499791
 40
0.6279480134881846
 40
0.8438924463997616
 40
1.0
 40
1.0
 40
1.0
 40
1.0
 10
146.8045661501448
 20
141.7686566034229
 30
0.0
 10
146.8447150162584
 20
141.7612345201105
 30
0.0
 10
146.9268282769845
 20
141.7460547274751
 30
0.0
 10
147.656971210515
 20
141.6237682532494
 30
0.0
 10
148.764429100986
 20
141.4819972066941
 30
0.0
 10
150.0503478561258
 20
141.3788541317104
 30
0.0
 10
150.9264275951197
 20
141.3671063410158
 30
0.0
 10
151.2940177969497
 20
141.3621771404416
 30
0.0
  0
SPLINE
  5
91
330
1F
100
AcDbEntity
  8
0
  6
Continuous
 62
     7
370
    15
100
AcDbSpline
210
0.0
220
0.0
230
1.0
 70
     8
 71
     3
 72
    12
 73
     8
 74
     0
 42
0.00000001
 43
0.00000001
 40
0.0
 40
0.0
 40
0.0
 40
0.0
 40
0.2124627501771409
 40
0.4248409471618442
 40
0.6393939877874831
 40
0.8554196184059042
 40
1.0
 40
1.0
 40
1.0
 40
1.0
 10
135.7940161876242
 20
141.3621771404416
 30
0.0
 10
136.2951796300091
 20
141.3713423845012
 30
0.0
 10
137.2973070681985
 20
141.3896692251544
 30
0.0
 10
138.6388735239747
 20
141.5180224927482
 30
0.0
 10
139.6513880209555
 20
141.6579682172062
 30
0.0
 10
140.2358125809156
 20
141.7599134570548
 30
0.0
 10
140.2377600289693
 20
141.7604172858672
 30
0.0
 10
140.2385408334296
 20
141.7606192896039
 30
0.0
  0
SPLINE
  5
92
330
1F
100
AcDbEntity
  8
0
  6
Continuous
 62
     7
370
    15
100
AcDbSpline
210
0.0
220
0.0
230
1.0
 70
     8
 71
     3
 72
    12
 73
     8
 74
     0
 42
0.00000001
 43
0.00000001
 40
0.0
 40
0.0
 40
0.0
 40
0.0
 40
0.2022759447912302
 40
0.4136987915499791
 40
0.6279480134881846
 40
0.8438924463997616
 40
1.0
 40
1.0
 40
1.0
 40
1.0
 10
131.3045645408194
 20
141.7686566034229
 30
0.0
 10
131.344713406933
 20
141.7612345201105
 30
0.0
 10
131.4268266676591
 20
141.7460547274751
 30
0.0
 10
132.1569696011896
 20
141.6237682532494
 30
0.0
 10
133.2644274916606
 20
141.4819972066941
 30
0.0
 10
134.5503462468004
 20
141.3788541317104
 30
0.0
 10
135.4264259857943
 20
141.3671063410158
 30
0.0
 10
135.7940161876243
 20
141.3621771404416
 30
0.0
  0
SPLINE
  5
93
330
1F
100
AcDbEntity
  8
0
  6
Continuous
 62
     7
370
    15
100
AcDbSpline
210
0.0
220
0.0
230
1.0
 70
     8
 71
     3
 72
    12
 73
     8
 74
     0
 42
0.00000001
 43
0.00000001
 40
0.0
 40
0.0
 40
0.0
 40
0.0
 40
0.2124622099612501
 40
0.4248408501558016
 40
0.6393942246199688
 40
0.8554196314653564
 40
1.0
 40
1.0
 40
1.0
 40
1.0
 10
120.2940145782988
 20
141.3621771404416
 30
0.0
 10
120.7951767164727
 20
141.3713424405694
 30
0.0
 10
121.7973038659857
 20
141.3896694357508
 30
0.0
 10
123.1388710465338
 20
141.5180224669874
 30
0.0
 10
124.1513913273392
 20
141.6579680180702
 30
0.0
 10
124.7358102303065
 20
141.7599134934368
 30
0.0
 10
124.7377582071785
 20
141.7604172961978
 30
0.0
 10
124.7385392241042
 20
141.7606192896039
 30
0.0
  0
SPLINE
  5
94
330
1F
100
AcDbEntity
  8
0
  6
Continuous
 62
     7
370
    15
100
AcDbSpline
210
0.0
220
0.0
230
1.0
 70
     8
 71
     3
 72
    12
 73
     8
 74
     0
 42
0.00000001
 43
0.00000001
 40
0.0
 40
0.0
 40
0.0
 40
0.0
 40
0.2022760309519488
 40
0.4136989677675971
 40
0.6279478967788289
 40
0.8438929041460551
 40
1.0
 40
1.0
 40
1.0
 40
1.0
 10
115.8045666567843
 20
141.7686566034229
 30
0.0
 10
115.844715475589
 20
141.7612345117482
 30
0.0
 10
115.9268286395581
 20
141.7460547020097
 30
0.0
 10
116.6569718806309
 20
141.6237684359239
 30
0.0
 10
117.7644266776627
 20
141.4819968637065
 30
0.0
 10
119.0503463638612
 20
141.3788543289776
 30
0.0
 10
119.9264257272446
 20
141.3671063880509
 30
0.0
 10
120.2940145782988
 20
141.3621771404416
 30
0.0
  0
SPLINE
  5
95
330
1F
100
AcDbEntity
  8
0
  6
Continuous
 62
     7
370
    15
100
AcDbSpline
210
0.0
220
0.0
230
1.0
 70
     8
 71
     3
 72
    70
 73
    66
 74
     0
 42
0.00000001
 43
0.00000001
 40
-0.03125
 40
-0.03125
 40
0.0
 40
0.0
 40
0.03125
 40
0.03125
 40
0.0625
 40
0.0625
 40
0.09375
 40
0.09375
 40
0.125
 40
0.125
 40
0.1562499999999999
 40
0.1562499999999999
 40
0.1874999999999999
 40
0.1874999999999999
 40
0.2187499999999999
 40
0.2187499999999999
 40
0.2499999999999999
 40
0.2499999999999999
 40
0.2812499999999999
 40
0.2812499999999999
 40
0.3124999999999999
 40
0.3124999999999999
 40
0.3437499999999999
 40
0.3437499999999999
 40
0.3749999999999999
 40
0.3749999999999999
 40
0.4062499999999999
 40
0.4062499999999999
 40
0.4374999999999999
 40
0.4374999999999999
 40
0.4687499999999999
 40
0.4687499999999999
 40
0.4999999999999999
 40
0.4999999999999999
 40
0.5312499999999999
 40
0.5312499999999999
 40
0.5624999999999999
 40
0.5624999999999999
 40
0.5937499999999999
 40
0.5937499999999999
 40
0.6249999999999999
 40
0.6249999999999999
 40
0.6562499999999999
 40
0.6562499999999999
 40
0.6874999999999999
 40
0.6874999999999999
 40
0.7187499999999999
 40
0.7187499999999999
 40
0.7499999999999999
 40
0.7499999999999999
 40
0.78125
 40
0.78125
 40
0.8125
 40
0.8125
 40
0.84375
 40
0.84375
 40
0.875
 40
0.875
 40
0.90625
 40
0.90625
 40
0.9375
 40
0.9375
 40
0.96875
 40
0.96875
 40
1.0
 40
1.0
 40
1.03125
 40
1.03125
 10
146.7940152339499
 20
117.0684529548661
 30
0.0
 10
146.79401523395
 20
116.4725698960588
 30
0.0
 10
146.8233118457451
 20
116.1797269778098
 30
0.0
 10
146.9379890464998
 20
115.6037848494638
 30
0.0
 10
147.0248047249551
 20
115.3176572236211
 30
0.0
 10
147.2508902047242
 20
114.772992038831
 30
0.0
 10
147.3891516154457
 20
114.5147622522992
 30
0.0
 10
147.7156954377027
 20
114.0260640043722
 30
0.0
 10
147.905350817634
 20
113.7951582145686
 30
0.0
 10
148.3195892076788
 20
113.3810331366659
 30
0.0
 10
148.545724437649
 20
113.1949855831197
 30
0.0
 10
149.037382348265
 20
112.8660146115902
 30
0.0
 10
149.2983526250945
 20
112.7266069107527
 30
0.0
 10
149.8395337042201
 20
112.5019851631386
 30
0.0
 10
150.1237495777495
 20
112.4152544683253
 30
0.0
 10
150.7048867835288
 20
112.2994139608932
 30
0.0
 10
150.9972566300233
 20
112.2706836452316
 30
0.0
 10
151.58552762658
 20
112.2703407347347
 30
0.0
 10
151.8843815684414
 20
112.2996970979986
 30
0.0
 10
152.4619744487401
 20
112.4147583984711
 30
0.0
 10
152.7427731292454
 20
112.4998831979918
 30
0.0
 10
153.2883293194006
 20
112.7257770429568
 30
0.0
 10
153.5509118763915
 20
112.8663924961039
 30
0.0
 10
154.0377837566672
 20
113.1917600562017
 30
0.0
 10
154.2657238149022
 20
113.3783723111045
 30
0.0
 10
154.6845484055609
 20
113.7969706953784
 30
0.0
 10
154.8703029133123
 20
114.0235251014291
 30
0.0
 10
155.1961771524206
 20
114.5102238791482
 30
0.0
 10
155.3374168398012
 20
114.7735965548943
 30
0.0
 10
155.5632267824364
 20
115.3177215918091
 30
0.0
 10
155.6486159870799
 20
115.5982076277988
 30
0.0
 10
155.764311690098
 20
116.1761264430417
 30
0.0
 10
155.7938982485549
 20
116.4747452083761
 30
0.0
 10
155.7941315110665
 20
117.062707066653
 30
0.0
 10
155.7657196780004
 20
117.3553248043002
 30
0.0
 10
155.6501242369431
 20
117.9377567625918
 30
0.0
 10
155.5639427864266
 20
118.2209207823009
 30
0.0
 10
155.3396332194479
 20
118.7627322267842
 30
0.0
 10
155.1995077036216
 20
119.0253134751508
 30
0.0
 10
154.8717626704766
 20
119.515821425147
 30
0.0
 10
154.6860769670348
 20
119.7420345087766
 30
0.0
 10
154.2716442209234
 20
120.1572145201643
 30
0.0
 10
154.040631548898
 20
120.3471167592898
 30
0.0
 10
153.5531890759255
 20
120.6733489121167
 30
0.0
 10
153.2951485087088
 20
120.8118902636205
 30
0.0
 10
152.7496128385546
 20
121.0388264220773
 30
0.0
 10
152.4645317661604
 20
121.1255073708728
 30
0.0
 10
151.8890836797668
 20
121.2406335917474
 30
0.0
 10
151.5947355774317
 20
121.2702821443121
 30
0.0
 10
151.0001964442089
 20
121.2707380604216
 30
0.0
 10
150.707542763242
 20
121.2417946599423
 30
0.0
 10
150.1311320001647
 20
121.1275776754086
 30
0.0
 10
149.844393315081
 20
121.0407908477973
 30
0.0
 10
149.3003314854704
 20
120.8154978486201
 30
0.0
 10
149.0419244566711
 20
120.6775217157615
 30
0.0
 10
148.5521668636333
 20
120.3508619378843
 30
0.0
 10
148.3215707004713
 20
120.1617114439729
 30
0.0
 10
147.9073381442804
 20
119.7481081678806
 30
0.0
 10
147.7208610771607
 20
119.5219688717732
 30
0.0
 10
147.390676456804
 20
119.0292489263394
 30
0.0
 10
147.2519223392718
 20
118.7698529186925
 30
0.0
 10
147.0267549864721
 20
118.2287196945564
 30
0.0
 10
146.9395654022117
 20
117.9437838036862
 30
0.0
 10
146.8233163889826
 20
117.3626712419275
 30
0.0
 10
146.7940152339499
 20
117.0684529548661
 30
0.0
 10
146.79401523395
 20
116.4725698960588
 30
0.0
  0
SPLINE
  5
96
330
1F
100
AcDbEntity
  8
0
  6
Continuous
 62
     7
370
    15
100
AcDbSpline
210
0.0
220
0.0
230
1.0
 70
     8
 71
     3
 72
    70
 73
    66
 74
     0
 42
0.00000001
 43
0.00000001
 40
-0.03125
 40
-0.03125
 40
0.0
 40
0.0
 40
0.03125
 40
0.03125
 40
0.0625
 40
0.0625
 40
0.09375
 40
0.09375
 40
0.125
 40
0.125
 40
0.1562500000000001
 40
0.1562500000000001
 40
0.1875000000000001
 40
0.1875000000000001
 40
0.2187500000000001
 40
0.2187500000000001
 40
0.2500000000000001
 40
0.2500000000000001
 40
0.2812500000000001
 40
0.2812500000000001
 40
0.3125000000000001
 40
0.3125000000000001
 40
0.3437500000000001
 40
0.3437500000000001
 40
0.3750000000000001
 40
0.3750000000000001
 40
0.4062500000000001
 40
0.4062500000000001
 40
0.4375000000000001
 40
0.4375000000000001
 40
0.4687500000000001
 40
0.4687500000000001
 40
0.5000000000000001
 40
0.5000000000000001
 40
0.5312500000000001
 40
0.5312500000000001
 40
0.5625000000000001
 40
0.5625000000000001
 40
0.5937500000000001
 40
0.5937500000000001
 40
0.6250000000000001
 40
0.6250000000000001
 40
0.6562500000000001
 40
0.6562500000000001
 40
0.6875000000000001
 40
0.6875000000000001
 40
0.7187500000000001
 40
0.7187500000000001
 40
0.75
 40
0.75
 40
0.78125
 40
0.78125
 40
0.8125
 40
0.8125
 40
0.84375
 40
0.84375
 40
0.875
 40
0.875
 40
0.90625
 40
0.90625
 40
0.9375
 40
0.9375
 40
0.96875
 40
0.96875
 40
1.0
 40
1.0
 40
1.03125
 40
1.03125
 10
131.2940152339499
 20
117.0684529548661
 30
0.0
 10
131.2940152339499
 20
116.4725698960588
 30
0.0
 10
131.3233118457452
 20
116.1797269778098
 30
0.0
 10
131.4379890464997
 20
115.6037848494638
 30
0.0
 10
131.524804724955
 20
115.3176572236211
 30
0.0
 10
131.7508902047242
 20
114.772992038831
 30
0.0
 10
131.8891516154457
 20
114.5147622522992
 30
0.0
 10
132.2156954377026
 20
114.0260640043722
 30
0.0
 10
132.4053508176339
 20
113.7951582145686
 30
0.0
 10
132.8195892076788
 20
113.3810331366659
 30
0.0
 10
133.045724437649
 20
113.1949855831197
 30
0.0
 10
133.537382348265
 20
112.8660146115902
 30
0.0
 10
133.7983526250945
 20
112.7266069107527
 30
0.0
 10
134.3395337042201
 20
112.5019851631386
 30
0.0
 10
134.6237495777495
 20
112.4152544683253
 30
0.0
 10
135.2048867835288
 20
112.2994139608932
 30
0.0
 10
135.4972566300232
 20
112.2706836452316
 30
0.0
 10
136.08552762658
 20
112.2703407347347
 30
0.0
 10
136.3843815684413
 20
112.2996970979986
 30
0.0
 10
136.9619744487401
 20
112.4147583984712
 30
0.0
 10
137.2427731292454
 20
112.4998831979918
 30
0.0
 10
137.7883293194006
 20
112.7257770429568
 30
0.0
 10
138.0509118763915
 20
112.8663924961039
 30
0.0
 10
138.5377837566672
 20
113.1917600562017
 30
0.0
 10
138.7657238149021
 20
113.3783723111045
 30
0.0
 10
139.1845484055609
 20
113.7969706953785
 30
0.0
 10
139.3703029133123
 20
114.0235251014291
 30
0.0
 10
139.6961771524205
 20
114.5102238791482
 30
0.0
 10
139.8374168398012
 20
114.7735965548943
 30
0.0
 10
140.0632267824364
 20
115.3177215918091
 30
0.0
 10
140.1486159870799
 20
115.5982076277988
 30
0.0
 10
140.2643116900979
 20
116.1761264430417
 30
0.0
 10
140.2938982485549
 20
116.4747452083761
 30
0.0
 10
140.2941315110665
 20
117.062707066653
 30
0.0
 10
140.2657196780004
 20
117.3553248043002
 30
0.0
 10
140.1501242369431
 20
117.9377567625918
 30
0.0
 10
140.0639427864266
 20
118.2209207823009
 30
0.0
 10
139.8396332194479
 20
118.7627322267842
 30
0.0
 10
139.6995077036216
 20
119.0253134751508
 30
0.0
 10
139.3717626704766
 20
119.515821425147
 30
0.0
 10
139.1860769670348
 20
119.7420345087766
 30
0.0
 10
138.7716442209234
 20
120.1572145201643
 30
0.0
 10
138.540631548898
 20
120.3471167592898
 30
0.0
 10
138.0531890759256
 20
120.6733489121167
 30
0.0
 10
137.7951485087087
 20
120.8118902636205
 30
0.0
 10
137.2496128385546
 20
121.0388264220773
 30
0.0
 10
136.9645317661604
 20
121.1255073708728
 30
0.0
 10
136.3890836797667
 20
121.2406335917474
 30
0.0
 10
136.0947355774317
 20
121.2702821443121
 30
0.0
 10
135.500196444209
 20
121.2707380604216
 30
0.0
 10
135.207542763242
 20
121.2417946599423
 30
0.0
 10
134.6311320001646
 20
121.1275776754086
 30
0.0
 10
134.344393315081
 20
121.0407908477973
 30
0.0
 10
133.8003314854704
 20
120.8154978486201
 30
0.0
 10
133.5419244566711
 20
120.6775217157615
 30
0.0
 10
133.0521668636333
 20
120.3508619378843
 30
0.0
 10
132.8215707004713
 20
120.1617114439729
 30
0.0
 10
132.4073381442803
 20
119.7481081678806
 30
0.0
 10
132.2208610771607
 20
119.5219688717732
 30
0.0
 10
131.890676456804
 20
119.0292489263394
 30
0.0
 10
131.7519223392718
 20
118.7698529186925
 30
0.0
 10
131.5267549864722
 20
118.2287196945564
 30
0.0
 10
131.4395654022117
 20
117.9437838036862
 30
0.0
 10
131.3233163889826
 20
117.3626712419275
 30
0.0
 10
131.2940152339499
 20
117.0684529548661
 30
0.0
 10
131.2940152339499
 20
116.4725698960588
 30
0.0
  0
SPLINE
  5
97
330
1F
100
AcDbEntity
  8
0
  6
Continuous
 62
     7
370
    15
100
AcDbSpline
210
0.0
220
0.0
230
1.0
 70
     8
 71
     3
 72
    70
 73
    66
 74
     0
 42
0.00000001
 43
0.00000001
 40
-0.03125
 40
-0.03125
 40
0.0
 40
0.0
 40
0.03125
 40
0.03125
 40
0.0625
 40
0.0625
 40
0.09375
 40
0.09375
 40
0.125
 40
0.125
 40
0.15625
 40
0.15625
 40
0.1875
 40
0.1875
 40
0.2187500000000001
 40
0.2187500000000001
 40
0.2500000000000001
 40
0.2500000000000001
 40
0.2812500000000002
 40
0.2812500000000002
 40
0.3125000000000002
 40
0.3125000000000002
 40
0.3437500000000002
 40
0.3437500000000002
 40
0.3750000000000002
 40
0.3750000000000002
 40
0.4062500000000003
 40
0.4062500000000003
 40
0.4375000000000003
 40
0.4375000000000003
 40
0.4687500000000003
 40
0.4687500000000003
 40
0.5000000000000003
 40
0.5000000000000003
 40
0.5312500000000003
 40
0.5312500000000003
 40
0.5625000000000003
 40
0.5625000000000003
 40
0.5937500000000002
 40
0.5937500000000002
 40
0.6250000000000002
 40
0.6250000000000002
 40
0.6562500000000002
 40
0.6562500000000002
 40
0.6875000000000002
 40
0.6875000000000002
 40
0.7187500000000002
 40
0.7187500000000002
 40
0.7500000000000001
 40
0.7500000000000001
 40
0.7812500000000001
 40
0.7812500000000001
 40
0.8125000000000001
 40
0.8125000000000001
 40
0.8437500000000001
 40
0.8437500000000001
 40
0.8750000000000001
 40
0.8750000000000001
 40
0.9062500000000001
 40
0.9062500000000001
 40
0.9375
 40
0.9375
 40
0.96875
 40
0.96875
 40
1.0
 40
1.0
 40
1.03125
 40
1.03125
 10
115.7940152339499
 20
117.0684529548661
 30
0.0
 10
115.7940152339499
 20
116.4725698960588
 30
0.0
 10
115.8233118457452
 20
116.1797269778098
 30
0.0
 10
115.9379890464997
 20
115.6037848494638
 30
0.0
 10
116.0248047249551
 20
115.3176572236211
 30
0.0
 10
116.2508902047242
 20
114.772992038831
 30
0.0
 10
116.3891516154458
 20
114.5147622522992
 30
0.0
 10
116.7156954377027
 20
114.0260640043722
 30
0.0
 10
116.905350817634
 20
113.7951582145686
 30
0.0
 10
117.3195892076788
 20
113.3810331366659
 30
0.0
 10
117.545724437649
 20
113.1949855831197
 30
0.0
 10
118.037382348265
 20
112.8660146115902
 30
0.0
 10
118.2983526250945
 20
112.7266069107527
 30
0.0
 10
118.8395337042201
 20
112.5019851631386
 30
0.0
 10
119.1237495777495
 20
112.4152544683253
 30
0.0
 10
119.7048867835288
 20
112.2994139608932
 30
0.0
 10
119.9972566300233
 20
112.2706836452316
 30
0.0
 10
120.58552762658
 20
112.2703407347347
 30
0.0
 10
120.8843815684413
 20
112.2996970979986
 30
0.0
 10
121.4619744487401
 20
112.4147583984712
 30
0.0
 10
121.7427731292454
 20
112.4998831979918
 30
0.0
 10
122.2883293194006
 20
112.7257770429568
 30
0.0
 10
122.5509118763915
 20
112.8663924961039
 30
0.0
 10
123.0377837566672
 20
113.1917600562017
 30
0.0
 10
123.2657238149021
 20
113.3783723111045
 30
0.0
 10
123.6845484055609
 20
113.7969706953784
 30
0.0
 10
123.8703029133123
 20
114.0235251014291
 30
0.0
 10
124.1961771524205
 20
114.5102238791482
 30
0.0
 10
124.3374168398012
 20
114.7735965548943
 30
0.0
 10
124.5632267824364
 20
115.3177215918091
 30
0.0
 10
124.6486159870799
 20
115.5982076277988
 30
0.0
 10
124.7643116900979
 20
116.1761264430417
 30
0.0
 10
124.7938982485548
 20
116.4747452083761
 30
0.0
 10
124.7941315110665
 20
117.062707066653
 30
0.0
 10
124.7657196780004
 20
117.3553248043002
 30
0.0
 10
124.6501242369431
 20
117.9377567625918
 30
0.0
 10
124.5639427864266
 20
118.2209207823009
 30
0.0
 10
124.3396332194479
 20
118.7627322267842
 30
0.0
 10
124.1995077036216
 20
119.0253134751508
 30
0.0
 10
123.8717626704766
 20
119.515821425147
 30
0.0
 10
123.6860769670348
 20
119.7420345087766
 30
0.0
 10
123.2716442209234
 20
120.1572145201643
 30
0.0
 10
123.0406315488979
 20
120.3471167592898
 30
0.0
 10
122.5531890759255
 20
120.6733489121167
 30
0.0
 10
122.2951485087088
 20
120.8118902636205
 30
0.0
 10
121.7496128385546
 20
121.0388264220773
 30
0.0
 10
121.4645317661604
 20
121.1255073708728
 30
0.0
 10
120.8890836797668
 20
121.2406335917474
 30
0.0
 10
120.5947355774317
 20
121.2702821443121
 30
0.0
 10
120.000196444209
 20
121.2707380604216
 30
0.0
 10
119.707542763242
 20
121.2417946599423
 30
0.0
 10
119.1311320001646
 20
121.1275776754086
 30
0.0
 10
118.844393315081
 20
121.0407908477973
 30
0.0
 10
118.3003314854704
 20
120.8154978486201
 30
0.0
 10
118.0419244566711
 20
120.6775217157615
 30
0.0
 10
117.5521668636334
 20
120.3508619378843
 30
0.0
 10
117.3215707004713
 20
120.1617114439729
 30
0.0
 10
116.9073381442804
 20
119.7481081678806
 30
0.0
 10
116.7208610771608
 20
119.5219688717732
 30
0.0
 10
116.3906764568041
 20
119.0292489263394
 30
0.0
 10
116.2519223392718
 20
118.7698529186925
 30
0.0
 10
116.0267549864721
 20
118.2287196945564
 30
0.0
 10
115.9395654022117
 20
117.9437838036862
 30
0.0
 10
115.8233163889826
 20
117.3626712419275
 30
0.0
 10
115.7940152339499
 20
117.0684529548661
 30
0.0
 10
115.7940152339499
 20
116.4725698960588
 30
0.0
  0
LINE
  5
98
330
1F
100
AcDbEntity
  8
0
  6
Continuous
 62
     7
370
    15
100
AcDbLine
 10
161.7940167241
 20
116.7705114255
 30
0.0
 11
161.7940167241
 21
92.7705112168
 31
0.0
  0
LINE
  5
99
330
1F
100
AcDbEntity
  8
0
  6
Continuous
 62
     7
370
    15
100
AcDbLine
 10
161.7940167241
 20
140.7705116341
 30
0.0
 11
161.7940167241
 21
116.7705114255
 31
0.0
  0
SPLINE
  5
9A
330
1F
100
AcDbEntity
  8
0
  6
Continuous
 62
     7
370
    15
100
AcDbSpline
210
0.0
220
0.0
230
1.0
 70
     8
 71
     3
 72
    12
 73
     8
 74
     0
 42
0.00000001
 43
0.00000001
 40
0.0
 40
0.0
 40
0.0
 40
0.0
 40
0.4999999999999996
 40
0.4999999999999996
 40
0.7499999999999997
 40
0.7499999999999997
 40
1.0
 40
1.0
 40
1.0
 40
1.0
 10
60.97750294749343
 20
94.91571772298659
 30
0.0
 10
61.03393944840062
 20
94.91429984164483
 30
0.0
 10
61.10302407908937
 20
94.91273550539653
 30
0.0
 10
61.2218263508073
 20
94.90979131342209
 30
0.0
 10
61.26201162627738
 20
94.90875311032471
 30
0.0
 10
61.3353926736812
 20
94.90681921511008
 30
0.0
 10
61.36880223742384
 20
94.90592432782125
 30
0.0
 10
61.39903834508029
 20
94.90514053754892
 30
0.0
  0
SPLINE
  5
9B
330
1F
100
AcDbEntity
  8
0
  6
Continuous
 62
     7
370
    15
100
AcDbSpline
210
0.0
220
0.0
230
1.0
 70
     8
 71
     3
 72
    16
 73
    12
 74
     0
 42
0.00000001
 43
0.00000001
 40
0.0
 40
0.0
 40
0.0
 40
0.0
 40
0.0625000000000009
 40
0.0625000000000009
 40
0.1250000000000017
 40
0.1250000000000017
 40
0.249999999999998
 40
0.249999999999998
 40
0.4999999999999987
 40
0.4999999999999987
 40
1.0
 40
1.0
 40
1.0
 40
1.0
 10
61.39903834504307
 20
94.90514053757316
 30
0.0
 10
61.41061875263102
 20
94.90484034646182
 30
0.0
 10
61.42392827939229
 20
94.90351259820281
 30
0.0
 10
61.45322970947844
 20
94.89681392342781
 30
0.0
 10
61.46804380936273
 20
94.89145574032213
 30
0.0
 10
61.50387221106558
 20
94.87441009115477
 30
0.0
 10
61.51799183542861
 20
94.86294755337904
 30
0.0
 10
61.5524959795171
 20
94.8313842280068
 30
0.0
 10
61.56360053022171
 20
94.81348692896154
 30
0.0
 10
61.5897767074379
 20
94.76332551134728
 30
0.0
 10
61.59401523394992
 20
94.7355810991507
 30
0.0
 10
61.59401523394992
 20
94.71091693722117
 30
0.0
  0
LINE
  5
9C
330
1F
100
AcDbEntity
  8
0
  6
Continuous
 62
     7
370
    15
100
AcDbLine
 10
61.594015239
 20
109.7486241976
 30
0.0
 11
61.594015239
 21
94.2306909034
 31
0.0
  0
SPLINE
  5
9D
330
1F
100
AcDbEntity
  8
0
  6
Continuous
 62
     7
370
    15
100
AcDbSpline
210
0.0
220
0.0
230
1.0
 70
     8
 71
     3
 72
    16
 73
    12
 74
     0
 42
0.00000001
 43
0.00000001
 40
0.0
 40
0.0
 40
0.0
 40
0.0
 40
0.4999999999999951
 40
0.4999999999999951
 40
0.7499999999999961
 40
0.7499999999999961
 40
0.8749999999999976
 40
0.8749999999999976
 40
0.9374999999999988
 40
0.9374999999999988
 40
1.0
 40
1.0
 40
1.0
 40
1.0
 10
61.59401523394992
 20
109.7486240997123
 30
0.0
 10
61.59401523394992
 20
109.8623166438402
 30
0.0
 10
61.58986895887197
 20
109.9766368051897
 30
0.0
 10
61.56390336347846
 20
110.1496850956868
 30
0.0
 10
61.55244245810105
 20
110.2088606028485
 30
0.0
 10
61.51813072032667
 20
110.2919837223167
 30
0.0
 10
61.50410598439712
 20
110.3201050384174
 30
0.0
 10
61.46808302136328
 20
110.3487208523948
 30
0.0
 10
61.45332851227361
 20
110.3545139002966
 30
0.0
 10
61.42397635112671
 20
110.3529204743596
 30
0.0
 10
61.41063647662262
 20
110.3464240710358
 30
0.0
 10
61.39903834507427
 20
110.3379083248326
 30
0.0
  0
SPLINE
  5
9E
330
1F
100
AcDbEntity
  8
0
  6
Continuous
 62
     7
370
    15
100
AcDbSpline
210
0.0
220
0.0
230
1.0
 70
     8
 71
     3
 72
    12
 73
     8
 74
     0
 42
0.00000001
 43
0.00000001
 40
0.0
 40
0.0
 40
0.0
 40
0.0
 40
0.2499999999999999
 40
0.2499999999999999
 40
0.5000000000000001
 40
0.5000000000000001
 40
1.0
 40
1.0
 40
1.0
 40
1.0
 10
61.39903834508135
 20
110.3379083248235
 30
0.0
 10
61.36883990364072
 20
110.3157355927784
 30
0.0
 10
61.33547254830474
 20
110.2966559369012
 30
0.0
 10
61.26231727247482
 20
110.2714828924585
 30
0.0
 10
61.22206457345087
 20
110.2659263560417
 30
0.0
 10
61.10433583017601
 20
110.2768381670284
 30
0.0
 10
61.03387738211708
 20
110.3187739224393
 30
0.0
 10
60.97750294749881
 20
110.3679857048208
 30
0.0
  0
SPLINE
  5
9F
330
1F
100
AcDbEntity
  8
0
  6
Continuous
 62
     7
370
    15
100
AcDbSpline
210
0.0
220
0.0
230
1.0
 70
     8
 71
     3
 72
    12
 73
     8
 74
     0
 42
0.00000001
 43
0.00000001
 40
0.0
 40
0.0
 40
0.0
 40
0.0
 40
0.4999999999999983
 40
0.4999999999999983
 40
0.749999999999999
 40
0.749999999999999
 40
1.0
 40
1.0
 40
1.0
 40
1.0
 10
60.47269489039027
 20
111.5843370967014
 30
0.0
 10
60.51644524227472
 20
111.3638901117269
 30
0.0
 10
60.56933539339922
 20
111.1483451219213
 30
0.0
 10
60.68094693654089
 20
110.8359310453494
 30
0.0
 10
60.72350628044442
 20
110.7338515697335
 30
0.0
 10
60.82848351578185
 20
110.5394115570917
 30
0.0
 10
60.89005075887643
 20
110.444326658028
 30
0.0
 10
60.97750294749881
 20
110.3679857048209
 30
0.0
  0
LINE
  5
A0
330
1F
100
AcDbEntity
  8
0
  6
Continuous
 62
     7
370
    15
100
AcDbLine
 10
60.4726949284
 20
111.5843368949
 30
0.0
 11
60.4726949284
 21
121.956685956
 31
0.0
  0
SPLINE
  5
A1
330
1F
100
AcDbEntity
  8
0
  6
Continuous
 62
     7
370
    15
100
AcDbSpline
210
0.0
220
0.0
230
1.0
 70
     8
 71
     3
 72
    12
 73
     8
 74
     0
 42
0.00000001
 43
0.00000001
 40
0.0
 40
0.0
 40
0.0
 40
0.0
 40
0.2499999999999993
 40
0.2499999999999993
 40
0.4999999999999986
 40
0.4999999999999986
 40
1.0
 40
1.0
 40
1.0
 40
1.0
 10
60.97750294749871
 20
123.173037146104
 30
0.0
 10
60.88900953993083
 20
123.0957872659957
 30
0.0
 10
60.82895149916494
 20
123.0024679421065
 30
0.0
 10
60.72310322618237
 20
122.806434889137
 30
0.0
 10
60.68056970490489
 20
122.7041085309253
 30
0.0
 10
60.56941839808125
 20
122.3927641251494
 30
0.0
 10
60.51648754103346
 20
122.1773458719714
 30
0.0
 10
60.47269489039027
 20
121.9566857542235
 30
0.0
  0
SPLINE
  5
A2
330
1F
100
AcDbEntity
  8
0
  6
Continuous
 62
     7
370
    15
100
AcDbSpline
210
0.0
220
0.0
230
1.0
 70
     8
 71
     3
 72
    12
 73
     8
 74
     0
 42
0.00000001
 43
0.00000001
 40
0.0
 40
0.0
 40
0.0
 40
0.0
 40
0.4999999999999997
 40
0.4999999999999997
 40
0.7499999999999998
 40
0.7499999999999998
 40
1.0
 40
1.0
 40
1.0
 40
1.0
 10
60.9775029474987
 20
123.173037146104
 30
0.0
 10
61.03381149579433
 20
123.2221914133479
 30
0.0
 10
61.10408615651244
 20
123.2641487319516
 30
0.0
 10
61.22212407083601
 20
123.275108409484
 30
0.0
 10
61.26230031168996
 20
123.2695996512367
 30
0.0
 10
61.33625740636789
 20
123.2440424224477
 30
0.0
 10
61.36887379407933
 20
123.2252623746084
 30
0.0
 10
61.39903834507508
 20
123.2031145260917
 30
0.0
  0
SPLINE
  5
A3
330
1F
100
AcDbEntity
  8
0
  6
Continuous
 62
     7
370
    15
100
AcDbSpline
210
0.0
220
0.0
230
1.0
 70
     8
 71
     3
 72
    16
 73
    12
 74
     0
 42
0.00000001
 43
0.00000001
 40
0.0
 40
0.0
 40
0.0
 40
0.0
 40
0.0625000000000007
 40
0.0625000000000007
 40
0.1250000000000014
 40
0.1250000000000014
 40
0.2500000000000007
 40
0.2500000000000007
 40
0.4999999999999993
 40
0.4999999999999993
 40
1.0
 40
1.0
 40
1.0
 40
1.0
 10
61.39903834504334
 20
123.2031145260372
 30
0.0
 10
61.41065124488269
 20
123.1945879364419
 30
0.0
 10
61.42400242931517
 20
123.1880876749092
 30
0.0
 10
61.45340226893433
 20
123.1865182777916
 30
0.0
 10
61.4682429934896
 20
123.1924016684222
 30
0.0
 10
61.5040762014582
 20
123.2209493044728
 30
0.0
 10
61.51818940927978
 20
123.2491163237786
 30
0.0
 10
61.55268078049866
 20
123.3328705822005
 30
0.0
 10
61.56376485160905
 20
123.3905839958219
 30
0.0
 10
61.58988766940506
 20
123.5641745324678
 30
0.0
 10
61.59401523394993
 20
123.6792025851097
 30
0.0
 10
61.59401523394993
 20
123.7923987512125
 30
0.0
  0
LINE
  5
A4
330
1F
100
AcDbEntity
  8
0
  6
Continuous
 62
     7
370
    15
100
AcDbLine
 10
61.594015239
 20
139.3103319475
 30
0.0
 11
61.594015239
 21
123.7923986534
 31
0.0
  0
SPLINE
  5
A5
330
1F
100
AcDbEntity
  8
0
  6
Continuous
 62
     7
370
    15
100
AcDbSpline
210
0.0
220
0.0
230
1.0
 70
     8
 71
     3
 72
    16
 73
    12
 74
     0
 42
0.00000001
 43
0.00000001
 40
0.0
 40
0.0
 40
0.0
 40
0.0
 40
0.4999999999999957
 40
0.4999999999999957
 40
0.7499999999999936
 40
0.7499999999999936
 40
0.874999999999994
 40
0.874999999999994
 40
0.937499999999997
 40
0.937499999999997
 40
1.0
 40
1.0
 40
1.0
 40
1.0
 10
61.59401523394992
 20
138.8301059137037
 30
0.0
 10
61.59401523394992
 20
138.8054347576608
 30
0.0
 10
61.58984953548995
 20
138.7778529262696
 30
0.0
 10
61.563591207165
 20
138.7275100554462
 30
0.0
 10
61.55208742542741
 20
138.7092205573843
 30
0.0
 10
61.51795666608089
 20
138.6780655263473
 30
0.0
 10
61.50353477941018
 20
138.6664261511356
 30
0.0
 10
61.46796781097235
 20
138.6495441252045
 30
0.0
 10
61.45301604267769
 20
138.6441550213968
 30
0.0
 10
61.42401222431793
 20
138.6375345254523
 30
0.0
 10
61.41059687030869
 20
138.6361819372459
 30
0.0
 10
61.3990383450721
 20
138.6358823133743
 30
0.0
  0
SPLINE
  5
A6
330
1F
100
AcDbEntity
  8
0
  6
Continuous
 62
     7
370
    15
100
AcDbSpline
210
0.0
220
0.0
230
1.0
 70
     8
 71
     3
 72
    12
 73
     8
 74
     0
 42
0.00000001
 43
0.00000001
 40
0.0
 40
0.0
 40
0.0
 40
0.0
 40
0.2500000000000001
 40
0.2500000000000001
 40
0.4999999999999999
 40
0.4999999999999999
 40
1.0
 40
1.0
 40
1.0
 40
1.0
 10
61.39903834508135
 20
138.635882313376
 30
0.0
 10
61.36885056853171
 20
138.6350997759585
 30
0.0
 10
61.33549676444001
 20
138.6342064441399
 30
0.0
 10
61.26237056124405
 20
138.6322791353363
 30
0.0
 10
61.22213535821987
 20
138.6312396041237
 30
0.0
 10
61.10444372808679
 20
138.6283217207764
 30
0.0
 10
61.03406305492673
 20
138.6267261147062
 30
0.0
 10
60.97750294749613
 20
138.6253051279383
 30
0.0
  0
SPLINE
  5
A7
330
1F
100
AcDbEntity
  8
0
  6
Continuous
 62
     7
370
    15
100
AcDbSpline
210
0.0
220
0.0
230
1.0
 70
     8
 71
     3
 72
    16
 73
    12
 74
     0
 42
0.00000001
 43
0.00000001
 40
0.0
 40
0.0
 40
0.0
 40
0.0
 40
0.2499999999999999
 40
0.2499999999999999
 40
0.3749999999999999
 40
0.3749999999999999
 40
0.4999999999999999
 40
0.4999999999999999
 40
0.7499999999999999
 40
0.7499999999999999
 40
1.0
 40
1.0
 40
1.0
 40
1.0
 10
60.47269489039027
 20
121.9566857542235
 30
0.0
 10
60.31146241290582
 20
121.1442759789767
 30
0.0
 10
60.19098257326618
 20
120.3041976845919
 30
0.0
 10
60.06860205595286
 20
119.0029026352292
 30
0.0
 10
60.0376243955554
 20
118.5622215996444
 30
0.0
 10
59.99601065792745
 20
117.6663819587133
 30
0.0
 10
59.98577474499464
 20
117.2197238275108
 30
0.0
 10
59.98558634793853
 20
115.8844138703709
 30
0.0
 10
60.02573105057614
 20
114.9999184970634
 30
0.0
 10
60.18988480551571
 20
113.2426686090374
 30
0.0
 10
60.31143645592527
 20
112.3968776626242
 30
0.0
 10
60.47269489039027
 20
111.5843370967014
 30
0.0
  0
LINE
  5
A8
330
1F
100
AcDbEntity
  8
0
  6
Continuous
 62
     7
370
    15
100
AcDbLine
 10
59.798975363
 20
110.382790144
 30
0.0
 11
60.9775029631
 21
110.3679858403
 31
0.0
  0
LINE
  5
A9
330
1F
100
AcDbEntity
  8
0
  6
Continuous
 62
     7
370
    15
100
AcDbLine
 10
59.798975363
 20
123.158232707
 30
0.0
 11
59.798975363
 21
110.382790144
 31
0.0
  0
LINE
  5
AA
330
1F
100
AcDbEntity
  8
0
  6
Continuous
 62
     7
370
    15
100
AcDbLine
 10
59.798975363
 20
123.158232707
 30
0.0
 11
60.9775029631
 21
123.1730370106
 31
0.0
  0
LINE
  5
AB
330
1F
100
AcDbEntity
  8
0
  6
Continuous
 62
     7
370
    15
100
AcDbLine
 10
59.5940152459
 20
123.2556895608
 30
0.0
 11
59.5940152459
 21
110.2853332901
 31
0.0
  0
LINE
  5
AC
330
1F
100
AcDbEntity
  8
0
  6
Continuous
 62
     7
370
    15
100
AcDbLine
 10
25.2940157704
 20
110.7162008317
 30
0.0
 11
59.5940152459
 21
110.2853332901
 31
0.0
  0
LINE
  5
AD
330
1F
100
AcDbEntity
  8
0
  6
Continuous
 62
     7
370
    15
100
AcDbLine
 10
25.2940157704
 20
122.8248220192
 30
0.0
 11
25.2940157704
 21
110.7162008317
 31
0.0
  0
LINE
  5
AE
330
1F
100
AcDbEntity
  8
0
  6
Continuous
 62
     7
370
    15
100
AcDbLine
 10
25.2940157704
 20
122.8248220192
 30
0.0
 11
59.5940152459
 21
123.2556895608
 31
0.0
  0
LWPOLYLINE
  5
AF
330
1F
100
AcDbEntity
  8
0
  6
Continuous
 62
     7
370
    15
100
AcDbPolyline
 90
        9
 70
   128
 43
0.0
 10
59.5940152459
 20
110.2853332901
 10
59.5988369357
 20
110.3047876874
 10
59.6111567035
 20
110.3233983064
 10
59.6305014375
 20
110.3404494258
 10
59.6561272438
 20
110.35528586
 10
59.6870497145
 20
110.3673376398
 10
59.722080249
 20
110.3761414321
 10
59.7598730862
 20
110.3813591668
 10
59.798975363
 20
110.382790144
  0
LWPOLYLINE
  5
B0
330
1F
100
AcDbEntity
  8
0
  6
Continuous
 62
     7
370
    15
100
AcDbPolyline
 90
        9
 70
   128
 43
0.0
 10
59.5940152459
 20
123.2556895608
 10
59.5988369357
 20
123.2362351635
 10
59.6111567035
 20
123.2176245445
 10
59.6305014375
 20
123.2005734252
 10
59.6561272438
 20
123.1857369909
 10
59.6870497145
 20
123.1736852111
 10
59.722080249
 20
123.1648814188
 10
59.7598730862
 20
123.1596636841
 10
59.798975363
 20
123.158232707
  0
LINE
  5
B1
330
1F
100
AcDbEntity
  8
0
  6
Continuous
 62
     7
370
    15
100
AcDbLine
 10
23.7940164558
 20
111.1492136748
 30
0.0
 11
25.2940157704
 21
110.7162008317
 31
0.0
  0
LINE
  5
B2
330
1F
100
AcDbEntity
  8
0
  6
Continuous
 62
     7
370
    15
100
AcDbLine
 10
23.7940164558
 20
122.3918091761
 30
0.0
 11
23.7940164558
 21
111.1492136748
 31
0.0
  0
LINE
  5
B3
330
1F
100
AcDbEntity
  8
0
  6
Continuous
 62
     7
370
    15
100
AcDbLine
 10
23.7940164558
 20
122.3918091761
 30
0.0
 11
25.2940157704
 21
122.8248220192
 31
0.0
  0
LINE
  5
B4
330
1F
100
AcDbEntity
  8
0
  6
Continuous
 62
     7
370
    15
100
AcDbLine
 10
59.5940152459
 20
123.2556895608
 30
0.0
 11
59.5940152459
 21
138.7906111101
 31
0.0
  0
ARC
  5
B5
330
1F
100
AcDbEntity
  8
0
  6
Continuous
 62
     7
370
    15
100
AcDbCircle
 10
59.7939521449
 20
138.7956333212
 30
0.0
 40
0.1999999999999988
100
AcDbArc
 50
181.4391666667
 51
271.4391666667
  0
LINE
  5
B6
330
1F
100
AcDbEntity
  8
0
  6
Continuous
 62
     7
370
    15
100
AcDbLine
 10
59.798975363
 20
123.158232707
 30
0.0
 11
59.798975363
 21
138.5956964711
 31
0.0
  0
LINE
  5
B7
330
1F
100
AcDbEntity
  8
0
  6
Continuous
 62
     7
370
    15
100
AcDbLine
 10
25.2940157704
 20
122.8248220192
 30
0.0
 11
25.2940157704
 21
137.9288750956
 31
0.0
  0
LINE
  5
B8
330
1F
100
AcDbEntity
  8
0
  6
Continuous
 62
     7
370
    15
100
AcDbLine
 10
25.2940157704
 20
137.9288750956
 30
0.0
 11
59.5940152459
 21
138.7906111101
 31
0.0
  0
LINE
  5
B9
330
1F
100
AcDbEntity
  8
0
  6
Continuous
 62
     7
370
    15
100
AcDbLine
 10
25.2940157704
 20
95.6121477554
 30
0.0
 11
25.2940157704
 21
110.7162008317
 31
0.0
  0
LINE
  5
BA
330
1F
100
AcDbEntity
  8
0
  6
Continuous
 62
     7
370
    15
100
AcDbLine
 10
59.5940152459
 20
94.7504117409
 30
0.0
 11
59.5940152459
 21
110.2853332901
 31
0.0
  0
LINE
  5
BB
330
1F
100
AcDbEntity
  8
0
  6
Continuous
 62
     7
370
    15
100
AcDbLine
 10
25.2940157704
 20
95.6121477554
 30
0.0
 11
59.5940152459
 21
94.7504117409
 31
0.0
  0
LINE
  5
BC
330
1F
100
AcDbEntity
  8
0
  6
Continuous
 62
     7
370
    15
100
AcDbLine
 10
59.798975363
 20
94.9453263799
 30
0.0
 11
59.798975363
 21
110.382790144
 31
0.0
  0
ARC
  5
BD
330
1F
100
AcDbEntity
  8
0
  6
Continuous
 62
     7
370
    15
100
AcDbCircle
 10
59.7939521449
 20
94.7453895298
 30
0.0
 40
0.2000000000000061
100
AcDbArc
 50
88.5608333333
 51
178.5608333333
  0
LINE
  5
BE
330
1F
100
AcDbEntity
  8
0
  6
Continuous
 62
     7
370
    15
100
AcDbLine
 10
61.3990383324
 20
94.9051398108
 30
0.0
 11
61.3990383324
 21
110.3379083121
 31
0.0
  0
LINE
  5
BF
330
1F
100
AcDbEntity
  8
0
  6
Continuous
 62
     7
370
    15
100
AcDbLine
 10
61.3990383324
 20
123.2031145388
 30
0.0
 11
61.3990383324
 21
138.6358830402
 31
0.0
  0
LINE
  5
C0
330
1F
100
AcDbEntity
  8
0
  6
Continuous
 62
     7
370
    15
100
AcDbLine
 10
59.798975363
 20
138.5956964711
 30
0.0
 11
60.9775029631
 21
138.6253050784
 31
0.0
  0
LINE
  5
C1
330
1F
100
AcDbEntity
  8
0
  6
Continuous
 62
     7
370
    15
100
AcDbLine
 10
59.798975363
 20
94.9453263799
 30
0.0
 11
60.9775029631
 21
94.9157177726
 31
0.0
  0
LINE
  5
C2
330
1F
100
AcDbEntity
  8
0
  6
Continuous
 62
     7
370
    15
100
AcDbLine
 10
23.7940164558
 20
137.0628494093
 30
0.0
 11
25.2940157704
 21
137.9288750956
 31
0.0
  0
LINE
  5
C3
330
1F
100
AcDbEntity
  8
0
  6
Continuous
 62
     7
370
    15
100
AcDbLine
 10
23.7940164558
 20
122.3918091761
 30
0.0
 11
23.7940164558
 21
137.0628494093
 31
0.0
  0
LINE
  5
C4
330
1F
100
AcDbEntity
  8
0
  6
Continuous
 62
     7
370
    15
100
AcDbLine
 10
23.7940164558
 20
96.4781734416
 30
0.0
 11
25.2940157704
 21
95.6121477554
 31
0.0
  0
LINE
  5
C5
330
1F
100
AcDbEntity
  8
0
  6
Continuous
 62
     7
370
    15
100
AcDbLine
 10
23.7940164558
 20
96.4781734416
 30
0.0
 11
23.7940164558
 21
111.1492136748
 31
0.0
  0
LINE
  5
C6
330
1F
100
AcDbEntity
  8
0
  6
Continuous
 62
     7
370
    15
100
AcDbLine
 10
62.0940152482
 20
85.2705109188
 30
0.0
 11
62.0940152482
 21
148.2705119321
 31
0.0
  0
LINE
  5
C7
330
1F
100
AcDbEntity
  8
0
  6
Continuous
 62
     7
370
    15
100
AcDbLine
 10
86.7940156065
 20
141.770511798
 30
0.0
 11
86.7940156065
 21
91.7705110529
 31
0.0
  0
LINE
  5
C8
330
1F
100
AcDbEntity
  8
0
  6
Continuous
 62
     7
370
    15
100
AcDbLine
 10
160.7940146975
 20
116.7705114255
 30
0.0
 11
160.7940146975
 21
91.7705110529
 31
0.0
  0
LINE
  5
C9
330
1F
100
AcDbEntity
  8
0
  6
Continuous
 62
     7
370
    15
100
AcDbLine
 10
160.7940146975
 20
141.770511798
 30
0.0
 11
160.7940146975
 21
116.7705114255
 31
0.0
  0
LINE
  5
CA
330
1F
100
AcDbEntity
  8
0
  6
HIDDEN
 62
     7
370
     0
100
AcDbLine
 10
135.7940161876
 20
130.7705118576
 30
0.0
 11
140.7940188698
 21
130.7705118576
 31
0.0
  0
LINE
  5
CB
330
1F
100
AcDbEntity
  8
0
  6
HIDDEN
 62
     7
370
     0
100
AcDbLine
 10
130.7940135054
 20
130.7705118576
 30
0.0
 11
135.7940161876
 21
130.7705118576
 31
0.0
  0
LINE
  5
CC
330
1F
100
AcDbEntity
  8
0
  6
HIDDEN
 62
     7
370
     0
100
AcDbLine
 10
135.7940161876
 20
129.2705116117
 30
0.0
 11
139.29401583
 21
129.2705116117
 31
0.0
  0
LINE
  5
CD
330
1F
100
AcDbEntity
  8
0
  6
HIDDEN
 62
     7
370
     0
100
AcDbLine
 10
132.2940165453
 20
129.2705116117
 30
0.0
 11
135.7940161876
 21
129.2705116117
 31
0.0
  0
LINE
  5
CE
330
1F
100
AcDbEntity
  8
0
  6
HIDDEN
 62
     7
370
     0
100
AcDbLine
 10
135.7940161876
 20
140.9705112943
 30
0.0
 11
140.7940188698
 21
140.9705112943
 31
0.0
  0
LINE
  5
CF
330
1F
100
AcDbEntity
  8
0
  6
HIDDEN
 62
     7
370
     0
100
AcDbLine
 10
130.7940135054
 20
140.9705112943
 30
0.0
 11
135.7940161876
 21
140.9705112943
 31
0.0
  0
LINE
  5
D0
330
1F
100
AcDbEntity
  8
0
  6
HIDDEN
 62
     7
370
     0
100
AcDbLine
 10
138.2940138034
 20
135.7705108145
 30
0.0
 11
135.7940161876
 21
135.7705108145
 31
0.0
  0
LINE
  5
D1
330
1F
100
AcDbEntity
  8
0
  6
HIDDEN
 62
     7
370
     0
100
AcDbLine
 10
135.7940161876
 20
135.7705108145
 30
0.0
 11
135.7940161876
 21
141.770511798
 31
0.0
  0
LINE
  5
D2
330
1F
100
AcDbEntity
  8
0
  6
HIDDEN
 62
     7
370
     0
100
AcDbLine
 10
133.2940185718
 20
135.7705108145
 30
0.0
 11
135.7940161876
 21
135.7705108145
 31
0.0
  0
LINE
  5
D3
330
1F
100
AcDbEntity
  8
0
  6
HIDDEN
 62
     7
370
     0
100
AcDbLine
 10
138.2940138034
 20
135.7705108145
 30
0.0
 11
138.2940138034
 21
141.770511798
 31
0.0
  0
LINE
  5
D4
330
1F
100
AcDbEntity
  8
0
  6
HIDDEN
 62
     7
370
     0
100
AcDbLine
 10
133.2940185718
 20
135.7705108145
 30
0.0
 11
133.2940185718
 21
141.770511798
 31
0.0
  0
LINE
  5
D5
330
1F
100
AcDbEntity
  8
0
  6
HIDDEN
 62
     7
370
     0
100
AcDbLine
 10
151.2940177969
 20
130.7705118576
 30
0.0
 11
156.2940130286
 21
130.7705118576
 31
0.0
  0
LINE
  5
D6
330
1F
100
AcDbEntity
  8
0
  6
HIDDEN
 62
     7
370
     0
100
AcDbLine
 10
146.2940151147
 20
130.7705118576
 30
0.0
 11
151.2940177969
 21
130.7705118576
 31
0.0
  0
LINE
  5
D7
330
1F
100
AcDbEntity
  8
0
  6
HIDDEN
 62
     7
370
     0
100
AcDbLine
 10
151.2940177969
 20
129.2705116117
 30
0.0
 11
154.7940174393
 21
129.2705116117
 31
0.0
  0
LINE
  5
D8
330
1F
100
AcDbEntity
  8
0
  6
HIDDEN
 62
     7
370
     0
100
AcDbLine
 10
147.7940181546
 20
129.2705116117
 30
0.0
 11
151.2940177969
 21
129.2705116117
 31
0.0
  0
LINE
  5
D9
330
1F
100
AcDbEntity
  8
0
  6
HIDDEN
 62
     7
370
     0
100
AcDbLine
 10
151.2940177969
 20
140.9705112943
 30
0.0
 11
156.2940130286
 21
140.9705112943
 31
0.0
  0
LINE
  5
DA
330
1F
100
AcDbEntity
  8
0
  6
HIDDEN
 62
     7
370
     0
100
AcDbLine
 10
146.2940151147
 20
140.9705112943
 30
0.0
 11
151.2940177969
 21
140.9705112943
 31
0.0
  0
LINE
  5
DB
330
1F
100
AcDbEntity
  8
0
  6
HIDDEN
 62
     7
370
     0
100
AcDbLine
 10
153.7940154128
 20
135.7705108145
 30
0.0
 11
151.2940177969
 21
135.7705108145
 31
0.0
  0
LINE
  5
DC
330
1F
100
AcDbEntity
  8
0
  6
HIDDEN
 62
     7
370
     0
100
AcDbLine
 10
151.2940177969
 20
135.7705108145
 30
0.0
 11
151.2940177969
 21
141.770511798
 31
0.0
  0
LINE
  5
DD
330
1F
100
AcDbEntity
  8
0
  6
HIDDEN
 62
     7
370
     0
100
AcDbLine
 10
148.7940127306
 20
135.7705108145
 30
0.0
 11
151.2940177969
 21
135.7705108145
 31
0.0
  0
LINE
  5
DE
330
1F
100
AcDbEntity
  8
0
  6
HIDDEN
 62
     7
370
     0
100
AcDbLine
 10
153.7940154128
 20
135.7705108145
 30
0.0
 11
153.7940154128
 21
141.770511798
 31
0.0
  0
LINE
  5
DF
330
1F
100
AcDbEntity
  8
0
  6
HIDDEN
 62
     7
370
     0
100
AcDbLine
 10
148.7940127306
 20
135.7705108145
 30
0.0
 11
148.7940127306
 21
141.770511798
 31
0.0
  0
LINE
  5
E0
330
1F
100
AcDbEntity
  8
0
  6
HIDDEN
 62
     7
370
     0
100
AcDbLine
 10
120.2940145783
 20
130.7705118576
 30
0.0
 11
125.2940172605
 21
130.7705118576
 31
0.0
  0
LINE
  5
E1
330
1F
100
AcDbEntity
  8
0
  6
HIDDEN
 62
     7
370
     0
100
AcDbLine
 10
115.2940156214
 20
130.7705118576
 30
0.0
 11
120.2940145783
 21
130.7705118576
 31
0.0
  0
LINE
  5
E2
330
1F
100
AcDbEntity
  8
0
  6
HIDDEN
 62
     7
370
     0
100
AcDbLine
 10
120.2940145783
 20
129.2705116117
 30
0.0
 11
123.7940142207
 21
129.2705116117
 31
0.0
  0
LINE
  5
E3
330
1F
100
AcDbEntity
  8
0
  6
HIDDEN
 62
     7
370
     0
100
AcDbLine
 10
116.7940149359
 20
129.2705116117
 30
0.0
 11
120.2940145783
 21
129.2705116117
 31
0.0
  0
LINE
  5
E4
330
1F
100
AcDbEntity
  8
0
  6
HIDDEN
 62
     7
370
     0
100
AcDbLine
 10
120.2940145783
 20
140.9705112943
 30
0.0
 11
125.2940172605
 21
140.9705112943
 31
0.0
  0
LINE
  5
E5
330
1F
100
AcDbEntity
  8
0
  6
HIDDEN
 62
     7
370
     0
100
AcDbLine
 10
115.2940156214
 20
140.9705112943
 30
0.0
 11
120.2940145783
 21
140.9705112943
 31
0.0
  0
LINE
  5
E6
330
1F
100
AcDbEntity
  8
0
  6
HIDDEN
 62
     7
370
     0
100
AcDbLine
 10
122.7940159194
 20
135.7705108145
 30
0.0
 11
120.2940145783
 21
135.7705108145
 31
0.0
  0
LINE
  5
E7
330
1F
100
AcDbEntity
  8
0
  6
HIDDEN
 62
     7
370
     0
100
AcDbLine
 10
120.2940145783
 20
135.7705108145
 30
0.0
 11
120.2940145783
 21
141.770511798
 31
0.0
  0
LINE
  5
E8
330
1F
100
AcDbEntity
  8
0
  6
HIDDEN
 62
     7
370
     0
100
AcDbLine
 10
117.7940169625
 20
135.7705108145
 30
0.0
 11
120.2940145783
 21
135.7705108145
 31
0.0
  0
LINE
  5
E9
330
1F
100
AcDbEntity
  8
0
  6
HIDDEN
 62
     7
370
     0
100
AcDbLine
 10
122.7940159194
 20
135.7705108145
 30
0.0
 11
122.7940159194
 21
141.770511798
 31
0.0
  0
LINE
  5
EA
330
1F
100
AcDbEntity
  8
0
  6
HIDDEN
 62
     7
370
     0
100
AcDbLine
 10
117.7940169625
 20
135.7705108145
 30
0.0
 11
117.7940169625
 21
141.770511798
 31
0.0
  0
CIRCLE
  5
EB
330
1F
100
AcDbEntity
  8
0
  6
HIDDEN
 62
     7
370
     0
100
AcDbCircle
 10
135.7940152339
 20
116.7705114255
 30
0.0
 40
4.999999999999986
  0
CIRCLE
  5
EC
330
1F
100
AcDbEntity
  8
0
  6
HIDDEN
 62
     7
370
     0
100
AcDbCircle
 10
135.7940152339
 20
116.7705114255
 30
0.0
 40
2.5
  0
CIRCLE
  5
ED
330
1F
100
AcDbEntity
  8
0
  6
HIDDEN
 62
     7
370
     0
100
AcDbCircle
 10
135.7940152339
 20
116.7705114255
 30
0.0
 40
3.499999999999986
  0
CIRCLE
  5
EE
330
1F
100
AcDbEntity
  8
0
  6
HIDDEN
 62
     7
370
     0
100
AcDbCircle
 10
151.2940152339
 20
116.7705114255
 30
0.0
 40
4.999999999999986
  0
CIRCLE
  5
EF
330
1F
100
AcDbEntity
  8
0
  6
HIDDEN
 62
     7
370
     0
100
AcDbCircle
 10
151.2940152339
 20
116.7705114255
 30
0.0
 40
2.5
  0
CIRCLE
  5
F0
330
1F
100
AcDbEntity
  8
0
  6
HIDDEN
 62
     7
370
     0
100
AcDbCircle
 10
151.2940152339
 20
116.7705114255
 30
0.0
 40
3.499999999999986
  0
CIRCLE
  5
F1
330
1F
100
AcDbEntity
  8
0
  6
HIDDEN
 62
     7
370
     0
100
AcDbCircle
 10
120.2940152339
 20
116.7705114255
 30
0.0
 40
4.999999999999986
  0
CIRCLE
  5
F2
330
1F
100
AcDbEntity
  8
0
  6
HIDDEN
 62
     7
370
     0
100
AcDbCircle
 10
120.2940152339
 20
116.7705114255
 30
0.0
 40
2.5
  0
CIRCLE
  5
F3
330
1F
100
AcDbEntity
  8
0
  6
HIDDEN
 62
     7
370
     0
100
AcDbCircle
 10
120.2940152339
 20
116.7705114255
 30
0.0
 40
3.499999999999986
  0
SPLINE
  5
F4
330
1F
100
AcDbEntity
  8
0
  6
HIDDEN
 62
     7
370
     0
100
AcDbSpline
210
0.0
220
0.0
230
1.0
 70
     8
 71
     3
 72
     9
 73
     5
 74
     0
 42
0.00000001
 43
0.00000001
 40
0.0
 40
0.0
 40
0.0
 40
0.0
 40
0.3547925647816709
 40
1.0
 40
1.0
 40
1.0
 40
1.0
 10
71.82088180406501
 20
116.5213815308072
 30
0.0
 10
71.80785294974429
 20
116.6045496725085
 30
0.0
 10
71.77113049382488
 20
116.8389631015283
 30
0.0
 10
71.8314845106597
 20
117.0704011802048
 30
0.0
 10
71.87042537106683
 20
117.2197267493595
 30
0.0
  0
SPLINE
  5
F5
330
1F
100
AcDbEntity
  8
0
  6
HIDDEN
 62
     7
370
     0
100
AcDbSpline
210
0.0
220
0.0
230
1.0
 70
    24
 71
     1
 72
     4
 73
     2
 74
     0
 42
0.00000001
 43
0.00000001
 40
0.0
 40
0.0
 40
1.0
 40
1.0
 10
151.568668549494
 20
141.3704100320012
 30
0.0
 10
150.5333358697455
 20
141.3790601560743
 30
0.0
  0
SPLINE
  5
F6
330
1F
100
AcDbEntity
  8
0
  6
HIDDEN
 62
     7
370
     0
100
AcDbSpline
210
0.0
220
0.0
230
1.0
 70
    24
 71
     1
 72
     4
 73
     2
 74
     0
 42
0.00000001
 43
0.00000001
 40
0.0
 40
0.0
 40
1.0
 40
1.0
 10
136.0686669401686
 20
141.3704100320012
 30
0.0
 10
135.0333342604201
 20
141.3790601560743
 30
0.0
  0
SPLINE
  5
F7
330
1F
100
AcDbEntity
  8
0
  6
HIDDEN
 62
     7
370
     0
100
AcDbSpline
210
0.0
220
0.0
230
1.0
 70
    24
 71
     1
 72
     4
 73
     2
 74
     0
 42
0.00000001
 43
0.00000001
 40
0.0
 40
0.0
 40
1.0
 40
1.0
 10
120.5686690561335
 20
141.3704100320012
 30
0.0
 10
119.533336376385
 20
141.3790601560743
 30
0.0
  0
LINE
  5
F8
330
1F
100
AcDbEntity
  8
0
  6
HIDDEN
 62
     7
370
     0
100
AcDbLine
 10
61.8869084544
 20
92.6134045491
 30
0.0
 11
61.8869084544
 21
140.9276183018
 31
0.0
  0
SPLINE
  5
F9
330
1F
100
AcDbEntity
  8
0
  6
HIDDEN
 62
     7
370
     0
100
AcDbSpline
210
0.0
220
0.0
230
1.0
 70
     8
 71
     3
 72
    12
 73
     8
 74
     0
 42
0.00000001
 43
0.00000001
 40
0.0
 40
0.0
 40
0.0
 40
0.0
 40
0.5000000000000002
 40
0.5000000000000002
 40
0.7500000000000003
 40
0.7500000000000003
 40
1.0
 40
1.0
 40
1.0
 40
1.0
 10
60.9775029475029
 20
132.2227794072933
 30
0.0
 10
61.03390912618315
 20
132.1749570336335
 30
0.0
 10
61.10407202765493
 20
132.134686186695
 30
0.0
 10
61.2220827410441
 20
132.126640318218
 30
0.0
 10
61.26228852463957
 20
132.1332029165569
 30
0.0
 10
61.33600922137262
 20
132.1605850110105
 30
0.0
 10
61.36886994315914
 20
132.1803465015408
 30
0.0
 10
61.39903834508841
 20
132.2032792127289
 30
0.0
  0
SPLINE
  5
FA
330
1F
100
AcDbEntity
  8
0
  6
HIDDEN
 62
     7
370
     0
100
AcDbSpline
210
0.0
220
0.0
230
1.0
 70
     8
 71
     3
 72
    15
 73
    11
 74
     0
 42
0.00000001
 43
0.00000001
 40
0.0
 40
0.0
 40
0.0
 40
0.0
 40
0.0599012513605742
 40
0.1089139284308101
 40
0.1582617630216915
 40
0.2013271003078557
 40
0.2745724866777215
 40
0.419523735234053
 40
0.9194854589958638
 40
1.0
 40
1.0
 40
1.0
 40
1.0
 10
61.39903833236096
 20
132.2032789954812
 30
0.0
 10
61.4059834653759
 20
132.2081312177058
 30
0.0
 10
61.41861127703176
 20
132.2169536474896
 30
0.0
 10
61.44062799838216
 20
132.2255585500124
 30
0.0
 10
61.46092041683918
 20
132.2279902735444
 30
0.0
 10
61.48199710351231
 20
132.2245592661797
 30
0.0
 10
61.50831709824252
 20
132.2107450978561
 30
0.0
 10
61.55401341151295
 20
132.1536578928227
 30
0.0
 10
61.57542304292129
 20
132.08305424157
 30
0.0
 10
61.57911400390189
 20
132.0214690370814
 30
0.0
 10
61.57962595597857
 20
132.0129269057782
 30
0.0
  0
SPLINE
  5
FB
330
1F
100
AcDbEntity
  8
0
  6
HIDDEN
 62
     7
370
     0
100
AcDbSpline
210
0.0
220
0.0
230
1.0
 70
     8
 71
     3
 72
    15
 73
    11
 74
     0
 42
0.00000001
 43
0.00000001
 40
0.0
 40
0.0
 40
0.0
 40
0.0
 40
0.4292552321418588
 40
0.5861154117961138
 40
0.7438912139607678
 40
0.8126197413360867
 40
0.8563754242550892
 40
0.9004535025217136
 40
0.9392691932905409
 40
0.9999999999999999
 40
0.9999999999999999
 40
0.9999999999999999
 40
0.9999999999999999
 10
61.57462948312534
 20
101.5664915809304
 30
0.0
 10
61.57311495950442
 20
101.5150191336042
 30
0.0
 10
61.57104699254845
 20
101.444737416803
 30
0.0
 10
61.53818605702186
 20
101.3692910049594
 30
0.0
 10
61.51325925525629
 20
101.3339744514789
 30
0.0
 10
61.48418166047077
 20
101.3171265107913
 30
0.0
 10
61.46231790072116
 20
101.312968183857
 30
0.0
 10
61.44216842077224
 20
101.3151967485871
 30
0.0
 10
61.41985103187412
 20
101.3233416365232
 30
0.0
 10
61.40692448965342
 20
101.3322866986873
 30
0.0
 10
61.39903833236096
 20
101.3377438554437
 30
0.0
  0
SPLINE
  5
FC
330
1F
100
AcDbEntity
  8
0
  6
HIDDEN
 62
     7
370
     0
100
AcDbSpline
210
0.0
220
0.0
230
1.0
 70
     8
 71
     3
 72
    12
 73
     8
 74
     0
 42
0.00000001
 43
0.00000001
 40
0.0
 40
0.0
 40
0.0
 40
0.0
 40
0.2500000000000006
 40
0.2500000000000006
 40
0.5000000000000009
 40
0.5000000000000009
 40
1.0
 40
1.0
 40
1.0
 40
1.0
 10
61.39903834508134
 20
101.3377436381878
 30
0.0
 10
61.36884650336413
 20
101.3606941672857
 30
0.0
 10
61.33548753394952
 20
101.3806636413099
 30
0.0
 10
61.26235024936893
 20
101.4077647749353
 30
0.0
 10
61.22210837671496
 20
101.4143655155808
 30
0.0
 10
61.10440259974646
 20
101.4063966410741
 30
0.0
 10
61.03399212196706
 20
101.3661361829062
 30
0.0
 10
60.97750294749876
 20
101.318243443628
 30
0.0
  0
SPLINE
  5
FD
330
1F
100
AcDbEntity
  8
0
  6
HIDDEN
 62
     7
370
     0
100
AcDbSpline
210
0.0
220
0.0
230
1.0
 70
     8
 71
     3
 72
    12
 73
     8
 74
     0
 42
0.00000001
 43
0.00000001
 40
0.0
 40
0.0
 40
0.0
 40
0.0
 40
0.2499999999999996
 40
0.2499999999999996
 40
0.4999999999999991
 40
0.4999999999999991
 40
1.0
 40
1.0
 40
1.0
 40
1.0
 10
60.97750294749841
 20
101.3182434436283
 30
0.0
 10
60.88934900976066
 20
101.2435046357742
 30
0.0
 10
60.82899558513193
 20
101.1525241352918
 30
0.0
 10
60.72273362706509
 20
100.9636103125392
 30
0.0
 10
60.68050146050302
 20
100.8671058529986
 30
0.0
 10
60.56943076518584
 20
100.5763380988315
 30
0.0
 10
60.51649398875905
 20
100.3806712842877
 30
0.0
 10
60.47269489039027
 20
100.1866047992214
 30
0.0
  0
LINE
  5
FE
330
1F
100
AcDbEntity
  8
0
  6
HIDDEN
 62
     7
370
     0
100
AcDbLine
 10
60.4726949284
 20
100.1866049388
 30
0.0
 11
60.4726949284
 21
95.000430874
 31
0.0
  0
SPLINE
  5
FF
330
1F
100
AcDbEntity
  8
0
  6
HIDDEN
 62
     7
370
     0
100
AcDbSpline
210
0.0
220
0.0
230
1.0
 70
     8
 71
     3
 72
    12
 73
     8
 74
     0
 42
0.00000001
 43
0.00000001
 40
0.0
 40
0.0
 40
0.0
 40
0.0
 40
0.5
 40
0.5
 40
0.75
 40
0.75
 40
1.0
 40
1.0
 40
1.0
 40
1.0
 10
60.47269489039027
 20
95.00043047046033
 30
0.0
 10
60.51644143122685
 20
94.97383629981917
 30
0.0
 10
60.56932578645836
 20
94.95407607449344
 30
0.0
 10
60.68089287379453
 20
94.93362508426436
 30
0.0
 10
60.7234764703375
 20
94.92836485960791
 30
0.0
 10
60.8283931974193
 20
94.92048206568526
 30
0.0
 10
60.8899268052641
 20
94.91791794050611
 30
0.0
 10
60.97750294749024
 20
94.91571772298647
 30
0.0
  0
SPLINE
  5
100
330
1F
100
AcDbEntity
  8
0
  6
HIDDEN
 62
     7
370
     0
100
AcDbSpline
210
0.0
220
0.0
230
1.0
 70
     8
 71
     3
 72
    12
 73
     8
 74
     0
 42
0.00000001
 43
0.00000001
 40
0.0
 40
0.0
 40
0.0
 40
0.0
 40
0.2500000000000004
 40
0.2500000000000004
 40
0.5000000000000009
 40
0.5000000000000009
 40
1.0
 40
1.0
 40
1.0
 40
1.0
 10
60.97750294749822
 20
138.6253051279384
 30
0.0
 10
60.88881828764185
 20
138.6230770605974
 30
0.0
 10
60.82889987191844
 20
138.6205752765671
 30
0.0
 10
60.72324064459771
 20
138.612643840731
 30
0.0
 10
60.68059940648276
 20
138.6073516858342
 30
0.0
 10
60.56941006438022
 20
138.586946745347
 30
0.0
 10
60.51648338225925
 20
138.5672120537602
 30
0.0
 10
60.47269489039027
 20
138.5405923804646
 30
0.0
  0
LINE
  5
101
330
1F
100
AcDbEntity
  8
0
  6
HIDDEN
 62
     7
370
     0
100
AcDbLine
 10
60.4726949284
 20
138.540591977
 30
0.0
 11
60.4726949284
 21
133.3544179121
 31
0.0
  0
SPLINE
  5
102
330
1F
100
AcDbEntity
  8
0
  6
HIDDEN
 62
     7
370
     0
100
AcDbSpline
210
0.0
220
0.0
230
1.0
 70
     8
 71
     3
 72
    12
 73
     8
 74
     0
 42
0.00000001
 43
0.00000001
 40
0.0
 40
0.0
 40
0.0
 40
0.0
 40
0.500000000000006
 40
0.500000000000006
 40
0.7500000000000043
 40
0.7500000000000043
 40
1.0
 40
1.0
 40
1.0
 40
1.0
 10
60.47269489038869
 20
133.3544180517037
 30
0.0
 10
60.51645636668744
 20
133.1605182637416
 30
0.0
 10
60.56936268234047
 20
132.9646618998048
 30
0.0
 10
60.68107387998785
 20
132.6725197533058
 30
0.0
 10
60.72359332357423
 20
132.5758018166079
 30
0.0
 10
60.82871666614164
 20
132.3890773801834
 30
0.0
 10
60.89028262985933
 20
132.2967266719137
 30
0.0
 10
60.97750294750207
 20
132.222779407294
 30
0.0
  0
CIRCLE
  5
103
330
1F
100
AcDbEntity
  8
0
  6
HIDDEN
 62
     7
370
     0
100
AcDbCircle
 10
46.2940152339
 20
116.7705114255
 30
0.0
 40
4.049999999999997
  0
LINE
  5
104
330
1F
100
AcDbEntity
  8
0
  6
HIDDEN
 62
     7
370
     0
100
AcDbLine
 10
25.3242427759
 20
101.4575603673
 30
0.0
 11
25.3242427759
 21
132.0834624836
 31
0.0
  0
LINE
  5
105
330
1F
100
AcDbEntity
  8
0
  6
HIDDEN
 62
     7
370
     0
100
AcDbLine
 10
33.7940143697
 20
100.7705106655
 30
0.0
 11
33.7940143697
 21
132.7492966572
 31
0.0
  0
LINE
  5
106
330
1F
100
AcDbEntity
  8
0
  6
HIDDEN
 62
     7
370
     0
100
AcDbLine
 10
34.7958157115
 20
100.7705106655
 30
0.0
 11
34.7958157115
 21
132.7492966572
 31
0.0
  0
LINE
  5
107
330
1F
100
AcDbEntity
  8
0
  6
HIDDEN
 62
     7
370
     0
100
AcDbLine
 10
36.2100309037
 20
101.3562976638
 30
0.0
 11
36.2100309037
 21
132.1847251871
 31
0.0
  0
LINE
  5
108
330
1F
100
AcDbEntity
  8
0
  6
HIDDEN
 62
     7
370
     0
100
AcDbLine
 10
31.82424291
 20
102.4241009051
 30
0.0
 11
31.82424291
 21
131.1169219458
 31
0.0
  0
LINE
  5
109
330
1F
100
AcDbEntity
  8
0
  6
HIDDEN
 62
     7
370
     0
100
AcDbLine
 10
37.6242442332
 20
102.7705109933
 30
0.0
 11
37.6242442332
 21
130.7705118576
 31
0.0
  0
LINE
  5
10A
330
1F
100
AcDbEntity
  8
0
  6
HIDDEN
 62
     7
370
     0
100
AcDbLine
 10
30.2242437653
 20
102.7705109933
 30
0.0
 11
30.2242437653
 21
130.7705118576
 31
0.0
  0
LINE
  5
10B
330
1F
100
AcDbEntity
  8
0
  6
HIDDEN
 62
     7
370
     0
100
AcDbLine
 10
31.2242439292
 20
102.7705109933
 30
0.0
 11
31.2242439292
 21
130.7705118576
 31
0.0
  0
LINE
  5
10C
330
1F
100
AcDbEntity
  8
0
  6
HIDDEN
 62
     7
370
     0
100
AcDbLine
 10
50.2940152116
 20
116.1360825551
 30
0.0
 11
50.2940152116
 21
102.7705109933
 31
0.0
  0
LINE
  5
10D
330
1F
100
AcDbEntity
  8
0
  6
HIDDEN
 62
     7
370
     0
100
AcDbLine
 10
50.2940152116
 20
117.4049402959
 30
0.0
 11
50.2940152116
 21
130.7705118576
 31
0.0
  0
LINE
  5
10E
330
1F
100
AcDbEntity
  8
0
  6
HIDDEN
 62
     7
370
     0
100
AcDbLine
 10
50.7940152936
 20
103.2705110753
 30
0.0
 11
50.7940152936
 21
130.2705117756
 31
0.0
  0
SPLINE
  5
10F
330
1F
100
AcDbEntity
  8
0
  6
HIDDEN
 62
     7
370
     0
100
AcDbSpline
210
0.0
220
0.0
230
1.0
 70
    24
 71
     1
 72
     4
 73
     2
 74
     0
 42
0.00000001
 43
0.00000001
 40
0.0
 40
0.0
 40
1.0
 40
1.0
 10
50.29401521159818
 20
116.1360825550639
 30
0.0
 10
50.05230720116307
 20
115.4165885433451
 30
0.0
  0
SPLINE
  5
110
330
1F
100
AcDbEntity
  8
0
  6
HIDDEN
 62
     7
370
     0
100
AcDbSpline
210
0.0
220
0.0
230
1.0
 70
     8
 71
     3
 72
     9
 73
     5
 74
     0
 42
0.00000001
 43
0.00000001
 40
0.0
 40
0.0
 40
0.0
 40
0.0
 40
0.5444065433784827
 40
1.0
 40
1.0
 40
1.0
 40
1.0
 10
45.68222968800475
 20
120.7364363850922
 30
0.0
 10
46.04121384660075
 20
120.7873724889838
 30
0.0
 10
46.70061840916939
 20
120.8809351114598
 30
0.0
 10
47.32231513198811
 20
120.6564607441551
 30
0.0
 10
47.60555609090736
 20
120.5541916912318
 30
0.0
  0
SPLINE
  5
111
330
1F
100
AcDbEntity
  8
0
  6
HIDDEN
 62
     7
370
     0
100
AcDbSpline
210
0.0
220
0.0
230
1.0
 70
    24
 71
     1
 72
     4
 73
     2
 74
     0
 42
0.00000001
 43
0.00000001
 40
0.0
 40
0.0
 40
1.0
 40
1.0
 10
50.12231751306464
 20
117.9329195780576
 30
0.0
 10
50.29401521159818
 20
117.404940295861
 30
0.0
  0
LINE
  5
112
330
1F
100
AcDbEntity
  8
0
  6
HIDDEN
 62
     7
370
     0
100
AcDbLine
 10
161.2940157108
 20
129.2493631387
 30
0.0
 11
161.2940157108
 21
104.2916597122
 31
0.0
  0
LINE
  5
113
330
1F
100
AcDbEntity
  8
0
  6
HIDDEN
 62
     7
370
     0
100
AcDbLine
 10
113.9697717778
 20
116.7705114255
 30
0.0
 11
113.9697717778
 21
103.9705117488
 31
0.0
  0
LINE
  5
114
330
1F
100
AcDbEntity
  8
0
  6
HIDDEN
 62
     7
370
     0
100
AcDbLine
 10
113.9697717778
 20
129.5705111021
 30
0.0
 11
113.9697717778
 21
116.7705114255
 31
0.0
  0
LINE
  5
115
330
1F
100
AcDbEntity
  8
0
  6
HIDDEN
 62
     7
370
     0
100
AcDbLine
 10
114.7940146081
 20
116.7705114255
 30
0.0
 11
114.7940146081
 21
104.2705112392
 31
0.0
  0
LINE
  5
116
330
1F
100
AcDbEntity
  8
0
  6
HIDDEN
 62
     7
370
     0
100
AcDbLine
 10
114.7940146081
 20
129.2705116117
 30
0.0
 11
114.7940146081
 21
116.7705114255
 31
0.0
  0
LINE
  5
117
330
1F
100
AcDbEntity
  8
0
  6
HIDDEN
 62
     7
370
     0
100
AcDbLine
 10
111.1940169982
 20
129.5652910391
 30
0.0
 11
111.1940169982
 21
103.9757318118
 31
0.0
  0
LINE
  5
118
330
1F
100
AcDbEntity
  8
0
  6
HIDDEN
 62
     7
370
     0
100
AcDbLine
 10
110.7940139525
 20
116.7705114255
 30
0.0
 11
110.7940139525
 21
104.3705110693
 31
0.0
  0
LINE
  5
119
330
1F
100
AcDbEntity
  8
0
  6
HIDDEN
 62
     7
370
     0
100
AcDbLine
 10
110.7940139525
 20
129.1705117816
 30
0.0
 11
110.7940139525
 21
116.7705114255
 31
0.0
  0
SPLINE
  5
11A
330
1F
100
AcDbEntity
  8
0
  6
HIDDEN
 62
     7
370
     0
100
AcDbSpline
210
0.0
220
0.0
230
1.0
 70
     8
 71
     3
 72
    12
 73
     8
 74
     0
 42
0.00000001
 43
0.00000001
 40
0.0
 40
0.0
 40
0.0
 40
0.0
 40
0.2052078429739334
 40
0.4100791360888338
 40
0.6234993071664678
 40
0.8434057718250932
 40
1.0
 40
1.0
 40
1.0
 40
1.0
 10
151.2940177969497
 20
128.4324153581531
 30
0.0
 10
150.8068316367128
 20
128.4507924909482
 30
0.0
 10
149.8332583229006
 20
128.4875166172351
 30
0.0
 10
148.5215622662075
 20
128.7417632897635
 30
0.0
 10
147.4961450730071
 20
129.0252309364925
 30
0.0
 10
146.8695609026668
 20
129.2430028802142
 30
0.0
 10
146.8500049303265
 20
129.2503889448502
 30
0.0
 10
146.8418712071936
 20
129.2534609580309
 30
0.0
  0
SPLINE
  5
11B
330
1F
100
AcDbEntity
  8
0
  6
HIDDEN
 62
     7
370
     0
100
AcDbSpline
210
0.0
220
0.0
230
1.0
 70
    24
 71
     1
 72
     4
 73
     2
 74
     0
 42
0.00000001
 43
0.00000001
 40
0.0
 40
0.0
 40
1.0
 40
1.0
 10
150.9078095011275
 20
128.456067226258
 30
0.0
 10
151.6435543350737
 20
128.4554357895524
 30
0.0
  0
SPLINE
  5
11C
330
1F
100
AcDbEntity
  8
0
  6
HIDDEN
 62
     7
370
     0
100
AcDbSpline
210
0.0
220
0.0
230
1.0
 70
     8
 71
     3
 72
    12
 73
     8
 74
     0
 42
0.00000001
 43
0.00000001
 40
0.0
 40
0.0
 40
0.0
 40
0.0
 40
0.1487932089595531
 40
0.3499813128116196
 40
0.5593595224434351
 40
0.778644976247608
 40
0.9999999999999999
 40
0.9999999999999999
 40
0.9999999999999999
 40
0.9999999999999999
 10
155.7467082790893
 20
129.2536379093201
 30
0.0
 10
155.7411811885177
 20
129.2515272214228
 30
0.0
 10
155.7281807402595
 20
129.2465626042445
 30
0.0
 10
155.1703742600974
 20
129.0519048365486
 30
0.0
 10
154.2079304472004
 20
128.7762792780063
 30
0.0
 10
152.8665787638343
 20
128.4968410231579
 30
0.0
 10
151.819843530642
 20
128.4539577169443
 30
0.0
 10
151.2940177969496
 20
128.4324153581531
 30
0.0
  0
SPLINE
  5
11D
330
1F
100
AcDbEntity
  8
0
  6
HIDDEN
 62
     7
370
     0
100
AcDbSpline
210
0.0
220
0.0
230
1.0
 70
     8
 71
     3
 72
    12
 73
     8
 74
     0
 42
0.00000001
 43
0.00000001
 40
0.0
 40
0.0
 40
0.0
 40
0.0
 40
0.2052069082731692
 40
0.4100792199452867
 40
0.6234987834003489
 40
0.8434057807585826
 40
1.0
 40
1.0
 40
1.0
 40
1.0
 10
135.7940161876242
 20
128.4324153581531
 30
0.0
 10
135.3068330160824
 20
128.4507927753199
 30
0.0
 10
134.3332610411546
 20
128.4875176446716
 30
0.0
 10
133.0215607928706
 20
128.7417618900758
 30
0.0
 10
131.9961542551536
 20
129.0252319738086
 30
0.0
 10
131.3695548600499
 20
129.2430026434667
 30
0.0
 10
131.3500072724324
 20
129.2503888784488
 30
0.0
 10
131.3418770484488
 20
129.2534609580309
 30
0.0
  0
SPLINE
  5
11E
330
1F
100
AcDbEntity
  8
0
  6
HIDDEN
 62
     7
370
     0
100
AcDbSpline
210
0.0
220
0.0
230
1.0
 70
    24
 71
     1
 72
     4
 73
     2
 74
     0
 42
0.00000001
 43
0.00000001
 40
0.0
 40
0.0
 40
1.0
 40
1.0
 10
135.4078078918021
 20
128.456067226258
 30
0.0
 10
136.1435527257483
 20
128.4554357895524
 30
0.0
  0
SPLINE
  5
11F
330
1F
100
AcDbEntity
  8
0
  6
HIDDEN
 62
     7
370
     0
100
AcDbSpline
210
0.0
220
0.0
230
1.0
 70
     8
 71
     3
 72
    12
 73
     8
 74
     0
 42
0.00000001
 43
0.00000001
 40
0.0
 40
0.0
 40
0.0
 40
0.0
 40
0.1487932089595531
 40
0.3499813128116196
 40
0.5593595224434351
 40
0.778644976247608
 40
0.9999999999999999
 40
0.9999999999999999
 40
0.9999999999999999
 40
0.9999999999999999
 10
140.2467066697639
 20
129.2536379093201
 30
0.0
 10
140.2411795791923
 20
129.2515272214228
 30
0.0
 10
140.2281791309341
 20
129.2465626042445
 30
0.0
 10
139.670372650772
 20
129.0519048365486
 30
0.0
 10
138.707928837875
 20
128.7762792780063
 30
0.0
 10
137.3665771545089
 20
128.4968410231579
 30
0.0
 10
136.3198419213166
 20
128.4539577169443
 30
0.0
 10
135.7940161876242
 20
128.4324153581531
 30
0.0
  0
SPLINE
  5
120
330
1F
100
AcDbEntity
  8
0
  6
HIDDEN
 62
     7
370
     0
100
AcDbSpline
210
0.0
220
0.0
230
1.0
 70
     8
 71
     3
 72
    12
 73
     8
 74
     0
 42
0.00000001
 43
0.00000001
 40
0.0
 40
0.0
 40
0.0
 40
0.0
 40
0.2052069295066239
 40
0.4100788030537236
 40
0.6234987444424914
 40
0.8434057645552478
 40
1.0
 40
1.0
 40
1.0
 40
1.0
 10
120.2940145782988
 20
128.4324153581531
 30
0.0
 10
119.8068312314084
 20
128.4507926944248
 30
0.0
 10
118.8332599965535
 20
128.4875173609834
 30
0.0
 10
117.5215624384389
 20
128.7417625697129
 30
0.0
 10
116.4961522417358
 20
129.025231614341
 30
0.0
 10
115.8695533838378
 20
129.2430026822916
 30
0.0
 10
115.8500057022083
 20
129.2503888898534
 30
0.0
 10
115.8418754391234
 20
129.2534609580309
 30
0.0
  0
SPLINE
  5
121
330
1F
100
AcDbEntity
  8
0
  6
HIDDEN
 62
     7
370
     0
100
AcDbSpline
210
0.0
220
0.0
230
1.0
 70
    24
 71
     1
 72
     4
 73
     2
 74
     0
 42
0.00000001
 43
0.00000001
 40
0.0
 40
0.0
 40
1.0
 40
1.0
 10
119.907810007767
 20
128.456067226258
 30
0.0
 10
120.6435511164229
 20
128.4554357895524
 30
0.0
  0
SPLINE
  5
122
330
1F
100
AcDbEntity
  8
0
  6
HIDDEN
 62
     7
370
     0
100
AcDbSpline
210
0.0
220
0.0
230
1.0
 70
     8
 71
     3
 72
    12
 73
     8
 74
     0
 42
0.00000001
 43
0.00000001
 40
0.0
 40
0.0
 40
0.0
 40
0.0
 40
0.1487931825730001
 40
0.3499812507469559
 40
0.5593590844601655
 40
0.7786444993768963
 40
0.9999999999999999
 40
0.9999999999999999
 40
0.9999999999999999
 40
0.9999999999999999
 10
124.7467050604384
 20
129.2536379093201
 30
0.0
 10
124.7411780062172
 20
129.2515272133891
 30
0.0
 10
124.7281776434599
 20
129.2465625773144
 30
0.0
 10
124.1703706735255
 20
129.051905110428
 30
0.0
 10
123.2079311538522
 20
128.7762789732588
 30
0.0
 10
121.8665779654325
 20
128.4968408262639
 30
0.0
 10
120.8198415273905
 20
128.4539576677462
 30
0.0
 10
120.2940145782988
 20
128.4324153581531
 30
0.0
  0
SPLINE
  5
123
330
1F
100
AcDbEntity
  8
0
  6
HIDDEN
 62
     7
370
     0
100
AcDbSpline
210
0.0
220
0.0
230
1.0
 70
    24
 71
     1
 72
     4
 73
     2
 74
     0
 42
0.00000001
 43
0.00000001
 40
0.0
 40
0.0
 40
1.0
 40
1.0
 10
151.2940177969496
 20
121.2705112317473
 30
0.0
 10
150.2845013789695
 20
121.1053826169939
 30
0.0
  0
SPLINE
  5
124
330
1F
100
AcDbEntity
  8
0
  6
HIDDEN
 62
     7
370
     0
100
AcDbSpline
210
0.0
220
0.0
230
1.0
 70
     8
 71
     3
 72
     9
 73
     5
 74
     0
 42
0.00000001
 43
0.00000001
 40
0.0
 40
0.0
 40
0.0
 40
0.0
 40
0.7062976267862476
 40
1.0
 40
1.0
 40
1.0
 40
1.0
 10
146.9314867906134
 20
117.8694561146096
 30
0.0
 10
146.8346182568671
 20
117.3696056120044
 30
0.0
 10
146.6974685198828
 20
116.661900412881
 30
0.0
 10
146.9003874809586
 20
115.9852400026528
 30
0.0
 10
146.9599852613967
 20
115.786503234309
 30
0.0
  0
SPLINE
  5
125
330
1F
100
AcDbEntity
  8
0
  6
HIDDEN
 62
     7
370
     0
100
AcDbSpline
210
0.0
220
0.0
230
1.0
 70
    24
 71
     1
 72
     4
 73
     2
 74
     0
 42
0.00000001
 43
0.00000001
 40
0.0
 40
0.0
 40
1.0
 40
1.0
 10
135.7940161876242
 20
121.2705112317473
 30
0.0
 10
134.784499769644
 20
121.1053826169939
 30
0.0
  0
SPLINE
  5
126
330
1F
100
AcDbEntity
  8
0
  6
HIDDEN
 62
     7
370
     0
100
AcDbSpline
210
0.0
220
0.0
230
1.0
 70
     8
 71
     3
 72
     9
 73
     5
 74
     0
 42
0.00000001
 43
0.00000001
 40
0.0
 40
0.0
 40
0.0
 40
0.0
 40
0.7062976267862476
 40
1.0
 40
1.0
 40
1.0
 40
1.0
 10
131.431485181288
 20
117.8694561146096
 30
0.0
 10
131.3346166475417
 20
117.3696056120044
 30
0.0
 10
131.1974669105574
 20
116.661900412881
 30
0.0
 10
131.4003858716332
 20
115.9852400026528
 30
0.0
 10
131.4599836520713
 20
115.786503234309
 30
0.0
  0
SPLINE
  5
127
330
1F
100
AcDbEntity
  8
0
  6
HIDDEN
 62
     7
370
     0
100
AcDbSpline
210
0.0
220
0.0
230
1.0
 70
    24
 71
     1
 72
     4
 73
     2
 74
     0
 42
0.00000001
 43
0.00000001
 40
0.0
 40
0.0
 40
1.0
 40
1.0
 10
120.2940145782988
 20
121.2705112317473
 30
0.0
 10
119.2845018856089
 20
121.1053826169939
 30
0.0
  0
SPLINE
  5
128
330
1F
100
AcDbEntity
  8
0
  6
HIDDEN
 62
     7
370
     0
100
AcDbSpline
210
0.0
220
0.0
230
1.0
 70
     8
 71
     3
 72
     9
 73
     5
 74
     0
 42
0.00000001
 43
0.00000001
 40
0.0
 40
0.0
 40
0.0
 40
0.0
 40
0.7062973257627216
 40
1.0
 40
1.0
 40
1.0
 40
1.0
 10
115.9314835719626
 20
117.8694561146096
 30
0.0
 10
115.8346140691419
 20
117.3696053681864
 30
0.0
 10
115.6974629016557
 20
116.6618995222335
 30
0.0
 10
115.9003865498852
 20
115.9852399579016
 30
0.0
 10
115.9599857680361
 20
115.786503234309
 30
0.0
  0
LINE
  5
129
330
1F
100
AcDbEntity
  8
0
  6
HIDDEN
 62
     7
370
     0
100
AcDbLine
 10
52.0440150328
 20
107.7705118129
 30
0.0
 11
52.0440150328
 21
125.770511038
 31
0.0
  0
LINE
  5
12A
330
1F
100
AcDbEntity
  8
0
  6
HIDDEN
 62
     7
370
     0
100
AcDbLine
 10
77.7940159939
 20
107.7705118129
 30
0.0
 11
77.7940159939
 21
125.770511038
 31
0.0
  0
LINE
  5
12B
330
1F
100
AcDbEntity
  8
0
  6
HIDDEN
 62
     7
370
     0
100
AcDbLine
 10
78.3948755167
 20
108.7705110455
 30
0.0
 11
78.3948755167
 21
124.7705118054
 31
0.0
  0
LINE
  5
12C
330
1F
100
AcDbEntity
  8
0
  6
HIDDEN
 62
     7
370
     0
100
AcDbLine
 10
23.7940164558
 20
102.0994716579
 30
0.0
 11
25.2940157704
 21
101.6664588148
 31
0.0
  0
LINE
  5
12D
330
1F
100
AcDbEntity
  8
0
  6
HIDDEN
 62
     7
370
     0
100
AcDbLine
 10
59.798975363
 20
101.333048127
 30
0.0
 11
60.9775029631
 21
101.3182438234
 31
0.0
  0
LINE
  5
12E
330
1F
100
AcDbEntity
  8
0
  6
HIDDEN
 62
     7
370
     0
100
AcDbLine
 10
59.798975363
 20
101.333048127
 30
0.0
 11
59.798975363
 21
94.9453263799
 31
0.0
  0
SPLINE
  5
12F
330
1F
100
AcDbEntity
  8
0
  6
HIDDEN
 62
     7
370
     0
100
AcDbSpline
210
0.0
220
0.0
230
1.0
 70
     8
 71
     3
 72
    16
 73
    12
 74
     0
 42
0.00000001
 43
0.00000001
 40
0.0
 40
0.0
 40
0.0
 40
0.0
 40
0.2499999999999995
 40
0.2499999999999995
 40
0.3749999999999996
 40
0.3749999999999996
 40
0.4999999999999997
 40
0.4999999999999997
 40
0.7499999999999998
 40
0.7499999999999998
 40
1.0
 40
1.0
 40
1.0
 40
1.0
 10
60.47269489039027
 20
100.1866047992214
 30
0.0
 10
60.3114624129058
 20
99.47221063702926
 30
0.0
 10
60.19098257326618
 20
98.81886837432059
 30
0.0
 10
60.06860205595286
 20
97.93061313251673
 30
0.0
 10
60.0376243955554
 20
97.64993259616486
 30
0.0
 10
59.99601065792745
 20
97.12089860632489
 30
0.0
 10
59.98577474499464
 20
96.87757762774645
 30
0.0
 10
59.98558634793853
 20
96.20955493723321
 30
0.0
 10
60.02573105057614
 20
95.84587402781375
 30
0.0
 10
60.18988480551571
 20
95.28598315526544
 30
0.0
 10
60.31143645592527
 20
95.0984618631483
 30
0.0
 10
60.47269489039027
 20
95.00043047046033
 30
0.0
  0
LINE
  5
130
330
1F
100
AcDbEntity
  8
0
  6
HIDDEN
 62
     7
370
     0
100
AcDbLine
 10
25.2940157704
 20
101.6664588148
 30
0.0
 11
59.5940152459
 21
101.2355908075
 31
0.0
  0
LWPOLYLINE
  5
131
330
1F
100
AcDbEntity
  8
0
  6
HIDDEN
 62
     7
370
     0
100
AcDbPolyline
 90
        9
 70
   128
 43
0.0
 10
59.5940152459
 20
101.2355908075
 10
59.5988369357
 20
101.2550452048
 10
59.6111567035
 20
101.2736558238
 10
59.6305014375
 20
101.2907074088
 10
59.6561272438
 20
101.3055433774
 10
59.6870497145
 20
101.3175956229
 10
59.722080249
 20
101.3263994152
 10
59.7598730862
 20
101.3316166842
 10
59.798975363
 20
101.333048127
  0
LINE
  5
132
330
1F
100
AcDbEntity
  8
0
  6
HIDDEN
 62
     7
370
     0
100
AcDbLine
 10
25.2940157704
 20
131.8745640362
 30
0.0
 11
59.5940152459
 21
132.3054320434
 31
0.0
  0
LINE
  5
133
330
1F
100
AcDbEntity
  8
0
  6
HIDDEN
 62
     7
370
     0
100
AcDbLine
 10
23.7940164558
 20
131.441551193
 30
0.0
 11
25.2940157704
 21
131.8745640362
 31
0.0
  0
LINE
  5
134
330
1F
100
AcDbEntity
  8
0
  6
HIDDEN
 62
     7
370
     0
100
AcDbLine
 10
59.798975363
 20
138.5956964711
 30
0.0
 11
59.798975363
 21
132.2079747239
 31
0.0
  0
LINE
  5
135
330
1F
100
AcDbEntity
  8
0
  6
HIDDEN
 62
     7
370
     0
100
AcDbLine
 10
59.798975363
 20
132.2079747239
 30
0.0
 11
60.9775029631
 21
132.2227790275
 31
0.0
  0
SPLINE
  5
136
330
1F
100
AcDbEntity
  8
0
  6
HIDDEN
 62
     7
370
     0
100
AcDbSpline
210
0.0
220
0.0
230
1.0
 70
     8
 71
     3
 72
    16
 73
    12
 74
     0
 42
0.00000001
 43
0.00000001
 40
0.0
 40
0.0
 40
0.0
 40
0.0
 40
0.25
 40
0.25
 40
0.375
 40
0.375
 40
0.5
 40
0.5
 40
0.75
 40
0.75
 40
1.0
 40
1.0
 40
1.0
 40
1.0
 10
60.47269489039027
 20
138.5405923804646
 30
0.0
 10
60.31146241290581
 20
138.4425767674098
 30
0.0
 10
60.19098257326618
 20
138.2558407357338
 30
0.0
 10
60.06860205595286
 20
137.8428009281749
 30
0.0
 10
60.0376243955554
 20
137.682800428942
 30
0.0
 10
59.99601065792745
 20
137.3159947778508
 30
0.0
 10
59.98577474499464
 20
137.1126576252268
 30
0.0
 10
59.98558634793853
 20
136.4453703586001
 30
0.0
 10
60.02573105057614
 20
135.9245558947121
 30
0.0
 10
60.18988480551571
 20
134.7271968792344
 30
0.0
 10
60.31143645592527
 20
134.0689272249384
 30
0.0
 10
60.47269489039027
 20
133.3544180517035
 30
0.0
  0
LWPOLYLINE
  5
137
330
1F
100
AcDbEntity
  8
0
  6
HIDDEN
 62
     7
370
     0
100
AcDbPolyline
 90
        9
 70
   128
 43
0.0
 10
59.5940152459
 20
132.3054320434
 10
59.5988369357
 20
132.2859776461
 10
59.6111567035
 20
132.2673670271
 10
59.6305014375
 20
132.2503154421
 10
59.6561272438
 20
132.2354794735
 10
59.6870497145
 20
132.2234272281
 10
59.722080249
 20
132.2146234358
 10
59.7598730862
 20
132.2094061667
 10
59.798975363
 20
132.2079747239
  0
LINE
  5
138
330
1F
100
AcDbEntity
  8
0
  6
HIDDEN
 62
     7
370
     0
100
AcDbLine
 10
75.2662584461
 20
126.1585782537
 30
0.0
 11
75.2662584461
 21
146.8390039423
 31
0.0
  0
LINE
  5
139
330
1F
100
AcDbEntity
  8
0
  6
HIDDEN
 62
     7
370
     0
100
AcDbLine
 10
72.3217722304
 20
126.1585782537
 30
0.0
 11
72.3217722304
 21
146.8390039423
 31
0.0
  0
LINE
  5
13A
330
1F
100
AcDbEntity
  8
0
  6
HIDDEN
 62
     7
370
     0
100
AcDbLine
 10
72.3217722304
 20
86.7020189086
 30
0.0
 11
72.3217722304
 21
107.3824445972
 31
0.0
  0
LINE
  5
13B
330
1F
100
AcDbEntity
  8
0
  6
HIDDEN
 62
     7
370
     0
100
AcDbLine
 10
75.2662584461
 20
86.7020189086
 30
0.0
 11
75.2662584461
 21
107.3824445972
 31
0.0
  0
LINE
  5
13C
330
1F
100
AcDbEntity
  8
0
  6
HIDDEN
 62
     7
370
     0
100
AcDbLine
 10
71.8887593873
 20
126.6798804769
 30
0.0
 11
71.8887593873
 21
146.6712541202
 31
0.0
  0
LINE
  5
13D
330
1F
100
AcDbEntity
  8
0
  6
HIDDEN
 62
     7
370
     0
100
AcDbLine
 10
75.6992712892
 20
126.6798804769
 30
0.0
 11
75.6992712892
 21
146.6712541202
 31
0.0
  0
LINE
  5
13E
330
1F
100
AcDbEntity
  8
0
  6
HIDDEN
 62
     7
370
     0
100
AcDbLine
 10
75.6992712892
 20
86.8697687307
 30
0.0
 11
75.6992712892
 21
106.861142374
 31
0.0
  0
LINE
  5
13F
330
1F
100
AcDbEntity
  8
0
  6
HIDDEN
 62
     7
370
     0
100
AcDbLine
 10
71.8887593873
 20
86.8697687307
 30
0.0
 11
71.8887593873
 21
106.861142374
 31
0.0
  0
LINE
  5
140
330
1F
100
AcDbEntity
  8
0
  6
HIDDEN
 62
     7
370
     0
100
AcDbLine
 10
61.594015239
 20
123.7923986534
 30
0.0
 11
61.594015239
 21
109.7486241976
 31
0.0
  0
LINE
  5
141
330
1F
100
AcDbEntity
  8
0
  6
HIDDEN
 62
     7
370
     0
100
AcDbLine
 10
61.3990383324
 20
132.2032789955
 30
0.0
 11
61.3990383324
 21
101.3377438554
 31
0.0
  0
LINE
  5
142
330
1F
100
AcDbEntity
  8
0
  6
HIDDEN
 62
     7
370
     0
100
AcDbLine
 10
59.798975363
 20
132.2079747239
 30
0.0
 11
59.798975363
 21
101.333048127
 31
0.0
  0
SPLINE
  5
143
330
1F
100
AcDbEntity
  8
0
  6
HIDDEN
 62
     7
370
     0
100
AcDbSpline
210
0.0
220
0.0
230
1.0
 70
     8
 71
     3
 72
     8
 73
     4
 74
     0
 42
0.00000001
 43
0.00000001
 40
0.0000249638557296
 40
0.0000249638557296
 40
0.0000249638557296
 40
0.0000249638557296
 40
0.0049776420541172
 40
0.0049776420541172
 40
0.0049776420541172
 40
0.0049776420541172
 10
25.29401523394992
 20
112.8053005286259
 30
0.0
 10
26.94399146845947
 20
112.7640212908577
 30
0.0
 10
28.5939927882045
 20
112.7237996096182
 30
0.0
 10
30.24401523394993
 20
112.6845503723632
 30
0.0
  0
SPLINE
  5
144
330
1F
100
AcDbEntity
  8
0
  6
HIDDEN
 62
     7
370
     0
100
AcDbSpline
210
0.0
220
0.0
230
1.0
 70
     8
 71
     3
 72
     8
 73
     4
 74
     0
 42
0.00000001
 43
0.00000001
 40
0.0000249631533153
 40
0.0000249631533153
 40
0.0000249631533153
 40
0.0000249631533153
 40
0.0049776413517029
 40
0.0049776413517029
 40
0.0049776413517029
 40
0.0049776413517029
 10
30.24401523394991
 20
120.8564724785617
 30
0.0
 10
28.59399278820448
 20
120.8172232413067
 30
0.0
 10
26.94399146845945
 20
120.7770015600672
 30
0.0
 10
25.29401523394992
 20
120.735722322299
 30
0.0
  0
SPLINE
  5
145
330
1F
100
AcDbEntity
  8
0
  6
HIDDEN
 62
     7
370
     0
100
AcDbSpline
210
0.0
220
0.0
230
1.0
 70
     8
 71
     3
 72
     8
 73
     4
 74
     0
 42
0.00000001
 43
0.00000001
 40
0.0
 40
0.0
 40
0.0
 40
0.0
 40
1.0
 40
1.0
 40
1.0
 40
1.0
 10
23.79401523394767
 20
113.8685240924821
 30
0.0
 10
24.26077584532546
 20
113.4531608468591
 30
0.0
 10
24.76652339210555
 20
113.1085704175545
 30
0.0
 10
25.29401523394992
 20
112.8053005286259
 30
0.0
  0
SPLINE
  5
146
330
1F
100
AcDbEntity
  8
0
  6
HIDDEN
 62
     7
370
     0
100
AcDbSpline
210
0.0
220
0.0
230
1.0
 70
     8
 71
     3
 72
     8
 73
     4
 74
     0
 42
0.00000001
 43
0.00000001
 40
0.0
 40
0.0
 40
0.0
 40
0.0
 40
1.0
 40
1.0
 40
1.0
 40
1.0
 10
25.29401523394992
 20
120.735722322299
 30
0.0
 10
24.76652339210639
 20
120.4324524333709
 30
0.0
 10
24.2607758453271
 20
120.0878620040669
 30
0.0
 10
23.79401523394992
 20
119.6724987584448
 30
0.0
  0
LINE
  5
147
330
1F
100
AcDbEntity
  8
0
  6
HIDDEN
 62
     7
370
     0
100
AcDbLine
 10
30.2440138809
 20
112.6845501618
 30
0.0
 11
30.2440138809
 21
120.8564726891
 31
0.0
  0
SPLINE
  5
148
330
1F
100
AcDbEntity
  8
0
  6
HIDDEN
 62
     7
370
     0
100
AcDbSpline
210
0.0
220
0.0
230
1.0
 70
     8
 71
     3
 72
    24
 73
    20
 74
     0
 42
0.00000001
 43
0.00000001
 40
0.0
 40
0.0
 40
0.0
 40
0.0
 40
0.1249999999999999
 40
0.1249999999999999
 40
0.2499999999999999
 40
0.2499999999999999
 40
0.3749999999999999
 40
0.3749999999999999
 40
0.4374999999999999
 40
0.4374999999999999
 40
0.4999999999999999
 40
0.4999999999999999
 40
0.6249999999999999
 40
0.6249999999999999
 40
0.75
 40
0.75
 40
0.8749999999999999
 40
0.8749999999999999
 40
1.0
 40
1.0
 40
1.0
 40
1.0
 10
30.24401523394993
 20
112.6845503723632
 30
0.0
 10
30.48181886622502
 20
112.9835574746933
 30
0.0
 10
30.7119045274363
 20
113.2878953260121
 30
0.0
 10
31.14665792604613
 20
113.9136288634081
 30
0.0
 10
31.3515907183323
 20
114.2348535907356
 30
0.0
 10
31.71669266883098
 20
114.9067793614683
 30
0.0
 10
31.87849305462249
 20
115.2620945933472
 30
0.0
 10
32.05035325920222
 20
115.8123258146996
 30
0.0
 10
32.09593845086236
 20
115.9987295996801
 30
0.0
 10
32.1584131904372
 20
116.3788641017764
 30
0.0
 10
32.17508433618566
 20
116.5745338940623
 30
0.0
 10
32.17560537936215
 20
117.1530142727367
 30
0.0
 10
32.11116307847546
 20
117.5309261117055
 30
0.0
 10
31.88131398510212
 20
118.2728941368039
 30
0.0
 10
31.72279330743902
 20
118.6216095969649
 30
0.0
 10
31.35855897753884
 20
119.294701994698
 30
0.0
 10
31.15182273747526
 20
119.6196544819396
 30
0.0
 10
30.7138847917349
 20
120.2505782924014
 30
0.0
 10
30.48261206445533
 20
120.5564680327421
 30
0.0
 10
30.24401523395001
 20
120.8564724785616
 30
0.0
  0
SPLINE
  5
149
330
1F
100
AcDbEntity
  8
0
  6
HIDDEN
 62
     7
370
     0
100
AcDbSpline
210
0.0
220
0.0
230
1.0
 70
     8
 71
     3
 72
     9
 73
     5
 74
     0
 42
0.00000001
 43
0.00000001
 40
0.0
 40
0.0
 40
0.0
 40
0.0
 40
0.5334121397644359
 40
1.0
 40
1.0
 40
1.0
 40
1.0
 10
43.10517630501201
 20
119.4165229586781
 30
0.0
 10
43.40437422743861
 20
119.703651338375
 30
0.0
 10
43.96528745029614
 20
120.2419375120338
 30
0.0
 10
44.7041326630924
 20
120.4807459211901
 30
0.0
 10
45.0488688699763
 20
120.5921710258246
 30
0.0
  0
SPLINE
  5
14A
330
1F
100
AcDbEntity
  8
0
  6
HIDDEN
 62
     7
370
     0
100
AcDbSpline
210
0.0
220
0.0
230
1.0
 70
     8
 71
     3
 72
    18
 73
    14
 74
     0
 42
0.00000001
 43
0.00000001
 40
0.0
 40
0.0
 40
0.0
 40
0.0
 40
0.0783610020365561
 40
0.1875061030660213
 40
0.2963664086754439
 40
0.4010833637308888
 40
0.4984626451445017
 40
0.5896891310415617
 40
0.6797794207156354
 40
0.7737926815758647
 40
0.8743573789968504
 40
0.9808022527629133
 40
0.9999999999999999
 40
0.9999999999999999
 40
0.9999999999999999
 40
0.9999999999999999
 10
45.78022903724124
 20
120.7499042408437
 30
0.0
 10
46.14729625445349
 20
120.7929874569815
 30
0.0
 10
47.02563294839531
 20
120.8960791193594
 30
0.0
 10
48.39064884893147
 20
120.4719832421035
 30
0.0
 10
49.64646401034972
 20
119.6020334687204
 30
0.0
 10
50.48645253090295
 20
118.3744572683065
 30
0.0
 10
50.81565358497378
 20
117.0114733570379
 30
0.0
 10
50.66158871077477
 20
115.6890425050611
 30
0.0
 10
50.09392585502412
 20
114.5114527914467
 30
0.0
 10
49.1554320745478
 20
113.5317994884262
 30
0.0
 10
47.89722287116647
 20
112.8953648155224
 30
0.0
 10
46.82389273370535
 20
112.6202230934503
 30
0.0
 10
46.24419971666094
 20
112.7286259358332
 30
0.0
 10
46.1556246779721
 20
112.7451895059914
 30
0.0
  0
SPLINE
  5
14B
330
1F
100
AcDbEntity
  8
0
  6
HIDDEN
 62
     7
370
     0
100
AcDbSpline
210
0.0
220
0.0
230
1.0
 70
     8
 71
     3
 72
    13
 73
     9
 74
     0
 42
0.00000001
 43
0.00000001
 40
0.0
 40
0.0
 40
0.0
 40
0.0
 40
0.071014348096028
 40
0.2845446691340678
 40
0.4859797195079917
 40
0.6752848981794662
 40
0.8594837670013883
 40
1.0
 40
1.0
 40
1.0
 40
1.0
 10
44.0011123470824
 20
113.449253539917
 30
0.0
 10
43.85401818352972
 20
113.523169080952
 30
0.0
 10
43.26463221827312
 20
113.8193384288598
 30
0.0
 10
42.5535128093131
 20
114.7521031194154
 30
0.0
 10
42.04063365913282
 20
116.0654086089677
 30
0.0
 10
42.0466175795613
 20
117.4217654884948
 30
0.0
 10
42.4351839829174
 20
118.5721044715805
 30
0.0
 10
42.90281504902455
 20
119.1614788634056
 30
0.0
 10
43.10517630501201
 20
119.4165229586781
 30
0.0
  0
CIRCLE
  5
14C
330
1F
100
AcDbEntity
  8
0
  6
HIDDEN
 62
     7
370
     0
100
AcDbCircle
 10
73.7940152339
 20
116.7705114255
 30
0.0
 40
2.0
  0
SPLINE
  5
14D
330
1F
100
AcDbEntity
  8
0
  6
HIDDEN
 62
     7
370
     0
100
AcDbSpline
210
0.0
220
0.0
230
1.0
 70
    24
 71
     1
 72
     4
 73
     2
 74
     0
 42
0.00000001
 43
0.00000001
 40
0.0
 40
0.0
 40
1.0
 40
1.0
 10
130.7940135054152
 20
130.7705118575961
 30
0.0
 10
132.2940165452521
 20
129.270511611727
 30
0.0
  0
SPLINE
  5
14E
330
1F
100
AcDbEntity
  8
0
  6
HIDDEN
 62
     7
370
     0
100
AcDbSpline
210
0.0
220
0.0
230
1.0
 70
    24
 71
     1
 72
     4
 73
     2
 74
     0
 42
0.00000001
 43
0.00000001
 40
0.0
 40
0.0
 40
1.0
 40
1.0
 10
139.2940158299964
 20
129.270511611727
 30
0.0
 10
140.7940188698333
 20
130.7705118575961
 30
0.0
  0
SPLINE
  5
14F
330
1F
100
AcDbEntity
  8
0
  6
HIDDEN
 62
     7
370
     0
100
AcDbSpline
210
0.0
220
0.0
230
1.0
 70
    24
 71
     1
 72
     4
 73
     2
 74
     0
 42
0.00000001
 43
0.00000001
 40
0.0
 40
0.0
 40
1.0
 40
1.0
 10
130.7940135054152
 20
140.9705112943323
 30
0.0
 10
130.7940135054152
 20
130.7705118575961
 30
0.0
  0
SPLINE
  5
150
330
1F
100
AcDbEntity
  8
0
  6
HIDDEN
 62
     7
370
     0
100
AcDbSpline
210
0.0
220
0.0
230
1.0
 70
    24
 71
     1
 72
     4
 73
     2
 74
     0
 42
0.00000001
 43
0.00000001
 40
0.0
 40
0.0
 40
1.0
 40
1.0
 10
140.7940188698333
 20
130.7705118575961
 30
0.0
 10
140.7940188698333
 20
140.9705112943323
 30
0.0
  0
SPLINE
  5
151
330
1F
100
AcDbEntity
  8
0
  6
HIDDEN
 62
     7
370
     0
100
AcDbSpline
210
0.0
220
0.0
230
1.0
 70
    24
 71
     1
 72
     4
 73
     2
 74
     0
 42
0.00000001
 43
0.00000001
 40
0.0
 40
0.0
 40
1.0
 40
1.0
 10
140.7940188698333
 20
140.9705112943323
 30
0.0
 10
139.9940127782386
 20
141.7705117979915
 30
0.0
  0
SPLINE
  5
152
330
1F
100
AcDbEntity
  8
0
  6
HIDDEN
 62
     7
370
     0
100
AcDbSpline
210
0.0
220
0.0
230
1.0
 70
    24
 71
     1
 72
     4
 73
     2
 74
     0
 42
0.00000001
 43
0.00000001
 40
0.0
 40
0.0
 40
1.0
 40
1.0
 10
131.5940121464293
 20
141.7705117979915
 30
0.0
 10
130.7940135054152
 20
140.9705112943323
 30
0.0
  0
SPLINE
  5
153
330
1F
100
AcDbEntity
  8
0
  6
HIDDEN
 62
     7
370
     0
100
AcDbSpline
210
0.0
220
0.0
230
1.0
 70
    24
 71
     1
 72
     4
 73
     2
 74
     0
 42
0.00000001
 43
0.00000001
 40
0.0
 40
0.0
 40
1.0
 40
1.0
 10
138.2940138034384
 20
129.270511611727
 30
0.0
 10
135.7940161876242
 20
130.7138874450595
 30
0.0
  0
SPLINE
  5
154
330
1F
100
AcDbEntity
  8
0
  6
HIDDEN
 62
     7
370
     0
100
AcDbSpline
210
0.0
220
0.0
230
1.0
 70
    24
 71
     1
 72
     4
 73
     2
 74
     0
 42
0.00000001
 43
0.00000001
 40
0.0
 40
0.0
 40
1.0
 40
1.0
 10
135.7940161876242
 20
130.7138874450595
 30
0.0
 10
133.29401857181
 20
129.270511611727
 30
0.0
  0
SPLINE
  5
155
330
1F
100
AcDbEntity
  8
0
  6
HIDDEN
 62
     7
370
     0
100
AcDbSpline
210
0.0
220
0.0
230
1.0
 70
    24
 71
     1
 72
     4
 73
     2
 74
     0
 42
0.00000001
 43
0.00000001
 40
0.0
 40
0.0
 40
1.0
 40
1.0
 10
146.2940151147406
 20
130.7705118575961
 30
0.0
 10
147.7940181545775
 20
129.270511611727
 30
0.0
  0
SPLINE
  5
156
330
1F
100
AcDbEntity
  8
0
  6
HIDDEN
 62
     7
370
     0
100
AcDbSpline
210
0.0
220
0.0
230
1.0
 70
    24
 71
     1
 72
     4
 73
     2
 74
     0
 42
0.00000001
 43
0.00000001
 40
0.0
 40
0.0
 40
1.0
 40
1.0
 10
154.7940174393218
 20
129.270511611727
 30
0.0
 10
156.2940130285781
 20
130.7705118575961
 30
0.0
  0
SPLINE
  5
157
330
1F
100
AcDbEntity
  8
0
  6
HIDDEN
 62
     7
370
     0
100
AcDbSpline
210
0.0
220
0.0
230
1.0
 70
    24
 71
     1
 72
     4
 73
     2
 74
     0
 42
0.00000001
 43
0.00000001
 40
0.0
 40
0.0
 40
1.0
 40
1.0
 10
146.2940151147406
 20
140.9705112943323
 30
0.0
 10
146.2940151147406
 20
130.7705118575961
 30
0.0
  0
SPLINE
  5
158
330
1F
100
AcDbEntity
  8
0
  6
HIDDEN
 62
     7
370
     0
100
AcDbSpline
210
0.0
220
0.0
230
1.0
 70
    24
 71
     1
 72
     4
 73
     2
 74
     0
 42
0.00000001
 43
0.00000001
 40
0.0
 40
0.0
 40
1.0
 40
1.0
 10
156.2940130285781
 20
130.7705118575961
 30
0.0
 10
156.2940130285781
 20
140.9705112943323
 30
0.0
  0
SPLINE
  5
159
330
1F
100
AcDbEntity
  8
0
  6
HIDDEN
 62
     7
370
     0
100
AcDbSpline
210
0.0
220
0.0
230
1.0
 70
    24
 71
     1
 72
     4
 73
     2
 74
     0
 42
0.00000001
 43
0.00000001
 40
0.0
 40
0.0
 40
1.0
 40
1.0
 10
156.2940130285781
 20
140.9705112943323
 30
0.0
 10
155.494014387564
 20
141.7705117979915
 30
0.0
  0
SPLINE
  5
15A
330
1F
100
AcDbEntity
  8
0
  6
HIDDEN
 62
     7
370
     0
100
AcDbSpline
210
0.0
220
0.0
230
1.0
 70
    24
 71
     1
 72
     4
 73
     2
 74
     0
 42
0.00000001
 43
0.00000001
 40
0.0
 40
0.0
 40
1.0
 40
1.0
 10
147.0940137557547
 20
141.7705117979915
 30
0.0
 10
146.2940151147406
 20
140.9705112943323
 30
0.0
  0
SPLINE
  5
15B
330
1F
100
AcDbEntity
  8
0
  6
HIDDEN
 62
     7
370
     0
100
AcDbSpline
210
0.0
220
0.0
230
1.0
 70
    24
 71
     1
 72
     4
 73
     2
 74
     0
 42
0.00000001
 43
0.00000001
 40
0.0
 40
0.0
 40
1.0
 40
1.0
 10
153.7940154127639
 20
129.270511611727
 30
0.0
 10
151.2940177969496
 20
130.7138874450595
 30
0.0
  0
SPLINE
  5
15C
330
1F
100
AcDbEntity
  8
0
  6
HIDDEN
 62
     7
370
     0
100
AcDbSpline
210
0.0
220
0.0
230
1.0
 70
    24
 71
     1
 72
     4
 73
     2
 74
     0
 42
0.00000001
 43
0.00000001
 40
0.0
 40
0.0
 40
1.0
 40
1.0
 10
151.2940177969496
 20
130.7138874450595
 30
0.0
 10
148.7940127305548
 20
129.270511611727
 30
0.0
  0
SPLINE
  5
15D
330
1F
100
AcDbEntity
  8
0
  6
HIDDEN
 62
     7
370
     0
100
AcDbSpline
210
0.0
220
0.0
230
1.0
 70
    24
 71
     1
 72
     4
 73
     2
 74
     0
 42
0.00000001
 43
0.00000001
 40
0.0
 40
0.0
 40
1.0
 40
1.0
 10
115.2940156213801
 20
130.7705118575961
 30
0.0
 10
116.7940149359267
 20
129.270511611727
 30
0.0
  0
SPLINE
  5
15E
330
1F
100
AcDbEntity
  8
0
  6
HIDDEN
 62
     7
370
     0
100
AcDbSpline
210
0.0
220
0.0
230
1.0
 70
    24
 71
     1
 72
     4
 73
     2
 74
     0
 42
0.00000001
 43
0.00000001
 40
0.0
 40
0.0
 40
1.0
 40
1.0
 10
123.794014220671
 20
129.270511611727
 30
0.0
 10
125.2940172605078
 20
130.7705118575961
 30
0.0
  0
SPLINE
  5
15F
330
1F
100
AcDbEntity
  8
0
  6
HIDDEN
 62
     7
370
     0
100
AcDbSpline
210
0.0
220
0.0
230
1.0
 70
    24
 71
     1
 72
     4
 73
     2
 74
     0
 42
0.00000001
 43
0.00000001
 40
0.0
 40
0.0
 40
1.0
 40
1.0
 10
115.2940156213801
 20
140.9705112943323
 30
0.0
 10
115.2940156213801
 20
130.7705118575961
 30
0.0
  0
SPLINE
  5
160
330
1F
100
AcDbEntity
  8
0
  6
HIDDEN
 62
     7
370
     0
100
AcDbSpline
210
0.0
220
0.0
230
1.0
 70
    24
 71
     1
 72
     4
 73
     2
 74
     0
 42
0.00000001
 43
0.00000001
 40
0.0
 40
0.0
 40
1.0
 40
1.0
 10
125.2940172605078
 20
130.7705118575961
 30
0.0
 10
125.2940172605078
 20
140.9705112943323
 30
0.0
  0
SPLINE
  5
161
330
1F
100
AcDbEntity
  8
0
  6
HIDDEN
 62
     7
370
     0
100
AcDbSpline
210
0.0
220
0.0
230
1.0
 70
    24
 71
     1
 72
     4
 73
     2
 74
     0
 42
0.00000001
 43
0.00000001
 40
0.0
 40
0.0
 40
1.0
 40
1.0
 10
125.2940172605078
 20
140.9705112943323
 30
0.0
 10
124.4940186194937
 20
141.7705117979915
 30
0.0
  0
SPLINE
  5
162
330
1F
100
AcDbEntity
  8
0
  6
HIDDEN
 62
     7
370
     0
100
AcDbSpline
210
0.0
220
0.0
230
1.0
 70
    24
 71
     1
 72
     4
 73
     2
 74
     0
 42
0.00000001
 43
0.00000001
 40
0.0
 40
0.0
 40
1.0
 40
1.0
 10
116.0940142623942
 20
141.7705117979915
 30
0.0
 10
115.2940156213801
 20
140.9705112943323
 30
0.0
  0
SPLINE
  5
163
330
1F
100
AcDbEntity
  8
0
  6
HIDDEN
 62
     7
370
     0
100
AcDbSpline
210
0.0
220
0.0
230
1.0
 70
    24
 71
     1
 72
     4
 73
     2
 74
     0
 42
0.00000001
 43
0.00000001
 40
0.0
 40
0.0
 40
1.0
 40
1.0
 10
122.7940159194033
 20
129.270511611727
 30
0.0
 10
120.2940145782988
 20
130.7138874450595
 30
0.0
  0
SPLINE
  5
164
330
1F
100
AcDbEntity
  8
0
  6
HIDDEN
 62
     7
370
     0
100
AcDbSpline
210
0.0
220
0.0
230
1.0
 70
    24
 71
     1
 72
     4
 73
     2
 74
     0
 42
0.00000001
 43
0.00000001
 40
0.0
 40
0.0
 40
1.0
 40
1.0
 10
120.2940145782988
 20
130.7138874450595
 30
0.0
 10
117.7940169624846
 20
129.270511611727
 30
0.0
  0
SPLINE
  5
165
330
1F
100
AcDbEntity
  8
0
  6
HIDDEN
 62
     7
370
     0
100
AcDbSpline
210
0.0
220
0.0
230
1.0
 70
    24
 71
     1
 72
     4
 73
     2
 74
     0
 42
0.00000001
 43
0.00000001
 40
0.0
 40
0.0
 40
1.0
 40
1.0
 10
61.79401523394992
 20
92.52051071020671
 30
0.0
 10
61.88690845437597
 20
92.61340454908915
 30
0.0
  0
SPLINE
  5
166
330
1F
100
AcDbEntity
  8
0
  6
HIDDEN
 62
     7
370
     0
100
AcDbSpline
210
0.0
220
0.0
230
1.0
 70
    24
 71
     1
 72
     4
 73
     2
 74
     0
 42
0.00000001
 43
0.00000001
 40
0.0
 40
0.0
 40
1.0
 40
1.0
 10
61.88690845437597
 20
140.9276183018358
 30
0.0
 10
61.79401523394992
 20
141.0205121407182
 30
0.0
  0
ARC
  5
167
330
1F
100
AcDbEntity
  8
0
  6
HIDDEN
 62
     7
370
     0
100
AcDbCircle
 10
61.1798016716
 20
93.3205114255
 30
0.0
 40
1.000000000000003
100
AcDbArc
 50
315.0
 51
0.0
  0
ARC
  5
168
330
1F
100
AcDbEntity
  8
0
  6
HIDDEN
 62
     7
370
     0
100
AcDbCircle
 10
61.1798016716
 20
93.3205114255
 30
0.0
 40
1.0
100
AcDbArc
 50
0.0
 51
52.1052014664
  0
ARC
  5
169
330
1F
100
AcDbEntity
  8
0
  6
HIDDEN
 62
     7
370
     0
100
AcDbCircle
 10
61.1798016716
 20
140.2205114255
 30
0.0
 40
1.000000000000013
100
AcDbArc
 50
351.8087250651
 51
45.0
  0
ARC
  5
16A
330
1F
100
AcDbEntity
  8
0
  6
HIDDEN
 62
     7
370
     0
100
AcDbCircle
 10
61.1798016716
 20
140.2205114255
 30
0.0
 40
0.9999999999999947
100
AcDbArc
 50
307.8947985336
 51
351.8087250651
  0
LINE
  5
16B
330
1F
100
AcDbEntity
  8
0
  6
HIDDEN
 62
     7
370
     0
100
AcDbLine
 10
62.1798016697
 20
93.3205112139
 30
0.0
 11
62.1798016697
 21
140.2205116371
 31
0.0
  0
SPLINE
  5
16C
330
1F
100
AcDbEntity
  8
0
  6
HIDDEN
 62
     7
370
     0
100
AcDbSpline
210
0.0
220
0.0
230
1.0
 70
    24
 71
     1
 72
     4
 73
     2
 74
     0
 42
0.00000001
 43
0.00000001
 40
0.0
 40
0.0
 40
1.0
 40
1.0
 10
23.79401645584514
 20
100.5740816960008
 30
0.0
 10
25.32424277587345
 20
101.4575603673131
 30
0.0
  0
SPLINE
  5
16D
330
1F
100
AcDbEntity
  8
0
  6
HIDDEN
 62
     7
370
     0
100
AcDbSpline
210
0.0
220
0.0
230
1.0
 70
    24
 71
     1
 72
     4
 73
     2
 74
     0
 42
0.00000001
 43
0.00000001
 40
0.0
 40
0.0
 40
1.0
 40
1.0
 10
25.32424277587345
 20
132.0834624836118
 30
0.0
 10
23.79401645584514
 20
132.9669411549241
 30
0.0
  0
SPLINE
  5
16E
330
1F
100
AcDbEntity
  8
0
  6
HIDDEN
 62
     7
370
     0
100
AcDbSpline
210
0.0
220
0.0
230
1.0
 70
    24
 71
     1
 72
     4
 73
     2
 74
     0
 42
0.00000001
 43
0.00000001
 40
0.0
 40
0.0
 40
1.0
 40
1.0
 10
33.79401436968257
 20
100.7705106655032
 30
0.0
 10
34.79581571145465
 20
100.7705106655032
 30
0.0
  0
SPLINE
  5
16F
330
1F
100
AcDbEntity
  8
0
  6
HIDDEN
 62
     7
370
     0
100
AcDbSpline
210
0.0
220
0.0
230
1.0
 70
    24
 71
     1
 72
     4
 73
     2
 74
     0
 42
0.00000001
 43
0.00000001
 40
0.0
 40
0.0
 40
1.0
 40
1.0
 10
34.79581571145465
 20
132.7705121854217
 30
0.0
 10
33.79401436968257
 20
132.7705121854217
 30
0.0
  0
ARC
  5
170
330
1F
100
AcDbEntity
  8
0
  6
HIDDEN
 62
     7
370
     0
100
AcDbCircle
 10
34.7958165488
 20
102.7705114255
 30
0.0
 40
2.0
100
AcDbArc
 50
270.0
 51
315.0
  0
ARC
  5
171
330
1F
100
AcDbEntity
  8
0
  6
HIDDEN
 62
     7
370
     0
100
AcDbCircle
 10
34.7958165488
 20
130.7705114255
 30
0.0
 40
2.000000000000016
100
AcDbArc
 50
45.0
 51
90.0
  0
ARC
  5
172
330
1F
100
AcDbEntity
  8
0
  6
HIDDEN
 62
     7
370
     0
100
AcDbCircle
 10
33.7940152339
 20
102.7705114255
 30
0.0
 40
2.00000000000002
100
AcDbArc
 50
189.9742217944
 51
270.0
  0
ARC
  5
173
330
1F
100
AcDbEntity
  8
0
  6
HIDDEN
 62
     7
370
     0
100
AcDbCircle
 10
33.7940152339
 20
130.7705114255
 30
0.0
 40
2.00000000000002
100
AcDbArc
 50
90.0
 51
170.0257782056
  0
SPLINE
  5
174
330
1F
100
AcDbEntity
  8
0
  6
HIDDEN
 62
     7
370
     0
100
AcDbSpline
210
0.0
220
0.0
230
1.0
 70
    24
 71
     1
 72
     4
 73
     2
 74
     0
 42
0.00000001
 43
0.00000001
 40
0.0
 40
0.0
 40
1.0
 40
1.0
 10
36.2100309036534
 20
101.3562976637752
 30
0.0
 10
37.62424423320701
 20
102.7705109933288
 30
0.0
  0
SPLINE
  5
175
330
1F
100
AcDbEntity
  8
0
  6
HIDDEN
 62
     7
370
     0
100
AcDbSpline
210
0.0
220
0.0
230
1.0
 70
    24
 71
     1
 72
     4
 73
     2
 74
     0
 42
0.00000001
 43
0.00000001
 40
0.0
 40
0.0
 40
1.0
 40
1.0
 10
37.62424423320701
 20
130.7705118575961
 30
0.0
 10
36.2100309036534
 20
132.1847251871498
 30
0.0
  0
SPLINE
  5
176
330
1F
100
AcDbEntity
  8
0
  6
HIDDEN
 62
     7
370
     0
100
AcDbSpline
210
0.0
220
0.0
230
1.0
 70
    24
 71
     1
 72
     4
 73
     2
 74
     0
 42
0.00000001
 43
0.00000001
 40
0.0
 40
0.0
 40
1.0
 40
1.0
 10
25.32424277587345
 20
101.4575603673131
 30
0.0
 10
30.22424376531055
 20
102.7705109933288
 30
0.0
  0
SPLINE
  5
177
330
1F
100
AcDbEntity
  8
0
  6
HIDDEN
 62
     7
370
     0
100
AcDbSpline
210
0.0
220
0.0
230
1.0
 70
    24
 71
     1
 72
     4
 73
     2
 74
     0
 42
0.00000001
 43
0.00000001
 40
0.0
 40
0.0
 40
1.0
 40
1.0
 10
30.22424376531055
 20
130.7705118575961
 30
0.0
 10
25.32424277587345
 20
132.0834624836118
 30
0.0
  0
SPLINE
  5
178
330
1F
100
AcDbEntity
  8
0
  6
HIDDEN
 62
     7
370
     0
100
AcDbSpline
210
0.0
220
0.0
230
1.0
 70
    24
 71
     1
 72
     4
 73
     2
 74
     0
 42
0.00000001
 43
0.00000001
 40
0.0
 40
0.0
 40
1.0
 40
1.0
 10
31.8242429099839
 20
131.1169219458372
 30
0.0
 10
31.22424392922332
 20
130.7705118575961
 30
0.0
  0
SPLINE
  5
179
330
1F
100
AcDbEntity
  8
0
  6
HIDDEN
 62
     7
370
     0
100
AcDbSpline
210
0.0
220
0.0
230
1.0
 70
    24
 71
     1
 72
     4
 73
     2
 74
     0
 42
0.00000001
 43
0.00000001
 40
0.0
 40
0.0
 40
1.0
 40
1.0
 10
31.22424392922332
 20
102.7705109933288
 30
0.0
 10
31.8242429099839
 20
102.4241009050877
 30
0.0
  0
ARC
  5
17A
330
1F
100
AcDbEntity
  8
0
  6
HIDDEN
 62
     7
370
     0
100
AcDbCircle
 10
50.2940152339
 20
103.2705114255
 30
0.0
 40
0.5
100
AcDbArc
 50
270.0
 51
0.0
  0
ARC
  5
17B
330
1F
100
AcDbEntity
  8
0
  6
HIDDEN
 62
     7
370
     0
100
AcDbCircle
 10
50.2940152339
 20
130.2705114255
 30
0.0
 40
0.5
100
AcDbArc
 50
0.0
 51
90.0
  0
SPLINE
  5
17C
330
1F
100
AcDbEntity
  8
0
  6
HIDDEN
 62
     7
370
     0
100
AcDbSpline
210
0.0
220
0.0
230
1.0
 70
    24
 71
     1
 72
     4
 73
     2
 74
     0
 42
0.00000001
 43
0.00000001
 40
0.0
 40
0.0
 40
1.0
 40
1.0
 10
37.62424423320701
 20
102.7705109933288
 30
0.0
 10
50.29401521159818
 20
102.7705109933288
 30
0.0
  0
SPLINE
  5
17D
330
1F
100
AcDbEntity
  8
0
  6
HIDDEN
 62
     7
370
     0
100
AcDbSpline
210
0.0
220
0.0
230
1.0
 70
    24
 71
     1
 72
     4
 73
     2
 74
     0
 42
0.00000001
 43
0.00000001
 40
0.0
 40
0.0
 40
1.0
 40
1.0
 10
50.29401521159818
 20
130.7705118575961
 30
0.0
 10
37.62424423320701
 20
130.7705118575961
 30
0.0
  0
SPLINE
  5
17E
330
1F
100
AcDbEntity
  8
0
  6
HIDDEN
 62
     7
370
     0
100
AcDbSpline
210
0.0
220
0.0
230
1.0
 70
    24
 71
     1
 72
     4
 73
     2
 74
     0
 42
0.00000001
 43
0.00000001
 40
0.0
 40
0.0
 40
1.0
 40
1.0
 10
30.22424376531055
 20
102.7705109933288
 30
0.0
 10
31.22424392922332
 20
102.7705109933288
 30
0.0
  0
SPLINE
  5
17F
330
1F
100
AcDbEntity
  8
0
  6
HIDDEN
 62
     7
370
     0
100
AcDbSpline
210
0.0
220
0.0
230
1.0
 70
    24
 71
     1
 72
     4
 73
     2
 74
     0
 42
0.00000001
 43
0.00000001
 40
0.0
 40
0.0
 40
1.0
 40
1.0
 10
31.22424392922332
 20
130.7705118575961
 30
0.0
 10
30.22424376531055
 20
130.7705118575961
 30
0.0
  0
ARC
  5
180
330
1F
100
AcDbEntity
  8
0
  6
HIDDEN
 62
     7
370
     0
100
AcDbCircle
 10
161.2940152339
 20
129.7705114255
 30
0.0
 40
0.5
100
AcDbArc
 50
270.0
 51
0.0
  0
ARC
  5
181
330
1F
100
AcDbEntity
  8
0
  6
HIDDEN
 62
     7
370
     0
100
AcDbCircle
 10
161.2940152339
 20
103.7705114255
 30
0.0
 40
0.5
100
AcDbArc
 50
0.0
 51
90.0
  0
SPLINE
  5
182
330
1F
100
AcDbEntity
  8
0
  6
HIDDEN
 62
     7
370
     0
100
AcDbSpline
210
0.0
220
0.0
230
1.0
 70
    24
 71
     1
 72
     4
 73
     2
 74
     0
 42
0.00000001
 43
0.00000001
 40
0.0
 40
0.0
 40
1.0
 40
1.0
 10
113.9697717778247
 20
103.9705117488176
 30
0.0
 10
114.7940146081012
 20
104.2705112391979
 30
0.0
  0
SPLINE
  5
183
330
1F
100
AcDbEntity
  8
0
  6
HIDDEN
 62
     7
370
     0
100
AcDbSpline
210
0.0
220
0.0
230
1.0
 70
    24
 71
     1
 72
     4
 73
     2
 74
     0
 42
0.00000001
 43
0.00000001
 40
0.0
 40
0.0
 40
1.0
 40
1.0
 10
114.7940146081012
 20
129.270511611727
 30
0.0
 10
113.9697717778247
 20
129.5705111021073
 30
0.0
  0
SPLINE
  5
184
330
1F
100
AcDbEntity
  8
0
  6
HIDDEN
 62
     7
370
     0
100
AcDbSpline
210
0.0
220
0.0
230
1.0
 70
    24
 71
     1
 72
     4
 73
     2
 74
     0
 42
0.00000001
 43
0.00000001
 40
0.0
 40
0.0
 40
1.0
 40
1.0
 10
113.9697717778247
 20
129.5705111021073
 30
0.0
 10
111.1940169982474
 20
129.5705111021073
 30
0.0
  0
SPLINE
  5
185
330
1F
100
AcDbEntity
  8
0
  6
HIDDEN
 62
     7
370
     0
100
AcDbSpline
210
0.0
220
0.0
230
1.0
 70
    24
 71
     1
 72
     4
 73
     2
 74
     0
 42
0.00000001
 43
0.00000001
 40
0.0
 40
0.0
 40
1.0
 40
1.0
 10
111.1940169982474
 20
103.9705117488176
 30
0.0
 10
113.9697717778247
 20
103.9705117488176
 30
0.0
  0
ARC
  5
186
330
1F
100
AcDbEntity
  8
0
  6
HIDDEN
 62
     7
370
     0
100
AcDbCircle
 10
111.1940152339
 20
129.1705114255
 30
0.0
 40
0.4000000000000057
100
AcDbArc
 50
90.0
 51
180.0
  0
ARC
  5
187
330
1F
100
AcDbEntity
  8
0
  6
HIDDEN
 62
     7
370
     0
100
AcDbCircle
 10
111.1940152339
 20
104.3705114255
 30
0.0
 40
0.4000000000000057
100
AcDbArc
 50
180.0
 51
270.0
  0
SPLINE
  5
188
330
1F
100
AcDbEntity
  8
0
  6
HIDDEN
 62
     7
370
     0
100
AcDbSpline
210
0.0
220
0.0
230
1.0
 70
    24
 71
     1
 72
     4
 73
     2
 74
     0
 42
0.00000001
 43
0.00000001
 40
0.0
 40
0.0
 40
1.0
 40
1.0
 10
115.8418754391234
 20
129.270511611727
 30
0.0
 10
114.7940146081012
 20
129.270511611727
 30
0.0
  0
SPLINE
  5
189
330
1F
100
AcDbEntity
  8
0
  6
HIDDEN
 62
     7
370
     0
100
AcDbSpline
210
0.0
220
0.0
230
1.0
 70
    24
 71
     1
 72
     4
 73
     2
 74
     0
 42
0.00000001
 43
0.00000001
 40
0.0
 40
0.0
 40
1.0
 40
1.0
 10
131.3418770484488
 20
129.270511611727
 30
0.0
 10
124.7467050604384
 20
129.270511611727
 30
0.0
  0
SPLINE
  5
18A
330
1F
100
AcDbEntity
  8
0
  6
HIDDEN
 62
     7
370
     0
100
AcDbSpline
210
0.0
220
0.0
230
1.0
 70
    24
 71
     1
 72
     4
 73
     2
 74
     0
 42
0.00000001
 43
0.00000001
 40
0.0
 40
0.0
 40
1.0
 40
1.0
 10
146.8418712071936
 20
129.270511611727
 30
0.0
 10
140.2467066697638
 20
129.270511611727
 30
0.0
  0
SPLINE
  5
18B
330
1F
100
AcDbEntity
  8
0
  6
HIDDEN
 62
     7
370
     0
100
AcDbSpline
210
0.0
220
0.0
230
1.0
 70
    24
 71
     1
 72
     4
 73
     2
 74
     0
 42
0.00000001
 43
0.00000001
 40
0.0
 40
0.0
 40
1.0
 40
1.0
 10
161.2940157107871
 20
129.270511611727
 30
0.0
 10
155.7467082790892
 20
129.270511611727
 30
0.0
  0
SPLINE
  5
18C
330
1F
100
AcDbEntity
  8
0
  6
HIDDEN
 62
     7
370
     0
100
AcDbSpline
210
0.0
220
0.0
230
1.0
 70
    24
 71
     1
 72
     4
 73
     2
 74
     0
 42
0.00000001
 43
0.00000001
 40
0.0
 40
0.0
 40
1.0
 40
1.0
 10
114.7940146081012
 20
104.2705112391979
 30
0.0
 10
161.2940157107871
 20
104.2705112391979
 30
0.0
  0
SPLINE
  5
18D
330
1F
100
AcDbEntity
  8
0
  6
HIDDEN
 62
     7
370
     0
100
AcDbSpline
210
0.0
220
0.0
230
1.0
 70
    24
 71
     1
 72
     4
 73
     2
 74
     0
 42
0.00000001
 43
0.00000001
 40
0.0
 40
0.0
 40
1.0
 40
1.0
 10
50.79401529355457
 20
106.5205111423404
 30
0.0
 10
52.04401503278424
 20
107.7705118128926
 30
0.0
  0
SPLINE
  5
18E
330
1F
100
AcDbEntity
  8
0
  6
HIDDEN
 62
     7
370
     0
100
AcDbSpline
210
0.0
220
0.0
230
1.0
 70
    24
 71
     1
 72
     4
 73
     2
 74
     0
 42
0.00000001
 43
0.00000001
 40
0.0
 40
0.0
 40
1.0
 40
1.0
 10
52.04401503278424
 20
125.7705110380323
 30
0.0
 10
50.79401529355457
 20
127.0205117085845
 30
0.0
  0
SPLINE
  5
18F
330
1F
100
AcDbEntity
  8
0
  6
HIDDEN
 62
     7
370
     0
100
AcDbSpline
210
0.0
220
0.0
230
1.0
 70
    24
 71
     1
 72
     4
 73
     2
 74
     0
 42
0.00000001
 43
0.00000001
 40
0.0
 40
0.0
 40
1.0
 40
1.0
 10
77.79401599390914
 20
107.7705118128926
 30
0.0
 10
78.39487551672866
 20
108.7705110454828
 30
0.0
  0
SPLINE
  5
190
330
1F
100
AcDbEntity
  8
0
  6
HIDDEN
 62
     7
370
     0
100
AcDbSpline
210
0.0
220
0.0
230
1.0
 70
    24
 71
     1
 72
     4
 73
     2
 74
     0
 42
0.00000001
 43
0.00000001
 40
0.0
 40
0.0
 40
1.0
 40
1.0
 10
78.39487551672866
 20
124.7705118054421
 30
0.0
 10
77.79401599390914
 20
125.7705110380323
 30
0.0
  0
SPLINE
  5
191
330
1F
100
AcDbEntity
  8
0
  6
HIDDEN
 62
     7
370
     0
100
AcDbSpline
210
0.0
220
0.0
230
1.0
 70
    24
 71
     1
 72
     4
 73
     2
 74
     0
 42
0.00000001
 43
0.00000001
 40
0.0
 40
0.0
 40
1.0
 40
1.0
 10
52.04401503278424
 20
107.7705118128926
 30
0.0
 10
77.79401599390914
 20
107.7705118128926
 30
0.0
  0
SPLINE
  5
192
330
1F
100
AcDbEntity
  8
0
  6
HIDDEN
 62
     7
370
     0
100
AcDbSpline
210
0.0
220
0.0
230
1.0
 70
    24
 71
     1
 72
     4
 73
     2
 74
     0
 42
0.00000001
 43
0.00000001
 40
0.0
 40
0.0
 40
1.0
 40
1.0
 10
77.79401599390914
 20
125.7705110380323
 30
0.0
 10
52.04401503278424
 20
125.7705110380323
 30
0.0
  0
SPLINE
  5
193
330
1F
100
AcDbEntity
  8
0
  6
HIDDEN
 62
     7
370
     0
100
AcDbSpline
210
0.0
220
0.0
230
1.0
 70
    24
 71
     1
 72
     4
 73
     2
 74
     0
 42
0.00000001
 43
0.00000001
 40
0.0
 40
0.0
 40
1.0
 40
1.0
 10
78.39487551672866
 20
108.7705110454828
 30
0.0
 10
110.7940139524501
 20
108.7705110454828
 30
0.0
  0
SPLINE
  5
194
330
1F
100
AcDbEntity
  8
0
  6
HIDDEN
 62
     7
370
     0
100
AcDbSpline
210
0.0
220
0.0
230
1.0
 70
    24
 71
     1
 72
     4
 73
     2
 74
     0
 42
0.00000001
 43
0.00000001
 40
0.0
 40
0.0
 40
1.0
 40
1.0
 10
110.7940139524501
 20
124.7705118054421
 30
0.0
 10
78.39487551672866
 20
124.7705118054421
 30
0.0
  0
SPLINE
  5
195
330
1F
100
AcDbEntity
  8
0
  6
HIDDEN
 62
     7
370
     0
100
AcDbSpline
210
0.0
220
0.0
230
1.0
 70
    24
 71
     1
 72
     4
 73
     2
 74
     0
 42
0.00000001
 43
0.00000001
 40
0.0
 40
0.0
 40
1.0
 40
1.0
 10
146.7940161280196
 20
141.7705117979915
 30
0.0
 10
146.7940161280196
 20
129.2535587469013
 30
0.0
  0
SPLINE
  5
196
330
1F
100
AcDbEntity
  8
0
  6
HIDDEN
 62
     7
370
     0
100
AcDbSpline
210
0.0
220
0.0
230
1.0
 70
    24
 71
     1
 72
     4
 73
     2
 74
     0
 42
0.00000001
 43
0.00000001
 40
0.0
 40
0.0
 40
1.0
 40
1.0
 10
155.7940120152991
 20
129.2537170717389
 30
0.0
 10
155.7940120152991
 20
141.7705117979915
 30
0.0
  0
SPLINE
  5
197
330
1F
100
AcDbEntity
  8
0
  6
HIDDEN
 62
     7
370
     0
100
AcDbSpline
210
0.0
220
0.0
230
1.0
 70
    24
 71
     1
 72
     4
 73
     2
 74
     0
 42
0.00000001
 43
0.00000001
 40
0.0
 40
0.0
 40
1.0
 40
1.0
 10
131.2940145186942
 20
141.7705117979915
 30
0.0
 10
131.2940145186942
 20
129.2535587469013
 30
0.0
  0
SPLINE
  5
198
330
1F
100
AcDbEntity
  8
0
  6
HIDDEN
 62
     7
370
     0
100
AcDbSpline
210
0.0
220
0.0
230
1.0
 70
    24
 71
     1
 72
     4
 73
     2
 74
     0
 42
0.00000001
 43
0.00000001
 40
0.0
 40
0.0
 40
1.0
 40
1.0
 10
140.2940178565543
 20
129.2537170717389
 30
0.0
 10
140.2940178565543
 20
141.7705117979915
 30
0.0
  0
SPLINE
  5
199
330
1F
100
AcDbEntity
  8
0
  6
HIDDEN
 62
     7
370
     0
100
AcDbSpline
210
0.0
220
0.0
230
1.0
 70
    24
 71
     1
 72
     4
 73
     2
 74
     0
 42
0.00000001
 43
0.00000001
 40
0.0
 40
0.0
 40
1.0
 40
1.0
 10
115.7940166346591
 20
141.7705117979915
 30
0.0
 10
115.7940166346591
 20
129.2535587469013
 30
0.0
  0
SPLINE
  5
19A
330
1F
100
AcDbEntity
  8
0
  6
HIDDEN
 62
     7
370
     0
100
AcDbSpline
210
0.0
220
0.0
230
1.0
 70
    24
 71
     1
 72
     4
 73
     2
 74
     0
 42
0.00000001
 43
0.00000001
 40
0.0
 40
0.0
 40
1.0
 40
1.0
 10
124.7940162472289
 20
129.2537170717389
 30
0.0
 10
124.7940162472289
 20
141.7705117979915
 30
0.0
  0
LINE
  5
19B
330
1F
100
AcDbEntity
  8
0
  6
HIDDEN
 62
     7
370
     0
100
AcDbLine
 10
62.0940152482
 20
148.2705119321
 30
0.0
 11
62.0940152482
 21
85.2705109188
 31
0.0
  0
LINE
  5
19C
330
1F
100
AcDbEntity
  8
0
  6
HIDDEN
 62
     7
370
     0
100
AcDbLine
 10
86.7940156065
 20
91.7705110529
 30
0.0
 11
86.7940156065
 21
141.770511798
 31
0.0
  0
LINE
  5
19D
330
1F
100
AcDbEntity
  8
0
  6
HIDDEN
 62
     7
370
     0
100
AcDbLine
 10
160.7940146975
 20
91.7705110529
 30
0.0
 11
160.7940146975
 21
141.770511798
 31
0.0
  0
DIMENSION
  5
19E
330
1F
100
AcDbEntity
  8
VERMASSUNG
100
AcDbDimension
  2
*D1
 10
18.0539352461
 20
85.2705114255
 30
0.0
 11
18.0539352461
 21
116.7705114255
 31
0.0
 70
   160
  1
PSC %%c<>
 71
     2
 42
-1.0
  3
SLDDIMSTYLE0
100
AcDbAlignedDimension
 13
62.0940152339
 23
148.2705114255
 33
0.0
 14
62.0940152339
 24
85.2705114255
 34
0.0
 50
90.0
100
AcDbRotatedDimension
  0
DIMENSION
  5
1AB
330
1F
100
AcDbEntity
  8
VERMASSUNG
100
AcDbDimension
  2
*D2
 10
175.1668834869
 20
91.7705114255
 30
0.0
 11
175.1668834869
 21
116.7705114255
 31
0.0
 70
   160
  1
%%c<>
 71
     2
 42
-1.0
  3
SLDDIMSTYLE0
100
AcDbAlignedDimension
 13
160.7940152339
 23
141.7705114255
 33
0.0
 14
160.7940152339
 24
91.7705114255
 34
0.0
 50
90.0
100
AcDbRotatedDimension
  0
DIMENSION
  5
1B6
330
1F
100
AcDbEntity
  8
VERMASSUNG
100
AcDbDimension
  2
*D3
 10
169.1668834869
 20
104.2705114255
 30
0.0
 11
169.1668834869
 21
116.7705114255
 31
0.0
 70
   160
  1
%%c<>
 71
     2
 42
-1.0
  3
SLDDIMSTYLE0
100
AcDbAlignedDimension
 13
161.2940152339
 23
129.2705114255
 33
0.0
 14
161.2940152339
 24
104.2705114255
 34
0.0
 50
90.0
100
AcDbRotatedDimension
  0
DIMENSION
  5
1C1
330
1F
100
AcDbEntity
  8
VERMASSUNG
100
AcDbDimension
  2
*D4
 10
161.7940152339
 20
164.6606722424
 30
0.0
 11
92.7940152339
 21
164.6606722424
 31
0.0
 70
   160
 71
     2
 42
-1.0
  3
SLDDIMSTYLE0
100
AcDbAlignedDimension
 13
23.7940152339
 23
137.062849418
 33
0.0
 14
161.7940152339
 24
140.7705114255
 34
0.0
100
AcDbRotatedDimension
  0
DIMENSION
  5
1CB
330
1F
100
AcDbEntity
  8
VERMASSUNG
100
AcDbDimension
  2
*D5
 10
161.7940152339
 20
158.6606722424
 30
0.0
 11
111.7940152339
 21
158.6606722424
 31
0.0
 70
   160
 71
     2
 42
-1.0
  3
SLDDIMSTYLE0
100
AcDbAlignedDimension
 13
61.7940152339
 23
147.9705114255
 33
0.0
 14
161.7940152339
 24
140.7705114255
 34
0.0
100
AcDbRotatedDimension
  0
DIMENSION
  5
1D5
330
1F
100
AcDbEntity
  8
VERMASSUNG
100
AcDbDimension
  2
*D6
 10
161.7940152339
 20
152.6606722424
 30
0.0
 11
122.7940152339
 21
152.6606722424
 31
0.0
 70
   160
 71
     2
 42
-1.0
  3
SLDDIMSTYLE0
100
AcDbAlignedDimension
 13
83.7940152339
 23
148.2705114255
 33
0.0
 14
161.7940152339
 24
140.7705114255
 34
0.0
100
AcDbRotatedDimension
  0
DIMENSION
  5
1DF
330
1F
100
AcDbEntity
  8
VERMASSUNG
100
AcDbDimension
  2
*D7
 10
161.7940152339
 20
75.2705114255
 30
0.0
 11
136.2940152339
 21
75.2705114255
 31
0.0
 70
   160
 71
     2
 42
-1.0
  3
SLDDIMSTYLE0
100
AcDbAlignedDimension
 13
110.7940152339
 23
104.3705114255
 33
0.0
 14
161.7940152339
 24
92.7705114255
 34
0.0
100
AcDbRotatedDimension
  0
DIMENSION
  5
1E9
330
1F
100
AcDbEntity
  8
VERMASSUNG
100
AcDbDimension
  2
*D8
 10
135.7940152339
 20
82.3148264938
 30
0.0
 11
128.0440152339
 21
82.3148264938
 31
0.0
 70
   160
 71
     2
 42
-1.0
  3
SLDDIMSTYLE0
100
AcDbAlignedDimension
 13
120.2940152339
 23
110.1953847501
 33
0.0
 14
135.7940152339
 24
110.4621843506
 34
0.0
100
AcDbRotatedDimension
  0
DIMENSION
  5
1F3
330
1F
100
AcDbEntity
  8
VERMASSUNG
100
AcDbDimension
  2
*D9
 10
151.2940152339
 20
82.3148264938
 30
0.0
 11
143.5440152339
 21
82.3148264938
 31
0.0
 70
   160
 71
     2
 42
-1.0
  3
SLDDIMSTYLE0
100
AcDbAlignedDimension
 13
135.7940152339
 23
110.4621843506
 33
0.0
 14
151.2940152339
 24
110.8623837514
 34
0.0
100
AcDbRotatedDimension
  0
DIMENSION
  5
1FD
330
1F
100
AcDbEntity
  8
VERMASSUNG
100
AcDbDimension
  2
*D10
 10
161.7940152339
 20
82.3148264938
 30
0.0
 11
156.5440152339
 21
82.3148264938
 31
0.0
 70
   160
 71
     2
 42
-1.0
  3
SLDDIMSTYLE0
100
AcDbAlignedDimension
 13
151.2940152339
 23
110.8623837514
 33
0.0
 14
161.7940152339
 24
92.7705114255
 34
0.0
100
AcDbRotatedDimension
  0
LINE
  5
207
330
1F
100
AcDbEntity
  8
VERMASSUNG
  6
CENTERX2
370
     0
100
AcDbLine
 10
20.3859251881
 20
116.7705114255
 30
0.0
 11
163.3369086319
 21
116.7705114255
 31
0.0
  0
LINE
  5
208
330
1F
100
AcDbEntity
  8
VERMASSUNG
  6
CENTERX2
370
     0
100
AcDbLine
 10
120.2940152339
 20
110.1953847501
 30
0.0
 11
120.2940152339
 21
143.7705114255
 31
0.0
  0
LINE
  5
209
330
1F
100
AcDbEntity
  8
VERMASSUNG
  6
CENTERX2
370
     0
100
AcDbLine
 10
135.7940152339
 20
110.4621843506
 30
0.0
 11
135.7940152339
 21
143.7705114255
 31
0.0
  0
LINE
  5
20A
330
1F
100
AcDbEntity
  8
VERMASSUNG
  6
CENTERX2
370
     0
100
AcDbLine
 10
151.2940152339
 20
110.8623837514
 30
0.0
 11
151.2940152339
 21
143.7705114255
 31
0.0
  0
LINE
  5
20B
330
1F
100
AcDbEntity
  8
0
  6
Continuous
 62
     7
370
    15
100
AcDbLine
 10
210.9211275052
 20
102.0994712986
 30
0.0
 11
210.1711275052
 21
101.6664585967
 31
0.0
  0
ARC
  5
20C
330
1F
100
AcDbEntity
  8
0
  6
Continuous
 62
     7
370
    15
100
AcDbCircle
 10
236.3321144048
 20
116.7705114255
 30
0.0
 40
30.2081056574771
100
AcDbArc
 50
187.542590616
 51
210.0
  0
SPLINE
  5
20D
330
1F
100
AcDbEntity
  8
0
  6
Continuous
 62
     7
370
    15
100
AcDbSpline
210
0.0
220
0.0
230
1.0
 70
     8
 71
     3
 72
     8
 73
     4
 74
     0
 42
0.00000001
 43
0.00000001
 40
0.0
 40
0.0
 40
0.0
 40
0.0
 40
1.0
 40
1.0
 40
1.0
 40
1.0
 10
207.1338928299903
 20
113.8685240924821
 30
0.0
 10
206.9043633376062
 20
113.4531608468591
 30
0.0
 10
206.6524325625148
 20
113.1085704175545
 30
0.0
 10
206.3853825304324
 20
112.8053005286259
 30
0.0
  0
ARC
  5
20E
330
1F
100
AcDbEntity
  8
0
  6
Continuous
 62
     7
370
    15
100
AcDbCircle
 10
236.3321144048
 20
116.7705114255
 30
0.0
 40
29.3420802536927
100
AcDbArc
 50
185.6759402115
 51
210.0
  0
LINE
  5
20F
330
1F
100
AcDbEntity
  8
0
  6
Continuous
 62
     7
370
    15
100
AcDbLine
 10
210.9211275052
 20
131.4415515523
 30
0.0
 11
210.1711275052
 21
131.8745642542
 31
0.0
  0
ARC
  5
210
330
1F
100
AcDbEntity
  8
0
  6
Continuous
 62
     7
370
    15
100
AcDbCircle
 10
236.3321144048
 20
116.7705114255
 30
0.0
 40
29.34208025369269
100
AcDbArc
 50
150.0
 51
174.3240597885
  0
SPLINE
  5
211
330
1F
100
AcDbEntity
  8
0
  6
Continuous
 62
     7
370
    15
100
AcDbSpline
210
0.0
220
0.0
230
1.0
 70
     8
 71
     3
 72
     8
 73
     4
 74
     0
 42
0.00000001
 43
0.00000001
 40
0.0
 40
0.0
 40
0.0
 40
0.0
 40
1.0
 40
1.0
 40
1.0
 40
1.0
 10
206.3853825304324
 20
120.735722322299
 30
0.0
 10
206.6524325625144
 20
120.4324524333709
 30
0.0
 10
206.9043633376054
 20
120.0878620040669
 30
0.0
 10
207.1338928299892
 20
119.6724987584448
 30
0.0
  0
ARC
  5
212
330
1F
100
AcDbEntity
  8
0
  6
Continuous
 62
     7
370
    15
100
AcDbCircle
 10
236.3321144048
 20
116.7705114255
 30
0.0
 40
30.20810565747711
100
AcDbArc
 50
150.0
 51
172.457409384
  0
ARC
  5
213
330
1F
100
AcDbEntity
  8
0
  6
Continuous
 62
     7
370
    15
100
AcDbCircle
 10
220.657501013
 20
125.8202536867
 30
0.0
 40
11.24259573130698
100
AcDbArc
 50
90.0
 51
150.0
  0
ARC
  5
214
330
1F
100
AcDbEntity
  8
0
  6
Continuous
 62
     7
370
    15
100
AcDbCircle
 10
220.657501013
 20
107.7207691643
 30
0.0
 40
29.3420802536927
100
AcDbArc
 50
30.0
 51
90.0
  0
ARC
  5
215
330
1F
100
AcDbEntity
  8
0
  6
Continuous
 62
     7
370
    15
100
AcDbCircle
 10
236.3321144048
 20
116.7705114255
 30
0.0
 40
11.24259573130699
100
AcDbArc
 50
330.0
 51
30.0
  0
ARC
  5
216
330
1F
100
AcDbEntity
  8
0
  6
Continuous
 62
     7
370
    15
100
AcDbCircle
 10
220.657501013
 20
125.8202536867
 30
0.0
 40
29.34208025369269
100
AcDbArc
 50
270.0
 51
330.0
  0
ARC
  5
217
330
1F
100
AcDbEntity
  8
0
  6
Continuous
 62
     7
370
    15
100
AcDbCircle
 10
220.657501013
 20
107.7207691643
 30
0.0
 40
11.242595731307
100
AcDbArc
 50
210.0
 51
270.0
  0
CIRCLE
  5
218
330
1F
100
AcDbEntity
  8
0
  6
Continuous
 62
     7
370
    15
100
AcDbCircle
 10
225.8823721436
 20
116.7705114255
 30
0.0
 40
16.19642884446071
  0
ARC
  5
219
330
1F
100
AcDbEntity
  8
0
  6
Continuous
 62
     7
370
    15
100
AcDbCircle
 10
201.8823721436
 20
116.7705114255
 30
0.0
 40
6.000000000000038
100
AcDbArc
 50
331.0749852844
 51
28.9250147157
  0
LINE
  5
21A
330
1F
100
AcDbEntity
  8
0
  6
Continuous
 62
     7
370
    15
100
AcDbLine
 10
220.657501013
 20
96.478173433
 30
0.0
 11
220.657501013
 21
95.6121480292
 31
0.0
  0
ARC
  5
21B
330
1F
100
AcDbEntity
  8
0
  6
Continuous
 62
     7
370
    15
100
AcDbCircle
 10
220.657501013
 20
107.7207691643
 30
0.0
 40
12.10862113509141
100
AcDbArc
 50
210.0
 51
270.0
  0
CIRCLE
  5
21C
330
1F
100
AcDbEntity
  8
0
  6
Continuous
 62
     7
370
    15
100
AcDbCircle
 10
225.8823721436
 20
116.7705114255
 30
0.0
 40
15.31295104291249
  0
ARC
  5
21D
330
1F
100
AcDbEntity
  8
0
  6
Continuous
 62
     7
370
    15
100
AcDbCircle
 10
220.657501013
 20
125.8202536867
 30
0.0
 40
12.10862113509143
100
AcDbArc
 50
90.0
 51
150.0
  0
LINE
  5
21E
330
1F
100
AcDbEntity
  8
0
  6
Continuous
 62
     7
370
    15
100
AcDbLine
 10
220.657501013
 20
137.062849418
 30
0.0
 11
220.657501013
 21
137.9288748217
 31
0.0
  0
LINE
  5
21F
330
1F
100
AcDbEntity
  8
0
  6
Continuous
 62
     7
370
    15
100
AcDbLine
 10
246.0684879126
 20
111.1492135598
 30
0.0
 11
246.8184879126
 21
110.7162008579
 31
0.0
  0
ARC
  5
220
330
1F
100
AcDbEntity
  8
0
  6
Continuous
 62
     7
370
    15
100
AcDbCircle
 10
220.657501013
 20
125.8202536867
 30
0.0
 40
30.20810565747711
100
AcDbArc
 50
270.0
 51
330.0
  0
ARC
  5
221
330
1F
100
AcDbEntity
  8
0
  6
Continuous
 62
     7
370
    15
100
AcDbCircle
 10
220.657501013
 20
107.7207691643
 30
0.0
 40
30.20810565747712
100
AcDbArc
 50
30.0
 51
90.0
  0
LINE
  5
222
330
1F
100
AcDbEntity
  8
0
  6
Continuous
 62
     7
370
    15
100
AcDbLine
 10
246.0684879126
 20
122.3918092911
 30
0.0
 11
246.8184879126
 21
122.824821993
 31
0.0
  0
ARC
  5
223
330
1F
100
AcDbEntity
  8
0
  6
Continuous
 62
     7
370
    15
100
AcDbCircle
 10
236.3321144048
 20
116.7705114255
 30
0.0
 40
12.10862113509143
100
AcDbArc
 50
330.0
 51
30.0
  0
LINE
  5
224
330
1F
100
AcDbEntity
  8
0
  6
Continuous
 62
     7
370
    15
100
AcDbLine
 10
210.1711275052
 20
101.6664585967
 30
0.0
 11
209.4248427677
 21
101.2355909026
 31
0.0
  0
ARC
  5
225
330
1F
100
AcDbEntity
  8
0
  6
Continuous
 62
     7
370
    15
100
AcDbCircle
 10
236.3321144048
 20
116.7705114255
 30
0.0
 40
31.0698410457592
100
AcDbArc
 50
150.0
 51
210.0
  0
LINE
  5
226
330
1F
100
AcDbEntity
  8
0
  6
Continuous
 62
     7
370
    15
100
AcDbLine
 10
210.1711275052
 20
131.8745642542
 30
0.0
 11
209.4248427677
 21
132.3054319483
 31
0.0
  0
SPLINE
  5
227
330
1F
100
AcDbEntity
  8
0
  6
Continuous
 62
     7
370
    15
100
AcDbSpline
210
0.0
220
0.0
230
1.0
 70
     8
 71
     3
 72
    24
 73
    20
 74
     0
 42
0.00000001
 43
0.00000001
 40
0.0
 40
0.0
 40
0.0
 40
0.0
 40
0.1249999999999999
 40
0.1249999999999999
 40
0.2499999999999999
 40
0.2499999999999999
 40
0.3749999999999999
 40
0.3749999999999999
 40
0.4374999999999999
 40
0.4374999999999999
 40
0.4999999999999999
 40
0.4999999999999999
 40
0.6249999999999999
 40
0.6249999999999999
 40
0.75
 40
0.75
 40
0.8749999999999999
 40
0.8749999999999999
 40
1.0
 40
1.0
 40
1.0
 40
1.0
 10
206.2761088531514
 20
112.6845503723632
 30
0.0
 10
206.2294309494697
 20
112.9835574746933
 30
0.0
 10
206.1867579832908
 20
113.2878953260121
 30
0.0
 10
206.1100638347033
 20
113.9136288634081
 30
0.0
 10
206.0760154533213
 20
114.2348535907356
 30
0.0
 10
206.0180147327555
 20
114.9067793614683
 30
0.0
 10
205.9938403823076
 20
115.2620945933472
 30
0.0
 10
205.9688263797026
 20
115.8123258146996
 30
0.0
 10
205.9623308663782
 20
115.9987295996801
 30
0.0
 10
205.9534808131882
 20
116.3788641017764
 30
0.0
 10
205.9511525014878
 20
116.5745338940623
 30
0.0
 10
205.9510794182704
 20
117.1530142727367
 30
0.0
 10
205.9599863201244
 20
117.5309261117055
 30
0.0
 10
205.9934193707672
 20
118.2728941368039
 30
0.0
 10
206.0170807165009
 20
118.6216095969649
 30
0.0
 10
206.0748745607835
 20
119.294701994698
 30
0.0
 10
206.1091755971237
 20
119.6196544819396
 30
0.0
 10
206.1863861397891
 20
120.2505782924014
 30
0.0
 10
206.2292752544947
 20
120.5564680327421
 30
0.0
 10
206.2761088531514
 20
120.8564724785616
 30
0.0
  0
SPLINE
  5
228
330
1F
100
AcDbEntity
  8
0
  6
Continuous
 62
     7
370
    15
100
AcDbSpline
210
0.0
220
0.0
230
1.0
 70
     8
 71
     3
 72
    10
 73
     6
 74
     0
 42
0.00000001
 43
0.00000001
 40
0.0
 40
0.0
 40
0.0
 40
0.0
 40
0.3432137459731977
 40
0.7445247391426543
 40
0.9999999999999999
 40
0.9999999999999999
 40
0.9999999999999999
 40
0.9999999999999999
 10
205.7909380198899
 20
119.4165229755199
 30
0.0
 10
205.8096919247128
 20
119.6921508514281
 30
0.0
 10
205.8503742874096
 20
120.2900633034165
 30
0.0
 10
205.8858800363063
 20
120.7726416787495
 30
0.0
 10
205.8665729536455
 20
120.7780060569966
 30
0.0
 10
205.85906292744
 20
120.7800926809532
 30
0.0
  0
SPLINE
  5
229
330
1F
100
AcDbEntity
  8
0
  6
Continuous
 62
     7
370
    15
100
AcDbSpline
210
0.0
220
0.0
230
1.0
 70
     8
 71
     3
 72
    36
 73
    32
 74
     0
 42
0.00000001
 43
0.00000001
 40
0.0
 40
0.0
 40
0.0
 40
0.0
 40
0.1250000000000002
 40
0.1250000000000002
 40
0.1875000000000002
 40
0.1875000000000002
 40
0.2500000000000001
 40
0.2500000000000001
 40
0.3125000000000001
 40
0.3125000000000001
 40
0.3750000000000001
 40
0.3750000000000001
 40
0.4375000000000001
 40
0.4375000000000001
 40
0.5
 40
0.5
 40
0.5625000000000001
 40
0.5625000000000001
 40
0.6250000000000001
 40
0.6250000000000001
 40
0.6875000000000001
 40
0.6875000000000001
 40
0.7500000000000001
 40
0.7500000000000001
 40
0.8125000000000001
 40
0.8125000000000001
 40
0.8750000000000001
 40
0.8750000000000001
 40
0.9375000000000001
 40
0.9375000000000001
 40
1.0
 40
1.0
 40
1.0
 40
1.0
 10
205.8487666231201
 20
120.8142871909678
 30
0.0
 10
205.8278794330586
 20
120.7584583417858
 30
0.0
 10
205.7956017339755
 20
120.6139729472345
 30
0.0
 10
205.7360977822422
 20
120.2639699826254
 30
0.0
 10
205.714983214273
 20
120.1278189392758
 30
0.0
 10
205.6717885557281
 20
119.8169184126787
 30
0.0
 10
205.6495433014142
 20
119.6407774963495
 30
0.0
 10
205.6065256085409
 20
119.2522441822569
 30
0.0
 10
205.586150284817
 20
119.0436299106806
 30
0.0
 10
205.5493946416125
 20
118.597415428203
 30
0.0
 10
205.5328559103216
 20
118.356714007101
 30
0.0
 10
205.5065918259051
 20
117.8592254530777
 30
0.0
 10
205.4968609172257
 20
117.6040699840728
 30
0.0
 10
205.485153622751
 20
117.0807564877909
 30
0.0
 10
205.4832837107604
 20
116.8104166439228
 30
0.0
 10
205.4879137216282
 20
116.2819500015991
 30
0.0
 10
205.4942857416216
 20
116.0209296469499
 30
0.0
 10
205.5146839381444
 20
115.5054016796051
 30
0.0
 10
205.5284757857786
 20
115.2574313106747
 30
0.0
 10
205.561248011799
 20
114.7867510332101
 30
0.0
 10
205.5805144445139
 20
114.5607249125118
 30
0.0
 10
205.6215061016578
 20
114.1450116889895
 30
0.0
 10
205.6431803011062
 20
113.9548720987072
 30
0.0
 10
205.6870530229509
 20
113.6085527395878
 30
0.0
 10
205.7092383670517
 20
113.4528795635535
 30
0.0
 10
205.7507943576571
 20
113.1864737033672
 30
0.0
 10
205.7703941639453
 20
113.0739164657146
 30
0.0
 10
205.8058397175313
 20
112.8902119109679
 30
0.0
 10
205.8213563900224
 20
112.8208494833177
 30
0.0
 10
205.8467482110852
 20
112.7275066078331
 30
0.0
 10
205.8567241839609
 20
112.7030213580405
 30
0.0
 10
205.8636983813656
 20
112.7015976379445
 30
0.0
  0
SPLINE
  5
22A
330
1F
100
AcDbEntity
  8
0
  6
Continuous
 62
     7
370
    15
100
AcDbSpline
210
0.0
220
0.0
230
1.0
 70
     8
 71
     3
 72
    14
 73
    10
 74
     0
 42
0.00000001
 43
0.00000001
 40
0.0
 40
0.0
 40
0.0
 40
0.0
 40
0.1501771233694515
 40
0.3132008779645364
 40
0.4710638841144379
 40
0.619984801294585
 40
0.7599381108014214
 40
0.8961162904980999
 40
1.0
 40
1.0
 40
1.0
 40
1.0
 10
205.8642175419756
 20
112.7222302192379
 30
0.0
 10
205.8700379338056
 20
112.7667138659001
 30
0.0
 10
205.8821766123895
 20
112.8594864325672
 30
0.0
 10
205.8236433061323
 20
113.6138314813659
 30
0.0
 10
205.7499035760516
 20
114.7318903869578
 30
0.0
 10
205.7009766848275
 20
116.0703431663339
 30
0.0
 10
205.7009178350772
 20
117.4205111929743
 30
0.0
 10
205.7402002639911
 20
118.5723307458053
 30
0.0
 10
205.775613426947
 20
119.1615471285058
 30
0.0
 10
205.7909380198899
 20
119.4165229755199
 30
0.0
  0
SPLINE
  5
22B
330
1F
100
AcDbEntity
  8
0
  6
Continuous
 62
     7
370
    15
100
AcDbSpline
210
0.0
220
0.0
230
1.0
 70
     8
 71
     3
 72
     8
 73
     4
 74
     0
 42
0.00000001
 43
0.00000001
 40
0.0000249631533153
 40
0.0000249631533153
 40
0.0000249631533153
 40
0.0000249631533153
 40
0.0049776413517029
 40
0.0049776413517029
 40
0.0049776413517029
 40
0.0049776413517029
 10
206.2761088531514
 20
120.8564724785617
 30
0.0
 10
206.3126087313623
 20
120.8172232413067
 30
0.0
 10
206.3490333174944
 20
120.7770015600672
 30
0.0
 10
206.3853825304324
 20
120.735722322299
 30
0.0
  0
SPLINE
  5
22C
330
1F
100
AcDbEntity
  8
0
  6
Continuous
 62
     7
370
    15
100
AcDbSpline
210
0.0
220
0.0
230
1.0
 70
     8
 71
     3
 72
     8
 73
     4
 74
     0
 42
0.00000001
 43
0.00000001
 40
0.0000249638557296
 40
0.0000249638557296
 40
0.0000249638557296
 40
0.0000249638557296
 40
0.0049776420541172
 40
0.0049776420541172
 40
0.0049776420541172
 40
0.0049776420541172
 10
206.3853825304324
 20
112.8053005286259
 30
0.0
 10
206.3490333174944
 20
112.7640212908577
 30
0.0
 10
206.3126087313623
 20
112.7237996096182
 30
0.0
 10
206.2761088531514
 20
112.6845503723632
 30
0.0
  0
LINE
  5
22D
330
1F
100
AcDbEntity
  8
0
  6
Continuous
 62
     7
370
    15
100
AcDbLine
 10
220.657501013
 20
95.6121480292
 30
0.0
 11
220.657501013
 21
94.7504126409
 31
0.0
  0
ARC
  5
22E
330
1F
100
AcDbEntity
  8
0
  6
Continuous
 62
     7
370
    15
100
AcDbCircle
 10
220.657501013
 20
107.7207691643
 30
0.0
 40
12.97035652337352
100
AcDbArc
 50
210.0
 51
270.0
  0
ARC
  5
22F
330
1F
100
AcDbEntity
  8
0
  6
Continuous
 62
     7
370
    15
100
AcDbCircle
 10
220.657501013
 20
125.8202536867
 30
0.0
 40
12.9703565233735
100
AcDbArc
 50
90.0
 51
150.0
  0
LINE
  5
230
330
1F
100
AcDbEntity
  8
0
  6
Continuous
 62
     7
370
    15
100
AcDbLine
 10
220.657501013
 20
137.9288748217
 30
0.0
 11
220.657501013
 21
138.79061021
 31
0.0
  0
ARC
  5
231
330
1F
100
AcDbEntity
  8
0
  6
Continuous
 62
     7
370
    15
100
AcDbCircle
 10
220.657501013
 20
107.7207691643
 30
0.0
 40
31.0698410457592
100
AcDbArc
 50
30.0
 51
90.0
  0
LINE
  5
232
330
1F
100
AcDbEntity
  8
0
  6
Continuous
 62
     7
370
    15
100
AcDbLine
 10
246.8184879126
 20
122.824821993
 30
0.0
 11
247.5647726502
 21
123.2556896871
 31
0.0
  0
LINE
  5
233
330
1F
100
AcDbEntity
  8
0
  6
Continuous
 62
     7
370
    15
100
AcDbLine
 10
246.8184879126
 20
110.7162008579
 30
0.0
 11
247.5647726502
 21
110.2853331638
 31
0.0
  0
ARC
  5
234
330
1F
100
AcDbEntity
  8
0
  6
Continuous
 62
     7
370
    15
100
AcDbCircle
 10
220.657501013
 20
125.8202536867
 30
0.0
 40
31.0698410457592
100
AcDbArc
 50
270.0
 51
330.0
  0
ARC
  5
235
330
1F
100
AcDbEntity
  8
0
  6
Continuous
 62
     7
370
    15
100
AcDbCircle
 10
236.3321144048
 20
116.7705114255
 30
0.0
 40
12.97035652337351
100
AcDbArc
 50
330.0
 51
30.0
  0
CIRCLE
  5
236
330
1F
100
AcDbEntity
  8
0
  6
Continuous
 62
     7
370
    15
100
AcDbCircle
 10
225.8823721436
 20
116.7705114255
 30
0.0
 40
14.0
  0
SPLINE
  5
237
330
1F
100
AcDbEntity
  8
0
  6
Continuous
 62
     7
370
    15
100
AcDbSpline
210
0.0
220
0.0
230
1.0
 70
     8
 71
     3
 72
    10
 73
     6
 74
     0
 42
0.00000001
 43
0.00000001
 40
0.0
 40
0.0
 40
0.0
 40
0.0
 40
0.5
 40
0.5
 40
1.0
 40
1.0
 40
1.0
 40
1.0
 10
211.8967545312443
 20
117.4049403024849
 30
0.0
 10
211.8872741009922
 20
117.1959497014769
 30
0.0
 10
211.8848772423328
 20
116.9843872354553
 30
0.0
 10
211.8848796084851
 20
116.5563984694877
 30
0.0
 10
211.8872937333684
 20
116.3446403650721
 30
0.0
 10
211.8967545312443
 20
116.13608254844
 30
0.0
  0
SPLINE
  5
238
330
1F
100
AcDbEntity
  8
0
  6
Continuous
 62
     7
370
    15
100
AcDbSpline
210
0.0
220
0.0
230
1.0
 70
     8
 71
     3
 72
    10
 73
     6
 74
     0
 42
0.00000001
 43
0.00000001
 40
0.0
 40
0.0
 40
0.0
 40
0.0
 40
0.5
 40
0.5
 40
1.0
 40
1.0
 40
1.0
 40
1.0
 10
239.8679897560247
 20
116.13608254844
 30
0.0
 10
239.8774820683111
 20
116.3453350820225
 30
0.0
 10
239.8798450410239
 20
116.5561518429214
 30
0.0
 10
239.8798864790144
 20
116.9806841241246
 30
0.0
 10
239.8774936520129
 20
117.1954324128972
 30
0.0
 10
239.8679897560247
 20
117.4049403024849
 30
0.0
  0
CIRCLE
  5
239
330
1F
100
AcDbEntity
  8
0
  6
Continuous
 62
     7
370
    15
100
AcDbCircle
 10
225.8823721436
 20
116.7705114255
 30
0.0
 40
13.5
  0
CIRCLE
  5
23A
330
1F
100
AcDbEntity
  8
0
  6
Continuous
 62
     7
370
    15
100
AcDbCircle
 10
225.8823721436
 20
116.7705114255
 30
0.0
 40
10.24999999999999
  0
CIRCLE
  5
23B
330
1F
100
AcDbEntity
  8
0
  6
Continuous
 62
     7
370
    15
100
AcDbCircle
 10
225.8823721436
 20
116.7705114255
 30
0.0
 40
8.999999999999986
  0
ARC
  5
23C
330
1F
100
AcDbEntity
  8
0
  6
Continuous
 62
     7
370
    15
100
AcDbCircle
 10
225.8823721436
 20
116.7705114255
 30
0.0
 40
22.53982027887555
100
AcDbArc
 50
138.1516123933
 51
221.8483876067
  0
SPLINE
  5
23D
330
1F
100
AcDbEntity
  8
0
  6
Continuous
 62
     7
370
    15
100
AcDbSpline
210
0.0
220
0.0
230
1.0
 70
    24
 71
     1
 72
     4
 73
     2
 74
     0
 42
0.00000001
 43
0.00000001
 40
0.0
 40
0.0
 40
1.0
 40
1.0
 10
220.9900230022802
 20
94.77463864238948
 30
0.0
 10
221.2544364031164
 20
94.71091693722117
 30
0.0
  0
ARC
  5
23E
330
1F
100
AcDbEntity
  8
0
  6
Continuous
 62
     7
370
    15
100
AcDbCircle
 10
225.8823721436
 20
116.7705114255
 30
0.0
 40
22.53982027887556
100
AcDbArc
 50
258.1516123933
 51
341.8483876067
  0
ARC
  5
23F
330
1F
100
AcDbEntity
  8
0
  6
Continuous
 62
     7
370
    15
100
AcDbCircle
 10
225.8823721436
 20
116.7705114255
 30
0.0
 40
22.53982027887556
100
AcDbArc
 50
18.1516123933
 51
101.8483876067
  0
SPLINE
  5
240
330
1F
100
AcDbEntity
  8
0
  6
Continuous
 62
     7
370
    15
100
AcDbSpline
210
0.0
220
0.0
230
1.0
 70
    24
 71
     1
 72
     4
 73
     2
 74
     0
 42
0.00000001
 43
0.00000001
 40
0.0
 40
0.0
 40
1.0
 40
1.0
 10
221.2544364031164
 20
138.8301059137037
 30
0.0
 10
221.0708395635172
 20
138.7846118843956
 30
0.0
  0
CIRCLE
  5
241
330
1F
100
AcDbEntity
  8
0
  6
Continuous
 62
     7
370
    15
100
AcDbCircle
 10
225.8823721436
 20
116.7705114255
 30
0.0
 40
24.15710678118653
  0
ARC
  5
242
330
1F
100
AcDbEntity
  8
0
  6
Continuous
 62
     7
370
    15
100
AcDbCircle
 10
220.657501013
 20
125.8202536867
 30
0.0
 40
31.11506331103349
100
AcDbArc
 50
271.0992738961
 51
328.9007261039
  0
ARC
  5
243
330
1F
100
AcDbEntity
  8
0
  6
Continuous
 62
     7
370
    15
100
AcDbCircle
 10
236.3321144048
 20
116.7705114255
 30
0.0
 40
31.11506331103348
100
AcDbArc
 50
151.0992738961
 51
208.9007261039
  0
ARC
  5
244
330
1F
100
AcDbEntity
  8
0
  6
Continuous
 62
     7
370
    15
100
AcDbCircle
 10
220.657501013
 20
107.7207691643
 30
0.0
 40
31.11506331103348
100
AcDbArc
 50
31.0992738961
 51
88.9007261039
  0
CIRCLE
  5
245
330
1F
100
AcDbEntity
  8
0
  6
Continuous
 62
     7
370
    15
100
AcDbCircle
 10
225.8823721436
 20
116.7705114255
 30
0.0
 40
31.5
  0
CIRCLE
  5
246
330
1F
100
AcDbEntity
  8
0
  6
Continuous
 62
     7
370
    15
100
AcDbCircle
 10
225.8823721436
 20
116.7705114255
 30
0.0
 40
31.19999999999999
  0
CIRCLE
  5
247
330
1F
100
AcDbEntity
  8
0
  6
Continuous
 62
     7
370
    15
100
AcDbCircle
 10
225.8823721436
 20
116.7705114255
 30
0.0
 40
24.25
  0
CIRCLE
  5
248
330
1F
100
AcDbEntity
  8
0
  6
Continuous
 62
     7
370
    15
100
AcDbCircle
 10
225.8823721436
 20
116.7705114255
 30
0.0
 40
7.999999999999986
  0
LINE
  5
249
330
1F
100
AcDbEntity
  8
0
  6
HIDDEN
 62
     7
370
     0
100
AcDbLine
 10
220.8823721436
 20
140.9705114255
 30
0.0
 11
230.8823721436
 21
140.9705114255
 31
0.0
  0
LINE
  5
24A
330
1F
100
AcDbEntity
  8
0
  6
HIDDEN
 62
     7
370
     0
100
AcDbLine
 10
220.8823721436
 20
130.7705114255
 30
0.0
 11
230.8823721436
 21
130.7705114255
 31
0.0
  0
LINE
  5
24B
330
1F
100
AcDbEntity
  8
0
  6
HIDDEN
 62
     7
370
     0
100
AcDbLine
 10
222.3823721436
 20
129.2705114255
 30
0.0
 11
229.3823721436
 21
129.2705114255
 31
0.0
  0
LINE
  5
24C
330
1F
100
AcDbEntity
  8
0
  6
HIDDEN
 62
     7
370
     0
100
AcDbLine
 10
221.6823721436
 20
141.7705114255
 30
0.0
 11
230.0823721436
 21
141.7705114255
 31
0.0
  0
LINE
  5
24D
330
1F
100
AcDbEntity
  8
0
  6
HIDDEN
 62
     7
370
     0
100
AcDbLine
 10
227.3257478166
 20
135.7705114255
 30
0.0
 11
228.7691234896
 21
135.7705114255
 31
0.0
  0
LINE
  5
24E
330
1F
100
AcDbEntity
  8
0
  6
HIDDEN
 62
     7
370
     0
100
AcDbLine
 10
227.3257478166
 20
141.7705114255
 30
0.0
 11
228.7691234896
 21
141.7705114255
 31
0.0
  0
LINE
  5
24F
330
1F
100
AcDbEntity
  8
0
  6
HIDDEN
 62
     7
370
     0
100
AcDbLine
 10
228.3823721436
 20
129.2705114255
 30
0.0
 11
223.3823721436
 21
129.2705114255
 31
0.0
  0
LINE
  5
250
330
1F
100
AcDbEntity
  8
0
  6
HIDDEN
 62
     7
370
     0
100
AcDbLine
 10
227.3257478166
 20
135.7705114255
 30
0.0
 11
227.3257478166
 21
141.7705114255
 31
0.0
  0
LINE
  5
251
330
1F
100
AcDbEntity
  8
0
  6
HIDDEN
 62
     7
370
     0
100
AcDbLine
 10
227.3257478166
 20
135.7705114255
 30
0.0
 11
224.4389964707
 21
135.7705114255
 31
0.0
  0
LINE
  5
252
330
1F
100
AcDbEntity
  8
0
  6
HIDDEN
 62
     7
370
     0
100
AcDbLine
 10
227.3257478166
 20
141.7705114255
 30
0.0
 11
224.4389964707
 21
141.7705114255
 31
0.0
  0
LINE
  5
253
330
1F
100
AcDbEntity
  8
0
  6
HIDDEN
 62
     7
370
     0
100
AcDbLine
 10
224.4389964707
 20
135.7705114255
 30
0.0
 11
224.4389964707
 21
141.7705114255
 31
0.0
  0
LINE
  5
254
330
1F
100
AcDbEntity
  8
0
  6
HIDDEN
 62
     7
370
     0
100
AcDbLine
 10
224.4389964707
 20
135.7705114255
 30
0.0
 11
222.9956207977
 21
135.7705114255
 31
0.0
  0
LINE
  5
255
330
1F
100
AcDbEntity
  8
0
  6
HIDDEN
 62
     7
370
     0
100
AcDbLine
 10
224.4389964707
 20
141.7705114255
 30
0.0
 11
222.9956207977
 21
141.7705114255
 31
0.0
  0
LINE
  5
256
330
1F
100
AcDbEntity
  8
0
  6
HIDDEN
 62
     7
370
     0
100
AcDbLine
 10
227.3257478166
 20
135.7705114255
 30
0.0
 11
227.3257478166
 21
141.7705114255
 31
0.0
  0
LINE
  5
257
330
1F
100
AcDbEntity
  8
0
  6
HIDDEN
 62
     7
370
     0
100
AcDbLine
 10
228.7691234896
 20
135.7705114255
 30
0.0
 11
228.7691234896
 21
141.7705114255
 31
0.0
  0
LINE
  5
258
330
1F
100
AcDbEntity
  8
0
  6
HIDDEN
 62
     7
370
     0
100
AcDbLine
 10
227.3257478166
 20
135.7705114255
 30
0.0
 11
228.7691234896
 21
135.7705114255
 31
0.0
  0
LINE
  5
259
330
1F
100
AcDbEntity
  8
0
  6
HIDDEN
 62
     7
370
     0
100
AcDbLine
 10
227.3257478166
 20
141.7705114255
 30
0.0
 11
228.7691234896
 21
141.7705114255
 31
0.0
  0
LINE
  5
25A
330
1F
100
AcDbEntity
  8
0
  6
HIDDEN
 62
     7
370
     0
100
AcDbLine
 10
224.4389964707
 20
135.7705114255
 30
0.0
 11
224.4389964707
 21
141.7705114255
 31
0.0
  0
LINE
  5
25B
330
1F
100
AcDbEntity
  8
0
  6
HIDDEN
 62
     7
370
     0
100
AcDbLine
 10
222.9956207977
 20
135.7705114255
 30
0.0
 11
222.9956207977
 21
141.7705114255
 31
0.0
  0
LINE
  5
25C
330
1F
100
AcDbEntity
  8
0
  6
HIDDEN
 62
     7
370
     0
100
AcDbLine
 10
224.4389964707
 20
135.7705114255
 30
0.0
 11
222.9956207977
 21
135.7705114255
 31
0.0
  0
LINE
  5
25D
330
1F
100
AcDbEntity
  8
0
  6
HIDDEN
 62
     7
370
     0
100
AcDbLine
 10
224.4389964707
 20
141.7705114255
 30
0.0
 11
222.9956207977
 21
141.7705114255
 31
0.0
  0
LINE
  5
25E
330
1F
100
AcDbEntity
  8
0
  6
HIDDEN
 62
     7
370
     0
100
AcDbLine
 10
227.3257478166
 20
135.7705114255
 30
0.0
 11
224.4389964707
 21
135.7705114255
 31
0.0
  0
LINE
  5
25F
330
1F
100
AcDbEntity
  8
0
  6
HIDDEN
 62
     7
370
     0
100
AcDbLine
 10
227.3257478166
 20
141.7705114255
 30
0.0
 11
224.4389964707
 21
141.7705114255
 31
0.0
  0
LINE
  5
260
330
1F
100
AcDbEntity
  8
0
  6
HIDDEN
 62
     7
370
     0
100
AcDbLine
 10
200.8823721436
 20
112.5705114255
 30
0.0
 11
200.8823721436
 21
120.9705114255
 31
0.0
  0
LINE
  5
261
330
1F
100
AcDbEntity
  8
0
  6
HIDDEN
 62
     7
370
     0
100
AcDbLine
 10
201.6823721436
 20
111.7705114255
 30
0.0
 11
201.6823721436
 21
121.7705114255
 31
0.0
  0
LINE
  5
262
330
1F
100
AcDbEntity
  8
0
  6
HIDDEN
 62
     7
370
     0
100
AcDbLine
 10
211.8823721436
 20
111.7705114255
 30
0.0
 11
211.8823721436
 21
121.7705114255
 31
0.0
  0
LINE
  5
263
330
1F
100
AcDbEntity
  8
0
  6
HIDDEN
 62
     7
370
     0
100
AcDbLine
 10
213.3823721436
 20
113.2705114255
 30
0.0
 11
213.3823721436
 21
120.2705114255
 31
0.0
  0
LINE
  5
264
330
1F
100
AcDbEntity
  8
0
  6
HIDDEN
 62
     7
370
     0
100
AcDbLine
 10
200.8823721436
 20
118.2138870984
 30
0.0
 11
200.8823721436
 21
119.6572627714
 31
0.0
  0
LINE
  5
265
330
1F
100
AcDbEntity
  8
0
  6
HIDDEN
 62
     7
370
     0
100
AcDbLine
 10
206.8823721436
 20
118.2138870984
 30
0.0
 11
200.8823721436
 21
118.2138870984
 31
0.0
  0
LINE
  5
266
330
1F
100
AcDbEntity
  8
0
  6
HIDDEN
 62
     7
370
     0
100
AcDbLine
 10
200.8823721436
 20
118.2138870984
 30
0.0
 11
200.8823721436
 21
115.3271357525
 31
0.0
  0
LINE
  5
267
330
1F
100
AcDbEntity
  8
0
  6
HIDDEN
 62
     7
370
     0
100
AcDbLine
 10
206.8823721436
 20
118.2138870984
 30
0.0
 11
206.8823721436
 21
115.3271357525
 31
0.0
  0
LINE
  5
268
330
1F
100
AcDbEntity
  8
0
  6
HIDDEN
 62
     7
370
     0
100
AcDbLine
 10
206.8823721436
 20
118.2138870984
 30
0.0
 11
206.8823721436
 21
119.6572627714
 31
0.0
  0
LINE
  5
269
330
1F
100
AcDbEntity
  8
0
  6
HIDDEN
 62
     7
370
     0
100
AcDbLine
 10
206.8823721436
 20
115.3271357525
 30
0.0
 11
206.8823721436
 21
113.8837600795
 31
0.0
  0
LINE
  5
26A
330
1F
100
AcDbEntity
  8
0
  6
HIDDEN
 62
     7
370
     0
100
AcDbLine
 10
206.8823721436
 20
115.3271357525
 30
0.0
 11
200.8823721436
 21
115.3271357525
 31
0.0
  0
LINE
  5
26B
330
1F
100
AcDbEntity
  8
0
  6
HIDDEN
 62
     7
370
     0
100
AcDbLine
 10
200.8823721436
 20
115.3271357525
 30
0.0
 11
200.8823721436
 21
113.8837600795
 31
0.0
  0
LINE
  5
26C
330
1F
100
AcDbEntity
  8
0
  6
HIDDEN
 62
     7
370
     0
100
AcDbLine
 10
213.3823721436
 20
119.2705114255
 30
0.0
 11
213.3823721436
 21
114.2705114255
 31
0.0
  0
LINE
  5
26D
330
1F
100
AcDbEntity
  8
0
  6
HIDDEN
 62
     7
370
     0
100
AcDbLine
 10
206.8823721436
 20
118.2138870984
 30
0.0
 11
200.8823721436
 21
118.2138870984
 31
0.0
  0
LINE
  5
26E
330
1F
100
AcDbEntity
  8
0
  6
HIDDEN
 62
     7
370
     0
100
AcDbLine
 10
206.8823721436
 20
118.2138870984
 30
0.0
 11
206.8823721436
 21
119.6572627714
 31
0.0
  0
LINE
  5
26F
330
1F
100
AcDbEntity
  8
0
  6
HIDDEN
 62
     7
370
     0
100
AcDbLine
 10
206.8823721436
 20
119.6572627714
 30
0.0
 11
200.8823721436
 21
119.6572627714
 31
0.0
  0
LINE
  5
270
330
1F
100
AcDbEntity
  8
0
  6
HIDDEN
 62
     7
370
     0
100
AcDbLine
 10
200.8823721436
 20
118.2138870984
 30
0.0
 11
200.8823721436
 21
119.6572627714
 31
0.0
  0
LINE
  5
271
330
1F
100
AcDbEntity
  8
0
  6
HIDDEN
 62
     7
370
     0
100
AcDbLine
 10
206.8823721436
 20
115.3271357525
 30
0.0
 11
200.8823721436
 21
115.3271357525
 31
0.0
  0
LINE
  5
272
330
1F
100
AcDbEntity
  8
0
  6
HIDDEN
 62
     7
370
     0
100
AcDbLine
 10
206.8823721436
 20
113.8837600795
 30
0.0
 11
200.8823721436
 21
113.8837600795
 31
0.0
  0
LINE
  5
273
330
1F
100
AcDbEntity
  8
0
  6
HIDDEN
 62
     7
370
     0
100
AcDbLine
 10
206.8823721436
 20
115.3271357525
 30
0.0
 11
206.8823721436
 21
113.8837600795
 31
0.0
  0
LINE
  5
274
330
1F
100
AcDbEntity
  8
0
  6
HIDDEN
 62
     7
370
     0
100
AcDbLine
 10
200.8823721436
 20
115.3271357525
 30
0.0
 11
200.8823721436
 21
113.8837600795
 31
0.0
  0
LINE
  5
275
330
1F
100
AcDbEntity
  8
0
  6
HIDDEN
 62
     7
370
     0
100
AcDbLine
 10
206.8823721436
 20
118.2138870984
 30
0.0
 11
206.8823721436
 21
115.3271357525
 31
0.0
  0
LINE
  5
276
330
1F
100
AcDbEntity
  8
0
  6
HIDDEN
 62
     7
370
     0
100
AcDbLine
 10
200.8823721436
 20
118.2138870984
 30
0.0
 11
200.8823721436
 21
115.3271357525
 31
0.0
  0
LINE
  5
277
330
1F
100
AcDbEntity
  8
0
  6
HIDDEN
 62
     7
370
     0
100
AcDbLine
 10
239.8823721436
 20
121.7705114255
 30
0.0
 11
239.8823721436
 21
111.7705114255
 31
0.0
  0
LINE
  5
278
330
1F
100
AcDbEntity
  8
0
  6
HIDDEN
 62
     7
370
     0
100
AcDbLine
 10
238.3823721436
 20
120.2705114255
 30
0.0
 11
238.3823721436
 21
113.2705114255
 31
0.0
  0
LINE
  5
279
330
1F
100
AcDbEntity
  8
0
  6
HIDDEN
 62
     7
370
     0
100
AcDbLine
 10
250.0823721436
 20
121.7705114255
 30
0.0
 11
250.0823721436
 21
111.7705114255
 31
0.0
  0
LINE
  5
27A
330
1F
100
AcDbEntity
  8
0
  6
HIDDEN
 62
     7
370
     0
100
AcDbLine
 10
250.8823721436
 20
120.9705114255
 30
0.0
 11
250.8823721436
 21
112.5705114255
 31
0.0
  0
LINE
  5
27B
330
1F
100
AcDbEntity
  8
0
  6
HIDDEN
 62
     7
370
     0
100
AcDbLine
 10
238.3823721436
 20
114.2705114255
 30
0.0
 11
238.3823721436
 21
119.2705114255
 31
0.0
  0
LINE
  5
27C
330
1F
100
AcDbEntity
  8
0
  6
HIDDEN
 62
     7
370
     0
100
AcDbLine
 10
244.8823721436
 20
115.3271357525
 30
0.0
 11
244.8823721436
 21
113.8837600795
 31
0.0
  0
LINE
  5
27D
330
1F
100
AcDbEntity
  8
0
  6
HIDDEN
 62
     7
370
     0
100
AcDbLine
 10
250.8823721436
 20
115.3271357525
 30
0.0
 11
250.8823721436
 21
113.8837600795
 31
0.0
  0
LINE
  5
27E
330
1F
100
AcDbEntity
  8
0
  6
HIDDEN
 62
     7
370
     0
100
AcDbLine
 10
244.8823721436
 20
115.3271357525
 30
0.0
 11
250.8823721436
 21
115.3271357525
 31
0.0
  0
LINE
  5
27F
330
1F
100
AcDbEntity
  8
0
  6
HIDDEN
 62
     7
370
     0
100
AcDbLine
 10
244.8823721436
 20
115.3271357525
 30
0.0
 11
244.8823721436
 21
118.2138870984
 31
0.0
  0
LINE
  5
280
330
1F
100
AcDbEntity
  8
0
  6
HIDDEN
 62
     7
370
     0
100
AcDbLine
 10
250.8823721436
 20
115.3271357525
 30
0.0
 11
250.8823721436
 21
118.2138870984
 31
0.0
  0
LINE
  5
281
330
1F
100
AcDbEntity
  8
0
  6
HIDDEN
 62
     7
370
     0
100
AcDbLine
 10
244.8823721436
 20
118.2138870984
 30
0.0
 11
250.8823721436
 21
118.2138870984
 31
0.0
  0
LINE
  5
282
330
1F
100
AcDbEntity
  8
0
  6
HIDDEN
 62
     7
370
     0
100
AcDbLine
 10
244.8823721436
 20
118.2138870984
 30
0.0
 11
244.8823721436
 21
119.6572627714
 31
0.0
  0
LINE
  5
283
330
1F
100
AcDbEntity
  8
0
  6
HIDDEN
 62
     7
370
     0
100
AcDbLine
 10
250.8823721436
 20
118.2138870984
 30
0.0
 11
250.8823721436
 21
119.6572627714
 31
0.0
  0
LINE
  5
284
330
1F
100
AcDbEntity
  8
0
  6
HIDDEN
 62
     7
370
     0
100
AcDbLine
 10
244.8823721436
 20
115.3271357525
 30
0.0
 11
250.8823721436
 21
115.3271357525
 31
0.0
  0
LINE
  5
285
330
1F
100
AcDbEntity
  8
0
  6
HIDDEN
 62
     7
370
     0
100
AcDbLine
 10
244.8823721436
 20
113.8837600795
 30
0.0
 11
250.8823721436
 21
113.8837600795
 31
0.0
  0
LINE
  5
286
330
1F
100
AcDbEntity
  8
0
  6
HIDDEN
 62
     7
370
     0
100
AcDbLine
 10
244.8823721436
 20
115.3271357525
 30
0.0
 11
244.8823721436
 21
113.8837600795
 31
0.0
  0
LINE
  5
287
330
1F
100
AcDbEntity
  8
0
  6
HIDDEN
 62
     7
370
     0
100
AcDbLine
 10
250.8823721436
 20
115.3271357525
 30
0.0
 11
250.8823721436
 21
113.8837600795
 31
0.0
  0
LINE
  5
288
330
1F
100
AcDbEntity
  8
0
  6
HIDDEN
 62
     7
370
     0
100
AcDbLine
 10
244.8823721436
 20
118.2138870984
 30
0.0
 11
250.8823721436
 21
118.2138870984
 31
0.0
  0
LINE
  5
289
330
1F
100
AcDbEntity
  8
0
  6
HIDDEN
 62
     7
370
     0
100
AcDbLine
 10
244.8823721436
 20
119.6572627714
 30
0.0
 11
250.8823721436
 21
119.6572627714
 31
0.0
  0
LINE
  5
28A
330
1F
100
AcDbEntity
  8
0
  6
HIDDEN
 62
     7
370
     0
100
AcDbLine
 10
244.8823721436
 20
118.2138870984
 30
0.0
 11
244.8823721436
 21
119.6572627714
 31
0.0
  0
LINE
  5
28B
330
1F
100
AcDbEntity
  8
0
  6
HIDDEN
 62
     7
370
     0
100
AcDbLine
 10
250.8823721436
 20
118.2138870984
 30
0.0
 11
250.8823721436
 21
119.6572627714
 31
0.0
  0
LINE
  5
28C
330
1F
100
AcDbEntity
  8
0
  6
HIDDEN
 62
     7
370
     0
100
AcDbLine
 10
244.8823721436
 20
115.3271357525
 30
0.0
 11
244.8823721436
 21
118.2138870984
 31
0.0
  0
LINE
  5
28D
330
1F
100
AcDbEntity
  8
0
  6
HIDDEN
 62
     7
370
     0
100
AcDbLine
 10
250.8823721436
 20
115.3271357525
 30
0.0
 11
250.8823721436
 21
118.2138870984
 31
0.0
  0
SPLINE
  5
28E
330
1F
100
AcDbEntity
  8
0
  6
HIDDEN
 62
     7
370
     0
100
AcDbSpline
210
0.0
220
0.0
230
1.0
 70
    24
 71
     1
 72
     4
 73
     2
 74
     0
 42
0.00000001
 43
0.00000001
 40
0.0
 40
0.0
 40
1.0
 40
1.0
 10
220.8823721436343
 20
140.9705114254624
 30
0.0
 10
220.8823721436343
 20
130.7705114254624
 30
0.0
  0
SPLINE
  5
28F
330
1F
100
AcDbEntity
  8
0
  6
HIDDEN
 62
     7
370
     0
100
AcDbSpline
210
0.0
220
0.0
230
1.0
 70
    24
 71
     1
 72
     4
 73
     2
 74
     0
 42
0.00000001
 43
0.00000001
 40
0.0
 40
0.0
 40
1.0
 40
1.0
 10
230.8823721436343
 20
130.7705114254624
 30
0.0
 10
230.8823721436343
 20
140.9705114254624
 30
0.0
  0
SPLINE
  5
290
330
1F
100
AcDbEntity
  8
0
  6
HIDDEN
 62
     7
370
     0
100
AcDbSpline
210
0.0
220
0.0
230
1.0
 70
    24
 71
     1
 72
     4
 73
     2
 74
     0
 42
0.00000001
 43
0.00000001
 40
0.0
 40
0.0
 40
1.0
 40
1.0
 10
220.8823721436343
 20
130.7705114254624
 30
0.0
 10
222.3823721436343
 20
129.2705114254624
 30
0.0
  0
SPLINE
  5
291
330
1F
100
AcDbEntity
  8
0
  6
HIDDEN
 62
     7
370
     0
100
AcDbSpline
210
0.0
220
0.0
230
1.0
 70
    24
 71
     1
 72
     4
 73
     2
 74
     0
 42
0.00000001
 43
0.00000001
 40
0.0
 40
0.0
 40
1.0
 40
1.0
 10
229.3823721436343
 20
129.2705114254624
 30
0.0
 10
230.8823721436343
 20
130.7705114254624
 30
0.0
  0
SPLINE
  5
292
330
1F
100
AcDbEntity
  8
0
  6
HIDDEN
 62
     7
370
     0
100
AcDbSpline
210
0.0
220
0.0
230
1.0
 70
    24
 71
     1
 72
     4
 73
     2
 74
     0
 42
0.00000001
 43
0.00000001
 40
0.0
 40
0.0
 40
1.0
 40
1.0
 10
230.8823721436343
 20
140.9705114254624
 30
0.0
 10
230.0823721436342
 20
141.7705114254624
 30
0.0
  0
SPLINE
  5
293
330
1F
100
AcDbEntity
  8
0
  6
HIDDEN
 62
     7
370
     0
100
AcDbSpline
210
0.0
220
0.0
230
1.0
 70
    24
 71
     1
 72
     4
 73
     2
 74
     0
 42
0.00000001
 43
0.00000001
 40
0.0
 40
0.0
 40
1.0
 40
1.0
 10
221.6823721436343
 20
141.7705114254624
 30
0.0
 10
220.8823721436343
 20
140.9705114254624
 30
0.0
  0
SPLINE
  5
294
330
1F
100
AcDbEntity
  8
0
  6
HIDDEN
 62
     7
370
     0
100
AcDbSpline
210
0.0
220
0.0
230
1.0
 70
    24
 71
     1
 72
     4
 73
     2
 74
     0
 42
0.00000001
 43
0.00000001
 40
0.0
 40
0.0
 40
1.0
 40
1.0
 10
228.3823721436343
 20
129.2705114254624
 30
0.0
 10
225.8823721436343
 20
130.7138870984365
 30
0.0
  0
SPLINE
  5
295
330
1F
100
AcDbEntity
  8
0
  6
HIDDEN
 62
     7
370
     0
100
AcDbSpline
210
0.0
220
0.0
230
1.0
 70
    24
 71
     1
 72
     4
 73
     2
 74
     0
 42
0.00000001
 43
0.00000001
 40
0.0
 40
0.0
 40
1.0
 40
1.0
 10
225.8823721436343
 20
130.7138870984365
 30
0.0
 10
223.3823721436343
 20
129.2705114254624
 30
0.0
  0
SPLINE
  5
296
330
1F
100
AcDbEntity
  8
0
  6
HIDDEN
 62
     7
370
     0
100
AcDbSpline
210
0.0
220
0.0
230
1.0
 70
    24
 71
     1
 72
     4
 73
     2
 74
     0
 42
0.00000001
 43
0.00000001
 40
0.0
 40
0.0
 40
1.0
 40
1.0
 10
201.6823721436343
 20
121.7705114254627
 30
0.0
 10
200.8823721436343
 20
120.9705114254627
 30
0.0
  0
SPLINE
  5
297
330
1F
100
AcDbEntity
  8
0
  6
HIDDEN
 62
     7
370
     0
100
AcDbSpline
210
0.0
220
0.0
230
1.0
 70
    24
 71
     1
 72
     4
 73
     2
 74
     0
 42
0.00000001
 43
0.00000001
 40
0.0
 40
0.0
 40
1.0
 40
1.0
 10
200.8823721436342
 20
112.5705114254627
 30
0.0
 10
201.6823721436342
 20
111.7705114254627
 30
0.0
  0
SPLINE
  5
298
330
1F
100
AcDbEntity
  8
0
  6
HIDDEN
 62
     7
370
     0
100
AcDbSpline
210
0.0
220
0.0
230
1.0
 70
    24
 71
     1
 72
     4
 73
     2
 74
     0
 42
0.00000001
 43
0.00000001
 40
0.0
 40
0.0
 40
1.0
 40
1.0
 10
201.6823721436342
 20
111.7705114254627
 30
0.0
 10
211.8823721436342
 20
111.7705114254626
 30
0.0
  0
SPLINE
  5
299
330
1F
100
AcDbEntity
  8
0
  6
HIDDEN
 62
     7
370
     0
100
AcDbSpline
210
0.0
220
0.0
230
1.0
 70
    24
 71
     1
 72
     4
 73
     2
 74
     0
 42
0.00000001
 43
0.00000001
 40
0.0
 40
0.0
 40
1.0
 40
1.0
 10
211.8823721436343
 20
121.7705114254626
 30
0.0
 10
201.6823721436343
 20
121.7705114254627
 30
0.0
  0
SPLINE
  5
29A
330
1F
100
AcDbEntity
  8
0
  6
HIDDEN
 62
     7
370
     0
100
AcDbSpline
210
0.0
220
0.0
230
1.0
 70
    24
 71
     1
 72
     4
 73
     2
 74
     0
 42
0.00000001
 43
0.00000001
 40
0.0
 40
0.0
 40
1.0
 40
1.0
 10
211.8823721436342
 20
111.7705114254626
 30
0.0
 10
213.3823721436342
 20
113.2705114254626
 30
0.0
  0
SPLINE
  5
29B
330
1F
100
AcDbEntity
  8
0
  6
HIDDEN
 62
     7
370
     0
100
AcDbSpline
210
0.0
220
0.0
230
1.0
 70
    24
 71
     1
 72
     4
 73
     2
 74
     0
 42
0.00000001
 43
0.00000001
 40
0.0
 40
0.0
 40
1.0
 40
1.0
 10
213.3823721436343
 20
120.2705114254626
 30
0.0
 10
211.8823721436343
 20
121.7705114254626
 30
0.0
  0
SPLINE
  5
29C
330
1F
100
AcDbEntity
  8
0
  6
HIDDEN
 62
     7
370
     0
100
AcDbSpline
210
0.0
220
0.0
230
1.0
 70
    24
 71
     1
 72
     4
 73
     2
 74
     0
 42
0.00000001
 43
0.00000001
 40
0.0
 40
0.0
 40
1.0
 40
1.0
 10
213.3823721436343
 20
119.2705114254626
 30
0.0
 10
211.9389964706602
 20
116.7705114254626
 30
0.0
  0
SPLINE
  5
29D
330
1F
100
AcDbEntity
  8
0
  6
HIDDEN
 62
     7
370
     0
100
AcDbSpline
210
0.0
220
0.0
230
1.0
 70
    24
 71
     1
 72
     4
 73
     2
 74
     0
 42
0.00000001
 43
0.00000001
 40
0.0
 40
0.0
 40
1.0
 40
1.0
 10
211.9389964706602
 20
116.7705114254626
 30
0.0
 10
213.3823721436342
 20
114.2705114254626
 30
0.0
  0
SPLINE
  5
29E
330
1F
100
AcDbEntity
  8
0
  6
HIDDEN
 62
     7
370
     0
100
AcDbSpline
210
0.0
220
0.0
230
1.0
 70
    24
 71
     1
 72
     4
 73
     2
 74
     0
 42
0.00000001
 43
0.00000001
 40
0.0
 40
0.0
 40
1.0
 40
1.0
 10
239.8823721436342
 20
121.7705114254626
 30
0.0
 10
238.3823721436342
 20
120.2705114254626
 30
0.0
  0
SPLINE
  5
29F
330
1F
100
AcDbEntity
  8
0
  6
HIDDEN
 62
     7
370
     0
100
AcDbSpline
210
0.0
220
0.0
230
1.0
 70
    24
 71
     1
 72
     4
 73
     2
 74
     0
 42
0.00000001
 43
0.00000001
 40
0.0
 40
0.0
 40
1.0
 40
1.0
 10
238.3823721436343
 20
113.2705114254626
 30
0.0
 10
239.8823721436343
 20
111.7705114254626
 30
0.0
  0
SPLINE
  5
2A0
330
1F
100
AcDbEntity
  8
0
  6
HIDDEN
 62
     7
370
     0
100
AcDbSpline
210
0.0
220
0.0
230
1.0
 70
    24
 71
     1
 72
     4
 73
     2
 74
     0
 42
0.00000001
 43
0.00000001
 40
0.0
 40
0.0
 40
1.0
 40
1.0
 10
250.0823721436342
 20
121.7705114254627
 30
0.0
 10
239.8823721436342
 20
121.7705114254626
 30
0.0
  0
SPLINE
  5
2A1
330
1F
100
AcDbEntity
  8
0
  6
HIDDEN
 62
     7
370
     0
100
AcDbSpline
210
0.0
220
0.0
230
1.0
 70
    24
 71
     1
 72
     4
 73
     2
 74
     0
 42
0.00000001
 43
0.00000001
 40
0.0
 40
0.0
 40
1.0
 40
1.0
 10
239.8823721436343
 20
111.7705114254626
 30
0.0
 10
250.0823721436343
 20
111.7705114254627
 30
0.0
  0
SPLINE
  5
2A2
330
1F
100
AcDbEntity
  8
0
  6
HIDDEN
 62
     7
370
     0
100
AcDbSpline
210
0.0
220
0.0
230
1.0
 70
    24
 71
     1
 72
     4
 73
     2
 74
     0
 42
0.00000001
 43
0.00000001
 40
0.0
 40
0.0
 40
1.0
 40
1.0
 10
250.0823721436343
 20
111.7705114254627
 30
0.0
 10
250.8823721436343
 20
112.5705114254627
 30
0.0
  0
SPLINE
  5
2A3
330
1F
100
AcDbEntity
  8
0
  6
HIDDEN
 62
     7
370
     0
100
AcDbSpline
210
0.0
220
0.0
230
1.0
 70
    24
 71
     1
 72
     4
 73
     2
 74
     0
 42
0.00000001
 43
0.00000001
 40
0.0
 40
0.0
 40
1.0
 40
1.0
 10
250.8823721436342
 20
120.9705114254627
 30
0.0
 10
250.0823721436342
 20
121.7705114254627
 30
0.0
  0
SPLINE
  5
2A4
330
1F
100
AcDbEntity
  8
0
  6
HIDDEN
 62
     7
370
     0
100
AcDbSpline
210
0.0
220
0.0
230
1.0
 70
    24
 71
     1
 72
     4
 73
     2
 74
     0
 42
0.00000001
 43
0.00000001
 40
0.0
 40
0.0
 40
1.0
 40
1.0
 10
238.3823721436343
 20
114.2705114254626
 30
0.0
 10
239.8257478166083
 20
116.7705114254626
 30
0.0
  0
SPLINE
  5
2A5
330
1F
100
AcDbEntity
  8
0
  6
HIDDEN
 62
     7
370
     0
100
AcDbSpline
210
0.0
220
0.0
230
1.0
 70
    24
 71
     1
 72
     4
 73
     2
 74
     0
 42
0.00000001
 43
0.00000001
 40
0.0
 40
0.0
 40
1.0
 40
1.0
 10
239.8257478166083
 20
116.7705114254626
 30
0.0
 10
238.3823721436342
 20
119.2705114254626
 30
0.0
  0
INSERT
  5
2B1
330
1F
100
AcDbEntity
  8
VERMASSUNG
100
AcDbBlockReference
  2
SW_CENTERMARKSYMBOL_0
 10
225.8823721436
 20
116.7705114255
 30
0.0
  0
OLE2FRAME
  5
2B2
330
1F
100
AcDbEntity
  8
0
100
AcDbOle2Frame
 70
     2
  3
Bitmap
 10
13.8511154363
 20
38.264191557
 30
0.0
 11
51.6290888628
 21
31.9806341108
 31
0.0
 71
     2
 72
     0
 73
     1
 90
    12928
310
80552BED0767C5B32B40DDAF6807D121434000000000000000006FFBDDFB85D0
310
4940DDAF6807D121434000000000000000006FFBDDFB85D04940416F4BD60AFB
310
3F4000000000000000002BED0767C5B32B40416F4BD60AFB3F40000000000000
310
0000000000000100000000010000010000000100000000000100000000320000
310
D0CF11E0A1B11AE1000000000000000000000000000000003E000300FEFF0900
310
0600000000000000000000000100000001000000000000000010000002000000
310
01000000FEFFFFFF0000000000000000FFFFFFFFFFFFFFFFFFFFFFFFFFFFFFFF
310
FFFFFFFFFFFFFFFFFFFFFFFFFFFFFFFFFFFFFFFFFFFFFFFFFFFFFFFFFFFFFFFF
310
FFFFFFFFFFFFFFFFFFFFFFFFFFFFFFFFFFFFFFFFFFFFFFFFFFFFFFFFFFFFFFFF
310
FFFFFFFFFFFFFFFFFFFFFFFFFFFFFFFFFFFFFFFFFFFFFFFFFFFFFFFFFFFFFFFF
310
FFFFFFFFFFFFFFFFFFFFFFFFFFFFFFFFFFFFFFFFFFFFFFFFFFFFFFFFFFFFFFFF
310
FFFFFFFFFFFFFFFFFFFFFFFFFFFFFFFFFFFFFFFFFFFFFFFFFFFFFFFFFFFFFFFF
310
FFFFFFFFFFFFFFFFFFFFFFFFFFFFFFFFFFFFFFFFFFFFFFFFFFFFFFFFFFFFFFFF
310
FFFFFFFFFFFFFFFFFFFFFFFFFFFFFFFFFFFFFFFFFFFFFFFFFFFFFFFFFFFFFFFF
310
FFFFFFFFFFFFFFFFFFFFFFFFFFFFFFFFFFFFFFFFFFFFFFFFFFFFFFFFFFFFFFFF
310
FFFFFFFFFFFFFFFFFFFFFFFFFFFFFFFFFFFFFFFFFFFFFFFFFFFFFFFFFFFFFFFF
310
FFFFFFFFFFFFFFFFFFFFFFFFFFFFFFFFFFFFFFFFFFFFFFFFFFFFFFFFFFFFFFFF
310
FFFFFFFFFFFFFFFFFFFFFFFFFFFFFFFFFFFFFFFFFFFFFFFFFFFFFFFFFFFFFFFF
310
FFFFFFFFFFFFFFFFFFFFFFFFFFFFFFFFFFFFFFFFFFFFFFFFFFFFFFFFFFFFFFFF
310
FFFFFFFFFFFFFFFFFFFFFFFFFFFFFFFFFFFFFFFFFFFFFFFFFFFFFFFFFFFFFFFF
310
FDFFFFFFFEFFFFFFFEFFFFFFFEFFFFFF05000000060000000700000008000000
310
090000000A0000000B0000000C0000000D0000000E0000000F00000010000000
310
11000000120000001300000014000000150000001600000017000000FEFFFFFF
310
FFFFFFFFFFFFFFFFFFFFFFFFFFFFFFFFFFFFFFFFFFFFFFFFFFFFFFFFFFFFFFFF
310
FFFFFFFFFFFFFFFFFFFFFFFFFFFFFFFFFFFFFFFFFFFFFFFFFFFFFFFFFFFFFFFF
310
FFFFFFFFFFFFFFFFFFFFFFFFFFFFFFFFFFFFFFFFFFFFFFFFFFFFFFFFFFFFFFFF
310
FFFFFFFFFFFFFFFFFFFFFFFFFFFFFFFFFFFFFFFFFFFFFFFFFFFFFFFFFFFFFFFF
310
FFFFFFFFFFFFFFFFFFFFFFFFFFFFFFFFFFFFFFFFFFFFFFFFFFFFFFFFFFFFFFFF
310
FFFFFFFFFFFFFFFFFFFFFFFFFFFFFFFFFFFFFFFFFFFFFFFFFFFFFFFFFFFFFFFF
310
FFFFFFFFFFFFFFFFFFFFFFFFFFFFFFFFFFFFFFFFFFFFFFFFFFFFFFFFFFFFFFFF
310
FFFFFFFFFFFFFFFFFFFFFFFFFFFFFFFFFFFFFFFFFFFFFFFFFFFFFFFFFFFFFFFF
310
FFFFFFFFFFFFFFFFFFFFFFFFFFFFFFFFFFFFFFFFFFFFFFFFFFFFFFFFFFFFFFFF
310
FFFFFFFFFFFFFFFFFFFFFFFFFFFFFFFFFFFFFFFFFFFFFFFFFFFFFFFFFFFFFFFF
310
FFFFFFFFFFFFFFFFFFFFFFFFFFFFFFFFFFFFFFFFFFFFFFFFFFFFFFFFFFFFFFFF
310
FFFFFFFFFFFFFFFFFFFFFFFFFFFFFFFFFFFFFFFFFFFFFFFFFFFFFFFFFFFFFFFF
310
FFFFFFFFFFFFFFFFFFFFFFFFFFFFFFFFFFFFFFFFFFFFFFFFFFFFFFFFFFFFFFFF
310
52006F006F007400200045006E00740072007900000000000000000000000000
310
0000000000000000000000000000000000000000000000000000000000000000
310
16000500FFFFFFFFFFFFFFFF020000000A00030000000000C000000000000046
310
000000000000000000000000B0492F5DA408CB0103000000C000000000000000
310
01004F006C006500000000000000000000000000000000000000000000000000
310
0000000000000000000000000000000000000000000000000000000000000000
310
0A000200FFFFFFFFFFFFFFFFFFFFFFFF00000000000000000000000000000000
310
0000000000000000000000000000000000000000000000001400000000000000
310
010043006F006D0070004F0062006A0000000000000000000000000000000000
310
0000000000000000000000000000000000000000000000000000000000000000
310
120002010100000003000000FFFFFFFF00000000000000000000000000000000
310
0000000000000000000000000000000000000000010000004D00000000000000
310
01004F006C006500310030004E00610074006900760065000000000000000000
310
0000000000000000000000000000000000000000000000000000000000000000
310
1A000200FFFFFFFFFFFFFFFFFFFFFFFF00000000000000000000000000000000
310
0000000000000000000000000000000000000000040000002426000000000000
310
FEFFFFFF02000000FEFFFFFFFFFFFFFFFFFFFFFFFFFFFFFFFFFFFFFFFFFFFFFF
310
FFFFFFFFFFFFFFFFFFFFFFFFFFFFFFFFFFFFFFFFFFFFFFFFFFFFFFFFFFFFFFFF
310
FFFFFFFFFFFFFFFFFFFFFFFFFFFFFFFFFFFFFFFFFFFFFFFFFFFFFFFFFFFFFFFF
310
FFFFFFFFFFFFFFFFFFFFFFFFFFFFFFFFFFFFFFFFFFFFFFFFFFFFFFFFFFFFFFFF
310
FFFFFFFFFFFFFFFFFFFFFFFFFFFFFFFFFFFFFFFFFFFFFFFFFFFFFFFFFFFFFFFF
310
FFFFFFFFFFFFFFFFFFFFFFFFFFFFFFFFFFFFFFFFFFFFFFFFFFFFFFFFFFFFFFFF
310
FFFFFFFFFFFFFFFFFFFFFFFFFFFFFFFFFFFFFFFFFFFFFFFFFFFFFFFFFFFFFFFF
310
FFFFFFFFFFFFFFFFFFFFFFFFFFFFFFFFFFFFFFFFFFFFFFFFFFFFFFFFFFFFFFFF
310
FFFFFFFFFFFFFFFFFFFFFFFFFFFFFFFFFFFFFFFFFFFFFFFFFFFFFFFFFFFFFFFF
310
FFFFFFFFFFFFFFFFFFFFFFFFFFFFFFFFFFFFFFFFFFFFFFFFFFFFFFFFFFFFFFFF
310
FFFFFFFFFFFFFFFFFFFFFFFFFFFFFFFFFFFFFFFFFFFFFFFFFFFFFFFFFFFFFFFF
310
FFFFFFFFFFFFFFFFFFFFFFFFFFFFFFFFFFFFFFFFFFFFFFFFFFFFFFFFFFFFFFFF
310
FFFFFFFFFFFFFFFFFFFFFFFFFFFFFFFFFFFFFFFFFFFFFFFFFFFFFFFFFFFFFFFF
310
FFFFFFFFFFFFFFFFFFFFFFFFFFFFFFFFFFFFFFFFFFFFFFFFFFFFFFFFFFFFFFFF
310
FFFFFFFFFFFFFFFFFFFFFFFFFFFFFFFFFFFFFFFFFFFFFFFFFFFFFFFFFFFFFFFF
310
FFFFFFFFFFFFFFFFFFFFFFFFFFFFFFFFFFFFFFFFFFFFFFFFFFFFFFFFFFFFFFFF
310
010000020000000000000000000000000000000078011600B8CB9A1A10B01635
310
D0AD163548CC9A1A98AF163508AF1635A0AA163558AA1635E8CB9A1A58CE9A1A
310
0100FEFF030A0000FFFFFFFF0A00030000000000C00000000000004607000000
310
5042727573680007000000504272757368000700000050427275736800F439B2
310
71000000000000000000000000CA613538CE6135280D6A3500D0613598CB6135
310
60D0613510D26135F80C6A35C80C6A3598894435C8096A35909A663500946635
310
E8594135A80E6A35380F6A3518874435900E8B1AA0A44435305B6935505F6935
310
58DE613580A56635F8DD613500A94435680F6A3528DE6135480E6A3588DE6135
310
70DE6135780E6A35A0DE6135B8DE6135D0DE6135E8DE6135880D6A35E80A6A35
310
38A84435580A6A3510A56635B8A5663560604135C80F6A35880A6A3528A94435
310
6842A31AF0C22135705E6935105D693568CB6135D89D663530DF6135E8F35C35
310
98156A3548DF6135480B6A35B0CE613580E0613588FE693500E2613578DF6135
310
C0D06135B8E1613568006A3528016A3528F05C35A80B6A3540996635509C6635
310
785A4135380C6A35C8FD6935E0F15C35B8C71800D0ED5C355066693530666935
310
A8A27035D8A4663508A37035707B6035D0637435F0A27035F064743538A37035
310
50A370359061743568A3703580A3703598A37035B0A37035C064743590647435
310
20260000424D0E260000000000003E00000028000000B40200006E0000000100
310
01000000000000000000130B0000130B00000200000002000000000000FFFFFF
310
FFFFFFFFFFFFFFFFFFFFFFFFFFFFFFFFFFFFFFFFFFFFFFFFFFFFFFFFFFFFFFFF
310
FFFFFFFFFFFFFFFFFFFFFFFFFFFFFFFFFFFFFFFFFFFFFFFFFFFFFFFFFFFFFFFF
310
FFFFFFFFFFFFFFFFFFFFFFFFFFFFFFFFFFFFFFFFFFFFFFFFF000FFFFFFFFFFFF
310
FFFFFFFFFFFFFFFFFFFFFFFFFFFFFFFFFFFFFFFFFFFFFFFFFFFFFFFFFFFFFFFF
310
FFFFFFFFFFFFFFFFFFFFFFFFFFFFFFFFFFFFFFFFFFFFFFFFFFFFFFFFFFFFFFFF
310
FFFFFFFFFFFFFFFFFFFFFFFFFFFFFFFFF000FFFFFFFFFFFFFFFFFFFFFFFFFFFF
310
FFFFFFFFFFFFFFFFFFFFFFFFFFFFFFFFFFFFFFFFFFFFFFFFFFFFFFFFFFFFFFFF
310
FFFFFFFFFFFFFFFFFFFFFFFFFFFFFFFFFFFFFFFFFFFFFFFFFFFFFFFFFFFFFFFF
310
FFFFFFFFFFFFFFFFF000FFFFFFFFFFFFFFFFFFFFFFFFFFFFFFFFFFFFFFFFFFFF
310
FFFFFFFFFFFFFFFFFFFFFFFFFFFFFFFFFFFFFFFFFFFFFFFFFFFFFFFFFFFFFFFF
310
FFFFFFFFFFFFFFFFFFFFFFFFFFFFFFFFFFFFFFFFFFFFFFFFFFFFFFFFFFFFFFFF
310
F000FFFFFFFFFFFFFFFFFFFFFFFFFFFFFFFFFFFFFFFFFFFFFFFFFFFFFFFFFFFF
310
FFFFFFFFFFFFFFFFFFFFFFFFFFFFFFFFFFFFFFFFFFFFFFFFFFFFFFFFFFFFFFFF
310
FFFFFFFFFFFFFFFFFFFFFFFFFFFFFFFFFFFFFFFFFFFFFFFFF000FFFFFFFFFFFF
310
FFFFFFFFFFFFFFFFFFFFFFFFFFFFFFFFFFFFFFFFFFFFFFFFFFFFFFFFFFFFFFFF
310
FFFFFFFFFFFFFFFFFFFFFFFFFFFFFFFFFFFFFFFFFFFFFFFFFFFFFFFFFFFFFFFF
310
FFFFFFFFFFFFFFFFFFFFFFFFFFFFFFFFF000FFFFFFFFFFFFFFFFFFFFFFFFFFFF
310
FFFFFFFFFFFFFFFFFFFFFFFFFFFFFFFFFFFFFFFFFFFFFFFFFFFFFFFFFFFFFFFF
310
FFFFFFFFFFFFFFFFFFFFFFFFFFFFFFFFFFFFFFFFFFFFFFFFFFFFFFFFFFFFFFFF
310
FFFFFFFFFFFFFFFFF000FFFFFFFFFFFFFFFFFFFFFFFFFFFFFFFFFFFFFFFFFFFF
310
FFFFFFFFFFFFFFFFFFFFFFFFFFFFFFFFFFFFFFFFFFFFFFFFFFFFFFFFFFFFFFFF
310
FFFFFFFFFFFFFFFFFFFFFFFFFFFFFFFFFFFFFFFFFFFFFFFFFFFFFFFFFFFFFFFF
310
F000FFFFFFFFFFFFFFFFFFFFFFFFFFFFFFFFFFFFFFFFFFFFFFFFFFFFFFFFFFFF
310
FFFFFFFFFFFFFFFFFFFFFFFFFFFFFFFFFFFFFFFFFFFFFFFFFFFFFFFFFFFFFFFF
310
FFFFFFFFFFFFFFFFFFFFFFFFFFFFFFFFFFFFFFFFFFFFFFFFF000FFFFFFFFFFFF
310
FFFFFFFFFFFFFFFFFFFFFFFFFFFFFFFFFFFFFFFFFFFFFFFFFFFFFFFFFFFFFFFF
310
FFFFFFFFFFFFFFFFFFFFFFFFFFFFFFFFFFFFFFFFFFFFFFFFFFFFFFFFFFFFFFFF
310
FFFFFFFFFFFFFFFFFFFFFFFFFFFFFFFFF000FFFFFFFFFFFFFFFFFFFFFFFFFFFF
310
FFFFFFFFFFFFFFFFFFFFFFFFFFFFFFFFFFFFFFFFFFFFFFFFFFFFFFFFFFFFFFFF
310
FFFFFFFFFFFFFFFFFFFFFFFFFFFFFFFFFFFFFFFFFFFFFFFFFFFFFFFFFFFFFFFF
310
FFFFFFFFFFFFFFFFF000FFFFFFFFFFFFFFFFFFFFFFFFFFFFFFFFFFFFFFFFFFFF
310
FFFFFFFFFFFFFFFFFFFFFFFFFFFFFFFFFFFFFFFFFFFFFFFFFFFFFFFFFFFFFFFF
310
FFFFFFFFFFFFFFFFFFFFFFFFFFFFFFFFFFFFFFFFFFFFFFFFFFFFFFFFFFFFFFFF
310
F000FFFFFFFFFFFFFFFFFFFFFFFFFFFFFFFFFFFFFFFFFFFFFFFFFFFFFFFFFFFF
310
FFFFFFFFFFFFFFFFFFFFFFFFFFFFFFFFFFFFFFFFFFFFFFFFFFFFFFFFFFFFFFFF
310
FFFFFFFFFFFFFFFFFFFFFFFFFFFFFFFFFFFFFFFFFFFFFFFFF000FFFFFFFFFFFF
310
FFFFFFFFFFFFFFFFFFFFFFFFFFFFFFFFFFFFFFFFFFFFFFFFFFFFFFFFFFFFFFFF
310
FFFFFFFFFFFFFFFFFFFFFFFFFFFFFFFFFFFFFFFFFFFFFFFFFFFFFFFFFFFFFFFF
310
FFFFFFFFFFFFFFFFFFFFFFFFFFFFFFFFF000FFFFFFFFFFFFFFFFFFFFFFFFFFFF
310
FFFFFFFFFFFFFFFFFFFFFFFFFFFFFFFFFFFFFFFFFFFFFFFFFFFFFFFFFFFFFFFF
310
FFFFFFFFFFFFFFFFFFFFFFFFFFFFFFFFFFFFFFFFFFFFFFFFFFFFFFFFFFFFFFFF
310
FFFFFFFFFFFFFFFFF000FFFFFFFFFFFFFFFFFFFFFFFFFFFFFFFFFFFFFFFFFFFF
310
FFFFFFFFFFFFFFFFFFFFFFFFFFFFFFFFFFFFFFFFFFFFFFFFFFFFFFFFFFFFFFFF
310
FFFFFFFFFFFFFFFFFFFFFFFFFFFFFFFFFFFFFFFFFFFFFFFFFFFFFFFFFFFFFFFF
310
F000FFFFFFFFFFFFFFFFFFFFFFFFFFFFFFFFFFFFFFFFFFFFFFFFFFFFFFFFFFFF
310
FFFFFFFFFFFFFFFFFFFFFFFFFFFFFFFFFFFFFFFFFFFFFFFFFFFFFFFFFFFFFFFF
310
FFFFFFFFFFFFFFFFFFFFFFFFFFFFFFFFFFFFFFFFFFFFFFFFF000FFFFFFFFFFFF
310
FFFFFFFFFFFFFFFFFFFFFFFFFFFFFFFFFFFFFFFFFFFFFFFFFFFFFFFFFFFFFFFF
310
FFFFFFFFFFFFFFFFFFFFFFFFFFFFFFFFFFFFFFFFFFFFFFFFFFFFFFFFFFFFFFFF
310
FFFFFFFFFFFFFFFFFFFFFFFFFFFFFFFFF000FFFFFFFFFFFFFFFFFFFFFFFFFFFF
310
FFFFFFFFFFFFFFFFFFFFFFFFFFFFFFFFFFFFFFFFFFFFFFFFFFFFFFFFFFFFFFFF
310
FFFFFFFFFFFFFFFFFFFFFFFFFFFFFFFFFFFFFFFFFFFFFFFFFFFFFFFFFFFFFFFF
310
FFFFFFFFFFFFFFFFF000FFFFF80003FFFFFFFFFFFFFFFFFFFFFFFFFFFFFFFFFF
310
FFFFF00007FFFFFFFFFF00007FFFFFF800000000000000007FFFFFFFFFFFFFFF
310
FFFFFFFC001FFFFFFFFFFFFFFC001FFFFFFFFFFFFFFFFFFFFFFFFFFE0007FFFF
310
F000FFFF8000007FFFFFFFF8000FFFFFC0007FFFFF80007FFFFF0000007FFFFF
310
FFF8000007FFFFF800000000000000007FFFFFF0001FFFFFFFFFFFC00001FFFF
310
FFFFFFFFC00001FFFFFFFF000000000003FFFFE000007FFFF000FFFE0000000F
310
FFFFFFF0000FFFFF80007FFFFF80007FFFFC0000001FFFFFFFC0000001FFFFF8
310
00000000000000007FFFFFF0001FFFFFFFFFFE0000003FFFFFFFFFFE0000003F
310
FFFFFF000000000003FFFF0000000FFFF000FFF800000003FFFFFFF00007FFFF
310
80007FFFFF80007FFFF000000007FFFFFF000000003FFFF80000000000000000
310
7FFFFFF0001FFFFFFFFFF80000000FFFFFFFFFF80000000FFFFFFF0000000000
310
03FFFC00000003FFF000FFE000000000FFFFFFF00007FFFF80003FFFFF80007F
310
FFC000000001FFFFFC000000001FFFF800000000000000007FFFFFF0001FFFFF
310
FFFFE000000003FFFFFFFFE000000003FFFFFF000000000003FFF000000000FF
310
F000FF80000000007FFFFFF00007FFFF80003FFFFF80007FFF8000000000FFFF
310
F80000000007FFF800000000000000007FFFFFF0001FFFFFFFFFC000000001FF
310
FFFFFFC000000001FFFFFF000000000003FFC0000000007FF000FF0000000000
310
3FFFFFE00007FFFF00003FFFFF80007FFE00000000003FFFF00000000003FFF8
310
00000000000000007FFFFFF0001FFFFFFFFF8000000000FFFFFFFF8000000000
310
FFFFFF000000000003FF80000000003FF000FE00000000001FFFFFE00003FFFF
310
00003FFFFF80007FFC00000000001FFFE00000000001FFF8000001FFFE000000
310
7FFFFFF0001FFFFFFFFE00000000003FFFFFFE00000000003FFFFF0000000000
310
03FF00000000001FF000FC00000000000FFFFFE00003FFFF00001FFFFF80007F
310
F800000000001FFFC00000000000FFF8000001FFFE0000007FFFFFF0001FFFFF
310
FFFC00000000001FFFFFFC00000000001FFFFF000000000003FE00000000000F
310
F000F8000000000007FFFFE00003FFFF00001FFFFF80007FF800000000000FFF
310
800000000000FFF8000001FFFE0000007FFFFFF0001FFFFFFFF800000000000F
310
FFFFF800000000000FFFFF000000000003FC000000000007F000F80000000000
310
03FFFFC00003FFFE00001FFFFF80007FF0000000000007FF0000000000007FF8
310
000001FFFE0000007FFFFFF0001FFFFFFFF0000000000007FFFFF00000000000
310
07FFFF000000000003F8000000000003F000F0000000000003FFFFC00001FFFE
310
00001FFFFF80007FE0000000000007FE0000000000003FF8000001FFFE000000
310
7FFFFFF0001FFFFFFFF0000000000007FFFFF0000000000007FFFF0000000000
310
03F800001F800003F000E00001FFF00001FFFFC00001FFFE00000FFFFF80007F
310
E00001FFE00003FE00001FFF00003FF8000001FFFE0000007FFFFFF0001FFFFF
310
FFE000003E000003FFFFE000003E000003FFFF000000000003F00001FFF80001
310
F000E00007FFFC0001FFFFC00001FFFE00000FFFFF80007FC0000FFFFC0003FC
310
0000FFFFC0001FF8000001FFFE0000007FFFFFF0001FFFFFFFC00003FFE00001
310
FFFFC00003FFE00001FFFF0001FFFFFFFFF00007FFFE0001F000E0000FFFFF00
310
00FFFF800001FFFC00000FFFFF80007FC0001FFFFE0001FC0001FFFFE0001FF8
310
000001FFFE0000007FFFFFF0001FFFFFFF80000FFFF80000FFFF80000FFFF800
310
00FFFF0003FFFFFFFFE0000FFFFF8000F000C0003FFFFF8000FFFF800000FFFC
310
000007FFFF80007F80003FFFFF0001FC0003FFFFF0001FF8000001FFFE000000
310
7FFFFFF0001FFFFFFF80003FFFFE0000FFFF80003FFFFE0000FFFF0003FFFFFF
310
FFE0003FFFFF8000F000C0003FFFFF8000FFFF800000FFFC000007FFFF80007F
310
80007FFFFF8001F80007FFFFF8000FF8000001FFFE0000007FFFFFF0001FFFFF
310
FF00007FFFFF00007FFF00007FFFFF00007FFF0003FFFFFFFFE0003FFFFFC000
310
F000C0007FFFFFC000FFFF000000FFFC000007FFFF80007F8000FFFFFF8000F8
310
000FFFFFF8000FF8000001FFFE0000007FFFFFF0001FFFFFFF0000FFFFFF8000
310
7FFF0000FFFFFF80007FFF0003FFFFFFFFC0007FFFFFC00070008000FFFFFFC0
310
00FFFF000000FFF8000007FFFF80007F8000FFFFFF8000F8000FFFFFF8000FF8
310
000001FFFE0000007FFFFFF0001FFFFFFE0001FFFFFFC0003FFE0001FFFFFFC0
310
003FFF0003FFFFFFFFC0007FFFFFE00070008000FFFFFFC0007FFF0000007FF8
310
000003FFFF80007F0001FFFFFF8000F8000FFFFFF8000FF8000001FFFE000000
310
7FFFFFF0001FFFFFFE0001FFFFFFC0003FFE0001FFFFFFC0003FFF0003FFFFFF
310
FFC000FFFFFFE00070008000FFFFFFC0007FFF0000007FF8000003FFFF80007F
310
0001FFFFFF8000F8001FFFFFF8000FF8000001FFFE0000007FFFFFF0001FFFFF
310
FE0003FFFFFFE0003FFE0003FFFFFFE0003FFF0003FFFFFFFFC000FFFFFFE000
310
70008000FFFFFFC0007FFE0000007FF8000003FFFF80007F0001FFFFFF8000F0
310
001FFFFFF8000FF8000001FFFE0000007FFFFFF0001FFFFFFC0003FFFFFFE000
310
1FFC0003FFFFFFE0001FFF0003FFFFFFFFC000FFFFFFC00070008000FFFFFF80
310
007FFE0000007FF0000003FFFF80007F0001FFFFFF0000F0001FFFFFF8000FF8
310
000001FFFE0000007FFFFFF0001FFFFFFC0007FFFFFFF0001FFC0007FFFFFFF0
310
001FFF0003FFFFFFFFC000FFFFFFC00070008001FFFFFF0000FFFE0000003FF0
310
000001FFFF80007F0001FFFFFF0000F8001FFFFFF0000FF8000001FFFE000000
310
7FFFFFF0001FFFFFFC0007FFFFFFF0001FFC0007FFFFFFF0001FFF0003FFFFFF
310
FFC001FFFFFF80007000FFFFFFFFFE0000FFFE0008003FF0008001FFFF80007F
310
FFFFFFFFFC0000FFFFFFFFFFE0000FF8000001FFFE0000007FFFFFF0001FFFFF
310
F8000FFFFFFFF8000FF8000FFFFFFFF8000FFF0003FFFFFFFFFFFFFFFFFF0000
310
7000FFFFFFFFFC0000FFFC0008003FF0008001FFFF80007FFFFFFFFFF80001FF
310
FFFFFFFF80000FF8000001FFFE0000007FFFFFF0001FFFFFF8000FFFFFFFF800
310
0FF8000FFFFFFFF8000FFF0003FFFFFFFFFFFFFFFFFE0000F000FFFFFFFFE000
310
00FFFC000C003FE000C001FFFF80007FFFFFFFFFC00001FFFFFFFFFE00001FF8
310
000001FFFE0000007FFFFFF0001FFFFFF8000FFFFFFFF8000FF8000FFFFFFFF8
310
000FFF0003FFFFFFFFFFFFFFFFF00000F000FFFFFFFE000001FFFC000C001FE0
310
00C000FFFF80007FFFFFFFFE000001FFFFFFFFE000001FF80FFFFFFFFFFFFFC0
310
7FFFFFF0001FFFFFF8000FFFFFFFF8000FF8000FFFFFFFF8000FFF0003FFFFFF
310
FFFFFFFFFF800000F000FFFFFFC0000001FFFC001C001FE001C000FFFF80007F
310
FFFFFF80000003FFFFFFF80000001FF80FFFFFFFFFFFFFC07FFFFFF0001FFFFF
310
F8001FFFFFFFFC000FF8001FFFFFFFFC000FFF0003FFFFFFFFFFFFFFF0000001
310
F000FFFFF800000001FFF8001C001FE001C000FFFF80007FFFFFF800000003FF
310
FFFF800000003FF80FFFFFFFFFFFFFC07FFFFFF0001FFFFFF8001FFFFFFFFC00
310
0FF8001FFFFFFFFC000FFF0003FFFFFFFFFFFFFE00000001F000FFFFC0000000
310
03FFF8001E001FC001E000FFFF80007FFFFF8000000007FFFFFC000000003FF8
310
0FFFFFFFFFFFFFC07FFFFFF0001FFFFFF8001FFFFFFFFC000FF8001FFFFFFFFC
310
000FFF0003FFFFFFFFFFFFE000000003F000FFFE0000000007FFF8001E000FC0
310
01E0007FFF80007FFFFE0000000007FFFFE0000000007FF80FFFFFFFFFFFFFC0
310
7FFFFFF0001FFFFFF0001FFFFFFFFC0007F0001FFFFFFFFC0007FF0003FFFFFF
310
FFFFFF0000000003F000FFF80000000007FFF8001E000FC003E0007FFF80007F
310
FFF0000000000FFFFF8000000000FFF80FFFFFFFFFFFFFC07FFFFFF0001FFFFF
310
F0001FFFFFFFFC0007F0001FFFFFFFFC0007FF0003FFFFFFFFFFFC0000000007
310
F000FFE0000000000FFFF0003E000FC003E0007FFF80007FFFC0000000001FFF
310
FE0000000001FFF80FFFFFFFFFFFFFC07FFFFFF0001FFFFFF0001FFFFFFFFC00
310
07F0001FFFFFFFFC0007FF0003FFFFFFFFFFF0000000000FF000FFC000000000
310
1FFFF0003F000F8003F0003FFF80007FFF80000000003FFFF80000000003FFF8
310
0FFFFFFFFFFFFFC07FFFFFF0001FFFFFF0001FFFFFFFFC0007F0001FFFFFFFFC
310
0007FF0003FFFFFFFFFFE0000000001FF000FF00000000007FFFF0003F000780
310
03F0003FFF80007FFF00000000007FFFF00000000007FFF80FFFFFFFFFFFFFC0
310
7FFFFFF0001FFFFFF0001FFFFFFFFC0007F0001FFFFFFFFC0007FF0003FFFFFF
310
FFFF80000000007FF000FE0000000000FFFFE0003F00078007F0003FFF80007F
310
FE0000000001FFFFE0000000001FFFF80FFFFFFFFFFFFFC07FFFFFF0001FFFFF
310
F0001FFFFFFFFC0007F0001FFFFFFFFC0007FF0003FFFFFFFFFF0000000000FF
310
F000FC0000000003FFFFE0007F00078007F0003FFF80007FFC0000000007FFFF
310
C0000000007FFFF80FFFFFFFFFFFFFC07FFFFFF0001FFFFFF8001FFFFFFFFC00
310
0FF8001FFFFFFFFC000FFF0003FFFFFFFFFE0000000003FFF000FC000000000F
310
FFFFE0007F80070007F8001FFF80007FF8000000001FFFFF8000000001FFFFF8
310
0FFFFFFFFFFFFFC07FFFFFF0001FFFFFF8001FFFFFFFFC000FF8001FFFFFFFFC
310
000FFF0003FFFFFFFFFC000000000FFFF000F8000000007FFFFFE0007F800700
310
07F8001FFF80007FF000000000FFFFFF800000000FFFFFF80FFFFFFFFFFFFFC0
310
7FFFFFF0001FFFFFF8000FFFFFFFF8000FF8000FFFFFFFF8000FFF0003FFFFFF
310
FFFC000000007FFFF000F800000007FFFFFFC0007F8003000FF8001FFF80007F
310
F000000007FFFFFF000000007FFFFFF80FFFFFFFFFFFFFC07FFFFFF0001FFFFF
310
F8000FFFFFFFF8000FF8000FFFFFFFF8000FFF0003FFFFFFFFF80000000FFFFF
310
F000F0000000FFFFFFFFC000FF8003000FF8001FFF80007FE0000000FFFFFFFF
310
0000000FFFFFFFF8000001FFFE0000007FFFFFF0001FFFFFF8000FFFFFFFF800
310
0FF8000FFFFFFFF8000FFF0003FFFFFFFFF8000000FFFFFFF000F000000FFFFF
310
FFFFC000FFC002000FF8000FFF80007FE000001FFFFFFFFE000001FFFFFFFFF8
310
000001FFFE0000007FFFFFF0001FFFFFF8000FFFFFFFF8000FF8000FFFFFFFF8
310
000FFF0003FFFFFFFFF000001FFFFFFFF000E00000FFFFFFFFFFC000FFC00200
310
0FFC000FFF80007FE00001FFFFFFFFFE00001FFFFFFFFFF8000001FFFE000000
310
7FFFFFF0001FFFFFFC000FFFFFFFF8001FFC000FFFFFFFF8001FFF0003FFFFFF
310
FFF00001FFFFFFFFF000E00007FFFFFFFFFF8000FFC000001FFC000FFF80007F
310
C0000FFFFFFFFFFE0000FFFFFFFFFFF8000001FFFE0000007FFFFFF0001FFFFF
310
FC0007FFFFFFF0001FFC0007FFFFFFF0001FFF0003FFFFFFFFF00007FFFFFFFF
310
F000E0001FFFFFFFFFFF8000FFC000001FFC000FFF80007FC0003FFFFFFFFFFE
310
0001FFFFFFFFFFF8000001FFFE0000007FFFFFF0001FFFFFFC0007FFFFFFF000
310
1FFC0007FFFFFFF0001FFF0003FFFFFFFFF0001FFFFFFFFFF000E0003FFFFF00
310
03FF8001FFE000001FFC0007FF80007FC0007FFFFF0007FC0003FFFFF0003FF8
310
000001FFFE0000007FFFFFF0001FFFFFFC0003FFFFFFE0001FFC0003FFFFFFE0
310
001FFF0003FFFFFFFFF0003FFFFFFFFFF000E0003FFFFF0001FF8001FFE00000
310
1FFE0007FF80007FC0007FFFFE0003FC0007FFFFE0003FF8000001FFFE000000
310
7FFFFFF0001FFFFFFE0003FFFFFFE0003FFE0003FFFFFFE0003FFF0003FFFFFF
310
FFF0003FFFFF8001F000E0003FFFFF0001FF0001FFE000001FFE0007FF80007F
310
C0007FFFFE0003FC0007FFFFE0003FF8000001FFFE0000007FFFFFF0001FFFFF
310
FE0001FFFFFFC0003FFE0001FFFFFFC0003FFF0003FFFFFFFFF0003FFFFF0001
310
F000E0003FFFFF0003FF0001FFE000003FFE0007FF80007FC0007FFFFE0003FC
310
0007FFFFE0003FF8000001FFFE0000007FFFFFF0001FFFFFFF0001FFFFFFC000
310
7FFF0001FFFFFFC0007FFF0003FFFFFFFFF0003FFFFF0001F000E0003FFFFE00
310
03FF0003FFF000003FFE0003FF80007FC0007FFFFC0003FE0007FFFFE0003FF8
310
000001FFFE0000007FFFFFF0001FFFFFFF0000FFFFFF80007FFF0000FFFFFF80
310
007FFF0003FFFFFFFFF0003FFFFF0001F000E0003FFFFE0003FF0003FFF00000
310
3FFF0003FF80007FC0007FFFFC0007FE0007FFFFC0003FF8000001FFFE000000
310
7FFFFFF0001FFFFFFF80007FFFFF0000FFFF80007FFFFF0000FFFF0003FFFFFF
310
FFF0003FFFFF0003F000E0003FFFFC0003FE0003FFF000003FFF0003FF80007F
310
E0003FFFF80007FE0003FFFFC0007FF8000001FFFE0000007FFFFFF0001FFFFF
310
FF80003FFFFE0000FFFF80003FFFFE0000FFFF0003FFFFFFFFF0001FFFFE0003
310
F000F0001FFFF80003FE0003FFF000007FFF0001FF80007FE0003FFFF00007FE
310
0001FFFF80007FF8000001FFFE0000007FFFFFF0001FFFFFFFC0000FFFF80001
310
FFFFC0000FFFF80001FFFF0003FFFFFFFFF0001FFFFC0003F000F0000FFFF000
310
07FE0007FFF800007FFF0001FF80007FE0001FFFE00007FF0000FFFE00007FF8
310
000001FFFE0000007FFFFFF0001FFFFFFFC00003FFE00001FFFFC00003FFE000
310
01FFFF0003FFFFFFFFF8000FFFF80003F000F00003FFC00007FC0007FFF80000
310
7FFF8001FF80007FF00007FF80000FFF00007FF80000FFF8000001FFFE000000
310
7F80000000000001FFE000003E000003FFFFE000003E000003FFFF0003FFFFFF
310
FFF80003FFE00007F000F800000000000FFC0007FFF800007FFF8001FF80007F
310
F000000000000FFF000000000000FFF8000001FFFE0000007F80000000000001
310
FFF0000000000007FFFFF0000000000007FFFF0003FFFFFFFFFC00007E000007
310
F000F800000000000FFC0007FFF80000FFFF8000FF80007FF800000000001FFF
310
800000000001FFF8000001FFFE0000007F80000000000001FFF800000000000F
310
FFFFF800000000000FFFFF0003FFFFFFFFFC00000000000FF000FC0000000000
310
1FFC0007FFFC0000FFFF8000FF80007FF800000000003FFFC00000000001FFF8
310
000001FFFE0000007F80000000000001FFF800000000000FFFFFF80000000000
310
0FFFFF0003FFFFFFFFFE00000000001FF000FE00000000003FF8000FFFFC0000
310
FFFF8000FF80007FFC00000000003FFFC00000000003FFF8000001FFFE000000
310
7F80000000000001FFFC00000000001FFFFFFC00000000001FFFFF0003FFFFFF
310
FFFF00000000001FF000FF00000000003FF8000FFFFC0000FFFFC000FF80007F
310
FE00000000007FFFE00000000007FFF8000001FFFE0000007F80000000000001
310
FFFE00000000003FFFFFFE00000000003FFFFF0003FFFFFFFFFF80000000003F
310
F000FF80000000007FF8000FFFFC0001FFFFC0007F80007FFF0000000000FFFF
310
F0000000000FFFF800000000000000007F80000000000001FFFF8000000000FF
310
FFFFFF8000000000FFFFFF0003FFFFFFFFFFC0000000007FF000FFC000000000
310
FFF8000FFFFE0001FFFFC0007F80007FFF8000000001FFFFF8000000001FFFF8
310
00000000000000007F80000000000001FFFFC000000001FFFFFFFFC000000001
310
FFFFFF0003FFFFFFFFFFE000000000FFF000FFE000000003FFF0001FFFFE0001
310
FFFFC0007F80007FFFC000000007FFFFFE000000003FFFF80000000000000000
310
7F80000000000001FFFFE000000003FFFFFFFFE000000003FFFFFF0003FFFFFF
310
FFFFF000000003FFF000FFF80000000FFFF0001FFFFE0001FFFFE0007F80007F
310
FFF00000000FFFFFFF00000000FFFFF800000000000000007F80000000000001
310
FFFFF80000000FFFFFFFFFF80000000FFFFFFF0003FFFFFFFFFFFC0000000FFF
310
F000FFFE0000003FFFF0001FFFFE0003FFFFE0003F80007FFFFC0000003FFFFF
310
FFC0000003FFFFF800000000000000007F80000000000001FFFFFE0000003FFF
310
FFFFFFFE0000003FFFFFFF0003FFFFFFFFFFFF0000003FFFF000FFFF800000FF
310
FFF0001FFFFF0003FFFFE0003F80007FFFFF000001FFFFFFFFF800001FFFFFF8
310
00000000000000007F80000000000001FFFFFFC00001FFFFFFFFFFFFC00001FF
310
FFFFFF0003FFFFFFFFFFFFC00000FFFFF000FFFFF8000FFFFFFFFFFFFFFFFFFF
310
FFFFFFFFFFFFFFFFFFFFF0001FFFFFFFFFFF0000FFFFFFF80000000000000000
310
7FFFFFFFFFFFFFFFFFFFFFFC001FFFFFFFFFFFFFFC001FFFFFFFFFFFFFFFFFFF
310
FFFFFFFC001FFFFFF000FFFFFFFFFFFFFFFFFFFFFFFFFFFFFFFFFFFFFFFFFFFF
310
FFFFFFFFFFFFFFFFFFFFFFFFFFFFFFFFFFFFFFFFFFFFFFFFFFFFFFFFFFFFFFFF
310
FFFFFFFFFFFFFFFFFFFFFFFFFFFFFFFFFFFFFFFFFFFFFFFFFFFFFFFFFFFFFFFF
310
F000FFFFFFFFFFFFFFFFFFFFFFFFFFFFFFFFFFFFFFFFFFFFFFFFFFFFFFFFFFFF
310
FFFFFFFFFFFFFFFFFFFFFFFFFFFFFFFFFFFFFFFFFFFFFFFFFFFFFFFFFFFFFFFF
310
FFFFFFFFFFFFFFFFFFFFFFFFFFFFFFFFFFFFFFFFFFFFFFFFF000FFFFFFFFFFFF
310
FFFFFFFFFFFFFFFFFFFFFFFFFFFFFFFFFFFFFFFFFFFFFFFFFFFFFFFFFFFFFFFF
310
FFFFFFFFFFFFFFFFFFFFFFFFFFFFFFFFFFFFFFFFFFFFFFFFFFFFFFFFFFFFFFFF
310
FFFFFFFFFFFFFFFFFFFFFFFFFFFFFFFFF000FFFFFFFFFFFFFFFFFFFFFFFFFFFF
310
FFFFFFFFFFFFFFFFFFFFFFFFFFFFFFFFFFFFFFFFFFFFFFFFFFFFFFFFFFFFFFFF
310
FFFFFFFFFFFFFFFFFFFFFFFFFFFFFFFFFFFFFFFFFFFFFFFFFFFFFFFFFFFFFFFF
310
FFFFFFFFFFFFFFFFF000FFFFFFFFFFFFFFFFFFFFFFFFFFFFFFFFFFFFFFFFFFFF
310
FFFFFFFFFFFFFFFFFFFFFFFFFFFFFFFFFFFFFFFFFFFFFFFFFFFFFFFFFFFFFFFF
310
FFFFFFFFFFFFFFFFFFFFFFFFFFFFFFFFFFFFFFFFFFFFFFFFFFFFFFFFFFFFFFFF
310
F000FFFFFFFFFFFFFFFFFFFFFFFFFFFFFFFFFFFFFFFFFFFFFFFFFFFFFFFFFFFF
310
FFFFFFFFFFFFFFFFFFFFFFFFFFFFFFFFFFFFFFFFFFFFFFFFFFFFFFFFFFFFFFFF
310
FFFFFFFFFFFFFFFFFFFFFFFFFFFFFFFFFFFFFFFFFFFFFFFFF000FFFFFFFFFFFF
310
FFFFFFFFFFFFFFFFFFFFFFFFFFFFFFFFFFFFFFFFFFFFFFFFFFFFFFFFFFFFFFFF
310
FFFFFFFFFFFFFFFFFFFFFFFFFFFFFFFFFFFFFFFFFFFFFFFFFFFFFFFFFFFFFFFF
310
FFFFFFFFFFFFFFFFFFFFFFFFFFFFFFFFF000FFFFFFFFFFFFFFFFFFFFFFFFFFFF
310
FFFFFFFFFFFFFFFFFFFFFFFFFFFFFFFFFFFFFFFFFFFFFFFFFFFFFFFFFFFFFFFF
310
FFFFFFFFFFFFFFFFFFFFFFFFFFFFFFFFFFFFFFFFFFFFFFFFFFFFFFFFFFFFFFFF
310
FFFFFFFFFFFFFFFFF000FFFFFFFFFFFFFFFFFFFFFFFFFFFFFFFFFFFFFFFFFFFF
310
FFFFFFFFFFFFFFFFFFFFFFFFFFFFFFFFFFFFFFFFFFFFFFFFFFFFFFFFFFFFFFFF
310
FFFFFFFFFFFFFFFFFFFFFFFFFFFFFFFFFFFFFFFFFFFFFFFFFFFFFFFFFFFFFFFF
310
F000FFFFFFFFFFFFFFFFFFFFFFFFFFFFFFFFFFFFFFFFFFFFFFFFFFFFFFFFFFFF
310
FFFFFFFFFFFFFFFFFFFFFFFFFFFFFFFFFFFFFFFFFFFFFFFFFFFFFFFFFFFFFFFF
310
FFFFFFFFFFFFFFFFFFFFFFFFFFFFFFFFFFFFFFFFFFFFFFFFF000FFFFFFFFFFFF
310
FFFFFFFFFFFFFFFFFFFFFFFFFFFFFFFFFFFFFFFFFFFFFFFFFFFFFFFFFFFFFFFF
310
FFFFFFFFFFFFFFFFFFFFFFFFFFFFFFFFFFFFFFFFFFFFFFFFFFFFFFFFFFFFFFFF
310
FFFFFFFFFFFFFFFFFFFFFFFFFFFFFFFFF000FFFFFFFFFFFFFFFFFFFFFFFFFFFF
310
FFFFFFFFFFFFFFFFFFFFFFFFFFFFFFFFFFFFFFFFFFFFFFFFFFFFFFFFFFFFFFFF
310
FFFFFFFFFFFFFFFFFFFFFFFFFFFFFFFFFFFFFFFFFFFFFFFFFFFFFFFFFFFFFFFF
310
FFFFFFFFFFFFFFFFF000FFFFFFFFFFFFFFFFFFFFFFFFFFFFFFFFFFFFFFFFFFFF
310
FFFFFFFFFFFFFFFFFFFFFFFFFFFFFFFFFFFFFFFFFFFFFFFFFFFFFFFFFFFFFFFF
310
FFFFFFFFFFFFFFFFFFFFFFFFFFFFFFFFFFFFFFFFFFFFFFFFFFFFFFFFFFFFFFFF
310
F000FFFFFFFFFFFFFFFFFFFFFFFFFFFFFFFFFFFFFFFFFFFFFFFFFFFFFFFFFFFF
310
FFFFFFFFFFFFFFFFFFFFFFFFFFFFFFFFFFFFFFFFFFFFFFFFFFFFFFFFFFFFFFFF
310
FFFFFFFFFFFFFFFFFFFFFFFFFFFFFFFFFFFFFFFFFFFFFFFFF000FFFFFFFFFFFF
310
FFFFFFFFFFFFFFFFFFFFFFFFFFFFFFFFFFFFFFFFFFFFFFFFFFFFFFFFFFFFFFFF
310
FFFFFFFFFFFFFFFFFFFFFFFFFFFFFFFFFFFFFFFFFFFFFFFFFFFFFFFFFFFFFFFF
310
FFFFFFFFFFFFFFFFFFFFFFFFFFFFFFFFF000FFFFFFFFFFFFFFFFFFFFFFFFFFFF
310
FFFFFFFFFFFFFFFFFFFFFFFFFFFFFFFFFFFFFFFFFFFFFFFFFFFFFFFFFFFFFFFF
310
FFFFFFFFFFFFFFFFFFFFFFFFFFFFFFFFFFFFFFFFFFFFFFFFFFFFFFFFFFFFFFFF
310
FFFFFFFFFFFFFFFFF000FFFFFFFFFFFFFFFFFFFFFFFFFFFFFFFFFFFFFFFFFFFF
310
FFFFFFFFFFFFFFFFFFFFFFFFFFFFFFFFFFFFFFFFFFFFFFFFFFFFFFFFFFFFFFFF
310
FFFFFFFFFFFFFFFFFFFFFFFFFFFFFFFFFFFFFFFFFFFFFFFFFFFFFFFFFFFFFFFF
310
F000FFFFFFFFFFFFFFFFFFFFFFFFFFFFFFFFFFFFFFFFFFFFFFFFFFFFFFFFFFFF
310
FFFFFFFFFFFFFFFFFFFFFFFFFFFFFFFFFFFFFFFFFFFFFFFFFFFFFFFFFFFFFFFF
310
FFFFFFFFFFFFFFFFFFFFFFFFFFFFFFFFFFFFFFFFFFFFFFFFF000FFFFFFFFFFFF
310
FFFFFFFFFFFFFFFFFFFFFFFFFFFFFFFFFFFFFFFFFFFFFFFFFFFFFFFFFFFFFFFF
310
FFFFFFFFFFFFFFFFFFFFFFFFFFFFFFFFFFFFFFFFFFFFFFFFFFFFFFFFFFFFFFFF
310
FFFFFFFFFFFFFFFFFFFFFFFFFFFFFFFFF000FFFFFFFFFFFFFFFFFFFFFFFFFFFF
310
FFFFFFFFFFFFFFFFFFFFFFFFFFFFFFFFFFFFFFFFFFFFFFFFFFFFFFFFFFFFFFFF
310
FFFFFFFFFFFFFFFFFFFFFFFFFFFFFFFFFFFFFFFFFFFFFFFFFFFFFFFFFFFFFFFF
310
FFFFFFFFFFFFFFFFF000FFFFFFFFFFFFFFFFFFFFFFFFFFFFFFFFFFFFFFFFFFFF
310
FFFFFFFFFFFFFFFFFFFFFFFFFFFFFFFFFFFFFFFFFFFFFFFFFFFFFFFFFFFFFFFF
310
FFFFFFFFFFFFFFFFFFFFFFFFFFFFFFFFFFFFFFFFFFFFFFFFFFFFFFFFFFFFFFFF
310
F000FFFFFFFFFFFFFFFFFFFFFFFFFFFFFFFFFFFFFFFFFFFFFFFFFFFFFFFFFFFF
310
FFFFFFFFFFFFFFFFFFFFFFFFFFFFFFFFFFFFFFFFFFFFFFFFFFFFFFFFFFFFFFFF
310
FFFFFFFFFFFFFFFFFFFFFFFFFFFFFFFFFFFFFFFFFFFFFFFFF000FFFFFFFFFFFF
310
FFFFFFFFFFFFFFFFFFFFFFFFFFFFFFFFFFFFFFFFFFFFFFFFFFFFFFFFFFFFFFFF
310
FFFFFFFFFFFFFFFFFFFFFFFFFFFFFFFFFFFFFFFFFFFFFFFFFFFFFFFFFFFFFFFF
310
FFFFFFFFFFFFFFFFFFFFFFFFFFFFFFFFF0000000000000000000000000000000
310
00000000000000000000000042006F006C00640020004900740061006C006900
310
6300200053007500620068006500610064000000000000000000000000000000
310
0000000000000000000000000000000000000000000000000000000000000000
310
0000000000000000000000000000000000000000000000000000000000000000
310
00000000000000000000000064760008000000000000000020FF002028000000
310
1C0000000C0000000800000000000000120000002F000000BC02000000000000
310
6000000060000000200006FB00002000FF00001B0000000021002200E8030000
310
D604000034020000870200600100000000000000000000009F01002000000000
310
616C000800000000E40100007001000002000000270000001000000000000000
310
000000002C0100000000000003020112410072006E006F002000500072006F00
310
20004C006900670068007400200044006900730070006C006100790000000000
310
00000000000000000000000000000000410072006E006F00500072006F002D00
310
4C00690067006800740044006900730070006C00610079000000000000000000
310
0000000000000000000000000000000000000000000000000000000000000000
310
0000000000000000000000000000000000000000000000000000000000000000
  1
OLE
  0
ENDSEC
  0
SECTION
  2
OBJECTS
  0
DICTIONARY
  5
C
330
0
100
AcDbDictionary
281
     1
  3
ACAD_GROUP
350
D
  3
ACAD_LAYOUT
350
1A
  3
ACAD_MLEADERSTYLE
350
2B4
  3
ACAD_MLINESTYLE
350
17
  3
ACAD_PLOTSETTINGS
350
19
  3
ACAD_PLOTSTYLENAME
350
E
  3
ACAD_TABLESTYLE
350
2B3
  3
ACAD_VISUALSTYLE
350
2A
  3
AcDbVariableDictionary
350
2B5
  0
DICTIONARY
  5
D
102
{ACAD_REACTORS
330
C
102
}
330
C
100
AcDbDictionary
281
     1
  0
DICTIONARY
  5
1A
102
{ACAD_REACTORS
330
C
102
}
330
C
100
AcDbDictionary
281
     1
  3
Layout1
350
1E
  3
Layout2
350
26
  3
Model
350
22
  0
DICTIONARY
  5
2B4
102
{ACAD_REACTORS
330
C
102
}
330
C
100
AcDbDictionary
281
     1
  0
DICTIONARY
  5
17
102
{ACAD_REACTORS
330
C
102
}
330
C
100
AcDbDictionary
281
     1
  3
Standard
350
18
  0
DICTIONARY
  5
19
102
{ACAD_REACTORS
330
C
102
}
330
C
100
AcDbDictionary
281
     1
  0
ACDBDICTIONARYWDFLT
  5
E
102
{ACAD_REACTORS
330
C
102
}
330
C
100
AcDbDictionary
281
     1
  3
Normal
350
F
100
AcDbDictionaryWithDefault
340
F
  0
DICTIONARY
  5
2B3
102
{ACAD_REACTORS
330
C
102
}
330
C
100
AcDbDictionary
281
     1
  0
DICTIONARY
  5
2A
102
{ACAD_REACTORS
330
C
102
}
330
C
100
AcDbDictionary
281
     1
  3
2dWireframe
350
2F
  3
3D Hidden
350
31
  3
3dWireframe
350
30
  3
Basic
350
32
  3
Brighten
350
36
  3
ColorChange
350
3A
  3
Conceptual
350
34
  3
Dim
350
35
  3
Facepattern
350
39
  3
Flat
350
2B
  3
FlatWithEdges
350
2C
  3
Gouraud
350
2D
  3
GouraudWithEdges
350
2E
  3
Linepattern
350
38
  3
Realistic
350
33
  3
Thicken
350
37
  0
DICTIONARY
  5
2B5
102
{ACAD_REACTORS
330
C
102
}
330
C
100
AcDbDictionary
281
     1
  3
PSOLHEIGHT
350
2B7
  3
PSOLWIDTH
350
2B6
  0
LAYOUT
  5
1E
102
{ACAD_REACTORS
330
1A
102
}
330
1A
100
AcDbPlotSettings
  1

  2
none_device
  4

  6

 40
0.0
 41
0.0
 42
0.0
 43
0.0
 44
0.0
 45
0.0
 46
0.0
 47
0.0
 48
0.0
 49
0.0
140
0.0
141
0.0
142
1.0
143
1.0
 70
   688
 72
     0
 73
     0
 74
     5
  7

 75
    16
147
1.0
148
0.0
149
0.0
100
AcDbLayout
  1
Layout1
 70
     1
 71
     1
 10
0.0
 20
0.0
 11
420.0
 21
297.0
 12
0.0
 22
0.0
 32
0.0
 14
1.0000000000E+20
 24
1.0000000000E+20
 34
1.0000000000E+20
 15
-1.0000000000E+20
 25
-1.0000000000E+20
 35
-1.0000000000E+20
146
0.0
 13
0.0
 23
0.0
 33
0.0
 16
1.0
 26
0.0
 36
0.0
 17
0.0
 27
1.0
 37
0.0
 76
     0
330
1B
  0
LAYOUT
  5
26
102
{ACAD_REACTORS
330
1A
102
}
330
1A
100
AcDbPlotSettings
  1

  2
none_device
  4

  6

 40
0.0
 41
0.0
 42
0.0
 43
0.0
 44
0.0
 45
0.0
 46
0.0
 47
0.0
 48
0.0
 49
0.0
140
0.0
141
0.0
142
1.0
143
1.0
 70
   688
 72
     0
 73
     0
 74
     5
  7

 75
    16
147
1.0
148
0.0
149
0.0
100
AcDbLayout
  1
Layout2
 70
     1
 71
     2
 10
0.0
 20
0.0
 11
0.0
 21
0.0
 12
0.0
 22
0.0
 32
0.0
 14
0.0
 24
0.0
 34
0.0
 15
0.0
 25
0.0
 35
0.0
146
0.0
 13
0.0
 23
0.0
 33
0.0
 16
1.0
 26
0.0
 36
0.0
 17
0.0
 27
1.0
 37
0.0
 76
     0
330
23
  0
LAYOUT
  5
22
102
{ACAD_REACTORS
330
1A
102
}
330
1A
100
AcDbPlotSettings
  1

  2
none_device
  4

  6

 40
0.0
 41
0.0
 42
0.0
 43
0.0
 44
0.0
 45
0.0
 46
0.0
 47
0.0
 48
0.0
 49
0.0
140
0.0
141
0.0
142
1.0
143
1.0
 70
  1712
 72
     0
 73
     0
 74
     0
  7

 75
     0
147
1.0
148
0.0
149
0.0
100
AcDbLayout
  1
Model
 70
     1
 71
     0
 10
0.0
 20
0.0
 11
297.0
 21
210.0
 12
0.0
 22
0.0
 32
0.0
 14
0.0
 24
0.0
 34
0.0
 15
297.0
 25
210.0
 35
0.0
146
0.0
 13
0.0
 23
0.0
 33
0.0
 16
1.0
 26
0.0
 36
0.0
 17
0.0
 27
1.0
 37
0.0
 76
     0
330
1F
331
29
  0
MLINESTYLE
  5
18
102
{ACAD_REACTORS
330
17
102
}
330
17
100
AcDbMlineStyle
  2
Standard
 70
     0
  3

 62
   256
 51
90.0
 52
90.0
 71
     2
 49
0.5
 62
   256
  6
BYLAYER
 49
-0.5
 62
   256
  6
BYLAYER
  0
ACDBPLACEHOLDER
  5
F
102
{ACAD_REACTORS
330
E
102
}
330
E
  0
VISUALSTYLE
  5
2F
102
{ACAD_REACTORS
330
2A
102
}
330
2A
100
AcDbVisualStyle
  2
2dWireframe
 70
     4
 71
     0
 72
     2
 73
     0
 90
        0
 40
-0.6
 41
-30.0
 62
     5
 63
     7
 74
     1
 91
        4
 64
     7
 65
   257
 75
     1
175
     1
 42
1.0
 92
        0
 66
   257
 43
1.0
 76
     1
 77
     6
 78
     2
 67
     7
 79
     5
170
     0
171
     0
290
     0
174
     0
 93
        1
 44
0.0
173
     0
291
     0
 45
0.0
1001
ACAD
1000
AcDbSavedByObjectVersion
1070
     0
  0
VISUALSTYLE
  5
31
102
{ACAD_REACTORS
330
2A
102
}
330
2A
100
AcDbVisualStyle
  2
3D Hidden
 70
     6
 71
     1
 72
     2
 73
     2
 90
        0
 40
-0.6
 41
-30.0
 62
     5
 63
     7
 74
     2
 91
        2
 64
     7
 65
   257
 75
     2
175
     1
 42
40.0
 92
        0
 66
   257
 43
1.0
 76
     1
 77
     6
 78
     2
 67
     7
 79
     3
170
     0
171
     0
290
     0
174
     0
 93
        1
 44
0.0
173
     0
291
     0
 45
0.0
1001
ACAD
1000
AcDbSavedByObjectVersion
1070
     0
  0
VISUALSTYLE
  5
30
102
{ACAD_REACTORS
330
2A
102
}
330
2A
100
AcDbVisualStyle
  2
3dWireframe
 70
     5
 71
     0
 72
     2
 73
     0
 90
        0
 40
-0.6
 41
-30.0
 62
     5
 63
     7
 74
     1
 91
        4
 64
     7
 65
   257
 75
     1
175
     1
 42
1.0
 92
        0
 66
   257
 43
1.0
 76
     1
 77
     6
 78
     2
 67
     7
 79
     5
170
     0
171
     0
290
     0
174
     0
 93
        1
 44
0.0
173
     0
291
     0
 45
0.0
1001
ACAD
1000
AcDbSavedByObjectVersion
1070
     0
  0
VISUALSTYLE
  5
32
102
{ACAD_REACTORS
330
2A
102
}
330
2A
100
AcDbVisualStyle
  2
Basic
 70
     7
 71
     1
 72
     0
 73
     1
 90
        0
 40
-0.6
 41
-30.0
 62
     5
 63
     7
 74
     0
 91
        4
 64
     7
 65
   257
 75
     1
175
     1
 42
1.0
 92
        8
 66
     7
 43
1.0
 76
     1
 77
     6
 78
     2
 67
     7
 79
     5
170
     0
171
     0
290
     0
174
     0
 93
        1
 44
0.0
173
     0
291
     1
 45
0.0
1001
ACAD
1000
AcDbSavedByObjectVersion
1070
     0
  0
VISUALSTYLE
  5
36
102
{ACAD_REACTORS
330
2A
102
}
330
2A
100
AcDbVisualStyle
  2
Brighten
 70
    12
 71
     2
 72
     2
 73
     0
 90
        0
 40
-0.6
 41
-30.0
 62
     5
 63
     7
 74
     1
 91
        4
 64
     7
 65
   257
 75
     1
175
     1
 42
1.0
 92
        8
 66
     7
 43
1.0
 76
     1
 77
     6
 78
     2
 67
     7
 79
     5
170
     0
171
     0
290
     0
174
     0
 93
        1
 44
50.0
173
     0
291
     1
 45
0.0
1001
ACAD
1000
AcDbSavedByObjectVersion
1070
     0
  0
VISUALSTYLE
  5
3A
102
{ACAD_REACTORS
330
2A
102
}
330
2A
100
AcDbVisualStyle
  2
ColorChange
 70
    16
 71
     2
 72
     2
 73
     3
 90
        0
 40
-0.6
 41
-30.0
 62
     5
 63
     8
 74
     1
 91
        4
 64
     7
 65
   257
 75
     1
175
     1
 42
1.0
 92
        8
 66
     8
 43
1.0
 76
     1
 77
     6
 78
     2
 67
     7
 79
     5
170
     0
171
     0
290
     0
174
     0
 93
        1
 44
0.0
173
     0
291
     1
 45
0.0
1001
ACAD
1000
AcDbSavedByObjectVersion
1070
     0
  0
VISUALSTYLE
  5
34
102
{ACAD_REACTORS
330
2A
102
}
330
2A
100
AcDbVisualStyle
  2
Conceptual
 70
     9
 71
     3
 72
     2
 73
     0
 90
        0
 40
-0.6
 41
-30.0
 62
     5
 63
     7
 74
     2
 91
        2
 64
     7
 65
   257
 75
     1
175
     1
 42
40.0
 92
        8
 66
     7
 43
1.0
 76
     1
 77
     6
 78
     2
 67
     7
 79
     3
170
     0
171
     0
290
     0
174
     0
 93
        1
 44
0.0
173
     0
291
     0
 45
0.0
1001
ACAD
1000
AcDbSavedByObjectVersion
1070
     0
  0
VISUALSTYLE
  5
35
102
{ACAD_REACTORS
330
2A
102
}
330
2A
100
AcDbVisualStyle
  2
Dim
 70
    11
 71
     2
 72
     2
 73
     0
 90
        0
 40
-0.6
 41
-30.0
 62
     5
 63
     7
 74
     1
 91
        4
 64
     7
 65
   257
 75
     1
175
     1
 42
1.0
 92
        8
 66
     7
 43
1.0
 76
     1
 77
     6
 78
     2
 67
     7
 79
     5
170
     0
171
     0
290
     0
174
     0
 93
        1
 44
-50.0
173
     0
291
     1
 45
0.0
1001
ACAD
1000
AcDbSavedByObjectVersion
1070
     0
  0
VISUALSTYLE
  5
39
102
{ACAD_REACTORS
330
2A
102
}
330
2A
100
AcDbVisualStyle
  2
Facepattern
 70
    15
 71
     2
 72
     2
 73
     0
 90
        0
 40
-0.6
 41
-30.0
 62
     5
 63
     7
 74
     1
 91
        4
 64
     7
 65
   257
 75
     1
175
     1
 42
1.0
 92
        8
 66
     7
 43
1.0
 76
     1
 77
     6
 78
     2
 67
     7
 79
     5
170
     0
171
     0
290
     0
174
     0
 93
        1
 44
0.0
173
     0
291
     1
 45
0.0
1001
ACAD
1000
AcDbSavedByObjectVersion
1070
     0
  0
VISUALSTYLE
  5
2B
102
{ACAD_REACTORS
330
2A
102
}
330
2A
100
AcDbVisualStyle
  2
Flat
 70
     0
 71
     2
 72
     1
 73
     1
 90
        2
 40
-0.6
 41
30.0
 62
     5
 63
     7
 74
     0
 91
        4
 64
     7
 65
   257
 75
     1
175
     1
 42
1.0
 92
        8
 66
     7
 43
1.0
 76
     1
 77
     6
 78
     2
 67
     7
 79
     5
170
     0
171
     0
290
     0
174
     0
 93
       13
 44
0.0
173
     0
291
     1
 45
0.0
1001
ACAD
1000
AcDbSavedByObjectVersion
1070
     0
  0
VISUALSTYLE
  5
2C
102
{ACAD_REACTORS
330
2A
102
}
330
2A
100
AcDbVisualStyle
  2
FlatWithEdges
 70
     1
 71
     2
 72
     1
 73
     1
 90
        2
 40
-0.6
 41
30.0
 62
     5
 63
     7
 74
     1
 91
        4
 64
     7
 65
   257
 75
     1
175
     1
 42
1.0
 92
        0
 66
   257
 43
1.0
 76
     1
 77
     6
 78
     2
 67
     7
 79
     5
170
     0
171
     0
290
     0
174
     0
 93
       13
 44
0.0
173
     0
291
     1
 45
0.0
1001
ACAD
1000
AcDbSavedByObjectVersion
1070
     0
  0
VISUALSTYLE
  5
2D
102
{ACAD_REACTORS
330
2A
102
}
330
2A
100
AcDbVisualStyle
  2
Gouraud
 70
     2
 71
     2
 72
     2
 73
     1
 90
        2
 40
-0.6
 41
30.0
 62
     5
 63
     7
 74
     0
 91
        4
 64
     7
 65
   257
 75
     1
175
     1
 42
1.0
 92
        0
 66
     7
 43
1.0
 76
     1
 77
     6
 78
     2
 67
     7
 79
     5
170
     0
171
     0
290
     0
174
     0
 93
       13
 44
0.0
173
     0
291
     1
 45
0.0
1001
ACAD
1000
AcDbSavedByObjectVersion
1070
     0
  0
VISUALSTYLE
  5
2E
102
{ACAD_REACTORS
330
2A
102
}
330
2A
100
AcDbVisualStyle
  2
GouraudWithEdges
 70
     3
 71
     2
 72
     2
 73
     1
 90
        2
 40
-0.6
 41
30.0
 62
     5
 63
     7
 74
     1
 91
        4
 64
     7
 65
   257
 75
     1
175
     1
 42
1.0
 92
        0
 66
   257
 43
1.0
 76
     1
 77
     6
 78
     2
 67
     7
 79
     5
170
     0
171
     0
290
     0
174
     0
 93
       13
 44
0.0
173
     0
291
     1
 45
0.0
1001
ACAD
1000
AcDbSavedByObjectVersion
1070
     0
  0
VISUALSTYLE
  5
38
102
{ACAD_REACTORS
330
2A
102
}
330
2A
100
AcDbVisualStyle
  2
Linepattern
 70
    14
 71
     2
 72
     2
 73
     0
 90
        0
 40
-0.6
 41
-30.0
 62
     5
 63
     7
 74
     1
 91
        4
 64
     7
 65
   257
 75
     7
175
     7
 42
1.0
 92
        8
 66
     7
 43
1.0
 76
     1
 77
     6
 78
     2
 67
     7
 79
     5
170
     0
171
     0
290
     0
174
     0
 93
        1
 44
0.0
173
     0
291
     1
 45
0.0
1001
ACAD
1000
AcDbSavedByObjectVersion
1070
     0
  0
VISUALSTYLE
  5
33
102
{ACAD_REACTORS
330
2A
102
}
330
2A
100
AcDbVisualStyle
  2
Realistic
 70
     8
 71
     2
 72
     2
 73
     0
 90
        0
 40
-0.6
 41
-30.0
 62
     5
 63
     7
 74
     1
 91
        0
 64
     7
 65
   257
 75
     1
175
     1
 42
1.0
 92
        8
 66
     8
 43
1.0
 76
     1
 77
     6
 78
     2
 67
     7
 79
     5
170
     0
171
     0
290
     0
174
     0
 93
       13
 44
0.0
173
     0
291
     0
 45
0.0
1001
ACAD
1000
AcDbSavedByObjectVersion
1070
     0
  0
VISUALSTYLE
  5
37
102
{ACAD_REACTORS
330
2A
102
}
330
2A
100
AcDbVisualStyle
  2
Thicken
 70
    13
 71
     2
 72
     2
 73
     0
 90
        0
 40
-0.6
 41
-30.0
 62
     5
 63
     7
 74
     1
 91
        4
 64
     7
 65
   257
 75
     1
175
     1
 42
1.0
 92
       12
 66
     7
 43
1.0
 76
     1
 77
     6
 78
     2
 67
     7
 79
     5
170
     0
171
     0
290
     0
174
     0
 93
        1
 44
0.0
173
     0
291
     1
 45
0.0
1001
ACAD
1000
AcDbSavedByObjectVersion
1070
     0
  0
DICTIONARYVAR
  5
2B7
102
{ACAD_REACTORS
330
2B5
102
}
330
2B5
100
DictionaryVariables
280
     0
  1
80.000000
  0
DICTIONARYVAR
  5
2B6
102
{ACAD_REACTORS
330
2B5
102
}
330
2B5
100
DictionaryVariables
280
     0
  1
5.000000
  0
ENDSEC
  0
EOF
