  0
SECTION
  2
HEADER
  9
$ACADVER
  1
AC1015
  9
$ACADMAINTVER
 70
     6
  9
$DWGCODEPAGE
  3
ANSI_1252
  9
$INSBASE
 10
0.0
 20
0.0
 30
0.0
  9
$EXTMIN
 10
0.0
 20
0.0
 30
0.0
  9
$EXTMAX
 10
297.0
 20
210.0
 30
0.0
  9
$LIMMIN
 10
0.0
 20
0.0
  9
$LIMMAX
 10
297.0
 20
210.0
  9
$ORTHOMODE
 70
     0
  9
$REGENMODE
 70
     1
  9
$FILLMODE
 70
     1
  9
$QTEXTMODE
 70
     0
  9
$MIRRTEXT
 70
     1
  9
$LTSCALE
 40
1.0
  9
$ATTMODE
 70
     1
  9
$TEXTSIZE
 40
2.0
  9
$TRACEWID
 40
1.0
  9
$TEXTSTYLE
  7
Standard
  9
$CLAYER
  8
0
  9
$CELTYPE
  6
ByLayer
  9
$CECOLOR
 62
   256
  9
$CELTSCALE
 40
1.0
  9
$DISPSILH
 70
     0
  9
$DIMSCALE
 40
1.0
  9
$DIMASZ
 40
3.0
  9
$DIMEXO
 40
0.0
  9
$DIMDLI
 40
3.75
  9
$DIMRND
 40
0.0
  9
$DIMDLE
 40
0.0
  9
$DIMEXE
 40
1.0
  9
$DIMTP
 40
0.0
  9
$DIMTM
 40
0.0
  9
$DIMTXT
 40
2.0
  9
$DIMCEN
 40
2.5
  9
$DIMTSZ
 40
0.0
  9
$DIMTOL
 70
     0
  9
$DIMLIM
 70
     0
  9
$DIMTIH
 70
     1
  9
$DIMTOH
 70
     1
  9
$DIMSE1
 70
     0
  9
$DIMSE2
 70
     0
  9
$DIMTAD
 70
     1
  9
$DIMZIN
 70
     0
  9
$DIMBLK
  1

  9
$DIMASO
 70
     1
  9
$DIMSHO
 70
     1
  9
$DIMPOST
  1

  9
$DIMAPOST
  1

  9
$DIMALT
 70
     0
  9
$DIMALTD
 70
     3
  9
$DIMALTF
 40
0.0393700787
  9
$DIMLFAC
 40
1.0
  9
$DIMTOFL
 70
     1
  9
$DIMTVP
 40
0.0
  9
$DIMTIX
 70
     0
  9
$DIMSOXD
 70
     0
  9
$DIMSAH
 70
     0
  9
$DIMBLK1
  1

  9
$DIMBLK2
  1

  9
$DIMSTYLE
  2
ISO-25
  9
$DIMCLRD
 70
     0
  9
$DIMCLRE
 70
     0
  9
$DIMCLRT
 70
     0
  9
$DIMTFAC
 40
1.0
  9
$DIMGAP
 40
1.524
  9
$DIMJUST
 70
     0
  9
$DIMSD1
 70
     0
  9
$DIMSD2
 70
     0
  9
$DIMTOLJ
 70
     0
  9
$DIMTZIN
 70
     0
  9
$DIMALTZ
 70
     0
  9
$DIMALTTZ
 70
     0
  9
$DIMUPT
 70
     0
  9
$DIMDEC
 70
     2
  9
$DIMTDEC
 70
     2
  9
$DIMALTU
 70
     2
  9
$DIMALTTD
 70
     3
  9
$DIMTXSTY
  7
Standard
  9
$DIMAUNIT
 70
     0
  9
$DIMADEC
 70
     0
  9
$DIMALTRND
 40
0.0
  9
$DIMAZIN
 70
     0
  9
$DIMDSEP
 70
    44
  9
$DIMATFIT
 70
     3
  9
$DIMFRAC
 70
     0
  9
$DIMLDRBLK
  1

  9
$DIMLUNIT
 70
     2
  9
$DIMLWD
 70
    -2
  9
$DIMLWE
 70
    -2
  9
$DIMTMOVE
 70
     0
  9
$LUNITS
 70
     2
  9
$LUPREC
 70
     2
  9
$SKETCHINC
 40
1.0
  9
$FILLETRAD
 40
10.0
  9
$AUNITS
 70
     0
  9
$AUPREC
 70
     0
  9
$MENU
  1
.
  9
$ELEVATION
 40
0.0
  9
$PELEVATION
 40
0.0
  9
$THICKNESS
 40
0.0
  9
$LIMCHECK
 70
     0
  9
$CHAMFERA
 40
10.0
  9
$CHAMFERB
 40
10.0
  9
$CHAMFERC
 40
20.0
  9
$CHAMFERD
 40
0.0
  9
$SKPOLY
 70
     0
  9
$TDCREATE
 40
2455358.663561539
  9
$TDUCREATE
 40
2455358.580228206
  9
$TDUPDATE
 40
2455358.663561551
  9
$TDUUPDATE
 40
2455358.580228217
  9
$TDINDWG
 40
0.0000000116
  9
$TDUSRTIMER
 40
0.0000000116
  9
$USRTIMER
 70
     1
  9
$ANGBASE
 50
0.0
  9
$ANGDIR
 70
     0
  9
$PDMODE
 70
     0
  9
$PDSIZE
 40
-1.0
  9
$PLINEWID
 40
0.0
  9
$SPLFRAME
 70
     0
  9
$SPLINETYPE
 70
     6
  9
$SPLINESEGS
 70
     8
  9
$HANDSEED
  5
2B9
  9
$SURFTAB1
 70
     6
  9
$SURFTAB2
 70
     6
  9
$SURFTYPE
 70
     6
  9
$SURFU
 70
     6
  9
$SURFV
 70
     6
  9
$UCSBASE
  2

  9
$UCSNAME
  2

  9
$UCSORG
 10
0.0
 20
0.0
 30
0.0
  9
$UCSXDIR
 10
1.0
 20
0.0
 30
0.0
  9
$UCSYDIR
 10
0.0
 20
1.0
 30
0.0
  9
$UCSORTHOREF
  2

  9
$UCSORTHOVIEW
 70
     0
  9
$UCSORGTOP
 10
0.0
 20
0.0
 30
0.0
  9
$UCSORGBOTTOM
 10
0.0
 20
0.0
 30
0.0
  9
$UCSORGLEFT
 10
0.0
 20
0.0
 30
0.0
  9
$UCSORGRIGHT
 10
0.0
 20
0.0
 30
0.0
  9
$UCSORGFRONT
 10
0.0
 20
0.0
 30
0.0
  9
$UCSORGBACK
 10
0.0
 20
0.0
 30
0.0
  9
$PUCSBASE
  2

  9
$PUCSNAME
  2

  9
$PUCSORG
 10
0.0
 20
0.0
 30
0.0
  9
$PUCSXDIR
 10
1.0
 20
0.0
 30
0.0
  9
$PUCSYDIR
 10
0.0
 20
1.0
 30
0.0
  9
$PUCSORTHOREF
  2

  9
$PUCSORTHOVIEW
 70
     0
  9
$PUCSORGTOP
 10
0.0
 20
0.0
 30
0.0
  9
$PUCSORGBOTTOM
 10
0.0
 20
0.0
 30
0.0
  9
$PUCSORGLEFT
 10
0.0
 20
0.0
 30
0.0
  9
$PUCSORGRIGHT
 10
0.0
 20
0.0
 30
0.0
  9
$PUCSORGFRONT
 10
0.0
 20
0.0
 30
0.0
  9
$PUCSORGBACK
 10
0.0
 20
0.0
 30
0.0
  9
$USERI1
 70
     0
  9
$USERI2
 70
     0
  9
$USERI3
 70
     0
  9
$USERI4
 70
     0
  9
$USERI5
 70
     0
  9
$USERR1
 40
0.0
  9
$USERR2
 40
0.0
  9
$USERR3
 40
0.0
  9
$USERR4
 40
0.0
  9
$USERR5
 40
0.0
  9
$WORLDVIEW
 70
     1
  9
$SHADEDGE
 70
     3
  9
$SHADEDIF
 70
    70
  9
$TILEMODE
 70
     1
  9
$MAXACTVP
 70
    64
  9
$PINSBASE
 10
0.0
 20
0.0
 30
0.0
  9
$PLIMCHECK
 70
     0
  9
$PEXTMIN
 10
1.0000000000E+20
 20
1.0000000000E+20
 30
1.0000000000E+20
  9
$PEXTMAX
 10
-1.0000000000E+20
 20
-1.0000000000E+20
 30
-1.0000000000E+20
  9
$PLIMMIN
 10
0.0
 20
0.0
  9
$PLIMMAX
 10
420.0
 20
297.0
  9
$UNITMODE
 70
     0
  9
$VISRETAIN
 70
     1
  9
$PLINEGEN
 70
     0
  9
$PSLTSCALE
 70
     1
  9
$TREEDEPTH
 70
  3020
  9
$CMLSTYLE
  2
Standard
  9
$CMLJUST
 70
     0
  9
$CMLSCALE
 40
20.0
  9
$PROXYGRAPHICS
 70
     1
  9
$MEASUREMENT
 70
     1
  9
$CELWEIGHT
370
    -1
  9
$ENDCAPS
280
     0
  9
$JOINSTYLE
280
     0
  9
$LWDISPLAY
290
     1
  9
$INSUNITS
 70
     4
  9
$HYPERLINKBASE
  1

  9
$STYLESHEET
  1

  9
$XEDIT
290
     1
  9
$CEPSNTYPE
380
     0
  9
$PSTYLEMODE
290
     1
  9
$FINGERPRINTGUID
  2
{E98980E7-40A3-4267-A3B0-A6D037CBC298}
  9
$VERSIONGUID
  2
{FAEB1C32-E019-11D5-929B-00C0DF256EC4}
  9
$EXTNAMES
290
     1
  9
$PSVPSCALE
 40
0.0
  9
$OLESTARTUP
290
     0
  0
ENDSEC
  0
SECTION
  2
CLASSES
  0
CLASS
  1
ACDBDICTIONARYWDFLT
  2
AcDbDictionaryWithDefault
  3
ObjectDBX Classes
 90
        0
280
     0
281
     0
  0
CLASS
  1
VISUALSTYLE
  2
AcDbVisualStyle
  3
ObjectDBX Classes
 90
     4095
280
     0
281
     0
  0
CLASS
  1
DICTIONARYVAR
  2
AcDbDictionaryVar
  3
ObjectDBX Classes
 90
        0
280
     0
281
     0
  0
CLASS
  1
ACDBPLACEHOLDER
  2
AcDbPlaceHolder
  3
ObjectDBX Classes
 90
        0
280
     0
281
     0
  0
CLASS
  1
LAYOUT
  2
AcDbLayout
  3
ObjectDBX Classes
 90
        0
280
     0
281
     0
  0
ENDSEC
  0
SECTION
  2
TABLES
  0
TABLE
  2
VPORT
  5
8
330
0
100
AcDbSymbolTable
 70
     1
  0
VPORT
  5
29
330
8
100
AcDbSymbolTableRecord
100
AcDbViewportTableRecord
  2
*Active
 70
     0
 10
0.0
 20
0.0
 11
1.0
 21
1.0
 12
148.5
 22
105.0
 13
0.0
 23
0.0
 14
10.0
 24
10.0
 15
10.0
 25
10.0
 16
0.0
 26
0.0
 36
1.0
 17
0.0
 27
0.0
 37
0.0
 40
210.0
 41
1.4142857143
 42
50.0
 43
0.0
 44
0.0
 50
0.0
 51
0.0
 71
     0
 72
  2000
 73
     1
 74
     3
 75
     0
 76
     0
 77
     0
 78
     0
281
     0
 65
     1
110
0.0
120
0.0
130
0.0
111
1.0
121
0.0
131
0.0
112
0.0
122
1.0
132
0.0
 79
     0
146
0.0
  0
ENDTAB
  0
TABLE
  2
LTYPE
  5
5
330
0
100
AcDbSymbolTable
 70
     6
  0
LTYPE
  5
14
330
5
100
AcDbSymbolTableRecord
100
AcDbLinetypeTableRecord
  2
ByBlock
 70
     0
  3

 72
    65
 73
     0
 40
0.0
  0
LTYPE
  5
15
330
5
100
AcDbSymbolTableRecord
100
AcDbLinetypeTableRecord
  2
ByLayer
 70
     0
  3

 72
    65
 73
     0
 40
0.0
  0
LTYPE
  5
16
330
5
100
AcDbSymbolTableRecord
100
AcDbLinetypeTableRecord
  2
Continuous
 70
     0
  3
Solid line
 72
    65
 73
     0
 40
0.0
  0
LTYPE
  5
3B
330
5
100
AcDbSymbolTableRecord
100
AcDbLinetypeTableRecord
  2
HIDDEN
 70
     0
  3
Hidden __ __ __ __ __ __ __ __ __ __ __ __ __ __
 72
    65
 73
     2
 40
1.905
 49
1.27
 74
     0
 49
-0.635
 74
     0
  0
LTYPE
  5
3C
330
5
100
AcDbSymbolTableRecord
100
AcDbLinetypeTableRecord
  2
PHANTOM
 70
     0
  3
Phantom ______  __  __  ______  __  __  ______
 72
    65
 73
     6
 40
12.7
 49
6.35
 74
     0
 49
-1.27
 74
     0
 49
1.27
 74
     0
 49
-1.27
 74
     0
 49
1.27
 74
     0
 49
-1.27
 74
     0
  0
LTYPE
  5
3D
330
5
100
AcDbSymbolTableRecord
100
AcDbLinetypeTableRecord
  2
CENTER
 70
     0
  3
Center ____ _ ____ _ ____ _ ____ _ ____ _ ____
 72
    65
 73
     4
 40
10.16
 49
6.35
 74
     0
 49
-1.27
 74
     0
 49
1.27
 74
     0
 49
-1.27
 74
     0
  0
LTYPE
  5
3E
330
5
100
AcDbSymbolTableRecord
100
AcDbLinetypeTableRecord
  2
CENTERX2
 70
     0
  3
Center (2x) ________  __  ________  __  _____
 72
    65
 73
     4
 40
20.32
 49
12.7
 74
     0
 49
-2.54
 74
     0
 49
2.54
 74
     0
 49
-2.54
 74
     0
  0
LTYPE
  5
3F
330
5
100
AcDbSymbolTableRecord
100
AcDbLinetypeTableRecord
  2
DOT2
 70
     0
  3
Dot (.5x) ........................................
 72
    65
 73
     2
 40
0.635
 49
0.0
 74
     0
 49
-0.635
 74
     0
  0
ENDTAB
  0
TABLE
  2
LAYER
  5
2
330
0
100
AcDbSymbolTable
 70
     5
  0
LAYER
  5
10
330
2
100
AcDbSymbolTableRecord
100
AcDbLayerTableRecord
  2
0
 70
     0
 62
     7
  6
Continuous
370
    -3
390
F
  0
LAYER
  5
40
330
2
100
AcDbSymbolTableRecord
100
AcDbLayerTableRecord
  2
FORMAT
 70
     0
 62
     7
  6
Continuous
370
    -3
390
F
  0
LAYER
  5
41
330
2
100
AcDbSymbolTableRecord
100
AcDbLayerTableRecord
  2
VERMASSUNG
 70
     0
 62
     7
  6
Continuous
370
    -3
390
F
  0
LAYER
  5
42
330
2
100
AcDbSymbolTableRecord
100
AcDbLayerTableRecord
  2
KOPF_DÜNN
 70
     0
 62
     7
  6
Continuous
370
    -3
390
F
  0
LAYER
  5
43
330
2
100
AcDbSymbolTableRecord
100
AcDbLayerTableRecord
  2
KOPF_DICK
 70
     0
 62
     7
  6
Continuous
370
    15
390
F
  0
ENDTAB
  0
TABLE
  2
STYLE
  5
3
330
0
100
AcDbSymbolTable
 70
     3
  0
STYLE
  5
11
330
3
100
AcDbSymbolTableRecord
100
AcDbTextStyleTableRecord
  2
Standard
 70
     0
 40
0.0
 41
1.0
 50
0.0
 71
     0
 42
2.5
  3
txt
  4

  0
STYLE
  5
44
330
3
100
AcDbSymbolTableRecord
100
AcDbTextStyleTableRecord
  2
SLDTEXTSTYLE0
 70
     0
 40
0.0
 41
0.7
 50
0.0
 71
     0
 42
0.2
  3
TXT
  4

  0
STYLE
  5
48
330
3
100
AcDbSymbolTableRecord
100
AcDbTextStyleTableRecord
  2
SLDTEXTSTYLE1
 70
     0
 40
0.0
 41
0.6384615385
 50
0.0
 71
     0
 42
0.2
  3
TXT
  4

  0
ENDTAB
  0
TABLE
  2
VIEW
  5
6
330
0
100
AcDbSymbolTable
 70
     0
  0
ENDTAB
  0
TABLE
  2
UCS
  5
7
330
0
100
AcDbSymbolTable
 70
     0
  0
ENDTAB
  0
TABLE
  2
APPID
  5
9
330
0
100
AcDbSymbolTable
 70
     1
  0
APPID
  5
12
330
9
100
AcDbSymbolTableRecord
100
AcDbRegAppTableRecord
  2
ACAD
 70
     0
  0
ENDTAB
  0
TABLE
  2
DIMSTYLE
  5
A
330
0
100
AcDbSymbolTable
 70
     2
100
AcDbDimStyleTable
  0
DIMSTYLE
105
27
330
A
100
AcDbSymbolTableRecord
100
AcDbDimStyleTableRecord
  2
ISO-25
 70
     0
 41
2.5
 42
0.625
 43
3.75
 44
1.25
 73
     0
 74
     0
 77
     1
 78
     8
140
2.5
141
2.5
143
0.0393700787
147
0.625
171
     3
172
     1
271
     2
272
     2
274
     3
278
    44
283
     0
284
     8
340
11
  0
DIMSTYLE
105
19C
102
{ACAD_REACTORS
330
19B
330
1A8
330
1B3
330
1BE
330
1C8
330
1D2
330
1DC
330
1E6
330
1F0
330
1FA
102
}
330
A
100
AcDbSymbolTableRecord
100
AcDbDimStyleTableRecord
  2
SLDDIMSTYLE0
 70
     0
 41
3.0
 44
0.0
 45
0.000000001
 73
     0
 74
     0
 77
     1
 78
    12
140
2.0
147
0.5
173
     1
271
     2
272
     3
284
    12
340
44
  0
ENDTAB
  0
TABLE
  2
BLOCK_RECORD
  5
1
330
0
100
AcDbSymbolTable
 70
    12
  0
BLOCK_RECORD
  5
1F
330
1
100
AcDbSymbolTableRecord
100
AcDbBlockTableRecord
  2
*Model_Space
340
22
  0
BLOCK_RECORD
  5
1B
330
1
100
AcDbSymbolTableRecord
100
AcDbBlockTableRecord
  2
*Paper_Space
340
1E
  0
BLOCK_RECORD
  5
23
330
1
100
AcDbSymbolTableRecord
100
AcDbBlockTableRecord
  2
*Paper_Space0
340
26
  0
BLOCK_RECORD
  5
19D
330
1
100
AcDbSymbolTableRecord
100
AcDbBlockTableRecord
  2
*D1
340
0
  0
BLOCK_RECORD
  5
1A9
330
1
100
AcDbSymbolTableRecord
100
AcDbBlockTableRecord
  2
*D2
340
0
  0
BLOCK_RECORD
  5
1B4
330
1
100
AcDbSymbolTableRecord
100
AcDbBlockTableRecord
  2
*D3
340
0
  0
BLOCK_RECORD
  5
1BF
330
1
100
AcDbSymbolTableRecord
100
AcDbBlockTableRecord
  2
*D4
340
0
  0
BLOCK_RECORD
  5
1C9
330
1
100
AcDbSymbolTableRecord
100
AcDbBlockTableRecord
  2
*D5
340
0
  0
BLOCK_RECORD
  5
1D3
330
1
100
AcDbSymbolTableRecord
100
AcDbBlockTableRecord
  2
*D6
340
0
  0
BLOCK_RECORD
  5
1DD
330
1
100
AcDbSymbolTableRecord
100
AcDbBlockTableRecord
  2
*D7
340
0
  0
BLOCK_RECORD
  5
1E7
330
1
100
AcDbSymbolTableRecord
100
AcDbBlockTableRecord
  2
*D8
340
0
  0
BLOCK_RECORD
  5
1F1
330
1
100
AcDbSymbolTableRecord
100
AcDbBlockTableRecord
  2
*D9
340
0
  0
BLOCK_RECORD
  5
1FB
330
1
100
AcDbSymbolTableRecord
100
AcDbBlockTableRecord
  2
*D10
340
0
  0
BLOCK_RECORD
  5
2A6
330
1
100
AcDbSymbolTableRecord
100
AcDbBlockTableRecord
  2
SW_CENTERMARKSYMBOL_0
340
0
102
{BLKREFS
331
2B1
102
}
  0
ENDTAB
  0
ENDSEC
  0
SECTION
  2
BLOCKS
  0
BLOCK
  5
20
330
1F
100
AcDbEntity
  8
0
100
AcDbBlockBegin
  2
*Model_Space
 70
     0
 10
0.0
 20
0.0
 30
0.0
  3
*Model_Space
  1

  0
ENDBLK
  5
21
330
1F
100
AcDbEntity
  8
0
100
AcDbBlockEnd
  0
BLOCK
  5
1C
330
1B
100
AcDbEntity
 67
     1
  8
0
100
AcDbBlockBegin
  2
*Paper_Space
 70
     0
 10
0.0
 20
0.0
 30
0.0
  3
*Paper_Space
  1

  0
ENDBLK
  5
1D
330
1B
100
AcDbEntity
 67
     1
  8
0
100
AcDbBlockEnd
  0
BLOCK
  5
24
330
23
100
AcDbEntity
  8
0
100
AcDbBlockBegin
  2
*Paper_Space0
 70
     0
 10
0.0
 20
0.0
 30
0.0
  3
*Paper_Space0
  1

  0
ENDBLK
  5
25
330
23
100
AcDbEntity
  8
0
100
AcDbBlockEnd
  0
BLOCK
  5
19E
330
19D
100
AcDbEntity
  8
0
100
AcDbBlockBegin
  2
*D1
 70
     1
 10
0.0
 20
0.0
 30
0.0
  3
*D1
  1

  0
SOLID
  5
1A0
330
19D
100
AcDbEntity
  8
VERMASSUNG
100
AcDbTrace
 10
20.539390642
 20
150.8343852013
 30
0.0
 11
20.089390642
 21
147.8343852013
 31
0.0
 12
20.989390642
 22
147.8343852013
 32
0.0
 13
20.989390642
 23
147.8343852013
 33
0.0
  0
SOLID
  5
1A1
330
19D
100
AcDbEntity
  8
VERMASSUNG
100
AcDbTrace
 10
20.539390642
 20
87.8343852013
 30
0.0
 11
20.989390642
 21
90.8343852013
 31
0.0
 12
20.089390642
 22
90.8343852013
 32
0.0
 13
20.089390642
 23
90.8343852013
 33
0.0
  0
LINE
  5
1A2
330
19D
100
AcDbEntity
  8
VERMASSUNG
100
AcDbLine
 10
66.5225244831
 20
150.8343852013
 30
0.0
 11
19.539390642
 21
150.8343852013
 31
0.0
  0
LINE
  5
1A3
330
19D
100
AcDbEntity
  8
VERMASSUNG
100
AcDbLine
 10
66.5225244831
 20
87.8343852013
 30
0.0
 11
19.539390642
 21
87.8343852013
 31
0.0
  0
LINE
  5
1A4
330
19D
100
AcDbEntity
  8
VERMASSUNG
100
AcDbLine
 10
20.539390642
 20
150.8343852013
 30
0.0
 11
20.539390642
 21
87.8343852013
 31
0.0
  0
MTEXT
  5
1A5
330
19D
100
AcDbEntity
  8
VERMASSUNG
100
AcDbMText
 10
17.7612553858
 20
113.2300348205
 30
0.0
 40
2.0
 41
0.0
 71
     1
 72
     1
  1
PSC 
  7
SLDTEXTSTYLE0
 11
-7.044195017643634E-15
 21
1.0
 31
0.0
 73
     1
 44
1.0
  0
MTEXT
  5
1A6
330
19D
100
AcDbEntity
  8
VERMASSUNG
100
AcDbMText
 10
17.9612553371
 20
119.0300347467
 30
0.0
 40
2.0
 41
0.0
 71
     1
 72
     1
  1
%%c
  7
SLDTEXTSTYLE0
 11
-7.044195017643634E-15
 21
1.0
 31
0.0
 73
     1
 44
1.0
  0
MTEXT
  5
1A7
330
19D
100
AcDbEntity
  8
VERMASSUNG
100
AcDbMText
 10
17.961255046
 20
122.6394515778
 30
0.0
 40
2.0
 41
0.0
 71
     1
 72
     1
  1
63
  7
SLDTEXTSTYLE0
 11
-7.044195017643634E-15
 21
1.0
 31
0.0
 73
     1
 44
1.0
  0
ENDBLK
  5
19F
330
19D
100
AcDbEntity
  8
0
100
AcDbBlockEnd
  0
BLOCK
  5
1AA
330
1A9
100
AcDbEntity
  8
0
100
AcDbBlockBegin
  2
*D2
 70
     1
 10
0.0
 20
0.0
 30
0.0
  3
*D2
  1

  0
SOLID
  5
1AC
330
1A9
100
AcDbEntity
  8
VERMASSUNG
100
AcDbTrace
 10
182.2225244831
 20
147.3343852013
 30
0.0
 11
181.7725244831
 21
144.3343852013
 31
0.0
 12
182.6725244831
 22
144.3343852013
 32
0.0
 13
182.6725244831
 23
144.3343852013
 33
0.0
  0
SOLID
  5
1AD
330
1A9
100
AcDbEntity
  8
VERMASSUNG
100
AcDbTrace
 10
182.2225244831
 20
91.3343852013
 30
0.0
 11
182.6725244831
 21
94.3343852013
 31
0.0
 12
181.7725244831
 22
94.3343852013
 32
0.0
 13
181.7725244831
 23
94.3343852013
 33
0.0
  0
LINE
  5
1AE
330
1A9
100
AcDbEntity
  8
VERMASSUNG
100
AcDbLine
 10
120.2225244831
 20
147.3343852013
 30
0.0
 11
183.2225244831
 21
147.3343852013
 31
0.0
  0
LINE
  5
1AF
330
1A9
100
AcDbEntity
  8
VERMASSUNG
100
AcDbLine
 10
165.2225244831
 20
91.3343852013
 30
0.0
 11
183.2225244831
 21
91.3343852013
 31
0.0
  0
LINE
  5
1B0
330
1A9
100
AcDbEntity
  8
VERMASSUNG
100
AcDbLine
 10
182.2225244831
 20
147.3343852013
 30
0.0
 11
182.2225244831
 21
91.3343852013
 31
0.0
  0
MTEXT
  5
1B1
330
1A9
100
AcDbEntity
  8
VERMASSUNG
100
AcDbMText
 10
179.6443889454
 20
116.1307083787
 30
0.0
 40
2.0
 41
0.0
 71
     1
 72
     1
  1
%%c
  7
SLDTEXTSTYLE0
 11
-7.044195017643634E-15
 21
1.0
 31
0.0
 73
     1
 44
1.0
  0
MTEXT
  5
1B2
330
1A9
100
AcDbEntity
  8
VERMASSUNG
100
AcDbMText
 10
179.6443888872
 20
119.7387780196
 30
0.0
 40
2.0
 41
0.0
 71
     1
 72
     1
  1
56
  7
SLDTEXTSTYLE0
 11
-7.044195017643634E-15
 21
1.0
 31
0.0
 73
     1
 44
1.0
  0
ENDBLK
  5
1AB
330
1A9
100
AcDbEntity
  8
0
100
AcDbBlockEnd
  0
BLOCK
  5
1B5
330
1B4
100
AcDbEntity
  8
0
100
AcDbBlockBegin
  2
*D3
 70
     1
 10
0.0
 20
0.0
 30
0.0
  3
*D3
  1

  0
SOLID
  5
1B7
330
1B4
100
AcDbEntity
  8
VERMASSUNG
100
AcDbTrace
 10
176.2225244831
 20
135.3343852013
 30
0.0
 11
175.7725244831
 21
132.3343852013
 31
0.0
 12
176.6725244831
 22
132.3343852013
 32
0.0
 13
176.6725244831
 23
132.3343852013
 33
0.0
  0
SOLID
  5
1B8
330
1B4
100
AcDbEntity
  8
VERMASSUNG
100
AcDbTrace
 10
176.2225244831
 20
103.3343852013
 30
0.0
 11
176.6725244831
 21
106.3343852013
 31
0.0
 12
175.7725244831
 22
106.3343852013
 32
0.0
 13
175.7725244831
 23
106.3343852013
 33
0.0
  0
LINE
  5
1B9
330
1B4
100
AcDbEntity
  8
VERMASSUNG
100
AcDbLine
 10
165.7225244831
 20
135.3343852013
 30
0.0
 11
177.2225244831
 21
135.3343852013
 31
0.0
  0
LINE
  5
1BA
330
1B4
100
AcDbEntity
  8
VERMASSUNG
100
AcDbLine
 10
165.7225244831
 20
103.3343852013
 30
0.0
 11
177.2225244831
 21
103.3343852013
 31
0.0
  0
LINE
  5
1BB
330
1B4
100
AcDbEntity
  8
VERMASSUNG
100
AcDbLine
 10
176.2225244831
 20
135.3343852013
 30
0.0
 11
176.2225244831
 21
103.3343852013
 31
0.0
  0
MTEXT
  5
1BC
330
1B4
100
AcDbEntity
  8
VERMASSUNG
100
AcDbMText
 10
173.6443889454
 20
116.1307083787
 30
0.0
 40
2.0
 41
0.0
 71
     1
 72
     1
  1
%%c
  7
SLDTEXTSTYLE0
 11
-7.044195017643634E-15
 21
1.0
 31
0.0
 73
     1
 44
1.0
  0
MTEXT
  5
1BD
330
1B4
100
AcDbEntity
  8
VERMASSUNG
100
AcDbMText
 10
173.6443888872
 20
119.7387780196
 30
0.0
 40
2.0
 41
0.0
 71
     1
 72
     1
  1
32
  7
SLDTEXTSTYLE0
 11
-7.044195017643634E-15
 21
1.0
 31
0.0
 73
     1
 44
1.0
  0
ENDBLK
  5
1B6
330
1B4
100
AcDbEntity
  8
0
100
AcDbBlockEnd
  0
BLOCK
  5
1C0
330
1BF
100
AcDbEntity
  8
0
100
AcDbBlockBegin
  2
*D4
 70
     1
 10
0.0
 20
0.0
 30
0.0
  3
*D4
  1

  0
SOLID
  5
1C2
330
1BF
100
AcDbEntity
  8
VERMASSUNG
100
AcDbTrace
 10
28.2225244831
 20
172.8343852013
 30
0.0
 11
31.2225244831
 21
172.3843852013
 31
0.0
 12
31.2225244831
 22
173.2843852013
 32
0.0
 13
31.2225244831
 23
173.2843852013
 33
0.0
  0
SOLID
  5
1C3
330
1BF
100
AcDbEntity
  8
VERMASSUNG
100
AcDbTrace
 10
166.2225244831
 20
172.8343852013
 30
0.0
 11
163.2225244831
 21
173.2843852013
 31
0.0
 12
163.2225244831
 22
172.3843852013
 32
0.0
 13
163.2225244831
 23
172.3843852013
 33
0.0
  0
LINE
  5
1C4
330
1BF
100
AcDbEntity
  8
VERMASSUNG
100
AcDbLine
 10
28.2225244831
 20
139.6267231938
 30
0.0
 11
28.2225244831
 21
173.8343852013
 31
0.0
  0
LINE
  5
1C5
330
1BF
100
AcDbEntity
  8
VERMASSUNG
100
AcDbLine
 10
166.2225244831
 20
146.3343852013
 30
0.0
 11
166.2225244831
 21
173.8343852013
 31
0.0
  0
LINE
  5
1C6
330
1BF
100
AcDbEntity
  8
VERMASSUNG
100
AcDbLine
 10
28.2225244831
 20
172.8343852013
 30
0.0
 11
166.2225244831
 21
172.8343852013
 31
0.0
  0
MTEXT
  5
1C7
330
1BF
100
AcDbEntity
  8
VERMASSUNG
100
AcDbMText
 10
95.3229270947
 20
175.4125207973
 30
0.0
 40
2.0
 41
0.0
 71
     1
 72
     1
  1
138
  7
SLDTEXTSTYLE0
 73
     1
 44
1.0
  0
ENDBLK
  5
1C1
330
1BF
100
AcDbEntity
  8
0
100
AcDbBlockEnd
  0
BLOCK
  5
1CA
330
1C9
100
AcDbEntity
  8
0
100
AcDbBlockBegin
  2
*D5
 70
     1
 10
0.0
 20
0.0
 30
0.0
  3
*D5
  1

  0
SOLID
  5
1CC
330
1C9
100
AcDbEntity
  8
VERMASSUNG
100
AcDbTrace
 10
66.2225244831
 20
166.8343852013
 30
0.0
 11
69.2225244831
 21
166.3843852013
 31
0.0
 12
69.2225244831
 22
167.2843852013
 32
0.0
 13
69.2225244831
 23
167.2843852013
 33
0.0
  0
SOLID
  5
1CD
330
1C9
100
AcDbEntity
  8
VERMASSUNG
100
AcDbTrace
 10
166.2225244831
 20
166.8343852013
 30
0.0
 11
163.2225244831
 21
167.2843852013
 31
0.0
 12
163.2225244831
 22
166.3843852013
 32
0.0
 13
163.2225244831
 23
166.3843852013
 33
0.0
  0
LINE
  5
1CE
330
1C9
100
AcDbEntity
  8
VERMASSUNG
100
AcDbLine
 10
66.2225244831
 20
150.5343852013
 30
0.0
 11
66.2225244831
 21
167.8343852013
 31
0.0
  0
LINE
  5
1CF
330
1C9
100
AcDbEntity
  8
VERMASSUNG
100
AcDbLine
 10
166.2225244831
 20
146.3343852013
 30
0.0
 11
166.2225244831
 21
167.8343852013
 31
0.0
  0
LINE
  5
1D0
330
1C9
100
AcDbEntity
  8
VERMASSUNG
100
AcDbLine
 10
66.2225244831
 20
166.8343852013
 30
0.0
 11
166.2225244831
 21
166.8343852013
 31
0.0
  0
MTEXT
  5
1D1
330
1C9
100
AcDbEntity
  8
VERMASSUNG
100
AcDbMText
 10
114.3229270947
 20
169.4125207973
 30
0.0
 40
2.0
 41
0.0
 71
     1
 72
     1
  1
100
  7
SLDTEXTSTYLE0
 73
     1
 44
1.0
  0
ENDBLK
  5
1CB
330
1C9
100
AcDbEntity
  8
0
100
AcDbBlockEnd
  0
BLOCK
  5
1D4
330
1D3
100
AcDbEntity
  8
0
100
AcDbBlockBegin
  2
*D6
 70
     1
 10
0.0
 20
0.0
 30
0.0
  3
*D6
  1

  0
SOLID
  5
1D6
330
1D3
100
AcDbEntity
  8
VERMASSUNG
100
AcDbTrace
 10
88.2225244831
 20
160.8343852013
 30
0.0
 11
91.2225244831
 21
160.3843852013
 31
0.0
 12
91.2225244831
 22
161.2843852013
 32
0.0
 13
91.2225244831
 23
161.2843852013
 33
0.0
  0
SOLID
  5
1D7
330
1D3
100
AcDbEntity
  8
VERMASSUNG
100
AcDbTrace
 10
166.2225244831
 20
160.8343852013
 30
0.0
 11
163.2225244831
 21
161.2843852013
 31
0.0
 12
163.2225244831
 22
160.3843852013
 32
0.0
 13
163.2225244831
 23
160.3843852013
 33
0.0
  0
LINE
  5
1D8
330
1D3
100
AcDbEntity
  8
VERMASSUNG
100
AcDbLine
 10
88.2225244831
 20
150.8343852013
 30
0.0
 11
88.2225244831
 21
161.8343852013
 31
0.0
  0
LINE
  5
1D9
330
1D3
100
AcDbEntity
  8
VERMASSUNG
100
AcDbLine
 10
166.2225244831
 20
146.3343852013
 30
0.0
 11
166.2225244831
 21
161.8343852013
 31
0.0
  0
LINE
  5
1DA
330
1D3
100
AcDbEntity
  8
VERMASSUNG
100
AcDbLine
 10
88.2225244831
 20
160.8343852013
 30
0.0
 11
166.2225244831
 21
160.8343852013
 31
0.0
  0
MTEXT
  5
1DB
330
1D3
100
AcDbEntity
  8
VERMASSUNG
100
AcDbMText
 10
125.822882481
 20
163.4125207973
 30
0.0
 40
2.0
 41
0.0
 71
     1
 72
     1
  1
78
  7
SLDTEXTSTYLE0
 73
     1
 44
1.0
  0
ENDBLK
  5
1D5
330
1D3
100
AcDbEntity
  8
0
100
AcDbBlockEnd
  0
BLOCK
  5
1DE
330
1DD
100
AcDbEntity
  8
0
100
AcDbBlockBegin
  2
*D7
 70
     1
 10
0.0
 20
0.0
 30
0.0
  3
*D7
  1

  0
SOLID
  5
1E0
330
1DD
100
AcDbEntity
  8
VERMASSUNG
100
AcDbTrace
 10
100.2225244831
 20
77.8343852013
 30
0.0
 11
103.2225244831
 21
77.3843852013
 31
0.0
 12
103.2225244831
 22
78.2843852013
 32
0.0
 13
103.2225244831
 23
78.2843852013
 33
0.0
  0
SOLID
  5
1E1
330
1DD
100
AcDbEntity
  8
VERMASSUNG
100
AcDbTrace
 10
166.2225244831
 20
77.8343852013
 30
0.0
 11
163.2225244831
 21
78.2843852013
 31
0.0
 12
163.2225244831
 22
77.3843852013
 32
0.0
 13
163.2225244831
 23
77.3843852013
 33
0.0
  0
LINE
  5
1E2
330
1DD
100
AcDbEntity
  8
VERMASSUNG
100
AcDbLine
 10
100.2225244831
 20
103.4343852013
 30
0.0
 11
100.2225244831
 21
76.8343852013
 31
0.0
  0
LINE
  5
1E3
330
1DD
100
AcDbEntity
  8
VERMASSUNG
100
AcDbLine
 10
166.2225244831
 20
92.3343852013
 30
0.0
 11
166.2225244831
 21
76.8343852013
 31
0.0
  0
LINE
  5
1E4
330
1DD
100
AcDbEntity
  8
VERMASSUNG
100
AcDbLine
 10
100.2225244831
 20
77.8343852013
 30
0.0
 11
166.2225244831
 21
77.8343852013
 31
0.0
  0
MTEXT
  5
1E5
330
1DD
100
AcDbEntity
  8
VERMASSUNG
100
AcDbMText
 10
131.822882481
 20
80.4125207973
 30
0.0
 40
2.0
 41
0.0
 71
     1
 72
     1
  1
66
  7
SLDTEXTSTYLE0
 73
     1
 44
1.0
  0
ENDBLK
  5
1DF
330
1DD
100
AcDbEntity
  8
0
100
AcDbBlockEnd
  0
BLOCK
  5
1E8
330
1E7
100
AcDbEntity
  8
0
100
AcDbBlockBegin
  2
*D8
 70
     1
 10
0.0
 20
0.0
 30
0.0
  3
*D8
  1

  0
SOLID
  5
1EA
330
1E7
100
AcDbEntity
  8
VERMASSUNG
100
AcDbTrace
 10
124.7225244831
 20
85.0717083787
 30
0.0
 11
127.7225244831
 21
84.6217083787
 31
0.0
 12
127.7225244831
 22
85.5217083787
 32
0.0
 13
127.7225244831
 23
85.5217083787
 33
0.0
  0
SOLID
  5
1EB
330
1E7
100
AcDbEntity
  8
VERMASSUNG
100
AcDbTrace
 10
140.2225244831
 20
85.0717083787
 30
0.0
 11
137.2225244831
 21
85.5217083787
 31
0.0
 12
137.2225244831
 22
84.6217083787
 32
0.0
 13
137.2225244831
 23
84.6217083787
 33
0.0
  0
LINE
  5
1EC
330
1E7
100
AcDbEntity
  8
VERMASSUNG
100
AcDbLine
 10
124.7225244831
 20
115.8381936888
 30
0.0
 11
124.7225244831
 21
84.0717083787
 31
0.0
  0
LINE
  5
1ED
330
1E7
100
AcDbEntity
  8
VERMASSUNG
100
AcDbLine
 10
140.2225244831
 20
114.672796518
 30
0.0
 11
140.2225244831
 21
84.0717083787
 31
0.0
  0
LINE
  5
1EE
330
1E7
100
AcDbEntity
  8
VERMASSUNG
100
AcDbLine
 10
124.7225244831
 20
85.0717083787
 30
0.0
 11
140.2225244831
 21
85.0717083787
 31
0.0
  0
MTEXT
  5
1EF
330
1E7
100
AcDbEntity
  8
VERMASSUNG
100
AcDbMText
 10
130.2734200218
 20
87.6498439746
 30
0.0
 40
2.0
 41
0.0
 71
     1
 72
     1
  1
15.5
  7
SLDTEXTSTYLE0
 73
     1
 44
1.0
  0
ENDBLK
  5
1E9
330
1E7
100
AcDbEntity
  8
0
100
AcDbBlockEnd
  0
BLOCK
  5
1F2
330
1F1
100
AcDbEntity
  8
0
100
AcDbBlockBegin
  2
*D9
 70
     1
 10
0.0
 20
0.0
 30
0.0
  3
*D9
  1

  0
SOLID
  5
1F4
330
1F1
100
AcDbEntity
  8
VERMASSUNG
100
AcDbTrace
 10
140.2225244831
 20
85.0717083787
 30
0.0
 11
143.2225244831
 21
84.6217083787
 31
0.0
 12
143.2225244831
 22
85.5217083787
 32
0.0
 13
143.2225244831
 23
85.5217083787
 33
0.0
  0
SOLID
  5
1F5
330
1F1
100
AcDbEntity
  8
VERMASSUNG
100
AcDbTrace
 10
155.7225244831
 20
85.0717083787
 30
0.0
 11
152.7225244831
 21
85.5217083787
 31
0.0
 12
152.7225244831
 22
84.6217083787
 32
0.0
 13
152.7225244831
 23
84.6217083787
 33
0.0
  0
LINE
  5
1F6
330
1F1
100
AcDbEntity
  8
VERMASSUNG
100
AcDbLine
 10
140.2225244831
 20
114.672796518
 30
0.0
 11
140.2225244831
 21
84.0717083787
 31
0.0
  0
LINE
  5
1F7
330
1F1
100
AcDbEntity
  8
VERMASSUNG
100
AcDbLine
 10
155.7225244831
 20
112.5750816104
 30
0.0
 11
155.7225244831
 21
84.0717083787
 31
0.0
  0
LINE
  5
1F8
330
1F1
100
AcDbEntity
  8
VERMASSUNG
100
AcDbLine
 10
140.2225244831
 20
85.0717083787
 30
0.0
 11
155.7225244831
 21
85.0717083787
 31
0.0
  0
MTEXT
  5
1F9
330
1F1
100
AcDbEntity
  8
VERMASSUNG
100
AcDbMText
 10
145.7734200218
 20
87.6498439746
 30
0.0
 40
2.0
 41
0.0
 71
     1
 72
     1
  1
15.5
  7
SLDTEXTSTYLE0
 73
     1
 44
1.0
  0
ENDBLK
  5
1F3
330
1F1
100
AcDbEntity
  8
0
100
AcDbBlockEnd
  0
BLOCK
  5
1FC
330
1FB
100
AcDbEntity
  8
0
100
AcDbBlockBegin
  2
*D10
 70
     1
 10
0.0
 20
0.0
 30
0.0
  3
*D10
  1

  0
SOLID
  5
1FE
330
1FB
100
AcDbEntity
  8
VERMASSUNG
100
AcDbTrace
 10
155.7225244831
 20
85.0717083787
 30
0.0
 11
158.7225244831
 21
84.6217083787
 31
0.0
 12
158.7225244831
 22
85.5217083787
 32
0.0
 13
158.7225244831
 23
85.5217083787
 33
0.0
  0
SOLID
  5
1FF
330
1FB
100
AcDbEntity
  8
VERMASSUNG
100
AcDbTrace
 10
166.2225244831
 20
85.0717083787
 30
0.0
 11
163.2225244831
 21
85.5217083787
 31
0.0
 12
163.2225244831
 22
84.6217083787
 32
0.0
 13
163.2225244831
 23
84.6217083787
 33
0.0
  0
LINE
  5
200
330
1FB
100
AcDbEntity
  8
VERMASSUNG
100
AcDbLine
 10
155.7225244831
 20
112.5750816104
 30
0.0
 11
155.7225244831
 21
84.0717083787
 31
0.0
  0
LINE
  5
201
330
1FB
100
AcDbEntity
  8
VERMASSUNG
100
AcDbLine
 10
166.2225244831
 20
92.3343852013
 30
0.0
 11
166.2225244831
 21
84.0717083787
 31
0.0
  0
LINE
  5
202
330
1FB
100
AcDbEntity
  8
VERMASSUNG
100
AcDbLine
 10
155.7225244831
 20
85.0717083787
 30
0.0
 11
166.2225244831
 21
85.0717083787
 31
0.0
  0
MTEXT
  5
203
330
1FB
100
AcDbEntity
  8
VERMASSUNG
100
AcDbMText
 10
158.7734200218
 20
87.6498439746
 30
0.0
 40
2.0
 41
0.0
 71
     1
 72
     1
  1
10.5
  7
SLDTEXTSTYLE0
 73
     1
 44
1.0
  0
ENDBLK
  5
1FD
330
1FB
100
AcDbEntity
  8
0
100
AcDbBlockEnd
  0
BLOCK
  5
2A7
330
2A6
100
AcDbEntity
  8
0
100
AcDbBlockBegin
  2
SW_CENTERMARKSYMBOL_0
 70
     0
 10
0.0
 20
0.0
 30
0.0
  3
SW_CENTERMARKSYMBOL_0
  1

  0
LINE
  5
2A9
330
2A6
100
AcDbEntity
  8
VERMASSUNG
 62
     0
100
AcDbLine
 10
0.0
 20
0.0
 30
0.0
 11
0.0
 21
2.5
 31
0.0
  0
LINE
  5
2AA
330
2A6
100
AcDbEntity
  8
VERMASSUNG
 62
     0
100
AcDbLine
 10
0.0
 20
0.0
 30
0.0
 11
-2.5
 21
0.0
 31
0.0
  0
LINE
  5
2AB
330
2A6
100
AcDbEntity
  8
VERMASSUNG
 62
     0
100
AcDbLine
 10
0.0
 20
0.0
 30
0.0
 11
0.0
 21
-2.5
 31
0.0
  0
LINE
  5
2AC
330
2A6
100
AcDbEntity
  8
VERMASSUNG
 62
     0
100
AcDbLine
 10
0.0
 20
0.0
 30
0.0
 11
2.5
 21
0.0
 31
0.0
  0
LINE
  5
2AD
330
2A6
100
AcDbEntity
  8
VERMASSUNG
 62
     0
100
AcDbLine
 10
0.0
 20
5.0
 30
0.0
 11
0.0
 21
33.7
 31
0.0
  0
LINE
  5
2AE
330
2A6
100
AcDbEntity
  8
VERMASSUNG
 62
     0
100
AcDbLine
 10
-5.0
 20
0.0
 30
0.0
 11
-33.7
 21
0.0
 31
0.0
  0
LINE
  5
2AF
330
2A6
100
AcDbEntity
  8
VERMASSUNG
 62
     0
100
AcDbLine
 10
0.0
 20
-5.0
 30
0.0
 11
0.0
 21
-33.7
 31
0.0
  0
LINE
  5
2B0
330
2A6
100
AcDbEntity
  8
VERMASSUNG
 62
     0
100
AcDbLine
 10
5.0
 20
0.0
 30
0.0
 11
33.7
 21
0.0
 31
0.0
  0
ENDBLK
  5
2A8
330
2A6
100
AcDbEntity
  8
0
100
AcDbBlockEnd
  0
ENDSEC
  0
SECTION
  2
ENTITIES
  0
MTEXT
  5
45
330
1F
100
AcDbEntity
  8
KOPF_DÜNN
100
AcDbMText
 10
13.8892156294
 20
23.8442973028
 30
0.0
 40
3.0
 41
0.0
 71
     1
 72
     1
  1
PS6.B32.K01.100
  7
SLDTEXTSTYLE0
 73
     1
 44
1.0
  0
MTEXT
  5
46
330
1F
100
AcDbEntity
  8
VERMASSUNG
100
AcDbMText
 10
13.9329988022
 20
28.8834360957
 30
0.0
 40
3.0
 41
0.0
 71
     1
 72
     1
  1
Bohrstangenhalter / Boring bar holder
  7
SLDTEXTSTYLE0
 73
     1
 44
1.0
  0
MTEXT
  5
47
330
1F
100
AcDbEntity
  8
VERMASSUNG
100
AcDbMText
 10
98.8601118557
 20
13.8365368761
 30
0.0
 40
2.0
 41
0.0
 71
     1
 72
     1
  1
Datum: 08.03.2010
  7
SLDTEXTSTYLE0
 73
     1
 44
1.0
  0
MTEXT
  5
49
330
1F
100
AcDbEntity
  8
VERMASSUNG
100
AcDbMText
 10
13.933048693
 20
18.0482802738
 30
0.0
 40
2.0
 41
0.0
 71
     1
 72
     1
  1
PSC 63 / ø 32
  7
SLDTEXTSTYLE1
 73
     1
 44
1.0
  0
MTEXT
  5
4A
330
1F
100
AcDbEntity
  8
VERMASSUNG
100
AcDbMText
 10
13.9808475933
 20
13.9090974274
 30
0.0
 40
2.0
 41
0.0
 71
     1
 72
     1
  1
Gewicht: 1811g
  7
SLDTEXTSTYLE0
 73
     1
 44
1.0
  0
ARC
  5
4B
330
1F
100
AcDbEntity
  8
0
  6
Continuous
 62
     7
370
    15
100
AcDbCircle
 10
66.5225244831
 20
88.1343852013
 30
0.0
 40
0.3000000000000114
100
AcDbArc
 50
180.0
 51
270.0
  0
ARC
  5
4C
330
1F
100
AcDbEntity
  8
0
  6
Continuous
 62
     7
370
    15
100
AcDbCircle
 10
66.5225244831
 20
150.5343852013
 30
0.0
 40
0.3000000000000114
100
AcDbArc
 50
90.0
 51
180.0
  0
SPLINE
  5
4D
330
1F
100
AcDbEntity
  8
0
  6
Continuous
 62
     7
370
    15
100
AcDbSpline
210
0.0
220
0.0
230
1.0
 70
    24
 71
     1
 72
     4
 73
     2
 74
     0
 42
0.00000001
 43
0.00000001
 40
0.0
 40
0.0
 40
1.0
 40
1.0
 10
66.52252449738303
 20
87.83438469466627
 30
0.0
 10
88.2225243639245
 20
87.83438469466627
 30
0.0
  0
SPLINE
  5
4E
330
1F
100
AcDbEntity
  8
0
  6
Continuous
 62
     7
370
    15
100
AcDbSpline
210
0.0
220
0.0
230
1.0
 70
    24
 71
     1
 72
     4
 73
     2
 74
     0
 42
0.00000001
 43
0.00000001
 40
0.0
 40
0.0
 40
1.0
 40
1.0
 10
88.2225243639245
 20
150.8343857079452
 30
0.0
 10
66.52252449738303
 20
150.8343857079452
 30
0.0
  0
ARC
  5
4F
330
1F
100
AcDbEntity
  8
0
  6
Continuous
 62
     7
370
    15
100
AcDbCircle
 10
90.2225244831
 20
89.3343852013
 30
0.0
 40
2.0
100
AcDbArc
 50
90.0
 51
180.0
  0
ARC
  5
50
330
1F
100
AcDbEntity
  8
0
  6
Continuous
 62
     7
370
    15
100
AcDbCircle
 10
90.2225244831
 20
149.3343852013
 30
0.0
 40
2.0
100
AcDbArc
 50
180.0
 51
270.0
  0
ARC
  5
51
330
1F
100
AcDbEntity
  8
0
  6
Continuous
 62
     7
370
    15
100
AcDbCircle
 10
165.2225244831
 20
146.3343852013
 30
0.0
 40
1.0
100
AcDbArc
 50
0.0
 51
90.0
  0
ARC
  5
52
330
1F
100
AcDbEntity
  8
0
  6
Continuous
 62
     7
370
    15
100
AcDbCircle
 10
165.2225244831
 20
92.3343852013
 30
0.0
 40
1.0
100
AcDbArc
 50
270.0
 51
0.0
  0
SPLINE
  5
53
330
1F
100
AcDbEntity
  8
0
  6
Continuous
 62
     7
370
    15
100
AcDbSpline
210
0.0
220
0.0
230
1.0
 70
    24
 71
     1
 72
     4
 73
     2
 74
     0
 42
0.00000001
 43
0.00000001
 40
0.0
 40
0.0
 40
1.0
 40
1.0
 10
120.2295145284429
 20
147.3343860655731
 30
0.0
 10
90.22252469175005
 20
147.3343860655731
 30
0.0
  0
SPLINE
  5
54
330
1F
100
AcDbEntity
  8
0
  6
Continuous
 62
     7
370
    15
100
AcDbSpline
210
0.0
220
0.0
230
1.0
 70
    24
 71
     1
 72
     4
 73
     2
 74
     0
 42
0.00000001
 43
0.00000001
 40
0.0
 40
0.0
 40
1.0
 40
1.0
 10
135.729512412478
 20
147.3343860655731
 30
0.0
 10
129.1665865372911
 20
147.3343860655731
 30
0.0
  0
SPLINE
  5
55
330
1F
100
AcDbEntity
  8
0
  6
Continuous
 62
     7
370
    15
100
AcDbSpline
210
0.0
220
0.0
230
1.0
 70
    24
 71
     1
 72
     4
 73
     2
 74
     0
 42
0.00000001
 43
0.00000001
 40
0.0
 40
0.0
 40
1.0
 40
1.0
 10
151.2295140218034
 20
147.3343860655731
 30
0.0
 10
144.6665806960359
 20
147.3343860655731
 30
0.0
  0
SPLINE
  5
56
330
1F
100
AcDbEntity
  8
0
  6
Continuous
 62
     7
370
    15
100
AcDbSpline
210
0.0
220
0.0
230
1.0
 70
    24
 71
     1
 72
     4
 73
     2
 74
     0
 42
0.00000001
 43
0.00000001
 40
0.0
 40
0.0
 40
1.0
 40
1.0
 10
165.222523946692
 20
147.3343860655731
 30
0.0
 10
160.1665823053613
 20
147.3343860655731
 30
0.0
  0
SPLINE
  5
57
330
1F
100
AcDbEntity
  8
0
  6
Continuous
 62
     7
370
    15
100
AcDbSpline
210
0.0
220
0.0
230
1.0
 70
    24
 71
     1
 72
     4
 73
     2
 74
     0
 42
0.00000001
 43
0.00000001
 40
0.0
 40
0.0
 40
1.0
 40
1.0
 10
90.22252469175005
 20
91.3343843370384
 30
0.0
 10
165.222523946692
 20
91.3343843370384
 30
0.0
  0
LWPOLYLINE
  5
58
330
1F
100
AcDbEntity
  8
0
  6
Continuous
 62
     7
370
    15
100
AcDbPolyline
 90
        3
 70
   128
 43
0.0
 10
66.0225244882
 20
96.7945646792
 10
66.1479794234
 20
96.7262633443
 10
66.2225244831
 20
96.6735244095
  0
LWPOLYLINE
  5
59
330
1F
100
AcDbEntity
  8
0
  6
Continuous
 62
     7
370
    15
100
AcDbPolyline
 90
        3
 70
   128
 43
0.0
 10
66.2225244831
 20
141.9952459931
 10
66.1479794234
 20
141.9425070584
 10
66.0225244882
 20
141.8742057234
  0
LINE
  5
5A
330
1F
100
AcDbEntity
  8
0
  6
Continuous
 62
     7
370
    15
100
AcDbLine
 10
155.7225270461
 20
147.3343860656
 30
0.0
 11
159.9225236367
 21
147.3343860656
 31
0.0
  0
LINE
  5
5B
330
1F
100
AcDbEntity
  8
0
  6
Continuous
 62
     7
370
    15
100
AcDbLine
 10
151.5225230049
 20
147.3343860656
 30
0.0
 11
155.7225270461
 21
147.3343860656
 31
0.0
  0
LINE
  5
5C
330
1F
100
AcDbEntity
  8
0
  6
Continuous
 62
     7
370
    15
100
AcDbLine
 10
140.2225254368
 20
147.3343860656
 30
0.0
 11
144.4225220274
 21
147.3343860656
 31
0.0
  0
LINE
  5
5D
330
1F
100
AcDbEntity
  8
0
  6
Continuous
 62
     7
370
    15
100
AcDbLine
 10
136.0225213956
 20
147.3343860656
 30
0.0
 11
140.2225254368
 21
147.3343860656
 31
0.0
  0
LINE
  5
5E
330
1F
100
AcDbEntity
  8
0
  6
Continuous
 62
     7
370
    15
100
AcDbLine
 10
124.7225238275
 20
147.3343860656
 30
0.0
 11
128.9225278687
 21
147.3343860656
 31
0.0
  0
LINE
  5
5F
330
1F
100
AcDbEntity
  8
0
  6
Continuous
 62
     7
370
    15
100
AcDbLine
 10
120.5225235116
 20
147.3343860656
 30
0.0
 11
124.7225238275
 21
147.3343860656
 31
0.0
  0
CIRCLE
  5
60
330
1F
100
AcDbEntity
  8
0
  6
Continuous
 62
     7
370
    15
100
AcDbCircle
 10
124.7225244831
 20
119.3343852013
 30
0.0
 40
4.200000000000003
  0
LINE
  5
61
330
1F
100
AcDbEntity
  8
0
  6
Continuous
 62
     7
370
    15
100
AcDbLine
 10
127.2225251686
 20
120.7777609182
 30
0.0
 11
124.7225238275
 21
122.2211366351
 31
0.0
  0
LINE
  5
62
330
1F
100
AcDbEntity
  8
0
  6
Continuous
 62
     7
370
    15
100
AcDbLine
 10
122.2225262117
 20
120.7777609182
 30
0.0
 11
124.7225238275
 21
122.2211366351
 31
0.0
  0
LINE
  5
63
330
1F
100
AcDbEntity
  8
0
  6
Continuous
 62
     7
370
    15
100
AcDbLine
 10
122.2225262117
 20
117.8910094844
 30
0.0
 11
122.2225262117
 21
120.7777609182
 31
0.0
  0
LINE
  5
64
330
1F
100
AcDbEntity
  8
0
  6
Continuous
 62
     7
370
    15
100
AcDbLine
 10
122.2225262117
 20
117.8910094844
 30
0.0
 11
124.7225238275
 21
116.4476337675
 31
0.0
  0
LINE
  5
65
330
1F
100
AcDbEntity
  8
0
  6
Continuous
 62
     7
370
    15
100
AcDbLine
 10
127.2225251686
 20
117.8910094844
 30
0.0
 11
124.7225238275
 21
116.4476337675
 31
0.0
  0
LINE
  5
66
330
1F
100
AcDbEntity
  8
0
  6
Continuous
 62
     7
370
    15
100
AcDbLine
 10
127.2225251686
 20
117.8910094844
 30
0.0
 11
127.2225251686
 21
120.7777609182
 31
0.0
  0
CIRCLE
  5
67
330
1F
100
AcDbEntity
  8
0
  6
Continuous
 62
     7
370
    15
100
AcDbCircle
 10
140.2225244831
 20
119.3343852013
 30
0.0
 40
4.200000000000003
  0
LINE
  5
68
330
1F
100
AcDbEntity
  8
0
  6
Continuous
 62
     7
370
    15
100
AcDbLine
 10
142.7225230526
 20
120.7777609182
 30
0.0
 11
140.2225254368
 21
122.2211366351
 31
0.0
  0
LINE
  5
69
330
1F
100
AcDbEntity
  8
0
  6
Continuous
 62
     7
370
    15
100
AcDbLine
 10
137.722527821
 20
120.7777609182
 30
0.0
 11
140.2225254368
 21
122.2211366351
 31
0.0
  0
LINE
  5
6A
330
1F
100
AcDbEntity
  8
0
  6
Continuous
 62
     7
370
    15
100
AcDbLine
 10
137.722527821
 20
117.8910094844
 30
0.0
 11
137.722527821
 21
120.7777609182
 31
0.0
  0
LINE
  5
6B
330
1F
100
AcDbEntity
  8
0
  6
Continuous
 62
     7
370
    15
100
AcDbLine
 10
137.722527821
 20
117.8910094844
 30
0.0
 11
140.2225254368
 21
116.4476337675
 31
0.0
  0
LINE
  5
6C
330
1F
100
AcDbEntity
  8
0
  6
Continuous
 62
     7
370
    15
100
AcDbLine
 10
142.7225230526
 20
117.8910094844
 30
0.0
 11
140.2225254368
 21
116.4476337675
 31
0.0
  0
LINE
  5
6D
330
1F
100
AcDbEntity
  8
0
  6
Continuous
 62
     7
370
    15
100
AcDbLine
 10
142.7225230526
 20
117.8910094844
 30
0.0
 11
142.7225230526
 21
120.7777609182
 31
0.0
  0
CIRCLE
  5
6E
330
1F
100
AcDbEntity
  8
0
  6
Continuous
 62
     7
370
    15
100
AcDbCircle
 10
155.7225244831
 20
119.3343852013
 30
0.0
 40
4.200000000000003
  0
LINE
  5
6F
330
1F
100
AcDbEntity
  8
0
  6
Continuous
 62
     7
370
    15
100
AcDbLine
 10
158.2225246619
 20
120.7777609182
 30
0.0
 11
155.7225270461
 21
122.2211366351
 31
0.0
  0
LINE
  5
70
330
1F
100
AcDbEntity
  8
0
  6
Continuous
 62
     7
370
    15
100
AcDbLine
 10
153.2225219797
 20
120.7777609182
 30
0.0
 11
155.7225270461
 21
122.2211366351
 31
0.0
  0
LINE
  5
71
330
1F
100
AcDbEntity
  8
0
  6
Continuous
 62
     7
370
    15
100
AcDbLine
 10
153.2225219797
 20
117.8910094844
 30
0.0
 11
153.2225219797
 21
120.7777609182
 31
0.0
  0
LINE
  5
72
330
1F
100
AcDbEntity
  8
0
  6
Continuous
 62
     7
370
    15
100
AcDbLine
 10
153.2225219797
 20
117.8910094844
 30
0.0
 11
155.7225270461
 21
116.4476337675
 31
0.0
  0
LINE
  5
73
330
1F
100
AcDbEntity
  8
0
  6
Continuous
 62
     7
370
    15
100
AcDbLine
 10
158.2225246619
 20
117.8910094844
 30
0.0
 11
155.7225270461
 21
116.4476337675
 31
0.0
  0
LINE
  5
74
330
1F
100
AcDbEntity
  8
0
  6
Continuous
 62
     7
370
    15
100
AcDbLine
 10
158.2225246619
 20
117.8910094844
 30
0.0
 11
158.2225246619
 21
120.7777609182
 31
0.0
  0
LINE
  5
75
330
1F
100
AcDbEntity
  8
0
  6
Continuous
 62
     7
370
    15
100
AcDbLine
 10
66.2225244831
 20
88.1343860477
 30
0.0
 11
66.2225244831
 21
150.5343843549
 31
0.0
  0
SPLINE
  5
76
330
1F
100
AcDbEntity
  8
0
  6
Continuous
 62
     7
370
    15
100
AcDbSpline
210
0.0
220
0.0
230
1.0
 70
     8
 71
     3
 72
    12
 73
     8
 74
     0
 42
0.00000001
 43
0.00000001
 40
0.0
 40
0.0
 40
0.0
 40
0.0
 40
0.2500000000000014
 40
0.2500000000000014
 40
0.5000000000000028
 40
0.5000000000000028
 40
1.0
 40
1.0
 40
1.0
 40
1.0
 10
76.75028129670025
 20
128.7224516326416
 30
0.0
 10
76.68720125820688
 20
128.7224516326416
 30
0.0
 10
76.62805263602549
 20
128.7478159518566
 30
0.0
 10
76.5295800859564
 20
128.8219808122294
 30
0.0
 10
76.49054347397166
 20
128.8685011527836
 30
0.0
 10
76.39064700719263
 20
129.0186434956288
 30
0.0
 10
76.348226126126
 20
129.130336702601
 30
0.0
 10
76.31726859480801
 20
129.2437545219908
 30
0.0
  0
LINE
  5
77
330
1F
100
AcDbEntity
  8
0
  6
Continuous
 62
     7
370
    15
100
AcDbLine
 10
79.6947676953
 20
128.7224520296
 30
0.0
 11
76.7502814796
 21
128.7224520296
 31
0.0
  0
SPLINE
  5
78
330
1F
100
AcDbEntity
  8
0
  6
Continuous
 62
     7
370
    15
100
AcDbSpline
210
0.0
220
0.0
230
1.0
 70
     8
 71
     3
 72
    12
 73
     8
 74
     0
 42
0.00000001
 43
0.00000001
 40
0.0
 40
0.0
 40
0.0
 40
0.0
 40
0.4999999999999953
 40
0.4999999999999953
 40
0.7499999999999977
 40
0.7499999999999977
 40
1.0
 40
1.0
 40
1.0
 40
1.0
 10
80.12778037145958
 20
129.2437545219908
 30
0.0
 10
80.09705812954047
 20
129.1311987225816
 30
0.0
 10
80.05422091500533
 20
129.018440862842
 30
0.0
 10
79.95479389080553
 20
128.8688999770456
 30
0.0
 10
79.91504169598889
 20
128.8216072453388
 30
0.0
 10
79.81700023913066
 20
128.7478709520173
 30
0.0
 10
79.75744418354319
 20
128.7224516326416
 30
0.0
 10
79.69476766956736
 20
128.7224516326416
 30
0.0
  0
ELLIPSE
  5
79
330
1F
100
AcDbEntity
  8
0
  6
Continuous
 62
     7
370
    15
100
AcDbEllipse
 10
63.8753702938
 20
119.3343852013
 30
0.0
 11
14.75368316065613
 21
31.09325491558114
 31
0.0
210
0.0
220
0.0
230
0.9999999999999997
 40
0.3419987131
 41
5.193281737408621
 42
6.124043104552325
  0
SPLINE
  5
7A
330
1F
100
AcDbEntity
  8
0
  6
Continuous
 62
     7
370
    15
100
AcDbSpline
210
0.0
220
0.0
230
1.0
 70
     8
 71
     3
 72
    12
 73
     8
 74
     0
 42
0.00000001
 43
0.00000001
 40
0.0
 40
0.0
 40
0.0
 40
0.0
 40
0.2499999999999991
 40
0.2499999999999991
 40
0.4999999999999982
 40
0.4999999999999982
 40
1.0
 40
1.0
 40
1.0
 40
1.0
 10
79.69476766956736
 20
149.4028771601788
 30
0.0
 10
79.75784770806071
 20
149.4028771601788
 30
0.0
 10
79.81699633024212
 20
149.3949712339663
 30
0.0
 10
79.91546888031121
 20
149.3716460725301
 30
0.0
 10
79.95450549229594
 20
149.3569332826984
 30
0.0
 10
80.05440195907495
 20
149.3089774819674
 30
0.0
 10
80.09682284014161
 20
149.2727153253874
 30
0.0
 10
80.12778037145958
 20
149.2351276614229
 30
0.0
  0
LINE
  5
7B
330
1F
100
AcDbEntity
  8
0
  6
Continuous
 62
     7
370
    15
100
AcDbLine
 10
76.7502814796
 20
149.4028777182
 30
0.0
 11
79.6947676953
 21
149.4028777182
 31
0.0
  0
SPLINE
  5
7C
330
1F
100
AcDbEntity
  8
0
  6
Continuous
 62
     7
370
    15
100
AcDbSpline
210
0.0
220
0.0
230
1.0
 70
     8
 71
     3
 72
    12
 73
     8
 74
     0
 42
0.00000001
 43
0.00000001
 40
0.0
 40
0.0
 40
0.0
 40
0.0
 40
0.5
 40
0.5
 40
0.75
 40
0.75
 40
1.0
 40
1.0
 40
1.0
 40
1.0
 10
76.31726859480803
 20
149.2351276614229
 30
0.0
 10
76.34799083672712
 20
149.272429644376
 30
0.0
 10
76.39082805126226
 20
149.3090414764224
 30
0.0
 10
76.49025507546206
 20
149.3568062597076
 30
0.0
 10
76.53000727027873
 20
149.3717637751899
 30
0.0
 10
76.62804872713694
 20
149.3949537209591
 30
0.0
 10
76.68760478272442
 20
149.4028771601788
 30
0.0
 10
76.75028129670025
 20
149.4028771601787
 30
0.0
  0
ELLIPSE
  5
7D
330
1F
100
AcDbEntity
  8
0
  6
Continuous
 62
     7
370
    15
100
AcDbEllipse
 10
92.5696786725
 20
119.3343852013
 30
0.0
 11
-14.75368316065608
 21
31.09325491558114
 31
0.0
210
0.0
220
0.0
230
1.0
 40
0.3419987131
 41
0.1591422026273001
 42
1.089903569770978
  0
SPLINE
  5
7E
330
1F
100
AcDbEntity
  8
0
  6
Continuous
 62
     7
370
    15
100
AcDbSpline
210
0.0
220
0.0
230
1.0
 70
     8
 71
     3
 72
    12
 73
     8
 74
     0
 42
0.00000001
 43
0.00000001
 40
0.0
 40
0.0
 40
0.0
 40
0.0
 40
0.2500000000000001
 40
0.2500000000000001
 40
0.5000000000000001
 40
0.5000000000000001
 40
1.0
 40
1.0
 40
1.0
 40
1.0
 10
76.75028129670025
 20
89.26589324243261
 30
0.0
 10
76.68722434180245
 20
89.2658932424326
 30
0.0
 10
76.62809419205686
 20
89.27379357351217
 30
0.0
 10
76.52964664152357
 20
89.2971043215172
 30
0.0
 10
76.49061440333548
 20
89.31180944780083
 30
0.0
 10
76.39072451887853
 20
89.35974297598747
 30
0.0
 10
76.34842554526924
 20
89.39581294875224
 30
0.0
 10
76.31726859480796
 20
89.43364274118845
 30
0.0
  0
LINE
  5
7F
330
1F
100
AcDbEntity
  8
0
  6
Continuous
 62
     7
370
    15
100
AcDbLine
 10
79.6947676953
 20
89.2658926844
 30
0.0
 11
76.7502814796
 21
89.2658926844
 31
0.0
  0
SPLINE
  5
80
330
1F
100
AcDbEntity
  8
0
  6
Continuous
 62
     7
370
    15
100
AcDbSpline
210
0.0
220
0.0
230
1.0
 70
     8
 71
     3
 72
    12
 73
     8
 74
     0
 42
0.00000001
 43
0.00000001
 40
0.0
 40
0.0
 40
0.0
 40
0.0
 40
0.5000000000000019
 40
0.5000000000000019
 40
0.7500000000000009
 40
0.7500000000000009
 40
1.0
 40
1.0
 40
1.0
 40
1.0
 10
80.12778037145958
 20
89.43364274118846
 30
0.0
 10
80.09663517349746
 20
89.39582721826828
 30
0.0
 10
80.05436090716304
 20
89.35976036018465
 30
0.0
 10
79.95441537333775
 20
89.31180029517338
 30
0.0
 10
79.9146850686337
 20
89.29693932127573
 30
0.0
 10
79.81779701862749
 20
89.27398817514461
 30
0.0
 10
79.75773177688092
 20
89.26589324243254
 30
0.0
 10
79.69476766956737
 20
89.26589324243255
 30
0.0
  0
ELLIPSE
  5
81
330
1F
100
AcDbEntity
  8
0
  6
Continuous
 62
     7
370
    15
100
AcDbEllipse
 10
63.8753702938
 20
119.3343852013
 30
0.0
 11
-14.75368316065628
 21
31.09325491558117
 31
0.0
210
0.0
220
0.0
230
1.0
 40
0.3419987131
 41
3.300734856217122
 42
4.231496223360772
  0
SPLINE
  5
82
330
1F
100
AcDbEntity
  8
0
  6
Continuous
 62
     7
370
    15
100
AcDbSpline
210
0.0
220
0.0
230
1.0
 70
     8
 71
     3
 72
    12
 73
     8
 74
     0
 42
0.00000001
 43
0.00000001
 40
0.0
 40
0.0
 40
0.0
 40
0.0
 40
0.2500000000000009
 40
0.2500000000000009
 40
0.5000000000000018
 40
0.5000000000000018
 40
1.0
 40
1.0
 40
1.0
 40
1.0
 10
79.69476766956736
 20
109.9463187699695
 30
0.0
 10
79.75782462446516
 20
109.9463187699695
 30
0.0
 10
79.81695477421074
 20
109.9209724165888
 30
0.0
 10
79.91540232474404
 20
109.8468530344493
 30
0.0
 10
79.95443456293211
 20
109.8003565197513
 30
0.0
 10
80.05432444738906
 20
109.6502820127427
 30
0.0
 10
80.09662342099838
 20
109.5391643036278
 30
0.0
 10
80.12778037145964
 20
109.4250158806204
 30
0.0
  0
LINE
  5
83
330
1F
100
AcDbEntity
  8
0
  6
Continuous
 62
     7
370
    15
100
AcDbLine
 10
76.7502814796
 20
109.9463183731
 30
0.0
 11
79.6947676953
 21
109.9463183731
 31
0.0
  0
SPLINE
  5
84
330
1F
100
AcDbEntity
  8
0
  6
Continuous
 62
     7
370
    15
100
AcDbSpline
210
0.0
220
0.0
230
1.0
 70
     8
 71
     3
 72
    12
 73
     8
 74
     0
 42
0.00000001
 43
0.00000001
 40
0.0
 40
0.0
 40
0.0
 40
0.0
 40
0.5000000000000019
 40
0.5000000000000019
 40
0.7500000000000009
 40
0.7500000000000009
 40
1.0
 40
1.0
 40
1.0
 40
1.0
 10
76.31726859480803
 20
109.4250158806203
 30
0.0
 10
76.34841379277013
 20
109.5391212464856
 30
0.0
 10
76.39068805910456
 20
109.6502275737044
 30
0.0
 10
76.49063359292985
 20
109.8003851811347
 30
0.0
 10
76.53036389763392
 20
109.8473778727521
 30
0.0
 10
76.62725194764013
 20
109.9203534572905
 30
0.0
 10
76.68731718938668
 20
109.9463187699696
 30
0.0
 10
76.75028129670022
 20
109.9463187699696
 30
0.0
  0
ELLIPSE
  5
85
330
1F
100
AcDbEntity
  8
0
  6
Continuous
 62
     7
370
    15
100
AcDbEllipse
 10
92.5696786725
 20
119.3343852013
 30
0.0
 11
14.75368316065621
 21
31.09325491558117
 31
0.0
210
0.0
220
0.0
230
1.0
 40
0.3419987131
 41
2.051689083818826
 42
2.982450450962504
  0
LINE
  5
86
330
1F
100
AcDbEntity
  8
0
  6
Continuous
 62
     7
370
    15
100
AcDbLine
 10
88.2225243639
 20
87.8343846947
 30
0.0
 11
88.2225243639
 21
150.8343857079
 31
0.0
  0
LINE
  5
87
330
1F
100
AcDbEntity
  8
0
  6
Continuous
 62
     7
370
    15
100
AcDbLine
 10
76.3172686365
 20
109.4250161498
 30
0.0
 11
76.3172686365
 21
89.4336425066
 31
0.0
  0
LINE
  5
88
330
1F
100
AcDbEntity
  8
0
  6
Continuous
 62
     7
370
    15
100
AcDbLine
 10
76.7502814796
 20
109.9463183731
 30
0.0
 11
76.7502814796
 21
89.2658926844
 31
0.0
  0
LINE
  5
89
330
1F
100
AcDbEntity
  8
0
  6
Continuous
 62
     7
370
    15
100
AcDbLine
 10
76.7502814796
 20
149.4028777182
 30
0.0
 11
76.7502814796
 21
128.7224520296
 31
0.0
  0
LINE
  5
8A
330
1F
100
AcDbEntity
  8
0
  6
Continuous
 62
     7
370
    15
100
AcDbLine
 10
76.3172686365
 20
149.235127896
 30
0.0
 11
76.3172686365
 21
129.2437542528
 31
0.0
  0
LINE
  5
8B
330
1F
100
AcDbEntity
  8
0
  6
Continuous
 62
     7
370
    15
100
AcDbLine
 10
79.6947676953
 20
109.9463183731
 30
0.0
 11
79.6947676953
 21
89.2658926844
 31
0.0
  0
LINE
  5
8C
330
1F
100
AcDbEntity
  8
0
  6
Continuous
 62
     7
370
    15
100
AcDbLine
 10
80.1277805384
 20
109.4250161498
 30
0.0
 11
80.1277805384
 21
89.4336425066
 31
0.0
  0
LINE
  5
8D
330
1F
100
AcDbEntity
  8
0
  6
Continuous
 62
     7
370
    15
100
AcDbLine
 10
80.1277805384
 20
149.235127896
 30
0.0
 11
80.1277805384
 21
129.2437542528
 31
0.0
  0
LINE
  5
8E
330
1F
100
AcDbEntity
  8
0
  6
Continuous
 62
     7
370
    15
100
AcDbLine
 10
79.6947676953
 20
149.4028777182
 30
0.0
 11
79.6947676953
 21
128.7224520296
 31
0.0
  0
LINE
  5
8F
330
1F
100
AcDbEntity
  8
0
  6
Continuous
 62
     7
370
    15
100
AcDbLine
 10
166.2225259732
 20
119.3343852013
 30
0.0
 11
166.2225259732
 21
92.334384501
 31
0.0
  0
LINE
  5
90
330
1F
100
AcDbEntity
  8
0
  6
Continuous
 62
     7
370
    15
100
AcDbLine
 10
166.2225259732
 20
146.3343859017
 30
0.0
 11
166.2225259732
 21
119.3343852013
 31
0.0
  0
SPLINE
  5
91
330
1F
100
AcDbEntity
  8
0
  6
Continuous
 62
     7
370
    15
100
AcDbSpline
210
0.0
220
0.0
230
1.0
 70
     8
 71
     3
 72
    12
 73
     8
 74
     0
 42
0.00000001
 43
0.00000001
 40
0.0
 40
0.0
 40
0.0
 40
0.0
 40
0.2129450518942126
 40
0.4258243839382623
 40
0.6404391482140376
 40
0.8562195686391473
 40
1.0
 40
1.0
 40
1.0
 40
1.0
 10
155.7225270461335
 20
146.9704121648973
 30
0.0
 10
156.2246182269445
 20
146.9785949753815
 30
0.0
 10
157.2286456314218
 20
146.994958070942
 30
0.0
 10
158.5721641499308
 20
147.1096412537134
 30
0.0
 10
159.5837563423133
 20
147.2344824818355
 30
0.0
 10
160.1654350903338
 20
147.3251046512736
 30
0.0
 10
160.1662546011235
 20
147.3253719925903
 30
0.0
 10
160.1665823053613
 20
147.3254788964695
 30
0.0
  0
SPLINE
  5
92
330
1F
100
AcDbEntity
  8
0
  6
Continuous
 62
     7
370
    15
100
AcDbSpline
210
0.0
220
0.0
230
1.0
 70
     8
 71
     3
 72
    12
 73
     8
 74
     0
 42
0.00000001
 43
0.00000001
 40
0.0
 40
0.0
 40
0.0
 40
0.0
 40
0.2061375585303315
 40
0.4182331767443541
 40
0.6326184917507115
 40
0.8482953559151903
 40
1.0
 40
1.0
 40
1.0
 40
1.0
 10
151.2295140218034
 20
147.3332889675802
 30
0.0
 10
151.2727591843613
 20
147.3261545232221
 30
0.0
 10
151.3604994382209
 20
147.3116794253822
 30
0.0
 10
152.1037333612802
 20
147.2009199503953
 30
0.0
 10
153.220656716954
 20
147.0744272159617
 30
0.0
 10
154.5008687534705
 20
146.9845684917974
 30
0.0
 10
155.3654933713796
 20
146.9745493982338
 30
0.0
 10
155.7225270461335
 20
146.9704121648973
 30
0.0
  0
SPLINE
  5
93
330
1F
100
AcDbEntity
  8
0
  6
Continuous
 62
     7
370
    15
100
AcDbSpline
210
0.0
220
0.0
230
1.0
 70
     8
 71
     3
 72
    12
 73
     8
 74
     0
 42
0.00000001
 43
0.00000001
 40
0.0
 40
0.0
 40
0.0
 40
0.0
 40
0.2129459958168752
 40
0.4258243041360919
 40
0.6404389690443124
 40
0.85621969691944
 40
1.0
 40
1.0
 40
1.0
 40
1.0
 10
140.2225254368081
 20
146.9704121648973
 30
0.0
 10
140.7246193374282
 20
146.9785948634267
 30
0.0
 10
141.7286475419614
 20
146.9949576595142
 30
0.0
 10
143.0721644154384
 20
147.109641568913
 30
0.0
 10
144.0837520576342
 20
147.2344825724937
 30
0.0
 10
144.6654452718746
 20
147.3251046026118
 30
0.0
 10
144.6662563602045
 20
147.3253719787962
 30
0.0
 10
144.6665806960359
 20
147.3254788964695
 30
0.0
  0
SPLINE
  5
94
330
1F
100
AcDbEntity
  8
0
  6
Continuous
 62
     7
370
    15
100
AcDbSpline
210
0.0
220
0.0
230
1.0
 70
     8
 71
     3
 72
    12
 73
     8
 74
     0
 42
0.00000001
 43
0.00000001
 40
0.0
 40
0.0
 40
0.0
 40
0.0
 40
0.2061376156677429
 40
0.4182337899504757
 40
0.6326183899195433
 40
0.8482953138655477
 40
1.0
 40
1.0
 40
1.0
 40
1.0
 10
135.729512412478
 20
147.3332889675802
 30
0.0
 10
135.7727568989579
 20
147.3261544801037
 30
0.0
 10
135.8604958854421
 20
147.3116792775696
 30
0.0
 10
136.6037407628071
 20
147.2009204185606
 30
0.0
 10
137.7206548043993
 20
147.0744269076589
 30
0.0
 10
139.0008674775253
 20
146.9845685231315
 30
0.0
 10
139.8654918594857
 20
146.9745494073913
 30
0.0
 10
140.2225254368081
 20
146.9704121648973
 30
0.0
  0
SPLINE
  5
95
330
1F
100
AcDbEntity
  8
0
  6
Continuous
 62
     7
370
    15
100
AcDbSpline
210
0.0
220
0.0
230
1.0
 70
     8
 71
     3
 72
    12
 73
     8
 74
     0
 42
0.00000001
 43
0.00000001
 40
0.0
 40
0.0
 40
0.0
 40
0.0
 40
0.2129459275441987
 40
0.425824630192533
 40
0.6404392262930845
 40
0.8562196813075664
 40
1.0
 40
1.0
 40
1.0
 40
1.0
 10
124.7225238274827
 20
146.9704121648973
 30
0.0
 10
125.224617663184
 20
146.9785948928761
 30
0.0
 10
126.2286468285931
 20
146.9949577656285
 30
0.0
 10
127.5721654675971
 20
147.1096414129457
 30
0.0
 10
128.583755998222
 20
147.2344825269454
 30
0.0
 10
129.165439951414
 20
147.3251046310982
 30
0.0
 10
129.1662590129039
 20
147.3253719868705
 30
0.0
 10
129.1665865372911
 20
147.3254788964695
 30
0.0
  0
SPLINE
  5
96
330
1F
100
AcDbEntity
  8
0
  6
Continuous
 62
     7
370
    15
100
AcDbSpline
210
0.0
220
0.0
230
1.0
 70
     8
 71
     3
 72
    12
 73
     8
 74
     0
 42
0.00000001
 43
0.00000001
 40
0.0
 40
0.0
 40
0.0
 40
0.0
 40
0.2061375699216565
 40
0.4182337823898486
 40
0.632618808186559
 40
0.8482952865528764
 40
1.0
 40
1.0
 40
1.0
 40
1.0
 10
120.2295145284429
 20
147.3332889675802
 30
0.0
 10
120.272757519987
 20
147.3261544836667
 30
0.0
 10
120.3604934912716
 20
147.3116792854112
 30
0.0
 10
121.1037392907736
 20
147.200920254856
 30
0.0
 10
122.2206560118094
 20
147.0744272115738
 30
0.0
 10
123.5008667458346
 20
146.984568438561
 30
0.0
 10
124.3654901734692
 20
146.9745493865361
 30
0.0
 10
124.7225238274827
 20
146.9704121648973
 30
0.0
  0
SPLINE
  5
97
330
1F
100
AcDbEntity
  8
0
  6
Continuous
 62
     7
370
    15
100
AcDbSpline
210
0.0
220
0.0
230
1.0
 70
     8
 71
     3
 72
    70
 73
    66
 74
     0
 42
0.00000001
 43
0.00000001
 40
-0.0312499999999999
 40
-0.0312499999999999
 40
0.0
 40
0.0
 40
0.0312500000000003
 40
0.0312500000000003
 40
0.0625000000000006
 40
0.0625000000000006
 40
0.0937500000000009
 40
0.0937500000000009
 40
0.1250000000000011
 40
0.1250000000000011
 40
0.1562500000000014
 40
0.1562500000000014
 40
0.1875000000000017
 40
0.1875000000000017
 40
0.218750000000002
 40
0.218750000000002
 40
0.2500000000000023
 40
0.2500000000000023
 40
0.2812500000000026
 40
0.2812500000000026
 40
0.3125000000000028
 40
0.3125000000000028
 40
0.3437500000000031
 40
0.3437500000000031
 40
0.3750000000000034
 40
0.3750000000000034
 40
0.4062500000000032
 40
0.4062500000000032
 40
0.437500000000003
 40
0.437500000000003
 40
0.4687500000000028
 40
0.4687500000000028
 40
0.5000000000000026
 40
0.5000000000000026
 40
0.5312500000000024
 40
0.5312500000000024
 40
0.5625000000000022
 40
0.5625000000000022
 40
0.5937500000000021
 40
0.5937500000000021
 40
0.6250000000000019
 40
0.6250000000000019
 40
0.6562500000000018
 40
0.6562500000000018
 40
0.6875000000000016
 40
0.6875000000000016
 40
0.7187500000000014
 40
0.7187500000000014
 40
0.7500000000000012
 40
0.7500000000000012
 40
0.7812500000000011
 40
0.7812500000000011
 40
0.812500000000001
 40
0.812500000000001
 40
0.8437500000000008
 40
0.8437500000000008
 40
0.8750000000000007
 40
0.8750000000000007
 40
0.9062500000000004
 40
0.9062500000000004
 40
0.9375000000000003
 40
0.9375000000000003
 40
0.9687500000000001
 40
0.9687500000000001
 40
1.0
 40
1.0
 40
1.03125
 40
1.03125
 10
124.4247150526483
 20
114.834385201306
 30
0.0
 10
125.0203339136193
 20
114.834385201306
 30
0.0
 10
125.3130685457337
 20
114.863656257323
 30
0.0
 10
125.8888339097005
 20
114.9782536718477
 30
0.0
 10
126.1748840983302
 20
115.0650058045342
 30
0.0
 10
126.7195912778588
 20
115.2910359580622
 30
0.0
 10
126.9778623370506
 20
115.4292814347376
 30
0.0
 10
127.4666493383789
 20
115.7558152296828
 30
0.0
 10
127.6976974781067
 20
115.9455506735776
 30
0.0
 10
128.1120271162625
 20
116.3599733760281
 30
0.0
 10
128.2981280589003
 20
116.5861922950613
 30
0.0
 10
128.6271156454859
 20
117.0779116171817
 30
0.0
 10
128.7666133282308
 20
117.3390918330058
 30
0.0
 10
128.9912045771819
 20
117.8803492776445
 30
0.0
 10
129.077865080437
 20
118.1644385156562
 30
0.0
 10
129.1936551714047
 20
118.7455241530248
 30
0.0
 10
129.2223558878869
 20
119.0378147469373
 30
0.0
 10
129.2226916114218
 20
119.6258170511149
 30
0.0
 10
129.1933662543076
 20
119.9245174086138
 30
0.0
 10
129.0783624288435
 20
120.5020144043028
 30
0.0
 10
128.9932773586382
 20
120.7827572119515
 30
0.0
 10
128.7675125102855
 20
121.3281714147829
 30
0.0
 10
128.6268246263084
 20
121.5909802700681
 30
0.0
 10
128.3013829892771
 20
122.0780237899981
 30
0.0
 10
128.1149719250048
 20
122.3057719717009
 30
0.0
 10
127.6959589131246
 20
122.7250380404625
 30
0.0
 10
127.4692464843344
 20
122.9108793036791
 30
0.0
 10
126.9824512811993
 20
123.236759181792
 30
0.0
 10
126.7191640337588
 20
123.3779305497185
 30
0.0
 10
126.1748208087956
 20
123.6037720263966
 30
0.0
 10
125.894346234093
 20
123.6891042660499
 30
0.0
 10
125.316750399709
 20
123.8046916683097
 30
0.0
 10
125.0181868086652
 20
123.834270426243
 30
0.0
 10
124.4303663080033
 20
123.8344992941985
 30
0.0
 10
124.1379137760987
 20
123.8060981649863
 30
0.0
 10
123.5560012553653
 20
123.6906691759113
 30
0.0
 10
123.2725243679478
 20
123.6044488347123
 30
0.0
 10
122.7307676526165
 20
123.3802285615297
 30
0.0
 10
122.4684201557887
 20
123.2402997439711
 30
0.0
 10
121.977445957625
 20
122.9123313470646
 30
0.0
 10
121.7511282583422
 20
122.7265581158179
 30
0.0
 10
121.3359319078928
 20
122.3121399487586
 30
0.0
 10
121.1459222704176
 20
122.0810284295422
 30
0.0
 10
120.8194727339561
 20
121.5932166369079
 30
0.0
 10
120.6809625352811
 20
121.3351220499456
 30
0.0
 10
120.4541957699378
 20
120.7899060400238
 30
0.0
 10
120.3674298881743
 20
120.5045258317707
 30
0.0
 10
120.2523625612646
 20
119.9291376022097
 30
0.0
 10
120.222769350018
 20
119.6354458147634
 30
0.0
 10
120.2222826299019
 20
119.0406897580367
 30
0.0
 10
120.251231666363
 20
118.7480647724266
 30
0.0
 10
120.365347841157
 20
118.171955500533
 30
0.0
 10
120.4520051483849
 20
117.8854355388223
 30
0.0
 10
120.677363038629
 20
117.3410313940838
 30
0.0
 10
120.8153507972357
 20
117.0825946957178
 30
0.0
 10
121.1418170473202
 20
116.5930167561785
 30
0.0
 10
121.3312011015201
 20
116.3620626264804
 30
0.0
 10
121.7450755305286
 20
115.947561689204
 30
0.0
 10
121.9712267317302
 20
115.7611308919122
 30
0.0
 10
122.4634834408004
 20
115.431242974134
 30
0.0
 10
122.7236343913713
 20
115.2920713649015
 30
0.0
 10
123.2647324404166
 20
115.0669849258311
 30
0.0
 10
123.5491521641546
 20
114.9799541109037
 30
0.0
 10
124.1305011395605
 20
114.8636603069883
 30
0.0
 10
124.4247150526483
 20
114.834385201306
 30
0.0
 10
125.0203339136193
 20
114.834385201306
 30
0.0
  0
SPLINE
  5
98
330
1F
100
AcDbEntity
  8
0
  6
Continuous
 62
     7
370
    15
100
AcDbSpline
210
0.0
220
0.0
230
1.0
 70
     8
 71
     3
 72
    70
 73
    66
 74
     0
 42
0.00000001
 43
0.00000001
 40
-0.03125
 40
-0.03125
 40
0.0
 40
0.0
 40
0.03125
 40
0.03125
 40
0.0625
 40
0.0625
 40
0.09375
 40
0.09375
 40
0.125
 40
0.125
 40
0.15625
 40
0.15625
 40
0.1875
 40
0.1875
 40
0.21875
 40
0.21875
 40
0.25
 40
0.25
 40
0.28125
 40
0.28125
 40
0.3125
 40
0.3125
 40
0.34375
 40
0.34375
 40
0.375
 40
0.375
 40
0.40625
 40
0.40625
 40
0.4375
 40
0.4375
 40
0.46875
 40
0.46875
 40
0.5
 40
0.5
 40
0.53125
 40
0.53125
 40
0.5625
 40
0.5625
 40
0.59375
 40
0.59375
 40
0.625
 40
0.625
 40
0.65625
 40
0.65625
 40
0.6875
 40
0.6875
 40
0.71875
 40
0.71875
 40
0.75
 40
0.75
 40
0.78125
 40
0.78125
 40
0.8125
 40
0.8125
 40
0.84375
 40
0.84375
 40
0.875
 40
0.875
 40
0.90625
 40
0.90625
 40
0.9375
 40
0.9375
 40
0.96875
 40
0.96875
 40
1.0
 40
1.0
 40
1.03125
 40
1.03125
 10
139.9247150526483
 20
114.834385201306
 30
0.0
 10
140.5203339136193
 20
114.834385201306
 30
0.0
 10
140.8130685457338
 20
114.863656257323
 30
0.0
 10
141.3888339097005
 20
114.9782536718477
 30
0.0
 10
141.6748840983302
 20
115.0650058045342
 30
0.0
 10
142.2195912778587
 20
115.2910359580622
 30
0.0
 10
142.4778623370506
 20
115.4292814347375
 30
0.0
 10
142.9666493383788
 20
115.7558152296828
 30
0.0
 10
143.1976974781067
 20
115.9455506735776
 30
0.0
 10
143.6120271162625
 20
116.3599733760281
 30
0.0
 10
143.7981280589003
 20
116.5861922950613
 30
0.0
 10
144.1271156454858
 20
117.0779116171817
 30
0.0
 10
144.2666133282307
 20
117.3390918330058
 30
0.0
 10
144.4912045771819
 20
117.8803492776445
 30
0.0
 10
144.577865080437
 20
118.1644385156562
 30
0.0
 10
144.6936551714047
 20
118.7455241530248
 30
0.0
 10
144.7223558878869
 20
119.0378147469373
 30
0.0
 10
144.7226916114218
 20
119.6258170511149
 30
0.0
 10
144.6933662543077
 20
119.9245174086138
 30
0.0
 10
144.5783624288435
 20
120.5020144043028
 30
0.0
 10
144.4932773586382
 20
120.7827572119515
 30
0.0
 10
144.2675125102854
 20
121.3281714147829
 30
0.0
 10
144.1268246263084
 20
121.5909802700681
 30
0.0
 10
143.8013829892772
 20
122.0780237899981
 30
0.0
 10
143.6149719250048
 20
122.3057719717009
 30
0.0
 10
143.1959589131246
 20
122.7250380404625
 30
0.0
 10
142.9692464843343
 20
122.9108793036791
 30
0.0
 10
142.4824512811992
 20
123.236759181792
 30
0.0
 10
142.2191640337588
 20
123.3779305497185
 30
0.0
 10
141.6748208087956
 20
123.6037720263966
 30
0.0
 10
141.394346234093
 20
123.6891042660499
 30
0.0
 10
140.8167503997091
 20
123.8046916683097
 30
0.0
 10
140.5181868086652
 20
123.834270426243
 30
0.0
 10
139.9303663080033
 20
123.8344992941985
 30
0.0
 10
139.6379137760987
 20
123.8060981649863
 30
0.0
 10
139.0560012553653
 20
123.6906691759113
 30
0.0
 10
138.7725243679478
 20
123.6044488347123
 30
0.0
 10
138.2307676526165
 20
123.3802285615297
 30
0.0
 10
137.9684201557887
 20
123.2402997439711
 30
0.0
 10
137.4774459576251
 20
122.9123313470646
 30
0.0
 10
137.2511282583421
 20
122.7265581158179
 30
0.0
 10
136.8359319078928
 20
122.3121399487586
 30
0.0
 10
136.6459222704176
 20
122.0810284295422
 30
0.0
 10
136.3194727339561
 20
121.5932166369079
 30
0.0
 10
136.1809625352811
 20
121.3351220499456
 30
0.0
 10
135.9541957699378
 20
120.7899060400238
 30
0.0
 10
135.8674298881743
 20
120.5045258317707
 30
0.0
 10
135.7523625612646
 20
119.9291376022097
 30
0.0
 10
135.722769350018
 20
119.6354458147634
 30
0.0
 10
135.7222826299019
 20
119.0406897580367
 30
0.0
 10
135.751231666363
 20
118.7480647724266
 30
0.0
 10
135.865347841157
 20
118.171955500533
 30
0.0
 10
135.9520051483849
 20
117.8854355388223
 30
0.0
 10
136.177363038629
 20
117.3410313940838
 30
0.0
 10
136.3153507972357
 20
117.0825946957178
 30
0.0
 10
136.6418170473202
 20
116.5930167561785
 30
0.0
 10
136.8312011015202
 20
116.3620626264804
 30
0.0
 10
137.2450755305286
 20
115.947561689204
 30
0.0
 10
137.4712267317302
 20
115.7611308919122
 30
0.0
 10
137.9634834408004
 20
115.431242974134
 30
0.0
 10
138.2236343913713
 20
115.2920713649016
 30
0.0
 10
138.7647324404166
 20
115.0669849258311
 30
0.0
 10
139.0491521641546
 20
114.9799541109037
 30
0.0
 10
139.6305011395605
 20
114.8636603069883
 30
0.0
 10
139.9247150526483
 20
114.834385201306
 30
0.0
 10
140.5203339136193
 20
114.834385201306
 30
0.0
  0
SPLINE
  5
99
330
1F
100
AcDbEntity
  8
0
  6
Continuous
 62
     7
370
    15
100
AcDbSpline
210
0.0
220
0.0
230
1.0
 70
     8
 71
     3
 72
    70
 73
    66
 74
     0
 42
0.00000001
 43
0.00000001
 40
-0.03125
 40
-0.03125
 40
0.0
 40
0.0
 40
0.03125
 40
0.03125
 40
0.0625
 40
0.0625
 40
0.09375
 40
0.09375
 40
0.125
 40
0.125
 40
0.15625
 40
0.15625
 40
0.1875
 40
0.1875
 40
0.21875
 40
0.21875
 40
0.25
 40
0.25
 40
0.28125
 40
0.28125
 40
0.3125
 40
0.3125
 40
0.34375
 40
0.34375
 40
0.375
 40
0.375
 40
0.40625
 40
0.40625
 40
0.4375
 40
0.4375
 40
0.46875
 40
0.46875
 40
0.5
 40
0.5
 40
0.53125
 40
0.53125
 40
0.5625
 40
0.5625
 40
0.59375
 40
0.59375
 40
0.625
 40
0.625
 40
0.65625
 40
0.65625
 40
0.6875
 40
0.6875
 40
0.71875
 40
0.71875
 40
0.75
 40
0.75
 40
0.78125
 40
0.78125
 40
0.8125
 40
0.8125
 40
0.84375
 40
0.84375
 40
0.875
 40
0.875
 40
0.90625
 40
0.90625
 40
0.9375
 40
0.9375
 40
0.96875
 40
0.96875
 40
1.0
 40
1.0
 40
1.03125
 40
1.03125
 10
155.4247150526483
 20
114.834385201306
 30
0.0
 10
156.0203339136193
 20
114.834385201306
 30
0.0
 10
156.3130685457337
 20
114.863656257323
 30
0.0
 10
156.8888339097005
 20
114.9782536718477
 30
0.0
 10
157.1748840983302
 20
115.0650058045342
 30
0.0
 10
157.7195912778587
 20
115.2910359580622
 30
0.0
 10
157.9778623370506
 20
115.4292814347376
 30
0.0
 10
158.4666493383788
 20
115.7558152296828
 30
0.0
 10
158.6976974781067
 20
115.9455506735776
 30
0.0
 10
159.1120271162625
 20
116.3599733760281
 30
0.0
 10
159.2981280589004
 20
116.5861922950613
 30
0.0
 10
159.6271156454858
 20
117.0779116171817
 30
0.0
 10
159.7666133282308
 20
117.3390918330058
 30
0.0
 10
159.9912045771819
 20
117.8803492776445
 30
0.0
 10
160.077865080437
 20
118.1644385156562
 30
0.0
 10
160.1936551714047
 20
118.7455241530248
 30
0.0
 10
160.2223558878869
 20
119.0378147469373
 30
0.0
 10
160.2226916114218
 20
119.6258170511149
 30
0.0
 10
160.1933662543077
 20
119.9245174086138
 30
0.0
 10
160.0783624288435
 20
120.5020144043028
 30
0.0
 10
159.9932773586382
 20
120.7827572119515
 30
0.0
 10
159.7675125102854
 20
121.3281714147829
 30
0.0
 10
159.6268246263084
 20
121.5909802700681
 30
0.0
 10
159.3013829892772
 20
122.0780237899981
 30
0.0
 10
159.1149719250049
 20
122.3057719717009
 30
0.0
 10
158.6959589131247
 20
122.7250380404625
 30
0.0
 10
158.4692464843343
 20
122.9108793036791
 30
0.0
 10
157.9824512811992
 20
123.236759181792
 30
0.0
 10
157.7191640337588
 20
123.3779305497185
 30
0.0
 10
157.1748208087955
 20
123.6037720263966
 30
0.0
 10
156.894346234093
 20
123.6891042660499
 30
0.0
 10
156.316750399709
 20
123.8046916683097
 30
0.0
 10
156.0181868086651
 20
123.834270426243
 30
0.0
 10
155.4303663080033
 20
123.8344992941985
 30
0.0
 10
155.1379137760987
 20
123.8060981649863
 30
0.0
 10
154.5560012553653
 20
123.6906691759113
 30
0.0
 10
154.2725243679477
 20
123.6044488347123
 30
0.0
 10
153.7307676526165
 20
123.3802285615297
 30
0.0
 10
153.4684201557887
 20
123.2402997439711
 30
0.0
 10
152.9774459576251
 20
122.9123313470646
 30
0.0
 10
152.7511282583422
 20
122.7265581158179
 30
0.0
 10
152.3359319078928
 20
122.3121399487586
 30
0.0
 10
152.1459222704176
 20
122.0810284295422
 30
0.0
 10
151.8194727339561
 20
121.5932166369079
 30
0.0
 10
151.6809625352811
 20
121.3351220499456
 30
0.0
 10
151.4541957699379
 20
120.7899060400238
 30
0.0
 10
151.3674298881743
 20
120.5045258317707
 30
0.0
 10
151.2523625612646
 20
119.9291376022097
 30
0.0
 10
151.222769350018
 20
119.6354458147634
 30
0.0
 10
151.2222826299019
 20
119.0406897580367
 30
0.0
 10
151.251231666363
 20
118.7480647724266
 30
0.0
 10
151.365347841157
 20
118.171955500533
 30
0.0
 10
151.452005148385
 20
117.8854355388223
 30
0.0
 10
151.677363038629
 20
117.3410313940838
 30
0.0
 10
151.8153507972357
 20
117.0825946957178
 30
0.0
 10
152.1418170473202
 20
116.5930167561785
 30
0.0
 10
152.3312011015201
 20
116.3620626264804
 30
0.0
 10
152.7450755305286
 20
115.947561689204
 30
0.0
 10
152.9712267317302
 20
115.7611308919122
 30
0.0
 10
153.4634834408004
 20
115.431242974134
 30
0.0
 10
153.7236343913713
 20
115.2920713649016
 30
0.0
 10
154.2647324404166
 20
115.0669849258311
 30
0.0
 10
154.5491521641547
 20
114.9799541109037
 30
0.0
 10
155.1305011395605
 20
114.8636603069883
 30
0.0
 10
155.4247150526483
 20
114.834385201306
 30
0.0
 10
156.0203339136193
 20
114.834385201306
 30
0.0
  0
SPLINE
  5
9A
330
1F
100
AcDbEntity
  8
0
  6
Continuous
 62
     7
370
    15
100
AcDbSpline
210
0.0
220
0.0
230
1.0
 70
     8
 71
     3
 72
    12
 73
     8
 74
     0
 42
0.00000001
 43
0.00000001
 40
0.0
 40
0.0
 40
0.0
 40
0.0
 40
0.4999999999999996
 40
0.4999999999999996
 40
0.7499999999999997
 40
0.7499999999999997
 40
1.0
 40
1.0
 40
1.0
 40
1.0
 10
65.40601219667731
 20
97.47959149882989
 30
0.0
 10
65.46244869758449
 20
97.47817361748812
 30
0.0
 10
65.53153332827324
 20
97.47660928123983
 30
0.0
 10
65.65033559999117
 20
97.47366508926538
 30
0.0
 10
65.69052087546126
 20
97.472626886168
 30
0.0
 10
65.76390192286507
 20
97.47069299095337
 30
0.0
 10
65.79731148660773
 20
97.46979810366456
 30
0.0
 10
65.82754759426416
 20
97.46901431339222
 30
0.0
  0
SPLINE
  5
9B
330
1F
100
AcDbEntity
  8
0
  6
Continuous
 62
     7
370
    15
100
AcDbSpline
210
0.0
220
0.0
230
1.0
 70
     8
 71
     3
 72
    16
 73
    12
 74
     0
 42
0.00000001
 43
0.00000001
 40
0.0
 40
0.0
 40
0.0
 40
0.0
 40
0.0625000000000009
 40
0.0625000000000009
 40
0.1250000000000017
 40
0.1250000000000017
 40
0.249999999999998
 40
0.249999999999998
 40
0.4999999999999987
 40
0.4999999999999987
 40
1.0
 40
1.0
 40
1.0
 40
1.0
 10
65.82754759422696
 20
97.46901431341647
 30
0.0
 10
65.83912800181491
 20
97.46871412230512
 30
0.0
 10
65.85243752857617
 20
97.46738637404611
 30
0.0
 10
65.88173895866231
 20
97.46068769927112
 30
0.0
 10
65.89655305854662
 20
97.45532951616542
 30
0.0
 10
65.93238146024946
 20
97.43828386699808
 30
0.0
 10
65.94650108461249
 20
97.42682132922234
 30
0.0
 10
65.98100522870098
 20
97.3952580038501
 30
0.0
 10
65.9921097794056
 20
97.37736070480483
 30
0.0
 10
66.01828595662178
 20
97.32719928719058
 30
0.0
 10
66.02252448313381
 20
97.299454874994
 30
0.0
 10
66.02252448313381
 20
97.27479071306446
 30
0.0
  0
LINE
  5
9C
330
1F
100
AcDbEntity
  8
0
  6
Continuous
 62
     7
370
    15
100
AcDbLine
 10
66.0225244882
 20
112.3124979734
 30
0.0
 11
66.0225244882
 21
96.7945646792
 31
0.0
  0
SPLINE
  5
9D
330
1F
100
AcDbEntity
  8
0
  6
Continuous
 62
     7
370
    15
100
AcDbSpline
210
0.0
220
0.0
230
1.0
 70
     8
 71
     3
 72
    16
 73
    12
 74
     0
 42
0.00000001
 43
0.00000001
 40
0.0
 40
0.0
 40
0.0
 40
0.0
 40
0.4999999999999951
 40
0.4999999999999951
 40
0.7499999999999961
 40
0.7499999999999961
 40
0.8749999999999976
 40
0.8749999999999976
 40
0.9374999999999988
 40
0.9374999999999988
 40
1.0
 40
1.0
 40
1.0
 40
1.0
 10
66.02252448313381
 20
112.3124978755556
 30
0.0
 10
66.02252448313381
 20
112.4261904196835
 30
0.0
 10
66.01837820805585
 20
112.540510581033
 30
0.0
 10
65.99241261266233
 20
112.7135588715301
 30
0.0
 10
65.98095170728493
 20
112.7727343786918
 30
0.0
 10
65.94663996951056
 20
112.85585749816
 30
0.0
 10
65.932615233581
 20
112.8839788142607
 30
0.0
 10
65.89659227054716
 20
112.9125946282381
 30
0.0
 10
65.88183776145749
 20
112.9183876761399
 30
0.0
 10
65.8524856003106
 20
112.9167942502029
 30
0.0
 10
65.8391457258065
 20
112.9102978468791
 30
0.0
 10
65.82754759425816
 20
112.9017821006759
 30
0.0
  0
SPLINE
  5
9E
330
1F
100
AcDbEntity
  8
0
  6
Continuous
 62
     7
370
    15
100
AcDbSpline
210
0.0
220
0.0
230
1.0
 70
     8
 71
     3
 72
    12
 73
     8
 74
     0
 42
0.00000001
 43
0.00000001
 40
0.0
 40
0.0
 40
0.0
 40
0.0
 40
0.2499999999999999
 40
0.2499999999999999
 40
0.5000000000000001
 40
0.5000000000000001
 40
1.0
 40
1.0
 40
1.0
 40
1.0
 10
65.82754759426524
 20
112.9017821006668
 30
0.0
 10
65.7973491528246
 20
112.8796093686217
 30
0.0
 10
65.76398179748861
 20
112.8605297127445
 30
0.0
 10
65.69082652165869
 20
112.8353566683018
 30
0.0
 10
65.65057382263474
 20
112.829800131885
 30
0.0
 10
65.53284507935989
 20
112.8407119428717
 30
0.0
 10
65.46238663130097
 20
112.8826476982826
 30
0.0
 10
65.40601219668268
 20
112.9318594806641
 30
0.0
  0
SPLINE
  5
9F
330
1F
100
AcDbEntity
  8
0
  6
Continuous
 62
     7
370
    15
100
AcDbSpline
210
0.0
220
0.0
230
1.0
 70
     8
 71
     3
 72
    12
 73
     8
 74
     0
 42
0.00000001
 43
0.00000001
 40
0.0
 40
0.0
 40
0.0
 40
0.0
 40
0.4999999999999983
 40
0.4999999999999983
 40
0.749999999999999
 40
0.749999999999999
 40
1.0
 40
1.0
 40
1.0
 40
1.0
 10
64.90120413957415
 20
114.1482108725447
 30
0.0
 10
64.94495449145859
 20
113.9277638875702
 30
0.0
 10
64.9978446425831
 20
113.7122188977646
 30
0.0
 10
65.10945618572478
 20
113.3998048211927
 30
0.0
 10
65.15201552962829
 20
113.2977253455768
 30
0.0
 10
65.25699276496573
 20
113.103285332935
 30
0.0
 10
65.31856000806032
 20
113.0082004338714
 30
0.0
 10
65.40601219668268
 20
112.9318594806642
 30
0.0
  0
LINE
  5
A0
330
1F
100
AcDbEntity
  8
0
  6
Continuous
 62
     7
370
    15
100
AcDbLine
 10
64.9012041776
 20
114.1482106708
 30
0.0
 11
64.9012041776
 21
124.5205597318
 31
0.0
  0
SPLINE
  5
A1
330
1F
100
AcDbEntity
  8
0
  6
Continuous
 62
     7
370
    15
100
AcDbSpline
210
0.0
220
0.0
230
1.0
 70
     8
 71
     3
 72
    12
 73
     8
 74
     0
 42
0.00000001
 43
0.00000001
 40
0.0
 40
0.0
 40
0.0
 40
0.0
 40
0.2499999999999993
 40
0.2499999999999993
 40
0.4999999999999986
 40
0.4999999999999986
 40
1.0
 40
1.0
 40
1.0
 40
1.0
 10
65.40601219668258
 20
125.7369109219473
 30
0.0
 10
65.31751878911471
 20
125.659661041839
 30
0.0
 10
65.25746074834882
 20
125.5663417179498
 30
0.0
 10
65.15161247536625
 20
125.3703086649803
 30
0.0
 10
65.10907895408877
 20
125.2679823067686
 30
0.0
 10
64.99792764726513
 20
124.9566379009927
 30
0.0
 10
64.94499679021735
 20
124.7412196478147
 30
0.0
 10
64.90120413957415
 20
124.5205595300668
 30
0.0
  0
SPLINE
  5
A2
330
1F
100
AcDbEntity
  8
0
  6
Continuous
 62
     7
370
    15
100
AcDbSpline
210
0.0
220
0.0
230
1.0
 70
     8
 71
     3
 72
    12
 73
     8
 74
     0
 42
0.00000001
 43
0.00000001
 40
0.0
 40
0.0
 40
0.0
 40
0.0
 40
0.4999999999999997
 40
0.4999999999999997
 40
0.7499999999999998
 40
0.7499999999999998
 40
1.0
 40
1.0
 40
1.0
 40
1.0
 10
65.40601219668257
 20
125.7369109219473
 30
0.0
 10
65.46232074497821
 20
125.7860651891911
 30
0.0
 10
65.53259540569631
 20
125.8280225077949
 30
0.0
 10
65.65063332001989
 20
125.8389821853273
 30
0.0
 10
65.69080956087383
 20
125.83347342708
 30
0.0
 10
65.76476665555177
 20
125.807916198291
 30
0.0
 10
65.79738304326321
 20
125.7891361504517
 30
0.0
 10
65.82754759425896
 20
125.766988301935
 30
0.0
  0
SPLINE
  5
A3
330
1F
100
AcDbEntity
  8
0
  6
Continuous
 62
     7
370
    15
100
AcDbSpline
210
0.0
220
0.0
230
1.0
 70
     8
 71
     3
 72
    16
 73
    12
 74
     0
 42
0.00000001
 43
0.00000001
 40
0.0
 40
0.0
 40
0.0
 40
0.0
 40
0.0625000000000007
 40
0.0625000000000007
 40
0.1250000000000014
 40
0.1250000000000014
 40
0.2500000000000007
 40
0.2500000000000007
 40
0.4999999999999993
 40
0.4999999999999993
 40
1.0
 40
1.0
 40
1.0
 40
1.0
 10
65.82754759422721
 20
125.7669883018805
 30
0.0
 10
65.83916049406658
 20
125.7584617122853
 30
0.0
 10
65.85251167849906
 20
125.7519614507525
 30
0.0
 10
65.8819115181182
 20
125.7503920536349
 30
0.0
 10
65.89675224267349
 20
125.7562754442655
 30
0.0
 10
65.93258545064208
 20
125.784823080316
 30
0.0
 10
65.94669865846366
 20
125.8129900996219
 30
0.0
 10
65.98119002968254
 20
125.8967443580438
 30
0.0
 10
65.99227410079293
 20
125.9544577716652
 30
0.0
 10
66.01839691858893
 20
126.1280483083111
 30
0.0
 10
66.02252448313381
 20
126.243076360953
 30
0.0
 10
66.02252448313381
 20
126.3562725270558
 30
0.0
  0
LINE
  5
A4
330
1F
100
AcDbEntity
  8
0
  6
Continuous
 62
     7
370
    15
100
AcDbLine
 10
66.0225244882
 20
141.8742057234
 30
0.0
 11
66.0225244882
 21
126.3562724292
 31
0.0
  0
SPLINE
  5
A5
330
1F
100
AcDbEntity
  8
0
  6
Continuous
 62
     7
370
    15
100
AcDbSpline
210
0.0
220
0.0
230
1.0
 70
     8
 71
     3
 72
    16
 73
    12
 74
     0
 42
0.00000001
 43
0.00000001
 40
0.0
 40
0.0
 40
0.0
 40
0.0
 40
0.4999999999999957
 40
0.4999999999999957
 40
0.7499999999999936
 40
0.7499999999999936
 40
0.874999999999994
 40
0.874999999999994
 40
0.937499999999997
 40
0.937499999999997
 40
1.0
 40
1.0
 40
1.0
 40
1.0
 10
66.02252448313381
 20
141.393979689547
 30
0.0
 10
66.02252448313381
 20
141.3693085335041
 30
0.0
 10
66.01835878467382
 20
141.3417267021129
 30
0.0
 10
65.99210045634888
 20
141.2913838312895
 30
0.0
 10
65.98059667461129
 20
141.2730943332276
 30
0.0
 10
65.94646591526477
 20
141.2419393021906
 30
0.0
 10
65.93204402859406
 20
141.2302999269789
 30
0.0
 10
65.89647706015623
 20
141.2134179010478
 30
0.0
 10
65.88152529186156
 20
141.2080287972402
 30
0.0
 10
65.85252147350181
 20
141.2014083012956
 30
0.0
 10
65.83910611949257
 20
141.2000557130892
 30
0.0
 10
65.82754759425598
 20
141.1997560892176
 30
0.0
  0
SPLINE
  5
A6
330
1F
100
AcDbEntity
  8
0
  6
Continuous
 62
     7
370
    15
100
AcDbSpline
210
0.0
220
0.0
230
1.0
 70
     8
 71
     3
 72
    12
 73
     8
 74
     0
 42
0.00000001
 43
0.00000001
 40
0.0
 40
0.0
 40
0.0
 40
0.0
 40
0.2500000000000001
 40
0.2500000000000001
 40
0.4999999999999999
 40
0.4999999999999999
 40
1.0
 40
1.0
 40
1.0
 40
1.0
 10
65.82754759426524
 20
141.1997560892193
 30
0.0
 10
65.79735981771559
 20
141.1989735518017
 30
0.0
 10
65.7640060136239
 20
141.1980802199832
 30
0.0
 10
65.69087981042793
 20
141.1961529111796
 30
0.0
 10
65.65064460740375
 20
141.195113379967
 30
0.0
 10
65.53295297727067
 20
141.1921954966197
 30
0.0
 10
65.46257230411062
 20
141.1905998905495
 30
0.0
 10
65.40601219668002
 20
141.1891789037816
 30
0.0
  0
SPLINE
  5
A7
330
1F
100
AcDbEntity
  8
0
  6
Continuous
 62
     7
370
    15
100
AcDbSpline
210
0.0
220
0.0
230
1.0
 70
     8
 71
     3
 72
    16
 73
    12
 74
     0
 42
0.00000001
 43
0.00000001
 40
0.0
 40
0.0
 40
0.0
 40
0.0
 40
0.2499999999999999
 40
0.2499999999999999
 40
0.3749999999999999
 40
0.3749999999999999
 40
0.4999999999999999
 40
0.4999999999999999
 40
0.7499999999999999
 40
0.7499999999999999
 40
1.0
 40
1.0
 40
1.0
 40
1.0
 10
64.90120413957415
 20
124.5205595300668
 30
0.0
 10
64.7399716620897
 20
123.70814975482
 30
0.0
 10
64.61949182245006
 20
122.8680714604352
 30
0.0
 10
64.49711130513674
 20
121.5667764110725
 30
0.0
 10
64.46613364473929
 20
121.1260953754877
 30
0.0
 10
64.42451990711133
 20
120.2302557345566
 30
0.0
 10
64.41428399417852
 20
119.7835976033541
 30
0.0
 10
64.41409559712241
 20
118.4482876462142
 30
0.0
 10
64.45424029976002
 20
117.5637922729067
 30
0.0
 10
64.61839405469959
 20
115.8065423848807
 30
0.0
 10
64.73994570510915
 20
114.9607514384676
 30
0.0
 10
64.90120413957415
 20
114.1482108725447
 30
0.0
  0
LINE
  5
A8
330
1F
100
AcDbEntity
  8
0
  6
Continuous
 62
     7
370
    15
100
AcDbLine
 10
64.2274846122
 20
112.9466639198
 30
0.0
 11
65.4060122123
 21
112.9318596162
 31
0.0
  0
LINE
  5
A9
330
1F
100
AcDbEntity
  8
0
  6
Continuous
 62
     7
370
    15
100
AcDbLine
 10
64.2274846122
 20
125.7221064828
 30
0.0
 11
64.2274846122
 21
112.9466639198
 31
0.0
  0
LINE
  5
AA
330
1F
100
AcDbEntity
  8
0
  6
Continuous
 62
     7
370
    15
100
AcDbLine
 10
64.2274846122
 20
125.7221064828
 30
0.0
 11
65.4060122123
 21
125.7369107865
 31
0.0
  0
LWPOLYLINE
  5
AB
330
1F
100
AcDbEntity
  8
0
  6
Continuous
 62
     7
370
    15
100
AcDbPolyline
 90
        9
 70
   128
 43
0.0
 10
64.0225244951
 20
112.849207066
 10
64.0273461849
 20
112.8686614632
 10
64.0396659527
 20
112.8872720822
 10
64.0590106867
 20
112.9043232016
 10
64.084636493
 20
112.9191596359
 10
64.1155589636
 20
112.9312114156
 10
64.1505894981
 20
112.9400152079
 10
64.1883823354
 20
112.9452329427
 10
64.2274846122
 20
112.9466639198
  0
LINE
  5
AC
330
1F
100
AcDbEntity
  8
0
  6
Continuous
 62
     7
370
    15
100
AcDbLine
 10
64.0225244951
 20
125.8195633366
 30
0.0
 11
64.0225244951
 21
112.849207066
 31
0.0
  0
LWPOLYLINE
  5
AD
330
1F
100
AcDbEntity
  8
0
  6
Continuous
 62
     7
370
    15
100
AcDbPolyline
 90
        9
 70
   128
 43
0.0
 10
64.0225244951
 20
125.8195633366
 10
64.0273461849
 20
125.8001089394
 10
64.0396659527
 20
125.7814983204
 10
64.0590106867
 20
125.764447201
 10
64.084636493
 20
125.7496107667
 10
64.1155589636
 20
125.737558987
 10
64.1505894981
 20
125.7287551947
 10
64.1883823354
 20
125.7235374599
 10
64.2274846122
 20
125.7221064828
  0
LINE
  5
AE
330
1F
100
AcDbEntity
  8
0
  6
Continuous
 62
     7
370
    15
100
AcDbLine
 10
29.7225250196
 20
113.2800746076
 30
0.0
 11
64.0225244951
 21
112.849207066
 31
0.0
  0
LINE
  5
AF
330
1F
100
AcDbEntity
  8
0
  6
Continuous
 62
     7
370
    15
100
AcDbLine
 10
29.7225250196
 20
125.3886957951
 30
0.0
 11
29.7225250196
 21
113.2800746076
 31
0.0
  0
LINE
  5
B0
330
1F
100
AcDbEntity
  8
0
  6
Continuous
 62
     7
370
    15
100
AcDbLine
 10
29.7225250196
 20
125.3886957951
 30
0.0
 11
64.0225244951
 21
125.8195633366
 31
0.0
  0
LINE
  5
B1
330
1F
100
AcDbEntity
  8
0
  6
Continuous
 62
     7
370
    15
100
AcDbLine
 10
28.222525705
 20
113.7130874507
 30
0.0
 11
29.7225250196
 21
113.2800746076
 31
0.0
  0
LINE
  5
B2
330
1F
100
AcDbEntity
  8
0
  6
Continuous
 62
     7
370
    15
100
AcDbLine
 10
28.222525705
 20
124.9556829519
 30
0.0
 11
28.222525705
 21
113.7130874507
 31
0.0
  0
LINE
  5
B3
330
1F
100
AcDbEntity
  8
0
  6
Continuous
 62
     7
370
    15
100
AcDbLine
 10
28.222525705
 20
124.9556829519
 30
0.0
 11
29.7225250196
 21
125.3886957951
 31
0.0
  0
LINE
  5
B4
330
1F
100
AcDbEntity
  8
0
  6
Continuous
 62
     7
370
    15
100
AcDbLine
 10
29.7225250196
 20
125.3886957951
 30
0.0
 11
29.7225250196
 21
140.4927488714
 31
0.0
  0
LINE
  5
B5
330
1F
100
AcDbEntity
  8
0
  6
Continuous
 62
     7
370
    15
100
AcDbLine
 10
29.7225250196
 20
140.4927488714
 30
0.0
 11
64.0225244951
 21
141.3544848859
 31
0.0
  0
LINE
  5
B6
330
1F
100
AcDbEntity
  8
0
  6
Continuous
 62
     7
370
    15
100
AcDbLine
 10
64.0225244951
 20
125.8195633366
 30
0.0
 11
64.0225244951
 21
141.3544848859
 31
0.0
  0
ARC
  5
B7
330
1F
100
AcDbEntity
  8
0
  6
Continuous
 62
     7
370
    15
100
AcDbCircle
 10
64.2224613941
 20
141.359507097
 30
0.0
 40
0.2000000000000059
100
AcDbArc
 50
181.4391666667
 51
271.4391666667
  0
LINE
  5
B8
330
1F
100
AcDbEntity
  8
0
  6
Continuous
 62
     7
370
    15
100
AcDbLine
 10
64.2274846122
 20
125.7221064828
 30
0.0
 11
64.2274846122
 21
141.1595702469
 31
0.0
  0
LINE
  5
B9
330
1F
100
AcDbEntity
  8
0
  6
Continuous
 62
     7
370
    15
100
AcDbLine
 10
64.0225244951
 20
97.3142855167
 30
0.0
 11
64.0225244951
 21
112.849207066
 31
0.0
  0
LINE
  5
BA
330
1F
100
AcDbEntity
  8
0
  6
Continuous
 62
     7
370
    15
100
AcDbLine
 10
64.2274846122
 20
97.5092001557
 30
0.0
 11
64.2274846122
 21
112.9466639198
 31
0.0
  0
ARC
  5
BB
330
1F
100
AcDbEntity
  8
0
  6
Continuous
 62
     7
370
    15
100
AcDbCircle
 10
64.2224613941
 20
97.3092633056
 30
0.0
 40
0.1999999999999917
100
AcDbArc
 50
88.5608333333
 51
178.5608333333
  0
LINE
  5
BC
330
1F
100
AcDbEntity
  8
0
  6
Continuous
 62
     7
370
    15
100
AcDbLine
 10
29.7225250196
 20
98.1760215312
 30
0.0
 11
29.7225250196
 21
113.2800746076
 31
0.0
  0
LINE
  5
BD
330
1F
100
AcDbEntity
  8
0
  6
Continuous
 62
     7
370
    15
100
AcDbLine
 10
29.7225250196
 20
98.1760215312
 30
0.0
 11
64.0225244951
 21
97.3142855167
 31
0.0
  0
LINE
  5
BE
330
1F
100
AcDbEntity
  8
0
  6
Continuous
 62
     7
370
    15
100
AcDbLine
 10
65.8275475815
 20
97.4690135866
 30
0.0
 11
65.8275475815
 21
112.901782088
 31
0.0
  0
LINE
  5
BF
330
1F
100
AcDbEntity
  8
0
  6
Continuous
 62
     7
370
    15
100
AcDbLine
 10
65.8275475815
 20
125.7669883147
 30
0.0
 11
65.8275475815
 21
141.199756816
 31
0.0
  0
LINE
  5
C0
330
1F
100
AcDbEntity
  8
0
  6
Continuous
 62
     7
370
    15
100
AcDbLine
 10
64.2274846122
 20
141.1595702469
 30
0.0
 11
65.4060122123
 21
141.1891788542
 31
0.0
  0
LINE
  5
C1
330
1F
100
AcDbEntity
  8
0
  6
Continuous
 62
     7
370
    15
100
AcDbLine
 10
64.2274846122
 20
97.5092001557
 30
0.0
 11
65.4060122123
 21
97.4795915484
 31
0.0
  0
LINE
  5
C2
330
1F
100
AcDbEntity
  8
0
  6
Continuous
 62
     7
370
    15
100
AcDbLine
 10
28.222525705
 20
139.6267231852
 30
0.0
 11
29.7225250196
 21
140.4927488714
 31
0.0
  0
LINE
  5
C3
330
1F
100
AcDbEntity
  8
0
  6
Continuous
 62
     7
370
    15
100
AcDbLine
 10
28.222525705
 20
124.9556829519
 30
0.0
 11
28.222525705
 21
139.6267231852
 31
0.0
  0
LINE
  5
C4
330
1F
100
AcDbEntity
  8
0
  6
Continuous
 62
     7
370
    15
100
AcDbLine
 10
28.222525705
 20
99.0420472175
 30
0.0
 11
29.7225250196
 21
98.1760215312
 31
0.0
  0
LINE
  5
C5
330
1F
100
AcDbEntity
  8
0
  6
Continuous
 62
     7
370
    15
100
AcDbLine
 10
28.222525705
 20
99.0420472175
 30
0.0
 11
28.222525705
 21
113.7130874507
 31
0.0
  0
LINE
  5
C6
330
1F
100
AcDbEntity
  8
0
  6
Continuous
 62
     7
370
    15
100
AcDbLine
 10
66.5225244974
 20
87.8343846947
 30
0.0
 11
66.5225244974
 21
150.8343857079
 31
0.0
  0
LINE
  5
C7
330
1F
100
AcDbEntity
  8
0
  6
Continuous
 62
     7
370
    15
100
AcDbLine
 10
90.2225246918
 20
147.3343860656
 30
0.0
 11
90.2225246918
 21
91.334384337
 31
0.0
  0
LINE
  5
C8
330
1F
100
AcDbEntity
  8
0
  6
Continuous
 62
     7
370
    15
100
AcDbLine
 10
165.2225239467
 20
119.3343852013
 30
0.0
 11
165.2225239467
 21
91.334384337
 31
0.0
  0
LINE
  5
C9
330
1F
100
AcDbEntity
  8
0
  6
Continuous
 62
     7
370
    15
100
AcDbLine
 10
165.2225239467
 20
147.3343860656
 30
0.0
 11
165.2225239467
 21
119.3343852013
 31
0.0
  0
LINE
  5
CA
330
1F
100
AcDbEntity
  8
0
  6
HIDDEN
 62
     7
370
     0
100
AcDbLine
 10
155.7225270461
 20
136.3343861252
 30
0.0
 11
160.7225222778
 21
136.3343861252
 31
0.0
  0
LINE
  5
CB
330
1F
100
AcDbEntity
  8
0
  6
HIDDEN
 62
     7
370
     0
100
AcDbLine
 10
150.7225243639
 20
136.3343861252
 30
0.0
 11
155.7225270461
 21
136.3343861252
 31
0.0
  0
LINE
  5
CC
330
1F
100
AcDbEntity
  8
0
  6
HIDDEN
 62
     7
370
     0
100
AcDbLine
 10
155.7225270461
 20
134.834384948
 30
0.0
 11
159.2225266885
 21
134.834384948
 31
0.0
  0
LINE
  5
CD
330
1F
100
AcDbEntity
  8
0
  6
HIDDEN
 62
     7
370
     0
100
AcDbLine
 10
152.2225274038
 20
134.834384948
 30
0.0
 11
155.7225270461
 21
134.834384948
 31
0.0
  0
LINE
  5
CE
330
1F
100
AcDbEntity
  8
0
  6
HIDDEN
 62
     7
370
     0
100
AcDbLine
 10
155.7225270461
 20
146.5343855619
 30
0.0
 11
160.7225222778
 21
146.5343855619
 31
0.0
  0
LINE
  5
CF
330
1F
100
AcDbEntity
  8
0
  6
HIDDEN
 62
     7
370
     0
100
AcDbLine
 10
150.7225243639
 20
146.5343855619
 30
0.0
 11
155.7225270461
 21
146.5343855619
 31
0.0
  0
LINE
  5
D0
330
1F
100
AcDbEntity
  8
0
  6
HIDDEN
 62
     7
370
     0
100
AcDbLine
 10
158.2225246619
 20
141.3343850821
 30
0.0
 11
155.7225270461
 21
141.3343850821
 31
0.0
  0
LINE
  5
D1
330
1F
100
AcDbEntity
  8
0
  6
HIDDEN
 62
     7
370
     0
100
AcDbLine
 10
155.7225270461
 20
141.3343850821
 30
0.0
 11
155.7225270461
 21
147.3343860656
 31
0.0
  0
LINE
  5
D2
330
1F
100
AcDbEntity
  8
0
  6
HIDDEN
 62
     7
370
     0
100
AcDbLine
 10
153.2225219797
 20
141.3343850821
 30
0.0
 11
155.7225270461
 21
141.3343850821
 31
0.0
  0
LINE
  5
D3
330
1F
100
AcDbEntity
  8
0
  6
HIDDEN
 62
     7
370
     0
100
AcDbLine
 10
158.2225246619
 20
141.3343850821
 30
0.0
 11
158.2225246619
 21
147.3343860656
 31
0.0
  0
LINE
  5
D4
330
1F
100
AcDbEntity
  8
0
  6
HIDDEN
 62
     7
370
     0
100
AcDbLine
 10
153.2225219797
 20
141.3343850821
 30
0.0
 11
153.2225219797
 21
147.3343860656
 31
0.0
  0
LINE
  5
D5
330
1F
100
AcDbEntity
  8
0
  6
HIDDEN
 62
     7
370
     0
100
AcDbLine
 10
140.2225254368
 20
136.3343861252
 30
0.0
 11
145.222528119
 21
136.3343861252
 31
0.0
  0
LINE
  5
D6
330
1F
100
AcDbEntity
  8
0
  6
HIDDEN
 62
     7
370
     0
100
AcDbLine
 10
135.2225227546
 20
136.3343861252
 30
0.0
 11
140.2225254368
 21
136.3343861252
 31
0.0
  0
LINE
  5
D7
330
1F
100
AcDbEntity
  8
0
  6
HIDDEN
 62
     7
370
     0
100
AcDbLine
 10
140.2225254368
 20
134.834384948
 30
0.0
 11
143.7225250792
 21
134.834384948
 31
0.0
  0
LINE
  5
D8
330
1F
100
AcDbEntity
  8
0
  6
HIDDEN
 62
     7
370
     0
100
AcDbLine
 10
136.7225257944
 20
134.834384948
 30
0.0
 11
140.2225254368
 21
134.834384948
 31
0.0
  0
LINE
  5
D9
330
1F
100
AcDbEntity
  8
0
  6
HIDDEN
 62
     7
370
     0
100
AcDbLine
 10
140.2225254368
 20
146.5343855619
 30
0.0
 11
145.222528119
 21
146.5343855619
 31
0.0
  0
LINE
  5
DA
330
1F
100
AcDbEntity
  8
0
  6
HIDDEN
 62
     7
370
     0
100
AcDbLine
 10
135.2225227546
 20
146.5343855619
 30
0.0
 11
140.2225254368
 21
146.5343855619
 31
0.0
  0
LINE
  5
DB
330
1F
100
AcDbEntity
  8
0
  6
HIDDEN
 62
     7
370
     0
100
AcDbLine
 10
142.7225230526
 20
141.3343850821
 30
0.0
 11
140.2225254368
 21
141.3343850821
 31
0.0
  0
LINE
  5
DC
330
1F
100
AcDbEntity
  8
0
  6
HIDDEN
 62
     7
370
     0
100
AcDbLine
 10
137.722527821
 20
141.3343850821
 30
0.0
 11
140.2225254368
 21
141.3343850821
 31
0.0
  0
LINE
  5
DD
330
1F
100
AcDbEntity
  8
0
  6
HIDDEN
 62
     7
370
     0
100
AcDbLine
 10
140.2225254368
 20
141.3343850821
 30
0.0
 11
140.2225254368
 21
147.3343860656
 31
0.0
  0
LINE
  5
DE
330
1F
100
AcDbEntity
  8
0
  6
HIDDEN
 62
     7
370
     0
100
AcDbLine
 10
142.7225230526
 20
141.3343850821
 30
0.0
 11
142.7225230526
 21
147.3343860656
 31
0.0
  0
LINE
  5
DF
330
1F
100
AcDbEntity
  8
0
  6
HIDDEN
 62
     7
370
     0
100
AcDbLine
 10
137.722527821
 20
141.3343850821
 30
0.0
 11
137.722527821
 21
147.3343860656
 31
0.0
  0
LINE
  5
E0
330
1F
100
AcDbEntity
  8
0
  6
HIDDEN
 62
     7
370
     0
100
AcDbLine
 10
124.7225238275
 20
136.3343861252
 30
0.0
 11
129.7225265097
 21
136.3343861252
 31
0.0
  0
LINE
  5
E1
330
1F
100
AcDbEntity
  8
0
  6
HIDDEN
 62
     7
370
     0
100
AcDbLine
 10
119.7225248706
 20
136.3343861252
 30
0.0
 11
124.7225238275
 21
136.3343861252
 31
0.0
  0
LINE
  5
E2
330
1F
100
AcDbEntity
  8
0
  6
HIDDEN
 62
     7
370
     0
100
AcDbLine
 10
124.7225238275
 20
134.834384948
 30
0.0
 11
128.2225234699
 21
134.834384948
 31
0.0
  0
LINE
  5
E3
330
1F
100
AcDbEntity
  8
0
  6
HIDDEN
 62
     7
370
     0
100
AcDbLine
 10
121.2225241851
 20
134.834384948
 30
0.0
 11
124.7225238275
 21
134.834384948
 31
0.0
  0
LINE
  5
E4
330
1F
100
AcDbEntity
  8
0
  6
HIDDEN
 62
     7
370
     0
100
AcDbLine
 10
124.7225238275
 20
146.5343855619
 30
0.0
 11
129.7225265097
 21
146.5343855619
 31
0.0
  0
LINE
  5
E5
330
1F
100
AcDbEntity
  8
0
  6
HIDDEN
 62
     7
370
     0
100
AcDbLine
 10
119.7225248706
 20
146.5343855619
 30
0.0
 11
124.7225238275
 21
146.5343855619
 31
0.0
  0
LINE
  5
E6
330
1F
100
AcDbEntity
  8
0
  6
HIDDEN
 62
     7
370
     0
100
AcDbLine
 10
127.2225251686
 20
141.3343850821
 30
0.0
 11
124.7225238275
 21
141.3343850821
 31
0.0
  0
LINE
  5
E7
330
1F
100
AcDbEntity
  8
0
  6
HIDDEN
 62
     7
370
     0
100
AcDbLine
 10
122.2225262117
 20
141.3343850821
 30
0.0
 11
124.7225238275
 21
141.3343850821
 31
0.0
  0
LINE
  5
E8
330
1F
100
AcDbEntity
  8
0
  6
HIDDEN
 62
     7
370
     0
100
AcDbLine
 10
124.7225238275
 20
141.3343850821
 30
0.0
 11
124.7225238275
 21
147.3343860656
 31
0.0
  0
LINE
  5
E9
330
1F
100
AcDbEntity
  8
0
  6
HIDDEN
 62
     7
370
     0
100
AcDbLine
 10
127.2225251686
 20
141.3343850821
 30
0.0
 11
127.2225251686
 21
147.3343860656
 31
0.0
  0
LINE
  5
EA
330
1F
100
AcDbEntity
  8
0
  6
HIDDEN
 62
     7
370
     0
100
AcDbLine
 10
122.2225262117
 20
141.3343850821
 30
0.0
 11
122.2225262117
 21
147.3343860656
 31
0.0
  0
CIRCLE
  5
EB
330
1F
100
AcDbEntity
  8
0
  6
HIDDEN
 62
     7
370
     0
100
AcDbCircle
 10
124.7225244831
 20
119.3343852013
 30
0.0
 40
5.0
  0
CIRCLE
  5
EC
330
1F
100
AcDbEntity
  8
0
  6
HIDDEN
 62
     7
370
     0
100
AcDbCircle
 10
124.7225244831
 20
119.3343852013
 30
0.0
 40
2.5
  0
CIRCLE
  5
ED
330
1F
100
AcDbEntity
  8
0
  6
HIDDEN
 62
     7
370
     0
100
AcDbCircle
 10
124.7225244831
 20
119.3343852013
 30
0.0
 40
3.499999999999986
  0
CIRCLE
  5
EE
330
1F
100
AcDbEntity
  8
0
  6
HIDDEN
 62
     7
370
     0
100
AcDbCircle
 10
140.2225244831
 20
119.3343852013
 30
0.0
 40
5.0
  0
CIRCLE
  5
EF
330
1F
100
AcDbEntity
  8
0
  6
HIDDEN
 62
     7
370
     0
100
AcDbCircle
 10
140.2225244831
 20
119.3343852013
 30
0.0
 40
2.5
  0
CIRCLE
  5
F0
330
1F
100
AcDbEntity
  8
0
  6
HIDDEN
 62
     7
370
     0
100
AcDbCircle
 10
140.2225244831
 20
119.3343852013
 30
0.0
 40
3.5
  0
CIRCLE
  5
F1
330
1F
100
AcDbEntity
  8
0
  6
HIDDEN
 62
     7
370
     0
100
AcDbCircle
 10
155.7225244831
 20
119.3343852013
 30
0.0
 40
5.0
  0
CIRCLE
  5
F2
330
1F
100
AcDbEntity
  8
0
  6
HIDDEN
 62
     7
370
     0
100
AcDbCircle
 10
155.7225244831
 20
119.3343852013
 30
0.0
 40
2.5
  0
CIRCLE
  5
F3
330
1F
100
AcDbEntity
  8
0
  6
HIDDEN
 62
     7
370
     0
100
AcDbCircle
 10
155.7225244831
 20
119.3343852013
 30
0.0
 40
3.5
  0
SPLINE
  5
F4
330
1F
100
AcDbEntity
  8
0
  6
HIDDEN
 62
     7
370
     0
100
AcDbSpline
210
0.0
220
0.0
230
1.0
 70
     8
 71
     3
 72
     9
 73
     5
 74
     0
 42
0.00000001
 43
0.00000001
 40
0.0
 40
0.0
 40
0.0
 40
0.0
 40
0.3547925647816709
 40
1.0
 40
1.0
 40
1.0
 40
1.0
 10
76.24939105324889
 20
119.0852553066506
 30
0.0
 10
76.23636219892816
 20
119.1684234483518
 30
0.0
 10
76.19963974300876
 20
119.4028368773716
 30
0.0
 10
76.2599937598436
 20
119.6342749560481
 30
0.0
 10
76.2989346202507
 20
119.7836005252028
 30
0.0
  0
SPLINE
  5
F5
330
1F
100
AcDbEntity
  8
0
  6
HIDDEN
 62
     7
370
     0
100
AcDbSpline
210
0.0
220
0.0
230
1.0
 70
    24
 71
     1
 72
     4
 73
     2
 74
     0
 42
0.00000001
 43
0.00000001
 40
0.0
 40
0.0
 40
1.0
 40
1.0
 10
155.9898538779512
 20
146.9775591343349
 30
0.0
 10
154.8950059603944
 20
146.9862986653751
 30
0.0
  0
SPLINE
  5
F6
330
1F
100
AcDbEntity
  8
0
  6
HIDDEN
 62
     7
370
     0
100
AcDbSpline
210
0.0
220
0.0
230
1.0
 70
    24
 71
     1
 72
     4
 73
     2
 74
     0
 42
0.00000001
 43
0.00000001
 40
0.0
 40
0.0
 40
1.0
 40
1.0
 10
140.4898522686258
 20
146.9775591343349
 30
0.0
 10
139.3950118016496
 20
146.9862986653751
 30
0.0
  0
SPLINE
  5
F7
330
1F
100
AcDbEntity
  8
0
  6
HIDDEN
 62
     7
370
     0
100
AcDbSpline
210
0.0
220
0.0
230
1.0
 70
    24
 71
     1
 72
     4
 73
     2
 74
     0
 42
0.00000001
 43
0.00000001
 40
0.0
 40
0.0
 40
1.0
 40
1.0
 10
124.9898543845906
 20
146.9775591343349
 30
0.0
 10
123.8950101923242
 20
146.9862986653751
 30
0.0
  0
LINE
  5
F8
330
1F
100
AcDbEntity
  8
0
  6
HIDDEN
 62
     7
370
     0
100
AcDbLine
 10
66.3154177036
 20
95.1772783249
 30
0.0
 11
66.3154177036
 21
143.4914920777
 31
0.0
  0
SPLINE
  5
F9
330
1F
100
AcDbEntity
  8
0
  6
HIDDEN
 62
     7
370
     0
100
AcDbSpline
210
0.0
220
0.0
230
1.0
 70
     8
 71
     3
 72
    12
 73
     8
 74
     0
 42
0.00000001
 43
0.00000001
 40
0.0
 40
0.0
 40
0.0
 40
0.0
 40
0.5000000000000002
 40
0.5000000000000002
 40
0.7500000000000003
 40
0.7500000000000003
 40
1.0
 40
1.0
 40
1.0
 40
1.0
 10
65.40601219668677
 20
134.7866531831366
 30
0.0
 10
65.46241837536702
 20
134.7388308094768
 30
0.0
 10
65.53258127683881
 20
134.6985599625383
 30
0.0
 10
65.650591990228
 20
134.6905140940613
 30
0.0
 10
65.69079777382345
 20
134.6970766924002
 30
0.0
 10
65.76451847055651
 20
134.7244587868538
 30
0.0
 10
65.79737919234302
 20
134.7442202773841
 30
0.0
 10
65.82754759427229
 20
134.7671529885722
 30
0.0
  0
SPLINE
  5
FA
330
1F
100
AcDbEntity
  8
0
  6
HIDDEN
 62
     7
370
     0
100
AcDbSpline
210
0.0
220
0.0
230
1.0
 70
     8
 71
     3
 72
    15
 73
    11
 74
     0
 42
0.00000001
 43
0.00000001
 40
0.0
 40
0.0
 40
0.0
 40
0.0
 40
0.0599012513605742
 40
0.1089139284308101
 40
0.1582617630216915
 40
0.2013271003078557
 40
0.2745724866777215
 40
0.419523735234053
 40
0.9194854589958638
 40
1.0
 40
1.0
 40
1.0
 40
1.0
 10
65.82754758154483
 20
134.7671527713245
 30
0.0
 10
65.83449271455979
 20
134.7720049935491
 30
0.0
 10
65.84712052621563
 20
134.7808274233329
 30
0.0
 10
65.86913724756604
 20
134.7894323258558
 30
0.0
 10
65.88942966602306
 20
134.7918640493877
 30
0.0
 10
65.91050635269619
 20
134.788433042023
 30
0.0
 10
65.9368263474264
 20
134.7746188736994
 30
0.0
 10
65.98252266069683
 20
134.717531668666
 30
0.0
 10
66.00393229210518
 20
134.6469280174134
 30
0.0
 10
66.00762325308577
 20
134.5853428129247
 30
0.0
 10
66.00813520516245
 20
134.5768006816214
 30
0.0
  0
SPLINE
  5
FB
330
1F
100
AcDbEntity
  8
0
  6
HIDDEN
 62
     7
370
     0
100
AcDbSpline
210
0.0
220
0.0
230
1.0
 70
     8
 71
     3
 72
    15
 73
    11
 74
     0
 42
0.00000001
 43
0.00000001
 40
0.0
 40
0.0
 40
0.0
 40
0.0
 40
0.4292552321418588
 40
0.5861154117961138
 40
0.7438912139607678
 40
0.8126197413360867
 40
0.8563754242550892
 40
0.9004535025217136
 40
0.9392691932905409
 40
0.9999999999999999
 40
0.9999999999999999
 40
0.9999999999999999
 40
0.9999999999999999
 10
66.00313873230921
 20
104.1303653567737
 30
0.0
 10
66.0016242086883
 20
104.0788929094475
 30
0.0
 10
65.99955624173234
 20
104.0086111926463
 30
0.0
 10
65.96669530620575
 20
103.9331647808027
 30
0.0
 10
65.94176850444016
 20
103.8978482273221
 30
0.0
 10
65.91269090965466
 20
103.8810002866346
 30
0.0
 10
65.89082714990505
 20
103.8768419597003
 30
0.0
 10
65.87067766995612
 20
103.8790705244303
 30
0.0
 10
65.848360281058
 20
103.8872154123665
 30
0.0
 10
65.8354337388373
 20
103.8961604745306
 30
0.0
 10
65.82754758154483
 20
103.901617631287
 30
0.0
  0
SPLINE
  5
FC
330
1F
100
AcDbEntity
  8
0
  6
HIDDEN
 62
     7
370
     0
100
AcDbSpline
210
0.0
220
0.0
230
1.0
 70
     8
 71
     3
 72
    12
 73
     8
 74
     0
 42
0.00000001
 43
0.00000001
 40
0.0
 40
0.0
 40
0.0
 40
0.0
 40
0.2500000000000006
 40
0.2500000000000006
 40
0.5000000000000009
 40
0.5000000000000009
 40
1.0
 40
1.0
 40
1.0
 40
1.0
 10
65.82754759426523
 20
103.9016174140312
 30
0.0
 10
65.79735575254801
 20
103.924567943129
 30
0.0
 10
65.7639967831334
 20
103.9445374171531
 30
0.0
 10
65.6908594985528
 20
103.9716385507786
 30
0.0
 10
65.65061762589883
 20
103.978239291424
 30
0.0
 10
65.53291184893034
 20
103.9702704169173
 30
0.0
 10
65.46250137115094
 20
103.9300099587495
 30
0.0
 10
65.40601219668262
 20
103.8821172194714
 30
0.0
  0
SPLINE
  5
FD
330
1F
100
AcDbEntity
  8
0
  6
HIDDEN
 62
     7
370
     0
100
AcDbSpline
210
0.0
220
0.0
230
1.0
 70
     8
 71
     3
 72
    12
 73
     8
 74
     0
 42
0.00000001
 43
0.00000001
 40
0.0
 40
0.0
 40
0.0
 40
0.0
 40
0.2499999999999996
 40
0.2499999999999996
 40
0.4999999999999991
 40
0.4999999999999991
 40
1.0
 40
1.0
 40
1.0
 40
1.0
 10
65.4060121966823
 20
103.8821172194716
 30
0.0
 10
65.31785825894454
 20
103.8073784116175
 30
0.0
 10
65.25750483431581
 20
103.7163979111351
 30
0.0
 10
65.15124287624896
 20
103.5274840883825
 30
0.0
 10
65.10901070968688
 20
103.4309796288419
 30
0.0
 10
64.99794001436972
 20
103.1402118746748
 30
0.0
 10
64.94500323794293
 20
102.944545060131
 30
0.0
 10
64.90120413957415
 20
102.7504785750647
 30
0.0
  0
LINE
  5
FE
330
1F
100
AcDbEntity
  8
0
  6
HIDDEN
 62
     7
370
     0
100
AcDbLine
 10
64.9012041776
 20
102.7504787147
 30
0.0
 11
64.9012041776
 21
97.5643046498
 31
0.0
  0
SPLINE
  5
FF
330
1F
100
AcDbEntity
  8
0
  6
HIDDEN
 62
     7
370
     0
100
AcDbSpline
210
0.0
220
0.0
230
1.0
 70
     8
 71
     3
 72
    12
 73
     8
 74
     0
 42
0.00000001
 43
0.00000001
 40
0.0
 40
0.0
 40
0.0
 40
0.0
 40
0.5
 40
0.5
 40
0.75
 40
0.75
 40
1.0
 40
1.0
 40
1.0
 40
1.0
 10
64.90120413957415
 20
97.56430424630364
 30
0.0
 10
64.94495068041073
 20
97.53771007566247
 30
0.0
 10
64.99783503564224
 20
97.51794985033673
 30
0.0
 10
65.10940212297841
 20
97.49749886010767
 30
0.0
 10
65.15198571952138
 20
97.49223863545122
 30
0.0
 10
65.25690244660318
 20
97.48435584152857
 30
0.0
 10
65.31843605444799
 20
97.48179171634942
 30
0.0
 10
65.40601219667413
 20
97.47959149882978
 30
0.0
  0
SPLINE
  5
100
330
1F
100
AcDbEntity
  8
0
  6
HIDDEN
 62
     7
370
     0
100
AcDbSpline
210
0.0
220
0.0
230
1.0
 70
     8
 71
     3
 72
    12
 73
     8
 74
     0
 42
0.00000001
 43
0.00000001
 40
0.0
 40
0.0
 40
0.0
 40
0.0
 40
0.2500000000000004
 40
0.2500000000000004
 40
0.5000000000000009
 40
0.5000000000000009
 40
1.0
 40
1.0
 40
1.0
 40
1.0
 10
65.4060121966821
 20
141.1891789037817
 30
0.0
 10
65.31732753682573
 20
141.1869508364407
 30
0.0
 10
65.25740912110233
 20
141.1844490524103
 30
0.0
 10
65.15174989378158
 20
141.1765176165743
 30
0.0
 10
65.10910865566663
 20
141.1712254616775
 30
0.0
 10
64.99791931356411
 20
141.1508205211903
 30
0.0
 10
64.94499263144313
 20
141.1310858296035
 30
0.0
 10
64.90120413957415
 20
141.1044661563079
 30
0.0
  0
LINE
  5
101
330
1F
100
AcDbEntity
  8
0
  6
HIDDEN
 62
     7
370
     0
100
AcDbLine
 10
64.9012041776
 20
141.1044657528
 30
0.0
 11
64.9012041776
 21
135.9182916879
 31
0.0
  0
SPLINE
  5
102
330
1F
100
AcDbEntity
  8
0
  6
HIDDEN
 62
     7
370
     0
100
AcDbSpline
210
0.0
220
0.0
230
1.0
 70
     8
 71
     3
 72
    12
 73
     8
 74
     0
 42
0.00000001
 43
0.00000001
 40
0.0
 40
0.0
 40
0.0
 40
0.0
 40
0.500000000000006
 40
0.500000000000006
 40
0.7500000000000043
 40
0.7500000000000043
 40
1.0
 40
1.0
 40
1.0
 40
1.0
 10
64.90120413957257
 20
135.918291827547
 30
0.0
 10
64.94496561587133
 20
135.7243920395849
 30
0.0
 10
64.99787193152434
 20
135.528535675648
 30
0.0
 10
65.10958312917172
 20
135.2363935291491
 30
0.0
 10
65.15210257275811
 20
135.1396755924512
 30
0.0
 10
65.25722591532552
 20
134.9529511560267
 30
0.0
 10
65.31879187904322
 20
134.860600447757
 30
0.0
 10
65.40601219668595
 20
134.7866531831373
 30
0.0
  0
CIRCLE
  5
103
330
1F
100
AcDbEntity
  8
0
  6
HIDDEN
 62
     7
370
     0
100
AcDbCircle
 10
50.7225244831
 20
119.3343852013
 30
0.0
 40
4.049999999999997
  0
LINE
  5
104
330
1F
100
AcDbEntity
  8
0
  6
HIDDEN
 62
     7
370
     0
100
AcDbLine
 10
165.72252496
 20
135.3290811479
 30
0.0
 11
165.72252496
 21
103.3396892547
 31
0.0
  0
LINE
  5
105
330
1F
100
AcDbEntity
  8
0
  6
HIDDEN
 62
     7
370
     0
100
AcDbLine
 10
105.3982807588
 20
119.3343852013
 30
0.0
 11
105.3982807588
 21
103.034384951
 31
0.0
  0
LINE
  5
106
330
1F
100
AcDbEntity
  8
0
  6
HIDDEN
 62
     7
370
     0
100
AcDbLine
 10
105.3982807588
 20
135.6343854516
 30
0.0
 11
105.3982807588
 21
119.3343852013
 31
0.0
  0
LINE
  5
107
330
1F
100
AcDbEntity
  8
0
  6
HIDDEN
 62
     7
370
     0
100
AcDbLine
 10
106.2225235891
 20
119.3343852013
 30
0.0
 11
106.2225235891
 21
103.3343844413
 31
0.0
  0
LINE
  5
108
330
1F
100
AcDbEntity
  8
0
  6
HIDDEN
 62
     7
370
     0
100
AcDbLine
 10
106.2225235891
 20
135.3343859613
 30
0.0
 11
106.2225235891
 21
119.3343852013
 31
0.0
  0
LINE
  5
109
330
1F
100
AcDbEntity
  8
0
  6
HIDDEN
 62
     7
370
     0
100
AcDbLine
 10
100.6225256514
 20
135.6134642213
 30
0.0
 11
100.6225256514
 21
103.0553061813
 31
0.0
  0
LINE
  5
10A
330
1F
100
AcDbEntity
  8
0
  6
HIDDEN
 62
     7
370
     0
100
AcDbLine
 10
100.2225263309
 20
119.3343852013
 30
0.0
 11
100.2225263309
 21
103.4343842715
 31
0.0
  0
LINE
  5
10B
330
1F
100
AcDbEntity
  8
0
  6
HIDDEN
 62
     7
370
     0
100
AcDbLine
 10
100.2225263309
 20
135.2343861311
 30
0.0
 11
100.2225263309
 21
119.3343852013
 31
0.0
  0
LINE
  5
10C
330
1F
100
AcDbEntity
  8
0
  6
HIDDEN
 62
     7
370
     0
100
AcDbLine
 10
29.7527520251
 20
104.0214341432
 30
0.0
 11
29.7527520251
 21
134.6473362595
 31
0.0
  0
LINE
  5
10D
330
1F
100
AcDbEntity
  8
0
  6
HIDDEN
 62
     7
370
     0
100
AcDbLine
 10
39.2243249606
 20
103.3343844413
 30
0.0
 11
39.2243249606
 21
135.313170433
 31
0.0
  0
LINE
  5
10E
330
1F
100
AcDbEntity
  8
0
  6
HIDDEN
 62
     7
370
     0
100
AcDbLine
 10
40.6385401528
 20
103.9201714396
 30
0.0
 11
40.6385401528
 21
134.748598963
 31
0.0
  0
LINE
  5
10F
330
1F
100
AcDbEntity
  8
0
  6
HIDDEN
 62
     7
370
     0
100
AcDbLine
 10
38.2225236189
 20
103.3343844413
 30
0.0
 11
38.2225236189
 21
135.313170433
 31
0.0
  0
SPLINE
  5
110
330
1F
100
AcDbEntity
  8
0
  6
HIDDEN
 62
     7
370
     0
100
AcDbSpline
210
0.0
220
0.0
230
1.0
 70
     8
 71
     3
 72
    12
 73
     8
 74
     0
 42
0.00000001
 43
0.00000001
 40
0.0
 40
0.0
 40
0.0
 40
0.0
 40
0.2090013976966907
 40
0.4177981071838357
 40
0.6318597225380104
 40
0.849689944359166
 40
0.9999999999999999
 40
0.9999999999999999
 40
0.9999999999999999
 40
0.9999999999999999
 10
155.7225270461335
 20
134.6885379701561
 30
0.0
 10
155.2280308654924
 20
134.7028724096864
 30
0.0
 10
154.2395227954107
 20
134.7315272501291
 30
0.0
 10
152.9120695840251
 20
134.9311180448478
 30
0.0
 10
151.893164284695
 20
135.1511227025967
 30
0.0
 10
151.2888696043735
 20
135.3155095486796
 30
0.0
 10
151.2786717976485
 20
135.3186338462234
 30
0.0
 10
151.2745080780282
 20
135.3199094831651
 30
0.0
  0
SPLINE
  5
111
330
1F
100
AcDbEntity
  8
0
  6
HIDDEN
 62
     7
370
     0
100
AcDbSpline
210
0.0
220
0.0
230
1.0
 70
    24
 71
     1
 72
     4
 73
     2
 74
     0
 42
0.00000001
 43
0.00000001
 40
0.0
 40
0.0
 40
1.0
 40
1.0
 10
155.395401854445
 20
134.7040109634107
 30
0.0
 10
156.2108380984559
 20
134.7093185707635
 30
0.0
  0
SPLINE
  5
112
330
1F
100
AcDbEntity
  8
0
  6
HIDDEN
 62
     7
370
     0
100
AcDbSpline
210
0.0
220
0.0
230
1.0
 70
     8
 71
     3
 72
    12
 73
     8
 74
     0
 42
0.00000001
 43
0.00000001
 40
0.0
 40
0.0
 40
0.0
 40
0.0
 40
0.1757791186738597
 40
0.3822888895246767
 40
0.5948304069677138
 40
0.8126291123814019
 40
1.0
 40
1.0
 40
1.0
 40
1.0
 10
160.1907892417207
 20
135.3255942761606
 30
0.0
 10
160.1697441601713
 20
135.3194879045175
 30
0.0
 10
160.1239747825787
 20
135.3062076124551
 30
0.0
 10
159.4815585502441
 20
135.1343561371197
 30
0.0
 10
158.4429126201001
 20
134.9139468968228
 30
0.0
 10
157.1234608781365
 20
134.7249292621359
 30
0.0
 10
156.1655249917068
 20
134.7000454855116
 30
0.0
 10
155.7225270461335
 20
134.6885379701561
 30
0.0
  0
SPLINE
  5
113
330
1F
100
AcDbEntity
  8
0
  6
HIDDEN
 62
     7
370
     0
100
AcDbSpline
210
0.0
220
0.0
230
1.0
 70
     8
 71
     3
 72
    12
 73
     8
 74
     0
 42
0.00000001
 43
0.00000001
 40
0.0
 40
0.0
 40
0.0
 40
0.0
 40
0.2090014693474977
 40
0.4177982504152776
 40
0.6318599391550261
 40
0.8496898189266155
 40
0.9999999999999999
 40
0.9999999999999999
 40
0.9999999999999999
 40
0.9999999999999999
 10
140.2225254368081
 20
134.6885379701561
 30
0.0
 10
139.7280291853855
 20
134.7028724076549
 30
0.0
 10
138.7395209738103
 20
134.7315272440366
 30
0.0
 10
137.4120688317394
 20
134.9311180694459
 30
0.0
 10
136.3931600088393
 20
135.1511224639439
 30
0.0
 10
135.7888797039434
 20
135.3155096588007
 30
0.0
 10
135.7786735871974
 20
135.3186338768611
 30
0.0
 10
135.7745064687028
 20
135.3199094831651
 30
0.0
  0
SPLINE
  5
114
330
1F
100
AcDbEntity
  8
0
  6
HIDDEN
 62
     7
370
     0
100
AcDbSpline
210
0.0
220
0.0
230
1.0
 70
    24
 71
     1
 72
     4
 73
     2
 74
     0
 42
0.00000001
 43
0.00000001
 40
0.0
 40
0.0
 40
1.0
 40
1.0
 10
139.8954002451196
 20
134.7040109634107
 30
0.0
 10
140.7108364891305
 20
134.7093185707635
 30
0.0
  0
SPLINE
  5
115
330
1F
100
AcDbEntity
  8
0
  6
HIDDEN
 62
     7
370
     0
100
AcDbSpline
210
0.0
220
0.0
230
1.0
 70
     8
 71
     3
 72
    12
 73
     8
 74
     0
 42
0.00000001
 43
0.00000001
 40
0.0
 40
0.0
 40
0.0
 40
0.0
 40
0.1757792170385442
 40
0.3822889632439428
 40
0.5948304553217171
 40
0.8126291347427357
 40
1.0
 40
1.0
 40
1.0
 40
1.0
 10
144.6907950829759
 20
135.3255942761606
 30
0.0
 10
144.66974693738
 20
135.3194879136912
 30
0.0
 10
144.62397091281
 20
135.3062076464506
 30
0.0
 10
143.9815576456631
 20
135.1343561372624
 30
0.0
 10
142.9429108143394
 20
134.913946896783
 30
0.0
 10
141.6234593104263
 20
134.7249292621443
 30
0.0
 10
140.6655233955408
 20
134.7000454855142
 30
0.0
 10
140.2225254368081
 20
134.6885379701561
 30
0.0
  0
SPLINE
  5
116
330
1F
100
AcDbEntity
  8
0
  6
HIDDEN
 62
     7
370
     0
100
AcDbSpline
210
0.0
220
0.0
230
1.0
 70
     8
 71
     3
 72
    12
 73
     8
 74
     0
 42
0.00000001
 43
0.00000001
 40
0.0
 40
0.0
 40
0.0
 40
0.0
 40
0.2090009921823401
 40
0.4177978153649149
 40
0.6318599018525369
 40
0.8496898255609182
 40
1.0
 40
1.0
 40
1.0
 40
1.0
 10
124.7225238274827
 20
134.6885379701561
 30
0.0
 10
124.2280288064371
 20
134.702872443965
 30
0.0
 10
123.2395218269035
 20
134.7315273885145
 30
0.0
 10
121.9120708667215
 20
134.9311183033067
 30
0.0
 10
120.8931585190913
 20
135.1511222277858
 30
0.0
 10
120.2888767351377
 20
135.315509671795
 30
0.0
 10
120.2786742285447
 20
135.3186338807602
 30
0.0
 10
120.2745085846677
 20
135.3199094831651
 30
0.0
  0
SPLINE
  5
117
330
1F
100
AcDbEntity
  8
0
  6
HIDDEN
 62
     7
370
     0
100
AcDbSpline
210
0.0
220
0.0
230
1.0
 70
    24
 71
     1
 72
     4
 73
     2
 74
     0
 42
0.00000001
 43
0.00000001
 40
0.0
 40
0.0
 40
1.0
 40
1.0
 10
124.3953986357942
 20
134.7040109634107
 30
0.0
 10
125.2108348798051
 20
134.7093185707635
 30
0.0
  0
SPLINE
  5
118
330
1F
100
AcDbEntity
  8
0
  6
HIDDEN
 62
     7
370
     0
100
AcDbSpline
210
0.0
220
0.0
230
1.0
 70
     8
 71
     3
 72
    12
 73
     8
 74
     0
 42
0.00000001
 43
0.00000001
 40
0.0
 40
0.0
 40
0.0
 40
0.0
 40
0.1757792170385442
 40
0.3822889632439428
 40
0.5948304553217171
 40
0.8126291347427357
 40
1.0
 40
1.0
 40
1.0
 40
1.0
 10
129.1907934736505
 20
135.3255942761606
 30
0.0
 10
129.1697453280546
 20
135.3194879136912
 30
0.0
 10
129.1239693034846
 20
135.3062076464506
 30
0.0
 10
128.4815560363377
 20
135.1343561372624
 30
0.0
 10
127.442909205014
 20
134.913946896783
 30
0.0
 10
126.1234577011009
 20
134.7249292621443
 30
0.0
 10
125.1655217862154
 20
134.7000454855142
 30
0.0
 10
124.7225238274827
 20
134.6885379701561
 30
0.0
  0
SPLINE
  5
119
330
1F
100
AcDbEntity
  8
0
  6
HIDDEN
 62
     7
370
     0
100
AcDbSpline
210
0.0
220
0.0
230
1.0
 70
    24
 71
     1
 72
     4
 73
     2
 74
     0
 42
0.00000001
 43
0.00000001
 40
0.0
 40
0.0
 40
1.0
 40
1.0
 10
124.7225238274827
 20
123.8343850075907
 30
0.0
 10
124.2284534763589
 20
123.7522600516385
 30
0.0
  0
SPLINE
  5
11A
330
1F
100
AcDbEntity
  8
0
  6
HIDDEN
 62
     7
370
     0
100
AcDbSpline
210
0.0
220
0.0
230
1.0
 70
     8
 71
     3
 72
     9
 73
     5
 74
     0
 42
0.00000001
 43
0.00000001
 40
0.0
 40
0.0
 40
0.0
 40
0.0
 40
0.7871423449606454
 40
1.0
 40
1.0
 40
1.0
 40
1.0
 10
124.296779025723
 20
114.8853194266266
 30
0.0
 10
124.7301456675787
 20
114.8418325082961
 30
0.0
 10
125.280702558121
 20
114.7865859336341
 30
0.0
 10
125.7794925077547
 20
114.9880484142946
 30
0.0
 10
125.8856637667909
 20
115.0309312455064
 30
0.0
  0
SPLINE
  5
11B
330
1F
100
AcDbEntity
  8
0
  6
HIDDEN
 62
     7
370
     0
100
AcDbSpline
210
0.0
220
0.0
230
1.0
 70
    24
 71
     1
 72
     4
 73
     2
 74
     0
 42
0.00000001
 43
0.00000001
 40
0.0
 40
0.0
 40
1.0
 40
1.0
 10
125.0122955333486
 20
123.7913010939664
 30
0.0
 10
124.7225238274827
 20
123.8343850075907
 30
0.0
  0
SPLINE
  5
11C
330
1F
100
AcDbEntity
  8
0
  6
HIDDEN
 62
     7
370
     0
100
AcDbSpline
210
0.0
220
0.0
230
1.0
 70
    24
 71
     1
 72
     4
 73
     2
 74
     0
 42
0.00000001
 43
0.00000001
 40
0.0
 40
0.0
 40
1.0
 40
1.0
 10
155.7225270461335
 20
123.8343850075907
 30
0.0
 10
155.2284566950097
 20
123.7522600516385
 30
0.0
  0
SPLINE
  5
11D
330
1F
100
AcDbEntity
  8
0
  6
HIDDEN
 62
     7
370
     0
100
AcDbSpline
210
0.0
220
0.0
230
1.0
 70
     8
 71
     3
 72
     9
 73
     5
 74
     0
 42
0.00000001
 43
0.00000001
 40
0.0
 40
0.0
 40
0.0
 40
0.0
 40
0.7871384482873242
 40
1.0
 40
1.0
 40
1.0
 40
1.0
 10
155.2967785190835
 20
114.8853194266266
 30
0.0
 10
155.7301433831763
 20
114.8418340910138
 30
0.0
 10
156.2807007406981
 20
114.786589253581
 30
0.0
 10
156.7794932400475
 20
114.9880483496999
 30
0.0
 10
156.8856669854417
 20
115.0309312455064
 30
0.0
  0
SPLINE
  5
11E
330
1F
100
AcDbEntity
  8
0
  6
HIDDEN
 62
     7
370
     0
100
AcDbSpline
210
0.0
220
0.0
230
1.0
 70
    24
 71
     1
 72
     4
 73
     2
 74
     0
 42
0.00000001
 43
0.00000001
 40
0.0
 40
0.0
 40
1.0
 40
1.0
 10
156.0122950267091
 20
123.7913010939664
 30
0.0
 10
155.7225270461335
 20
123.8343850075907
 30
0.0
  0
SPLINE
  5
11F
330
1F
100
AcDbEntity
  8
0
  6
HIDDEN
 62
     7
370
     0
100
AcDbSpline
210
0.0
220
0.0
230
1.0
 70
    24
 71
     1
 72
     4
 73
     2
 74
     0
 42
0.00000001
 43
0.00000001
 40
0.0
 40
0.0
 40
1.0
 40
1.0
 10
140.2225254368081
 20
123.8343850075907
 30
0.0
 10
139.7284550856843
 20
123.7522600516385
 30
0.0
  0
SPLINE
  5
120
330
1F
100
AcDbEntity
  8
0
  6
HIDDEN
 62
     7
370
     0
100
AcDbSpline
210
0.0
220
0.0
230
1.0
 70
     8
 71
     3
 72
     9
 73
     5
 74
     0
 42
0.00000001
 43
0.00000001
 40
0.0
 40
0.0
 40
0.0
 40
0.0
 40
0.7871428369259834
 40
1.0
 40
1.0
 40
1.0
 40
1.0
 10
139.7967769097581
 20
114.8853194266266
 30
0.0
 10
140.2301448317214
 20
114.8418323084694
 30
0.0
 10
140.7807030044359
 20
114.7865855144733
 30
0.0
 10
141.2794941152927
 20
114.9880484224499
 30
0.0
 10
141.3856653761163
 20
115.0309312455064
 30
0.0
  0
SPLINE
  5
121
330
1F
100
AcDbEntity
  8
0
  6
HIDDEN
 62
     7
370
     0
100
AcDbSpline
210
0.0
220
0.0
230
1.0
 70
    24
 71
     1
 72
     4
 73
     2
 74
     0
 42
0.00000001
 43
0.00000001
 40
0.0
 40
0.0
 40
1.0
 40
1.0
 10
140.5122934173837
 20
123.7913010939664
 30
0.0
 10
140.2225254368081
 20
123.8343850075907
 30
0.0
  0
LINE
  5
122
330
1F
100
AcDbEntity
  8
0
  6
HIDDEN
 62
     7
370
     0
100
AcDbLine
 10
36.2527521592
 20
104.9879746809
 30
0.0
 11
36.2527521592
 21
133.6807957217
 31
0.0
  0
LINE
  5
123
330
1F
100
AcDbEntity
  8
0
  6
HIDDEN
 62
     7
370
     0
100
AcDbLine
 10
42.0527534824
 20
105.3343847692
 30
0.0
 11
42.0527534824
 21
133.3343856334
 31
0.0
  0
LINE
  5
124
330
1F
100
AcDbEntity
  8
0
  6
HIDDEN
 62
     7
370
     0
100
AcDbLine
 10
34.6527530145
 20
105.3343847692
 30
0.0
 11
34.6527530145
 21
133.3343856334
 31
0.0
  0
LINE
  5
125
330
1F
100
AcDbEntity
  8
0
  6
HIDDEN
 62
     7
370
     0
100
AcDbLine
 10
35.6527531784
 20
105.3343847692
 30
0.0
 11
35.6527531784
 21
133.3343856334
 31
0.0
  0
LINE
  5
126
330
1F
100
AcDbEntity
  8
0
  6
HIDDEN
 62
     7
370
     0
100
AcDbLine
 10
54.7225244608
 20
118.6999563309
 30
0.0
 11
54.7225244608
 21
105.3343847692
 31
0.0
  0
LINE
  5
127
330
1F
100
AcDbEntity
  8
0
  6
HIDDEN
 62
     7
370
     0
100
AcDbLine
 10
54.7225244608
 20
119.9688140717
 30
0.0
 11
54.7225244608
 21
133.3343856334
 31
0.0
  0
LINE
  5
128
330
1F
100
AcDbEntity
  8
0
  6
HIDDEN
 62
     7
370
     0
100
AcDbLine
 10
55.2225245427
 20
105.8343848511
 30
0.0
 11
55.2225245427
 21
132.8343855515
 31
0.0
  0
SPLINE
  5
129
330
1F
100
AcDbEntity
  8
0
  6
HIDDEN
 62
     7
370
     0
100
AcDbSpline
210
0.0
220
0.0
230
1.0
 70
    24
 71
     1
 72
     4
 73
     2
 74
     0
 42
0.00000001
 43
0.00000001
 40
0.0
 40
0.0
 40
1.0
 40
1.0
 10
54.72252446078206
 20
118.6999563309072
 30
0.0
 10
54.48081645034696
 20
117.9804623191884
 30
0.0
  0
SPLINE
  5
12A
330
1F
100
AcDbEntity
  8
0
  6
HIDDEN
 62
     7
370
     0
100
AcDbSpline
210
0.0
220
0.0
230
1.0
 70
     8
 71
     3
 72
     9
 73
     5
 74
     0
 42
0.00000001
 43
0.00000001
 40
0.0
 40
0.0
 40
0.0
 40
0.0
 40
0.5444065433784827
 40
1.0
 40
1.0
 40
1.0
 40
1.0
 10
50.11073893718864
 20
123.3003101609355
 30
0.0
 10
50.46972309578463
 20
123.3512462648271
 30
0.0
 10
51.12912765835327
 20
123.4448088873031
 30
0.0
 10
51.75082438117198
 20
123.2203345199984
 30
0.0
 10
52.03406534009124
 20
123.1180654670751
 30
0.0
  0
SPLINE
  5
12B
330
1F
100
AcDbEntity
  8
0
  6
HIDDEN
 62
     7
370
     0
100
AcDbSpline
210
0.0
220
0.0
230
1.0
 70
    24
 71
     1
 72
     4
 73
     2
 74
     0
 42
0.00000001
 43
0.00000001
 40
0.0
 40
0.0
 40
1.0
 40
1.0
 10
54.55082676224853
 20
120.4967933539009
 30
0.0
 10
54.72252446078206
 20
119.9688140717043
 30
0.0
  0
LINE
  5
12C
330
1F
100
AcDbEntity
  8
0
  6
HIDDEN
 62
     7
370
     0
100
AcDbLine
 10
56.472524282
 20
110.3343855887
 30
0.0
 11
56.472524282
 21
128.3343848139
 31
0.0
  0
LINE
  5
12D
330
1F
100
AcDbEntity
  8
0
  6
HIDDEN
 62
     7
370
     0
100
AcDbLine
 10
28.222525705
 20
104.6633454337
 30
0.0
 11
29.7225250196
 21
104.2303325906
 31
0.0
  0
LINE
  5
12E
330
1F
100
AcDbEntity
  8
0
  6
HIDDEN
 62
     7
370
     0
100
AcDbLine
 10
64.2274846122
 20
103.8969219029
 30
0.0
 11
65.4060122123
 21
103.8821175992
 31
0.0
  0
LINE
  5
12F
330
1F
100
AcDbEntity
  8
0
  6
HIDDEN
 62
     7
370
     0
100
AcDbLine
 10
64.2274846122
 20
103.8969219029
 30
0.0
 11
64.2274846122
 21
97.5092001557
 31
0.0
  0
SPLINE
  5
130
330
1F
100
AcDbEntity
  8
0
  6
HIDDEN
 62
     7
370
     0
100
AcDbSpline
210
0.0
220
0.0
230
1.0
 70
     8
 71
     3
 72
    16
 73
    12
 74
     0
 42
0.00000001
 43
0.00000001
 40
0.0
 40
0.0
 40
0.0
 40
0.0
 40
0.2499999999999995
 40
0.2499999999999995
 40
0.3749999999999996
 40
0.3749999999999996
 40
0.4999999999999997
 40
0.4999999999999997
 40
0.7499999999999998
 40
0.7499999999999998
 40
1.0
 40
1.0
 40
1.0
 40
1.0
 10
64.90120413957415
 20
102.7504785750647
 30
0.0
 10
64.73997166208969
 20
102.0360844128726
 30
0.0
 10
64.61949182245006
 20
101.3827421501639
 30
0.0
 10
64.49711130513674
 20
100.49448690836
 30
0.0
 10
64.46613364473927
 20
100.2138063720082
 30
0.0
 10
64.42451990711133
 20
99.68477238216819
 30
0.0
 10
64.41428399417852
 20
99.44145140358974
 30
0.0
 10
64.41409559712241
 20
98.77342871307651
 30
0.0
 10
64.45424029976002
 20
98.40974780365705
 30
0.0
 10
64.61839405469959
 20
97.84985693110875
 30
0.0
 10
64.73994570510915
 20
97.66233563899159
 30
0.0
 10
64.90120413957415
 20
97.56430424630364
 30
0.0
  0
LINE
  5
131
330
1F
100
AcDbEntity
  8
0
  6
HIDDEN
 62
     7
370
     0
100
AcDbLine
 10
29.7225250196
 20
104.2303325906
 30
0.0
 11
64.0225244951
 21
103.7994645834
 31
0.0
  0
LWPOLYLINE
  5
132
330
1F
100
AcDbEntity
  8
0
  6
HIDDEN
 62
     7
370
     0
100
AcDbPolyline
 90
        9
 70
   128
 43
0.0
 10
64.0225244951
 20
103.7994645834
 10
64.0273461849
 20
103.8189189806
 10
64.0396659527
 20
103.8375295996
 10
64.0590106867
 20
103.8545811847
 10
64.084636493
 20
103.8694171533
 10
64.1155589636
 20
103.8814693987
 10
64.1505894981
 20
103.890273191
 10
64.1883823354
 20
103.8954904601
 10
64.2274846122
 20
103.8969219029
  0
LINE
  5
133
330
1F
100
AcDbEntity
  8
0
  6
HIDDEN
 62
     7
370
     0
100
AcDbLine
 10
29.7225250196
 20
134.438437812
 30
0.0
 11
64.0225244951
 21
134.8693058192
 31
0.0
  0
LWPOLYLINE
  5
134
330
1F
100
AcDbEntity
  8
0
  6
HIDDEN
 62
     7
370
     0
100
AcDbPolyline
 90
        9
 70
   128
 43
0.0
 10
64.0225244951
 20
134.8693058192
 10
64.0273461849
 20
134.849851422
 10
64.0396659527
 20
134.831240803
 10
64.0590106867
 20
134.814189218
 10
64.084636493
 20
134.7993532493
 10
64.1155589636
 20
134.7873010039
 10
64.1505894981
 20
134.7784972116
 10
64.1883823354
 20
134.7732799425
 10
64.2274846122
 20
134.7718484997
  0
LINE
  5
135
330
1F
100
AcDbEntity
  8
0
  6
HIDDEN
 62
     7
370
     0
100
AcDbLine
 10
64.2274846122
 20
141.1595702469
 30
0.0
 11
64.2274846122
 21
134.7718484997
 31
0.0
  0
LINE
  5
136
330
1F
100
AcDbEntity
  8
0
  6
HIDDEN
 62
     7
370
     0
100
AcDbLine
 10
28.222525705
 20
134.0054249689
 30
0.0
 11
29.7225250196
 21
134.438437812
 31
0.0
  0
LINE
  5
137
330
1F
100
AcDbEntity
  8
0
  6
HIDDEN
 62
     7
370
     0
100
AcDbLine
 10
64.2274846122
 20
134.7718484997
 30
0.0
 11
65.4060122123
 21
134.7866528034
 31
0.0
  0
SPLINE
  5
138
330
1F
100
AcDbEntity
  8
0
  6
HIDDEN
 62
     7
370
     0
100
AcDbSpline
210
0.0
220
0.0
230
1.0
 70
     8
 71
     3
 72
    16
 73
    12
 74
     0
 42
0.00000001
 43
0.00000001
 40
0.0
 40
0.0
 40
0.0
 40
0.0
 40
0.25
 40
0.25
 40
0.375
 40
0.375
 40
0.5
 40
0.5
 40
0.75
 40
0.75
 40
1.0
 40
1.0
 40
1.0
 40
1.0
 10
64.90120413957415
 20
141.1044661563079
 30
0.0
 10
64.7399716620897
 20
141.0064505432532
 30
0.0
 10
64.61949182245006
 20
140.8197145115771
 30
0.0
 10
64.49711130513674
 20
140.4066747040182
 30
0.0
 10
64.46613364473929
 20
140.2466742047853
 30
0.0
 10
64.42451990711133
 20
139.8798685536941
 30
0.0
 10
64.41428399417852
 20
139.6765314010701
 30
0.0
 10
64.41409559712241
 20
139.0092441344434
 30
0.0
 10
64.45424029976002
 20
138.4884296705553
 30
0.0
 10
64.61839405469959
 20
137.2910706550777
 30
0.0
 10
64.73994570510915
 20
136.6328010007817
 30
0.0
 10
64.90120413957415
 20
135.9182918275468
 30
0.0
  0
LINE
  5
139
330
1F
100
AcDbEntity
  8
0
  6
HIDDEN
 62
     7
370
     0
100
AcDbLine
 10
79.6947676953
 20
128.7224520296
 30
0.0
 11
79.6947676953
 21
149.4028777182
 31
0.0
  0
LINE
  5
13A
330
1F
100
AcDbEntity
  8
0
  6
HIDDEN
 62
     7
370
     0
100
AcDbLine
 10
76.7502814796
 20
128.7224520296
 30
0.0
 11
76.7502814796
 21
149.4028777182
 31
0.0
  0
LINE
  5
13B
330
1F
100
AcDbEntity
  8
0
  6
HIDDEN
 62
     7
370
     0
100
AcDbLine
 10
76.7502814796
 20
89.2658926844
 30
0.0
 11
76.7502814796
 21
109.9463183731
 31
0.0
  0
LINE
  5
13C
330
1F
100
AcDbEntity
  8
0
  6
HIDDEN
 62
     7
370
     0
100
AcDbLine
 10
79.6947676953
 20
89.2658926844
 30
0.0
 11
79.6947676953
 21
109.9463183731
 31
0.0
  0
LINE
  5
13D
330
1F
100
AcDbEntity
  8
0
  6
HIDDEN
 62
     7
370
     0
100
AcDbLine
 10
76.3172686365
 20
129.2437542528
 30
0.0
 11
76.3172686365
 21
149.235127896
 31
0.0
  0
LINE
  5
13E
330
1F
100
AcDbEntity
  8
0
  6
HIDDEN
 62
     7
370
     0
100
AcDbLine
 10
80.1277805384
 20
129.2437542528
 30
0.0
 11
80.1277805384
 21
149.235127896
 31
0.0
  0
LINE
  5
13F
330
1F
100
AcDbEntity
  8
0
  6
HIDDEN
 62
     7
370
     0
100
AcDbLine
 10
80.1277805384
 20
89.4336425066
 30
0.0
 11
80.1277805384
 21
109.4250161498
 31
0.0
  0
LINE
  5
140
330
1F
100
AcDbEntity
  8
0
  6
HIDDEN
 62
     7
370
     0
100
AcDbLine
 10
76.3172686365
 20
89.4336425066
 30
0.0
 11
76.3172686365
 21
109.4250161498
 31
0.0
  0
LINE
  5
141
330
1F
100
AcDbEntity
  8
0
  6
HIDDEN
 62
     7
370
     0
100
AcDbLine
 10
66.0225244882
 20
126.3562724292
 30
0.0
 11
66.0225244882
 21
112.3124979734
 31
0.0
  0
LINE
  5
142
330
1F
100
AcDbEntity
  8
0
  6
HIDDEN
 62
     7
370
     0
100
AcDbLine
 10
65.8275475815
 20
134.7671527713
 30
0.0
 11
65.8275475815
 21
103.9016176313
 31
0.0
  0
LINE
  5
143
330
1F
100
AcDbEntity
  8
0
  6
HIDDEN
 62
     7
370
     0
100
AcDbLine
 10
64.2274846122
 20
134.7718484997
 30
0.0
 11
64.2274846122
 21
103.8969219029
 31
0.0
  0
SPLINE
  5
144
330
1F
100
AcDbEntity
  8
0
  6
HIDDEN
 62
     7
370
     0
100
AcDbSpline
210
0.0
220
0.0
230
1.0
 70
     8
 71
     3
 72
    24
 73
    20
 74
     0
 42
0.00000001
 43
0.00000001
 40
0.0
 40
0.0
 40
0.0
 40
0.0
 40
0.1249999999999999
 40
0.1249999999999999
 40
0.2499999999999999
 40
0.2499999999999999
 40
0.3749999999999999
 40
0.3749999999999999
 40
0.4374999999999999
 40
0.4374999999999999
 40
0.4999999999999999
 40
0.4999999999999999
 40
0.6249999999999999
 40
0.6249999999999999
 40
0.75
 40
0.75
 40
0.8749999999999999
 40
0.8749999999999999
 40
1.0
 40
1.0
 40
1.0
 40
1.0
 10
34.67252448313381
 20
115.2484241482065
 30
0.0
 10
34.9103281154089
 20
115.5474312505366
 30
0.0
 10
35.14041377662018
 20
115.8517691018554
 30
0.0
 10
35.57516717523001
 20
116.4775026392514
 30
0.0
 10
35.78009996751617
 20
116.7987273665789
 30
0.0
 10
36.14520191801486
 20
117.4706531373116
 30
0.0
 10
36.30700230380636
 20
117.8259683691905
 30
0.0
 10
36.4788625083861
 20
118.3761995905429
 30
0.0
 10
36.52444770004624
 20
118.5626033755234
 30
0.0
 10
36.58692243962108
 20
118.9427378776197
 30
0.0
 10
36.60359358536954
 20
119.1384076699055
 30
0.0
 10
36.60411462854603
 20
119.71688804858
 30
0.0
 10
36.53967232765934
 20
120.0947998875488
 30
0.0
 10
36.309823234286
 20
120.8367679126472
 30
0.0
 10
36.15130255662289
 20
121.1854833728082
 30
0.0
 10
35.78706822672272
 20
121.8585757705413
 30
0.0
 10
35.58033198665914
 20
122.183528257783
 30
0.0
 10
35.14239404091877
 20
122.8144520682447
 30
0.0
 10
34.91112131363921
 20
123.1203418085854
 30
0.0
 10
34.67252448313389
 20
123.4203462544049
 30
0.0
  0
LINE
  5
145
330
1F
100
AcDbEntity
  8
0
  6
HIDDEN
 62
     7
370
     0
100
AcDbLine
 10
34.6725231301
 20
115.2484239377
 30
0.0
 11
34.6725231301
 21
123.4203464649
 31
0.0
  0
SPLINE
  5
146
330
1F
100
AcDbEntity
  8
0
  6
HIDDEN
 62
     7
370
     0
100
AcDbSpline
210
0.0
220
0.0
230
1.0
 70
     8
 71
     3
 72
     8
 73
     4
 74
     0
 42
0.00000001
 43
0.00000001
 40
0.0000249638557296
 40
0.0000249638557296
 40
0.0000249638557296
 40
0.0000249638557296
 40
0.0049776420541172
 40
0.0049776420541172
 40
0.0049776420541172
 40
0.0049776420541172
 10
29.7225244831338
 20
115.3691743044692
 30
0.0
 10
31.37250071764334
 20
115.327895066701
 30
0.0
 10
33.02250203738838
 20
115.2876733854615
 30
0.0
 10
34.67252448313381
 20
115.2484241482065
 30
0.0
  0
SPLINE
  5
147
330
1F
100
AcDbEntity
  8
0
  6
HIDDEN
 62
     7
370
     0
100
AcDbSpline
210
0.0
220
0.0
230
1.0
 70
     8
 71
     3
 72
     8
 73
     4
 74
     0
 42
0.00000001
 43
0.00000001
 40
0.0000249631533153
 40
0.0000249631533153
 40
0.0000249631533153
 40
0.0000249631533153
 40
0.0049776413517029
 40
0.0049776413517029
 40
0.0049776413517029
 40
0.0049776413517029
 10
34.67252448313379
 20
123.420346254405
 30
0.0
 10
33.02250203738836
 20
123.38109701715
 30
0.0
 10
31.37250071764333
 20
123.3408753359105
 30
0.0
 10
29.7225244831338
 20
123.2995960981423
 30
0.0
  0
SPLINE
  5
148
330
1F
100
AcDbEntity
  8
0
  6
HIDDEN
 62
     7
370
     0
100
AcDbSpline
210
0.0
220
0.0
230
1.0
 70
     8
 71
     3
 72
     8
 73
     4
 74
     0
 42
0.00000001
 43
0.00000001
 40
0.0
 40
0.0
 40
0.0
 40
0.0
 40
1.0
 40
1.0
 40
1.0
 40
1.0
 10
28.22252448313155
 20
116.4323978683254
 30
0.0
 10
28.68928509450934
 20
116.0170346227024
 30
0.0
 10
29.19503264128943
 20
115.6724441933978
 30
0.0
 10
29.7225244831338
 20
115.3691743044692
 30
0.0
  0
SPLINE
  5
149
330
1F
100
AcDbEntity
  8
0
  6
HIDDEN
 62
     7
370
     0
100
AcDbSpline
210
0.0
220
0.0
230
1.0
 70
     8
 71
     3
 72
     8
 73
     4
 74
     0
 42
0.00000001
 43
0.00000001
 40
0.0
 40
0.0
 40
0.0
 40
0.0
 40
1.0
 40
1.0
 40
1.0
 40
1.0
 10
29.7225244831338
 20
123.2995960981423
 30
0.0
 10
29.19503264129027
 20
122.9963262092142
 30
0.0
 10
28.68928509451098
 20
122.6517357799102
 30
0.0
 10
28.2225244831338
 20
122.2363725342881
 30
0.0
  0
SPLINE
  5
14A
330
1F
100
AcDbEntity
  8
0
  6
HIDDEN
 62
     7
370
     0
100
AcDbSpline
210
0.0
220
0.0
230
1.0
 70
     8
 71
     3
 72
     9
 73
     5
 74
     0
 42
0.00000001
 43
0.00000001
 40
0.0
 40
0.0
 40
0.0
 40
0.0
 40
0.5334121397644359
 40
1.0
 40
1.0
 40
1.0
 40
1.0
 10
47.53368555419589
 20
121.9803967345214
 30
0.0
 10
47.83288347662249
 20
122.2675251142183
 30
0.0
 10
48.39379669948002
 20
122.8058112878771
 30
0.0
 10
49.13264191227628
 20
123.0446196970334
 30
0.0
 10
49.47737811916019
 20
123.1560448016679
 30
0.0
  0
SPLINE
  5
14B
330
1F
100
AcDbEntity
  8
0
  6
HIDDEN
 62
     7
370
     0
100
AcDbSpline
210
0.0
220
0.0
230
1.0
 70
     8
 71
     3
 72
    18
 73
    14
 74
     0
 42
0.00000001
 43
0.00000001
 40
0.0
 40
0.0
 40
0.0
 40
0.0
 40
0.0783610020365561
 40
0.1875061030660213
 40
0.2963664086754439
 40
0.4010833637308888
 40
0.4984626451445017
 40
0.5896891310415617
 40
0.6797794207156354
 40
0.7737926815758647
 40
0.8743573789968504
 40
0.9808022527629133
 40
0.9999999999999999
 40
0.9999999999999999
 40
0.9999999999999999
 40
0.9999999999999999
 10
50.20873828642512
 20
123.313778016687
 30
0.0
 10
50.57580550363736
 20
123.3568612328248
 30
0.0
 10
51.45414219757918
 20
123.4599528952027
 30
0.0
 10
52.81915809811535
 20
123.0358570179468
 30
0.0
 10
54.0749732595336
 20
122.1659072445637
 30
0.0
 10
54.91496178008683
 20
120.9383310441498
 30
0.0
 10
55.24416283415766
 20
119.5753471328812
 30
0.0
 10
55.09009795995865
 20
118.2529162809044
 30
0.0
 10
54.522435104208
 20
117.07532656729
 30
0.0
 10
53.58394132373168
 20
116.0956732642695
 30
0.0
 10
52.32573212035035
 20
115.4592385913657
 30
0.0
 10
51.25240198288923
 20
115.1840968692936
 30
0.0
 10
50.67270896584483
 20
115.2924997116765
 30
0.0
 10
50.58413392715598
 20
115.3090632818347
 30
0.0
  0
SPLINE
  5
14C
330
1F
100
AcDbEntity
  8
0
  6
HIDDEN
 62
     7
370
     0
100
AcDbSpline
210
0.0
220
0.0
230
1.0
 70
     8
 71
     3
 72
    13
 73
     9
 74
     0
 42
0.00000001
 43
0.00000001
 40
0.0
 40
0.0
 40
0.0
 40
0.0
 40
0.071014348096028
 40
0.2845446691340678
 40
0.4859797195079917
 40
0.6752848981794662
 40
0.8594837670013883
 40
1.0
 40
1.0
 40
1.0
 40
1.0
 10
48.42962159626628
 20
116.0131273157603
 30
0.0
 10
48.28252743271361
 20
116.0870428567953
 30
0.0
 10
47.693141467457
 20
116.3832122047031
 30
0.0
 10
46.98202205849698
 20
117.3159768952586
 30
0.0
 10
46.46914290831671
 20
118.629282384811
 30
0.0
 10
46.47512682874518
 20
119.9856392643381
 30
0.0
 10
46.86369323210128
 20
121.1359782474238
 30
0.0
 10
47.33132429820842
 20
121.7253526392489
 30
0.0
 10
47.53368555419589
 20
121.9803967345214
 30
0.0
  0
CIRCLE
  5
14D
330
1F
100
AcDbEntity
  8
0
  6
HIDDEN
 62
     7
370
     0
100
AcDbCircle
 10
78.2225244831
 20
119.3343852013
 30
0.0
 40
2.0
  0
SPLINE
  5
14E
330
1F
100
AcDbEntity
  8
0
  6
HIDDEN
 62
     7
370
     0
100
AcDbSpline
210
0.0
220
0.0
230
1.0
 70
    24
 71
     1
 72
     4
 73
     2
 74
     0
 42
0.00000001
 43
0.00000001
 40
0.0
 40
0.0
 40
1.0
 40
1.0
 10
150.7225243639245
 20
136.3343861251777
 30
0.0
 10
152.2225274037614
 20
134.834384947986
 30
0.0
  0
SPLINE
  5
14F
330
1F
100
AcDbEntity
  8
0
  6
HIDDEN
 62
     7
370
     0
100
AcDbSpline
210
0.0
220
0.0
230
1.0
 70
    24
 71
     1
 72
     4
 73
     2
 74
     0
 42
0.00000001
 43
0.00000001
 40
0.0
 40
0.0
 40
1.0
 40
1.0
 10
159.2225266885057
 20
134.834384947986
 30
0.0
 10
160.722522277762
 20
136.3343861251777
 30
0.0
  0
SPLINE
  5
150
330
1F
100
AcDbEntity
  8
0
  6
HIDDEN
 62
     7
370
     0
100
AcDbSpline
210
0.0
220
0.0
230
1.0
 70
    24
 71
     1
 72
     4
 73
     2
 74
     0
 42
0.00000001
 43
0.00000001
 40
0.0
 40
0.0
 40
1.0
 40
1.0
 10
150.7225243639245
 20
146.5343855619138
 30
0.0
 10
150.7225243639245
 20
136.3343861251777
 30
0.0
  0
SPLINE
  5
151
330
1F
100
AcDbEntity
  8
0
  6
HIDDEN
 62
     7
370
     0
100
AcDbSpline
210
0.0
220
0.0
230
1.0
 70
    24
 71
     1
 72
     4
 73
     2
 74
     0
 42
0.00000001
 43
0.00000001
 40
0.0
 40
0.0
 40
1.0
 40
1.0
 10
160.722522277762
 20
136.3343861251777
 30
0.0
 10
160.722522277762
 20
146.5343855619138
 30
0.0
  0
SPLINE
  5
152
330
1F
100
AcDbEntity
  8
0
  6
HIDDEN
 62
     7
370
     0
100
AcDbSpline
210
0.0
220
0.0
230
1.0
 70
    24
 71
     1
 72
     4
 73
     2
 74
     0
 42
0.00000001
 43
0.00000001
 40
0.0
 40
0.0
 40
1.0
 40
1.0
 10
160.722522277762
 20
146.5343855619138
 30
0.0
 10
159.9225236367479
 20
147.3343860655731
 30
0.0
  0
SPLINE
  5
153
330
1F
100
AcDbEntity
  8
0
  6
HIDDEN
 62
     7
370
     0
100
AcDbSpline
210
0.0
220
0.0
230
1.0
 70
    24
 71
     1
 72
     4
 73
     2
 74
     0
 42
0.00000001
 43
0.00000001
 40
0.0
 40
0.0
 40
1.0
 40
1.0
 10
151.5225230049386
 20
147.3343860655731
 30
0.0
 10
150.7225243639245
 20
146.5343855619138
 30
0.0
  0
SPLINE
  5
154
330
1F
100
AcDbEntity
  8
0
  6
HIDDEN
 62
     7
370
     0
100
AcDbSpline
210
0.0
220
0.0
230
1.0
 70
    24
 71
     1
 72
     4
 73
     2
 74
     0
 42
0.00000001
 43
0.00000001
 40
0.0
 40
0.0
 40
1.0
 40
1.0
 10
158.2225246619477
 20
134.834384947986
 30
0.0
 10
155.7225270461335
 20
136.2777617126411
 30
0.0
  0
SPLINE
  5
155
330
1F
100
AcDbEntity
  8
0
  6
HIDDEN
 62
     7
370
     0
100
AcDbSpline
210
0.0
220
0.0
230
1.0
 70
    24
 71
     1
 72
     4
 73
     2
 74
     0
 42
0.00000001
 43
0.00000001
 40
0.0
 40
0.0
 40
1.0
 40
1.0
 10
155.7225270461335
 20
136.2777617126411
 30
0.0
 10
153.2225219797387
 20
134.834384947986
 30
0.0
  0
SPLINE
  5
156
330
1F
100
AcDbEntity
  8
0
  6
HIDDEN
 62
     7
370
     0
100
AcDbSpline
210
0.0
220
0.0
230
1.0
 70
    24
 71
     1
 72
     4
 73
     2
 74
     0
 42
0.00000001
 43
0.00000001
 40
0.0
 40
0.0
 40
1.0
 40
1.0
 10
135.2225227545991
 20
136.3343861251777
 30
0.0
 10
136.722525794436
 20
134.834384947986
 30
0.0
  0
SPLINE
  5
157
330
1F
100
AcDbEntity
  8
0
  6
HIDDEN
 62
     7
370
     0
100
AcDbSpline
210
0.0
220
0.0
230
1.0
 70
    24
 71
     1
 72
     4
 73
     2
 74
     0
 42
0.00000001
 43
0.00000001
 40
0.0
 40
0.0
 40
1.0
 40
1.0
 10
143.7225250791803
 20
134.834384947986
 30
0.0
 10
145.2225281190171
 20
136.3343861251777
 30
0.0
  0
SPLINE
  5
158
330
1F
100
AcDbEntity
  8
0
  6
HIDDEN
 62
     7
370
     0
100
AcDbSpline
210
0.0
220
0.0
230
1.0
 70
    24
 71
     1
 72
     4
 73
     2
 74
     0
 42
0.00000001
 43
0.00000001
 40
0.0
 40
0.0
 40
1.0
 40
1.0
 10
135.2225227545991
 20
146.5343855619138
 30
0.0
 10
135.2225227545991
 20
136.3343861251777
 30
0.0
  0
SPLINE
  5
159
330
1F
100
AcDbEntity
  8
0
  6
HIDDEN
 62
     7
370
     0
100
AcDbSpline
210
0.0
220
0.0
230
1.0
 70
    24
 71
     1
 72
     4
 73
     2
 74
     0
 42
0.00000001
 43
0.00000001
 40
0.0
 40
0.0
 40
1.0
 40
1.0
 10
145.2225281190171
 20
136.3343861251777
 30
0.0
 10
145.2225281190171
 20
146.5343855619138
 30
0.0
  0
SPLINE
  5
15A
330
1F
100
AcDbEntity
  8
0
  6
HIDDEN
 62
     7
370
     0
100
AcDbSpline
210
0.0
220
0.0
230
1.0
 70
    24
 71
     1
 72
     4
 73
     2
 74
     0
 42
0.00000001
 43
0.00000001
 40
0.0
 40
0.0
 40
1.0
 40
1.0
 10
145.2225281190171
 20
146.5343855619138
 30
0.0
 10
144.4225220274224
 20
147.3343860655731
 30
0.0
  0
SPLINE
  5
15B
330
1F
100
AcDbEntity
  8
0
  6
HIDDEN
 62
     7
370
     0
100
AcDbSpline
210
0.0
220
0.0
230
1.0
 70
    24
 71
     1
 72
     4
 73
     2
 74
     0
 42
0.00000001
 43
0.00000001
 40
0.0
 40
0.0
 40
1.0
 40
1.0
 10
136.0225213956132
 20
147.3343860655731
 30
0.0
 10
135.2225227545991
 20
146.5343855619138
 30
0.0
  0
SPLINE
  5
15C
330
1F
100
AcDbEntity
  8
0
  6
HIDDEN
 62
     7
370
     0
100
AcDbSpline
210
0.0
220
0.0
230
1.0
 70
    24
 71
     1
 72
     4
 73
     2
 74
     0
 42
0.00000001
 43
0.00000001
 40
0.0
 40
0.0
 40
1.0
 40
1.0
 10
142.7225230526223
 20
134.834384947986
 30
0.0
 10
140.2225254368081
 20
136.2777617126411
 30
0.0
  0
SPLINE
  5
15D
330
1F
100
AcDbEntity
  8
0
  6
HIDDEN
 62
     7
370
     0
100
AcDbSpline
210
0.0
220
0.0
230
1.0
 70
    24
 71
     1
 72
     4
 73
     2
 74
     0
 42
0.00000001
 43
0.00000001
 40
0.0
 40
0.0
 40
1.0
 40
1.0
 10
140.2225254368081
 20
136.2777617126411
 30
0.0
 10
137.7225278209939
 20
134.834384947986
 30
0.0
  0
SPLINE
  5
15E
330
1F
100
AcDbEntity
  8
0
  6
HIDDEN
 62
     7
370
     0
100
AcDbSpline
210
0.0
220
0.0
230
1.0
 70
    24
 71
     1
 72
     4
 73
     2
 74
     0
 42
0.00000001
 43
0.00000001
 40
0.0
 40
0.0
 40
1.0
 40
1.0
 10
119.722524870564
 20
136.3343861251777
 30
0.0
 10
121.2225241851106
 20
134.834384947986
 30
0.0
  0
SPLINE
  5
15F
330
1F
100
AcDbEntity
  8
0
  6
HIDDEN
 62
     7
370
     0
100
AcDbSpline
210
0.0
220
0.0
230
1.0
 70
    24
 71
     1
 72
     4
 73
     2
 74
     0
 42
0.00000001
 43
0.00000001
 40
0.0
 40
0.0
 40
1.0
 40
1.0
 10
128.2225234698548
 20
134.834384947986
 30
0.0
 10
129.7225265096917
 20
136.3343861251777
 30
0.0
  0
SPLINE
  5
160
330
1F
100
AcDbEntity
  8
0
  6
HIDDEN
 62
     7
370
     0
100
AcDbSpline
210
0.0
220
0.0
230
1.0
 70
    24
 71
     1
 72
     4
 73
     2
 74
     0
 42
0.00000001
 43
0.00000001
 40
0.0
 40
0.0
 40
1.0
 40
1.0
 10
119.722524870564
 20
146.5343855619138
 30
0.0
 10
119.722524870564
 20
136.3343861251777
 30
0.0
  0
SPLINE
  5
161
330
1F
100
AcDbEntity
  8
0
  6
HIDDEN
 62
     7
370
     0
100
AcDbSpline
210
0.0
220
0.0
230
1.0
 70
    24
 71
     1
 72
     4
 73
     2
 74
     0
 42
0.00000001
 43
0.00000001
 40
0.0
 40
0.0
 40
1.0
 40
1.0
 10
129.7225265096917
 20
136.3343861251777
 30
0.0
 10
129.7225265096917
 20
146.5343855619138
 30
0.0
  0
SPLINE
  5
162
330
1F
100
AcDbEntity
  8
0
  6
HIDDEN
 62
     7
370
     0
100
AcDbSpline
210
0.0
220
0.0
230
1.0
 70
    24
 71
     1
 72
     4
 73
     2
 74
     0
 42
0.00000001
 43
0.00000001
 40
0.0
 40
0.0
 40
1.0
 40
1.0
 10
129.7225265096917
 20
146.5343855619138
 30
0.0
 10
128.9225278686776
 20
147.3343860655731
 30
0.0
  0
SPLINE
  5
163
330
1F
100
AcDbEntity
  8
0
  6
HIDDEN
 62
     7
370
     0
100
AcDbSpline
210
0.0
220
0.0
230
1.0
 70
    24
 71
     1
 72
     4
 73
     2
 74
     0
 42
0.00000001
 43
0.00000001
 40
0.0
 40
0.0
 40
1.0
 40
1.0
 10
120.5225235115781
 20
147.3343860655731
 30
0.0
 10
119.722524870564
 20
146.5343855619138
 30
0.0
  0
SPLINE
  5
164
330
1F
100
AcDbEntity
  8
0
  6
HIDDEN
 62
     7
370
     0
100
AcDbSpline
210
0.0
220
0.0
230
1.0
 70
    24
 71
     1
 72
     4
 73
     2
 74
     0
 42
0.00000001
 43
0.00000001
 40
0.0
 40
0.0
 40
1.0
 40
1.0
 10
127.2225251685872
 20
134.834384947986
 30
0.0
 10
124.7225238274827
 20
136.2777617126411
 30
0.0
  0
SPLINE
  5
165
330
1F
100
AcDbEntity
  8
0
  6
HIDDEN
 62
     7
370
     0
100
AcDbSpline
210
0.0
220
0.0
230
1.0
 70
    24
 71
     1
 72
     4
 73
     2
 74
     0
 42
0.00000001
 43
0.00000001
 40
0.0
 40
0.0
 40
1.0
 40
1.0
 10
124.7225238274827
 20
136.2777617126411
 30
0.0
 10
122.2225262116685
 20
134.834384947986
 30
0.0
  0
SPLINE
  5
166
330
1F
100
AcDbEntity
  8
0
  6
HIDDEN
 62
     7
370
     0
100
AcDbSpline
210
0.0
220
0.0
230
1.0
 70
    24
 71
     1
 72
     4
 73
     2
 74
     0
 42
0.00000001
 43
0.00000001
 40
0.0
 40
0.0
 40
1.0
 40
1.0
 10
66.2225244831338
 20
95.08438448605001
 30
0.0
 10
66.31541770355985
 20
95.17727832493246
 30
0.0
  0
SPLINE
  5
167
330
1F
100
AcDbEntity
  8
0
  6
HIDDEN
 62
     7
370
     0
100
AcDbSpline
210
0.0
220
0.0
230
1.0
 70
    24
 71
     1
 72
     4
 73
     2
 74
     0
 42
0.00000001
 43
0.00000001
 40
0.0
 40
0.0
 40
1.0
 40
1.0
 10
66.31541770355985
 20
143.491492077679
 30
0.0
 10
66.2225244831338
 20
143.5843859165615
 30
0.0
  0
ARC
  5
168
330
1F
100
AcDbEntity
  8
0
  6
HIDDEN
 62
     7
370
     0
100
AcDbCircle
 10
65.6083109208
 20
95.8843852013
 30
0.0
 40
1.0
100
AcDbArc
 50
315.0
 51
0.0
  0
ARC
  5
169
330
1F
100
AcDbEntity
  8
0
  6
HIDDEN
 62
     7
370
     0
100
AcDbCircle
 10
65.6083109208
 20
95.8843852013
 30
0.0
 40
1.00000000000001
100
AcDbArc
 50
0.0
 51
52.1052014664
  0
ARC
  5
16A
330
1F
100
AcDbEntity
  8
0
  6
HIDDEN
 62
     7
370
     0
100
AcDbCircle
 10
65.6083109208
 20
142.7843852013
 30
0.0
 40
1.000000000000006
100
AcDbArc
 50
351.8087250651
 51
45.0
  0
ARC
  5
16B
330
1F
100
AcDbEntity
  8
0
  6
HIDDEN
 62
     7
370
     0
100
AcDbCircle
 10
65.6083109208
 20
142.7843852013
 30
0.0
 40
1.000000000000006
100
AcDbArc
 50
307.8947985336
 51
351.8087250651
  0
LINE
  5
16C
330
1F
100
AcDbEntity
  8
0
  6
HIDDEN
 62
     7
370
     0
100
AcDbLine
 10
66.6083109189
 20
95.8843849897
 30
0.0
 11
66.6083109189
 21
142.7843854129
 31
0.0
  0
ARC
  5
16D
330
1F
100
AcDbEntity
  8
0
  6
HIDDEN
 62
     7
370
     0
100
AcDbCircle
 10
165.7225244831
 20
135.8343852013
 30
0.0
 40
0.5
100
AcDbArc
 50
270.0
 51
0.0
  0
ARC
  5
16E
330
1F
100
AcDbEntity
  8
0
  6
HIDDEN
 62
     7
370
     0
100
AcDbCircle
 10
165.7225244831
 20
102.8343852013
 30
0.0
 40
0.5
100
AcDbArc
 50
0.0
 51
90.0
  0
SPLINE
  5
16F
330
1F
100
AcDbEntity
  8
0
  6
HIDDEN
 62
     7
370
     0
100
AcDbSpline
210
0.0
220
0.0
230
1.0
 70
    24
 71
     1
 72
     4
 73
     2
 74
     0
 42
0.00000001
 43
0.00000001
 40
0.0
 40
0.0
 40
1.0
 40
1.0
 10
105.3982807587876
 20
103.0343849509662
 30
0.0
 10
106.2225235890641
 20
103.3343844413465
 30
0.0
  0
SPLINE
  5
170
330
1F
100
AcDbEntity
  8
0
  6
HIDDEN
 62
     7
370
     0
100
AcDbSpline
210
0.0
220
0.0
230
1.0
 70
    24
 71
     1
 72
     4
 73
     2
 74
     0
 42
0.00000001
 43
0.00000001
 40
0.0
 40
0.0
 40
1.0
 40
1.0
 10
106.2225235890641
 20
135.334385961265
 30
0.0
 10
105.3982807587876
 20
135.6343854516452
 30
0.0
  0
SPLINE
  5
171
330
1F
100
AcDbEntity
  8
0
  6
HIDDEN
 62
     7
370
     0
100
AcDbSpline
210
0.0
220
0.0
230
1.0
 70
    24
 71
     1
 72
     4
 73
     2
 74
     0
 42
0.00000001
 43
0.00000001
 40
0.0
 40
0.0
 40
1.0
 40
1.0
 10
105.3982807587876
 20
135.6343854516452
 30
0.0
 10
100.6225256513848
 20
135.6343854516452
 30
0.0
  0
SPLINE
  5
172
330
1F
100
AcDbEntity
  8
0
  6
HIDDEN
 62
     7
370
     0
100
AcDbSpline
210
0.0
220
0.0
230
1.0
 70
    24
 71
     1
 72
     4
 73
     2
 74
     0
 42
0.00000001
 43
0.00000001
 40
0.0
 40
0.0
 40
1.0
 40
1.0
 10
100.6225256513848
 20
103.0343849509662
 30
0.0
 10
105.3982807587876
 20
103.0343849509662
 30
0.0
  0
ARC
  5
173
330
1F
100
AcDbEntity
  8
0
  6
HIDDEN
 62
     7
370
     0
100
AcDbCircle
 10
100.6225244831
 20
135.2343852013
 30
0.0
 40
0.3999999999999915
100
AcDbArc
 50
90.0
 51
180.0
  0
ARC
  5
174
330
1F
100
AcDbEntity
  8
0
  6
HIDDEN
 62
     7
370
     0
100
AcDbCircle
 10
100.6225244831
 20
103.4343852013
 30
0.0
 40
0.4000000000000057
100
AcDbArc
 50
180.0
 51
270.0
  0
SPLINE
  5
175
330
1F
100
AcDbEntity
  8
0
  6
HIDDEN
 62
     7
370
     0
100
AcDbSpline
210
0.0
220
0.0
230
1.0
 70
    24
 71
     1
 72
     4
 73
     2
 74
     0
 42
0.00000001
 43
0.00000001
 40
0.0
 40
0.0
 40
1.0
 40
1.0
 10
28.22252570502902
 20
103.1379554718441
 30
0.0
 10
29.75275202505733
 20
104.0214341431564
 30
0.0
  0
SPLINE
  5
176
330
1F
100
AcDbEntity
  8
0
  6
HIDDEN
 62
     7
370
     0
100
AcDbSpline
210
0.0
220
0.0
230
1.0
 70
    24
 71
     1
 72
     4
 73
     2
 74
     0
 42
0.00000001
 43
0.00000001
 40
0.0
 40
0.0
 40
1.0
 40
1.0
 10
29.75275202505733
 20
134.6473362594551
 30
0.0
 10
28.22252570502902
 20
135.5308149307674
 30
0.0
  0
ARC
  5
177
330
1F
100
AcDbEntity
  8
0
  6
HIDDEN
 62
     7
370
     0
100
AcDbCircle
 10
39.224325798
 20
105.3343852013
 30
0.0
 40
2.000000000000006
100
AcDbArc
 50
270.0
 51
315.0
  0
ARC
  5
178
330
1F
100
AcDbEntity
  8
0
  6
HIDDEN
 62
     7
370
     0
100
AcDbCircle
 10
39.224325798
 20
133.3343852013
 30
0.0
 40
2.000000000000028
100
AcDbArc
 50
45.0
 51
90.0
  0
SPLINE
  5
179
330
1F
100
AcDbEntity
  8
0
  6
HIDDEN
 62
     7
370
     0
100
AcDbSpline
210
0.0
220
0.0
230
1.0
 70
    24
 71
     1
 72
     4
 73
     2
 74
     0
 42
0.00000001
 43
0.00000001
 40
0.0
 40
0.0
 40
1.0
 40
1.0
 10
38.22252361886645
 20
103.3343844413465
 30
0.0
 10
39.22432496063853
 20
103.3343844413465
 30
0.0
  0
SPLINE
  5
17A
330
1F
100
AcDbEntity
  8
0
  6
HIDDEN
 62
     7
370
     0
100
AcDbSpline
210
0.0
220
0.0
230
1.0
 70
    24
 71
     1
 72
     4
 73
     2
 74
     0
 42
0.00000001
 43
0.00000001
 40
0.0
 40
0.0
 40
1.0
 40
1.0
 10
39.22432496063853
 20
135.334385961265
 30
0.0
 10
38.22252361886645
 20
135.334385961265
 30
0.0
  0
SPLINE
  5
17B
330
1F
100
AcDbEntity
  8
0
  6
HIDDEN
 62
     7
370
     0
100
AcDbSpline
210
0.0
220
0.0
230
1.0
 70
    24
 71
     1
 72
     4
 73
     2
 74
     0
 42
0.00000001
 43
0.00000001
 40
0.0
 40
0.0
 40
1.0
 40
1.0
 10
120.2745085846677
 20
135.334385961265
 30
0.0
 10
106.2225235890641
 20
135.334385961265
 30
0.0
  0
SPLINE
  5
17C
330
1F
100
AcDbEntity
  8
0
  6
HIDDEN
 62
     7
370
     0
100
AcDbSpline
210
0.0
220
0.0
230
1.0
 70
    24
 71
     1
 72
     4
 73
     2
 74
     0
 42
0.00000001
 43
0.00000001
 40
0.0
 40
0.0
 40
1.0
 40
1.0
 10
135.7745064687028
 20
135.334385961265
 30
0.0
 10
129.1907934736505
 20
135.334385961265
 30
0.0
  0
SPLINE
  5
17D
330
1F
100
AcDbEntity
  8
0
  6
HIDDEN
 62
     7
370
     0
100
AcDbSpline
210
0.0
220
0.0
230
1.0
 70
    24
 71
     1
 72
     4
 73
     2
 74
     0
 42
0.00000001
 43
0.00000001
 40
0.0
 40
0.0
 40
1.0
 40
1.0
 10
151.2745080780282
 20
135.334385961265
 30
0.0
 10
144.6907950829759
 20
135.334385961265
 30
0.0
  0
SPLINE
  5
17E
330
1F
100
AcDbEntity
  8
0
  6
HIDDEN
 62
     7
370
     0
100
AcDbSpline
210
0.0
220
0.0
230
1.0
 70
    24
 71
     1
 72
     4
 73
     2
 74
     0
 42
0.00000001
 43
0.00000001
 40
0.0
 40
0.0
 40
1.0
 40
1.0
 10
165.722524959971
 20
135.334385961265
 30
0.0
 10
160.1907892417207
 20
135.334385961265
 30
0.0
  0
SPLINE
  5
17F
330
1F
100
AcDbEntity
  8
0
  6
HIDDEN
 62
     7
370
     0
100
AcDbSpline
210
0.0
220
0.0
230
1.0
 70
    24
 71
     1
 72
     4
 73
     2
 74
     0
 42
0.00000001
 43
0.00000001
 40
0.0
 40
0.0
 40
1.0
 40
1.0
 10
106.2225235890641
 20
103.3343844413465
 30
0.0
 10
165.722524959971
 20
103.3343844413465
 30
0.0
  0
ARC
  5
180
330
1F
100
AcDbEntity
  8
0
  6
HIDDEN
 62
     7
370
     0
100
AcDbCircle
 10
38.2225244831
 20
105.3343852013
 30
0.0
 40
2.00000000000002
100
AcDbArc
 50
189.9742217944
 51
270.0
  0
ARC
  5
181
330
1F
100
AcDbEntity
  8
0
  6
HIDDEN
 62
     7
370
     0
100
AcDbCircle
 10
38.2225244831
 20
133.3343852013
 30
0.0
 40
2.000000000000028
100
AcDbArc
 50
90.0
 51
170.0257782056
  0
SPLINE
  5
182
330
1F
100
AcDbEntity
  8
0
  6
HIDDEN
 62
     7
370
     0
100
AcDbSpline
210
0.0
220
0.0
230
1.0
 70
    24
 71
     1
 72
     4
 73
     2
 74
     0
 42
0.00000001
 43
0.00000001
 40
0.0
 40
0.0
 40
1.0
 40
1.0
 10
40.63854015283729
 20
103.9201714396185
 30
0.0
 10
42.05275348239089
 20
105.3343847691721
 30
0.0
  0
SPLINE
  5
183
330
1F
100
AcDbEntity
  8
0
  6
HIDDEN
 62
     7
370
     0
100
AcDbSpline
210
0.0
220
0.0
230
1.0
 70
    24
 71
     1
 72
     4
 73
     2
 74
     0
 42
0.00000001
 43
0.00000001
 40
0.0
 40
0.0
 40
1.0
 40
1.0
 10
42.05275348239089
 20
133.3343856334394
 30
0.0
 10
40.63854015283729
 20
134.748598962993
 30
0.0
  0
SPLINE
  5
184
330
1F
100
AcDbEntity
  8
0
  6
HIDDEN
 62
     7
370
     0
100
AcDbSpline
210
0.0
220
0.0
230
1.0
 70
    24
 71
     1
 72
     4
 73
     2
 74
     0
 42
0.00000001
 43
0.00000001
 40
0.0
 40
0.0
 40
1.0
 40
1.0
 10
29.75275202505733
 20
104.0214341431564
 30
0.0
 10
34.65275301449443
 20
105.3343847691721
 30
0.0
  0
SPLINE
  5
185
330
1F
100
AcDbEntity
  8
0
  6
HIDDEN
 62
     7
370
     0
100
AcDbSpline
210
0.0
220
0.0
230
1.0
 70
    24
 71
     1
 72
     4
 73
     2
 74
     0
 42
0.00000001
 43
0.00000001
 40
0.0
 40
0.0
 40
1.0
 40
1.0
 10
34.65275301449443
 20
133.3343856334394
 30
0.0
 10
29.75275202505733
 20
134.6473362594551
 30
0.0
  0
SPLINE
  5
186
330
1F
100
AcDbEntity
  8
0
  6
HIDDEN
 62
     7
370
     0
100
AcDbSpline
210
0.0
220
0.0
230
1.0
 70
    24
 71
     1
 72
     4
 73
     2
 74
     0
 42
0.00000001
 43
0.00000001
 40
0.0
 40
0.0
 40
1.0
 40
1.0
 10
36.25275215916778
 20
133.6807957216805
 30
0.0
 10
35.6527531784072
 20
133.3343856334394
 30
0.0
  0
SPLINE
  5
187
330
1F
100
AcDbEntity
  8
0
  6
HIDDEN
 62
     7
370
     0
100
AcDbSpline
210
0.0
220
0.0
230
1.0
 70
    24
 71
     1
 72
     4
 73
     2
 74
     0
 42
0.00000001
 43
0.00000001
 40
0.0
 40
0.0
 40
1.0
 40
1.0
 10
35.6527531784072
 20
105.3343847691721
 30
0.0
 10
36.25275215916778
 20
104.987974680931
 30
0.0
  0
ARC
  5
188
330
1F
100
AcDbEntity
  8
0
  6
HIDDEN
 62
     7
370
     0
100
AcDbCircle
 10
54.7225244831
 20
105.8343852013
 30
0.0
 40
0.5
100
AcDbArc
 50
270.0
 51
0.0
  0
ARC
  5
189
330
1F
100
AcDbEntity
  8
0
  6
HIDDEN
 62
     7
370
     0
100
AcDbCircle
 10
54.7225244831
 20
132.8343852013
 30
0.0
 40
0.5
100
AcDbArc
 50
0.0
 51
90.0
  0
SPLINE
  5
18A
330
1F
100
AcDbEntity
  8
0
  6
HIDDEN
 62
     7
370
     0
100
AcDbSpline
210
0.0
220
0.0
230
1.0
 70
    24
 71
     1
 72
     4
 73
     2
 74
     0
 42
0.00000001
 43
0.00000001
 40
0.0
 40
0.0
 40
1.0
 40
1.0
 10
42.05275348239089
 20
105.3343847691721
 30
0.0
 10
54.72252446078206
 20
105.3343847691721
 30
0.0
  0
SPLINE
  5
18B
330
1F
100
AcDbEntity
  8
0
  6
HIDDEN
 62
     7
370
     0
100
AcDbSpline
210
0.0
220
0.0
230
1.0
 70
    24
 71
     1
 72
     4
 73
     2
 74
     0
 42
0.00000001
 43
0.00000001
 40
0.0
 40
0.0
 40
1.0
 40
1.0
 10
54.72252446078206
 20
133.3343856334394
 30
0.0
 10
42.05275348239089
 20
133.3343856334394
 30
0.0
  0
SPLINE
  5
18C
330
1F
100
AcDbEntity
  8
0
  6
HIDDEN
 62
     7
370
     0
100
AcDbSpline
210
0.0
220
0.0
230
1.0
 70
    24
 71
     1
 72
     4
 73
     2
 74
     0
 42
0.00000001
 43
0.00000001
 40
0.0
 40
0.0
 40
1.0
 40
1.0
 10
34.65275301449443
 20
105.3343847691721
 30
0.0
 10
35.6527531784072
 20
105.3343847691721
 30
0.0
  0
SPLINE
  5
18D
330
1F
100
AcDbEntity
  8
0
  6
HIDDEN
 62
     7
370
     0
100
AcDbSpline
210
0.0
220
0.0
230
1.0
 70
    24
 71
     1
 72
     4
 73
     2
 74
     0
 42
0.00000001
 43
0.00000001
 40
0.0
 40
0.0
 40
1.0
 40
1.0
 10
35.6527531784072
 20
133.3343856334394
 30
0.0
 10
34.65275301449443
 20
133.3343856334394
 30
0.0
  0
SPLINE
  5
18E
330
1F
100
AcDbEntity
  8
0
  6
HIDDEN
 62
     7
370
     0
100
AcDbSpline
210
0.0
220
0.0
230
1.0
 70
    24
 71
     1
 72
     4
 73
     2
 74
     0
 42
0.00000001
 43
0.00000001
 40
0.0
 40
0.0
 40
1.0
 40
1.0
 10
55.22252454273845
 20
109.0843849181837
 30
0.0
 10
56.47252428196813
 20
110.3343855887359
 30
0.0
  0
SPLINE
  5
18F
330
1F
100
AcDbEntity
  8
0
  6
HIDDEN
 62
     7
370
     0
100
AcDbSpline
210
0.0
220
0.0
230
1.0
 70
    24
 71
     1
 72
     4
 73
     2
 74
     0
 42
0.00000001
 43
0.00000001
 40
0.0
 40
0.0
 40
1.0
 40
1.0
 10
56.47252428196813
 20
128.3343848138755
 30
0.0
 10
55.22252454273845
 20
129.5843854844278
 30
0.0
  0
SPLINE
  5
190
330
1F
100
AcDbEntity
  8
0
  6
HIDDEN
 62
     7
370
     0
100
AcDbSpline
210
0.0
220
0.0
230
1.0
 70
    24
 71
     1
 72
     4
 73
     2
 74
     0
 42
0.00000001
 43
0.00000001
 40
0.0
 40
0.0
 40
1.0
 40
1.0
 10
56.47252428196813
 20
110.3343855887359
 30
0.0
 10
100.2225263308778
 20
110.3343855887359
 30
0.0
  0
SPLINE
  5
191
330
1F
100
AcDbEntity
  8
0
  6
HIDDEN
 62
     7
370
     0
100
AcDbSpline
210
0.0
220
0.0
230
1.0
 70
    24
 71
     1
 72
     4
 73
     2
 74
     0
 42
0.00000001
 43
0.00000001
 40
0.0
 40
0.0
 40
1.0
 40
1.0
 10
100.2225263308778
 20
128.3343848138755
 30
0.0
 10
56.47252428196813
 20
128.3343848138755
 30
0.0
  0
SPLINE
  5
192
330
1F
100
AcDbEntity
  8
0
  6
HIDDEN
 62
     7
370
     0
100
AcDbSpline
210
0.0
220
0.0
230
1.0
 70
    24
 71
     1
 72
     4
 73
     2
 74
     0
 42
0.00000001
 43
0.00000001
 40
0.0
 40
0.0
 40
1.0
 40
1.0
 10
151.2225253772035
 20
147.3343860655731
 30
0.0
 10
151.2225253772035
 20
135.3199746757454
 30
0.0
  0
SPLINE
  5
193
330
1F
100
AcDbEntity
  8
0
  6
HIDDEN
 62
     7
370
     0
100
AcDbSpline
210
0.0
220
0.0
230
1.0
 70
    24
 71
     1
 72
     4
 73
     2
 74
     0
 42
0.00000001
 43
0.00000001
 40
0.0
 40
0.0
 40
1.0
 40
1.0
 10
160.222521264483
 20
135.3256985842889
 30
0.0
 10
160.222521264483
 20
147.3343860655731
 30
0.0
  0
SPLINE
  5
194
330
1F
100
AcDbEntity
  8
0
  6
HIDDEN
 62
     7
370
     0
100
AcDbSpline
210
0.0
220
0.0
230
1.0
 70
    24
 71
     1
 72
     4
 73
     2
 74
     0
 42
0.00000001
 43
0.00000001
 40
0.0
 40
0.0
 40
1.0
 40
1.0
 10
135.7225237678781
 20
147.3343860655731
 30
0.0
 10
135.7225237678781
 20
135.3199746757454
 30
0.0
  0
SPLINE
  5
195
330
1F
100
AcDbEntity
  8
0
  6
HIDDEN
 62
     7
370
     0
100
AcDbSpline
210
0.0
220
0.0
230
1.0
 70
    24
 71
     1
 72
     4
 73
     2
 74
     0
 42
0.00000001
 43
0.00000001
 40
0.0
 40
0.0
 40
1.0
 40
1.0
 10
144.7225271057382
 20
135.3256985842889
 30
0.0
 10
144.7225271057382
 20
147.3343860655731
 30
0.0
  0
SPLINE
  5
196
330
1F
100
AcDbEntity
  8
0
  6
HIDDEN
 62
     7
370
     0
100
AcDbSpline
210
0.0
220
0.0
230
1.0
 70
    24
 71
     1
 72
     4
 73
     2
 74
     0
 42
0.00000001
 43
0.00000001
 40
0.0
 40
0.0
 40
1.0
 40
1.0
 10
120.2225258838429
 20
147.3343860655731
 30
0.0
 10
120.2225258838429
 20
135.3199746757454
 30
0.0
  0
SPLINE
  5
197
330
1F
100
AcDbEntity
  8
0
  6
HIDDEN
 62
     7
370
     0
100
AcDbSpline
210
0.0
220
0.0
230
1.0
 70
    24
 71
     1
 72
     4
 73
     2
 74
     0
 42
0.00000001
 43
0.00000001
 40
0.0
 40
0.0
 40
1.0
 40
1.0
 10
129.2225254964128
 20
135.3256985842889
 30
0.0
 10
129.2225254964128
 20
147.3343860655731
 30
0.0
  0
LINE
  5
198
330
1F
100
AcDbEntity
  8
0
  6
HIDDEN
 62
     7
370
     0
100
AcDbLine
 10
66.5225244974
 20
150.8343857079
 30
0.0
 11
66.5225244974
 21
87.8343846947
 31
0.0
  0
LINE
  5
199
330
1F
100
AcDbEntity
  8
0
  6
HIDDEN
 62
     7
370
     0
100
AcDbLine
 10
90.2225246918
 20
91.334384337
 30
0.0
 11
90.2225246918
 21
147.3343860656
 31
0.0
  0
LINE
  5
19A
330
1F
100
AcDbEntity
  8
0
  6
HIDDEN
 62
     7
370
     0
100
AcDbLine
 10
165.2225239467
 20
91.334384337
 30
0.0
 11
165.2225239467
 21
147.3343860656
 31
0.0
  0
DIMENSION
  5
19B
330
1F
100
AcDbEntity
  8
VERMASSUNG
100
AcDbDimension
  2
*D1
 10
20.539390642
 20
87.8343852013
 30
0.0
 11
20.539390642
 21
119.3343852013
 31
0.0
 70
   160
  1
PSC %%c<>
 71
     2
 42
-1.0
  3
SLDDIMSTYLE0
100
AcDbAlignedDimension
 13
66.5225244831
 23
150.8343852013
 33
0.0
 14
66.5225244831
 24
87.8343852013
 34
0.0
 50
90.0
100
AcDbRotatedDimension
  0
DIMENSION
  5
1A8
330
1F
100
AcDbEntity
  8
VERMASSUNG
100
AcDbDimension
  2
*D2
 10
182.2225244831
 20
91.3343852013
 30
0.0
 11
182.2225244831
 21
119.3343852013
 31
0.0
 70
   160
  1
%%c<>
 71
     2
 42
-1.0
  3
SLDDIMSTYLE0
100
AcDbAlignedDimension
 13
120.2225244831
 23
147.3343852013
 33
0.0
 14
165.2225244831
 24
91.3343852013
 34
0.0
 50
90.0
100
AcDbRotatedDimension
  0
DIMENSION
  5
1B3
330
1F
100
AcDbEntity
  8
VERMASSUNG
100
AcDbDimension
  2
*D3
 10
176.2225244831
 20
103.3343852013
 30
0.0
 11
176.2225244831
 21
119.3343852013
 31
0.0
 70
   160
  1
%%c<>
 71
     2
 42
-1.0
  3
SLDDIMSTYLE0
100
AcDbAlignedDimension
 13
165.7225244831
 23
135.3343852013
 33
0.0
 14
165.7225244831
 24
103.3343852013
 34
0.0
 50
90.0
100
AcDbRotatedDimension
  0
DIMENSION
  5
1BE
330
1F
100
AcDbEntity
  8
VERMASSUNG
100
AcDbDimension
  2
*D4
 10
166.2225244831
 20
172.8343852013
 30
0.0
 11
97.2225244831
 21
172.8343852013
 31
0.0
 70
   160
 71
     2
 42
-1.0
  3
SLDDIMSTYLE0
100
AcDbAlignedDimension
 13
28.2225244831
 23
139.6267231938
 33
0.0
 14
166.2225244831
 24
146.3343852013
 34
0.0
100
AcDbRotatedDimension
  0
DIMENSION
  5
1C8
330
1F
100
AcDbEntity
  8
VERMASSUNG
100
AcDbDimension
  2
*D5
 10
166.2225244831
 20
166.8343852013
 30
0.0
 11
116.2225244831
 21
166.8343852013
 31
0.0
 70
   160
 71
     2
 42
-1.0
  3
SLDDIMSTYLE0
100
AcDbAlignedDimension
 13
66.2225244831
 23
150.5343852013
 33
0.0
 14
166.2225244831
 24
146.3343852013
 34
0.0
100
AcDbRotatedDimension
  0
DIMENSION
  5
1D2
330
1F
100
AcDbEntity
  8
VERMASSUNG
100
AcDbDimension
  2
*D6
 10
166.2225244831
 20
160.8343852013
 30
0.0
 11
127.2225244831
 21
160.8343852013
 31
0.0
 70
   160
 71
     2
 42
-1.0
  3
SLDDIMSTYLE0
100
AcDbAlignedDimension
 13
88.2225244831
 23
150.8343852013
 33
0.0
 14
166.2225244831
 24
146.3343852013
 34
0.0
100
AcDbRotatedDimension
  0
DIMENSION
  5
1DC
330
1F
100
AcDbEntity
  8
VERMASSUNG
100
AcDbDimension
  2
*D7
 10
166.2225244831
 20
77.8343852013
 30
0.0
 11
133.2225244831
 21
77.8343852013
 31
0.0
 70
   160
 71
     2
 42
-1.0
  3
SLDDIMSTYLE0
100
AcDbAlignedDimension
 13
100.2225244831
 23
103.4343852013
 33
0.0
 14
166.2225244831
 24
92.3343852013
 34
0.0
100
AcDbRotatedDimension
  0
DIMENSION
  5
1E6
330
1F
100
AcDbEntity
  8
VERMASSUNG
100
AcDbDimension
  2
*D8
 10
140.2225244831
 20
85.0717083787
 30
0.0
 11
132.4725244831
 21
85.0717083787
 31
0.0
 70
   160
 71
     2
 42
-1.0
  3
SLDDIMSTYLE0
100
AcDbAlignedDimension
 13
124.7225244831
 23
115.8381936888
 33
0.0
 14
140.2225244831
 24
114.672796518
 34
0.0
100
AcDbRotatedDimension
  0
DIMENSION
  5
1F0
330
1F
100
AcDbEntity
  8
VERMASSUNG
100
AcDbDimension
  2
*D9
 10
155.7225244831
 20
85.0717083787
 30
0.0
 11
147.9725244831
 21
85.0717083787
 31
0.0
 70
   160
 71
     2
 42
-1.0
  3
SLDDIMSTYLE0
100
AcDbAlignedDimension
 13
140.2225244831
 23
114.672796518
 33
0.0
 14
155.7225244831
 24
112.5750816104
 34
0.0
100
AcDbRotatedDimension
  0
DIMENSION
  5
1FA
330
1F
100
AcDbEntity
  8
VERMASSUNG
100
AcDbDimension
  2
*D10
 10
166.2225244831
 20
85.0717083787
 30
0.0
 11
160.9725244831
 21
85.0717083787
 31
0.0
 70
   160
 71
     2
 42
-1.0
  3
SLDDIMSTYLE0
100
AcDbAlignedDimension
 13
155.7225244831
 23
112.5750816104
 33
0.0
 14
166.2225244831
 24
92.3343852013
 34
0.0
100
AcDbRotatedDimension
  0
LINE
  5
204
330
1F
100
AcDbEntity
  8
VERMASSUNG
  6
CENTERX2
370
     0
100
AcDbLine
 10
79.6947676696
 20
136.9101299528
 30
0.0
 11
79.6947676696
 21
120.4373979412
 31
0.0
  0
LINE
  5
205
330
1F
100
AcDbEntity
  8
VERMASSUNG
  6
CENTERX2
370
     0
100
AcDbLine
 10
76.7502812967
 20
136.9101299528
 30
0.0
 11
76.7502812967
 21
120.4373979412
 31
0.0
  0
LINE
  5
206
330
1F
100
AcDbEntity
  8
VERMASSUNG
  6
CENTERX2
370
     0
100
AcDbLine
 10
76.7502812967
 20
177.0721496701
 30
0.0
 11
76.7502812967
 21
160.6043540208
 31
0.0
  0
LINE
  5
207
330
1F
100
AcDbEntity
  8
VERMASSUNG
  6
CENTERX2
370
     0
100
AcDbLine
 10
79.6947676696
 20
177.0721496701
 30
0.0
 11
79.6947676696
 21
160.6043540208
 31
0.0
  0
LINE
  5
208
330
1F
100
AcDbEntity
  8
VERMASSUNG
  6
CENTERX2
370
     0
100
AcDbLine
 10
155.7225244831
 20
112.5750816104
 30
0.0
 11
155.7225244831
 21
148.9704124677
 31
0.0
  0
LINE
  5
209
330
1F
100
AcDbEntity
  8
VERMASSUNG
  6
CENTERX2
370
     0
100
AcDbLine
 10
140.2225244831
 20
114.672796518
 30
0.0
 11
140.2225244831
 21
148.9704124677
 31
0.0
  0
LINE
  5
20A
330
1F
100
AcDbEntity
  8
VERMASSUNG
  6
CENTERX2
370
     0
100
AcDbLine
 10
124.7225244831
 20
115.8381936888
 30
0.0
 11
124.7225244831
 21
148.9704124677
 31
0.0
  0
LINE
  5
20B
330
1F
100
AcDbEntity
  8
VERMASSUNG
  6
CENTERX2
370
     0
100
AcDbLine
 10
23.1032644178
 20
119.3343852013
 30
0.0
 11
167.8455930359
 21
119.3343852013
 31
0.0
  0
LINE
  5
20C
330
1F
100
AcDbEntity
  8
0
  6
Continuous
 62
     7
370
    15
100
AcDbLine
 10
219.7781460036
 20
104.6633450745
 30
0.0
 11
219.0281460036
 21
104.2303323726
 31
0.0
  0
ARC
  5
20D
330
1F
100
AcDbEntity
  8
0
  6
Continuous
 62
     7
370
    15
100
AcDbCircle
 10
245.1891329032
 20
119.3343852013
 30
0.0
 40
30.20810565747713
100
AcDbArc
 50
187.542590616
 51
210.0
  0
SPLINE
  5
20E
330
1F
100
AcDbEntity
  8
0
  6
Continuous
 62
     7
370
    15
100
AcDbSpline
210
0.0
220
0.0
230
1.0
 70
     8
 71
     3
 72
     8
 73
     4
 74
     0
 42
0.00000001
 43
0.00000001
 40
0.0
 40
0.0
 40
0.0
 40
0.0
 40
1.0
 40
1.0
 40
1.0
 40
1.0
 10
215.9909113283579
 20
116.4323978683254
 30
0.0
 10
215.7613818359739
 20
116.0170346227024
 30
0.0
 10
215.5094510608825
 20
115.6724441933978
 30
0.0
 10
215.2424010288
 20
115.3691743044692
 30
0.0
  0
ARC
  5
20F
330
1F
100
AcDbEntity
  8
0
  6
Continuous
 62
     7
370
    15
100
AcDbCircle
 10
245.1891329032
 20
119.3343852013
 30
0.0
 40
29.3420802536927
100
AcDbArc
 50
185.6759402115
 51
210.0
  0
LINE
  5
210
330
1F
100
AcDbEntity
  8
0
  6
Continuous
 62
     7
370
    15
100
AcDbLine
 10
219.7781460036
 20
134.0054253282
 30
0.0
 11
219.0281460036
 21
134.43843803
 31
0.0
  0
ARC
  5
211
330
1F
100
AcDbEntity
  8
0
  6
Continuous
 62
     7
370
    15
100
AcDbCircle
 10
245.1891329032
 20
119.3343852013
 30
0.0
 40
29.34208025369271
100
AcDbArc
 50
150.0
 51
174.3240597885
  0
SPLINE
  5
212
330
1F
100
AcDbEntity
  8
0
  6
Continuous
 62
     7
370
    15
100
AcDbSpline
210
0.0
220
0.0
230
1.0
 70
     8
 71
     3
 72
     8
 73
     4
 74
     0
 42
0.00000001
 43
0.00000001
 40
0.0
 40
0.0
 40
0.0
 40
0.0
 40
1.0
 40
1.0
 40
1.0
 40
1.0
 10
215.2424010288
 20
123.2995960981423
 30
0.0
 10
215.5094510608821
 20
122.9963262092142
 30
0.0
 10
215.7613818359731
 20
122.6517357799102
 30
0.0
 10
215.9909113283568
 20
122.2363725342881
 30
0.0
  0
ARC
  5
213
330
1F
100
AcDbEntity
  8
0
  6
Continuous
 62
     7
370
    15
100
AcDbCircle
 10
245.1891329032
 20
119.3343852013
 30
0.0
 40
30.20810565747713
100
AcDbArc
 50
150.0
 51
172.457409384
  0
ARC
  5
214
330
1F
100
AcDbEntity
  8
0
  6
Continuous
 62
     7
370
    15
100
AcDbCircle
 10
229.5145195114
 20
128.3841274625
 30
0.0
 40
11.24259573130698
100
AcDbArc
 50
90.0
 51
150.0
  0
ARC
  5
215
330
1F
100
AcDbEntity
  8
0
  6
Continuous
 62
     7
370
    15
100
AcDbCircle
 10
229.5145195114
 20
110.2846429401
 30
0.0
 40
29.3420802536927
100
AcDbArc
 50
30.0
 51
90.0
  0
ARC
  5
216
330
1F
100
AcDbEntity
  8
0
  6
Continuous
 62
     7
370
    15
100
AcDbCircle
 10
245.1891329032
 20
119.3343852013
 30
0.0
 40
11.24259573130693
100
AcDbArc
 50
330.0
 51
30.0
  0
ARC
  5
217
330
1F
100
AcDbEntity
  8
0
  6
Continuous
 62
     7
370
    15
100
AcDbCircle
 10
229.5145195114
 20
128.3841274625
 30
0.0
 40
29.34208025369269
100
AcDbArc
 50
270.0
 51
330.0
  0
ARC
  5
218
330
1F
100
AcDbEntity
  8
0
  6
Continuous
 62
     7
370
    15
100
AcDbCircle
 10
229.5145195114
 20
110.2846429401
 30
0.0
 40
11.24259573130696
100
AcDbArc
 50
210.0
 51
270.0
  0
CIRCLE
  5
219
330
1F
100
AcDbEntity
  8
0
  6
Continuous
 62
     7
370
    15
100
AcDbCircle
 10
234.739390642
 20
119.3343852013
 30
0.0
 40
16.19642884446073
  0
ARC
  5
21A
330
1F
100
AcDbEntity
  8
0
  6
Continuous
 62
     7
370
    15
100
AcDbCircle
 10
210.739390642
 20
119.3343852013
 30
0.0
 40
6.000000000000013
100
AcDbArc
 50
331.0749852844
 51
28.9250147157
  0
CIRCLE
  5
21B
330
1F
100
AcDbEntity
  8
0
  6
Continuous
 62
     7
370
    15
100
AcDbCircle
 10
234.739390642
 20
119.3343852013
 30
0.0
 40
15.3129510429125
  0
LINE
  5
21C
330
1F
100
AcDbEntity
  8
0
  6
Continuous
 62
     7
370
    15
100
AcDbLine
 10
229.5145195114
 20
99.0420472088
 30
0.0
 11
229.5145195114
 21
98.176021805
 31
0.0
  0
ARC
  5
21D
330
1F
100
AcDbEntity
  8
0
  6
Continuous
 62
     7
370
    15
100
AcDbCircle
 10
229.5145195114
 20
110.2846429401
 30
0.0
 40
12.10862113509141
100
AcDbArc
 50
210.0
 51
270.0
  0
ARC
  5
21E
330
1F
100
AcDbEntity
  8
0
  6
Continuous
 62
     7
370
    15
100
AcDbCircle
 10
229.5145195114
 20
128.3841274625
 30
0.0
 40
12.10862113509142
100
AcDbArc
 50
90.0
 51
150.0
  0
LINE
  5
21F
330
1F
100
AcDbEntity
  8
0
  6
Continuous
 62
     7
370
    15
100
AcDbLine
 10
229.5145195114
 20
139.6267231938
 30
0.0
 11
229.5145195114
 21
140.4927485976
 31
0.0
  0
ARC
  5
220
330
1F
100
AcDbEntity
  8
0
  6
Continuous
 62
     7
370
    15
100
AcDbCircle
 10
229.5145195114
 20
110.2846429401
 30
0.0
 40
30.20810565747713
100
AcDbArc
 50
30.0
 51
90.0
  0
LINE
  5
221
330
1F
100
AcDbEntity
  8
0
  6
Continuous
 62
     7
370
    15
100
AcDbLine
 10
254.925506411
 20
124.955683067
 30
0.0
 11
255.675506411
 21
125.3886957689
 31
0.0
  0
LINE
  5
222
330
1F
100
AcDbEntity
  8
0
  6
Continuous
 62
     7
370
    15
100
AcDbLine
 10
254.925506411
 20
113.7130873357
 30
0.0
 11
255.675506411
 21
113.2800746338
 31
0.0
  0
ARC
  5
223
330
1F
100
AcDbEntity
  8
0
  6
Continuous
 62
     7
370
    15
100
AcDbCircle
 10
229.5145195114
 20
128.3841274625
 30
0.0
 40
30.20810565747713
100
AcDbArc
 50
270.0
 51
330.0
  0
ARC
  5
224
330
1F
100
AcDbEntity
  8
0
  6
Continuous
 62
     7
370
    15
100
AcDbCircle
 10
245.1891329032
 20
119.3343852013
 30
0.0
 40
12.10862113509143
100
AcDbArc
 50
330.0
 51
30.0
  0
LINE
  5
225
330
1F
100
AcDbEntity
  8
0
  6
Continuous
 62
     7
370
    15
100
AcDbLine
 10
219.0281460036
 20
104.2303323726
 30
0.0
 11
218.281861266
 21
103.7994646784
 31
0.0
  0
ARC
  5
226
330
1F
100
AcDbEntity
  8
0
  6
Continuous
 62
     7
370
    15
100
AcDbCircle
 10
245.1891329032
 20
119.3343852013
 30
0.0
 40
31.0698410457592
100
AcDbArc
 50
150.0
 51
210.0
  0
LINE
  5
227
330
1F
100
AcDbEntity
  8
0
  6
Continuous
 62
     7
370
    15
100
AcDbLine
 10
219.0281460036
 20
134.43843803
 30
0.0
 11
218.281861266
 21
134.8693057242
 31
0.0
  0
SPLINE
  5
228
330
1F
100
AcDbEntity
  8
0
  6
Continuous
 62
     7
370
    15
100
AcDbSpline
210
0.0
220
0.0
230
1.0
 70
     8
 71
     3
 72
    24
 73
    20
 74
     0
 42
0.00000001
 43
0.00000001
 40
0.0
 40
0.0
 40
0.0
 40
0.0
 40
0.1249999999999999
 40
0.1249999999999999
 40
0.2499999999999999
 40
0.2499999999999999
 40
0.3749999999999999
 40
0.3749999999999999
 40
0.4374999999999999
 40
0.4374999999999999
 40
0.4999999999999999
 40
0.4999999999999999
 40
0.6249999999999999
 40
0.6249999999999999
 40
0.75
 40
0.75
 40
0.8749999999999999
 40
0.8749999999999999
 40
1.0
 40
1.0
 40
1.0
 40
1.0
 10
215.1331273515191
 20
115.2484241482065
 30
0.0
 10
215.0864494478374
 20
115.5474312505366
 30
0.0
 10
215.0437764816585
 20
115.8517691018554
 30
0.0
 10
214.967082333071
 20
116.4775026392514
 30
0.0
 10
214.933033951689
 20
116.7987273665789
 30
0.0
 10
214.8750332311232
 20
117.4706531373116
 30
0.0
 10
214.8508588806753
 20
117.8259683691905
 30
0.0
 10
214.8258448780703
 20
118.3761995905429
 30
0.0
 10
214.8193493647459
 20
118.5626033755234
 30
0.0
 10
214.8104993115559
 20
118.9427378776197
 30
0.0
 10
214.8081709998554
 20
119.1384076699055
 30
0.0
 10
214.8080979166381
 20
119.71688804858
 30
0.0
 10
214.817004818492
 20
120.0947998875488
 30
0.0
 10
214.8504378691349
 20
120.8367679126472
 30
0.0
 10
214.8740992148686
 20
121.1854833728082
 30
0.0
 10
214.9318930591512
 20
121.8585757705413
 30
0.0
 10
214.9661940954913
 20
122.183528257783
 30
0.0
 10
215.0434046381567
 20
122.8144520682447
 30
0.0
 10
215.0862937528624
 20
123.1203418085854
 30
0.0
 10
215.1331273515191
 20
123.4203462544049
 30
0.0
  0
SPLINE
  5
229
330
1F
100
AcDbEntity
  8
0
  6
Continuous
 62
     7
370
    15
100
AcDbSpline
210
0.0
220
0.0
230
1.0
 70
     8
 71
     3
 72
    10
 73
     6
 74
     0
 42
0.00000001
 43
0.00000001
 40
0.0
 40
0.0
 40
0.0
 40
0.0
 40
0.3432137459731977
 40
0.7445247391426543
 40
0.9999999999999999
 40
0.9999999999999999
 40
0.9999999999999999
 40
0.9999999999999999
 10
214.6479565182576
 20
121.9803967513632
 30
0.0
 10
214.6667104230805
 20
122.2560246272713
 30
0.0
 10
214.7073927857773
 20
122.8539370792598
 30
0.0
 10
214.742898534674
 20
123.3365154545928
 30
0.0
 10
214.7235914520132
 20
123.3418798328399
 30
0.0
 10
214.7160814258077
 20
123.3439664567965
 30
0.0
  0
SPLINE
  5
22A
330
1F
100
AcDbEntity
  8
0
  6
Continuous
 62
     7
370
    15
100
AcDbSpline
210
0.0
220
0.0
230
1.0
 70
     8
 71
     3
 72
    36
 73
    32
 74
     0
 42
0.00000001
 43
0.00000001
 40
0.0
 40
0.0
 40
0.0
 40
0.0
 40
0.1250000000000002
 40
0.1250000000000002
 40
0.1875000000000002
 40
0.1875000000000002
 40
0.2500000000000001
 40
0.2500000000000001
 40
0.3125000000000001
 40
0.3125000000000001
 40
0.3750000000000001
 40
0.3750000000000001
 40
0.4375000000000001
 40
0.4375000000000001
 40
0.5
 40
0.5
 40
0.5625000000000001
 40
0.5625000000000001
 40
0.6250000000000001
 40
0.6250000000000001
 40
0.6875000000000001
 40
0.6875000000000001
 40
0.7500000000000001
 40
0.7500000000000001
 40
0.8125000000000001
 40
0.8125000000000001
 40
0.8750000000000001
 40
0.8750000000000001
 40
0.9375000000000001
 40
0.9375000000000001
 40
1.0
 40
1.0
 40
1.0
 40
1.0
 10
214.7057851214878
 20
123.3781609668111
 30
0.0
 10
214.6848979314263
 20
123.3223321176291
 30
0.0
 10
214.6526202323432
 20
123.1778467230778
 30
0.0
 10
214.5931162806099
 20
122.8278437584687
 30
0.0
 10
214.5720017126406
 20
122.6916927151191
 30
0.0
 10
214.5288070540958
 20
122.380792188522
 30
0.0
 10
214.5065617997819
 20
122.2046512721928
 30
0.0
 10
214.4635441069086
 20
121.8161179581002
 30
0.0
 10
214.4431687831846
 20
121.6075036865239
 30
0.0
 10
214.4064131399802
 20
121.1612892040463
 30
0.0
 10
214.3898744086893
 20
120.9205877829443
 30
0.0
 10
214.3636103242728
 20
120.423099228921
 30
0.0
 10
214.3538794155934
 20
120.1679437599161
 30
0.0
 10
214.3421721211187
 20
119.6446302636342
 30
0.0
 10
214.340302209128
 20
119.3742904197661
 30
0.0
 10
214.3449322199959
 20
118.8458237774424
 30
0.0
 10
214.3513042399893
 20
118.5848034227932
 30
0.0
 10
214.371702436512
 20
118.0692754554484
 30
0.0
 10
214.3854942841462
 20
117.821305086518
 30
0.0
 10
214.4182665101666
 20
117.3506248090534
 30
0.0
 10
214.4375329428816
 20
117.1245986883551
 30
0.0
 10
214.4785246000254
 20
116.7088854648328
 30
0.0
 10
214.5001987994739
 20
116.5187458745505
 30
0.0
 10
214.5440715213186
 20
116.1724265154311
 30
0.0
 10
214.5662568654193
 20
116.0167533393968
 30
0.0
 10
214.6078128560248
 20
115.7503474792105
 30
0.0
 10
214.627412662313
 20
115.6377902415579
 30
0.0
 10
214.662858215899
 20
115.4540856868112
 30
0.0
 10
214.6783748883901
 20
115.384723259161
 30
0.0
 10
214.7037667094529
 20
115.2913803836764
 30
0.0
 10
214.7137426823286
 20
115.2668951338838
 30
0.0
 10
214.7207168797332
 20
115.2654714137878
 30
0.0
  0
SPLINE
  5
22B
330
1F
100
AcDbEntity
  8
0
  6
Continuous
 62
     7
370
    15
100
AcDbSpline
210
0.0
220
0.0
230
1.0
 70
     8
 71
     3
 72
    14
 73
    10
 74
     0
 42
0.00000001
 43
0.00000001
 40
0.0
 40
0.0
 40
0.0
 40
0.0
 40
0.1501771233694515
 40
0.3132008779645364
 40
0.4710638841144379
 40
0.619984801294585
 40
0.7599381108014214
 40
0.8961162904980999
 40
1.0
 40
1.0
 40
1.0
 40
1.0
 10
214.7212360403433
 20
115.2861039950812
 30
0.0
 10
214.7270564321732
 20
115.3305876417434
 30
0.0
 10
214.7391951107572
 20
115.4233602084105
 30
0.0
 10
214.6806618044999
 20
116.1777052572092
 30
0.0
 10
214.6069220744192
 20
117.2957641628011
 30
0.0
 10
214.5579951831952
 20
118.6342169421772
 30
0.0
 10
214.5579363334449
 20
119.9843849688176
 30
0.0
 10
214.5972187623588
 20
121.1362045216487
 30
0.0
 10
214.6326319253147
 20
121.7254209043491
 30
0.0
 10
214.6479565182576
 20
121.9803967513632
 30
0.0
  0
SPLINE
  5
22C
330
1F
100
AcDbEntity
  8
0
  6
Continuous
 62
     7
370
    15
100
AcDbSpline
210
0.0
220
0.0
230
1.0
 70
     8
 71
     3
 72
     8
 73
     4
 74
     0
 42
0.00000001
 43
0.00000001
 40
0.0000249631533153
 40
0.0000249631533153
 40
0.0000249631533153
 40
0.0000249631533153
 40
0.0049776413517029
 40
0.0049776413517029
 40
0.0049776413517029
 40
0.0049776413517029
 10
215.1331273515191
 20
123.420346254405
 30
0.0
 10
215.16962722973
 20
123.38109701715
 30
0.0
 10
215.2060518158621
 20
123.3408753359105
 30
0.0
 10
215.2424010288
 20
123.2995960981423
 30
0.0
  0
SPLINE
  5
22D
330
1F
100
AcDbEntity
  8
0
  6
Continuous
 62
     7
370
    15
100
AcDbSpline
210
0.0
220
0.0
230
1.0
 70
     8
 71
     3
 72
     8
 73
     4
 74
     0
 42
0.00000001
 43
0.00000001
 40
0.0000249638557296
 40
0.0000249638557296
 40
0.0000249638557296
 40
0.0000249638557296
 40
0.0049776420541172
 40
0.0049776420541172
 40
0.0049776420541172
 40
0.0049776420541172
 10
215.2424010288
 20
115.3691743044692
 30
0.0
 10
215.2060518158621
 20
115.327895066701
 30
0.0
 10
215.16962722973
 20
115.2876733854615
 30
0.0
 10
215.1331273515191
 20
115.2484241482065
 30
0.0
  0
LINE
  5
22E
330
1F
100
AcDbEntity
  8
0
  6
Continuous
 62
     7
370
    15
100
AcDbLine
 10
229.5145195114
 20
98.176021805
 30
0.0
 11
229.5145195114
 21
97.3142864167
 31
0.0
  0
ARC
  5
22F
330
1F
100
AcDbEntity
  8
0
  6
Continuous
 62
     7
370
    15
100
AcDbCircle
 10
229.5145195114
 20
110.2846429401
 30
0.0
 40
12.97035652337349
100
AcDbArc
 50
210.0
 51
270.0
  0
ARC
  5
230
330
1F
100
AcDbEntity
  8
0
  6
Continuous
 62
     7
370
    15
100
AcDbCircle
 10
229.5145195114
 20
128.3841274625
 30
0.0
 40
12.97035652337348
100
AcDbArc
 50
90.0
 51
150.0
  0
LINE
  5
231
330
1F
100
AcDbEntity
  8
0
  6
Continuous
 62
     7
370
    15
100
AcDbLine
 10
229.5145195114
 20
140.4927485976
 30
0.0
 11
229.5145195114
 21
141.3544839859
 31
0.0
  0
ARC
  5
232
330
1F
100
AcDbEntity
  8
0
  6
Continuous
 62
     7
370
    15
100
AcDbCircle
 10
229.5145195114
 20
110.2846429401
 30
0.0
 40
31.0698410457592
100
AcDbArc
 50
30.0
 51
90.0
  0
LINE
  5
233
330
1F
100
AcDbEntity
  8
0
  6
Continuous
 62
     7
370
    15
100
AcDbLine
 10
255.675506411
 20
125.3886957689
 30
0.0
 11
256.4217911486
 21
125.819563463
 31
0.0
  0
LINE
  5
234
330
1F
100
AcDbEntity
  8
0
  6
Continuous
 62
     7
370
    15
100
AcDbLine
 10
255.675506411
 20
113.2800746338
 30
0.0
 11
256.4217911486
 21
112.8492069396
 31
0.0
  0
ARC
  5
235
330
1F
100
AcDbEntity
  8
0
  6
Continuous
 62
     7
370
    15
100
AcDbCircle
 10
229.5145195114
 20
128.3841274625
 30
0.0
 40
31.0698410457592
100
AcDbArc
 50
270.0
 51
330.0
  0
ARC
  5
236
330
1F
100
AcDbEntity
  8
0
  6
Continuous
 62
     7
370
    15
100
AcDbCircle
 10
245.1891329032
 20
119.3343852013
 30
0.0
 40
12.97035652337349
100
AcDbArc
 50
330.0
 51
30.0
  0
CIRCLE
  5
237
330
1F
100
AcDbEntity
  8
0
  6
Continuous
 62
     7
370
    15
100
AcDbCircle
 10
234.739390642
 20
119.3343852013
 30
0.0
 40
14.0
  0
SPLINE
  5
238
330
1F
100
AcDbEntity
  8
0
  6
Continuous
 62
     7
370
    15
100
AcDbSpline
210
0.0
220
0.0
230
1.0
 70
     8
 71
     3
 72
    10
 73
     6
 74
     0
 42
0.00000001
 43
0.00000001
 40
0.0
 40
0.0
 40
0.0
 40
0.0
 40
0.5
 40
0.5
 40
1.0
 40
1.0
 40
1.0
 40
1.0
 10
220.7537730296119
 20
119.9688140783282
 30
0.0
 10
220.7442925993599
 20
119.7598234773202
 30
0.0
 10
220.7418957407005
 20
119.5482610112986
 30
0.0
 10
220.7418981068528
 20
119.120272245331
 30
0.0
 10
220.744312231736
 20
118.9085141409154
 30
0.0
 10
220.7537730296119
 20
118.6999563242833
 30
0.0
  0
SPLINE
  5
239
330
1F
100
AcDbEntity
  8
0
  6
Continuous
 62
     7
370
    15
100
AcDbSpline
210
0.0
220
0.0
230
1.0
 70
     8
 71
     3
 72
    10
 73
     6
 74
     0
 42
0.00000001
 43
0.00000001
 40
0.0
 40
0.0
 40
0.0
 40
0.0
 40
0.5
 40
0.5
 40
1.0
 40
1.0
 40
1.0
 40
1.0
 10
248.7250082543924
 20
118.6999563242833
 30
0.0
 10
248.7345005666788
 20
118.9092088578657
 30
0.0
 10
248.7368635393916
 20
119.1200256187647
 30
0.0
 10
248.7369049773821
 20
119.5445578999679
 30
0.0
 10
248.7345121503806
 20
119.7593061887406
 30
0.0
 10
248.7250082543924
 20
119.9688140783282
 30
0.0
  0
CIRCLE
  5
23A
330
1F
100
AcDbEntity
  8
0
  6
Continuous
 62
     7
370
    15
100
AcDbCircle
 10
234.739390642
 20
119.3343852013
 30
0.0
 40
13.50000000000001
  0
CIRCLE
  5
23B
330
1F
100
AcDbEntity
  8
0
  6
Continuous
 62
     7
370
    15
100
AcDbCircle
 10
234.739390642
 20
119.3343852013
 30
0.0
 40
10.25
  0
CIRCLE
  5
23C
330
1F
100
AcDbEntity
  8
0
  6
Continuous
 62
     7
370
    15
100
AcDbCircle
 10
234.739390642
 20
119.3343852013
 30
0.0
 40
9.0
  0
ARC
  5
23D
330
1F
100
AcDbEntity
  8
0
  6
Continuous
 62
     7
370
    15
100
AcDbCircle
 10
234.739390642
 20
119.3343852013
 30
0.0
 40
22.53982027887556
100
AcDbArc
 50
138.1516123933
 51
221.8483876067
  0
SPLINE
  5
23E
330
1F
100
AcDbEntity
  8
0
  6
Continuous
 62
     7
370
    15
100
AcDbSpline
210
0.0
220
0.0
230
1.0
 70
    24
 71
     1
 72
     4
 73
     2
 74
     0
 42
0.00000001
 43
0.00000001
 40
0.0
 40
0.0
 40
1.0
 40
1.0
 10
229.8470415006478
 20
97.33851241823277
 30
0.0
 10
230.1114549014841
 20
97.27479071306446
 30
0.0
  0
ARC
  5
23F
330
1F
100
AcDbEntity
  8
0
  6
Continuous
 62
     7
370
    15
100
AcDbCircle
 10
234.739390642
 20
119.3343852013
 30
0.0
 40
22.53982027887555
100
AcDbArc
 50
258.1516123933
 51
341.8483876067
  0
ARC
  5
240
330
1F
100
AcDbEntity
  8
0
  6
Continuous
 62
     7
370
    15
100
AcDbCircle
 10
234.739390642
 20
119.3343852013
 30
0.0
 40
22.53982027887553
100
AcDbArc
 50
18.1516123933
 51
101.8483876067
  0
SPLINE
  5
241
330
1F
100
AcDbEntity
  8
0
  6
Continuous
 62
     7
370
    15
100
AcDbSpline
210
0.0
220
0.0
230
1.0
 70
    24
 71
     1
 72
     4
 73
     2
 74
     0
 42
0.00000001
 43
0.00000001
 40
0.0
 40
0.0
 40
1.0
 40
1.0
 10
230.1114549014841
 20
141.393979689547
 30
0.0
 10
229.9278580618849
 20
141.3484856602389
 30
0.0
  0
CIRCLE
  5
242
330
1F
100
AcDbEntity
  8
0
  6
Continuous
 62
     7
370
    15
100
AcDbCircle
 10
234.739390642
 20
119.3343852013
 30
0.0
 40
24.15710678118653
  0
ARC
  5
243
330
1F
100
AcDbEntity
  8
0
  6
Continuous
 62
     7
370
    15
100
AcDbCircle
 10
229.5145195114
 20
128.3841274625
 30
0.0
 40
31.1150633110335
100
AcDbArc
 50
271.0992738961
 51
328.9007261039
  0
ARC
  5
244
330
1F
100
AcDbEntity
  8
0
  6
Continuous
 62
     7
370
    15
100
AcDbCircle
 10
245.1891329032
 20
119.3343852013
 30
0.0
 40
31.1150633110335
100
AcDbArc
 50
151.0992738961
 51
208.9007261039
  0
ARC
  5
245
330
1F
100
AcDbEntity
  8
0
  6
Continuous
 62
     7
370
    15
100
AcDbCircle
 10
229.5145195114
 20
110.2846429401
 30
0.0
 40
31.11506331103348
100
AcDbArc
 50
31.0992738961
 51
88.9007261039
  0
CIRCLE
  5
246
330
1F
100
AcDbEntity
  8
0
  6
Continuous
 62
     7
370
    15
100
AcDbCircle
 10
234.739390642
 20
119.3343852013
 30
0.0
 40
31.5
  0
CIRCLE
  5
247
330
1F
100
AcDbEntity
  8
0
  6
Continuous
 62
     7
370
    15
100
AcDbCircle
 10
234.739390642
 20
119.3343852013
 30
0.0
 40
31.19999999999999
  0
CIRCLE
  5
248
330
1F
100
AcDbEntity
  8
0
  6
Continuous
 62
     7
370
    15
100
AcDbCircle
 10
234.739390642
 20
119.3343852013
 30
0.0
 40
24.25
  0
LINE
  5
249
330
1F
100
AcDbEntity
  8
0
  6
HIDDEN
 62
     7
370
     0
100
AcDbLine
 10
206.739390642
 20
115.1343852013
 30
0.0
 11
206.739390642
 21
123.5343852013
 31
0.0
  0
LINE
  5
24A
330
1F
100
AcDbEntity
  8
0
  6
HIDDEN
 62
     7
370
     0
100
AcDbLine
 10
207.539390642
 20
114.3343852013
 30
0.0
 11
207.539390642
 21
124.3343852013
 31
0.0
  0
LINE
  5
24B
330
1F
100
AcDbEntity
  8
0
  6
HIDDEN
 62
     7
370
     0
100
AcDbLine
 10
217.739390642
 20
114.3343852013
 30
0.0
 11
217.739390642
 21
124.3343852013
 31
0.0
  0
LINE
  5
24C
330
1F
100
AcDbEntity
  8
0
  6
HIDDEN
 62
     7
370
     0
100
AcDbLine
 10
219.239390642
 20
115.8343852013
 30
0.0
 11
219.239390642
 21
122.8343852013
 31
0.0
  0
LINE
  5
24D
330
1F
100
AcDbEntity
  8
0
  6
HIDDEN
 62
     7
370
     0
100
AcDbLine
 10
206.739390642
 20
120.7777608743
 30
0.0
 11
206.739390642
 21
122.2211365473
 31
0.0
  0
LINE
  5
24E
330
1F
100
AcDbEntity
  8
0
  6
HIDDEN
 62
     7
370
     0
100
AcDbLine
 10
212.739390642
 20
120.7777608743
 30
0.0
 11
206.739390642
 21
120.7777608743
 31
0.0
  0
LINE
  5
24F
330
1F
100
AcDbEntity
  8
0
  6
HIDDEN
 62
     7
370
     0
100
AcDbLine
 10
206.739390642
 20
120.7777608743
 30
0.0
 11
206.739390642
 21
117.8910095283
 31
0.0
  0
LINE
  5
250
330
1F
100
AcDbEntity
  8
0
  6
HIDDEN
 62
     7
370
     0
100
AcDbLine
 10
212.739390642
 20
120.7777608743
 30
0.0
 11
212.739390642
 21
117.8910095283
 31
0.0
  0
LINE
  5
251
330
1F
100
AcDbEntity
  8
0
  6
HIDDEN
 62
     7
370
     0
100
AcDbLine
 10
212.739390642
 20
120.7777608743
 30
0.0
 11
212.739390642
 21
122.2211365473
 31
0.0
  0
LINE
  5
252
330
1F
100
AcDbEntity
  8
0
  6
HIDDEN
 62
     7
370
     0
100
AcDbLine
 10
212.739390642
 20
117.8910095283
 30
0.0
 11
212.739390642
 21
116.4476338554
 31
0.0
  0
LINE
  5
253
330
1F
100
AcDbEntity
  8
0
  6
HIDDEN
 62
     7
370
     0
100
AcDbLine
 10
212.739390642
 20
117.8910095283
 30
0.0
 11
206.739390642
 21
117.8910095283
 31
0.0
  0
LINE
  5
254
330
1F
100
AcDbEntity
  8
0
  6
HIDDEN
 62
     7
370
     0
100
AcDbLine
 10
206.739390642
 20
117.8910095283
 30
0.0
 11
206.739390642
 21
116.4476338554
 31
0.0
  0
LINE
  5
255
330
1F
100
AcDbEntity
  8
0
  6
HIDDEN
 62
     7
370
     0
100
AcDbLine
 10
219.239390642
 20
121.8343852013
 30
0.0
 11
219.239390642
 21
116.8343852013
 31
0.0
  0
LINE
  5
256
330
1F
100
AcDbEntity
  8
0
  6
HIDDEN
 62
     7
370
     0
100
AcDbLine
 10
212.739390642
 20
120.7777608743
 30
0.0
 11
206.739390642
 21
120.7777608743
 31
0.0
  0
LINE
  5
257
330
1F
100
AcDbEntity
  8
0
  6
HIDDEN
 62
     7
370
     0
100
AcDbLine
 10
212.739390642
 20
120.7777608743
 30
0.0
 11
212.739390642
 21
122.2211365473
 31
0.0
  0
LINE
  5
258
330
1F
100
AcDbEntity
  8
0
  6
HIDDEN
 62
     7
370
     0
100
AcDbLine
 10
212.739390642
 20
122.2211365473
 30
0.0
 11
206.739390642
 21
122.2211365473
 31
0.0
  0
LINE
  5
259
330
1F
100
AcDbEntity
  8
0
  6
HIDDEN
 62
     7
370
     0
100
AcDbLine
 10
206.739390642
 20
120.7777608743
 30
0.0
 11
206.739390642
 21
122.2211365473
 31
0.0
  0
LINE
  5
25A
330
1F
100
AcDbEntity
  8
0
  6
HIDDEN
 62
     7
370
     0
100
AcDbLine
 10
212.739390642
 20
117.8910095283
 30
0.0
 11
206.739390642
 21
117.8910095283
 31
0.0
  0
LINE
  5
25B
330
1F
100
AcDbEntity
  8
0
  6
HIDDEN
 62
     7
370
     0
100
AcDbLine
 10
212.739390642
 20
116.4476338554
 30
0.0
 11
206.739390642
 21
116.4476338554
 31
0.0
  0
LINE
  5
25C
330
1F
100
AcDbEntity
  8
0
  6
HIDDEN
 62
     7
370
     0
100
AcDbLine
 10
212.739390642
 20
117.8910095283
 30
0.0
 11
212.739390642
 21
116.4476338554
 31
0.0
  0
LINE
  5
25D
330
1F
100
AcDbEntity
  8
0
  6
HIDDEN
 62
     7
370
     0
100
AcDbLine
 10
206.739390642
 20
117.8910095283
 30
0.0
 11
206.739390642
 21
116.4476338554
 31
0.0
  0
LINE
  5
25E
330
1F
100
AcDbEntity
  8
0
  6
HIDDEN
 62
     7
370
     0
100
AcDbLine
 10
212.739390642
 20
120.7777608743
 30
0.0
 11
212.739390642
 21
117.8910095283
 31
0.0
  0
LINE
  5
25F
330
1F
100
AcDbEntity
  8
0
  6
HIDDEN
 62
     7
370
     0
100
AcDbLine
 10
206.739390642
 20
120.7777608743
 30
0.0
 11
206.739390642
 21
117.8910095283
 31
0.0
  0
LINE
  5
260
330
1F
100
AcDbEntity
  8
0
  6
HIDDEN
 62
     7
370
     0
100
AcDbLine
 10
229.739390642
 20
136.3343852013
 30
0.0
 11
239.739390642
 21
136.3343852013
 31
0.0
  0
LINE
  5
261
330
1F
100
AcDbEntity
  8
0
  6
HIDDEN
 62
     7
370
     0
100
AcDbLine
 10
231.239390642
 20
134.8343852013
 30
0.0
 11
238.239390642
 21
134.8343852013
 31
0.0
  0
LINE
  5
262
330
1F
100
AcDbEntity
  8
0
  6
HIDDEN
 62
     7
370
     0
100
AcDbLine
 10
229.739390642
 20
146.5343852013
 30
0.0
 11
239.739390642
 21
146.5343852013
 31
0.0
  0
LINE
  5
263
330
1F
100
AcDbEntity
  8
0
  6
HIDDEN
 62
     7
370
     0
100
AcDbLine
 10
230.539390642
 20
147.3343852013
 30
0.0
 11
238.939390642
 21
147.3343852013
 31
0.0
  0
LINE
  5
264
330
1F
100
AcDbEntity
  8
0
  6
HIDDEN
 62
     7
370
     0
100
AcDbLine
 10
236.182766315
 20
141.3343852013
 30
0.0
 11
237.626141988
 21
141.3343852013
 31
0.0
  0
LINE
  5
265
330
1F
100
AcDbEntity
  8
0
  6
HIDDEN
 62
     7
370
     0
100
AcDbLine
 10
236.182766315
 20
147.3343852013
 30
0.0
 11
237.626141988
 21
147.3343852013
 31
0.0
  0
LINE
  5
266
330
1F
100
AcDbEntity
  8
0
  6
HIDDEN
 62
     7
370
     0
100
AcDbLine
 10
237.239390642
 20
134.8343852013
 30
0.0
 11
232.239390642
 21
134.8343852013
 31
0.0
  0
LINE
  5
267
330
1F
100
AcDbEntity
  8
0
  6
HIDDEN
 62
     7
370
     0
100
AcDbLine
 10
236.182766315
 20
141.3343852013
 30
0.0
 11
236.182766315
 21
147.3343852013
 31
0.0
  0
LINE
  5
268
330
1F
100
AcDbEntity
  8
0
  6
HIDDEN
 62
     7
370
     0
100
AcDbLine
 10
236.182766315
 20
141.3343852013
 30
0.0
 11
233.296014969
 21
141.3343852013
 31
0.0
  0
LINE
  5
269
330
1F
100
AcDbEntity
  8
0
  6
HIDDEN
 62
     7
370
     0
100
AcDbLine
 10
236.182766315
 20
147.3343852013
 30
0.0
 11
233.296014969
 21
147.3343852013
 31
0.0
  0
LINE
  5
26A
330
1F
100
AcDbEntity
  8
0
  6
HIDDEN
 62
     7
370
     0
100
AcDbLine
 10
233.296014969
 20
141.3343852013
 30
0.0
 11
233.296014969
 21
147.3343852013
 31
0.0
  0
LINE
  5
26B
330
1F
100
AcDbEntity
  8
0
  6
HIDDEN
 62
     7
370
     0
100
AcDbLine
 10
233.296014969
 20
141.3343852013
 30
0.0
 11
231.8526392961
 21
141.3343852013
 31
0.0
  0
LINE
  5
26C
330
1F
100
AcDbEntity
  8
0
  6
HIDDEN
 62
     7
370
     0
100
AcDbLine
 10
233.296014969
 20
147.3343852013
 30
0.0
 11
231.8526392961
 21
147.3343852013
 31
0.0
  0
LINE
  5
26D
330
1F
100
AcDbEntity
  8
0
  6
HIDDEN
 62
     7
370
     0
100
AcDbLine
 10
236.182766315
 20
141.3343852013
 30
0.0
 11
236.182766315
 21
147.3343852013
 31
0.0
  0
LINE
  5
26E
330
1F
100
AcDbEntity
  8
0
  6
HIDDEN
 62
     7
370
     0
100
AcDbLine
 10
237.626141988
 20
141.3343852013
 30
0.0
 11
237.626141988
 21
147.3343852013
 31
0.0
  0
LINE
  5
26F
330
1F
100
AcDbEntity
  8
0
  6
HIDDEN
 62
     7
370
     0
100
AcDbLine
 10
236.182766315
 20
141.3343852013
 30
0.0
 11
237.626141988
 21
141.3343852013
 31
0.0
  0
LINE
  5
270
330
1F
100
AcDbEntity
  8
0
  6
HIDDEN
 62
     7
370
     0
100
AcDbLine
 10
236.182766315
 20
147.3343852013
 30
0.0
 11
237.626141988
 21
147.3343852013
 31
0.0
  0
LINE
  5
271
330
1F
100
AcDbEntity
  8
0
  6
HIDDEN
 62
     7
370
     0
100
AcDbLine
 10
233.296014969
 20
141.3343852013
 30
0.0
 11
233.296014969
 21
147.3343852013
 31
0.0
  0
LINE
  5
272
330
1F
100
AcDbEntity
  8
0
  6
HIDDEN
 62
     7
370
     0
100
AcDbLine
 10
231.8526392961
 20
141.3343852013
 30
0.0
 11
231.8526392961
 21
147.3343852013
 31
0.0
  0
LINE
  5
273
330
1F
100
AcDbEntity
  8
0
  6
HIDDEN
 62
     7
370
     0
100
AcDbLine
 10
233.296014969
 20
141.3343852013
 30
0.0
 11
231.8526392961
 21
141.3343852013
 31
0.0
  0
LINE
  5
274
330
1F
100
AcDbEntity
  8
0
  6
HIDDEN
 62
     7
370
     0
100
AcDbLine
 10
233.296014969
 20
147.3343852013
 30
0.0
 11
231.8526392961
 21
147.3343852013
 31
0.0
  0
LINE
  5
275
330
1F
100
AcDbEntity
  8
0
  6
HIDDEN
 62
     7
370
     0
100
AcDbLine
 10
236.182766315
 20
141.3343852013
 30
0.0
 11
233.296014969
 21
141.3343852013
 31
0.0
  0
LINE
  5
276
330
1F
100
AcDbEntity
  8
0
  6
HIDDEN
 62
     7
370
     0
100
AcDbLine
 10
236.182766315
 20
147.3343852013
 30
0.0
 11
233.296014969
 21
147.3343852013
 31
0.0
  0
LINE
  5
277
330
1F
100
AcDbEntity
  8
0
  6
HIDDEN
 62
     7
370
     0
100
AcDbLine
 10
251.739390642
 20
124.3343852013
 30
0.0
 11
251.739390642
 21
114.3343852013
 31
0.0
  0
LINE
  5
278
330
1F
100
AcDbEntity
  8
0
  6
HIDDEN
 62
     7
370
     0
100
AcDbLine
 10
250.239390642
 20
122.8343852013
 30
0.0
 11
250.239390642
 21
115.8343852013
 31
0.0
  0
LINE
  5
279
330
1F
100
AcDbEntity
  8
0
  6
HIDDEN
 62
     7
370
     0
100
AcDbLine
 10
261.939390642
 20
124.3343852013
 30
0.0
 11
261.939390642
 21
114.3343852013
 31
0.0
  0
LINE
  5
27A
330
1F
100
AcDbEntity
  8
0
  6
HIDDEN
 62
     7
370
     0
100
AcDbLine
 10
262.739390642
 20
123.5343852013
 30
0.0
 11
262.739390642
 21
115.1343852013
 31
0.0
  0
LINE
  5
27B
330
1F
100
AcDbEntity
  8
0
  6
HIDDEN
 62
     7
370
     0
100
AcDbLine
 10
250.239390642
 20
116.8343852013
 30
0.0
 11
250.239390642
 21
121.8343852013
 31
0.0
  0
LINE
  5
27C
330
1F
100
AcDbEntity
  8
0
  6
HIDDEN
 62
     7
370
     0
100
AcDbLine
 10
256.739390642
 20
117.8910095283
 30
0.0
 11
256.739390642
 21
116.4476338554
 31
0.0
  0
LINE
  5
27D
330
1F
100
AcDbEntity
  8
0
  6
HIDDEN
 62
     7
370
     0
100
AcDbLine
 10
262.739390642
 20
117.8910095283
 30
0.0
 11
262.739390642
 21
116.4476338554
 31
0.0
  0
LINE
  5
27E
330
1F
100
AcDbEntity
  8
0
  6
HIDDEN
 62
     7
370
     0
100
AcDbLine
 10
256.739390642
 20
117.8910095283
 30
0.0
 11
262.739390642
 21
117.8910095283
 31
0.0
  0
LINE
  5
27F
330
1F
100
AcDbEntity
  8
0
  6
HIDDEN
 62
     7
370
     0
100
AcDbLine
 10
256.739390642
 20
117.8910095283
 30
0.0
 11
256.739390642
 21
120.7777608743
 31
0.0
  0
LINE
  5
280
330
1F
100
AcDbEntity
  8
0
  6
HIDDEN
 62
     7
370
     0
100
AcDbLine
 10
262.739390642
 20
117.8910095283
 30
0.0
 11
262.739390642
 21
120.7777608743
 31
0.0
  0
LINE
  5
281
330
1F
100
AcDbEntity
  8
0
  6
HIDDEN
 62
     7
370
     0
100
AcDbLine
 10
256.739390642
 20
120.7777608743
 30
0.0
 11
262.739390642
 21
120.7777608743
 31
0.0
  0
LINE
  5
282
330
1F
100
AcDbEntity
  8
0
  6
HIDDEN
 62
     7
370
     0
100
AcDbLine
 10
256.739390642
 20
120.7777608743
 30
0.0
 11
256.739390642
 21
122.2211365473
 31
0.0
  0
LINE
  5
283
330
1F
100
AcDbEntity
  8
0
  6
HIDDEN
 62
     7
370
     0
100
AcDbLine
 10
262.739390642
 20
120.7777608743
 30
0.0
 11
262.739390642
 21
122.2211365473
 31
0.0
  0
LINE
  5
284
330
1F
100
AcDbEntity
  8
0
  6
HIDDEN
 62
     7
370
     0
100
AcDbLine
 10
256.739390642
 20
117.8910095283
 30
0.0
 11
262.739390642
 21
117.8910095283
 31
0.0
  0
LINE
  5
285
330
1F
100
AcDbEntity
  8
0
  6
HIDDEN
 62
     7
370
     0
100
AcDbLine
 10
256.739390642
 20
116.4476338554
 30
0.0
 11
262.739390642
 21
116.4476338554
 31
0.0
  0
LINE
  5
286
330
1F
100
AcDbEntity
  8
0
  6
HIDDEN
 62
     7
370
     0
100
AcDbLine
 10
256.739390642
 20
117.8910095283
 30
0.0
 11
256.739390642
 21
116.4476338554
 31
0.0
  0
LINE
  5
287
330
1F
100
AcDbEntity
  8
0
  6
HIDDEN
 62
     7
370
     0
100
AcDbLine
 10
262.739390642
 20
117.8910095283
 30
0.0
 11
262.739390642
 21
116.4476338554
 31
0.0
  0
LINE
  5
288
330
1F
100
AcDbEntity
  8
0
  6
HIDDEN
 62
     7
370
     0
100
AcDbLine
 10
256.739390642
 20
120.7777608743
 30
0.0
 11
262.739390642
 21
120.7777608743
 31
0.0
  0
LINE
  5
289
330
1F
100
AcDbEntity
  8
0
  6
HIDDEN
 62
     7
370
     0
100
AcDbLine
 10
256.739390642
 20
122.2211365473
 30
0.0
 11
262.739390642
 21
122.2211365473
 31
0.0
  0
LINE
  5
28A
330
1F
100
AcDbEntity
  8
0
  6
HIDDEN
 62
     7
370
     0
100
AcDbLine
 10
256.739390642
 20
120.7777608743
 30
0.0
 11
256.739390642
 21
122.2211365473
 31
0.0
  0
LINE
  5
28B
330
1F
100
AcDbEntity
  8
0
  6
HIDDEN
 62
     7
370
     0
100
AcDbLine
 10
262.739390642
 20
120.7777608743
 30
0.0
 11
262.739390642
 21
122.2211365473
 31
0.0
  0
LINE
  5
28C
330
1F
100
AcDbEntity
  8
0
  6
HIDDEN
 62
     7
370
     0
100
AcDbLine
 10
256.739390642
 20
117.8910095283
 30
0.0
 11
256.739390642
 21
120.7777608743
 31
0.0
  0
LINE
  5
28D
330
1F
100
AcDbEntity
  8
0
  6
HIDDEN
 62
     7
370
     0
100
AcDbLine
 10
262.739390642
 20
117.8910095283
 30
0.0
 11
262.739390642
 21
120.7777608743
 31
0.0
  0
SPLINE
  5
28E
330
1F
100
AcDbEntity
  8
0
  6
HIDDEN
 62
     7
370
     0
100
AcDbSpline
210
0.0
220
0.0
230
1.0
 70
    24
 71
     1
 72
     4
 73
     2
 74
     0
 42
0.00000001
 43
0.00000001
 40
0.0
 40
0.0
 40
1.0
 40
1.0
 10
207.539390642002
 20
124.334385201306
 30
0.0
 10
206.739390642002
 20
123.534385201306
 30
0.0
  0
SPLINE
  5
28F
330
1F
100
AcDbEntity
  8
0
  6
HIDDEN
 62
     7
370
     0
100
AcDbSpline
210
0.0
220
0.0
230
1.0
 70
    24
 71
     1
 72
     4
 73
     2
 74
     0
 42
0.00000001
 43
0.00000001
 40
0.0
 40
0.0
 40
1.0
 40
1.0
 10
206.7393906420019
 20
115.134385201306
 30
0.0
 10
207.5393906420019
 20
114.334385201306
 30
0.0
  0
SPLINE
  5
290
330
1F
100
AcDbEntity
  8
0
  6
HIDDEN
 62
     7
370
     0
100
AcDbSpline
210
0.0
220
0.0
230
1.0
 70
    24
 71
     1
 72
     4
 73
     2
 74
     0
 42
0.00000001
 43
0.00000001
 40
0.0
 40
0.0
 40
1.0
 40
1.0
 10
207.5393906420019
 20
114.334385201306
 30
0.0
 10
217.7393906420019
 20
114.3343852013059
 30
0.0
  0
SPLINE
  5
291
330
1F
100
AcDbEntity
  8
0
  6
HIDDEN
 62
     7
370
     0
100
AcDbSpline
210
0.0
220
0.0
230
1.0
 70
    24
 71
     1
 72
     4
 73
     2
 74
     0
 42
0.00000001
 43
0.00000001
 40
0.0
 40
0.0
 40
1.0
 40
1.0
 10
217.739390642002
 20
124.3343852013059
 30
0.0
 10
207.539390642002
 20
124.334385201306
 30
0.0
  0
SPLINE
  5
292
330
1F
100
AcDbEntity
  8
0
  6
HIDDEN
 62
     7
370
     0
100
AcDbSpline
210
0.0
220
0.0
230
1.0
 70
    24
 71
     1
 72
     4
 73
     2
 74
     0
 42
0.00000001
 43
0.00000001
 40
0.0
 40
0.0
 40
1.0
 40
1.0
 10
217.7393906420019
 20
114.3343852013059
 30
0.0
 10
219.2393906420019
 20
115.8343852013059
 30
0.0
  0
SPLINE
  5
293
330
1F
100
AcDbEntity
  8
0
  6
HIDDEN
 62
     7
370
     0
100
AcDbSpline
210
0.0
220
0.0
230
1.0
 70
    24
 71
     1
 72
     4
 73
     2
 74
     0
 42
0.00000001
 43
0.00000001
 40
0.0
 40
0.0
 40
1.0
 40
1.0
 10
219.239390642002
 20
122.8343852013059
 30
0.0
 10
217.739390642002
 20
124.3343852013059
 30
0.0
  0
SPLINE
  5
294
330
1F
100
AcDbEntity
  8
0
  6
HIDDEN
 62
     7
370
     0
100
AcDbSpline
210
0.0
220
0.0
230
1.0
 70
    24
 71
     1
 72
     4
 73
     2
 74
     0
 42
0.00000001
 43
0.00000001
 40
0.0
 40
0.0
 40
1.0
 40
1.0
 10
219.239390642002
 20
121.8343852013059
 30
0.0
 10
217.7960149690279
 20
119.3343852013059
 30
0.0
  0
SPLINE
  5
295
330
1F
100
AcDbEntity
  8
0
  6
HIDDEN
 62
     7
370
     0
100
AcDbSpline
210
0.0
220
0.0
230
1.0
 70
    24
 71
     1
 72
     4
 73
     2
 74
     0
 42
0.00000001
 43
0.00000001
 40
0.0
 40
0.0
 40
1.0
 40
1.0
 10
217.7960149690279
 20
119.3343852013059
 30
0.0
 10
219.2393906420019
 20
116.8343852013059
 30
0.0
  0
SPLINE
  5
296
330
1F
100
AcDbEntity
  8
0
  6
HIDDEN
 62
     7
370
     0
100
AcDbSpline
210
0.0
220
0.0
230
1.0
 70
    24
 71
     1
 72
     4
 73
     2
 74
     0
 42
0.00000001
 43
0.00000001
 40
0.0
 40
0.0
 40
1.0
 40
1.0
 10
229.739390642002
 20
136.3343852013058
 30
0.0
 10
231.239390642002
 20
134.8343852013058
 30
0.0
  0
SPLINE
  5
297
330
1F
100
AcDbEntity
  8
0
  6
HIDDEN
 62
     7
370
     0
100
AcDbSpline
210
0.0
220
0.0
230
1.0
 70
    24
 71
     1
 72
     4
 73
     2
 74
     0
 42
0.00000001
 43
0.00000001
 40
0.0
 40
0.0
 40
1.0
 40
1.0
 10
238.239390642002
 20
134.8343852013058
 30
0.0
 10
239.739390642002
 20
136.3343852013058
 30
0.0
  0
SPLINE
  5
298
330
1F
100
AcDbEntity
  8
0
  6
HIDDEN
 62
     7
370
     0
100
AcDbSpline
210
0.0
220
0.0
230
1.0
 70
    24
 71
     1
 72
     4
 73
     2
 74
     0
 42
0.00000001
 43
0.00000001
 40
0.0
 40
0.0
 40
1.0
 40
1.0
 10
229.739390642002
 20
146.5343852013058
 30
0.0
 10
229.739390642002
 20
136.3343852013058
 30
0.0
  0
SPLINE
  5
299
330
1F
100
AcDbEntity
  8
0
  6
HIDDEN
 62
     7
370
     0
100
AcDbSpline
210
0.0
220
0.0
230
1.0
 70
    24
 71
     1
 72
     4
 73
     2
 74
     0
 42
0.00000001
 43
0.00000001
 40
0.0
 40
0.0
 40
1.0
 40
1.0
 10
239.739390642002
 20
136.3343852013058
 30
0.0
 10
239.739390642002
 20
146.5343852013058
 30
0.0
  0
SPLINE
  5
29A
330
1F
100
AcDbEntity
  8
0
  6
HIDDEN
 62
     7
370
     0
100
AcDbSpline
210
0.0
220
0.0
230
1.0
 70
    24
 71
     1
 72
     4
 73
     2
 74
     0
 42
0.00000001
 43
0.00000001
 40
0.0
 40
0.0
 40
1.0
 40
1.0
 10
239.7393906420019
 20
146.5343852013058
 30
0.0
 10
238.9393906420019
 20
147.3343852013058
 30
0.0
  0
SPLINE
  5
29B
330
1F
100
AcDbEntity
  8
0
  6
HIDDEN
 62
     7
370
     0
100
AcDbSpline
210
0.0
220
0.0
230
1.0
 70
    24
 71
     1
 72
     4
 73
     2
 74
     0
 42
0.00000001
 43
0.00000001
 40
0.0
 40
0.0
 40
1.0
 40
1.0
 10
230.5393906420019
 20
147.3343852013058
 30
0.0
 10
229.739390642002
 20
146.5343852013058
 30
0.0
  0
SPLINE
  5
29C
330
1F
100
AcDbEntity
  8
0
  6
HIDDEN
 62
     7
370
     0
100
AcDbSpline
210
0.0
220
0.0
230
1.0
 70
    24
 71
     1
 72
     4
 73
     2
 74
     0
 42
0.00000001
 43
0.00000001
 40
0.0
 40
0.0
 40
1.0
 40
1.0
 10
237.239390642002
 20
134.8343852013058
 30
0.0
 10
234.739390642002
 20
136.2777608742798
 30
0.0
  0
SPLINE
  5
29D
330
1F
100
AcDbEntity
  8
0
  6
HIDDEN
 62
     7
370
     0
100
AcDbSpline
210
0.0
220
0.0
230
1.0
 70
    24
 71
     1
 72
     4
 73
     2
 74
     0
 42
0.00000001
 43
0.00000001
 40
0.0
 40
0.0
 40
1.0
 40
1.0
 10
234.739390642002
 20
136.2777608742798
 30
0.0
 10
232.239390642002
 20
134.8343852013058
 30
0.0
  0
SPLINE
  5
29E
330
1F
100
AcDbEntity
  8
0
  6
HIDDEN
 62
     7
370
     0
100
AcDbSpline
210
0.0
220
0.0
230
1.0
 70
    24
 71
     1
 72
     4
 73
     2
 74
     0
 42
0.00000001
 43
0.00000001
 40
0.0
 40
0.0
 40
1.0
 40
1.0
 10
251.7393906420019
 20
124.3343852013059
 30
0.0
 10
250.2393906420019
 20
122.8343852013059
 30
0.0
  0
SPLINE
  5
29F
330
1F
100
AcDbEntity
  8
0
  6
HIDDEN
 62
     7
370
     0
100
AcDbSpline
210
0.0
220
0.0
230
1.0
 70
    24
 71
     1
 72
     4
 73
     2
 74
     0
 42
0.00000001
 43
0.00000001
 40
0.0
 40
0.0
 40
1.0
 40
1.0
 10
250.239390642002
 20
115.8343852013059
 30
0.0
 10
251.739390642002
 20
114.3343852013059
 30
0.0
  0
SPLINE
  5
2A0
330
1F
100
AcDbEntity
  8
0
  6
HIDDEN
 62
     7
370
     0
100
AcDbSpline
210
0.0
220
0.0
230
1.0
 70
    24
 71
     1
 72
     4
 73
     2
 74
     0
 42
0.00000001
 43
0.00000001
 40
0.0
 40
0.0
 40
1.0
 40
1.0
 10
261.9393906420019
 20
124.334385201306
 30
0.0
 10
251.7393906420019
 20
124.3343852013059
 30
0.0
  0
SPLINE
  5
2A1
330
1F
100
AcDbEntity
  8
0
  6
HIDDEN
 62
     7
370
     0
100
AcDbSpline
210
0.0
220
0.0
230
1.0
 70
    24
 71
     1
 72
     4
 73
     2
 74
     0
 42
0.00000001
 43
0.00000001
 40
0.0
 40
0.0
 40
1.0
 40
1.0
 10
251.739390642002
 20
114.3343852013059
 30
0.0
 10
261.939390642002
 20
114.334385201306
 30
0.0
  0
SPLINE
  5
2A2
330
1F
100
AcDbEntity
  8
0
  6
HIDDEN
 62
     7
370
     0
100
AcDbSpline
210
0.0
220
0.0
230
1.0
 70
    24
 71
     1
 72
     4
 73
     2
 74
     0
 42
0.00000001
 43
0.00000001
 40
0.0
 40
0.0
 40
1.0
 40
1.0
 10
261.939390642002
 20
114.334385201306
 30
0.0
 10
262.739390642002
 20
115.134385201306
 30
0.0
  0
SPLINE
  5
2A3
330
1F
100
AcDbEntity
  8
0
  6
HIDDEN
 62
     7
370
     0
100
AcDbSpline
210
0.0
220
0.0
230
1.0
 70
    24
 71
     1
 72
     4
 73
     2
 74
     0
 42
0.00000001
 43
0.00000001
 40
0.0
 40
0.0
 40
1.0
 40
1.0
 10
262.7393906420019
 20
123.534385201306
 30
0.0
 10
261.9393906420019
 20
124.334385201306
 30
0.0
  0
SPLINE
  5
2A4
330
1F
100
AcDbEntity
  8
0
  6
HIDDEN
 62
     7
370
     0
100
AcDbSpline
210
0.0
220
0.0
230
1.0
 70
    24
 71
     1
 72
     4
 73
     2
 74
     0
 42
0.00000001
 43
0.00000001
 40
0.0
 40
0.0
 40
1.0
 40
1.0
 10
250.239390642002
 20
116.8343852013059
 30
0.0
 10
251.682766314976
 20
119.3343852013059
 30
0.0
  0
SPLINE
  5
2A5
330
1F
100
AcDbEntity
  8
0
  6
HIDDEN
 62
     7
370
     0
100
AcDbSpline
210
0.0
220
0.0
230
1.0
 70
    24
 71
     1
 72
     4
 73
     2
 74
     0
 42
0.00000001
 43
0.00000001
 40
0.0
 40
0.0
 40
1.0
 40
1.0
 10
251.682766314976
 20
119.3343852013059
 30
0.0
 10
250.2393906420019
 20
121.8343852013059
 30
0.0
  0
INSERT
  5
2B1
330
1F
100
AcDbEntity
  8
VERMASSUNG
100
AcDbBlockReference
  2
SW_CENTERMARKSYMBOL_0
 10
234.739390642
 20
119.3343852013
 30
0.0
  0
CIRCLE
  5
2B2
330
1F
100
AcDbEntity
  8
VERMASSUNG
  6
CENTERX2
370
     0
100
AcDbCircle
 10
234.739390642
 20
119.3343852013
 30
0.0
 40
31.35000000000001
  0
OLE2FRAME
  5
2B3
330
1F
100
AcDbEntity
  8
0
100
AcDbOle2Frame
 70
     2
  3
Bitmap
 10
13.8511154363
 20
38.264191557
 30
0.0
 11
51.6290888628
 21
31.9806341108
 31
0.0
 71
     2
 72
     0
 73
     1
 90
    12928
310
80552BED0767C5B32B40DDAF6807D121434000000000000000006FFBDDFB85D0
310
4940DDAF6807D121434000000000000000006FFBDDFB85D04940416F4BD60AFB
310
3F4000000000000000002BED0767C5B32B40416F4BD60AFB3F40000000000000
310
0000000000000100000000010000010000000100000000000100000000320000
310
D0CF11E0A1B11AE1000000000000000000000000000000003E000300FEFF0900
310
0600000000000000000000000100000001000000000000000010000002000000
310
01000000FEFFFFFF0000000000000000FFFFFFFFFFFFFFFFFFFFFFFFFFFFFFFF
310
FFFFFFFFFFFFFFFFFFFFFFFFFFFFFFFFFFFFFFFFFFFFFFFFFFFFFFFFFFFFFFFF
310
FFFFFFFFFFFFFFFFFFFFFFFFFFFFFFFFFFFFFFFFFFFFFFFFFFFFFFFFFFFFFFFF
310
FFFFFFFFFFFFFFFFFFFFFFFFFFFFFFFFFFFFFFFFFFFFFFFFFFFFFFFFFFFFFFFF
310
FFFFFFFFFFFFFFFFFFFFFFFFFFFFFFFFFFFFFFFFFFFFFFFFFFFFFFFFFFFFFFFF
310
FFFFFFFFFFFFFFFFFFFFFFFFFFFFFFFFFFFFFFFFFFFFFFFFFFFFFFFFFFFFFFFF
310
FFFFFFFFFFFFFFFFFFFFFFFFFFFFFFFFFFFFFFFFFFFFFFFFFFFFFFFFFFFFFFFF
310
FFFFFFFFFFFFFFFFFFFFFFFFFFFFFFFFFFFFFFFFFFFFFFFFFFFFFFFFFFFFFFFF
310
FFFFFFFFFFFFFFFFFFFFFFFFFFFFFFFFFFFFFFFFFFFFFFFFFFFFFFFFFFFFFFFF
310
FFFFFFFFFFFFFFFFFFFFFFFFFFFFFFFFFFFFFFFFFFFFFFFFFFFFFFFFFFFFFFFF
310
FFFFFFFFFFFFFFFFFFFFFFFFFFFFFFFFFFFFFFFFFFFFFFFFFFFFFFFFFFFFFFFF
310
FFFFFFFFFFFFFFFFFFFFFFFFFFFFFFFFFFFFFFFFFFFFFFFFFFFFFFFFFFFFFFFF
310
FFFFFFFFFFFFFFFFFFFFFFFFFFFFFFFFFFFFFFFFFFFFFFFFFFFFFFFFFFFFFFFF
310
FFFFFFFFFFFFFFFFFFFFFFFFFFFFFFFFFFFFFFFFFFFFFFFFFFFFFFFFFFFFFFFF
310
FDFFFFFFFEFFFFFFFEFFFFFFFEFFFFFF05000000060000000700000008000000
310
090000000A0000000B0000000C0000000D0000000E0000000F00000010000000
310
11000000120000001300000014000000150000001600000017000000FEFFFFFF
310
FFFFFFFFFFFFFFFFFFFFFFFFFFFFFFFFFFFFFFFFFFFFFFFFFFFFFFFFFFFFFFFF
310
FFFFFFFFFFFFFFFFFFFFFFFFFFFFFFFFFFFFFFFFFFFFFFFFFFFFFFFFFFFFFFFF
310
FFFFFFFFFFFFFFFFFFFFFFFFFFFFFFFFFFFFFFFFFFFFFFFFFFFFFFFFFFFFFFFF
310
FFFFFFFFFFFFFFFFFFFFFFFFFFFFFFFFFFFFFFFFFFFFFFFFFFFFFFFFFFFFFFFF
310
FFFFFFFFFFFFFFFFFFFFFFFFFFFFFFFFFFFFFFFFFFFFFFFFFFFFFFFFFFFFFFFF
310
FFFFFFFFFFFFFFFFFFFFFFFFFFFFFFFFFFFFFFFFFFFFFFFFFFFFFFFFFFFFFFFF
310
FFFFFFFFFFFFFFFFFFFFFFFFFFFFFFFFFFFFFFFFFFFFFFFFFFFFFFFFFFFFFFFF
310
FFFFFFFFFFFFFFFFFFFFFFFFFFFFFFFFFFFFFFFFFFFFFFFFFFFFFFFFFFFFFFFF
310
FFFFFFFFFFFFFFFFFFFFFFFFFFFFFFFFFFFFFFFFFFFFFFFFFFFFFFFFFFFFFFFF
310
FFFFFFFFFFFFFFFFFFFFFFFFFFFFFFFFFFFFFFFFFFFFFFFFFFFFFFFFFFFFFFFF
310
FFFFFFFFFFFFFFFFFFFFFFFFFFFFFFFFFFFFFFFFFFFFFFFFFFFFFFFFFFFFFFFF
310
FFFFFFFFFFFFFFFFFFFFFFFFFFFFFFFFFFFFFFFFFFFFFFFFFFFFFFFFFFFFFFFF
310
FFFFFFFFFFFFFFFFFFFFFFFFFFFFFFFFFFFFFFFFFFFFFFFFFFFFFFFFFFFFFFFF
310
52006F006F007400200045006E00740072007900000000000000000000000000
310
0000000000000000000000000000000000000000000000000000000000000000
310
16000500FFFFFFFFFFFFFFFF020000000A00030000000000C000000000000046
310
00000000000000000000000010327597A408CB0103000000C000000000000000
310
01004F006C006500000000000000000000000000000000000000000000000000
310
0000000000000000000000000000000000000000000000000000000000000000
310
0A000200FFFFFFFFFFFFFFFFFFFFFFFF00000000000000000000000000000000
310
0000000000000000000000000000000000000000000000001400000000000000
310
010043006F006D0070004F0062006A0000000000000000000000000000000000
310
0000000000000000000000000000000000000000000000000000000000000000
310
120002010100000003000000FFFFFFFF00000000000000000000000000000000
310
0000000000000000000000000000000000000000010000004D00000000000000
310
01004F006C006500310030004E00610074006900760065000000000000000000
310
0000000000000000000000000000000000000000000000000000000000000000
310
1A000200FFFFFFFFFFFFFFFFFFFFFFFF00000000000000000000000000000000
310
0000000000000000000000000000000000000000040000002426000000000000
310
FEFFFFFF02000000FEFFFFFFFFFFFFFFFFFFFFFFFFFFFFFFFFFFFFFFFFFFFFFF
310
FFFFFFFFFFFFFFFFFFFFFFFFFFFFFFFFFFFFFFFFFFFFFFFFFFFFFFFFFFFFFFFF
310
FFFFFFFFFFFFFFFFFFFFFFFFFFFFFFFFFFFFFFFFFFFFFFFFFFFFFFFFFFFFFFFF
310
FFFFFFFFFFFFFFFFFFFFFFFFFFFFFFFFFFFFFFFFFFFFFFFFFFFFFFFFFFFFFFFF
310
FFFFFFFFFFFFFFFFFFFFFFFFFFFFFFFFFFFFFFFFFFFFFFFFFFFFFFFFFFFFFFFF
310
FFFFFFFFFFFFFFFFFFFFFFFFFFFFFFFFFFFFFFFFFFFFFFFFFFFFFFFFFFFFFFFF
310
FFFFFFFFFFFFFFFFFFFFFFFFFFFFFFFFFFFFFFFFFFFFFFFFFFFFFFFFFFFFFFFF
310
FFFFFFFFFFFFFFFFFFFFFFFFFFFFFFFFFFFFFFFFFFFFFFFFFFFFFFFFFFFFFFFF
310
FFFFFFFFFFFFFFFFFFFFFFFFFFFFFFFFFFFFFFFFFFFFFFFFFFFFFFFFFFFFFFFF
310
FFFFFFFFFFFFFFFFFFFFFFFFFFFFFFFFFFFFFFFFFFFFFFFFFFFFFFFFFFFFFFFF
310
FFFFFFFFFFFFFFFFFFFFFFFFFFFFFFFFFFFFFFFFFFFFFFFFFFFFFFFFFFFFFFFF
310
FFFFFFFFFFFFFFFFFFFFFFFFFFFFFFFFFFFFFFFFFFFFFFFFFFFFFFFFFFFFFFFF
310
FFFFFFFFFFFFFFFFFFFFFFFFFFFFFFFFFFFFFFFFFFFFFFFFFFFFFFFFFFFFFFFF
310
FFFFFFFFFFFFFFFFFFFFFFFFFFFFFFFFFFFFFFFFFFFFFFFFFFFFFFFFFFFFFFFF
310
FFFFFFFFFFFFFFFFFFFFFFFFFFFFFFFFFFFFFFFFFFFFFFFFFFFFFFFFFFFFFFFF
310
FFFFFFFFFFFFFFFFFFFFFFFFFFFFFFFFFFFFFFFFFFFFFFFFFFFFFFFFFFFFFFFF
310
0100000200000000000000000000000000000000C0B56B35FFF0001FFFFFFF00
310
00FFFFFF80007FFF0000FFFFFF80007FFF0003FFFFFFFFF0003FFFFF0001F000
310
0100FEFF030A0000FFFFFFFF0A00030000000000C00000000000004607000000
310
5042727573680007000000504272757368000700000050427275736800F439B2
310
71000000000000000000000000FFFFF0003FFFFF0003F000E0003FFFFC0003FE
310
0003FFF000003FFF0003FF80007FE0003FFFF80007FE0003FFFFC0007FF80000
310
01FFFE0000007FFFFFF0001FFFFFFF80003FFFFE0000FFFF80003FFFFE0000FF
310
FF0003FFFFFFFFF0001FFFFE0003F000F0001FFFF80003FE0003FFF000007FFF
310
0001FF80007FE0003FFFF00007FE0001FFFF80007FF8000001FFFE0000007FFF
310
FFF0001FFFFFFFC0000FFFF80001FFFFC0000FFFF80001FFFF0003FFFFFFFFF0
310
001FFFFC0003F000F0000FFFF00007FE0007FFF800007FFF0001FF80007FE000
310
1FFFE00007FF0000FFFE00007FF8000001FFFE0000007FFFFFF0001FFFFFFFC0
310
0003FFE00001FFFFC00003FFE00001FFFF0003FFFFFFFFF8000FFFF80003F000
310
F00003FFC00007FC0007FFF800007FFF8001FF80007FF00007FF80000FFF0000
310
7FF80000FFF8000001FFFE0000007F80000000000001FFE000003E000003FFFF
310
E000003E000003FFFF0003FFFFFFFFF80003FFE00007F000F800000000000FFC
310
20260000424D0E260000000000003E00000028000000B40200006E0000000100
310
01000000000000000000130B0000130B00000200000002000000000000FFFFFF
310
FFFFFFFFFFFFFFFFFFFFFFFFFFFFFFFFFFFFFFFFFFFFFFFFFFFFFFFFFFFFFFFF
310
FFFFFFFFFFFFFFFFFFFFFFFFFFFFFFFFFFFFFFFFFFFFFFFFFFFFFFFFFFFFFFFF
310
FFFFFFFFFFFFFFFFFFFFFFFFFFFFFFFFFFFFFFFFFFFFFFFFF000FFFFFFFFFFFF
310
FFFFFFFFFFFFFFFFFFFFFFFFFFFFFFFFFFFFFFFFFFFFFFFFFFFFFFFFFFFFFFFF
310
FFFFFFFFFFFFFFFFFFFFFFFFFFFFFFFFFFFFFFFFFFFFFFFFFFFFFFFFFFFFFFFF
310
FFFFFFFFFFFFFFFFFFFFFFFFFFFFFFFFF000FFFFFFFFFFFFFFFFFFFFFFFFFFFF
310
FFFFFFFFFFFFFFFFFFFFFFFFFFFFFFFFFFFFFFFFFFFFFFFFFFFFFFFFFFFFFFFF
310
FFFFFFFFFFFFFFFFFFFFFFFFFFFFFFFFFFFFFFFFFFFFFFFFFFFFFFFFFFFFFFFF
310
FFFFFFFFFFFFFFFFF000FFFFFFFFFFFFFFFFFFFFFFFFFFFFFFFFFFFFFFFFFFFF
310
FFFFFFFFFFFFFFFFFFFFFFFFFFFFFFFFFFFFFFFFFFFFFFFFFFFFFFFFFFFFFFFF
310
FFFFFFFFFFFFFFFFFFFFFFFFFFFFFFFFFFFFFFFFFFFFFFFFFFFFFFFFFFFFFFFF
310
F000FFFFFFFFFFFFFFFFFFFFFFFFFFFFFFFFFFFFFFFFFFFFFFFFFFFFFFFFFFFF
310
FFFFFFFFFFFFFFFFFFFFFFFFFFFFFFFFFFFFFFFFFFFFFFFFFFFFFFFFFFFFFFFF
310
FFFFFFFFFFFFFFFFFFFFFFFFFFFFFFFFFFFFFFFFFFFFFFFFF000FFFFFFFFFFFF
310
FFFFFFFFFFFFFFFFFFFFFFFFFFFFFFFFFFFFFFFFFFFFFFFFFFFFFFFFFFFFFFFF
310
FFFFFFFFFFFFFFFFFFFFFFFFFFFFFFFFFFFFFFFFFFFFFFFFFFFFFFFFFFFFFFFF
310
FFFFFFFFFFFFFFFFFFFFFFFFFFFFFFFFF000FFFFFFFFFFFFFFFFFFFFFFFFFFFF
310
FFFFFFFFFFFFFFFFFFFFFFFFFFFFFFFFFFFFFFFFFFFFFFFFFFFFFFFFFFFFFFFF
310
FFFFFFFFFFFFFFFFFFFFFFFFFFFFFFFFFFFFFFFFFFFFFFFFFFFFFFFFFFFFFFFF
310
FFFFFFFFFFFFFFFFF000FFFFFFFFFFFFFFFFFFFFFFFFFFFFFFFFFFFFFFFFFFFF
310
FFFFFFFFFFFFFFFFFFFFFFFFFFFFFFFFFFFFFFFFFFFFFFFFFFFFFFFFFFFFFFFF
310
FFFFFFFFFFFFFFFFFFFFFFFFFFFFFFFFFFFFFFFFFFFFFFFFFFFFFFFFFFFFFFFF
310
F000FFFFFFFFFFFFFFFFFFFFFFFFFFFFFFFFFFFFFFFFFFFFFFFFFFFFFFFFFFFF
310
FFFFFFFFFFFFFFFFFFFFFFFFFFFFFFFFFFFFFFFFFFFFFFFFFFFFFFFFFFFFFFFF
310
FFFFFFFFFFFFFFFFFFFFFFFFFFFFFFFFFFFFFFFFFFFFFFFFF000FFFFFFFFFFFF
310
FFFFFFFFFFFFFFFFFFFFFFFFFFFFFFFFFFFFFFFFFFFFFFFFFFFFFFFFFFFFFFFF
310
FFFFFFFFFFFFFFFFFFFFFFFFFFFFFFFFFFFFFFFFFFFFFFFFFFFFFFFFFFFFFFFF
310
FFFFFFFFFFFFFFFFFFFFFFFFFFFFFFFFF000FFFFFFFFFFFFFFFFFFFFFFFFFFFF
310
FFFFFFFFFFFFFFFFFFFFFFFFFFFFFFFFFFFFFFFFFFFFFFFFFFFFFFFFFFFFFFFF
310
FFFFFFFFFFFFFFFFFFFFFFFFFFFFFFFFFFFFFFFFFFFFFFFFFFFFFFFFFFFFFFFF
310
FFFFFFFFFFFFFFFFF000FFFFFFFFFFFFFFFFFFFFFFFFFFFFFFFFFFFFFFFFFFFF
310
FFFFFFFFFFFFFFFFFFFFFFFFFFFFFFFFFFFFFFFFFFFFFFFFFFFFFFFFFFFFFFFF
310
FFFFFFFFFFFFFFFFFFFFFFFFFFFFFFFFFFFFFFFFFFFFFFFFFFFFFFFFFFFFFFFF
310
F000FFFFFFFFFFFFFFFFFFFFFFFFFFFFFFFFFFFFFFFFFFFFFFFFFFFFFFFFFFFF
310
FFFFFFFFFFFFFFFFFFFFFFFFFFFFFFFFFFFFFFFFFFFFFFFFFFFFFFFFFFFFFFFF
310
FFFFFFFFFFFFFFFFFFFFFFFFFFFFFFFFFFFFFFFFFFFFFFFFF000FFFFFFFFFFFF
310
FFFFFFFFFFFFFFFFFFFFFFFFFFFFFFFFFFFFFFFFFFFFFFFFFFFFFFFFFFFFFFFF
310
FFFFFFFFFFFFFFFFFFFFFFFFFFFFFFFFFFFFFFFFFFFFFFFFFFFFFFFFFFFFFFFF
310
FFFFFFFFFFFFFFFFFFFFFFFFFFFFFFFFF000FFFFFFFFFFFFFFFFFFFFFFFFFFFF
310
FFFFFFFFFFFFFFFFFFFFFFFFFFFFFFFFFFFFFFFFFFFFFFFFFFFFFFFFFFFFFFFF
310
FFFFFFFFFFFFFFFFFFFFFFFFFFFFFFFFFFFFFFFFFFFFFFFFFFFFFFFFFFFFFFFF
310
FFFFFFFFFFFFFFFFF000FFFFFFFFFFFFFFFFFFFFFFFFFFFFFFFFFFFFFFFFFFFF
310
FFFFFFFFFFFFFFFFFFFFFFFFFFFFFFFFFFFFFFFFFFFFFFFFFFFFFFFFFFFFFFFF
310
FFFFFFFFFFFFFFFFFFFFFFFFFFFFFFFFFFFFFFFFFFFFFFFFFFFFFFFFFFFFFFFF
310
F000FFFFFFFFFFFFFFFFFFFFFFFFFFFFFFFFFFFFFFFFFFFFFFFFFFFFFFFFFFFF
310
FFFFFFFFFFFFFFFFFFFFFFFFFFFFFFFFFFFFFFFFFFFFFFFFFFFFFFFFFFFFFFFF
310
FFFFFFFFFFFFFFFFFFFFFFFFFFFFFFFFFFFFFFFFFFFFFFFFF000FFFFFFFFFFFF
310
FFFFFFFFFFFFFFFFFFFFFFFFFFFFFFFFFFFFFFFFFFFFFFFFFFFFFFFFFFFFFFFF
310
FFFFFFFFFFFFFFFFFFFFFFFFFFFFFFFFFFFFFFFFFFFFFFFFFFFFFFFFFFFFFFFF
310
FFFFFFFFFFFFFFFFFFFFFFFFFFFFFFFFF000FFFFFFFFFFFFFFFFFFFFFFFFFFFF
310
FFFFFFFFFFFFFFFFFFFFFFFFFFFFFFFFFFFFFFFFFFFFFFFFFFFFFFFFFFFFFFFF
310
FFFFFFFFFFFFFFFFFFFFFFFFFFFFFFFFFFFFFFFFFFFFFFFFFFFFFFFFFFFFFFFF
310
FFFFFFFFFFFFFFFFF000FFFFF80003FFFFFFFFFFFFFFFFFFFFFFFFFFFFFFFFFF
310
FFFFF00007FFFFFFFFFF00007FFFFFF800000000000000007FFFFFFFFFFFFFFF
310
FFFFFFFC001FFFFFFFFFFFFFFC001FFFFFFFFFFFFFFFFFFFFFFFFFFE0007FFFF
310
F000FFFF8000007FFFFFFFF8000FFFFFC0007FFFFF80007FFFFF0000007FFFFF
310
FFF8000007FFFFF800000000000000007FFFFFF0001FFFFFFFFFFFC00001FFFF
310
FFFFFFFFC00001FFFFFFFF000000000003FFFFE000007FFFF000FFFE0000000F
310
FFFFFFF0000FFFFF80007FFFFF80007FFFFC0000001FFFFFFFC0000001FFFFF8
310
00000000000000007FFFFFF0001FFFFFFFFFFE0000003FFFFFFFFFFE0000003F
310
FFFFFF000000000003FFFF0000000FFFF000FFF800000003FFFFFFF00007FFFF
310
80007FFFFF80007FFFF000000007FFFFFF000000003FFFF80000000000000000
310
7FFFFFF0001FFFFFFFFFF80000000FFFFFFFFFF80000000FFFFFFF0000000000
310
03FFFC00000003FFF000FFE000000000FFFFFFF00007FFFF80003FFFFF80007F
310
FFC000000001FFFFFC000000001FFFF800000000000000007FFFFFF0001FFFFF
310
FFFFE000000003FFFFFFFFE000000003FFFFFF000000000003FFF000000000FF
310
F000FF80000000007FFFFFF00007FFFF80003FFFFF80007FFF8000000000FFFF
310
F80000000007FFF800000000000000007FFFFFF0001FFFFFFFFFC000000001FF
310
FFFFFFC000000001FFFFFF000000000003FFC0000000007FF000FF0000000000
310
3FFFFFE00007FFFF00003FFFFF80007FFE00000000003FFFF00000000003FFF8
310
00000000000000007FFFFFF0001FFFFFFFFF8000000000FFFFFFFF8000000000
310
FFFFFF000000000003FF80000000003FF000FE00000000001FFFFFE00003FFFF
310
00003FFFFF80007FFC00000000001FFFE00000000001FFF8000001FFFE000000
310
7FFFFFF0001FFFFFFFFE00000000003FFFFFFE00000000003FFFFF0000000000
310
03FF00000000001FF000FC00000000000FFFFFE00003FFFF00001FFFFF80007F
310
F800000000001FFFC00000000000FFF8000001FFFE0000007FFFFFF0001FFFFF
310
FFFC00000000001FFFFFFC00000000001FFFFF000000000003FE00000000000F
310
F000F8000000000007FFFFE00003FFFF00001FFFFF80007FF800000000000FFF
310
800000000000FFF8000001FFFE0000007FFFFFF0001FFFFFFFF800000000000F
310
FFFFF800000000000FFFFF000000000003FC000000000007F000F80000000000
310
03FFFFC00003FFFE00001FFFFF80007FF0000000000007FF0000000000007FF8
310
000001FFFE0000007FFFFFF0001FFFFFFFF0000000000007FFFFF00000000000
310
07FFFF000000000003F8000000000003F000F0000000000003FFFFC00001FFFE
310
00001FFFFF80007FE0000000000007FE0000000000003FF8000001FFFE000000
310
7FFFFFF0001FFFFFFFF0000000000007FFFFF0000000000007FFFF0000000000
310
03F800001F800003F000E00001FFF00001FFFFC00001FFFE00000FFFFF80007F
310
E00001FFE00003FE00001FFF00003FF8000001FFFE0000007FFFFFF0001FFFFF
310
FFE000003E000003FFFFE000003E000003FFFF000000000003F00001FFF80001
310
F000E00007FFFC0001FFFFC00001FFFE00000FFFFF80007FC0000FFFFC0003FC
310
0000FFFFC0001FF8000001FFFE0000007FFFFFF0001FFFFFFFC00003FFE00001
310
FFFFC00003FFE00001FFFF0001FFFFFFFFF00007FFFE0001F000E0000FFFFF00
310
00FFFF800001FFFC00000FFFFF80007FC0001FFFFE0001FC0001FFFFE0001FF8
310
000001FFFE0000007FFFFFF0001FFFFFFF80000FFFF80000FFFF80000FFFF800
310
00FFFF0003FFFFFFFFE0000FFFFF8000F000C0003FFFFF8000FFFF800000FFFC
310
000007FFFF80007F80003FFFFF0001FC0003FFFFF0001FF8000001FFFE000000
310
7FFFFFF0001FFFFFFF80003FFFFE0000FFFF80003FFFFE0000FFFF0003FFFFFF
310
FFE0003FFFFF8000F000C0003FFFFF8000FFFF800000FFFC000007FFFF80007F
310
80007FFFFF8001F80007FFFFF8000FF8000001FFFE0000007FFFFFF0001FFFFF
310
FF00007FFFFF00007FFF00007FFFFF00007FFF0003FFFFFFFFE0003FFFFFC000
310
F000C0007FFFFFC000FFFF000000FFFC000007FFFF80007F8000FFFFFF8000F8
310
000FFFFFF8000FF8000001FFFE0000007FFFFFF0001FFFFFFF0000FFFFFF8000
310
7FFF0000FFFFFF80007FFF0003FFFFFFFFC0007FFFFFC00070008000FFFFFFC0
310
00FFFF000000FFF8000007FFFF80007F8000FFFFFF8000F8000FFFFFF8000FF8
310
000001FFFE0000007FFFFFF0001FFFFFFE0001FFFFFFC0003FFE0001FFFFFFC0
310
003FFF0003FFFFFFFFC0007FFFFFE00070008000FFFFFFC0007FFF0000007FF8
310
000003FFFF80007F0001FFFFFF8000F8000FFFFFF8000FF8000001FFFE000000
310
7FFFFFF0001FFFFFFE0001FFFFFFC0003FFE0001FFFFFFC0003FFF0003FFFFFF
310
FFC000FFFFFFE00070008000FFFFFFC0007FFF0000007FF8000003FFFF80007F
310
0001FFFFFF8000F8001FFFFFF8000FF8000001FFFE0000007FFFFFF0001FFFFF
310
FE0003FFFFFFE0003FFE0003FFFFFFE0003FFF0003FFFFFFFFC000FFFFFFE000
310
70008000FFFFFFC0007FFE0000007FF8000003FFFF80007F0001FFFFFF8000F0
310
001FFFFFF8000FF8000001FFFE0000007FFFFFF0001FFFFFFC0003FFFFFFE000
310
1FFC0003FFFFFFE0001FFF0003FFFFFFFFC000FFFFFFC00070008000FFFFFF80
310
007FFE0000007FF0000003FFFF80007F0001FFFFFF0000F0001FFFFFF8000FF8
310
000001FFFE0000007FFFFFF0001FFFFFFC0007FFFFFFF0001FFC0007FFFFFFF0
310
001FFF0003FFFFFFFFC000FFFFFFC00070008001FFFFFF0000FFFE0000003FF0
310
000001FFFF80007F0001FFFFFF0000F8001FFFFFF0000FF8000001FFFE000000
310
7FFFFFF0001FFFFFFC0007FFFFFFF0001FFC0007FFFFFFF0001FFF0003FFFFFF
310
FFC001FFFFFF80007000FFFFFFFFFE0000FFFE0008003FF0008001FFFF80007F
310
FFFFFFFFFC0000FFFFFFFFFFE0000FF8000001FFFE0000007FFFFFF0001FFFFF
310
F8000FFFFFFFF8000FF8000FFFFFFFF8000FFF0003FFFFFFFFFFFFFFFFFF0000
310
7000FFFFFFFFFC0000FFFC0008003FF0008001FFFF80007FFFFFFFFFF80001FF
310
FFFFFFFF80000FF8000001FFFE0000007FFFFFF0001FFFFFF8000FFFFFFFF800
310
0FF8000FFFFFFFF8000FFF0003FFFFFFFFFFFFFFFFFE0000F000FFFFFFFFE000
310
00FFFC000C003FE000C001FFFF80007FFFFFFFFFC00001FFFFFFFFFE00001FF8
310
000001FFFE0000007FFFFFF0001FFFFFF8000FFFFFFFF8000FF8000FFFFFFFF8
310
000FFF0003FFFFFFFFFFFFFFFFF00000F000FFFFFFFE000001FFFC000C001FE0
310
00C000FFFF80007FFFFFFFFE000001FFFFFFFFE000001FF80FFFFFFFFFFFFFC0
310
7FFFFFF0001FFFFFF8000FFFFFFFF8000FF8000FFFFFFFF8000FFF0003FFFFFF
310
FFFFFFFFFF800000F000FFFFFFC0000001FFFC001C001FE001C000FFFF80007F
310
FFFFFF80000003FFFFFFF80000001FF80FFFFFFFFFFFFFC07FFFFFF0001FFFFF
310
F8001FFFFFFFFC000FF8001FFFFFFFFC000FFF0003FFFFFFFFFFFFFFF0000001
310
F000FFFFF800000001FFF8001C001FE001C000FFFF80007FFFFFF800000003FF
310
FFFF800000003FF80FFFFFFFFFFFFFC07FFFFFF0001FFFFFF8001FFFFFFFFC00
310
0FF8001FFFFFFFFC000FFF0003FFFFFFFFFFFFFE00000001F000FFFFC0000000
310
03FFF8001E001FC001E000FFFF80007FFFFF8000000007FFFFFC000000003FF8
310
0FFFFFFFFFFFFFC07FFFFFF0001FFFFFF8001FFFFFFFFC000FF8001FFFFFFFFC
310
000FFF0003FFFFFFFFFFFFE000000003F000FFFE0000000007FFF8001E000FC0
310
01E0007FFF80007FFFFE0000000007FFFFE0000000007FF80FFFFFFFFFFFFFC0
310
7FFFFFF0001FFFFFF0001FFFFFFFFC0007F0001FFFFFFFFC0007FF0003FFFFFF
310
FFFFFF0000000003F000FFF80000000007FFF8001E000FC003E0007FFF80007F
310
FFF0000000000FFFFF8000000000FFF80FFFFFFFFFFFFFC07FFFFFF0001FFFFF
310
F0001FFFFFFFFC0007F0001FFFFFFFFC0007FF0003FFFFFFFFFFFC0000000007
310
F000FFE0000000000FFFF0003E000FC003E0007FFF80007FFFC0000000001FFF
310
FE0000000001FFF80FFFFFFFFFFFFFC07FFFFFF0001FFFFFF0001FFFFFFFFC00
310
07F0001FFFFFFFFC0007FF0003FFFFFFFFFFF0000000000FF000FFC000000000
310
1FFFF0003F000F8003F0003FFF80007FFF80000000003FFFF80000000003FFF8
310
0FFFFFFFFFFFFFC07FFFFFF0001FFFFFF0001FFFFFFFFC0007F0001FFFFFFFFC
310
0007FF0003FFFFFFFFFFE0000000001FF000FF00000000007FFFF0003F000780
310
03F0003FFF80007FFF00000000007FFFF00000000007FFF80FFFFFFFFFFFFFC0
310
7FFFFFF0001FFFFFF0001FFFFFFFFC0007F0001FFFFFFFFC0007FF0003FFFFFF
310
FFFF80000000007FF000FE0000000000FFFFE0003F00078007F0003FFF80007F
310
FE0000000001FFFFE0000000001FFFF80FFFFFFFFFFFFFC07FFFFFF0001FFFFF
310
F0001FFFFFFFFC0007F0001FFFFFFFFC0007FF0003FFFFFFFFFF0000000000FF
310
F000FC0000000003FFFFE0007F00078007F0003FFF80007FFC0000000007FFFF
310
C0000000007FFFF80FFFFFFFFFFFFFC07FFFFFF0001FFFFFF8001FFFFFFFFC00
310
0FF8001FFFFFFFFC000FFF0003FFFFFFFFFE0000000003FFF000FC000000000F
310
FFFFE0007F80070007F8001FFF80007FF8000000001FFFFF8000000001FFFFF8
310
0FFFFFFFFFFFFFC07FFFFFF0001FFFFFF8001FFFFFFFFC000FF8001FFFFFFFFC
310
000FFF0003FFFFFFFFFC000000000FFFF000F8000000007FFFFFE0007F800700
310
07F8001FFF80007FF000000000FFFFFF800000000FFFFFF80FFFFFFFFFFFFFC0
310
7FFFFFF0001FFFFFF8000FFFFFFFF8000FF8000FFFFFFFF8000FFF0003FFFFFF
310
FFFC000000007FFFF000F800000007FFFFFFC0007F8003000FF8001FFF80007F
310
F000000007FFFFFF000000007FFFFFF80FFFFFFFFFFFFFC07FFFFFF0001FFFFF
310
F8000FFFFFFFF8000FF8000FFFFFFFF8000FFF0003FFFFFFFFF80000000FFFFF
310
F000F0000000FFFFFFFFC000FF8003000FF8001FFF80007FE0000000FFFFFFFF
310
0000000FFFFFFFF8000001FFFE0000007FFFFFF0001FFFFFF8000FFFFFFFF800
310
0FF8000FFFFFFFF8000FFF0003FFFFFFFFF8000000FFFFFFF000F000000FFFFF
310
FFFFC000FFC002000FF8000FFF80007FE000001FFFFFFFFE000001FFFFFFFFF8
310
000001FFFE0000007FFFFFF0001FFFFFF8000FFFFFFFF8000FF8000FFFFFFFF8
310
000FFF0003FFFFFFFFF000001FFFFFFFF000E00000FFFFFFFFFFC000FFC00200
310
0FFC000FFF80007FE00001FFFFFFFFFE00001FFFFFFFFFF8000001FFFE000000
310
7FFFFFF0001FFFFFFC000FFFFFFFF8001FFC000FFFFFFFF8001FFF0003FFFFFF
310
FFF00001FFFFFFFFF000E00007FFFFFFFFFF8000FFC000001FFC000FFF80007F
310
C0000FFFFFFFFFFE0000FFFFFFFFFFF8000001FFFE0000007FFFFFF0001FFFFF
310
FC0007FFFFFFF0001FFC0007FFFFFFF0001FFF0003FFFFFFFFF00007FFFFFFFF
310
F000E0001FFFFFFFFFFF8000FFC000001FFC000FFF80007FC0003FFFFFFFFFFE
310
0001FFFFFFFFFFF8000001FFFE0000007FFFFFF0001FFFFFFC0007FFFFFFF000
310
1FFC0007FFFFFFF0001FFF0003FFFFFFFFF0001FFFFFFFFFF000E0003FFFFF00
310
03FF8001FFE000001FFC0007FF80007FC0007FFFFF0007FC0003FFFFF0003FF8
310
000001FFFE0000007FFFFFF0001FFFFFFC0003FFFFFFE0001FFC0003FFFFFFE0
310
001FFF0003FFFFFFFFF0003FFFFFFFFFF000E0003FFFFF0001FF8001FFE00000
310
1FFE0007FF80007FC0007FFFFE0003FC0007FFFFE0003FF8000001FFFE000000
310
7FFFFFF0001FFFFFFE0003FFFFFFE0003FFE0003FFFFFFE0003FFF0003FFFFFF
310
FFF0003FFFFF8001F000E0003FFFFF0001FF0001FFE000001FFE0007FF80007F
310
C0007FFFFE0003FC0007FFFFE0003FF8000001FFFE0000007FFFFFF0001FFFFF
310
FE0001FFFFFFC0003FFE0001FFFFFFC0003FFF0003FFFFFFFFF0003FFFFF0001
310
F000E0003FFFFF0003FF0001FFE000003FFE0007FF80007FC0007FFFFE0003FC
310
0007FFFFE0003FF8000001FFFE0000007FFFFFF0001FFFFFFF0001FFFFFFC000
310
7FFF0001FFFFFFC0007FFF0003FFFFFFFFF0003FFFFF0001F000E0003FFFFE00
310
03FF0003FFF000003FFE0003FF80007FC0007FFFFC0003FE0007FFFFE0003FF8
310
000001FFFE0000007FFFFFF0001FFFFFFF0000FFFFFF80007FFF0000FFFFFF80
310
007FFF0003FFFFFFFFF0003FFFFF0001F000E0003FFFFE0003FF0003FFF00000
310
3FFF0003FF80007FC0007FFFFC0007FE0007FFFFC0003FF8000001FFFE000000
310
7FFFFFF0001FFFFFFF80007FFFFF0000FFFF80007FFFFF0000FFFF0003FFFFFF
310
FFF0003FFFFF0003F000E0003FFFFC0003FE0003FFF000003FFF0003FF80007F
310
E0003FFFF80007FE0003FFFFC0007FF8000001FFFE0000007FFFFFF0001FFFFF
310
FF80003FFFFE0000FFFF80003FFFFE0000FFFF0003FFFFFFFFF0001FFFFE0003
310
F000F0001FFFF80003FE0003FFF000007FFF0001FF80007FE0003FFFF00007FE
310
0001FFFF80007FF8000001FFFE0000007FFFFFF0001FFFFFFFC0000FFFF80001
310
FFFFC0000FFFF80001FFFF0003FFFFFFFFF0001FFFFC0003F000F0000FFFF000
310
07FE0007FFF800007FFF0001FF80007FE0001FFFE00007FF0000FFFE00007FF8
310
000001FFFE0000007FFFFFF0001FFFFFFFC00003FFE00001FFFFC00003FFE000
310
01FFFF0003FFFFFFFFF8000FFFF80003F000F00003FFC00007FC0007FFF80000
310
7FFF8001FF80007FF00007FF80000FFF00007FF80000FFF8000001FFFE000000
310
7F80000000000001FFE000003E000003FFFFE000003E000003FFFF0003FFFFFF
310
FFF80003FFE00007F000F800000000000FFC0007FFF800007FFF8001FF80007F
310
F000000000000FFF000000000000FFF8000001FFFE0000007F80000000000001
310
FFF0000000000007FFFFF0000000000007FFFF0003FFFFFFFFFC00007E000007
310
F000F800000000000FFC0007FFF80000FFFF8000FF80007FF800000000001FFF
310
800000000001FFF8000001FFFE0000007F80000000000001FFF800000000000F
310
FFFFF800000000000FFFFF0003FFFFFFFFFC00000000000FF000FC0000000000
310
1FFC0007FFFC0000FFFF8000FF80007FF800000000003FFFC00000000001FFF8
310
000001FFFE0000007F80000000000001FFF800000000000FFFFFF80000000000
310
0FFFFF0003FFFFFFFFFE00000000001FF000FE00000000003FF8000FFFFC0000
310
FFFF8000FF80007FFC00000000003FFFC00000000003FFF8000001FFFE000000
310
7F80000000000001FFFC00000000001FFFFFFC00000000001FFFFF0003FFFFFF
310
FFFF00000000001FF000FF00000000003FF8000FFFFC0000FFFFC000FF80007F
310
FE00000000007FFFE00000000007FFF8000001FFFE0000007F80000000000001
310
FFFE00000000003FFFFFFE00000000003FFFFF0003FFFFFFFFFF80000000003F
310
F000FF80000000007FF8000FFFFC0001FFFFC0007F80007FFF0000000000FFFF
310
F0000000000FFFF800000000000000007F80000000000001FFFF8000000000FF
310
FFFFFF8000000000FFFFFF0003FFFFFFFFFFC0000000007FF000FFC000000000
310
FFF8000FFFFE0001FFFFC0007F80007FFF8000000001FFFFF8000000001FFFF8
310
00000000000000007F80000000000001FFFFC000000001FFFFFFFFC000000001
310
FFFFFF0003FFFFFFFFFFE000000000FFF000FFE000000003FFF0001FFFFE0001
310
FFFFC0007F80007FFFC000000007FFFFFE000000003FFFF80000000000000000
310
7F80000000000001FFFFE000000003FFFFFFFFE000000003FFFFFF0003FFFFFF
310
FFFFF000000003FFF000FFF80000000FFFF0001FFFFE0001FFFFE0007F80007F
310
FFF00000000FFFFFFF00000000FFFFF800000000000000007F80000000000001
310
FFFFF80000000FFFFFFFFFF80000000FFFFFFF0003FFFFFFFFFFFC0000000FFF
310
F000FFFE0000003FFFF0001FFFFE0003FFFFE0003F80007FFFFC0000003FFFFF
310
FFC0000003FFFFF800000000000000007F80000000000001FFFFFE0000003FFF
310
FFFFFFFE0000003FFFFFFF0003FFFFFFFFFFFF0000003FFFF000FFFF800000FF
310
FFF0001FFFFF0003FFFFE0003F80007FFFFF000001FFFFFFFFF800001FFFFFF8
310
00000000000000007F80000000000001FFFFFFC00001FFFFFFFFFFFFC00001FF
310
FFFFFF0003FFFFFFFFFFFFC00000FFFFF000FFFFF8000FFFFFFFFFFFFFFFFFFF
310
FFFFFFFFFFFFFFFFFFFFF0001FFFFFFFFFFF0000FFFFFFF80000000000000000
310
7FFFFFFFFFFFFFFFFFFFFFFC001FFFFFFFFFFFFFFC001FFFFFFFFFFFFFFFFFFF
310
FFFFFFFC001FFFFFF000FFFFFFFFFFFFFFFFFFFFFFFFFFFFFFFFFFFFFFFFFFFF
310
FFFFFFFFFFFFFFFFFFFFFFFFFFFFFFFFFFFFFFFFFFFFFFFFFFFFFFFFFFFFFFFF
310
FFFFFFFFFFFFFFFFFFFFFFFFFFFFFFFFFFFFFFFFFFFFFFFFFFFFFFFFFFFFFFFF
310
F000FFFFFFFFFFFFFFFFFFFFFFFFFFFFFFFFFFFFFFFFFFFFFFFFFFFFFFFFFFFF
310
FFFFFFFFFFFFFFFFFFFFFFFFFFFFFFFFFFFFFFFFFFFFFFFFFFFFFFFFFFFFFFFF
310
FFFFFFFFFFFFFFFFFFFFFFFFFFFFFFFFFFFFFFFFFFFFFFFFF000FFFFFFFFFFFF
310
FFFFFFFFFFFFFFFFFFFFFFFFFFFFFFFFFFFFFFFFFFFFFFFFFFFFFFFFFFFFFFFF
310
FFFFFFFFFFFFFFFFFFFFFFFFFFFFFFFFFFFFFFFFFFFFFFFFFFFFFFFFFFFFFFFF
310
FFFFFFFFFFFFFFFFFFFFFFFFFFFFFFFFF000FFFFFFFFFFFFFFFFFFFFFFFFFFFF
310
FFFFFFFFFFFFFFFFFFFFFFFFFFFFFFFFFFFFFFFFFFFFFFFFFFFFFFFFFFFFFFFF
310
FFFFFFFFFFFFFFFFFFFFFFFFFFFFFFFFFFFFFFFFFFFFFFFFFFFFFFFFFFFFFFFF
310
FFFFFFFFFFFFFFFFF000FFFFFFFFFFFFFFFFFFFFFFFFFFFFFFFFFFFFFFFFFFFF
310
FFFFFFFFFFFFFFFFFFFFFFFFFFFFFFFFFFFFFFFFFFFFFFFFFFFFFFFFFFFFFFFF
310
FFFFFFFFFFFFFFFFFFFFFFFFFFFFFFFFFFFFFFFFFFFFFFFFFFFFFFFFFFFFFFFF
310
F000FFFFFFFFFFFFFFFFFFFFFFFFFFFFFFFFFFFFFFFFFFFFFFFFFFFFFFFFFFFF
310
FFFFFFFFFFFFFFFFFFFFFFFFFFFFFFFFFFFFFFFFFFFFFFFFFFFFFFFFFFFFFFFF
310
FFFFFFFFFFFFFFFFFFFFFFFFFFFFFFFFFFFFFFFFFFFFFFFFF000FFFFFFFFFFFF
310
FFFFFFFFFFFFFFFFFFFFFFFFFFFFFFFFFFFFFFFFFFFFFFFFFFFFFFFFFFFFFFFF
310
FFFFFFFFFFFFFFFFFFFFFFFFFFFFFFFFFFFFFFFFFFFFFFFFFFFFFFFFFFFFFFFF
310
FFFFFFFFFFFFFFFFFFFFFFFFFFFFFFFFF000FFFFFFFFFFFFFFFFFFFFFFFFFFFF
310
FFFFFFFFFFFFFFFFFFFFFFFFFFFFFFFFFFFFFFFFFFFFFFFFFFFFFFFFFFFFFFFF
310
FFFFFFFFFFFFFFFFFFFFFFFFFFFFFFFFFFFFFFFFFFFFFFFFFFFFFFFFFFFFFFFF
310
FFFFFFFFFFFFFFFFF000FFFFFFFFFFFFFFFFFFFFFFFFFFFFFFFFFFFFFFFFFFFF
310
FFFFFFFFFFFFFFFFFFFFFFFFFFFFFFFFFFFFFFFFFFFFFFFFFFFFFFFFFFFFFFFF
310
FFFFFFFFFFFFFFFFFFFFFFFFFFFFFFFFFFFFFFFFFFFFFFFFFFFFFFFFFFFFFFFF
310
F000FFFFFFFFFFFFFFFFFFFFFFFFFFFFFFFFFFFFFFFFFFFFFFFFFFFFFFFFFFFF
310
FFFFFFFFFFFFFFFFFFFFFFFFFFFFFFFFFFFFFFFFFFFFFFFFFFFFFFFFFFFFFFFF
310
FFFFFFFFFFFFFFFFFFFFFFFFFFFFFFFFFFFFFFFFFFFFFFFFF000FFFFFFFFFFFF
310
FFFFFFFFFFFFFFFFFFFFFFFFFFFFFFFFFFFFFFFFFFFFFFFFFFFFFFFFFFFFFFFF
310
FFFFFFFFFFFFFFFFFFFFFFFFFFFFFFFFFFFFFFFFFFFFFFFFFFFFFFFFFFFFFFFF
310
FFFFFFFFFFFFFFFFFFFFFFFFFFFFFFFFF000FFFFFFFFFFFFFFFFFFFFFFFFFFFF
310
FFFFFFFFFFFFFFFFFFFFFFFFFFFFFFFFFFFFFFFFFFFFFFFFFFFFFFFFFFFFFFFF
310
FFFFFFFFFFFFFFFFFFFFFFFFFFFFFFFFFFFFFFFFFFFFFFFFFFFFFFFFFFFFFFFF
310
FFFFFFFFFFFFFFFFF000FFFFFFFFFFFFFFFFFFFFFFFFFFFFFFFFFFFFFFFFFFFF
310
FFFFFFFFFFFFFFFFFFFFFFFFFFFFFFFFFFFFFFFFFFFFFFFFFFFFFFFFFFFFFFFF
310
FFFFFFFFFFFFFFFFFFFFFFFFFFFFFFFFFFFFFFFFFFFFFFFFFFFFFFFFFFFFFFFF
310
F000FFFFFFFFFFFFFFFFFFFFFFFFFFFFFFFFFFFFFFFFFFFFFFFFFFFFFFFFFFFF
310
FFFFFFFFFFFFFFFFFFFFFFFFFFFFFFFFFFFFFFFFFFFFFFFFFFFFFFFFFFFFFFFF
310
FFFFFFFFFFFFFFFFFFFFFFFFFFFFFFFFFFFFFFFFFFFFFFFFF000FFFFFFFFFFFF
310
FFFFFFFFFFFFFFFFFFFFFFFFFFFFFFFFFFFFFFFFFFFFFFFFFFFFFFFFFFFFFFFF
310
FFFFFFFFFFFFFFFFFFFFFFFFFFFFFFFFFFFFFFFFFFFFFFFFFFFFFFFFFFFFFFFF
310
FFFFFFFFFFFFFFFFFFFFFFFFFFFFFFFFF000FFFFFFFFFFFFFFFFFFFFFFFFFFFF
310
FFFFFFFFFFFFFFFFFFFFFFFFFFFFFFFFFFFFFFFFFFFFFFFFFFFFFFFFFFFFFFFF
310
FFFFFFFFFFFFFFFFFFFFFFFFFFFFFFFFFFFFFFFFFFFFFFFFFFFFFFFFFFFFFFFF
310
FFFFFFFFFFFFFFFFF000FFFFFFFFFFFFFFFFFFFFFFFFFFFFFFFFFFFFFFFFFFFF
310
FFFFFFFFFFFFFFFFFFFFFFFFFFFFFFFFFFFFFFFFFFFFFFFFFFFFFFFFFFFFFFFF
310
FFFFFFFFFFFFFFFFFFFFFFFFFFFFFFFFFFFFFFFFFFFFFFFFFFFFFFFFFFFFFFFF
310
F000FFFFFFFFFFFFFFFFFFFFFFFFFFFFFFFFFFFFFFFFFFFFFFFFFFFFFFFFFFFF
310
FFFFFFFFFFFFFFFFFFFFFFFFFFFFFFFFFFFFFFFFFFFFFFFFFFFFFFFFFFFFFFFF
310
FFFFFFFFFFFFFFFFFFFFFFFFFFFFFFFFFFFFFFFFFFFFFFFFF000FFFFFFFFFFFF
310
FFFFFFFFFFFFFFFFFFFFFFFFFFFFFFFFFFFFFFFFFFFFFFFFFFFFFFFFFFFFFFFF
310
FFFFFFFFFFFFFFFFFFFFFFFFFFFFFFFFFFFFFFFFFFFFFFFFFFFFFFFFFFFFFFFF
310
FFFFFFFFFFFFFFFFFFFFFFFFFFFFFFFFF000FFFFFFFFFFFFFFFFFFFFFFFFFFFF
310
FFFFFFFFFFFFFFFFFFFFFFFFFFFFFFFFFFFFFFFFFFFFFFFFFFFFFFFFFFFFFFFF
310
FFFFFFFFFFFFFFFFFFFFFFFFFFFFFFFFFFFFFFFFFFFFFFFFFFFFFFFFFFFFFFFF
310
FFFFFFFFFFFFFFFFF000FFFFFFFFFFFFFFFFFFFFFFFFFFFFFFFFFFFFFFFFFFFF
310
FFFFFFFFFFFFFFFFFFFFFFFFFFFFFFFFFFFFFFFFFFFFFFFFFFFFFFFFFFFFFFFF
310
FFFFFFFFFFFFFFFFFFFFFFFFFFFFFFFFFFFFFFFFFFFFFFFFFFFFFFFFFFFFFFFF
310
F000FFFFFFFFFFFFFFFFFFFFFFFFFFFFFFFFFFFFFFFFFFFFFFFFFFFFFFFFFFFF
310
FFFFFFFFFFFFFFFFFFFFFFFFFFFFFFFFFFFFFFFFFFFFFFFFFFFFFFFFFFFFFFFF
310
FFFFFFFFFFFFFFFFFFFFFFFFFFFFFFFFFFFFFFFFFFFFFFFFF000FFFFFFFFFFFF
310
FFFFFFFFFFFFFFFFFFFFFFFFFFFFFFFFFFFFFFFFFFFFFFFFFFFFFFFFFFFFFFFF
310
FFFFFFFFFFFFFFFFFFFFFFFFFFFFFFFFFFFFFFFFFFFFFFFFFFFFFFFFFFFFFFFF
310
FFFFFFFFFFFFFFFFFFFFFFFFFFFFFFFFF0000000000000000000000000000000
310
00000000000000000000000042006F006C00640020004900740061006C006900
310
6300200053007500620068006500610064000000000000000000000000000000
310
0000000000000000000000000000000000000000000000000000000000000000
310
0000000000000000000000000000000000000000000000000000000000000000
310
00000000000000000000000064760008000000000000000020FF002028000000
310
1C0000000C0000000800000000000000120000002F000000BC02000000000000
310
6000000060000000200006FB00002000FF00001B0000000021002200E8030000
310
D604000034020000870200600100000000000000000000009F01002000000000
310
616C000800000000E40100007001000002000000270000001000000000000000
310
000000002C0100000000000003020112410072006E006F002000500072006F00
310
20004C006900670068007400200044006900730070006C006100790000000000
310
00000000000000000000000000000000410072006E006F00500072006F002D00
310
4C00690067006800740044006900730070006C00610079000000000000000000
310
0000000000000000000000000000000000000000000000000000000000000000
310
0000000000000000000000000000000000000000000000000000000000000000
  1
OLE
  0
ENDSEC
  0
SECTION
  2
OBJECTS
  0
DICTIONARY
  5
C
330
0
100
AcDbDictionary
281
     1
  3
ACAD_GROUP
350
D
  3
ACAD_LAYOUT
350
1A
  3
ACAD_MLEADERSTYLE
350
2B5
  3
ACAD_MLINESTYLE
350
17
  3
ACAD_PLOTSETTINGS
350
19
  3
ACAD_PLOTSTYLENAME
350
E
  3
ACAD_TABLESTYLE
350
2B4
  3
ACAD_VISUALSTYLE
350
2A
  3
AcDbVariableDictionary
350
2B6
  0
DICTIONARY
  5
D
102
{ACAD_REACTORS
330
C
102
}
330
C
100
AcDbDictionary
281
     1
  0
DICTIONARY
  5
1A
102
{ACAD_REACTORS
330
C
102
}
330
C
100
AcDbDictionary
281
     1
  3
Layout1
350
1E
  3
Layout2
350
26
  3
Model
350
22
  0
DICTIONARY
  5
2B5
102
{ACAD_REACTORS
330
C
102
}
330
C
100
AcDbDictionary
281
     1
  0
DICTIONARY
  5
17
102
{ACAD_REACTORS
330
C
102
}
330
C
100
AcDbDictionary
281
     1
  3
Standard
350
18
  0
DICTIONARY
  5
19
102
{ACAD_REACTORS
330
C
102
}
330
C
100
AcDbDictionary
281
     1
  0
ACDBDICTIONARYWDFLT
  5
E
102
{ACAD_REACTORS
330
C
102
}
330
C
100
AcDbDictionary
281
     1
  3
Normal
350
F
100
AcDbDictionaryWithDefault
340
F
  0
DICTIONARY
  5
2B4
102
{ACAD_REACTORS
330
C
102
}
330
C
100
AcDbDictionary
281
     1
  0
DICTIONARY
  5
2A
102
{ACAD_REACTORS
330
C
102
}
330
C
100
AcDbDictionary
281
     1
  3
2dWireframe
350
2F
  3
3D Hidden
350
31
  3
3dWireframe
350
30
  3
Basic
350
32
  3
Brighten
350
36
  3
ColorChange
350
3A
  3
Conceptual
350
34
  3
Dim
350
35
  3
Facepattern
350
39
  3
Flat
350
2B
  3
FlatWithEdges
350
2C
  3
Gouraud
350
2D
  3
GouraudWithEdges
350
2E
  3
Linepattern
350
38
  3
Realistic
350
33
  3
Thicken
350
37
  0
DICTIONARY
  5
2B6
102
{ACAD_REACTORS
330
C
102
}
330
C
100
AcDbDictionary
281
     1
  3
PSOLHEIGHT
350
2B8
  3
PSOLWIDTH
350
2B7
  0
LAYOUT
  5
1E
102
{ACAD_REACTORS
330
1A
102
}
330
1A
100
AcDbPlotSettings
  1

  2
none_device
  4

  6

 40
0.0
 41
0.0
 42
0.0
 43
0.0
 44
0.0
 45
0.0
 46
0.0
 47
0.0
 48
0.0
 49
0.0
140
0.0
141
0.0
142
1.0
143
1.0
 70
   688
 72
     0
 73
     0
 74
     5
  7

 75
    16
147
1.0
148
0.0
149
0.0
100
AcDbLayout
  1
Layout1
 70
     1
 71
     1
 10
0.0
 20
0.0
 11
420.0
 21
297.0
 12
0.0
 22
0.0
 32
0.0
 14
1.0000000000E+20
 24
1.0000000000E+20
 34
1.0000000000E+20
 15
-1.0000000000E+20
 25
-1.0000000000E+20
 35
-1.0000000000E+20
146
0.0
 13
0.0
 23
0.0
 33
0.0
 16
1.0
 26
0.0
 36
0.0
 17
0.0
 27
1.0
 37
0.0
 76
     0
330
1B
  0
LAYOUT
  5
26
102
{ACAD_REACTORS
330
1A
102
}
330
1A
100
AcDbPlotSettings
  1

  2
none_device
  4

  6

 40
0.0
 41
0.0
 42
0.0
 43
0.0
 44
0.0
 45
0.0
 46
0.0
 47
0.0
 48
0.0
 49
0.0
140
0.0
141
0.0
142
1.0
143
1.0
 70
   688
 72
     0
 73
     0
 74
     5
  7

 75
    16
147
1.0
148
0.0
149
0.0
100
AcDbLayout
  1
Layout2
 70
     1
 71
     2
 10
0.0
 20
0.0
 11
0.0
 21
0.0
 12
0.0
 22
0.0
 32
0.0
 14
0.0
 24
0.0
 34
0.0
 15
0.0
 25
0.0
 35
0.0
146
0.0
 13
0.0
 23
0.0
 33
0.0
 16
1.0
 26
0.0
 36
0.0
 17
0.0
 27
1.0
 37
0.0
 76
     0
330
23
  0
LAYOUT
  5
22
102
{ACAD_REACTORS
330
1A
102
}
330
1A
100
AcDbPlotSettings
  1

  2
none_device
  4

  6

 40
0.0
 41
0.0
 42
0.0
 43
0.0
 44
0.0
 45
0.0
 46
0.0
 47
0.0
 48
0.0
 49
0.0
140
0.0
141
0.0
142
1.0
143
1.0
 70
  1712
 72
     0
 73
     0
 74
     0
  7

 75
     0
147
1.0
148
0.0
149
0.0
100
AcDbLayout
  1
Model
 70
     1
 71
     0
 10
0.0
 20
0.0
 11
297.0
 21
210.0
 12
0.0
 22
0.0
 32
0.0
 14
0.0
 24
0.0
 34
0.0
 15
297.0
 25
210.0
 35
0.0
146
0.0
 13
0.0
 23
0.0
 33
0.0
 16
1.0
 26
0.0
 36
0.0
 17
0.0
 27
1.0
 37
0.0
 76
     0
330
1F
331
29
  0
MLINESTYLE
  5
18
102
{ACAD_REACTORS
330
17
102
}
330
17
100
AcDbMlineStyle
  2
Standard
 70
     0
  3

 62
   256
 51
90.0
 52
90.0
 71
     2
 49
0.5
 62
   256
  6
BYLAYER
 49
-0.5
 62
   256
  6
BYLAYER
  0
ACDBPLACEHOLDER
  5
F
102
{ACAD_REACTORS
330
E
102
}
330
E
  0
VISUALSTYLE
  5
2F
102
{ACAD_REACTORS
330
2A
102
}
330
2A
100
AcDbVisualStyle
  2
2dWireframe
 70
     4
 71
     0
 72
     2
 73
     0
 90
        0
 40
-0.6
 41
-30.0
 62
     5
 63
     7
 74
     1
 91
        4
 64
     7
 65
   257
 75
     1
175
     1
 42
1.0
 92
        0
 66
   257
 43
1.0
 76
     1
 77
     6
 78
     2
 67
     7
 79
     5
170
     0
171
     0
290
     0
174
     0
 93
        1
 44
0.0
173
     0
291
     0
 45
0.0
1001
ACAD
1000
AcDbSavedByObjectVersion
1070
     0
  0
VISUALSTYLE
  5
31
102
{ACAD_REACTORS
330
2A
102
}
330
2A
100
AcDbVisualStyle
  2
3D Hidden
 70
     6
 71
     1
 72
     2
 73
     2
 90
        0
 40
-0.6
 41
-30.0
 62
     5
 63
     7
 74
     2
 91
        2
 64
     7
 65
   257
 75
     2
175
     1
 42
40.0
 92
        0
 66
   257
 43
1.0
 76
     1
 77
     6
 78
     2
 67
     7
 79
     3
170
     0
171
     0
290
     0
174
     0
 93
        1
 44
0.0
173
     0
291
     0
 45
0.0
1001
ACAD
1000
AcDbSavedByObjectVersion
1070
     0
  0
VISUALSTYLE
  5
30
102
{ACAD_REACTORS
330
2A
102
}
330
2A
100
AcDbVisualStyle
  2
3dWireframe
 70
     5
 71
     0
 72
     2
 73
     0
 90
        0
 40
-0.6
 41
-30.0
 62
     5
 63
     7
 74
     1
 91
        4
 64
     7
 65
   257
 75
     1
175
     1
 42
1.0
 92
        0
 66
   257
 43
1.0
 76
     1
 77
     6
 78
     2
 67
     7
 79
     5
170
     0
171
     0
290
     0
174
     0
 93
        1
 44
0.0
173
     0
291
     0
 45
0.0
1001
ACAD
1000
AcDbSavedByObjectVersion
1070
     0
  0
VISUALSTYLE
  5
32
102
{ACAD_REACTORS
330
2A
102
}
330
2A
100
AcDbVisualStyle
  2
Basic
 70
     7
 71
     1
 72
     0
 73
     1
 90
        0
 40
-0.6
 41
-30.0
 62
     5
 63
     7
 74
     0
 91
        4
 64
     7
 65
   257
 75
     1
175
     1
 42
1.0
 92
        8
 66
     7
 43
1.0
 76
     1
 77
     6
 78
     2
 67
     7
 79
     5
170
     0
171
     0
290
     0
174
     0
 93
        1
 44
0.0
173
     0
291
     1
 45
0.0
1001
ACAD
1000
AcDbSavedByObjectVersion
1070
     0
  0
VISUALSTYLE
  5
36
102
{ACAD_REACTORS
330
2A
102
}
330
2A
100
AcDbVisualStyle
  2
Brighten
 70
    12
 71
     2
 72
     2
 73
     0
 90
        0
 40
-0.6
 41
-30.0
 62
     5
 63
     7
 74
     1
 91
        4
 64
     7
 65
   257
 75
     1
175
     1
 42
1.0
 92
        8
 66
     7
 43
1.0
 76
     1
 77
     6
 78
     2
 67
     7
 79
     5
170
     0
171
     0
290
     0
174
     0
 93
        1
 44
50.0
173
     0
291
     1
 45
0.0
1001
ACAD
1000
AcDbSavedByObjectVersion
1070
     0
  0
VISUALSTYLE
  5
3A
102
{ACAD_REACTORS
330
2A
102
}
330
2A
100
AcDbVisualStyle
  2
ColorChange
 70
    16
 71
     2
 72
     2
 73
     3
 90
        0
 40
-0.6
 41
-30.0
 62
     5
 63
     8
 74
     1
 91
        4
 64
     7
 65
   257
 75
     1
175
     1
 42
1.0
 92
        8
 66
     8
 43
1.0
 76
     1
 77
     6
 78
     2
 67
     7
 79
     5
170
     0
171
     0
290
     0
174
     0
 93
        1
 44
0.0
173
     0
291
     1
 45
0.0
1001
ACAD
1000
AcDbSavedByObjectVersion
1070
     0
  0
VISUALSTYLE
  5
34
102
{ACAD_REACTORS
330
2A
102
}
330
2A
100
AcDbVisualStyle
  2
Conceptual
 70
     9
 71
     3
 72
     2
 73
     0
 90
        0
 40
-0.6
 41
-30.0
 62
     5
 63
     7
 74
     2
 91
        2
 64
     7
 65
   257
 75
     1
175
     1
 42
40.0
 92
        8
 66
     7
 43
1.0
 76
     1
 77
     6
 78
     2
 67
     7
 79
     3
170
     0
171
     0
290
     0
174
     0
 93
        1
 44
0.0
173
     0
291
     0
 45
0.0
1001
ACAD
1000
AcDbSavedByObjectVersion
1070
     0
  0
VISUALSTYLE
  5
35
102
{ACAD_REACTORS
330
2A
102
}
330
2A
100
AcDbVisualStyle
  2
Dim
 70
    11
 71
     2
 72
     2
 73
     0
 90
        0
 40
-0.6
 41
-30.0
 62
     5
 63
     7
 74
     1
 91
        4
 64
     7
 65
   257
 75
     1
175
     1
 42
1.0
 92
        8
 66
     7
 43
1.0
 76
     1
 77
     6
 78
     2
 67
     7
 79
     5
170
     0
171
     0
290
     0
174
     0
 93
        1
 44
-50.0
173
     0
291
     1
 45
0.0
1001
ACAD
1000
AcDbSavedByObjectVersion
1070
     0
  0
VISUALSTYLE
  5
39
102
{ACAD_REACTORS
330
2A
102
}
330
2A
100
AcDbVisualStyle
  2
Facepattern
 70
    15
 71
     2
 72
     2
 73
     0
 90
        0
 40
-0.6
 41
-30.0
 62
     5
 63
     7
 74
     1
 91
        4
 64
     7
 65
   257
 75
     1
175
     1
 42
1.0
 92
        8
 66
     7
 43
1.0
 76
     1
 77
     6
 78
     2
 67
     7
 79
     5
170
     0
171
     0
290
     0
174
     0
 93
        1
 44
0.0
173
     0
291
     1
 45
0.0
1001
ACAD
1000
AcDbSavedByObjectVersion
1070
     0
  0
VISUALSTYLE
  5
2B
102
{ACAD_REACTORS
330
2A
102
}
330
2A
100
AcDbVisualStyle
  2
Flat
 70
     0
 71
     2
 72
     1
 73
     1
 90
        2
 40
-0.6
 41
30.0
 62
     5
 63
     7
 74
     0
 91
        4
 64
     7
 65
   257
 75
     1
175
     1
 42
1.0
 92
        8
 66
     7
 43
1.0
 76
     1
 77
     6
 78
     2
 67
     7
 79
     5
170
     0
171
     0
290
     0
174
     0
 93
       13
 44
0.0
173
     0
291
     1
 45
0.0
1001
ACAD
1000
AcDbSavedByObjectVersion
1070
     0
  0
VISUALSTYLE
  5
2C
102
{ACAD_REACTORS
330
2A
102
}
330
2A
100
AcDbVisualStyle
  2
FlatWithEdges
 70
     1
 71
     2
 72
     1
 73
     1
 90
        2
 40
-0.6
 41
30.0
 62
     5
 63
     7
 74
     1
 91
        4
 64
     7
 65
   257
 75
     1
175
     1
 42
1.0
 92
        0
 66
   257
 43
1.0
 76
     1
 77
     6
 78
     2
 67
     7
 79
     5
170
     0
171
     0
290
     0
174
     0
 93
       13
 44
0.0
173
     0
291
     1
 45
0.0
1001
ACAD
1000
AcDbSavedByObjectVersion
1070
     0
  0
VISUALSTYLE
  5
2D
102
{ACAD_REACTORS
330
2A
102
}
330
2A
100
AcDbVisualStyle
  2
Gouraud
 70
     2
 71
     2
 72
     2
 73
     1
 90
        2
 40
-0.6
 41
30.0
 62
     5
 63
     7
 74
     0
 91
        4
 64
     7
 65
   257
 75
     1
175
     1
 42
1.0
 92
        0
 66
     7
 43
1.0
 76
     1
 77
     6
 78
     2
 67
     7
 79
     5
170
     0
171
     0
290
     0
174
     0
 93
       13
 44
0.0
173
     0
291
     1
 45
0.0
1001
ACAD
1000
AcDbSavedByObjectVersion
1070
     0
  0
VISUALSTYLE
  5
2E
102
{ACAD_REACTORS
330
2A
102
}
330
2A
100
AcDbVisualStyle
  2
GouraudWithEdges
 70
     3
 71
     2
 72
     2
 73
     1
 90
        2
 40
-0.6
 41
30.0
 62
     5
 63
     7
 74
     1
 91
        4
 64
     7
 65
   257
 75
     1
175
     1
 42
1.0
 92
        0
 66
   257
 43
1.0
 76
     1
 77
     6
 78
     2
 67
     7
 79
     5
170
     0
171
     0
290
     0
174
     0
 93
       13
 44
0.0
173
     0
291
     1
 45
0.0
1001
ACAD
1000
AcDbSavedByObjectVersion
1070
     0
  0
VISUALSTYLE
  5
38
102
{ACAD_REACTORS
330
2A
102
}
330
2A
100
AcDbVisualStyle
  2
Linepattern
 70
    14
 71
     2
 72
     2
 73
     0
 90
        0
 40
-0.6
 41
-30.0
 62
     5
 63
     7
 74
     1
 91
        4
 64
     7
 65
   257
 75
     7
175
     7
 42
1.0
 92
        8
 66
     7
 43
1.0
 76
     1
 77
     6
 78
     2
 67
     7
 79
     5
170
     0
171
     0
290
     0
174
     0
 93
        1
 44
0.0
173
     0
291
     1
 45
0.0
1001
ACAD
1000
AcDbSavedByObjectVersion
1070
     0
  0
VISUALSTYLE
  5
33
102
{ACAD_REACTORS
330
2A
102
}
330
2A
100
AcDbVisualStyle
  2
Realistic
 70
     8
 71
     2
 72
     2
 73
     0
 90
        0
 40
-0.6
 41
-30.0
 62
     5
 63
     7
 74
     1
 91
        0
 64
     7
 65
   257
 75
     1
175
     1
 42
1.0
 92
        8
 66
     8
 43
1.0
 76
     1
 77
     6
 78
     2
 67
     7
 79
     5
170
     0
171
     0
290
     0
174
     0
 93
       13
 44
0.0
173
     0
291
     0
 45
0.0
1001
ACAD
1000
AcDbSavedByObjectVersion
1070
     0
  0
VISUALSTYLE
  5
37
102
{ACAD_REACTORS
330
2A
102
}
330
2A
100
AcDbVisualStyle
  2
Thicken
 70
    13
 71
     2
 72
     2
 73
     0
 90
        0
 40
-0.6
 41
-30.0
 62
     5
 63
     7
 74
     1
 91
        4
 64
     7
 65
   257
 75
     1
175
     1
 42
1.0
 92
       12
 66
     7
 43
1.0
 76
     1
 77
     6
 78
     2
 67
     7
 79
     5
170
     0
171
     0
290
     0
174
     0
 93
        1
 44
0.0
173
     0
291
     1
 45
0.0
1001
ACAD
1000
AcDbSavedByObjectVersion
1070
     0
  0
DICTIONARYVAR
  5
2B8
102
{ACAD_REACTORS
330
2B6
102
}
330
2B6
100
DictionaryVariables
280
     0
  1
80.000000
  0
DICTIONARYVAR
  5
2B7
102
{ACAD_REACTORS
330
2B6
102
}
330
2B6
100
DictionaryVariables
280
     0
  1
5.000000
  0
ENDSEC
  0
EOF
