  0
SECTION
  2
HEADER
  9
$ACADVER
  1
AC1015
  9
$ACADMAINTVER
 70
     6
  9
$DWGCODEPAGE
  3
ANSI_1252
  9
$INSBASE
 10
0.0
 20
0.0
 30
0.0
  9
$EXTMIN
 10
0.0
 20
0.0
 30
0.0
  9
$EXTMAX
 10
297.0
 20
210.0
 30
0.0
  9
$LIMMIN
 10
0.0
 20
0.0
  9
$LIMMAX
 10
297.0
 20
210.0
  9
$ORTHOMODE
 70
     0
  9
$REGENMODE
 70
     1
  9
$FILLMODE
 70
     1
  9
$QTEXTMODE
 70
     0
  9
$MIRRTEXT
 70
     1
  9
$LTSCALE
 40
1.0
  9
$ATTMODE
 70
     1
  9
$TEXTSIZE
 40
2.0
  9
$TRACEWID
 40
1.0
  9
$TEXTSTYLE
  7
Standard
  9
$CLAYER
  8
0
  9
$CELTYPE
  6
ByLayer
  9
$CECOLOR
 62
   256
  9
$CELTSCALE
 40
1.0
  9
$DISPSILH
 70
     0
  9
$DIMSCALE
 40
1.0
  9
$DIMASZ
 40
3.0
  9
$DIMEXO
 40
0.0
  9
$DIMDLI
 40
3.75
  9
$DIMRND
 40
0.0
  9
$DIMDLE
 40
0.0
  9
$DIMEXE
 40
1.0
  9
$DIMTP
 40
0.0
  9
$DIMTM
 40
0.0
  9
$DIMTXT
 40
2.0
  9
$DIMCEN
 40
2.5
  9
$DIMTSZ
 40
0.0
  9
$DIMTOL
 70
     0
  9
$DIMLIM
 70
     0
  9
$DIMTIH
 70
     1
  9
$DIMTOH
 70
     1
  9
$DIMSE1
 70
     0
  9
$DIMSE2
 70
     0
  9
$DIMTAD
 70
     1
  9
$DIMZIN
 70
     0
  9
$DIMBLK
  1

  9
$DIMASO
 70
     1
  9
$DIMSHO
 70
     1
  9
$DIMPOST
  1

  9
$DIMAPOST
  1

  9
$DIMALT
 70
     0
  9
$DIMALTD
 70
     3
  9
$DIMALTF
 40
0.0393700787
  9
$DIMLFAC
 40
1.0
  9
$DIMTOFL
 70
     1
  9
$DIMTVP
 40
0.0
  9
$DIMTIX
 70
     0
  9
$DIMSOXD
 70
     0
  9
$DIMSAH
 70
     0
  9
$DIMBLK1
  1

  9
$DIMBLK2
  1

  9
$DIMSTYLE
  2
ISO-25
  9
$DIMCLRD
 70
     0
  9
$DIMCLRE
 70
     0
  9
$DIMCLRT
 70
     0
  9
$DIMTFAC
 40
1.0
  9
$DIMGAP
 40
1.524
  9
$DIMJUST
 70
     0
  9
$DIMSD1
 70
     0
  9
$DIMSD2
 70
     0
  9
$DIMTOLJ
 70
     0
  9
$DIMTZIN
 70
     0
  9
$DIMALTZ
 70
     0
  9
$DIMALTTZ
 70
     0
  9
$DIMUPT
 70
     0
  9
$DIMDEC
 70
     2
  9
$DIMTDEC
 70
     3
  9
$DIMALTU
 70
     2
  9
$DIMALTTD
 70
     3
  9
$DIMTXSTY
  7
Standard
  9
$DIMAUNIT
 70
     0
  9
$DIMADEC
 70
     2
  9
$DIMALTRND
 40
0.0
  9
$DIMAZIN
 70
     0
  9
$DIMDSEP
 70
    44
  9
$DIMATFIT
 70
     3
  9
$DIMFRAC
 70
     0
  9
$DIMLDRBLK
  1

  9
$DIMLUNIT
 70
     2
  9
$DIMLWD
 70
    -2
  9
$DIMLWE
 70
    -2
  9
$DIMTMOVE
 70
     0
  9
$LUNITS
 70
     2
  9
$LUPREC
 70
     2
  9
$SKETCHINC
 40
1.0
  9
$FILLETRAD
 40
10.0
  9
$AUNITS
 70
     0
  9
$AUPREC
 70
     2
  9
$MENU
  1
.
  9
$ELEVATION
 40
0.0
  9
$PELEVATION
 40
0.0
  9
$THICKNESS
 40
0.0
  9
$LIMCHECK
 70
     0
  9
$CHAMFERA
 40
10.0
  9
$CHAMFERB
 40
10.0
  9
$CHAMFERC
 40
20.0
  9
$CHAMFERD
 40
0.0
  9
$SKPOLY
 70
     0
  9
$TDCREATE
 40
2455722.552686586
  9
$TDUCREATE
 40
2455722.469353252
  9
$TDUPDATE
 40
2455722.552686597
  9
$TDUUPDATE
 40
2455722.469353264
  9
$TDINDWG
 40
0.0000000116
  9
$TDUSRTIMER
 40
0.0000000116
  9
$USRTIMER
 70
     1
  9
$ANGBASE
 50
0.0
  9
$ANGDIR
 70
     0
  9
$PDMODE
 70
     0
  9
$PDSIZE
 40
-1.0
  9
$PLINEWID
 40
0.0
  9
$SPLFRAME
 70
     0
  9
$SPLINETYPE
 70
     6
  9
$SPLINESEGS
 70
     8
  9
$HANDSEED
  5
2C4
  9
$SURFTAB1
 70
     6
  9
$SURFTAB2
 70
     6
  9
$SURFTYPE
 70
     6
  9
$SURFU
 70
     6
  9
$SURFV
 70
     6
  9
$UCSBASE
  2

  9
$UCSNAME
  2

  9
$UCSORG
 10
0.0
 20
0.0
 30
0.0
  9
$UCSXDIR
 10
1.0
 20
0.0
 30
0.0
  9
$UCSYDIR
 10
0.0
 20
1.0
 30
0.0
  9
$UCSORTHOREF
  2

  9
$UCSORTHOVIEW
 70
     0
  9
$UCSORGTOP
 10
0.0
 20
0.0
 30
0.0
  9
$UCSORGBOTTOM
 10
0.0
 20
0.0
 30
0.0
  9
$UCSORGLEFT
 10
0.0
 20
0.0
 30
0.0
  9
$UCSORGRIGHT
 10
0.0
 20
0.0
 30
0.0
  9
$UCSORGFRONT
 10
0.0
 20
0.0
 30
0.0
  9
$UCSORGBACK
 10
0.0
 20
0.0
 30
0.0
  9
$PUCSBASE
  2

  9
$PUCSNAME
  2

  9
$PUCSORG
 10
0.0
 20
0.0
 30
0.0
  9
$PUCSXDIR
 10
1.0
 20
0.0
 30
0.0
  9
$PUCSYDIR
 10
0.0
 20
1.0
 30
0.0
  9
$PUCSORTHOREF
  2

  9
$PUCSORTHOVIEW
 70
     0
  9
$PUCSORGTOP
 10
0.0
 20
0.0
 30
0.0
  9
$PUCSORGBOTTOM
 10
0.0
 20
0.0
 30
0.0
  9
$PUCSORGLEFT
 10
0.0
 20
0.0
 30
0.0
  9
$PUCSORGRIGHT
 10
0.0
 20
0.0
 30
0.0
  9
$PUCSORGFRONT
 10
0.0
 20
0.0
 30
0.0
  9
$PUCSORGBACK
 10
0.0
 20
0.0
 30
0.0
  9
$USERI1
 70
     0
  9
$USERI2
 70
     0
  9
$USERI3
 70
     0
  9
$USERI4
 70
     0
  9
$USERI5
 70
     0
  9
$USERR1
 40
0.0
  9
$USERR2
 40
0.0
  9
$USERR3
 40
0.0
  9
$USERR4
 40
0.0
  9
$USERR5
 40
0.0
  9
$WORLDVIEW
 70
     1
  9
$SHADEDGE
 70
     3
  9
$SHADEDIF
 70
    70
  9
$TILEMODE
 70
     1
  9
$MAXACTVP
 70
    64
  9
$PINSBASE
 10
0.0
 20
0.0
 30
0.0
  9
$PLIMCHECK
 70
     0
  9
$PEXTMIN
 10
1.0000000000E+20
 20
1.0000000000E+20
 30
1.0000000000E+20
  9
$PEXTMAX
 10
-1.0000000000E+20
 20
-1.0000000000E+20
 30
-1.0000000000E+20
  9
$PLIMMIN
 10
0.0
 20
0.0
  9
$PLIMMAX
 10
420.0
 20
297.0
  9
$UNITMODE
 70
     0
  9
$VISRETAIN
 70
     1
  9
$PLINEGEN
 70
     0
  9
$PSLTSCALE
 70
     1
  9
$TREEDEPTH
 70
  3020
  9
$CMLSTYLE
  2
Standard
  9
$CMLJUST
 70
     0
  9
$CMLSCALE
 40
20.0
  9
$PROXYGRAPHICS
 70
     1
  9
$MEASUREMENT
 70
     1
  9
$CELWEIGHT
370
    -1
  9
$ENDCAPS
280
     0
  9
$JOINSTYLE
280
     0
  9
$LWDISPLAY
290
     1
  9
$INSUNITS
 70
     4
  9
$HYPERLINKBASE
  1

  9
$STYLESHEET
  1

  9
$XEDIT
290
     1
  9
$CEPSNTYPE
380
     0
  9
$PSTYLEMODE
290
     1
  9
$FINGERPRINTGUID
  2
{BDEBD086-0539-4D95-8DAD-280ED01681F7}
  9
$VERSIONGUID
  2
{FAEB1C32-E019-11D5-929B-00C0DF256EC4}
  9
$EXTNAMES
290
     1
  9
$PSVPSCALE
 40
0.0
  9
$OLESTARTUP
290
     0
  0
ENDSEC
  0
SECTION
  2
CLASSES
  0
CLASS
  1
ACDBDICTIONARYWDFLT
  2
AcDbDictionaryWithDefault
  3
ObjectDBX Classes
 90
        0
280
     0
281
     0
  0
CLASS
  1
VISUALSTYLE
  2
AcDbVisualStyle
  3
ObjectDBX Classes
 90
     4095
280
     0
281
     0
  0
CLASS
  1
DICTIONARYVAR
  2
AcDbDictionaryVar
  3
ObjectDBX Classes
 90
        0
280
     0
281
     0
  0
CLASS
  1
ACDBPLACEHOLDER
  2
AcDbPlaceHolder
  3
ObjectDBX Classes
 90
        0
280
     0
281
     0
  0
CLASS
  1
LAYOUT
  2
AcDbLayout
  3
ObjectDBX Classes
 90
        0
280
     0
281
     0
  0
ENDSEC
  0
SECTION
  2
TABLES
  0
TABLE
  2
VPORT
  5
8
330
0
100
AcDbSymbolTable
 70
     1
  0
VPORT
  5
29
330
8
100
AcDbSymbolTableRecord
100
AcDbViewportTableRecord
  2
*Active
 70
     0
 10
0.0
 20
0.0
 11
1.0
 21
1.0
 12
148.5
 22
105.0
 13
0.0
 23
0.0
 14
10.0
 24
10.0
 15
10.0
 25
10.0
 16
0.0
 26
0.0
 36
1.0
 17
0.0
 27
0.0
 37
0.0
 40
210.0
 41
1.4142857143
 42
50.0
 43
0.0
 44
0.0
 50
0.0
 51
0.0
 71
     0
 72
  2000
 73
     1
 74
     3
 75
     0
 76
     0
 77
     0
 78
     0
281
     0
 65
     1
110
0.0
120
0.0
130
0.0
111
1.0
121
0.0
131
0.0
112
0.0
122
1.0
132
0.0
 79
     0
146
0.0
  0
ENDTAB
  0
TABLE
  2
LTYPE
  5
5
330
0
100
AcDbSymbolTable
 70
     6
  0
LTYPE
  5
14
330
5
100
AcDbSymbolTableRecord
100
AcDbLinetypeTableRecord
  2
ByBlock
 70
     0
  3

 72
    65
 73
     0
 40
0.0
  0
LTYPE
  5
15
330
5
100
AcDbSymbolTableRecord
100
AcDbLinetypeTableRecord
  2
ByLayer
 70
     0
  3

 72
    65
 73
     0
 40
0.0
  0
LTYPE
  5
16
330
5
100
AcDbSymbolTableRecord
100
AcDbLinetypeTableRecord
  2
Continuous
 70
     0
  3
Solid line
 72
    65
 73
     0
 40
0.0
  0
LTYPE
  5
3B
330
5
100
AcDbSymbolTableRecord
100
AcDbLinetypeTableRecord
  2
HIDDEN
 70
     0
  3
Hidden __ __ __ __ __ __ __ __ __ __ __ __ __ __
 72
    65
 73
     2
 40
1.905
 49
1.27
 74
     0
 49
-0.635
 74
     0
  0
LTYPE
  5
3C
330
5
100
AcDbSymbolTableRecord
100
AcDbLinetypeTableRecord
  2
PHANTOM
 70
     0
  3
Phantom ______  __  __  ______  __  __  ______
 72
    65
 73
     6
 40
12.7
 49
6.35
 74
     0
 49
-1.27
 74
     0
 49
1.27
 74
     0
 49
-1.27
 74
     0
 49
1.27
 74
     0
 49
-1.27
 74
     0
  0
LTYPE
  5
3D
330
5
100
AcDbSymbolTableRecord
100
AcDbLinetypeTableRecord
  2
CENTER
 70
     0
  3
Center ____ _ ____ _ ____ _ ____ _ ____ _ ____
 72
    65
 73
     4
 40
10.16
 49
6.35
 74
     0
 49
-1.27
 74
     0
 49
1.27
 74
     0
 49
-1.27
 74
     0
  0
LTYPE
  5
3E
330
5
100
AcDbSymbolTableRecord
100
AcDbLinetypeTableRecord
  2
CENTERX2
 70
     0
  3
Center (2x) ________  __  ________  __  _____
 72
    65
 73
     4
 40
20.32
 49
12.7
 74
     0
 49
-2.54
 74
     0
 49
2.54
 74
     0
 49
-2.54
 74
     0
  0
LTYPE
  5
3F
330
5
100
AcDbSymbolTableRecord
100
AcDbLinetypeTableRecord
  2
DOT2
 70
     0
  3
Dot (.5x) ........................................
 72
    65
 73
     2
 40
0.635
 49
0.0
 74
     0
 49
-0.635
 74
     0
  0
ENDTAB
  0
TABLE
  2
LAYER
  5
2
330
0
100
AcDbSymbolTable
 70
     5
  0
LAYER
  5
10
330
2
100
AcDbSymbolTableRecord
100
AcDbLayerTableRecord
  2
0
 70
     0
 62
     7
  6
Continuous
370
    -3
390
F
  0
LAYER
  5
40
330
2
100
AcDbSymbolTableRecord
100
AcDbLayerTableRecord
  2
FORMAT
 70
     0
 62
     7
  6
Continuous
370
    -3
390
F
  0
LAYER
  5
41
330
2
100
AcDbSymbolTableRecord
100
AcDbLayerTableRecord
  2
VERMASSUNG
 70
     0
 62
     7
  6
Continuous
370
    -3
390
F
  0
LAYER
  5
42
330
2
100
AcDbSymbolTableRecord
100
AcDbLayerTableRecord
  2
KOPF_DÜNN
 70
     0
 62
     7
  6
Continuous
370
    -3
390
F
  0
LAYER
  5
43
330
2
100
AcDbSymbolTableRecord
100
AcDbLayerTableRecord
  2
KOPF_DICK
 70
     0
 62
     7
  6
Continuous
370
    15
390
F
  0
ENDTAB
  0
TABLE
  2
STYLE
  5
3
330
0
100
AcDbSymbolTable
 70
     3
  0
STYLE
  5
11
330
3
100
AcDbSymbolTableRecord
100
AcDbTextStyleTableRecord
  2
Standard
 70
     0
 40
0.0
 41
1.0
 50
0.0
 71
     0
 42
2.5
  3
txt
  4

  0
STYLE
  5
44
330
3
100
AcDbSymbolTableRecord
100
AcDbTextStyleTableRecord
  2
SLDTEXTSTYLE0
 70
     0
 40
0.0
 41
0.7
 50
0.0
 71
     0
 42
0.2
  3
TXT
  4

  0
STYLE
  5
48
330
3
100
AcDbSymbolTableRecord
100
AcDbTextStyleTableRecord
  2
SLDTEXTSTYLE1
 70
     0
 40
0.0
 41
0.6384615385
 50
0.0
 71
     0
 42
0.2
  3
TXT
  4

  0
ENDTAB
  0
TABLE
  2
VIEW
  5
6
330
0
100
AcDbSymbolTable
 70
     0
  0
ENDTAB
  0
TABLE
  2
UCS
  5
7
330
0
100
AcDbSymbolTable
 70
     0
  0
ENDTAB
  0
TABLE
  2
APPID
  5
9
330
0
100
AcDbSymbolTable
 70
     1
  0
APPID
  5
12
330
9
100
AcDbSymbolTableRecord
100
AcDbRegAppTableRecord
  2
ACAD
 70
     0
  0
ENDTAB
  0
TABLE
  2
DIMSTYLE
  5
A
330
0
100
AcDbSymbolTable
 70
     2
100
AcDbDimStyleTable
  0
DIMSTYLE
105
27
330
A
100
AcDbSymbolTableRecord
100
AcDbDimStyleTableRecord
  2
ISO-25
 70
     0
 41
2.5
 42
0.625
 43
3.75
 44
1.25
 73
     0
 74
     0
 77
     1
 78
     8
140
2.5
141
2.5
143
0.0393700787
147
0.625
171
     3
172
     1
271
     2
272
     2
274
     3
278
    44
283
     0
284
     8
340
11
  0
DIMSTYLE
105
18C
102
{ACAD_REACTORS
330
18B
330
198
330
1A3
330
1AE
330
1B8
330
1C2
330
1CC
330
1D6
330
1E0
330
1EA
102
}
330
A
100
AcDbSymbolTableRecord
100
AcDbDimStyleTableRecord
  2
SLDDIMSTYLE0
 70
     0
 41
3.0
 44
0.0
 45
0.000000001
 73
     0
 74
     0
 77
     1
 78
    12
140
2.0
147
0.5
173
     1
271
     2
272
     3
284
    12
340
44
  0
ENDTAB
  0
TABLE
  2
BLOCK_RECORD
  5
1
330
0
100
AcDbSymbolTable
 70
    12
  0
BLOCK_RECORD
  5
1F
330
1
100
AcDbSymbolTableRecord
100
AcDbBlockTableRecord
  2
*Model_Space
340
22
  0
BLOCK_RECORD
  5
1B
330
1
100
AcDbSymbolTableRecord
100
AcDbBlockTableRecord
  2
*Paper_Space
340
1E
  0
BLOCK_RECORD
  5
23
330
1
100
AcDbSymbolTableRecord
100
AcDbBlockTableRecord
  2
*Paper_Space0
340
26
  0
BLOCK_RECORD
  5
18D
330
1
100
AcDbSymbolTableRecord
100
AcDbBlockTableRecord
  2
*D1
340
0
  0
BLOCK_RECORD
  5
199
330
1
100
AcDbSymbolTableRecord
100
AcDbBlockTableRecord
  2
*D2
340
0
  0
BLOCK_RECORD
  5
1A4
330
1
100
AcDbSymbolTableRecord
100
AcDbBlockTableRecord
  2
*D3
340
0
  0
BLOCK_RECORD
  5
1AF
330
1
100
AcDbSymbolTableRecord
100
AcDbBlockTableRecord
  2
*D4
340
0
  0
BLOCK_RECORD
  5
1B9
330
1
100
AcDbSymbolTableRecord
100
AcDbBlockTableRecord
  2
*D5
340
0
  0
BLOCK_RECORD
  5
1C3
330
1
100
AcDbSymbolTableRecord
100
AcDbBlockTableRecord
  2
*D6
340
0
  0
BLOCK_RECORD
  5
1CD
330
1
100
AcDbSymbolTableRecord
100
AcDbBlockTableRecord
  2
*D7
340
0
  0
BLOCK_RECORD
  5
1D7
330
1
100
AcDbSymbolTableRecord
100
AcDbBlockTableRecord
  2
*D8
340
0
  0
BLOCK_RECORD
  5
1E1
330
1
100
AcDbSymbolTableRecord
100
AcDbBlockTableRecord
  2
*D9
340
0
  0
BLOCK_RECORD
  5
1EB
330
1
100
AcDbSymbolTableRecord
100
AcDbBlockTableRecord
  2
*D10
340
0
  0
BLOCK_RECORD
  5
2B2
330
1
100
AcDbSymbolTableRecord
100
AcDbBlockTableRecord
  2
SW_CENTERMARKSYMBOL_0
340
0
102
{BLKREFS
331
2BD
102
}
  0
ENDTAB
  0
ENDSEC
  0
SECTION
  2
BLOCKS
  0
BLOCK
  5
20
330
1F
100
AcDbEntity
  8
0
100
AcDbBlockBegin
  2
*Model_Space
 70
     0
 10
0.0
 20
0.0
 30
0.0
  3
*Model_Space
  1

  0
ENDBLK
  5
21
330
1F
100
AcDbEntity
  8
0
100
AcDbBlockEnd
  0
BLOCK
  5
1C
330
1B
100
AcDbEntity
 67
     1
  8
0
100
AcDbBlockBegin
  2
*Paper_Space
 70
     0
 10
0.0
 20
0.0
 30
0.0
  3
*Paper_Space
  1

  0
ENDBLK
  5
1D
330
1B
100
AcDbEntity
 67
     1
  8
0
100
AcDbBlockEnd
  0
BLOCK
  5
24
330
23
100
AcDbEntity
  8
0
100
AcDbBlockBegin
  2
*Paper_Space0
 70
     0
 10
0.0
 20
0.0
 30
0.0
  3
*Paper_Space0
  1

  0
ENDBLK
  5
25
330
23
100
AcDbEntity
  8
0
100
AcDbBlockEnd
  0
BLOCK
  5
18E
330
18D
100
AcDbEntity
  8
0
100
AcDbBlockBegin
  2
*D1
 70
     1
 10
0.0
 20
0.0
 30
0.0
  3
*D1
  1

  0
SOLID
  5
190
330
18D
100
AcDbEntity
  8
VERMASSUNG
100
AcDbTrace
 10
22.4040261153
 20
146.6389553863
 30
0.0
 11
21.9540261153
 21
143.6389553863
 31
0.0
 12
22.8540261153
 22
143.6389553863
 32
0.0
 13
22.8540261153
 23
143.6389553863
 33
0.0
  0
SOLID
  5
191
330
18D
100
AcDbEntity
  8
VERMASSUNG
100
AcDbTrace
 10
22.4040261153
 20
83.6389553863
 30
0.0
 11
22.8540261153
 21
86.6389553863
 31
0.0
 12
21.9540261153
 22
86.6389553863
 32
0.0
 13
21.9540261153
 23
86.6389553863
 33
0.0
  0
LINE
  5
192
330
18D
100
AcDbEntity
  8
VERMASSUNG
100
AcDbLine
 10
67.0525571273
 20
146.6389553863
 30
0.0
 11
21.4040261153
 21
146.6389553863
 31
0.0
  0
LINE
  5
193
330
18D
100
AcDbEntity
  8
VERMASSUNG
100
AcDbLine
 10
67.0525571273
 20
83.6389553863
 30
0.0
 11
21.4040261153
 21
83.6389553863
 31
0.0
  0
LINE
  5
194
330
18D
100
AcDbEntity
  8
VERMASSUNG
100
AcDbLine
 10
22.4040261153
 20
146.6389553863
 30
0.0
 11
22.4040261153
 21
83.6389553863
 31
0.0
  0
MTEXT
  5
195
330
18D
100
AcDbEntity
  8
VERMASSUNG
100
AcDbMText
 10
19.6258906263
 20
109.0349586927
 30
0.0
 40
2.0
 41
0.0
 71
     1
 72
     1
  1
PSC 
  7
SLDTEXTSTYLE0
 11
-7.044195017643634E-15
 21
1.0
 31
0.0
 73
     1
 44
1.0
  0
MTEXT
  5
196
330
18D
100
AcDbEntity
  8
VERMASSUNG
100
AcDbMText
 10
19.8258906358
 20
114.8349590846
 30
0.0
 40
2.0
 41
0.0
 71
     1
 72
     1
  1
%%c
  7
SLDTEXTSTYLE0
 11
-7.044195017643634E-15
 21
1.0
 31
0.0
 73
     1
 44
1.0
  0
MTEXT
  5
197
330
18D
100
AcDbEntity
  8
VERMASSUNG
100
AcDbMText
 10
19.8258907522
 20
118.4432001444
 30
0.0
 40
2.0
 41
0.0
 71
     1
 72
     1
  1
63
  7
SLDTEXTSTYLE0
 11
-7.044195017643634E-15
 21
1.0
 31
0.0
 73
     1
 44
1.0
  0
ENDBLK
  5
18F
330
18D
100
AcDbEntity
  8
0
100
AcDbBlockEnd
  0
BLOCK
  5
19A
330
199
100
AcDbEntity
  8
0
100
AcDbBlockBegin
  2
*D2
 70
     1
 10
0.0
 20
0.0
 30
0.0
  3
*D2
  1

  0
SOLID
  5
19C
330
199
100
AcDbEntity
  8
VERMASSUNG
100
AcDbTrace
 10
187.7525571273
 20
146.6389553863
 30
0.0
 11
187.3025571273
 21
143.6389553863
 31
0.0
 12
188.2025571273
 22
143.6389553863
 32
0.0
 13
188.2025571273
 23
143.6389553863
 33
0.0
  0
SOLID
  5
19D
330
199
100
AcDbEntity
  8
VERMASSUNG
100
AcDbTrace
 10
187.7525571273
 20
83.6389553863
 30
0.0
 11
188.2025571273
 21
86.6389553863
 31
0.0
 12
187.3025571273
 22
86.6389553863
 32
0.0
 13
187.3025571273
 23
86.6389553863
 33
0.0
  0
LINE
  5
19E
330
199
100
AcDbEntity
  8
VERMASSUNG
100
AcDbLine
 10
170.7525571273
 20
146.6389553863
 30
0.0
 11
188.7525571273
 21
146.6389553863
 31
0.0
  0
LINE
  5
19F
330
199
100
AcDbEntity
  8
VERMASSUNG
100
AcDbLine
 10
170.7525571273
 20
83.6389553863
 30
0.0
 11
188.7525571273
 21
83.6389553863
 31
0.0
  0
LINE
  5
1A0
330
199
100
AcDbEntity
  8
VERMASSUNG
100
AcDbLine
 10
187.7525571273
 20
146.6389553863
 30
0.0
 11
187.7525571273
 21
83.6389553863
 31
0.0
  0
MTEXT
  5
1A1
330
199
100
AcDbEntity
  8
VERMASSUNG
100
AcDbMText
 10
185.1744216478
 20
111.9348762734
 30
0.0
 40
2.0
 41
0.0
 71
     1
 72
     1
  1
%%c
  7
SLDTEXTSTYLE0
 11
-7.044195017643634E-15
 21
1.0
 31
0.0
 73
     1
 44
1.0
  0
MTEXT
  5
1A2
330
199
100
AcDbEntity
  8
VERMASSUNG
100
AcDbMText
 10
185.1744217642
 20
115.5432825637
 30
0.0
 40
2.0
 41
0.0
 71
     1
 72
     1
  1
63
  7
SLDTEXTSTYLE0
 11
-7.044195017643634E-15
 21
1.0
 31
0.0
 73
     1
 44
1.0
  0
ENDBLK
  5
19B
330
199
100
AcDbEntity
  8
0
100
AcDbBlockEnd
  0
BLOCK
  5
1A5
330
1A4
100
AcDbEntity
  8
0
100
AcDbBlockBegin
  2
*D3
 70
     1
 10
0.0
 20
0.0
 30
0.0
  3
*D3
  1

  0
SOLID
  5
1A7
330
1A4
100
AcDbEntity
  8
VERMASSUNG
100
AcDbTrace
 10
181.7525571273
 20
135.1389553863
 30
0.0
 11
181.3025571273
 21
132.1389553863
 31
0.0
 12
182.2025571273
 22
132.1389553863
 32
0.0
 13
182.2025571273
 23
132.1389553863
 33
0.0
  0
SOLID
  5
1A8
330
1A4
100
AcDbEntity
  8
VERMASSUNG
100
AcDbTrace
 10
181.7525571273
 20
95.1389553863
 30
0.0
 11
182.2025571273
 21
98.1389553863
 31
0.0
 12
181.3025571273
 22
98.1389553863
 32
0.0
 13
181.3025571273
 23
98.1389553863
 33
0.0
  0
LINE
  5
1A9
330
1A4
100
AcDbEntity
  8
VERMASSUNG
100
AcDbLine
 10
171.2525571273
 20
135.1389553863
 30
0.0
 11
182.7525571273
 21
135.1389553863
 31
0.0
  0
LINE
  5
1AA
330
1A4
100
AcDbEntity
  8
VERMASSUNG
100
AcDbLine
 10
171.2525571273
 20
95.1389553863
 30
0.0
 11
182.7525571273
 21
95.1389553863
 31
0.0
  0
LINE
  5
1AB
330
1A4
100
AcDbEntity
  8
VERMASSUNG
100
AcDbLine
 10
181.7525571273
 20
135.1389553863
 30
0.0
 11
181.7525571273
 21
95.1389553863
 31
0.0
  0
MTEXT
  5
1AC
330
1A4
100
AcDbEntity
  8
VERMASSUNG
100
AcDbMText
 10
179.1744216478
 20
111.8359321605
 30
0.0
 40
2.0
 41
0.0
 71
     1
 72
     1
  1
%%c
  7
SLDTEXTSTYLE0
 11
-7.044195017643634E-15
 21
1.0
 31
0.0
 73
     1
 44
1.0
  0
MTEXT
  5
1AD
330
1A4
100
AcDbEntity
  8
VERMASSUNG
100
AcDbMText
 10
179.1744217642
 20
115.4443384508
 30
0.0
 40
2.0
 41
0.0
 71
     1
 72
     1
  1
40
  7
SLDTEXTSTYLE0
 11
-7.044195017643634E-15
 21
1.0
 31
0.0
 73
     1
 44
1.0
  0
ENDBLK
  5
1A6
330
1A4
100
AcDbEntity
  8
0
100
AcDbBlockEnd
  0
BLOCK
  5
1B0
330
1AF
100
AcDbEntity
  8
0
100
AcDbBlockBegin
  2
*D4
 70
     1
 10
0.0
 20
0.0
 30
0.0
  3
*D4
  1

  0
SOLID
  5
1B2
330
1AF
100
AcDbEntity
  8
VERMASSUNG
100
AcDbTrace
 10
28.7525571273
 20
163.9340274007
 30
0.0
 11
31.7525571273
 21
163.4840274007
 31
0.0
 12
31.7525571273
 22
164.3840274007
 32
0.0
 13
31.7525571273
 23
164.3840274007
 33
0.0
  0
SOLID
  5
1B3
330
1AF
100
AcDbEntity
  8
VERMASSUNG
100
AcDbTrace
 10
171.7525571273
 20
163.9340274007
 30
0.0
 11
168.7525571273
 21
164.3840274007
 31
0.0
 12
168.7525571273
 22
163.4840274007
 32
0.0
 13
168.7525571273
 23
163.4840274007
 33
0.0
  0
LINE
  5
1B4
330
1AF
100
AcDbEntity
  8
VERMASSUNG
100
AcDbLine
 10
28.7525571273
 20
135.4312933788
 30
0.0
 11
28.7525571273
 21
164.9340274007
 31
0.0
  0
LINE
  5
1B5
330
1AF
100
AcDbEntity
  8
VERMASSUNG
100
AcDbLine
 10
171.7525571273
 20
145.6389553863
 30
0.0
 11
171.7525571273
 21
164.9340274007
 31
0.0
  0
LINE
  5
1B6
330
1AF
100
AcDbEntity
  8
VERMASSUNG
100
AcDbLine
 10
28.7525571273
 20
163.9340274007
 30
0.0
 11
171.7525571273
 21
163.9340274007
 31
0.0
  0
MTEXT
  5
1B7
330
1AF
100
AcDbEntity
  8
VERMASSUNG
100
AcDbMText
 10
98.2529088209
 20
166.5121627638
 30
0.0
 40
2.0
 41
0.0
 71
     1
 72
     1
  1
143
  7
SLDTEXTSTYLE0
 73
     1
 44
1.0
  0
ENDBLK
  5
1B1
330
1AF
100
AcDbEntity
  8
0
100
AcDbBlockEnd
  0
BLOCK
  5
1BA
330
1B9
100
AcDbEntity
  8
0
100
AcDbBlockBegin
  2
*D5
 70
     1
 10
0.0
 20
0.0
 30
0.0
  3
*D5
  1

  0
SOLID
  5
1BC
330
1B9
100
AcDbEntity
  8
VERMASSUNG
100
AcDbTrace
 10
66.7525571273
 20
157.9340274007
 30
0.0
 11
69.7525571273
 21
157.4840274007
 31
0.0
 12
69.7525571273
 22
158.3840274007
 32
0.0
 13
69.7525571273
 23
158.3840274007
 33
0.0
  0
SOLID
  5
1BD
330
1B9
100
AcDbEntity
  8
VERMASSUNG
100
AcDbTrace
 10
171.7525571273
 20
157.9340274007
 30
0.0
 11
168.7525571273
 21
158.3840274007
 31
0.0
 12
168.7525571273
 22
157.4840274007
 32
0.0
 13
168.7525571273
 23
157.4840274007
 33
0.0
  0
LINE
  5
1BE
330
1B9
100
AcDbEntity
  8
VERMASSUNG
100
AcDbLine
 10
66.7525571273
 20
146.3389553863
 30
0.0
 11
66.7525571273
 21
158.9340274007
 31
0.0
  0
LINE
  5
1BF
330
1B9
100
AcDbEntity
  8
VERMASSUNG
100
AcDbLine
 10
171.7525571273
 20
145.6389553863
 30
0.0
 11
171.7525571273
 21
158.9340274007
 31
0.0
  0
LINE
  5
1C0
330
1B9
100
AcDbEntity
  8
VERMASSUNG
100
AcDbLine
 10
66.7525571273
 20
157.9340274007
 30
0.0
 11
171.7525571273
 21
157.9340274007
 31
0.0
  0
MTEXT
  5
1C1
330
1B9
100
AcDbEntity
  8
VERMASSUNG
100
AcDbMText
 10
117.353074466
 20
160.5121627638
 30
0.0
 40
2.0
 41
0.0
 71
     1
 72
     1
  1
105
  7
SLDTEXTSTYLE0
 73
     1
 44
1.0
  0
ENDBLK
  5
1BB
330
1B9
100
AcDbEntity
  8
0
100
AcDbBlockEnd
  0
BLOCK
  5
1C4
330
1C3
100
AcDbEntity
  8
0
100
AcDbBlockBegin
  2
*D6
 70
     1
 10
0.0
 20
0.0
 30
0.0
  3
*D6
  1

  0
SOLID
  5
1C6
330
1C3
100
AcDbEntity
  8
VERMASSUNG
100
AcDbTrace
 10
105.7525571273
 20
67.6389553863
 30
0.0
 11
108.7525571273
 21
67.1889553863
 31
0.0
 12
108.7525571273
 22
68.0889553863
 32
0.0
 13
108.7525571273
 23
68.0889553863
 33
0.0
  0
SOLID
  5
1C7
330
1C3
100
AcDbEntity
  8
VERMASSUNG
100
AcDbTrace
 10
171.7525571273
 20
67.6389553863
 30
0.0
 11
168.7525571273
 21
68.0889553863
 31
0.0
 12
168.7525571273
 22
67.1889553863
 32
0.0
 13
168.7525571273
 23
67.1889553863
 33
0.0
  0
LINE
  5
1C8
330
1C3
100
AcDbEntity
  8
VERMASSUNG
100
AcDbLine
 10
105.7525571273
 20
94.5389553863
 30
0.0
 11
105.7525571273
 21
66.6389553863
 31
0.0
  0
LINE
  5
1C9
330
1C3
100
AcDbEntity
  8
VERMASSUNG
100
AcDbLine
 10
171.7525571273
 20
84.6389553863
 30
0.0
 11
171.7525571273
 21
66.6389553863
 31
0.0
  0
LINE
  5
1CA
330
1C3
100
AcDbEntity
  8
VERMASSUNG
100
AcDbLine
 10
105.7525571273
 20
67.6389553863
 30
0.0
 11
171.7525571273
 21
67.6389553863
 31
0.0
  0
MTEXT
  5
1CB
330
1C3
100
AcDbEntity
  8
VERMASSUNG
100
AcDbMText
 10
137.3526811596
 20
70.2170907494
 30
0.0
 40
2.0
 41
0.0
 71
     1
 72
     1
  1
66
  7
SLDTEXTSTYLE0
 73
     1
 44
1.0
  0
ENDBLK
  5
1C5
330
1C3
100
AcDbEntity
  8
0
100
AcDbBlockEnd
  0
BLOCK
  5
1CE
330
1CD
100
AcDbEntity
  8
0
100
AcDbBlockBegin
  2
*D7
 70
     1
 10
0.0
 20
0.0
 30
0.0
  3
*D7
  1

  0
SOLID
  5
1D0
330
1CD
100
AcDbEntity
  8
VERMASSUNG
100
AcDbTrace
 10
130.2525571273
 20
73.6389553863
 30
0.0
 11
133.2525571273
 21
73.1889553863
 31
0.0
 12
133.2525571273
 22
74.0889553863
 32
0.0
 13
133.2525571273
 23
74.0889553863
 33
0.0
  0
SOLID
  5
1D1
330
1CD
100
AcDbEntity
  8
VERMASSUNG
100
AcDbTrace
 10
145.7525571273
 20
73.6389553863
 30
0.0
 11
142.7525571273
 21
74.0889553863
 31
0.0
 12
142.7525571273
 22
73.1889553863
 32
0.0
 13
142.7525571273
 23
73.1889553863
 33
0.0
  0
LINE
  5
1D2
330
1CD
100
AcDbEntity
  8
VERMASSUNG
100
AcDbLine
 10
130.2525571273
 20
115.1389553863
 30
0.0
 11
130.2525571273
 21
72.6389553863
 31
0.0
  0
LINE
  5
1D3
330
1CD
100
AcDbEntity
  8
VERMASSUNG
100
AcDbLine
 10
145.7525571273
 20
115.1389553863
 30
0.0
 11
145.7525571273
 21
72.6389553863
 31
0.0
  0
LINE
  5
1D4
330
1CD
100
AcDbEntity
  8
VERMASSUNG
100
AcDbLine
 10
130.2525571273
 20
73.6389553863
 30
0.0
 11
145.7525571273
 21
73.6389553863
 31
0.0
  0
MTEXT
  5
1D5
330
1CD
100
AcDbEntity
  8
VERMASSUNG
100
AcDbMText
 10
135.8025775305
 20
76.2170907494
 30
0.0
 40
2.0
 41
0.0
 71
     1
 72
     1
  1
15.5
  7
SLDTEXTSTYLE0
 73
     1
 44
1.0
  0
ENDBLK
  5
1CF
330
1CD
100
AcDbEntity
  8
0
100
AcDbBlockEnd
  0
BLOCK
  5
1D8
330
1D7
100
AcDbEntity
  8
0
100
AcDbBlockBegin
  2
*D8
 70
     1
 10
0.0
 20
0.0
 30
0.0
  3
*D8
  1

  0
SOLID
  5
1DA
330
1D7
100
AcDbEntity
  8
VERMASSUNG
100
AcDbTrace
 10
145.7525571273
 20
73.6389553863
 30
0.0
 11
148.7525571273
 21
73.1889553863
 31
0.0
 12
148.7525571273
 22
74.0889553863
 32
0.0
 13
148.7525571273
 23
74.0889553863
 33
0.0
  0
SOLID
  5
1DB
330
1D7
100
AcDbEntity
  8
VERMASSUNG
100
AcDbTrace
 10
161.2525571273
 20
73.6389553863
 30
0.0
 11
158.2525571273
 21
74.0889553863
 31
0.0
 12
158.2525571273
 22
73.1889553863
 32
0.0
 13
158.2525571273
 23
73.1889553863
 33
0.0
  0
LINE
  5
1DC
330
1D7
100
AcDbEntity
  8
VERMASSUNG
100
AcDbLine
 10
145.7525571273
 20
115.1389553863
 30
0.0
 11
145.7525571273
 21
72.6389553863
 31
0.0
  0
LINE
  5
1DD
330
1D7
100
AcDbEntity
  8
VERMASSUNG
100
AcDbLine
 10
161.2525571273
 20
115.1389553863
 30
0.0
 11
161.2525571273
 21
72.6389553863
 31
0.0
  0
LINE
  5
1DE
330
1D7
100
AcDbEntity
  8
VERMASSUNG
100
AcDbLine
 10
145.7525571273
 20
73.6389553863
 30
0.0
 11
161.2525571273
 21
73.6389553863
 31
0.0
  0
MTEXT
  5
1DF
330
1D7
100
AcDbEntity
  8
VERMASSUNG
100
AcDbMText
 10
151.3025775305
 20
76.2170907494
 30
0.0
 40
2.0
 41
0.0
 71
     1
 72
     1
  1
15.5
  7
SLDTEXTSTYLE0
 73
     1
 44
1.0
  0
ENDBLK
  5
1D9
330
1D7
100
AcDbEntity
  8
0
100
AcDbBlockEnd
  0
BLOCK
  5
1E2
330
1E1
100
AcDbEntity
  8
0
100
AcDbBlockBegin
  2
*D9
 70
     1
 10
0.0
 20
0.0
 30
0.0
  3
*D9
  1

  0
SOLID
  5
1E4
330
1E1
100
AcDbEntity
  8
VERMASSUNG
100
AcDbTrace
 10
161.2525571273
 20
73.6389553863
 30
0.0
 11
164.2525571273
 21
73.1889553863
 31
0.0
 12
164.2525571273
 22
74.0889553863
 32
0.0
 13
164.2525571273
 23
74.0889553863
 33
0.0
  0
SOLID
  5
1E5
330
1E1
100
AcDbEntity
  8
VERMASSUNG
100
AcDbTrace
 10
171.7525571273
 20
73.6389553863
 30
0.0
 11
168.7525571273
 21
74.0889553863
 31
0.0
 12
168.7525571273
 22
73.1889553863
 32
0.0
 13
168.7525571273
 23
73.1889553863
 33
0.0
  0
LINE
  5
1E6
330
1E1
100
AcDbEntity
  8
VERMASSUNG
100
AcDbLine
 10
161.2525571273
 20
115.1389553863
 30
0.0
 11
161.2525571273
 21
72.6389553863
 31
0.0
  0
LINE
  5
1E7
330
1E1
100
AcDbEntity
  8
VERMASSUNG
100
AcDbLine
 10
171.7525571273
 20
84.6389553863
 30
0.0
 11
171.7525571273
 21
72.6389553863
 31
0.0
  0
LINE
  5
1E8
330
1E1
100
AcDbEntity
  8
VERMASSUNG
100
AcDbLine
 10
161.2525571273
 20
73.6389553863
 30
0.0
 11
171.7525571273
 21
73.6389553863
 31
0.0
  0
MTEXT
  5
1E9
330
1E1
100
AcDbEntity
  8
VERMASSUNG
100
AcDbMText
 10
164.3025775305
 20
76.2170907494
 30
0.0
 40
2.0
 41
0.0
 71
     1
 72
     1
  1
10.5
  7
SLDTEXTSTYLE0
 73
     1
 44
1.0
  0
ENDBLK
  5
1E3
330
1E1
100
AcDbEntity
  8
0
100
AcDbBlockEnd
  0
BLOCK
  5
1EC
330
1EB
100
AcDbEntity
  8
0
100
AcDbBlockBegin
  2
*D10
 70
     1
 10
0.0
 20
0.0
 30
0.0
  3
*D10
  1

  0
SOLID
  5
1EE
330
1EB
100
AcDbEntity
  8
VERMASSUNG
100
AcDbTrace
 10
156.2525571273
 20
151.9340274007
 30
0.0
 11
159.2525571273
 21
151.4840274007
 31
0.0
 12
159.2525571273
 22
152.3840274007
 32
0.0
 13
159.2525571273
 23
152.3840274007
 33
0.0
  0
SOLID
  5
1EF
330
1EB
100
AcDbEntity
  8
VERMASSUNG
100
AcDbTrace
 10
166.2525571273
 20
151.9340274007
 30
0.0
 11
163.2525571273
 21
152.3840274007
 31
0.0
 12
163.2525571273
 22
151.4840274007
 32
0.0
 13
163.2525571273
 23
151.4840274007
 33
0.0
  0
LINE
  5
1F0
330
1EB
100
AcDbEntity
  8
VERMASSUNG
100
AcDbLine
 10
156.2525571273
 20
146.1609093634
 30
0.0
 11
156.2525571273
 21
152.9340274007
 31
0.0
  0
LINE
  5
1F1
330
1EB
100
AcDbEntity
  8
VERMASSUNG
100
AcDbLine
 10
166.2525571273
 20
146.1609093634
 30
0.0
 11
166.2525571273
 21
152.9340274007
 31
0.0
  0
LINE
  5
1F2
330
1EB
100
AcDbEntity
  8
VERMASSUNG
100
AcDbLine
 10
156.2525571273
 20
151.9340274007
 30
0.0
 11
166.2525571273
 21
151.9340274007
 31
0.0
  0
MTEXT
  5
1F3
330
1EB
100
AcDbEntity
  8
VERMASSUNG
100
AcDbMText
 10
159.153964708
 20
154.5121627638
 30
0.0
 40
2.0
 41
0.0
 71
     1
 72
     1
  1
M
  7
SLDTEXTSTYLE0
 73
     1
 44
1.0
  0
MTEXT
  5
1F4
330
1EB
100
AcDbEntity
  8
VERMASSUNG
100
AcDbMText
 10
160.9520601918
 20
154.5121627638
 30
0.0
 40
2.0
 41
0.0
 71
     1
 72
     1
  1
10
  7
SLDTEXTSTYLE0
 73
     1
 44
1.0
  0
ENDBLK
  5
1ED
330
1EB
100
AcDbEntity
  8
0
100
AcDbBlockEnd
  0
BLOCK
  5
2B3
330
2B2
100
AcDbEntity
  8
0
100
AcDbBlockBegin
  2
SW_CENTERMARKSYMBOL_0
 70
     0
 10
0.0
 20
0.0
 30
0.0
  3
SW_CENTERMARKSYMBOL_0
  1

  0
LINE
  5
2B5
330
2B2
100
AcDbEntity
  8
VERMASSUNG
 62
     0
100
AcDbLine
 10
0.0
 20
0.0
 30
0.0
 11
0.0
 21
2.5
 31
0.0
  0
LINE
  5
2B6
330
2B2
100
AcDbEntity
  8
VERMASSUNG
 62
     0
100
AcDbLine
 10
0.0
 20
0.0
 30
0.0
 11
-2.5
 21
0.0
 31
0.0
  0
LINE
  5
2B7
330
2B2
100
AcDbEntity
  8
VERMASSUNG
 62
     0
100
AcDbLine
 10
0.0
 20
0.0
 30
0.0
 11
0.0
 21
-2.5
 31
0.0
  0
LINE
  5
2B8
330
2B2
100
AcDbEntity
  8
VERMASSUNG
 62
     0
100
AcDbLine
 10
0.0
 20
0.0
 30
0.0
 11
2.5
 21
0.0
 31
0.0
  0
LINE
  5
2B9
330
2B2
100
AcDbEntity
  8
VERMASSUNG
 62
     0
100
AcDbLine
 10
0.0
 20
5.0
 30
0.0
 11
0.0
 21
33.7
 31
0.0
  0
LINE
  5
2BA
330
2B2
100
AcDbEntity
  8
VERMASSUNG
 62
     0
100
AcDbLine
 10
-5.0
 20
0.0
 30
0.0
 11
-33.7
 21
0.0
 31
0.0
  0
LINE
  5
2BB
330
2B2
100
AcDbEntity
  8
VERMASSUNG
 62
     0
100
AcDbLine
 10
0.0
 20
-5.0
 30
0.0
 11
0.0
 21
-33.7
 31
0.0
  0
LINE
  5
2BC
330
2B2
100
AcDbEntity
  8
VERMASSUNG
 62
     0
100
AcDbLine
 10
5.0
 20
0.0
 30
0.0
 11
33.7
 21
0.0
 31
0.0
  0
ENDBLK
  5
2B4
330
2B2
100
AcDbEntity
  8
0
100
AcDbBlockEnd
  0
ENDSEC
  0
SECTION
  2
ENTITIES
  0
MTEXT
  5
45
330
1F
100
AcDbEntity
  8
KOPF_DÜNN
100
AcDbMText
 10
13.8892156294
 20
23.8442973028
 30
0.0
 40
3.0
 41
0.0
 71
     1
 72
     1
  1
PS6.B40.K01.105
  7
SLDTEXTSTYLE0
 73
     1
 44
1.0
  0
MTEXT
  5
46
330
1F
100
AcDbEntity
  8
VERMASSUNG
100
AcDbMText
 10
13.9329988022
 20
28.8834360957
 30
0.0
 40
3.0
 41
0.0
 71
     1
 72
     1
  1
Bohrstangenhalter / Boring bar holder
  7
SLDTEXTSTYLE0
 73
     1
 44
1.0
  0
MTEXT
  5
47
330
1F
100
AcDbEntity
  8
VERMASSUNG
100
AcDbMText
 10
98.8601118557
 20
13.8365368179
 30
0.0
 40
2.0
 41
0.0
 71
     1
 72
     1
  1
Datum: 07.03.2010
  7
SLDTEXTSTYLE0
 73
     1
 44
1.0
  0
MTEXT
  5
49
330
1F
100
AcDbEntity
  8
VERMASSUNG
100
AcDbMText
 10
13.933048693
 20
18.0482802738
 30
0.0
 40
2.0
 41
0.0
 71
     1
 72
     1
  1
PSC 63 / ø 40
  7
SLDTEXTSTYLE1
 73
     1
 44
1.0
  0
MTEXT
  5
4A
330
1F
100
AcDbEntity
  8
VERMASSUNG
100
AcDbMText
 10
13.9808475933
 20
13.9090973692
 30
0.0
 40
2.0
 41
0.0
 71
     1
 72
     1
  1
Gewicht: 2086g
  7
SLDTEXTSTYLE0
 73
     1
 44
1.0
  0
ARC
  5
4B
330
1F
100
AcDbEntity
  8
0
  6
Continuous
 62
     7
370
    15
100
AcDbCircle
 10
67.0525571273
 20
83.9389553863
 30
0.0
 40
0.3000000000000114
100
AcDbArc
 50
180.0
 51
270.0
  0
ARC
  5
4C
330
1F
100
AcDbEntity
  8
0
  6
Continuous
 62
     7
370
    15
100
AcDbCircle
 10
67.0525571273
 20
146.3389553863
 30
0.0
 40
0.3000000000000398
100
AcDbArc
 50
90.0
 51
180.0
  0
ARC
  5
4D
330
1F
100
AcDbEntity
  8
0
  6
Continuous
 62
     7
370
    15
100
AcDbCircle
 10
170.7525571273
 20
145.6389553863
 30
0.0
 40
1.000000000000028
100
AcDbArc
 50
0.0
 51
90.0
  0
ARC
  5
4E
330
1F
100
AcDbEntity
  8
0
  6
Continuous
 62
     7
370
    15
100
AcDbCircle
 10
170.7525571273
 20
84.6389553863
 30
0.0
 40
1.000000000000028
100
AcDbArc
 50
270.0
 51
0.0
  0
LINE
  5
4F
330
1F
100
AcDbEntity
  8
0
  6
Continuous
 62
     7
370
    15
100
AcDbLine
 10
67.0525571416
 20
83.6389548796
 30
0.0
 11
170.7525592731
 21
83.6389548796
 31
0.0
  0
LINE
  5
50
330
1F
100
AcDbEntity
  8
0
  6
Continuous
 62
     7
370
    15
100
AcDbLine
 10
125.808880149
 20
146.6389558929
 30
0.0
 11
67.0525571416
 21
146.6389558929
 31
0.0
  0
LINE
  5
51
330
1F
100
AcDbEntity
  8
0
  6
Continuous
 62
     7
370
    15
100
AcDbLine
 10
141.308878033
 20
146.6389558929
 30
0.0
 11
134.7486194657
 21
146.6389558929
 31
0.0
  0
LINE
  5
52
330
1F
100
AcDbEntity
  8
0
  6
Continuous
 62
     7
370
    15
100
AcDbLine
 10
156.8088796423
 20
146.6389558929
 30
0.0
 11
150.248621075
 21
146.6389558929
 31
0.0
  0
LINE
  5
53
330
1F
100
AcDbEntity
  8
0
  6
Continuous
 62
     7
370
    15
100
AcDbLine
 10
170.7525592731
 20
146.6389558929
 30
0.0
 11
165.7486226843
 21
146.6389558929
 31
0.0
  0
LWPOLYLINE
  5
54
330
1F
100
AcDbEntity
  8
0
  6
Continuous
 62
     7
370
    15
100
AcDbPolyline
 90
        3
 70
   128
 43
0.0
 10
66.5525571324
 20
92.5991348642
 10
66.6780120676
 20
92.5308335292
 10
66.7525571273
 20
92.4780945945
  0
LWPOLYLINE
  5
55
330
1F
100
AcDbEntity
  8
0
  6
Continuous
 62
     7
370
    15
100
AcDbPolyline
 90
        3
 70
   128
 43
0.0
 10
66.7525571273
 20
137.7998161781
 10
66.6780120676
 20
137.7470772433
 10
66.5525571324
 20
137.6787759084
  0
CIRCLE
  5
56
330
1F
100
AcDbEntity
  8
0
  6
Continuous
 62
     7
370
    15
100
AcDbCircle
 10
161.2525571273
 20
115.1389553863
 30
0.0
 40
4.171999999999997
  0
CIRCLE
  5
57
330
1F
100
AcDbEntity
  8
0
  6
Continuous
 62
     7
370
    15
100
AcDbCircle
 10
161.2525571273
 20
115.1389553863
 30
0.0
 40
5.0
  0
LINE
  5
58
330
1F
100
AcDbEntity
  8
0
  6
Continuous
 62
     7
370
    15
100
AcDbLine
 10
163.7525599883
 20
116.5823311032
 30
0.0
 11
161.2525549219
 21
118.0257068201
 31
0.0
  0
LINE
  5
59
330
1F
100
AcDbEntity
  8
0
  6
Continuous
 62
     7
370
    15
100
AcDbLine
 10
158.7525573061
 20
116.5823311032
 30
0.0
 11
161.2525549219
 21
118.0257068201
 31
0.0
  0
LINE
  5
5A
330
1F
100
AcDbEntity
  8
0
  6
Continuous
 62
     7
370
    15
100
AcDbLine
 10
158.7525573061
 20
113.6955796694
 30
0.0
 11
158.7525573061
 21
116.5823311032
 31
0.0
  0
LINE
  5
5B
330
1F
100
AcDbEntity
  8
0
  6
Continuous
 62
     7
370
    15
100
AcDbLine
 10
158.7525573061
 20
113.6955796694
 30
0.0
 11
161.2525549219
 21
112.2522039525
 31
0.0
  0
LINE
  5
5C
330
1F
100
AcDbEntity
  8
0
  6
Continuous
 62
     7
370
    15
100
AcDbLine
 10
163.7525599883
 20
113.6955796694
 30
0.0
 11
161.2525549219
 21
112.2522039525
 31
0.0
  0
LINE
  5
5D
330
1F
100
AcDbEntity
  8
0
  6
Continuous
 62
     7
370
    15
100
AcDbLine
 10
163.7525599883
 20
113.6955796694
 30
0.0
 11
163.7525599883
 21
116.5823311032
 31
0.0
  0
LINE
  5
5E
330
1F
100
AcDbEntity
  8
0
  6
Continuous
 62
     7
370
    15
100
AcDbLine
 10
161.2525549219
 20
146.6389558929
 30
0.0
 11
165.4245596813
 21
146.6389558929
 31
0.0
  0
LINE
  5
5F
330
1F
100
AcDbEntity
  8
0
  6
Continuous
 62
     7
370
    15
100
AcDbLine
 10
157.0805576132
 20
146.6389558929
 30
0.0
 11
161.2525549219
 21
146.6389558929
 31
0.0
  0
CIRCLE
  5
60
330
1F
100
AcDbEntity
  8
0
  6
Continuous
 62
     7
370
    15
100
AcDbCircle
 10
145.7525571273
 20
115.1389553863
 30
0.0
 40
4.171999999999997
  0
CIRCLE
  5
61
330
1F
100
AcDbEntity
  8
0
  6
Continuous
 62
     7
370
    15
100
AcDbCircle
 10
145.7525571273
 20
115.1389553863
 30
0.0
 40
5.0
  0
LINE
  5
62
330
1F
100
AcDbEntity
  8
0
  6
Continuous
 62
     7
370
    15
100
AcDbLine
 10
148.252558379
 20
116.5823311032
 30
0.0
 11
145.7525607632
 21
118.0257068201
 31
0.0
  0
LINE
  5
63
330
1F
100
AcDbEntity
  8
0
  6
Continuous
 62
     7
370
    15
100
AcDbLine
 10
143.2525556968
 20
116.5823311032
 30
0.0
 11
145.7525607632
 21
118.0257068201
 31
0.0
  0
LINE
  5
64
330
1F
100
AcDbEntity
  8
0
  6
Continuous
 62
     7
370
    15
100
AcDbLine
 10
143.2525556968
 20
113.6955796694
 30
0.0
 11
143.2525556968
 21
116.5823311032
 31
0.0
  0
LINE
  5
65
330
1F
100
AcDbEntity
  8
0
  6
Continuous
 62
     7
370
    15
100
AcDbLine
 10
143.2525556968
 20
113.6955796694
 30
0.0
 11
145.7525607632
 21
112.2522039525
 31
0.0
  0
LINE
  5
66
330
1F
100
AcDbEntity
  8
0
  6
Continuous
 62
     7
370
    15
100
AcDbLine
 10
148.252558379
 20
113.6955796694
 30
0.0
 11
145.7525607632
 21
112.2522039525
 31
0.0
  0
LINE
  5
67
330
1F
100
AcDbEntity
  8
0
  6
Continuous
 62
     7
370
    15
100
AcDbLine
 10
148.252558379
 20
113.6955796694
 30
0.0
 11
148.252558379
 21
116.5823311032
 31
0.0
  0
CIRCLE
  5
68
330
1F
100
AcDbEntity
  8
0
  6
Continuous
 62
     7
370
    15
100
AcDbCircle
 10
130.2525571273
 20
115.1389553863
 30
0.0
 40
4.171999999999997
  0
CIRCLE
  5
69
330
1F
100
AcDbEntity
  8
0
  6
Continuous
 62
     7
370
    15
100
AcDbCircle
 10
130.2525571273
 20
115.1389553863
 30
0.0
 40
5.0
  0
LINE
  5
6A
330
1F
100
AcDbEntity
  8
0
  6
Continuous
 62
     7
370
    15
100
AcDbLine
 10
132.7525567697
 20
116.5823311032
 30
0.0
 11
130.2525591539
 21
118.0257068201
 31
0.0
  0
LINE
  5
6B
330
1F
100
AcDbEntity
  8
0
  6
Continuous
 62
     7
370
    15
100
AcDbLine
 10
127.7525578128
 20
116.5823311032
 30
0.0
 11
130.2525591539
 21
118.0257068201
 31
0.0
  0
LINE
  5
6C
330
1F
100
AcDbEntity
  8
0
  6
Continuous
 62
     7
370
    15
100
AcDbLine
 10
127.7525578128
 20
113.6955796694
 30
0.0
 11
127.7525578128
 21
116.5823311032
 31
0.0
  0
LINE
  5
6D
330
1F
100
AcDbEntity
  8
0
  6
Continuous
 62
     7
370
    15
100
AcDbLine
 10
127.7525578128
 20
113.6955796694
 30
0.0
 11
130.2525591539
 21
112.2522039525
 31
0.0
  0
LINE
  5
6E
330
1F
100
AcDbEntity
  8
0
  6
Continuous
 62
     7
370
    15
100
AcDbLine
 10
132.7525567697
 20
113.6955796694
 30
0.0
 11
130.2525591539
 21
112.2522039525
 31
0.0
  0
LINE
  5
6F
330
1F
100
AcDbEntity
  8
0
  6
Continuous
 62
     7
370
    15
100
AcDbLine
 10
132.7525567697
 20
113.6955796694
 30
0.0
 11
132.7525567697
 21
116.5823311032
 31
0.0
  0
LINE
  5
70
330
1F
100
AcDbEntity
  8
0
  6
Continuous
 62
     7
370
    15
100
AcDbLine
 10
130.2525591539
 20
146.6389558929
 30
0.0
 11
134.4245564626
 21
146.6389558929
 31
0.0
  0
LINE
  5
71
330
1F
100
AcDbEntity
  8
0
  6
Continuous
 62
     7
370
    15
100
AcDbLine
 10
126.0805581198
 20
146.6389558929
 30
0.0
 11
130.2525591539
 21
146.6389558929
 31
0.0
  0
LINE
  5
72
330
1F
100
AcDbEntity
  8
0
  6
Continuous
 62
     7
370
    15
100
AcDbLine
 10
145.7525607632
 20
146.6389558929
 30
0.0
 11
149.9245580719
 21
146.6389558929
 31
0.0
  0
LINE
  5
73
330
1F
100
AcDbEntity
  8
0
  6
Continuous
 62
     7
370
    15
100
AcDbLine
 10
141.5805560039
 20
146.6389558929
 30
0.0
 11
145.7525607632
 21
146.6389558929
 31
0.0
  0
LINE
  5
74
330
1F
100
AcDbEntity
  8
0
  6
Continuous
 62
     7
370
    15
100
AcDbLine
 10
66.7525571273
 20
83.9389562327
 30
0.0
 11
66.7525571273
 21
146.3389545399
 31
0.0
  0
LINE
  5
75
330
1F
100
AcDbEntity
  8
0
  6
Continuous
 62
     7
370
    15
100
AcDbLine
 10
171.7525538491
 20
115.1389553863
 30
0.0
 11
171.7525538491
 21
84.6389550436
 31
0.0
  0
LINE
  5
76
330
1F
100
AcDbEntity
  8
0
  6
Continuous
 62
     7
370
    15
100
AcDbLine
 10
171.7525538491
 20
145.638955729
 30
0.0
 11
171.7525538491
 21
115.1389553863
 31
0.0
  0
SPLINE
  5
77
330
1F
100
AcDbEntity
  8
0
  6
Continuous
 62
     7
370
    15
100
AcDbSpline
210
0.0
220
0.0
230
1.0
 70
     8
 71
     3
 72
    12
 73
     8
 74
     0
 42
0.00000001
 43
0.00000001
 40
0.0
 40
0.0
 40
0.0
 40
0.0
 40
0.2500000000000014
 40
0.2500000000000014
 40
0.5000000000000028
 40
0.5000000000000028
 40
1.0
 40
1.0
 40
1.0
 40
1.0
 10
77.2803139408787
 20
124.5270218176253
 30
0.0
 10
77.21723390238535
 20
124.5270218176253
 30
0.0
 10
77.15808528020393
 20
124.5523861368402
 30
0.0
 10
77.05961273013484
 20
124.6265509972131
 30
0.0
 10
77.02057611815013
 20
124.6730713377673
 30
0.0
 10
76.92067965137109
 20
124.8232136806125
 30
0.0
 10
76.87825877030446
 20
124.9349068875847
 30
0.0
 10
76.84730123898647
 20
125.0483247069745
 30
0.0
  0
LINE
  5
78
330
1F
100
AcDbEntity
  8
0
  6
Continuous
 62
     7
370
    15
100
AcDbLine
 10
80.2248003395
 20
124.5270222145
 30
0.0
 11
77.2803141238
 21
124.5270222145
 31
0.0
  0
SPLINE
  5
79
330
1F
100
AcDbEntity
  8
0
  6
Continuous
 62
     7
370
    15
100
AcDbSpline
210
0.0
220
0.0
230
1.0
 70
     8
 71
     3
 72
    12
 73
     8
 74
     0
 42
0.00000001
 43
0.00000001
 40
0.0
 40
0.0
 40
0.0
 40
0.0
 40
0.5000000000000028
 40
0.5000000000000028
 40
0.7500000000000013
 40
0.7500000000000013
 40
1.0
 40
1.0
 40
1.0
 40
1.0
 10
80.65781301563804
 20
125.0483247069744
 30
0.0
 10
80.62709077371893
 20
124.9357689075653
 30
0.0
 10
80.5842535591838
 20
124.8230110478257
 30
0.0
 10
80.484826534984
 20
124.6734701620293
 30
0.0
 10
80.44507434016734
 20
124.6261774303224
 30
0.0
 10
80.34703288330913
 20
124.552441137001
 30
0.0
 10
80.28747682772163
 20
124.5270218176253
 30
0.0
 10
80.22480031374582
 20
124.5270218176253
 30
0.0
  0
ELLIPSE
  5
7A
330
1F
100
AcDbEntity
  8
0
  6
Continuous
 62
     7
370
    15
100
AcDbEllipse
 10
64.405402938
 20
115.1389553863
 30
0.0
 11
14.75368316065615
 21
31.09325491558114
 31
0.0
210
0.0
220
0.0
230
1.0
 40
0.3419987131
 41
5.19328173740862
 42
6.124043104552325
  0
SPLINE
  5
7B
330
1F
100
AcDbEntity
  8
0
  6
Continuous
 62
     7
370
    15
100
AcDbSpline
210
0.0
220
0.0
230
1.0
 70
     8
 71
     3
 72
    12
 73
     8
 74
     0
 42
0.00000001
 43
0.00000001
 40
0.0
 40
0.0
 40
0.0
 40
0.0
 40
0.2499999999999991
 40
0.2499999999999991
 40
0.4999999999999982
 40
0.4999999999999982
 40
1.0
 40
1.0
 40
1.0
 40
1.0
 10
80.22480031374582
 20
145.2074473451625
 30
0.0
 10
80.28788035223917
 20
145.2074473451625
 30
0.0
 10
80.34702897442058
 20
145.19954141895
 30
0.0
 10
80.44550152448966
 20
145.1762162575138
 30
0.0
 10
80.48453813647438
 20
145.1615034676821
 30
0.0
 10
80.58443460325343
 20
145.1135476669511
 30
0.0
 10
80.62685548432006
 20
145.0772855103711
 30
0.0
 10
80.65781301563804
 20
145.0396978464066
 30
0.0
  0
LINE
  5
7C
330
1F
100
AcDbEntity
  8
0
  6
Continuous
 62
     7
370
    15
100
AcDbLine
 10
77.2803141238
 20
145.2074479032
 30
0.0
 11
80.2248003395
 21
145.2074479032
 31
0.0
  0
SPLINE
  5
7D
330
1F
100
AcDbEntity
  8
0
  6
Continuous
 62
     7
370
    15
100
AcDbSpline
210
0.0
220
0.0
230
1.0
 70
     8
 71
     3
 72
    12
 73
     8
 74
     0
 42
0.00000001
 43
0.00000001
 40
0.0
 40
0.0
 40
0.0
 40
0.0
 40
0.5
 40
0.5
 40
0.75
 40
0.75
 40
1.0
 40
1.0
 40
1.0
 40
1.0
 10
76.84730123898647
 20
145.0396978464066
 30
0.0
 10
76.87802348090558
 20
145.0769998293596
 30
0.0
 10
76.92086069544072
 20
145.1136116614061
 30
0.0
 10
77.02028771964052
 20
145.1613764446912
 30
0.0
 10
77.06003991445719
 20
145.1763339601736
 30
0.0
 10
77.15808137131539
 20
145.1995239059428
 30
0.0
 10
77.21763742690288
 20
145.2074473451625
 30
0.0
 10
77.2803139408787
 20
145.2074473451624
 30
0.0
  0
ELLIPSE
  5
7E
330
1F
100
AcDbEntity
  8
0
  6
Continuous
 62
     7
370
    15
100
AcDbEllipse
 10
93.0997113167
 20
115.1389553863
 30
0.0
 11
-14.75368316065608
 21
31.09325491558114
 31
0.0
210
0.0
220
0.0
230
1.0
 40
0.3419987131
 41
0.1591422026273023
 42
1.089903569770978
  0
SPLINE
  5
7F
330
1F
100
AcDbEntity
  8
0
  6
Continuous
 62
     7
370
    15
100
AcDbSpline
210
0.0
220
0.0
230
1.0
 70
     8
 71
     3
 72
    12
 73
     8
 74
     0
 42
0.00000001
 43
0.00000001
 40
0.0
 40
0.0
 40
0.0
 40
0.0
 40
0.2500000000000001
 40
0.2500000000000001
 40
0.5000000000000001
 40
0.5000000000000001
 40
1.0
 40
1.0
 40
1.0
 40
1.0
 10
77.2803139408787
 20
85.07046342741631
 30
0.0
 10
77.2172569859809
 20
85.0704634274163
 30
0.0
 10
77.15812683623533
 20
85.07836375849585
 30
0.0
 10
77.05967928570203
 20
85.10167450650088
 30
0.0
 10
77.02064704751396
 20
85.11637963278453
 30
0.0
 10
76.92075716305699
 20
85.16431316097118
 30
0.0
 10
76.87845818944768
 20
85.20038313373593
 30
0.0
 10
76.84730123898642
 20
85.23821292617215
 30
0.0
  0
LINE
  5
80
330
1F
100
AcDbEntity
  8
0
  6
Continuous
 62
     7
370
    15
100
AcDbLine
 10
80.2248003395
 20
85.0704628694
 30
0.0
 11
77.2803141238
 21
85.0704628694
 31
0.0
  0
SPLINE
  5
81
330
1F
100
AcDbEntity
  8
0
  6
Continuous
 62
     7
370
    15
100
AcDbSpline
210
0.0
220
0.0
230
1.0
 70
     8
 71
     3
 72
    12
 73
     8
 74
     0
 42
0.00000001
 43
0.00000001
 40
0.0
 40
0.0
 40
0.0
 40
0.0
 40
0.5000000000000019
 40
0.5000000000000019
 40
0.7500000000000009
 40
0.7500000000000009
 40
1.0
 40
1.0
 40
1.0
 40
1.0
 10
80.65781301563804
 20
85.23821292617217
 30
0.0
 10
80.62666781767594
 20
85.20039740325197
 30
0.0
 10
80.5843935513415
 20
85.16433054516835
 30
0.0
 10
80.4844480175162
 20
85.11637048015707
 30
0.0
 10
80.44471771281214
 20
85.10150950625943
 30
0.0
 10
80.34782966280595
 20
85.0785583601283
 30
0.0
 10
80.28776442105938
 20
85.07046342741624
 30
0.0
 10
80.22480031374583
 20
85.07046342741626
 30
0.0
  0
ELLIPSE
  5
82
330
1F
100
AcDbEntity
  8
0
  6
Continuous
 62
     7
370
    15
100
AcDbEllipse
 10
64.405402938
 20
115.1389553863
 30
0.0
 11
-14.75368316065628
 21
31.09325491558117
 31
0.0
210
0.0
220
0.0
230
1.0
 40
0.3419987131
 41
3.300734856217123
 42
4.231496223360772
  0
SPLINE
  5
83
330
1F
100
AcDbEntity
  8
0
  6
Continuous
 62
     7
370
    15
100
AcDbSpline
210
0.0
220
0.0
230
1.0
 70
     8
 71
     3
 72
    12
 73
     8
 74
     0
 42
0.00000001
 43
0.00000001
 40
0.0
 40
0.0
 40
0.0
 40
0.0
 40
0.2500000000000009
 40
0.2500000000000009
 40
0.5000000000000018
 40
0.5000000000000018
 40
1.0
 40
1.0
 40
1.0
 40
1.0
 10
80.22480031374582
 20
105.7508889549532
 30
0.0
 10
80.2878572686436
 20
105.7508889549532
 30
0.0
 10
80.34698741838919
 20
105.7255426015725
 30
0.0
 10
80.44543496892248
 20
105.651423219433
 30
0.0
 10
80.48446720711055
 20
105.604926704735
 30
0.0
 10
80.58435709156753
 20
105.4548521977264
 30
0.0
 10
80.62665606517685
 20
105.3437344886115
 30
0.0
 10
80.6578130156381
 20
105.2295860656041
 30
0.0
  0
LINE
  5
84
330
1F
100
AcDbEntity
  8
0
  6
Continuous
 62
     7
370
    15
100
AcDbLine
 10
77.2803141238
 20
105.750888558
 30
0.0
 11
80.2248003395
 21
105.750888558
 31
0.0
  0
SPLINE
  5
85
330
1F
100
AcDbEntity
  8
0
  6
Continuous
 62
     7
370
    15
100
AcDbSpline
210
0.0
220
0.0
230
1.0
 70
     8
 71
     3
 72
    12
 73
     8
 74
     0
 42
0.00000001
 43
0.00000001
 40
0.0
 40
0.0
 40
0.0
 40
0.0
 40
0.5000000000000019
 40
0.5000000000000019
 40
0.7500000000000009
 40
0.7500000000000009
 40
1.0
 40
1.0
 40
1.0
 40
1.0
 10
76.84730123898647
 20
105.229586065604
 30
0.0
 10
76.87844643694858
 20
105.3436914314694
 30
0.0
 10
76.92072070328301
 20
105.4547977586881
 30
0.0
 10
77.02066623710832
 20
105.6049553661184
 30
0.0
 10
77.06039654181238
 20
105.6519480577358
 30
0.0
 10
77.15728459181858
 20
105.7249236422742
 30
0.0
 10
77.21734983356515
 20
105.7508889549533
 30
0.0
 10
77.28031394087868
 20
105.7508889549533
 30
0.0
  0
ELLIPSE
  5
86
330
1F
100
AcDbEntity
  8
0
  6
Continuous
 62
     7
370
    15
100
AcDbEllipse
 10
93.0997113167
 20
115.1389553863
 30
0.0
 11
14.75368316065621
 21
31.09325491558117
 31
0.0
210
0.0
220
0.0
230
1.0
 40
0.3419987131
 41
2.051689083818826
 42
2.982450450962503
  0
SPLINE
  5
87
330
1F
100
AcDbEntity
  8
0
  6
Continuous
 62
     7
370
    15
100
AcDbSpline
210
0.0
220
0.0
230
1.0
 70
     8
 71
     3
 72
    12
 73
     8
 74
     0
 42
0.00000001
 43
0.00000001
 40
0.0
 40
0.0
 40
0.0
 40
0.0
 40
0.2133442217843257
 40
0.4266346037703421
 40
0.6412985215105966
 40
0.8568785566663502
 40
1.0
 40
1.0
 40
1.0
 40
1.0
 10
161.2525549219404
 20
146.3158707785691
 30
0.0
 10
160.7496943034439
 20
146.3231434697886
 30
0.0
 10
159.744099968947
 20
146.3376870168829
 30
0.0
 10
158.3989793521485
 20
146.4396877536703
 30
0.0
 10
157.3881608082266
 20
146.5505750558689
 30
0.0
 10
156.8087216262673
 20
146.6308431000918
 30
0.0
 10
156.8088345756571
 20
146.630943651717
 30
0.0
 10
156.8088796423231
 20
146.6309837716902
 30
0.0
  0
SPLINE
  5
88
330
1F
100
AcDbEntity
  8
0
  6
Continuous
 62
     7
370
    15
100
AcDbSpline
210
0.0
220
0.0
230
1.0
 70
     8
 71
     3
 72
    12
 73
     8
 74
     0
 42
0.00000001
 43
0.00000001
 40
0.0
 40
0.0
 40
0.0
 40
0.0
 40
0.2093494901305709
 40
0.4219956238986913
 40
0.6364729737066395
 40
0.8519293267390873
 40
1.0
 40
1.0
 40
1.0
 40
1.0
 10
165.7486226843153
 20
146.638408275255
 30
0.0
 10
165.7027478223137
 20
146.6316816581532
 30
0.0
 10
165.6102757030859
 20
146.6181224993566
 30
0.0
 10
164.8560713057588
 20
146.51852037473
 30
0.0
 10
163.7314011640706
 20
146.4061648646103
 30
0.0
 10
162.4560759097454
 20
146.3279302066066
 30
0.0
 10
161.6008875338798
 20
146.3193611141007
 30
0.0
 10
161.2525549219404
 20
146.3158707785691
 30
0.0
  0
SPLINE
  5
89
330
1F
100
AcDbEntity
  8
0
  6
Continuous
 62
     7
370
    15
100
AcDbSpline
210
0.0
220
0.0
230
1.0
 70
     8
 71
     3
 72
    12
 73
     8
 74
     0
 42
0.00000001
 43
0.00000001
 40
0.0
 40
0.0
 40
0.0
 40
0.0
 40
0.2133440243416735
 40
0.4266351344000613
 40
0.641298853476331
 40
0.8568786891202648
 40
0.9999999999999999
 40
0.9999999999999999
 40
0.9999999999999999
 40
0.9999999999999999
 10
145.7525607631956
 20
146.3158707785691
 30
0.0
 10
145.249700371505
 20
146.3231435231322
 30
0.0
 10
144.2441043092041
 20
146.3376872084485
 30
0.0
 10
142.8989787039877
 20
146.4396874646578
 30
0.0
 10
141.8881593330175
 20
146.550575091147
 30
0.0
 10
141.3087199961428
 20
146.6308430946208
 30
0.0
 10
141.3088329603998
 20
146.6309436501566
 30
0.0
 10
141.3088780329977
 20
146.6309837716902
 30
0.0
  0
SPLINE
  5
8A
330
1F
100
AcDbEntity
  8
0
  6
Continuous
 62
     7
370
    15
100
AcDbSpline
210
0.0
220
0.0
230
1.0
 70
     8
 71
     3
 72
    12
 73
     8
 74
     0
 42
0.00000001
 43
0.00000001
 40
0.0
 40
0.0
 40
0.0
 40
0.0
 40
0.2093496696688129
 40
0.4219959858023789
 40
0.636472740081088
 40
0.8519302498460803
 40
1.0
 40
1.0
 40
1.0
 40
1.0
 10
150.2486210749899
 20
146.6384082752551
 30
0.0
 10
150.20274630867
 20
146.6316816441876
 30
0.0
 10
150.1102743823124
 20
146.61812245724
 30
0.0
 10
149.356069440413
 20
146.5185206688915
 30
0.0
 10
148.2314052769252
 20
146.4061643216502
 30
0.0
 10
146.956078389942
 20
146.3279305053719
 30
0.0
 10
146.1008907002154
 20
146.3193611835157
 30
0.0
 10
145.7525607631956
 20
146.3158707785691
 30
0.0
  0
SPLINE
  5
8B
330
1F
100
AcDbEntity
  8
0
  6
Continuous
 62
     7
370
    15
100
AcDbSpline
210
0.0
220
0.0
230
1.0
 70
     8
 71
     3
 72
    12
 73
     8
 74
     0
 42
0.00000001
 43
0.00000001
 40
0.0
 40
0.0
 40
0.0
 40
0.0
 40
0.2133440676926149
 40
0.4266352210911921
 40
0.6412989837865616
 40
0.856878660038393
 40
1.0
 40
1.0
 40
1.0
 40
1.0
 10
130.2525591538702
 20
146.3158707785691
 30
0.0
 10
129.7496987349271
 20
146.323143522618
 30
0.0
 10
128.7441026181282
 20
146.3376872069061
 30
0.0
 10
127.3989774224462
 20
146.4396874708418
 30
0.0
 10
126.3881568025916
 20
146.5505750327348
 30
0.0
 10
125.8087227499898
 20
146.6308431151944
 30
0.0
 10
125.8088352582724
 20
146.630943656008
 30
0.0
 10
125.8088801489626
 20
146.6309837716902
 30
0.0
  0
SPLINE
  5
8C
330
1F
100
AcDbEntity
  8
0
  6
Continuous
 62
     7
370
    15
100
AcDbSpline
210
0.0
220
0.0
230
1.0
 70
     8
 71
     3
 72
    12
 73
     8
 74
     0
 42
0.00000001
 43
0.00000001
 40
0.0
 40
0.0
 40
0.0
 40
0.0
 40
0.2093496696688129
 40
0.4219959858023789
 40
0.636472740081088
 40
0.8519302498460803
 40
1.0
 40
1.0
 40
1.0
 40
1.0
 10
134.7486194656645
 20
146.6384082752551
 30
0.0
 10
134.7027446993446
 20
146.6316816441876
 30
0.0
 10
134.610272772987
 20
146.61812245724
 30
0.0
 10
133.8560678310876
 20
146.5185206688915
 30
0.0
 10
132.7314036675998
 20
146.4061643216502
 30
0.0
 10
131.4560767806166
 20
146.3279305053719
 30
0.0
 10
130.60088909089
 20
146.3193611835157
 30
0.0
 10
130.2525591538702
 20
146.3158707785691
 30
0.0
  0
SPLINE
  5
8D
330
1F
100
AcDbEntity
  8
0
  6
Continuous
 62
     7
370
    15
100
AcDbSpline
210
0.0
220
0.0
230
1.0
 70
     8
 71
     3
 72
    70
 73
    66
 74
     0
 42
0.00000001
 43
0.00000001
 40
-0.0312499999999998
 40
-0.0312499999999998
 40
0.0
 40
0.0
 40
0.0312499999999997
 40
0.0312499999999997
 40
0.0625000000000001
 40
0.0625000000000001
 40
0.0937500000000005
 40
0.0937500000000005
 40
0.1250000000000009
 40
0.1250000000000009
 40
0.1562500000000013
 40
0.1562500000000013
 40
0.1875000000000017
 40
0.1875000000000017
 40
0.2187500000000021
 40
0.2187500000000021
 40
0.2500000000000025
 40
0.2500000000000025
 40
0.2812500000000029
 40
0.2812500000000029
 40
0.3125000000000033
 40
0.3125000000000033
 40
0.3437500000000037
 40
0.3437500000000037
 40
0.3750000000000041
 40
0.3750000000000041
 40
0.4062500000000045
 40
0.4062500000000045
 40
0.4375000000000049
 40
0.4375000000000049
 40
0.4687500000000053
 40
0.4687500000000053
 40
0.500000000000005
 40
0.500000000000005
 40
0.5312500000000047
 40
0.5312500000000047
 40
0.5625000000000043
 40
0.5625000000000043
 40
0.593750000000004
 40
0.593750000000004
 40
0.6250000000000037
 40
0.6250000000000037
 40
0.6562500000000034
 40
0.6562500000000034
 40
0.6875000000000031
 40
0.6875000000000031
 40
0.7187500000000028
 40
0.7187500000000028
 40
0.7500000000000024
 40
0.7500000000000024
 40
0.7812500000000021
 40
0.7812500000000021
 40
0.8125000000000018
 40
0.8125000000000018
 40
0.8437500000000014
 40
0.8437500000000014
 40
0.8750000000000011
 40
0.8750000000000011
 40
0.9062500000000009
 40
0.9062500000000009
 40
0.9375000000000006
 40
0.9375000000000006
 40
0.9687500000000002
 40
0.9687500000000002
 40
1.0
 40
1.0
 40
1.03125
 40
1.03125
 10
130.5502568827174
 20
110.6389553862898
 30
0.0
 10
129.9548573719071
 20
110.6389553862898
 30
0.0
 10
129.6622095282762
 20
110.6682052883868
 30
0.0
 10
129.0865805033069
 20
110.7827396848052
 30
0.0
 10
128.8005876220031
 20
110.8694419983151
 30
0.0
 10
128.2558258543621
 20
111.0954390653055
 30
0.0
 10
127.9975126532897
 20
111.2336795744823
 30
0.0
 10
127.5086455957649
 20
111.560218981754
 30
0.0
 10
127.2774775737904
 20
111.7500287775618
 30
0.0
 10
126.8629822551089
 20
112.1646144349433
 30
0.0
 10
126.6768450800409
 20
112.3909021856567
 30
0.0
 10
126.3478634543629
 20
112.8826574540697
 30
0.0
 10
126.2083005872421
 20
113.1439999438086
 30
0.0
 10
125.983745828033
 20
113.6853019645516
 30
0.0
 10
125.8971469516847
 20
113.9692746467365
 30
0.0
 10
125.7813994206537
 20
114.5503132262045
 30
0.0
 10
125.7527231915211
 20
114.8425358236996
 30
0.0
 10
125.7523924876224
 20
115.4303112210835
 30
0.0
 10
125.7816912536578
 20
115.7288832883973
 30
0.0
 10
125.8966462241946
 20
116.3063014335244
 30
0.0
 10
125.9816966783371
 20
116.5869934005845
 30
0.0
 10
126.2073462740593
 20
117.1322772915993
 30
0.0
 10
126.348080788251
 20
117.3952545934205
 30
0.0
 10
126.6735698757566
 20
117.882433442989
 30
0.0
 10
126.8598036825642
 20
118.1100176326183
 30
0.0
 10
127.2791507917493
 20
118.5296546610771
 30
0.0
 10
127.5059949159118
 20
118.7155759521608
 30
0.0
 10
127.9928842818516
 20
119.0414798621634
 30
0.0
 10
128.2561030827616
 20
119.1825996899358
 30
0.0
 10
128.8006484420363
 20
119.4084810245817
 30
0.0
 10
129.0811254761373
 20
119.4937707219995
 30
0.0
 10
129.658476477393
 20
119.6092727019732
 30
0.0
 10
129.9569827231848
 20
119.6388427849807
 30
0.0
 10
130.5446929125372
 20
119.6390673307044
 30
0.0
 10
130.8370160276298
 20
119.6106741127952
 30
0.0
 10
131.4185212466788
 20
119.4953745864459
 30
0.0
 10
131.7022452806605
 20
119.4091233487563
 30
0.0
 10
132.2439766398936
 20
119.1849631092859
 30
0.0
 10
132.5061146234691
 20
119.0452029819775
 30
0.0
 10
132.9975041187914
 20
118.7170215792592
 30
0.0
 10
133.2239141904485
 20
118.5311630423757
 30
0.0
 10
133.6391220586353
 20
118.1167420718317
 30
0.0
 10
133.8291931241938
 20
117.8855733996404
 30
0.0
 10
134.1558147161492
 20
117.3974539496362
 30
0.0
 10
134.2942934387285
 20
117.1393174643191
 30
0.0
 10
134.5209114923081
 20
116.5943700588348
 30
0.0
 10
134.6077354097386
 20
116.3087769787888
 30
0.0
 10
134.7227527134226
 20
115.7334399125098
 30
0.0
 10
134.7522984385454
 20
115.4403223009937
 30
0.0
 10
134.7528124571791
 20
114.8453640865194
 30
0.0
 10
134.7238575196214
 20
114.5527562370774
 30
0.0
 10
134.6098222634839
 20
113.9768894785614
 30
0.0
 10
134.5232847905578
 20
113.6905909799009
 30
0.0
 10
134.2978761456804
 20
113.145900377783
 30
0.0
 10
134.1598806038725
 20
112.8874382350976
 30
0.0
 10
133.8335733298001
 20
112.39800132062
 30
0.0
 10
133.6440351576233
 20
112.1667926940856
 30
0.0
 10
133.2299280852971
 20
111.7520487626048
 30
0.0
 10
133.003756225502
 20
111.565641844689
 30
0.0
 10
132.5118411306953
 20
111.23596910185
 30
0.0
 10
132.2511065874946
 20
111.0964733361544
 30
0.0
 10
131.7099950162016
 20
110.8714343411756
 30
0.0
 10
131.4260170380071
 20
110.7845410123133
 30
0.0
 10
130.8444693709234
 20
110.6682090729586
 30
0.0
 10
130.5502568827174
 20
110.6389553862898
 30
0.0
 10
129.9548573719071
 20
110.6389553862898
 30
0.0
  0
SPLINE
  5
8E
330
1F
100
AcDbEntity
  8
0
  6
Continuous
 62
     7
370
    15
100
AcDbSpline
210
0.0
220
0.0
230
1.0
 70
     8
 71
     3
 72
    70
 73
    66
 74
     0
 42
0.00000001
 43
0.00000001
 40
-0.03125
 40
-0.03125
 40
0.0
 40
0.0
 40
0.03125
 40
0.03125
 40
0.0625
 40
0.0625
 40
0.09375
 40
0.09375
 40
0.125
 40
0.125
 40
0.15625
 40
0.15625
 40
0.1875
 40
0.1875
 40
0.21875
 40
0.21875
 40
0.25
 40
0.25
 40
0.28125
 40
0.28125
 40
0.3125
 40
0.3125
 40
0.34375
 40
0.34375
 40
0.375
 40
0.375
 40
0.40625
 40
0.40625
 40
0.4375
 40
0.4375
 40
0.46875
 40
0.46875
 40
0.5
 40
0.5
 40
0.53125
 40
0.53125
 40
0.5625
 40
0.5625
 40
0.59375
 40
0.59375
 40
0.625
 40
0.625
 40
0.65625
 40
0.65625
 40
0.6875
 40
0.6875
 40
0.71875
 40
0.71875
 40
0.75
 40
0.75
 40
0.78125
 40
0.78125
 40
0.8125
 40
0.8125
 40
0.84375
 40
0.84375
 40
0.875
 40
0.875
 40
0.90625
 40
0.90625
 40
0.9375
 40
0.9375
 40
0.96875
 40
0.96875
 40
1.0
 40
1.0
 40
1.03125
 40
1.03125
 10
161.5502568827174
 20
110.6389553862898
 30
0.0
 10
160.9548573719071
 20
110.6389553862898
 30
0.0
 10
160.6622095282762
 20
110.6682052883867
 30
0.0
 10
160.0865805033069
 20
110.7827396848052
 30
0.0
 10
159.8005876220032
 20
110.8694419983151
 30
0.0
 10
159.2558258543621
 20
111.0954390653055
 30
0.0
 10
158.9975126532897
 20
111.2336795744823
 30
0.0
 10
158.5086455957648
 20
111.560218981754
 30
0.0
 10
158.2774775737904
 20
111.7500287775618
 30
0.0
 10
157.862982255109
 20
112.1646144349433
 30
0.0
 10
157.6768450800409
 20
112.3909021856567
 30
0.0
 10
157.3478634543629
 20
112.8826574540697
 30
0.0
 10
157.2083005872421
 20
113.1439999438086
 30
0.0
 10
156.9837458280329
 20
113.6853019645516
 30
0.0
 10
156.8971469516847
 20
113.9692746467365
 30
0.0
 10
156.7813994206536
 20
114.5503132262045
 30
0.0
 10
156.7527231915211
 20
114.8425358236996
 30
0.0
 10
156.7523924876224
 20
115.4303112210835
 30
0.0
 10
156.7816912536578
 20
115.7288832883973
 30
0.0
 10
156.8966462241946
 20
116.3063014335244
 30
0.0
 10
156.9816966783372
 20
116.5869934005845
 30
0.0
 10
157.2073462740593
 20
117.1322772915993
 30
0.0
 10
157.348080788251
 20
117.3952545934205
 30
0.0
 10
157.6735698757566
 20
117.8824334429889
 30
0.0
 10
157.8598036825642
 20
118.1100176326183
 30
0.0
 10
158.2791507917493
 20
118.529654661077
 30
0.0
 10
158.5059949159118
 20
118.7155759521608
 30
0.0
 10
158.9928842818516
 20
119.0414798621634
 30
0.0
 10
159.2561030827616
 20
119.1825996899358
 30
0.0
 10
159.8006484420363
 20
119.4084810245817
 30
0.0
 10
160.0811254761373
 20
119.4937707219995
 30
0.0
 10
160.658476477393
 20
119.6092727019732
 30
0.0
 10
160.9569827231848
 20
119.6388427849806
 30
0.0
 10
161.5446929125372
 20
119.6390673307044
 30
0.0
 10
161.8370160276299
 20
119.6106741127952
 30
0.0
 10
162.4185212466788
 20
119.4953745864459
 30
0.0
 10
162.7022452806605
 20
119.4091233487563
 30
0.0
 10
163.2439766398935
 20
119.1849631092859
 30
0.0
 10
163.506114623469
 20
119.0452029819775
 30
0.0
 10
163.9975041187914
 20
118.7170215792592
 30
0.0
 10
164.2239141904485
 20
118.5311630423757
 30
0.0
 10
164.6391220586353
 20
118.1167420718317
 30
0.0
 10
164.8291931241938
 20
117.8855733996404
 30
0.0
 10
165.1558147161492
 20
117.3974539496362
 30
0.0
 10
165.2942934387285
 20
117.1393174643191
 30
0.0
 10
165.5209114923081
 20
116.5943700588348
 30
0.0
 10
165.6077354097386
 20
116.3087769787888
 30
0.0
 10
165.7227527134226
 20
115.7334399125098
 30
0.0
 10
165.7522984385454
 20
115.4403223009937
 30
0.0
 10
165.7528124571791
 20
114.8453640865194
 30
0.0
 10
165.7238575196214
 20
114.5527562370774
 30
0.0
 10
165.6098222634839
 20
113.9768894785614
 30
0.0
 10
165.5232847905578
 20
113.6905909799009
 30
0.0
 10
165.2978761456805
 20
113.145900377783
 30
0.0
 10
165.1598806038725
 20
112.8874382350976
 30
0.0
 10
164.8335733298
 20
112.39800132062
 30
0.0
 10
164.6440351576233
 20
112.1667926940856
 30
0.0
 10
164.2299280852971
 20
111.7520487626048
 30
0.0
 10
164.003756225502
 20
111.565641844689
 30
0.0
 10
163.5118411306953
 20
111.23596910185
 30
0.0
 10
163.2511065874946
 20
111.0964733361544
 30
0.0
 10
162.7099950162016
 20
110.8714343411756
 30
0.0
 10
162.4260170380071
 20
110.7845410123133
 30
0.0
 10
161.8444693709235
 20
110.6682090729586
 30
0.0
 10
161.5502568827174
 20
110.6389553862898
 30
0.0
 10
160.9548573719071
 20
110.6389553862898
 30
0.0
  0
SPLINE
  5
8F
330
1F
100
AcDbEntity
  8
0
  6
Continuous
 62
     7
370
    15
100
AcDbSpline
210
0.0
220
0.0
230
1.0
 70
     8
 71
     3
 72
    70
 73
    66
 74
     0
 42
0.00000001
 43
0.00000001
 40
-0.03125
 40
-0.03125
 40
0.0
 40
0.0
 40
0.03125
 40
0.03125
 40
0.0625
 40
0.0625
 40
0.09375
 40
0.09375
 40
0.125
 40
0.125
 40
0.15625
 40
0.15625
 40
0.1875
 40
0.1875
 40
0.21875
 40
0.21875
 40
0.25
 40
0.25
 40
0.28125
 40
0.28125
 40
0.3125
 40
0.3125
 40
0.34375
 40
0.34375
 40
0.375
 40
0.375
 40
0.40625
 40
0.40625
 40
0.4375
 40
0.4375
 40
0.46875
 40
0.46875
 40
0.5
 40
0.5
 40
0.53125
 40
0.53125
 40
0.5625
 40
0.5625
 40
0.59375
 40
0.59375
 40
0.625
 40
0.625
 40
0.65625
 40
0.65625
 40
0.6875
 40
0.6875
 40
0.71875
 40
0.71875
 40
0.75
 40
0.75
 40
0.78125
 40
0.78125
 40
0.8125
 40
0.8125
 40
0.84375
 40
0.84375
 40
0.875
 40
0.875
 40
0.90625
 40
0.90625
 40
0.9375
 40
0.9375
 40
0.96875
 40
0.96875
 40
1.0
 40
1.0
 40
1.03125
 40
1.03125
 10
146.0502568827174
 20
110.6389553862898
 30
0.0
 10
145.4548573719071
 20
110.6389553862898
 30
0.0
 10
145.1622095282762
 20
110.6682052883867
 30
0.0
 10
144.5865805033069
 20
110.7827396848052
 30
0.0
 10
144.3005876220031
 20
110.8694419983151
 30
0.0
 10
143.7558258543621
 20
111.0954390653055
 30
0.0
 10
143.4975126532897
 20
111.2336795744823
 30
0.0
 10
143.0086455957648
 20
111.560218981754
 30
0.0
 10
142.7774775737903
 20
111.7500287775618
 30
0.0
 10
142.3629822551089
 20
112.1646144349433
 30
0.0
 10
142.1768450800409
 20
112.3909021856567
 30
0.0
 10
141.8478634543629
 20
112.8826574540697
 30
0.0
 10
141.7083005872421
 20
113.1439999438086
 30
0.0
 10
141.483745828033
 20
113.6853019645516
 30
0.0
 10
141.3971469516846
 20
113.9692746467365
 30
0.0
 10
141.2813994206537
 20
114.5503132262045
 30
0.0
 10
141.2527231915211
 20
114.8425358236996
 30
0.0
 10
141.2523924876224
 20
115.4303112210835
 30
0.0
 10
141.2816912536578
 20
115.7288832883973
 30
0.0
 10
141.3966462241947
 20
116.3063014335244
 30
0.0
 10
141.4816966783372
 20
116.5869934005845
 30
0.0
 10
141.7073462740593
 20
117.1322772915993
 30
0.0
 10
141.848080788251
 20
117.3952545934205
 30
0.0
 10
142.1735698757566
 20
117.882433442989
 30
0.0
 10
142.3598036825642
 20
118.1100176326183
 30
0.0
 10
142.7791507917493
 20
118.5296546610771
 30
0.0
 10
143.0059949159118
 20
118.7155759521608
 30
0.0
 10
143.4928842818516
 20
119.0414798621634
 30
0.0
 10
143.7561030827616
 20
119.1825996899359
 30
0.0
 10
144.3006484420363
 20
119.4084810245817
 30
0.0
 10
144.5811254761373
 20
119.4937707219995
 30
0.0
 10
145.158476477393
 20
119.6092727019732
 30
0.0
 10
145.4569827231848
 20
119.6388427849806
 30
0.0
 10
146.0446929125372
 20
119.6390673307044
 30
0.0
 10
146.3370160276299
 20
119.6106741127952
 30
0.0
 10
146.9185212466788
 20
119.4953745864459
 30
0.0
 10
147.2022452806605
 20
119.4091233487563
 30
0.0
 10
147.7439766398936
 20
119.1849631092859
 30
0.0
 10
148.0061146234691
 20
119.0452029819775
 30
0.0
 10
148.4975041187914
 20
118.7170215792592
 30
0.0
 10
148.7239141904486
 20
118.5311630423757
 30
0.0
 10
149.1391220586353
 20
118.1167420718316
 30
0.0
 10
149.3291931241938
 20
117.8855733996404
 30
0.0
 10
149.6558147161492
 20
117.3974539496362
 30
0.0
 10
149.7942934387285
 20
117.1393174643191
 30
0.0
 10
150.0209114923081
 20
116.5943700588348
 30
0.0
 10
150.1077354097386
 20
116.3087769787888
 30
0.0
 10
150.2227527134226
 20
115.7334399125098
 30
0.0
 10
150.2522984385454
 20
115.4403223009937
 30
0.0
 10
150.2528124571792
 20
114.8453640865194
 30
0.0
 10
150.2238575196214
 20
114.5527562370774
 30
0.0
 10
150.1098222634839
 20
113.9768894785614
 30
0.0
 10
150.0232847905578
 20
113.6905909799008
 30
0.0
 10
149.7978761456804
 20
113.145900377783
 30
0.0
 10
149.6598806038725
 20
112.8874382350976
 30
0.0
 10
149.3335733298001
 20
112.39800132062
 30
0.0
 10
149.1440351576233
 20
112.1667926940856
 30
0.0
 10
148.7299280852972
 20
111.7520487626048
 30
0.0
 10
148.5037562255019
 20
111.565641844689
 30
0.0
 10
148.0118411306953
 20
111.23596910185
 30
0.0
 10
147.7511065874946
 20
111.0964733361544
 30
0.0
 10
147.2099950162015
 20
110.8714343411756
 30
0.0
 10
146.9260170380071
 20
110.7845410123133
 30
0.0
 10
146.3444693709235
 20
110.6682090729586
 30
0.0
 10
146.0502568827174
 20
110.6389553862898
 30
0.0
 10
145.4548573719071
 20
110.6389553862898
 30
0.0
  0
LINE
  5
90
330
1F
100
AcDbEntity
  8
0
  6
Continuous
 62
     7
370
    15
100
AcDbLine
 10
76.8473012806
 20
105.2295863348
 30
0.0
 11
76.8473012806
 21
85.2382126916
 31
0.0
  0
LINE
  5
91
330
1F
100
AcDbEntity
  8
0
  6
Continuous
 62
     7
370
    15
100
AcDbLine
 10
77.2803141238
 20
105.750888558
 30
0.0
 11
77.2803141238
 21
85.0704628694
 31
0.0
  0
LINE
  5
92
330
1F
100
AcDbEntity
  8
0
  6
Continuous
 62
     7
370
    15
100
AcDbLine
 10
77.2803141238
 20
145.2074479032
 30
0.0
 11
77.2803141238
 21
124.5270222145
 31
0.0
  0
LINE
  5
93
330
1F
100
AcDbEntity
  8
0
  6
Continuous
 62
     7
370
    15
100
AcDbLine
 10
76.8473012806
 20
145.039698081
 30
0.0
 11
76.8473012806
 21
125.0483244377
 31
0.0
  0
LINE
  5
94
330
1F
100
AcDbEntity
  8
0
  6
Continuous
 62
     7
370
    15
100
AcDbLine
 10
80.2248003395
 20
105.750888558
 30
0.0
 11
80.2248003395
 21
85.0704628694
 31
0.0
  0
LINE
  5
95
330
1F
100
AcDbEntity
  8
0
  6
Continuous
 62
     7
370
    15
100
AcDbLine
 10
80.6578131826
 20
105.2295863348
 30
0.0
 11
80.6578131826
 21
85.2382126916
 31
0.0
  0
LINE
  5
96
330
1F
100
AcDbEntity
  8
0
  6
Continuous
 62
     7
370
    15
100
AcDbLine
 10
80.6578131826
 20
145.039698081
 30
0.0
 11
80.6578131826
 21
125.0483244377
 31
0.0
  0
LINE
  5
97
330
1F
100
AcDbEntity
  8
0
  6
Continuous
 62
     7
370
    15
100
AcDbLine
 10
80.2248003395
 20
145.2074479032
 30
0.0
 11
80.2248003395
 21
124.5270222145
 31
0.0
  0
SPLINE
  5
98
330
1F
100
AcDbEntity
  8
0
  6
Continuous
 62
     7
370
    15
100
AcDbSpline
210
0.0
220
0.0
230
1.0
 70
     8
 71
     3
 72
    12
 73
     8
 74
     0
 42
0.00000001
 43
0.00000001
 40
0.0
 40
0.0
 40
0.0
 40
0.0
 40
0.4999999999999996
 40
0.4999999999999996
 40
0.7499999999999997
 40
0.7499999999999997
 40
1.0
 40
1.0
 40
1.0
 40
1.0
 10
65.93604484085577
 20
93.28416168381358
 30
0.0
 10
65.99248134176295
 20
93.28274380247183
 30
0.0
 10
66.06156597245172
 20
93.28117946622352
 30
0.0
 10
66.18036824416964
 20
93.27823527424908
 30
0.0
 10
66.22055351963971
 20
93.2771970711517
 30
0.0
 10
66.29393456704354
 20
93.27526317593707
 30
0.0
 10
66.32734413078617
 20
93.27436828864825
 30
0.0
 10
66.35758023844262
 20
93.27358449837591
 30
0.0
  0
SPLINE
  5
99
330
1F
100
AcDbEntity
  8
0
  6
Continuous
 62
     7
370
    15
100
AcDbSpline
210
0.0
220
0.0
230
1.0
 70
     8
 71
     3
 72
    16
 73
    12
 74
     0
 42
0.00000001
 43
0.00000001
 40
0.0
 40
0.0
 40
0.0
 40
0.0
 40
0.0625000000000017
 40
0.0625000000000017
 40
0.1250000000000034
 40
0.1250000000000034
 40
0.2499999999999995
 40
0.2499999999999995
 40
0.4999999999999997
 40
0.4999999999999997
 40
1.0
 40
1.0
 40
1.0
 40
1.0
 10
66.3575802384054
 20
93.27358449840015
 30
0.0
 10
66.36916064599335
 20
93.27328430728882
 30
0.0
 10
66.38247017275461
 20
93.27195655902982
 30
0.0
 10
66.41177160284079
 20
93.2652578842548
 30
0.0
 10
66.42658570272505
 20
93.25989970114912
 30
0.0
 10
66.4624141044279
 20
93.24285405198178
 30
0.0
 10
66.47653372879095
 20
93.23139151420604
 30
0.0
 10
66.51103787287944
 20
93.19982818883378
 30
0.0
 10
66.52214242358404
 20
93.18193088978852
 30
0.0
 10
66.54831860080024
 20
93.13176947217427
 30
0.0
 10
66.55255712731226
 20
93.1040250599777
 30
0.0
 10
66.55255712731226
 20
93.07936089804817
 30
0.0
  0
LINE
  5
9A
330
1F
100
AcDbEntity
  8
0
  6
Continuous
 62
     7
370
    15
100
AcDbLine
 10
66.5525571324
 20
108.1170681584
 30
0.0
 11
66.5525571324
 21
92.5991348642
 31
0.0
  0
SPLINE
  5
9B
330
1F
100
AcDbEntity
  8
0
  6
Continuous
 62
     7
370
    15
100
AcDbSpline
210
0.0
220
0.0
230
1.0
 70
     8
 71
     3
 72
    16
 73
    12
 74
     0
 42
0.00000001
 43
0.00000001
 40
0.0
 40
0.0
 40
0.0
 40
0.0
 40
0.4999999999999951
 40
0.4999999999999951
 40
0.7499999999999961
 40
0.7499999999999961
 40
0.8749999999999976
 40
0.8749999999999976
 40
0.9374999999999988
 40
0.9374999999999988
 40
1.0
 40
1.0
 40
1.0
 40
1.0
 10
66.55255712731226
 20
108.1170680605393
 30
0.0
 10
66.55255712731226
 20
108.2307606046672
 30
0.0
 10
66.54841085223431
 20
108.3450807660167
 30
0.0
 10
66.5224452568408
 20
108.5181290565138
 30
0.0
 10
66.51098435146338
 20
108.5773045636755
 30
0.0
 10
66.47667261368902
 20
108.6604276831437
 30
0.0
 10
66.46264787775947
 20
108.6885489992443
 30
0.0
 10
66.42662491472562
 20
108.7171648132218
 30
0.0
 10
66.41187040563595
 20
108.7229578611236
 30
0.0
 10
66.38251824448903
 20
108.7213644351866
 30
0.0
 10
66.36917836998497
 20
108.7148680318628
 30
0.0
 10
66.3575802384366
 20
108.7063522856596
 30
0.0
  0
SPLINE
  5
9C
330
1F
100
AcDbEntity
  8
0
  6
Continuous
 62
     7
370
    15
100
AcDbSpline
210
0.0
220
0.0
230
1.0
 70
     8
 71
     3
 72
    12
 73
     8
 74
     0
 42
0.00000001
 43
0.00000001
 40
0.0
 40
0.0
 40
0.0
 40
0.0
 40
0.2499999999999996
 40
0.2499999999999996
 40
0.4999999999999994
 40
0.4999999999999994
 40
1.0
 40
1.0
 40
1.0
 40
1.0
 10
66.35758023844367
 20
108.7063522856505
 30
0.0
 10
66.32738179700307
 20
108.6841795536054
 30
0.0
 10
66.29401444166707
 20
108.6650998977282
 30
0.0
 10
66.22085916583717
 20
108.6399268532855
 30
0.0
 10
66.1806064668132
 20
108.6343703168687
 30
0.0
 10
66.06287772353836
 20
108.6452821278554
 30
0.0
 10
65.99241927547942
 20
108.6872178832663
 30
0.0
 10
65.93604484086114
 20
108.7364296656478
 30
0.0
  0
SPLINE
  5
9D
330
1F
100
AcDbEntity
  8
0
  6
Continuous
 62
     7
370
    15
100
AcDbSpline
210
0.0
220
0.0
230
1.0
 70
     8
 71
     3
 72
    12
 73
     8
 74
     0
 42
0.00000001
 43
0.00000001
 40
0.0
 40
0.0
 40
0.0
 40
0.0
 40
0.4999999999999986
 40
0.4999999999999986
 40
0.7499999999999992
 40
0.7499999999999992
 40
1.0
 40
1.0
 40
1.0
 40
1.0
 10
65.43123678375261
 20
109.9527810575284
 30
0.0
 10
65.47498713563706
 20
109.7323340725539
 30
0.0
 10
65.52787728676155
 20
109.5167890827483
 30
0.0
 10
65.63948882990323
 20
109.2043750061764
 30
0.0
 10
65.68204817380676
 20
109.1022955305605
 30
0.0
 10
65.78702540914419
 20
108.9078555179187
 30
0.0
 10
65.84859265223878
 20
108.812770618855
 30
0.0
 10
65.93604484086116
 20
108.7364296656478
 30
0.0
  0
LINE
  5
9E
330
1F
100
AcDbEntity
  8
0
  6
Continuous
 62
     7
370
    15
100
AcDbLine
 10
65.4312368217
 20
109.9527808558
 30
0.0
 11
65.4312368217
 21
120.3251299168
 31
0.0
  0
SPLINE
  5
9F
330
1F
100
AcDbEntity
  8
0
  6
Continuous
 62
     7
370
    15
100
AcDbSpline
210
0.0
220
0.0
230
1.0
 70
     8
 71
     3
 72
    12
 73
     8
 74
     0
 42
0.00000001
 43
0.00000001
 40
0.0
 40
0.0
 40
0.0
 40
0.0
 40
0.2499999999999993
 40
0.2499999999999993
 40
0.4999999999999986
 40
0.4999999999999986
 40
1.0
 40
1.0
 40
1.0
 40
1.0
 10
65.93604484086104
 20
121.541481106931
 30
0.0
 10
65.84755143329316
 20
121.4642312268227
 30
0.0
 10
65.7874933925273
 20
121.3709119029335
 30
0.0
 10
65.68164511954471
 20
121.174878849964
 30
0.0
 10
65.63911159826722
 20
121.0725524917523
 30
0.0
 10
65.52796029144359
 20
120.7612080859764
 30
0.0
 10
65.47502943439581
 20
120.5457898327984
 30
0.0
 10
65.43123678375261
 20
120.3251297150505
 30
0.0
  0
SPLINE
  5
A0
330
1F
100
AcDbEntity
  8
0
  6
Continuous
 62
     7
370
    15
100
AcDbSpline
210
0.0
220
0.0
230
1.0
 70
     8
 71
     3
 72
    12
 73
     8
 74
     0
 42
0.00000001
 43
0.00000001
 40
0.0
 40
0.0
 40
0.0
 40
0.0
 40
0.4999999999999997
 40
0.4999999999999997
 40
0.7499999999999998
 40
0.7499999999999998
 40
1.0
 40
1.0
 40
1.0
 40
1.0
 10
65.93604484086104
 20
121.541481106931
 30
0.0
 10
65.99235338915666
 20
121.5906353741749
 30
0.0
 10
66.06262804987479
 20
121.6325926927786
 30
0.0
 10
66.18066596419835
 20
121.643552370311
 30
0.0
 10
66.2208422050523
 20
121.6380436120637
 30
0.0
 10
66.29479929973023
 20
121.6124863832747
 30
0.0
 10
66.32741568744166
 20
121.5937063354354
 30
0.0
 10
66.35758023843741
 20
121.5715584869187
 30
0.0
  0
SPLINE
  5
A1
330
1F
100
AcDbEntity
  8
0
  6
Continuous
 62
     7
370
    15
100
AcDbSpline
210
0.0
220
0.0
230
1.0
 70
     8
 71
     3
 72
    16
 73
    12
 74
     0
 42
0.00000001
 43
0.00000001
 40
0.0
 40
0.0
 40
0.0
 40
0.0
 40
0.0625000000000007
 40
0.0625000000000007
 40
0.1250000000000014
 40
0.1250000000000014
 40
0.2500000000000007
 40
0.2500000000000007
 40
0.4999999999999993
 40
0.4999999999999993
 40
1.0
 40
1.0
 40
1.0
 40
1.0
 10
66.35758023840569
 20
121.5715584868642
 30
0.0
 10
66.36919313824504
 20
121.5630318972689
 30
0.0
 10
66.38254432267752
 20
121.5565316357361
 30
0.0
 10
66.41194416229668
 20
121.5549622386186
 30
0.0
 10
66.42678488685195
 20
121.5608456292492
 30
0.0
 10
66.46261809482054
 20
121.5893932652998
 30
0.0
 10
66.47673130264212
 20
121.6175602846055
 30
0.0
 10
66.511222673861
 20
121.7013145430275
 30
0.0
 10
66.52230674497139
 20
121.7590279566489
 30
0.0
 10
66.5484295627674
 20
121.9326184932948
 30
0.0
 10
66.55255712731227
 20
122.0476465459367
 30
0.0
 10
66.55255712731227
 20
122.1608427120395
 30
0.0
  0
LINE
  5
A2
330
1F
100
AcDbEntity
  8
0
  6
Continuous
 62
     7
370
    15
100
AcDbLine
 10
66.5525571324
 20
137.6787759084
 30
0.0
 11
66.5525571324
 21
122.1608426142
 31
0.0
  0
SPLINE
  5
A3
330
1F
100
AcDbEntity
  8
0
  6
Continuous
 62
     7
370
    15
100
AcDbSpline
210
0.0
220
0.0
230
1.0
 70
     8
 71
     3
 72
    16
 73
    12
 74
     0
 42
0.00000001
 43
0.00000001
 40
0.0
 40
0.0
 40
0.0
 40
0.0
 40
0.4999999999999957
 40
0.4999999999999957
 40
0.7499999999999936
 40
0.7499999999999936
 40
0.874999999999994
 40
0.874999999999994
 40
0.937499999999997
 40
0.937499999999997
 40
1.0
 40
1.0
 40
1.0
 40
1.0
 10
66.55255712731226
 20
137.1985498745307
 30
0.0
 10
66.55255712731226
 20
137.1738787184878
 30
0.0
 10
66.54839142885227
 20
137.1462968870966
 30
0.0
 10
66.52213310052734
 20
137.0959540162732
 30
0.0
 10
66.51062931878974
 20
137.0776645182113
 30
0.0
 10
66.47649855944324
 20
137.0465094871743
 30
0.0
 10
66.46207667277251
 20
137.0348701119626
 30
0.0
 10
66.42650970433469
 20
137.0179880860315
 30
0.0
 10
66.41155793604003
 20
137.0125989822238
 30
0.0
 10
66.38255411768027
 20
137.0059784862793
 30
0.0
 10
66.36913876367103
 20
137.0046258980729
 30
0.0
 10
66.35758023843444
 20
137.0043262742013
 30
0.0
  0
SPLINE
  5
A4
330
1F
100
AcDbEntity
  8
0
  6
Continuous
 62
     7
370
    15
100
AcDbSpline
210
0.0
220
0.0
230
1.0
 70
     8
 71
     3
 72
    12
 73
     8
 74
     0
 42
0.00000001
 43
0.00000001
 40
0.0
 40
0.0
 40
0.0
 40
0.0
 40
0.2500000000000004
 40
0.2500000000000004
 40
0.5000000000000004
 40
0.5000000000000004
 40
1.0
 40
1.0
 40
1.0
 40
1.0
 10
66.35758023844367
 20
137.004326274203
 30
0.0
 10
66.32739246189404
 20
137.0035437367854
 30
0.0
 10
66.29403865780235
 20
137.0026504049669
 30
0.0
 10
66.22091245460639
 20
137.0007230961633
 30
0.0
 10
66.18067725158222
 20
136.9996835649507
 30
0.0
 10
66.06298562144913
 20
136.9967656816034
 30
0.0
 10
65.99260494828907
 20
136.9951700755332
 30
0.0
 10
65.93604484085847
 20
136.9937490887653
 30
0.0
  0
SPLINE
  5
A5
330
1F
100
AcDbEntity
  8
0
  6
Continuous
 62
     7
370
    15
100
AcDbSpline
210
0.0
220
0.0
230
1.0
 70
     8
 71
     3
 72
    16
 73
    12
 74
     0
 42
0.00000001
 43
0.00000001
 40
0.0
 40
0.0
 40
0.0
 40
0.0
 40
0.25
 40
0.25
 40
0.375
 40
0.375
 40
0.5
 40
0.5
 40
0.75
 40
0.75
 40
1.0
 40
1.0
 40
1.0
 40
1.0
 10
65.43123678375262
 20
120.3251297150505
 30
0.0
 10
65.27000430626816
 20
119.5127199398037
 30
0.0
 10
65.14952446662853
 20
118.6726416454189
 30
0.0
 10
65.02714394931519
 20
117.3713465960562
 30
0.0
 10
64.99616628891775
 20
116.9306655604714
 30
0.0
 10
64.9545525512898
 20
116.0348259195403
 30
0.0
 10
64.94431663835698
 20
115.5881677883378
 30
0.0
 10
64.94412824130086
 20
114.2528578311979
 30
0.0
 10
64.98427294393848
 20
113.3683624578904
 30
0.0
 10
65.14842669887805
 20
111.6111125698644
 30
0.0
 10
65.26997834928761
 20
110.7653216234512
 30
0.0
 10
65.43123678375261
 20
109.9527810575284
 30
0.0
  0
LINE
  5
A6
330
1F
100
AcDbEntity
  8
0
  6
Continuous
 62
     7
370
    15
100
AcDbLine
 10
64.7575172563
 20
108.7512341048
 30
0.0
 11
65.9360448565
 21
108.7364298011
 31
0.0
  0
LINE
  5
A7
330
1F
100
AcDbEntity
  8
0
  6
Continuous
 62
     7
370
    15
100
AcDbLine
 10
64.7575172563
 20
121.5266766678
 30
0.0
 11
64.7575172563
 21
108.7512341048
 31
0.0
  0
LINE
  5
A8
330
1F
100
AcDbEntity
  8
0
  6
Continuous
 62
     7
370
    15
100
AcDbLine
 10
64.7575172563
 20
121.5266766678
 30
0.0
 11
65.9360448565
 21
121.5414809714
 31
0.0
  0
LINE
  5
A9
330
1F
100
AcDbEntity
  8
0
  6
Continuous
 62
     7
370
    15
100
AcDbLine
 10
64.5525571392
 20
121.6241335216
 30
0.0
 11
64.5525571392
 21
108.653777251
 31
0.0
  0
LINE
  5
AA
330
1F
100
AcDbEntity
  8
0
  6
Continuous
 62
     7
370
    15
100
AcDbLine
 10
30.2525576638
 20
109.0846447925
 30
0.0
 11
64.5525571392
 21
108.653777251
 31
0.0
  0
LINE
  5
AB
330
1F
100
AcDbEntity
  8
0
  6
Continuous
 62
     7
370
    15
100
AcDbLine
 10
30.2525576638
 20
121.19326598
 30
0.0
 11
30.2525576638
 21
109.0846447925
 31
0.0
  0
LINE
  5
AC
330
1F
100
AcDbEntity
  8
0
  6
Continuous
 62
     7
370
    15
100
AcDbLine
 10
30.2525576638
 20
121.19326598
 30
0.0
 11
64.5525571392
 21
121.6241335216
 31
0.0
  0
LWPOLYLINE
  5
AD
330
1F
100
AcDbEntity
  8
0
  6
Continuous
 62
     7
370
    15
100
AcDbPolyline
 90
        9
 70
   128
 43
0.0
 10
64.5525571392
 20
108.653777251
 10
64.557378829
 20
108.6732316482
 10
64.5696985969
 20
108.6918422672
 10
64.5890433309
 20
108.7088933866
 10
64.6146691372
 20
108.7237298209
 10
64.6455916078
 20
108.7357816006
 10
64.6806221423
 20
108.7445853929
 10
64.7184149796
 20
108.7498031277
 10
64.7575172563
 20
108.7512341048
  0
LWPOLYLINE
  5
AE
330
1F
100
AcDbEntity
  8
0
  6
Continuous
 62
     7
370
    15
100
AcDbPolyline
 90
        9
 70
   128
 43
0.0
 10
64.5525571392
 20
121.6241335216
 10
64.557378829
 20
121.6046791244
 10
64.5696985969
 20
121.5860685054
 10
64.5890433309
 20
121.569017386
 10
64.6146691372
 20
121.5541809517
 10
64.6455916078
 20
121.5421291719
 10
64.6806221423
 20
121.5333253796
 10
64.7184149796
 20
121.5281076449
 10
64.7575172563
 20
121.5266766678
  0
LINE
  5
AF
330
1F
100
AcDbEntity
  8
0
  6
Continuous
 62
     7
370
    15
100
AcDbLine
 10
28.7525583492
 20
109.5176576357
 30
0.0
 11
30.2525576638
 21
109.0846447925
 31
0.0
  0
LINE
  5
B0
330
1F
100
AcDbEntity
  8
0
  6
Continuous
 62
     7
370
    15
100
AcDbLine
 10
28.7525583492
 20
120.7602531369
 30
0.0
 11
28.7525583492
 21
109.5176576357
 31
0.0
  0
LINE
  5
B1
330
1F
100
AcDbEntity
  8
0
  6
Continuous
 62
     7
370
    15
100
AcDbLine
 10
28.7525583492
 20
120.7602531369
 30
0.0
 11
30.2525576638
 21
121.19326598
 31
0.0
  0
LINE
  5
B2
330
1F
100
AcDbEntity
  8
0
  6
Continuous
 62
     7
370
    15
100
AcDbLine
 10
30.2525576638
 20
121.19326598
 30
0.0
 11
30.2525576638
 21
136.2973190564
 31
0.0
  0
LINE
  5
B3
330
1F
100
AcDbEntity
  8
0
  6
Continuous
 62
     7
370
    15
100
AcDbLine
 10
30.2525576638
 20
136.2973190564
 30
0.0
 11
64.5525571392
 21
137.1590550709
 31
0.0
  0
LINE
  5
B4
330
1F
100
AcDbEntity
  8
0
  6
Continuous
 62
     7
370
    15
100
AcDbLine
 10
64.5525571392
 20
121.6241335216
 30
0.0
 11
64.5525571392
 21
137.1590550709
 31
0.0
  0
ARC
  5
B5
330
1F
100
AcDbEntity
  8
0
  6
Continuous
 62
     7
370
    15
100
AcDbCircle
 10
64.7524940382
 20
137.164077282
 30
0.0
 40
0.2000000000000066
100
AcDbArc
 50
181.4391666667
 51
271.4391666667
  0
LINE
  5
B6
330
1F
100
AcDbEntity
  8
0
  6
Continuous
 62
     7
370
    15
100
AcDbLine
 10
64.7575172563
 20
121.5266766678
 30
0.0
 11
64.7575172563
 21
136.9641404319
 31
0.0
  0
LINE
  5
B7
330
1F
100
AcDbEntity
  8
0
  6
Continuous
 62
     7
370
    15
100
AcDbLine
 10
30.2525576638
 20
93.9805917162
 30
0.0
 11
30.2525576638
 21
109.0846447925
 31
0.0
  0
LINE
  5
B8
330
1F
100
AcDbEntity
  8
0
  6
Continuous
 62
     7
370
    15
100
AcDbLine
 10
64.5525571392
 20
93.1188557017
 30
0.0
 11
64.5525571392
 21
108.653777251
 31
0.0
  0
LINE
  5
B9
330
1F
100
AcDbEntity
  8
0
  6
Continuous
 62
     7
370
    15
100
AcDbLine
 10
30.2525576638
 20
93.9805917162
 30
0.0
 11
64.5525571392
 21
93.1188557017
 31
0.0
  0
LINE
  5
BA
330
1F
100
AcDbEntity
  8
0
  6
Continuous
 62
     7
370
    15
100
AcDbLine
 10
64.7575172563
 20
93.3137703407
 30
0.0
 11
64.7575172563
 21
108.7512341048
 31
0.0
  0
ARC
  5
BB
330
1F
100
AcDbEntity
  8
0
  6
Continuous
 62
     7
370
    15
100
AcDbCircle
 10
64.7524940382
 20
93.1138334906
 30
0.0
 40
0.2000000000000063
100
AcDbArc
 50
88.5608333333
 51
178.5608333333
  0
LINE
  5
BC
330
1F
100
AcDbEntity
  8
0
  6
Continuous
 62
     7
370
    15
100
AcDbLine
 10
66.3575802257
 20
93.2735837716
 30
0.0
 11
66.3575802257
 21
108.7063522729
 31
0.0
  0
LINE
  5
BD
330
1F
100
AcDbEntity
  8
0
  6
Continuous
 62
     7
370
    15
100
AcDbLine
 10
66.3575802257
 20
121.5715584996
 30
0.0
 11
66.3575802257
 21
137.004327001
 31
0.0
  0
LINE
  5
BE
330
1F
100
AcDbEntity
  8
0
  6
Continuous
 62
     7
370
    15
100
AcDbLine
 10
64.7575172563
 20
136.9641404319
 30
0.0
 11
65.9360448565
 21
136.9937490392
 31
0.0
  0
LINE
  5
BF
330
1F
100
AcDbEntity
  8
0
  6
Continuous
 62
     7
370
    15
100
AcDbLine
 10
64.7575172563
 20
93.3137703407
 30
0.0
 11
65.9360448565
 21
93.2841617334
 31
0.0
  0
LINE
  5
C0
330
1F
100
AcDbEntity
  8
0
  6
Continuous
 62
     7
370
    15
100
AcDbLine
 10
28.7525583492
 20
135.4312933701
 30
0.0
 11
30.2525576638
 21
136.2973190564
 31
0.0
  0
LINE
  5
C1
330
1F
100
AcDbEntity
  8
0
  6
Continuous
 62
     7
370
    15
100
AcDbLine
 10
28.7525583492
 20
120.7602531369
 30
0.0
 11
28.7525583492
 21
135.4312933701
 31
0.0
  0
LINE
  5
C2
330
1F
100
AcDbEntity
  8
0
  6
Continuous
 62
     7
370
    15
100
AcDbLine
 10
28.7525583492
 20
94.8466174024
 30
0.0
 11
30.2525576638
 21
93.9805917162
 31
0.0
  0
LINE
  5
C3
330
1F
100
AcDbEntity
  8
0
  6
Continuous
 62
     7
370
    15
100
AcDbLine
 10
28.7525583492
 20
94.8466174024
 30
0.0
 11
28.7525583492
 21
109.5176576357
 31
0.0
  0
LINE
  5
C4
330
1F
100
AcDbEntity
  8
0
  6
Continuous
 62
     7
370
    15
100
AcDbLine
 10
67.0525571416
 20
83.6389548796
 30
0.0
 11
67.0525571416
 21
146.6389558929
 31
0.0
  0
LINE
  5
C5
330
1F
100
AcDbEntity
  8
0
  6
Continuous
 62
     7
370
    15
100
AcDbLine
 10
170.7525592731
 20
115.1389553863
 30
0.0
 11
170.7525592731
 21
83.6389548796
 31
0.0
  0
LINE
  5
C6
330
1F
100
AcDbEntity
  8
0
  6
Continuous
 62
     7
370
    15
100
AcDbLine
 10
170.7525592731
 20
146.6389558929
 30
0.0
 11
170.7525592731
 21
115.1389553863
 31
0.0
  0
CIRCLE
  5
C7
330
1F
100
AcDbEntity
  8
0
  6
HIDDEN
 62
     7
370
     0
100
AcDbCircle
 10
161.2525571273
 20
115.1389553863
 30
0.0
 40
3.5
  0
LINE
  5
C8
330
1F
100
AcDbEntity
  8
0
  6
HIDDEN
 62
     7
370
     0
100
AcDbLine
 10
161.2525549219
 20
136.1389551032
 30
0.0
 11
166.2525576041
 21
136.1389551032
 31
0.0
  0
LINE
  5
C9
330
1F
100
AcDbEntity
  8
0
  6
HIDDEN
 62
     7
370
     0
100
AcDbLine
 10
156.2525596903
 20
136.1389551032
 30
0.0
 11
161.2525549219
 21
136.1389551032
 31
0.0
  0
LINE
  5
CA
330
1F
100
AcDbEntity
  8
0
  6
HIDDEN
 62
     7
370
     0
100
AcDbLine
 10
161.2525549219
 20
134.6389557886
 30
0.0
 11
164.7525545643
 21
134.6389557886
 31
0.0
  0
LINE
  5
CB
330
1F
100
AcDbEntity
  8
0
  6
HIDDEN
 62
     7
370
     0
100
AcDbLine
 10
157.7525552796
 20
134.6389557886
 30
0.0
 11
161.2525549219
 21
134.6389557886
 31
0.0
  0
LINE
  5
CC
330
1F
100
AcDbEntity
  8
0
  6
HIDDEN
 62
     7
370
     0
100
AcDbLine
 10
161.2525549219
 20
146.160909878
 30
0.0
 11
166.2525576041
 21
146.160909878
 31
0.0
  0
LINE
  5
CD
330
1F
100
AcDbEntity
  8
0
  6
HIDDEN
 62
     7
370
     0
100
AcDbLine
 10
156.2525596903
 20
146.160909878
 30
0.0
 11
161.2525549219
 21
146.160909878
 31
0.0
  0
LINE
  5
CE
330
1F
100
AcDbEntity
  8
0
  6
HIDDEN
 62
     7
370
     0
100
AcDbLine
 10
163.7525599883
 20
140.6389549095
 30
0.0
 11
161.2525549219
 21
140.6389549095
 31
0.0
  0
LINE
  5
CF
330
1F
100
AcDbEntity
  8
0
  6
HIDDEN
 62
     7
370
     0
100
AcDbLine
 10
161.2525549219
 20
140.6389549095
 30
0.0
 11
161.2525549219
 21
146.6389558929
 31
0.0
  0
LINE
  5
D0
330
1F
100
AcDbEntity
  8
0
  6
HIDDEN
 62
     7
370
     0
100
AcDbLine
 10
158.7525573061
 20
140.6389549095
 30
0.0
 11
161.2525549219
 21
140.6389549095
 31
0.0
  0
LINE
  5
D1
330
1F
100
AcDbEntity
  8
0
  6
HIDDEN
 62
     7
370
     0
100
AcDbLine
 10
163.7525599883
 20
140.6389549095
 30
0.0
 11
163.7525599883
 21
146.6389558929
 31
0.0
  0
LINE
  5
D2
330
1F
100
AcDbEntity
  8
0
  6
HIDDEN
 62
     7
370
     0
100
AcDbLine
 10
158.7525573061
 20
140.6389549095
 30
0.0
 11
158.7525573061
 21
146.6389558929
 31
0.0
  0
CIRCLE
  5
D3
330
1F
100
AcDbEntity
  8
0
  6
HIDDEN
 62
     7
370
     0
100
AcDbCircle
 10
145.7525571273
 20
115.1389553863
 30
0.0
 40
3.5
  0
CIRCLE
  5
D4
330
1F
100
AcDbEntity
  8
0
  6
HIDDEN
 62
     7
370
     0
100
AcDbCircle
 10
130.2525571273
 20
115.1389553863
 30
0.0
 40
3.5
  0
LINE
  5
D5
330
1F
100
AcDbEntity
  8
0
  6
HIDDEN
 62
     7
370
     0
100
AcDbLine
 10
130.2525591539
 20
136.1389551032
 30
0.0
 11
135.2525543855
 21
136.1389551032
 31
0.0
  0
LINE
  5
D6
330
1F
100
AcDbEntity
  8
0
  6
HIDDEN
 62
     7
370
     0
100
AcDbLine
 10
125.2525564717
 20
136.1389551032
 30
0.0
 11
130.2525591539
 21
136.1389551032
 31
0.0
  0
LINE
  5
D7
330
1F
100
AcDbEntity
  8
0
  6
HIDDEN
 62
     7
370
     0
100
AcDbLine
 10
130.2525591539
 20
134.6389557886
 30
0.0
 11
133.7525587962
 21
134.6389557886
 31
0.0
  0
LINE
  5
D8
330
1F
100
AcDbEntity
  8
0
  6
HIDDEN
 62
     7
370
     0
100
AcDbLine
 10
126.7525557862
 20
134.6389557886
 30
0.0
 11
130.2525591539
 21
134.6389557886
 31
0.0
  0
LINE
  5
D9
330
1F
100
AcDbEntity
  8
0
  6
HIDDEN
 62
     7
370
     0
100
AcDbLine
 10
130.2525591539
 20
146.160909878
 30
0.0
 11
135.2525543855
 21
146.160909878
 31
0.0
  0
LINE
  5
DA
330
1F
100
AcDbEntity
  8
0
  6
HIDDEN
 62
     7
370
     0
100
AcDbLine
 10
125.2525564717
 20
146.160909878
 30
0.0
 11
130.2525591539
 21
146.160909878
 31
0.0
  0
LINE
  5
DB
330
1F
100
AcDbEntity
  8
0
  6
HIDDEN
 62
     7
370
     0
100
AcDbLine
 10
132.7525567697
 20
140.6389549095
 30
0.0
 11
130.2525591539
 21
140.6389549095
 31
0.0
  0
LINE
  5
DC
330
1F
100
AcDbEntity
  8
0
  6
HIDDEN
 62
     7
370
     0
100
AcDbLine
 10
127.7525578128
 20
140.6389549095
 30
0.0
 11
130.2525591539
 21
140.6389549095
 31
0.0
  0
LINE
  5
DD
330
1F
100
AcDbEntity
  8
0
  6
HIDDEN
 62
     7
370
     0
100
AcDbLine
 10
130.2525591539
 20
140.6389549095
 30
0.0
 11
130.2525591539
 21
146.6389558929
 31
0.0
  0
LINE
  5
DE
330
1F
100
AcDbEntity
  8
0
  6
HIDDEN
 62
     7
370
     0
100
AcDbLine
 10
132.7525567697
 20
140.6389549095
 30
0.0
 11
132.7525567697
 21
146.6389558929
 31
0.0
  0
LINE
  5
DF
330
1F
100
AcDbEntity
  8
0
  6
HIDDEN
 62
     7
370
     0
100
AcDbLine
 10
127.7525578128
 20
140.6389549095
 30
0.0
 11
127.7525578128
 21
146.6389558929
 31
0.0
  0
LINE
  5
E0
330
1F
100
AcDbEntity
  8
0
  6
HIDDEN
 62
     7
370
     0
100
AcDbLine
 10
145.7525607632
 20
136.1389551032
 30
0.0
 11
150.7525559948
 21
136.1389551032
 31
0.0
  0
LINE
  5
E1
330
1F
100
AcDbEntity
  8
0
  6
HIDDEN
 62
     7
370
     0
100
AcDbLine
 10
140.752558081
 20
136.1389551032
 30
0.0
 11
145.7525607632
 21
136.1389551032
 31
0.0
  0
LINE
  5
E2
330
1F
100
AcDbEntity
  8
0
  6
HIDDEN
 62
     7
370
     0
100
AcDbLine
 10
145.7525607632
 20
134.6389557886
 30
0.0
 11
149.2525604056
 21
134.6389557886
 31
0.0
  0
LINE
  5
E3
330
1F
100
AcDbEntity
  8
0
  6
HIDDEN
 62
     7
370
     0
100
AcDbLine
 10
142.2525536702
 20
134.6389557886
 30
0.0
 11
145.7525607632
 21
134.6389557886
 31
0.0
  0
LINE
  5
E4
330
1F
100
AcDbEntity
  8
0
  6
HIDDEN
 62
     7
370
     0
100
AcDbLine
 10
145.7525607632
 20
146.160909878
 30
0.0
 11
150.7525559948
 21
146.160909878
 31
0.0
  0
LINE
  5
E5
330
1F
100
AcDbEntity
  8
0
  6
HIDDEN
 62
     7
370
     0
100
AcDbLine
 10
140.752558081
 20
146.160909878
 30
0.0
 11
145.7525607632
 21
146.160909878
 31
0.0
  0
LINE
  5
E6
330
1F
100
AcDbEntity
  8
0
  6
HIDDEN
 62
     7
370
     0
100
AcDbLine
 10
148.252558379
 20
140.6389549095
 30
0.0
 11
145.7525607632
 21
140.6389549095
 31
0.0
  0
LINE
  5
E7
330
1F
100
AcDbEntity
  8
0
  6
HIDDEN
 62
     7
370
     0
100
AcDbLine
 10
145.7525607632
 20
140.6389549095
 30
0.0
 11
145.7525607632
 21
146.6389558929
 31
0.0
  0
LINE
  5
E8
330
1F
100
AcDbEntity
  8
0
  6
HIDDEN
 62
     7
370
     0
100
AcDbLine
 10
143.2525556968
 20
140.6389549095
 30
0.0
 11
145.7525607632
 21
140.6389549095
 31
0.0
  0
LINE
  5
E9
330
1F
100
AcDbEntity
  8
0
  6
HIDDEN
 62
     7
370
     0
100
AcDbLine
 10
148.252558379
 20
140.6389549095
 30
0.0
 11
148.252558379
 21
146.6389558929
 31
0.0
  0
LINE
  5
EA
330
1F
100
AcDbEntity
  8
0
  6
HIDDEN
 62
     7
370
     0
100
AcDbLine
 10
143.2525556968
 20
140.6389549095
 30
0.0
 11
143.2525556968
 21
146.6389558929
 31
0.0
  0
SPLINE
  5
EB
330
1F
100
AcDbEntity
  8
0
  6
HIDDEN
 62
     7
370
     0
100
AcDbSpline
210
0.0
220
0.0
230
1.0
 70
     8
 71
     3
 72
     9
 73
     5
 74
     0
 42
0.00000001
 43
0.00000001
 40
0.0
 40
0.0
 40
0.0
 40
0.0
 40
0.3547925647816709
 40
1.0
 40
1.0
 40
1.0
 40
1.0
 10
76.77942369742735
 20
114.8898254916343
 30
0.0
 10
76.76639484310662
 20
114.9729936333354
 30
0.0
 10
76.72967238718722
 20
115.2074070623552
 30
0.0
 10
76.79002640402204
 20
115.4388451410318
 30
0.0
 10
76.82896726442917
 20
115.5881707101865
 30
0.0
  0
LINE
  5
EC
330
1F
100
AcDbEntity
  8
0
  6
HIDDEN
 62
     7
370
     0
100
AcDbLine
 10
160.9912630604
 20
146.3220715243
 30
0.0
 11
162.1456634687
 21
146.3307067472
 31
0.0
  0
LINE
  5
ED
330
1F
100
AcDbEntity
  8
0
  6
HIDDEN
 62
     7
370
     0
100
AcDbLine
 10
145.4912689017
 20
146.3220715243
 30
0.0
 11
146.6456693099
 21
146.3307067472
 31
0.0
  0
LINE
  5
EE
330
1F
100
AcDbEntity
  8
0
  6
HIDDEN
 62
     7
370
     0
100
AcDbLine
 10
129.9912672923
 20
146.3220715243
 30
0.0
 11
131.1456677006
 21
146.3307067472
 31
0.0
  0
LINE
  5
EF
330
1F
100
AcDbEntity
  8
0
  6
HIDDEN
 62
     7
370
     0
100
AcDbLine
 10
66.8454503477
 20
90.9818485099
 30
0.0
 11
66.8454503477
 21
139.2748728114
 31
0.0
  0
SPLINE
  5
F0
330
1F
100
AcDbEntity
  8
0
  6
HIDDEN
 62
     7
370
     0
100
AcDbSpline
210
0.0
220
0.0
230
1.0
 70
     8
 71
     3
 72
    12
 73
     8
 74
     0
 42
0.00000001
 43
0.00000001
 40
0.0
 40
0.0
 40
0.0
 40
0.0
 40
0.5000000000000002
 40
0.5000000000000002
 40
0.7500000000000003
 40
0.7500000000000003
 40
1.0
 40
1.0
 40
1.0
 40
1.0
 10
65.93604484086524
 20
130.5912233681203
 30
0.0
 10
65.99245101954548
 20
130.5434009944605
 30
0.0
 10
66.06261392101727
 20
130.503130147522
 30
0.0
 10
66.18062463440644
 20
130.495084279045
 30
0.0
 10
66.22083041800192
 20
130.5016468773839
 30
0.0
 10
66.29455111473496
 20
130.5290289718375
 30
0.0
 10
66.32741183652148
 20
130.5487904623678
 30
0.0
 10
66.35758023845075
 20
130.5717231735559
 30
0.0
  0
SPLINE
  5
F1
330
1F
100
AcDbEntity
  8
0
  6
HIDDEN
 62
     7
370
     0
100
AcDbSpline
210
0.0
220
0.0
230
1.0
 70
     8
 71
     3
 72
    16
 73
    12
 74
     0
 42
0.00000001
 43
0.00000001
 40
0.0
 40
0.0
 40
0.0
 40
0.0
 40
0.062499999999997
 40
0.062499999999997
 40
0.1249999999999939
 40
0.1249999999999939
 40
0.2499999999999978
 40
0.2499999999999978
 40
0.4999999999999951
 40
0.4999999999999951
 40
1.0
 40
1.0
 40
1.0
 40
1.0
 10
66.35758023840562
 20
130.571723173604
 30
0.0
 10
66.36919313824497
 20
130.5805507965854
 30
0.0
 10
66.38254432267743
 20
130.5883851784673
 30
0.0
 10
66.41194416229659
 20
130.5966953045397
 30
0.0
 10
66.42678488685189
 20
130.5961994853047
 30
0.0
 10
66.46261809482051
 20
130.5847485143353
 30
0.0
 10
66.4767313026421
 20
130.5680680134766
 30
0.0
 10
66.511222673861
 20
130.5159473277196
 30
0.0
 10
66.52230674497139
 20
130.4761578336946
 30
0.0
 10
66.5484295627674
 20
130.3528212015975
 30
0.0
 10
66.55255712731227
 20
130.2653997910988
 30
0.0
 10
66.55255712731227
 20
130.1766625487806
 30
0.0
  0
SPLINE
  5
F2
330
1F
100
AcDbEntity
  8
0
  6
HIDDEN
 62
     7
370
     0
100
AcDbSpline
210
0.0
220
0.0
230
1.0
 70
     8
 71
     3
 72
    15
 73
    11
 74
     0
 42
0.00000001
 43
0.00000001
 40
0.0
 40
0.0
 40
0.0
 40
0.0
 40
0.4756598397435939
 40
0.6197664463558923
 40
0.7647142304627103
 40
0.8278547603240695
 40
0.8680528717846037
 40
0.9085471661236465
 40
0.9442069332636382
 40
1.0
 40
1.0
 40
1.0
 40
1.0
 10
66.5367426929711
 20
99.96557419181714
 30
0.0
 10
66.53513538658767
 20
99.90338949328418
 30
0.0
 10
66.53304112829164
 20
99.8223652267658
 30
0.0
 10
66.49679198950619
 20
99.73770583835348
 30
0.0
 10
66.47179413907958
 20
99.70242160051129
 30
0.0
 10
66.44272427722717
 20
99.68557014259108
 30
0.0
 10
66.42085963618764
 20
99.68141221650103
 30
0.0
 10
66.40071035020065
 20
99.68364069300983
 30
0.0
 10
66.37839291086986
 20
99.69178560388467
 30
0.0
 10
66.36546637757209
 20
99.70073066199025
 30
0.0
 10
66.3575802257233
 20
99.70618781627068
 30
0.0
  0
SPLINE
  5
F3
330
1F
100
AcDbEntity
  8
0
  6
HIDDEN
 62
     7
370
     0
100
AcDbSpline
210
0.0
220
0.0
230
1.0
 70
     8
 71
     3
 72
    12
 73
     8
 74
     0
 42
0.00000001
 43
0.00000001
 40
0.0
 40
0.0
 40
0.0
 40
0.0
 40
0.2500000000000004
 40
0.2500000000000004
 40
0.5000000000000008
 40
0.5000000000000008
 40
1.0
 40
1.0
 40
1.0
 40
1.0
 10
66.35758023844367
 20
99.70618759901484
 30
0.0
 10
66.32738839672648
 20
99.72913812811265
 30
0.0
 10
66.29402942731186
 20
99.74910760213685
 30
0.0
 10
66.22089214273127
 20
99.77620873576234
 30
0.0
 10
66.18065027007731
 20
99.78280947640775
 30
0.0
 10
66.06294449310879
 20
99.77484060190105
 30
0.0
 10
65.9925340153294
 20
99.73458014373321
 30
0.0
 10
65.9360448408611
 20
99.68668740445504
 30
0.0
  0
SPLINE
  5
F4
330
1F
100
AcDbEntity
  8
0
  6
HIDDEN
 62
     7
370
     0
100
AcDbSpline
210
0.0
220
0.0
230
1.0
 70
     8
 71
     3
 72
    12
 73
     8
 74
     0
 42
0.00000001
 43
0.00000001
 40
0.0
 40
0.0
 40
0.0
 40
0.0
 40
0.2499999999999996
 40
0.2499999999999996
 40
0.4999999999999991
 40
0.4999999999999991
 40
1.0
 40
1.0
 40
1.0
 40
1.0
 10
65.93604484086075
 20
99.68668740445526
 30
0.0
 10
65.847890903123
 20
99.61194859660118
 30
0.0
 10
65.78753747849427
 20
99.52096809611879
 30
0.0
 10
65.68127552042743
 20
99.33205427336618
 30
0.0
 10
65.63904335386536
 20
99.2355498138256
 30
0.0
 10
65.52797265854818
 20
98.94478205965845
 30
0.0
 10
65.47503588212139
 20
98.74911524511471
 30
0.0
 10
65.4312367837526
 20
98.5550487600484
 30
0.0
  0
LINE
  5
F5
330
1F
100
AcDbEntity
  8
0
  6
HIDDEN
 62
     7
370
     0
100
AcDbLine
 10
65.4312368217
 20
98.5550488997
 30
0.0
 11
65.4312368217
 21
93.3688748348
 31
0.0
  0
SPLINE
  5
F6
330
1F
100
AcDbEntity
  8
0
  6
HIDDEN
 62
     7
370
     0
100
AcDbSpline
210
0.0
220
0.0
230
1.0
 70
     8
 71
     3
 72
    12
 73
     8
 74
     0
 42
0.00000001
 43
0.00000001
 40
0.0
 40
0.0
 40
0.0
 40
0.0
 40
0.5
 40
0.5
 40
0.75
 40
0.75
 40
1.0
 40
1.0
 40
1.0
 40
1.0
 10
65.43123678375261
 20
93.36887443128732
 30
0.0
 10
65.47498332458919
 20
93.34228026064618
 30
0.0
 10
65.52786767982069
 20
93.32252003532044
 30
0.0
 10
65.63943476715686
 20
93.30206904509136
 30
0.0
 10
65.68201836369984
 20
93.2968088204349
 30
0.0
 10
65.78693509078165
 20
93.28892602651226
 30
0.0
 10
65.84846869862645
 20
93.28636190133312
 30
0.0
 10
65.93604484085259
 20
93.28416168381347
 30
0.0
  0
SPLINE
  5
F7
330
1F
100
AcDbEntity
  8
0
  6
HIDDEN
 62
     7
370
     0
100
AcDbSpline
210
0.0
220
0.0
230
1.0
 70
     8
 71
     3
 72
    12
 73
     8
 74
     0
 42
0.00000001
 43
0.00000001
 40
0.0
 40
0.0
 40
0.0
 40
0.0
 40
0.2500000000000004
 40
0.2500000000000004
 40
0.5000000000000009
 40
0.5000000000000009
 40
1.0
 40
1.0
 40
1.0
 40
1.0
 10
65.93604484086056
 20
136.9937490887654
 30
0.0
 10
65.84736018100419
 20
136.9915210214244
 30
0.0
 10
65.78744176528079
 20
136.989019237394
 30
0.0
 10
65.68178253796005
 20
136.981087801558
 30
0.0
 10
65.63914129984511
 20
136.9757956466612
 30
0.0
 10
65.52795195774256
 20
136.955390706174
 30
0.0
 10
65.47502527562159
 20
136.9356560145872
 30
0.0
 10
65.43123678375261
 20
136.9090363412916
 30
0.0
  0
LINE
  5
F8
330
1F
100
AcDbEntity
  8
0
  6
HIDDEN
 62
     7
370
     0
100
AcDbLine
 10
65.4312368217
 20
136.9090359378
 30
0.0
 11
65.4312368217
 21
131.7228618729
 31
0.0
  0
SPLINE
  5
F9
330
1F
100
AcDbEntity
  8
0
  6
HIDDEN
 62
     7
370
     0
100
AcDbSpline
210
0.0
220
0.0
230
1.0
 70
     8
 71
     3
 72
    12
 73
     8
 74
     0
 42
0.00000001
 43
0.00000001
 40
0.0
 40
0.0
 40
0.0
 40
0.0
 40
0.500000000000006
 40
0.500000000000006
 40
0.7500000000000043
 40
0.7500000000000043
 40
1.0
 40
1.0
 40
1.0
 40
1.0
 10
65.43123678375105
 20
131.7228620125307
 30
0.0
 10
65.47499826004977
 20
131.5289622245686
 30
0.0
 10
65.52790457570282
 20
131.3331058606317
 30
0.0
 10
65.63961577335019
 20
131.0409637141328
 30
0.0
 10
65.68213521693657
 20
130.9442457774348
 30
0.0
 10
65.78725855950398
 20
130.7575213410104
 30
0.0
 10
65.84882452322167
 20
130.6651706327407
 30
0.0
 10
65.93604484086441
 20
130.591223368121
 30
0.0
  0
LINE
  5
FA
330
1F
100
AcDbEntity
  8
0
  6
HIDDEN
 62
     7
370
     0
100
AcDbLine
 10
109.0050790892
 20
115.1389553863
 30
0.0
 11
109.0050790892
 21
94.1389556694
 31
0.0
  0
LINE
  5
FB
330
1F
100
AcDbEntity
  8
0
  6
HIDDEN
 62
     7
370
     0
100
AcDbLine
 10
109.0050790892
 20
136.1389551032
 30
0.0
 11
109.0050790892
 21
115.1389553863
 31
0.0
  0
LINE
  5
FC
330
1F
100
AcDbEntity
  8
0
  6
HIDDEN
 62
     7
370
     0
100
AcDbLine
 10
111.7525589155
 20
115.1389553863
 30
0.0
 11
111.7525589155
 21
95.1389558333
 31
0.0
  0
LINE
  5
FD
330
1F
100
AcDbEntity
  8
0
  6
HIDDEN
 62
     7
370
     0
100
AcDbLine
 10
111.7525589155
 20
135.1389549393
 30
0.0
 11
111.7525589155
 21
115.1389553863
 31
0.0
  0
LINE
  5
FE
330
1F
100
AcDbEntity
  8
0
  6
HIDDEN
 62
     7
370
     0
100
AcDbLine
 10
106.1525572525
 20
136.1178103554
 30
0.0
 11
106.1525572525
 21
94.1601004171
 31
0.0
  0
LINE
  5
FF
330
1F
100
AcDbEntity
  8
0
  6
HIDDEN
 62
     7
370
     0
100
AcDbLine
 10
105.752557932
 20
115.1389553863
 30
0.0
 11
105.752557932
 21
94.5389549899
 31
0.0
  0
LINE
  5
100
330
1F
100
AcDbEntity
  8
0
  6
HIDDEN
 62
     7
370
     0
100
AcDbLine
 10
105.752557932
 20
135.7389557827
 30
0.0
 11
105.752557932
 21
115.1389553863
 31
0.0
  0
LINE
  5
101
330
1F
100
AcDbEntity
  8
0
  6
HIDDEN
 62
     7
370
     0
100
AcDbLine
 10
171.2525602864
 20
135.1389549393
 30
0.0
 11
171.2525602864
 21
95.1389558333
 31
0.0
  0
SPLINE
  5
102
330
1F
100
AcDbEntity
  8
0
  6
HIDDEN
 62
     7
370
     0
100
AcDbSpline
210
0.0
220
0.0
230
1.0
 70
     8
 71
     3
 72
    12
 73
     8
 74
     0
 42
0.00000001
 43
0.00000001
 40
0.0
 40
0.0
 40
0.0
 40
0.0
 40
0.2111168680268751
 40
0.4221027664818962
 40
0.6364759329327274
 40
0.8531927388279812
 40
1.0
 40
1.0
 40
1.0
 40
1.0
 10
161.2525549219404
 20
134.6261314767684
 30
0.0
 10
160.7539837916658
 20
134.6375911435108
 30
0.0
 10
159.7571508273282
 20
134.6605033678165
 30
0.0
 10
158.4210439709899
 20
134.8206422713685
 30
0.0
 10
157.4059882525931
 20
134.9959876617465
 30
0.0
 10
156.8138985352576
 20
135.124994461562
 30
0.0
 10
156.8087737073031
 20
135.1263438005883
 30
0.0
 10
156.8067040727888
 20
135.1268887239779
 30
0.0
  0
LINE
  5
103
330
1F
100
AcDbEntity
  8
0
  6
HIDDEN
 62
     7
370
     0
100
AcDbLine
 10
161.1631926583
 20
134.6389557886
 30
0.0
 11
161.8762355731
 21
134.6449497807
 31
0.0
  0
SPLINE
  5
104
330
1F
100
AcDbEntity
  8
0
  6
HIDDEN
 62
     7
370
     0
100
AcDbSpline
210
0.0
220
0.0
230
1.0
 70
     8
 71
     3
 72
    12
 73
     8
 74
     0
 42
0.00000001
 43
0.00000001
 40
0.0
 40
0.0
 40
0.0
 40
0.0
 40
0.1917433368860927
 40
0.4012686310951193
 40
0.6150034615645965
 40
0.8316935264461534
 40
1.0
 40
1.0
 40
1.0
 40
1.0
 10
165.7329019592558
 20
135.1346205639923
 30
0.0
 10
165.7007938913809
 20
135.1271911904815
 30
0.0
 10
165.633600106958
 20
135.1116434557491
 30
0.0
 10
164.9388107020557
 20
134.9648486632486
 30
0.0
 10
163.857911129997
 20
134.7876339001871
 30
0.0
 10
162.5574194788317
 20
134.6499909148783
 30
0.0
 10
161.6494751397541
 20
134.6333891598141
 30
0.0
 10
161.2525549219404
 20
134.6261314767683
 30
0.0
  0
SPLINE
  5
105
330
1F
100
AcDbEntity
  8
0
  6
HIDDEN
 62
     7
370
     0
100
AcDbSpline
210
0.0
220
0.0
230
1.0
 70
     8
 71
     3
 72
    12
 73
     8
 74
     0
 42
0.00000001
 43
0.00000001
 40
0.0
 40
0.0
 40
0.0
 40
0.0
 40
0.2111177617404471
 40
0.4221035132623162
 40
0.6364765304210604
 40
0.8531927736567749
 40
1.0
 40
1.0
 40
1.0
 40
1.0
 10
145.7525607631956
 20
134.6261314767683
 30
0.0
 10
145.253986990339
 20
134.6375910674585
 30
0.0
 10
144.2571511987491
 20
134.6605030832501
 30
0.0
 10
142.9210432421289
 20
134.8206422957415
 30
0.0
 10
141.9059839021539
 20
134.9959874731815
 30
0.0
 10
141.3139086886383
 20
135.1249945438738
 30
0.0
 10
141.3087754838378
 20
135.1263438237211
 30
0.0
 10
141.3067024634634
 20
135.1268887239779
 30
0.0
  0
LINE
  5
106
330
1F
100
AcDbEntity
  8
0
  6
HIDDEN
 62
     7
370
     0
100
AcDbLine
 10
145.6631910489
 20
134.6389557886
 30
0.0
 11
146.3762339638
 21
134.6449497807
 31
0.0
  0
SPLINE
  5
107
330
1F
100
AcDbEntity
  8
0
  6
HIDDEN
 62
     7
370
     0
100
AcDbSpline
210
0.0
220
0.0
230
1.0
 70
     8
 71
     3
 72
    12
 73
     8
 74
     0
 42
0.00000001
 43
0.00000001
 40
0.0
 40
0.0
 40
0.0
 40
0.0
 40
0.191743519771148
 40
0.401269013825685
 40
0.615004048155734
 40
0.8316933659152101
 40
1.0
 40
1.0
 40
1.0
 40
1.0
 10
150.2329003499304
 20
135.1346205639923
 30
0.0
 10
150.2007922750213
 20
135.1271911940298
 30
0.0
 10
150.1335984758777
 20
135.1116434667233
 30
0.0
 10
149.4388091900607
 20
134.9648486141503
 30
0.0
 10
148.3579107574297
 20
134.7876343531019
 30
0.0
 10
147.0574234766143
 20
134.6499906884191
 30
0.0
 10
146.149481104476
 20
134.6333891034395
 30
0.0
 10
145.7525607631956
 20
134.6261314767683
 30
0.0
  0
SPLINE
  5
108
330
1F
100
AcDbEntity
  8
0
  6
HIDDEN
 62
     7
370
     0
100
AcDbSpline
210
0.0
220
0.0
230
1.0
 70
     8
 71
     3
 72
    12
 73
     8
 74
     0
 42
0.00000001
 43
0.00000001
 40
0.0
 40
0.0
 40
0.0
 40
0.0
 40
0.2111173148841165
 40
0.4221031398728547
 40
0.6364762316779401
 40
0.8531927562431081
 40
1.0
 40
1.0
 40
1.0
 40
1.0
 10
130.2525591538702
 20
134.6261314767683
 30
0.0
 10
129.7539867023048
 20
134.6375911054847
 30
0.0
 10
128.7571523243411
 20
134.6605032255332
 30
0.0
 10
127.4210449178612
 20
134.820642283555
 30
0.0
 10
126.4059873886777
 20
134.9959875674637
 30
0.0
 10
125.8139049232517
 20
135.1249945027178
 30
0.0
 10
125.8087759068722
 20
135.1263438121546
 30
0.0
 10
125.8067045794283
 20
135.1268887239779
 30
0.0
  0
LINE
  5
109
330
1F
100
AcDbEntity
  8
0
  6
HIDDEN
 62
     7
370
     0
100
AcDbLine
 10
130.1631894396
 20
134.6389557886
 30
0.0
 11
130.8762398051
 21
134.6449497807
 31
0.0
  0
SPLINE
  5
10A
330
1F
100
AcDbEntity
  8
0
  6
HIDDEN
 62
     7
370
     0
100
AcDbSpline
210
0.0
220
0.0
230
1.0
 70
     8
 71
     3
 72
    12
 73
     8
 74
     0
 42
0.00000001
 43
0.00000001
 40
0.0
 40
0.0
 40
0.0
 40
0.0
 40
0.1917436360752801
 40
0.401269099980129
 40
0.6150041035547577
 40
0.8316933901337069
 40
0.9999999999999999
 40
0.9999999999999999
 40
0.9999999999999999
 40
0.9999999999999999
 10
134.7329061911855
 20
135.1346205639923
 30
0.0
 10
134.7007950398365
 20
135.12719120345
 30
0.0
 10
134.6335948288419
 20
135.1116435019498
 30
0.0
 10
133.9388082057542
 20
134.9648486139002
 30
0.0
 10
132.8579089760104
 20
134.7876343531708
 30
0.0
 10
131.5574218994938
 20
134.6499906884062
 30
0.0
 10
130.6494795049468
 20
134.6333891034355
 30
0.0
 10
130.2525591538702
 20
134.6261314767684
 30
0.0
  0
LINE
  5
10B
330
1F
100
AcDbEntity
  8
0
  6
HIDDEN
 62
     7
370
     0
100
AcDbLine
 10
130.2525591539
 20
119.6389551926
 30
0.0
 11
129.9937036322
 21
119.595545316
 31
0.0
  0
SPLINE
  5
10C
330
1F
100
AcDbEntity
  8
0
  6
HIDDEN
 62
     7
370
     0
100
AcDbSpline
210
0.0
220
0.0
230
1.0
 70
     8
 71
     3
 72
     9
 73
     5
 74
     0
 42
0.00000001
 43
0.00000001
 40
0.0
 40
0.0
 40
0.0
 40
0.0
 40
0.9576001709828998
 40
1.0
 40
1.0
 40
1.0
 40
1.0
 10
129.9650710509573
 20
110.6876139248992
 30
0.0
 10
130.3772947497878
 20
110.6409060270029
 30
0.0
 10
130.8077705488965
 20
110.5921300354026
 30
0.0
 10
131.195215012768
 20
110.7444233207776
 30
0.0
 10
131.2116425917898
 20
110.750880530038
 30
0.0
  0
LINE
  5
10D
330
1F
100
AcDbEntity
  8
0
  6
HIDDEN
 62
     7
370
     0
100
AcDbLine
 10
130.9615787552
 20
119.5445833448
 30
0.0
 11
130.2525591539
 21
119.6389551926
 31
0.0
  0
LINE
  5
10E
330
1F
100
AcDbEntity
  8
0
  6
HIDDEN
 62
     7
370
     0
100
AcDbLine
 10
161.2525549219
 20
119.6389551926
 30
0.0
 11
160.9936994003
 21
119.595545316
 31
0.0
  0
SPLINE
  5
10F
330
1F
100
AcDbEntity
  8
0
  6
HIDDEN
 62
     7
370
     0
100
AcDbSpline
210
0.0
220
0.0
230
1.0
 70
     8
 71
     3
 72
     9
 73
     5
 74
     0
 42
0.00000001
 43
0.00000001
 40
0.0
 40
0.0
 40
0.0
 40
0.0
 40
0.631968172380724
 40
0.9999999999999999
 40
0.9999999999999999
 40
0.9999999999999999
 40
0.9999999999999999
 10
160.9650742696081
 20
110.6876139248992
 30
0.0
 10
161.3728248224936
 20
110.6618067072865
 30
0.0
 10
162.0180322406922
 20
110.6209704456825
 30
0.0
 10
162.5980386763379
 20
110.8847987960357
 30
0.0
 10
162.8114995048795
 20
110.9818960259939
 30
0.0
  0
LINE
  5
110
330
1F
100
AcDbEntity
  8
0
  6
HIDDEN
 62
     7
370
     0
100
AcDbLine
 10
161.9615819739
 20
119.5445833448
 30
0.0
 11
161.2525549219
 21
119.6389551926
 31
0.0
  0
LINE
  5
111
330
1F
100
AcDbEntity
  8
0
  6
HIDDEN
 62
     7
370
     0
100
AcDbLine
 10
145.7525607632
 20
119.6389551926
 30
0.0
 11
145.4936977909
 21
119.595545316
 31
0.0
  0
SPLINE
  5
112
330
1F
100
AcDbEntity
  8
0
  6
HIDDEN
 62
     7
370
     0
100
AcDbSpline
210
0.0
220
0.0
230
1.0
 70
     8
 71
     3
 72
     9
 73
     5
 74
     0
 42
0.00000001
 43
0.00000001
 40
0.0
 40
0.0
 40
0.0
 40
0.0
 40
0.631968172380724
 40
0.9999999999999999
 40
0.9999999999999999
 40
0.9999999999999999
 40
0.9999999999999999
 10
145.4650726602827
 20
110.6876139248992
 30
0.0
 10
145.8728232131681
 20
110.6618067072865
 30
0.0
 10
146.5180306313668
 20
110.6209704456825
 30
0.0
 10
147.0980370670125
 20
110.8847987960357
 30
0.0
 10
147.3114978955541
 20
110.9818960259939
 30
0.0
  0
LINE
  5
113
330
1F
100
AcDbEntity
  8
0
  6
HIDDEN
 62
     7
370
     0
100
AcDbLine
 10
146.4615803645
 20
119.5445833448
 30
0.0
 11
145.7525607632
 21
119.6389551926
 31
0.0
  0
CIRCLE
  5
114
330
1F
100
AcDbEntity
  8
0
  6
HIDDEN
 62
     7
370
     0
100
AcDbCircle
 10
51.2525571273
 20
115.1389553863
 30
0.0
 40
4.049999999999997
  0
LINE
  5
115
330
1F
100
AcDbEntity
  8
0
  6
HIDDEN
 62
     7
370
     0
100
AcDbLine
 10
30.2827846692
 20
99.8260043281
 30
0.0
 11
30.2827846692
 21
130.4519064444
 31
0.0
  0
LINE
  5
116
330
1F
100
AcDbEntity
  8
0
  6
HIDDEN
 62
     7
370
     0
100
AcDbLine
 10
39.7543576048
 20
99.1389546263
 30
0.0
 11
39.7543576048
 21
131.117740618
 31
0.0
  0
LINE
  5
117
330
1F
100
AcDbEntity
  8
0
  6
HIDDEN
 62
     7
370
     0
100
AcDbLine
 10
41.168572797
 20
99.7247416246
 30
0.0
 11
41.168572797
 21
130.553169148
 31
0.0
  0
LINE
  5
118
330
1F
100
AcDbEntity
  8
0
  6
HIDDEN
 62
     7
370
     0
100
AcDbLine
 10
38.752556263
 20
99.1389546263
 30
0.0
 11
38.752556263
 21
131.117740618
 31
0.0
  0
LINE
  5
119
330
1F
100
AcDbEntity
  8
0
  6
HIDDEN
 62
     7
370
     0
100
AcDbLine
 10
36.7827848033
 20
100.7925448659
 30
0.0
 11
36.7827848033
 21
129.4853659067
 31
0.0
  0
LINE
  5
11A
330
1F
100
AcDbEntity
  8
0
  6
HIDDEN
 62
     7
370
     0
100
AcDbLine
 10
42.5827861266
 20
101.1389549542
 30
0.0
 11
42.5827861266
 21
129.1389558184
 31
0.0
  0
LINE
  5
11B
330
1F
100
AcDbEntity
  8
0
  6
HIDDEN
 62
     7
370
     0
100
AcDbLine
 10
35.1827856587
 20
101.1389549542
 30
0.0
 11
35.1827856587
 21
129.1389558184
 31
0.0
  0
LINE
  5
11C
330
1F
100
AcDbEntity
  8
0
  6
HIDDEN
 62
     7
370
     0
100
AcDbLine
 10
36.1827858226
 20
101.1389549542
 30
0.0
 11
36.1827858226
 21
129.1389558184
 31
0.0
  0
LINE
  5
11D
330
1F
100
AcDbEntity
  8
0
  6
HIDDEN
 62
     7
370
     0
100
AcDbLine
 10
55.252557105
 20
114.5045265159
 30
0.0
 11
55.252557105
 21
101.1612945888
 31
0.0
  0
LINE
  5
11E
330
1F
100
AcDbEntity
  8
0
  6
HIDDEN
 62
     7
370
     0
100
AcDbLine
 10
55.252557105
 20
115.7733842567
 30
0.0
 11
55.252557105
 21
129.1166161838
 31
0.0
  0
LINE
  5
11F
330
1F
100
AcDbEntity
  8
0
  6
HIDDEN
 62
     7
370
     0
100
AcDbLine
 10
55.7525571869
 20
101.6389550361
 30
0.0
 11
55.7525571869
 21
128.6389557365
 31
0.0
  0
LINE
  5
120
330
1F
100
AcDbEntity
  8
0
  6
HIDDEN
 62
     7
370
     0
100
AcDbLine
 10
55.252557105
 20
114.5045265159
 30
0.0
 11
55.0108490945
 21
113.7850325042
 31
0.0
  0
SPLINE
  5
121
330
1F
100
AcDbEntity
  8
0
  6
HIDDEN
 62
     7
370
     0
100
AcDbSpline
210
0.0
220
0.0
230
1.0
 70
     8
 71
     3
 72
     9
 73
     5
 74
     0
 42
0.00000001
 43
0.00000001
 40
0.0
 40
0.0
 40
0.0
 40
0.0
 40
0.5444065433784827
 40
1.0
 40
1.0
 40
1.0
 40
1.0
 10
50.6407715813671
 20
119.1048803459192
 30
0.0
 10
50.99975573996309
 20
119.1558164498108
 30
0.0
 10
51.65916030253173
 20
119.2493790722868
 30
0.0
 10
52.28085702535044
 20
119.0249047049821
 30
0.0
 10
52.5640979842697
 20
118.9226356520588
 30
0.0
  0
LINE
  5
122
330
1F
100
AcDbEntity
  8
0
  6
HIDDEN
 62
     7
370
     0
100
AcDbLine
 10
55.0808594064
 20
116.3013635389
 30
0.0
 11
55.252557105
 21
115.7733842567
 31
0.0
  0
LINE
  5
123
330
1F
100
AcDbEntity
  8
0
  6
HIDDEN
 62
     7
370
     0
100
AcDbLine
 10
57.0025569261
 20
106.1389557737
 30
0.0
 11
57.0025569261
 21
124.1389549989
 31
0.0
  0
LINE
  5
124
330
1F
100
AcDbEntity
  8
0
  6
HIDDEN
 62
     7
370
     0
100
AcDbLine
 10
28.7525583492
 20
100.4679156187
 30
0.0
 11
30.2525576638
 21
100.0349027756
 31
0.0
  0
LINE
  5
125
330
1F
100
AcDbEntity
  8
0
  6
HIDDEN
 62
     7
370
     0
100
AcDbLine
 10
64.7575172563
 20
99.7014920878
 30
0.0
 11
64.7575172563
 21
93.3137703407
 31
0.0
  0
LWPOLYLINE
  5
126
330
1F
100
AcDbEntity
  8
0
  6
HIDDEN
 62
     7
370
     0
100
AcDbPolyline
 90
        9
 70
   128
 43
0.0
 10
64.5525571392
 20
99.6040347684
 10
64.557378829
 20
99.6234891656
 10
64.5696985969
 20
99.6420997846
 10
64.5890433309
 20
99.6591513696
 10
64.6146691372
 20
99.6739873383
 10
64.6455916078
 20
99.6860395837
 10
64.6806221423
 20
99.694843376
 10
64.7184149796
 20
99.7000606451
 10
64.7575172563
 20
99.7014920878
  0
LINE
  5
127
330
1F
100
AcDbEntity
  8
0
  6
HIDDEN
 62
     7
370
     0
100
AcDbLine
 10
30.2525576638
 20
100.0349027756
 30
0.0
 11
64.5525571392
 21
99.6040347684
 31
0.0
  0
LINE
  5
128
330
1F
100
AcDbEntity
  8
0
  6
HIDDEN
 62
     7
370
     0
100
AcDbLine
 10
64.7575172563
 20
99.7014920878
 30
0.0
 11
65.9360448565
 21
99.6866877842
 31
0.0
  0
SPLINE
  5
129
330
1F
100
AcDbEntity
  8
0
  6
HIDDEN
 62
     7
370
     0
100
AcDbSpline
210
0.0
220
0.0
230
1.0
 70
     8
 71
     3
 72
    16
 73
    12
 74
     0
 42
0.00000001
 43
0.00000001
 40
0.0
 40
0.0
 40
0.0
 40
0.0
 40
0.2499999999999995
 40
0.2499999999999995
 40
0.3749999999999996
 40
0.3749999999999996
 40
0.4999999999999997
 40
0.4999999999999997
 40
0.7499999999999998
 40
0.7499999999999998
 40
1.0
 40
1.0
 40
1.0
 40
1.0
 10
65.4312367837526
 20
98.5550487600484
 30
0.0
 10
65.27000430626815
 20
97.84065459785626
 30
0.0
 10
65.14952446662852
 20
97.18731233514758
 30
0.0
 10
65.02714394931519
 20
96.29905709334372
 30
0.0
 10
64.99616628891775
 20
96.01837655699185
 30
0.0
 10
64.9545525512898
 20
95.48934256715188
 30
0.0
 10
64.94431663835698
 20
95.24602158857344
 30
0.0
 10
64.94412824130086
 20
94.5779988980602
 30
0.0
 10
64.98427294393848
 20
94.21431798864074
 30
0.0
 10
65.14842669887805
 20
93.65442711609244
 30
0.0
 10
65.26997834928761
 20
93.4669058239753
 30
0.0
 10
65.43123678375261
 20
93.36887443128732
 30
0.0
  0
LWPOLYLINE
  5
12A
330
1F
100
AcDbEntity
  8
0
  6
HIDDEN
 62
     7
370
     0
100
AcDbPolyline
 90
        9
 70
   128
 43
0.0
 10
64.5525571392
 20
130.6738760042
 10
64.557378829
 20
130.654421607
 10
64.5696985969
 20
130.635810988
 10
64.5890433309
 20
130.6187594029
 10
64.6146691372
 20
130.6039234343
 10
64.6455916078
 20
130.5918711889
 10
64.6806221423
 20
130.5830673966
 10
64.7184149796
 20
130.5778501275
 10
64.7575172563
 20
130.5764186847
  0
LINE
  5
12B
330
1F
100
AcDbEntity
  8
0
  6
HIDDEN
 62
     7
370
     0
100
AcDbLine
 10
64.7575172563
 20
136.9641404319
 30
0.0
 11
64.7575172563
 21
130.5764186847
 31
0.0
  0
LINE
  5
12C
330
1F
100
AcDbEntity
  8
0
  6
HIDDEN
 62
     7
370
     0
100
AcDbLine
 10
64.7575172563
 20
130.5764186847
 30
0.0
 11
65.9360448565
 21
130.5912229884
 31
0.0
  0
SPLINE
  5
12D
330
1F
100
AcDbEntity
  8
0
  6
HIDDEN
 62
     7
370
     0
100
AcDbSpline
210
0.0
220
0.0
230
1.0
 70
     8
 71
     3
 72
    16
 73
    12
 74
     0
 42
0.00000001
 43
0.00000001
 40
0.0
 40
0.0
 40
0.0
 40
0.0
 40
0.25
 40
0.25
 40
0.375
 40
0.375
 40
0.5
 40
0.5
 40
0.75
 40
0.75
 40
1.0
 40
1.0
 40
1.0
 40
1.0
 10
65.43123678375261
 20
136.9090363412916
 30
0.0
 10
65.27000430626815
 20
136.8110207282368
 30
0.0
 10
65.14952446662852
 20
136.6242846965608
 30
0.0
 10
65.02714394931519
 20
136.2112448890019
 30
0.0
 10
64.99616628891775
 20
136.051244389769
 30
0.0
 10
64.9545525512898
 20
135.6844387386778
 30
0.0
 10
64.94431663835698
 20
135.4811015860538
 30
0.0
 10
64.94412824130086
 20
134.8138143194271
 30
0.0
 10
64.98427294393848
 20
134.2929998555391
 30
0.0
 10
65.14842669887805
 20
133.0956408400614
 30
0.0
 10
65.26997834928761
 20
132.4373711857654
 30
0.0
 10
65.43123678375261
 20
131.7228620125305
 30
0.0
  0
LINE
  5
12E
330
1F
100
AcDbEntity
  8
0
  6
HIDDEN
 62
     7
370
     0
100
AcDbLine
 10
28.7525583492
 20
129.8099951539
 30
0.0
 11
30.2525576638
 21
130.243007997
 31
0.0
  0
LINE
  5
12F
330
1F
100
AcDbEntity
  8
0
  6
HIDDEN
 62
     7
370
     0
100
AcDbLine
 10
30.2525576638
 20
130.243007997
 30
0.0
 11
64.5525571392
 21
130.6738760042
 31
0.0
  0
LINE
  5
130
330
1F
100
AcDbEntity
  8
0
  6
HIDDEN
 62
     7
370
     0
100
AcDbLine
 10
80.2248003395
 20
124.5270222145
 30
0.0
 11
80.2248003395
 21
145.2074479032
 31
0.0
  0
LINE
  5
131
330
1F
100
AcDbEntity
  8
0
  6
HIDDEN
 62
     7
370
     0
100
AcDbLine
 10
77.2803141238
 20
124.5270222145
 30
0.0
 11
77.2803141238
 21
145.2074479032
 31
0.0
  0
LINE
  5
132
330
1F
100
AcDbEntity
  8
0
  6
HIDDEN
 62
     7
370
     0
100
AcDbLine
 10
77.2803141238
 20
85.0704628694
 30
0.0
 11
77.2803141238
 21
105.750888558
 31
0.0
  0
LINE
  5
133
330
1F
100
AcDbEntity
  8
0
  6
HIDDEN
 62
     7
370
     0
100
AcDbLine
 10
80.2248003395
 20
85.0704628694
 30
0.0
 11
80.2248003395
 21
105.750888558
 31
0.0
  0
LINE
  5
134
330
1F
100
AcDbEntity
  8
0
  6
HIDDEN
 62
     7
370
     0
100
AcDbLine
 10
76.8473012806
 20
125.0483244377
 30
0.0
 11
76.8473012806
 21
145.039698081
 31
0.0
  0
LINE
  5
135
330
1F
100
AcDbEntity
  8
0
  6
HIDDEN
 62
     7
370
     0
100
AcDbLine
 10
80.6578131826
 20
125.0483244377
 30
0.0
 11
80.6578131826
 21
145.039698081
 31
0.0
  0
LINE
  5
136
330
1F
100
AcDbEntity
  8
0
  6
HIDDEN
 62
     7
370
     0
100
AcDbLine
 10
80.6578131826
 20
85.2382126916
 30
0.0
 11
80.6578131826
 21
105.2295863348
 31
0.0
  0
LINE
  5
137
330
1F
100
AcDbEntity
  8
0
  6
HIDDEN
 62
     7
370
     0
100
AcDbLine
 10
76.8473012806
 20
85.2382126916
 30
0.0
 11
76.8473012806
 21
105.2295863348
 31
0.0
  0
LINE
  5
138
330
1F
100
AcDbEntity
  8
0
  6
HIDDEN
 62
     7
370
     0
100
AcDbLine
 10
66.5525571324
 20
122.1608426142
 30
0.0
 11
66.5525571324
 21
108.1170681584
 31
0.0
  0
LINE
  5
139
330
1F
100
AcDbEntity
  8
0
  6
HIDDEN
 62
     7
370
     0
100
AcDbLine
 10
66.3575802257
 20
130.5717229563
 30
0.0
 11
66.3575802257
 21
99.7061878163
 31
0.0
  0
LINE
  5
13A
330
1F
100
AcDbEntity
  8
0
  6
HIDDEN
 62
     7
370
     0
100
AcDbLine
 10
64.7575172563
 20
130.5764186847
 30
0.0
 11
64.7575172563
 21
99.7014920878
 31
0.0
  0
SPLINE
  5
13B
330
1F
100
AcDbEntity
  8
0
  6
HIDDEN
 62
     7
370
     0
100
AcDbSpline
210
0.0
220
0.0
230
1.0
 70
     8
 71
     3
 72
     8
 73
     4
 74
     0
 42
0.00000001
 43
0.00000001
 40
0.0000249638557296
 40
0.0000249638557296
 40
0.0000249638557296
 40
0.0000249638557296
 40
0.0049776420541172
 40
0.0049776420541172
 40
0.0049776420541172
 40
0.0049776420541172
 10
30.25255712731226
 20
111.1737444894529
 30
0.0
 10
31.90253336182181
 20
111.1324652516847
 30
0.0
 10
33.55253468156684
 20
111.0922435704452
 30
0.0
 10
35.20255712731227
 20
111.0529943331902
 30
0.0
  0
SPLINE
  5
13C
330
1F
100
AcDbEntity
  8
0
  6
HIDDEN
 62
     7
370
     0
100
AcDbSpline
210
0.0
220
0.0
230
1.0
 70
     8
 71
     3
 72
     8
 73
     4
 74
     0
 42
0.00000001
 43
0.00000001
 40
0.0000249631533153
 40
0.0000249631533153
 40
0.0000249631533153
 40
0.0000249631533153
 40
0.0049776413517029
 40
0.0049776413517029
 40
0.0049776413517029
 40
0.0049776413517029
 10
35.20255712731225
 20
119.2249164393887
 30
0.0
 10
33.55253468156683
 20
119.1856672021337
 30
0.0
 10
31.90253336182179
 20
119.1454455208942
 30
0.0
 10
30.25255712731226
 20
119.104166283126
 30
0.0
  0
SPLINE
  5
13D
330
1F
100
AcDbEntity
  8
0
  6
HIDDEN
 62
     7
370
     0
100
AcDbSpline
210
0.0
220
0.0
230
1.0
 70
     8
 71
     3
 72
     8
 73
     4
 74
     0
 42
0.00000001
 43
0.00000001
 40
0.0
 40
0.0
 40
0.0
 40
0.0
 40
1.0
 40
1.0
 40
1.0
 40
1.0
 10
28.75255712731001
 20
112.2369680533091
 30
0.0
 10
29.2193177386878
 20
111.8216048076861
 30
0.0
 10
29.7250652854679
 20
111.4770143783815
 30
0.0
 10
30.25255712731226
 20
111.1737444894529
 30
0.0
  0
SPLINE
  5
13E
330
1F
100
AcDbEntity
  8
0
  6
HIDDEN
 62
     7
370
     0
100
AcDbSpline
210
0.0
220
0.0
230
1.0
 70
     8
 71
     3
 72
     8
 73
     4
 74
     0
 42
0.00000001
 43
0.00000001
 40
0.0
 40
0.0
 40
0.0
 40
0.0
 40
1.0
 40
1.0
 40
1.0
 40
1.0
 10
30.25255712731226
 20
119.104166283126
 30
0.0
 10
29.72506528546873
 20
118.8008963941979
 30
0.0
 10
29.21931773868944
 20
118.4563059648939
 30
0.0
 10
28.75255712731225
 20
118.0409427192718
 30
0.0
  0
LINE
  5
13F
330
1F
100
AcDbEntity
  8
0
  6
HIDDEN
 62
     7
370
     0
100
AcDbLine
 10
35.2025557743
 20
111.0529941227
 30
0.0
 11
35.2025557743
 21
119.2249166499
 31
0.0
  0
SPLINE
  5
140
330
1F
100
AcDbEntity
  8
0
  6
HIDDEN
 62
     7
370
     0
100
AcDbSpline
210
0.0
220
0.0
230
1.0
 70
     8
 71
     3
 72
    24
 73
    20
 74
     0
 42
0.00000001
 43
0.00000001
 40
0.0
 40
0.0
 40
0.0
 40
0.0
 40
0.1249999999999999
 40
0.1249999999999999
 40
0.2499999999999998
 40
0.2499999999999998
 40
0.3749999999999997
 40
0.3749999999999997
 40
0.4374999999999997
 40
0.4374999999999997
 40
0.4999999999999998
 40
0.4999999999999998
 40
0.6249999999999999
 40
0.6249999999999999
 40
0.75
 40
0.75
 40
0.875
 40
0.875
 40
1.0
 40
1.0
 40
1.0
 40
1.0
 10
35.20255712731227
 20
111.0529943331902
 30
0.0
 10
35.44036075958736
 20
111.3520014355203
 30
0.0
 10
35.67044642079864
 20
111.6563392868391
 30
0.0
 10
36.10519981940845
 20
112.2820728242351
 30
0.0
 10
36.31013261169462
 20
112.6032975515626
 30
0.0
 10
36.67523456219332
 20
113.2752233222953
 30
0.0
 10
36.83703494798483
 20
113.6305385541742
 30
0.0
 10
37.00889515256456
 20
114.1807697755266
 30
0.0
 10
37.05448034422469
 20
114.3671735605071
 30
0.0
 10
37.11695508379955
 20
114.7473080626034
 30
0.0
 10
37.13362622954801
 20
114.9429778548893
 30
0.0
 10
37.13414727272449
 20
115.5214582335637
 30
0.0
 10
37.0697049718378
 20
115.8993700725324
 30
0.0
 10
36.83985587846446
 20
116.6413380976309
 30
0.0
 10
36.68133520080136
 20
116.9900535577919
 30
0.0
 10
36.31710087090119
 20
117.663145955525
 30
0.0
 10
36.11036463083759
 20
117.9880984427666
 30
0.0
 10
35.67242668509724
 20
118.6190222532284
 30
0.0
 10
35.44115395781766
 20
118.9249119935691
 30
0.0
 10
35.20255712731235
 20
119.2249164393886
 30
0.0
  0
SPLINE
  5
141
330
1F
100
AcDbEntity
  8
0
  6
HIDDEN
 62
     7
370
     0
100
AcDbSpline
210
0.0
220
0.0
230
1.0
 70
     8
 71
     3
 72
     9
 73
     5
 74
     0
 42
0.00000001
 43
0.00000001
 40
0.0
 40
0.0
 40
0.0
 40
0.0
 40
0.5334121397644359
 40
1.0
 40
1.0
 40
1.0
 40
1.0
 10
48.06371819837435
 20
117.7849669195051
 30
0.0
 10
48.36291612080095
 20
118.072095299202
 30
0.0
 10
48.92382934365848
 20
118.6103814728608
 30
0.0
 10
49.66267455645474
 20
118.8491898820171
 30
0.0
 10
50.00741076333865
 20
118.9606149866516
 30
0.0
  0
SPLINE
  5
142
330
1F
100
AcDbEntity
  8
0
  6
HIDDEN
 62
     7
370
     0
100
AcDbSpline
210
0.0
220
0.0
230
1.0
 70
     8
 71
     3
 72
    18
 73
    14
 74
     0
 42
0.00000001
 43
0.00000001
 40
0.0
 40
0.0
 40
0.0
 40
0.0
 40
0.0783610020365561
 40
0.1875061030660213
 40
0.2963664086754439
 40
0.4010833637308888
 40
0.4984626451445017
 40
0.5896891310415617
 40
0.6797794207156354
 40
0.7737926815758647
 40
0.8743573789968504
 40
0.9808022527629133
 40
0.9999999999999999
 40
0.9999999999999999
 40
0.9999999999999999
 40
0.9999999999999999
 10
50.73877093060359
 20
119.1183482016707
 30
0.0
 10
51.10583814781582
 20
119.1614314178085
 30
0.0
 10
51.98417484175764
 20
119.2645230801864
 30
0.0
 10
53.34919074229381
 20
118.8404272029305
 30
0.0
 10
54.60500590371206
 20
117.9704774295474
 30
0.0
 10
55.4449944242653
 20
116.7429012291335
 30
0.0
 10
55.77419547833612
 20
115.3799173178649
 30
0.0
 10
55.62013060413711
 20
114.0574864658881
 30
0.0
 10
55.05246774838646
 20
112.8798967522737
 30
0.0
 10
54.11397396791013
 20
111.9002434492532
 30
0.0
 10
52.85576476452881
 20
111.2638087763494
 30
0.0
 10
51.78243462706769
 20
110.9886670542773
 30
0.0
 10
51.20274161002329
 20
111.0970698966602
 30
0.0
 10
51.11416657133444
 20
111.1136334668184
 30
0.0
  0
SPLINE
  5
143
330
1F
100
AcDbEntity
  8
0
  6
HIDDEN
 62
     7
370
     0
100
AcDbSpline
210
0.0
220
0.0
230
1.0
 70
     8
 71
     3
 72
    13
 73
     9
 74
     0
 42
0.00000001
 43
0.00000001
 40
0.0
 40
0.0
 40
0.0
 40
0.0
 40
0.071014348096028
 40
0.2845446691340678
 40
0.4859797195079917
 40
0.6752848981794662
 40
0.8594837670013883
 40
1.0
 40
1.0
 40
1.0
 40
1.0
 10
48.95965424044474
 20
111.817697500744
 30
0.0
 10
48.81256007689207
 20
111.891613041779
 30
0.0
 10
48.22317411163546
 20
112.1877823896868
 30
0.0
 10
47.51205470267544
 20
113.1205470802423
 30
0.0
 10
46.99917555249517
 20
114.4338525697947
 30
0.0
 10
47.00515947292364
 20
115.7902094493218
 30
0.0
 10
47.39372587627974
 20
116.9405484324075
 30
0.0
 10
47.86135694238688
 20
117.5299228242326
 30
0.0
 10
48.06371819837435
 20
117.7849669195051
 30
0.0
  0
CIRCLE
  5
144
330
1F
100
AcDbEntity
  8
0
  6
HIDDEN
 62
     7
370
     0
100
AcDbCircle
 10
78.7525571273
 20
115.1389553863
 30
0.0
 40
2.000000000000014
  0
LINE
  5
145
330
1F
100
AcDbEntity
  8
0
  6
HIDDEN
 62
     7
370
     0
100
AcDbLine
 10
156.2525596903
 20
136.1389551032
 30
0.0
 11
157.7525552796
 21
134.6389557886
 31
0.0
  0
LINE
  5
146
330
1F
100
AcDbEntity
  8
0
  6
HIDDEN
 62
     7
370
     0
100
AcDbLine
 10
164.7525545643
 20
134.6389557886
 30
0.0
 11
166.2525576041
 21
136.1389551032
 31
0.0
  0
LINE
  5
147
330
1F
100
AcDbEntity
  8
0
  6
HIDDEN
 62
     7
370
     0
100
AcDbLine
 10
156.2525596903
 20
146.160909878
 30
0.0
 11
156.2525596903
 21
136.1389551032
 31
0.0
  0
LINE
  5
148
330
1F
100
AcDbEntity
  8
0
  6
HIDDEN
 62
     7
370
     0
100
AcDbLine
 10
166.2525576041
 20
136.1389551032
 30
0.0
 11
166.2525576041
 21
146.160909878
 31
0.0
  0
LINE
  5
149
330
1F
100
AcDbEntity
  8
0
  6
HIDDEN
 62
     7
370
     0
100
AcDbLine
 10
166.2525576041
 20
146.160909878
 30
0.0
 11
165.4245596813
 21
146.6389558929
 31
0.0
  0
LINE
  5
14A
330
1F
100
AcDbEntity
  8
0
  6
HIDDEN
 62
     7
370
     0
100
AcDbLine
 10
157.0805576132
 20
146.6389558929
 30
0.0
 11
156.2525596903
 21
146.160909878
 31
0.0
  0
LINE
  5
14B
330
1F
100
AcDbEntity
  8
0
  6
HIDDEN
 62
     7
370
     0
100
AcDbLine
 10
125.2525564717
 20
136.1389551032
 30
0.0
 11
126.7525557862
 21
134.6389557886
 31
0.0
  0
LINE
  5
14C
330
1F
100
AcDbEntity
  8
0
  6
HIDDEN
 62
     7
370
     0
100
AcDbLine
 10
133.7525587962
 20
134.6389557886
 30
0.0
 11
135.2525543855
 21
136.1389551032
 31
0.0
  0
LINE
  5
14D
330
1F
100
AcDbEntity
  8
0
  6
HIDDEN
 62
     7
370
     0
100
AcDbLine
 10
125.2525564717
 20
146.160909878
 30
0.0
 11
125.2525564717
 21
136.1389551032
 31
0.0
  0
LINE
  5
14E
330
1F
100
AcDbEntity
  8
0
  6
HIDDEN
 62
     7
370
     0
100
AcDbLine
 10
135.2525543855
 20
136.1389551032
 30
0.0
 11
135.2525543855
 21
146.160909878
 31
0.0
  0
LINE
  5
14F
330
1F
100
AcDbEntity
  8
0
  6
HIDDEN
 62
     7
370
     0
100
AcDbLine
 10
135.2525543855
 20
146.160909878
 30
0.0
 11
134.4245564626
 21
146.6389558929
 31
0.0
  0
LINE
  5
150
330
1F
100
AcDbEntity
  8
0
  6
HIDDEN
 62
     7
370
     0
100
AcDbLine
 10
126.0805581198
 20
146.6389558929
 30
0.0
 11
125.2525564717
 21
146.160909878
 31
0.0
  0
LINE
  5
151
330
1F
100
AcDbEntity
  8
0
  6
HIDDEN
 62
     7
370
     0
100
AcDbLine
 10
140.752558081
 20
136.1389551032
 30
0.0
 11
142.2525536702
 21
134.6389557886
 31
0.0
  0
LINE
  5
152
330
1F
100
AcDbEntity
  8
0
  6
HIDDEN
 62
     7
370
     0
100
AcDbLine
 10
149.2525604056
 20
134.6389557886
 30
0.0
 11
150.7525559948
 21
136.1389551032
 31
0.0
  0
LINE
  5
153
330
1F
100
AcDbEntity
  8
0
  6
HIDDEN
 62
     7
370
     0
100
AcDbLine
 10
140.752558081
 20
146.160909878
 30
0.0
 11
140.752558081
 21
136.1389551032
 31
0.0
  0
LINE
  5
154
330
1F
100
AcDbEntity
  8
0
  6
HIDDEN
 62
     7
370
     0
100
AcDbLine
 10
150.7525559948
 20
136.1389551032
 30
0.0
 11
150.7525559948
 21
146.160909878
 31
0.0
  0
LINE
  5
155
330
1F
100
AcDbEntity
  8
0
  6
HIDDEN
 62
     7
370
     0
100
AcDbLine
 10
150.7525559948
 20
146.160909878
 30
0.0
 11
149.9245580719
 21
146.6389558929
 31
0.0
  0
LINE
  5
156
330
1F
100
AcDbEntity
  8
0
  6
HIDDEN
 62
     7
370
     0
100
AcDbLine
 10
141.5805560039
 20
146.6389558929
 30
0.0
 11
140.752558081
 21
146.160909878
 31
0.0
  0
LINE
  5
157
330
1F
100
AcDbEntity
  8
0
  6
HIDDEN
 62
     7
370
     0
100
AcDbLine
 10
66.7525571273
 20
90.888954671
 30
0.0
 11
66.8454503477
 21
90.9818485099
 31
0.0
  0
LINE
  5
158
330
1F
100
AcDbEntity
  8
0
  6
HIDDEN
 62
     7
370
     0
100
AcDbLine
 10
66.8454503477
 20
139.2960622627
 30
0.0
 11
66.7525571273
 21
139.3889561015
 31
0.0
  0
ARC
  5
159
330
1F
100
AcDbEntity
  8
0
  6
HIDDEN
 62
     7
370
     0
100
AcDbCircle
 10
66.1383435649
 20
91.6889553863
 30
0.0
 40
1.000000000000008
100
AcDbArc
 50
315.0
 51
0.0
  0
ARC
  5
15A
330
1F
100
AcDbEntity
  8
0
  6
HIDDEN
 62
     7
370
     0
100
AcDbCircle
 10
66.1383435649
 20
91.6889553863
 30
0.0
 40
1.0
100
AcDbArc
 50
0.0
 51
52.1052014664
  0
ARC
  5
15B
330
1F
100
AcDbEntity
  8
0
  6
HIDDEN
 62
     7
370
     0
100
AcDbCircle
 10
66.1383435649
 20
138.5889553863
 30
0.0
 40
1.000000000000006
100
AcDbArc
 50
351.8087250651
 51
45.0
  0
ARC
  5
15C
330
1F
100
AcDbEntity
  8
0
  6
HIDDEN
 62
     7
370
     0
100
AcDbCircle
 10
66.1383435649
 20
138.5889553863
 30
0.0
 40
1.000000000000006
100
AcDbArc
 50
307.8947985336
 51
351.8087250651
  0
LINE
  5
15D
330
1F
100
AcDbEntity
  8
0
  6
HIDDEN
 62
     7
370
     0
100
AcDbLine
 10
67.1383435631
 20
91.6889551747
 30
0.0
 11
67.1383435631
 21
138.5889555979
 31
0.0
  0
LINE
  5
15E
330
1F
100
AcDbEntity
  8
0
  6
HIDDEN
 62
     7
370
     0
100
AcDbLine
 10
109.0050790892
 20
94.1389556694
 30
0.0
 11
111.7525589155
 21
95.1389558333
 31
0.0
  0
LINE
  5
15F
330
1F
100
AcDbEntity
  8
0
  6
HIDDEN
 62
     7
370
     0
100
AcDbLine
 10
111.7525589155
 20
135.1389549393
 30
0.0
 11
109.0050790892
 21
136.1389551032
 31
0.0
  0
LINE
  5
160
330
1F
100
AcDbEntity
  8
0
  6
HIDDEN
 62
     7
370
     0
100
AcDbLine
 10
109.0050790892
 20
136.1389551032
 30
0.0
 11
106.1525572525
 21
136.1389551032
 31
0.0
  0
LINE
  5
161
330
1F
100
AcDbEntity
  8
0
  6
HIDDEN
 62
     7
370
     0
100
AcDbLine
 10
106.1525572525
 20
94.1389556694
 30
0.0
 11
109.0050790892
 21
94.1389556694
 31
0.0
  0
ARC
  5
162
330
1F
100
AcDbEntity
  8
0
  6
HIDDEN
 62
     7
370
     0
100
AcDbCircle
 10
106.1525571273
 20
135.7389553863
 30
0.0
 40
0.4000000000000057
100
AcDbArc
 50
90.0
 51
180.0
  0
ARC
  5
163
330
1F
100
AcDbEntity
  8
0
  6
HIDDEN
 62
     7
370
     0
100
AcDbCircle
 10
106.1525571273
 20
94.5389553863
 30
0.0
 40
0.4000000000000199
100
AcDbArc
 50
180.0
 51
270.0
  0
ARC
  5
164
330
1F
100
AcDbEntity
  8
0
  6
HIDDEN
 62
     7
370
     0
100
AcDbCircle
 10
171.2525571273
 20
135.6389553863
 30
0.0
 40
0.5000000000000284
100
AcDbArc
 50
270.0
 51
0.0
  0
ARC
  5
165
330
1F
100
AcDbEntity
  8
0
  6
HIDDEN
 62
     7
370
     0
100
AcDbCircle
 10
171.2525571273
 20
94.6389553863
 30
0.0
 40
0.5000000000000284
100
AcDbArc
 50
0.0
 51
90.0
  0
LINE
  5
166
330
1F
100
AcDbEntity
  8
0
  6
HIDDEN
 62
     7
370
     0
100
AcDbLine
 10
125.8067045794
 20
135.1389549393
 30
0.0
 11
111.7525589155
 21
135.1389549393
 31
0.0
  0
LINE
  5
167
330
1F
100
AcDbEntity
  8
0
  6
HIDDEN
 62
     7
370
     0
100
AcDbLine
 10
141.3067024635
 20
135.1389549393
 30
0.0
 11
134.7329061912
 21
135.1389549393
 31
0.0
  0
LINE
  5
168
330
1F
100
AcDbEntity
  8
0
  6
HIDDEN
 62
     7
370
     0
100
AcDbLine
 10
156.8067040728
 20
135.1389549393
 30
0.0
 11
150.2329003499
 21
135.1389549393
 31
0.0
  0
LINE
  5
169
330
1F
100
AcDbEntity
  8
0
  6
HIDDEN
 62
     7
370
     0
100
AcDbLine
 10
171.2525602864
 20
135.1389549393
 30
0.0
 11
165.7329019593
 21
135.1389549393
 31
0.0
  0
LINE
  5
16A
330
1F
100
AcDbEntity
  8
0
  6
HIDDEN
 62
     7
370
     0
100
AcDbLine
 10
111.7525589155
 20
95.1389558333
 30
0.0
 11
171.2525602864
 21
95.1389558333
 31
0.0
  0
LINE
  5
16B
330
1F
100
AcDbEntity
  8
0
  6
HIDDEN
 62
     7
370
     0
100
AcDbLine
 10
28.7525583492
 20
98.9425256568
 30
0.0
 11
30.2827846692
 21
99.8260043281
 31
0.0
  0
LINE
  5
16C
330
1F
100
AcDbEntity
  8
0
  6
HIDDEN
 62
     7
370
     0
100
AcDbLine
 10
30.2827846692
 20
130.4519064444
 30
0.0
 11
28.7525583492
 21
131.3353851158
 31
0.0
  0
ARC
  5
16D
330
1F
100
AcDbEntity
  8
0
  6
HIDDEN
 62
     7
370
     0
100
AcDbCircle
 10
39.7543584422
 20
101.1389553863
 30
0.0
 40
2.000000000000014
100
AcDbArc
 50
270.0
 51
315.0
  0
ARC
  5
16E
330
1F
100
AcDbEntity
  8
0
  6
HIDDEN
 62
     7
370
     0
100
AcDbCircle
 10
39.7543584422
 20
129.1389553863
 30
0.0
 40
2.000000000000016
100
AcDbArc
 50
45.0
 51
90.0
  0
LINE
  5
16F
330
1F
100
AcDbEntity
  8
0
  6
HIDDEN
 62
     7
370
     0
100
AcDbLine
 10
38.752556263
 20
99.1389546263
 30
0.0
 11
39.7543576048
 21
99.1389546263
 31
0.0
  0
LINE
  5
170
330
1F
100
AcDbEntity
  8
0
  6
HIDDEN
 62
     7
370
     0
100
AcDbLine
 10
39.7543576048
 20
131.1389561462
 30
0.0
 11
38.752556263
 21
131.1389561462
 31
0.0
  0
ARC
  5
171
330
1F
100
AcDbEntity
  8
0
  6
HIDDEN
 62
     7
370
     0
100
AcDbCircle
 10
38.7525571273
 20
101.1389553863
 30
0.0
 40
2.000000000000028
100
AcDbArc
 50
189.9742217944
 51
270.0
  0
ARC
  5
172
330
1F
100
AcDbEntity
  8
0
  6
HIDDEN
 62
     7
370
     0
100
AcDbCircle
 10
38.7525571273
 20
129.1389553863
 30
0.0
 40
2.00000000000002
100
AcDbArc
 50
90.0
 51
170.0257782056
  0
LINE
  5
173
330
1F
100
AcDbEntity
  8
0
  6
HIDDEN
 62
     7
370
     0
100
AcDbLine
 10
41.168572797
 20
99.7247416246
 30
0.0
 11
42.5827861266
 21
101.1389549542
 31
0.0
  0
LINE
  5
174
330
1F
100
AcDbEntity
  8
0
  6
HIDDEN
 62
     7
370
     0
100
AcDbLine
 10
42.5827861266
 20
129.1389558184
 30
0.0
 11
41.168572797
 21
130.553169148
 31
0.0
  0
LINE
  5
175
330
1F
100
AcDbEntity
  8
0
  6
HIDDEN
 62
     7
370
     0
100
AcDbLine
 10
30.2827846692
 20
99.8260043281
 30
0.0
 11
35.1827856587
 21
101.1389549542
 31
0.0
  0
LINE
  5
176
330
1F
100
AcDbEntity
  8
0
  6
HIDDEN
 62
     7
370
     0
100
AcDbLine
 10
35.1827856587
 20
129.1389558184
 30
0.0
 11
30.2827846692
 21
130.4519064444
 31
0.0
  0
LINE
  5
177
330
1F
100
AcDbEntity
  8
0
  6
HIDDEN
 62
     7
370
     0
100
AcDbLine
 10
36.7827848033
 20
129.4853659067
 30
0.0
 11
36.1827858226
 21
129.1389558184
 31
0.0
  0
LINE
  5
178
330
1F
100
AcDbEntity
  8
0
  6
HIDDEN
 62
     7
370
     0
100
AcDbLine
 10
36.1827858226
 20
101.1389549542
 30
0.0
 11
36.7827848033
 21
100.7925448659
 31
0.0
  0
ARC
  5
179
330
1F
100
AcDbEntity
  8
0
  6
HIDDEN
 62
     7
370
     0
100
AcDbCircle
 10
55.2525571273
 20
101.6389553863
 30
0.0
 40
0.5
100
AcDbArc
 50
270.0
 51
0.0
  0
ARC
  5
17A
330
1F
100
AcDbEntity
  8
0
  6
HIDDEN
 62
     7
370
     0
100
AcDbCircle
 10
55.2525571273
 20
128.6389553863
 30
0.0
 40
0.5
100
AcDbArc
 50
0.0
 51
90.0
  0
LINE
  5
17B
330
1F
100
AcDbEntity
  8
0
  6
HIDDEN
 62
     7
370
     0
100
AcDbLine
 10
42.5827861266
 20
101.1389549542
 30
0.0
 11
55.252557105
 21
101.1389549542
 31
0.0
  0
LINE
  5
17C
330
1F
100
AcDbEntity
  8
0
  6
HIDDEN
 62
     7
370
     0
100
AcDbLine
 10
55.252557105
 20
129.1389558184
 30
0.0
 11
42.5827861266
 21
129.1389558184
 31
0.0
  0
LINE
  5
17D
330
1F
100
AcDbEntity
  8
0
  6
HIDDEN
 62
     7
370
     0
100
AcDbLine
 10
35.1827856587
 20
101.1389549542
 30
0.0
 11
36.1827858226
 21
101.1389549542
 31
0.0
  0
LINE
  5
17E
330
1F
100
AcDbEntity
  8
0
  6
HIDDEN
 62
     7
370
     0
100
AcDbLine
 10
36.1827858226
 20
129.1389558184
 30
0.0
 11
35.1827856587
 21
129.1389558184
 31
0.0
  0
LINE
  5
17F
330
1F
100
AcDbEntity
  8
0
  6
HIDDEN
 62
     7
370
     0
100
AcDbLine
 10
55.7525571869
 20
104.8889551032
 30
0.0
 11
57.0025569261
 21
106.1389557737
 31
0.0
  0
LINE
  5
180
330
1F
100
AcDbEntity
  8
0
  6
HIDDEN
 62
     7
370
     0
100
AcDbLine
 10
57.0025569261
 20
124.1389549989
 30
0.0
 11
55.7525571869
 21
125.3889556694
 31
0.0
  0
LINE
  5
181
330
1F
100
AcDbEntity
  8
0
  6
HIDDEN
 62
     7
370
     0
100
AcDbLine
 10
57.0025569261
 20
106.1389557737
 30
0.0
 11
105.752557932
 21
106.1389557737
 31
0.0
  0
LINE
  5
182
330
1F
100
AcDbEntity
  8
0
  6
HIDDEN
 62
     7
370
     0
100
AcDbLine
 10
105.752557932
 20
124.1389549989
 30
0.0
 11
57.0025569261
 21
124.1389549989
 31
0.0
  0
LINE
  5
183
330
1F
100
AcDbEntity
  8
0
  6
HIDDEN
 62
     7
370
     0
100
AcDbLine
 10
156.7525607036
 20
146.6389558929
 30
0.0
 11
156.7525607036
 21
135.1269352901
 31
0.0
  0
LINE
  5
184
330
1F
100
AcDbEntity
  8
0
  6
HIDDEN
 62
     7
370
     0
100
AcDbLine
 10
165.7525565909
 20
135.1346969324
 30
0.0
 11
165.7525565909
 21
146.6389558929
 31
0.0
  0
LINE
  5
185
330
1F
100
AcDbEntity
  8
0
  6
HIDDEN
 62
     7
370
     0
100
AcDbLine
 10
141.2525590943
 20
146.6389558929
 30
0.0
 11
141.2525590943
 21
135.1269352901
 31
0.0
  0
LINE
  5
186
330
1F
100
AcDbEntity
  8
0
  6
HIDDEN
 62
     7
370
     0
100
AcDbLine
 10
150.2525549815
 20
135.1346969324
 30
0.0
 11
150.2525549815
 21
146.6389558929
 31
0.0
  0
LINE
  5
187
330
1F
100
AcDbEntity
  8
0
  6
HIDDEN
 62
     7
370
     0
100
AcDbLine
 10
125.7525574849
 20
146.6389558929
 30
0.0
 11
125.7525574849
 21
135.1269352901
 31
0.0
  0
LINE
  5
188
330
1F
100
AcDbEntity
  8
0
  6
HIDDEN
 62
     7
370
     0
100
AcDbLine
 10
134.7525608228
 20
135.1346969324
 30
0.0
 11
134.7525608228
 21
146.6389558929
 31
0.0
  0
LINE
  5
189
330
1F
100
AcDbEntity
  8
0
  6
HIDDEN
 62
     7
370
     0
100
AcDbLine
 10
67.0525571416
 20
146.6389558929
 30
0.0
 11
67.0525571416
 21
83.6389548796
 31
0.0
  0
LINE
  5
18A
330
1F
100
AcDbEntity
  8
0
  6
HIDDEN
 62
     7
370
     0
100
AcDbLine
 10
170.7525592731
 20
83.6389548796
 30
0.0
 11
170.7525592731
 21
146.6389558929
 31
0.0
  0
DIMENSION
  5
18B
330
1F
100
AcDbEntity
  8
VERMASSUNG
100
AcDbDimension
  2
*D1
 10
22.4040261153
 20
83.6389553863
 30
0.0
 11
22.4040261153
 21
115.1389553863
 31
0.0
 70
   160
  1
PSC %%c<>
 71
     2
 42
-1.0
  3
SLDDIMSTYLE0
100
AcDbAlignedDimension
 13
67.0525571273
 23
146.6389553863
 33
0.0
 14
67.0525571273
 24
83.6389553863
 34
0.0
 50
90.0
100
AcDbRotatedDimension
  0
DIMENSION
  5
198
330
1F
100
AcDbEntity
  8
VERMASSUNG
100
AcDbDimension
  2
*D2
 10
187.7525571273
 20
83.6389553863
 30
0.0
 11
187.7525571273
 21
115.1389553863
 31
0.0
 70
   160
  1
%%c<>
 71
     2
 42
-1.0
  3
SLDDIMSTYLE0
100
AcDbAlignedDimension
 13
170.7525571273
 23
146.6389553863
 33
0.0
 14
170.7525571273
 24
83.6389553863
 34
0.0
 50
90.0
100
AcDbRotatedDimension
  0
DIMENSION
  5
1A3
330
1F
100
AcDbEntity
  8
VERMASSUNG
100
AcDbDimension
  2
*D3
 10
181.7525571273
 20
95.1389553863
 30
0.0
 11
181.7525571273
 21
115.1389553863
 31
0.0
 70
   160
  1
%%c<>
 71
     2
 42
-1.0
  3
SLDDIMSTYLE0
100
AcDbAlignedDimension
 13
171.2525571273
 23
135.1389553863
 33
0.0
 14
171.2525571273
 24
95.1389553863
 34
0.0
 50
90.0
100
AcDbRotatedDimension
  0
DIMENSION
  5
1AE
330
1F
100
AcDbEntity
  8
VERMASSUNG
100
AcDbDimension
  2
*D4
 10
171.7525571273
 20
163.9340274007
 30
0.0
 11
100.2525571273
 21
163.9340274007
 31
0.0
 70
   160
 71
     2
 42
-1.0
  3
SLDDIMSTYLE0
100
AcDbAlignedDimension
 13
28.7525571273
 23
135.4312933788
 33
0.0
 14
171.7525571273
 24
145.6389553863
 34
0.0
100
AcDbRotatedDimension
  0
DIMENSION
  5
1B8
330
1F
100
AcDbEntity
  8
VERMASSUNG
100
AcDbDimension
  2
*D5
 10
171.7525571273
 20
157.9340274007
 30
0.0
 11
119.2525571273
 21
157.9340274007
 31
0.0
 70
   160
 71
     2
 42
-1.0
  3
SLDDIMSTYLE0
100
AcDbAlignedDimension
 13
66.7525571273
 23
146.3389553863
 33
0.0
 14
171.7525571273
 24
145.6389553863
 34
0.0
100
AcDbRotatedDimension
  0
DIMENSION
  5
1C2
330
1F
100
AcDbEntity
  8
VERMASSUNG
100
AcDbDimension
  2
*D6
 10
171.7525571273
 20
67.6389553863
 30
0.0
 11
138.7525571273
 21
67.6389553863
 31
0.0
 70
   160
 71
     2
 42
-1.0
  3
SLDDIMSTYLE0
100
AcDbAlignedDimension
 13
105.7525571273
 23
94.5389553863
 33
0.0
 14
171.7525571273
 24
84.6389553863
 34
0.0
100
AcDbRotatedDimension
  0
DIMENSION
  5
1CC
330
1F
100
AcDbEntity
  8
VERMASSUNG
100
AcDbDimension
  2
*D7
 10
145.7525571273
 20
73.6389553863
 30
0.0
 11
138.0025571273
 21
73.6389553863
 31
0.0
 70
   160
 71
     2
 42
-1.0
  3
SLDDIMSTYLE0
100
AcDbAlignedDimension
 13
130.2525571273
 23
115.1389553863
 33
0.0
 14
145.7525571273
 24
115.1389553863
 34
0.0
100
AcDbRotatedDimension
  0
DIMENSION
  5
1D6
330
1F
100
AcDbEntity
  8
VERMASSUNG
100
AcDbDimension
  2
*D8
 10
161.2525571273
 20
73.6389553863
 30
0.0
 11
153.5025571273
 21
73.6389553863
 31
0.0
 70
   160
 71
     2
 42
-1.0
  3
SLDDIMSTYLE0
100
AcDbAlignedDimension
 13
145.7525571273
 23
115.1389553863
 33
0.0
 14
161.2525571273
 24
115.1389553863
 34
0.0
100
AcDbRotatedDimension
  0
DIMENSION
  5
1E0
330
1F
100
AcDbEntity
  8
VERMASSUNG
100
AcDbDimension
  2
*D9
 10
171.7525571273
 20
73.6389553863
 30
0.0
 11
166.5025571273
 21
73.6389553863
 31
0.0
 70
   160
 71
     2
 42
-1.0
  3
SLDDIMSTYLE0
100
AcDbAlignedDimension
 13
161.2525571273
 23
115.1389553863
 33
0.0
 14
171.7525571273
 24
84.6389553863
 34
0.0
100
AcDbRotatedDimension
  0
DIMENSION
  5
1EA
330
1F
100
AcDbEntity
  8
VERMASSUNG
100
AcDbDimension
  2
*D10
 10
166.2525571273
 20
151.9340274007
 30
0.0
 11
161.2525571273
 21
151.9340274007
 31
0.0
 70
   160
  1
M<>
 71
     2
 42
-1.0
  3
SLDDIMSTYLE0
100
AcDbAlignedDimension
 13
156.2525571273
 23
146.1609093634
 33
0.0
 14
166.2525571273
 24
146.1609093634
 34
0.0
100
AcDbRotatedDimension
  0
LINE
  5
1F5
330
1F
100
AcDbEntity
  8
VERMASSUNG
  6
CENTERX2
370
     0
100
AcDbLine
 10
80.2248003137
 20
105.3659042069
 30
0.0
 11
80.2248003137
 21
84.7409361694
 31
0.0
  0
LINE
  5
1F6
330
1F
100
AcDbEntity
  8
VERMASSUNG
  6
CENTERX2
370
     0
100
AcDbLine
 10
77.2803139409
 20
105.3720689268
 30
0.0
 11
77.2803139409
 21
84.743000083
 31
0.0
  0
LINE
  5
1F7
330
1F
100
AcDbEntity
  8
VERMASSUNG
  6
CENTERX2
370
     0
100
AcDbLine
 10
77.2803139409
 20
145.5357340982
 30
0.0
 11
77.2803139409
 21
124.9058418458
 31
0.0
  0
LINE
  5
1F8
330
1F
100
AcDbEntity
  8
VERMASSUNG
  6
CENTERX2
370
     0
100
AcDbLine
 10
80.2248003137
 20
145.5295693782
 30
0.0
 11
80.2248003137
 21
124.9120065657
 31
0.0
  0
LINE
  5
1F9
330
1F
100
AcDbEntity
  8
VERMASSUNG
  6
CENTERX2
370
     0
100
AcDbLine
 10
161.2525571273
 20
111.3306816881
 30
0.0
 11
161.2525571273
 21
148.3158699699
 31
0.0
  0
LINE
  5
1FA
330
1F
100
AcDbEntity
  8
VERMASSUNG
  6
CENTERX2
370
     0
100
AcDbLine
 10
145.7525571273
 20
111.9611691624
 30
0.0
 11
145.7525571273
 21
148.3158699699
 31
0.0
  0
LINE
  5
1FB
330
1F
100
AcDbEntity
  8
VERMASSUNG
  6
CENTERX2
370
     0
100
AcDbLine
 10
130.2525571273
 20
111.8560879167
 30
0.0
 11
130.2525571273
 21
148.3158699699
 31
0.0
  0
LINE
  5
1FC
330
1F
100
AcDbEntity
  8
VERMASSUNG
  6
CENTERX2
370
     0
100
AcDbLine
 10
176.7026115343
 20
115.1389553863
 30
0.0
 11
25.2009793254
 21
115.1389553863
 31
0.0
  0
LINE
  5
1FD
330
1F
100
AcDbEntity
  8
0
  6
Continuous
 62
     7
370
    15
100
AcDbLine
 10
268.2003931538
 20
110.3264571487
 30
0.0
 11
268.5701849837
 21
110.9669553863
 31
0.0
  0
LINE
  5
1FE
330
1F
100
AcDbEntity
  8
0
  6
Continuous
 62
     7
370
    15
100
AcDbLine
 10
268.5701849837
 20
119.3109553863
 30
0.0
 11
268.2003931538
 21
119.9514536239
 31
0.0
  0
LINE
  5
1FF
330
1F
100
AcDbEntity
  8
0
  6
Continuous
 62
     7
370
    15
100
AcDbLine
 10
241.8826832213
 20
146.2691635564
 30
0.0
 11
241.2421849837
 21
146.6389553863
 31
0.0
  0
LINE
  5
200
330
1F
100
AcDbEntity
  8
0
  6
Continuous
 62
     7
370
    15
100
AcDbLine
 10
232.8981849837
 20
146.6389553863
 30
0.0
 11
232.257686746
 21
146.2691635564
 31
0.0
  0
LINE
  5
201
330
1F
100
AcDbEntity
  8
0
  6
Continuous
 62
     7
370
    15
100
AcDbLine
 10
205.9399768136
 20
119.9514536239
 30
0.0
 11
205.5701849837
 21
119.3109553863
 31
0.0
  0
LINE
  5
202
330
1F
100
AcDbEntity
  8
0
  6
Continuous
 62
     7
370
    15
100
AcDbLine
 10
205.5701849837
 20
110.9669553863
 30
0.0
 11
205.9399768136
 21
110.3264571486
 31
0.0
  0
LINE
  5
203
330
1F
100
AcDbEntity
  8
0
  6
Continuous
 62
     7
370
    15
100
AcDbLine
 10
268.5701849837
 20
119.3109553863
 30
0.0
 11
268.5701849837
 21
110.9669553863
 31
0.0
  0
LINE
  5
204
330
1F
100
AcDbEntity
  8
0
  6
Continuous
 62
     7
370
    15
100
AcDbLine
 10
232.8981849837
 20
146.6389553863
 30
0.0
 11
241.2421849837
 21
146.6389553863
 31
0.0
  0
LINE
  5
205
330
1F
100
AcDbEntity
  8
0
  6
Continuous
 62
     7
370
    15
100
AcDbLine
 10
205.5701849837
 20
110.9669553863
 30
0.0
 11
205.5701849837
 21
119.3109553863
 31
0.0
  0
LINE
  5
206
330
1F
100
AcDbEntity
  8
0
  6
Continuous
 62
     7
370
    15
100
AcDbLine
 10
222.1089403453
 20
129.8099955131
 30
0.0
 11
221.3589403453
 21
130.243008215
 31
0.0
  0
ARC
  5
207
330
1F
100
AcDbEntity
  8
0
  6
Continuous
 62
     7
370
    15
100
AcDbCircle
 10
247.5199272449
 20
115.1389553863
 30
0.0
 40
29.34208025369268
100
AcDbArc
 50
150.0
 51
174.3240597885
  0
SPLINE
  5
208
330
1F
100
AcDbEntity
  8
0
  6
Continuous
 62
     7
370
    15
100
AcDbSpline
210
0.0
220
0.0
230
1.0
 70
     8
 71
     3
 72
     8
 73
     4
 74
     0
 42
0.00000001
 43
0.00000001
 40
0.0
 40
0.0
 40
0.0
 40
0.0
 40
1.0
 40
1.0
 40
1.0
 40
1.0
 10
217.5731953704759
 20
119.104166283126
 30
0.0
 10
217.8402454025579
 20
118.8008963941979
 30
0.0
 10
218.0921761776489
 20
118.4563059648939
 30
0.0
 10
218.3217056700327
 20
118.0409427192718
 30
0.0
  0
ARC
  5
209
330
1F
100
AcDbEntity
  8
0
  6
Continuous
 62
     7
370
    15
100
AcDbCircle
 10
247.5199272449
 20
115.1389553863
 30
0.0
 40
30.20810565747713
100
AcDbArc
 50
150.0
 51
172.457409384
  0
LINE
  5
20A
330
1F
100
AcDbEntity
  8
0
  6
Continuous
 62
     7
370
    15
100
AcDbLine
 10
222.1089403453
 20
100.4679152594
 30
0.0
 11
221.3589403453
 21
100.0349025576
 31
0.0
  0
ARC
  5
20B
330
1F
100
AcDbEntity
  8
0
  6
Continuous
 62
     7
370
    15
100
AcDbCircle
 10
247.5199272449
 20
115.1389553863
 30
0.0
 40
30.20810565747713
100
AcDbArc
 50
187.542590616
 51
210.0
  0
SPLINE
  5
20C
330
1F
100
AcDbEntity
  8
0
  6
Continuous
 62
     7
370
    15
100
AcDbSpline
210
0.0
220
0.0
230
1.0
 70
     8
 71
     3
 72
     8
 73
     4
 74
     0
 42
0.00000001
 43
0.00000001
 40
0.0
 40
0.0
 40
0.0
 40
0.0
 40
1.0
 40
1.0
 40
1.0
 40
1.0
 10
218.3217056700338
 20
112.2369680533091
 30
0.0
 10
218.0921761776497
 20
111.8216048076861
 30
0.0
 10
217.8402454025583
 20
111.4770143783815
 30
0.0
 10
217.5731953704759
 20
111.1737444894529
 30
0.0
  0
ARC
  5
20D
330
1F
100
AcDbEntity
  8
0
  6
Continuous
 62
     7
370
    15
100
AcDbCircle
 10
247.5199272449
 20
115.1389553863
 30
0.0
 40
29.34208025369268
100
AcDbArc
 50
185.6759402115
 51
210.0
  0
ARC
  5
20E
330
1F
100
AcDbEntity
  8
0
  6
Continuous
 62
     7
370
    15
100
AcDbCircle
 10
231.8453138531
 20
124.1886976475
 30
0.0
 40
11.24259573130699
100
AcDbArc
 50
90.0
 51
150.0
  0
ARC
  5
20F
330
1F
100
AcDbEntity
  8
0
  6
Continuous
 62
     7
370
    15
100
AcDbCircle
 10
231.8453138531
 20
106.0892131251
 30
0.0
 40
29.3420802536927
100
AcDbArc
 50
30.0
 51
90.0
  0
ARC
  5
210
330
1F
100
AcDbEntity
  8
0
  6
Continuous
 62
     7
370
    15
100
AcDbCircle
 10
247.5199272449
 20
115.1389553863
 30
0.0
 40
11.24259573130696
100
AcDbArc
 50
330.0
 51
30.0
  0
ARC
  5
211
330
1F
100
AcDbEntity
  8
0
  6
Continuous
 62
     7
370
    15
100
AcDbCircle
 10
231.8453138531
 20
124.1886976475
 30
0.0
 40
29.3420802536927
100
AcDbArc
 50
270.0
 51
330.0
  0
ARC
  5
212
330
1F
100
AcDbEntity
  8
0
  6
Continuous
 62
     7
370
    15
100
AcDbCircle
 10
231.8453138531
 20
106.0892131251
 30
0.0
 40
11.24259573130698
100
AcDbArc
 50
210.0
 51
270.0
  0
CIRCLE
  5
213
330
1F
100
AcDbEntity
  8
0
  6
Continuous
 62
     7
370
    15
100
AcDbCircle
 10
237.0701849837
 20
115.1389553863
 30
0.0
 40
16.19642884446073
  0
ARC
  5
214
330
1F
100
AcDbEntity
  8
0
  6
Continuous
 62
     7
370
    15
100
AcDbCircle
 10
213.0701849837
 20
115.1389553863
 30
0.0
 40
6.000000000000038
100
AcDbArc
 50
331.0749852844
 51
28.9250147157
  0
CIRCLE
  5
215
330
1F
100
AcDbEntity
  8
0
  6
Continuous
 62
     7
370
    15
100
AcDbCircle
 10
237.0701849837
 20
115.1389553863
 30
0.0
 40
15.3129510429125
  0
LINE
  5
216
330
1F
100
AcDbEntity
  8
0
  6
Continuous
 62
     7
370
    15
100
AcDbLine
 10
231.8453138531
 20
94.8466173938
 30
0.0
 11
231.8453138531
 21
93.98059199
 31
0.0
  0
ARC
  5
217
330
1F
100
AcDbEntity
  8
0
  6
Continuous
 62
     7
370
    15
100
AcDbCircle
 10
231.8453138531
 20
106.0892131251
 30
0.0
 40
12.1086211350914
100
AcDbArc
 50
210.0
 51
270.0
  0
ARC
  5
218
330
1F
100
AcDbEntity
  8
0
  6
Continuous
 62
     7
370
    15
100
AcDbCircle
 10
231.8453138531
 20
124.1886976475
 30
0.0
 40
12.10862113509141
100
AcDbArc
 50
90.0
 51
150.0
  0
LINE
  5
219
330
1F
100
AcDbEntity
  8
0
  6
Continuous
 62
     7
370
    15
100
AcDbLine
 10
231.8453138531
 20
135.4312933788
 30
0.0
 11
231.8453138531
 21
136.2973187826
 31
0.0
  0
ARC
  5
21A
330
1F
100
AcDbEntity
  8
0
  6
Continuous
 62
     7
370
    15
100
AcDbCircle
 10
231.8453138531
 20
106.0892131251
 30
0.0
 40
30.20810565747713
100
AcDbArc
 50
30.0
 51
90.0
  0
LINE
  5
21B
330
1F
100
AcDbEntity
  8
0
  6
Continuous
 62
     7
370
    15
100
AcDbLine
 10
257.2563007527
 20
120.7602532519
 30
0.0
 11
258.0063007527
 21
121.1932659538
 31
0.0
  0
LINE
  5
21C
330
1F
100
AcDbEntity
  8
0
  6
Continuous
 62
     7
370
    15
100
AcDbLine
 10
257.2563007527
 20
109.5176575206
 30
0.0
 11
258.0063007527
 21
109.0846448187
 31
0.0
  0
ARC
  5
21D
330
1F
100
AcDbEntity
  8
0
  6
Continuous
 62
     7
370
    15
100
AcDbCircle
 10
231.8453138531
 20
124.1886976475
 30
0.0
 40
30.20810565747713
100
AcDbArc
 50
270.0
 51
330.0
  0
ARC
  5
21E
330
1F
100
AcDbEntity
  8
0
  6
Continuous
 62
     7
370
    15
100
AcDbCircle
 10
247.5199272449
 20
115.1389553863
 30
0.0
 40
12.1086211350914
100
AcDbArc
 50
330.0
 51
30.0
  0
LINE
  5
21F
330
1F
100
AcDbEntity
  8
0
  6
Continuous
 62
     7
370
    15
100
AcDbLine
 10
221.3589403453
 20
100.0349025576
 30
0.0
 11
220.6126556077
 21
99.6040348634
 31
0.0
  0
ARC
  5
220
330
1F
100
AcDbEntity
  8
0
  6
Continuous
 62
     7
370
    15
100
AcDbCircle
 10
247.5199272449
 20
115.1389553863
 30
0.0
 40
31.0698410457592
100
AcDbArc
 50
150.0
 51
210.0
  0
LINE
  5
221
330
1F
100
AcDbEntity
  8
0
  6
Continuous
 62
     7
370
    15
100
AcDbLine
 10
221.3589403453
 20
130.243008215
 30
0.0
 11
220.6126556077
 21
130.6738759092
 31
0.0
  0
SPLINE
  5
222
330
1F
100
AcDbEntity
  8
0
  6
Continuous
 62
     7
370
    15
100
AcDbSpline
210
0.0
220
0.0
230
1.0
 70
     8
 71
     3
 72
    24
 73
    20
 74
     0
 42
0.00000001
 43
0.00000001
 40
0.0
 40
0.0
 40
0.0
 40
0.0
 40
0.1249999999999999
 40
0.1249999999999999
 40
0.2499999999999998
 40
0.2499999999999998
 40
0.3749999999999997
 40
0.3749999999999997
 40
0.4374999999999997
 40
0.4374999999999997
 40
0.4999999999999998
 40
0.4999999999999998
 40
0.6249999999999999
 40
0.6249999999999999
 40
0.75
 40
0.75
 40
0.875
 40
0.875
 40
1.0
 40
1.0
 40
1.0
 40
1.0
 10
217.4639216931949
 20
111.0529943331902
 30
0.0
 10
217.4172437895132
 20
111.3520014355203
 30
0.0
 10
217.3745708233343
 20
111.6563392868391
 30
0.0
 10
217.2978766747468
 20
112.2820728242351
 30
0.0
 10
217.2638282933648
 20
112.6032975515626
 30
0.0
 10
217.205827572799
 20
113.2752233222953
 30
0.0
 10
217.1816532223511
 20
113.6305385541742
 30
0.0
 10
217.1566392197461
 20
114.1807697755266
 30
0.0
 10
217.1501437064217
 20
114.3671735605071
 30
0.0
 10
217.1412936532317
 20
114.7473080626034
 30
0.0
 10
217.1389653415313
 20
114.9429778548893
 30
0.0
 10
217.1388922583139
 20
115.5214582335637
 30
0.0
 10
217.1477991601679
 20
115.8993700725324
 30
0.0
 10
217.1812322108107
 20
116.6413380976309
 30
0.0
 10
217.2048935565444
 20
116.9900535577919
 30
0.0
 10
217.262687400827
 20
117.663145955525
 30
0.0
 10
217.2969884371672
 20
117.9880984427666
 30
0.0
 10
217.3741989798325
 20
118.6190222532284
 30
0.0
 10
217.4170880945382
 20
118.9249119935691
 30
0.0
 10
217.4639216931949
 20
119.2249164393886
 30
0.0
  0
SPLINE
  5
223
330
1F
100
AcDbEntity
  8
0
  6
Continuous
 62
     7
370
    15
100
AcDbSpline
210
0.0
220
0.0
230
1.0
 70
     8
 71
     3
 72
    10
 73
     6
 74
     0
 42
0.00000001
 43
0.00000001
 40
0.0
 40
0.0
 40
0.0
 40
0.0
 40
0.3432137459731977
 40
0.7445247391426543
 40
0.9999999999999999
 40
0.9999999999999999
 40
0.9999999999999999
 40
0.9999999999999999
 10
216.9787508599334
 20
117.7849669363469
 30
0.0
 10
216.9975047647563
 20
118.060594812255
 30
0.0
 10
217.0381871274531
 20
118.6585072642435
 30
0.0
 10
217.0736928763498
 20
119.1410856395765
 30
0.0
 10
217.054385793689
 20
119.1464500178236
 30
0.0
 10
217.0468757674835
 20
119.1485366417802
 30
0.0
  0
SPLINE
  5
224
330
1F
100
AcDbEntity
  8
0
  6
Continuous
 62
     7
370
    15
100
AcDbSpline
210
0.0
220
0.0
230
1.0
 70
     8
 71
     3
 72
    36
 73
    32
 74
     0
 42
0.00000001
 43
0.00000001
 40
0.0
 40
0.0
 40
0.0
 40
0.0
 40
0.1250000000000002
 40
0.1250000000000002
 40
0.1875000000000002
 40
0.1875000000000002
 40
0.2500000000000001
 40
0.2500000000000001
 40
0.3125000000000001
 40
0.3125000000000001
 40
0.3750000000000001
 40
0.3750000000000001
 40
0.4375000000000001
 40
0.4375000000000001
 40
0.5
 40
0.5
 40
0.5625000000000001
 40
0.5625000000000001
 40
0.6250000000000001
 40
0.6250000000000001
 40
0.6875000000000001
 40
0.6875000000000001
 40
0.7500000000000001
 40
0.7500000000000001
 40
0.8125000000000001
 40
0.8125000000000001
 40
0.8750000000000001
 40
0.8750000000000001
 40
0.9375000000000001
 40
0.9375000000000001
 40
1.0
 40
1.0
 40
1.0
 40
1.0
 10
217.0365794631637
 20
119.1827311517948
 30
0.0
 10
217.0156922731021
 20
119.1269023026128
 30
0.0
 10
216.9834145740191
 20
118.9824169080615
 30
0.0
 10
216.9239106222857
 20
118.6324139434524
 30
0.0
 10
216.9027960543164
 20
118.4962629001028
 30
0.0
 10
216.8596013957716
 20
118.1853623735057
 30
0.0
 10
216.8373561414577
 20
118.0092214571765
 30
0.0
 10
216.7943384485845
 20
117.6206881430839
 30
0.0
 10
216.7739631248605
 20
117.4120738715076
 30
0.0
 10
216.737207481656
 20
116.96585938903
 30
0.0
 10
216.7206687503651
 20
116.725157967928
 30
0.0
 10
216.6944046659486
 20
116.2276694139047
 30
0.0
 10
216.6846737572692
 20
115.9725139448998
 30
0.0
 10
216.6729664627945
 20
115.4492004486179
 30
0.0
 10
216.6710965508039
 20
115.1788606047498
 30
0.0
 10
216.6757265616717
 20
114.6503939624261
 30
0.0
 10
216.6820985816651
 20
114.3893736077769
 30
0.0
 10
216.7024967781879
 20
113.8738456404321
 30
0.0
 10
216.7162886258221
 20
113.6258752715017
 30
0.0
 10
216.7490608518424
 20
113.1551949940371
 30
0.0
 10
216.7683272845574
 20
112.9291688733388
 30
0.0
 10
216.8093189417012
 20
112.5134556498165
 30
0.0
 10
216.8309931411497
 20
112.3233160595342
 30
0.0
 10
216.8748658629944
 20
111.9769967004148
 30
0.0
 10
216.8970512070952
 20
111.8213235243805
 30
0.0
 10
216.9386071977006
 20
111.5549176641942
 30
0.0
 10
216.9582070039888
 20
111.4423604265416
 30
0.0
 10
216.9936525575748
 20
111.2586558717949
 30
0.0
 10
217.0091692300659
 20
111.1892934441447
 30
0.0
 10
217.0345610511287
 20
111.0959505686601
 30
0.0
 10
217.0445370240044
 20
111.0714653188675
 30
0.0
 10
217.0515112214091
 20
111.0700415987715
 30
0.0
  0
SPLINE
  5
225
330
1F
100
AcDbEntity
  8
0
  6
Continuous
 62
     7
370
    15
100
AcDbSpline
210
0.0
220
0.0
230
1.0
 70
     8
 71
     3
 72
    14
 73
    10
 74
     0
 42
0.00000001
 43
0.00000001
 40
0.0
 40
0.0
 40
0.0
 40
0.0
 40
0.1501771233694514
 40
0.3132008779645363
 40
0.4710638841144379
 40
0.619984801294585
 40
0.7599381108014214
 40
0.8961162904980998
 40
1.0
 40
1.0
 40
1.0
 40
1.0
 10
217.0520303820191
 20
111.0906741800649
 30
0.0
 10
217.0578507738491
 20
111.1351578267271
 30
0.0
 10
217.069989452433
 20
111.2279303933942
 30
0.0
 10
217.0114561461758
 20
111.9822754421929
 30
0.0
 10
216.937716416095
 20
113.1003343477848
 30
0.0
 10
216.888789524871
 20
114.4387871271609
 30
0.0
 10
216.8887306751207
 20
115.7889551538013
 30
0.0
 10
216.9280131040346
 20
116.9407747066324
 30
0.0
 10
216.9634262669905
 20
117.5299910893328
 30
0.0
 10
216.9787508599334
 20
117.7849669363468
 30
0.0
  0
SPLINE
  5
226
330
1F
100
AcDbEntity
  8
0
  6
Continuous
 62
     7
370
    15
100
AcDbSpline
210
0.0
220
0.0
230
1.0
 70
     8
 71
     3
 72
     8
 73
     4
 74
     0
 42
0.00000001
 43
0.00000001
 40
0.0000249631533153
 40
0.0000249631533153
 40
0.0000249631533153
 40
0.0000249631533153
 40
0.0049776413517029
 40
0.0049776413517029
 40
0.0049776413517029
 40
0.0049776413517029
 10
217.4639216931949
 20
119.2249164393887
 30
0.0
 10
217.5004215714058
 20
119.1856672021337
 30
0.0
 10
217.5368461575379
 20
119.1454455208942
 30
0.0
 10
217.5731953704759
 20
119.104166283126
 30
0.0
  0
SPLINE
  5
227
330
1F
100
AcDbEntity
  8
0
  6
Continuous
 62
     7
370
    15
100
AcDbSpline
210
0.0
220
0.0
230
1.0
 70
     8
 71
     3
 72
     8
 73
     4
 74
     0
 42
0.00000001
 43
0.00000001
 40
0.0000249638557296
 40
0.0000249638557296
 40
0.0000249638557296
 40
0.0000249638557296
 40
0.0049776420541172
 40
0.0049776420541172
 40
0.0049776420541172
 40
0.0049776420541172
 10
217.5731953704759
 20
111.1737444894529
 30
0.0
 10
217.5368461575379
 20
111.1324652516847
 30
0.0
 10
217.5004215714058
 20
111.0922435704452
 30
0.0
 10
217.4639216931949
 20
111.0529943331902
 30
0.0
  0
LINE
  5
228
330
1F
100
AcDbEntity
  8
0
  6
Continuous
 62
     7
370
    15
100
AcDbLine
 10
231.8453138531
 20
93.98059199
 30
0.0
 11
231.8453138531
 21
93.1188566017
 31
0.0
  0
ARC
  5
229
330
1F
100
AcDbEntity
  8
0
  6
Continuous
 62
     7
370
    15
100
AcDbCircle
 10
231.8453138531
 20
106.0892131251
 30
0.0
 40
12.9703565233735
100
AcDbArc
 50
210.0
 51
270.0
  0
ARC
  5
22A
330
1F
100
AcDbEntity
  8
0
  6
Continuous
 62
     7
370
    15
100
AcDbCircle
 10
231.8453138531
 20
124.1886976475
 30
0.0
 40
12.97035652337347
100
AcDbArc
 50
90.0
 51
150.0
  0
LINE
  5
22B
330
1F
100
AcDbEntity
  8
0
  6
Continuous
 62
     7
370
    15
100
AcDbLine
 10
231.8453138531
 20
136.2973187826
 30
0.0
 11
231.8453138531
 21
137.1590541709
 31
0.0
  0
LINE
  5
22C
330
1F
100
AcDbEntity
  8
0
  6
Continuous
 62
     7
370
    15
100
AcDbLine
 10
258.0063007527
 20
109.0846448187
 30
0.0
 11
258.7525854903
 21
108.6537771246
 31
0.0
  0
ARC
  5
22D
330
1F
100
AcDbEntity
  8
0
  6
Continuous
 62
     7
370
    15
100
AcDbCircle
 10
231.8453138531
 20
124.1886976475
 30
0.0
 40
31.0698410457592
100
AcDbArc
 50
270.0
 51
330.0
  0
ARC
  5
22E
330
1F
100
AcDbEntity
  8
0
  6
Continuous
 62
     7
370
    15
100
AcDbCircle
 10
231.8453138531
 20
106.0892131251
 30
0.0
 40
31.06984104575919
100
AcDbArc
 50
30.0
 51
90.0
  0
LINE
  5
22F
330
1F
100
AcDbEntity
  8
0
  6
Continuous
 62
     7
370
    15
100
AcDbLine
 10
258.0063007527
 20
121.1932659538
 30
0.0
 11
258.7525854903
 21
121.624133648
 31
0.0
  0
ARC
  5
230
330
1F
100
AcDbEntity
  8
0
  6
Continuous
 62
     7
370
    15
100
AcDbCircle
 10
247.5199272449
 20
115.1389553863
 30
0.0
 40
12.97035652337349
100
AcDbArc
 50
330.0
 51
30.0
  0
CIRCLE
  5
231
330
1F
100
AcDbEntity
  8
0
  6
Continuous
 62
     7
370
    15
100
AcDbCircle
 10
237.0701849837
 20
115.1389553863
 30
0.0
 40
14.0
  0
SPLINE
  5
232
330
1F
100
AcDbEntity
  8
0
  6
Continuous
 62
     7
370
    15
100
AcDbSpline
210
0.0
220
0.0
230
1.0
 70
     8
 71
     3
 72
    10
 73
     6
 74
     0
 42
0.00000001
 43
0.00000001
 40
0.0
 40
0.0
 40
0.0
 40
0.0
 40
0.5
 40
0.5
 40
1.0
 40
1.0
 40
1.0
 40
1.0
 10
223.0845673712878
 20
115.7733842633119
 30
0.0
 10
223.0750869410357
 20
115.5643936623039
 30
0.0
 10
223.0726900823763
 20
115.3528311962823
 30
0.0
 10
223.0726924485286
 20
114.9248424303147
 30
0.0
 10
223.0751065734119
 20
114.713084325899
 30
0.0
 10
223.0845673712878
 20
114.504526509267
 30
0.0
  0
CIRCLE
  5
233
330
1F
100
AcDbEntity
  8
0
  6
Continuous
 62
     7
370
    15
100
AcDbCircle
 10
237.0701849837
 20
115.1389553863
 30
0.0
 40
13.50000000000001
  0
CIRCLE
  5
234
330
1F
100
AcDbEntity
  8
0
  6
Continuous
 62
     7
370
    15
100
AcDbCircle
 10
237.0701849837
 20
115.1389553863
 30
0.0
 40
10.25
  0
CIRCLE
  5
235
330
1F
100
AcDbEntity
  8
0
  6
Continuous
 62
     7
370
    15
100
AcDbCircle
 10
237.0701849837
 20
115.1389553863
 30
0.0
 40
9.0
  0
ARC
  5
236
330
1F
100
AcDbEntity
  8
0
  6
Continuous
 62
     7
370
    15
100
AcDbCircle
 10
237.0701849837
 20
115.1389553863
 30
0.0
 40
22.53982027887554
100
AcDbArc
 50
138.1516123933
 51
221.8483876067
  0
LINE
  5
237
330
1F
100
AcDbEntity
  8
0
  6
Continuous
 62
     7
370
    15
100
AcDbLine
 10
232.176848972
 20
93.1433204318
 30
0.0
 11
232.4422492432
 21
93.079360898
 31
0.0
  0
ARC
  5
238
330
1F
100
AcDbEntity
  8
0
  6
Continuous
 62
     7
370
    15
100
AcDbCircle
 10
237.0701849837
 20
115.1389553863
 30
0.0
 40
22.53982027887555
100
AcDbArc
 50
258.1516123933
 51
341.8483876067
  0
ARC
  5
239
330
1F
100
AcDbEntity
  8
0
  6
Continuous
 62
     7
370
    15
100
AcDbCircle
 10
237.0701849837
 20
115.1389553863
 30
0.0
 40
22.53982027887553
100
AcDbArc
 50
18.1516123933
 51
101.8483876067
  0
LINE
  5
23A
330
1F
100
AcDbEntity
  8
0
  6
Continuous
 62
     7
370
    15
100
AcDbLine
 10
232.4422492432
 20
137.1985498745
 30
0.0
 11
232.2691643252
 21
137.1556606268
 31
0.0
  0
CIRCLE
  5
23B
330
1F
100
AcDbEntity
  8
0
  6
Continuous
 62
     7
370
    15
100
AcDbCircle
 10
237.0701849837
 20
115.1389553863
 30
0.0
 40
24.15710678118654
  0
ARC
  5
23C
330
1F
100
AcDbEntity
  8
0
  6
Continuous
 62
     7
370
    15
100
AcDbCircle
 10
231.8453138531
 20
124.1886976475
 30
0.0
 40
31.11506331103349
100
AcDbArc
 50
271.0992738961
 51
328.9007261039
  0
ARC
  5
23D
330
1F
100
AcDbEntity
  8
0
  6
Continuous
 62
     7
370
    15
100
AcDbCircle
 10
247.5199272449
 20
115.1389553863
 30
0.0
 40
31.11506331103348
100
AcDbArc
 50
151.0992738961
 51
208.9007261039
  0
ARC
  5
23E
330
1F
100
AcDbEntity
  8
0
  6
Continuous
 62
     7
370
    15
100
AcDbCircle
 10
231.8453138531
 20
106.0892131251
 30
0.0
 40
31.11506331103348
100
AcDbArc
 50
31.0992738961
 51
88.9007261039
  0
CIRCLE
  5
23F
330
1F
100
AcDbEntity
  8
0
  6
Continuous
 62
     7
370
    15
100
AcDbCircle
 10
237.0701849837
 20
115.1389553863
 30
0.0
 40
31.50000000000001
  0
CIRCLE
  5
240
330
1F
100
AcDbEntity
  8
0
  6
Continuous
 62
     7
370
    15
100
AcDbCircle
 10
237.0701849837
 20
115.1389553863
 30
0.0
 40
31.2
  0
CIRCLE
  5
241
330
1F
100
AcDbEntity
  8
0
  6
Continuous
 62
     7
370
    15
100
AcDbCircle
 10
237.0701849837
 20
115.1389553863
 30
0.0
 40
24.25000000000001
  0
LINE
  5
242
330
1F
100
AcDbEntity
  8
0
  6
HIDDEN
 62
     7
370
     0
100
AcDbLine
 10
258.0701849837
 20
120.1389553863
 30
0.0
 11
258.0701849837
 21
110.1389553863
 31
0.0
  0
LINE
  5
243
330
1F
100
AcDbEntity
  8
0
  6
HIDDEN
 62
     7
370
     0
100
AcDbLine
 10
256.5701849837
 20
118.6389553863
 30
0.0
 11
256.5701849837
 21
111.6389553863
 31
0.0
  0
LINE
  5
244
330
1F
100
AcDbEntity
  8
0
  6
HIDDEN
 62
     7
370
     0
100
AcDbLine
 10
268.0921389608
 20
120.1389553863
 30
0.0
 11
268.0921389608
 21
110.1389553863
 31
0.0
  0
LINE
  5
245
330
1F
100
AcDbEntity
  8
0
  6
HIDDEN
 62
     7
370
     0
100
AcDbLine
 10
268.5701849837
 20
110.9669553863
 30
0.0
 11
268.5701849837
 21
119.3109553863
 31
0.0
  0
LINE
  5
246
330
1F
100
AcDbEntity
  8
0
  6
HIDDEN
 62
     7
370
     0
100
AcDbLine
 10
262.5701849837
 20
113.6955797133
 30
0.0
 11
262.5701849837
 21
112.2522040403
 31
0.0
  0
LINE
  5
247
330
1F
100
AcDbEntity
  8
0
  6
HIDDEN
 62
     7
370
     0
100
AcDbLine
 10
268.5701849837
 20
113.6955797133
 30
0.0
 11
268.5701849837
 21
112.2522040403
 31
0.0
  0
LINE
  5
248
330
1F
100
AcDbEntity
  8
0
  6
HIDDEN
 62
     7
370
     0
100
AcDbLine
 10
262.5701849837
 20
113.6955797133
 30
0.0
 11
268.5701849837
 21
113.6955797133
 31
0.0
  0
LINE
  5
249
330
1F
100
AcDbEntity
  8
0
  6
HIDDEN
 62
     7
370
     0
100
AcDbLine
 10
262.5701849837
 20
113.6955797133
 30
0.0
 11
262.5701849837
 21
116.5823310593
 31
0.0
  0
LINE
  5
24A
330
1F
100
AcDbEntity
  8
0
  6
HIDDEN
 62
     7
370
     0
100
AcDbLine
 10
268.5701849837
 20
113.6955797133
 30
0.0
 11
268.5701849837
 21
116.5823310593
 31
0.0
  0
LINE
  5
24B
330
1F
100
AcDbEntity
  8
0
  6
HIDDEN
 62
     7
370
     0
100
AcDbLine
 10
262.5701849837
 20
116.5823310593
 30
0.0
 11
268.5701849837
 21
116.5823310593
 31
0.0
  0
LINE
  5
24C
330
1F
100
AcDbEntity
  8
0
  6
HIDDEN
 62
     7
370
     0
100
AcDbLine
 10
262.5701849837
 20
116.5823310593
 30
0.0
 11
262.5701849837
 21
118.0257067322
 31
0.0
  0
LINE
  5
24D
330
1F
100
AcDbEntity
  8
0
  6
HIDDEN
 62
     7
370
     0
100
AcDbLine
 10
268.5701849837
 20
116.5823310593
 30
0.0
 11
268.5701849837
 21
118.0257067322
 31
0.0
  0
LINE
  5
24E
330
1F
100
AcDbEntity
  8
0
  6
HIDDEN
 62
     7
370
     0
100
AcDbLine
 10
262.5701849837
 20
113.6955797133
 30
0.0
 11
268.5701849837
 21
113.6955797133
 31
0.0
  0
LINE
  5
24F
330
1F
100
AcDbEntity
  8
0
  6
HIDDEN
 62
     7
370
     0
100
AcDbLine
 10
262.5701849837
 20
112.2522040403
 30
0.0
 11
268.5701849837
 21
112.2522040403
 31
0.0
  0
LINE
  5
250
330
1F
100
AcDbEntity
  8
0
  6
HIDDEN
 62
     7
370
     0
100
AcDbLine
 10
262.5701849837
 20
113.6955797133
 30
0.0
 11
262.5701849837
 21
112.2522040403
 31
0.0
  0
LINE
  5
251
330
1F
100
AcDbEntity
  8
0
  6
HIDDEN
 62
     7
370
     0
100
AcDbLine
 10
268.5701849837
 20
113.6955797133
 30
0.0
 11
268.5701849837
 21
112.2522040403
 31
0.0
  0
LINE
  5
252
330
1F
100
AcDbEntity
  8
0
  6
HIDDEN
 62
     7
370
     0
100
AcDbLine
 10
262.5701849837
 20
116.5823310593
 30
0.0
 11
268.5701849837
 21
116.5823310593
 31
0.0
  0
LINE
  5
253
330
1F
100
AcDbEntity
  8
0
  6
HIDDEN
 62
     7
370
     0
100
AcDbLine
 10
262.5701849837
 20
118.0257067322
 30
0.0
 11
268.5701849837
 21
118.0257067322
 31
0.0
  0
LINE
  5
254
330
1F
100
AcDbEntity
  8
0
  6
HIDDEN
 62
     7
370
     0
100
AcDbLine
 10
262.5701849837
 20
116.5823310593
 30
0.0
 11
262.5701849837
 21
118.0257067322
 31
0.0
  0
LINE
  5
255
330
1F
100
AcDbEntity
  8
0
  6
HIDDEN
 62
     7
370
     0
100
AcDbLine
 10
268.5701849837
 20
116.5823310593
 30
0.0
 11
268.5701849837
 21
118.0257067322
 31
0.0
  0
LINE
  5
256
330
1F
100
AcDbEntity
  8
0
  6
HIDDEN
 62
     7
370
     0
100
AcDbLine
 10
262.5701849837
 20
113.6955797133
 30
0.0
 11
262.5701849837
 21
116.5823310593
 31
0.0
  0
LINE
  5
257
330
1F
100
AcDbEntity
  8
0
  6
HIDDEN
 62
     7
370
     0
100
AcDbLine
 10
268.5701849837
 20
113.6955797133
 30
0.0
 11
268.5701849837
 21
116.5823310593
 31
0.0
  0
LINE
  5
258
330
1F
100
AcDbEntity
  8
0
  6
HIDDEN
 62
     7
370
     0
100
AcDbLine
 10
241.2421849837
 20
146.6389553863
 30
0.0
 11
232.8981849837
 21
146.6389553863
 31
0.0
  0
LINE
  5
259
330
1F
100
AcDbEntity
  8
0
  6
HIDDEN
 62
     7
370
     0
100
AcDbLine
 10
232.0701849837
 20
146.1609093634
 30
0.0
 11
242.0701849837
 21
146.1609093634
 31
0.0
  0
LINE
  5
25A
330
1F
100
AcDbEntity
  8
0
  6
HIDDEN
 62
     7
370
     0
100
AcDbLine
 10
232.0701849837
 20
136.1389553863
 30
0.0
 11
242.0701849837
 21
136.1389553863
 31
0.0
  0
LINE
  5
25B
330
1F
100
AcDbEntity
  8
0
  6
HIDDEN
 62
     7
370
     0
100
AcDbLine
 10
233.5701849837
 20
134.6389553863
 30
0.0
 11
240.5701849837
 21
134.6389553863
 31
0.0
  0
LINE
  5
25C
330
1F
100
AcDbEntity
  8
0
  6
HIDDEN
 62
     7
370
     0
100
AcDbLine
 10
238.5135606567
 20
146.6389553863
 30
0.0
 11
239.9569363296
 21
146.6389553863
 31
0.0
  0
LINE
  5
25D
330
1F
100
AcDbEntity
  8
0
  6
HIDDEN
 62
     7
370
     0
100
AcDbLine
 10
238.5135606567
 20
140.6389553863
 30
0.0
 11
239.9569363296
 21
140.6389553863
 31
0.0
  0
LINE
  5
25E
330
1F
100
AcDbEntity
  8
0
  6
HIDDEN
 62
     7
370
     0
100
AcDbLine
 10
238.5135606567
 20
140.6389553863
 30
0.0
 11
235.6268093107
 21
140.6389553863
 31
0.0
  0
LINE
  5
25F
330
1F
100
AcDbEntity
  8
0
  6
HIDDEN
 62
     7
370
     0
100
AcDbLine
 10
238.5135606567
 20
140.6389553863
 30
0.0
 11
238.5135606567
 21
146.6389553863
 31
0.0
  0
LINE
  5
260
330
1F
100
AcDbEntity
  8
0
  6
HIDDEN
 62
     7
370
     0
100
AcDbLine
 10
238.5135606567
 20
146.6389553863
 30
0.0
 11
235.6268093107
 21
146.6389553863
 31
0.0
  0
LINE
  5
261
330
1F
100
AcDbEntity
  8
0
  6
HIDDEN
 62
     7
370
     0
100
AcDbLine
 10
235.6268093107
 20
140.6389553863
 30
0.0
 11
235.6268093107
 21
146.6389553863
 31
0.0
  0
LINE
  5
262
330
1F
100
AcDbEntity
  8
0
  6
HIDDEN
 62
     7
370
     0
100
AcDbLine
 10
235.6268093107
 20
140.6389553863
 30
0.0
 11
234.1834336377
 21
140.6389553863
 31
0.0
  0
LINE
  5
263
330
1F
100
AcDbEntity
  8
0
  6
HIDDEN
 62
     7
370
     0
100
AcDbLine
 10
235.6268093107
 20
146.6389553863
 30
0.0
 11
234.1834336377
 21
146.6389553863
 31
0.0
  0
LINE
  5
264
330
1F
100
AcDbEntity
  8
0
  6
HIDDEN
 62
     7
370
     0
100
AcDbLine
 10
238.5135606567
 20
140.6389553863
 30
0.0
 11
238.5135606567
 21
146.6389553863
 31
0.0
  0
LINE
  5
265
330
1F
100
AcDbEntity
  8
0
  6
HIDDEN
 62
     7
370
     0
100
AcDbLine
 10
238.5135606567
 20
140.6389553863
 30
0.0
 11
239.9569363296
 21
140.6389553863
 31
0.0
  0
LINE
  5
266
330
1F
100
AcDbEntity
  8
0
  6
HIDDEN
 62
     7
370
     0
100
AcDbLine
 10
239.9569363296
 20
140.6389553863
 30
0.0
 11
239.9569363296
 21
146.6389553863
 31
0.0
  0
LINE
  5
267
330
1F
100
AcDbEntity
  8
0
  6
HIDDEN
 62
     7
370
     0
100
AcDbLine
 10
238.5135606567
 20
146.6389553863
 30
0.0
 11
239.9569363296
 21
146.6389553863
 31
0.0
  0
LINE
  5
268
330
1F
100
AcDbEntity
  8
0
  6
HIDDEN
 62
     7
370
     0
100
AcDbLine
 10
235.6268093107
 20
140.6389553863
 30
0.0
 11
235.6268093107
 21
146.6389553863
 31
0.0
  0
LINE
  5
269
330
1F
100
AcDbEntity
  8
0
  6
HIDDEN
 62
     7
370
     0
100
AcDbLine
 10
234.1834336377
 20
140.6389553863
 30
0.0
 11
234.1834336377
 21
146.6389553863
 31
0.0
  0
LINE
  5
26A
330
1F
100
AcDbEntity
  8
0
  6
HIDDEN
 62
     7
370
     0
100
AcDbLine
 10
235.6268093107
 20
140.6389553863
 30
0.0
 11
234.1834336377
 21
140.6389553863
 31
0.0
  0
LINE
  5
26B
330
1F
100
AcDbEntity
  8
0
  6
HIDDEN
 62
     7
370
     0
100
AcDbLine
 10
235.6268093107
 20
146.6389553863
 30
0.0
 11
234.1834336377
 21
146.6389553863
 31
0.0
  0
LINE
  5
26C
330
1F
100
AcDbEntity
  8
0
  6
HIDDEN
 62
     7
370
     0
100
AcDbLine
 10
238.5135606567
 20
140.6389553863
 30
0.0
 11
235.6268093107
 21
140.6389553863
 31
0.0
  0
LINE
  5
26D
330
1F
100
AcDbEntity
  8
0
  6
HIDDEN
 62
     7
370
     0
100
AcDbLine
 10
238.5135606567
 20
146.6389553863
 30
0.0
 11
235.6268093107
 21
146.6389553863
 31
0.0
  0
LINE
  5
26E
330
1F
100
AcDbEntity
  8
0
  6
HIDDEN
 62
     7
370
     0
100
AcDbLine
 10
206.0482310066
 20
110.1389553863
 30
0.0
 11
206.0482310066
 21
120.1389553863
 31
0.0
  0
LINE
  5
26F
330
1F
100
AcDbEntity
  8
0
  6
HIDDEN
 62
     7
370
     0
100
AcDbLine
 10
216.0701849837
 20
110.1389553863
 30
0.0
 11
216.0701849837
 21
120.1389553863
 31
0.0
  0
LINE
  5
270
330
1F
100
AcDbEntity
  8
0
  6
HIDDEN
 62
     7
370
     0
100
AcDbLine
 10
205.5701849837
 20
119.3109553863
 30
0.0
 11
205.5701849837
 21
110.9669553863
 31
0.0
  0
LINE
  5
271
330
1F
100
AcDbEntity
  8
0
  6
HIDDEN
 62
     7
370
     0
100
AcDbLine
 10
217.5701849837
 20
111.6389553863
 30
0.0
 11
217.5701849837
 21
118.6389553863
 31
0.0
  0
LINE
  5
272
330
1F
100
AcDbEntity
  8
0
  6
HIDDEN
 62
     7
370
     0
100
AcDbLine
 10
205.5701849837
 20
116.5823310593
 30
0.0
 11
205.5701849837
 21
118.0257067322
 31
0.0
  0
LINE
  5
273
330
1F
100
AcDbEntity
  8
0
  6
HIDDEN
 62
     7
370
     0
100
AcDbLine
 10
211.5701849837
 20
116.5823310593
 30
0.0
 11
211.5701849837
 21
118.0257067322
 31
0.0
  0
LINE
  5
274
330
1F
100
AcDbEntity
  8
0
  6
HIDDEN
 62
     7
370
     0
100
AcDbLine
 10
211.5701849837
 20
116.5823310593
 30
0.0
 11
211.5701849837
 21
113.6955797133
 31
0.0
  0
LINE
  5
275
330
1F
100
AcDbEntity
  8
0
  6
HIDDEN
 62
     7
370
     0
100
AcDbLine
 10
211.5701849837
 20
116.5823310593
 30
0.0
 11
205.5701849837
 21
116.5823310593
 31
0.0
  0
LINE
  5
276
330
1F
100
AcDbEntity
  8
0
  6
HIDDEN
 62
     7
370
     0
100
AcDbLine
 10
205.5701849837
 20
116.5823310593
 30
0.0
 11
205.5701849837
 21
113.6955797133
 31
0.0
  0
LINE
  5
277
330
1F
100
AcDbEntity
  8
0
  6
HIDDEN
 62
     7
370
     0
100
AcDbLine
 10
211.5701849837
 20
113.6955797133
 30
0.0
 11
205.5701849837
 21
113.6955797133
 31
0.0
  0
LINE
  5
278
330
1F
100
AcDbEntity
  8
0
  6
HIDDEN
 62
     7
370
     0
100
AcDbLine
 10
211.5701849837
 20
113.6955797133
 30
0.0
 11
211.5701849837
 21
112.2522040403
 31
0.0
  0
LINE
  5
279
330
1F
100
AcDbEntity
  8
0
  6
HIDDEN
 62
     7
370
     0
100
AcDbLine
 10
205.5701849837
 20
113.6955797133
 30
0.0
 11
205.5701849837
 21
112.2522040403
 31
0.0
  0
LINE
  5
27A
330
1F
100
AcDbEntity
  8
0
  6
HIDDEN
 62
     7
370
     0
100
AcDbLine
 10
211.5701849837
 20
116.5823310593
 30
0.0
 11
205.5701849837
 21
116.5823310593
 31
0.0
  0
LINE
  5
27B
330
1F
100
AcDbEntity
  8
0
  6
HIDDEN
 62
     7
370
     0
100
AcDbLine
 10
211.5701849837
 20
116.5823310593
 30
0.0
 11
211.5701849837
 21
118.0257067322
 31
0.0
  0
LINE
  5
27C
330
1F
100
AcDbEntity
  8
0
  6
HIDDEN
 62
     7
370
     0
100
AcDbLine
 10
211.5701849837
 20
118.0257067322
 30
0.0
 11
205.5701849837
 21
118.0257067322
 31
0.0
  0
LINE
  5
27D
330
1F
100
AcDbEntity
  8
0
  6
HIDDEN
 62
     7
370
     0
100
AcDbLine
 10
205.5701849837
 20
116.5823310593
 30
0.0
 11
205.5701849837
 21
118.0257067322
 31
0.0
  0
LINE
  5
27E
330
1F
100
AcDbEntity
  8
0
  6
HIDDEN
 62
     7
370
     0
100
AcDbLine
 10
211.5701849837
 20
113.6955797133
 30
0.0
 11
205.5701849837
 21
113.6955797133
 31
0.0
  0
LINE
  5
27F
330
1F
100
AcDbEntity
  8
0
  6
HIDDEN
 62
     7
370
     0
100
AcDbLine
 10
211.5701849837
 20
112.2522040403
 30
0.0
 11
205.5701849837
 21
112.2522040403
 31
0.0
  0
LINE
  5
280
330
1F
100
AcDbEntity
  8
0
  6
HIDDEN
 62
     7
370
     0
100
AcDbLine
 10
211.5701849837
 20
113.6955797133
 30
0.0
 11
211.5701849837
 21
112.2522040403
 31
0.0
  0
LINE
  5
281
330
1F
100
AcDbEntity
  8
0
  6
HIDDEN
 62
     7
370
     0
100
AcDbLine
 10
205.5701849837
 20
113.6955797133
 30
0.0
 11
205.5701849837
 21
112.2522040403
 31
0.0
  0
LINE
  5
282
330
1F
100
AcDbEntity
  8
0
  6
HIDDEN
 62
     7
370
     0
100
AcDbLine
 10
211.5701849837
 20
116.5823310593
 30
0.0
 11
211.5701849837
 21
113.6955797133
 31
0.0
  0
LINE
  5
283
330
1F
100
AcDbEntity
  8
0
  6
HIDDEN
 62
     7
370
     0
100
AcDbLine
 10
205.5701849837
 20
116.5823310593
 30
0.0
 11
205.5701849837
 21
113.6955797133
 31
0.0
  0
SPLINE
  5
284
330
1F
100
AcDbEntity
  8
0
  6
HIDDEN
 62
     7
370
     0
100
AcDbSpline
210
0.0
220
0.0
230
1.0
 70
    11
 71
     3
 72
    70
 73
    66
 74
     0
 42
0.00000001
 43
0.00000001
 40
-0.0312499999999998
 40
-0.0312499999999998
 40
0.0
 40
0.0
 40
0.0312499999999996
 40
0.0312499999999996
 40
0.0625
 40
0.0625
 40
0.0937500000000003
 40
0.0937500000000003
 40
0.1250000000000006
 40
0.1250000000000006
 40
0.156250000000001
 40
0.156250000000001
 40
0.1875000000000013
 40
0.1875000000000013
 40
0.2187500000000017
 40
0.2187500000000017
 40
0.2500000000000021
 40
0.2500000000000021
 40
0.2812500000000025
 40
0.2812500000000025
 40
0.3125000000000029
 40
0.3125000000000029
 40
0.3437500000000033
 40
0.3437500000000033
 40
0.3750000000000037
 40
0.3750000000000037
 40
0.4062500000000041
 40
0.4062500000000041
 40
0.4375000000000045
 40
0.4375000000000045
 40
0.4687500000000049
 40
0.4687500000000049
 40
0.500000000000006
 40
0.500000000000006
 40
0.5312500000000057
 40
0.5312500000000057
 40
0.5625000000000052
 40
0.5625000000000052
 40
0.5937500000000049
 40
0.5937500000000049
 40
0.6250000000000044
 40
0.6250000000000044
 40
0.6562500000000041
 40
0.6562500000000041
 40
0.6875000000000037
 40
0.6875000000000037
 40
0.7187500000000033
 40
0.7187500000000033
 40
0.7500000000000029
 40
0.7500000000000029
 40
0.7812500000000026
 40
0.7812500000000026
 40
0.8125000000000022
 40
0.8125000000000022
 40
0.8437500000000018
 40
0.8437500000000018
 40
0.8750000000000014
 40
0.8750000000000014
 40
0.906250000000001
 40
0.906250000000001
 40
0.9375000000000007
 40
0.9375000000000007
 40
0.9687500000000002
 40
0.9687500000000002
 40
1.0
 40
1.0
 40
1.03125
 40
1.03125
 10
217.5830097137726
 20
119.6389553862894
 30
0.0
 10
217.5830097137726
 20
119.6389553862894
 30
0.0
 10
217.5761620440099
 20
119.6095860322895
 30
0.0
 10
217.550170117728
 20
119.4946973871833
 30
0.0
 10
217.5307113148239
 20
119.4077180921045
 30
0.0
 10
217.4826664575684
 20
119.1815392485878
 30
0.0
 10
217.4542752492383
 20
119.0432738139515
 30
0.0
 10
217.3921047208639
 20
118.7167723554078
 30
0.0
 10
217.3582001832494
 20
118.52739880211
 30
0.0
 10
217.2915430813113
 20
118.1137189151246
 30
0.0
 10
217.2584420235823
 20
117.8878118472451
 30
0.0
 10
217.1964329970752
 20
117.3962442324149
 30
0.0
 10
217.1682703882115
 20
117.1358364848038
 30
0.0
 10
217.1213916922908
 20
116.5947661241095
 30
0.0
 10
217.1023868843881
 20
116.3101444112339
 30
0.0
 10
217.0767688552907
 20
115.7288334951383
 30
0.0
 10
217.0702254066761
 20
115.4362225724383
 30
0.0
 10
217.0701449339243
 20
114.8471525934323
 30
0.0
 10
217.076829052533
 20
114.5478810893959
 30
0.0
 10
217.1022812280758
 20
113.9699943856975
 30
0.0
 10
217.1209309269353
 20
113.6890037912029
 30
0.0
 10
217.1681469555205
 20
113.1429645610774
 30
0.0
 10
217.1965432557549
 20
112.880976888894
 30
0.0
 10
217.257862452275
 20
112.3945103902643
 30
0.0
 10
217.2912278717591
 20
112.1661464568155
 30
0.0
 10
217.3585231419044
 20
111.7485092796754
 30
0.0
 10
217.391766585273
 20
111.5630155409402
 30
0.0
 10
217.4537641712474
 20
111.2372210347633
 30
0.0
 10
217.4827695218365
 20
111.0958795307022
 30
0.0
 10
217.5307101899501
 20
110.8702047922527
 30
0.0
 10
217.5498433154943
 20
110.7846705494976
 30
0.0
 10
217.5760779453711
 20
110.6686840229853
 30
0.0
 10
217.5829812423675
 20
110.6390786812482
 30
0.0
 10
217.5830380038227
 20
110.6388328766866
 30
0.0
 10
217.5764004744103
 20
110.6672772562463
 30
0.0
 10
217.5501409610279
 20
110.7833358957606
 30
0.0
 10
217.5308934029427
 20
110.8693818372358
 30
0.0
 10
217.4831771056313
 20
111.0939218693564
 30
0.0
 10
217.4543045423857
 20
111.2344773097415
 30
0.0
 10
217.3920265665601
 20
111.5615546751404
 30
0.0
 10
217.358802141629
 20
111.7469855434161
 30
0.0
 10
217.2919436771163
 20
112.1614994621484
 30
0.0
 10
217.2581964464016
 20
112.3920965965505
 30
0.0
 10
217.196808493789
 20
112.8786390581918
 30
0.0
 10
217.1687804581769
 20
113.1366161115436
 30
0.0
 10
217.1213457586835
 20
113.6832499785415
 30
0.0
 10
217.1024515153553
 20
113.967349854526
 30
0.0
 10
217.0769857082482
 20
114.543118062024
 30
0.0
 10
217.0702262624057
 20
114.8391990076049
 30
0.0
 10
217.0701440877426
 20
115.4331779212318
 30
0.0
 10
217.0767127495215
 20
115.7259586728481
 30
0.0
 10
217.1020179782549
 20
116.3033484814037
 30
0.0
 10
217.1210671381164
 20
116.5905229989553
 30
0.0
 10
217.1680551618902
 20
117.1338438310286
 30
0.0
 10
217.1959879772744
 20
117.3922558571809
 30
0.0
 10
217.2577312875684
 20
117.882629601821
 30
0.0
 10
217.2912899181005
 20
118.1120314656052
 30
0.0
 10
217.357893810015
 20
118.5256127461727
 30
0.0
 10
217.3913955399298
 20
118.7129366908173
 30
0.0
 10
217.4540625858435
 20
119.0422665972572
 30
0.0
 10
217.4824656278989
 20
119.1805543379418
 30
0.0
 10
217.5303241307067
 20
119.4059343519372
 30
0.0
 10
217.5498935491299
 20
119.4934663073971
 30
0.0
 10
217.5761587136809
 20
119.6095798210191
 30
0.0
 10
217.5830097137726
 20
119.6389553862894
 30
0.0
 10
217.5830097137726
 20
119.6389553862894
 30
0.0
  0
SPLINE
  5
285
330
1F
100
AcDbEntity
  8
0
  6
HIDDEN
 62
     7
370
     0
100
AcDbSpline
210
0.0
220
0.0
230
1.0
 70
    11
 71
     3
 72
    70
 73
    66
 74
     0
 42
0.00000001
 43
0.00000001
 40
-0.0312499999999998
 40
-0.0312499999999998
 40
0.0
 40
0.0
 40
0.0312499999999997
 40
0.0312499999999997
 40
0.0625000000000001
 40
0.0625000000000001
 40
0.0937500000000005
 40
0.0937500000000005
 40
0.1250000000000009
 40
0.1250000000000009
 40
0.1562500000000013
 40
0.1562500000000013
 40
0.1875000000000017
 40
0.1875000000000017
 40
0.2187500000000021
 40
0.2187500000000021
 40
0.2500000000000025
 40
0.2500000000000025
 40
0.2812500000000029
 40
0.2812500000000029
 40
0.3125000000000033
 40
0.3125000000000033
 40
0.3437500000000037
 40
0.3437500000000037
 40
0.3750000000000041
 40
0.3750000000000041
 40
0.4062500000000045
 40
0.4062500000000045
 40
0.4375000000000049
 40
0.4375000000000049
 40
0.4687500000000053
 40
0.4687500000000053
 40
0.500000000000005
 40
0.500000000000005
 40
0.5312500000000047
 40
0.5312500000000047
 40
0.5625000000000043
 40
0.5625000000000043
 40
0.593750000000004
 40
0.593750000000004
 40
0.6250000000000037
 40
0.6250000000000037
 40
0.6562500000000034
 40
0.6562500000000034
 40
0.6875000000000031
 40
0.6875000000000031
 40
0.7187500000000028
 40
0.7187500000000028
 40
0.7500000000000024
 40
0.7500000000000024
 40
0.7812500000000021
 40
0.7812500000000021
 40
0.8125000000000018
 40
0.8125000000000018
 40
0.8437500000000014
 40
0.8437500000000014
 40
0.8750000000000011
 40
0.8750000000000011
 40
0.9062500000000009
 40
0.9062500000000009
 40
0.9375000000000006
 40
0.9375000000000006
 40
0.9687500000000002
 40
0.9687500000000002
 40
1.0
 40
1.0
 40
1.03125
 40
1.03125
 10
205.8932704474379
 20
119.6389553862893
 30
0.0
 10
205.8932704474379
 20
119.6389553862893
 30
0.0
 10
205.8890089512756
 20
119.6097054841923
 30
0.0
 10
205.8728016003924
 20
119.4951710877739
 30
0.0
 10
205.8606631936786
 20
119.408468774264
 30
0.0
 10
205.8305791812279
 20
119.1824717072736
 30
0.0
 10
205.8127721125292
 20
119.0442311980968
 30
0.0
 10
205.7737046015233
 20
118.7176917908251
 30
0.0
 10
205.752321237041
 20
118.5278819950174
 30
0.0
 10
205.7102310755899
 20
118.1132963376358
 30
0.0
 10
205.6893143249022
 20
117.8870085869224
 30
0.0
 10
205.6501283424594
 20
117.3952533185094
 30
0.0
 10
205.6322520855473
 20
117.1339108287705
 30
0.0
 10
205.6025768150497
 20
116.5926088080275
 30
0.0
 10
205.5905675428321
 20
116.3086361258426
 30
0.0
 10
205.574344501769
 20
115.7275975463746
 30
0.0
 10
205.5702087071325
 20
115.4353749488795
 30
0.0
 10
205.5701614637257
 20
114.8475995514956
 30
0.0
 10
205.5743852176662
 20
114.5490274841818
 30
0.0
 10
205.590497548184
 20
113.9716093390547
 30
0.0
 10
205.6023006886557
 20
113.6909173719947
 30
0.0
 10
205.6321312290709
 20
113.1456334809798
 30
0.0
 10
205.6501463812755
 20
112.8826561791586
 30
0.0
 10
205.6889319806354
 20
112.3954773295901
 30
0.0
 10
205.709903312842
 20
112.1678931399608
 30
0.0
 10
205.7524961198157
 20
111.748256111502
 30
0.0
 10
205.7734644166596
 20
111.5623348204182
 30
0.0
 10
205.8124301756715
 20
111.2364309104157
 30
0.0
 10
205.8305959598451
 20
111.0953110826432
 30
0.0
 10
205.8606650825909
 20
110.8694297479974
 30
0.0
 10
205.8726051845297
 20
110.7841400505796
 30
0.0
 10
205.8889459924278
 20
110.668638070606
 30
0.0
 10
205.8932541948402
 20
110.6390679875985
 30
0.0
 10
205.8932866052212
 20
110.6388434418747
 30
0.0
 10
205.8891471290116
 20
110.667236659784
 30
0.0
 10
205.8728292974082
 20
110.7825361861332
 30
0.0
 10
205.8607561152091
 20
110.8687874238228
 30
0.0
 10
205.8309051227537
 20
111.0929476632932
 30
0.0
 10
205.8128891805277
 20
111.2327077906016
 30
0.0
 10
205.7736236146844
 20
111.56088919332
 30
0.0
 10
205.7526769906615
 20
111.7467477302035
 30
0.0
 10
205.7105586126564
 20
112.1611687007475
 30
0.0
 10
205.6892029565918
 20
112.3923373729387
 30
0.0
 10
205.650300710579
 20
112.8804568229429
 30
0.0
 10
205.6325798341526
 20
113.13859330826
 30
0.0
 10
205.6026424340662
 20
113.6835407137443
 30
0.0
 10
205.5905989702207
 20
113.9691337937903
 30
0.0
 10
205.5744804148798
 20
114.5444708600693
 30
0.0
 10
205.5702219392024
 20
114.8375884715854
 30
0.0
 10
205.5701485079958
 20
115.4325466860597
 30
0.0
 10
205.5743227144657
 20
115.7251545355017
 30
0.0
 10
205.590309311277
 20
116.3010212940177
 30
0.0
 10
205.6023182860692
 20
116.5873197926783
 30
0.0
 10
205.6321168864612
 20
117.1320103947961
 30
0.0
 10
205.64979453256
 20
117.3904725374815
 30
0.0
 10
205.6887026032564
 20
117.8799094519591
 30
0.0
 10
205.710024035331
 20
118.1111180784935
 30
0.0
 10
205.7521021991651
 20
118.5258620099743
 30
0.0
 10
205.7730766591759
 20
118.7122689278901
 30
0.0
 10
205.8124778187934
 20
119.0419416707291
 30
0.0
 10
205.8304470895619
 20
119.1814374364247
 30
0.0
 10
205.8603924667732
 20
119.4064764314035
 30
0.0
 10
205.8725484312322
 20
119.4933697602658
 30
0.0
 10
205.8890067121528
 20
119.6097016996205
 30
0.0
 10
205.8932704474379
 20
119.6389553862893
 30
0.0
 10
205.8932704474379
 20
119.6389553862893
 30
0.0
  0
SPLINE
  5
286
330
1F
100
AcDbEntity
  8
0
  6
HIDDEN
 62
     7
370
     0
100
AcDbSpline
210
0.0
220
0.0
230
1.0
 70
    11
 71
     3
 72
    70
 73
    66
 74
     0
 42
0.00000001
 43
0.00000001
 40
-0.0312499999999994
 40
-0.0312499999999994
 40
0.0
 40
0.0
 40
0.0312499999999997
 40
0.0312499999999997
 40
0.0625000000000001
 40
0.0625000000000001
 40
0.0937500000000006
 40
0.0937500000000006
 40
0.125000000000001
 40
0.125000000000001
 40
0.1562500000000014
 40
0.1562500000000014
 40
0.1875000000000019
 40
0.1875000000000019
 40
0.2187500000000023
 40
0.2187500000000023
 40
0.2500000000000027
 40
0.2500000000000027
 40
0.2812500000000032
 40
0.2812500000000032
 40
0.3125000000000036
 40
0.3125000000000036
 40
0.3437500000000039
 40
0.3437500000000039
 40
0.3750000000000043
 40
0.3750000000000043
 40
0.4062500000000047
 40
0.4062500000000047
 40
0.4375000000000051
 40
0.4375000000000051
 40
0.4687500000000054
 40
0.4687500000000054
 40
0.5000000000000066
 40
0.5000000000000066
 40
0.5312500000000061
 40
0.5312500000000061
 40
0.5625000000000058
 40
0.5625000000000058
 40
0.5937500000000053
 40
0.5937500000000053
 40
0.6250000000000049
 40
0.6250000000000049
 40
0.6562500000000046
 40
0.6562500000000046
 40
0.6875000000000041
 40
0.6875000000000041
 40
0.7187500000000038
 40
0.7187500000000038
 40
0.7500000000000033
 40
0.7500000000000033
 40
0.7812500000000029
 40
0.7812500000000029
 40
0.8125000000000026
 40
0.8125000000000026
 40
0.8437500000000021
 40
0.8437500000000021
 40
0.8750000000000017
 40
0.8750000000000017
 40
0.9062500000000013
 40
0.9062500000000013
 40
0.9375000000000009
 40
0.9375000000000009
 40
0.9687500000000006
 40
0.9687500000000006
 40
1.0
 40
1.0
 40
1.03125
 40
1.03125
 10
256.5573602535829
 20
110.6389553862897
 30
0.0
 10
256.5573602535828
 20
110.6389553862897
 30
0.0
 10
256.5642079233457
 20
110.6683247402895
 30
0.0
 10
256.5901998496275
 20
110.7832133853957
 30
0.0
 10
256.6096586525317
 20
110.8701926804746
 30
0.0
 10
256.657703509787
 20
111.0963715239912
 30
0.0
 10
256.6860947181172
 20
111.2346369586275
 30
0.0
 10
256.7482652464917
 20
111.5611384171712
 30
0.0
 10
256.7821697841061
 20
111.750511970469
 30
0.0
 10
256.8488268860442
 20
112.1641918574545
 30
0.0
 10
256.8819279437732
 20
112.3900989253339
 30
0.0
 10
256.9439369702803
 20
112.8816665401641
 30
0.0
 10
256.9720995791441
 20
113.1420742877752
 30
0.0
 10
257.0189782750647
 20
113.6831446484696
 30
0.0
 10
257.0379830829675
 20
113.9677663613451
 30
0.0
 10
257.0636011120648
 20
114.5490772774408
 30
0.0
 10
257.0701445606794
 20
114.8416882001408
 30
0.0
 10
257.0702250334312
 20
115.4307581791468
 30
0.0
 10
257.0635409148225
 20
115.7300296831831
 30
0.0
 10
257.0380887392797
 20
116.3079163868815
 30
0.0
 10
257.0194390404202
 20
116.5889069813761
 30
0.0
 10
256.972223011835
 20
117.1349462115016
 30
0.0
 10
256.9438267116006
 20
117.396933883685
 30
0.0
 10
256.8825075150805
 20
117.8834003823148
 30
0.0
 10
256.8491420955964
 20
118.1117643157636
 30
0.0
 10
256.7818468254511
 20
118.5294014929036
 30
0.0
 10
256.7486033820824
 20
118.7148952316388
 30
0.0
 10
256.6866057961081
 20
119.0406897378157
 30
0.0
 10
256.6576004455189
 20
119.1820312418768
 30
0.0
 10
256.6096597774054
 20
119.4077059803263
 30
0.0
 10
256.5905266518612
 20
119.4932402230814
 30
0.0
 10
256.5642920219844
 20
119.6092267495937
 30
0.0
 10
256.557388724988
 20
119.6388320913308
 30
0.0
 10
256.5573319635328
 20
119.6390778958925
 30
0.0
 10
256.5639694929452
 20
119.6106335163328
 30
0.0
 10
256.5902290063275
 20
119.4945748768184
 30
0.0
 10
256.6094765644128
 20
119.4085289353432
 30
0.0
 10
256.6571928617241
 20
119.1839889032227
 30
0.0
 10
256.6860654249697
 20
119.0434334628376
 30
0.0
 10
256.7483434007953
 20
118.7163560974387
 30
0.0
 10
256.7815678257264
 20
118.5309252291629
 30
0.0
 10
256.8484262902391
 20
118.1164113104306
 30
0.0
 10
256.8821735209538
 20
117.8858141760285
 30
0.0
 10
256.9435614735664
 20
117.3992717143872
 30
0.0
 10
256.9715895091786
 20
117.1412946610355
 30
0.0
 10
257.019024208672
 20
116.5946607940375
 30
0.0
 10
257.0379184520002
 20
116.310560918053
 30
0.0
 10
257.0633842591072
 20
115.734792710555
 30
0.0
 10
257.0701437049497
 20
115.4387117649742
 30
0.0
 10
257.0702258796128
 20
114.8447328513473
 30
0.0
 10
257.0636572178339
 20
114.5519520997309
 30
0.0
 10
257.0383519891005
 20
113.9745622911753
 30
0.0
 10
257.0193028292391
 20
113.6873877736237
 30
0.0
 10
256.9723148054651
 20
113.1440669415505
 30
0.0
 10
256.9443819900811
 20
112.8856549153982
 30
0.0
 10
256.8826386797871
 20
112.395281170758
 30
0.0
 10
256.849080049255
 20
112.1658793069739
 30
0.0
 10
256.7824761573405
 20
111.7522980264063
 30
0.0
 10
256.7489744274257
 20
111.5649740817618
 30
0.0
 10
256.686307381512
 20
111.2356441753218
 30
0.0
 10
256.6579043394566
 20
111.0973564346372
 30
0.0
 10
256.6100458366488
 20
110.8719764206419
 30
0.0
 10
256.5904764182256
 20
110.7844444651819
 30
0.0
 10
256.5642112536746
 20
110.66833095156
 30
0.0
 10
256.5573602535829
 20
110.6389553862897
 30
0.0
 10
256.5573602535828
 20
110.6389553862897
 30
0.0
  0
SPLINE
  5
287
330
1F
100
AcDbEntity
  8
0
  6
HIDDEN
 62
     7
370
     0
100
AcDbSpline
210
0.0
220
0.0
230
1.0
 70
    11
 71
     3
 72
    70
 73
    66
 74
     0
 42
0.00000001
 43
0.00000001
 40
-0.0312499999999998
 40
-0.0312499999999998
 40
0.0
 40
0.0
 40
0.0312499999999997
 40
0.0312499999999997
 40
0.0625000000000001
 40
0.0625000000000001
 40
0.0937500000000005
 40
0.0937500000000005
 40
0.1250000000000009
 40
0.1250000000000009
 40
0.1562500000000013
 40
0.1562500000000013
 40
0.1875000000000017
 40
0.1875000000000017
 40
0.2187500000000021
 40
0.2187500000000021
 40
0.2500000000000025
 40
0.2500000000000025
 40
0.2812500000000029
 40
0.2812500000000029
 40
0.3125000000000033
 40
0.3125000000000033
 40
0.3437500000000037
 40
0.3437500000000037
 40
0.3750000000000041
 40
0.3750000000000041
 40
0.4062500000000045
 40
0.4062500000000045
 40
0.4375000000000049
 40
0.4375000000000049
 40
0.4687500000000053
 40
0.4687500000000053
 40
0.500000000000005
 40
0.500000000000005
 40
0.5312500000000047
 40
0.5312500000000047
 40
0.5625000000000043
 40
0.5625000000000043
 40
0.593750000000004
 40
0.593750000000004
 40
0.6250000000000037
 40
0.6250000000000037
 40
0.6562500000000034
 40
0.6562500000000034
 40
0.6875000000000031
 40
0.6875000000000031
 40
0.7187500000000028
 40
0.7187500000000028
 40
0.7500000000000024
 40
0.7500000000000024
 40
0.7812500000000021
 40
0.7812500000000021
 40
0.8125000000000018
 40
0.8125000000000018
 40
0.8437500000000014
 40
0.8437500000000014
 40
0.8750000000000011
 40
0.8750000000000011
 40
0.9062500000000009
 40
0.9062500000000009
 40
0.9375000000000006
 40
0.9375000000000006
 40
0.9687500000000002
 40
0.9687500000000002
 40
1.0
 40
1.0
 40
1.03125
 40
1.03125
 10
268.2470995199176
 20
110.6389553862898
 30
0.0
 10
268.2470995199176
 20
110.6389553862898
 30
0.0
 10
268.2513610160799
 20
110.6682052883868
 30
0.0
 10
268.2675683669631
 20
110.7827396848052
 30
0.0
 10
268.2797067736769
 20
110.8694419983151
 30
0.0
 10
268.3097907861276
 20
111.0954390653055
 30
0.0
 10
268.3275978548263
 20
111.2336795744823
 30
0.0
 10
268.3666653658323
 20
111.560218981754
 30
0.0
 10
268.3880487303145
 20
111.7500287775618
 30
0.0
 10
268.4301388917656
 20
112.1646144349433
 30
0.0
 10
268.4510556424533
 20
112.3909021856567
 30
0.0
 10
268.4902416248961
 20
112.8826574540697
 30
0.0
 10
268.5081178818082
 20
113.1439999438086
 30
0.0
 10
268.5377931523058
 20
113.6853019645516
 30
0.0
 10
268.5498024245234
 20
113.9692746467365
 30
0.0
 10
268.5660254655865
 20
114.5503132262045
 30
0.0
 10
268.570161260223
 20
114.8425358236996
 30
0.0
 10
268.5702085036298
 20
115.4303112210835
 30
0.0
 10
268.5659847496893
 20
115.7288832883973
 30
0.0
 10
268.5498724191715
 20
116.3063014335244
 30
0.0
 10
268.5380692786998
 20
116.5869934005845
 30
0.0
 10
268.5082387382845
 20
117.1322772915993
 30
0.0
 10
268.49022358608
 20
117.3952545934205
 30
0.0
 10
268.4514379867201
 20
117.882433442989
 30
0.0
 10
268.4304666545135
 20
118.1100176326183
 30
0.0
 10
268.3878738475398
 20
118.5296546610771
 30
0.0
 10
268.3669055506959
 20
118.7155759521608
 30
0.0
 10
268.327939791684
 20
119.0414798621634
 30
0.0
 10
268.3097740075103
 20
119.1825996899358
 30
0.0
 10
268.2797048847646
 20
119.4084810245817
 30
0.0
 10
268.2677647828258
 20
119.4937707219995
 30
0.0
 10
268.2514239749276
 20
119.6092727019732
 30
0.0
 10
268.2471157725153
 20
119.6388427849807
 30
0.0
 10
268.2470833621342
 20
119.6390673307044
 30
0.0
 10
268.2512228383438
 20
119.6106741127952
 30
0.0
 10
268.2675406699472
 20
119.4953745864459
 30
0.0
 10
268.2796138521463
 20
119.4091233487563
 30
0.0
 10
268.3094648446017
 20
119.1849631092859
 30
0.0
 10
268.3274807868278
 20
119.0452029819775
 30
0.0
 10
268.366746352671
 20
118.7170215792592
 30
0.0
 10
268.387692976694
 20
118.5311630423757
 30
0.0
 10
268.429811354699
 20
118.1167420718317
 30
0.0
 10
268.4511670107636
 20
117.8855733996404
 30
0.0
 10
268.4900692567765
 20
117.3974539496362
 30
0.0
 10
268.5077901332029
 20
117.1393174643191
 30
0.0
 10
268.5377275332892
 20
116.5943700588348
 30
0.0
 10
268.5497709971347
 20
116.3087769787888
 30
0.0
 10
268.5658895524757
 20
115.7334399125098
 30
0.0
 10
268.570148028153
 20
115.4403223009937
 30
0.0
 10
268.5702214593596
 20
114.8453640865194
 30
0.0
 10
268.5660472528897
 20
114.5527562370774
 30
0.0
 10
268.5500606560785
 20
113.9768894785614
 30
0.0
 10
268.5380516812863
 20
113.6905909799009
 30
0.0
 10
268.5082530808942
 20
113.145900377783
 30
0.0
 10
268.4905754347955
 20
112.8874382350976
 30
0.0
 10
268.4516673640991
 20
112.39800132062
 30
0.0
 10
268.4303459320245
 20
112.1667926940856
 30
0.0
 10
268.3882677681904
 20
111.7520487626048
 30
0.0
 10
268.3672933081796
 20
111.565641844689
 30
0.0
 10
268.3278921485621
 20
111.23596910185
 30
0.0
 10
268.3099228777936
 20
111.0964733361544
 30
0.0
 10
268.2799775005822
 20
110.8714343411756
 30
0.0
 10
268.2678215361234
 20
110.7845410123133
 30
0.0
 10
268.2513632552027
 20
110.6682090729586
 30
0.0
 10
268.2470995199176
 20
110.6389553862898
 30
0.0
 10
268.2470995199176
 20
110.6389553862898
 30
0.0
  0
SPLINE
  5
288
330
1F
100
AcDbEntity
  8
0
  6
HIDDEN
 62
     7
370
     0
100
AcDbSpline
210
0.0
220
0.0
230
1.0
 70
    11
 71
     3
 72
    70
 73
    66
 74
     0
 42
0.00000001
 43
0.00000001
 40
-0.03125
 40
-0.03125
 40
0.0
 40
0.0
 40
0.03125
 40
0.03125
 40
0.0625
 40
0.0625
 40
0.09375
 40
0.09375
 40
0.125
 40
0.125
 40
0.15625
 40
0.15625
 40
0.1875
 40
0.1875
 40
0.21875
 40
0.21875
 40
0.25
 40
0.25
 40
0.28125
 40
0.28125
 40
0.3125
 40
0.3125
 40
0.34375
 40
0.34375
 40
0.375
 40
0.375
 40
0.40625
 40
0.40625
 40
0.4375
 40
0.4375
 40
0.46875
 40
0.46875
 40
0.5
 40
0.5
 40
0.53125
 40
0.53125
 40
0.5625
 40
0.5625
 40
0.59375
 40
0.59375
 40
0.625
 40
0.625
 40
0.65625
 40
0.65625
 40
0.6875
 40
0.6875
 40
0.71875
 40
0.71875
 40
0.75
 40
0.75
 40
0.78125
 40
0.78125
 40
0.8125
 40
0.8125
 40
0.84375
 40
0.84375
 40
0.875
 40
0.875
 40
0.90625
 40
0.90625
 40
0.9375
 40
0.9375
 40
0.96875
 40
0.96875
 40
1.0
 40
1.0
 40
1.03125
 40
1.03125
 10
217.5830097137726
 20
119.6389553862894
 30
0.0
 10
217.5830097137726
 20
119.6389553862894
 30
0.0
 10
217.5761620440098
 20
119.6095860322895
 30
0.0
 10
217.5501701177279
 20
119.4946973871833
 30
0.0
 10
217.5307113148238
 20
119.4077180921045
 30
0.0
 10
217.4826664575684
 20
119.1815392485878
 30
0.0
 10
217.4542752492383
 20
119.0432738139515
 30
0.0
 10
217.3921047208638
 20
118.7167723554078
 30
0.0
 10
217.3582001832494
 20
118.52739880211
 30
0.0
 10
217.2915430813112
 20
118.1137189151246
 30
0.0
 10
217.2584420235822
 20
117.8878118472451
 30
0.0
 10
217.1964329970752
 20
117.3962442324149
 30
0.0
 10
217.1682703882114
 20
117.1358364848038
 30
0.0
 10
217.1213916922907
 20
116.5947661241095
 30
0.0
 10
217.102386884388
 20
116.3101444112339
 30
0.0
 10
217.0767688552907
 20
115.7288334951382
 30
0.0
 10
217.0702254066761
 20
115.4362225724383
 30
0.0
 10
217.0701449339243
 20
114.8471525934323
 30
0.0
 10
217.076829052533
 20
114.5478810893959
 30
0.0
 10
217.1022812280757
 20
113.9699943856975
 30
0.0
 10
217.1209309269353
 20
113.6890037912029
 30
0.0
 10
217.1681469555205
 20
113.1429645610774
 30
0.0
 10
217.1965432557548
 20
112.880976888894
 30
0.0
 10
217.2578624522749
 20
112.3945103902643
 30
0.0
 10
217.291227871759
 20
112.1661464568155
 30
0.0
 10
217.3585231419044
 20
111.7485092796754
 30
0.0
 10
217.391766585273
 20
111.5630155409402
 30
0.0
 10
217.4537641712473
 20
111.2372210347633
 30
0.0
 10
217.4827695218365
 20
111.0958795307022
 30
0.0
 10
217.53071018995
 20
110.8702047922527
 30
0.0
 10
217.5498433154942
 20
110.7846705494976
 30
0.0
 10
217.576077945371
 20
110.6686840229853
 30
0.0
 10
217.5829812423674
 20
110.6390786812482
 30
0.0
 10
217.5830380038226
 20
110.6388328766866
 30
0.0
 10
217.5764004744102
 20
110.6672772562463
 30
0.0
 10
217.5501409610278
 20
110.7833358957606
 30
0.0
 10
217.5308934029426
 20
110.8693818372358
 30
0.0
 10
217.4831771056313
 20
111.0939218693564
 30
0.0
 10
217.4543045423856
 20
111.2344773097415
 30
0.0
 10
217.39202656656
 20
111.5615546751404
 30
0.0
 10
217.358802141629
 20
111.7469855434161
 30
0.0
 10
217.2919436771163
 20
112.1614994621485
 30
0.0
 10
217.2581964464015
 20
112.3920965965505
 30
0.0
 10
217.196808493789
 20
112.8786390581918
 30
0.0
 10
217.1687804581768
 20
113.1366161115436
 30
0.0
 10
217.1213457586834
 20
113.6832499785416
 30
0.0
 10
217.1024515153552
 20
113.967349854526
 30
0.0
 10
217.0769857082481
 20
114.5431180620241
 30
0.0
 10
217.0702262624057
 20
114.8391990076049
 30
0.0
 10
217.0701440877425
 20
115.4331779212318
 30
0.0
 10
217.0767127495214
 20
115.7259586728482
 30
0.0
 10
217.1020179782548
 20
116.3033484814037
 30
0.0
 10
217.1210671381163
 20
116.5905229989553
 30
0.0
 10
217.1680551618902
 20
117.1338438310286
 30
0.0
 10
217.1959879772743
 20
117.3922558571809
 30
0.0
 10
217.2577312875683
 20
117.882629601821
 30
0.0
 10
217.2912899181005
 20
118.1120314656052
 30
0.0
 10
217.3578938100149
 20
118.5256127461727
 30
0.0
 10
217.3913955399297
 20
118.7129366908173
 30
0.0
 10
217.4540625858435
 20
119.0422665972572
 30
0.0
 10
217.4824656278988
 20
119.1805543379418
 30
0.0
 10
217.5303241307067
 20
119.4059343519372
 30
0.0
 10
217.5498935491298
 20
119.4934663073971
 30
0.0
 10
217.5761587136809
 20
119.6095798210191
 30
0.0
 10
217.5830097137726
 20
119.6389553862894
 30
0.0
 10
217.5830097137726
 20
119.6389553862894
 30
0.0
  0
SPLINE
  5
289
330
1F
100
AcDbEntity
  8
0
  6
HIDDEN
 62
     7
370
     0
100
AcDbSpline
210
0.0
220
0.0
230
1.0
 70
    11
 71
     3
 72
    70
 73
    66
 74
     0
 42
0.00000001
 43
0.00000001
 40
-0.03125
 40
-0.03125
 40
0.0
 40
0.0
 40
0.03125
 40
0.03125
 40
0.0625
 40
0.0625
 40
0.09375
 40
0.09375
 40
0.125
 40
0.125
 40
0.15625
 40
0.15625
 40
0.1875
 40
0.1875
 40
0.21875
 40
0.21875
 40
0.25
 40
0.25
 40
0.28125
 40
0.28125
 40
0.3125
 40
0.3125
 40
0.34375
 40
0.34375
 40
0.375
 40
0.375
 40
0.40625
 40
0.40625
 40
0.4375
 40
0.4375
 40
0.46875
 40
0.46875
 40
0.5
 40
0.5
 40
0.53125
 40
0.53125
 40
0.5625
 40
0.5625
 40
0.59375
 40
0.59375
 40
0.625
 40
0.625
 40
0.65625
 40
0.65625
 40
0.6875
 40
0.6875
 40
0.71875
 40
0.71875
 40
0.75
 40
0.75
 40
0.78125
 40
0.78125
 40
0.8125
 40
0.8125
 40
0.84375
 40
0.84375
 40
0.875
 40
0.875
 40
0.90625
 40
0.90625
 40
0.9375
 40
0.9375
 40
0.96875
 40
0.96875
 40
1.0
 40
1.0
 40
1.03125
 40
1.03125
 10
205.8932704474379
 20
119.6389553862893
 30
0.0
 10
205.8932704474379
 20
119.6389553862893
 30
0.0
 10
205.8890089512756
 20
119.6097054841923
 30
0.0
 10
205.8728016003924
 20
119.4951710877739
 30
0.0
 10
205.8606631936786
 20
119.4084687742641
 30
0.0
 10
205.8305791812279
 20
119.1824717072736
 30
0.0
 10
205.8127721125292
 20
119.0442311980968
 30
0.0
 10
205.7737046015232
 20
118.7176917908251
 30
0.0
 10
205.7523212370409
 20
118.5278819950173
 30
0.0
 10
205.7102310755899
 20
118.1132963376358
 30
0.0
 10
205.6893143249022
 20
117.8870085869224
 30
0.0
 10
205.6501283424594
 20
117.3952533185094
 30
0.0
 10
205.6322520855473
 20
117.1339108287705
 30
0.0
 10
205.6025768150497
 20
116.5926088080275
 30
0.0
 10
205.5905675428321
 20
116.3086361258426
 30
0.0
 10
205.5743445017689
 20
115.7275975463746
 30
0.0
 10
205.5702087071325
 20
115.4353749488795
 30
0.0
 10
205.5701614637256
 20
114.8475995514956
 30
0.0
 10
205.5743852176661
 20
114.5490274841818
 30
0.0
 10
205.5904975481839
 20
113.9716093390547
 30
0.0
 10
205.6023006886557
 20
113.6909173719947
 30
0.0
 10
205.6321312290709
 20
113.1456334809798
 30
0.0
 10
205.6501463812754
 20
112.8826561791586
 30
0.0
 10
205.6889319806353
 20
112.3954773295901
 30
0.0
 10
205.709903312842
 20
112.1678931399608
 30
0.0
 10
205.7524961198156
 20
111.748256111502
 30
0.0
 10
205.7734644166595
 20
111.5623348204183
 30
0.0
 10
205.8124301756714
 20
111.2364309104157
 30
0.0
 10
205.8305959598451
 20
111.0953110826432
 30
0.0
 10
205.8606650825908
 20
110.8694297479974
 30
0.0
 10
205.8726051845296
 20
110.7841400505796
 30
0.0
 10
205.8889459924278
 20
110.668638070606
 30
0.0
 10
205.8932541948401
 20
110.6390679875985
 30
0.0
 10
205.8932866052212
 20
110.6388434418747
 30
0.0
 10
205.8891471290116
 20
110.667236659784
 30
0.0
 10
205.8728292974082
 20
110.7825361861332
 30
0.0
 10
205.8607561152091
 20
110.8687874238228
 30
0.0
 10
205.8309051227536
 20
111.0929476632932
 30
0.0
 10
205.8128891805276
 20
111.2327077906016
 30
0.0
 10
205.7736236146843
 20
111.56088919332
 30
0.0
 10
205.7526769906614
 20
111.7467477302035
 30
0.0
 10
205.7105586126564
 20
112.1611687007475
 30
0.0
 10
205.6892029565917
 20
112.3923373729387
 30
0.0
 10
205.650300710579
 20
112.8804568229429
 30
0.0
 10
205.6325798341525
 20
113.13859330826
 30
0.0
 10
205.6026424340662
 20
113.6835407137443
 30
0.0
 10
205.5905989702207
 20
113.9691337937903
 30
0.0
 10
205.5744804148797
 20
114.5444708600693
 30
0.0
 10
205.5702219392023
 20
114.8375884715854
 30
0.0
 10
205.5701485079958
 20
115.4325466860597
 30
0.0
 10
205.5743227144657
 20
115.7251545355017
 30
0.0
 10
205.5903093112769
 20
116.3010212940178
 30
0.0
 10
205.6023182860691
 20
116.5873197926783
 30
0.0
 10
205.6321168864611
 20
117.1320103947961
 30
0.0
 10
205.6497945325599
 20
117.3904725374815
 30
0.0
 10
205.6887026032564
 20
117.8799094519591
 30
0.0
 10
205.7100240353309
 20
118.1111180784935
 30
0.0
 10
205.7521021991651
 20
118.5258620099743
 30
0.0
 10
205.7730766591758
 20
118.7122689278901
 30
0.0
 10
205.8124778187933
 20
119.0419416707291
 30
0.0
 10
205.8304470895619
 20
119.1814374364247
 30
0.0
 10
205.8603924667732
 20
119.4064764314035
 30
0.0
 10
205.8725484312321
 20
119.4933697602658
 30
0.0
 10
205.8890067121528
 20
119.6097016996205
 30
0.0
 10
205.8932704474379
 20
119.6389553862893
 30
0.0
 10
205.8932704474379
 20
119.6389553862893
 30
0.0
  0
SPLINE
  5
28A
330
1F
100
AcDbEntity
  8
0
  6
HIDDEN
 62
     7
370
     0
100
AcDbSpline
210
0.0
220
0.0
230
1.0
 70
    11
 71
     3
 72
    70
 73
    66
 74
     0
 42
0.00000001
 43
0.00000001
 40
-0.0312500000000001
 40
-0.0312500000000001
 40
0.0
 40
0.0
 40
0.03125
 40
0.03125
 40
0.0624999999999999
 40
0.0624999999999999
 40
0.0937499999999999
 40
0.0937499999999999
 40
0.1249999999999999
 40
0.1249999999999999
 40
0.1562499999999998
 40
0.1562499999999998
 40
0.1874999999999998
 40
0.1874999999999998
 40
0.2187499999999998
 40
0.2187499999999998
 40
0.2499999999999997
 40
0.2499999999999997
 40
0.2812499999999997
 40
0.2812499999999997
 40
0.3124999999999997
 40
0.3124999999999997
 40
0.3437499999999996
 40
0.3437499999999996
 40
0.3749999999999996
 40
0.3749999999999996
 40
0.4062499999999996
 40
0.4062499999999996
 40
0.4374999999999995
 40
0.4374999999999995
 40
0.4687499999999995
 40
0.4687499999999995
 40
0.4999999999999994
 40
0.4999999999999994
 40
0.5312499999999994
 40
0.5312499999999994
 40
0.5624999999999993
 40
0.5624999999999993
 40
0.5937499999999993
 40
0.5937499999999993
 40
0.6249999999999993
 40
0.6249999999999993
 40
0.6562499999999992
 40
0.6562499999999992
 40
0.6874999999999992
 40
0.6874999999999992
 40
0.7187499999999993
 40
0.7187499999999993
 40
0.7499999999999993
 40
0.7499999999999993
 40
0.7812499999999994
 40
0.7812499999999994
 40
0.8124999999999996
 40
0.8124999999999996
 40
0.8437499999999997
 40
0.8437499999999997
 40
0.8749999999999997
 40
0.8749999999999997
 40
0.9062499999999998
 40
0.9062499999999998
 40
0.9374999999999999
 40
0.9374999999999999
 40
0.9687499999999999
 40
0.9687499999999999
 40
1.0
 40
1.0
 40
1.03125
 40
1.03125
 10
256.5573602535828
 20
110.6389553862897
 30
0.0
 10
256.5573602535828
 20
110.6389553862897
 30
0.0
 10
256.5642079233456
 20
110.6683247402895
 30
0.0
 10
256.5901998496275
 20
110.7832133853957
 30
0.0
 10
256.6096586525316
 20
110.8701926804746
 30
0.0
 10
256.657703509787
 20
111.0963715239912
 30
0.0
 10
256.6860947181171
 20
111.2346369586275
 30
0.0
 10
256.7482652464917
 20
111.5611384171712
 30
0.0
 10
256.782169784106
 20
111.750511970469
 30
0.0
 10
256.8488268860442
 20
112.1641918574545
 30
0.0
 10
256.8819279437732
 20
112.390098925334
 30
0.0
 10
256.9439369702802
 20
112.8816665401641
 30
0.0
 10
256.972099579144
 20
113.1420742877752
 30
0.0
 10
257.0189782750647
 20
113.6831446484696
 30
0.0
 10
257.0379830829674
 20
113.9677663613451
 30
0.0
 10
257.0636011120648
 20
114.5490772774408
 30
0.0
 10
257.0701445606794
 20
114.8416882001408
 30
0.0
 10
257.0702250334311
 20
115.4307581791468
 30
0.0
 10
257.0635409148224
 20
115.7300296831831
 30
0.0
 10
257.0380887392797
 20
116.3079163868815
 30
0.0
 10
257.0194390404201
 20
116.5889069813761
 30
0.0
 10
256.9722230118349
 20
117.1349462115016
 30
0.0
 10
256.9438267116005
 20
117.396933883685
 30
0.0
 10
256.8825075150805
 20
117.8834003823148
 30
0.0
 10
256.8491420955963
 20
118.1117643157636
 30
0.0
 10
256.781846825451
 20
118.5294014929036
 30
0.0
 10
256.7486033820824
 20
118.7148952316389
 30
0.0
 10
256.686605796108
 20
119.0406897378158
 30
0.0
 10
256.6576004455189
 20
119.1820312418768
 30
0.0
 10
256.6096597774053
 20
119.4077059803263
 30
0.0
 10
256.5905266518611
 20
119.4932402230814
 30
0.0
 10
256.5642920219843
 20
119.6092267495937
 30
0.0
 10
256.557388724988
 20
119.6388320913308
 30
0.0
 10
256.5573319635328
 20
119.6390778958925
 30
0.0
 10
256.5639694929451
 20
119.6106335163328
 30
0.0
 10
256.5902290063275
 20
119.4945748768184
 30
0.0
 10
256.6094765644127
 20
119.4085289353432
 30
0.0
 10
256.6571928617241
 20
119.1839889032227
 30
0.0
 10
256.6860654249697
 20
119.0434334628376
 30
0.0
 10
256.7483434007952
 20
118.7163560974387
 30
0.0
 10
256.7815678257264
 20
118.5309252291629
 30
0.0
 10
256.848426290239
 20
118.1164113104306
 30
0.0
 10
256.8821735209538
 20
117.8858141760285
 30
0.0
 10
256.9435614735664
 20
117.3992717143872
 30
0.0
 10
256.9715895091786
 20
117.1412946610355
 30
0.0
 10
257.0190242086719
 20
116.5946607940375
 30
0.0
 10
257.0379184520002
 20
116.310560918053
 30
0.0
 10
257.0633842591072
 20
115.734792710555
 30
0.0
 10
257.0701437049497
 20
115.4387117649742
 30
0.0
 10
257.0702258796128
 20
114.8447328513472
 30
0.0
 10
257.0636572178338
 20
114.5519520997309
 30
0.0
 10
257.0383519891005
 20
113.9745622911753
 30
0.0
 10
257.019302829239
 20
113.6873877736237
 30
0.0
 10
256.9723148054651
 20
113.1440669415504
 30
0.0
 10
256.944381990081
 20
112.8856549153982
 30
0.0
 10
256.8826386797871
 20
112.395281170758
 30
0.0
 10
256.8490800492549
 20
112.1658793069739
 30
0.0
 10
256.7824761573405
 20
111.7522980264063
 30
0.0
 10
256.7489744274257
 20
111.5649740817618
 30
0.0
 10
256.6863073815119
 20
111.2356441753218
 30
0.0
 10
256.6579043394565
 20
111.0973564346372
 30
0.0
 10
256.6100458366487
 20
110.8719764206418
 30
0.0
 10
256.5904764182256
 20
110.7844444651819
 30
0.0
 10
256.5642112536746
 20
110.66833095156
 30
0.0
 10
256.5573602535828
 20
110.6389553862897
 30
0.0
 10
256.5573602535828
 20
110.6389553862897
 30
0.0
  0
SPLINE
  5
28B
330
1F
100
AcDbEntity
  8
0
  6
HIDDEN
 62
     7
370
     0
100
AcDbSpline
210
0.0
220
0.0
230
1.0
 70
    11
 71
     3
 72
    70
 73
    66
 74
     0
 42
0.00000001
 43
0.00000001
 40
-0.03125
 40
-0.03125
 40
0.0
 40
0.0
 40
0.03125
 40
0.03125
 40
0.0625
 40
0.0625
 40
0.09375
 40
0.09375
 40
0.125
 40
0.125
 40
0.15625
 40
0.15625
 40
0.1875
 40
0.1875
 40
0.21875
 40
0.21875
 40
0.25
 40
0.25
 40
0.28125
 40
0.28125
 40
0.3125
 40
0.3125
 40
0.34375
 40
0.34375
 40
0.375
 40
0.375
 40
0.40625
 40
0.40625
 40
0.4375
 40
0.4375
 40
0.46875
 40
0.46875
 40
0.5
 40
0.5
 40
0.53125
 40
0.53125
 40
0.5625
 40
0.5625
 40
0.59375
 40
0.59375
 40
0.625
 40
0.625
 40
0.65625
 40
0.65625
 40
0.6875
 40
0.6875
 40
0.71875
 40
0.71875
 40
0.75
 40
0.75
 40
0.78125
 40
0.78125
 40
0.8125
 40
0.8125
 40
0.84375
 40
0.84375
 40
0.875
 40
0.875
 40
0.90625
 40
0.90625
 40
0.9375
 40
0.9375
 40
0.96875
 40
0.96875
 40
1.0
 40
1.0
 40
1.03125
 40
1.03125
 10
268.2470995199175
 20
110.6389553862898
 30
0.0
 10
268.2470995199175
 20
110.6389553862898
 30
0.0
 10
268.2513610160798
 20
110.6682052883867
 30
0.0
 10
268.267568366963
 20
110.7827396848052
 30
0.0
 10
268.2797067736768
 20
110.8694419983151
 30
0.0
 10
268.3097907861276
 20
111.0954390653055
 30
0.0
 10
268.3275978548263
 20
111.2336795744823
 30
0.0
 10
268.3666653658322
 20
111.560218981754
 30
0.0
 10
268.3880487303145
 20
111.7500287775618
 30
0.0
 10
268.4301388917655
 20
112.1646144349433
 30
0.0
 10
268.4510556424532
 20
112.3909021856567
 30
0.0
 10
268.490241624896
 20
112.8826574540697
 30
0.0
 10
268.5081178818081
 20
113.1439999438086
 30
0.0
 10
268.5377931523057
 20
113.6853019645516
 30
0.0
 10
268.5498024245233
 20
113.9692746467365
 30
0.0
 10
268.5660254655864
 20
114.5503132262045
 30
0.0
 10
268.570161260223
 20
114.8425358236996
 30
0.0
 10
268.5702085036297
 20
115.4303112210835
 30
0.0
 10
268.5659847496892
 20
115.7288832883973
 30
0.0
 10
268.5498724191715
 20
116.3063014335244
 30
0.0
 10
268.5380692786997
 20
116.5869934005845
 30
0.0
 10
268.5082387382845
 20
117.1322772915993
 30
0.0
 10
268.4902235860799
 20
117.3952545934205
 30
0.0
 10
268.4514379867201
 20
117.882433442989
 30
0.0
 10
268.4304666545134
 20
118.1100176326183
 30
0.0
 10
268.3878738475398
 20
118.5296546610771
 30
0.0
 10
268.3669055506959
 20
118.7155759521608
 30
0.0
 10
268.3279397916839
 20
119.0414798621634
 30
0.0
 10
268.3097740075103
 20
119.1825996899359
 30
0.0
 10
268.2797048847646
 20
119.4084810245817
 30
0.0
 10
268.2677647828257
 20
119.4937707219995
 30
0.0
 10
268.2514239749275
 20
119.6092727019732
 30
0.0
 10
268.2471157725153
 20
119.6388427849806
 30
0.0
 10
268.2470833621342
 20
119.6390673307044
 30
0.0
 10
268.2512228383437
 20
119.6106741127952
 30
0.0
 10
268.2675406699472
 20
119.4953745864459
 30
0.0
 10
268.2796138521463
 20
119.4091233487563
 30
0.0
 10
268.3094648446017
 20
119.1849631092859
 30
0.0
 10
268.3274807868277
 20
119.0452029819775
 30
0.0
 10
268.366746352671
 20
118.7170215792592
 30
0.0
 10
268.387692976694
 20
118.5311630423757
 30
0.0
 10
268.429811354699
 20
118.1167420718316
 30
0.0
 10
268.4511670107636
 20
117.8855733996404
 30
0.0
 10
268.4900692567764
 20
117.3974539496362
 30
0.0
 10
268.5077901332028
 20
117.1393174643191
 30
0.0
 10
268.5377275332891
 20
116.5943700588348
 30
0.0
 10
268.5497709971347
 20
116.3087769787888
 30
0.0
 10
268.5658895524756
 20
115.7334399125098
 30
0.0
 10
268.570148028153
 20
115.4403223009937
 30
0.0
 10
268.5702214593596
 20
114.8453640865194
 30
0.0
 10
268.5660472528897
 20
114.5527562370774
 30
0.0
 10
268.5500606560784
 20
113.9768894785614
 30
0.0
 10
268.5380516812862
 20
113.6905909799008
 30
0.0
 10
268.5082530808942
 20
113.145900377783
 30
0.0
 10
268.4905754347955
 20
112.8874382350976
 30
0.0
 10
268.451667364099
 20
112.39800132062
 30
0.0
 10
268.4303459320244
 20
112.1667926940856
 30
0.0
 10
268.3882677681902
 20
111.7520487626048
 30
0.0
 10
268.3672933081796
 20
111.565641844689
 30
0.0
 10
268.3278921485621
 20
111.23596910185
 30
0.0
 10
268.3099228777935
 20
111.0964733361544
 30
0.0
 10
268.2799775005822
 20
110.8714343411756
 30
0.0
 10
268.2678215361233
 20
110.7845410123133
 30
0.0
 10
268.2513632552026
 20
110.6682090729586
 30
0.0
 10
268.2470995199175
 20
110.6389553862898
 30
0.0
 10
268.2470995199175
 20
110.6389553862898
 30
0.0
  0
SPLINE
  5
28C
330
1F
100
AcDbEntity
  8
0
  6
HIDDEN
 62
     7
370
     0
100
AcDbSpline
210
0.0
220
0.0
230
1.0
 70
    11
 71
     3
 72
    70
 73
    66
 74
     0
 42
0.00000001
 43
0.00000001
 40
-0.0312499999999999
 40
-0.0312499999999999
 40
0.0
 40
0.0
 40
0.03125
 40
0.03125
 40
0.0625
 40
0.0625
 40
0.09375
 40
0.09375
 40
0.125
 40
0.125
 40
0.15625
 40
0.15625
 40
0.1875
 40
0.1875
 40
0.21875
 40
0.21875
 40
0.2500000000000001
 40
0.2500000000000001
 40
0.2812500000000001
 40
0.2812500000000001
 40
0.3125000000000001
 40
0.3125000000000001
 40
0.3437500000000001
 40
0.3437500000000001
 40
0.3750000000000001
 40
0.3750000000000001
 40
0.4062500000000001
 40
0.4062500000000001
 40
0.4375000000000001
 40
0.4375000000000001
 40
0.4687500000000001
 40
0.4687500000000001
 40
0.5000000000000001
 40
0.5000000000000001
 40
0.5312500000000001
 40
0.5312500000000001
 40
0.5625000000000001
 40
0.5625000000000001
 40
0.5937500000000001
 40
0.5937500000000001
 40
0.6250000000000001
 40
0.6250000000000001
 40
0.6562500000000001
 40
0.6562500000000001
 40
0.6875000000000001
 40
0.6875000000000001
 40
0.7187500000000001
 40
0.7187500000000001
 40
0.7500000000000001
 40
0.7500000000000001
 40
0.7812500000000001
 40
0.7812500000000001
 40
0.8125000000000001
 40
0.8125000000000001
 40
0.8437500000000001
 40
0.8437500000000001
 40
0.8750000000000001
 40
0.8750000000000001
 40
0.9062500000000001
 40
0.9062500000000001
 40
0.9375000000000001
 40
0.9375000000000001
 40
0.9687500000000001
 40
0.9687500000000001
 40
1.0
 40
1.0
 40
1.03125
 40
1.03125
 10
217.5830097137725
 20
119.6389553862894
 30
0.0
 10
217.5830097137725
 20
119.6389553862894
 30
0.0
 10
217.5761620440098
 20
119.6095860322895
 30
0.0
 10
217.5501701177279
 20
119.4946973871833
 30
0.0
 10
217.5307113148238
 20
119.4077180921045
 30
0.0
 10
217.4826664575683
 20
119.1815392485878
 30
0.0
 10
217.4542752492382
 20
119.0432738139515
 30
0.0
 10
217.3921047208638
 20
118.7167723554078
 30
0.0
 10
217.3582001832494
 20
118.52739880211
 30
0.0
 10
217.2915430813112
 20
118.1137189151246
 30
0.0
 10
217.2584420235822
 20
117.8878118472451
 30
0.0
 10
217.1964329970751
 20
117.3962442324149
 30
0.0
 10
217.1682703882113
 20
117.1358364848038
 30
0.0
 10
217.1213916922907
 20
116.5947661241095
 30
0.0
 10
217.102386884388
 20
116.3101444112339
 30
0.0
 10
217.0767688552906
 20
115.7288334951383
 30
0.0
 10
217.070225406676
 20
115.4362225724383
 30
0.0
 10
217.0701449339242
 20
114.8471525934323
 30
0.0
 10
217.0768290525329
 20
114.5478810893959
 30
0.0
 10
217.1022812280757
 20
113.9699943856975
 30
0.0
 10
217.1209309269352
 20
113.6890037912029
 30
0.0
 10
217.1681469555204
 20
113.1429645610774
 30
0.0
 10
217.1965432557548
 20
112.880976888894
 30
0.0
 10
217.2578624522749
 20
112.3945103902643
 30
0.0
 10
217.291227871759
 20
112.1661464568155
 30
0.0
 10
217.3585231419043
 20
111.7485092796754
 30
0.0
 10
217.3917665852729
 20
111.5630155409402
 30
0.0
 10
217.4537641712473
 20
111.2372210347633
 30
0.0
 10
217.4827695218364
 20
111.0958795307022
 30
0.0
 10
217.53071018995
 20
110.8702047922527
 30
0.0
 10
217.5498433154942
 20
110.7846705494976
 30
0.0
 10
217.576077945371
 20
110.6686840229853
 30
0.0
 10
217.5829812423674
 20
110.6390786812482
 30
0.0
 10
217.5830380038225
 20
110.6388328766866
 30
0.0
 10
217.5764004744102
 20
110.6672772562463
 30
0.0
 10
217.5501409610278
 20
110.7833358957606
 30
0.0
 10
217.5308934029426
 20
110.8693818372358
 30
0.0
 10
217.4831771056312
 20
111.0939218693564
 30
0.0
 10
217.4543045423856
 20
111.2344773097415
 30
0.0
 10
217.39202656656
 20
111.5615546751404
 30
0.0
 10
217.3588021416289
 20
111.7469855434161
 30
0.0
 10
217.2919436771162
 20
112.1614994621484
 30
0.0
 10
217.2581964464015
 20
112.3920965965505
 30
0.0
 10
217.1968084937889
 20
112.8786390581918
 30
0.0
 10
217.1687804581767
 20
113.1366161115436
 30
0.0
 10
217.1213457586834
 20
113.6832499785415
 30
0.0
 10
217.1024515153551
 20
113.967349854526
 30
0.0
 10
217.0769857082481
 20
114.543118062024
 30
0.0
 10
217.0702262624056
 20
114.8391990076049
 30
0.0
 10
217.0701440877425
 20
115.4331779212318
 30
0.0
 10
217.0767127495214
 20
115.7259586728481
 30
0.0
 10
217.1020179782548
 20
116.3033484814037
 30
0.0
 10
217.1210671381162
 20
116.5905229989553
 30
0.0
 10
217.1680551618902
 20
117.1338438310286
 30
0.0
 10
217.1959879772743
 20
117.3922558571809
 30
0.0
 10
217.2577312875682
 20
117.882629601821
 30
0.0
 10
217.2912899181004
 20
118.1120314656052
 30
0.0
 10
217.3578938100149
 20
118.5256127461727
 30
0.0
 10
217.3913955399297
 20
118.7129366908173
 30
0.0
 10
217.4540625858434
 20
119.0422665972572
 30
0.0
 10
217.4824656278988
 20
119.1805543379418
 30
0.0
 10
217.5303241307066
 20
119.4059343519372
 30
0.0
 10
217.5498935491298
 20
119.4934663073971
 30
0.0
 10
217.5761587136808
 20
119.6095798210191
 30
0.0
 10
217.5830097137725
 20
119.6389553862894
 30
0.0
 10
217.5830097137725
 20
119.6389553862894
 30
0.0
  0
SPLINE
  5
28D
330
1F
100
AcDbEntity
  8
0
  6
HIDDEN
 62
     7
370
     0
100
AcDbSpline
210
0.0
220
0.0
230
1.0
 70
    11
 71
     3
 72
    70
 73
    66
 74
     0
 42
0.00000001
 43
0.00000001
 40
-0.0312499999999999
 40
-0.0312499999999999
 40
0.0
 40
0.0
 40
0.03125
 40
0.03125
 40
0.0625
 40
0.0625
 40
0.09375
 40
0.09375
 40
0.125
 40
0.125
 40
0.15625
 40
0.15625
 40
0.1874999999999999
 40
0.1874999999999999
 40
0.2187499999999999
 40
0.2187499999999999
 40
0.2499999999999999
 40
0.2499999999999999
 40
0.2812499999999999
 40
0.2812499999999999
 40
0.3124999999999999
 40
0.3124999999999999
 40
0.34375
 40
0.34375
 40
0.375
 40
0.375
 40
0.4062500000000001
 40
0.4062500000000001
 40
0.4375000000000001
 40
0.4375000000000001
 40
0.4687500000000002
 40
0.4687500000000002
 40
0.5000000000000002
 40
0.5000000000000002
 40
0.5312500000000002
 40
0.5312500000000002
 40
0.5625000000000002
 40
0.5625000000000002
 40
0.5937500000000002
 40
0.5937500000000002
 40
0.6250000000000002
 40
0.6250000000000002
 40
0.6562500000000002
 40
0.6562500000000002
 40
0.6875000000000002
 40
0.6875000000000002
 40
0.7187500000000002
 40
0.7187500000000002
 40
0.7500000000000001
 40
0.7500000000000001
 40
0.7812500000000001
 40
0.7812500000000001
 40
0.8125000000000001
 40
0.8125000000000001
 40
0.8437500000000001
 40
0.8437500000000001
 40
0.8750000000000001
 40
0.8750000000000001
 40
0.9062500000000001
 40
0.9062500000000001
 40
0.9375000000000001
 40
0.9375000000000001
 40
0.9687500000000001
 40
0.9687500000000001
 40
1.0
 40
1.0
 40
1.03125
 40
1.03125
 10
205.8932704474378
 20
119.6389553862893
 30
0.0
 10
205.8932704474378
 20
119.6389553862893
 30
0.0
 10
205.8890089512755
 20
119.6097054841924
 30
0.0
 10
205.8728016003923
 20
119.4951710877739
 30
0.0
 10
205.8606631936785
 20
119.408468774264
 30
0.0
 10
205.8305791812278
 20
119.1824717072736
 30
0.0
 10
205.8127721125291
 20
119.0442311980968
 30
0.0
 10
205.7737046015232
 20
118.7176917908251
 30
0.0
 10
205.7523212370409
 20
118.5278819950173
 30
0.0
 10
205.7102310755898
 20
118.1132963376358
 30
0.0
 10
205.6893143249021
 20
117.8870085869224
 30
0.0
 10
205.6501283424593
 20
117.3952533185094
 30
0.0
 10
205.6322520855472
 20
117.1339108287705
 30
0.0
 10
205.6025768150496
 20
116.5926088080275
 30
0.0
 10
205.590567542832
 20
116.3086361258426
 30
0.0
 10
205.5743445017689
 20
115.7275975463746
 30
0.0
 10
205.5702087071324
 20
115.4353749488795
 30
0.0
 10
205.5701614637256
 20
114.8475995514956
 30
0.0
 10
205.5743852176661
 20
114.5490274841818
 30
0.0
 10
205.5904975481839
 20
113.9716093390547
 30
0.0
 10
205.6023006886556
 20
113.6909173719947
 30
0.0
 10
205.6321312290708
 20
113.1456334809798
 30
0.0
 10
205.6501463812754
 20
112.8826561791586
 30
0.0
 10
205.6889319806353
 20
112.3954773295901
 30
0.0
 10
205.7099033128419
 20
112.1678931399608
 30
0.0
 10
205.7524961198156
 20
111.748256111502
 30
0.0
 10
205.7734644166594
 20
111.5623348204182
 30
0.0
 10
205.8124301756714
 20
111.2364309104157
 30
0.0
 10
205.8305959598451
 20
111.0953110826432
 30
0.0
 10
205.8606650825908
 20
110.8694297479974
 30
0.0
 10
205.8726051845296
 20
110.7841400505796
 30
0.0
 10
205.8889459924277
 20
110.668638070606
 30
0.0
 10
205.89325419484
 20
110.6390679875985
 30
0.0
 10
205.8932866052211
 20
110.6388434418747
 30
0.0
 10
205.8891471290115
 20
110.667236659784
 30
0.0
 10
205.8728292974081
 20
110.7825361861332
 30
0.0
 10
205.860756115209
 20
110.8687874238228
 30
0.0
 10
205.8309051227536
 20
111.0929476632932
 30
0.0
 10
205.8128891805276
 20
111.2327077906016
 30
0.0
 10
205.7736236146843
 20
111.56088919332
 30
0.0
 10
205.7526769906613
 20
111.7467477302035
 30
0.0
 10
205.7105586126563
 20
112.1611687007475
 30
0.0
 10
205.6892029565917
 20
112.3923373729387
 30
0.0
 10
205.6503007105789
 20
112.8804568229429
 30
0.0
 10
205.6325798341525
 20
113.13859330826
 30
0.0
 10
205.6026424340662
 20
113.6835407137443
 30
0.0
 10
205.5905989702206
 20
113.9691337937903
 30
0.0
 10
205.5744804148796
 20
114.5444708600693
 30
0.0
 10
205.5702219392023
 20
114.8375884715854
 30
0.0
 10
205.5701485079957
 20
115.4325466860597
 30
0.0
 10
205.5743227144656
 20
115.7251545355017
 30
0.0
 10
205.5903093112769
 20
116.3010212940178
 30
0.0
 10
205.602318286069
 20
116.5873197926783
 30
0.0
 10
205.6321168864611
 20
117.1320103947961
 30
0.0
 10
205.6497945325599
 20
117.3904725374815
 30
0.0
 10
205.6887026032563
 20
117.8799094519591
 30
0.0
 10
205.7100240353309
 20
118.1111180784935
 30
0.0
 10
205.7521021991651
 20
118.5258620099743
 30
0.0
 10
205.7730766591758
 20
118.7122689278901
 30
0.0
 10
205.8124778187932
 20
119.0419416707291
 30
0.0
 10
205.8304470895618
 20
119.1814374364247
 30
0.0
 10
205.8603924667731
 20
119.4064764314035
 30
0.0
 10
205.872548431232
 20
119.4933697602658
 30
0.0
 10
205.8890067121527
 20
119.6097016996205
 30
0.0
 10
205.8932704474378
 20
119.6389553862893
 30
0.0
 10
205.8932704474378
 20
119.6389553862893
 30
0.0
  0
SPLINE
  5
28E
330
1F
100
AcDbEntity
  8
0
  6
HIDDEN
 62
     7
370
     0
100
AcDbSpline
210
0.0
220
0.0
230
1.0
 70
    11
 71
     3
 72
    70
 73
    66
 74
     0
 42
0.00000001
 43
0.00000001
 40
-0.03125
 40
-0.03125
 40
0.0
 40
0.0
 40
0.0312500000000001
 40
0.0312500000000001
 40
0.0625000000000001
 40
0.0625000000000001
 40
0.0937500000000002
 40
0.0937500000000002
 40
0.1250000000000003
 40
0.1250000000000003
 40
0.1562500000000003
 40
0.1562500000000003
 40
0.1875000000000004
 40
0.1875000000000004
 40
0.2187500000000004
 40
0.2187500000000004
 40
0.2500000000000005
 40
0.2500000000000005
 40
0.2812500000000005
 40
0.2812500000000005
 40
0.3125000000000005
 40
0.3125000000000005
 40
0.3437500000000006
 40
0.3437500000000006
 40
0.3750000000000006
 40
0.3750000000000006
 40
0.4062500000000006
 40
0.4062500000000006
 40
0.4375000000000006
 40
0.4375000000000006
 40
0.4687500000000006
 40
0.4687500000000006
 40
0.5000000000000006
 40
0.5000000000000006
 40
0.5312500000000007
 40
0.5312500000000007
 40
0.5625000000000006
 40
0.5625000000000006
 40
0.5937500000000006
 40
0.5937500000000006
 40
0.6250000000000004
 40
0.6250000000000004
 40
0.6562500000000004
 40
0.6562500000000004
 40
0.6875000000000004
 40
0.6875000000000004
 40
0.7187500000000003
 40
0.7187500000000003
 40
0.7500000000000003
 40
0.7500000000000003
 40
0.7812500000000003
 40
0.7812500000000003
 40
0.8125000000000002
 40
0.8125000000000002
 40
0.8437500000000002
 40
0.8437500000000002
 40
0.8750000000000001
 40
0.8750000000000001
 40
0.9062500000000001
 40
0.9062500000000001
 40
0.9375000000000001
 40
0.9375000000000001
 40
0.96875
 40
0.96875
 40
1.0
 40
1.0
 40
1.03125
 40
1.03125
 10
241.5701849836776
 20
134.6261306561945
 30
0.0
 10
241.5701849836776
 20
134.6261306561945
 30
0.0
 10
241.5408156296778
 20
134.6329783259573
 30
0.0
 10
241.4259269845716
 20
134.6589702522392
 30
0.0
 10
241.3389476894927
 20
134.6784290551433
 30
0.0
 10
241.1127688459761
 20
134.7264739123987
 30
0.0
 10
240.9745034113398
 20
134.7548651207289
 30
0.0
 10
240.6480019527961
 20
134.8170356491033
 30
0.0
 10
240.4586283994983
 20
134.8509401867177
 30
0.0
 10
240.0449485125128
 20
134.9175972886559
 30
0.0
 10
239.8190414446333
 20
134.9506983463849
 30
0.0
 10
239.3274738298032
 20
135.012707372892
 30
0.0
 10
239.0670660821921
 20
135.0408699817557
 30
0.0
 10
238.5259957214977
 20
135.0877486776764
 30
0.0
 10
238.2413740086222
 20
135.1067534855791
 30
0.0
 10
237.6600630925265
 20
135.1323715146765
 30
0.0
 10
237.3674521698265
 20
135.1389149632911
 30
0.0
 10
236.7783821908205
 20
135.1389954360429
 30
0.0
 10
236.4791106867841
 20
135.1323113174342
 30
0.0
 10
235.9012239830858
 20
135.1068591418914
 30
0.0
 10
235.6202333885912
 20
135.0882094430319
 30
0.0
 10
235.0741941584657
 20
135.0409934144467
 30
0.0
 10
234.8122064862823
 20
135.0125971142124
 30
0.0
 10
234.3257399876526
 20
134.9512779176922
 30
0.0
 10
234.0973760542037
 20
134.9179124982081
 30
0.0
 10
233.6797388770637
 20
134.8506172280628
 30
0.0
 10
233.4942451383284
 20
134.8173737846942
 30
0.0
 10
233.1684506321515
 20
134.7553761987198
 30
0.0
 10
233.0271091280904
 20
134.7263708481307
 30
0.0
 10
232.801434389641
 20
134.6784301800171
 30
0.0
 10
232.7159001468859
 20
134.6592970544729
 30
0.0
 10
232.5999136203735
 20
134.6330624245961
 30
0.0
 10
232.5703082786364
 20
134.6261591275997
 30
0.0
 10
232.5700624740748
 20
134.6261023661446
 30
0.0
 10
232.5985068536345
 20
134.6327398955569
 30
0.0
 10
232.7145654931488
 20
134.6589994089393
 30
0.0
 10
232.8006114346241
 20
134.6782469670245
 30
0.0
 10
233.0251514667446
 20
134.7259632643358
 30
0.0
 10
233.1657069071297
 20
134.7548358275815
 30
0.0
 10
233.4927842725286
 20
134.8171138034071
 30
0.0
 10
233.6782151408044
 20
134.8503382283382
 30
0.0
 10
234.0927290595367
 20
134.9171966928509
 30
0.0
 10
234.3233261939387
 20
134.9509439235656
 30
0.0
 10
234.8098686555801
 20
135.0123318761782
 30
0.0
 10
235.0678457089318
 20
135.0403599117903
 30
0.0
 10
235.6144795759298
 20
135.0877946112837
 30
0.0
 10
235.8985794519142
 20
135.1066888546119
 30
0.0
 10
236.4743476594123
 20
135.132154661719
 30
0.0
 10
236.7704286049931
 20
135.1389141075614
 30
0.0
 10
237.36440751862
 20
135.1389962822246
 30
0.0
 10
237.6571882702364
 20
135.1324276204457
 30
0.0
 10
238.234578078792
 20
135.1071223917122
 30
0.0
 10
238.5217525963436
 20
135.0880732318508
 30
0.0
 10
239.0650734284168
 20
135.0410852080769
 30
0.0
 10
239.3234854545691
 20
135.0131523926928
 30
0.0
 10
239.8138591992093
 20
134.9514090823988
 30
0.0
 10
240.0432610629934
 20
134.9178504518666
 30
0.0
 10
240.456842343561
 20
134.8512465599522
 30
0.0
 10
240.6441662882055
 20
134.8177448300374
 30
0.0
 10
240.9734961946455
 20
134.7550777841236
 30
0.0
 10
241.11178393533
 20
134.7266747420683
 30
0.0
 10
241.3371639493254
 20
134.6788162392604
 30
0.0
 10
241.4246959047854
 20
134.6592468208373
 30
0.0
 10
241.5408094184073
 20
134.6329816562863
 30
0.0
 10
241.5701849836776
 20
134.6261306561945
 30
0.0
 10
241.5701849836776
 20
134.6261306561945
 30
0.0
  0
SPLINE
  5
28F
330
1F
100
AcDbEntity
  8
0
  6
HIDDEN
 62
     7
370
     0
100
AcDbSpline
210
0.0
220
0.0
230
1.0
 70
    11
 71
     3
 72
    70
 73
    66
 74
     0
 42
0.00000001
 43
0.00000001
 40
-0.03125
 40
-0.03125
 40
0.0
 40
0.0
 40
0.03125
 40
0.03125
 40
0.0625
 40
0.0625
 40
0.09375
 40
0.09375
 40
0.125
 40
0.125
 40
0.15625
 40
0.15625
 40
0.1875
 40
0.1875
 40
0.21875
 40
0.21875
 40
0.25
 40
0.25
 40
0.28125
 40
0.28125
 40
0.3125
 40
0.3125
 40
0.34375
 40
0.34375
 40
0.375
 40
0.375
 40
0.40625
 40
0.40625
 40
0.4375
 40
0.4375
 40
0.46875
 40
0.46875
 40
0.5
 40
0.5
 40
0.53125
 40
0.53125
 40
0.5625
 40
0.5625
 40
0.59375
 40
0.59375
 40
0.625
 40
0.625
 40
0.65625
 40
0.65625
 40
0.6875
 40
0.6875
 40
0.71875
 40
0.71875
 40
0.75
 40
0.75
 40
0.78125
 40
0.78125
 40
0.8125
 40
0.8125
 40
0.84375
 40
0.84375
 40
0.875
 40
0.875
 40
0.90625
 40
0.90625
 40
0.9375
 40
0.9375
 40
0.96875
 40
0.96875
 40
1.0
 40
1.0
 40
1.03125
 40
1.03125
 10
241.5701849836776
 20
146.3158699225293
 30
0.0
 10
241.5701849836776
 20
146.3158699225292
 30
0.0
 10
241.5409350815806
 20
146.3201314186915
 30
0.0
 10
241.4264006851622
 20
146.3363387695747
 30
0.0
 10
241.3396983716523
 20
146.3484771762886
 30
0.0
 10
241.1137013046619
 20
146.3785611887393
 30
0.0
 10
240.9754607954852
 20
146.396368257438
 30
0.0
 10
240.6489213882134
 20
146.4354357684439
 30
0.0
 10
240.4591115924057
 20
146.4568191329262
 30
0.0
 10
240.0445259350241
 20
146.4989092943773
 30
0.0
 10
239.8182381843108
 20
146.519826045065
 30
0.0
 10
239.3264829158977
 20
146.5590120275078
 30
0.0
 10
239.0651404261588
 20
146.5768882844199
 30
0.0
 10
238.5238384054158
 20
146.6065635549174
 30
0.0
 10
238.2398657232309
 20
146.618572827135
 30
0.0
 10
237.6588271437629
 20
146.6347958681982
 30
0.0
 10
237.3666045462678
 20
146.6389316628347
 30
0.0
 10
236.7788291488839
 20
146.6389789062415
 30
0.0
 10
236.4802570815701
 20
146.634755152301
 30
0.0
 10
235.902838936443
 20
146.6186428217832
 30
0.0
 10
235.622146969383
 20
146.6068396813114
 30
0.0
 10
235.0768630783681
 20
146.5770091408963
 30
0.0
 10
234.8138857765469
 20
146.5589939886917
 30
0.0
 10
234.3267069269785
 20
146.5202083893318
 30
0.0
 10
234.0991227373491
 20
146.4992370571252
 30
0.0
 10
233.6794857088904
 20
146.4566442501515
 30
0.0
 10
233.4935644178066
 20
146.4356759533077
 30
0.0
 10
233.167660507804
 20
146.3967101942957
 30
0.0
 10
233.0265406800316
 20
146.378544410122
 30
0.0
 10
232.8006593453857
 20
146.3484752873763
 30
0.0
 10
232.7153696479679
 20
146.3365351854376
 30
0.0
 10
232.5998676679943
 20
146.3201943775394
 30
0.0
 10
232.5702975849868
 20
146.3158861751271
 30
0.0
 10
232.570073039263
 20
146.315853764746
 30
0.0
 10
232.5984662571722
 20
146.3199932409556
 30
0.0
 10
232.7137657835215
 20
146.3363110725589
 30
0.0
 10
232.8000170212111
 20
146.3483842547581
 30
0.0
 10
233.0241772606815
 20
146.3782352472134
 30
0.0
 10
233.1639373879899
 20
146.3962511894395
 30
0.0
 10
233.4921187907082
 20
146.4355167552828
 30
0.0
 10
233.6779773275917
 20
146.4564633793058
 30
0.0
 10
234.0923982981358
 20
146.4985817573108
 30
0.0
 10
234.323566970327
 20
146.5199374133754
 30
0.0
 10
234.8116864203312
 20
146.5588396593882
 30
0.0
 10
235.0698229056483
 20
146.5765605358146
 30
0.0
 10
235.6147703111326
 20
146.6064979359009
 30
0.0
 10
235.9003633911786
 20
146.6185413997464
 30
0.0
 10
236.4757004574576
 20
146.6346599550874
 30
0.0
 10
236.7688180689736
 20
146.6389184307648
 30
0.0
 10
237.363776283448
 20
146.6389918619713
 30
0.0
 10
237.65638413289
 20
146.6348176555015
 30
0.0
 10
238.232250891406
 20
146.6188310586901
 30
0.0
 10
238.5185493900665
 20
146.606822083898
 30
0.0
 10
239.0632399921844
 20
146.5770234835059
 30
0.0
 10
239.3217021348698
 20
146.5593458374072
 30
0.0
 10
239.8111390493474
 20
146.5204377667108
 30
0.0
 10
240.0423476758818
 20
146.4991163346362
 30
0.0
 10
240.4570916073626
 20
146.457038170802
 30
0.0
 10
240.6434985252784
 20
146.4360637107913
 30
0.0
 10
240.9731712681174
 20
146.3966625511738
 30
0.0
 10
241.112667033813
 20
146.3786932804052
 30
0.0
 10
241.3377060287918
 20
146.3487479031939
 30
0.0
 10
241.4245993576541
 20
146.336591938735
 30
0.0
 10
241.5409312970088
 20
146.3201336578144
 30
0.0
 10
241.5701849836776
 20
146.3158699225293
 30
0.0
 10
241.5701849836776
 20
146.3158699225292
 30
0.0
  0
SPLINE
  5
290
330
1F
100
AcDbEntity
  8
0
  6
HIDDEN
 62
     7
370
     0
100
AcDbSpline
210
0.0
220
0.0
230
1.0
 70
    11
 71
     3
 72
    70
 73
    66
 74
     0
 42
0.00000001
 43
0.00000001
 40
-0.0312499999999999
 40
-0.0312499999999999
 40
0.0
 40
0.0
 40
0.03125
 40
0.03125
 40
0.0625000000000001
 40
0.0625000000000001
 40
0.0937500000000001
 40
0.0937500000000001
 40
0.1250000000000001
 40
0.1250000000000001
 40
0.1562500000000001
 40
0.1562500000000001
 40
0.1875000000000002
 40
0.1875000000000002
 40
0.2187500000000002
 40
0.2187500000000002
 40
0.2500000000000002
 40
0.2500000000000002
 40
0.2812500000000002
 40
0.2812500000000002
 40
0.3125000000000003
 40
0.3125000000000003
 40
0.3437500000000003
 40
0.3437500000000003
 40
0.3750000000000003
 40
0.3750000000000003
 40
0.4062500000000003
 40
0.4062500000000003
 40
0.4375000000000004
 40
0.4375000000000004
 40
0.4687500000000004
 40
0.4687500000000004
 40
0.5000000000000004
 40
0.5000000000000004
 40
0.5312500000000004
 40
0.5312500000000004
 40
0.5625000000000004
 40
0.5625000000000004
 40
0.5937500000000006
 40
0.5937500000000006
 40
0.6250000000000006
 40
0.6250000000000006
 40
0.6562500000000006
 40
0.6562500000000006
 40
0.6875000000000007
 40
0.6875000000000007
 40
0.7187500000000007
 40
0.7187500000000007
 40
0.7500000000000007
 40
0.7500000000000007
 40
0.7812500000000006
 40
0.7812500000000006
 40
0.8125000000000004
 40
0.8125000000000004
 40
0.8437500000000004
 40
0.8437500000000004
 40
0.8750000000000003
 40
0.8750000000000003
 40
0.9062500000000002
 40
0.9062500000000002
 40
0.9375000000000001
 40
0.9375000000000001
 40
0.9687500000000001
 40
0.9687500000000001
 40
1.0
 40
1.0
 40
1.03125
 40
1.03125
 10
256.5573602535828
 20
110.6389553862897
 30
0.0
 10
256.5573602535828
 20
110.6389553862897
 30
0.0
 10
256.5642079233455
 20
110.6683247402895
 30
0.0
 10
256.5901998496274
 20
110.7832133853957
 30
0.0
 10
256.6096586525316
 20
110.8701926804746
 30
0.0
 10
256.657703509787
 20
111.0963715239912
 30
0.0
 10
256.6860947181171
 20
111.2346369586275
 30
0.0
 10
256.7482652464916
 20
111.5611384171712
 30
0.0
 10
256.782169784106
 20
111.750511970469
 30
0.0
 10
256.8488268860441
 20
112.1641918574545
 30
0.0
 10
256.8819279437731
 20
112.3900989253339
 30
0.0
 10
256.9439369702802
 20
112.8816665401641
 30
0.0
 10
256.972099579144
 20
113.1420742877752
 30
0.0
 10
257.0189782750646
 20
113.6831446484696
 30
0.0
 10
257.0379830829673
 20
113.9677663613451
 30
0.0
 10
257.0636011120647
 20
114.5490772774408
 30
0.0
 10
257.0701445606793
 20
114.8416882001408
 30
0.0
 10
257.0702250334311
 20
115.4307581791468
 30
0.0
 10
257.0635409148223
 20
115.7300296831831
 30
0.0
 10
257.0380887392797
 20
116.3079163868815
 30
0.0
 10
257.0194390404201
 20
116.5889069813761
 30
0.0
 10
256.9722230118348
 20
117.1349462115016
 30
0.0
 10
256.9438267116005
 20
117.396933883685
 30
0.0
 10
256.8825075150804
 20
117.8834003823147
 30
0.0
 10
256.8491420955963
 20
118.1117643157635
 30
0.0
 10
256.7818468254509
 20
118.5294014929036
 30
0.0
 10
256.7486033820823
 20
118.7148952316388
 30
0.0
 10
256.686605796108
 20
119.0406897378157
 30
0.0
 10
256.6576004455188
 20
119.1820312418768
 30
0.0
 10
256.6096597774053
 20
119.4077059803263
 30
0.0
 10
256.5905266518611
 20
119.4932402230814
 30
0.0
 10
256.5642920219843
 20
119.6092267495937
 30
0.0
 10
256.5573887249879
 20
119.6388320913308
 30
0.0
 10
256.5573319635327
 20
119.6390778958925
 30
0.0
 10
256.5639694929451
 20
119.6106335163328
 30
0.0
 10
256.5902290063274
 20
119.4945748768184
 30
0.0
 10
256.6094765644127
 20
119.4085289353432
 30
0.0
 10
256.657192861724
 20
119.1839889032227
 30
0.0
 10
256.6860654249696
 20
119.0434334628376
 30
0.0
 10
256.7483434007952
 20
118.7163560974387
 30
0.0
 10
256.7815678257263
 20
118.5309252291629
 30
0.0
 10
256.848426290239
 20
118.1164113104306
 30
0.0
 10
256.8821735209537
 20
117.8858141760285
 30
0.0
 10
256.9435614735663
 20
117.3992717143872
 30
0.0
 10
256.9715895091785
 20
117.1412946610355
 30
0.0
 10
257.0190242086719
 20
116.5946607940375
 30
0.0
 10
257.0379184520001
 20
116.310560918053
 30
0.0
 10
257.0633842591071
 20
115.734792710555
 30
0.0
 10
257.0701437049496
 20
115.4387117649742
 30
0.0
 10
257.0702258796128
 20
114.8447328513472
 30
0.0
 10
257.0636572178338
 20
114.5519520997309
 30
0.0
 10
257.0383519891005
 20
113.9745622911753
 30
0.0
 10
257.019302829239
 20
113.6873877736237
 30
0.0
 10
256.9723148054651
 20
113.1440669415505
 30
0.0
 10
256.944381990081
 20
112.8856549153982
 30
0.0
 10
256.882638679787
 20
112.395281170758
 30
0.0
 10
256.8490800492548
 20
112.1658793069739
 30
0.0
 10
256.7824761573404
 20
111.7522980264063
 30
0.0
 10
256.7489744274256
 20
111.5649740817618
 30
0.0
 10
256.6863073815119
 20
111.2356441753218
 30
0.0
 10
256.6579043394565
 20
111.0973564346372
 30
0.0
 10
256.6100458366487
 20
110.8719764206419
 30
0.0
 10
256.5904764182255
 20
110.7844444651819
 30
0.0
 10
256.5642112536745
 20
110.66833095156
 30
0.0
 10
256.5573602535828
 20
110.6389553862897
 30
0.0
 10
256.5573602535828
 20
110.6389553862897
 30
0.0
  0
SPLINE
  5
291
330
1F
100
AcDbEntity
  8
0
  6
HIDDEN
 62
     7
370
     0
100
AcDbSpline
210
0.0
220
0.0
230
1.0
 70
    11
 71
     3
 72
    70
 73
    66
 74
     0
 42
0.00000001
 43
0.00000001
 40
-0.03125
 40
-0.03125
 40
0.0
 40
0.0
 40
0.03125
 40
0.03125
 40
0.0625
 40
0.0625
 40
0.09375
 40
0.09375
 40
0.125
 40
0.125
 40
0.15625
 40
0.15625
 40
0.1875
 40
0.1875
 40
0.21875
 40
0.21875
 40
0.25
 40
0.25
 40
0.28125
 40
0.28125
 40
0.3125
 40
0.3125
 40
0.34375
 40
0.34375
 40
0.375
 40
0.375
 40
0.40625
 40
0.40625
 40
0.4375
 40
0.4375
 40
0.46875
 40
0.46875
 40
0.5
 40
0.5
 40
0.53125
 40
0.53125
 40
0.5625
 40
0.5625
 40
0.59375
 40
0.59375
 40
0.625
 40
0.625
 40
0.65625
 40
0.65625
 40
0.6875
 40
0.6875
 40
0.71875
 40
0.71875
 40
0.75
 40
0.75
 40
0.78125
 40
0.78125
 40
0.8125
 40
0.8125
 40
0.84375
 40
0.84375
 40
0.875
 40
0.875
 40
0.90625
 40
0.90625
 40
0.9375
 40
0.9375
 40
0.96875
 40
0.96875
 40
1.0
 40
1.0
 40
1.03125
 40
1.03125
 10
268.2470995199175
 20
110.6389553862898
 30
0.0
 10
268.2470995199175
 20
110.6389553862898
 30
0.0
 10
268.2513610160798
 20
110.6682052883867
 30
0.0
 10
268.267568366963
 20
110.7827396848052
 30
0.0
 10
268.2797067736768
 20
110.8694419983151
 30
0.0
 10
268.3097907861275
 20
111.0954390653055
 30
0.0
 10
268.3275978548262
 20
111.2336795744823
 30
0.0
 10
268.3666653658321
 20
111.560218981754
 30
0.0
 10
268.3880487303144
 20
111.7500287775618
 30
0.0
 10
268.4301388917655
 20
112.1646144349433
 30
0.0
 10
268.4510556424532
 20
112.3909021856567
 30
0.0
 10
268.490241624896
 20
112.8826574540697
 30
0.0
 10
268.5081178818081
 20
113.1439999438086
 30
0.0
 10
268.5377931523057
 20
113.6853019645516
 30
0.0
 10
268.5498024245233
 20
113.9692746467365
 30
0.0
 10
268.5660254655864
 20
114.5503132262045
 30
0.0
 10
268.5701612602229
 20
114.8425358236996
 30
0.0
 10
268.5702085036297
 20
115.4303112210835
 30
0.0
 10
268.5659847496892
 20
115.7288832883973
 30
0.0
 10
268.5498724191714
 20
116.3063014335244
 30
0.0
 10
268.5380692786996
 20
116.5869934005845
 30
0.0
 10
268.5082387382844
 20
117.1322772915993
 30
0.0
 10
268.4902235860799
 20
117.3952545934205
 30
0.0
 10
268.45143798672
 20
117.8824334429889
 30
0.0
 10
268.4304666545133
 20
118.1100176326183
 30
0.0
 10
268.3878738475397
 20
118.529654661077
 30
0.0
 10
268.3669055506958
 20
118.7155759521608
 30
0.0
 10
268.3279397916839
 20
119.0414798621634
 30
0.0
 10
268.3097740075102
 20
119.1825996899358
 30
0.0
 10
268.2797048847645
 20
119.4084810245817
 30
0.0
 10
268.2677647828257
 20
119.4937707219995
 30
0.0
 10
268.2514239749275
 20
119.6092727019732
 30
0.0
 10
268.2471157725152
 20
119.6388427849806
 30
0.0
 10
268.2470833621341
 20
119.6390673307044
 30
0.0
 10
268.2512228383437
 20
119.6106741127952
 30
0.0
 10
268.2675406699471
 20
119.4953745864459
 30
0.0
 10
268.2796138521462
 20
119.4091233487563
 30
0.0
 10
268.3094648446016
 20
119.1849631092859
 30
0.0
 10
268.3274807868276
 20
119.0452029819775
 30
0.0
 10
268.3667463526709
 20
118.7170215792592
 30
0.0
 10
268.3876929766939
 20
118.5311630423757
 30
0.0
 10
268.4298113546989
 20
118.1167420718317
 30
0.0
 10
268.4511670107635
 20
117.8855733996404
 30
0.0
 10
268.4900692567763
 20
117.3974539496362
 30
0.0
 10
268.5077901332028
 20
117.1393174643191
 30
0.0
 10
268.5377275332891
 20
116.5943700588348
 30
0.0
 10
268.5497709971346
 20
116.3087769787888
 30
0.0
 10
268.5658895524755
 20
115.7334399125098
 30
0.0
 10
268.5701480281529
 20
115.4403223009937
 30
0.0
 10
268.5702214593595
 20
114.8453640865194
 30
0.0
 10
268.5660472528896
 20
114.5527562370774
 30
0.0
 10
268.5500606560784
 20
113.9768894785614
 30
0.0
 10
268.5380516812862
 20
113.6905909799009
 30
0.0
 10
268.5082530808941
 20
113.145900377783
 30
0.0
 10
268.4905754347954
 20
112.8874382350976
 30
0.0
 10
268.451667364099
 20
112.39800132062
 30
0.0
 10
268.4303459320244
 20
112.1667926940856
 30
0.0
 10
268.3882677681902
 20
111.7520487626048
 30
0.0
 10
268.3672933081795
 20
111.565641844689
 30
0.0
 10
268.327892148562
 20
111.23596910185
 30
0.0
 10
268.3099228777934
 20
111.0964733361544
 30
0.0
 10
268.2799775005821
 20
110.8714343411756
 30
0.0
 10
268.2678215361233
 20
110.7845410123133
 30
0.0
 10
268.2513632552026
 20
110.6682090729586
 30
0.0
 10
268.2470995199175
 20
110.6389553862898
 30
0.0
 10
268.2470995199175
 20
110.6389553862898
 30
0.0
  0
LINE
  5
292
330
1F
100
AcDbEntity
  8
0
  6
HIDDEN
 62
     7
370
     0
100
AcDbLine
 10
258.0701849837
 20
120.1389553863
 30
0.0
 11
256.5701849837
 21
118.6389553863
 31
0.0
  0
LINE
  5
293
330
1F
100
AcDbEntity
  8
0
  6
HIDDEN
 62
     7
370
     0
100
AcDbLine
 10
256.5701849837
 20
111.6389553863
 30
0.0
 11
258.0701849837
 21
110.1389553863
 31
0.0
  0
LINE
  5
294
330
1F
100
AcDbEntity
  8
0
  6
HIDDEN
 62
     7
370
     0
100
AcDbLine
 10
268.0921389608
 20
120.1389553863
 30
0.0
 11
258.0701849837
 21
120.1389553863
 31
0.0
  0
LINE
  5
295
330
1F
100
AcDbEntity
  8
0
  6
HIDDEN
 62
     7
370
     0
100
AcDbLine
 10
258.0701849837
 20
110.1389553863
 30
0.0
 11
268.0921389608
 21
110.1389553863
 31
0.0
  0
LINE
  5
296
330
1F
100
AcDbEntity
  8
0
  6
HIDDEN
 62
     7
370
     0
100
AcDbLine
 10
268.0921389608
 20
110.1389553863
 30
0.0
 11
268.2003931538
 21
110.3264571487
 31
0.0
  0
LINE
  5
297
330
1F
100
AcDbEntity
  8
0
  6
HIDDEN
 62
     7
370
     0
100
AcDbLine
 10
268.2003931538
 20
119.9514536239
 30
0.0
 11
268.0921389608
 21
120.1389553863
 31
0.0
  0
LINE
  5
298
330
1F
100
AcDbEntity
  8
0
  6
HIDDEN
 62
     7
370
     0
100
AcDbLine
 10
242.0701849837
 20
146.1609093634
 30
0.0
 11
241.8826832213
 21
146.2691635564
 31
0.0
  0
LINE
  5
299
330
1F
100
AcDbEntity
  8
0
  6
HIDDEN
 62
     7
370
     0
100
AcDbLine
 10
232.257686746
 20
146.2691635564
 30
0.0
 11
232.0701849837
 21
146.1609093634
 31
0.0
  0
LINE
  5
29A
330
1F
100
AcDbEntity
  8
0
  6
HIDDEN
 62
     7
370
     0
100
AcDbLine
 10
232.0701849837
 20
136.1389553863
 30
0.0
 11
233.5701849837
 21
134.6389553863
 31
0.0
  0
LINE
  5
29B
330
1F
100
AcDbEntity
  8
0
  6
HIDDEN
 62
     7
370
     0
100
AcDbLine
 10
240.5701849837
 20
134.6389553863
 30
0.0
 11
242.0701849837
 21
136.1389553863
 31
0.0
  0
LINE
  5
29C
330
1F
100
AcDbEntity
  8
0
  6
HIDDEN
 62
     7
370
     0
100
AcDbLine
 10
232.0701849837
 20
146.1609093634
 30
0.0
 11
232.0701849837
 21
136.1389553863
 31
0.0
  0
LINE
  5
29D
330
1F
100
AcDbEntity
  8
0
  6
HIDDEN
 62
     7
370
     0
100
AcDbLine
 10
242.0701849837
 20
136.1389553863
 30
0.0
 11
242.0701849837
 21
146.1609093634
 31
0.0
  0
LINE
  5
29E
330
1F
100
AcDbEntity
  8
0
  6
HIDDEN
 62
     7
370
     0
100
AcDbLine
 10
206.0482310066
 20
110.1389553863
 30
0.0
 11
216.0701849837
 21
110.1389553863
 31
0.0
  0
LINE
  5
29F
330
1F
100
AcDbEntity
  8
0
  6
HIDDEN
 62
     7
370
     0
100
AcDbLine
 10
216.0701849837
 20
120.1389553863
 30
0.0
 11
206.0482310066
 21
120.1389553863
 31
0.0
  0
LINE
  5
2A0
330
1F
100
AcDbEntity
  8
0
  6
HIDDEN
 62
     7
370
     0
100
AcDbLine
 10
206.0482310066
 20
120.1389553863
 30
0.0
 11
205.9399768136
 21
119.9514536239
 31
0.0
  0
LINE
  5
2A1
330
1F
100
AcDbEntity
  8
0
  6
HIDDEN
 62
     7
370
     0
100
AcDbLine
 10
205.9399768136
 20
110.3264571486
 30
0.0
 11
206.0482310066
 21
110.1389553863
 31
0.0
  0
LINE
  5
2A2
330
1F
100
AcDbEntity
  8
0
  6
HIDDEN
 62
     7
370
     0
100
AcDbLine
 10
216.0701849837
 20
110.1389553863
 30
0.0
 11
217.5701849837
 21
111.6389553863
 31
0.0
  0
LINE
  5
2A3
330
1F
100
AcDbEntity
  8
0
  6
HIDDEN
 62
     7
370
     0
100
AcDbLine
 10
217.5701849837
 20
118.6389553863
 30
0.0
 11
216.0701849837
 21
120.1389553863
 31
0.0
  0
LINE
  5
2A4
330
1F
100
AcDbEntity
  8
0
  6
HIDDEN
 62
     7
370
     0
100
AcDbLine
 10
205.8851361822
 20
110.6389553863
 30
0.0
 11
217.5694521927
 21
110.6389553863
 31
0.0
  0
LINE
  5
2A5
330
1F
100
AcDbEntity
  8
0
  6
HIDDEN
 62
     7
370
     0
100
AcDbLine
 10
217.5830097138
 20
119.6389553863
 30
0.0
 11
205.8932704474
 21
119.6389553863
 31
0.0
  0
LINE
  5
2A6
330
1F
100
AcDbEntity
  8
0
  6
HIDDEN
 62
     7
370
     0
100
AcDbLine
 10
268.2552337851
 20
119.6389553863
 30
0.0
 11
256.5709177746
 21
119.6389553863
 31
0.0
  0
LINE
  5
2A7
330
1F
100
AcDbEntity
  8
0
  6
HIDDEN
 62
     7
370
     0
100
AcDbLine
 10
256.5573602536
 20
110.6389553863
 30
0.0
 11
268.2470995199
 21
110.6389553863
 31
0.0
  0
LINE
  5
2A8
330
1F
100
AcDbEntity
  8
0
  6
HIDDEN
 62
     7
370
     0
100
AcDbLine
 10
205.8851361822
 20
110.6389553863
 30
0.0
 11
217.5694521927
 21
110.6389553863
 31
0.0
  0
LINE
  5
2A9
330
1F
100
AcDbEntity
  8
0
  6
HIDDEN
 62
     7
370
     0
100
AcDbLine
 10
217.5830097138
 20
119.6389553863
 30
0.0
 11
205.8932704474
 21
119.6389553863
 31
0.0
  0
LINE
  5
2AA
330
1F
100
AcDbEntity
  8
0
  6
HIDDEN
 62
     7
370
     0
100
AcDbLine
 10
268.2552337851
 20
119.6389553863
 30
0.0
 11
256.5709177746
 21
119.6389553863
 31
0.0
  0
LINE
  5
2AB
330
1F
100
AcDbEntity
  8
0
  6
HIDDEN
 62
     7
370
     0
100
AcDbLine
 10
256.5573602536
 20
110.6389553863
 30
0.0
 11
268.2470995199
 21
110.6389553863
 31
0.0
  0
LINE
  5
2AC
330
1F
100
AcDbEntity
  8
0
  6
HIDDEN
 62
     7
370
     0
100
AcDbLine
 10
205.8851361822
 20
110.6389553863
 30
0.0
 11
217.5694521927
 21
110.6389553863
 31
0.0
  0
LINE
  5
2AD
330
1F
100
AcDbEntity
  8
0
  6
HIDDEN
 62
     7
370
     0
100
AcDbLine
 10
217.5830097138
 20
119.6389553863
 30
0.0
 11
205.8932704474
 21
119.6389553863
 31
0.0
  0
LINE
  5
2AE
330
1F
100
AcDbEntity
  8
0
  6
HIDDEN
 62
     7
370
     0
100
AcDbLine
 10
232.5701849837
 20
146.3240041877
 30
0.0
 11
232.5701849837
 21
134.6396881772
 31
0.0
  0
LINE
  5
2AF
330
1F
100
AcDbEntity
  8
0
  6
HIDDEN
 62
     7
370
     0
100
AcDbLine
 10
241.5701849837
 20
134.6261306562
 30
0.0
 11
241.5701849837
 21
146.3158699225
 31
0.0
  0
LINE
  5
2B0
330
1F
100
AcDbEntity
  8
0
  6
HIDDEN
 62
     7
370
     0
100
AcDbLine
 10
268.2552337851
 20
119.6389553863
 30
0.0
 11
256.5709177746
 21
119.6389553863
 31
0.0
  0
LINE
  5
2B1
330
1F
100
AcDbEntity
  8
0
  6
HIDDEN
 62
     7
370
     0
100
AcDbLine
 10
256.5573602536
 20
110.6389553863
 30
0.0
 11
268.2470995199
 21
110.6389553863
 31
0.0
  0
INSERT
  5
2BD
330
1F
100
AcDbEntity
  8
VERMASSUNG
100
AcDbBlockReference
  2
SW_CENTERMARKSYMBOL_0
 10
237.0701849837
 20
115.1389553863
 30
0.0
  0
OLE2FRAME
  5
2BE
330
1F
100
AcDbEntity
  8
0
100
AcDbOle2Frame
 70
     2
  3
Bitmap Image
 10
13.8511154363
 20
38.264191557
 30
0.0
 11
51.6290888628
 21
31.9806341108
 31
0.0
 71
     2
 72
     0
 73
     1
 90
    12928
310
80552BED0767C5B32B40DDAF6807D121434000000000000000006FFBDDFB85D0
310
4940DDAF6807D121434000000000000000006FFBDDFB85D04940416F4BD60AFB
310
3F4000000000000000002BED0767C5B32B40416F4BD60AFB3F40000000000000
310
0000000000000100000000010000010000000100000000000100000000320000
310
D0CF11E0A1B11AE1000000000000000000000000000000003E000300FEFF0900
310
0600000000000000000000000100000001000000000000000010000002000000
310
01000000FEFFFFFF0000000000000000FFFFFFFFFFFFFFFFFFFFFFFFFFFFFFFF
310
FFFFFFFFFFFFFFFFFFFFFFFFFFFFFFFFFFFFFFFFFFFFFFFFFFFFFFFFFFFFFFFF
310
FFFFFFFFFFFFFFFFFFFFFFFFFFFFFFFFFFFFFFFFFFFFFFFFFFFFFFFFFFFFFFFF
310
FFFFFFFFFFFFFFFFFFFFFFFFFFFFFFFFFFFFFFFFFFFFFFFFFFFFFFFFFFFFFFFF
310
FFFFFFFFFFFFFFFFFFFFFFFFFFFFFFFFFFFFFFFFFFFFFFFFFFFFFFFFFFFFFFFF
310
FFFFFFFFFFFFFFFFFFFFFFFFFFFFFFFFFFFFFFFFFFFFFFFFFFFFFFFFFFFFFFFF
310
FFFFFFFFFFFFFFFFFFFFFFFFFFFFFFFFFFFFFFFFFFFFFFFFFFFFFFFFFFFFFFFF
310
FFFFFFFFFFFFFFFFFFFFFFFFFFFFFFFFFFFFFFFFFFFFFFFFFFFFFFFFFFFFFFFF
310
FFFFFFFFFFFFFFFFFFFFFFFFFFFFFFFFFFFFFFFFFFFFFFFFFFFFFFFFFFFFFFFF
310
FFFFFFFFFFFFFFFFFFFFFFFFFFFFFFFFFFFFFFFFFFFFFFFFFFFFFFFFFFFFFFFF
310
FFFFFFFFFFFFFFFFFFFFFFFFFFFFFFFFFFFFFFFFFFFFFFFFFFFFFFFFFFFFFFFF
310
FFFFFFFFFFFFFFFFFFFFFFFFFFFFFFFFFFFFFFFFFFFFFFFFFFFFFFFFFFFFFFFF
310
FFFFFFFFFFFFFFFFFFFFFFFFFFFFFFFFFFFFFFFFFFFFFFFFFFFFFFFFFFFFFFFF
310
FFFFFFFFFFFFFFFFFFFFFFFFFFFFFFFFFFFFFFFFFFFFFFFFFFFFFFFFFFFFFFFF
310
FDFFFFFFFEFFFFFFFEFFFFFFFEFFFFFF05000000060000000700000008000000
310
090000000A0000000B0000000C0000000D0000000E0000000F00000010000000
310
11000000120000001300000014000000150000001600000017000000FEFFFFFF
310
FFFFFFFFFFFFFFFFFFFFFFFFFFFFFFFFFFFFFFFFFFFFFFFFFFFFFFFFFFFFFFFF
310
FFFFFFFFFFFFFFFFFFFFFFFFFFFFFFFFFFFFFFFFFFFFFFFFFFFFFFFFFFFFFFFF
310
FFFFFFFFFFFFFFFFFFFFFFFFFFFFFFFFFFFFFFFFFFFFFFFFFFFFFFFFFFFFFFFF
310
FFFFFFFFFFFFFFFFFFFFFFFFFFFFFFFFFFFFFFFFFFFFFFFFFFFFFFFFFFFFFFFF
310
FFFFFFFFFFFFFFFFFFFFFFFFFFFFFFFFFFFFFFFFFFFFFFFFFFFFFFFFFFFFFFFF
310
FFFFFFFFFFFFFFFFFFFFFFFFFFFFFFFFFFFFFFFFFFFFFFFFFFFFFFFFFFFFFFFF
310
FFFFFFFFFFFFFFFFFFFFFFFFFFFFFFFFFFFFFFFFFFFFFFFFFFFFFFFFFFFFFFFF
310
FFFFFFFFFFFFFFFFFFFFFFFFFFFFFFFFFFFFFFFFFFFFFFFFFFFFFFFFFFFFFFFF
310
FFFFFFFFFFFFFFFFFFFFFFFFFFFFFFFFFFFFFFFFFFFFFFFFFFFFFFFFFFFFFFFF
310
FFFFFFFFFFFFFFFFFFFFFFFFFFFFFFFFFFFFFFFFFFFFFFFFFFFFFFFFFFFFFFFF
310
FFFFFFFFFFFFFFFFFFFFFFFFFFFFFFFFFFFFFFFFFFFFFFFFFFFFFFFFFFFFFFFF
310
FFFFFFFFFFFFFFFFFFFFFFFFFFFFFFFFFFFFFFFFFFFFFFFFFFFFFFFFFFFFFFFF
310
FFFFFFFFFFFFFFFFFFFFFFFFFFFFFFFFFFFFFFFFFFFFFFFFFFFFFFFFFFFFFFFF
310
52006F006F007400200045006E00740072007900000000000000000000000000
310
0000000000000000000000000000000000000000000000000000000000000000
310
16000500FFFFFFFFFFFFFFFF020000000A00030000000000C000000000000046
310
0000000000000000000000005068ED979626CC0103000000C000000000000000
310
01004F006C006500000000000000000000000000000000000000000000000000
310
0000000000000000000000000000000000000000000000000000000000000000
310
0A000200FFFFFFFFFFFFFFFFFFFFFFFF00000000000000000000000000000000
310
0000000000000000000000000000000000000000000000001400000000000000
310
010043006F006D0070004F0062006A0000000000000000000000000000000000
310
0000000000000000000000000000000000000000000000000000000000000000
310
120002010100000003000000FFFFFFFF00000000000000000000000000000000
310
0000000000000000000000000000000000000000010000004D00000000000000
310
01004F006C006500310030004E00610074006900760065000000000000000000
310
0000000000000000000000000000000000000000000000000000000000000000
310
1A000200FFFFFFFFFFFFFFFFFFFFFFFF00000000000000000000000000000000
310
0000000000000000000000000000000000000000040000002426000000000000
310
FEFFFFFF02000000FEFFFFFFFFFFFFFFFFFFFFFFFFFFFFFFFFFFFFFFFFFFFFFF
310
FFFFFFFFFFFFFFFFFFFFFFFFFFFFFFFFFFFFFFFFFFFFFFFFFFFFFFFFFFFFFFFF
310
FFFFFFFFFFFFFFFFFFFFFFFFFFFFFFFFFFFFFFFFFFFFFFFFFFFFFFFFFFFFFFFF
310
FFFFFFFFFFFFFFFFFFFFFFFFFFFFFFFFFFFFFFFFFFFFFFFFFFFFFFFFFFFFFFFF
310
FFFFFFFFFFFFFFFFFFFFFFFFFFFFFFFFFFFFFFFFFFFFFFFFFFFFFFFFFFFFFFFF
310
FFFFFFFFFFFFFFFFFFFFFFFFFFFFFFFFFFFFFFFFFFFFFFFFFFFFFFFFFFFFFFFF
310
FFFFFFFFFFFFFFFFFFFFFFFFFFFFFFFFFFFFFFFFFFFFFFFFFFFFFFFFFFFFFFFF
310
FFFFFFFFFFFFFFFFFFFFFFFFFFFFFFFFFFFFFFFFFFFFFFFFFFFFFFFFFFFFFFFF
310
FFFFFFFFFFFFFFFFFFFFFFFFFFFFFFFFFFFFFFFFFFFFFFFFFFFFFFFFFFFFFFFF
310
FFFFFFFFFFFFFFFFFFFFFFFFFFFFFFFFFFFFFFFFFFFFFFFFFFFFFFFFFFFFFFFF
310
FFFFFFFFFFFFFFFFFFFFFFFFFFFFFFFFFFFFFFFFFFFFFFFFFFFFFFFFFFFFFFFF
310
FFFFFFFFFFFFFFFFFFFFFFFFFFFFFFFFFFFFFFFFFFFFFFFFFFFFFFFFFFFFFFFF
310
FFFFFFFFFFFFFFFFFFFFFFFFFFFFFFFFFFFFFFFFFFFFFFFFFFFFFFFFFFFFFFFF
310
FFFFFFFFFFFFFFFFFFFFFFFFFFFFFFFFFFFFFFFFFFFFFFFFFFFFFFFFFFFFFFFF
310
FFFFFFFFFFFFFFFFFFFFFFFFFFFFFFFFFFFFFFFFFFFFFFFFFFFFFFFFFFFFFFFF
310
FFFFFFFFFFFFFFFFFFFFFFFFFFFFFFFFFFFFFFFFFFFFFFFFFFFFFFFFFFFFFFFF
310
0100000200000000000000000000000000000000000000000000803F00000000
310
0000000000000000000000000000803F00000000000000000000000000000000
310
0100FEFF030A0000FFFFFFFF0A00030000000000C00000000000004607000000
310
5042727573680007000000504272757368000700000050427275736800F439B2
310
710000000000000000000000000700008051A463FF070000C052A463FF070000
310
6054A463FF070000E056A463FF070000D055A463FF0700000000000000000000
310
0000000000000000000000000000803F0000000000000000000000000000803F
310
0000000000000000000000000000803F00000000000000000000803F00000000
310
00000000000000000000803F000000000000000000000000000080BF00000000
310
0000000000000000000080BF0000000000000000000034430000803F00000000
310
000000000000000000000000000080BF00000000000000000000803F00000000
310
0000000000000000000000000000803F00000000000000000000000000000000
310
0000803F000000000000000000000000000000000000803F0400000000000000
310
4050A463FF0700003051A463FF0700006052A463FF070000E053A463FF070000
310
6052A463FF0700008050A463FF0700008051A463FF070000C052A463FF070000
310
6054A463FF070000E056A463FF070000D055A463FF0700000000000000000000
310
20260000424D0E260000000000003E00000028000000B40200006E0000000100
310
01000000000000000000130B0000130B00000200000002000000000000FFFFFF
310
FFFFFFFFFFFFFFFFFFFFFFFFFFFFFFFFFFFFFFFFFFFFFFFFFFFFFFFFFFFFFFFF
310
FFFFFFFFFFFFFFFFFFFFFFFFFFFFFFFFFFFFFFFFFFFFFFFFFFFFFFFFFFFFFFFF
310
FFFFFFFFFFFFFFFFFFFFFFFFFFFFFFFFFFFFFFFFFFFFFFFFF000FFFFFFFFFFFF
310
FFFFFFFFFFFFFFFFFFFFFFFFFFFFFFFFFFFFFFFFFFFFFFFFFFFFFFFFFFFFFFFF
310
FFFFFFFFFFFFFFFFFFFFFFFFFFFFFFFFFFFFFFFFFFFFFFFFFFFFFFFFFFFFFFFF
310
FFFFFFFFFFFFFFFFFFFFFFFFFFFFFFFFF000FFFFFFFFFFFFFFFFFFFFFFFFFFFF
310
FFFFFFFFFFFFFFFFFFFFFFFFFFFFFFFFFFFFFFFFFFFFFFFFFFFFFFFFFFFFFFFF
310
FFFFFFFFFFFFFFFFFFFFFFFFFFFFFFFFFFFFFFFFFFFFFFFFFFFFFFFFFFFFFFFF
310
FFFFFFFFFFFFFFFFF000FFFFFFFFFFFFFFFFFFFFFFFFFFFFFFFFFFFFFFFFFFFF
310
FFFFFFFFFFFFFFFFFFFFFFFFFFFFFFFFFFFFFFFFFFFFFFFFFFFFFFFFFFFFFFFF
310
FFFFFFFFFFFFFFFFFFFFFFFFFFFFFFFFFFFFFFFFFFFFFFFFFFFFFFFFFFFFFFFF
310
F000FFFFFFFFFFFFFFFFFFFFFFFFFFFFFFFFFFFFFFFFFFFFFFFFFFFFFFFFFFFF
310
FFFFFFFFFFFFFFFFFFFFFFFFFFFFFFFFFFFFFFFFFFFFFFFFFFFFFFFFFFFFFFFF
310
FFFFFFFFFFFFFFFFFFFFFFFFFFFFFFFFFFFFFFFFFFFFFFFFF000FFFFFFFFFFFF
310
FFFFFFFFFFFFFFFFFFFFFFFFFFFFFFFFFFFFFFFFFFFFFFFFFFFFFFFFFFFFFFFF
310
FFFFFFFFFFFFFFFFFFFFFFFFFFFFFFFFFFFFFFFFFFFFFFFFFFFFFFFFFFFFFFFF
310
FFFFFFFFFFFFFFFFFFFFFFFFFFFFFFFFF000FFFFFFFFFFFFFFFFFFFFFFFFFFFF
310
FFFFFFFFFFFFFFFFFFFFFFFFFFFFFFFFFFFFFFFFFFFFFFFFFFFFFFFFFFFFFFFF
310
FFFFFFFFFFFFFFFFFFFFFFFFFFFFFFFFFFFFFFFFFFFFFFFFFFFFFFFFFFFFFFFF
310
FFFFFFFFFFFFFFFFF000FFFFFFFFFFFFFFFFFFFFFFFFFFFFFFFFFFFFFFFFFFFF
310
FFFFFFFFFFFFFFFFFFFFFFFFFFFFFFFFFFFFFFFFFFFFFFFFFFFFFFFFFFFFFFFF
310
FFFFFFFFFFFFFFFFFFFFFFFFFFFFFFFFFFFFFFFFFFFFFFFFFFFFFFFFFFFFFFFF
310
F000FFFFFFFFFFFFFFFFFFFFFFFFFFFFFFFFFFFFFFFFFFFFFFFFFFFFFFFFFFFF
310
FFFFFFFFFFFFFFFFFFFFFFFFFFFFFFFFFFFFFFFFFFFFFFFFFFFFFFFFFFFFFFFF
310
FFFFFFFFFFFFFFFFFFFFFFFFFFFFFFFFFFFFFFFFFFFFFFFFF000FFFFFFFFFFFF
310
FFFFFFFFFFFFFFFFFFFFFFFFFFFFFFFFFFFFFFFFFFFFFFFFFFFFFFFFFFFFFFFF
310
FFFFFFFFFFFFFFFFFFFFFFFFFFFFFFFFFFFFFFFFFFFFFFFFFFFFFFFFFFFFFFFF
310
FFFFFFFFFFFFFFFFFFFFFFFFFFFFFFFFF000FFFFFFFFFFFFFFFFFFFFFFFFFFFF
310
FFFFFFFFFFFFFFFFFFFFFFFFFFFFFFFFFFFFFFFFFFFFFFFFFFFFFFFFFFFFFFFF
310
FFFFFFFFFFFFFFFFFFFFFFFFFFFFFFFFFFFFFFFFFFFFFFFFFFFFFFFFFFFFFFFF
310
FFFFFFFFFFFFFFFFF000FFFFFFFFFFFFFFFFFFFFFFFFFFFFFFFFFFFFFFFFFFFF
310
FFFFFFFFFFFFFFFFFFFFFFFFFFFFFFFFFFFFFFFFFFFFFFFFFFFFFFFFFFFFFFFF
310
FFFFFFFFFFFFFFFFFFFFFFFFFFFFFFFFFFFFFFFFFFFFFFFFFFFFFFFFFFFFFFFF
310
F000FFFFFFFFFFFFFFFFFFFFFFFFFFFFFFFFFFFFFFFFFFFFFFFFFFFFFFFFFFFF
310
FFFFFFFFFFFFFFFFFFFFFFFFFFFFFFFFFFFFFFFFFFFFFFFFFFFFFFFFFFFFFFFF
310
FFFFFFFFFFFFFFFFFFFFFFFFFFFFFFFFFFFFFFFFFFFFFFFFF000FFFFFFFFFFFF
310
FFFFFFFFFFFFFFFFFFFFFFFFFFFFFFFFFFFFFFFFFFFFFFFFFFFFFFFFFFFFFFFF
310
FFFFFFFFFFFFFFFFFFFFFFFFFFFFFFFFFFFFFFFFFFFFFFFFFFFFFFFFFFFFFFFF
310
FFFFFFFFFFFFFFFFFFFFFFFFFFFFFFFFF000FFFFFFFFFFFFFFFFFFFFFFFFFFFF
310
FFFFFFFFFFFFFFFFFFFFFFFFFFFFFFFFFFFFFFFFFFFFFFFFFFFFFFFFFFFFFFFF
310
FFFFFFFFFFFFFFFFFFFFFFFFFFFFFFFFFFFFFFFFFFFFFFFFFFFFFFFFFFFFFFFF
310
FFFFFFFFFFFFFFFFF000FFFFFFFFFFFFFFFFFFFFFFFFFFFFFFFFFFFFFFFFFFFF
310
FFFFFFFFFFFFFFFFFFFFFFFFFFFFFFFFFFFFFFFFFFFFFFFFFFFFFFFFFFFFFFFF
310
FFFFFFFFFFFFFFFFFFFFFFFFFFFFFFFFFFFFFFFFFFFFFFFFFFFFFFFFFFFFFFFF
310
F000FFFFFFFFFFFFFFFFFFFFFFFFFFFFFFFFFFFFFFFFFFFFFFFFFFFFFFFFFFFF
310
FFFFFFFFFFFFFFFFFFFFFFFFFFFFFFFFFFFFFFFFFFFFFFFFFFFFFFFFFFFFFFFF
310
FFFFFFFFFFFFFFFFFFFFFFFFFFFFFFFFFFFFFFFFFFFFFFFFF000FFFFFFFFFFFF
310
FFFFFFFFFFFFFFFFFFFFFFFFFFFFFFFFFFFFFFFFFFFFFFFFFFFFFFFFFFFFFFFF
310
FFFFFFFFFFFFFFFFFFFFFFFFFFFFFFFFFFFFFFFFFFFFFFFFFFFFFFFFFFFFFFFF
310
FFFFFFFFFFFFFFFFFFFFFFFFFFFFFFFFF000FFFFFFFFFFFFFFFFFFFFFFFFFFFF
310
FFFFFFFFFFFFFFFFFFFFFFFFFFFFFFFFFFFFFFFFFFFFFFFFFFFFFFFFFFFFFFFF
310
FFFFFFFFFFFFFFFFFFFFFFFFFFFFFFFFFFFFFFFFFFFFFFFFFFFFFFFFFFFFFFFF
310
FFFFFFFFFFFFFFFFF000FFFFF80003FFFFFFFFFFFFFFFFFFFFFFFFFFFFFFFFFF
310
FFFFF00007FFFFFFFFFF00007FFFFFF800000000000000007FFFFFFFFFFFFFFF
310
FFFFFFFC001FFFFFFFFFFFFFFC001FFFFFFFFFFFFFFFFFFFFFFFFFFE0007FFFF
310
F000FFFF8000007FFFFFFFF8000FFFFFC0007FFFFF80007FFFFF0000007FFFFF
310
FFF8000007FFFFF800000000000000007FFFFFF0001FFFFFFFFFFFC00001FFFF
310
FFFFFFFFC00001FFFFFFFF000000000003FFFFE000007FFFF000FFFE0000000F
310
FFFFFFF0000FFFFF80007FFFFF80007FFFFC0000001FFFFFFFC0000001FFFFF8
310
00000000000000007FFFFFF0001FFFFFFFFFFE0000003FFFFFFFFFFE0000003F
310
FFFFFF000000000003FFFF0000000FFFF000FFF800000003FFFFFFF00007FFFF
310
80007FFFFF80007FFFF000000007FFFFFF000000003FFFF80000000000000000
310
7FFFFFF0001FFFFFFFFFF80000000FFFFFFFFFF80000000FFFFFFF0000000000
310
03FFFC00000003FFF000FFE000000000FFFFFFF00007FFFF80003FFFFF80007F
310
FFC000000001FFFFFC000000001FFFF800000000000000007FFFFFF0001FFFFF
310
FFFFE000000003FFFFFFFFE000000003FFFFFF000000000003FFF000000000FF
310
F000FF80000000007FFFFFF00007FFFF80003FFFFF80007FFF8000000000FFFF
310
F80000000007FFF800000000000000007FFFFFF0001FFFFFFFFFC000000001FF
310
FFFFFFC000000001FFFFFF000000000003FFC0000000007FF000FF0000000000
310
3FFFFFE00007FFFF00003FFFFF80007FFE00000000003FFFF00000000003FFF8
310
00000000000000007FFFFFF0001FFFFFFFFF8000000000FFFFFFFF8000000000
310
FFFFFF000000000003FF80000000003FF000FE00000000001FFFFFE00003FFFF
310
00003FFFFF80007FFC00000000001FFFE00000000001FFF8000001FFFE000000
310
7FFFFFF0001FFFFFFFFE00000000003FFFFFFE00000000003FFFFF0000000000
310
03FF00000000001FF000FC00000000000FFFFFE00003FFFF00001FFFFF80007F
310
F800000000001FFFC00000000000FFF8000001FFFE0000007FFFFFF0001FFFFF
310
FFFC00000000001FFFFFFC00000000001FFFFF000000000003FE00000000000F
310
F000F8000000000007FFFFE00003FFFF00001FFFFF80007FF800000000000FFF
310
800000000000FFF8000001FFFE0000007FFFFFF0001FFFFFFFF800000000000F
310
FFFFF800000000000FFFFF000000000003FC000000000007F000F80000000000
310
03FFFFC00003FFFE00001FFFFF80007FF0000000000007FF0000000000007FF8
310
000001FFFE0000007FFFFFF0001FFFFFFFF0000000000007FFFFF00000000000
310
07FFFF000000000003F8000000000003F000F0000000000003FFFFC00001FFFE
310
00001FFFFF80007FE0000000000007FE0000000000003FF8000001FFFE000000
310
7FFFFFF0001FFFFFFFF0000000000007FFFFF0000000000007FFFF0000000000
310
03F800001F800003F000E00001FFF00001FFFFC00001FFFE00000FFFFF80007F
310
E00001FFE00003FE00001FFF00003FF8000001FFFE0000007FFFFFF0001FFFFF
310
FFE000003E000003FFFFE000003E000003FFFF000000000003F00001FFF80001
310
F000E00007FFFC0001FFFFC00001FFFE00000FFFFF80007FC0000FFFFC0003FC
310
0000FFFFC0001FF8000001FFFE0000007FFFFFF0001FFFFFFFC00003FFE00001
310
FFFFC00003FFE00001FFFF0001FFFFFFFFF00007FFFE0001F000E0000FFFFF00
310
00FFFF800001FFFC00000FFFFF80007FC0001FFFFE0001FC0001FFFFE0001FF8
310
000001FFFE0000007FFFFFF0001FFFFFFF80000FFFF80000FFFF80000FFFF800
310
00FFFF0003FFFFFFFFE0000FFFFF8000F000C0003FFFFF8000FFFF800000FFFC
310
000007FFFF80007F80003FFFFF0001FC0003FFFFF0001FF8000001FFFE000000
310
7FFFFFF0001FFFFFFF80003FFFFE0000FFFF80003FFFFE0000FFFF0003FFFFFF
310
FFE0003FFFFF8000F000C0003FFFFF8000FFFF800000FFFC000007FFFF80007F
310
80007FFFFF8001F80007FFFFF8000FF8000001FFFE0000007FFFFFF0001FFFFF
310
FF00007FFFFF00007FFF00007FFFFF00007FFF0003FFFFFFFFE0003FFFFFC000
310
F000C0007FFFFFC000FFFF000000FFFC000007FFFF80007F8000FFFFFF8000F8
310
000FFFFFF8000FF8000001FFFE0000007FFFFFF0001FFFFFFF0000FFFFFF8000
310
7FFF0000FFFFFF80007FFF0003FFFFFFFFC0007FFFFFC00070008000FFFFFFC0
310
00FFFF000000FFF8000007FFFF80007F8000FFFFFF8000F8000FFFFFF8000FF8
310
000001FFFE0000007FFFFFF0001FFFFFFE0001FFFFFFC0003FFE0001FFFFFFC0
310
003FFF0003FFFFFFFFC0007FFFFFE00070008000FFFFFFC0007FFF0000007FF8
310
000003FFFF80007F0001FFFFFF8000F8000FFFFFF8000FF8000001FFFE000000
310
7FFFFFF0001FFFFFFE0001FFFFFFC0003FFE0001FFFFFFC0003FFF0003FFFFFF
310
FFC000FFFFFFE00070008000FFFFFFC0007FFF0000007FF8000003FFFF80007F
310
0001FFFFFF8000F8001FFFFFF8000FF8000001FFFE0000007FFFFFF0001FFFFF
310
FE0003FFFFFFE0003FFE0003FFFFFFE0003FFF0003FFFFFFFFC000FFFFFFE000
310
70008000FFFFFFC0007FFE0000007FF8000003FFFF80007F0001FFFFFF8000F0
310
001FFFFFF8000FF8000001FFFE0000007FFFFFF0001FFFFFFC0003FFFFFFE000
310
1FFC0003FFFFFFE0001FFF0003FFFFFFFFC000FFFFFFC00070008000FFFFFF80
310
007FFE0000007FF0000003FFFF80007F0001FFFFFF0000F0001FFFFFF8000FF8
310
000001FFFE0000007FFFFFF0001FFFFFFC0007FFFFFFF0001FFC0007FFFFFFF0
310
001FFF0003FFFFFFFFC000FFFFFFC00070008001FFFFFF0000FFFE0000003FF0
310
000001FFFF80007F0001FFFFFF0000F8001FFFFFF0000FF8000001FFFE000000
310
7FFFFFF0001FFFFFFC0007FFFFFFF0001FFC0007FFFFFFF0001FFF0003FFFFFF
310
FFC001FFFFFF80007000FFFFFFFFFE0000FFFE0008003FF0008001FFFF80007F
310
FFFFFFFFFC0000FFFFFFFFFFE0000FF8000001FFFE0000007FFFFFF0001FFFFF
310
F8000FFFFFFFF8000FF8000FFFFFFFF8000FFF0003FFFFFFFFFFFFFFFFFF0000
310
7000FFFFFFFFFC0000FFFC0008003FF0008001FFFF80007FFFFFFFFFF80001FF
310
FFFFFFFF80000FF8000001FFFE0000007FFFFFF0001FFFFFF8000FFFFFFFF800
310
0FF8000FFFFFFFF8000FFF0003FFFFFFFFFFFFFFFFFE0000F000FFFFFFFFE000
310
00FFFC000C003FE000C001FFFF80007FFFFFFFFFC00001FFFFFFFFFE00001FF8
310
000001FFFE0000007FFFFFF0001FFFFFF8000FFFFFFFF8000FF8000FFFFFFFF8
310
000FFF0003FFFFFFFFFFFFFFFFF00000F000FFFFFFFE000001FFFC000C001FE0
310
00C000FFFF80007FFFFFFFFE000001FFFFFFFFE000001FF80FFFFFFFFFFFFFC0
310
7FFFFFF0001FFFFFF8000FFFFFFFF8000FF8000FFFFFFFF8000FFF0003FFFFFF
310
FFFFFFFFFF800000F000FFFFFFC0000001FFFC001C001FE001C000FFFF80007F
310
FFFFFF80000003FFFFFFF80000001FF80FFFFFFFFFFFFFC07FFFFFF0001FFFFF
310
F8001FFFFFFFFC000FF8001FFFFFFFFC000FFF0003FFFFFFFFFFFFFFF0000001
310
F000FFFFF800000001FFF8001C001FE001C000FFFF80007FFFFFF800000003FF
310
FFFF800000003FF80FFFFFFFFFFFFFC07FFFFFF0001FFFFFF8001FFFFFFFFC00
310
0FF8001FFFFFFFFC000FFF0003FFFFFFFFFFFFFE00000001F000FFFFC0000000
310
03FFF8001E001FC001E000FFFF80007FFFFF8000000007FFFFFC000000003FF8
310
0FFFFFFFFFFFFFC07FFFFFF0001FFFFFF8001FFFFFFFFC000FF8001FFFFFFFFC
310
000FFF0003FFFFFFFFFFFFE000000003F000FFFE0000000007FFF8001E000FC0
310
01E0007FFF80007FFFFE0000000007FFFFE0000000007FF80FFFFFFFFFFFFFC0
310
7FFFFFF0001FFFFFF0001FFFFFFFFC0007F0001FFFFFFFFC0007FF0003FFFFFF
310
FFFFFF0000000003F000FFF80000000007FFF8001E000FC003E0007FFF80007F
310
FFF0000000000FFFFF8000000000FFF80FFFFFFFFFFFFFC07FFFFFF0001FFFFF
310
F0001FFFFFFFFC0007F0001FFFFFFFFC0007FF0003FFFFFFFFFFFC0000000007
310
F000FFE0000000000FFFF0003E000FC003E0007FFF80007FFFC0000000001FFF
310
FE0000000001FFF80FFFFFFFFFFFFFC07FFFFFF0001FFFFFF0001FFFFFFFFC00
310
07F0001FFFFFFFFC0007FF0003FFFFFFFFFFF0000000000FF000FFC000000000
310
1FFFF0003F000F8003F0003FFF80007FFF80000000003FFFF80000000003FFF8
310
0FFFFFFFFFFFFFC07FFFFFF0001FFFFFF0001FFFFFFFFC0007F0001FFFFFFFFC
310
0007FF0003FFFFFFFFFFE0000000001FF000FF00000000007FFFF0003F000780
310
03F0003FFF80007FFF00000000007FFFF00000000007FFF80FFFFFFFFFFFFFC0
310
7FFFFFF0001FFFFFF0001FFFFFFFFC0007F0001FFFFFFFFC0007FF0003FFFFFF
310
FFFF80000000007FF000FE0000000000FFFFE0003F00078007F0003FFF80007F
310
FE0000000001FFFFE0000000001FFFF80FFFFFFFFFFFFFC07FFFFFF0001FFFFF
310
F0001FFFFFFFFC0007F0001FFFFFFFFC0007FF0003FFFFFFFFFF0000000000FF
310
F000FC0000000003FFFFE0007F00078007F0003FFF80007FFC0000000007FFFF
310
C0000000007FFFF80FFFFFFFFFFFFFC07FFFFFF0001FFFFFF8001FFFFFFFFC00
310
0FF8001FFFFFFFFC000FFF0003FFFFFFFFFE0000000003FFF000FC000000000F
310
FFFFE0007F80070007F8001FFF80007FF8000000001FFFFF8000000001FFFFF8
310
0FFFFFFFFFFFFFC07FFFFFF0001FFFFFF8001FFFFFFFFC000FF8001FFFFFFFFC
310
000FFF0003FFFFFFFFFC000000000FFFF000F8000000007FFFFFE0007F800700
310
07F8001FFF80007FF000000000FFFFFF800000000FFFFFF80FFFFFFFFFFFFFC0
310
7FFFFFF0001FFFFFF8000FFFFFFFF8000FF8000FFFFFFFF8000FFF0003FFFFFF
310
FFFC000000007FFFF000F800000007FFFFFFC0007F8003000FF8001FFF80007F
310
F000000007FFFFFF000000007FFFFFF80FFFFFFFFFFFFFC07FFFFFF0001FFFFF
310
F8000FFFFFFFF8000FF8000FFFFFFFF8000FFF0003FFFFFFFFF80000000FFFFF
310
F000F0000000FFFFFFFFC000FF8003000FF8001FFF80007FE0000000FFFFFFFF
310
0000000FFFFFFFF8000001FFFE0000007FFFFFF0001FFFFFF8000FFFFFFFF800
310
0FF8000FFFFFFFF8000FFF0003FFFFFFFFF8000000FFFFFFF000F000000FFFFF
310
FFFFC000FFC002000FF8000FFF80007FE000001FFFFFFFFE000001FFFFFFFFF8
310
000001FFFE0000007FFFFFF0001FFFFFF8000FFFFFFFF8000FF8000FFFFFFFF8
310
000FFF0003FFFFFFFFF000001FFFFFFFF000E00000FFFFFFFFFFC000FFC00200
310
0FFC000FFF80007FE00001FFFFFFFFFE00001FFFFFFFFFF8000001FFFE000000
310
7FFFFFF0001FFFFFFC000FFFFFFFF8001FFC000FFFFFFFF8001FFF0003FFFFFF
310
FFF00001FFFFFFFFF000E00007FFFFFFFFFF8000FFC000001FFC000FFF80007F
310
C0000FFFFFFFFFFE0000FFFFFFFFFFF8000001FFFE0000007FFFFFF0001FFFFF
310
FC0007FFFFFFF0001FFC0007FFFFFFF0001FFF0003FFFFFFFFF00007FFFFFFFF
310
F000E0001FFFFFFFFFFF8000FFC000001FFC000FFF80007FC0003FFFFFFFFFFE
310
0001FFFFFFFFFFF8000001FFFE0000007FFFFFF0001FFFFFFC0007FFFFFFF000
310
1FFC0007FFFFFFF0001FFF0003FFFFFFFFF0001FFFFFFFFFF000E0003FFFFF00
310
03FF8001FFE000001FFC0007FF80007FC0007FFFFF0007FC0003FFFFF0003FF8
310
000001FFFE0000007FFFFFF0001FFFFFFC0003FFFFFFE0001FFC0003FFFFFFE0
310
001FFF0003FFFFFFFFF0003FFFFFFFFFF000E0003FFFFF0001FF8001FFE00000
310
1FFE0007FF80007FC0007FFFFE0003FC0007FFFFE0003FF8000001FFFE000000
310
7FFFFFF0001FFFFFFE0003FFFFFFE0003FFE0003FFFFFFE0003FFF0003FFFFFF
310
FFF0003FFFFF8001F000E0003FFFFF0001FF0001FFE000001FFE0007FF80007F
310
C0007FFFFE0003FC0007FFFFE0003FF8000001FFFE0000007FFFFFF0001FFFFF
310
FE0001FFFFFFC0003FFE0001FFFFFFC0003FFF0003FFFFFFFFF0003FFFFF0001
310
F000E0003FFFFF0003FF0001FFE000003FFE0007FF80007FC0007FFFFE0003FC
310
0007FFFFE0003FF8000001FFFE0000007FFFFFF0001FFFFFFF0001FFFFFFC000
310
7FFF0001FFFFFFC0007FFF0003FFFFFFFFF0003FFFFF0001F000E0003FFFFE00
310
03FF0003FFF000003FFE0003FF80007FC0007FFFFC0003FE0007FFFFE0003FF8
310
000001FFFE0000007FFFFFF0001FFFFFFF0000FFFFFF80007FFF0000FFFFFF80
310
007FFF0003FFFFFFFFF0003FFFFF0001F000E0003FFFFE0003FF0003FFF00000
310
3FFF0003FF80007FC0007FFFFC0007FE0007FFFFC0003FF8000001FFFE000000
310
7FFFFFF0001FFFFFFF80007FFFFF0000FFFF80007FFFFF0000FFFF0003FFFFFF
310
FFF0003FFFFF0003F000E0003FFFFC0003FE0003FFF000003FFF0003FF80007F
310
E0003FFFF80007FE0003FFFFC0007FF8000001FFFE0000007FFFFFF0001FFFFF
310
FF80003FFFFE0000FFFF80003FFFFE0000FFFF0003FFFFFFFFF0001FFFFE0003
310
F000F0001FFFF80003FE0003FFF000007FFF0001FF80007FE0003FFFF00007FE
310
0001FFFF80007FF8000001FFFE0000007FFFFFF0001FFFFFFFC0000FFFF80001
310
FFFFC0000FFFF80001FFFF0003FFFFFFFFF0001FFFFC0003F000F0000FFFF000
310
07FE0007FFF800007FFF0001FF80007FE0001FFFE00007FF0000FFFE00007FF8
310
000001FFFE0000007FFFFFF0001FFFFFFFC00003FFE00001FFFFC00003FFE000
310
01FFFF0003FFFFFFFFF8000FFFF80003F000F00003FFC00007FC0007FFF80000
310
7FFF8001FF80007FF00007FF80000FFF00007FF80000FFF8000001FFFE000000
310
7F80000000000001FFE000003E000003FFFFE000003E000003FFFF0003FFFFFF
310
FFF80003FFE00007F000F800000000000FFC0007FFF800007FFF8001FF80007F
310
F000000000000FFF000000000000FFF8000001FFFE0000007F80000000000001
310
FFF0000000000007FFFFF0000000000007FFFF0003FFFFFFFFFC00007E000007
310
F000F800000000000FFC0007FFF80000FFFF8000FF80007FF800000000001FFF
310
800000000001FFF8000001FFFE0000007F80000000000001FFF800000000000F
310
FFFFF800000000000FFFFF0003FFFFFFFFFC00000000000FF000FC0000000000
310
1FFC0007FFFC0000FFFF8000FF80007FF800000000003FFFC00000000001FFF8
310
000001FFFE0000007F80000000000001FFF800000000000FFFFFF80000000000
310
0FFFFF0003FFFFFFFFFE00000000001FF000FE00000000003FF8000FFFFC0000
310
FFFF8000FF80007FFC00000000003FFFC00000000003FFF8000001FFFE000000
310
7F80000000000001FFFC00000000001FFFFFFC00000000001FFFFF0003FFFFFF
310
FFFF00000000001FF000FF00000000003FF8000FFFFC0000FFFFC000FF80007F
310
FE00000000007FFFE00000000007FFF8000001FFFE0000007F80000000000001
310
FFFE00000000003FFFFFFE00000000003FFFFF0003FFFFFFFFFF80000000003F
310
F000FF80000000007FF8000FFFFC0001FFFFC0007F80007FFF0000000000FFFF
310
F0000000000FFFF800000000000000007F80000000000001FFFF8000000000FF
310
FFFFFF8000000000FFFFFF0003FFFFFFFFFFC0000000007FF000FFC000000000
310
FFF8000FFFFE0001FFFFC0007F80007FFF8000000001FFFFF8000000001FFFF8
310
00000000000000007F80000000000001FFFFC000000001FFFFFFFFC000000001
310
FFFFFF0003FFFFFFFFFFE000000000FFF000FFE000000003FFF0001FFFFE0001
310
FFFFC0007F80007FFFC000000007FFFFFE000000003FFFF80000000000000000
310
7F80000000000001FFFFE000000003FFFFFFFFE000000003FFFFFF0003FFFFFF
310
FFFFF000000003FFF000FFF80000000FFFF0001FFFFE0001FFFFE0007F80007F
310
FFF00000000FFFFFFF00000000FFFFF800000000000000007F80000000000001
310
FFFFF80000000FFFFFFFFFF80000000FFFFFFF0003FFFFFFFFFFFC0000000FFF
310
F000FFFE0000003FFFF0001FFFFE0003FFFFE0003F80007FFFFC0000003FFFFF
310
FFC0000003FFFFF800000000000000007F80000000000001FFFFFE0000003FFF
310
FFFFFFFE0000003FFFFFFF0003FFFFFFFFFFFF0000003FFFF000FFFF800000FF
310
FFF0001FFFFF0003FFFFE0003F80007FFFFF000001FFFFFFFFF800001FFFFFF8
310
00000000000000007F80000000000001FFFFFFC00001FFFFFFFFFFFFC00001FF
310
FFFFFF0003FFFFFFFFFFFFC00000FFFFF000FFFFF8000FFFFFFFFFFFFFFFFFFF
310
FFFFFFFFFFFFFFFFFFFFF0001FFFFFFFFFFF0000FFFFFFF80000000000000000
310
7FFFFFFFFFFFFFFFFFFFFFFC001FFFFFFFFFFFFFFC001FFFFFFFFFFFFFFFFFFF
310
FFFFFFFC001FFFFFF000FFFFFFFFFFFFFFFFFFFFFFFFFFFFFFFFFFFFFFFFFFFF
310
FFFFFFFFFFFFFFFFFFFFFFFFFFFFFFFFFFFFFFFFFFFFFFFFFFFFFFFFFFFFFFFF
310
FFFFFFFFFFFFFFFFFFFFFFFFFFFFFFFFFFFFFFFFFFFFFFFFFFFFFFFFFFFFFFFF
310
F000FFFFFFFFFFFFFFFFFFFFFFFFFFFFFFFFFFFFFFFFFFFFFFFFFFFFFFFFFFFF
310
FFFFFFFFFFFFFFFFFFFFFFFFFFFFFFFFFFFFFFFFFFFFFFFFFFFFFFFFFFFFFFFF
310
FFFFFFFFFFFFFFFFFFFFFFFFFFFFFFFFFFFFFFFFFFFFFFFFF000FFFFFFFFFFFF
310
FFFFFFFFFFFFFFFFFFFFFFFFFFFFFFFFFFFFFFFFFFFFFFFFFFFFFFFFFFFFFFFF
310
FFFFFFFFFFFFFFFFFFFFFFFFFFFFFFFFFFFFFFFFFFFFFFFFFFFFFFFFFFFFFFFF
310
FFFFFFFFFFFFFFFFFFFFFFFFFFFFFFFFF000FFFFFFFFFFFFFFFFFFFFFFFFFFFF
310
FFFFFFFFFFFFFFFFFFFFFFFFFFFFFFFFFFFFFFFFFFFFFFFFFFFFFFFFFFFFFFFF
310
FFFFFFFFFFFFFFFFFFFFFFFFFFFFFFFFFFFFFFFFFFFFFFFFFFFFFFFFFFFFFFFF
310
FFFFFFFFFFFFFFFFF000FFFFFFFFFFFFFFFFFFFFFFFFFFFFFFFFFFFFFFFFFFFF
310
FFFFFFFFFFFFFFFFFFFFFFFFFFFFFFFFFFFFFFFFFFFFFFFFFFFFFFFFFFFFFFFF
310
FFFFFFFFFFFFFFFFFFFFFFFFFFFFFFFFFFFFFFFFFFFFFFFFFFFFFFFFFFFFFFFF
310
F000FFFFFFFFFFFFFFFFFFFFFFFFFFFFFFFFFFFFFFFFFFFFFFFFFFFFFFFFFFFF
310
FFFFFFFFFFFFFFFFFFFFFFFFFFFFFFFFFFFFFFFFFFFFFFFFFFFFFFFFFFFFFFFF
310
FFFFFFFFFFFFFFFFFFFFFFFFFFFFFFFFFFFFFFFFFFFFFFFFF000FFFFFFFFFFFF
310
FFFFFFFFFFFFFFFFFFFFFFFFFFFFFFFFFFFFFFFFFFFFFFFFFFFFFFFFFFFFFFFF
310
FFFFFFFFFFFFFFFFFFFFFFFFFFFFFFFFFFFFFFFFFFFFFFFFFFFFFFFFFFFFFFFF
310
FFFFFFFFFFFFFFFFFFFFFFFFFFFFFFFFF000FFFFFFFFFFFFFFFFFFFFFFFFFFFF
310
FFFFFFFFFFFFFFFFFFFFFFFFFFFFFFFFFFFFFFFFFFFFFFFFFFFFFFFFFFFFFFFF
310
FFFFFFFFFFFFFFFFFFFFFFFFFFFFFFFFFFFFFFFFFFFFFFFFFFFFFFFFFFFFFFFF
310
FFFFFFFFFFFFFFFFF000FFFFFFFFFFFFFFFFFFFFFFFFFFFFFFFFFFFFFFFFFFFF
310
FFFFFFFFFFFFFFFFFFFFFFFFFFFFFFFFFFFFFFFFFFFFFFFFFFFFFFFFFFFFFFFF
310
FFFFFFFFFFFFFFFFFFFFFFFFFFFFFFFFFFFFFFFFFFFFFFFFFFFFFFFFFFFFFFFF
310
F000FFFFFFFFFFFFFFFFFFFFFFFFFFFFFFFFFFFFFFFFFFFFFFFFFFFFFFFFFFFF
310
FFFFFFFFFFFFFFFFFFFFFFFFFFFFFFFFFFFFFFFFFFFFFFFFFFFFFFFFFFFFFFFF
310
FFFFFFFFFFFFFFFFFFFFFFFFFFFFFFFFFFFFFFFFFFFFFFFFF000FFFFFFFFFFFF
310
FFFFFFFFFFFFFFFFFFFFFFFFFFFFFFFFFFFFFFFFFFFFFFFFFFFFFFFFFFFFFFFF
310
FFFFFFFFFFFFFFFFFFFFFFFFFFFFFFFFFFFFFFFFFFFFFFFFFFFFFFFFFFFFFFFF
310
FFFFFFFFFFFFFFFFFFFFFFFFFFFFFFFFF000FFFFFFFFFFFFFFFFFFFFFFFFFFFF
310
FFFFFFFFFFFFFFFFFFFFFFFFFFFFFFFFFFFFFFFFFFFFFFFFFFFFFFFFFFFFFFFF
310
FFFFFFFFFFFFFFFFFFFFFFFFFFFFFFFFFFFFFFFFFFFFFFFFFFFFFFFFFFFFFFFF
310
FFFFFFFFFFFFFFFFF000FFFFFFFFFFFFFFFFFFFFFFFFFFFFFFFFFFFFFFFFFFFF
310
FFFFFFFFFFFFFFFFFFFFFFFFFFFFFFFFFFFFFFFFFFFFFFFFFFFFFFFFFFFFFFFF
310
FFFFFFFFFFFFFFFFFFFFFFFFFFFFFFFFFFFFFFFFFFFFFFFFFFFFFFFFFFFFFFFF
310
F000FFFFFFFFFFFFFFFFFFFFFFFFFFFFFFFFFFFFFFFFFFFFFFFFFFFFFFFFFFFF
310
FFFFFFFFFFFFFFFFFFFFFFFFFFFFFFFFFFFFFFFFFFFFFFFFFFFFFFFFFFFFFFFF
310
FFFFFFFFFFFFFFFFFFFFFFFFFFFFFFFFFFFFFFFFFFFFFFFFF000FFFFFFFFFFFF
310
FFFFFFFFFFFFFFFFFFFFFFFFFFFFFFFFFFFFFFFFFFFFFFFFFFFFFFFFFFFFFFFF
310
FFFFFFFFFFFFFFFFFFFFFFFFFFFFFFFFFFFFFFFFFFFFFFFFFFFFFFFFFFFFFFFF
310
FFFFFFFFFFFFFFFFFFFFFFFFFFFFFFFFF000FFFFFFFFFFFFFFFFFFFFFFFFFFFF
310
FFFFFFFFFFFFFFFFFFFFFFFFFFFFFFFFFFFFFFFFFFFFFFFFFFFFFFFFFFFFFFFF
310
FFFFFFFFFFFFFFFFFFFFFFFFFFFFFFFFFFFFFFFFFFFFFFFFFFFFFFFFFFFFFFFF
310
FFFFFFFFFFFFFFFFF000FFFFFFFFFFFFFFFFFFFFFFFFFFFFFFFFFFFFFFFFFFFF
310
FFFFFFFFFFFFFFFFFFFFFFFFFFFFFFFFFFFFFFFFFFFFFFFFFFFFFFFFFFFFFFFF
310
FFFFFFFFFFFFFFFFFFFFFFFFFFFFFFFFFFFFFFFFFFFFFFFFFFFFFFFFFFFFFFFF
310
F000FFFFFFFFFFFFFFFFFFFFFFFFFFFFFFFFFFFFFFFFFFFFFFFFFFFFFFFFFFFF
310
FFFFFFFFFFFFFFFFFFFFFFFFFFFFFFFFFFFFFFFFFFFFFFFFFFFFFFFFFFFFFFFF
310
FFFFFFFFFFFFFFFFFFFFFFFFFFFFFFFFFFFFFFFFFFFFFFFFF000FFFFFFFFFFFF
310
FFFFFFFFFFFFFFFFFFFFFFFFFFFFFFFFFFFFFFFFFFFFFFFFFFFFFFFFFFFFFFFF
310
FFFFFFFFFFFFFFFFFFFFFFFFFFFFFFFFFFFFFFFFFFFFFFFFFFFFFFFFFFFFFFFF
310
FFFFFFFFFFFFFFFFFFFFFFFFFFFFFFFFF000FFFFFFFFFFFFFFFFFFFFFFFFFFFF
310
FFFFFFFFFFFFFFFFFFFFFFFFFFFFFFFFFFFFFFFFFFFFFFFFFFFFFFFFFFFFFFFF
310
FFFFFFFFFFFFFFFFFFFFFFFFFFFFFFFFFFFFFFFFFFFFFFFFFFFFFFFFFFFFFFFF
310
FFFFFFFFFFFFFFFFF000FFFFFFFFFFFFFFFFFFFFFFFFFFFFFFFFFFFFFFFFFFFF
310
FFFFFFFFFFFFFFFFFFFFFFFFFFFFFFFFFFFFFFFFFFFFFFFFFFFFFFFFFFFFFFFF
310
FFFFFFFFFFFFFFFFFFFFFFFFFFFFFFFFFFFFFFFFFFFFFFFFFFFFFFFFFFFFFFFF
310
F000FFFFFFFFFFFFFFFFFFFFFFFFFFFFFFFFFFFFFFFFFFFFFFFFFFFFFFFFFFFF
310
FFFFFFFFFFFFFFFFFFFFFFFFFFFFFFFFFFFFFFFFFFFFFFFFFFFFFFFFFFFFFFFF
310
FFFFFFFFFFFFFFFFFFFFFFFFFFFFFFFFFFFFFFFFFFFFFFFFF000FFFFFFFFFFFF
310
FFFFFFFFFFFFFFFFFFFFFFFFFFFFFFFFFFFFFFFFFFFFFFFFFFFFFFFFFFFFFFFF
310
FFFFFFFFFFFFFFFFFFFFFFFFFFFFFFFFFFFFFFFFFFFFFFFFFFFFFFFFFFFFFFFF
310
FFFFFFFFFFFFFFFFFFFFFFFFFFFFFFFFF0000000000000000000000000000000
310
00000000000000000000000042006C00610063006B0000000000000000000000
310
0000000000000000000000000000000000000000000000000000000000000000
310
0000000000000000000000000000FFFFFFFFFFFFFFFFFFFFFFFFFFFFFFFFFFFF
310
FFFFFFFFFFFFFFFFFFFFFFFFFFFFFFFFFFFFFFFFFFFFFFFFFFFFFFFFFFFFFFFF
310
FFFFFFFFFFFFFFFFFFFFFFFF6476000800000000FFFFFFFF20FF202026000000
310
1E00000008000000060000000000000011000000200000008403000000000000
310
6000000060000000200002FB200020000000002B00FFFFFF40002200E8030000
310
A80400001C020000AF0000804A20004000000000000000000100000000000000
310
616C000800000000E40100007001000002000000270000001100000000000000
310
00000000BC0200000000000003020122420065006C006C00200047006F007400
310
680069006300200053007400640020004C006900670068007400000000000000
310
00000000000000000000000000000000420065006C006C0047006F0074006800
310
690063005300740064002D0042006F006C006400000000000000000000000000
310
0000000000000000000000000000000000000000000000000000000000000000
310
0000000000000000000000000000000000000000000000000000000000000000
  1
OLE
  0
ENDSEC
  0
SECTION
  2
OBJECTS
  0
DICTIONARY
  5
C
330
0
100
AcDbDictionary
281
     1
  3
ACAD_GROUP
350
D
  3
ACAD_LAYOUT
350
1A
  3
ACAD_MLEADERSTYLE
350
2C0
  3
ACAD_MLINESTYLE
350
17
  3
ACAD_PLOTSETTINGS
350
19
  3
ACAD_PLOTSTYLENAME
350
E
  3
ACAD_TABLESTYLE
350
2BF
  3
ACAD_VISUALSTYLE
350
2A
  3
AcDbVariableDictionary
350
2C1
  0
DICTIONARY
  5
D
102
{ACAD_REACTORS
330
C
102
}
330
C
100
AcDbDictionary
281
     1
  0
DICTIONARY
  5
1A
102
{ACAD_REACTORS
330
C
102
}
330
C
100
AcDbDictionary
281
     1
  3
Layout1
350
1E
  3
Layout2
350
26
  3
Model
350
22
  0
DICTIONARY
  5
2C0
102
{ACAD_REACTORS
330
C
102
}
330
C
100
AcDbDictionary
281
     1
  0
DICTIONARY
  5
17
102
{ACAD_REACTORS
330
C
102
}
330
C
100
AcDbDictionary
281
     1
  3
Standard
350
18
  0
DICTIONARY
  5
19
102
{ACAD_REACTORS
330
C
102
}
330
C
100
AcDbDictionary
281
     1
  0
ACDBDICTIONARYWDFLT
  5
E
102
{ACAD_REACTORS
330
C
102
}
330
C
100
AcDbDictionary
281
     1
  3
Normal
350
F
100
AcDbDictionaryWithDefault
340
F
  0
DICTIONARY
  5
2BF
102
{ACAD_REACTORS
330
C
102
}
330
C
100
AcDbDictionary
281
     1
  0
DICTIONARY
  5
2A
102
{ACAD_REACTORS
330
C
102
}
330
C
100
AcDbDictionary
281
     1
  3
2dWireframe
350
2F
  3
3D Hidden
350
31
  3
3dWireframe
350
30
  3
Basic
350
32
  3
Brighten
350
36
  3
ColorChange
350
3A
  3
Conceptual
350
34
  3
Dim
350
35
  3
Facepattern
350
39
  3
Flat
350
2B
  3
FlatWithEdges
350
2C
  3
Gouraud
350
2D
  3
GouraudWithEdges
350
2E
  3
Linepattern
350
38
  3
Realistic
350
33
  3
Thicken
350
37
  0
DICTIONARY
  5
2C1
102
{ACAD_REACTORS
330
C
102
}
330
C
100
AcDbDictionary
281
     1
  3
PSOLHEIGHT
350
2C3
  3
PSOLWIDTH
350
2C2
  0
LAYOUT
  5
1E
102
{ACAD_REACTORS
330
1A
102
}
330
1A
100
AcDbPlotSettings
  1

  2
none_device
  4

  6

 40
0.0
 41
0.0
 42
0.0
 43
0.0
 44
0.0
 45
0.0
 46
0.0
 47
0.0
 48
0.0
 49
0.0
140
0.0
141
0.0
142
1.0
143
1.0
 70
   688
 72
     0
 73
     0
 74
     5
  7

 75
    16
147
1.0
148
0.0
149
0.0
100
AcDbLayout
  1
Layout1
 70
     1
 71
     1
 10
0.0
 20
0.0
 11
420.0
 21
297.0
 12
0.0
 22
0.0
 32
0.0
 14
1.0000000000E+20
 24
1.0000000000E+20
 34
1.0000000000E+20
 15
-1.0000000000E+20
 25
-1.0000000000E+20
 35
-1.0000000000E+20
146
0.0
 13
0.0
 23
0.0
 33
0.0
 16
1.0
 26
0.0
 36
0.0
 17
0.0
 27
1.0
 37
0.0
 76
     0
330
1B
  0
LAYOUT
  5
26
102
{ACAD_REACTORS
330
1A
102
}
330
1A
100
AcDbPlotSettings
  1

  2
none_device
  4

  6

 40
0.0
 41
0.0
 42
0.0
 43
0.0
 44
0.0
 45
0.0
 46
0.0
 47
0.0
 48
0.0
 49
0.0
140
0.0
141
0.0
142
1.0
143
1.0
 70
   688
 72
     0
 73
     0
 74
     5
  7

 75
    16
147
1.0
148
0.0
149
0.0
100
AcDbLayout
  1
Layout2
 70
     1
 71
     2
 10
0.0
 20
0.0
 11
0.0
 21
0.0
 12
0.0
 22
0.0
 32
0.0
 14
0.0
 24
0.0
 34
0.0
 15
0.0
 25
0.0
 35
0.0
146
0.0
 13
0.0
 23
0.0
 33
0.0
 16
1.0
 26
0.0
 36
0.0
 17
0.0
 27
1.0
 37
0.0
 76
     0
330
23
  0
LAYOUT
  5
22
102
{ACAD_REACTORS
330
1A
102
}
330
1A
100
AcDbPlotSettings
  1

  2
none_device
  4

  6

 40
0.0
 41
0.0
 42
0.0
 43
0.0
 44
0.0
 45
0.0
 46
0.0
 47
0.0
 48
0.0
 49
0.0
140
0.0
141
0.0
142
1.0
143
1.0
 70
  1712
 72
     0
 73
     0
 74
     0
  7

 75
     0
147
1.0
148
0.0
149
0.0
100
AcDbLayout
  1
Model
 70
     1
 71
     0
 10
0.0
 20
0.0
 11
297.0
 21
210.0
 12
0.0
 22
0.0
 32
0.0
 14
0.0
 24
0.0
 34
0.0
 15
297.0
 25
210.0
 35
0.0
146
0.0
 13
0.0
 23
0.0
 33
0.0
 16
1.0
 26
0.0
 36
0.0
 17
0.0
 27
1.0
 37
0.0
 76
     0
330
1F
331
29
  0
MLINESTYLE
  5
18
102
{ACAD_REACTORS
330
17
102
}
330
17
100
AcDbMlineStyle
  2
Standard
 70
     0
  3

 62
   256
 51
90.0
 52
90.0
 71
     2
 49
0.5
 62
   256
  6
BYLAYER
 49
-0.5
 62
   256
  6
BYLAYER
  0
ACDBPLACEHOLDER
  5
F
102
{ACAD_REACTORS
330
E
102
}
330
E
  0
VISUALSTYLE
  5
2F
102
{ACAD_REACTORS
330
2A
102
}
330
2A
100
AcDbVisualStyle
  2
2dWireframe
 70
     4
 71
     0
 72
     2
 73
     0
 90
        0
 40
-0.6
 41
-30.0
 62
     5
 63
     7
 74
     1
 91
        4
 64
     7
 65
   257
 75
     1
175
     1
 42
1.0
 92
        0
 66
   257
 43
1.0
 76
     1
 77
     6
 78
     2
 67
     7
 79
     5
170
     0
171
     0
290
     0
174
     0
 93
        1
 44
0.0
173
     0
291
     0
 45
0.0
1001
ACAD
1000
AcDbSavedByObjectVersion
1070
     0
  0
VISUALSTYLE
  5
31
102
{ACAD_REACTORS
330
2A
102
}
330
2A
100
AcDbVisualStyle
  2
3D Hidden
 70
     6
 71
     1
 72
     2
 73
     2
 90
        0
 40
-0.6
 41
-30.0
 62
     5
 63
     7
 74
     2
 91
        2
 64
     7
 65
   257
 75
     2
175
     1
 42
40.0
 92
        0
 66
   257
 43
1.0
 76
     1
 77
     6
 78
     2
 67
     7
 79
     3
170
     0
171
     0
290
     0
174
     0
 93
        1
 44
0.0
173
     0
291
     0
 45
0.0
1001
ACAD
1000
AcDbSavedByObjectVersion
1070
     0
  0
VISUALSTYLE
  5
30
102
{ACAD_REACTORS
330
2A
102
}
330
2A
100
AcDbVisualStyle
  2
3dWireframe
 70
     5
 71
     0
 72
     2
 73
     0
 90
        0
 40
-0.6
 41
-30.0
 62
     5
 63
     7
 74
     1
 91
        4
 64
     7
 65
   257
 75
     1
175
     1
 42
1.0
 92
        0
 66
   257
 43
1.0
 76
     1
 77
     6
 78
     2
 67
     7
 79
     5
170
     0
171
     0
290
     0
174
     0
 93
        1
 44
0.0
173
     0
291
     0
 45
0.0
1001
ACAD
1000
AcDbSavedByObjectVersion
1070
     0
  0
VISUALSTYLE
  5
32
102
{ACAD_REACTORS
330
2A
102
}
330
2A
100
AcDbVisualStyle
  2
Basic
 70
     7
 71
     1
 72
     0
 73
     1
 90
        0
 40
-0.6
 41
-30.0
 62
     5
 63
     7
 74
     0
 91
        4
 64
     7
 65
   257
 75
     1
175
     1
 42
1.0
 92
        8
 66
     7
 43
1.0
 76
     1
 77
     6
 78
     2
 67
     7
 79
     5
170
     0
171
     0
290
     0
174
     0
 93
        1
 44
0.0
173
     0
291
     1
 45
0.0
1001
ACAD
1000
AcDbSavedByObjectVersion
1070
     0
  0
VISUALSTYLE
  5
36
102
{ACAD_REACTORS
330
2A
102
}
330
2A
100
AcDbVisualStyle
  2
Brighten
 70
    12
 71
     2
 72
     2
 73
     0
 90
        0
 40
-0.6
 41
-30.0
 62
     5
 63
     7
 74
     1
 91
        4
 64
     7
 65
   257
 75
     1
175
     1
 42
1.0
 92
        8
 66
     7
 43
1.0
 76
     1
 77
     6
 78
     2
 67
     7
 79
     5
170
     0
171
     0
290
     0
174
     0
 93
        1
 44
50.0
173
     0
291
     1
 45
0.0
1001
ACAD
1000
AcDbSavedByObjectVersion
1070
     0
  0
VISUALSTYLE
  5
3A
102
{ACAD_REACTORS
330
2A
102
}
330
2A
100
AcDbVisualStyle
  2
ColorChange
 70
    16
 71
     2
 72
     2
 73
     3
 90
        0
 40
-0.6
 41
-30.0
 62
     5
 63
     8
 74
     1
 91
        4
 64
     7
 65
   257
 75
     1
175
     1
 42
1.0
 92
        8
 66
     8
 43
1.0
 76
     1
 77
     6
 78
     2
 67
     7
 79
     5
170
     0
171
     0
290
     0
174
     0
 93
        1
 44
0.0
173
     0
291
     1
 45
0.0
1001
ACAD
1000
AcDbSavedByObjectVersion
1070
     0
  0
VISUALSTYLE
  5
34
102
{ACAD_REACTORS
330
2A
102
}
330
2A
100
AcDbVisualStyle
  2
Conceptual
 70
     9
 71
     3
 72
     2
 73
     0
 90
        0
 40
-0.6
 41
-30.0
 62
     5
 63
     7
 74
     2
 91
        2
 64
     7
 65
   257
 75
     1
175
     1
 42
40.0
 92
        8
 66
     7
 43
1.0
 76
     1
 77
     6
 78
     2
 67
     7
 79
     3
170
     0
171
     0
290
     0
174
     0
 93
        1
 44
0.0
173
     0
291
     0
 45
0.0
1001
ACAD
1000
AcDbSavedByObjectVersion
1070
     0
  0
VISUALSTYLE
  5
35
102
{ACAD_REACTORS
330
2A
102
}
330
2A
100
AcDbVisualStyle
  2
Dim
 70
    11
 71
     2
 72
     2
 73
     0
 90
        0
 40
-0.6
 41
-30.0
 62
     5
 63
     7
 74
     1
 91
        4
 64
     7
 65
   257
 75
     1
175
     1
 42
1.0
 92
        8
 66
     7
 43
1.0
 76
     1
 77
     6
 78
     2
 67
     7
 79
     5
170
     0
171
     0
290
     0
174
     0
 93
        1
 44
-50.0
173
     0
291
     1
 45
0.0
1001
ACAD
1000
AcDbSavedByObjectVersion
1070
     0
  0
VISUALSTYLE
  5
39
102
{ACAD_REACTORS
330
2A
102
}
330
2A
100
AcDbVisualStyle
  2
Facepattern
 70
    15
 71
     2
 72
     2
 73
     0
 90
        0
 40
-0.6
 41
-30.0
 62
     5
 63
     7
 74
     1
 91
        4
 64
     7
 65
   257
 75
     1
175
     1
 42
1.0
 92
        8
 66
     7
 43
1.0
 76
     1
 77
     6
 78
     2
 67
     7
 79
     5
170
     0
171
     0
290
     0
174
     0
 93
        1
 44
0.0
173
     0
291
     1
 45
0.0
1001
ACAD
1000
AcDbSavedByObjectVersion
1070
     0
  0
VISUALSTYLE
  5
2B
102
{ACAD_REACTORS
330
2A
102
}
330
2A
100
AcDbVisualStyle
  2
Flat
 70
     0
 71
     2
 72
     1
 73
     1
 90
        2
 40
-0.6
 41
30.0
 62
     5
 63
     7
 74
     0
 91
        4
 64
     7
 65
   257
 75
     1
175
     1
 42
1.0
 92
        8
 66
     7
 43
1.0
 76
     1
 77
     6
 78
     2
 67
     7
 79
     5
170
     0
171
     0
290
     0
174
     0
 93
       13
 44
0.0
173
     0
291
     1
 45
0.0
1001
ACAD
1000
AcDbSavedByObjectVersion
1070
     0
  0
VISUALSTYLE
  5
2C
102
{ACAD_REACTORS
330
2A
102
}
330
2A
100
AcDbVisualStyle
  2
FlatWithEdges
 70
     1
 71
     2
 72
     1
 73
     1
 90
        2
 40
-0.6
 41
30.0
 62
     5
 63
     7
 74
     1
 91
        4
 64
     7
 65
   257
 75
     1
175
     1
 42
1.0
 92
        0
 66
   257
 43
1.0
 76
     1
 77
     6
 78
     2
 67
     7
 79
     5
170
     0
171
     0
290
     0
174
     0
 93
       13
 44
0.0
173
     0
291
     1
 45
0.0
1001
ACAD
1000
AcDbSavedByObjectVersion
1070
     0
  0
VISUALSTYLE
  5
2D
102
{ACAD_REACTORS
330
2A
102
}
330
2A
100
AcDbVisualStyle
  2
Gouraud
 70
     2
 71
     2
 72
     2
 73
     1
 90
        2
 40
-0.6
 41
30.0
 62
     5
 63
     7
 74
     0
 91
        4
 64
     7
 65
   257
 75
     1
175
     1
 42
1.0
 92
        0
 66
     7
 43
1.0
 76
     1
 77
     6
 78
     2
 67
     7
 79
     5
170
     0
171
     0
290
     0
174
     0
 93
       13
 44
0.0
173
     0
291
     1
 45
0.0
1001
ACAD
1000
AcDbSavedByObjectVersion
1070
     0
  0
VISUALSTYLE
  5
2E
102
{ACAD_REACTORS
330
2A
102
}
330
2A
100
AcDbVisualStyle
  2
GouraudWithEdges
 70
     3
 71
     2
 72
     2
 73
     1
 90
        2
 40
-0.6
 41
30.0
 62
     5
 63
     7
 74
     1
 91
        4
 64
     7
 65
   257
 75
     1
175
     1
 42
1.0
 92
        0
 66
   257
 43
1.0
 76
     1
 77
     6
 78
     2
 67
     7
 79
     5
170
     0
171
     0
290
     0
174
     0
 93
       13
 44
0.0
173
     0
291
     1
 45
0.0
1001
ACAD
1000
AcDbSavedByObjectVersion
1070
     0
  0
VISUALSTYLE
  5
38
102
{ACAD_REACTORS
330
2A
102
}
330
2A
100
AcDbVisualStyle
  2
Linepattern
 70
    14
 71
     2
 72
     2
 73
     0
 90
        0
 40
-0.6
 41
-30.0
 62
     5
 63
     7
 74
     1
 91
        4
 64
     7
 65
   257
 75
     7
175
     7
 42
1.0
 92
        8
 66
     7
 43
1.0
 76
     1
 77
     6
 78
     2
 67
     7
 79
     5
170
     0
171
     0
290
     0
174
     0
 93
        1
 44
0.0
173
     0
291
     1
 45
0.0
1001
ACAD
1000
AcDbSavedByObjectVersion
1070
     0
  0
VISUALSTYLE
  5
33
102
{ACAD_REACTORS
330
2A
102
}
330
2A
100
AcDbVisualStyle
  2
Realistic
 70
     8
 71
     2
 72
     2
 73
     0
 90
        0
 40
-0.6
 41
-30.0
 62
     5
 63
     7
 74
     1
 91
        0
 64
     7
 65
   257
 75
     1
175
     1
 42
1.0
 92
        8
 66
     8
 43
1.0
 76
     1
 77
     6
 78
     2
 67
     7
 79
     5
170
     0
171
     0
290
     0
174
     0
 93
       13
 44
0.0
173
     0
291
     0
 45
0.0
1001
ACAD
1000
AcDbSavedByObjectVersion
1070
     0
  0
VISUALSTYLE
  5
37
102
{ACAD_REACTORS
330
2A
102
}
330
2A
100
AcDbVisualStyle
  2
Thicken
 70
    13
 71
     2
 72
     2
 73
     0
 90
        0
 40
-0.6
 41
-30.0
 62
     5
 63
     7
 74
     1
 91
        4
 64
     7
 65
   257
 75
     1
175
     1
 42
1.0
 92
       12
 66
     7
 43
1.0
 76
     1
 77
     6
 78
     2
 67
     7
 79
     5
170
     0
171
     0
290
     0
174
     0
 93
        1
 44
0.0
173
     0
291
     1
 45
0.0
1001
ACAD
1000
AcDbSavedByObjectVersion
1070
     0
  0
DICTIONARYVAR
  5
2C3
102
{ACAD_REACTORS
330
2C1
102
}
330
2C1
100
DictionaryVariables
280
     0
  1
80.000000
  0
DICTIONARYVAR
  5
2C2
102
{ACAD_REACTORS
330
2C1
102
}
330
2C1
100
DictionaryVariables
280
     0
  1
5.000000
  0
ENDSEC
  0
EOF
