  0
SECTION
  2
HEADER
  9
$ACADVER
  1
AC1015
  9
$ACADMAINTVER
 70
     6
  9
$DWGCODEPAGE
  3
ANSI_1252
  9
$INSBASE
 10
0.0
 20
0.0
 30
0.0
  9
$EXTMIN
 10
0.0
 20
0.0
 30
0.0
  9
$EXTMAX
 10
297.0
 20
210.0
 30
0.0
  9
$LIMMIN
 10
0.0
 20
0.0
  9
$LIMMAX
 10
297.0
 20
210.0
  9
$ORTHOMODE
 70
     0
  9
$REGENMODE
 70
     1
  9
$FILLMODE
 70
     1
  9
$QTEXTMODE
 70
     0
  9
$MIRRTEXT
 70
     1
  9
$LTSCALE
 40
1.0
  9
$ATTMODE
 70
     1
  9
$TEXTSIZE
 40
2.0
  9
$TRACEWID
 40
1.0
  9
$TEXTSTYLE
  7
Standard
  9
$CLAYER
  8
0
  9
$CELTYPE
  6
ByLayer
  9
$CECOLOR
 62
   256
  9
$CELTSCALE
 40
1.0
  9
$DISPSILH
 70
     0
  9
$DIMSCALE
 40
1.0
  9
$DIMASZ
 40
3.0
  9
$DIMEXO
 40
0.0
  9
$DIMDLI
 40
3.75
  9
$DIMRND
 40
0.0
  9
$DIMDLE
 40
0.0
  9
$DIMEXE
 40
1.0
  9
$DIMTP
 40
0.0
  9
$DIMTM
 40
0.0
  9
$DIMTXT
 40
2.0
  9
$DIMCEN
 40
2.5
  9
$DIMTSZ
 40
0.0
  9
$DIMTOL
 70
     0
  9
$DIMLIM
 70
     0
  9
$DIMTIH
 70
     1
  9
$DIMTOH
 70
     1
  9
$DIMSE1
 70
     0
  9
$DIMSE2
 70
     0
  9
$DIMTAD
 70
     1
  9
$DIMZIN
 70
     0
  9
$DIMBLK
  1

  9
$DIMASO
 70
     1
  9
$DIMSHO
 70
     1
  9
$DIMPOST
  1

  9
$DIMAPOST
  1

  9
$DIMALT
 70
     0
  9
$DIMALTD
 70
     3
  9
$DIMALTF
 40
0.0393700787
  9
$DIMLFAC
 40
1.0
  9
$DIMTOFL
 70
     1
  9
$DIMTVP
 40
0.0
  9
$DIMTIX
 70
     0
  9
$DIMSOXD
 70
     0
  9
$DIMSAH
 70
     0
  9
$DIMBLK1
  1

  9
$DIMBLK2
  1

  9
$DIMSTYLE
  2
ISO-25
  9
$DIMCLRD
 70
     0
  9
$DIMCLRE
 70
     0
  9
$DIMCLRT
 70
     0
  9
$DIMTFAC
 40
1.0
  9
$DIMGAP
 40
1.524
  9
$DIMJUST
 70
     0
  9
$DIMSD1
 70
     0
  9
$DIMSD2
 70
     0
  9
$DIMTOLJ
 70
     0
  9
$DIMTZIN
 70
     0
  9
$DIMALTZ
 70
     0
  9
$DIMALTTZ
 70
     0
  9
$DIMUPT
 70
     0
  9
$DIMDEC
 70
     2
  9
$DIMTDEC
 70
     3
  9
$DIMALTU
 70
     2
  9
$DIMALTTD
 70
     3
  9
$DIMTXSTY
  7
Standard
  9
$DIMAUNIT
 70
     0
  9
$DIMADEC
 70
     2
  9
$DIMALTRND
 40
0.0
  9
$DIMAZIN
 70
     0
  9
$DIMDSEP
 70
    44
  9
$DIMATFIT
 70
     3
  9
$DIMFRAC
 70
     0
  9
$DIMLDRBLK
  1

  9
$DIMLUNIT
 70
     2
  9
$DIMLWD
 70
    -2
  9
$DIMLWE
 70
    -2
  9
$DIMTMOVE
 70
     0
  9
$LUNITS
 70
     2
  9
$LUPREC
 70
     2
  9
$SKETCHINC
 40
1.0
  9
$FILLETRAD
 40
10.0
  9
$AUNITS
 70
     0
  9
$AUPREC
 70
     2
  9
$MENU
  1
.
  9
$ELEVATION
 40
0.0
  9
$PELEVATION
 40
0.0
  9
$THICKNESS
 40
0.0
  9
$LIMCHECK
 70
     0
  9
$CHAMFERA
 40
10.0
  9
$CHAMFERB
 40
10.0
  9
$CHAMFERC
 40
20.0
  9
$CHAMFERD
 40
0.0
  9
$SKPOLY
 70
     0
  9
$TDCREATE
 40
2456835.299219306
  9
$TDUCREATE
 40
2456835.215885972
  9
$TDUPDATE
 40
2456835.299220856
  9
$TDUUPDATE
 40
2456835.215887523
  9
$TDINDWG
 40
0.0000000116
  9
$TDUSRTIMER
 40
0.0000000116
  9
$USRTIMER
 70
     1
  9
$ANGBASE
 50
0.0
  9
$ANGDIR
 70
     0
  9
$PDMODE
 70
     0
  9
$PDSIZE
 40
-1.0
  9
$PLINEWID
 40
0.0
  9
$SPLFRAME
 70
     0
  9
$SPLINETYPE
 70
     6
  9
$SPLINESEGS
 70
     8
  9
$HANDSEED
  5
24C
  9
$SURFTAB1
 70
     6
  9
$SURFTAB2
 70
     6
  9
$SURFTYPE
 70
     6
  9
$SURFU
 70
     6
  9
$SURFV
 70
     6
  9
$UCSBASE
  2

  9
$UCSNAME
  2

  9
$UCSORG
 10
0.0
 20
0.0
 30
0.0
  9
$UCSXDIR
 10
1.0
 20
0.0
 30
0.0
  9
$UCSYDIR
 10
0.0
 20
1.0
 30
0.0
  9
$UCSORTHOREF
  2

  9
$UCSORTHOVIEW
 70
     0
  9
$UCSORGTOP
 10
0.0
 20
0.0
 30
0.0
  9
$UCSORGBOTTOM
 10
0.0
 20
0.0
 30
0.0
  9
$UCSORGLEFT
 10
0.0
 20
0.0
 30
0.0
  9
$UCSORGRIGHT
 10
0.0
 20
0.0
 30
0.0
  9
$UCSORGFRONT
 10
0.0
 20
0.0
 30
0.0
  9
$UCSORGBACK
 10
0.0
 20
0.0
 30
0.0
  9
$PUCSBASE
  2

  9
$PUCSNAME
  2

  9
$PUCSORG
 10
0.0
 20
0.0
 30
0.0
  9
$PUCSXDIR
 10
1.0
 20
0.0
 30
0.0
  9
$PUCSYDIR
 10
0.0
 20
1.0
 30
0.0
  9
$PUCSORTHOREF
  2

  9
$PUCSORTHOVIEW
 70
     0
  9
$PUCSORGTOP
 10
0.0
 20
0.0
 30
0.0
  9
$PUCSORGBOTTOM
 10
0.0
 20
0.0
 30
0.0
  9
$PUCSORGLEFT
 10
0.0
 20
0.0
 30
0.0
  9
$PUCSORGRIGHT
 10
0.0
 20
0.0
 30
0.0
  9
$PUCSORGFRONT
 10
0.0
 20
0.0
 30
0.0
  9
$PUCSORGBACK
 10
0.0
 20
0.0
 30
0.0
  9
$USERI1
 70
     0
  9
$USERI2
 70
     0
  9
$USERI3
 70
     0
  9
$USERI4
 70
     0
  9
$USERI5
 70
     0
  9
$USERR1
 40
0.0
  9
$USERR2
 40
0.0
  9
$USERR3
 40
0.0
  9
$USERR4
 40
0.0
  9
$USERR5
 40
0.0
  9
$WORLDVIEW
 70
     1
  9
$SHADEDGE
 70
     3
  9
$SHADEDIF
 70
    70
  9
$TILEMODE
 70
     1
  9
$MAXACTVP
 70
    64
  9
$PINSBASE
 10
0.0
 20
0.0
 30
0.0
  9
$PLIMCHECK
 70
     0
  9
$PEXTMIN
 10
1.0000000000E+20
 20
1.0000000000E+20
 30
1.0000000000E+20
  9
$PEXTMAX
 10
-1.0000000000E+20
 20
-1.0000000000E+20
 30
-1.0000000000E+20
  9
$PLIMMIN
 10
0.0
 20
0.0
  9
$PLIMMAX
 10
420.0
 20
297.0
  9
$UNITMODE
 70
     0
  9
$VISRETAIN
 70
     1
  9
$PLINEGEN
 70
     0
  9
$PSLTSCALE
 70
     1
  9
$TREEDEPTH
 70
  3020
  9
$CMLSTYLE
  2
Standard
  9
$CMLJUST
 70
     0
  9
$CMLSCALE
 40
20.0
  9
$PROXYGRAPHICS
 70
     1
  9
$MEASUREMENT
 70
     1
  9
$CELWEIGHT
370
    -1
  9
$ENDCAPS
280
     0
  9
$JOINSTYLE
280
     0
  9
$LWDISPLAY
290
     1
  9
$INSUNITS
 70
     4
  9
$HYPERLINKBASE
  1

  9
$STYLESHEET
  1

  9
$XEDIT
290
     1
  9
$CEPSNTYPE
380
     0
  9
$PSTYLEMODE
290
     1
  9
$FINGERPRINTGUID
  2
{F0B4652E-8425-4B7A-9031-8C565A049353}
  9
$VERSIONGUID
  2
{FAEB1C32-E019-11D5-929B-00C0DF256EC4}
  9
$EXTNAMES
290
     1
  9
$PSVPSCALE
 40
0.0
  9
$OLESTARTUP
290
     0
  0
ENDSEC
  0
SECTION
  2
CLASSES
  0
CLASS
  1
ACDBDICTIONARYWDFLT
  2
AcDbDictionaryWithDefault
  3
ObjectDBX Classes
 90
        0
280
     0
281
     0
  0
CLASS
  1
VISUALSTYLE
  2
AcDbVisualStyle
  3
ObjectDBX Classes
 90
     4095
280
     0
281
     0
  0
CLASS
  1
MATERIAL
  2
AcDbMaterial
  3
ObjectDBX Classes
 90
     1153
280
     0
281
     0
  0
CLASS
  1
ACDBPLACEHOLDER
  2
AcDbPlaceHolder
  3
ObjectDBX Classes
 90
        0
280
     0
281
     0
  0
CLASS
  1
LAYOUT
  2
AcDbLayout
  3
ObjectDBX Classes
 90
        0
280
     0
281
     0
  0
ENDSEC
  0
SECTION
  2
TABLES
  0
TABLE
  2
VPORT
  5
8
330
0
100
AcDbSymbolTable
 70
     1
  0
VPORT
  5
29
330
8
100
AcDbSymbolTableRecord
100
AcDbViewportTableRecord
  2
*Active
 70
     0
 10
0.0
 20
0.0
 11
1.0
 21
1.0
 12
148.5
 22
105.0
 13
0.0
 23
0.0
 14
10.0
 24
10.0
 15
10.0
 25
10.0
 16
0.0
 26
0.0
 36
1.0
 17
0.0
 27
0.0
 37
0.0
 40
210.0
 41
1.4142857143
 42
50.0
 43
0.0
 44
0.0
 50
0.0
 51
0.0
 71
     0
 72
  2000
 73
     1
 74
     3
 75
     0
 76
     0
 77
     0
 78
     0
281
     0
 65
     1
110
0.0
120
0.0
130
0.0
111
1.0
121
0.0
131
0.0
112
0.0
122
1.0
132
0.0
 79
     0
146
0.0
  0
ENDTAB
  0
TABLE
  2
LTYPE
  5
5
330
0
100
AcDbSymbolTable
 70
     6
  0
LTYPE
  5
14
330
5
100
AcDbSymbolTableRecord
100
AcDbLinetypeTableRecord
  2
ByBlock
 70
     0
  3

 72
    65
 73
     0
 40
0.0
  0
LTYPE
  5
15
330
5
100
AcDbSymbolTableRecord
100
AcDbLinetypeTableRecord
  2
ByLayer
 70
     0
  3

 72
    65
 73
     0
 40
0.0
  0
LTYPE
  5
16
330
5
100
AcDbSymbolTableRecord
100
AcDbLinetypeTableRecord
  2
Continuous
 70
     0
  3
Solid line
 72
    65
 73
     0
 40
0.0
  0
LTYPE
  5
3F
330
5
100
AcDbSymbolTableRecord
100
AcDbLinetypeTableRecord
  2
HIDDEN
 70
     0
  3
Hidden __ __ __ __ __ __ __ __ __ __ __ __ __ __
 72
    65
 73
     2
 40
1.905
 49
1.27
 74
     0
 49
-0.635
 74
     0
  0
LTYPE
  5
40
330
5
100
AcDbSymbolTableRecord
100
AcDbLinetypeTableRecord
  2
PHANTOM
 70
     0
  3
Phantom ______  __  __  ______  __  __  ______
 72
    65
 73
     6
 40
12.7
 49
6.35
 74
     0
 49
-1.27
 74
     0
 49
1.27
 74
     0
 49
-1.27
 74
     0
 49
1.27
 74
     0
 49
-1.27
 74
     0
  0
LTYPE
  5
41
330
5
100
AcDbSymbolTableRecord
100
AcDbLinetypeTableRecord
  2
CENTER
 70
     0
  3
Center ____ _ ____ _ ____ _ ____ _ ____ _ ____
 72
    65
 73
     4
 40
10.16
 49
6.35
 74
     0
 49
-1.27
 74
     0
 49
1.27
 74
     0
 49
-1.27
 74
     0
  0
LTYPE
  5
42
330
5
100
AcDbSymbolTableRecord
100
AcDbLinetypeTableRecord
  2
CENTERX2
 70
     0
  3
Center (2x) ________  __  ________  __  _____
 72
    65
 73
     4
 40
20.32
 49
12.7
 74
     0
 49
-2.54
 74
     0
 49
2.54
 74
     0
 49
-2.54
 74
     0
  0
LTYPE
  5
43
330
5
100
AcDbSymbolTableRecord
100
AcDbLinetypeTableRecord
  2
DOT2
 70
     0
  3
Dot (.5x) ........................................
 72
    65
 73
     2
 40
0.635
 49
0.0
 74
     0
 49
-0.635
 74
     0
  0
ENDTAB
  0
TABLE
  2
LAYER
  5
2
330
0
100
AcDbSymbolTable
 70
     5
  0
LAYER
  5
10
330
2
100
AcDbSymbolTableRecord
100
AcDbLayerTableRecord
  2
0
 70
     0
 62
     7
  6
Continuous
370
    -3
390
F
  0
LAYER
  5
44
330
2
100
AcDbSymbolTableRecord
100
AcDbLayerTableRecord
  2
FORMAT
 70
     0
 62
     7
  6
Continuous
370
    -3
390
F
  0
LAYER
  5
45
330
2
100
AcDbSymbolTableRecord
100
AcDbLayerTableRecord
  2
VERMASSUNG
 70
     0
 62
     7
  6
Continuous
370
    -3
390
F
  0
LAYER
  5
46
330
2
100
AcDbSymbolTableRecord
100
AcDbLayerTableRecord
  2
KOPF_DÜNN
 70
     0
 62
     7
  6
Continuous
370
    -3
390
F
  0
LAYER
  5
47
330
2
100
AcDbSymbolTableRecord
100
AcDbLayerTableRecord
  2
KOPF_DICK
 70
     0
 62
     7
  6
Continuous
370
    15
390
F
  0
ENDTAB
  0
TABLE
  2
STYLE
  5
3
330
0
100
AcDbSymbolTable
 70
     2
  0
STYLE
  5
11
330
3
100
AcDbSymbolTableRecord
100
AcDbTextStyleTableRecord
  2
Standard
 70
     0
 40
0.0
 41
1.0
 50
0.0
 71
     0
 42
2.0
  3
txt
  4

  0
STYLE
  5
48
330
3
100
AcDbSymbolTableRecord
100
AcDbTextStyleTableRecord
  2
SLDTEXTSTYLE0
 70
     0
 40
0.0
 41
0.7
 50
0.0
 71
     0
 42
0.2
  3
TXT
  4

  0
ENDTAB
  0
TABLE
  2
VIEW
  5
6
330
0
100
AcDbSymbolTable
 70
     0
  0
ENDTAB
  0
TABLE
  2
UCS
  5
7
330
0
100
AcDbSymbolTable
 70
     0
  0
ENDTAB
  0
TABLE
  2
APPID
  5
9
330
0
100
AcDbSymbolTable
 70
     1
  0
APPID
  5
12
330
9
100
AcDbSymbolTableRecord
100
AcDbRegAppTableRecord
  2
ACAD
 70
     0
  0
ENDTAB
  0
TABLE
  2
DIMSTYLE
  5
A
330
0
100
AcDbSymbolTable
 70
     4
100
AcDbDimStyleTable
  0
DIMSTYLE
105
27
330
A
100
AcDbSymbolTableRecord
100
AcDbDimStyleTableRecord
  2
ISO-25
 70
     0
 41
2.5
 42
0.625
 43
3.75
 44
1.25
 73
     0
 74
     0
 77
     1
 78
     8
140
2.5
141
2.5
143
0.0393700787
147
0.625
171
     3
172
     1
178
     0
271
     2
272
     2
274
     3
278
    44
283
     0
284
     8
340
11
  0
DIMSTYLE
105
19C
102
{ACAD_REACTORS
330
19B
330
1A8
102
}
330
A
100
AcDbSymbolTableRecord
100
AcDbDimStyleTableRecord
  2
SLDDIMSTYLE0
 70
     0
 41
3.0
 44
0.0
 45
0.000000001
 47
0.1
 48
0.1
 71
     1
 73
     0
 74
     0
 77
     1
 78
    12
 79
     3
140
2.0
147
0.5
173
     1
178
     0
271
     2
272
     1
276
     2
284
     8
340
48
  0
DIMSTYLE
105
1B5
102
{ACAD_REACTORS
330
1B4
330
1BF
102
}
330
A
100
AcDbSymbolTableRecord
100
AcDbDimStyleTableRecord
  2
SLDDIMSTYLE1
 70
     0
 41
3.0
 44
0.0
 45
0.000000001
 73
     0
 74
     0
 77
     1
 78
    12
 79
     3
140
2.0
147
0.5
173
     1
178
     0
271
     2
272
     3
276
     2
284
    12
340
48
  0
DIMSTYLE
105
237
102
{ACAD_REACTORS
330
236
102
}
330
A
100
AcDbSymbolTableRecord
100
AcDbDimStyleTableRecord
  2
SLDDIMSTYLE2
 70
     0
 41
3.0
 44
0.0
 45
0.000000001
 73
     0
 74
     0
 77
     1
 78
    12
 79
     3
140
2.0
141
0.0
147
0.5
173
     1
178
     0
271
     2
272
     3
276
     2
284
    12
340
48
  0
ENDTAB
  0
TABLE
  2
BLOCK_RECORD
  5
1
330
0
100
AcDbSymbolTable
 70
     7
  0
BLOCK_RECORD
  5
1F
330
1
100
AcDbSymbolTableRecord
100
AcDbBlockTableRecord
  2
*Model_Space
340
22
  0
BLOCK_RECORD
  5
1B
330
1
100
AcDbSymbolTableRecord
100
AcDbBlockTableRecord
  2
*Paper_Space
340
1E
  0
BLOCK_RECORD
  5
23
330
1
100
AcDbSymbolTableRecord
100
AcDbBlockTableRecord
  2
*Paper_Space0
340
26
  0
BLOCK_RECORD
  5
19D
330
1
100
AcDbSymbolTableRecord
100
AcDbBlockTableRecord
  2
_D
340
0
  0
BLOCK_RECORD
  5
1A9
330
1
100
AcDbSymbolTableRecord
100
AcDbBlockTableRecord
  2
_D_1
340
0
  0
BLOCK_RECORD
  5
1B6
330
1
100
AcDbSymbolTableRecord
100
AcDbBlockTableRecord
  2
_D_2
340
0
  0
BLOCK_RECORD
  5
1C0
330
1
100
AcDbSymbolTableRecord
100
AcDbBlockTableRecord
  2
_D_3
340
0
  0
BLOCK_RECORD
  5
238
330
1
100
AcDbSymbolTableRecord
100
AcDbBlockTableRecord
  2
_D_4
340
0
  0
BLOCK_RECORD
  5
23F
330
1
100
AcDbSymbolTableRecord
100
AcDbBlockTableRecord
  2
SW_CENTERMARKSYMBOL_0
340
0
102
{BLKREFS
331
24A
102
}
  0
ENDTAB
  0
ENDSEC
  0
SECTION
  2
BLOCKS
  0
BLOCK
  5
20
330
1F
100
AcDbEntity
  8
0
100
AcDbBlockBegin
  2
*Model_Space
 70
     0
 10
0.0
 20
0.0
 30
0.0
  3
*Model_Space
  1

  0
ENDBLK
  5
21
330
1F
100
AcDbEntity
  8
0
100
AcDbBlockEnd
  0
BLOCK
  5
1C
330
1B
100
AcDbEntity
 67
     1
  8
0
100
AcDbBlockBegin
  2
*Paper_Space
 70
     0
 10
0.0
 20
0.0
 30
0.0
  3
*Paper_Space
  1

  0
ENDBLK
  5
1D
330
1B
100
AcDbEntity
 67
     1
  8
0
100
AcDbBlockEnd
  0
BLOCK
  5
24
330
23
100
AcDbEntity
  8
0
100
AcDbBlockBegin
  2
*Paper_Space0
 70
     0
 10
0.0
 20
0.0
 30
0.0
  3
*Paper_Space0
  1

  0
ENDBLK
  5
25
330
23
100
AcDbEntity
  8
0
100
AcDbBlockEnd
  0
BLOCK
  5
19E
330
19D
100
AcDbEntity
  8
0
100
AcDbBlockBegin
  2
_D
 70
     0
 10
0.0
 20
0.0
 30
0.0
  3
_D
  1

  0
SOLID
  5
1A0
330
19D
100
AcDbEntity
  8
VERMASSUNG
100
AcDbTrace
 10
181.2972657544
 20
164.6894458098
 30
0.0
 11
184.2972657544
 21
164.2394458098
 31
0.0
 12
184.2972657544
 22
165.1394458098
 32
0.0
 13
184.2972657544
 23
165.1394458098
 33
0.0
  0
SOLID
  5
1A1
330
19D
100
AcDbEntity
  8
VERMASSUNG
100
AcDbTrace
 10
246.2972657544
 20
164.6894458098
 30
0.0
 11
243.2972657544
 21
165.1394458098
 31
0.0
 12
243.2972657544
 22
164.2394458098
 32
0.0
 13
243.2972657544
 23
164.2394458098
 33
0.0
  0
LINE
  5
1A2
330
19D
100
AcDbEntity
  8
VERMASSUNG
100
AcDbLine
 10
181.2972657544
 20
141.3341550107
 30
0.0
 11
181.2972657544
 21
165.6894458098
 31
0.0
  0
LINE
  5
1A3
330
19D
100
AcDbEntity
  8
VERMASSUNG
100
AcDbLine
 10
246.2972657544
 20
155.3341550107
 30
0.0
 11
246.2972657544
 21
165.6894458098
 31
0.0
  0
LINE
  5
1A4
330
19D
100
AcDbEntity
  8
VERMASSUNG
100
AcDbLine
 10
181.2972657544
 20
164.6894458098
 30
0.0
 11
246.2972657544
 21
164.6894458098
 31
0.0
  0
MTEXT
  5
1A5
330
19D
100
AcDbEntity
  8
VERMASSUNG
100
AcDbMText
 10
209.2472655674
 20
167.2675811729
 30
0.1
 40
2.0
 41
0.0
 71
     1
 72
     1
  1
65
  7
SLDTEXTSTYLE0
 73
     1
 44
1.0
  0
MTEXT
  5
1A6
330
19D
100
AcDbEntity
  8
VERMASSUNG
100
AcDbMText
 10
215.0347656694
 20
167.2675811729
 30
0.1
 40
2.0
 41
0.0
 71
     1
 72
     1
  1

  7
SLDTEXTSTYLE0
 73
     1
 44
1.0
  0
MTEXT
  5
1A7
330
19D
100
AcDbEntity
  8
VERMASSUNG
100
AcDbMText
 10
215.0472659593
 20
166.7730473101
 30
0.1
 40
1.5
 41
0.0
 71
     1
 72
     1
  1
±0.1
  7
SLDTEXTSTYLE0
 73
     1
 44
1.0
  0
ENDBLK
  5
19F
330
19D
100
AcDbEntity
  8
0
100
AcDbBlockEnd
  0
BLOCK
  5
1AA
330
1A9
100
AcDbEntity
  8
0
100
AcDbBlockBegin
  2
_D_1
 70
     0
 10
0.0
 20
0.0
 30
0.0
  3
_D_1
  1

  0
SOLID
  5
1AC
330
1A9
100
AcDbEntity
  8
VERMASSUNG
100
AcDbTrace
 10
254.5275445253
 20
155.3341550107
 30
0.0
 11
254.0775445253
 21
152.3341550107
 31
0.0
 12
254.9775445253
 22
152.3341550107
 32
0.0
 13
254.9775445253
 23
152.3341550107
 33
0.0
  0
SOLID
  5
1AD
330
1A9
100
AcDbEntity
  8
VERMASSUNG
100
AcDbTrace
 10
254.5275445253
 20
110.3341550107
 30
0.0
 11
254.9775445253
 21
113.3341550107
 31
0.0
 12
254.0775445253
 22
113.3341550107
 32
0.0
 13
254.0775445253
 23
113.3341550107
 33
0.0
  0
LINE
  5
1AE
330
1A9
100
AcDbEntity
  8
VERMASSUNG
100
AcDbLine
 10
246.2972657544
 20
155.3341550107
 30
0.0
 11
255.5275445253
 21
155.3341550107
 31
0.0
  0
LINE
  5
1AF
330
1A9
100
AcDbEntity
  8
VERMASSUNG
100
AcDbLine
 10
246.2972657544
 20
110.3341550107
 30
0.0
 11
255.5275445253
 21
110.3341550107
 31
0.0
  0
LINE
  5
1B0
330
1A9
100
AcDbEntity
  8
VERMASSUNG
100
AcDbLine
 10
254.5275445253
 20
155.3341550107
 30
0.0
 11
254.5275445253
 21
110.3341550107
 31
0.0
  0
MTEXT
  5
1B1
330
1A9
100
AcDbEntity
  8
VERMASSUNG
100
AcDbMText
 10
251.9494091622
 20
128.1841549936
 30
0.1
 40
2.0
 41
0.0
 71
     1
 72
     1
  1
45
  7
SLDTEXTSTYLE0
 11
-8.820551857043885E-15
 21
1.0
 31
0.0
 73
     1
 44
1.0
  0
MTEXT
  5
1B2
330
1A9
100
AcDbEntity
  8
VERMASSUNG
100
AcDbMText
 10
251.9494091622
 20
134.1716552215
 30
0.1
 40
2.0
 41
0.0
 71
     1
 72
     1
  1

  7
SLDTEXTSTYLE0
 11
-8.820551857043885E-15
 21
1.0
 31
0.0
 73
     1
 44
1.0
  0
MTEXT
  5
1B3
330
1A9
100
AcDbEntity
  8
VERMASSUNG
100
AcDbMText
 10
252.443943025
 20
134.1841550457
 30
0.1
 40
1.5
 41
0.0
 71
     1
 72
     1
  1
±0.1
  7
SLDTEXTSTYLE0
 11
-8.820551857043885E-15
 21
1.0
 31
0.0
 73
     1
 44
1.0
  0
ENDBLK
  5
1AB
330
1A9
100
AcDbEntity
  8
0
100
AcDbBlockEnd
  0
BLOCK
  5
1B7
330
1B6
100
AcDbEntity
  8
0
100
AcDbBlockBegin
  2
_D_2
 70
     0
 10
0.0
 20
0.0
 30
0.0
  3
_D_2
  1

  0
SOLID
  5
1B9
330
1B6
100
AcDbEntity
  8
VERMASSUNG
100
AcDbTrace
 10
143.2972657544
 20
171.6242697368
 30
0.0
 11
146.2972657544
 21
171.1742697368
 31
0.0
 12
146.2972657544
 22
172.0742697368
 32
0.0
 13
146.2972657544
 23
172.0742697368
 33
0.0
  0
SOLID
  5
1BA
330
1B6
100
AcDbEntity
  8
VERMASSUNG
100
AcDbTrace
 10
246.2972657544
 20
171.6242697368
 30
0.0
 11
243.2972657544
 21
172.0742697368
 31
0.0
 12
243.2972657544
 22
171.1742697368
 32
0.0
 13
243.2972657544
 23
171.1742697368
 33
0.0
  0
LINE
  5
1BB
330
1B6
100
AcDbEntity
  8
VERMASSUNG
100
AcDbLine
 10
143.2972657544
 20
130.6264930032
 30
0.0
 11
143.2972657544
 21
172.6242697368
 31
0.0
  0
LINE
  5
1BC
330
1B6
100
AcDbEntity
  8
VERMASSUNG
100
AcDbLine
 10
246.2972657544
 20
155.3341550107
 30
0.0
 11
246.2972657544
 21
172.6242697368
 31
0.0
  0
LINE
  5
1BD
330
1B6
100
AcDbEntity
  8
VERMASSUNG
100
AcDbLine
 10
143.2972657544
 20
171.6242697368
 30
0.0
 11
246.2972657544
 21
171.6242697368
 31
0.0
  0
MTEXT
  5
1BE
330
1B6
100
AcDbEntity
  8
VERMASSUNG
100
AcDbMText
 10
191.9972656214
 20
174.2024050999
 30
0.1
 40
2.0
 41
0.0
 71
     1
 72
     1
  1
103
  7
SLDTEXTSTYLE0
 73
     1
 44
1.0
  0
ENDBLK
  5
1B8
330
1B6
100
AcDbEntity
  8
0
100
AcDbBlockEnd
  0
BLOCK
  5
1C1
330
1C0
100
AcDbEntity
  8
0
100
AcDbBlockBegin
  2
_D_3
 70
     0
 10
0.0
 20
0.0
 30
0.0
  3
_D_3
  1

  0
SOLID
  5
1C3
330
1C0
100
AcDbEntity
  8
VERMASSUNG
100
AcDbTrace
 10
133.2972657544
 20
141.8341550107
 30
0.0
 11
132.8472657544
 21
138.8341550107
 31
0.0
 12
133.7472657544
 22
138.8341550107
 32
0.0
 13
133.7472657544
 23
138.8341550107
 33
0.0
  0
SOLID
  5
1C4
330
1C0
100
AcDbEntity
  8
VERMASSUNG
100
AcDbTrace
 10
133.2972657544
 20
78.8341550107
 30
0.0
 11
133.7472657544
 21
81.8341550107
 31
0.0
 12
132.8472657544
 22
81.8341550107
 32
0.0
 13
132.8472657544
 23
81.8341550107
 33
0.0
  0
LINE
  5
1C5
330
1C0
100
AcDbEntity
  8
VERMASSUNG
100
AcDbLine
 10
181.7972657544
 20
141.8341550107
 30
0.0
 11
132.2972657544
 21
141.8341550107
 31
0.0
  0
LINE
  5
1C6
330
1C0
100
AcDbEntity
  8
VERMASSUNG
100
AcDbLine
 10
181.7972657544
 20
78.8341550107
 30
0.0
 11
132.2972657544
 21
78.8341550107
 31
0.0
  0
LINE
  5
1C7
330
1C0
100
AcDbEntity
  8
VERMASSUNG
100
AcDbLine
 10
133.2972657544
 20
141.8341550107
 30
0.0
 11
133.2972657544
 21
78.8341550107
 31
0.0
  0
MTEXT
  5
1C8
330
1C0
100
AcDbEntity
  8
VERMASSUNG
100
AcDbMText
 10
130.5191302653
 20
103.9291549015
 30
0.4051525567
 40
2.0
 41
0.0
 71
     1
 72
     1
  1
PSC
  7
SLDTEXTSTYLE0
 11
-7.044195017643634E-15
 21
1.0
 31
0.0
 73
     1
 44
1.0
  0
MTEXT
  5
1C9
330
1C0
100
AcDbEntity
  8
VERMASSUNG
100
AcDbMText
 10
130.7191302748
 20
108.5291550035
 30
0.4051525567
 40
2.0
 41
0.0
 71
     1
 72
     1
  1
%%c
  7
SLDTEXTSTYLE0
 11
-7.044195017643634E-15
 21
1.0
 31
0.0
 73
     1
 44
1.0
  0
MTEXT
  5
1CA
330
1C0
100
AcDbEntity
  8
VERMASSUNG
100
AcDbMText
 10
130.5191302653
 20
112.1391554835
 30
0.4051525567
 40
2.0
 41
0.0
 71
     1
 72
     1
  1
63
  7
SLDTEXTSTYLE0
 11
-7.044195017643634E-15
 21
1.0
 31
0.0
 73
     1
 44
1.0
  0
ENDBLK
  5
1C2
330
1C0
100
AcDbEntity
  8
0
100
AcDbBlockEnd
  0
BLOCK
  5
239
330
238
100
AcDbEntity
  8
0
100
AcDbBlockBegin
  2
_D_4
 70
     0
 10
0.0
 20
0.0
 30
0.0
  3
_D_4
  1

  0
SOLID
  5
23B
330
238
100
AcDbEntity
  8
VERMASSUNG
100
AcDbTrace
 10
86.702245163
 20
152.3724848482
 30
0.0
 11
88.192994597
 21
155.0144852504
 31
0.0
 12
87.3522280002
 22
155.3355950911
 32
0.0
 13
87.3522280002
 23
155.3355950911
 33
0.0
  0
LINE
  5
23C
330
238
100
AcDbEntity
  8
VERMASSUNG
100
AcDbLine
 10
86.702245163
 20
152.3724848482
 30
0.0
 11
90.730298245
 21
162.9191952013
 31
0.0
  0
LINE
  5
23D
330
238
100
AcDbEntity
  8
VERMASSUNG
100
AcDbLine
 10
86.702245163
 20
152.3724848482
 30
0.0
 11
70.6467531284
 21
110.3341550107
 31
0.0
  0
MTEXT
  5
23E
330
238
100
AcDbEntity
  8
VERMASSUNG
100
AcDbMText
 10
86.0395288703
 20
157.8598266639
 30
-15.0239792483
 40
2.0
 41
0.0
 71
     1
 72
     1
  1
R45
  7
SLDTEXTSTYLE0
 11
0.3567887118794994
 21
0.934185107500311
 31
0.0
 73
     1
 44
1.0
  0
ENDBLK
  5
23A
330
238
100
AcDbEntity
  8
0
100
AcDbBlockEnd
  0
BLOCK
  5
240
330
23F
100
AcDbEntity
  8
0
100
AcDbBlockBegin
  2
SW_CENTERMARKSYMBOL_0
 70
     0
 10
0.0
 20
0.0
 30
0.0
  3
SW_CENTERMARKSYMBOL_0
  1

  0
LINE
  5
242
330
23F
100
AcDbEntity
  8
VERMASSUNG
 62
     0
100
AcDbLine
 10
0.0
 20
0.0
 30
0.0
 11
0.0
 21
2.5
 31
0.0
  0
LINE
  5
243
330
23F
100
AcDbEntity
  8
VERMASSUNG
 62
     0
100
AcDbLine
 10
0.0
 20
0.0
 30
0.0
 11
-2.5
 21
0.0
 31
0.0
  0
LINE
  5
244
330
23F
100
AcDbEntity
  8
VERMASSUNG
 62
     0
100
AcDbLine
 10
0.0
 20
0.0
 30
0.0
 11
0.0
 21
-2.5
 31
0.0
  0
LINE
  5
245
330
23F
100
AcDbEntity
  8
VERMASSUNG
 62
     0
100
AcDbLine
 10
0.0
 20
0.0
 30
0.0
 11
2.5
 21
0.0
 31
0.0
  0
LINE
  5
246
330
23F
100
AcDbEntity
  8
VERMASSUNG
 62
     0
100
AcDbLine
 10
0.0
 20
5.0
 30
0.0
 11
0.0
 21
47.732877474
 31
0.0
  0
LINE
  5
247
330
23F
100
AcDbEntity
  8
VERMASSUNG
 62
     0
100
AcDbLine
 10
-5.0
 20
0.0
 30
0.0
 11
-34.0
 21
0.0
 31
0.0
  0
LINE
  5
248
330
23F
100
AcDbEntity
  8
VERMASSUNG
 62
     0
100
AcDbLine
 10
0.0
 20
-5.0
 30
0.0
 11
0.0
 21
-34.0
 31
0.0
  0
LINE
  5
249
330
23F
100
AcDbEntity
  8
VERMASSUNG
 62
     0
100
AcDbLine
 10
5.0
 20
0.0
 30
0.0
 11
34.0
 21
0.0
 31
0.0
  0
ENDBLK
  5
241
330
23F
100
AcDbEntity
  8
0
100
AcDbBlockEnd
  0
ENDSEC
  0
SECTION
  2
ENTITIES
  0
MTEXT
  5
49
330
1F
100
AcDbEntity
  8
KOPF_DÜNN
100
AcDbMText
 10
13.8892156294
 20
23.8442973028
 30
0.0
 40
3.0
 41
0.0
 71
     1
 72
     1
  1
PS6.KGB.RGR.065
  7
SLDTEXTSTYLE0
 73
     1
 44
1.0
  0
MTEXT
  5
4A
330
1F
100
AcDbEntity
  8
VERMASSUNG
100
AcDbMText
 10
13.9329988022
 20
28.8834360957
 30
0.0
 40
3.0
 41
0.0
 71
     1
 72
     1
  1
Klemmhalter / Aussengewinde radial
  7
SLDTEXTSTYLE0
 73
     1
 44
1.0
  0
MTEXT
  5
4B
330
1F
100
AcDbEntity
  8
VERMASSUNG
100
AcDbMText
 10
98.8601118557
 20
13.8365368179
 30
0.0
 40
2.0
 41
0.0
 71
     1
 72
     1
  1
Datum: 21.12.2011
  7
SLDTEXTSTYLE0
 73
     1
 44
1.0
  0
MTEXT
  5
4C
330
1F
100
AcDbEntity
  8
VERMASSUNG
100
AcDbMText
 10
13.933048693
 20
18.0482802738
 30
0.0
 40
2.0
 41
0.0
 71
     1
 72
     1
  1
PSC ø 63 / rechte Ausführung
  7
SLDTEXTSTYLE0
 73
     1
 44
1.0
  0
MTEXT
  5
4D
330
1F
100
AcDbEntity
  8
VERMASSUNG
100
AcDbMText
 10
13.9808475933
 20
13.9090973692
 30
0.0
 40
2.0
 41
0.0
 71
     1
 72
     1
  1
Gewicht: 1289g
  7
SLDTEXTSTYLE0
 73
     1
 44
1.0
  0
LINE
  5
4E
330
1F
100
AcDbEntity
  8
0
  6
Continuous
 62
     7
370
    15
100
AcDbLine
 10
237.3143479389
 20
142.200932699
 30
0.0
 11
237.4889187676
 21
142.2268495436
 31
0.0
  0
LINE
  5
4F
330
1F
100
AcDbEntity
  8
0
  6
Continuous
 62
     7
370
    15
100
AcDbLine
 10
181.7972657781
 20
78.8341545041
 30
0.0
 11
213.2375471455
 21
78.8341545041
 31
0.0
  0
LINE
  5
50
330
1F
100
AcDbEntity
  8
0
  6
Continuous
 62
     7
370
    15
100
AcDbLine
 10
218.5299404127
 20
141.8341555173
 30
0.0
 11
181.7972657781
 21
141.8341555173
 31
0.0
  0
ARC
  5
51
330
1F
100
AcDbEntity
  8
0
  6
Continuous
 62
     7
370
    15
100
AcDbCircle
 10
181.7972657544
 20
79.3341550107
 30
0.0
 40
0.5
100
AcDbArc
 50
180.0
 51
270.0
  0
ARC
  5
52
330
1F
100
AcDbEntity
  8
0
  6
Continuous
 62
     7
370
    15
100
AcDbCircle
 10
181.7972657544
 20
141.3341550107
 30
0.0
 40
0.5
100
AcDbArc
 50
90.0
 51
180.0
  0
LWPOLYLINE
  5
53
330
1F
100
AcDbEntity
  8
0
  6
Continuous
 62
     7
370
    15
100
AcDbPolyline
 90
        3
 70
   128
 43
0.0
 10
181.0972657594
 20
87.7943344886
 10
181.2227206946
 20
87.7260331536
 10
181.2972657544
 20
87.6732942189
  0
LWPOLYLINE
  5
54
330
1F
100
AcDbEntity
  8
0
  6
Continuous
 62
     7
370
    15
100
AcDbPolyline
 90
        3
 70
   128
 43
0.0
 10
181.2972657544
 20
132.9950158025
 10
181.2227206946
 20
132.9422768677
 10
181.0972657594
 20
132.8739755328
  0
ARC
  5
55
330
1F
100
AcDbEntity
  8
0
  6
Continuous
 62
     7
370
    15
100
AcDbCircle
 10
218.5299387664
 20
142.8341550107
 30
0.0
 40
1.0
100
AcDbArc
 50
270.0
 51
345.0
  0
LINE
  5
56
330
1F
100
AcDbEntity
  8
0
  6
Continuous
 62
     7
370
    15
100
AcDbLine
 10
222.7159820658
 20
154.592973041
 30
0.0
 11
219.4958634836
 21
142.5753355498
 31
0.0
  0
ARC
  5
57
330
1F
100
AcDbEntity
  8
0
  6
Continuous
 62
     7
370
    15
100
AcDbCircle
 10
223.6819068402
 20
154.3341550107
 30
0.0
 40
1.00000000000001
100
AcDbArc
 50
156.3800367427
 51
165.0
  0
LINE
  5
58
330
1F
100
AcDbEntity
  8
0
  6
Continuous
 62
     7
370
    15
100
AcDbLine
 10
237.7690158946
 20
153.0900530989
 30
0.0
 11
237.7227105362
 21
153.0831799383
 31
0.0
  0
LINE
  5
59
330
1F
100
AcDbEntity
  8
0
  6
Continuous
 62
     7
370
    15
100
AcDbLine
 10
237.6043059093
 20
151.2399100239
 30
0.0
 11
237.8126837474
 21
151.2708448346
 31
0.0
  0
LINE
  5
5A
330
1F
100
AcDbEntity
  8
0
  6
Continuous
 62
     7
370
    15
100
AcDbLine
 10
238.5793149633
 20
149.4757615502
 30
0.0
 11
238.3709371251
 21
149.4448230142
 31
0.0
  0
ARC
  5
5B
330
1F
100
AcDbEntity
  8
0
  6
Continuous
 62
     7
370
    15
100
AcDbCircle
 10
202.2972657544
 20
123.9841550107
 30
0.0
 40
2.500000000000009
100
AcDbArc
 50
21.3713330904
 51
158.6286669096
  0
LINE
  5
5C
330
1F
100
AcDbEntity
  8
0
  6
Continuous
 62
     7
370
    15
100
AcDbLine
 10
232.2753191156
 20
155.3360753233
 30
0.0
 11
231.2906019551
 21
154.7574408824
 31
0.0
  0
LINE
  5
5D
330
1F
100
AcDbEntity
  8
0
  6
Continuous
 62
     7
370
    15
100
AcDbLine
 10
245.1852791173
 20
155.3360753233
 30
0.0
 11
232.2753191156
 21
155.3360753233
 31
0.0
  0
LINE
  5
5E
330
1F
100
AcDbEntity
  8
0
  6
Continuous
 62
     7
370
    15
100
AcDbLine
 10
245.7088165146
 20
155.0361745531
 30
0.0
 11
245.1852791173
 21
155.3360753233
 31
0.0
  0
LINE
  5
5F
330
1F
100
AcDbEntity
  8
0
  6
Continuous
 62
     7
370
    15
100
AcDbLine
 10
245.7097105843
 20
154.8362382228
 30
0.0
 11
245.7088165146
 21
155.0361745531
 31
0.0
  0
LINE
  5
60
330
1F
100
AcDbEntity
  8
0
  6
Continuous
 62
     7
370
    15
100
AcDbLine
 10
245.1888628465
 20
154.5363411779
 30
0.0
 11
245.7097105843
 21
154.8362382228
 31
0.0
  0
LINE
  5
61
330
1F
100
AcDbEntity
  8
0
  6
Continuous
 62
     7
370
    15
100
AcDbLine
 10
245.1940484506
 20
153.3790760214
 30
0.0
 11
245.1888628465
 21
154.5363411779
 31
0.0
  0
LINE
  5
62
330
1F
100
AcDbEntity
  8
0
  6
Continuous
 62
     7
370
    15
100
AcDbLine
 10
238.7899056238
 20
142.0299008961
 30
0.0
 11
245.1940484506
 21
153.3790760214
 31
0.0
  0
LINE
  5
63
330
1F
100
AcDbEntity
  8
0
  6
Continuous
 62
     7
370
    15
100
AcDbLine
 10
238.2743403477
 20
141.7207949335
 30
0.0
 11
238.7899056238
 21
142.0299008961
 31
0.0
  0
LINE
  5
64
330
1F
100
AcDbEntity
  8
0
  6
Continuous
 62
     7
370
    15
100
AcDbLine
 10
238.1033197207
 20
141.8207630987
 30
0.0
 11
238.2743403477
 21
141.7207949335
 31
0.0
  0
LINE
  5
65
330
1F
100
AcDbEntity
  8
0
  6
Continuous
 62
     7
370
    15
100
AcDbLine
 10
238.105826841
 20
142.4297698314
 30
0.0
 11
238.1033197207
 21
141.8207630987
 31
0.0
  0
LINE
  5
66
330
1F
100
AcDbEntity
  8
0
  6
Continuous
 62
     7
370
    15
100
AcDbLine
 10
237.1159240765
 20
143.008400547
 30
0.0
 11
238.105826841
 21
142.4297698314
 31
0.0
  0
LINE
  5
67
330
1F
100
AcDbEntity
  8
0
  6
Continuous
 62
     7
370
    15
100
AcDbLine
 10
230.6101031763
 20
154.3575756724
 30
0.0
 11
237.1159240765
 21
143.008400547
 31
0.0
  0
LINE
  5
68
330
1F
100
AcDbEntity
  8
0
  6
Continuous
 62
     7
370
    15
100
AcDbLine
 10
230.6021422309
 20
154.9665824051
 30
0.0
 11
230.6101031763
 21
154.3575756724
 31
0.0
  0
LINE
  5
69
330
1F
100
AcDbEntity
  8
0
  6
Continuous
 62
     7
370
    15
100
AcDbLine
 10
230.772265063
 20
155.0665468449
 30
0.0
 11
230.6021422309
 21
154.9665824051
 31
0.0
  0
LINE
  5
6A
330
1F
100
AcDbEntity
  8
0
  6
Continuous
 62
     7
370
    15
100
AcDbLine
 10
231.2906019551
 20
154.7574408824
 30
0.0
 11
230.772265063
 21
155.0665468449
 31
0.0
  0
CIRCLE
  5
6B
330
1F
100
AcDbEntity
  8
0
  6
Continuous
 62
     7
370
    15
100
AcDbCircle
 10
238.159873777
 20
150.5831781477
 30
0.0
 40
2.837916936824064
  0
LINE
  5
6C
330
1F
100
AcDbEntity
  8
0
  6
Continuous
 62
     7
370
    15
100
AcDbLine
 10
230.5753760201
 20
154.3524198706
 30
0.0
 11
230.6101031763
 21
154.3575756724
 31
0.0
  0
LINE
  5
6D
330
1F
100
AcDbEntity
  8
0
  6
Continuous
 62
     7
370
    15
100
AcDbLine
 10
229.9856886429
 20
154.8750631983
 30
0.0
 11
229.9862884146
 21
154.8291638965
 31
0.0
  0
LINE
  5
6E
330
1F
100
AcDbEntity
  8
0
  6
Continuous
 62
     7
370
    15
100
AcDbLine
 10
229.9856886429
 20
154.8750631983
 30
0.0
 11
230.6021422309
 21
154.9665824051
 31
0.0
  0
LINE
  5
6F
330
1F
100
AcDbEntity
  8
0
  6
Continuous
 62
     7
370
    15
100
AcDbLine
 10
236.4994742138
 20
142.9168850655
 30
0.0
 11
237.1159240765
 21
143.008400547
 31
0.0
  0
LINE
  5
70
330
1F
100
AcDbEntity
  8
0
  6
Continuous
 62
     7
370
    15
100
AcDbLine
 10
235.3111699385
 20
144.9898377533
 30
0.0
 11
236.4994742138
 21
142.9168850655
 31
0.0
  0
LINE
  5
71
330
1F
100
AcDbEntity
  8
0
  6
Continuous
 62
     7
370
    15
100
AcDbLine
 10
230.1558152002
 20
154.9750313635
 30
0.0
 11
229.9856886429
 21
154.8750631983
 31
0.0
  0
LINE
  5
72
330
1F
100
AcDbEntity
  8
0
  6
Continuous
 62
     7
370
    15
100
AcDbLine
 10
230.1558152002
 20
154.9750313635
 30
0.0
 11
230.772265063
 21
155.0665468449
 31
0.0
  0
LINE
  5
73
330
1F
100
AcDbEntity
  8
0
  6
Continuous
 62
     7
370
    15
100
AcDbLine
 10
231.6588692528
 20
155.2445561166
 30
0.0
 11
231.0619473619
 21
154.8937976832
 31
0.0
  0
LINE
  5
74
330
1F
100
AcDbEntity
  8
0
  6
Continuous
 62
     7
370
    15
100
AcDbLine
 10
231.6588692528
 20
155.2445561166
 30
0.0
 11
232.2753191156
 21
155.3360753233
 31
0.0
  0
LINE
  5
75
330
1F
100
AcDbEntity
  8
0
  6
Continuous
 62
     7
370
    15
100
AcDbLine
 10
237.4893769783
 20
142.3382506246
 30
0.0
 11
238.105826841
 21
142.4297698314
 31
0.0
  0
LINE
  5
76
330
1F
100
AcDbEntity
  8
0
  6
Continuous
 62
     7
370
    15
100
AcDbLine
 10
236.4994742138
 20
142.9168850655
 30
0.0
 11
237.4893769783
 21
142.3382506246
 31
0.0
  0
LINE
  5
77
330
1F
100
AcDbEntity
  8
0
  6
Continuous
 62
     7
370
    15
100
AcDbLine
 10
237.4868698579
 20
141.7292476172
 30
0.0
 11
238.1033197207
 21
141.8207630987
 31
0.0
  0
LINE
  5
78
330
1F
100
AcDbEntity
  8
0
  6
Continuous
 62
     7
370
    15
100
AcDbLine
 10
237.4893769783
 20
142.3382506246
 30
0.0
 11
237.4868698579
 21
141.7292476172
 31
0.0
  0
LINE
  5
79
330
1F
100
AcDbEntity
  8
0
  6
Continuous
 62
     7
370
    15
100
AcDbLine
 10
237.6578867597
 20
141.6292794521
 30
0.0
 11
238.2743403477
 21
141.7207949335
 31
0.0
  0
LINE
  5
7A
330
1F
100
AcDbEntity
  8
0
  6
Continuous
 62
     7
370
    15
100
AcDbLine
 10
237.4868698579
 20
141.7292476172
 30
0.0
 11
237.6578867597
 21
141.6292794521
 31
0.0
  0
ARC
  5
7B
330
1F
100
AcDbEntity
  8
0
  6
Continuous
 62
     7
370
    15
100
AcDbCircle
 10
237.6038968095
 20
143.5417197555
 30
0.0
 40
1.2852612318564
100
AcDbArc
 50
209.6110893001
 51
264.873857889
  0
LINE
  5
7C
330
1F
100
AcDbEntity
  8
0
  6
Continuous
 62
     7
370
    15
100
AcDbLine
 10
235.3018231851
 20
144.9732751126
 30
0.0
 11
236.4864915771
 21
142.9066591437
 31
0.0
  0
LINE
  5
7D
330
1F
100
AcDbEntity
  8
0
  6
Continuous
 62
     7
370
    15
100
AcDbLine
 10
235.0494496686
 20
144.5260316605
 30
0.0
 11
236.0176414413
 21
142.8370558197
 31
0.0
  0
ARC
  5
7E
330
1F
100
AcDbEntity
  8
0
  6
Continuous
 62
     7
370
    15
100
AcDbCircle
 10
237.1309168319
 20
143.4667157656
 30
0.0
 40
1.279004981573653
100
AcDbArc
 50
209.4921644929
 51
278.2456241396
  0
SPLINE
  5
7F
330
1F
100
AcDbEntity
  8
0
  6
Continuous
 62
     7
370
    15
100
AcDbSpline
210
0.0
220
0.0
230
1.0
 70
     8
 71
     3
 72
    68
 73
    64
 74
     0
 42
0.00000001
 43
0.00000001
 12
1.0
 22
0.0
 32
0.0
 13
1.0
 23
0.0
 33
0.0
 40
-0.0625
 40
-0.0625
 40
0.0
 40
0.0
 40
0.03125
 40
0.03125
 40
0.0625
 40
0.0625
 40
0.09375
 40
0.09375
 40
0.125
 40
0.125
 40
0.15625
 40
0.15625
 40
0.1875
 40
0.1875
 40
0.21875
 40
0.21875
 40
0.25
 40
0.25
 40
0.28125
 40
0.28125
 40
0.3125
 40
0.3125
 40
0.34375
 40
0.34375
 40
0.375
 40
0.375
 40
0.40625
 40
0.40625
 40
0.4375
 40
0.4375
 40
0.46875
 40
0.46875
 40
0.5
 40
0.5
 40
0.53125
 40
0.53125
 40
0.5625
 40
0.5625
 40
0.59375
 40
0.59375
 40
0.625
 40
0.625
 40
0.65625
 40
0.65625
 40
0.6875
 40
0.6875
 40
0.71875
 40
0.71875
 40
0.75
 40
0.75
 40
0.78125
 40
0.78125
 40
0.8125
 40
0.8125
 40
0.84375
 40
0.84375
 40
0.875
 40
0.875
 40
0.90625
 40
0.90625
 40
0.9375
 40
0.9375
 40
1.0
 40
1.0
 40
1.03125
 40
1.03125
 10
199.2972657543796
 20
126.4276461928159
 30
0.0
 10
199.2972657543796
 20
125.9124094196261
 30
0.0
 10
199.3167364274799
 20
125.7426175538913
 30
0.0
 10
199.3930054536002
 20
125.4068788309582
 30
0.0
 10
199.4507375606146
 20
125.2391614862973
 30
0.0
 10
199.601356471593
 20
124.9179474787853
 30
0.0
 10
199.6935099359032
 20
124.7648308827221
 30
0.0
 10
199.911210444163
 20
124.4738540056435
 30
0.0
 10
200.0378508452984
 20
124.3355119977848
 30
0.0
 10
200.3144695514875
 20
124.0866671870011
 30
0.0
 10
200.4654244684949
 20
123.9745123973244
 30
0.0
 10
200.7933124967235
 20
123.7758733205023
 30
0.0
 10
200.9677614659373
 20
123.6912379287884
 30
0.0
 10
201.3286930686856
 20
123.5550255927038
 30
0.0
 10
201.5178448066949
 20
123.5024274317264
 30
0.0
 10
201.9051394919526
 20
123.4320343810829
 30
0.0
 10
202.0998610365019
 20
123.4145854665476
 30
0.0
 10
202.4913992740167
 20
123.4143903875913
 30
0.0
 10
202.690265670594
 20
123.4322150960771
 30
0.0
 10
203.0751058818201
 20
123.5021182253847
 30
0.0
 10
203.2621651331665
 20
123.5538116458739
 30
0.0
 10
203.6255098503218
 20
123.6905923418521
 30
0.0
 10
203.8010530733419
 20
123.7759098224368
 30
0.0
 10
204.1260344995811
 20
123.9725153390794
 30
0.0
 10
204.2775473981335
 20
124.0844894292917
 30
0.0
 10
204.5577514962438
 20
124.3363914198973
 30
0.0
 10
204.6818555962202
 20
124.4722041130646
 30
0.0
 10
204.8991639149798
 20
124.7620437999855
 30
0.0
 10
204.9931619158642
 20
124.9179192014311
 30
0.0
 10
205.1438085869362
 20
125.2391929998943
 30
0.0
 10
205.2006106170554
 20
125.4037590207159
 30
0.0
 10
205.2774946196983
 20
125.7403992493001
 30
0.0
 10
205.2971938420034
 20
125.9136049813915
 30
0.0
 10
205.2973372644746
 20
126.2528022517677
 30
0.0
 10
205.2784184054781
 20
126.4205146068955
 30
0.0
 10
205.2017264037404
 20
126.7521855381703
 30
0.0
 10
205.1441882360872
 20
126.9136126325733
 30
0.0
 10
204.994823747736
 20
127.2197862662027
 30
0.0
 10
204.9019113622009
 20
127.3668734687248
 30
0.0
 10
204.6828112343491
 20
127.6424128075793
 30
0.0
 10
204.558777875183
 20
127.7686113888644
 30
0.0
 10
204.2824745299931
 20
127.9990243061728
 30
0.0
 10
204.1283261884954
 20
128.1040634647344
 30
0.0
 10
203.8024619498669
 20
128.2842046121398
 30
0.0
 10
203.6303008798758
 20
128.3601790713647
 30
0.0
 10
203.2673474032291
 20
128.4841838993308
 30
0.0
 10
203.07670572001
 20
128.5316778367535
 30
0.0
 10
202.6931962147035
 20
128.5944325554644
 30
0.0
 10
202.4983031628116
 20
128.610483347119
 30
0.0
 10
202.1019816503118
 20
128.6107942806435
 30
0.0
 10
201.9066188109029
 20
128.5950017724707
 30
0.0
 10
201.5230177337943
 20
128.5328147904651
 30
0.0
 10
201.3325254417586
 20
128.4856837075962
 30
0.0
 10
200.9689594183577
 20
128.3621108859954
 30
0.0
 10
200.796600065662
 20
128.2863555453456
 30
0.0
 10
200.4704793169937
 20
128.106770328524
 30
0.0
 10
200.3160548337931
 20
128.0019407874992
 30
0.0
 10
200.0391853039181
 20
127.7718794229217
 30
0.0
 10
199.9149355579468
 20
127.6458980085686
 30
0.0
 10
199.695436689991
 20
127.3709587111101
 30
0.0
 10
199.602038920285
 20
127.2237759670459
 30
0.0
 10
199.3770776855847
 20
126.7649757416135
 30
0.0
 10
199.2972657543796
 20
126.4276461928159
 30
0.0
 10
199.2972657543796
 20
125.9124094196261
 30
0.0
  0
ELLIPSE
  5
80
330
1F
100
AcDbEntity
  8
0
  6
Continuous
 62
     7
370
    15
100
AcDbEllipse
 10
251.2501929059
 20
110.3341550107
 30
0.0
 11
178.6453143423566
 21
-0.8510139164427102
 31
0.0
210
0.0
220
0.0
230
1.0
 40
0.1762626822
 41
1.755833395967571
 42
1.764200650509224
  0
SPLINE
  5
81
330
1F
100
AcDbEntity
  8
0
  6
Continuous
 62
     7
370
    15
100
AcDbSpline
210
0.0
220
0.0
230
1.0
 70
     8
 71
     3
 72
    18
 73
    14
 74
     0
 42
0.00000001
 43
0.00000001
 12
1.0
 22
0.0
 32
0.0
 13
1.0
 23
0.0
 33
0.0
 40
0.0
 40
0.0
 40
0.0
 40
0.0
 40
0.2499999999999974
 40
0.2499999999999974
 40
0.3749999999999976
 40
0.3749999999999976
 40
0.4999999999999978
 40
0.4999999999999978
 40
0.6249999999999979
 40
0.6249999999999979
 40
0.7499999999999981
 40
0.7499999999999981
 40
1.0
 40
1.0
 40
1.0
 40
1.0
 10
217.0616161467199
 20
141.3991389396826
 30
0.0
 10
216.4880429010809
 20
141.3820734893872
 30
0.0
 10
215.9436450508786
 20
141.3514279407385
 30
0.0
 10
215.1698679561399
 20
141.2793710499461
 30
0.0
 10
214.9198349817786
 20
141.2508352695308
 30
0.0
 10
214.4505973854275
 20
141.1851680379656
 30
0.0
 10
214.2291897820664
 20
141.1478559074846
 30
0.0
 10
213.8126456898169
 20
141.0626573265371
 30
0.0
 10
213.6162166589069
 20
141.0143117688868
 30
0.0
 10
213.2603691232128
 20
140.9077980327212
 30
0.0
 10
213.100055690719
 20
140.8495896856857
 30
0.0
 10
212.6700417644382
 20
140.6582741470953
 30
0.0
 10
212.4507867121677
 20
140.5070511207058
 30
0.0
 10
212.3079502549871
 20
140.3349309290307
 30
0.0
  0
ELLIPSE
  5
82
330
1F
100
AcDbEntity
  8
0
  6
Continuous
 62
     7
370
    15
100
AcDbEllipse
 10
215.0904152582
 20
110.3341550107
 30
0.0
 11
-0.2380198950872057
 21
31.49993548694765
 31
0.0
210
0.0
220
0.0
230
1.0
 40
0.2678431773
 41
0.3077399696009794
 42
2.777445057319369
  0
SPLINE
  5
83
330
1F
100
AcDbEntity
  8
0
  6
Continuous
 62
     7
370
    15
100
AcDbSpline
210
0.0
220
0.0
230
1.0
 70
     8
 71
     3
 72
    16
 73
    12
 74
     0
 42
0.00000001
 43
0.00000001
 12
1.0
 22
0.0
 32
0.0
 13
1.0
 23
0.0
 33
0.0
 40
0.0
 40
0.0
 40
0.0
 40
0.0
 40
0.2500000000000005
 40
0.2500000000000005
 40
0.3749999999999999
 40
0.3749999999999999
 40
0.4999999999999994
 40
0.4999999999999994
 40
0.7499999999999997
 40
0.7499999999999997
 40
1.0
 40
1.0
 40
1.0
 40
1.0
 10
212.3079502549871
 20
80.87703770087495
 30
0.0
 10
212.4071037316965
 20
80.73818285184086
 30
0.0
 10
212.5407203973164
 20
80.61155131027398
 30
0.0
 10
212.7930934920383
 20
80.43766757706318
 30
0.0
 10
212.8859272070061
 20
80.3823937298109
 30
0.0
 10
213.089725226189
 20
80.2769496913729
 30
0.0
 10
213.2011896551987
 20
80.22664288134568
 30
0.0
 10
213.5561367436096
 20
80.08606420612828
 30
0.0
 10
213.8217798763185
 20
80.0049242485073
 30
0.0
 10
214.4116359791063
 20
79.86351819163815
 30
0.0
 10
214.7389348835374
 20
79.80308852761401
 30
0.0
 10
215.0819624729665
 20
79.75397982788284
 30
0.0
  0
ELLIPSE
  5
84
330
1F
100
AcDbEntity
  8
0
  6
Continuous
 62
     7
370
    15
100
AcDbEllipse
 10
235.5560704439
 20
110.3341550107
 30
0.0
 11
22.62876809348171
 21
31.4111213963984
 31
0.0
210
0.0
220
0.0
230
1.0
 40
0.1044964202
 41
3.216730803973248
 42
3.458986946538014
  0
SPLINE
  5
85
330
1F
100
AcDbEntity
  8
0
  6
Continuous
 62
     7
370
    15
100
AcDbSpline
210
0.0
220
0.0
230
1.0
 70
     8
 71
     3
 72
    12
 73
     8
 74
     0
 42
0.00000001
 43
0.00000001
 12
1.0
 22
0.0
 32
0.0
 13
1.0
 23
0.0
 33
0.0
 40
0.0
 40
0.0
 40
0.0
 40
0.0
 40
0.25
 40
0.25
 40
0.5
 40
0.5
 40
1.0
 40
1.0
 40
1.0
 40
1.0
 10
191.825022567946
 20
80.2656630518164
 30
0.0
 10
191.7619656130482
 20
80.2656630518164
 30
0.0
 10
191.7028354633026
 20
80.27356338289593
 30
0.0
 10
191.6043879127693
 20
80.29687413090099
 30
0.0
 10
191.5653556745813
 20
80.31157925718463
 30
0.0
 10
191.4654657901243
 20
80.35951278537127
 30
0.0
 10
191.423166816515
 20
80.39558275813602
 30
0.0
 10
191.3920098660537
 20
80.43341255057224
 30
0.0
  0
LINE
  5
86
330
1F
100
AcDbEntity
  8
0
  6
Continuous
 62
     7
370
    15
100
AcDbLine
 10
194.7695089665
 20
80.2656624938
 30
0.0
 11
191.8250227508
 21
80.2656624938
 31
0.0
  0
SPLINE
  5
87
330
1F
100
AcDbEntity
  8
0
  6
Continuous
 62
     7
370
    15
100
AcDbSpline
210
0.0
220
0.0
230
1.0
 70
     8
 71
     3
 72
    12
 73
     8
 74
     0
 42
0.00000001
 43
0.00000001
 12
1.0
 22
0.0
 32
0.0
 13
1.0
 23
0.0
 33
0.0
 40
0.0
 40
0.0
 40
0.0
 40
0.0
 40
0.5000000000000009
 40
0.5000000000000009
 40
0.7500000000000004
 40
0.7500000000000004
 40
1.0
 40
1.0
 40
1.0
 40
1.0
 10
195.2025216427054
 20
80.43341255057226
 30
0.0
 10
195.1713764447433
 20
80.39559702765206
 30
0.0
 10
195.1291021784088
 20
80.35953016956844
 30
0.0
 10
195.0291566445835
 20
80.31157010455718
 30
0.0
 10
194.9894263398795
 20
80.29670913065951
 30
0.0
 10
194.8925382898733
 20
80.27375798452839
 30
0.0
 10
194.8324730481267
 20
80.26566305181636
 30
0.0
 10
194.7695089408131
 20
80.26566305181635
 30
0.0
  0
ELLIPSE
  5
88
330
1F
100
AcDbEntity
  8
0
  6
Continuous
 62
     7
370
    15
100
AcDbEllipse
 10
178.950111565
 20
110.3341550107
 30
0.0
 11
-14.75368316065618
 21
31.09325491558117
 31
0.0
210
0.0
220
0.0
230
1.0
 40
0.3419987131
 41
3.300734856217124
 42
4.231496223360773
  0
SPLINE
  5
89
330
1F
100
AcDbEntity
  8
0
  6
Continuous
 62
     7
370
    15
100
AcDbSpline
210
0.0
220
0.0
230
1.0
 70
     8
 71
     3
 72
    12
 73
     8
 74
     0
 42
0.00000001
 43
0.00000001
 12
1.0
 22
0.0
 32
0.0
 13
1.0
 23
0.0
 33
0.0
 40
0.0
 40
0.0
 40
0.0
 40
0.0
 40
0.2499999999999986
 40
0.2499999999999986
 40
0.4999999999999971
 40
0.4999999999999971
 40
1.0
 40
1.0
 40
1.0
 40
1.0
 10
194.7695089408131
 20
100.9460885793532
 30
0.0
 10
194.8325658957109
 20
100.9460885793532
 30
0.0
 10
194.8916960454565
 20
100.9207422259726
 30
0.0
 10
194.9901435959898
 20
100.8466228438331
 30
0.0
 10
195.0291758341779
 20
100.8001263291351
 30
0.0
 10
195.1290657186348
 20
100.6500518221265
 30
0.0
 10
195.1713646922442
 20
100.5389341130116
 30
0.0
 10
195.2025216427054
 20
100.4247856900041
 30
0.0
  0
LINE
  5
8A
330
1F
100
AcDbEntity
  8
0
  6
Continuous
 62
     7
370
    15
100
AcDbLine
 10
191.8250227508
 20
100.9460881824
 30
0.0
 11
194.7695089665
 21
100.9460881824
 31
0.0
  0
SPLINE
  5
8B
330
1F
100
AcDbEntity
  8
0
  6
Continuous
 62
     7
370
    15
100
AcDbSpline
210
0.0
220
0.0
230
1.0
 70
     8
 71
     3
 72
    12
 73
     8
 74
     0
 42
0.00000001
 43
0.00000001
 12
1.0
 22
0.0
 32
0.0
 13
1.0
 23
0.0
 33
0.0
 40
0.0
 40
0.0
 40
0.0
 40
0.0
 40
0.4999999999999991
 40
0.4999999999999991
 40
0.7499999999999996
 40
0.7499999999999996
 40
1.0
 40
1.0
 40
1.0
 40
1.0
 10
191.3920098660538
 20
100.4247856900041
 30
0.0
 10
191.4231550640159
 20
100.5388910558694
 30
0.0
 10
191.4654293303503
 20
100.6499973830882
 30
0.0
 10
191.5653748641756
 20
100.8001549905185
 30
0.0
 10
191.6051051688797
 20
100.8471476821358
 30
0.0
 10
191.7019932188859
 20
100.9201232666743
 30
0.0
 10
191.7620584606325
 20
100.9460885793533
 30
0.0
 10
191.825022567946
 20
100.9460885793534
 30
0.0
  0
ELLIPSE
  5
8C
330
1F
100
AcDbEntity
  8
0
  6
Continuous
 62
     7
370
    15
100
AcDbEllipse
 10
207.6444199437
 20
110.3341550107
 30
0.0
 11
14.75368316065621
 21
31.09325491558117
 31
0.0
210
0.0
220
0.0
230
1.0
 40
0.3419987131
 41
2.051689083818827
 42
2.982450450962506
  0
SPLINE
  5
8D
330
1F
100
AcDbEntity
  8
0
  6
Continuous
 62
     7
370
    15
100
AcDbSpline
210
0.0
220
0.0
230
1.0
 70
     8
 71
     3
 72
    12
 73
     8
 74
     0
 42
0.00000001
 43
0.00000001
 12
1.0
 22
0.0
 32
0.0
 13
1.0
 23
0.0
 33
0.0
 40
0.0
 40
0.0
 40
0.0
 40
0.0
 40
0.2499999999999977
 40
0.2499999999999977
 40
0.4999999999999953
 40
0.4999999999999953
 40
1.0
 40
1.0
 40
1.0
 40
1.0
 10
191.825022567946
 20
119.7222214420254
 30
0.0
 10
191.7619425294526
 20
119.7222214420254
 30
0.0
 10
191.7027939072712
 20
119.7475857612403
 30
0.0
 10
191.6043213572021
 20
119.8217506216132
 30
0.0
 10
191.5652847452174
 20
119.8682709621674
 30
0.0
 10
191.4653882784384
 20
120.0184133050126
 30
0.0
 10
191.4229673973718
 20
120.1301065119848
 30
0.0
 10
191.3920098660538
 20
120.2435243313745
 30
0.0
  0
LINE
  5
8E
330
1F
100
AcDbEntity
  8
0
  6
Continuous
 62
     7
370
    15
100
AcDbLine
 10
194.7695089665
 20
119.7222218389
 30
0.0
 11
191.8250227508
 21
119.7222218389
 31
0.0
  0
SPLINE
  5
8F
330
1F
100
AcDbEntity
  8
0
  6
Continuous
 62
     7
370
    15
100
AcDbSpline
210
0.0
220
0.0
230
1.0
 70
     8
 71
     3
 72
    12
 73
     8
 74
     0
 42
0.00000001
 43
0.00000001
 12
1.0
 22
0.0
 32
0.0
 13
1.0
 23
0.0
 33
0.0
 40
0.0
 40
0.0
 40
0.0
 40
0.0
 40
0.5000000000000047
 40
0.5000000000000047
 40
0.7500000000000023
 40
0.7500000000000023
 40
1.0
 40
1.0
 40
1.0
 40
1.0
 10
195.2025216427054
 20
120.2435243313745
 30
0.0
 10
195.1717994007863
 20
120.1309685319654
 30
0.0
 10
195.1289621862511
 20
120.0182106722257
 30
0.0
 10
195.0295351620513
 20
119.8686697864294
 30
0.0
 10
194.9897829672346
 20
119.8213770547225
 30
0.0
 10
194.8917415103764
 20
119.7476407614011
 30
0.0
 10
194.8321854547889
 20
119.7222214420254
 30
0.0
 10
194.7695089408131
 20
119.7222214420254
 30
0.0
  0
ELLIPSE
  5
90
330
1F
100
AcDbEntity
  8
0
  6
Continuous
 62
     7
370
    15
100
AcDbEllipse
 10
178.950111565
 20
110.3341550107
 30
0.0
 11
14.75368316065607
 21
31.09325491558117
 31
0.0
210
0.0
220
0.0
230
1.0
 40
0.3419987131
 41
5.19328173740862
 42
6.124043104552325
  0
SPLINE
  5
91
330
1F
100
AcDbEntity
  8
0
  6
Continuous
 62
     7
370
    15
100
AcDbSpline
210
0.0
220
0.0
230
1.0
 70
     8
 71
     3
 72
    12
 73
     8
 74
     0
 42
0.00000001
 43
0.00000001
 12
1.0
 22
0.0
 32
0.0
 13
1.0
 23
0.0
 33
0.0
 40
0.0
 40
0.0
 40
0.0
 40
0.0
 40
0.2500000000000032
 40
0.2500000000000032
 40
0.5000000000000064
 40
0.5000000000000064
 40
1.0
 40
1.0
 40
1.0
 40
1.0
 10
194.7695089408131
 20
140.4026469695626
 30
0.0
 10
194.8325889793065
 20
140.4026469695626
 30
0.0
 10
194.8917376014879
 20
140.3947410433501
 30
0.0
 10
194.990210151557
 20
140.3714158819139
 30
0.0
 10
195.0292467635417
 20
140.3567030920822
 30
0.0
 10
195.1291432303208
 20
140.3087472913512
 30
0.0
 10
195.1715641113874
 20
140.2724851347712
 30
0.0
 10
195.2025216427054
 20
140.2348974708067
 30
0.0
  0
LINE
  5
92
330
1F
100
AcDbEntity
  8
0
  6
Continuous
 62
     7
370
    15
100
AcDbLine
 10
191.8250227508
 20
140.4026475276
 30
0.0
 11
194.7695089665
 21
140.4026475276
 31
0.0
  0
SPLINE
  5
93
330
1F
100
AcDbEntity
  8
0
  6
Continuous
 62
     7
370
    15
100
AcDbSpline
210
0.0
220
0.0
230
1.0
 70
     8
 71
     3
 72
    12
 73
     8
 74
     0
 42
0.00000001
 43
0.00000001
 12
1.0
 22
0.0
 32
0.0
 13
1.0
 23
0.0
 33
0.0
 40
0.0
 40
0.0
 40
0.0
 40
0.0
 40
0.5000000000000019
 40
0.5000000000000019
 40
0.7500000000000009
 40
0.7500000000000009
 40
1.0
 40
1.0
 40
1.0
 40
1.0
 10
191.3920098660538
 20
140.2348974708067
 30
0.0
 10
191.4227321079729
 20
140.2721994537597
 30
0.0
 10
191.4655693225081
 20
140.3088112858061
 30
0.0
 10
191.5649963467079
 20
140.3565760690913
 30
0.0
 10
191.6047485415245
 20
140.3715335845737
 30
0.0
 10
191.7027899983827
 20
140.3947235303428
 30
0.0
 10
191.7623460539702
 20
140.4026469695626
 30
0.0
 10
191.825022567946
 20
140.4026469695626
 30
0.0
  0
ELLIPSE
  5
94
330
1F
100
AcDbEntity
  8
0
  6
Continuous
 62
     7
370
    15
100
AcDbEllipse
 10
207.6444199437
 20
110.3341550107
 30
0.0
 11
-14.75368316065607
 21
31.09325491558117
 31
0.0
210
0.0
220
0.0
230
1.0
 40
0.3419987131
 41
0.1591422026273023
 42
1.08990356977098
  0
ELLIPSE
  5
95
330
1F
100
AcDbEntity
  8
0
  6
Continuous
 62
     7
370
    15
100
AcDbEllipse
 10
210.6737872888
 20
127.5559363157
 30
0.0
 11
0.3474074387399071
 21
3.371749224490316
 31
0.0
210
0.0
220
0.0
230
1.0
 40
0.2215793443
 41
0.0
 42
6.283185307179586
  0
LINE
  5
96
330
1F
100
AcDbEntity
  8
0
  6
Continuous
 62
     7
370
    15
100
AcDbLine
 10
181.2972657544
 20
79.3341555173
 30
0.0
 11
181.2972657544
 21
141.3341545041
 31
0.0
  0
SPLINE
  5
97
330
1F
100
AcDbEntity
  8
0
  6
Continuous
 62
     7
370
    15
100
AcDbSpline
210
0.0
220
0.0
230
1.0
 70
     8
 71
     3
 72
    12
 73
     8
 74
     0
 42
0.00000001
 43
0.00000001
 12
1.0
 22
0.0
 32
0.0
 13
1.0
 23
0.0
 33
0.0
 40
0.0
 40
0.0
 40
0.0
 40
0.0
 40
0.5
 40
0.5
 40
0.75
 40
0.75
 40
1.0
 40
1.0
 40
1.0
 40
1.0
 10
180.4807534679231
 20
88.47936130821367
 30
0.0
 10
180.5371899688303
 20
88.47794342687193
 30
0.0
 10
180.606274599519
 20
88.47637909062361
 30
0.0
 10
180.725076871237
 20
88.47343489864916
 30
0.0
 10
180.765262146707
 20
88.4723966955518
 30
0.0
 10
180.8386431941109
 20
88.47046280033715
 30
0.0
 10
180.8720527578535
 20
88.46956791304835
 30
0.0
 10
180.90228886551
 20
88.468784122776
 30
0.0
  0
SPLINE
  5
98
330
1F
100
AcDbEntity
  8
0
  6
Continuous
 62
     7
370
    15
100
AcDbSpline
210
0.0
220
0.0
230
1.0
 70
     8
 71
     3
 72
    16
 73
    12
 74
     0
 42
0.00000001
 43
0.00000001
 12
1.0
 22
0.0
 32
0.0
 13
1.0
 23
0.0
 33
0.0
 40
0.0
 40
0.0
 40
0.0
 40
0.0
 40
0.0625000000000012
 40
0.0625000000000012
 40
0.1250000000000024
 40
0.1250000000000024
 40
0.2500000000000047
 40
0.2500000000000047
 40
0.5000000000000043
 40
0.5000000000000043
 40
1.0
 40
1.0
 40
1.0
 40
1.0
 10
180.9022888654727
 20
88.46878412280024
 30
0.0
 10
180.9138692730607
 20
88.46848393168891
 30
0.0
 10
180.9271787998219
 20
88.4671561834299
 30
0.0
 10
180.9564802299081
 20
88.4604575086549
 30
0.0
 10
180.9712943297924
 20
88.45509932554923
 30
0.0
 10
181.0071227314952
 20
88.43805367638186
 30
0.0
 10
181.0212423558582
 20
88.42659113860613
 30
0.0
 10
181.0557464999467
 20
88.39502781323388
 30
0.0
 10
181.0668510506513
 20
88.37713051418861
 30
0.0
 10
181.0930272278675
 20
88.32696909657436
 30
0.0
 10
181.0972657543796
 20
88.29922468437779
 30
0.0
 10
181.0972657543796
 20
88.27456052244825
 30
0.0
  0
LINE
  5
99
330
1F
100
AcDbEntity
  8
0
  6
Continuous
 62
     7
370
    15
100
AcDbLine
 10
181.0972657594
 20
103.3122677828
 30
0.0
 11
181.0972657594
 21
87.7943344886
 31
0.0
  0
SPLINE
  5
9A
330
1F
100
AcDbEntity
  8
0
  6
Continuous
 62
     7
370
    15
100
AcDbSpline
210
0.0
220
0.0
230
1.0
 70
     8
 71
     3
 72
    16
 73
    12
 74
     0
 42
0.00000001
 43
0.00000001
 12
1.0
 22
0.0
 32
0.0
 13
1.0
 23
0.0
 33
0.0
 40
0.0
 40
0.0
 40
0.0
 40
0.0
 40
0.5000000000000016
 40
0.5000000000000016
 40
0.7500000000000007
 40
0.7500000000000007
 40
0.8750000000000002
 40
0.8750000000000002
 40
0.9375000000000001
 40
0.9375000000000001
 40
1.0
 40
1.0
 40
1.0
 40
1.0
 10
181.0972657543796
 20
103.3122676849395
 30
0.0
 10
181.0972657543796
 20
103.4259602290673
 30
0.0
 10
181.0931194793016
 20
103.5402803904169
 30
0.0
 10
181.0671538839081
 20
103.7133286809139
 30
0.0
 10
181.0556929785307
 20
103.7725041880757
 30
0.0
 10
181.0213812407563
 20
103.8556273075438
 30
0.0
 10
181.0073565048267
 20
103.8837486236445
 30
0.0
 10
180.9713335417929
 20
103.9123644376219
 30
0.0
 10
180.9565790327032
 20
103.9181574855237
 30
0.0
 10
180.9272268715563
 20
103.9165640595867
 30
0.0
 10
180.9138869970523
 20
103.9100676562628
 30
0.0
 10
180.9022888655039
 20
103.9015519100597
 30
0.0
  0
SPLINE
  5
9B
330
1F
100
AcDbEntity
  8
0
  6
Continuous
 62
     7
370
    15
100
AcDbSpline
210
0.0
220
0.0
230
1.0
 70
     8
 71
     3
 72
    12
 73
     8
 74
     0
 42
0.00000001
 43
0.00000001
 12
1.0
 22
0.0
 32
0.0
 13
1.0
 23
0.0
 33
0.0
 40
0.0
 40
0.0
 40
0.0
 40
0.0
 40
0.2500000000000004
 40
0.2500000000000004
 40
0.5000000000000004
 40
0.5000000000000004
 40
1.0
 40
1.0
 40
1.0
 40
1.0
 10
180.902288865511
 20
103.9015519100506
 30
0.0
 10
180.8720904240704
 20
103.8793791780055
 30
0.0
 10
180.8387230687344
 20
103.8602995221283
 30
0.0
 10
180.7655677929045
 20
103.8351264776856
 30
0.0
 10
180.7253150938805
 20
103.8295699412688
 30
0.0
 10
180.6075863506057
 20
103.8404817522555
 30
0.0
 10
180.5371279025467
 20
103.8824175076664
 30
0.0
 10
180.4807534679285
 20
103.9316292900479
 30
0.0
  0
SPLINE
  5
9C
330
1F
100
AcDbEntity
  8
0
  6
Continuous
 62
     7
370
    15
100
AcDbSpline
210
0.0
220
0.0
230
1.0
 70
     8
 71
     3
 72
    12
 73
     8
 74
     0
 42
0.00000001
 43
0.00000001
 12
1.0
 22
0.0
 32
0.0
 13
1.0
 23
0.0
 33
0.0
 40
0.0
 40
0.0
 40
0.0
 40
0.0
 40
0.4999999999999978
 40
0.4999999999999978
 40
0.7499999999999989
 40
0.7499999999999989
 40
1.0
 40
1.0
 40
1.0
 40
1.0
 10
179.9759454108199
 20
105.1479806819284
 30
0.0
 10
180.0196957627044
 20
104.9275336969539
 30
0.0
 10
180.0725859138288
 20
104.7119887071484
 30
0.0
 10
180.1841974569705
 20
104.3995746305765
 30
0.0
 10
180.2267568008741
 20
104.2974951549605
 30
0.0
 10
180.3317340362115
 20
104.1030551423188
 30
0.0
 10
180.3933012793061
 20
104.0079702432551
 30
0.0
 10
180.4807534679285
 20
103.931629290048
 30
0.0
  0
SPLINE
  5
9D
330
1F
100
AcDbEntity
  8
0
  6
Continuous
 62
     7
370
    15
100
AcDbSpline
210
0.0
220
0.0
230
1.0
 70
     8
 71
     3
 72
    12
 73
     8
 74
     0
 42
0.00000001
 43
0.00000001
 12
1.0
 22
0.0
 32
0.0
 13
1.0
 23
0.0
 33
0.0
 40
0.0
 40
0.0
 40
0.0
 40
0.0
 40
0.2500000000000008
 40
0.2500000000000008
 40
0.5000000000000016
 40
0.5000000000000016
 40
1.0
 40
1.0
 40
1.0
 40
1.0
 10
180.4807534679284
 20
116.7366807313311
 30
0.0
 10
180.3922600603605
 20
116.6594308512228
 30
0.0
 10
180.3322020195946
 20
116.5661115273335
 30
0.0
 10
180.226353746612
 20
116.3700784743641
 30
0.0
 10
180.1838202253346
 20
116.2677521161524
 30
0.0
 10
180.0726689185109
 20
115.9564077103765
 30
0.0
 10
180.0197380614631
 20
115.7409894571985
 30
0.0
 10
179.9759454108199
 20
115.5203293394506
 30
0.0
  0
SPLINE
  5
9E
330
1F
100
AcDbEntity
  8
0
  6
Continuous
 62
     7
370
    15
100
AcDbSpline
210
0.0
220
0.0
230
1.0
 70
     8
 71
     3
 72
    12
 73
     8
 74
     0
 42
0.00000001
 43
0.00000001
 12
1.0
 22
0.0
 32
0.0
 13
1.0
 23
0.0
 33
0.0
 40
0.0
 40
0.0
 40
0.0
 40
0.0
 40
0.5000000000000001
 40
0.5000000000000001
 40
0.7500000000000003
 40
0.7500000000000003
 40
1.0
 40
1.0
 40
1.0
 40
1.0
 10
180.4807534679284
 20
116.7366807313311
 30
0.0
 10
180.537062016224
 20
116.7858349985749
 30
0.0
 10
180.6073366769421
 20
116.8277923171787
 30
0.0
 10
180.7253745912657
 20
116.8387519947111
 30
0.0
 10
180.7655508321196
 20
116.8332432364638
 30
0.0
 10
180.8395079267976
 20
116.8076860076748
 30
0.0
 10
180.872124314509
 20
116.7889059598355
 30
0.0
 10
180.9022888655047
 20
116.7667581113188
 30
0.0
  0
SPLINE
  5
9F
330
1F
100
AcDbEntity
  8
0
  6
Continuous
 62
     7
370
    15
100
AcDbSpline
210
0.0
220
0.0
230
1.0
 70
     8
 71
     3
 72
    16
 73
    12
 74
     0
 42
0.00000001
 43
0.00000001
 12
1.0
 22
0.0
 32
0.0
 13
1.0
 23
0.0
 33
0.0
 40
0.0
 40
0.0
 40
0.0
 40
0.0
 40
0.0625000000000004
 40
0.0625000000000004
 40
0.1250000000000008
 40
0.1250000000000008
 40
0.2500000000000007
 40
0.2500000000000007
 40
0.5000000000000004
 40
0.5000000000000004
 40
1.0
 40
1.0
 40
1.0
 40
1.0
 10
180.902288865473
 20
116.7667581112643
 30
0.0
 10
180.9139017653123
 20
116.758231521669
 30
0.0
 10
180.9272529497448
 20
116.7517312601362
 30
0.0
 10
180.956652789364
 20
116.7501618630187
 30
0.0
 10
180.9714935139193
 20
116.7560452536493
 30
0.0
 10
181.0073267218879
 20
116.7845928896998
 30
0.0
 10
181.0214399297094
 20
116.8127599090056
 30
0.0
 10
181.0559313009283
 20
116.8965141674276
 30
0.0
 10
181.0670153720387
 20
116.954227581049
 30
0.0
 10
181.0931381898347
 20
117.1278181176948
 30
0.0
 10
181.0972657543796
 20
117.2428461703368
 30
0.0
 10
181.0972657543796
 20
117.3560423364396
 30
0.0
  0
LINE
  5
A0
330
1F
100
AcDbEntity
  8
0
  6
Continuous
 62
     7
370
    15
100
AcDbLine
 10
181.0972657594
 20
132.8739755328
 30
0.0
 11
181.0972657594
 21
117.3560422386
 31
0.0
  0
SPLINE
  5
A1
330
1F
100
AcDbEntity
  8
0
  6
Continuous
 62
     7
370
    15
100
AcDbSpline
210
0.0
220
0.0
230
1.0
 70
     8
 71
     3
 72
    16
 73
    12
 74
     0
 42
0.00000001
 43
0.00000001
 12
1.0
 22
0.0
 32
0.0
 13
1.0
 23
0.0
 33
0.0
 40
0.0
 40
0.0
 40
0.0
 40
0.0
 40
0.4999999999999953
 40
0.4999999999999953
 40
0.749999999999995
 40
0.749999999999995
 40
0.8749999999999948
 40
0.8749999999999948
 40
0.9374999999999974
 40
0.9374999999999974
 40
1.0
 40
1.0
 40
1.0
 40
1.0
 10
181.0972657543796
 20
132.3937494989308
 30
0.0
 10
181.0972657543796
 20
132.3690783428879
 30
0.0
 10
181.0931000559196
 20
132.3414965114966
 30
0.0
 10
181.0668417275946
 20
132.2911536406733
 30
0.0
 10
181.055337945857
 20
132.2728641426114
 30
0.0
 10
181.0212071865105
 20
132.2417091115744
 30
0.0
 10
181.0067852998398
 20
132.2300697363627
 30
0.0
 10
180.971218331402
 20
132.2131877104316
 30
0.0
 10
180.9562665631073
 20
132.2077986066239
 30
0.0
 10
180.9272627447476
 20
132.2011781106794
 30
0.0
 10
180.9138473907383
 20
132.199825522473
 30
0.0
 10
180.9022888655018
 20
132.1995258986014
 30
0.0
  0
SPLINE
  5
A2
330
1F
100
AcDbEntity
  8
0
  6
Continuous
 62
     7
370
    15
100
AcDbSpline
210
0.0
220
0.0
230
1.0
 70
     8
 71
     3
 72
    12
 73
     8
 74
     0
 42
0.00000001
 43
0.00000001
 12
1.0
 22
0.0
 32
0.0
 13
1.0
 23
0.0
 33
0.0
 40
0.0
 40
0.0
 40
0.0
 40
0.0
 40
0.2499999999999998
 40
0.2499999999999998
 40
0.4999999999999999
 40
0.4999999999999999
 40
1.0
 40
1.0
 40
1.0
 40
1.0
 10
180.902288865511
 20
132.1995258986031
 30
0.0
 10
180.8721010889614
 20
132.1987433611855
 30
0.0
 10
180.8387472848696
 20
132.197850029367
 30
0.0
 10
180.7656210816737
 20
132.1959227205634
 30
0.0
 10
180.7253858786495
 20
132.1948831893507
 30
0.0
 10
180.6076942485165
 20
132.1919653060035
 30
0.0
 10
180.5373135753564
 20
132.1903696999333
 30
0.0
 10
180.4807534679258
 20
132.1889487131654
 30
0.0
  0
SPLINE
  5
A3
330
1F
100
AcDbEntity
  8
0
  6
Continuous
 62
     7
370
    15
100
AcDbSpline
210
0.0
220
0.0
230
1.0
 70
     8
 71
     3
 72
    16
 73
    12
 74
     0
 42
0.00000001
 43
0.00000001
 12
1.0
 22
0.0
 32
0.0
 13
1.0
 23
0.0
 33
0.0
 40
0.0
 40
0.0
 40
0.0
 40
0.0
 40
0.2500000000000002
 40
0.2500000000000002
 40
0.3750000000000002
 40
0.3750000000000002
 40
0.5000000000000001
 40
0.5000000000000001
 40
0.75
 40
0.75
 40
1.0
 40
1.0
 40
1.0
 40
1.0
 10
179.9759454108199
 20
115.5203293394506
 30
0.0
 10
179.8147129333354
 20
114.7079195642038
 30
0.0
 10
179.6942330936958
 20
113.8678412698191
 30
0.0
 10
179.5718525763825
 20
112.5665462204563
 30
0.0
 10
179.5408749159851
 20
112.1258651848715
 30
0.0
 10
179.4992611783571
 20
111.2300255439403
 30
0.0
 10
179.4890252654243
 20
110.7833674127379
 30
0.0
 10
179.4888368683682
 20
109.448057455598
 30
0.0
 10
179.5289815710058
 20
108.5635620822905
 30
0.0
 10
179.6931353259453
 20
106.8063121942644
 30
0.0
 10
179.8146869763549
 20
105.9605212478513
 30
0.0
 10
179.9759454108199
 20
105.1479806819285
 30
0.0
  0
LINE
  5
A4
330
1F
100
AcDbEntity
  8
0
  6
Continuous
 62
     7
370
    15
100
AcDbLine
 10
179.0972657663
 20
116.819333146
 30
0.0
 11
179.0972657663
 21
103.8489768754
 31
0.0
  0
LINE
  5
A5
330
1F
100
AcDbEntity
  8
0
  6
Continuous
 62
     7
370
    15
100
AcDbLine
 10
144.7972662908
 20
116.3884656044
 30
0.0
 11
144.7972662908
 21
104.2798444169
 31
0.0
  0
LINE
  5
A6
330
1F
100
AcDbEntity
  8
0
  6
Continuous
 62
     7
370
    15
100
AcDbLine
 10
143.2972669763
 20
115.9554527613
 30
0.0
 11
143.2972669763
 21
104.7128572601
 31
0.0
  0
LINE
  5
A7
330
1F
100
AcDbEntity
  8
0
  6
Continuous
 62
     7
370
    15
100
AcDbLine
 10
179.0972657663
 20
116.819333146
 30
0.0
 11
179.0972657663
 21
132.3542546953
 31
0.0
  0
ARC
  5
A8
330
1F
100
AcDbEntity
  8
0
  6
Continuous
 62
     7
370
    15
100
AcDbCircle
 10
179.2972026653
 20
132.3592769064
 30
0.0
 40
0.2000000000000059
100
AcDbArc
 50
181.4391666667
 51
271.4391666667
  0
LINE
  5
A9
330
1F
100
AcDbEntity
  8
0
  6
Continuous
 62
     7
370
    15
100
AcDbLine
 10
144.7972662908
 20
116.3884656044
 30
0.0
 11
144.7972662908
 21
131.4925186808
 31
0.0
  0
LINE
  5
AA
330
1F
100
AcDbEntity
  8
0
  6
Continuous
 62
     7
370
    15
100
AcDbLine
 10
144.7972662908
 20
131.4925186808
 30
0.0
 11
179.0972657663
 21
132.3542546953
 31
0.0
  0
LINE
  5
AB
330
1F
100
AcDbEntity
  8
0
  6
Continuous
 62
     7
370
    15
100
AcDbLine
 10
179.0972657663
 20
88.3140553261
 30
0.0
 11
179.0972657663
 21
103.8489768754
 31
0.0
  0
ARC
  5
AC
330
1F
100
AcDbEntity
  8
0
  6
Continuous
 62
     7
370
    15
100
AcDbCircle
 10
179.2972026653
 20
88.309033115
 30
0.0
 40
0.2000000000000055
100
AcDbArc
 50
88.5608333333
 51
178.5608333333
  0
LINE
  5
AD
330
1F
100
AcDbEntity
  8
0
  6
Continuous
 62
     7
370
    15
100
AcDbLine
 10
144.7972662908
 20
89.1757913406
 30
0.0
 11
144.7972662908
 21
104.2798444169
 31
0.0
  0
LINE
  5
AE
330
1F
100
AcDbEntity
  8
0
  6
Continuous
 62
     7
370
    15
100
AcDbLine
 10
144.7972662908
 20
89.1757913406
 30
0.0
 11
179.0972657663
 21
88.3140553261
 31
0.0
  0
LINE
  5
AF
330
1F
100
AcDbEntity
  8
0
  6
Continuous
 62
     7
370
    15
100
AcDbLine
 10
179.3022258834
 20
132.1593400563
 30
0.0
 11
180.4807534835
 21
132.1889486636
 31
0.0
  0
LINE
  5
B0
330
1F
100
AcDbEntity
  8
0
  6
Continuous
 62
     7
370
    15
100
AcDbLine
 10
179.3022258834
 20
88.5089699651
 30
0.0
 11
180.4807534835
 21
88.4793613578
 31
0.0
  0
LINE
  5
B1
330
1F
100
AcDbEntity
  8
0
  6
Continuous
 62
     7
370
    15
100
AcDbLine
 10
143.2972669763
 20
130.6264929945
 30
0.0
 11
144.7972662908
 21
131.4925186808
 31
0.0
  0
LINE
  5
B2
330
1F
100
AcDbEntity
  8
0
  6
Continuous
 62
     7
370
    15
100
AcDbLine
 10
143.2972669763
 20
115.9554527613
 30
0.0
 11
143.2972669763
 21
130.6264929945
 31
0.0
  0
LINE
  5
B3
330
1F
100
AcDbEntity
  8
0
  6
Continuous
 62
     7
370
    15
100
AcDbLine
 10
143.2972669763
 20
90.0418170268
 30
0.0
 11
144.7972662908
 21
89.1757913406
 31
0.0
  0
LINE
  5
B4
330
1F
100
AcDbEntity
  8
0
  6
Continuous
 62
     7
370
    15
100
AcDbLine
 10
143.2972669763
 20
90.0418170268
 30
0.0
 11
143.2972669763
 21
104.7128572601
 31
0.0
  0
ELLIPSE
  5
B5
330
1F
100
AcDbEntity
  8
0
  6
Continuous
 62
     7
370
    15
100
AcDbEllipse
 10
218.1035052127
 20
82.8816510344
 30
0.0
 11
5.966505711939249
 21
8.612347037101415
 31
0.0
210
0.0
220
0.0
230
1.0
 40
0.0735101875
 41
1.639616595048045
 42
1.992833333393781
  0
LINE
  5
B6
330
1F
100
AcDbEntity
  8
0
  6
Continuous
 62
     7
370
    15
100
AcDbLine
 10
230.3020849985
 20
154.8291638965
 30
0.0
 11
235.6242954892
 21
145.5447532709
 31
0.0
  0
LINE
  5
B7
330
1F
100
AcDbEntity
  8
0
  6
Continuous
 62
     7
370
    15
100
AcDbLine
 10
235.6242954892
 20
145.5447532709
 30
0.0
 11
234.1043397946
 21
142.8511411424
 31
0.0
  0
ARC
  5
B8
330
1F
100
AcDbEntity
  8
0
  6
Continuous
 62
     7
370
    15
100
AcDbCircle
 10
236.0250343421
 20
141.720910085
 30
0.0
 40
2.228562269256735
100
AcDbArc
 50
149.525353141
 51
329.8591874622
  0
LINE
  5
B9
330
1F
100
AcDbEntity
  8
0
  6
Continuous
 62
     7
370
    15
100
AcDbLine
 10
237.9522815508
 20
140.6018890912
 30
0.0
 11
238.7418158514
 21
142.0010708744
 31
0.0
  0
LINE
  5
BA
330
1F
100
AcDbEntity
  8
0
  6
Continuous
 62
     7
370
    15
100
AcDbLine
 10
242.8157076401
 20
148.3600631828
 30
0.0
 11
242.3630848688
 21
148.3621530707
 31
0.0
  0
LINE
  5
BB
330
1F
100
AcDbEntity
  8
0
  6
Continuous
 62
     7
370
    15
100
AcDbLine
 10
242.8157076401
 20
148.3600631828
 30
0.0
 11
242.8157076401
 21
120.3070505063
 31
0.0
  0
SPLINE
  5
BC
330
1F
100
AcDbEntity
  8
0
  6
Continuous
 62
     7
370
    15
100
AcDbSpline
210
0.0
220
0.0
230
1.0
 70
     8
 71
     3
 72
    10
 73
     6
 74
     0
 42
0.00000001
 43
0.00000001
 12
1.0
 22
0.0
 32
0.0
 13
1.0
 23
0.0
 33
0.0
 40
0.0
 40
0.0
 40
0.0
 40
0.0
 40
0.5000000000000023
 40
0.5000000000000023
 40
1.0
 40
1.0
 40
1.0
 40
1.0
 10
219.4958645926897
 20
142.2211159997655
 30
0.0
 10
219.4389596018486
 20
142.0040346171027
 30
0.0
 10
219.3129104257362
 20
141.8095063608084
 30
0.0
 10
218.9659496015615
 20
141.529003948587
 30
0.0
 10
218.7515997213457
 20
141.4479589514088
 30
0.0
 10
218.5299387664006
 20
141.4417027061129
 30
0.0
  0
SPLINE
  5
BD
330
1F
100
AcDbEntity
  8
0
  6
Continuous
 62
     7
370
    15
100
AcDbSpline
210
0.0
220
0.0
230
1.0
 70
     8
 71
     3
 72
     8
 73
     4
 74
     0
 42
0.00000001
 43
0.00000001
 12
1.0
 22
0.0
 32
0.0
 13
1.0
 23
0.0
 33
0.0
 40
0.0
 40
0.0
 40
0.0
 40
0.0
 40
1.0
 40
1.0
 40
1.0
 40
1.0
 10
222.7159810138896
 20
154.4226989175517
 30
0.0
 10
221.6377003007981
 20
150.3568604250089
 30
0.0
 10
220.5625122557801
 20
146.2901676962073
 30
0.0
 10
219.4958645926897
 20
142.2211159997655
 30
0.0
  0
SPLINE
  5
BE
330
1F
100
AcDbEntity
  8
0
  6
Continuous
 62
     7
370
    15
100
AcDbSpline
210
0.0
220
0.0
230
1.0
 70
     8
 71
     3
 72
     8
 73
     4
 74
     0
 42
0.00000001
 43
0.00000001
 12
1.0
 22
0.0
 32
0.0
 13
1.0
 23
0.0
 33
0.0
 40
0.0
 40
0.0
 40
0.0
 40
0.0
 40
1.0
 40
1.0
 40
1.0
 40
1.0
 10
222.9302510572287
 20
154.8291653285561
 30
0.0
 10
222.8304869532294
 20
154.7132737426546
 30
0.0
 10
222.7560120664586
 20
154.573642723238
 30
0.0
 10
222.7159810138896
 20
154.4226989175517
 30
0.0
  0
LINE
  5
BF
330
1F
100
AcDbEntity
  8
0
  6
Continuous
 62
     7
370
    15
100
AcDbLine
 10
222.9302495879
 20
154.8291638965
 30
0.0
 11
230.3020849985
 21
154.8291638965
 31
0.0
  0
LINE
  5
C0
330
1F
100
AcDbEntity
  8
0
  6
Continuous
 62
     7
370
    15
100
AcDbLine
 10
242.8157076401
 20
120.3070505063
 30
0.0
 11
217.0616172415
 21
82.7269748325
 31
0.0
  0
SPLINE
  5
C1
330
1F
100
AcDbEntity
  8
0
  6
Continuous
 62
     7
370
    15
100
AcDbSpline
210
0.0
220
0.0
230
1.0
 70
     8
 71
     3
 72
     9
 73
     5
 74
     0
 42
0.00000001
 43
0.00000001
 12
1.0
 22
0.0
 32
0.0
 13
1.0
 23
0.0
 33
0.0
 40
0.0
 40
0.0
 40
0.0
 40
0.0
 40
0.4935634012136019
 40
1.0
 40
1.0
 40
1.0
 40
1.0
 10
222.930249587931
 20
154.82916389655
 30
0.0
 10
222.8830412145527
 20
154.8129720681527
 30
0.0
 10
222.7873931716422
 20
154.7801660935657
 30
0.0
 10
222.7776912499488
 20
154.7476565232231
 30
0.0
 10
222.7727778417247
 20
154.7311924869908
 30
0.0
  0
ARC
  5
C2
330
1F
100
AcDbEntity
  8
0
  6
Continuous
 62
     7
370
    15
100
AcDbCircle
 10
234.8699882036
 20
141.5135008637
 30
0.0
 40
2.210967384860567
100
AcDbArc
 50
294.0110744821
 51
330.6692273538
  0
LINE
  5
C3
330
1F
100
AcDbEntity
  8
0
  6
Continuous
 62
     7
370
    15
100
AcDbLine
 10
236.7975235147
 20
140.4304568196
 30
0.0
 11
237.5196077091
 21
141.710110801
 31
0.0
  0
ARC
  5
C4
330
1F
100
AcDbEntity
  8
0
  6
Continuous
 62
     7
370
    15
100
AcDbCircle
 10
238.1753156548
 20
150.3972577308
 30
0.0
 40
2.70925845982962
100
AcDbArc
 50
354.8645727043
 51
168.1543020563
  0
LWPOLYLINE
  5
C5
330
1F
100
AcDbEntity
  8
0
  6
Continuous
 62
     7
370
    15
100
AcDbPolyline
 90
        3
 70
   128
 43
0.0
 10
235.473920421
 20
150.1547515864
 10
235.4660377068
 20
150.2935410018
 10
235.5237536294
 20
150.9534053976
  0
CIRCLE
  5
C6
330
1F
100
AcDbEntity
  8
0
  6
Continuous
 62
     7
370
    15
100
AcDbCircle
 10
238.22384321
 20
150.3883975509
 30
0.0
 40
2.508832610925296
  0
ARC
  5
C7
330
1F
100
AcDbEntity
  8
0
  6
Continuous
 62
     7
370
    15
100
AcDbCircle
 10
238.1185435567
 20
150.4316729338
 30
0.0
 40
2.680890369817497
100
AcDbArc
 50
98.4907555247
 51
138.4627186793
  0
ARC
  5
C8
330
1F
100
AcDbEntity
  8
0
  6
Continuous
 62
     7
370
    15
100
AcDbCircle
 10
237.1790137198
 20
149.2405853544
 30
0.0
 40
0.566402852763712
100
AcDbArc
 50
2.812217852
 51
92.0570466687
  0
ARC
  5
C9
330
1F
100
AcDbEntity
  8
0
  6
Continuous
 62
     7
370
    15
100
AcDbCircle
 10
237.9669522791
 20
149.2772006593
 30
0.0
 40
0.2223930329801748
100
AcDbArc
 50
182.2744711472
 51
332.8805737856
  0
ARC
  5
CA
330
1F
100
AcDbEntity
  8
0
  6
Continuous
 62
     7
370
    15
100
AcDbCircle
 10
238.6605221382
 20
148.9268866563
 30
0.0
 40
0.5546312127252151
100
AcDbArc
 50
62.7090340389
 51
153.3311557289
  0
ARC
  5
CB
330
1F
100
AcDbEntity
  8
0
  6
Continuous
 62
     7
370
    15
100
AcDbCircle
 10
239.0149325676
 20
149.6199550979
 30
0.0
 40
0.2238097235437395
100
AcDbArc
 50
243.4303597742
 51
33.1995226834
  0
ARC
  5
CC
330
1F
100
AcDbEntity
  8
0
  6
Continuous
 62
     7
370
    15
100
AcDbCircle
 10
239.6850640593
 20
150.0496093503
 30
0.0
 40
0.572243345293267
100
AcDbArc
 50
123.8769998952
 51
212.4572380599
  0
ARC
  5
CD
330
1F
100
AcDbEntity
  8
0
  6
Continuous
 62
     7
370
    15
100
AcDbCircle
 10
239.2403019569
 20
150.7133532213
 30
0.0
 40
0.2267376098539785
100
AcDbArc
 50
303.6947659923
 51
91.7656682834
  0
ARC
  5
CE
330
1F
100
AcDbEntity
  8
0
  6
Continuous
 62
     7
370
    15
100
AcDbCircle
 10
239.2129762925
 20
151.5060117517
 30
0.0
 40
0.5663938924004199
100
AcDbArc
 50
182.8116999292
 51
272.0579597133
  0
ARC
  5
CF
330
1F
100
AcDbEntity
  8
0
  6
Continuous
 62
     7
370
    15
100
AcDbCircle
 10
238.4250463856
 20
151.4694058717
 30
0.0
 40
0.2223929253532499
100
AcDbArc
 50
2.2734740279
 51
152.8806019147
  0
ARC
  5
D0
330
1F
100
AcDbEntity
  8
0
  6
Continuous
 62
     7
370
    15
100
AcDbCircle
 10
237.7314779031
 20
151.8197156381
 30
0.0
 40
0.5546281877944738
100
AcDbArc
 50
242.7087181364
 51
333.3314716313
  0
ARC
  5
D1
330
1F
100
AcDbEntity
  8
0
  6
Continuous
 62
     7
370
    15
100
AcDbCircle
 10
237.3770660816
 20
151.1266491798
 30
0.0
 40
0.2238116355939085
100
AcDbArc
 50
63.430586967
 51
213.1985577495
  0
ARC
  5
D2
330
1F
100
AcDbEntity
  8
0
  6
Continuous
 62
     7
370
    15
100
AcDbCircle
 10
236.7069369215
 20
150.6969919965
 30
0.0
 40
0.5722409901132377
100
AcDbArc
 50
303.8768844399
 51
32.4579858465
  0
ARC
  5
D3
330
1F
100
AcDbEntity
  8
0
  6
Continuous
 62
     7
370
    15
100
AcDbCircle
 10
237.1516946881
 20
150.0332508106
 30
0.0
 40
0.2267353218754086
100
AcDbArc
 50
123.694524085
 51
271.766208373
  0
LINE
  5
D4
330
1F
100
AcDbEntity
  8
0
  6
Continuous
 62
     7
370
    15
100
AcDbLine
 10
237.2687950892
 20
151.2958899612
 30
0.0
 11
237.2435935003
 21
151.3069726999
 31
0.0
  0
ARC
  5
D5
330
1F
100
AcDbEntity
  8
0
  6
Continuous
 62
     7
370
    15
100
AcDbCircle
 10
237.5232753696
 20
151.787677859
 30
0.0
 40
0.5537287689429147
100
AcDbArc
 50
242.640269129
 51
278.414660704
  0
LWPOLYLINE
  5
D6
330
1F
100
AcDbEntity
  8
0
  6
Continuous
 62
     7
370
    15
100
AcDbPolyline
 90
        3
 70
   128
 43
0.0
 10
237.8920436067
 20
149.0677789326
 10
237.913426773
 20
149.0861818666
 10
237.9565172059
 20
149.1448887164
  0
ARC
  5
D7
330
1F
100
AcDbEntity
  8
0
  6
Continuous
 62
     7
370
    15
100
AcDbCircle
 10
238.4541384763
 20
148.8935938795
 30
0.0
 40
0.5574728906440105
100
AcDbArc
 50
98.5833118683
 51
153.206582592
  0
ARC
  5
D8
330
1F
100
AcDbEntity
  8
0
  6
Continuous
 62
     7
370
    15
100
AcDbCircle
 10
239.4766800106
 20
150.0186781404
 30
0.0
 40
0.5722368939836338
100
AcDbArc
 50
123.8766845862
 51
212.4580761708
  0
ARC
  5
D9
330
1F
100
AcDbEntity
  8
0
  6
Continuous
 62
     7
370
    15
100
AcDbCircle
 10
238.2125051429
 20
151.4354349186
 30
0.0
 40
0.2266916446515864
100
AcDbArc
 50
2.9985236919
 51
69.585504464
  0
ARC
  5
DA
330
1F
100
AcDbEntity
  8
0
  6
Continuous
 62
     7
370
    15
100
AcDbCircle
 10
239.0045984543
 20
151.4750769411
 30
0.0
 40
0.5663938924004199
100
AcDbArc
 50
182.8116999292
 51
272.0579597133
  0
ARC
  5
DB
330
1F
100
AcDbEntity
  8
0
  6
Continuous
 62
     7
370
    15
100
AcDbCircle
 10
238.8017579999
 20
149.5894764042
 30
0.0
 40
0.2275967522018024
100
AcDbArc
 50
307.4103325834
 51
32.4417093958
  0
ARC
  5
DC
330
1F
100
AcDbEntity
  8
0
  6
Continuous
 62
     7
370
    15
100
AcDbCircle
 10
239.0319222602
 20
150.6824178165
 30
0.0
 40
0.2267381465338174
100
AcDbArc
 50
303.695240044
 51
91.7651942316
  0
ARC
  5
DD
330
1F
100
AcDbEntity
  8
0
  6
Continuous
 62
     7
370
    15
100
AcDbCircle
 10
202.7562001034
 20
125.5447776452
 30
0.0
 40
2.542012768014554
100
AcDbArc
 50
1.5639260968
 51
65.6665880012
  0
ARC
  5
DE
330
1F
100
AcDbEntity
  8
0
  6
Continuous
 62
     7
370
    15
100
AcDbCircle
 10
202.2744996342
 20
125.2637884502
 30
0.0
 40
3.013894126527356
100
AcDbArc
 50
59.5119313434
 51
170.4739642808
  0
ARC
  5
DF
330
1F
100
AcDbEntity
  8
0
  6
Continuous
 62
     7
370
    15
100
AcDbCircle
 10
202.7737450936
 20
125.6528721519
 30
0.0
 40
2.375664653644284
100
AcDbArc
 50
351.7740106533
 51
66.1763771703
  0
LWPOLYLINE
  5
E0
330
1F
100
AcDbEntity
  8
0
  6
Continuous
 62
     7
370
    15
100
AcDbPolyline
 90
       12
 70
   128
 43
0.0
 10
199.538851918
 20
125.0298897276
 10
199.5127506715
 20
125.1188636298
 10
199.4372744275
 20
125.6902225788
 10
199.5159823609
 20
126.2612537022
 10
199.7446276409
 20
126.8011749263
 10
200.1108888698
 20
127.2808749701
 10
200.5950164211
 20
127.6744965936
 10
201.1709146363
 20
127.9608186806
 10
201.8075332207
 20
128.1244054909
 10
202.4705529374
 20
128.1564373995
 10
203.1242314887
 20
128.0551877345
 10
203.7333294911
 20
127.8261140461
  0
LWPOLYLINE
  5
E1
330
1F
100
AcDbEntity
  8
0
  6
Continuous
 62
     7
370
    15
100
AcDbPolyline
 90
       26
 70
   128
 43
0.0
 10
203.5525653673
 20
127.5564980234
 10
204.050795005
 20
127.2273183341
 10
204.4388417316
 20
126.8011767889
 10
204.6923272473
 20
126.3048470492
 10
204.7953222108
 20
125.769519108
 10
204.7413539303
 20
125.2288267488
 10
204.5338161451
 20
124.7167436878
 10
204.1857455087
 20
124.2654471199
 10
203.7190169257
 20
123.9032930235
 10
203.1629540187
 20
123.6530373345
 10
202.5524962855
 20
123.5304035718
 10
201.9260011775
 20
123.5430984298
 10
201.3228338373
 20
123.6903237651
 10
200.7808935058
 20
123.9628287504
 10
200.3342330617
 20
124.3434910203
 10
200.010918842
 20
124.8083923484
 10
199.8312611294
 20
125.3283208708
 10
199.8065531415
 20
125.8706076543
 10
199.9383464617
 20
126.4011793311
 10
200.218357907
 20
126.8866964157
 10
200.6289947939
 20
127.2966552998
 10
201.1444557619
 20
127.6052937384
 10
201.7323531372
 20
127.7932197328
 10
202.3557450784
 20
127.8486259754
 10
202.9754620207
 20
127.7680311824
 10
203.5525653673
 20
127.5564980234
  0
ELLIPSE
  5
E2
330
1F
100
AcDbEntity
  8
0
  6
HIDDEN
 62
     7
370
     0
100
AcDbEllipse
 10
235.5560704439
 20
110.3341550107
 30
0.0
 11
22.62876809348171
 21
31.4111213963984
 31
0.0
210
0.0
220
0.0
230
1.0
 40
0.1044964202
 41
2.266711643361623
 42
3.216730803973248
  0
SPLINE
  5
E3
330
1F
100
AcDbEntity
  8
0
  6
HIDDEN
 62
     7
370
     0
100
AcDbSpline
210
0.0
220
0.0
230
1.0
 70
     8
 71
     3
 72
    12
 73
     8
 74
     0
 42
0.00000001
 43
0.00000001
 12
1.0
 22
0.0
 32
0.0
 13
1.0
 23
0.0
 33
0.0
 40
0.0
 40
0.0
 40
0.0
 40
0.0
 40
0.25
 40
0.25
 40
0.5
 40
0.5
 40
1.0
 40
1.0
 40
1.0
 40
1.0
 10
191.825022567946
 20
140.4026469695628
 30
0.0
 10
191.7619425294526
 20
140.4026469695627
 30
0.0
 10
191.7027939072712
 20
140.3947410433503
 30
0.0
 10
191.6043213572022
 20
140.3714158819141
 30
0.0
 10
191.5652847452174
 20
140.3567030920824
 30
0.0
 10
191.4653882784384
 20
140.3087472913515
 30
0.0
 10
191.4229673973718
 20
140.2724851347714
 30
0.0
 10
191.3920098660538
 20
140.2348974708069
 30
0.0
  0
LINE
  5
E4
330
1F
100
AcDbEntity
  8
0
  6
HIDDEN
 62
     7
370
     0
100
AcDbLine
 10
194.7695089665
 20
140.4026475276
 30
0.0
 11
191.8250227508
 21
140.4026475276
 31
0.0
  0
SPLINE
  5
E5
330
1F
100
AcDbEntity
  8
0
  6
HIDDEN
 62
     7
370
     0
100
AcDbSpline
210
0.0
220
0.0
230
1.0
 70
     8
 71
     3
 72
    12
 73
     8
 74
     0
 42
0.00000001
 43
0.00000001
 12
1.0
 22
0.0
 32
0.0
 13
1.0
 23
0.0
 33
0.0
 40
0.0
 40
0.0
 40
0.0
 40
0.0
 40
0.4999999999999981
 40
0.4999999999999981
 40
0.749999999999999
 40
0.749999999999999
 40
1.0
 40
1.0
 40
1.0
 40
1.0
 10
195.2025216427054
 20
140.2348974708069
 30
0.0
 10
195.1717994007863
 20
140.2721994537599
 30
0.0
 10
195.1289621862511
 20
140.3088112858063
 30
0.0
 10
195.0295351620513
 20
140.3565760690915
 30
0.0
 10
194.9897829672346
 20
140.3715335845739
 30
0.0
 10
194.8917415103764
 20
140.394723530343
 30
0.0
 10
194.8321854547889
 20
140.4026469695628
 30
0.0
 10
194.7695089408131
 20
140.4026469695628
 30
0.0
  0
ELLIPSE
  5
E6
330
1F
100
AcDbEntity
  8
0
  6
HIDDEN
 62
     7
370
     0
100
AcDbEllipse
 10
178.950111565
 20
110.3341550107
 30
0.0
 11
14.75368316065627
 21
31.09325491558117
 31
0.0
210
0.0
220
0.0
230
1.0
 40
0.3419987131
 41
5.193281737408637
 42
6.124043104552343
  0
SPLINE
  5
E7
330
1F
100
AcDbEntity
  8
0
  6
HIDDEN
 62
     7
370
     0
100
AcDbSpline
210
0.0
220
0.0
230
1.0
 70
     8
 71
     3
 72
    12
 73
     8
 74
     0
 42
0.00000001
 43
0.00000001
 12
1.0
 22
0.0
 32
0.0
 13
1.0
 23
0.0
 33
0.0
 40
0.0
 40
0.0
 40
0.0
 40
0.0
 40
0.2500000000000018
 40
0.2500000000000018
 40
0.5000000000000037
 40
0.5000000000000037
 40
1.0
 40
1.0
 40
1.0
 40
1.0
 10
194.7695089408131
 20
119.722221442026
 30
0.0
 10
194.8325889793065
 20
119.722221442026
 30
0.0
 10
194.8917376014879
 20
119.747585761241
 30
0.0
 10
194.990210151557
 20
119.8217506216139
 30
0.0
 10
195.0292467635417
 20
119.868270962168
 30
0.0
 10
195.1291432303208
 20
120.0184133050133
 30
0.0
 10
195.1715641113874
 20
120.1301065119854
 30
0.0
 10
195.2025216427054
 20
120.2435243313752
 30
0.0
  0
LINE
  5
E8
330
1F
100
AcDbEntity
  8
0
  6
HIDDEN
 62
     7
370
     0
100
AcDbLine
 10
191.8250227508
 20
119.7222218389
 30
0.0
 11
194.7695089665
 21
119.7222218389
 31
0.0
  0
SPLINE
  5
E9
330
1F
100
AcDbEntity
  8
0
  6
HIDDEN
 62
     7
370
     0
100
AcDbSpline
210
0.0
220
0.0
230
1.0
 70
     8
 71
     3
 72
    12
 73
     8
 74
     0
 42
0.00000001
 43
0.00000001
 12
1.0
 22
0.0
 32
0.0
 13
1.0
 23
0.0
 33
0.0
 40
0.0
 40
0.0
 40
0.0
 40
0.0
 40
0.5000000000000029
 40
0.5000000000000029
 40
0.7500000000000014
 40
0.7500000000000014
 40
1.0
 40
1.0
 40
1.0
 40
1.0
 10
191.3920098660538
 20
120.2435243313752
 30
0.0
 10
191.4227321079729
 20
120.130968531966
 30
0.0
 10
191.4655693225081
 20
120.0182106722264
 30
0.0
 10
191.5649963467078
 20
119.86866978643
 30
0.0
 10
191.6047485415245
 20
119.8213770547232
 30
0.0
 10
191.7027899983827
 20
119.7476407614017
 30
0.0
 10
191.7623460539702
 20
119.722221442026
 30
0.0
 10
191.825022567946
 20
119.722221442026
 30
0.0
  0
ELLIPSE
  5
EA
330
1F
100
AcDbEntity
  8
0
  6
HIDDEN
 62
     7
370
     0
100
AcDbEllipse
 10
207.6444199437
 20
110.3341550107
 30
0.0
 11
-14.75368316065627
 21
31.09325491558117
 31
0.0
210
0.0
220
0.0
230
1.0
 40
0.3419987131
 41
0.1591422026272825
 42
1.089903569770961
  0
SPLINE
  5
EB
330
1F
100
AcDbEntity
  8
0
  6
HIDDEN
 62
     7
370
     0
100
AcDbSpline
210
0.0
220
0.0
230
1.0
 70
     8
 71
     3
 72
    12
 73
     8
 74
     0
 42
0.00000001
 43
0.00000001
 12
1.0
 22
0.0
 32
0.0
 13
1.0
 23
0.0
 33
0.0
 40
0.0
 40
0.0
 40
0.0
 40
0.0
 40
0.2500000000000014
 40
0.2500000000000014
 40
0.5000000000000028
 40
0.5000000000000028
 40
1.0
 40
1.0
 40
1.0
 40
1.0
 10
191.825022567946
 20
100.9460885793535
 30
0.0
 10
191.7619425294526
 20
100.9460885793535
 30
0.0
 10
191.7027939072712
 20
100.9207242601385
 30
0.0
 10
191.6043213572022
 20
100.8465593997656
 30
0.0
 10
191.5652847452174
 20
100.8000390592115
 30
0.0
 10
191.4653882784384
 20
100.6498967163663
 30
0.0
 10
191.4229673973718
 20
100.5382035093941
 30
0.0
 10
191.3920098660538
 20
100.4247856900043
 30
0.0
  0
LINE
  5
EC
330
1F
100
AcDbEntity
  8
0
  6
HIDDEN
 62
     7
370
     0
100
AcDbLine
 10
194.7695089665
 20
100.9460881824
 30
0.0
 11
191.8250227508
 21
100.9460881824
 31
0.0
  0
SPLINE
  5
ED
330
1F
100
AcDbEntity
  8
0
  6
HIDDEN
 62
     7
370
     0
100
AcDbSpline
210
0.0
220
0.0
230
1.0
 70
     8
 71
     3
 72
    12
 73
     8
 74
     0
 42
0.00000001
 43
0.00000001
 12
1.0
 22
0.0
 32
0.0
 13
1.0
 23
0.0
 33
0.0
 40
0.0
 40
0.0
 40
0.0
 40
0.0
 40
0.5000000000000028
 40
0.5000000000000028
 40
0.7500000000000013
 40
0.7500000000000013
 40
1.0
 40
1.0
 40
1.0
 40
1.0
 10
195.2025216427054
 20
100.4247856900043
 30
0.0
 10
195.1717994007863
 20
100.5373414894135
 30
0.0
 10
195.1289621862511
 20
100.6500993491531
 30
0.0
 10
195.0295351620513
 20
100.7996402349495
 30
0.0
 10
194.9897829672346
 20
100.8469329666564
 30
0.0
 10
194.8917415103764
 20
100.9206692599778
 30
0.0
 10
194.8321854547889
 20
100.9460885793535
 30
0.0
 10
194.7695089408131
 20
100.9460885793535
 30
0.0
  0
ELLIPSE
  5
EE
330
1F
100
AcDbEntity
  8
0
  6
HIDDEN
 62
     7
370
     0
100
AcDbEllipse
 10
178.950111565
 20
110.3341550107
 30
0.0
 11
-14.75368316065612
 21
31.09325491558117
 31
0.0
210
0.0
220
0.0
230
1.0
 40
0.3419987131
 41
3.300734856217129
 42
4.23149622336078
  0
SPLINE
  5
EF
330
1F
100
AcDbEntity
  8
0
  6
HIDDEN
 62
     7
370
     0
100
AcDbSpline
210
0.0
220
0.0
230
1.0
 70
     8
 71
     3
 72
    12
 73
     8
 74
     0
 42
0.00000001
 43
0.00000001
 12
1.0
 22
0.0
 32
0.0
 13
1.0
 23
0.0
 33
0.0
 40
0.0
 40
0.0
 40
0.0
 40
0.0
 40
0.2500000000000014
 40
0.2500000000000014
 40
0.5000000000000028
 40
0.5000000000000028
 40
1.0
 40
1.0
 40
1.0
 40
1.0
 10
194.7695089408131
 20
80.26566305181646
 30
0.0
 10
194.8325889793065
 20
80.26566305181646
 30
0.0
 10
194.8917376014879
 20
80.27356897802889
 30
0.0
 10
194.990210151557
 20
80.29689413946514
 30
0.0
 10
195.0292467635417
 20
80.31160692929683
 30
0.0
 10
195.1291432303208
 20
80.35956273002776
 30
0.0
 10
195.1715641113874
 20
80.39582488660783
 30
0.0
 10
195.2025216427054
 20
80.43341255057231
 30
0.0
  0
LINE
  5
F0
330
1F
100
AcDbEntity
  8
0
  6
HIDDEN
 62
     7
370
     0
100
AcDbLine
 10
191.8250227508
 20
80.2656624938
 30
0.0
 11
194.7695089665
 21
80.2656624938
 31
0.0
  0
SPLINE
  5
F1
330
1F
100
AcDbEntity
  8
0
  6
HIDDEN
 62
     7
370
     0
100
AcDbSpline
210
0.0
220
0.0
230
1.0
 70
     8
 71
     3
 72
    12
 73
     8
 74
     0
 42
0.00000001
 43
0.00000001
 12
1.0
 22
0.0
 32
0.0
 13
1.0
 23
0.0
 33
0.0
 40
0.0
 40
0.0
 40
0.0
 40
0.0
 40
0.5000000000000019
 40
0.5000000000000019
 40
0.7500000000000009
 40
0.7500000000000009
 40
1.0
 40
1.0
 40
1.0
 40
1.0
 10
191.3920098660538
 20
80.43341255057231
 30
0.0
 10
191.4227321079729
 20
80.39611056761927
 30
0.0
 10
191.4655693225081
 20
80.35949873557288
 30
0.0
 10
191.5649963467079
 20
80.31173395228768
 30
0.0
 10
191.6047485415245
 20
80.2967764368053
 30
0.0
 10
191.7027899983827
 20
80.27358649103617
 30
0.0
 10
191.7623460539702
 20
80.26566305181646
 30
0.0
 10
191.825022567946
 20
80.26566305181646
 30
0.0
  0
ELLIPSE
  5
F2
330
1F
100
AcDbEntity
  8
0
  6
HIDDEN
 62
     7
370
     0
100
AcDbEllipse
 10
207.6444199437
 20
110.3341550107
 30
0.0
 11
14.75368316065613
 21
31.09325491558114
 31
0.0
210
0.0
220
0.0
230
1.0
 40
0.3419987131
 41
2.05168908381882
 42
2.982450450962498
  0
SPLINE
  5
F3
330
1F
100
AcDbEntity
  8
0
  6
HIDDEN
 62
     7
370
     0
100
AcDbSpline
210
0.0
220
0.0
230
1.0
 70
    11
 71
     3
 72
    28
 73
    24
 74
     0
 42
0.00000001
 43
0.00000001
 12
1.0
 22
0.0
 32
0.0
 13
1.0
 23
0.0
 33
0.0
 40
0.0
 40
0.0
 40
0.0
 40
0.0
 40
0.0200284234207833
 40
0.056451079895398
 40
0.0736435073557989
 40
0.1272560210988229
 40
0.1809361974330936
 40
0.234660983687222
 40
0.2883120910146754
 40
0.3418860718968106
 40
0.3954999693827315
 40
0.449208349161011
 40
0.5029185879507099
 40
0.5565352387604694
 40
0.6101089929637563
 40
0.6637569228682706
 40
0.7174810296238677
 40
0.7711641636749789
 40
0.8247529367797863
 40
0.878341321856872
 40
0.9320236847370993
 40
0.9857479847371424
 40
1.0
 40
1.0
 40
1.0
 40
1.0
 10
191.3241323244947
 20
110.0850251160343
 30
0.0
 10
191.3103881713416
 20
110.1682642065072
 30
0.0
 10
191.2716496110747
 20
110.4028776080705
 30
0.0
 10
191.3699939376712
 20
110.7028561910413
 30
0.0
 10
191.4178546556325
 20
111.1490915742109
 30
0.0
 10
191.7162884715697
 20
111.6040702995517
 30
0.0
 10
192.21201103133
 20
112.0620465191007
 30
0.0
 10
192.8486843875278
 20
112.322159509529
 30
0.0
 10
193.5307750496677
 20
112.3589637585945
 30
0.0
 10
194.1872606445547
 20
112.1677456584491
 30
0.0
 10
194.7433586507992
 20
111.7705311563483
 30
0.0
 10
195.1372584905634
 20
111.2112026225387
 30
0.0
 10
195.3238018381782
 20
110.5527231426707
 30
0.0
 10
195.2819178209277
 20
109.8701105263608
 30
0.0
 10
195.0169686490665
 20
109.2401886543625
 30
0.0
 10
194.5585548709568
 20
108.7330017767834
 30
0.0
 10
193.9576368567683
 20
108.4057537573832
 30
0.0
 10
193.2820555348032
 20
108.2959499869632
 30
0.0
 10
192.609520375153
 20
108.4157290485169
 30
0.0
 10
192.0119648844071
 20
108.7508355211991
 30
0.0
 10
191.5682624523643
 20
109.2651076236575
 30
0.0
 10
191.352716454222
 20
109.7427222230388
 30
0.0
 10
191.329086595736
 20
110.0256963418235
 30
0.0
 10
191.3241323244947
 20
110.0850251160343
 30
0.0
  0
LINE
  5
F4
330
1F
100
AcDbEntity
  8
0
  6
HIDDEN
 62
     7
370
     0
100
AcDbLine
 10
181.2972657544
 20
141.3341545041
 30
0.0
 11
181.2972657544
 21
79.3341555173
 31
0.0
  0
LWPOLYLINE
  5
F5
330
1F
100
AcDbEntity
  8
0
  6
HIDDEN
 62
     7
370
     0
100
AcDbPolyline
 90
       24
 70
   128
 43
0.0
 10
205.2970498962
 20
122.6152748341
 10
205.2283369166
 20
122.0304256777
 10
205.0095562053
 20
121.4739259804
 10
204.6519097102
 20
120.9742676939
 10
204.1737109584
 20
120.5570342491
 10
203.5994388324
 20
120.2435864608
 10
202.9584970487
 20
120.0499728794
 10
202.2837016893
 20
119.9861055712
 10
201.6096010965
 20
120.0552544097
 10
200.9707082224
 20
120.2538794379
 10
200.3997329784
 20
120.5718115444
 10
199.9259077174
 20
120.9927730734
 10
199.5734933925
 20
121.4952104266
 10
199.3605334473
 20
122.0534004743
 10
199.2979280812
 20
122.6387646521
 10
199.3888866318
 20
123.2213329996
 10
199.6287487609
 20
123.7712780486
 10
200.0052359116
 20
124.2604449863
 10
200.4990715695
 20
124.6637877549
 10
201.0849721891
 20
124.9606561388
 10
201.7329398704
 20
125.1358509536
 10
202.4098009032
 20
125.1804026316
 10
203.0809007746
 20
125.0920303638
 10
203.7118792695
 20
124.875257584
  0
SPLINE
  5
F6
330
1F
100
AcDbEntity
  8
0
  6
HIDDEN
 62
     7
370
     0
100
AcDbSpline
210
0.0
220
0.0
230
1.0
 70
     8
 71
     3
 72
    18
 73
    14
 74
     0
 42
0.00000001
 43
0.00000001
 12
1.0
 22
0.0
 32
0.0
 13
1.0
 23
0.0
 33
0.0
 40
0.0
 40
0.0
 40
0.0
 40
0.0
 40
0.2499999999999977
 40
0.2499999999999977
 40
0.3749999999999977
 40
0.3749999999999977
 40
0.4999999999999977
 40
0.4999999999999977
 40
0.6249999999999977
 40
0.6249999999999977
 40
0.7499999999999976
 40
0.7499999999999976
 40
1.0
 40
1.0
 40
1.0
 40
1.0
 10
205.29705053227
 20
122.6152751770249
 30
0.0
 10
205.2940758747364
 20
122.9002773432956
 30
0.0
 10
205.2610782541843
 20
123.1792073015046
 30
0.0
 10
205.1527020488025
 20
123.5854284929503
 30
0.0
 10
205.1073788047229
 20
123.7154486584275
 30
0.0
 10
204.9976537551066
 20
123.9618075445737
 30
0.0
 10
204.9322057335699
 20
124.0797745959534
 30
0.0
 10
204.7845756181275
 20
124.2933967457501
 30
0.0
 10
204.70306706786
 20
124.3887179629349
 30
0.0
 10
204.5253279308251
 20
124.5563005450897
 30
0.0
 10
204.4283221257858
 20
124.6286212573507
 30
0.0
 10
204.1309635280782
 20
124.8013969796824
 30
0.0
 10
203.9178736646985
 20
124.862251397977
 30
0.0
 10
203.7118788811854
 20
124.8752578621787
 30
0.0
  0
LINE
  5
F7
330
1F
100
AcDbEntity
  8
0
  6
HIDDEN
 62
     7
370
     0
100
AcDbLine
 10
181.2972657544
 20
86.0841542954
 30
0.0
 11
181.2972657544
 21
134.5841557259
 31
0.0
  0
SPLINE
  5
F8
330
1F
100
AcDbEntity
  8
0
  6
HIDDEN
 62
     7
370
     0
100
AcDbSpline
210
0.0
220
0.0
230
1.0
 70
     8
 71
     3
 72
    12
 73
     8
 74
     0
 42
0.00000001
 43
0.00000001
 12
1.0
 22
0.0
 32
0.0
 13
1.0
 23
0.0
 33
0.0
 40
0.0
 40
0.0
 40
0.0
 40
0.0
 40
0.5000000000000003
 40
0.5000000000000003
 40
0.7500000000000001
 40
0.7500000000000001
 40
1.0
 40
1.0
 40
1.0
 40
1.0
 10
180.4807534679325
 20
125.7864229925204
 30
0.0
 10
180.5371596466128
 20
125.7386006188606
 30
0.0
 10
180.6073225480846
 20
125.698329771922
 30
0.0
 10
180.7253332614738
 20
125.6902839034451
 30
0.0
 10
180.7655390450692
 20
125.696846501784
 30
0.0
 10
180.8392597418023
 20
125.7242285962376
 30
0.0
 10
180.8721204635888
 20
125.743990086768
 30
0.0
 10
180.9022888655181
 20
125.766922797956
 30
0.0
  0
SPLINE
  5
F9
330
1F
100
AcDbEntity
  8
0
  6
HIDDEN
 62
     7
370
     0
100
AcDbSpline
210
0.0
220
0.0
230
1.0
 70
     8
 71
     3
 72
    16
 73
    12
 74
     0
 42
0.00000001
 43
0.00000001
 12
1.0
 22
0.0
 32
0.0
 13
1.0
 23
0.0
 33
0.0
 40
0.0
 40
0.0
 40
0.0
 40
0.0
 40
0.0625000000000046
 40
0.0625000000000046
 40
0.1250000000000092
 40
0.1250000000000092
 40
0.2500000000000101
 40
0.2500000000000101
 40
0.5000000000000119
 40
0.5000000000000119
 40
1.0
 40
1.0
 40
1.0
 40
1.0
 10
180.9022888654729
 20
125.7669227980041
 30
0.0
 10
180.9139017653123
 20
125.7757504209855
 30
0.0
 10
180.9272529497448
 20
125.7835848028674
 30
0.0
 10
180.9566527893639
 20
125.7918949289398
 30
0.0
 10
180.9714935139192
 20
125.7913991097047
 30
0.0
 10
181.0073267218878
 20
125.7799481387354
 30
0.0
 10
181.0214399297094
 20
125.7632676378767
 30
0.0
 10
181.0559313009283
 20
125.7111469521197
 30
0.0
 10
181.0670153720387
 20
125.6713574580947
 30
0.0
 10
181.0931381898347
 20
125.5480208259976
 30
0.0
 10
181.0972657543796
 20
125.460599415499
 30
0.0
 10
181.0972657543796
 20
125.3718621731807
 30
0.0
  0
LINE
  5
FA
330
1F
100
AcDbEntity
  8
0
  6
HIDDEN
 62
     7
370
     0
100
AcDbLine
 10
181.0972657594
 20
95.2964479576
 30
0.0
 11
181.0972657594
 21
125.3718620638
 31
0.0
  0
SPLINE
  5
FB
330
1F
100
AcDbEntity
  8
0
  6
HIDDEN
 62
     7
370
     0
100
AcDbSpline
210
0.0
220
0.0
230
1.0
 70
     8
 71
     3
 72
    16
 73
    12
 74
     0
 42
0.00000001
 43
0.00000001
 12
1.0
 22
0.0
 32
0.0
 13
1.0
 23
0.0
 33
0.0
 40
0.0
 40
0.0
 40
0.0
 40
0.0
 40
0.5000000000000021
 40
0.5000000000000021
 40
0.749999999999998
 40
0.749999999999998
 40
0.874999999999996
 40
0.874999999999996
 40
0.9374999999999981
 40
0.9374999999999981
 40
1.0
 40
1.0
 40
1.0
 40
1.0
 10
181.0972657543796
 20
95.29644784819834
 30
0.0
 10
181.0972657543796
 20
95.2073214830096
 30
0.0
 10
181.0931194793016
 20
95.12046011539618
 30
0.0
 10
181.0671538839081
 20
94.99747786890214
 30
0.0
 10
181.0556929785306
 20
94.95670657367086
 30
0.0
 10
181.0213812407563
 20
94.9050022536711
 30
0.0
 10
181.0073565048266
 20
94.8883318870807
 30
0.0
 10
180.9713335417929
 20
94.87687966662396
 30
0.0
 10
180.9565790327032
 20
94.87642662034892
 30
0.0
 10
180.9272268715563
 20
94.88474194156508
 30
0.0
 10
180.9138869970523
 20
94.8925708266434
 30
0.0
 10
180.9022888655039
 20
94.90138722340602
 30
0.0
  0
SPLINE
  5
FC
330
1F
100
AcDbEntity
  8
0
  6
HIDDEN
 62
     7
370
     0
100
AcDbSpline
210
0.0
220
0.0
230
1.0
 70
     8
 71
     3
 72
    12
 73
     8
 74
     0
 42
0.00000001
 43
0.00000001
 12
1.0
 22
0.0
 32
0.0
 13
1.0
 23
0.0
 33
0.0
 40
0.0
 40
0.0
 40
0.0
 40
0.0
 40
0.2499999999999996
 40
0.2499999999999996
 40
0.4999999999999994
 40
0.4999999999999994
 40
1.0
 40
1.0
 40
1.0
 40
1.0
 10
180.902288865511
 20
94.9013872234149
 30
0.0
 10
180.8720970237938
 20
94.92433775251271
 30
0.0
 10
180.8387380543792
 20
94.94430722653692
 30
0.0
 10
180.7656007697986
 20
94.97140836016241
 30
0.0
 10
180.7253588971446
 20
94.97800910080782
 30
0.0
 10
180.6076531201761
 20
94.97004022630114
 30
0.0
 10
180.5372426423967
 20
94.9297797681333
 30
0.0
 10
180.4807534679284
 20
94.88188702885513
 30
0.0
  0
SPLINE
  5
FD
330
1F
100
AcDbEntity
  8
0
  6
HIDDEN
 62
     7
370
     0
100
AcDbSpline
210
0.0
220
0.0
230
1.0
 70
     8
 71
     3
 72
    12
 73
     8
 74
     0
 42
0.00000001
 43
0.00000001
 12
1.0
 22
0.0
 32
0.0
 13
1.0
 23
0.0
 33
0.0
 40
0.0
 40
0.0
 40
0.0
 40
0.0
 40
0.2499999999999977
 40
0.2499999999999977
 40
0.4999999999999953
 40
0.4999999999999953
 40
1.0
 40
1.0
 40
1.0
 40
1.0
 10
180.4807534679281
 20
94.88188702885533
 30
0.0
 10
180.3925995301903
 20
94.80714822100126
 30
0.0
 10
180.3322461055616
 20
94.71616772051888
 30
0.0
 10
180.2259841474948
 20
94.52725389776627
 30
0.0
 10
180.1837519809327
 20
94.43074943822569
 30
0.0
 10
180.0726812856155
 20
94.13998168405854
 30
0.0
 10
180.0197445091887
 20
93.9443148695148
 30
0.0
 10
179.9759454108199
 20
93.75024838444848
 30
0.0
  0
SPLINE
  5
FE
330
1F
100
AcDbEntity
  8
0
  6
HIDDEN
 62
     7
370
     0
100
AcDbSpline
210
0.0
220
0.0
230
1.0
 70
     8
 71
     3
 72
    12
 73
     8
 74
     0
 42
0.00000001
 43
0.00000001
 12
1.0
 22
0.0
 32
0.0
 13
1.0
 23
0.0
 33
0.0
 40
0.0
 40
0.0
 40
0.0
 40
0.0
 40
0.5000000000000007
 40
0.5000000000000007
 40
0.7500000000000003
 40
0.7500000000000003
 40
1.0
 40
1.0
 40
1.0
 40
1.0
 10
179.9759454108199
 20
88.56407405568743
 30
0.0
 10
180.0196919516565
 20
88.53747988504627
 30
0.0
 10
180.072576306888
 20
88.51771965972054
 30
0.0
 10
180.1841433942242
 20
88.49726866949145
 30
0.0
 10
180.2267269907672
 20
88.492008444835
 30
0.0
 10
180.3316437178489
 20
88.48412565091236
 30
0.0
 10
180.3931773256938
 20
88.4815615257332
 30
0.0
 10
180.4807534679199
 20
88.47936130821356
 30
0.0
  0
LINE
  5
FF
330
1F
100
AcDbEntity
  8
0
  6
HIDDEN
 62
     7
370
     0
100
AcDbLine
 10
181.0972657594
 20
87.7943344886
 30
0.0
 11
181.0972657594
 21
88.2745597983
 31
0.0
  0
LINE
  5
100
330
1F
100
AcDbEntity
  8
0
  6
HIDDEN
 62
     7
370
     0
100
AcDbLine
 10
181.0972657594
 20
132.393750223
 30
0.0
 11
181.0972657594
 21
132.8739755328
 31
0.0
  0
SPLINE
  5
101
330
1F
100
AcDbEntity
  8
0
  6
HIDDEN
 62
     7
370
     0
100
AcDbSpline
210
0.0
220
0.0
230
1.0
 70
     8
 71
     3
 72
    12
 73
     8
 74
     0
 42
0.00000001
 43
0.00000001
 12
1.0
 22
0.0
 32
0.0
 13
1.0
 23
0.0
 33
0.0
 40
0.0
 40
0.0
 40
0.0
 40
0.0
 40
0.2500000000000001
 40
0.2500000000000001
 40
0.5000000000000001
 40
0.5000000000000001
 40
1.0
 40
1.0
 40
1.0
 40
1.0
 10
180.4807534679279
 20
132.1889487131654
 30
0.0
 10
180.3920688080715
 20
132.1867206458245
 30
0.0
 10
180.3321503923481
 20
132.1842188617941
 30
0.0
 10
180.2264911650273
 20
132.1762874259581
 30
0.0
 10
180.1838499269124
 20
132.1709952710613
 30
0.0
 10
180.0726605848099
 20
132.1505903305741
 30
0.0
 10
180.0197339026889
 20
132.1308556389873
 30
0.0
 10
179.9759454108199
 20
132.1042359656917
 30
0.0
  0
SPLINE
  5
102
330
1F
100
AcDbEntity
  8
0
  6
HIDDEN
 62
     7
370
     0
100
AcDbSpline
210
0.0
220
0.0
230
1.0
 70
     8
 71
     3
 72
    12
 73
     8
 74
     0
 42
0.00000001
 43
0.00000001
 12
1.0
 22
0.0
 32
0.0
 13
1.0
 23
0.0
 33
0.0
 40
0.0
 40
0.0
 40
0.0
 40
0.0
 40
0.5000000000000004
 40
0.5000000000000004
 40
0.7500000000000016
 40
0.7500000000000016
 40
1.0
 40
1.0
 40
1.0
 40
1.0
 10
179.9759454108184
 20
126.9180616369308
 30
0.0
 10
180.0197068871171
 20
126.7241618489687
 30
0.0
 10
180.0726132027701
 20
126.5283054850318
 30
0.0
 10
180.1843244004175
 20
126.2361633385329
 30
0.0
 10
180.2268438440039
 20
126.1394454018349
 30
0.0
 10
180.3319671865713
 20
125.9527209654105
 30
0.0
 10
180.393533150289
 20
125.8603702571408
 30
0.0
 10
180.4807534679317
 20
125.7864229925211
 30
0.0
  0
SPLINE
  5
103
330
1F
100
AcDbEntity
  8
0
  6
HIDDEN
 62
     7
370
     0
100
AcDbSpline
210
0.0
220
0.0
230
1.0
 70
     8
 71
     3
 72
     8
 73
     4
 74
     0
 42
0.00000001
 43
0.00000001
 12
1.0
 22
0.0
 32
0.0
 13
1.0
 23
0.0
 33
0.0
 40
0.0
 40
0.0
 40
0.0
 40
0.0
 40
1.0
 40
1.0
 40
1.0
 40
1.0
 10
203.7118788811854
 20
124.8752578621788
 30
0.0
 10
203.4536775428571
 20
124.7799883677697
 30
0.0
 10
203.2004591114215
 20
124.6584595106572
 30
0.0
 10
202.9543277621092
 20
124.5228874710007
 30
0.0
  0
LWPOLYLINE
  5
104
330
1F
100
AcDbEntity
  8
0
  6
HIDDEN
 62
     7
370
     0
100
AcDbPolyline
 90
       19
 70
   128
 43
0.0
 10
204.5488719058
 20
121.4930879424
 10
204.2075179679
 20
121.0372651468
 10
203.7458781314
 20
120.6693880732
 10
203.1930189741
 20
120.4126233707
 10
202.583757059
 20
120.2831397305
 10
201.956453563
 20
120.2890890191
 10
201.3506114644
 20
120.4300977762
 10
200.8043795985
 20
120.6972858409
 10
200.352151708
 20
121.0738298024
 10
200.0224076373
 20
121.5360181878
 10
199.8359065664
 20
122.0547480981
 10
199.8043961984
 20
122.5973552565
 10
199.9298602504
 20
123.1296722318
 10
200.2043955189
 20
123.6181788618
 10
200.6107185197
 20
124.032116356
 10
201.1232402337
 20
124.3454179267
 10
201.7096903336
 20
124.5383553679
 10
202.3331381542
 20
124.5987805079
 10
202.9543284488
 20
124.5228870312
  0
SPLINE
  5
105
330
1F
100
AcDbEntity
  8
0
  6
HIDDEN
 62
     7
370
     0
100
AcDbSpline
210
0.0
220
0.0
230
1.0
 70
     8
 71
     3
 72
     8
 73
     4
 74
     0
 42
0.00000001
 43
0.00000001
 12
1.0
 22
0.0
 32
0.0
 13
1.0
 23
0.0
 33
0.0
 40
0.0
 40
0.0
 40
0.0
 40
0.0
 40
1.0
 40
1.0
 40
1.0
 40
1.0
 10
204.5488721447289
 20
121.4930883813604
 30
0.0
 10
204.8437448643041
 20
121.8305990176186
 30
0.0
 10
205.0968795129219
 20
122.2062537824038
 30
0.0
 10
205.2970505322713
 20
122.6152751770246
 30
0.0
  0
SPLINE
  5
106
330
1F
100
AcDbEntity
  8
0
  6
HIDDEN
 62
     7
370
     0
100
AcDbSpline
210
0.0
220
0.0
230
1.0
 70
     8
 71
     3
 72
    62
 73
    58
 74
     0
 42
0.00000001
 43
0.00000001
 12
1.0
 22
0.0
 32
0.0
 13
1.0
 23
0.0
 33
0.0
 40
-0.03125
 40
-0.03125
 40
0.0
 40
0.0
 40
0.0312500000000003
 40
0.0312500000000003
 40
0.0625000000000006
 40
0.0625000000000006
 40
0.0937500000000009
 40
0.0937500000000009
 40
0.1250000000000012
 40
0.1250000000000012
 40
0.1875000000000014
 40
0.1875000000000014
 40
0.2187500000000014
 40
0.2187500000000014
 40
0.2500000000000013
 40
0.2500000000000013
 40
0.2812500000000013
 40
0.2812500000000013
 40
0.3125000000000013
 40
0.3125000000000013
 40
0.3750000000000012
 40
0.3750000000000012
 40
0.4062500000000012
 40
0.4062500000000012
 40
0.4375000000000013
 40
0.4375000000000013
 40
0.4687500000000013
 40
0.4687500000000013
 40
0.5000000000000013
 40
0.5000000000000013
 40
0.5625000000000007
 40
0.5625000000000007
 40
0.5937500000000007
 40
0.5937500000000007
 40
0.6250000000000007
 40
0.6250000000000007
 40
0.6562500000000007
 40
0.6562500000000007
 40
0.6875000000000006
 40
0.6875000000000006
 40
0.7187500000000004
 40
0.7187500000000004
 40
0.7500000000000003
 40
0.7500000000000003
 40
0.7812500000000002
 40
0.7812500000000002
 40
0.8125
 40
0.8125
 40
0.8749999999999998
 40
0.8749999999999998
 40
0.9062499999999999
 40
0.9062499999999999
 40
0.9374999999999999
 40
0.9374999999999999
 40
0.96875
 40
0.96875
 40
1.0
 40
1.0
 40
1.03125
 40
1.03125
 10
202.1312219354436
 20
116.8221226365983
 30
0.0
 10
202.4633095733159
 20
116.8221226365982
 30
0.0
 10
202.626406303893
 20
116.8103314959263
 30
0.0
 10
202.9470026088015
 20
116.7639628521906
 30
0.0
 10
203.1062048121079
 20
116.7287781894899
 30
0.0
 10
203.408515313822
 20
116.6365663390522
 30
0.0
 10
203.5517668880664
 20
116.5798788869286
 30
0.0
 10
203.8228777291336
 20
116.4443310976018
 30
0.0
 10
203.9505597242624
 20
116.3651181437768
 30
0.0
 10
204.2945598124776
 20
116.101598832177
 30
0.0
 10
204.480561441062
 20
115.8840777525079
 30
0.0
 10
204.6680479542436
 20
115.5178952492159
 30
0.0
 10
204.7165198989957
 20
115.3872280505999
 30
0.0
 10
204.7810818784094
 20
115.11622491003
 30
0.0
 10
204.7971603786293
 20
114.9775219150835
 30
0.0
 10
204.797370107543
 20
114.6935573328656
 30
0.0
 10
204.7809385601321
 20
114.5469877239137
 30
0.0
 10
204.7167698699798
 20
114.2599725444925
 30
0.0
 10
204.6693009071884
 20
114.1182246811221
 30
0.0
 10
204.4801774232341
 20
113.6992336785914
 30
0.0
 10
204.296037530868
 20
113.4387217717752
 30
0.0
 10
203.949301947064
 20
113.1037653601861
 30
0.0
 10
203.8239849909123
 20
113.0032131640599
 30
0.0
 10
203.5539254881124
 20
112.8250311043714
 30
0.0
 10
203.4075521122312
 20
112.7469406592971
 30
0.0
 10
203.1061342091776
 20
112.6218112983131
 30
0.0
 10
202.9502820477386
 20
112.5738835328762
 30
0.0
 10
202.6279389864223
 20
112.5087139891091
 30
0.0
 10
202.4619875193528
 20
112.4920673829179
 30
0.0
 10
201.9710661518016
 20
112.4918527961692
 30
0.0
 10
201.6405831646988
 20
112.5588767712813
 30
0.0
 10
201.1886736671003
 20
112.7461166500389
 30
0.0
 10
201.042376449721
 20
112.8239849426846
 30
0.0
 10
200.7714928871646
 20
113.0024680315506
 30
0.0
 10
200.6461363650068
 20
113.1030206867014
 30
0.0
 10
200.4153587235176
 20
113.3256970299555
 30
0.0
 10
200.3105708434475
 20
113.4477465474312
 30
0.0
 10
200.1299072192654
 20
113.7024053420538
 30
0.0
 10
200.0527187220701
 20
113.8361838786136
 30
0.0
 10
199.9258553177789
 20
114.1164460493749
 30
0.0
 10
199.8781939638465
 20
114.2586342006946
 30
0.0
 10
199.813963596784
 20
114.5447419225462
 30
0.0
 10
199.7973303829049
 20
114.6905465647978
 30
0.0
 10
199.7972015078934
 20
114.9760706864512
 30
0.0
 10
199.8132824870223
 20
115.1148302681042
 30
0.0
 10
199.8772498994907
 20
115.3847138013131
 30
0.0
 10
199.9258139497343
 20
115.51636271465
 30
0.0
 10
200.1135447917769
 20
115.8836934295556
 30
0.0
 10
200.2994906292725
 20
116.1010961830653
 30
0.0
 10
200.6432658513769
 20
116.3646441564279
 30
0.0
 10
200.7704411557445
 20
116.4436541128691
 30
0.0
 10
201.0420835650191
 20
116.579608594068
 30
0.0
 10
201.1852427359662
 20
116.6362512338503
 30
0.0
 10
201.486369678504
 20
116.7282597199725
 30
0.0
 10
201.6458859071956
 20
116.7636747961925
 30
0.0
 10
201.9677517994274
 20
116.8103276003182
 30
0.0
 10
202.1312219354436
 20
116.8221226365983
 30
0.0
 10
202.4633095733159
 20
116.8221226365982
 30
0.0
  0
SPLINE
  5
107
330
1F
100
AcDbEntity
  8
0
  6
HIDDEN
 62
     7
370
     0
100
AcDbSpline
210
0.0
220
0.0
230
1.0
 70
     8
 71
     3
 72
    14
 73
    10
 74
     0
 42
0.00000001
 43
0.00000001
 12
1.0
 22
0.0
 32
0.0
 13
1.0
 23
0.0
 33
0.0
 40
0.0
 40
0.0
 40
0.0
 40
0.0
 40
0.25
 40
0.25
 40
0.5
 40
0.5
 40
0.75
 40
0.75
 40
1.0
 40
1.0
 40
1.0
 40
1.0
 10
204.4224882484579
 20
119.6433442454655
 30
0.0
 10
204.3748068324869
 20
119.7048015363022
 30
0.0
 10
204.3288438645979
 20
119.7803814796421
 30
0.0
 10
204.2607511119656
 20
119.971096140832
 30
0.0
 10
204.2401999604496
 20
120.085012738103
 30
0.0
 10
204.2401227222309
 20
120.3575197042578
 30
0.0
 10
204.2612466096455
 20
120.5179639913075
 30
0.0
 10
204.3290868948216
 20
120.8634094753488
 30
0.0
 10
204.3746450212068
 20
121.0491240162412
 30
0.0
 10
204.4224882484579
 20
121.2445517670124
 30
0.0
  0
SPLINE
  5
108
330
1F
100
AcDbEntity
  8
0
  6
HIDDEN
 62
     7
370
     0
100
AcDbSpline
210
0.0
220
0.0
230
1.0
 70
     8
 71
     3
 72
     8
 73
     4
 74
     0
 42
0.00000001
 43
0.00000001
 12
1.0
 22
0.0
 32
0.0
 13
1.0
 23
0.0
 33
0.0
 40
0.0
 40
0.0
 40
0.0
 40
0.0
 40
1.0
 40
1.0
 40
1.0
 40
1.0
 10
204.4224882484579
 20
121.2445517670124
 30
0.0
 10
204.46925313581
 20
121.3247970256337
 30
0.0
 10
204.5112048323659
 20
121.4077830947934
 30
0.0
 10
204.5488721447286
 20
121.4930883813606
 30
0.0
  0
SPLINE
  5
109
330
1F
100
AcDbEntity
  8
0
  6
HIDDEN
 62
     7
370
     0
100
AcDbSpline
210
0.0
220
0.0
230
1.0
 70
     8
 71
     3
 72
    40
 73
    36
 74
     0
 42
0.00000001
 43
0.00000001
 12
1.0
 22
0.0
 32
0.0
 13
1.0
 23
0.0
 33
0.0
 40
0.0
 40
0.0
 40
0.0
 40
0.0
 40
0.0625000000000003
 40
0.0625000000000003
 40
0.1250000000000006
 40
0.1250000000000006
 40
0.1875000000000009
 40
0.1875000000000009
 40
0.2187500000000015
 40
0.2187500000000015
 40
0.2500000000000022
 40
0.2500000000000022
 40
0.3125000000000019
 40
0.3125000000000019
 40
0.3750000000000018
 40
0.3750000000000018
 40
0.4375000000000016
 40
0.4375000000000016
 40
0.5000000000000013
 40
0.5000000000000013
 40
0.5625000000000011
 40
0.5625000000000011
 40
0.6250000000000009
 40
0.6250000000000009
 40
0.6875000000000008
 40
0.6875000000000008
 40
0.7500000000000006
 40
0.7500000000000006
 40
0.8125000000000004
 40
0.8125000000000004
 40
0.8750000000000003
 40
0.8750000000000003
 40
0.9375000000000001
 40
0.9375000000000001
 40
1.0
 40
1.0
 40
1.0
 40
1.0
 10
202.9543277621096
 20
124.5228874710005
 30
0.0
 10
202.8194883857726
 20
124.4913083366778
 30
0.0
 10
202.6928184137564
 20
124.4430983769054
 30
0.0
 10
202.4600940181872
 20
124.3207432619891
 30
0.0
 10
202.3528831211302
 20
124.2455338804713
 30
0.0
 10
202.1772375572445
 20
124.0779771267052
 30
0.0
 10
202.1080783966367
 20
123.9848495322968
 30
0.0
 10
202.0527441579165
 20
123.8422673125467
 30
0.0
 10
202.0425689166095
 20
123.7948734541799
 30
0.0
 10
202.0400221262172
 20
123.7009397601896
 30
0.0
 10
202.0479210880702
 20
123.6540646207087
 30
0.0
 10
202.0965219762296
 20
123.5193539637395
 30
0.0
 10
202.1625235373633
 20
123.4347403876385
 30
0.0
 10
202.3326868362097
 20
123.2709538691461
 30
0.0
 10
202.4361370847795
 20
123.1912521695598
 30
0.0
 10
202.6676291639527
 20
123.0231500972729
 30
0.0
 10
202.7943610737192
 20
122.9359557713298
 30
0.0
 10
203.0592551358121
 20
122.7494802143827
 30
0.0
 10
203.199894318625
 20
122.6485623769795
 30
0.0
 10
203.482875832778
 20
122.4319597520027
 30
0.0
 10
203.6248545678769
 20
122.3168062160018
 30
0.0
 10
203.9063710956293
 20
122.0654961862795
 30
0.0
 10
204.0395949937975
 20
121.9349211370897
 30
0.0
 10
204.2858807720565
 20
121.6605163217493
 30
0.0
 10
204.395033801011
 20
121.5206067489391
 30
0.0
 10
204.5761766435958
 20
121.2428472018436
 30
0.0
 10
204.6480044136925
 20
121.1049742301009
 30
0.0
 10
204.7496222198674
 20
120.8421462566612
 30
0.0
 10
204.7801997108805
 20
120.7154464054747
 30
0.0
 10
204.8033503003671
 20
120.4781407313688
 30
0.0
 10
204.7964892341087
 20
120.3649156911998
 30
0.0
 10
204.7483097395927
 20
120.1484685829835
 30
0.0
 10
204.7075934158244
 20
120.0462971232334
 30
0.0
 10
204.5919580390656
 20
119.844610049425
 30
0.0
 10
204.5167661418916
 20
119.7451556988368
 30
0.0
 10
204.4224882484579
 20
119.6433442454654
 30
0.0
  0
LWPOLYLINE
  5
10A
330
1F
100
AcDbEntity
  8
0
  6
HIDDEN
 62
     7
370
     0
100
AcDbPolyline
 90
        9
 70
   128
 43
0.0
 10
204.4224877072
 20
121.2445514749
 10
204.5883953733
 20
120.9069349344
 10
204.7106035215
 20
120.5925930763
 10
204.7854334277
 20
120.3109955887
 10
204.8106294287
 20
120.0706258888
 10
204.7854334277
 20
119.8787240783
 10
204.7106035215
 20
119.7410727392
 10
204.5883953733
 20
119.6618162568
 10
204.4224877072
 20
119.6433444048
  0
LINE
  5
10B
330
1F
100
AcDbEntity
  8
0
  6
HIDDEN
 62
     7
370
     0
100
AcDbLine
 10
181.0972657594
 20
88.2745597983
 30
0.0
 11
181.0972657594
 21
103.3122677828
 31
0.0
  0
LINE
  5
10C
330
1F
100
AcDbEntity
  8
0
  6
HIDDEN
 62
     7
370
     0
100
AcDbLine
 10
181.0972657594
 20
117.3560422386
 30
0.0
 11
181.0972657594
 21
132.393750223
 31
0.0
  0
CIRCLE
  5
10D
330
1F
100
AcDbEntity
  8
0
  6
HIDDEN
 62
     7
370
     0
100
AcDbCircle
 10
165.7972657544
 20
110.3341550107
 30
0.0
 40
4.050000000000011
  0
LINE
  5
10E
330
1F
100
AcDbEntity
  8
0
  6
HIDDEN
 62
     7
370
     0
100
AcDbLine
 10
144.8274932963
 20
125.6471060688
 30
0.0
 11
144.8274932963
 21
95.0212039525
 31
0.0
  0
LINE
  5
10F
330
1F
100
AcDbEntity
  8
0
  6
HIDDEN
 62
     7
370
     0
100
AcDbLine
 10
143.2972669763
 20
94.1377252812
 30
0.0
 11
143.2972669763
 21
126.5116695787
 31
0.0
  0
LINE
  5
110
330
1F
100
AcDbEntity
  8
0
  6
HIDDEN
 62
     7
370
     0
100
AcDbLine
 10
151.3274934304
 20
124.6805655311
 30
0.0
 11
151.3274934304
 21
95.9877444903
 31
0.0
  0
LINE
  5
111
330
1F
100
AcDbEntity
  8
0
  6
HIDDEN
 62
     7
370
     0
100
AcDbLine
 10
157.1274947536
 20
124.3341554428
 30
0.0
 11
157.1274947536
 21
96.3341545786
 31
0.0
  0
LINE
  5
112
330
1F
100
AcDbEntity
  8
0
  6
HIDDEN
 62
     7
370
     0
100
AcDbLine
 10
149.7274942857
 20
124.3341554428
 30
0.0
 11
149.7274942857
 21
96.3341545786
 31
0.0
  0
LINE
  5
113
330
1F
100
AcDbEntity
  8
0
  6
HIDDEN
 62
     7
370
     0
100
AcDbLine
 10
150.7274944497
 20
124.3341554428
 30
0.0
 11
150.7274944497
 21
96.3341545786
 31
0.0
  0
SPLINE
  5
114
330
1F
100
AcDbEntity
  8
0
  6
HIDDEN
 62
     7
370
     0
100
AcDbSpline
210
0.0
220
0.0
230
1.0
 70
     8
 71
     3
 72
    10
 73
     6
 74
     0
 42
0.00000001
 43
0.00000001
 12
1.0
 22
0.0
 32
0.0
 13
1.0
 23
0.0
 33
0.0
 40
0.0
 40
0.0
 40
0.0
 40
0.0
 40
0.5
 40
0.5
 40
1.0
 40
1.0
 40
1.0
 40
1.0
 10
169.7972657543796
 20
110.9685838877121
 30
0.0
 10
169.830413172456
 20
110.759593286704
 30
0.0
 10
169.8472720178177
 20
110.5480308206824
 30
0.0
 10
169.84725948747
 20
110.1200420547148
 30
0.0
 10
169.8303445297296
 20
109.9082839502991
 30
0.0
 10
169.7972657543796
 20
109.699726133667
 30
0.0
  0
LINE
  5
115
330
1F
100
AcDbEntity
  8
0
  6
HIDDEN
 62
     7
370
     0
100
AcDbLine
 10
170.297265814
 20
123.8341553609
 30
0.0
 11
170.297265814
 21
96.8341546605
 31
0.0
  0
SPLINE
  5
116
330
1F
100
AcDbEntity
  8
0
  6
HIDDEN
 62
     7
370
     0
100
AcDbSpline
210
0.0
220
0.0
230
1.0
 70
     8
 71
     3
 72
    10
 73
     6
 74
     0
 42
0.00000001
 43
0.00000001
 12
1.0
 22
0.0
 32
0.0
 13
1.0
 23
0.0
 33
0.0
 40
0.0
 40
0.0
 40
0.0
 40
0.0
 40
0.5
 40
0.5
 40
1.0
 40
1.0
 40
1.0
 40
1.0
 10
169.7972657543796
 20
109.699726133667
 30
0.0
 10
169.8304547168533
 20
109.9089786672495
 30
0.0
 10
169.8471554931079
 20
110.1197954281484
 30
0.0
 10
169.8473749335526
 20
110.5443277093517
 30
0.0
 10
169.8304952181592
 20
110.7590759981244
 30
0.0
 10
169.7972657543796
 20
110.9685838877121
 30
0.0
  0
SPLINE
  5
117
330
1F
100
AcDbEntity
  8
0
  6
HIDDEN
 62
     7
370
     0
100
AcDbSpline
210
0.0
220
0.0
230
1.0
 70
     8
 71
     3
 72
    68
 73
    64
 74
     0
 42
0.00000001
 43
0.00000001
 12
1.0
 22
0.0
 32
0.0
 13
1.0
 23
0.0
 33
0.0
 40
0.0
 40
0.0
 40
0.0
 40
0.0
 40
0.0312499999999998
 40
0.0312499999999998
 40
0.0624999999999995
 40
0.0624999999999995
 40
0.0937499999999993
 40
0.0937499999999993
 40
0.1249999999999991
 40
0.1249999999999991
 40
0.1562499999999989
 40
0.1562499999999989
 40
0.1874999999999987
 40
0.1874999999999987
 40
0.2187499999999985
 40
0.2187499999999985
 40
0.2499999999999983
 40
0.2499999999999983
 40
0.2812499999999983
 40
0.2812499999999983
 40
0.3124999999999983
 40
0.3124999999999983
 40
0.3437499999999983
 40
0.3437499999999983
 40
0.3749999999999983
 40
0.3749999999999983
 40
0.4062499999999983
 40
0.4062499999999983
 40
0.4374999999999983
 40
0.4374999999999983
 40
0.4687499999999983
 40
0.4687499999999983
 40
0.4999999999999983
 40
0.4999999999999983
 40
0.5624999999999984
 40
0.5624999999999984
 40
0.5937499999999984
 40
0.5937499999999984
 40
0.6249999999999983
 40
0.6249999999999983
 40
0.6562499999999983
 40
0.6562499999999983
 40
0.6874999999999983
 40
0.6874999999999983
 40
0.7187499999999983
 40
0.7187499999999983
 40
0.7499999999999983
 40
0.7499999999999983
 40
0.7812499999999986
 40
0.7812499999999986
 40
0.8124999999999988
 40
0.8124999999999988
 40
0.843749999999999
 40
0.843749999999999
 40
0.8749999999999991
 40
0.8749999999999991
 40
0.9062499999999993
 40
0.9062499999999993
 40
0.9374999999999996
 40
0.9374999999999996
 40
0.9687499999999998
 40
0.9687499999999998
 40
1.0
 40
1.0
 40
1.0
 40
1.0
 10
169.7972657543796
 20
109.699726133667
 30
0.0
 10
169.7572508020299
 20
109.4474365308514
 30
0.0
 10
169.6943090006186
 20
109.2034376804756
 30
0.0
 10
169.5249223385465
 20
108.7310192914131
 30
0.0
 10
169.417228775961
 20
108.5006059052532
 30
0.0
 10
169.1619440074232
 20
108.0659013094561
 30
0.0
 10
169.0159047769509
 20
107.8632593428047
 30
0.0
 10
168.6876833403917
 20
107.4862700520469
 30
0.0
 10
168.5034360526167
 20
107.3106120984695
 30
0.0
 10
168.1104758853084
 20
107.0003541295233
 30
0.0
 10
167.9011812883492
 20
106.8644089218734
 30
0.0
 10
167.4562958614119
 20
106.6310188264676
 30
0.0
 10
167.2194982689128
 20
106.5337722200532
 30
0.0
 10
166.7387631999936
 20
106.3871007621818
 30
0.0
 10
166.4925201068108
 20
106.3362084172394
 30
0.0
 10
165.9878033268314
 20
106.2806810670039
 30
0.0
 10
165.7316086258949
 20
106.2768561799339
 30
0.0
 10
165.2292298766947
 20
106.3162799625784
 30
0.0
 10
164.9799801775112
 20
106.3593074117896
 30
0.0
 10
164.4884523800324
 20
106.4930123812409
 30
0.0
 10
164.2531567788066
 20
106.5816822271461
 30
0.0
 10
163.8022428841444
 20
106.8007135909235
 30
0.0
 10
163.5846305336811
 20
106.9327151566071
 30
0.0
 10
163.1814233641328
 20
107.23207243761
 30
0.0
 10
162.9958118716984
 20
107.3986913650478
 30
0.0
 10
162.6558238012958
 20
107.7658027904753
 30
0.0
 10
162.500750870473
 20
107.968106536016
 30
0.0
 10
162.2344077938096
 20
108.39218721561
 30
0.0
 10
162.1214236930928
 20
108.6153468210762
 30
0.0
 10
161.9365684361619
 20
109.0847020626704
 30
0.0
 10
161.8654276746585
 20
109.3309125660059
 30
0.0
 10
161.7714672633703
 20
109.8254383923771
 30
0.0
 10
161.747457933414
 20
110.0763693874691
 30
0.0
 10
161.7468848127414
 20
110.8406147670253
 30
0.0
 10
161.84228392406
 20
111.3428390690762
 30
0.0
 10
162.1201477162611
 20
112.0504035753486
 30
0.0
 10
162.2333096723417
 20
112.2741098390894
 30
0.0
 10
162.4994408543856
 20
112.69837975041
 30
0.0
 10
162.6542686285853
 20
112.9006317124661
 30
0.0
 10
162.9944497343731
 20
113.2683424538343
 30
0.0
 10
163.1799521913228
 20
113.4349593290836
 30
0.0
 10
163.5822459923822
 20
113.734008707879
 30
0.0
 10
163.8002540406341
 20
113.8664654159074
 30
0.0
 10
164.2508524077844
 20
114.0856718166121
 30
0.0
 10
164.4854014066652
 20
114.1741569466158
 30
0.0
 10
164.9738614002175
 20
114.3076431765544
 30
0.0
 10
165.2261267959314
 20
114.3515848890482
 30
0.0
 10
165.7283074340917
 20
114.3913938855217
 30
0.0
 10
165.9807895514434
 20
114.3880496727081
 30
0.0
 10
166.4886545945129
 20
114.3328703527176
 30
0.0
 10
166.7362000676967
 20
114.2818244242482
 30
0.0
 10
167.2171676051674
 20
114.1354140360126
 30
0.0
 10
167.4531274702726
 20
114.038767831239
 30
0.0
 10
167.8996979197942
 20
113.804862886926
 30
0.0
 10
168.1093427823677
 20
113.6687378730995
 30
0.0
 10
168.5023294891222
 20
113.3586836087704
 30
0.0
 10
168.6867253929372
 20
113.1830263611953
 30
0.0
 10
169.0152758107976
 20
112.8058864385309
 30
0.0
 10
169.1612179073207
 20
112.603420233261
 30
0.0
 10
169.4161032625229
 20
112.1698439351277
 30
0.0
 10
169.5244145753312
 20
111.9385520915461
 30
0.0
 10
169.6942495527482
 20
111.4651924114129
 30
0.0
 10
169.7572449138852
 20
111.2209106145921
 30
0.0
 10
169.7972657543796
 20
110.9685838877121
 30
0.0
  0
SPLINE
  5
118
330
1F
100
AcDbEntity
  8
0
  6
HIDDEN
 62
     7
370
     0
100
AcDbSpline
210
0.0
220
0.0
230
1.0
 70
     8
 71
     3
 72
    68
 73
    64
 74
     0
 42
0.00000001
 43
0.00000001
 12
1.0
 22
0.0
 32
0.0
 13
1.0
 23
0.0
 33
0.0
 40
0.0
 40
0.0
 40
0.0
 40
0.0
 40
0.0312499999999998
 40
0.0312499999999998
 40
0.0624999999999995
 40
0.0624999999999995
 40
0.0937499999999993
 40
0.0937499999999993
 40
0.1249999999999991
 40
0.1249999999999991
 40
0.1562499999999989
 40
0.1562499999999989
 40
0.1874999999999987
 40
0.1874999999999987
 40
0.2187499999999985
 40
0.2187499999999985
 40
0.2499999999999983
 40
0.2499999999999983
 40
0.2812499999999983
 40
0.2812499999999983
 40
0.3124999999999983
 40
0.3124999999999983
 40
0.3437499999999983
 40
0.3437499999999983
 40
0.3749999999999983
 40
0.3749999999999983
 40
0.4062499999999983
 40
0.4062499999999983
 40
0.4374999999999983
 40
0.4374999999999983
 40
0.4687499999999983
 40
0.4687499999999983
 40
0.4999999999999983
 40
0.4999999999999983
 40
0.5624999999999984
 40
0.5624999999999984
 40
0.5937499999999984
 40
0.5937499999999984
 40
0.6249999999999983
 40
0.6249999999999983
 40
0.6562499999999983
 40
0.6562499999999983
 40
0.6874999999999983
 40
0.6874999999999983
 40
0.7187499999999983
 40
0.7187499999999983
 40
0.7499999999999983
 40
0.7499999999999983
 40
0.7812499999999986
 40
0.7812499999999986
 40
0.8124999999999988
 40
0.8124999999999988
 40
0.843749999999999
 40
0.843749999999999
 40
0.8749999999999991
 40
0.8749999999999991
 40
0.9062499999999993
 40
0.9062499999999993
 40
0.9374999999999996
 40
0.9374999999999996
 40
0.9687499999999998
 40
0.9687499999999998
 40
1.0
 40
1.0
 40
1.0
 40
1.0
 10
169.7972657543796
 20
110.9685838877121
 30
0.0
 10
169.7572508020299
 20
111.2208734905277
 30
0.0
 10
169.6943090006186
 20
111.4648723409035
 30
0.0
 10
169.5249223385465
 20
111.937290729966
 30
0.0
 10
169.417228775961
 20
112.1677041161259
 30
0.0
 10
169.1619440074232
 20
112.602408711923
 30
0.0
 10
169.0159047769509
 20
112.8050506785743
 30
0.0
 10
168.6876833403917
 20
113.1820399693322
 30
0.0
 10
168.5034360526167
 20
113.3576979229095
 30
0.0
 10
168.1104758853084
 20
113.6679558918558
 30
0.0
 10
167.9011812883492
 20
113.8039010995057
 30
0.0
 10
167.4562958614119
 20
114.0372911949115
 30
0.0
 10
167.2194982689128
 20
114.1345378013259
 30
0.0
 10
166.7387631999936
 20
114.2812092591973
 30
0.0
 10
166.4925201068108
 20
114.3321016041397
 30
0.0
 10
165.9878033268314
 20
114.3876289543752
 30
0.0
 10
165.7316086258949
 20
114.3914538414451
 30
0.0
 10
165.2292298766947
 20
114.3520300588007
 30
0.0
 10
164.9799801775112
 20
114.3090026095895
 30
0.0
 10
164.4884523800324
 20
114.1752976401382
 30
0.0
 10
164.2531567788066
 20
114.086627794233
 30
0.0
 10
163.8022428841444
 20
113.8675964304556
 30
0.0
 10
163.5846305336811
 20
113.735594864772
 30
0.0
 10
163.1814233641328
 20
113.4362375837691
 30
0.0
 10
162.9958118716984
 20
113.2696186563312
 30
0.0
 10
162.6558238012958
 20
112.9025072309038
 30
0.0
 10
162.500750870473
 20
112.700203485363
 30
0.0
 10
162.2344077938096
 20
112.276122805769
 30
0.0
 10
162.1214236930928
 20
112.0529632003028
 30
0.0
 10
161.9365684361619
 20
111.5836079587087
 30
0.0
 10
161.8654276746585
 20
111.3373974553732
 30
0.0
 10
161.7714672633703
 20
110.842871629002
 30
0.0
 10
161.747457933414
 20
110.59194063391
 30
0.0
 10
161.7468848127414
 20
109.8276952543538
 30
0.0
 10
161.84228392406
 20
109.3254709523028
 30
0.0
 10
162.1201477162611
 20
108.6179064460304
 30
0.0
 10
162.2333096723417
 20
108.3942001822896
 30
0.0
 10
162.4994408543856
 20
107.969930270969
 30
0.0
 10
162.6542686285853
 20
107.767678308913
 30
0.0
 10
162.9944497343731
 20
107.3999675675448
 30
0.0
 10
163.1799521913228
 20
107.2333506922955
 30
0.0
 10
163.5822459923822
 20
106.9343013135
 30
0.0
 10
163.8002540406341
 20
106.8018446054716
 30
0.0
 10
164.2508524077844
 20
106.582638204767
 30
0.0
 10
164.4854014066652
 20
106.4941530747633
 30
0.0
 10
164.9738614002175
 20
106.3606668448247
 30
0.0
 10
165.2261267959314
 20
106.3167251323309
 30
0.0
 10
165.7283074340917
 20
106.2769161358574
 30
0.0
 10
165.9807895514434
 20
106.2802603486709
 30
0.0
 10
166.4886545945129
 20
106.3354396686614
 30
0.0
 10
166.7362000676967
 20
106.3864855971308
 30
0.0
 10
167.2171676051674
 20
106.5328959853664
 30
0.0
 10
167.4531274702726
 20
106.62954219014
 30
0.0
 10
167.8996979197942
 20
106.8634471344531
 30
0.0
 10
168.1093427823677
 20
106.9995721482796
 30
0.0
 10
168.5023294891222
 20
107.3096264126087
 30
0.0
 10
168.6867253929372
 20
107.4852836601838
 30
0.0
 10
169.0152758107976
 20
107.8624235828482
 30
0.0
 10
169.1612179073207
 20
108.0648897881181
 30
0.0
 10
169.4161032625229
 20
108.4984660862514
 30
0.0
 10
169.5244145753312
 20
108.7297579298329
 30
0.0
 10
169.6942495527482
 20
109.2031176099662
 30
0.0
 10
169.7572449138852
 20
109.447399406787
 30
0.0
 10
169.7972657543796
 20
109.699726133667
 30
0.0
  0
LINE
  5
119
330
1F
100
AcDbEntity
  8
0
  6
HIDDEN
 62
     7
370
     0
100
AcDbLine
 10
171.5472655532
 20
119.3341546233
 30
0.0
 11
171.5472655532
 21
101.3341553981
 31
0.0
  0
LINE
  5
11A
330
1F
100
AcDbEntity
  8
0
  6
HIDDEN
 62
     7
370
     0
100
AcDbLine
 10
170.297265814
 20
100.0841547276
 30
0.0
 11
170.297265814
 21
120.5841552938
 31
0.0
  0
LINE
  5
11B
330
1F
100
AcDbEntity
  8
0
  6
HIDDEN
 62
     7
370
     0
100
AcDbLine
 10
208.2972664547
 20
119.3341546233
 30
0.0
 11
208.2972664547
 21
101.3341553981
 31
0.0
  0
LINE
  5
11C
330
1F
100
AcDbEntity
  8
0
  6
HIDDEN
 62
     7
370
     0
100
AcDbLine
 10
238.7418158514
 20
142.0010708744
 30
0.0
 11
242.3313491208
 21
148.362298357
 31
0.0
  0
LINE
  5
11D
330
1F
100
AcDbEntity
  8
0
  6
HIDDEN
 62
     7
370
     0
100
AcDbLine
 10
242.3630848688
 20
148.3621530707
 30
0.0
 11
242.3313491208
 21
148.362298357
 31
0.0
  0
LINE
  5
11E
330
1F
100
AcDbEntity
  8
0
  6
HIDDEN
 62
     7
370
     0
100
AcDbLine
 10
219.3959623737
 20
110.3341550107
 30
0.0
 11
219.3959623737
 21
93.6024513568
 31
0.0
  0
SPLINE
  5
11F
330
1F
100
AcDbEntity
  8
0
  6
HIDDEN
 62
     7
370
     0
100
AcDbSpline
210
0.0
220
0.0
230
1.0
 70
     8
 71
     3
 72
    10
 73
     6
 74
     0
 42
0.00000001
 43
0.00000001
 12
1.0
 22
0.0
 32
0.0
 13
1.0
 23
0.0
 33
0.0
 40
0.0
 40
0.0
 40
0.0
 40
0.0
 40
0.5
 40
0.5
 40
1.0
 40
1.0
 40
1.0
 40
1.0
 10
219.3959641701851
 20
110.3341550106896
 30
0.0
 10
219.3959641701851
 20
110.98935637527
 30
0.0
 10
219.4084248227743
 20
111.64461413282
 30
0.0
 10
219.4477625039939
 20
112.9551948918746
 30
0.0
 10
219.4742046961185
 20
113.608245192576
 30
0.0
 10
219.4958645926897
 20
114.2703650363923
 30
0.0
  0
SPLINE
  5
120
330
1F
100
AcDbEntity
  8
0
  6
HIDDEN
 62
     7
370
     0
100
AcDbSpline
210
0.0
220
0.0
230
1.0
 70
     8
 71
     3
 72
    12
 73
     8
 74
     0
 42
0.00000001
 43
0.00000001
 12
1.0
 22
0.0
 32
0.0
 13
1.0
 23
0.0
 33
0.0
 40
0.0
 40
0.0
 40
0.0
 40
0.0
 40
0.2499999999999992
 40
0.2499999999999992
 40
0.4999999999999984
 40
0.4999999999999984
 40
1.0
 40
1.0
 40
1.0
 40
1.0
 10
219.3959641701851
 20
93.60245141489382
 30
0.0
 10
219.3460824793163
 20
93.49475471600036
 30
0.0
 10
219.2879213682847
 20
93.37746635661401
 30
0.0
 10
219.1605070582216
 20
93.13003951788609
 30
0.0
 10
219.0909811637813
 20
92.99950821527804
 30
0.0
 10
218.8713447104853
 20
92.59736188988052
 30
0.0
 10
218.7101903168989
 20
92.31423671524585
 30
0.0
 10
218.5299387664006
 20
92.01162864040217
 30
0.0
  0
SPLINE
  5
121
330
1F
100
AcDbEntity
  8
0
  6
HIDDEN
 62
     7
370
     0
100
AcDbSpline
210
0.0
220
0.0
230
1.0
 70
     8
 71
     3
 72
     8
 73
     4
 74
     0
 42
0.00000001
 43
0.00000001
 12
1.0
 22
0.0
 32
0.0
 13
1.0
 23
0.0
 33
0.0
 40
0.0
 40
0.0
 40
0.0
 40
0.0
 40
1.0
 40
1.0
 40
1.0
 40
1.0
 10
219.4958645926897
 20
114.2703650363923
 30
0.0
 10
219.6217580093644
 20
118.1187919719566
 30
0.0
 10
219.9332481928679
 20
121.9739467412478
 30
0.0
 10
220.3841462938662
 20
125.8341550106895
 30
0.0
  0
SPLINE
  5
122
330
1F
100
AcDbEntity
  8
0
  6
HIDDEN
 62
     7
370
     0
100
AcDbSpline
210
0.0
220
0.0
230
1.0
 70
     8
 71
     3
 72
    20
 73
    16
 74
     0
 42
0.00000001
 43
0.00000001
 12
1.0
 22
0.0
 32
0.0
 13
1.0
 23
0.0
 33
0.0
 40
0.0
 40
0.0
 40
0.0
 40
0.0
 40
0.2500000000000003
 40
0.2500000000000003
 40
0.3750000000000004
 40
0.3750000000000004
 40
0.4375000000000003
 40
0.4375000000000003
 40
0.5000000000000001
 40
0.5000000000000001
 40
0.7499999999999999
 40
0.7499999999999999
 40
0.875
 40
0.875
 40
1.0
 40
1.0
 40
1.0
 40
1.0
 10
222.7159810138877
 20
148.240382857996
 30
0.0
 10
222.5758087357447
 20
146.7466332558901
 30
0.0
 10
222.42237360868
 20
145.1376318678571
 30
0.0
 10
222.170704647866
 20
142.5600566624839
 30
0.0
 10
222.0832032786732
 20
141.6733169638743
 30
0.0
 10
221.9460727843858
 20
140.301221233369
 30
0.0
 10
221.8993809322969
 20
139.8368462559159
 30
0.0
 10
221.8039307719012
 20
138.8938130512423
 30
0.0
 10
221.7551226709218
 20
138.4146898543697
 30
0.0
 10
221.5084710901044
 20
136.0101385180859
 30
0.0
 10
221.300801772973
 20
134.0375912104109
 30
0.0
 10
220.9710150279324
 20
131.0077439424575
 30
0.0
 10
220.8580211779396
 20
129.9858742041707
 30
0.0
 10
220.6251772056131
 20
127.9176703670554
 30
0.0
 10
220.5057758906447
 20
126.875444770512
 30
0.0
 10
220.3841462938662
 20
125.8341550106895
 30
0.0
  0
SPLINE
  5
123
330
1F
100
AcDbEntity
  8
0
  6
HIDDEN
 62
     7
370
     0
100
AcDbSpline
210
0.0
220
0.0
230
1.0
 70
     8
 71
     3
 72
    16
 73
    12
 74
     0
 42
0.00000001
 43
0.00000001
 12
1.0
 22
0.0
 32
0.0
 13
1.0
 23
0.0
 33
0.0
 40
0.0
 40
0.0
 40
0.0
 40
0.0
 40
0.0625000000000013
 40
0.0625000000000013
 40
0.1250000000000025
 40
0.1250000000000025
 40
0.2500000000000017
 40
0.2500000000000017
 40
0.5000000000000018
 40
0.5000000000000018
 40
1.0
 40
1.0
 40
1.0
 40
1.0
 10
223.6819068401786
 20
150.3744775913347
 30
0.0
 10
223.6086298343374
 20
150.3744775913347
 30
0.0
 10
223.541529353935
 20
150.3501471342597
 30
0.0
 10
223.4337843719679
 20
150.2882305213653
 30
0.0
 10
223.389990173922
 20
150.2506189018803
 30
0.0
 10
223.2740877087618
 20
150.1329140539637
 30
0.0
 10
223.2170028084892
 20
150.0477216224746
 30
0.0
 10
223.0655113039545
 20
149.7840418856685
 30
0.0
 10
222.9953112175339
 20
149.5993528101689
 30
0.0
 10
222.8205462844125
 20
149.0371352534674
 30
0.0
 10
222.7540456871232
 20
148.6460200585528
 30
0.0
 10
222.7159810138877
 20
148.2403828579961
 30
0.0
  0
SPLINE
  5
124
330
1F
100
AcDbEntity
  8
0
  6
HIDDEN
 62
     7
370
     0
100
AcDbSpline
210
0.0
220
0.0
230
1.0
 70
     8
 71
     3
 72
    18
 73
    14
 74
     0
 42
0.00000001
 43
0.00000001
 12
1.0
 22
0.0
 32
0.0
 13
1.0
 23
0.0
 33
0.0
 40
0.0
 40
0.0
 40
0.0
 40
0.0
 40
0.2364926012943215
 40
0.6947422657245058
 40
0.7905385570675335
 40
0.8557818246275135
 40
0.900538683205548
 40
0.9315248264638044
 40
0.9601800790019304
 40
0.9780174821724281
 40
0.9878133427343982
 40
0.9953456756761627
 40
1.0
 40
1.0
 40
1.0
 40
1.0
 10
222.7727778417247
 20
154.7311924869908
 30
0.0
 10
222.7538983253112
 20
154.7136171813291
 30
0.0
 10
222.6984361335255
 20
154.6619863581687
 30
0.0
 10
222.8070365131311
 20
154.6039132660831
 30
0.0
 10
223.0093436370851
 20
154.5592941762555
 30
0.0
 10
223.112656068761
 20
154.5447427242427
 30
0.0
 10
223.2097896865262
 20
154.5350394815497
 30
0.0
 10
223.3052555013937
 20
154.5281166116375
 30
0.0
 10
223.3988383242047
 20
154.5233061446064
 30
0.0
 10
223.4937980298121
 20
154.5202786547698
 30
0.0
 10
223.5726349914463
 20
154.5189430952476
 30
0.0
 10
223.6326352303197
 20
154.5185272885585
 30
0.0
 10
223.6682884646569
 20
154.5186428804039
 30
0.0
 10
223.6819051367419
 20
154.5186870272053
 30
0.0
  0
LINE
  5
125
330
1F
100
AcDbEntity
  8
0
  6
HIDDEN
 62
     7
370
     0
100
AcDbLine
 10
229.1473232371
 20
154.6577334876
 30
0.0
 11
230.3020849985
 21
154.8291638965
 31
0.0
  0
ARC
  5
126
330
1F
100
AcDbEntity
  8
0
  6
HIDDEN
 62
     7
370
     0
100
AcDbCircle
 10
234.8906730085
 20
141.5568659226
 30
0.0
 40
2.242460740520238
100
AcDbArc
 50
149.9523576115
 51
293.0774035257
  0
LINE
  5
127
330
1F
100
AcDbEntity
  8
0
  6
HIDDEN
 62
     7
370
     0
100
AcDbLine
 10
234.4695374531
 20
145.3733191366
 30
0.0
 11
235.6242954892
 21
145.5447532709
 31
0.0
  0
LINE
  5
128
330
1F
100
AcDbEntity
  8
0
  6
HIDDEN
 62
     7
370
     0
100
AcDbLine
 10
237.5196077091
 20
141.710110801
 30
0.0
 11
241.1765873593
 21
148.190867948
 31
0.0
  0
LINE
  5
129
330
1F
100
AcDbEntity
  8
0
  6
HIDDEN
 62
     7
370
     0
100
AcDbLine
 10
242.3313491208
 20
148.362298357
 30
0.0
 11
241.1765873593
 21
148.190867948
 31
0.0
  0
LINE
  5
12A
330
1F
100
AcDbEntity
  8
0
  6
HIDDEN
 62
     7
370
     0
100
AcDbLine
 10
236.954958008
 20
119.4369819487
 30
0.0
 11
242.8157076401
 21
120.3070505063
 31
0.0
  0
LINE
  5
12B
330
1F
100
AcDbEntity
  8
0
  6
HIDDEN
 62
     7
370
     0
100
AcDbLine
 10
242.8157076401
 20
148.3600631828
 30
0.0
 11
241.660949604
 21
148.1886327739
 31
0.0
  0
LINE
  5
12C
330
1F
100
AcDbEntity
  8
0
  6
HIDDEN
 62
     7
370
     0
100
AcDbLine
 10
230.830204503
 20
151.7220110173
 30
0.0
 11
230.9089645905
 21
151.7337009783
 31
0.0
  0
SPLINE
  5
12D
330
1F
100
AcDbEntity
  8
0
  6
HIDDEN
 62
     7
370
     0
100
AcDbSpline
210
0.0
220
0.0
230
1.0
 70
     8
 71
     3
 72
    18
 73
    14
 74
     0
 42
0.00000001
 43
0.00000001
 12
1.0
 22
0.0
 32
0.0
 13
1.0
 23
0.0
 33
0.0
 40
0.0
 40
0.0
 40
0.0
 40
0.0
 40
0.2500000000000016
 40
0.2500000000000016
 40
0.3750000000000004
 40
0.3750000000000004
 40
0.4999999999999993
 40
0.4999999999999993
 40
0.6249999999999982
 40
0.6249999999999982
 40
0.7499999999999971
 40
0.7499999999999971
 40
1.0
 40
1.0
 40
1.0
 40
1.0
 10
234.3161273999952
 20
154.5736900851202
 30
0.0
 10
234.0643153245802
 20
154.5251175349796
 30
0.0
 10
233.7651373019386
 20
154.4838721366456
 30
0.0
 10
233.2646282312352
 20
154.4395849238309
 30
0.0
 10
233.092880069838
 20
154.4280676834323
 30
0.0
 10
232.7397739724738
 20
154.4117624650986
 30
0.0
 10
232.556326755807
 20
154.4069951338511
 30
0.0
 10
232.1928644506917
 20
154.4049337877978
 30
0.0
 10
232.0123015840279
 20
154.4075214967699
 30
0.0
 10
231.6535156650972
 20
154.4198542629761
 30
0.0
 10
231.4754265597511
 20
154.4296991981178
 30
0.0
 10
230.9680408124053
 20
154.4683070869582
 30
0.0
 10
230.65265150308
 20
154.5072441522512
 30
0.0
 10
230.3891588400673
 20
154.5533430812509
 30
0.0
  0
ELLIPSE
  5
12E
330
1F
100
AcDbEntity
  8
0
  6
HIDDEN
 62
     7
370
     0
100
AcDbEllipse
 10
232.2972657544
 20
154.6139084938
 30
0.0
 11
2.799999981895098
 21
0.01254234474481564
 31
0.0
210
0.0
220
0.0
230
1.0
 40
0.0253871077
 41
5.51755140842512
 42
6.760998560063847
  0
LINE
  5
12F
330
1F
100
AcDbEntity
  8
0
  6
HIDDEN
 62
     7
370
     0
100
AcDbLine
 10
234.7835272712
 20
151.7037608201
 30
0.0
 11
234.7835272712
 21
154.6577334876
 31
0.0
  0
LINE
  5
130
330
1F
100
AcDbEntity
  8
0
  6
HIDDEN
 62
     7
370
     0
100
AcDbLine
 10
230.4014086885
 20
154.6577334876
 30
0.0
 11
230.4014086885
 21
152.4700269575
 31
0.0
  0
LWPOLYLINE
  5
131
330
1F
100
AcDbEntity
  8
0
  6
HIDDEN
 62
     7
370
     0
100
AcDbPolyline
 90
       21
 70
   128
 43
0.0
 10
230.9089645905
 20
151.7337009783
 10
230.3838513953
 20
151.7235607381
 10
229.9626588983
 20
151.7105147715
 10
229.6682566566
 20
151.6952708835
 10
229.5166410667
 20
151.6786598141
 10
229.516041295
 20
151.6615756328
 10
229.666490869
 20
151.6449571128
 10
229.9598165018
 20
151.6296983237
 10
230.3800925774
 20
151.6166300053
 10
230.9044942421
 20
151.6064674134
 10
231.5045342011
 20
151.5997544403
 10
232.14762734
 20
151.5968598897
 10
232.7988490624
 20
151.5979402239
 10
233.4228314621
 20
151.6029395635
 10
233.985681848
 20
151.6115785117
 10
234.4568304879
 20
151.6233988578
 10
234.8106958133
 20
151.6377486761
 10
235.0280553264
 20
151.653853106
 10
235.0971035821
 20
151.6708404298
 10
235.0140892131
 20
151.68778305
 10
234.7835272712
 20
151.7037608201
  0
ELLIPSE
  5
132
330
1F
100
AcDbEntity
  8
0
  6
HIDDEN
 62
     7
370
     0
100
AcDbEllipse
 10
232.2972657544
 20
148.6039756431
 30
0.0
 11
-2.771815418740488
 21
4.805403477891133
 31
0.0
210
0.0
220
0.0
230
1.0
 40
0.0824658796
 41
5.373175885343603
 42
5.598198502037052
  0
ELLIPSE
  5
133
330
1F
100
AcDbEntity
  8
0
  6
HIDDEN
 62
     7
370
     0
100
AcDbEllipse
 10
232.2972657544
 20
154.6139084938
 30
0.0
 11
2.799999981895098
 21
0.01254234474481564
 31
0.0
210
0.0
220
0.0
230
1.0
 40
0.0253871077
 41
2.314486111837435
 42
3.96251031472369
  0
LINE
  5
134
330
1F
100
AcDbEntity
  8
0
  6
HIDDEN
 62
     7
370
     0
100
AcDbLine
 10
229.1473232371
 20
154.6577334876
 30
0.0
 11
230.4014086885
 21
152.4700269575
 31
0.0
  0
LINE
  5
135
330
1F
100
AcDbEntity
  8
0
  6
HIDDEN
 62
     7
370
     0
100
AcDbLine
 10
230.4014086885
 20
154.6577334876
 30
0.0
 11
229.1473232371
 21
154.6577334876
 31
0.0
  0
CIRCLE
  5
136
330
1F
100
AcDbEntity
  8
0
  6
HIDDEN
 62
     7
370
     0
100
AcDbCircle
 10
237.0204026725
 20
150.2062157138
 30
0.0
 40
1.283381550944986
  0
LINE
  5
137
330
1F
100
AcDbEntity
  8
0
  6
HIDDEN
 62
     7
370
     0
100
AcDbLine
 10
241.1685481829
 20
154.6577334876
 30
0.0
 11
234.7835272712
 21
154.6577334876
 31
0.0
  0
LINE
  5
138
330
1F
100
AcDbEntity
  8
0
  6
HIDDEN
 62
     7
370
     0
100
AcDbLine
 10
241.660949604
 20
154.1579038377
 30
0.0
 11
241.1685481829
 21
154.6577334876
 31
0.0
  0
LINE
  5
139
330
1F
100
AcDbEntity
  8
0
  6
HIDDEN
 62
     7
370
     0
100
AcDbLine
 10
234.7835272712
 20
151.7037608201
 30
0.0
 11
230.830204503
 21
151.7220110173
 31
0.0
  0
LINE
  5
13A
330
1F
100
AcDbEntity
  8
0
  6
HIDDEN
 62
     7
370
     0
100
AcDbLine
 10
241.1765873593
 20
148.190867948
 30
0.0
 11
241.660949604
 21
148.1886327739
 31
0.0
  0
LINE
  5
13B
330
1F
100
AcDbEntity
  8
0
  6
HIDDEN
 62
     7
370
     0
100
AcDbLine
 10
241.660949604
 20
154.1579038377
 30
0.0
 11
241.660949604
 21
148.1886327739
 31
0.0
  0
LINE
  5
13C
330
1F
100
AcDbEntity
  8
0
  6
HIDDEN
 62
     7
370
     0
100
AcDbLine
 10
234.4695374531
 20
145.3733191366
 30
0.0
 11
232.9495780331
 21
142.6797107334
 31
0.0
  0
LINE
  5
13D
330
1F
100
AcDbEntity
  8
0
  6
HIDDEN
 62
     7
370
     0
100
AcDbLine
 10
230.830204503
 20
151.7220110173
 30
0.0
 11
234.4695374531
 21
145.3733191366
 31
0.0
  0
LWPOLYLINE
  5
13E
330
1F
100
AcDbEntity
  8
0
  6
HIDDEN
 62
     7
370
     0
100
AcDbPolyline
 90
       19
 70
   128
 43
0.0
 10
232.2972648007
 20
143.7065348501
 10
232.7381454569
 20
143.7045008416
 10
233.1258513195
 20
143.69864096
 10
233.4136150939
 20
143.6896630103
 10
233.5667319757
 20
143.6786510522
 10
233.5667319757
 20
143.6669312889
 10
233.4136150939
 20
143.6559193308
 10
233.1258513195
 20
143.6469413812
 10
232.7381454569
 20
143.6410852249
 10
232.2972648007
 20
143.6390474911
 10
231.8563841445
 20
143.6410852249
 10
231.4686820072
 20
143.6469413812
 10
231.1809145075
 20
143.6559193308
 10
231.0277976257
 20
143.6669312889
 10
231.0277976257
 20
143.6786510522
 10
231.1809145075
 20
143.6896630103
 10
231.4686820072
 20
143.69864096
 10
231.8563841445
 20
143.7045008416
 10
232.2972648007
 20
143.7065348501
  0
LWPOLYLINE
  5
13F
330
1F
100
AcDbEntity
  8
0
  6
HIDDEN
 62
     7
370
     0
100
AcDbPolyline
 90
       19
 70
   128
 43
0.0
 10
232.2972648007
 20
151.7037943478
 10
232.7381454569
 20
151.7017603392
 10
233.1258513195
 20
151.6959004576
 10
233.4136150939
 20
151.686922508
 10
233.5667319757
 20
151.6759105499
 10
233.5667319757
 20
151.6641907866
 10
233.4136150939
 20
151.6531788285
 10
233.1258513195
 20
151.6442008788
 10
232.7381454569
 20
151.6383409972
 10
232.2972648007
 20
151.6363069887
 10
231.8563841445
 20
151.6383409972
 10
231.4686820072
 20
151.6442008788
 10
231.1809145075
 20
151.6531788285
 10
231.0277976257
 20
151.6641907866
 10
231.0277976257
 20
151.6759105499
 10
231.1809145075
 20
151.686922508
 10
231.4686820072
 20
151.6959004576
 10
231.8563841445
 20
151.7017603392
 10
232.2972648007
 20
151.7037943478
  0
CIRCLE
  5
140
330
1F
100
AcDbEntity
  8
0
  6
HIDDEN
 62
     7
370
     0
100
AcDbCircle
 10
235.5443930625
 20
149.9871009077
 30
0.0
 40
1.283380436068966
  0
LINE
  5
141
330
1F
100
AcDbEntity
  8
0
  6
HIDDEN
 62
     7
370
     0
100
AcDbLine
 10
179.0972657663
 20
94.7992343928
 30
0.0
 11
179.0972657663
 21
88.3140553261
 31
0.0
  0
LINE
  5
142
330
1F
100
AcDbEntity
  8
0
  6
HIDDEN
 62
     7
370
     0
100
AcDbLine
 10
144.7972662908
 20
95.2301024
 30
0.0
 11
144.7972662908
 21
89.1757913406
 31
0.0
  0
LINE
  5
143
330
1F
100
AcDbEntity
  8
0
  6
HIDDEN
 62
     7
370
     0
100
AcDbLine
 10
143.2972669763
 20
95.6631152431
 30
0.0
 11
143.2972669763
 21
90.0418170268
 31
0.0
  0
SPLINE
  5
144
330
1F
100
AcDbEntity
  8
0
  6
HIDDEN
 62
     7
370
     0
100
AcDbSpline
210
0.0
220
0.0
230
1.0
 70
     8
 71
     3
 72
    16
 73
    12
 74
     0
 42
0.00000001
 43
0.00000001
 12
1.0
 22
0.0
 32
0.0
 13
1.0
 23
0.0
 33
0.0
 40
0.0
 40
0.0
 40
0.0
 40
0.0
 40
0.2499999999999994
 40
0.2499999999999994
 40
0.3749999999999996
 40
0.3749999999999996
 40
0.4999999999999999
 40
0.4999999999999999
 40
0.7499999999999999
 40
0.7499999999999999
 40
1.0
 40
1.0
 40
1.0
 40
1.0
 10
179.9759454108199
 20
93.75024838444848
 30
0.0
 10
179.8147129333354
 20
93.03585422225635
 30
0.0
 10
179.6942330936958
 20
92.38251195954768
 30
0.0
 10
179.5718525763825
 20
91.49425671774381
 30
0.0
 10
179.5408749159851
 20
91.21357618139196
 30
0.0
 10
179.4992611783571
 20
90.68454219155198
 30
0.0
 10
179.4890252654243
 20
90.44122121297353
 30
0.0
 10
179.4888368683682
 20
89.7731985224603
 30
0.0
 10
179.5289815710058
 20
89.40951761304085
 30
0.0
 10
179.6931353259453
 20
88.84962674049254
 30
0.0
 10
179.8146869763549
 20
88.66210544837539
 30
0.0
 10
179.9759454108199
 20
88.56407405568743
 30
0.0
  0
SPLINE
  5
145
330
1F
100
AcDbEntity
  8
0
  6
HIDDEN
 62
     7
370
     0
100
AcDbSpline
210
0.0
220
0.0
230
1.0
 70
     8
 71
     3
 72
    16
 73
    12
 74
     0
 42
0.00000001
 43
0.00000001
 12
1.0
 22
0.0
 32
0.0
 13
1.0
 23
0.0
 33
0.0
 40
0.0
 40
0.0
 40
0.0
 40
0.0
 40
0.2500000000000006
 40
0.2500000000000006
 40
0.3750000000000007
 40
0.3750000000000007
 40
0.5000000000000008
 40
0.5000000000000008
 40
0.7500000000000003
 40
0.7500000000000003
 40
1.0
 40
1.0
 40
1.0
 40
1.0
 10
179.9759454108199
 20
132.1042359656917
 30
0.0
 10
179.8147129333354
 20
132.0062203526369
 30
0.0
 10
179.6942330936958
 20
131.8194843209609
 30
0.0
 10
179.5718525763825
 20
131.406444513402
 30
0.0
 10
179.5408749159851
 20
131.2464440141691
 30
0.0
 10
179.4992611783571
 20
130.8796383630779
 30
0.0
 10
179.4890252654243
 20
130.6763012104539
 30
0.0
 10
179.4888368683682
 20
130.0090139438272
 30
0.0
 10
179.5289815710058
 20
129.4881994799392
 30
0.0
 10
179.6931353259453
 20
128.2908404644615
 30
0.0
 10
179.8146869763549
 20
127.6325708101655
 30
0.0
 10
179.9759454108199
 20
126.9180616369306
 30
0.0
  0
LINE
  5
146
330
1F
100
AcDbEntity
  8
0
  6
HIDDEN
 62
     7
370
     0
100
AcDbLine
 10
144.7972662908
 20
131.4925186808
 30
0.0
 11
144.7972662908
 21
125.4382076214
 31
0.0
  0
LINE
  5
147
330
1F
100
AcDbEntity
  8
0
  6
HIDDEN
 62
     7
370
     0
100
AcDbLine
 10
179.0972657663
 20
132.3542546953
 30
0.0
 11
179.0972657663
 21
125.8690756286
 31
0.0
  0
LINE
  5
148
330
1F
100
AcDbEntity
  8
0
  6
HIDDEN
 62
     7
370
     0
100
AcDbLine
 10
143.2972669763
 20
130.6264929945
 30
0.0
 11
143.2972669763
 21
125.0051947783
 31
0.0
  0
LINE
  5
149
330
1F
100
AcDbEntity
  8
0
  6
HIDDEN
 62
     7
370
     0
100
AcDbLine
 10
241.1685481829
 20
154.6577334876
 30
0.0
 11
240.8304594618
 21
154.6075426514
 31
0.0
  0
LINE
  5
14A
330
1F
100
AcDbEntity
  8
0
  6
HIDDEN
 62
     7
370
     0
100
AcDbLine
 10
241.3621105415
 20
154.1135393555
 30
0.0
 11
241.660949604
 21
154.1579038377
 31
0.0
  0
LINE
  5
14B
330
1F
100
AcDbEntity
  8
0
  6
HIDDEN
 62
     7
370
     0
100
AcDbLine
 10
241.3621105415
 20
154.1135393555
 30
0.0
 11
240.8271067006
 21
154.6106830711
 31
0.0
  0
SPLINE
  5
14C
330
1F
100
AcDbEntity
  8
0
  6
HIDDEN
 62
     7
370
     0
100
AcDbSpline
210
0.0
220
0.0
230
1.0
 70
     8
 71
     3
 72
    29
 73
    25
 74
     0
 42
0.00000001
 43
0.00000001
 12
1.0
 22
0.0
 32
0.0
 13
1.0
 23
0.0
 33
0.0
 40
0.0
 40
0.0
 40
0.0
 40
0.0
 40
0.0457644879628877
 40
0.091428041783391
 40
0.1370012008841622
 40
0.1824945675129722
 40
0.2279187997895434
 40
0.2732846045603344
 40
0.3186027300840176
 40
0.3638839585716852
 40
0.4091390986070184
 40
0.4543789774726387
 40
0.499614433409632
 40
0.5448563078377824
 40
0.590115437564397
 40
0.6354026470096885
 40
0.6807287404765447
 40
0.7261044944921393
 40
0.7715406502482618
 40
0.8170479061663962
 40
0.8626369106125988
 40
0.9083182547859723
 40
0.9541024658031977
 40
1.0
 40
1.0
 40
1.0
 40
1.0
 10
238.8367405402614
 20
148.9794214539557
 30
0.0
 10
238.8728510008642
 20
149.0932606634836
 30
0.0
 10
238.9449922800037
 20
149.3206880087592
 30
0.0
 10
239.054160399343
 20
149.6496418780318
 30
0.0
 10
239.1638653781589
 20
149.9691454190182
 30
0.0
 10
239.2741850878641
 20
150.2783599900887
 30
0.0
 10
239.3850987039017
 20
150.5775095574394
 30
0.0
 10
239.496611772424
 20
150.8665341609118
 30
0.0
 10
239.6087227897033
 20
151.1454497391764
 30
0.0
 10
239.7214321360576
 20
151.4142519433973
 30
0.0
 10
239.8347396869289
 20
151.6729418589861
 30
0.0
 10
239.9486454520483
 20
151.9215191246731
 30
0.0
 10
240.0631494044371
 20
152.1599837768503
 30
0.0
 10
240.1782515265528
 20
152.3883357463158
 30
0.0
 10
240.2939517970948
 20
152.6065750300917
 30
0.0
 10
240.4102501982323
 20
152.8147015081842
 30
0.0
 10
240.5271467004515
 20
153.0127155061433
 30
0.0
 10
240.6446413165976
 20
153.2006157259144
 30
0.0
 10
240.7627339011272
 20
153.3784069726879
 30
0.0
 10
240.8814249011133
 20
153.5460712600101
 30
0.0
 10
241.0007125471479
 20
153.703675908576
 30
0.0
 10
241.1206033666282
 20
153.8509689932884
 30
0.0
 10
241.2410728254609
 20
153.9888938725803
 30
0.0
 10
241.3217269784421
 20
154.072133659259
 30
0.0
 10
241.3621039011973
 20
154.1138049968486
 30
0.0
  0
SPLINE
  5
14D
330
1F
100
AcDbEntity
  8
0
  6
HIDDEN
 62
     7
370
     0
100
AcDbSpline
210
0.0
220
0.0
230
1.0
 70
     8
 71
     3
 72
    29
 73
    25
 74
     0
 42
0.00000001
 43
0.00000001
 12
1.0
 22
0.0
 32
0.0
 13
1.0
 23
0.0
 33
0.0
 40
0.0
 40
0.0
 40
0.0
 40
0.0
 40
0.052336733137603
 40
0.1040179148874405
 40
0.1550435579523513
 40
0.2054136755547027
 40
0.255128281463501
 40
0.3041873900232732
 40
0.3525910161849285
 40
0.4003391755387266
 40
0.4474318843495286
 40
0.4938691595945604
 40
0.5396510190038375
 40
0.584777481103572
 40
0.6292485652627218
 40
0.6730642917430575
 40
0.7162246817530119
 40
0.7587297575056727
 40
0.800579542281324
 40
0.8417740604949274
 40
0.8823133377690932
 40
0.9221974010130022
 40
0.9614262785079276
 40
1.0
 40
1.0
 40
1.0
 40
1.0
 10
240.8177901111479
 20
154.607475979764
 30
0.0
 10
240.7781198811348
 20
154.565206175067
 30
0.0
 10
240.6992763163631
 20
154.4811960222795
 30
0.0
 10
240.5821849129305
 20
154.3429593442008
 30
0.0
 10
240.46690009971
 20
154.1972441405143
 30
0.0
 10
240.3534515046766
 20
154.0435320338387
 30
0.0
 10
240.2418313374394
 20
153.882472479638
 30
0.0
 10
240.132041641988
 20
153.7144012178895
 30
0.0
 10
240.0240818780544
 20
153.5397294129606
 30
0.0
 10
239.9179521840564
 20
153.358841197435
 30
0.0
 10
239.8136525199691
 20
153.1721203926216
 30
0.0
 10
239.7111828924448
 20
152.9799433161673
 30
0.0
 10
239.6105432955326
 20
152.7826805143737
 30
0.0
 10
239.5117337268134
 20
152.5806961598834
 30
0.0
 10
239.4147541809906
 20
152.374348108083
 30
0.0
 10
239.3196046594268
 20
152.1639876861633
 30
0.0
 10
239.2262851388832
 20
151.9499599678611
 30
0.0
 10
239.1347956845419
 20
151.732602472357
 30
0.0
 10
239.045136037954
 20
151.5122496245138
 30
0.0
 10
238.9573071191712
 20
151.2892162669537
 30
0.0
 10
238.871305552077
 20
151.0638575687049
 30
0.0
 10
238.7871436093353
 20
150.8363506316676
 30
0.0
 10
238.7047765782501
 20
150.6074897249678
 30
0.0
 10
238.6507150803118
 20
150.451712442776
 30
0.0
 10
238.6239119504411
 20
150.3744796822218
 30
0.0
  0
ELLIPSE
  5
14E
330
1F
100
AcDbEntity
  8
0
  6
HIDDEN
 62
     7
370
     0
100
AcDbEllipse
 10
-9688.3887155427
 20
110.3341550107
 30
0.0
 11
10049.00581216104
 21
44.98549630358428
 31
0.0
210
0.0
220
0.0
230
1.0
 40
0.0001136848
 41
6.12447172123189
 42
6.128619147675991
  0
ELLIPSE
  5
14F
330
1F
100
AcDbEntity
  8
0
  6
HIDDEN
 62
     7
370
     0
100
AcDbEllipse
 10
-9688.3887155427
 20
110.3341550107
 30
0.0
 11
10049.00581216104
 21
44.98549630358428
 31
0.0
210
0.0
220
0.0
230
1.0
 40
0.0001136848
 41
6.117910474947842
 42
6.122017969318858
  0
LINE
  5
150
330
1F
100
AcDbEntity
  8
0
  6
HIDDEN
 62
     7
370
     0
100
AcDbLine
 10
143.2972669763
 20
125.0051947783
 30
0.0
 11
143.2972669763
 21
113.2361424162
 31
0.0
  0
LINE
  5
151
330
1F
100
AcDbEntity
  8
0
  6
HIDDEN
 62
     7
370
     0
100
AcDbLine
 10
143.2972669763
 20
107.4321676052
 30
0.0
 11
143.2972669763
 21
95.6631152431
 31
0.0
  0
LINE
  5
152
330
1F
100
AcDbEntity
  8
0
  6
HIDDEN
 62
     7
370
     0
100
AcDbLine
 10
144.7972662908
 20
106.3689439098
 30
0.0
 11
144.7972662908
 21
95.2301024
 31
0.0
  0
LINE
  5
153
330
1F
100
AcDbEntity
  8
0
  6
HIDDEN
 62
     7
370
     0
100
AcDbLine
 10
144.7972662908
 20
125.4382076214
 30
0.0
 11
144.7972662908
 21
114.2993661116
 31
0.0
  0
LINE
  5
154
330
1F
100
AcDbEntity
  8
0
  6
HIDDEN
 62
     7
370
     0
100
AcDbLine
 10
181.0972657594
 20
125.3718620638
 30
0.0
 11
181.0972657594
 21
95.2964479576
 31
0.0
  0
LINE
  5
155
330
1F
100
AcDbEntity
  8
0
  6
HIDDEN
 62
     7
370
     0
100
AcDbLine
 10
179.0972657663
 20
125.8690756286
 30
0.0
 11
179.0972657663
 21
94.7992343928
 31
0.0
  0
SPLINE
  5
156
330
1F
100
AcDbEntity
  8
0
  6
HIDDEN
 62
     7
370
     0
100
AcDbSpline
210
0.0
220
0.0
230
1.0
 70
     8
 71
     3
 72
    24
 73
    20
 74
     0
 42
0.00000001
 43
0.00000001
 12
1.0
 22
0.0
 32
0.0
 13
1.0
 23
0.0
 33
0.0
 40
0.0
 40
0.0
 40
0.0
 40
0.0
 40
0.125
 40
0.125
 40
0.2499999999999999
 40
0.2499999999999999
 40
0.3749999999999999
 40
0.3749999999999999
 40
0.4374999999999998
 40
0.4374999999999998
 40
0.4999999999999998
 40
0.4999999999999998
 40
0.6249999999999999
 40
0.6249999999999999
 40
0.7499999999999998
 40
0.7499999999999998
 40
0.8749999999999999
 40
0.8749999999999999
 40
1.0
 40
1.0
 40
1.0
 40
1.0
 10
149.7472657543796
 20
106.2481939575903
 30
0.0
 10
149.9850693866547
 20
106.5472010599204
 30
0.0
 10
150.2151550478659
 20
106.8515389112391
 30
0.0
 10
150.6499084464758
 20
107.4772724486351
 30
0.0
 10
150.8548412387619
 20
107.7984971759627
 30
0.0
 10
151.2199431892606
 20
108.4704229466954
 30
0.0
 10
151.3817435750522
 20
108.8257381785743
 30
0.0
 10
151.5536037796319
 20
109.3759693999267
 30
0.0
 10
151.599188971292
 20
109.5623731849072
 30
0.0
 10
151.6616637108669
 20
109.9425076870035
 30
0.0
 10
151.6783348566153
 20
110.1381774792893
 30
0.0
 10
151.6788558997918
 20
110.7166578579638
 30
0.0
 10
151.6144135989051
 20
111.0945696969325
 30
0.0
 10
151.3845645055318
 20
111.836537722031
 30
0.0
 10
151.2260438278687
 20
112.1852531821919
 30
0.0
 10
150.8618094979685
 20
112.8583455799251
 30
0.0
 10
150.6550732579049
 20
113.1832980671667
 30
0.0
 10
150.2171353121646
 20
113.8142218776285
 30
0.0
 10
149.985862584885
 20
114.1201116179692
 30
0.0
 10
149.7472657543797
 20
114.4201160637887
 30
0.0
  0
LINE
  5
157
330
1F
100
AcDbEntity
  8
0
  6
HIDDEN
 62
     7
370
     0
100
AcDbLine
 10
149.7472644014
 20
106.2481937471
 30
0.0
 11
149.7472644014
 21
114.4201162743
 31
0.0
  0
SPLINE
  5
158
330
1F
100
AcDbEntity
  8
0
  6
HIDDEN
 62
     7
370
     0
100
AcDbSpline
210
0.0
220
0.0
230
1.0
 70
     8
 71
     3
 72
     8
 73
     4
 74
     0
 42
0.00000001
 43
0.00000001
 12
1.0
 22
0.0
 32
0.0
 13
1.0
 23
0.0
 33
0.0
 40
0.0000249638557296
 40
0.0000249638557296
 40
0.0000249638557296
 40
0.0000249638557296
 40
0.0049776420541172
 40
0.0049776420541172
 40
0.0049776420541172
 40
0.0049776420541172
 10
144.7972657543796
 20
106.368944113853
 30
0.0
 10
146.4472419888891
 20
106.3276648760848
 30
0.0
 10
148.0972433086342
 20
106.2874431948453
 30
0.0
 10
149.7472657543796
 20
106.2481939575903
 30
0.0
  0
SPLINE
  5
159
330
1F
100
AcDbEntity
  8
0
  6
HIDDEN
 62
     7
370
     0
100
AcDbSpline
210
0.0
220
0.0
230
1.0
 70
     8
 71
     3
 72
     8
 73
     4
 74
     0
 42
0.00000001
 43
0.00000001
 12
1.0
 22
0.0
 32
0.0
 13
1.0
 23
0.0
 33
0.0
 40
0.0000249631533153
 40
0.0000249631533153
 40
0.0000249631533153
 40
0.0000249631533153
 40
0.0049776413517029
 40
0.0049776413517029
 40
0.0049776413517029
 40
0.0049776413517029
 10
149.7472657543796
 20
114.4201160637888
 30
0.0
 10
148.0972433086341
 20
114.3808668265338
 30
0.0
 10
146.4472419888891
 20
114.3406451452943
 30
0.0
 10
144.7972657543796
 20
114.2993659075261
 30
0.0
  0
SPLINE
  5
15A
330
1F
100
AcDbEntity
  8
0
  6
HIDDEN
 62
     7
370
     0
100
AcDbSpline
210
0.0
220
0.0
230
1.0
 70
     8
 71
     3
 72
     8
 73
     4
 74
     0
 42
0.00000001
 43
0.00000001
 12
1.0
 22
0.0
 32
0.0
 13
1.0
 23
0.0
 33
0.0
 40
0.0
 40
0.0
 40
0.0
 40
0.0
 40
1.0
 40
1.0
 40
1.0
 40
1.0
 10
143.2972657543773
 20
107.4321676777092
 30
0.0
 10
143.7640263657551
 20
107.0168044320861
 30
0.0
 10
144.2697739125352
 20
106.6722140027816
 30
0.0
 10
144.7972657543796
 20
106.368944113853
 30
0.0
  0
SPLINE
  5
15B
330
1F
100
AcDbEntity
  8
0
  6
HIDDEN
 62
     7
370
     0
100
AcDbSpline
210
0.0
220
0.0
230
1.0
 70
     8
 71
     3
 72
     8
 73
     4
 74
     0
 42
0.00000001
 43
0.00000001
 12
1.0
 22
0.0
 32
0.0
 13
1.0
 23
0.0
 33
0.0
 40
0.0
 40
0.0
 40
0.0
 40
0.0
 40
1.0
 40
1.0
 40
1.0
 40
1.0
 10
144.7972657543796
 20
114.2993659075261
 30
0.0
 10
144.269773912536
 20
113.996096018598
 30
0.0
 10
143.7640263657567
 20
113.651505589294
 30
0.0
 10
143.2972657543796
 20
113.2361423436719
 30
0.0
  0
LINE
  5
15C
330
1F
100
AcDbEntity
  8
0
  6
HIDDEN
 62
     7
370
     0
100
AcDbLine
 10
143.2972669763
 20
107.4321676052
 30
0.0
 11
143.2972669763
 21
113.2361424162
 31
0.0
  0
SPLINE
  5
15D
330
1F
100
AcDbEntity
  8
0
  6
HIDDEN
 62
     7
370
     0
100
AcDbSpline
210
0.0
220
0.0
230
1.0
 70
     8
 71
     3
 72
    72
 73
    68
 74
     0
 42
0.00000001
 43
0.00000001
 12
1.0
 22
0.0
 32
0.0
 13
1.0
 23
0.0
 33
0.0
 40
-0.0312499999999999
 40
-0.0312499999999999
 40
0.0
 40
0.0
 40
0.0312500000000001
 40
0.0312500000000001
 40
0.0625000000000002
 40
0.0625000000000002
 40
0.0937500000000002
 40
0.0937500000000002
 40
0.1250000000000003
 40
0.1250000000000003
 40
0.1562500000000004
 40
0.1562500000000004
 40
0.1875000000000004
 40
0.1875000000000004
 40
0.2187500000000005
 40
0.2187500000000005
 40
0.2500000000000006
 40
0.2500000000000006
 40
0.2812500000000006
 40
0.2812500000000006
 40
0.3125000000000007
 40
0.3125000000000007
 40
0.3437500000000008
 40
0.3437500000000008
 40
0.3750000000000008
 40
0.3750000000000008
 40
0.3906250000000009
 40
0.3906250000000009
 40
0.4062500000000009
 40
0.4062500000000009
 40
0.4375000000000009
 40
0.4375000000000009
 40
0.468750000000001
 40
0.468750000000001
 40
0.500000000000001
 40
0.500000000000001
 40
0.5312500000000011
 40
0.5312500000000011
 40
0.5625000000000011
 40
0.5625000000000011
 40
0.5937500000000012
 40
0.5937500000000012
 40
0.6250000000000013
 40
0.6250000000000013
 40
0.6562500000000013
 40
0.6562500000000013
 40
0.6875000000000012
 40
0.6875000000000012
 40
0.7187500000000011
 40
0.7187500000000011
 40
0.7500000000000009
 40
0.7500000000000009
 40
0.7812500000000008
 40
0.7812500000000008
 40
0.8125000000000007
 40
0.8125000000000007
 40
0.8437500000000006
 40
0.8437500000000006
 40
0.8750000000000003
 40
0.8750000000000003
 40
0.9062500000000002
 40
0.9062500000000002
 40
0.9375000000000002
 40
0.9375000000000002
 40
0.9687500000000001
 40
0.9687500000000001
 40
1.0
 40
1.0
 40
1.03125
 40
1.03125
 10
162.4212120732048
 20
112.7749886605044
 30
0.0
 10
162.7956422930786
 20
113.1853444609895
 30
0.0
 10
163.0004948943443
 20
113.368993543648
 30
0.0
 10
163.4433630911912
 20
113.6959484471433
 30
0.0
 10
163.6833185085095
 20
113.8397266553232
 30
0.0
 10
164.1789294912841
 20
114.0772440107691
 30
0.0
 10
164.4361957824386
 20
114.1725635756668
 30
0.0
 10
164.9695495502756
 20
114.3166491083013
 30
0.0
 10
165.2438296901739
 20
114.3643851152709
 30
0.0
 10
165.7902582247535
 20
114.4099672558047
 30
0.0
 10
166.0648345432213
 20
114.4085334957324
 30
0.0
 10
166.6168017174919
 20
114.3556201876416
 30
0.0
 10
166.8874186800637
 20
114.3046504614374
 30
0.0
 10
167.4137038511429
 20
114.1560438344938
 30
0.0
 10
167.6713354145504
 20
114.0577584637367
 30
0.0
 10
168.1672615792239
 20
113.813505104551
 30
0.0
 10
168.4002452570156
 20
113.6704249735288
 30
0.0
 10
168.8365785323406
 20
113.34256642306
 30
0.0
 10
169.0418597861989
 20
113.1555727853598
 30
0.0
 10
169.4098940840591
 20
112.7461421655368
 30
0.0
 10
169.5714090740443
 20
112.5260367245523
 30
0.0
 10
169.8485667571914
 20
112.0542866431143
 30
0.0
 10
169.9649609366251
 20
111.799270116673
 30
0.0
 10
170.1382349732718
 20
111.278032293276
 30
0.0
 10
170.1966815277375
 20
111.0105481754951
 30
0.0
 10
170.2405462532134
 20
110.5986325161627
 30
0.0
 10
170.2477264698427
 20
110.4589252130871
 30
0.0
 10
170.2467584425473
 20
110.1828021576247
 30
0.0
 10
170.2387556531336
 20
110.0456255912939
 30
0.0
 10
170.1926829212213
 20
109.6366921500307
 30
0.0
 10
170.1317480887692
 20
109.3647659010264
 30
0.0
 10
169.9536279323607
 20
108.8415853845713
 30
0.0
 10
169.8380600210183
 20
108.592873384208
 30
0.0
 10
169.556213237079
 20
108.119988859216
 30
0.0
 10
169.3893432916644
 20
107.8963796419839
 30
0.0
 10
169.0200177368656
 20
107.4917222537962
 30
0.0
 10
168.8152325805681
 20
107.3073086656267
 30
0.0
 10
168.3705796330519
 20
106.9782826307323
 30
0.0
 10
168.1357305035411
 20
106.8371145547441
 30
0.0
 10
167.6423207410641
 20
106.5987050259636
 30
0.0
 10
167.3810337873594
 20
106.5009224695587
 30
0.0
 10
166.8502955068467
 20
106.3555944413686
 30
0.0
 10
166.5806558059495
 20
106.3073050511736
 30
0.0
 10
166.0329044662043
 20
106.258889827387
 30
0.0
 10
165.7530004243457
 20
106.2593480130229
 30
0.0
 10
165.2059225165107
 20
106.3094998686251
 30
0.0
 10
164.9363174118232
 20
106.3586734356572
 30
0.0
 10
164.4051626551672
 20
106.5063479589642
 30
0.0
 10
164.1438678387236
 20
106.6055031233298
 30
0.0
 10
163.6515538605483
 20
106.8465158938065
 30
0.0
 10
163.4175969849696
 20
106.9890040184312
 30
0.0
 10
162.9754283644391
 20
107.3204914474161
 30
0.0
 10
162.7702348333275
 20
107.5079250754045
 30
0.0
 10
162.4045406169695
 20
107.9148287944549
 30
0.0
 10
162.2417699945811
 20
108.1360078691239
 30
0.0
 10
161.9608175638156
 20
108.6157551983392
 30
0.0
 10
161.8476137115421
 20
108.8657671651495
 30
0.0
 10
161.6750049874032
 20
109.3858423751699
 30
0.0
 10
161.6153987047267
 20
109.6595738397997
 30
0.0
 10
161.5575069346569
 20
110.2081914896982
 30
0.0
 10
161.5582964735169
 20
110.4825313535897
 30
0.0
 10
161.6194869491333
 20
111.0312733047287
 30
0.0
 10
161.6806156728673
 20
111.3043386185858
 30
0.0
 10
161.8566953584971
 20
111.8245038673543
 30
0.0
 10
161.9730259534871
 20
112.0768230009132
 30
0.0
 10
162.2562271832278
 20
112.5532273423202
 30
0.0
 10
162.4212120732048
 20
112.7749886605044
 30
0.0
 10
162.7956422930786
 20
113.1853444609895
 30
0.0
  0
CIRCLE
  5
15E
330
1F
100
AcDbEntity
  8
0
  6
HIDDEN
 62
     7
370
     0
100
AcDbCircle
 10
165.7972657544
 20
110.3341550107
 30
0.0
 40
4.050000000000011
  0
LINE
  5
15F
330
1F
100
AcDbEntity
  8
0
  6
HIDDEN
 62
     7
370
     0
100
AcDbLine
 10
238.6239402157
 20
150.3744766588
 30
0.0
 11
223.6819051367
 21
150.3744766588
 31
0.0
  0
SPLINE
  5
160
330
1F
100
AcDbEntity
  8
0
  6
HIDDEN
 62
     7
370
     0
100
AcDbSpline
210
0.0
220
0.0
230
1.0
 70
     8
 71
     3
 72
    11
 73
     7
 74
     0
 42
0.00000001
 43
0.00000001
 12
1.0
 22
0.0
 32
0.0
 13
1.0
 23
0.0
 33
0.0
 40
0.0
 40
0.0
 40
0.0
 40
0.0
 40
0.2497151617775117
 40
0.4996128509420136
 40
0.7497041210472077
 40
1.0
 40
1.0
 40
1.0
 40
1.0
 10
238.6243292252607
 20
150.3745598676629
 30
0.0
 10
238.6400451357753
 20
150.2619563357318
 30
0.0
 10
238.6714884442289
 20
150.0366669651793
 30
0.0
 10
238.7231536816244
 20
149.6905304993097
 30
0.0
 10
238.7778420544506
 20
149.3388535171586
 30
0.0
 10
238.8172912067848
 20
149.0991544002308
 30
0.0
 10
238.8370238483525
 20
148.9792558351525
 30
0.0
  0
ELLIPSE
  5
161
330
1F
100
AcDbEntity
  8
0
  6
HIDDEN
 62
     7
370
     0
100
AcDbEllipse
 10
242.625014107
 20
125.8341550107
 30
0.0
 11
0.1524385670371942
 21
31.99998871944242
 31
0.0
210
0.0
220
0.0
230
1.0
 40
0.1762626822
 41
0.7630903757549096
 42
1.57163599035292
  0
ELLIPSE
  5
162
330
1F
100
AcDbEntity
  8
0
  6
HIDDEN
 62
     7
370
     0
100
AcDbEllipse
 10
235.5560704439
 20
110.3341550107
 30
0.0
 11
22.98795488861634
 21
31.90971062491268
 31
0.0
210
0.0
220
0.0
230
1.0
 40
0.1044964202
 41
1.645934477178208
 42
2.196143878660861
  0
CIRCLE
  5
163
330
1F
100
AcDbEntity
  8
0
  6
HIDDEN
 62
     7
370
     0
100
AcDbCircle
 10
193.2972657544
 20
110.3341550107
 30
0.0
 40
2.0
  0
LINE
  5
164
330
1F
100
AcDbEntity
  8
0
  6
HIDDEN
 62
     7
370
     0
100
AcDbLine
 10
236.9844846589
 20
125.8341547574
 30
0.0
 11
236.954958008
 21
119.4369819487
 31
0.0
  0
LINE
  5
165
330
1F
100
AcDbEntity
  8
0
  6
HIDDEN
 62
     7
370
     0
100
AcDbLine
 10
236.954958008
 20
119.4369819487
 30
0.0
 11
230.5053815407
 21
110.3341550107
 31
0.0
  0
LINE
  5
166
330
1F
100
AcDbEntity
  8
0
  6
HIDDEN
 62
     7
370
     0
100
AcDbLine
 10
205.297265963
 20
122.5841546903
 30
0.0
 11
205.297265963
 21
126.0824025149
 31
0.0
  0
LINE
  5
167
330
1F
100
AcDbEntity
  8
0
  6
HIDDEN
 62
     7
370
     0
100
AcDbLine
 10
199.2972649795
 20
126.084155264
 30
0.0
 11
199.2972649795
 21
122.5841546903
 31
0.0
  0
LINE
  5
168
330
1F
100
AcDbEntity
  8
0
  6
HIDDEN
 62
     7
370
     0
100
AcDbLine
 10
181.2972657544
 20
86.0841542954
 30
0.0
 11
181.3901589748
 21
86.1770481343
 31
0.0
  0
LINE
  5
169
330
1F
100
AcDbEntity
  8
0
  6
HIDDEN
 62
     7
370
     0
100
AcDbLine
 10
181.3901589748
 20
134.4912618871
 30
0.0
 11
181.2972657544
 21
134.5841557259
 31
0.0
  0
ARC
  5
16A
330
1F
100
AcDbEntity
  8
0
  6
HIDDEN
 62
     7
370
     0
100
AcDbCircle
 10
180.683052192
 20
86.8841550107
 30
0.0
 40
1.000000000000018
100
AcDbArc
 50
315.0
 51
0.0
  0
ARC
  5
16B
330
1F
100
AcDbEntity
  8
0
  6
HIDDEN
 62
     7
370
     0
100
AcDbCircle
 10
180.683052192
 20
86.8841550107
 30
0.0
 40
1.0
100
AcDbArc
 50
0.0
 51
52.1052014664
  0
ARC
  5
16C
330
1F
100
AcDbEntity
  8
0
  6
HIDDEN
 62
     7
370
     0
100
AcDbCircle
 10
180.683052192
 20
133.7841550107
 30
0.0
 40
1.000000000000008
100
AcDbArc
 50
351.8087250651
 51
45.0
  0
ARC
  5
16D
330
1F
100
AcDbEntity
  8
0
  6
HIDDEN
 62
     7
370
     0
100
AcDbCircle
 10
180.683052192
 20
133.7841550107
 30
0.0
 40
0.9999999999999989
100
AcDbArc
 50
307.8947985336
 51
351.8087250651
  0
LINE
  5
16E
330
1F
100
AcDbEntity
  8
0
  6
HIDDEN
 62
     7
370
     0
100
AcDbLine
 10
181.6830521902
 20
86.8841547991
 30
0.0
 11
181.6830521902
 21
133.7841552223
 31
0.0
  0
LINE
  5
16F
330
1F
100
AcDbEntity
  8
0
  6
HIDDEN
 62
     7
370
     0
100
AcDbLine
 10
181.6830521902
 20
86.8841547991
 30
0.0
 11
181.6830521902
 21
133.7841552223
 31
0.0
  0
LINE
  5
170
330
1F
100
AcDbEntity
  8
0
  6
HIDDEN
 62
     7
370
     0
100
AcDbLine
 10
204.7972649497
 20
114.8301897111
 30
0.0
 11
204.7972649497
 21
120.4923203687
 31
0.0
  0
LINE
  5
171
330
1F
100
AcDbEntity
  8
0
  6
HIDDEN
 62
     7
370
     0
100
AcDbLine
 10
199.7972659928
 20
122.4339398096
 30
0.0
 11
199.7972659928
 21
114.8318293045
 31
0.0
  0
LINE
  5
172
330
1F
100
AcDbEntity
  8
0
  6
HIDDEN
 62
     7
370
     0
100
AcDbLine
 10
210.8581595284
 20
130.8699220891
 30
0.0
 11
202.3579262358
 21
124.2416723172
 31
0.0
  0
LINE
  5
173
330
1F
100
AcDbEntity
  8
0
  6
HIDDEN
 62
     7
370
     0
100
AcDbLine
 10
204.6751052302
 20
119.7081085766
 30
0.0
 11
210.4894153935
 21
124.2419498513
 31
0.0
  0
LINE
  5
174
330
1F
100
AcDbEntity
  8
0
  6
HIDDEN
 62
     7
370
     0
100
AcDbLine
 10
143.2972669763
 20
94.1377252812
 30
0.0
 11
144.8274932963
 21
95.0212039525
 31
0.0
  0
LINE
  5
175
330
1F
100
AcDbEntity
  8
0
  6
HIDDEN
 62
     7
370
     0
100
AcDbLine
 10
144.8274932963
 20
125.6471060688
 30
0.0
 11
143.2972669763
 21
126.5305847402
 31
0.0
  0
ARC
  5
176
330
1F
100
AcDbEntity
  8
0
  6
HIDDEN
 62
     7
370
     0
100
AcDbCircle
 10
154.2990670693
 20
96.3341550107
 30
0.0
 40
2.000000000000056
100
AcDbArc
 50
270.0
 51
315.0
  0
ARC
  5
177
330
1F
100
AcDbEntity
  8
0
  6
HIDDEN
 62
     7
370
     0
100
AcDbCircle
 10
154.2990670693
 20
124.3341550107
 30
0.0
 40
2.000000000000036
100
AcDbArc
 50
45.0
 51
90.0
  0
LINE
  5
178
330
1F
100
AcDbEntity
  8
0
  6
HIDDEN
 62
     7
370
     0
100
AcDbLine
 10
153.2972648901
 20
94.3341542507
 30
0.0
 11
154.2990662319
 21
94.3341542507
 31
0.0
  0
LINE
  5
179
330
1F
100
AcDbEntity
  8
0
  6
HIDDEN
 62
     7
370
     0
100
AcDbLine
 10
154.2990662319
 20
126.3341557706
 30
0.0
 11
153.2972648901
 21
126.3341557706
 31
0.0
  0
ARC
  5
17A
330
1F
100
AcDbEntity
  8
0
  6
HIDDEN
 62
     7
370
     0
100
AcDbCircle
 10
153.2972657544
 20
96.3341550107
 30
0.0
 40
2.000000000000028
100
AcDbArc
 50
189.9742217944
 51
270.0
  0
ARC
  5
17B
330
1F
100
AcDbEntity
  8
0
  6
HIDDEN
 62
     7
370
     0
100
AcDbCircle
 10
153.2972657544
 20
124.3341550107
 30
0.0
 40
2.0
100
AcDbArc
 50
90.0
 51
170.0257782056
  0
LINE
  5
17C
330
1F
100
AcDbEntity
  8
0
  6
HIDDEN
 62
     7
370
     0
100
AcDbLine
 10
155.7132814241
 20
94.919941249
 30
0.0
 11
157.1274947536
 21
96.3341545786
 31
0.0
  0
LINE
  5
17D
330
1F
100
AcDbEntity
  8
0
  6
HIDDEN
 62
     7
370
     0
100
AcDbLine
 10
157.1274947536
 20
124.3341554428
 30
0.0
 11
155.7132814241
 21
125.7483687724
 31
0.0
  0
LINE
  5
17E
330
1F
100
AcDbEntity
  8
0
  6
HIDDEN
 62
     7
370
     0
100
AcDbLine
 10
144.8274932963
 20
95.0212039525
 30
0.0
 11
149.7274942857
 21
96.3341545786
 31
0.0
  0
LINE
  5
17F
330
1F
100
AcDbEntity
  8
0
  6
HIDDEN
 62
     7
370
     0
100
AcDbLine
 10
149.7274942857
 20
124.3341554428
 30
0.0
 11
144.8274932963
 21
125.6471060688
 31
0.0
  0
LINE
  5
180
330
1F
100
AcDbEntity
  8
0
  6
HIDDEN
 62
     7
370
     0
100
AcDbLine
 10
151.3274934304
 20
124.6805655311
 30
0.0
 11
150.7274944497
 21
124.3341554428
 31
0.0
  0
LINE
  5
181
330
1F
100
AcDbEntity
  8
0
  6
HIDDEN
 62
     7
370
     0
100
AcDbLine
 10
150.7274944497
 20
96.3341545786
 30
0.0
 11
151.3274934304
 21
95.9877444903
 31
0.0
  0
ARC
  5
182
330
1F
100
AcDbEntity
  8
0
  6
HIDDEN
 62
     7
370
     0
100
AcDbCircle
 10
169.7972657544
 20
96.8341550107
 30
0.0
 40
0.5
100
AcDbArc
 50
270.0
 51
0.0
  0
ARC
  5
183
330
1F
100
AcDbEntity
  8
0
  6
HIDDEN
 62
     7
370
     0
100
AcDbCircle
 10
169.7972657544
 20
123.8341550107
 30
0.0
 40
0.5
100
AcDbArc
 50
0.0
 51
90.0
  0
LINE
  5
184
330
1F
100
AcDbEntity
  8
0
  6
HIDDEN
 62
     7
370
     0
100
AcDbLine
 10
149.7274942857
 20
96.3341545786
 30
0.0
 11
150.7274944497
 21
96.3341545786
 31
0.0
  0
LINE
  5
185
330
1F
100
AcDbEntity
  8
0
  6
HIDDEN
 62
     7
370
     0
100
AcDbLine
 10
150.7274944497
 20
124.3341554428
 30
0.0
 11
149.7274942857
 21
124.3341554428
 31
0.0
  0
LINE
  5
186
330
1F
100
AcDbEntity
  8
0
  6
HIDDEN
 62
     7
370
     0
100
AcDbLine
 10
157.1274947536
 20
96.3341545786
 30
0.0
 11
169.797265732
 21
96.3341545786
 31
0.0
  0
LINE
  5
187
330
1F
100
AcDbEntity
  8
0
  6
HIDDEN
 62
     7
370
     0
100
AcDbLine
 10
169.797265732
 20
124.3341554428
 30
0.0
 11
157.1274947536
 21
124.3341554428
 31
0.0
  0
LINE
  5
188
330
1F
100
AcDbEntity
  8
0
  6
HIDDEN
 62
     7
370
     0
100
AcDbLine
 10
170.297265814
 20
100.0841547276
 30
0.0
 11
171.5472655532
 21
101.3341553981
 31
0.0
  0
LINE
  5
189
330
1F
100
AcDbEntity
  8
0
  6
HIDDEN
 62
     7
370
     0
100
AcDbLine
 10
171.5472655532
 20
119.3341546233
 30
0.0
 11
170.297265814
 21
120.5841552938
 31
0.0
  0
LINE
  5
18A
330
1F
100
AcDbEntity
  8
0
  6
HIDDEN
 62
     7
370
     0
100
AcDbLine
 10
171.5472655532
 20
101.3341553981
 30
0.0
 11
208.2972664547
 21
101.3341553981
 31
0.0
  0
LINE
  5
18B
330
1F
100
AcDbEntity
  8
0
  6
HIDDEN
 62
     7
370
     0
100
AcDbLine
 10
208.2972664547
 20
119.3341546233
 30
0.0
 11
171.5472655532
 21
119.3341546233
 31
0.0
  0
LINE
  5
18C
330
1F
100
AcDbEntity
  8
0
  6
HIDDEN
 62
     7
370
     0
100
AcDbLine
 10
208.2972664547
 20
101.3341553981
 30
0.0
 11
213.7050114733
 21
110.3341550107
 31
0.0
  0
LINE
  5
18D
330
1F
100
AcDbEntity
  8
0
  6
HIDDEN
 62
     7
370
     0
100
AcDbLine
 10
213.7050114733
 20
110.3341550107
 30
0.0
 11
208.2972664547
 21
119.3341546233
 31
0.0
  0
LINE
  5
18E
330
1F
100
AcDbEntity
  8
0
  6
HIDDEN
 62
     7
370
     0
100
AcDbLine
 10
235.2039560837
 20
139.3294752116
 30
0.0
 11
236.3587178451
 21
139.5009074832
 31
0.0
  0
LINE
  5
18F
330
1F
100
AcDbEntity
  8
0
  6
HIDDEN
 62
     7
370
     0
100
AcDbLine
 10
229.4972658319
 20
154.6013735707
 30
0.0
 11
229.4972658319
 21
151.6700506682
 31
0.0
  0
LINE
  5
190
330
1F
100
AcDbEntity
  8
0
  6
HIDDEN
 62
     7
370
     0
100
AcDbLine
 10
235.0972674948
 20
151.6700506682
 30
0.0
 11
235.0972674948
 21
154.6264410491
 31
0.0
  0
LINE
  5
191
330
1F
100
AcDbEntity
  8
0
  6
HIDDEN
 62
     7
370
     0
100
AcDbLine
 10
231.0094393951
 20
143.6713196809
 30
0.0
 11
232.2972648007
 21
142.8985193844
 31
0.0
  0
LINE
  5
192
330
1F
100
AcDbEntity
  8
0
  6
HIDDEN
 62
     7
370
     0
100
AcDbLine
 10
232.2972648007
 20
142.8985193844
 30
0.0
 11
233.5850902063
 21
143.6713196809
 31
0.0
  0
LINE
  5
193
330
1F
100
AcDbEntity
  8
0
  6
HIDDEN
 62
     7
370
     0
100
AcDbLine
 10
231.0082174999
 20
151.6700506682
 30
0.0
 11
231.0082174999
 21
143.6727911706
 31
0.0
  0
LINE
  5
194
330
1F
100
AcDbEntity
  8
0
  6
HIDDEN
 62
     7
370
     0
100
AcDbLine
 10
233.5863158268
 20
143.6727911706
 30
0.0
 11
233.5863158268
 21
151.6700506682
 31
0.0
  0
LINE
  5
195
330
1F
100
AcDbEntity
  8
0
  6
HIDDEN
 62
     7
370
     0
100
AcDbLine
 10
236.8172153992
 20
151.4717907185
 30
0.0
 11
235.3412069542
 21
151.2526654179
 31
0.0
  0
LINE
  5
196
330
1F
100
AcDbEntity
  8
0
  6
HIDDEN
 62
     7
370
     0
100
AcDbLine
 10
235.719793306
 20
148.7025142188
 30
0.0
 11
237.1958017511
 21
148.9216395194
 31
0.0
  0
LINE
  5
197
330
1F
100
AcDbEntity
  8
VERMASSUNG
  6
CENTERX2
100
AcDbLine
 10
230.9417950825
 20
155.3341550107
 30
0.0
 11
246.2972657544
 21
155.3341550107
 31
0.0
  0
LINE
  5
198
330
1F
100
AcDbEntity
  8
VERMASSUNG
  6
CENTERX2
100
AcDbLine
 10
246.2972657544
 20
155.3341550107
 30
0.0
 11
246.2972657544
 21
110.3341550107
 31
0.0
  0
LINE
  5
199
330
1F
100
AcDbEntity
  8
VERMASSUNG
  6
CENTERX2
100
AcDbLine
 10
140.6823525458
 20
110.3341550107
 30
0.0
 11
246.2972657544
 21
110.3341550107
 31
0.0
  0
LINE
  5
19A
330
1F
100
AcDbEntity
  8
VERMASSUNG
100
AcDbLine
 10
246.2972657544
 20
155.3341550107
 30
0.0
 11
238.2377565379
 21
141.051403324
 31
0.0
  0
DIMENSION
  5
19B
330
1F
100
AcDbEntity
  8
VERMASSUNG
100
AcDbDimension
  2
_D
 10
246.2972657544
 20
164.6894458098
 30
0.0
 11
213.7972657544
 21
164.6894458098
 31
0.0
 70
   160
  1
<>
 71
     2
 42
-1.0
  3
SLDDIMSTYLE0
100
AcDbAlignedDimension
 13
181.2972657544
 23
141.3341550107
 33
0.0
 14
246.2972657544
 24
155.3341550107
 34
0.0
100
AcDbRotatedDimension
  0
DIMENSION
  5
1A8
330
1F
100
AcDbEntity
  8
VERMASSUNG
100
AcDbDimension
  2
_D_1
 10
254.5275445253
 20
110.3341550107
 30
0.0
 11
254.5275445253
 21
132.8341550107
 31
0.0
 70
   160
  1
<>
 71
     2
 42
-1.0
  3
SLDDIMSTYLE0
100
AcDbAlignedDimension
 13
246.2972657544
 23
155.3341550107
 33
0.0
 14
246.2972657544
 24
110.3341550107
 34
0.0
 50
90.0
100
AcDbRotatedDimension
  0
DIMENSION
  5
1B4
330
1F
100
AcDbEntity
  8
VERMASSUNG
100
AcDbDimension
  2
_D_2
 10
246.2972657544
 20
171.6242697368
 30
0.0
 11
194.7972657544
 21
171.6242697368
 31
0.0
 70
   160
  1
<>
 71
     2
 42
-1.0
  3
SLDDIMSTYLE1
100
AcDbAlignedDimension
 13
143.2972657544
 23
130.6264930032
 33
0.0
 14
246.2972657544
 24
155.3341550107
 34
0.0
100
AcDbRotatedDimension
  0
DIMENSION
  5
1BF
330
1F
100
AcDbEntity
  8
VERMASSUNG
100
AcDbDimension
  2
_D_3
 10
133.2972657544
 20
78.8341550107
 30
0.0
 11
133.2972657544
 21
110.3341550107
 31
0.0
 70
   160
  1
PSC%%c<>
 71
     2
 42
-1.0
  3
SLDDIMSTYLE1
100
AcDbAlignedDimension
 13
181.7972657544
 23
141.8341550107
 33
0.0
 14
181.7972657544
 24
78.8341550107
 34
0.0
 50
90.0
100
AcDbRotatedDimension
  0
LINE
  5
1CB
330
1F
100
AcDbEntity
  8
0
  6
Continuous
 62
     7
370
    15
100
AcDbLine
 10
69.2434824898
 20
152.9913962359
 30
0.0
 11
69.1187066853
 21
152.7746811981
 31
0.0
  0
LINE
  5
1CC
330
1F
100
AcDbEntity
  8
0
  6
Continuous
 62
     7
370
    15
100
AcDbLine
 10
68.9931251702
 20
147.9789175565
 30
0.0
 11
69.0442048374
 21
147.8783719714
 31
0.0
  0
LINE
  5
1CD
330
1F
100
AcDbEntity
  8
0
  6
Continuous
 62
     7
370
    15
100
AcDbLine
 10
69.4826789561
 20
153.11656599
 30
0.0
 11
69.3927138939
 21
153.1189240987
 31
0.0
  0
LINE
  5
1CE
330
1F
100
AcDbEntity
  8
0
  6
Continuous
 62
     7
370
    15
100
AcDbLine
 10
69.3825247593
 20
150.9394541855
 30
0.0
 11
69.3926602265
 21
150.9391859646
 31
0.0
  0
LINE
  5
1CF
330
1F
100
AcDbEntity
  8
0
  6
Continuous
 62
     7
370
    15
100
AcDbLine
 10
69.3411927798
 20
149.4793043013
 30
0.0
 11
69.2484620388
 21
149.4817294652
 31
0.0
  0
LINE
  5
1D0
330
1F
100
AcDbEntity
  8
0
  6
Continuous
 62
     7
370
    15
100
AcDbLine
 10
69.1304670775
 20
151.2648731942
 30
0.0
 11
69.3021905038
 21
151.2603767688
 31
0.0
  0
LINE
  5
1D1
330
1F
100
AcDbEntity
  8
0
  6
Continuous
 62
     7
370
    15
100
AcDbLine
 10
69.3464329827
 20
149.7979879851
 30
0.0
 11
68.996404357
 21
149.8071521993
 31
0.0
  0
LINE
  5
1D2
330
1F
100
AcDbEntity
  8
0
  6
Continuous
 62
     7
370
    15
100
AcDbLine
 10
68.2750859426
 20
155.3360753233
 30
0.0
 11
68.086241897
 21
154.7574408824
 31
0.0
  0
LINE
  5
1D3
330
1F
100
AcDbEntity
  8
0
  6
Continuous
 62
     7
370
    15
100
AcDbLine
 10
70.5522410001
 20
155.3360753233
 30
0.0
 11
68.2750859426
 21
155.3360753233
 31
0.0
  0
LINE
  5
1D4
330
1F
100
AcDbEntity
  8
0
  6
Continuous
 62
     7
370
    15
100
AcDbLine
 10
70.6367320411
 20
155.0361745531
 30
0.0
 11
70.5522410001
 21
155.3360753233
 31
0.0
  0
LINE
  5
1D5
330
1F
100
AcDbEntity
  8
0
  6
Continuous
 62
     7
370
    15
100
AcDbLine
 10
70.6316545696
 20
154.8362382228
 30
0.0
 11
70.6367320411
 21
155.0361745531
 31
0.0
  0
LINE
  5
1D6
330
1F
100
AcDbEntity
  8
0
  6
Continuous
 62
     7
370
    15
100
AcDbLine
 10
70.5319311176
 20
154.5363411779
 30
0.0
 11
70.6316545696
 21
154.8362382228
 31
0.0
  0
LINE
  5
1D7
330
1F
100
AcDbEntity
  8
0
  6
Continuous
 62
     7
370
    15
100
AcDbLine
 10
70.5025415094
 20
153.3790760214
 30
0.0
 11
70.5319311176
 21
154.5363411779
 31
0.0
  0
LINE
  5
1D8
330
1F
100
AcDbEntity
  8
0
  6
Continuous
 62
     7
370
    15
100
AcDbLine
 10
69.0757426794
 20
142.0299008961
 30
0.0
 11
70.5025415094
 21
153.3790760214
 31
0.0
  0
LINE
  5
1D9
330
1F
100
AcDbEntity
  8
0
  6
Continuous
 62
     7
370
    15
100
AcDbLine
 10
68.9767089801
 20
141.7207949335
 30
0.0
 11
69.0757426794
 21
142.0299008961
 31
0.0
  0
LINE
  5
1DA
330
1F
100
AcDbEntity
  8
0
  6
Continuous
 62
     7
370
    15
100
AcDbLine
 10
68.949160924
 20
141.8207630987
 30
0.0
 11
68.9767089801
 21
141.7207949335
 31
0.0
  0
LINE
  5
1DB
330
1F
100
AcDbEntity
  8
0
  6
Continuous
 62
     7
370
    15
100
AcDbLine
 10
68.9655505715
 20
142.4297698314
 30
0.0
 11
68.949160924
 21
141.8207630987
 31
0.0
  0
LINE
  5
1DC
330
1F
100
AcDbEntity
  8
0
  6
Continuous
 62
     7
370
    15
100
AcDbLine
 10
68.8060961559
 20
143.008400547
 30
0.0
 11
68.9655505715
 21
142.4297698314
 31
0.0
  0
LINE
  5
1DD
330
1F
100
AcDbEntity
  8
0
  6
Continuous
 62
     7
370
    15
100
AcDbLine
 10
67.9557400884
 20
154.3575756724
 30
0.0
 11
68.8060961559
 21
143.008400547
 31
0.0
  0
LINE
  5
1DE
330
1F
100
AcDbEntity
  8
0
  6
Continuous
 62
     7
370
    15
100
AcDbLine
 10
67.9702826904
 20
154.9665824051
 30
0.0
 11
67.9557400884
 21
154.3575756724
 31
0.0
  0
LINE
  5
1DF
330
1F
100
AcDbEntity
  8
0
  6
Continuous
 62
     7
370
    15
100
AcDbLine
 10
68.0029080843
 20
155.0665468449
 30
0.0
 11
67.9702826904
 21
154.9665824051
 31
0.0
  0
LINE
  5
1E0
330
1F
100
AcDbEntity
  8
0
  6
Continuous
 62
     7
370
    15
100
AcDbLine
 10
68.086241897
 20
154.7574408824
 30
0.0
 11
68.0029080843
 21
155.0665468449
 31
0.0
  0
LWPOLYLINE
  5
1E1
330
1F
100
AcDbEntity
  8
0
  6
Continuous
 62
     7
370
    15
100
AcDbPolyline
 90
       28
 70
   128
 43
0.0
 10
69.6594876365
 20
151.9990422304
 10
69.6043217916
 20
152.529653954
 10
69.5270663721
 20
152.9548660393
 10
69.4318861363
 20
153.2517493243
 10
69.3239124387
 20
153.4043036873
 10
69.2089660454
 20
153.4043036873
 10
69.0932438604
 20
153.2517493243
 10
68.9829844644
 20
152.9548660393
 10
68.8841319073
 20
152.529653954
 10
68.8020154496
 20
151.9990422304
 10
68.7410619005
 20
151.3916336472
 10
68.7045573152
 20
150.7401735062
 10
68.6944696948
 20
150.0797838445
 10
68.7113428151
 20
149.4460635359
 10
68.7542671233
 20
148.8731809432
 10
68.8209286321
 20
148.3920149977
 10
68.9077333675
 20
148.028508621
 10
69.010001783
 20
147.8022605653
 10
69.1222205653
 20
147.7254637058
 10
69.2383399594
 20
147.8022605653
 10
69.3521000806
 20
148.028508621
 10
69.4573678204
 20
148.3920149977
 10
69.5484682813
 20
148.8731809432
 10
69.6204903664
 20
149.4460635359
 10
69.669551159
 20
150.0797838445
 10
69.6930058196
 20
150.7401735062
 10
69.6895899612
 20
151.3916336472
 10
69.6594876365
 20
151.9990422304
  0
LINE
  5
1E2
330
1F
100
AcDbEntity
  8
0
  6
Continuous
 62
     7
370
    15
100
AcDbLine
 10
73.997411005
 20
153.28756054
 30
0.0
 11
70.5025415094
 21
153.3790760214
 31
0.0
  0
LINE
  5
1E3
330
1F
100
AcDbEntity
  8
0
  6
Continuous
 62
     7
370
    15
100
AcDbLine
 10
73.3673587104
 20
148.2759386773
 30
0.0
 11
73.997411005
 21
153.28756054
 31
0.0
  0
LINE
  5
1E4
330
1F
100
AcDbEntity
  8
0
  6
Continuous
 62
     7
370
    15
100
AcDbLine
 10
69.2726367281
 20
142.0247450943
 30
0.0
 11
69.0757426794
 21
142.0299008961
 31
0.0
  0
LINE
  5
1E5
330
1F
100
AcDbEntity
  8
0
  6
Continuous
 62
     7
370
    15
100
AcDbLine
 10
74.0791676229
 20
153.3117674763
 30
0.0
 11
73.997411005
 21
153.28756054
 31
0.0
  0
LINE
  5
1E6
330
1F
100
AcDbEntity
  8
0
  6
Continuous
 62
     7
370
    15
100
AcDbLine
 10
74.0791676229
 20
153.3117674763
 30
0.0
 11
73.4458135569
 21
148.2738860423
 31
0.0
  0
LINE
  5
1E7
330
1F
100
AcDbEntity
  8
0
  6
Continuous
 62
     7
370
    15
100
AcDbLine
 10
74.1316015495
 20
154.9446553464
 30
0.0
 11
70.6367320411
 21
155.0361745531
 31
0.0
  0
LINE
  5
1E8
330
1F
100
AcDbEntity
  8
0
  6
Continuous
 62
     7
370
    15
100
AcDbLine
 10
74.1265239788
 20
154.7447227414
 30
0.0
 11
74.1316015495
 21
154.9446553464
 31
0.0
  0
LINE
  5
1E9
330
1F
100
AcDbEntity
  8
0
  6
Continuous
 62
     7
370
    15
100
AcDbLine
 10
74.1265239788
 20
154.7447227414
 30
0.0
 11
70.6316545696
 21
154.8362382228
 31
0.0
  0
LINE
  5
1EA
330
1F
100
AcDbEntity
  8
0
  6
Continuous
 62
     7
370
    15
100
AcDbLine
 10
74.0268005186
 20
154.4448219712
 30
0.0
 11
74.1265239788
 21
154.7447227414
 31
0.0
  0
LINE
  5
1EB
330
1F
100
AcDbEntity
  8
0
  6
Continuous
 62
     7
370
    15
100
AcDbLine
 10
74.0268005186
 20
154.4448219712
 30
0.0
 11
70.5319311176
 21
154.5363411779
 31
0.0
  0
LINE
  5
1EC
330
1F
100
AcDbEntity
  8
0
  6
Continuous
 62
     7
370
    15
100
AcDbLine
 10
74.0471105685
 20
155.2445561166
 30
0.0
 11
70.5522410001
 21
155.3360753233
 31
0.0
  0
LINE
  5
1ED
330
1F
100
AcDbEntity
  8
0
  6
Continuous
 62
     7
370
    15
100
AcDbLine
 10
74.1316015495
 20
154.9446553464
 30
0.0
 11
74.0471105685
 21
155.2445561166
 31
0.0
  0
LINE
  5
1EE
330
1F
100
AcDbEntity
  8
0
  6
Continuous
 62
     7
370
    15
100
AcDbLine
 10
73.997411005
 20
153.28756054
 30
0.0
 11
74.0268005186
 21
154.4448219712
 31
0.0
  0
LINE
  5
1EF
330
1F
100
AcDbEntity
  8
0
  6
Continuous
 62
     7
370
    15
100
AcDbLine
 10
74.1316015495
 20
154.9446553464
 30
0.0
 11
74.211197499
 21
154.8837803776
 31
0.0
  0
LINE
  5
1F0
330
1F
100
AcDbEntity
  8
0
  6
Continuous
 62
     7
370
    15
100
AcDbLine
 10
74.1265239788
 20
154.7447227414
 30
0.0
 11
74.2090810684
 21
154.8004456336
 31
0.0
  0
LINE
  5
1F1
330
1F
100
AcDbEntity
  8
0
  6
Continuous
 62
     7
370
    15
100
AcDbLine
 10
74.211197499
 20
154.8837803776
 30
0.0
 11
74.2090810684
 21
154.8004456336
 31
0.0
  0
LINE
  5
1F2
330
1F
100
AcDbEntity
  8
0
  6
Continuous
 62
     7
370
    15
100
AcDbLine
 10
74.0268005186
 20
154.4448219712
 30
0.0
 11
74.1093576083
 21
154.5005448635
 31
0.0
  0
LINE
  5
1F3
330
1F
100
AcDbEntity
  8
0
  6
Continuous
 62
     7
370
    15
100
AcDbLine
 10
74.2090810684
 20
154.8004456336
 30
0.0
 11
74.1093576083
 21
154.5005448635
 31
0.0
  0
LINE
  5
1F4
330
1F
100
AcDbEntity
  8
0
  6
Continuous
 62
     7
370
    15
100
AcDbLine
 10
74.0471105685
 20
155.2445561166
 30
0.0
 11
74.1384456062
 21
155.1420137758
 31
0.0
  0
LINE
  5
1F5
330
1F
100
AcDbEntity
  8
0
  6
Continuous
 62
     7
370
    15
100
AcDbLine
 10
74.1384456062
 20
155.1420137758
 30
0.0
 11
74.211197499
 21
154.8837803776
 31
0.0
  0
LINE
  5
1F6
330
1F
100
AcDbEntity
  8
0
  6
Continuous
 62
     7
370
    15
100
AcDbLine
 10
74.1093576083
 20
154.5005448635
 30
0.0
 11
74.0791676229
 21
153.3117674763
 31
0.0
  0
LINE
  5
1F7
330
1F
100
AcDbEntity
  8
0
  6
Continuous
 62
     7
370
    15
100
AcDbLine
 10
69.2335790384
 20
141.7140707846
 30
0.0
 11
68.9767089801
 21
141.7207949335
 31
0.0
  0
LINE
  5
1F8
330
1F
100
AcDbEntity
  8
0
  6
Continuous
 62
     7
370
    15
100
AcDbLine
 10
68.1855616288
 20
155.0617635722
 30
0.0
 11
68.0029080843
 21
155.0665468449
 31
0.0
  0
LINE
  5
1F9
330
1F
100
AcDbEntity
  8
0
  6
Continuous
 62
     7
370
    15
100
AcDbLine
 10
77.0275928674
 20
153.3664808149
 30
0.0
 11
77.0360562613
 21
153.6997341092
 31
0.0
  0
ARC
  5
1FA
330
1F
100
AcDbEntity
  8
0
  6
Continuous
 62
     7
370
    15
100
AcDbCircle
 10
76.682928235
 20
153.3659570878
 30
0.0
 40
0.3446650302809206
100
AcDbArc
 50
345.4679022611
 51
0.0870623952
  0
ARC
  5
1FB
330
1F
100
AcDbEntity
  8
0
  6
Continuous
 62
     7
370
    15
100
AcDbCircle
 10
76.697370944
 20
153.7177666367
 30
0.0
 40
0.3391650279930743
100
AcDbArc
 50
356.9522945398
 51
11.7333439985
  0
LINE
  5
1FC
330
1F
100
AcDbEntity
  8
0
  6
Continuous
 62
     7
370
    15
100
AcDbLine
 10
76.8242939969
 20
152.7012482757
 30
0.0
 11
77.0165664738
 21
153.2794729347
 31
0.0
  0
LINE
  5
1FD
330
1F
100
AcDbEntity
  8
0
  6
Continuous
 62
     7
370
    15
100
AcDbLine
 10
74.0644448099
 20
155.2250952001
 30
0.0
 11
76.1510101741
 21
155.1704563672
 31
0.0
  0
LINE
  5
1FE
330
1F
100
AcDbEntity
  8
0
  6
Continuous
 62
     7
370
    15
100
AcDbLine
 10
76.7840636557
 20
154.6577334876
 30
0.0
 11
76.1510101741
 21
155.1704563672
 31
0.0
  0
LINE
  5
1FF
330
1F
100
AcDbEntity
  8
0
  6
Continuous
 62
     7
370
    15
100
AcDbLine
 10
77.0294489933
 20
153.7867382641
 30
0.0
 11
76.7840636557
 21
154.6577334876
 31
0.0
  0
LINE
  5
200
330
1F
100
AcDbEntity
  8
0
  6
Continuous
 62
     7
370
    15
100
AcDbLine
 10
73.5555261502
 20
148.9870258148
 30
0.0
 11
73.5606037208
 21
149.1869584198
 31
0.0
  0
LINE
  5
201
330
1F
100
AcDbEntity
  8
0
  6
Continuous
 62
     7
370
    15
100
AcDbLine
 10
73.5555261502
 20
148.9870258148
 30
0.0
 11
73.4658055601
 21
148.2733607764
 31
0.0
  0
ARC
  5
202
330
1F
100
AcDbEntity
  8
0
  6
Continuous
 62
     7
370
    15
100
AcDbCircle
 10
77.6583178598
 20
152.485046084
 30
0.0
 40
0.8615910814469491
100
AcDbArc
 50
165.4672325624
 51
180.0873665926
  0
LINE
  5
203
330
1F
100
AcDbEntity
  8
0
  6
Continuous
 62
     7
370
    15
100
AcDbLine
 10
76.2135959824
 20
148.9174224908
 30
0.0
 11
76.7312185501
 21
149.9041997368
 31
0.0
  0
LINE
  5
204
330
1F
100
AcDbEntity
  8
0
  6
Continuous
 62
     7
370
    15
100
AcDbLine
 10
73.5555261502
 20
148.9870258148
 30
0.0
 11
76.2135959824
 21
148.9174224908
 31
0.0
  0
LINE
  5
205
330
1F
100
AcDbEntity
  8
0
  6
Continuous
 62
     7
370
    15
100
AcDbLine
 10
76.7312185501
 20
149.9041997368
 30
0.0
 11
76.79672778
 21
152.4837323005
 31
0.0
  0
LINE
  5
206
330
1F
100
AcDbEntity
  8
0
  6
Continuous
 62
     7
370
    15
100
AcDbLine
 10
76.1238756252
 20
148.2037574525
 30
0.0
 11
76.2135959824
 21
148.9174224908
 31
0.0
  0
LINE
  5
207
330
1F
100
AcDbEntity
  8
0
  6
Continuous
 62
     7
370
    15
100
AcDbLine
 10
76.7312185501
 20
149.9041997368
 30
0.0
 11
76.5161505563
 21
148.1934868271
 31
0.0
  0
ARC
  5
208
330
1F
100
AcDbEntity
  8
0
  6
Continuous
 62
     7
370
    15
100
AcDbCircle
 10
70.6467531284
 20
125.8341550107
 30
0.0
 40
32.00000000000001
100
AcDbArc
 50
0.0
 51
46.3262512603
  0
LINE
  5
209
330
1F
100
AcDbEntity
  8
0
  6
Continuous
 62
     7
370
    15
100
AcDbLine
 10
102.6467546483
 20
125.8341547574
 30
0.0
 11
102.6467546483
 21
119.4369819487
 31
0.0
  0
LINE
  5
20A
330
1F
100
AcDbEntity
  8
0
  6
Continuous
 62
     7
370
    15
100
AcDbLine
 10
102.6467546483
 20
119.4369819487
 30
0.0
 11
69.4201656745
 21
120.3070505063
 31
0.0
  0
LINE
  5
20B
330
1F
100
AcDbEntity
  8
0
  6
Continuous
 62
     7
370
    15
100
AcDbLine
 10
70.154759743
 20
148.3600631828
 30
0.0
 11
69.4201656745
 21
120.3070505063
 31
0.0
  0
LINE
  5
20C
330
1F
100
AcDbEntity
  8
0
  6
Continuous
 62
     7
370
    15
100
AcDbLine
 10
70.154759743
 20
148.3600631828
 30
0.0
 11
76.7014870083
 21
148.1886327739
 31
0.0
  0
LINE
  5
20D
330
1F
100
AcDbEntity
  8
0
  6
Continuous
 62
     7
370
    15
100
AcDbLine
 10
76.8191959371
 20
152.6837431366
 30
0.0
 11
76.7014870083
 21
148.1886327739
 31
0.0
  0
LINE
  5
20E
330
1F
100
AcDbEntity
  8
0
  6
Continuous
 62
     7
370
    15
100
AcDbLine
 10
78.5520109942
 20
154.1135393555
 30
0.0
 11
76.9253792835
 21
154.1561343248
 31
0.0
  0
SPLINE
  5
20F
330
1F
100
AcDbEntity
  8
0
  6
Continuous
 62
     7
370
    15
100
AcDbSpline
210
0.0
220
0.0
230
1.0
 70
     8
 71
     3
 72
    29
 73
    25
 74
     0
 42
0.00000001
 43
0.00000001
 12
1.0
 22
0.0
 32
0.0
 13
1.0
 23
0.0
 33
0.0
 40
0.0
 40
0.0
 40
0.0
 40
0.0
 40
0.0457644879628877
 40
0.091428041783391
 40
0.1370012008841622
 40
0.1824945675129722
 40
0.2279187997895434
 40
0.2732846045603344
 40
0.3186027300840176
 40
0.3638839585716852
 40
0.4091390986070184
 40
0.4543789774726387
 40
0.499614433409632
 40
0.5448563078377824
 40
0.590115437564397
 40
0.6354026470096885
 40
0.6807287404765447
 40
0.7261044944921393
 40
0.7715406502482618
 40
0.8170479061663962
 40
0.8626369106125988
 40
0.9083182547859723
 40
0.9541024658031977
 40
1.0
 40
1.0
 40
1.0
 40
1.0
 10
92.74456494659181
 20
148.9794214539557
 30
0.0
 10
92.54268313112439
 20
149.0932606634836
 30
0.0
 10
92.13936475302238
 20
149.3206880087592
 30
0.0
 10
91.52864331197827
 20
149.6496418780318
 30
0.0
 10
90.91462868029603
 20
149.9691454190182
 30
0.0
 10
90.29685711525647
 20
150.2783599900887
 30
0.0
 10
89.67545262403583
 20
150.5775095574394
 30
0.0
 10
89.05038217194799
 20
150.8665341609118
 30
0.0
 10
88.42165470734801
 20
151.1454497391764
 30
0.0
 10
87.78926795872829
 20
151.4142519433973
 30
0.0
 10
87.15322266115678
 20
151.6729418589861
 30
0.0
 10
86.51351874996637
 20
151.9215191246731
 30
0.0
 10
85.87015637916656
 20
152.1599837768503
 30
0.0
 10
85.22313564646755
 20
152.3883357463158
 30
0.0
 10
84.57245667263456
 20
152.6065750300917
 30
0.0
 10
83.91811955568426
 20
152.8147015081842
 30
0.0
 10
83.26012447157846
 20
153.0127155061433
 30
0.0
 10
82.59847131345397
 20
153.2006157259144
 30
0.0
 10
81.93316103283917
 20
153.3784069726879
 30
0.0
 10
81.26419062239667
 20
153.5460712600101
 30
0.0
 10
80.59157188323125
 20
153.703675908576
 30
0.0
 10
79.9152611870538
 20
153.8509689932884
 30
0.0
 10
79.23542242402725
 20
153.9888938725803
 30
0.0
 10
78.78003290552698
 20
154.072133659259
 30
0.0
 10
78.552056704273
 20
154.1138049968486
 30
0.0
  0
ARC
  5
210
330
1F
100
AcDbEntity
  8
0
  6
Continuous
 62
     7
370
    15
100
AcDbCircle
 10
70.6467531284
 20
110.3341550107
 30
0.0
 40
31.50000000000001
100
AcDbArc
 50
256.1197454699
 51
324.4320883596
  0
ELLIPSE
  5
211
330
1F
100
AcDbEntity
  8
0
  6
Continuous
 62
     7
370
    15
100
AcDbEllipse
 10
57.986576992
 20
82.8816510344
 30
0.0
 11
2.112484461660479
 21
8.508230888172776
 31
0.0
210
0.0
220
0.0
230
1.0
 40
0.6652406465
 41
4.504927577011056
 42
4.858144315356788
  0
LINE
  5
212
330
1F
100
AcDbEntity
  8
0
  6
Continuous
 62
     7
370
    15
100
AcDbLine
 10
69.4201656745
 20
120.3070505063
 30
0.0
 11
63.8933987951
 21
82.7269748325
 31
0.0
  0
LINE
  5
213
330
1F
100
AcDbEntity
  8
0
  6
Continuous
 62
     7
370
    15
100
AcDbLine
 10
102.6467546483
 20
119.4369819487
 30
0.0
 11
102.6467546483
 21
110.3341550107
 31
0.0
  0
ARC
  5
214
330
1F
100
AcDbEntity
  8
0
  6
Continuous
 62
     7
370
    15
100
AcDbCircle
 10
70.6467531284
 20
110.3341550107
 30
0.0
 40
32.00000000000012
100
AcDbArc
 50
328.4753234466
 51
0.0
  0
SPLINE
  5
215
330
1F
100
AcDbEntity
  8
0
  6
Continuous
 62
     7
370
    15
100
AcDbSpline
210
0.0
220
0.0
230
1.0
 70
     8
 71
     3
 72
    12
 73
     8
 74
     0
 42
0.00000001
 43
0.00000001
 12
1.0
 22
0.0
 32
0.0
 13
1.0
 23
0.0
 33
0.0
 40
0.0
 40
0.0
 40
0.0
 40
0.0
 40
0.2499999999999992
 40
0.2499999999999992
 40
0.4999999999999984
 40
0.4999999999999984
 40
1.0
 40
1.0
 40
1.0
 40
1.0
 10
97.92403478882744
 20
93.60245141489382
 30
0.0
 10
97.75661806323684
 20
93.49475471600036
 30
0.0
 10
97.59860040873858
 20
93.37746635661401
 30
0.0
 10
97.29515720421598
 20
93.13003951788609
 30
0.0
 10
97.14969598693749
 20
92.99950821527804
 30
0.0
 10
96.73600783857769
 20
92.59736188988052
 30
0.0
 10
96.4860824704381
 20
92.31423671524585
 30
0.0
 10
96.26969260477507
 20
92.01162864040217
 30
0.0
  0
LINE
  5
216
330
1F
100
AcDbEntity
  8
0
  6
Continuous
 62
     7
370
    15
100
AcDbLine
 10
68.6894374096
 20
144.5653707261
 30
0.0
 11
68.4739272704
 21
142.8511411424
 31
0.0
  0
LWPOLYLINE
  5
217
330
1F
100
AcDbEntity
  8
0
  6
Continuous
 62
     7
370
    15
100
AcDbPolyline
 90
       13
 70
   128
 43
0.0
 10
68.4739272704
 20
142.8511411424
 10
68.4211059136
 20
142.3086643691
 10
68.3930041862
 20
141.7265132542
 10
68.391537586
 20
141.1443658645
 10
68.4168057644
 20
140.6018890912
 10
68.4670869389
 20
140.1360527153
 10
68.5389545409
 20
139.7786055232
 10
68.6275109777
 20
139.553903463
 10
68.7267209299
 20
139.4772630657
 10
68.829823694
 20
139.553903463
 10
68.9297929069
 20
139.7786055232
 10
69.0198158275
 20
140.1360527153
 10
69.0937576012
 20
140.6018890912
  0
LINE
  5
218
330
1F
100
AcDbEntity
  8
0
  6
Continuous
 62
     7
370
    15
100
AcDbLine
 10
69.0937576012
 20
140.6018890912
 30
0.0
 11
70.0693831907
 21
148.362298357
 31
0.0
  0
ARC
  5
219
330
1F
100
AcDbEntity
  8
0
  6
Continuous
 62
     7
370
    15
100
AcDbCircle
 10
70.6467531284
 20
110.3341550107
 30
0.0
 40
31.49999999999999
100
AcDbArc
 50
99.053733939
 51
99.5331423103
  0
SPLINE
  5
21A
330
1F
100
AcDbEntity
  8
0
  6
Continuous
 62
     7
370
    15
100
AcDbSpline
210
0.0
220
0.0
230
1.0
 70
     8
 71
     3
 72
    10
 73
     6
 74
     0
 42
0.00000001
 43
0.00000001
 12
1.0
 22
0.0
 32
0.0
 13
1.0
 23
0.0
 33
0.0
 40
0.0
 40
0.0
 40
0.0
 40
0.0
 40
0.5000000000000023
 40
0.5000000000000023
 40
1.0
 40
1.0
 40
1.0
 40
1.0
 10
65.88067840724634
 20
142.2211159997655
 30
0.0
 10
65.86495660642304
 20
142.0040346171027
 30
0.0
 10
65.83762921525448
 20
141.8095063608084
 30
0.0
 10
65.76908447498812
 20
141.529003948587
 30
0.0
 10
65.72915361378386
 20
141.4479589514088
 30
0.0
 10
65.68989158333049
 20
141.4417027061129
 30
0.0
  0
SPLINE
  5
21B
330
1F
100
AcDbEntity
  8
0
  6
Continuous
 62
     7
370
    15
100
AcDbSpline
210
0.0
220
0.0
230
1.0
 70
     8
 71
     3
 72
     8
 73
     4
 74
     0
 42
0.00000001
 43
0.00000001
 12
1.0
 22
0.0
 32
0.0
 13
1.0
 23
0.0
 33
0.0
 40
0.0
 40
0.0
 40
0.0
 40
0.0
 40
1.0
 40
1.0
 40
1.0
 40
1.0
 10
66.76817614194727
 20
154.4226989175517
 30
0.0
 10
66.4715132564427
 20
150.3568604250089
 30
0.0
 10
66.17537350973006
 20
146.2901676962073
 30
0.0
 10
65.88067840724634
 20
142.2211159997655
 30
0.0
  0
SPLINE
  5
21C
330
1F
100
AcDbEntity
  8
0
  6
Continuous
 62
     7
370
    15
100
AcDbSpline
210
0.0
220
0.0
230
1.0
 70
     8
 71
     3
 72
     8
 73
     4
 74
     0
 42
0.00000001
 43
0.00000001
 12
1.0
 22
0.0
 32
0.0
 13
1.0
 23
0.0
 33
0.0
 40
0.0
 40
0.0
 40
0.0
 40
0.0
 40
1.0
 40
1.0
 40
1.0
 40
1.0
 10
66.8166143805499
 20
154.8291653285561
 30
0.0
 10
66.79598251923154
 20
154.7132737426546
 30
0.0
 10
66.77918971885794
 20
154.573642723238
 30
0.0
 10
66.76817614194727
 20
154.4226989175517
 30
0.0
  0
LINE
  5
21D
330
1F
100
AcDbEntity
  8
0
  6
Continuous
 62
     7
370
    15
100
AcDbLine
 10
66.8166143017
 20
154.8291638965
 30
0.0
 11
67.9670011753
 21
154.8291638965
 31
0.0
  0
LINE
  5
21E
330
1F
100
AcDbEntity
  8
0
  6
Continuous
 62
     7
370
    15
100
AcDbLine
 10
70.154759743
 20
148.3600631828
 30
0.0
 11
70.0693831907
 21
148.362298357
 31
0.0
  0
LINE
  5
21F
330
1F
100
AcDbEntity
  8
0
  6
Continuous
 62
     7
370
    15
100
AcDbLine
 10
76.7840333877
 20
154.6577334876
 30
0.0
 11
78.7007730117
 21
154.6075426514
 31
0.0
  0
LINE
  5
220
330
1F
100
AcDbEntity
  8
0
  6
Continuous
 62
     7
370
    15
100
AcDbLine
 10
78.5520109942
 20
154.1135393555
 30
0.0
 11
78.7015860563
 21
154.6106830711
 31
0.0
  0
SPLINE
  5
221
330
1F
100
AcDbEntity
  8
0
  6
Continuous
 62
     7
370
    15
100
AcDbSpline
210
0.0
220
0.0
230
1.0
 70
     8
 71
     3
 72
    29
 73
    25
 74
     0
 42
0.00000001
 43
0.00000001
 12
1.0
 22
0.0
 32
0.0
 13
1.0
 23
0.0
 33
0.0
 40
0.0
 40
0.0
 40
0.0
 40
0.0
 40
0.052336733137603
 40
0.1040179148874405
 40
0.1550435579523513
 40
0.2054136755547027
 40
0.255128281463501
 40
0.3041873900232732
 40
0.3525910161849285
 40
0.4003391755387266
 40
0.4474318843495286
 40
0.4938691595945604
 40
0.5396510190038375
 40
0.584777481103572
 40
0.6292485652627218
 40
0.6730642917430575
 40
0.7162246817530119
 40
0.7587297575056727
 40
0.800579542281324
 40
0.8417740604949274
 40
0.8823133377690932
 40
0.9221974010130022
 40
0.9614262785079276
 40
1.0
 40
1.0
 40
1.0
 40
1.0
 10
78.70113394689007
 20
154.607475979764
 30
0.0
 10
78.92777341998321
 20
154.565206175067
 30
0.0
 10
79.37821356037858
 20
154.4811960222795
 30
0.0
 10
80.04715942608382
 20
154.3429593442008
 30
0.0
 10
80.705680599784
 20
154.1972441405143
 30
0.0
 10
81.35354901973257
 20
154.0435320338387
 30
0.0
 10
81.99075404966413
 20
153.882472479638
 30
0.0
 10
82.61724084456127
 20
153.7144012178895
 30
0.0
 10
83.2329786231893
 20
153.5397294129606
 30
0.0
 10
83.83794224493
 20
153.358841197435
 30
0.0
 10
84.43211656845918
 20
153.1721203926216
 30
0.0
 10
85.015494830633
 20
152.9799433161673
 30
0.0
 10
85.58807860167492
 20
152.7826805143737
 30
0.0
 10
86.14987732779994
 20
152.5806961598834
 30
0.0
 10
86.70090800278346
 20
152.374348108083
 30
0.0
 10
87.24119475721666
 20
152.1639876861633
 30
0.0
 10
87.77076867490196
 20
151.9499599678611
 30
0.0
 10
88.28966682977062
 20
151.732602472357
 30
0.0
 10
88.79793418441632
 20
151.5122496245138
 30
0.0
 10
89.2956150825036
 20
151.2892162669537
 30
0.0
 10
89.7827826962089
 20
151.0638575687049
 30
0.0
 10
90.25943021407491
 20
150.8363506316676
 30
0.0
 10
90.72586560316124
 20
150.6074897249678
 30
0.0
 10
91.03204881345984
 20
150.451712442776
 30
0.0
 10
91.18385127293269
 20
150.3744796822218
 30
0.0
  0
SPLINE
  5
222
330
1F
100
AcDbEntity
  8
0
  6
Continuous
 62
     7
370
    15
100
AcDbSpline
210
0.0
220
0.0
230
1.0
 70
     8
 71
     3
 72
    11
 73
     7
 74
     0
 42
0.00000001
 43
0.00000001
 12
1.0
 22
0.0
 32
0.0
 13
1.0
 23
0.0
 33
0.0
 40
0.0
 40
0.0
 40
0.0
 40
0.0
 40
0.2497151617775117
 40
0.4996128509420136
 40
0.7497041210472077
 40
1.0
 40
1.0
 40
1.0
 40
1.0
 10
91.1837570349031
 20
150.3745598676629
 30
0.0
 10
91.31703979292016
 20
150.2619563357318
 30
0.0
 10
91.58370273096656
 20
150.0366669651793
 30
0.0
 10
91.97634875593498
 20
149.6905304993097
 30
0.0
 10
92.36417825155904
 20
149.3388535171586
 30
0.0
 10
92.61759939135938
 20
149.0991544002308
 30
0.0
 10
92.7443617733489
 20
148.9792558351525
 30
0.0
  0
SPLINE
  5
223
330
1F
100
AcDbEntity
  8
0
  6
Continuous
 62
     7
370
    15
100
AcDbSpline
210
0.0
220
0.0
230
1.0
 70
     8
 71
     3
 72
    10
 73
     6
 74
     0
 42
0.00000001
 43
0.00000001
 12
1.0
 22
0.0
 32
0.0
 13
1.0
 23
0.0
 33
0.0
 40
0.0
 40
0.0
 40
0.0
 40
0.0
 40
0.307638669092442
 40
0.7492717412860066
 40
1.0
 40
1.0
 40
1.0
 40
1.0
 10
79.7075569292185
 20
154.4125050778282
 30
0.0
 10
79.70597035153405
 20
154.4128312331428
 30
0.0
 10
79.7021061499764
 20
154.4136256032433
 30
0.0
 10
79.40809328008402
 20
154.4739767186442
 30
0.0
 10
79.10351304592078
 20
154.5322431057536
 30
0.0
 10
78.99321388803693
 20
154.5533434028519
 30
0.0
  0
SPLINE
  5
224
330
1F
100
AcDbEntity
  8
0
  6
Continuous
 62
     7
370
    15
100
AcDbSpline
210
0.0
220
0.0
230
1.0
 70
     8
 71
     3
 72
    18
 73
    14
 74
     0
 42
0.00000001
 43
0.00000001
 12
1.0
 22
0.0
 32
0.0
 13
1.0
 23
0.0
 33
0.0
 40
0.0
 40
0.0
 40
0.0
 40
0.0
 40
0.2499999999999974
 40
0.2499999999999974
 40
0.3749999999999976
 40
0.3749999999999976
 40
0.4999999999999978
 40
0.4999999999999978
 40
0.6249999999999979
 40
0.6249999999999979
 40
0.7499999999999981
 40
0.7499999999999981
 40
1.0
 40
1.0
 40
1.0
 40
1.0
 10
65.42978336699323
 20
141.3991389396826
 30
0.0
 10
65.32816538501986
 20
141.3820734893872
 30
0.0
 10
65.14694957529493
 20
141.3514279407385
 30
0.0
 10
64.75940490795837
 20
141.2793710499461
 30
0.0
 10
64.610470268053
 20
141.2508352695308
 30
0.0
 10
64.2833559077018
 20
141.1851680379656
 30
0.0
 10
64.10416128990421
 20
141.1478559074846
 30
0.0
 10
63.71502777699902
 20
141.0626573265371
 30
0.0
 10
63.50323405750155
 20
141.0143117688868
 30
0.0
 10
63.06030232547332
 20
140.9077980327212
 30
0.0
 10
62.82880071115383
 20
140.8495896856857
 30
0.0
 10
62.10589063037958
 20
140.6582741470953
 30
0.0
 10
61.58225344577302
 20
140.5070511207058
 30
0.0
 10
61.04449067116978
 20
140.3349309290307
 30
0.0
  0
SPLINE
  5
225
330
1F
100
AcDbEntity
  8
0
  6
Continuous
 62
     7
370
    15
100
AcDbSpline
210
0.0
220
0.0
230
1.0
 70
     8
 71
     3
 72
    16
 73
    12
 74
     0
 42
0.00000001
 43
0.00000001
 12
1.0
 22
0.0
 32
0.0
 13
1.0
 23
0.0
 33
0.0
 40
0.0
 40
0.0
 40
0.0
 40
0.0
 40
0.2500000000000005
 40
0.2500000000000005
 40
0.3749999999999999
 40
0.3749999999999999
 40
0.4999999999999994
 40
0.4999999999999994
 40
0.7499999999999997
 40
0.7499999999999997
 40
1.0
 40
1.0
 40
1.0
 40
1.0
 10
59.4875309424282
 20
80.87703770087495
 30
0.0
 10
59.85406756199442
 20
80.73818285184086
 30
0.0
 10
60.20895326478217
 20
80.61155131027398
 30
0.0
 10
60.72290567329033
 20
80.43766757706318
 30
0.0
 10
60.89114031391247
 20
80.3823937298109
 30
0.0
 10
61.22102272670831
 20
80.2769496913729
 30
0.0
 10
61.38316983553366
 20
80.22664288134568
 30
0.0
 10
61.8485686083585
 20
80.08606420612828
 30
0.0
 10
62.13437364755426
 20
80.0049242485073
 30
0.0
 10
62.65531177573448
 20
79.86351819163815
 30
0.0
 10
62.89137526756447
 20
79.80308852761401
 30
0.0
 10
63.09010798727446
 20
79.75397982788284
 30
0.0
  0
ELLIPSE
  5
226
330
1F
100
AcDbEntity
  8
0
  6
Continuous
 62
     7
370
    15
100
AcDbEllipse
 10
54.6089910872
 20
127.5559363157
 30
0.0
 11
2.476293975485561
 21
2.989047021598736
 31
0.0
210
0.0
220
0.0
230
1.0
 40
0.6308294636
 41
0.0
 42
6.283185307179586
  0
ARC
  5
227
330
1F
100
AcDbEntity
  8
0
  6
Continuous
 62
     7
370
    15
100
AcDbCircle
 10
70.6467531284
 20
110.3341550107
 30
0.0
 40
31.50000000000002
100
AcDbArc
 50
107.7481609159
 51
249.2518390841
  0
LWPOLYLINE
  5
228
330
1F
100
AcDbEntity
  8
0
  6
Continuous
 62
     7
370
    15
100
AcDbPolyline
 90
        4
 70
   128
 43
0.0
 10
69.2434824898
 20
152.9913962359
 10
69.3190504692
 20
153.088656115
 10
69.4346320245
 20
153.1070553238
 10
69.5074165135
 20
153.032165813
  0
LWPOLYLINE
  5
229
330
1F
100
AcDbEntity
  8
0
  6
Continuous
 62
     7
370
    15
100
AcDbPolyline
 90
       26
 70
   128
 43
0.0
 10
68.7754355034
 20
150.9078376467
 10
68.8270838594
 20
151.503031003
 10
68.9015020046
 20
152.0272352273
 10
68.9940137684
 20
152.4475187535
 10
69.0988065337
 20
152.7374729986
 10
69.2092956172
 20
152.8788775678
 10
69.318538591
 20
152.8628476436
 10
69.4196714915
 20
152.6903890545
 10
69.5063395554
 20
152.37233867
 10
69.5730972232
 20
151.9286826725
 10
69.6157498181
 20
151.3872974093
 10
69.6316173428
 20
150.7821985061
 10
69.6197028167
 20
150.1514062757
 10
69.5807547902
 20
149.534557807
 10
69.5172206627
 20
148.9704072947
 10
69.4330923155
 20
148.4944120521
 10
69.3336559355
 20
148.1364675338
 10
69.2251595331
 20
147.9190782184
 10
69.1144202731
 20
147.8558898444
 10
69.0083962993
 20
147.950884747
 10
68.9137494785
 20
148.1980875606
 10
68.8364268874
 20
148.58196755
 10
68.7812870031
 20
149.0784034605
 10
68.7517943455
 20
149.6562034364
 10
68.7498021301
 20
150.2790607984
 10
68.7754355034
 20
150.9078376467
  0
ARC
  5
22A
330
1F
100
AcDbEntity
  8
0
  6
Continuous
 62
     7
370
    15
100
AcDbCircle
 10
68.3369637154
 20
149.4215025859
 30
0.0
 40
0.759565394084418
100
AcDbArc
 50
348.3694953537
 51
30.4660420012
  0
LWPOLYLINE
  5
22B
330
1F
100
AcDbEntity
  8
0
  6
Continuous
 62
     7
370
    15
100
AcDbPolyline
 90
        9
 70
   128
 43
0.0
 10
69.080933755
 20
149.2683746393
 10
69.0818394662
 20
149.1967037792
 10
69.0868149407
 20
149.1338357801
 10
69.0953358438
 20
149.0863942082
 10
69.1065037984
 20
149.0593895788
 10
69.1191414965
 20
149.0556605632
 10
69.1319169139
 20
149.0756057675
 10
69.1434831254
 20
149.1171166773
 10
69.1526209132
 20
149.1758235271
  0
LWPOLYLINE
  5
22C
330
1F
100
AcDbEntity
  8
0
  6
Continuous
 62
     7
370
    15
100
AcDbPolyline
 90
        9
 70
   128
 43
0.0
 10
69.291287394
 20
149.4197816129
 10
69.2743859848
 20
149.4602233643
 10
69.2559340398
 20
149.4798854465
 10
69.2366324959
 20
149.4780153508
 10
69.2172148859
 20
149.454687583
 10
69.1984187008
 20
149.4107850368
 10
69.1809581488
 20
149.3479766424
 10
69.1654963314
 20
149.268654036
 10
69.1526209132
 20
149.1758235271
  0
LWPOLYLINE
  5
22D
330
1F
100
AcDbEntity
  8
0
  6
Continuous
 62
     7
370
    15
100
AcDbPolyline
 90
        9
 70
   128
 43
0.0
 10
69.291287394
 20
149.4197816129
 10
69.302870835
 20
149.3975304539
 10
69.3156512582
 20
149.3988492067
 10
69.3282812729
 20
149.4236037607
 10
69.3394296698
 20
149.4691789622
 10
69.3479211198
 20
149.530772912
 10
69.3528605055
 20
149.6018924291
 10
69.3537271011
 20
149.6750385041
 10
69.3504296371
 20
149.7425035114
  0
ARC
  5
22E
330
1F
100
AcDbEntity
  8
0
  6
Continuous
 62
     7
370
    15
100
AcDbCircle
 10
71.8921558102
 20
149.9746785375
 30
0.0
 40
2.552308206665741
100
AcDbArc
 50
167.5550110652
 51
185.2192224115
  0
ARC
  5
22F
330
1F
100
AcDbEntity
  8
0
  6
Continuous
 62
     7
370
    15
100
AcDbCircle
 10
68.8058868757
 20
150.7145923118
 30
0.0
 40
0.6235472137808379
100
AcDbArc
 50
342.2703959049
 51
21.1902305637
  0
ARC
  5
230
330
1F
100
AcDbEntity
  8
0
  6
Continuous
 62
     7
370
    15
100
AcDbCircle
 10
70.041939279
 20
151.3250982647
 30
0.0
 40
0.7595401732019527
100
AcDbArc
 50
168.3689644469
 51
210.4666768157
  0
LWPOLYLINE
  5
231
330
1F
100
AcDbEntity
  8
0
  6
Continuous
 62
     7
370
    15
100
AcDbPolyline
 90
        9
 70
   128
 43
0.0
 10
69.2979953613
 20
151.4782280202
 10
69.2970896501
 20
151.5499026055
 10
69.2921140592
 20
151.6127706046
 10
69.2835932726
 20
151.6602084513
 10
69.2724253179
 20
151.6872168059
 10
69.2597875034
 20
151.6909420962
 10
69.2470122024
 20
151.6710006173
 10
69.2354459909
 20
151.6294859822
 10
69.2263080867
 20
151.5707828576
  0
LWPOLYLINE
  5
232
330
1F
100
AcDbEntity
  8
0
  6
Continuous
 62
     7
370
    15
100
AcDbPolyline
 90
        9
 70
   128
 43
0.0
 10
69.0876416059
 20
151.3268247719
 10
69.1045431316
 20
151.2863792951
 10
69.1229950765
 20
151.2667209382
 10
69.142296504
 20
151.2685910339
 10
69.1617142304
 20
151.2919188018
 10
69.1805104155
 20
151.3358213479
 10
69.1979709675
 20
151.3986260171
 10
69.2134326685
 20
151.4779523487
 10
69.2263080867
 20
151.5707828576
  0
LWPOLYLINE
  5
233
330
1F
100
AcDbEntity
  8
0
  6
Continuous
 62
     7
370
    15
100
AcDbPolyline
 90
        9
 70
   128
 43
0.0
 10
69.0876416059
 20
151.3268247719
 10
69.0760581649
 20
151.3490759308
 10
69.0632778581
 20
151.3477534528
 10
69.050647727
 20
151.323002624
 10
69.0394994465
 20
151.2774274225
 10
69.0310079965
 20
151.2158334727
 10
69.0260686108
 20
151.1447139556
 10
69.0252018988
 20
151.0715678806
 10
69.0284993628
 20
151.0041028733
  0
ARC
  5
234
330
1F
100
AcDbEntity
  8
0
  6
Continuous
 62
     7
370
    15
100
AcDbCircle
 10
66.4867504208
 20
150.7719262944
 30
0.0
 40
2.552331022402181
100
AcDbArc
 50
347.555074155
 51
5.2192106306
  0
ARC
  5
235
330
1F
100
AcDbEntity
  8
0
  6
Continuous
 62
     7
370
    15
100
AcDbCircle
 10
69.5730314467
 20
150.0320118805
 30
0.0
 40
0.6235364657546459
100
AcDbArc
 50
162.2702280269
 51
201.1903973724
  0
DIMENSION
  5
236
330
1F
100
AcDbEntity
  8
VERMASSUNG
100
AcDbDimension
  2
_D_4
 10
70.6467531284
 20
110.3341550107
 30
0.0
 11
89.6006954157
 21
159.9615233935
 31
0.0
 70
   164
  1
<>
 71
     1
 42
-1.0
  3
SLDDIMSTYLE2
100
AcDbRadialDimension
 15
86.702245163
 25
152.3724848482
 35
0.0
 40
0.0
  0
INSERT
  5
24A
330
1F
100
AcDbEntity
  8
VERMASSUNG
100
AcDbBlockReference
  2
SW_CENTERMARKSYMBOL_0
 10
70.6467531284
 20
110.3341550107
 30
0.0
  0
OLE2FRAME
  5
24B
330
1F
100
AcDbEntity
  8
0
100
AcDbOle2Frame
 70
     2
  3
Paintbrush-Bild
 10
13.8511154363
 20
38.264191557
 30
0.0
 11
51.6290888628
 21
31.9806341108
 31
0.0
 71
     2
 72
     0
 73
     1
 90
    12928
310
80552BED0767C5B32B40DDAF6807D121434000000000000000006FFBDDFB85D0
310
4940DDAF6807D121434000000000000000006FFBDDFB85D04940416F4BD60AFB
310
3F4000000000000000002BED0767C5B32B40416F4BD60AFB3F40000000000000
310
0000000000000100000000010000010000000100000000000100000000320000
310
D0CF11E0A1B11AE1000000000000000000000000000000003E000300FEFF0900
310
0600000000000000000000000100000001000000000000000010000002000000
310
01000000FEFFFFFF0000000000000000FFFFFFFFFFFFFFFFFFFFFFFFFFFFFFFF
310
FFFFFFFFFFFFFFFFFFFFFFFFFFFFFFFFFFFFFFFFFFFFFFFFFFFFFFFFFFFFFFFF
310
FFFFFFFFFFFFFFFFFFFFFFFFFFFFFFFFFFFFFFFFFFFFFFFFFFFFFFFFFFFFFFFF
310
FFFFFFFFFFFFFFFFFFFFFFFFFFFFFFFFFFFFFFFFFFFFFFFFFFFFFFFFFFFFFFFF
310
FFFFFFFFFFFFFFFFFFFFFFFFFFFFFFFFFFFFFFFFFFFFFFFFFFFFFFFFFFFFFFFF
310
FFFFFFFFFFFFFFFFFFFFFFFFFFFFFFFFFFFFFFFFFFFFFFFFFFFFFFFFFFFFFFFF
310
FFFFFFFFFFFFFFFFFFFFFFFFFFFFFFFFFFFFFFFFFFFFFFFFFFFFFFFFFFFFFFFF
310
FFFFFFFFFFFFFFFFFFFFFFFFFFFFFFFFFFFFFFFFFFFFFFFFFFFFFFFFFFFFFFFF
310
FFFFFFFFFFFFFFFFFFFFFFFFFFFFFFFFFFFFFFFFFFFFFFFFFFFFFFFFFFFFFFFF
310
FFFFFFFFFFFFFFFFFFFFFFFFFFFFFFFFFFFFFFFFFFFFFFFFFFFFFFFFFFFFFFFF
310
FFFFFFFFFFFFFFFFFFFFFFFFFFFFFFFFFFFFFFFFFFFFFFFFFFFFFFFFFFFFFFFF
310
FFFFFFFFFFFFFFFFFFFFFFFFFFFFFFFFFFFFFFFFFFFFFFFFFFFFFFFFFFFFFFFF
310
FFFFFFFFFFFFFFFFFFFFFFFFFFFFFFFFFFFFFFFFFFFFFFFFFFFFFFFFFFFFFFFF
310
FFFFFFFFFFFFFFFFFFFFFFFFFFFFFFFFFFFFFFFFFFFFFFFFFFFFFFFFFFFFFFFF
310
FDFFFFFFFEFFFFFFFEFFFFFFFEFFFFFF05000000060000000700000008000000
310
090000000A0000000B0000000C0000000D0000000E0000000F00000010000000
310
11000000120000001300000014000000150000001600000017000000FEFFFFFF
310
FFFFFFFFFFFFFFFFFFFFFFFFFFFFFFFFFFFFFFFFFFFFFFFFFFFFFFFFFFFFFFFF
310
FFFFFFFFFFFFFFFFFFFFFFFFFFFFFFFFFFFFFFFFFFFFFFFFFFFFFFFFFFFFFFFF
310
FFFFFFFFFFFFFFFFFFFFFFFFFFFFFFFFFFFFFFFFFFFFFFFFFFFFFFFFFFFFFFFF
310
FFFFFFFFFFFFFFFFFFFFFFFFFFFFFFFFFFFFFFFFFFFFFFFFFFFFFFFFFFFFFFFF
310
FFFFFFFFFFFFFFFFFFFFFFFFFFFFFFFFFFFFFFFFFFFFFFFFFFFFFFFFFFFFFFFF
310
FFFFFFFFFFFFFFFFFFFFFFFFFFFFFFFFFFFFFFFFFFFFFFFFFFFFFFFFFFFFFFFF
310
FFFFFFFFFFFFFFFFFFFFFFFFFFFFFFFFFFFFFFFFFFFFFFFFFFFFFFFFFFFFFFFF
310
FFFFFFFFFFFFFFFFFFFFFFFFFFFFFFFFFFFFFFFFFFFFFFFFFFFFFFFFFFFFFFFF
310
FFFFFFFFFFFFFFFFFFFFFFFFFFFFFFFFFFFFFFFFFFFFFFFFFFFFFFFFFFFFFFFF
310
FFFFFFFFFFFFFFFFFFFFFFFFFFFFFFFFFFFFFFFFFFFFFFFFFFFFFFFFFFFFFFFF
310
FFFFFFFFFFFFFFFFFFFFFFFFFFFFFFFFFFFFFFFFFFFFFFFFFFFFFFFFFFFFFFFF
310
FFFFFFFFFFFFFFFFFFFFFFFFFFFFFFFFFFFFFFFFFFFFFFFFFFFFFFFFFFFFFFFF
310
FFFFFFFFFFFFFFFFFFFFFFFFFFFFFFFFFFFFFFFFFFFFFFFFFFFFFFFFFFFFFFFF
310
52006F006F007400200045006E00740072007900000000000000000000000000
310
0000000000000000000000000000000000000000000000000000000000000000
310
16000500FFFFFFFFFFFFFFFF020000000A00030000000000C000000000000046
310
00000000000000000000000080D88300FD90CF0103000000C000000000000000
310
01004F006C006500000000000000000000000000000000000000000000000000
310
0000000000000000000000000000000000000000000000000000000000000000
310
0A000200FFFFFFFFFFFFFFFFFFFFFFFF00000000000000000000000000000000
310
0000000000000000000000000000000000000000000000001400000000000000
310
010043006F006D0070004F0062006A0000000000000000000000000000000000
310
0000000000000000000000000000000000000000000000000000000000000000
310
120002010100000003000000FFFFFFFF00000000000000000000000000000000
310
0000000000000000000000000000000000000000010000004D00000000000000
310
01004F006C006500310030004E00610074006900760065000000000000000000
310
0000000000000000000000000000000000000000000000000000000000000000
310
1A000200FFFFFFFFFFFFFFFFFFFFFFFF00000000000000000000000000000000
310
0000000000000000000000000000000000000000040000002426000000000000
310
FEFFFFFF02000000FEFFFFFFFFFFFFFFFFFFFFFFFFFFFFFFFFFFFFFFFFFFFFFF
310
FFFFFFFFFFFFFFFFFFFFFFFFFFFFFFFFFFFFFFFFFFFFFFFFFFFFFFFFFFFFFFFF
310
FFFFFFFFFFFFFFFFFFFFFFFFFFFFFFFFFFFFFFFFFFFFFFFFFFFFFFFFFFFFFFFF
310
FFFFFFFFFFFFFFFFFFFFFFFFFFFFFFFFFFFFFFFFFFFFFFFFFFFFFFFFFFFFFFFF
310
FFFFFFFFFFFFFFFFFFFFFFFFFFFFFFFFFFFFFFFFFFFFFFFFFFFFFFFFFFFFFFFF
310
FFFFFFFFFFFFFFFFFFFFFFFFFFFFFFFFFFFFFFFFFFFFFFFFFFFFFFFFFFFFFFFF
310
FFFFFFFFFFFFFFFFFFFFFFFFFFFFFFFFFFFFFFFFFFFFFFFFFFFFFFFFFFFFFFFF
310
FFFFFFFFFFFFFFFFFFFFFFFFFFFFFFFFFFFFFFFFFFFFFFFFFFFFFFFFFFFFFFFF
310
FFFFFFFFFFFFFFFFFFFFFFFFFFFFFFFFFFFFFFFFFFFFFFFFFFFFFFFFFFFFFFFF
310
FFFFFFFFFFFFFFFFFFFFFFFFFFFFFFFFFFFFFFFFFFFFFFFFFFFFFFFFFFFFFFFF
310
FFFFFFFFFFFFFFFFFFFFFFFFFFFFFFFFFFFFFFFFFFFFFFFFFFFFFFFFFFFFFFFF
310
FFFFFFFFFFFFFFFFFFFFFFFFFFFFFFFFFFFFFFFFFFFFFFFFFFFFFFFFFFFFFFFF
310
FFFFFFFFFFFFFFFFFFFFFFFFFFFFFFFFFFFFFFFFFFFFFFFFFFFFFFFFFFFFFFFF
310
FFFFFFFFFFFFFFFFFFFFFFFFFFFFFFFFFFFFFFFFFFFFFFFFFFFFFFFFFFFFFFFF
310
FFFFFFFFFFFFFFFFFFFFFFFFFFFFFFFFFFFFFFFFFFFFFFFFFFFFFFFFFFFFFFFF
310
FFFFFFFFFFFFFFFFFFFFFFFFFFFFFFFFFFFFFFFFFFFFFFFFFFFFFFFFFFFFFFFF
310
0100000200000000000000000000000000000000000000000000000000000000
310
0000000000000000000000000000000000000000000000000000000000000000
310
0100FEFF030A0000FFFFFFFF0A00030000000000C00000000000004607000000
310
5042727573680007000000504272757368000700000050427275736800F439B2
310
7100000000000000000000000000000000000000000000000000000000000000
310
0000000000000000000000000000000000000000000000000000000000000000
310
0000000000000000000000000000000000000000000000000000000000000000
310
0000000000000000000000000000000000000000000000000000000000000000
310
0000000000000000000000000000000000000000000000000000000000000000
310
0000000000000000000000000000000000000000000000000000000000000000
310
0000000000000000000000000000000000000000000000000000000000000000
310
0000000000000000000000000000000000000000000000000000000000000000
310
0000000000000000000000000000000000000000000000000000000000000000
310
0000000000000000000000000000000000000000000000000000000000000000
310
0000000000000000000000000000000000000000000000000000000000000000
310
0000000000000000000000000000000000000000000000000000000000000000
310
20260000424D0E260000000000003E00000028000000B40200006E0000000100
310
01000000000000000000130B0000130B00000200000002000000000000FFFFFF
310
FFFFFFFFFFFFFFFFFFFFFFFFFFFFFFFFFFFFFFFFFFFFFFFFFFFFFFFFFFFFFFFF
310
FFFFFFFFFFFFFFFFFFFFFFFFFFFFFFFFFFFFFFFFFFFFFFFFFFFFFFFFFFFFFFFF
310
FFFFFFFFFFFFFFFFFFFFFFFFFFFFFFFFFFFFFFFFFFFFFFFFF000FFFFFFFFFFFF
310
FFFFFFFFFFFFFFFFFFFFFFFFFFFFFFFFFFFFFFFFFFFFFFFFFFFFFFFFFFFFFFFF
310
FFFFFFFFFFFFFFFFFFFFFFFFFFFFFFFFFFFFFFFFFFFFFFFFFFFFFFFFFFFFFFFF
310
FFFFFFFFFFFFFFFFFFFFFFFFFFFFFFFFF000FFFFFFFFFFFFFFFFFFFFFFFFFFFF
310
FFFFFFFFFFFFFFFFFFFFFFFFFFFFFFFFFFFFFFFFFFFFFFFFFFFFFFFFFFFFFFFF
310
FFFFFFFFFFFFFFFFFFFFFFFFFFFFFFFFFFFFFFFFFFFFFFFFFFFFFFFFFFFFFFFF
310
FFFFFFFFFFFFFFFFF000FFFFFFFFFFFFFFFFFFFFFFFFFFFFFFFFFFFFFFFFFFFF
310
FFFFFFFFFFFFFFFFFFFFFFFFFFFFFFFFFFFFFFFFFFFFFFFFFFFFFFFFFFFFFFFF
310
FFFFFFFFFFFFFFFFFFFFFFFFFFFFFFFFFFFFFFFFFFFFFFFFFFFFFFFFFFFFFFFF
310
F000FFFFFFFFFFFFFFFFFFFFFFFFFFFFFFFFFFFFFFFFFFFFFFFFFFFFFFFFFFFF
310
FFFFFFFFFFFFFFFFFFFFFFFFFFFFFFFFFFFFFFFFFFFFFFFFFFFFFFFFFFFFFFFF
310
FFFFFFFFFFFFFFFFFFFFFFFFFFFFFFFFFFFFFFFFFFFFFFFFF000FFFFFFFFFFFF
310
FFFFFFFFFFFFFFFFFFFFFFFFFFFFFFFFFFFFFFFFFFFFFFFFFFFFFFFFFFFFFFFF
310
FFFFFFFFFFFFFFFFFFFFFFFFFFFFFFFFFFFFFFFFFFFFFFFFFFFFFFFFFFFFFFFF
310
FFFFFFFFFFFFFFFFFFFFFFFFFFFFFFFFF000FFFFFFFFFFFFFFFFFFFFFFFFFFFF
310
FFFFFFFFFFFFFFFFFFFFFFFFFFFFFFFFFFFFFFFFFFFFFFFFFFFFFFFFFFFFFFFF
310
FFFFFFFFFFFFFFFFFFFFFFFFFFFFFFFFFFFFFFFFFFFFFFFFFFFFFFFFFFFFFFFF
310
FFFFFFFFFFFFFFFFF000FFFFFFFFFFFFFFFFFFFFFFFFFFFFFFFFFFFFFFFFFFFF
310
FFFFFFFFFFFFFFFFFFFFFFFFFFFFFFFFFFFFFFFFFFFFFFFFFFFFFFFFFFFFFFFF
310
FFFFFFFFFFFFFFFFFFFFFFFFFFFFFFFFFFFFFFFFFFFFFFFFFFFFFFFFFFFFFFFF
310
F000FFFFFFFFFFFFFFFFFFFFFFFFFFFFFFFFFFFFFFFFFFFFFFFFFFFFFFFFFFFF
310
FFFFFFFFFFFFFFFFFFFFFFFFFFFFFFFFFFFFFFFFFFFFFFFFFFFFFFFFFFFFFFFF
310
FFFFFFFFFFFFFFFFFFFFFFFFFFFFFFFFFFFFFFFFFFFFFFFFF000FFFFFFFFFFFF
310
FFFFFFFFFFFFFFFFFFFFFFFFFFFFFFFFFFFFFFFFFFFFFFFFFFFFFFFFFFFFFFFF
310
FFFFFFFFFFFFFFFFFFFFFFFFFFFFFFFFFFFFFFFFFFFFFFFFFFFFFFFFFFFFFFFF
310
FFFFFFFFFFFFFFFFFFFFFFFFFFFFFFFFF000FFFFFFFFFFFFFFFFFFFFFFFFFFFF
310
FFFFFFFFFFFFFFFFFFFFFFFFFFFFFFFFFFFFFFFFFFFFFFFFFFFFFFFFFFFFFFFF
310
FFFFFFFFFFFFFFFFFFFFFFFFFFFFFFFFFFFFFFFFFFFFFFFFFFFFFFFFFFFFFFFF
310
FFFFFFFFFFFFFFFFF000FFFFFFFFFFFFFFFFFFFFFFFFFFFFFFFFFFFFFFFFFFFF
310
FFFFFFFFFFFFFFFFFFFFFFFFFFFFFFFFFFFFFFFFFFFFFFFFFFFFFFFFFFFFFFFF
310
FFFFFFFFFFFFFFFFFFFFFFFFFFFFFFFFFFFFFFFFFFFFFFFFFFFFFFFFFFFFFFFF
310
F000FFFFFFFFFFFFFFFFFFFFFFFFFFFFFFFFFFFFFFFFFFFFFFFFFFFFFFFFFFFF
310
FFFFFFFFFFFFFFFFFFFFFFFFFFFFFFFFFFFFFFFFFFFFFFFFFFFFFFFFFFFFFFFF
310
FFFFFFFFFFFFFFFFFFFFFFFFFFFFFFFFFFFFFFFFFFFFFFFFF000FFFFFFFFFFFF
310
FFFFFFFFFFFFFFFFFFFFFFFFFFFFFFFFFFFFFFFFFFFFFFFFFFFFFFFFFFFFFFFF
310
FFFFFFFFFFFFFFFFFFFFFFFFFFFFFFFFFFFFFFFFFFFFFFFFFFFFFFFFFFFFFFFF
310
FFFFFFFFFFFFFFFFFFFFFFFFFFFFFFFFF000FFFFFFFFFFFFFFFFFFFFFFFFFFFF
310
FFFFFFFFFFFFFFFFFFFFFFFFFFFFFFFFFFFFFFFFFFFFFFFFFFFFFFFFFFFFFFFF
310
FFFFFFFFFFFFFFFFFFFFFFFFFFFFFFFFFFFFFFFFFFFFFFFFFFFFFFFFFFFFFFFF
310
FFFFFFFFFFFFFFFFF000FFFFFFFFFFFFFFFFFFFFFFFFFFFFFFFFFFFFFFFFFFFF
310
FFFFFFFFFFFFFFFFFFFFFFFFFFFFFFFFFFFFFFFFFFFFFFFFFFFFFFFFFFFFFFFF
310
FFFFFFFFFFFFFFFFFFFFFFFFFFFFFFFFFFFFFFFFFFFFFFFFFFFFFFFFFFFFFFFF
310
F000FFFFFFFFFFFFFFFFFFFFFFFFFFFFFFFFFFFFFFFFFFFFFFFFFFFFFFFFFFFF
310
FFFFFFFFFFFFFFFFFFFFFFFFFFFFFFFFFFFFFFFFFFFFFFFFFFFFFFFFFFFFFFFF
310
FFFFFFFFFFFFFFFFFFFFFFFFFFFFFFFFFFFFFFFFFFFFFFFFF000FFFFFFFFFFFF
310
FFFFFFFFFFFFFFFFFFFFFFFFFFFFFFFFFFFFFFFFFFFFFFFFFFFFFFFFFFFFFFFF
310
FFFFFFFFFFFFFFFFFFFFFFFFFFFFFFFFFFFFFFFFFFFFFFFFFFFFFFFFFFFFFFFF
310
FFFFFFFFFFFFFFFFFFFFFFFFFFFFFFFFF000FFFFFFFFFFFFFFFFFFFFFFFFFFFF
310
FFFFFFFFFFFFFFFFFFFFFFFFFFFFFFFFFFFFFFFFFFFFFFFFFFFFFFFFFFFFFFFF
310
FFFFFFFFFFFFFFFFFFFFFFFFFFFFFFFFFFFFFFFFFFFFFFFFFFFFFFFFFFFFFFFF
310
FFFFFFFFFFFFFFFFF000FFFFF80003FFFFFFFFFFFFFFFFFFFFFFFFFFFFFFFFFF
310
FFFFF00007FFFFFFFFFF00007FFFFFF800000000000000007FFFFFFFFFFFFFFF
310
FFFFFFFC001FFFFFFFFFFFFFFC001FFFFFFFFFFFFFFFFFFFFFFFFFFE0007FFFF
310
F000FFFF8000007FFFFFFFF8000FFFFFC0007FFFFF80007FFFFF0000007FFFFF
310
FFF8000007FFFFF800000000000000007FFFFFF0001FFFFFFFFFFFC00001FFFF
310
FFFFFFFFC00001FFFFFFFF000000000003FFFFE000007FFFF000FFFE0000000F
310
FFFFFFF0000FFFFF80007FFFFF80007FFFFC0000001FFFFFFFC0000001FFFFF8
310
00000000000000007FFFFFF0001FFFFFFFFFFE0000003FFFFFFFFFFE0000003F
310
FFFFFF000000000003FFFF0000000FFFF000FFF800000003FFFFFFF00007FFFF
310
80007FFFFF80007FFFF000000007FFFFFF000000003FFFF80000000000000000
310
7FFFFFF0001FFFFFFFFFF80000000FFFFFFFFFF80000000FFFFFFF0000000000
310
03FFFC00000003FFF000FFE000000000FFFFFFF00007FFFF80003FFFFF80007F
310
FFC000000001FFFFFC000000001FFFF800000000000000007FFFFFF0001FFFFF
310
FFFFE000000003FFFFFFFFE000000003FFFFFF000000000003FFF000000000FF
310
F000FF80000000007FFFFFF00007FFFF80003FFFFF80007FFF8000000000FFFF
310
F80000000007FFF800000000000000007FFFFFF0001FFFFFFFFFC000000001FF
310
FFFFFFC000000001FFFFFF000000000003FFC0000000007FF000FF0000000000
310
3FFFFFE00007FFFF00003FFFFF80007FFE00000000003FFFF00000000003FFF8
310
00000000000000007FFFFFF0001FFFFFFFFF8000000000FFFFFFFF8000000000
310
FFFFFF000000000003FF80000000003FF000FE00000000001FFFFFE00003FFFF
310
00003FFFFF80007FFC00000000001FFFE00000000001FFF8000001FFFE000000
310
7FFFFFF0001FFFFFFFFE00000000003FFFFFFE00000000003FFFFF0000000000
310
03FF00000000001FF000FC00000000000FFFFFE00003FFFF00001FFFFF80007F
310
F800000000001FFFC00000000000FFF8000001FFFE0000007FFFFFF0001FFFFF
310
FFFC00000000001FFFFFFC00000000001FFFFF000000000003FE00000000000F
310
F000F8000000000007FFFFE00003FFFF00001FFFFF80007FF800000000000FFF
310
800000000000FFF8000001FFFE0000007FFFFFF0001FFFFFFFF800000000000F
310
FFFFF800000000000FFFFF000000000003FC000000000007F000F80000000000
310
03FFFFC00003FFFE00001FFFFF80007FF0000000000007FF0000000000007FF8
310
000001FFFE0000007FFFFFF0001FFFFFFFF0000000000007FFFFF00000000000
310
07FFFF000000000003F8000000000003F000F0000000000003FFFFC00001FFFE
310
00001FFFFF80007FE0000000000007FE0000000000003FF8000001FFFE000000
310
7FFFFFF0001FFFFFFFF0000000000007FFFFF0000000000007FFFF0000000000
310
03F800001F800003F000E00001FFF00001FFFFC00001FFFE00000FFFFF80007F
310
E00001FFE00003FE00001FFF00003FF8000001FFFE0000007FFFFFF0001FFFFF
310
FFE000003E000003FFFFE000003E000003FFFF000000000003F00001FFF80001
310
F000E00007FFFC0001FFFFC00001FFFE00000FFFFF80007FC0000FFFFC0003FC
310
0000FFFFC0001FF8000001FFFE0000007FFFFFF0001FFFFFFFC00003FFE00001
310
FFFFC00003FFE00001FFFF0001FFFFFFFFF00007FFFE0001F000E0000FFFFF00
310
00FFFF800001FFFC00000FFFFF80007FC0001FFFFE0001FC0001FFFFE0001FF8
310
000001FFFE0000007FFFFFF0001FFFFFFF80000FFFF80000FFFF80000FFFF800
310
00FFFF0003FFFFFFFFE0000FFFFF8000F000C0003FFFFF8000FFFF800000FFFC
310
000007FFFF80007F80003FFFFF0001FC0003FFFFF0001FF8000001FFFE000000
310
7FFFFFF0001FFFFFFF80003FFFFE0000FFFF80003FFFFE0000FFFF0003FFFFFF
310
FFE0003FFFFF8000F000C0003FFFFF8000FFFF800000FFFC000007FFFF80007F
310
80007FFFFF8001F80007FFFFF8000FF8000001FFFE0000007FFFFFF0001FFFFF
310
FF00007FFFFF00007FFF00007FFFFF00007FFF0003FFFFFFFFE0003FFFFFC000
310
F000C0007FFFFFC000FFFF000000FFFC000007FFFF80007F8000FFFFFF8000F8
310
000FFFFFF8000FF8000001FFFE0000007FFFFFF0001FFFFFFF0000FFFFFF8000
310
7FFF0000FFFFFF80007FFF0003FFFFFFFFC0007FFFFFC00070008000FFFFFFC0
310
00FFFF000000FFF8000007FFFF80007F8000FFFFFF8000F8000FFFFFF8000FF8
310
000001FFFE0000007FFFFFF0001FFFFFFE0001FFFFFFC0003FFE0001FFFFFFC0
310
003FFF0003FFFFFFFFC0007FFFFFE00070008000FFFFFFC0007FFF0000007FF8
310
000003FFFF80007F0001FFFFFF8000F8000FFFFFF8000FF8000001FFFE000000
310
7FFFFFF0001FFFFFFE0001FFFFFFC0003FFE0001FFFFFFC0003FFF0003FFFFFF
310
FFC000FFFFFFE00070008000FFFFFFC0007FFF0000007FF8000003FFFF80007F
310
0001FFFFFF8000F8001FFFFFF8000FF8000001FFFE0000007FFFFFF0001FFFFF
310
FE0003FFFFFFE0003FFE0003FFFFFFE0003FFF0003FFFFFFFFC000FFFFFFE000
310
70008000FFFFFFC0007FFE0000007FF8000003FFFF80007F0001FFFFFF8000F0
310
001FFFFFF8000FF8000001FFFE0000007FFFFFF0001FFFFFFC0003FFFFFFE000
310
1FFC0003FFFFFFE0001FFF0003FFFFFFFFC000FFFFFFC00070008000FFFFFF80
310
007FFE0000007FF0000003FFFF80007F0001FFFFFF0000F0001FFFFFF8000FF8
310
000001FFFE0000007FFFFFF0001FFFFFFC0007FFFFFFF0001FFC0007FFFFFFF0
310
001FFF0003FFFFFFFFC000FFFFFFC00070008001FFFFFF0000FFFE0000003FF0
310
000001FFFF80007F0001FFFFFF0000F8001FFFFFF0000FF8000001FFFE000000
310
7FFFFFF0001FFFFFFC0007FFFFFFF0001FFC0007FFFFFFF0001FFF0003FFFFFF
310
FFC001FFFFFF80007000FFFFFFFFFE0000FFFE0008003FF0008001FFFF80007F
310
FFFFFFFFFC0000FFFFFFFFFFE0000FF8000001FFFE0000007FFFFFF0001FFFFF
310
F8000FFFFFFFF8000FF8000FFFFFFFF8000FFF0003FFFFFFFFFFFFFFFFFF0000
310
7000FFFFFFFFFC0000FFFC0008003FF0008001FFFF80007FFFFFFFFFF80001FF
310
FFFFFFFF80000FF8000001FFFE0000007FFFFFF0001FFFFFF8000FFFFFFFF800
310
0FF8000FFFFFFFF8000FFF0003FFFFFFFFFFFFFFFFFE0000F000FFFFFFFFE000
310
00FFFC000C003FE000C001FFFF80007FFFFFFFFFC00001FFFFFFFFFE00001FF8
310
000001FFFE0000007FFFFFF0001FFFFFF8000FFFFFFFF8000FF8000FFFFFFFF8
310
000FFF0003FFFFFFFFFFFFFFFFF00000F000FFFFFFFE000001FFFC000C001FE0
310
00C000FFFF80007FFFFFFFFE000001FFFFFFFFE000001FF80FFFFFFFFFFFFFC0
310
7FFFFFF0001FFFFFF8000FFFFFFFF8000FF8000FFFFFFFF8000FFF0003FFFFFF
310
FFFFFFFFFF800000F000FFFFFFC0000001FFFC001C001FE001C000FFFF80007F
310
FFFFFF80000003FFFFFFF80000001FF80FFFFFFFFFFFFFC07FFFFFF0001FFFFF
310
F8001FFFFFFFFC000FF8001FFFFFFFFC000FFF0003FFFFFFFFFFFFFFF0000001
310
F000FFFFF800000001FFF8001C001FE001C000FFFF80007FFFFFF800000003FF
310
FFFF800000003FF80FFFFFFFFFFFFFC07FFFFFF0001FFFFFF8001FFFFFFFFC00
310
0FF8001FFFFFFFFC000FFF0003FFFFFFFFFFFFFE00000001F000FFFFC0000000
310
03FFF8001E001FC001E000FFFF80007FFFFF8000000007FFFFFC000000003FF8
310
0FFFFFFFFFFFFFC07FFFFFF0001FFFFFF8001FFFFFFFFC000FF8001FFFFFFFFC
310
000FFF0003FFFFFFFFFFFFE000000003F000FFFE0000000007FFF8001E000FC0
310
01E0007FFF80007FFFFE0000000007FFFFE0000000007FF80FFFFFFFFFFFFFC0
310
7FFFFFF0001FFFFFF0001FFFFFFFFC0007F0001FFFFFFFFC0007FF0003FFFFFF
310
FFFFFF0000000003F000FFF80000000007FFF8001E000FC003E0007FFF80007F
310
FFF0000000000FFFFF8000000000FFF80FFFFFFFFFFFFFC07FFFFFF0001FFFFF
310
F0001FFFFFFFFC0007F0001FFFFFFFFC0007FF0003FFFFFFFFFFFC0000000007
310
F000FFE0000000000FFFF0003E000FC003E0007FFF80007FFFC0000000001FFF
310
FE0000000001FFF80FFFFFFFFFFFFFC07FFFFFF0001FFFFFF0001FFFFFFFFC00
310
07F0001FFFFFFFFC0007FF0003FFFFFFFFFFF0000000000FF000FFC000000000
310
1FFFF0003F000F8003F0003FFF80007FFF80000000003FFFF80000000003FFF8
310
0FFFFFFFFFFFFFC07FFFFFF0001FFFFFF0001FFFFFFFFC0007F0001FFFFFFFFC
310
0007FF0003FFFFFFFFFFE0000000001FF000FF00000000007FFFF0003F000780
310
03F0003FFF80007FFF00000000007FFFF00000000007FFF80FFFFFFFFFFFFFC0
310
7FFFFFF0001FFFFFF0001FFFFFFFFC0007F0001FFFFFFFFC0007FF0003FFFFFF
310
FFFF80000000007FF000FE0000000000FFFFE0003F00078007F0003FFF80007F
310
FE0000000001FFFFE0000000001FFFF80FFFFFFFFFFFFFC07FFFFFF0001FFFFF
310
F0001FFFFFFFFC0007F0001FFFFFFFFC0007FF0003FFFFFFFFFF0000000000FF
310
F000FC0000000003FFFFE0007F00078007F0003FFF80007FFC0000000007FFFF
310
C0000000007FFFF80FFFFFFFFFFFFFC07FFFFFF0001FFFFFF8001FFFFFFFFC00
310
0FF8001FFFFFFFFC000FFF0003FFFFFFFFFE0000000003FFF000FC000000000F
310
FFFFE0007F80070007F8001FFF80007FF8000000001FFFFF8000000001FFFFF8
310
0FFFFFFFFFFFFFC07FFFFFF0001FFFFFF8001FFFFFFFFC000FF8001FFFFFFFFC
310
000FFF0003FFFFFFFFFC000000000FFFF000F8000000007FFFFFE0007F800700
310
07F8001FFF80007FF000000000FFFFFF800000000FFFFFF80FFFFFFFFFFFFFC0
310
7FFFFFF0001FFFFFF8000FFFFFFFF8000FF8000FFFFFFFF8000FFF0003FFFFFF
310
FFFC000000007FFFF000F800000007FFFFFFC0007F8003000FF8001FFF80007F
310
F000000007FFFFFF000000007FFFFFF80FFFFFFFFFFFFFC07FFFFFF0001FFFFF
310
F8000FFFFFFFF8000FF8000FFFFFFFF8000FFF0003FFFFFFFFF80000000FFFFF
310
F000F0000000FFFFFFFFC000FF8003000FF8001FFF80007FE0000000FFFFFFFF
310
0000000FFFFFFFF8000001FFFE0000007FFFFFF0001FFFFFF8000FFFFFFFF800
310
0FF8000FFFFFFFF8000FFF0003FFFFFFFFF8000000FFFFFFF000F000000FFFFF
310
FFFFC000FFC002000FF8000FFF80007FE000001FFFFFFFFE000001FFFFFFFFF8
310
000001FFFE0000007FFFFFF0001FFFFFF8000FFFFFFFF8000FF8000FFFFFFFF8
310
000FFF0003FFFFFFFFF000001FFFFFFFF000E00000FFFFFFFFFFC000FFC00200
310
0FFC000FFF80007FE00001FFFFFFFFFE00001FFFFFFFFFF8000001FFFE000000
310
7FFFFFF0001FFFFFFC000FFFFFFFF8001FFC000FFFFFFFF8001FFF0003FFFFFF
310
FFF00001FFFFFFFFF000E00007FFFFFFFFFF8000FFC000001FFC000FFF80007F
310
C0000FFFFFFFFFFE0000FFFFFFFFFFF8000001FFFE0000007FFFFFF0001FFFFF
310
FC0007FFFFFFF0001FFC0007FFFFFFF0001FFF0003FFFFFFFFF00007FFFFFFFF
310
F000E0001FFFFFFFFFFF8000FFC000001FFC000FFF80007FC0003FFFFFFFFFFE
310
0001FFFFFFFFFFF8000001FFFE0000007FFFFFF0001FFFFFFC0007FFFFFFF000
310
1FFC0007FFFFFFF0001FFF0003FFFFFFFFF0001FFFFFFFFFF000E0003FFFFF00
310
03FF8001FFE000001FFC0007FF80007FC0007FFFFF0007FC0003FFFFF0003FF8
310
000001FFFE0000007FFFFFF0001FFFFFFC0003FFFFFFE0001FFC0003FFFFFFE0
310
001FFF0003FFFFFFFFF0003FFFFFFFFFF000E0003FFFFF0001FF8001FFE00000
310
1FFE0007FF80007FC0007FFFFE0003FC0007FFFFE0003FF8000001FFFE000000
310
7FFFFFF0001FFFFFFE0003FFFFFFE0003FFE0003FFFFFFE0003FFF0003FFFFFF
310
FFF0003FFFFF8001F000E0003FFFFF0001FF0001FFE000001FFE0007FF80007F
310
C0007FFFFE0003FC0007FFFFE0003FF8000001FFFE0000007FFFFFF0001FFFFF
310
FE0001FFFFFFC0003FFE0001FFFFFFC0003FFF0003FFFFFFFFF0003FFFFF0001
310
F000E0003FFFFF0003FF0001FFE000003FFE0007FF80007FC0007FFFFE0003FC
310
0007FFFFE0003FF8000001FFFE0000007FFFFFF0001FFFFFFF0001FFFFFFC000
310
7FFF0001FFFFFFC0007FFF0003FFFFFFFFF0003FFFFF0001F000E0003FFFFE00
310
03FF0003FFF000003FFE0003FF80007FC0007FFFFC0003FE0007FFFFE0003FF8
310
000001FFFE0000007FFFFFF0001FFFFFFF0000FFFFFF80007FFF0000FFFFFF80
310
007FFF0003FFFFFFFFF0003FFFFF0001F000E0003FFFFE0003FF0003FFF00000
310
3FFF0003FF80007FC0007FFFFC0007FE0007FFFFC0003FF8000001FFFE000000
310
7FFFFFF0001FFFFFFF80007FFFFF0000FFFF80007FFFFF0000FFFF0003FFFFFF
310
FFF0003FFFFF0003F000E0003FFFFC0003FE0003FFF000003FFF0003FF80007F
310
E0003FFFF80007FE0003FFFFC0007FF8000001FFFE0000007FFFFFF0001FFFFF
310
FF80003FFFFE0000FFFF80003FFFFE0000FFFF0003FFFFFFFFF0001FFFFE0003
310
F000F0001FFFF80003FE0003FFF000007FFF0001FF80007FE0003FFFF00007FE
310
0001FFFF80007FF8000001FFFE0000007FFFFFF0001FFFFFFFC0000FFFF80001
310
FFFFC0000FFFF80001FFFF0003FFFFFFFFF0001FFFFC0003F000F0000FFFF000
310
07FE0007FFF800007FFF0001FF80007FE0001FFFE00007FF0000FFFE00007FF8
310
000001FFFE0000007FFFFFF0001FFFFFFFC00003FFE00001FFFFC00003FFE000
310
01FFFF0003FFFFFFFFF8000FFFF80003F000F00003FFC00007FC0007FFF80000
310
7FFF8001FF80007FF00007FF80000FFF00007FF80000FFF8000001FFFE000000
310
7F80000000000001FFE000003E000003FFFFE000003E000003FFFF0003FFFFFF
310
FFF80003FFE00007F000F800000000000FFC0007FFF800007FFF8001FF80007F
310
F000000000000FFF000000000000FFF8000001FFFE0000007F80000000000001
310
FFF0000000000007FFFFF0000000000007FFFF0003FFFFFFFFFC00007E000007
310
F000F800000000000FFC0007FFF80000FFFF8000FF80007FF800000000001FFF
310
800000000001FFF8000001FFFE0000007F80000000000001FFF800000000000F
310
FFFFF800000000000FFFFF0003FFFFFFFFFC00000000000FF000FC0000000000
310
1FFC0007FFFC0000FFFF8000FF80007FF800000000003FFFC00000000001FFF8
310
000001FFFE0000007F80000000000001FFF800000000000FFFFFF80000000000
310
0FFFFF0003FFFFFFFFFE00000000001FF000FE00000000003FF8000FFFFC0000
310
FFFF8000FF80007FFC00000000003FFFC00000000003FFF8000001FFFE000000
310
7F80000000000001FFFC00000000001FFFFFFC00000000001FFFFF0003FFFFFF
310
FFFF00000000001FF000FF00000000003FF8000FFFFC0000FFFFC000FF80007F
310
FE00000000007FFFE00000000007FFF8000001FFFE0000007F80000000000001
310
FFFE00000000003FFFFFFE00000000003FFFFF0003FFFFFFFFFF80000000003F
310
F000FF80000000007FF8000FFFFC0001FFFFC0007F80007FFF0000000000FFFF
310
F0000000000FFFF800000000000000007F80000000000001FFFF8000000000FF
310
FFFFFF8000000000FFFFFF0003FFFFFFFFFFC0000000007FF000FFC000000000
310
FFF8000FFFFE0001FFFFC0007F80007FFF8000000001FFFFF8000000001FFFF8
310
00000000000000007F80000000000001FFFFC000000001FFFFFFFFC000000001
310
FFFFFF0003FFFFFFFFFFE000000000FFF000FFE000000003FFF0001FFFFE0001
310
FFFFC0007F80007FFFC000000007FFFFFE000000003FFFF80000000000000000
310
7F80000000000001FFFFE000000003FFFFFFFFE000000003FFFFFF0003FFFFFF
310
FFFFF000000003FFF000FFF80000000FFFF0001FFFFE0001FFFFE0007F80007F
310
FFF00000000FFFFFFF00000000FFFFF800000000000000007F80000000000001
310
FFFFF80000000FFFFFFFFFF80000000FFFFFFF0003FFFFFFFFFFFC0000000FFF
310
F000FFFE0000003FFFF0001FFFFE0003FFFFE0003F80007FFFFC0000003FFFFF
310
FFC0000003FFFFF800000000000000007F80000000000001FFFFFE0000003FFF
310
FFFFFFFE0000003FFFFFFF0003FFFFFFFFFFFF0000003FFFF000FFFF800000FF
310
FFF0001FFFFF0003FFFFE0003F80007FFFFF000001FFFFFFFFF800001FFFFFF8
310
00000000000000007F80000000000001FFFFFFC00001FFFFFFFFFFFFC00001FF
310
FFFFFF0003FFFFFFFFFFFFC00000FFFFF000FFFFF8000FFFFFFFFFFFFFFFFFFF
310
FFFFFFFFFFFFFFFFFFFFF0001FFFFFFFFFFF0000FFFFFFF80000000000000000
310
7FFFFFFFFFFFFFFFFFFFFFFC001FFFFFFFFFFFFFFC001FFFFFFFFFFFFFFFFFFF
310
FFFFFFFC001FFFFFF000FFFFFFFFFFFFFFFFFFFFFFFFFFFFFFFFFFFFFFFFFFFF
310
FFFFFFFFFFFFFFFFFFFFFFFFFFFFFFFFFFFFFFFFFFFFFFFFFFFFFFFFFFFFFFFF
310
FFFFFFFFFFFFFFFFFFFFFFFFFFFFFFFFFFFFFFFFFFFFFFFFFFFFFFFFFFFFFFFF
310
F000FFFFFFFFFFFFFFFFFFFFFFFFFFFFFFFFFFFFFFFFFFFFFFFFFFFFFFFFFFFF
310
FFFFFFFFFFFFFFFFFFFFFFFFFFFFFFFFFFFFFFFFFFFFFFFFFFFFFFFFFFFFFFFF
310
FFFFFFFFFFFFFFFFFFFFFFFFFFFFFFFFFFFFFFFFFFFFFFFFF000FFFFFFFFFFFF
310
FFFFFFFFFFFFFFFFFFFFFFFFFFFFFFFFFFFFFFFFFFFFFFFFFFFFFFFFFFFFFFFF
310
FFFFFFFFFFFFFFFFFFFFFFFFFFFFFFFFFFFFFFFFFFFFFFFFFFFFFFFFFFFFFFFF
310
FFFFFFFFFFFFFFFFFFFFFFFFFFFFFFFFF000FFFFFFFFFFFFFFFFFFFFFFFFFFFF
310
FFFFFFFFFFFFFFFFFFFFFFFFFFFFFFFFFFFFFFFFFFFFFFFFFFFFFFFFFFFFFFFF
310
FFFFFFFFFFFFFFFFFFFFFFFFFFFFFFFFFFFFFFFFFFFFFFFFFFFFFFFFFFFFFFFF
310
FFFFFFFFFFFFFFFFF000FFFFFFFFFFFFFFFFFFFFFFFFFFFFFFFFFFFFFFFFFFFF
310
FFFFFFFFFFFFFFFFFFFFFFFFFFFFFFFFFFFFFFFFFFFFFFFFFFFFFFFFFFFFFFFF
310
FFFFFFFFFFFFFFFFFFFFFFFFFFFFFFFFFFFFFFFFFFFFFFFFFFFFFFFFFFFFFFFF
310
F000FFFFFFFFFFFFFFFFFFFFFFFFFFFFFFFFFFFFFFFFFFFFFFFFFFFFFFFFFFFF
310
FFFFFFFFFFFFFFFFFFFFFFFFFFFFFFFFFFFFFFFFFFFFFFFFFFFFFFFFFFFFFFFF
310
FFFFFFFFFFFFFFFFFFFFFFFFFFFFFFFFFFFFFFFFFFFFFFFFF000FFFFFFFFFFFF
310
FFFFFFFFFFFFFFFFFFFFFFFFFFFFFFFFFFFFFFFFFFFFFFFFFFFFFFFFFFFFFFFF
310
FFFFFFFFFFFFFFFFFFFFFFFFFFFFFFFFFFFFFFFFFFFFFFFFFFFFFFFFFFFFFFFF
310
FFFFFFFFFFFFFFFFFFFFFFFFFFFFFFFFF000FFFFFFFFFFFFFFFFFFFFFFFFFFFF
310
FFFFFFFFFFFFFFFFFFFFFFFFFFFFFFFFFFFFFFFFFFFFFFFFFFFFFFFFFFFFFFFF
310
FFFFFFFFFFFFFFFFFFFFFFFFFFFFFFFFFFFFFFFFFFFFFFFFFFFFFFFFFFFFFFFF
310
FFFFFFFFFFFFFFFFF000FFFFFFFFFFFFFFFFFFFFFFFFFFFFFFFFFFFFFFFFFFFF
310
FFFFFFFFFFFFFFFFFFFFFFFFFFFFFFFFFFFFFFFFFFFFFFFFFFFFFFFFFFFFFFFF
310
FFFFFFFFFFFFFFFFFFFFFFFFFFFFFFFFFFFFFFFFFFFFFFFFFFFFFFFFFFFFFFFF
310
F000FFFFFFFFFFFFFFFFFFFFFFFFFFFFFFFFFFFFFFFFFFFFFFFFFFFFFFFFFFFF
310
FFFFFFFFFFFFFFFFFFFFFFFFFFFFFFFFFFFFFFFFFFFFFFFFFFFFFFFFFFFFFFFF
310
FFFFFFFFFFFFFFFFFFFFFFFFFFFFFFFFFFFFFFFFFFFFFFFFF000FFFFFFFFFFFF
310
FFFFFFFFFFFFFFFFFFFFFFFFFFFFFFFFFFFFFFFFFFFFFFFFFFFFFFFFFFFFFFFF
310
FFFFFFFFFFFFFFFFFFFFFFFFFFFFFFFFFFFFFFFFFFFFFFFFFFFFFFFFFFFFFFFF
310
FFFFFFFFFFFFFFFFFFFFFFFFFFFFFFFFF000FFFFFFFFFFFFFFFFFFFFFFFFFFFF
310
FFFFFFFFFFFFFFFFFFFFFFFFFFFFFFFFFFFFFFFFFFFFFFFFFFFFFFFFFFFFFFFF
310
FFFFFFFFFFFFFFFFFFFFFFFFFFFFFFFFFFFFFFFFFFFFFFFFFFFFFFFFFFFFFFFF
310
FFFFFFFFFFFFFFFFF000FFFFFFFFFFFFFFFFFFFFFFFFFFFFFFFFFFFFFFFFFFFF
310
FFFFFFFFFFFFFFFFFFFFFFFFFFFFFFFFFFFFFFFFFFFFFFFFFFFFFFFFFFFFFFFF
310
FFFFFFFFFFFFFFFFFFFFFFFFFFFFFFFFFFFFFFFFFFFFFFFFFFFFFFFFFFFFFFFF
310
F000FFFFFFFFFFFFFFFFFFFFFFFFFFFFFFFFFFFFFFFFFFFFFFFFFFFFFFFFFFFF
310
FFFFFFFFFFFFFFFFFFFFFFFFFFFFFFFFFFFFFFFFFFFFFFFFFFFFFFFFFFFFFFFF
310
FFFFFFFFFFFFFFFFFFFFFFFFFFFFFFFFFFFFFFFFFFFFFFFFF000FFFFFFFFFFFF
310
FFFFFFFFFFFFFFFFFFFFFFFFFFFFFFFFFFFFFFFFFFFFFFFFFFFFFFFFFFFFFFFF
310
FFFFFFFFFFFFFFFFFFFFFFFFFFFFFFFFFFFFFFFFFFFFFFFFFFFFFFFFFFFFFFFF
310
FFFFFFFFFFFFFFFFFFFFFFFFFFFFFFFFF000FFFFFFFFFFFFFFFFFFFFFFFFFFFF
310
FFFFFFFFFFFFFFFFFFFFFFFFFFFFFFFFFFFFFFFFFFFFFFFFFFFFFFFFFFFFFFFF
310
FFFFFFFFFFFFFFFFFFFFFFFFFFFFFFFFFFFFFFFFFFFFFFFFFFFFFFFFFFFFFFFF
310
FFFFFFFFFFFFFFFFF000FFFFFFFFFFFFFFFFFFFFFFFFFFFFFFFFFFFFFFFFFFFF
310
FFFFFFFFFFFFFFFFFFFFFFFFFFFFFFFFFFFFFFFFFFFFFFFFFFFFFFFFFFFFFFFF
310
FFFFFFFFFFFFFFFFFFFFFFFFFFFFFFFFFFFFFFFFFFFFFFFFFFFFFFFFFFFFFFFF
310
F000FFFFFFFFFFFFFFFFFFFFFFFFFFFFFFFFFFFFFFFFFFFFFFFFFFFFFFFFFFFF
310
FFFFFFFFFFFFFFFFFFFFFFFFFFFFFFFFFFFFFFFFFFFFFFFFFFFFFFFFFFFFFFFF
310
FFFFFFFFFFFFFFFFFFFFFFFFFFFFFFFFFFFFFFFFFFFFFFFFF000FFFFFFFFFFFF
310
FFFFFFFFFFFFFFFFFFFFFFFFFFFFFFFFFFFFFFFFFFFFFFFFFFFFFFFFFFFFFFFF
310
FFFFFFFFFFFFFFFFFFFFFFFFFFFFFFFFFFFFFFFFFFFFFFFFFFFFFFFFFFFFFFFF
310
FFFFFFFFFFFFFFFFFFFFFFFFFFFFFFFFF000FFFFFFFFFFFFFFFFFFFFFFFFFFFF
310
FFFFFFFFFFFFFFFFFFFFFFFFFFFFFFFFFFFFFFFFFFFFFFFFFFFFFFFFFFFFFFFF
310
FFFFFFFFFFFFFFFFFFFFFFFFFFFFFFFFFFFFFFFFFFFFFFFFFFFFFFFFFFFFFFFF
310
FFFFFFFFFFFFFFFFF000FFFFFFFFFFFFFFFFFFFFFFFFFFFFFFFFFFFFFFFFFFFF
310
FFFFFFFFFFFFFFFFFFFFFFFFFFFFFFFFFFFFFFFFFFFFFFFFFFFFFFFFFFFFFFFF
310
FFFFFFFFFFFFFFFFFFFFFFFFFFFFFFFFFFFFFFFFFFFFFFFFFFFFFFFFFFFFFFFF
310
F000FFFFFFFFFFFFFFFFFFFFFFFFFFFFFFFFFFFFFFFFFFFFFFFFFFFFFFFFFFFF
310
FFFFFFFFFFFFFFFFFFFFFFFFFFFFFFFFFFFFFFFFFFFFFFFFFFFFFFFFFFFFFFFF
310
FFFFFFFFFFFFFFFFFFFFFFFFFFFFFFFFFFFFFFFFFFFFFFFFF000FFFFFFFFFFFF
310
FFFFFFFFFFFFFFFFFFFFFFFFFFFFFFFFFFFFFFFFFFFFFFFFFFFFFFFFFFFFFFFF
310
FFFFFFFFFFFFFFFFFFFFFFFFFFFFFFFFFFFFFFFFFFFFFFFFFFFFFFFFFFFFFFFF
310
FFFFFFFFFFFFFFFFFFFFFFFFFFFFFFFFF0000000000000000000000000000000
310
0000000000000000000000000000000000000000000000000000000000000000
310
0000000000000000000000000000000000000000000000000000000000000000
310
0000000000000000000000000000000000000000000000000000000000000000
310
0000000000000000000000000000000000000000000000000000000000000000
310
0000000000000000000000000000000000000000000000000000000000000000
310
0000000000000000000000000000000000000000000000000000000000000000
310
0000000000000000000000000000000000000000000000000000000000000000
310
0000000000000000000000000000000000000000000000000000000000000000
310
0000000000000000000000000000000000000000000000000000000000000000
310
0000000000000000000000000000000000000000000000000000000000000000
310
0000000000000000000000000000000000000000000000000000000000000000
310
0000000000000000000000000000000000000000000000000000000000000000
310
0000000000000000000000000000000000000000000000000000000000000000
310
0000000000000000000000000000000000000000000000000000000000000000
310
0000000000000000000000000000000000000000000000000000000000000000
  1
OLE
  0
ENDSEC
  0
SECTION
  2
OBJECTS
  0
DICTIONARY
  5
C
330
0
100
AcDbDictionary
281
     1
  3
ACAD_GROUP
350
D
  3
ACAD_LAYOUT
350
1A
  3
ACAD_MLINESTYLE
350
17
  3
ACAD_PLOTSETTINGS
350
19
  3
ACAD_PLOTSTYLENAME
350
E
  0
DICTIONARY
  5
D
102
{ACAD_REACTORS
330
C
102
}
330
C
100
AcDbDictionary
281
     1
  0
DICTIONARY
  5
1A
102
{ACAD_REACTORS
330
C
102
}
330
C
100
AcDbDictionary
281
     1
  3
Layout1
350
1E
  3
Layout2
350
26
  3
Model
350
22
  0
DICTIONARY
  5
17
102
{ACAD_REACTORS
330
C
102
}
330
C
100
AcDbDictionary
281
     1
  3
Standard
350
18
  0
DICTIONARY
  5
19
102
{ACAD_REACTORS
330
C
102
}
330
C
100
AcDbDictionary
281
     1
  0
ACDBDICTIONARYWDFLT
  5
E
102
{ACAD_REACTORS
330
C
102
}
330
C
100
AcDbDictionary
281
     1
  3
Normal
350
F
100
AcDbDictionaryWithDefault
340
F
  0
LAYOUT
  5
1E
102
{ACAD_REACTORS
330
1A
102
}
330
1A
100
AcDbPlotSettings
  1

  2
none_device
  4

  6

 40
0.0
 41
0.0
 42
0.0
 43
0.0
 44
0.0
 45
0.0
 46
0.0
 47
0.0
 48
0.0
 49
0.0
140
0.0
141
0.0
142
1.0
143
1.0
 70
   688
 72
     0
 73
     0
 74
     5
  7

 75
    16
147
1.0
148
0.0
149
0.0
100
AcDbLayout
  1
Layout1
 70
     1
 71
     1
 10
0.0
 20
0.0
 11
420.0
 21
297.0
 12
0.0
 22
0.0
 32
0.0
 14
1.0000000000E+20
 24
1.0000000000E+20
 34
1.0000000000E+20
 15
-1.0000000000E+20
 25
-1.0000000000E+20
 35
-1.0000000000E+20
146
0.0
 13
0.0
 23
0.0
 33
0.0
 16
1.0
 26
0.0
 36
0.0
 17
0.0
 27
1.0
 37
0.0
 76
     0
330
1B
  0
LAYOUT
  5
26
102
{ACAD_REACTORS
330
1A
102
}
330
1A
100
AcDbPlotSettings
  1

  2
none_device
  4

  6

 40
0.0
 41
0.0
 42
0.0
 43
0.0
 44
0.0
 45
0.0
 46
0.0
 47
0.0
 48
0.0
 49
0.0
140
0.0
141
0.0
142
1.0
143
1.0
 70
   688
 72
     0
 73
     0
 74
     5
  7

 75
    16
147
1.0
148
0.0
149
0.0
100
AcDbLayout
  1
Layout2
 70
     1
 71
     2
 10
0.0
 20
0.0
 11
0.0
 21
0.0
 12
0.0
 22
0.0
 32
0.0
 14
0.0
 24
0.0
 34
0.0
 15
0.0
 25
0.0
 35
0.0
146
0.0
 13
0.0
 23
0.0
 33
0.0
 16
1.0
 26
0.0
 36
0.0
 17
0.0
 27
1.0
 37
0.0
 76
     0
330
23
  0
LAYOUT
  5
22
102
{ACAD_REACTORS
330
1A
102
}
330
1A
100
AcDbPlotSettings
  1

  2
none_device
  4

  6

 40
0.0
 41
0.0
 42
0.0
 43
0.0
 44
0.0
 45
0.0
 46
0.0
 47
0.0
 48
0.0
 49
0.0
140
0.0
141
0.0
142
1.0
143
1.0
 70
  1712
 72
     0
 73
     0
 74
     0
  7

 75
     0
147
1.0
148
0.0
149
0.0
100
AcDbLayout
  1
Model
 70
     1
 71
     0
 10
0.0
 20
0.0
 11
297.0
 21
210.0
 12
0.0
 22
0.0
 32
0.0
 14
0.0
 24
0.0
 34
0.0
 15
297.0
 25
210.0
 35
0.0
146
0.0
 13
0.0
 23
0.0
 33
0.0
 16
1.0
 26
0.0
 36
0.0
 17
0.0
 27
1.0
 37
0.0
 76
     0
330
1F
331
29
  0
MLINESTYLE
  5
18
102
{ACAD_REACTORS
330
17
102
}
330
17
100
AcDbMlineStyle
  2
Standard
 70
     0
  3

 62
   256
 51
90.0
 52
90.0
 71
     2
 49
0.5
 62
   256
  6
BYLAYER
 49
-0.5
 62
   256
  6
BYLAYER
  0
ACDBPLACEHOLDER
  5
F
102
{ACAD_REACTORS
330
E
102
}
330
E
  0
ENDSEC
  0
EOF
