  0
SECTION
  2
HEADER
  9
$ACADVER
  1
AC1015
  9
$ACADMAINTVER
 70
     6
  9
$DWGCODEPAGE
  3
ANSI_1252
  9
$INSBASE
 10
0.0
 20
0.0
 30
0.0
  9
$EXTMIN
 10
0.0
 20
0.0
 30
0.0
  9
$EXTMAX
 10
297.0
 20
210.0
 30
0.0
  9
$LIMMIN
 10
0.0
 20
0.0
  9
$LIMMAX
 10
297.0
 20
210.0
  9
$ORTHOMODE
 70
     0
  9
$REGENMODE
 70
     1
  9
$FILLMODE
 70
     1
  9
$QTEXTMODE
 70
     0
  9
$MIRRTEXT
 70
     1
  9
$LTSCALE
 40
1.0
  9
$ATTMODE
 70
     1
  9
$TEXTSIZE
 40
2.0
  9
$TRACEWID
 40
1.0
  9
$TEXTSTYLE
  7
Standard
  9
$CLAYER
  8
0
  9
$CELTYPE
  6
ByLayer
  9
$CECOLOR
 62
   256
  9
$CELTSCALE
 40
1.0
  9
$DISPSILH
 70
     0
  9
$DIMSCALE
 40
1.0
  9
$DIMASZ
 40
3.0
  9
$DIMEXO
 40
0.0
  9
$DIMDLI
 40
3.75
  9
$DIMRND
 40
0.0
  9
$DIMDLE
 40
0.0
  9
$DIMEXE
 40
1.0
  9
$DIMTP
 40
0.0
  9
$DIMTM
 40
0.0
  9
$DIMTXT
 40
2.0
  9
$DIMCEN
 40
2.5
  9
$DIMTSZ
 40
0.0
  9
$DIMTOL
 70
     0
  9
$DIMLIM
 70
     0
  9
$DIMTIH
 70
     1
  9
$DIMTOH
 70
     1
  9
$DIMSE1
 70
     0
  9
$DIMSE2
 70
     0
  9
$DIMTAD
 70
     1
  9
$DIMZIN
 70
     0
  9
$DIMBLK
  1

  9
$DIMASO
 70
     1
  9
$DIMSHO
 70
     1
  9
$DIMPOST
  1

  9
$DIMAPOST
  1

  9
$DIMALT
 70
     0
  9
$DIMALTD
 70
     3
  9
$DIMALTF
 40
0.0393700787
  9
$DIMLFAC
 40
1.0
  9
$DIMTOFL
 70
     1
  9
$DIMTVP
 40
0.0
  9
$DIMTIX
 70
     0
  9
$DIMSOXD
 70
     0
  9
$DIMSAH
 70
     0
  9
$DIMBLK1
  1

  9
$DIMBLK2
  1

  9
$DIMSTYLE
  2
ISO-25
  9
$DIMCLRD
 70
     0
  9
$DIMCLRE
 70
     0
  9
$DIMCLRT
 70
     0
  9
$DIMTFAC
 40
1.0
  9
$DIMGAP
 40
1.524
  9
$DIMJUST
 70
     0
  9
$DIMSD1
 70
     0
  9
$DIMSD2
 70
     0
  9
$DIMTOLJ
 70
     0
  9
$DIMTZIN
 70
     0
  9
$DIMALTZ
 70
     0
  9
$DIMALTTZ
 70
     0
  9
$DIMUPT
 70
     0
  9
$DIMDEC
 70
     2
  9
$DIMTDEC
 70
     3
  9
$DIMALTU
 70
     2
  9
$DIMALTTD
 70
     3
  9
$DIMTXSTY
  7
Standard
  9
$DIMAUNIT
 70
     0
  9
$DIMADEC
 70
     2
  9
$DIMALTRND
 40
0.0
  9
$DIMAZIN
 70
     0
  9
$DIMDSEP
 70
    44
  9
$DIMATFIT
 70
     3
  9
$DIMFRAC
 70
     0
  9
$DIMLDRBLK
  1

  9
$DIMLUNIT
 70
     2
  9
$DIMLWD
 70
    -2
  9
$DIMLWE
 70
    -2
  9
$DIMTMOVE
 70
     0
  9
$LUNITS
 70
     2
  9
$LUPREC
 70
     2
  9
$SKETCHINC
 40
1.0
  9
$FILLETRAD
 40
10.0
  9
$AUNITS
 70
     0
  9
$AUPREC
 70
     2
  9
$MENU
  1
.
  9
$ELEVATION
 40
0.0
  9
$PELEVATION
 40
0.0
  9
$THICKNESS
 40
0.0
  9
$LIMCHECK
 70
     0
  9
$CHAMFERA
 40
10.0
  9
$CHAMFERB
 40
10.0
  9
$CHAMFERC
 40
20.0
  9
$CHAMFERD
 40
0.0
  9
$SKPOLY
 70
     0
  9
$TDCREATE
 40
2456072.61663971
  9
$TDUCREATE
 40
2456072.533306377
  9
$TDUPDATE
 40
2456072.616641157
  9
$TDUUPDATE
 40
2456072.533307824
  9
$TDINDWG
 40
0.0000000116
  9
$TDUSRTIMER
 40
0.0000000116
  9
$USRTIMER
 70
     1
  9
$ANGBASE
 50
0.0
  9
$ANGDIR
 70
     0
  9
$PDMODE
 70
     0
  9
$PDSIZE
 40
-1.0
  9
$PLINEWID
 40
0.0
  9
$SPLFRAME
 70
     0
  9
$SPLINETYPE
 70
     6
  9
$SPLINESEGS
 70
     8
  9
$HANDSEED
  5
288
  9
$SURFTAB1
 70
     6
  9
$SURFTAB2
 70
     6
  9
$SURFTYPE
 70
     6
  9
$SURFU
 70
     6
  9
$SURFV
 70
     6
  9
$UCSBASE
  2

  9
$UCSNAME
  2

  9
$UCSORG
 10
0.0
 20
0.0
 30
0.0
  9
$UCSXDIR
 10
1.0
 20
0.0
 30
0.0
  9
$UCSYDIR
 10
0.0
 20
1.0
 30
0.0
  9
$UCSORTHOREF
  2

  9
$UCSORTHOVIEW
 70
     0
  9
$UCSORGTOP
 10
0.0
 20
0.0
 30
0.0
  9
$UCSORGBOTTOM
 10
0.0
 20
0.0
 30
0.0
  9
$UCSORGLEFT
 10
0.0
 20
0.0
 30
0.0
  9
$UCSORGRIGHT
 10
0.0
 20
0.0
 30
0.0
  9
$UCSORGFRONT
 10
0.0
 20
0.0
 30
0.0
  9
$UCSORGBACK
 10
0.0
 20
0.0
 30
0.0
  9
$PUCSBASE
  2

  9
$PUCSNAME
  2

  9
$PUCSORG
 10
0.0
 20
0.0
 30
0.0
  9
$PUCSXDIR
 10
1.0
 20
0.0
 30
0.0
  9
$PUCSYDIR
 10
0.0
 20
1.0
 30
0.0
  9
$PUCSORTHOREF
  2

  9
$PUCSORTHOVIEW
 70
     0
  9
$PUCSORGTOP
 10
0.0
 20
0.0
 30
0.0
  9
$PUCSORGBOTTOM
 10
0.0
 20
0.0
 30
0.0
  9
$PUCSORGLEFT
 10
0.0
 20
0.0
 30
0.0
  9
$PUCSORGRIGHT
 10
0.0
 20
0.0
 30
0.0
  9
$PUCSORGFRONT
 10
0.0
 20
0.0
 30
0.0
  9
$PUCSORGBACK
 10
0.0
 20
0.0
 30
0.0
  9
$USERI1
 70
     0
  9
$USERI2
 70
     0
  9
$USERI3
 70
     0
  9
$USERI4
 70
     0
  9
$USERI5
 70
     0
  9
$USERR1
 40
0.0
  9
$USERR2
 40
0.0
  9
$USERR3
 40
0.0
  9
$USERR4
 40
0.0
  9
$USERR5
 40
0.0
  9
$WORLDVIEW
 70
     1
  9
$SHADEDGE
 70
     3
  9
$SHADEDIF
 70
    70
  9
$TILEMODE
 70
     1
  9
$MAXACTVP
 70
    64
  9
$PINSBASE
 10
0.0
 20
0.0
 30
0.0
  9
$PLIMCHECK
 70
     0
  9
$PEXTMIN
 10
1.0000000000E+20
 20
1.0000000000E+20
 30
1.0000000000E+20
  9
$PEXTMAX
 10
-1.0000000000E+20
 20
-1.0000000000E+20
 30
-1.0000000000E+20
  9
$PLIMMIN
 10
0.0
 20
0.0
  9
$PLIMMAX
 10
420.0
 20
297.0
  9
$UNITMODE
 70
     0
  9
$VISRETAIN
 70
     1
  9
$PLINEGEN
 70
     0
  9
$PSLTSCALE
 70
     1
  9
$TREEDEPTH
 70
  3020
  9
$CMLSTYLE
  2
Standard
  9
$CMLJUST
 70
     0
  9
$CMLSCALE
 40
20.0
  9
$PROXYGRAPHICS
 70
     1
  9
$MEASUREMENT
 70
     1
  9
$CELWEIGHT
370
    -1
  9
$ENDCAPS
280
     0
  9
$JOINSTYLE
280
     0
  9
$LWDISPLAY
290
     1
  9
$INSUNITS
 70
     4
  9
$HYPERLINKBASE
  1

  9
$STYLESHEET
  1

  9
$XEDIT
290
     1
  9
$CEPSNTYPE
380
     0
  9
$PSTYLEMODE
290
     1
  9
$FINGERPRINTGUID
  2
{87AA3817-7080-45D8-ACD8-F59C0C2D2532}
  9
$VERSIONGUID
  2
{FAEB1C32-E019-11D5-929B-00C0DF256EC4}
  9
$EXTNAMES
290
     1
  9
$PSVPSCALE
 40
0.0
  9
$OLESTARTUP
290
     0
  0
ENDSEC
  0
SECTION
  2
CLASSES
  0
CLASS
  1
ACDBDICTIONARYWDFLT
  2
AcDbDictionaryWithDefault
  3
ObjectDBX Classes
 90
        0
280
     0
281
     0
  0
CLASS
  1
VISUALSTYLE
  2
AcDbVisualStyle
  3
ObjectDBX Classes
 90
     4095
280
     0
281
     0
  0
CLASS
  1
MATERIAL
  2
AcDbMaterial
  3
ObjectDBX Classes
 90
     1153
280
     0
281
     0
  0
CLASS
  1
ACDBPLACEHOLDER
  2
AcDbPlaceHolder
  3
ObjectDBX Classes
 90
        0
280
     0
281
     0
  0
CLASS
  1
LAYOUT
  2
AcDbLayout
  3
ObjectDBX Classes
 90
        0
280
     0
281
     0
  0
ENDSEC
  0
SECTION
  2
TABLES
  0
TABLE
  2
VPORT
  5
8
330
0
100
AcDbSymbolTable
 70
     1
  0
VPORT
  5
29
330
8
100
AcDbSymbolTableRecord
100
AcDbViewportTableRecord
  2
*Active
 70
     0
 10
0.0
 20
0.0
 11
1.0
 21
1.0
 12
148.5
 22
105.0
 13
0.0
 23
0.0
 14
10.0
 24
10.0
 15
10.0
 25
10.0
 16
0.0
 26
0.0
 36
1.0
 17
0.0
 27
0.0
 37
0.0
 40
210.0
 41
1.4142857143
 42
50.0
 43
0.0
 44
0.0
 50
0.0
 51
0.0
 71
     0
 72
  2000
 73
     1
 74
     3
 75
     0
 76
     0
 77
     0
 78
     0
281
     0
 65
     1
110
0.0
120
0.0
130
0.0
111
1.0
121
0.0
131
0.0
112
0.0
122
1.0
132
0.0
 79
     0
146
0.0
  0
ENDTAB
  0
TABLE
  2
LTYPE
  5
5
330
0
100
AcDbSymbolTable
 70
     6
  0
LTYPE
  5
14
330
5
100
AcDbSymbolTableRecord
100
AcDbLinetypeTableRecord
  2
ByBlock
 70
     0
  3

 72
    65
 73
     0
 40
0.0
  0
LTYPE
  5
15
330
5
100
AcDbSymbolTableRecord
100
AcDbLinetypeTableRecord
  2
ByLayer
 70
     0
  3

 72
    65
 73
     0
 40
0.0
  0
LTYPE
  5
16
330
5
100
AcDbSymbolTableRecord
100
AcDbLinetypeTableRecord
  2
Continuous
 70
     0
  3
Solid line
 72
    65
 73
     0
 40
0.0
  0
LTYPE
  5
3F
330
5
100
AcDbSymbolTableRecord
100
AcDbLinetypeTableRecord
  2
HIDDEN
 70
     0
  3
Hidden __ __ __ __ __ __ __ __ __ __ __ __ __ __
 72
    65
 73
     2
 40
1.905
 49
1.27
 74
     0
 49
-0.635
 74
     0
  0
LTYPE
  5
40
330
5
100
AcDbSymbolTableRecord
100
AcDbLinetypeTableRecord
  2
PHANTOM
 70
     0
  3
Phantom ______  __  __  ______  __  __  ______
 72
    65
 73
     6
 40
12.7
 49
6.35
 74
     0
 49
-1.27
 74
     0
 49
1.27
 74
     0
 49
-1.27
 74
     0
 49
1.27
 74
     0
 49
-1.27
 74
     0
  0
LTYPE
  5
41
330
5
100
AcDbSymbolTableRecord
100
AcDbLinetypeTableRecord
  2
CENTER
 70
     0
  3
Center ____ _ ____ _ ____ _ ____ _ ____ _ ____
 72
    65
 73
     4
 40
10.16
 49
6.35
 74
     0
 49
-1.27
 74
     0
 49
1.27
 74
     0
 49
-1.27
 74
     0
  0
LTYPE
  5
42
330
5
100
AcDbSymbolTableRecord
100
AcDbLinetypeTableRecord
  2
CENTERX2
 70
     0
  3
Center (2x) ________  __  ________  __  _____
 72
    65
 73
     4
 40
20.32
 49
12.7
 74
     0
 49
-2.54
 74
     0
 49
2.54
 74
     0
 49
-2.54
 74
     0
  0
LTYPE
  5
43
330
5
100
AcDbSymbolTableRecord
100
AcDbLinetypeTableRecord
  2
DOT2
 70
     0
  3
Dot (.5x) ........................................
 72
    65
 73
     2
 40
0.635
 49
0.0
 74
     0
 49
-0.635
 74
     0
  0
ENDTAB
  0
TABLE
  2
LAYER
  5
2
330
0
100
AcDbSymbolTable
 70
     5
  0
LAYER
  5
10
330
2
100
AcDbSymbolTableRecord
100
AcDbLayerTableRecord
  2
0
 70
     0
 62
     7
  6
Continuous
370
    -3
390
F
  0
LAYER
  5
44
330
2
100
AcDbSymbolTableRecord
100
AcDbLayerTableRecord
  2
FORMAT
 70
     0
 62
     7
  6
Continuous
370
    -3
390
F
  0
LAYER
  5
45
330
2
100
AcDbSymbolTableRecord
100
AcDbLayerTableRecord
  2
VERMASSUNG
 70
     0
 62
     7
  6
Continuous
370
    -3
390
F
  0
LAYER
  5
46
330
2
100
AcDbSymbolTableRecord
100
AcDbLayerTableRecord
  2
KOPF_DÜNN
 70
     0
 62
     7
  6
Continuous
370
    -3
390
F
  0
LAYER
  5
47
330
2
100
AcDbSymbolTableRecord
100
AcDbLayerTableRecord
  2
KOPF_DICK
 70
     0
 62
     7
  6
Continuous
370
    15
390
F
  0
ENDTAB
  0
TABLE
  2
STYLE
  5
3
330
0
100
AcDbSymbolTable
 70
     2
  0
STYLE
  5
11
330
3
100
AcDbSymbolTableRecord
100
AcDbTextStyleTableRecord
  2
Standard
 70
     0
 40
0.0
 41
1.0
 50
0.0
 71
     0
 42
2.0
  3
txt
  4

  0
STYLE
  5
48
330
3
100
AcDbSymbolTableRecord
100
AcDbTextStyleTableRecord
  2
SLDTEXTSTYLE0
 70
     0
 40
0.0
 41
0.7
 50
0.0
 71
     0
 42
0.2
  3
TXT
  4

  0
ENDTAB
  0
TABLE
  2
VIEW
  5
6
330
0
100
AcDbSymbolTable
 70
     0
  0
ENDTAB
  0
TABLE
  2
UCS
  5
7
330
0
100
AcDbSymbolTable
 70
     0
  0
ENDTAB
  0
TABLE
  2
APPID
  5
9
330
0
100
AcDbSymbolTable
 70
     1
  0
APPID
  5
12
330
9
100
AcDbSymbolTableRecord
100
AcDbRegAppTableRecord
  2
ACAD
 70
     0
  0
ENDTAB
  0
TABLE
  2
DIMSTYLE
  5
A
330
0
100
AcDbSymbolTable
 70
     5
100
AcDbDimStyleTable
  0
DIMSTYLE
105
27
330
A
100
AcDbSymbolTableRecord
100
AcDbDimStyleTableRecord
  2
ISO-25
 70
     0
 41
2.5
 42
0.625
 43
3.75
 44
1.25
 73
     0
 74
     0
 77
     1
 78
     8
140
2.5
141
2.5
143
0.0393700787
147
0.625
171
     3
172
     1
178
     0
271
     2
272
     2
274
     3
278
    44
283
     0
284
     8
340
11
  0
DIMSTYLE
105
1C4
102
{ACAD_REACTORS
330
1C3
330
1D0
102
}
330
A
100
AcDbSymbolTableRecord
100
AcDbDimStyleTableRecord
  2
SLDDIMSTYLE0
 70
     0
 41
3.0
 44
0.0
 45
0.000000001
 47
0.1
 48
0.1
 71
     1
 73
     0
 74
     0
 77
     1
 78
    12
 79
     3
140
2.0
147
0.5
173
     1
178
     0
271
     2
272
     1
276
     2
284
     8
340
48
  0
DIMSTYLE
105
1DD
102
{ACAD_REACTORS
330
1DC
102
}
330
A
100
AcDbSymbolTableRecord
100
AcDbDimStyleTableRecord
  2
SLDDIMSTYLE1
 70
     0
 41
3.0
 44
0.0
 73
     0
 74
     0
 77
     1
 78
    12
 79
     3
140
2.0
147
0.5
173
     1
178
     0
179
     1
272
     3
276
     2
284
    12
340
48
  0
DIMSTYLE
105
1E7
102
{ACAD_REACTORS
330
1E6
330
1F1
102
}
330
A
100
AcDbSymbolTableRecord
100
AcDbDimStyleTableRecord
  2
SLDDIMSTYLE2
 70
     0
 41
3.0
 44
0.0
 45
0.000000001
 73
     0
 74
     0
 77
     1
 78
    12
 79
     3
140
2.0
147
0.5
173
     1
178
     0
271
     2
272
     3
276
     2
284
    12
340
48
  0
DIMSTYLE
105
279
102
{ACAD_REACTORS
330
278
102
}
330
A
100
AcDbSymbolTableRecord
100
AcDbDimStyleTableRecord
  2
SLDDIMSTYLE3
 70
     0
 41
3.0
 44
0.0
 45
0.000000001
 73
     0
 74
     0
 77
     1
 78
    12
 79
     3
140
2.0
147
0.5
172
     1
173
     1
178
     0
271
     2
272
     3
276
     2
284
    12
289
     0
340
48
  0
ENDTAB
  0
TABLE
  2
BLOCK_RECORD
  5
1
330
0
100
AcDbSymbolTable
 70
     7
  0
BLOCK_RECORD
  5
1F
330
1
100
AcDbSymbolTableRecord
100
AcDbBlockTableRecord
  2
*Model_Space
340
22
  0
BLOCK_RECORD
  5
1B
330
1
100
AcDbSymbolTableRecord
100
AcDbBlockTableRecord
  2
*Paper_Space
340
1E
  0
BLOCK_RECORD
  5
23
330
1
100
AcDbSymbolTableRecord
100
AcDbBlockTableRecord
  2
*Paper_Space0
340
26
  0
BLOCK_RECORD
  5
1C5
330
1
100
AcDbSymbolTableRecord
100
AcDbBlockTableRecord
  2
_D
340
0
  0
BLOCK_RECORD
  5
1D1
330
1
100
AcDbSymbolTableRecord
100
AcDbBlockTableRecord
  2
_D_1
340
0
  0
BLOCK_RECORD
  5
1DE
330
1
100
AcDbSymbolTableRecord
100
AcDbBlockTableRecord
  2
_D_2
340
0
  0
BLOCK_RECORD
  5
1E8
330
1
100
AcDbSymbolTableRecord
100
AcDbBlockTableRecord
  2
_D_3
340
0
  0
BLOCK_RECORD
  5
1F2
330
1
100
AcDbSymbolTableRecord
100
AcDbBlockTableRecord
  2
_D_4
340
0
  0
BLOCK_RECORD
  5
27A
330
1
100
AcDbSymbolTableRecord
100
AcDbBlockTableRecord
  2
_D_5
340
0
  0
ENDTAB
  0
ENDSEC
  0
SECTION
  2
BLOCKS
  0
BLOCK
  5
20
330
1F
100
AcDbEntity
  8
0
100
AcDbBlockBegin
  2
*Model_Space
 70
     0
 10
0.0
 20
0.0
 30
0.0
  3
*Model_Space
  1

  0
ENDBLK
  5
21
330
1F
100
AcDbEntity
  8
0
100
AcDbBlockEnd
  0
BLOCK
  5
1C
330
1B
100
AcDbEntity
 67
     1
  8
0
100
AcDbBlockBegin
  2
*Paper_Space
 70
     0
 10
0.0
 20
0.0
 30
0.0
  3
*Paper_Space
  1

  0
ENDBLK
  5
1D
330
1B
100
AcDbEntity
 67
     1
  8
0
100
AcDbBlockEnd
  0
BLOCK
  5
24
330
23
100
AcDbEntity
  8
0
100
AcDbBlockBegin
  2
*Paper_Space0
 70
     0
 10
0.0
 20
0.0
 30
0.0
  3
*Paper_Space0
  1

  0
ENDBLK
  5
25
330
23
100
AcDbEntity
  8
0
100
AcDbBlockEnd
  0
BLOCK
  5
1C6
330
1C5
100
AcDbEntity
  8
0
100
AcDbBlockBegin
  2
_D
 70
     0
 10
0.0
 20
0.0
 30
0.0
  3
_D
  1

  0
SOLID
  5
1C8
330
1C5
100
AcDbEntity
  8
VERMASSUNG
100
AcDbTrace
 10
269.1126939287
 20
85.7076960585
 30
0.0
 11
269.5626939287
 21
88.7076960585
 31
0.0
 12
268.6626939287
 22
88.7076960585
 32
0.0
 13
268.6626939287
 23
88.7076960585
 33
0.0
  0
SOLID
  5
1C9
330
1C5
100
AcDbEntity
  8
VERMASSUNG
100
AcDbTrace
 10
269.1126939287
 20
130.7076960585
 30
0.0
 11
268.6626939287
 21
127.7076960585
 31
0.0
 12
269.5626939287
 22
127.7076960585
 32
0.0
 13
269.5626939287
 23
127.7076960585
 33
0.0
  0
LINE
  5
1CA
330
1C5
100
AcDbEntity
  8
VERMASSUNG
100
AcDbLine
 10
256.5853183729
 20
85.7076960585
 30
0.0
 11
270.1126939287
 21
85.7076960585
 31
0.0
  0
LINE
  5
1CB
330
1C5
100
AcDbEntity
  8
VERMASSUNG
100
AcDbLine
 10
256.5853183729
 20
130.7076960585
 30
0.0
 11
270.1126939287
 21
130.7076960585
 31
0.0
  0
LINE
  5
1CC
330
1C5
100
AcDbEntity
  8
VERMASSUNG
100
AcDbLine
 10
269.1126939287
 20
85.7076960585
 30
0.0
 11
269.1126939287
 21
130.7076960585
 31
0.0
  0
MTEXT
  5
1CD
330
1C5
100
AcDbEntity
  8
VERMASSUNG
100
AcDbMText
 10
266.5345585656
 20
103.5576960413
 30
0.1
 40
2.0
 41
0.0
 71
     1
 72
     1
  1
45
  7
SLDTEXTSTYLE0
 11
6.123233995736766E-17
 21
1.0
 31
0.0
 73
     1
 44
1.0
  0
MTEXT
  5
1CE
330
1C5
100
AcDbEntity
  8
VERMASSUNG
100
AcDbMText
 10
266.5345585656
 20
109.5451962693
 30
0.1
 40
2.0
 41
0.0
 71
     1
 72
     1
  1

  7
SLDTEXTSTYLE0
 11
6.123233995736766E-17
 21
1.0
 31
0.0
 73
     1
 44
1.0
  0
MTEXT
  5
1CF
330
1C5
100
AcDbEntity
  8
VERMASSUNG
100
AcDbMText
 10
267.0290924283
 20
109.5576960935
 30
0.1
 40
1.5
 41
0.0
 71
     1
 72
     1
  1
±0.1
  7
SLDTEXTSTYLE0
 11
6.123233995736766E-17
 21
1.0
 31
0.0
 73
     1
 44
1.0
  0
ENDBLK
  5
1C7
330
1C5
100
AcDbEntity
  8
0
100
AcDbBlockEnd
  0
BLOCK
  5
1D2
330
1D1
100
AcDbEntity
  8
0
100
AcDbBlockBegin
  2
_D_1
 70
     0
 10
0.0
 20
0.0
 30
0.0
  3
_D_1
  1

  0
SOLID
  5
1D4
330
1D1
100
AcDbEntity
  8
VERMASSUNG
100
AcDbTrace
 10
191.5853183729
 20
69.4200606162
 30
0.0
 11
194.5853183729
 21
68.9700606162
 31
0.0
 12
194.5853183729
 22
69.8700606162
 32
0.0
 13
194.5853183729
 23
69.8700606162
 33
0.0
  0
SOLID
  5
1D5
330
1D1
100
AcDbEntity
  8
VERMASSUNG
100
AcDbTrace
 10
256.5853183729
 20
69.4200606162
 30
0.0
 11
253.5853183729
 21
69.8700606162
 31
0.0
 12
253.5853183729
 22
68.9700606162
 32
0.0
 13
253.5853183729
 23
68.9700606162
 33
0.0
  0
LINE
  5
1D6
330
1D1
100
AcDbEntity
  8
VERMASSUNG
100
AcDbLine
 10
191.5853183729
 20
99.7076960585
 30
0.0
 11
191.5853183729
 21
68.4200606162
 31
0.0
  0
LINE
  5
1D7
330
1D1
100
AcDbEntity
  8
VERMASSUNG
100
AcDbLine
 10
256.5853183729
 20
85.7076960585
 30
0.0
 11
256.5853183729
 21
68.4200606162
 31
0.0
  0
LINE
  5
1D8
330
1D1
100
AcDbEntity
  8
VERMASSUNG
100
AcDbLine
 10
191.5853183729
 20
69.4200606162
 30
0.0
 11
256.5853183729
 21
69.4200606162
 31
0.0
  0
MTEXT
  5
1D9
330
1D1
100
AcDbEntity
  8
VERMASSUNG
100
AcDbMText
 10
219.5353181859
 20
71.9981959793
 30
0.1
 40
2.0
 41
0.0
 71
     1
 72
     1
  1
65
  7
SLDTEXTSTYLE0
 73
     1
 44
1.0
  0
MTEXT
  5
1DA
330
1D1
100
AcDbEntity
  8
VERMASSUNG
100
AcDbMText
 10
225.322818288
 20
71.9981959793
 30
0.1
 40
2.0
 41
0.0
 71
     1
 72
     1
  1

  7
SLDTEXTSTYLE0
 73
     1
 44
1.0
  0
MTEXT
  5
1DB
330
1D1
100
AcDbEntity
  8
VERMASSUNG
100
AcDbMText
 10
225.3353185778
 20
71.5036621165
 30
0.1
 40
1.5
 41
0.0
 71
     1
 72
     1
  1
±0.1
  7
SLDTEXTSTYLE0
 73
     1
 44
1.0
  0
ENDBLK
  5
1D3
330
1D1
100
AcDbEntity
  8
0
100
AcDbBlockEnd
  0
BLOCK
  5
1DF
330
1DE
100
AcDbEntity
  8
0
100
AcDbBlockBegin
  2
_D_2
 70
     0
 10
0.0
 20
0.0
 30
0.0
  3
_D_2
  1

  0
ARC
  5
1E1
330
1DE
100
AcDbEntity
  8
VERMASSUNG
100
AcDbCircle
 10
256.5853183729
 20
85.4452576591
 30
0.0
 40
10.02120853891311
100
AcDbArc
 50
152.4789748189
 51
270.0
  0
SOLID
  5
1E2
330
1DE
100
AcDbEntity
  8
VERMASSUNG
100
AcDbTrace
 10
247.6980964559
 20
90.0757983594
 30
0.0
 11
246.2870851968
 21
87.3903659498
 31
0.0
 12
247.1370854213
 22
87.0945626057
 32
0.0
 13
247.1370854213
 23
87.0945626057
 33
0.0
  0
SOLID
  5
1E3
330
1DE
100
AcDbEntity
  8
VERMASSUNG
100
AcDbTrace
 10
256.5853183729
 20
75.4240491201
 30
0.0
 11
253.6822066329
 21
76.304073111
 31
0.0
 12
253.5517741938
 22
75.4135747231
 32
0.0
 13
253.5517741938
 23
75.4135747231
 33
0.0
  0
LINE
  5
1E4
330
1DE
100
AcDbEntity
  8
VERMASSUNG
100
AcDbLine
 10
256.5853183729
 20
76.1406268717
 30
0.0
 11
256.5853183729
 21
74.4240491201
 31
0.0
  0
MTEXT
  5
1E5
330
1DE
100
AcDbEntity
  8
VERMASSUNG
100
AcDbMText
 10
248.0432496415
 20
85.1761873541
 30
0.1
 40
2.0
 41
0.0
 71
     1
 72
     1
  1
117.5°
  7
SLDTEXTSTYLE0
 11
0.5186163907821812
 21
-0.8550070404459041
 31
0.0
 73
     1
 44
1.0
  0
ENDBLK
  5
1E0
330
1DE
100
AcDbEntity
  8
0
100
AcDbBlockEnd
  0
BLOCK
  5
1E9
330
1E8
100
AcDbEntity
  8
0
100
AcDbBlockBegin
  2
_D_3
 70
     0
 10
0.0
 20
0.0
 30
0.0
  3
_D_3
  1

  0
SOLID
  5
1EB
330
1E8
100
AcDbEntity
  8
VERMASSUNG
100
AcDbTrace
 10
256.5853183729
 20
60.7499216409
 30
0.0
 11
253.5853183729
 21
61.1999216409
 31
0.0
 12
253.5853183729
 22
60.2999216409
 32
0.0
 13
253.5853183729
 23
60.2999216409
 33
0.0
  0
SOLID
  5
1EC
330
1E8
100
AcDbEntity
  8
VERMASSUNG
100
AcDbTrace
 10
153.5853183729
 20
60.7499216409
 30
0.0
 11
156.5853183729
 21
60.2999216409
 31
0.0
 12
156.5853183729
 22
61.1999216409
 32
0.0
 13
156.5853183729
 23
61.1999216409
 33
0.0
  0
LINE
  5
1ED
330
1E8
100
AcDbEntity
  8
VERMASSUNG
100
AcDbLine
 10
256.5853183729
 20
85.7076960585
 30
0.0
 11
256.5853183729
 21
59.7499216409
 31
0.0
  0
LINE
  5
1EE
330
1E8
100
AcDbEntity
  8
VERMASSUNG
100
AcDbLine
 10
153.5853183729
 20
110.415358066
 30
0.0
 11
153.5853183729
 21
59.7499216409
 31
0.0
  0
LINE
  5
1EF
330
1E8
100
AcDbEntity
  8
VERMASSUNG
100
AcDbLine
 10
256.5853183729
 20
60.7499216409
 30
0.0
 11
153.5853183729
 21
60.7499216409
 31
0.0
  0
MTEXT
  5
1F0
330
1E8
100
AcDbEntity
  8
VERMASSUNG
100
AcDbMText
 10
202.28531824
 20
63.3280570041
 30
0.1
 40
2.0
 41
0.0
 71
     1
 72
     1
  1
103
  7
SLDTEXTSTYLE0
 73
     1
 44
1.0
  0
ENDBLK
  5
1EA
330
1E8
100
AcDbEntity
  8
0
100
AcDbBlockEnd
  0
BLOCK
  5
1F3
330
1F2
100
AcDbEntity
  8
0
100
AcDbBlockBegin
  2
_D_4
 70
     0
 10
0.0
 20
0.0
 30
0.0
  3
_D_4
  1

  0
SOLID
  5
1F5
330
1F2
100
AcDbEntity
  8
VERMASSUNG
100
AcDbTrace
 10
143.5852683729
 20
162.2076960585
 30
0.0
 11
143.1352683729
 21
159.2076960585
 31
0.0
 12
144.0352683729
 22
159.2076960585
 32
0.0
 13
144.0352683729
 23
159.2076960585
 33
0.0
  0
SOLID
  5
1F6
330
1F2
100
AcDbEntity
  8
VERMASSUNG
100
AcDbTrace
 10
143.5852683729
 20
99.2076960585
 30
0.0
 11
144.0352683729
 21
102.2076960585
 31
0.0
 12
143.1352683729
 22
102.2076960585
 32
0.0
 13
143.1352683729
 23
102.2076960585
 33
0.0
  0
LINE
  5
1F7
330
1F2
100
AcDbEntity
  8
VERMASSUNG
100
AcDbLine
 10
192.0853183729
 20
162.2076960585
 30
0.0
 11
142.5852683729
 21
162.2076960585
 31
0.0
  0
LINE
  5
1F8
330
1F2
100
AcDbEntity
  8
VERMASSUNG
100
AcDbLine
 10
192.0853183729
 20
99.2076960585
 30
0.0
 11
142.5852683729
 21
99.2076960585
 31
0.0
  0
LINE
  5
1F9
330
1F2
100
AcDbEntity
  8
VERMASSUNG
100
AcDbLine
 10
143.5852683729
 20
162.2076960585
 30
0.0
 11
143.5852683729
 21
99.2076960585
 31
0.0
  0
MTEXT
  5
1FA
330
1F2
100
AcDbEntity
  8
VERMASSUNG
100
AcDbMText
 10
140.8071328839
 20
124.3026959492
 30
0.35
 40
2.0
 41
0.0
 71
     1
 72
     1
  1
PSC
  7
SLDTEXTSTYLE0
 11
-7.044195017643634E-15
 21
1.0
 31
0.0
 73
     1
 44
1.0
  0
MTEXT
  5
1FB
330
1F2
100
AcDbEntity
  8
VERMASSUNG
100
AcDbMText
 10
141.0071328934
 20
128.9026960513
 30
0.35
 40
2.0
 41
0.0
 71
     1
 72
     1
  1
%%c
  7
SLDTEXTSTYLE0
 11
-7.044195017643634E-15
 21
1.0
 31
0.0
 73
     1
 44
1.0
  0
MTEXT
  5
1FC
330
1F2
100
AcDbEntity
  8
VERMASSUNG
100
AcDbMText
 10
140.8071328839
 20
132.5126965313
 30
0.35
 40
2.0
 41
0.0
 71
     1
 72
     1
  1
63
  7
SLDTEXTSTYLE0
 11
-7.044195017643634E-15
 21
1.0
 31
0.0
 73
     1
 44
1.0
  0
ENDBLK
  5
1F4
330
1F2
100
AcDbEntity
  8
0
100
AcDbBlockEnd
  0
BLOCK
  5
27B
330
27A
100
AcDbEntity
  8
0
100
AcDbBlockBegin
  2
_D_5
 70
     0
 10
0.0
 20
0.0
 30
0.0
  3
_D_5
  1

  0
SOLID
  5
27D
330
27A
100
AcDbEntity
  8
VERMASSUNG
100
AcDbTrace
 10
56.445732414
 20
156.6720877749
 30
0.0
 11
54.8949251389
 21
159.2792887252
 31
0.0
 12
54.1982268917
 22
158.7095418056
 32
0.0
 13
54.1982268917
 23
158.7095418056
 33
0.0
  0
SOLID
  5
27E
330
27A
100
AcDbEntity
  8
VERMASSUNG
100
AcDbTrace
 10
107.0899030465
 20
94.7433546944
 30
0.0
 11
108.6407103216
 21
92.1361537441
 31
0.0
 12
109.3374085688
 22
92.7059006637
 32
0.0
 13
109.3374085688
 23
92.7059006637
 33
0.0
  0
LINE
  5
27F
330
27A
100
AcDbEntity
  8
VERMASSUNG
100
AcDbLine
 10
56.445732414
 20
156.6720877749
 30
0.0
 11
55.6716232505
 21
156.039035642
 31
0.0
  0
LINE
  5
280
330
27A
100
AcDbEntity
  8
VERMASSUNG
100
AcDbLine
 10
107.0899030465
 20
94.7433546944
 30
0.0
 11
106.315793883
 21
94.1103025615
 31
0.0
  0
LINE
  5
281
330
27A
100
AcDbEntity
  8
VERMASSUNG
100
AcDbLine
 10
56.445732414
 20
156.6720877749
 30
0.0
 11
52.6474196166
 21
161.3167427559
 31
0.0
  0
LINE
  5
282
330
27A
100
AcDbEntity
  8
VERMASSUNG
100
AcDbLine
 10
56.445732414
 20
156.6720877749
 30
0.0
 11
107.0899030465
 21
94.7433546944
 31
0.0
  0
LINE
  5
283
330
27A
100
AcDbEntity
  8
VERMASSUNG
100
AcDbLine
 10
107.0899030465
 20
94.7433546944
 30
0.0
 11
118.1462658472
 21
81.2234069458
 31
0.0
  0
MTEXT
  5
284
330
27A
100
AcDbEntity
  8
VERMASSUNG
100
AcDbMText
 10
111.3995745388
 20
93.5459482331
 30
0.1
 40
2.0
 41
0.0
 71
     1
 72
     1
  1
%%c
  7
SLDTEXTSTYLE0
 11
0.6330521329061269
 21
-0.7741091635053827
 31
0.0
 73
     1
 44
1.0
  0
MTEXT
  5
285
330
27A
100
AcDbEntity
  8
VERMASSUNG
100
AcDbMText
 10
113.8397145877
 20
90.8780245744
 30
0.1
 40
2.0
 41
0.0
 71
     1
 72
     1
  1
80
  7
SLDTEXTSTYLE0
 11
0.6330521329061269
 21
-0.7741091635053827
 31
0.0
 73
     1
 44
1.0
  0
MTEXT
  5
286
330
27A
100
AcDbEntity
  8
VERMASSUNG
100
AcDbMText
 10
117.5035041663
 20
86.3978673511
 30
0.1
 40
2.0
 41
0.0
 71
     1
 72
     1
  1
min.
  7
SLDTEXTSTYLE0
 11
0.6330521329061269
 21
-0.7741091635053827
 31
0.0
 73
     1
 44
1.0
  0
ENDBLK
  5
27C
330
27A
100
AcDbEntity
  8
0
100
AcDbBlockEnd
  0
ENDSEC
  0
SECTION
  2
ENTITIES
  0
MTEXT
  5
49
330
1F
100
AcDbEntity
  8
KOPF_DÜNN
100
AcDbMText
 10
13.8892156294
 20
23.8442973028
 30
0.0
 40
3.0
 41
0.0
 71
     1
 72
     1
  1
PS6.KVD.LPA.065
  7
SLDTEXTSTYLE0
 73
     1
 44
1.0
  0
MTEXT
  5
4A
330
1F
100
AcDbEntity
  8
VERMASSUNG
100
AcDbMText
 10
13.9329988022
 20
28.8834360957
 30
0.0
 40
3.0
 41
0.0
 71
     1
 72
     1
  1
Klemmhalter links_Turning tool left 117.5° /35°
  7
SLDTEXTSTYLE0
 73
     1
 44
1.0
  0
MTEXT
  5
4B
330
1F
100
AcDbEntity
  8
VERMASSUNG
100
AcDbMText
 10
98.8601118557
 20
13.8365368179
 30
0.0
 40
2.0
 41
0.0
 71
     1
 72
     1
  1
Datum: 24.05.2012
  7
SLDTEXTSTYLE0
 73
     1
 44
1.0
  0
MTEXT
  5
4C
330
1F
100
AcDbEntity
  8
VERMASSUNG
100
AcDbMText
 10
13.933048693
 20
18.0482802738
 30
0.0
 40
2.0
 41
0.0
 71
     1
 72
     1
  1
PSC ø63 / VN..16 04..
  7
SLDTEXTSTYLE0
 73
     1
 44
1.0
  0
MTEXT
  5
4D
330
1F
100
AcDbEntity
  8
VERMASSUNG
100
AcDbMText
 10
13.9808475933
 20
13.9090973692
 30
0.0
 40
2.0
 41
0.0
 71
     1
 72
     1
  1
Gewicht: 1355g
  7
SLDTEXTSTYLE0
 73
     1
 44
1.0
  0
LINE
  5
4E
330
1F
100
AcDbEntity
  8
0
  6
Continuous
 62
     7
370
    15
100
AcDbLine
 10
238.4928286757
 20
112.972912142
 30
0.0
 11
239.5446583573
 21
111.7326726354
 31
0.0
  0
LINE
  5
4F
330
1F
100
AcDbEntity
  8
0
  6
Continuous
 62
     7
370
    15
100
AcDbLine
 10
241.8326359632
 20
113.6730742626
 30
0.0
 11
240.716751563
 21
114.98884234
 31
0.0
  0
LINE
  5
50
330
1F
100
AcDbEntity
  8
0
  6
Continuous
 62
     7
370
    15
100
AcDbLine
 10
248.284499079
 20
109.3266704914
 30
0.0
 11
247.9372027237
 21
109.7361765815
 31
0.0
  0
LINE
  5
51
330
1F
100
AcDbEntity
  8
0
  6
Continuous
 62
     7
370
    15
100
AcDbLine
 10
239.166621901
 20
102.2979703438
 30
0.0
 11
239.5139182564
 21
101.8884642537
 31
0.0
  0
LINE
  5
52
330
1F
100
AcDbEntity
  8
0
  6
Continuous
 62
     7
370
    15
100
AcDbLine
 10
248.7168785485
 20
110.7494303045
 30
0.0
 11
247.9195882197
 21
111.6895358951
 31
0.0
  0
LINE
  5
53
330
1F
100
AcDbEntity
  8
0
  6
Continuous
 62
     7
370
    15
100
AcDbLine
 10
237.2423593921
 20
102.6343283015
 30
0.0
 11
238.0396497209
 21
101.6942227109
 31
0.0
  0
LINE
  5
54
330
1F
100
AcDbEntity
  8
0
  6
Continuous
 62
     7
370
    15
100
AcDbLine
 10
245.0690522493
 20
119.3625625662
 30
0.0
 11
243.9580247177
 21
120.6726037845
 31
0.0
  0
LINE
  5
55
330
1F
100
AcDbEntity
  8
0
  6
Continuous
 62
     7
370
    15
100
AcDbLine
 10
239.8885945584
 20
97.2081959537
 30
0.0
 11
240.7527384048
 21
96.1892616562
 31
0.0
  0
LINE
  5
56
330
1F
100
AcDbEntity
  8
0
  6
Continuous
 62
     7
370
    15
100
AcDbLine
 10
245.4691806027
 20
91.8556863343
 30
0.0
 11
250.1838798382
 21
93.9205090398
 31
0.0
  0
LINE
  5
57
330
1F
100
AcDbEntity
  8
0
  6
Continuous
 62
     7
370
    15
100
AcDbLine
 10
242.1373292685
 20
93.456144248
 30
0.0
 11
242.8240894932
 21
92.646367554
 31
0.0
  0
LINE
  5
58
330
1F
100
AcDbEntity
  8
0
  6
Continuous
 62
     7
370
    15
100
AcDbLine
 10
224.0565450799
 20
162.2076960585
 30
0.0
 11
192.0853183729
 21
162.2076960585
 31
0.0
  0
LINE
  5
59
330
1F
100
AcDbEntity
  8
0
  6
Continuous
 62
     7
370
    15
100
AcDbLine
 10
192.0853183729
 20
99.2076960585
 30
0.0
 11
228.817991385
 21
99.2076960585
 31
0.0
  0
ARC
  5
5A
330
1F
100
AcDbEntity
  8
0
  6
Continuous
 62
     7
370
    15
100
AcDbCircle
 10
192.0853183729
 20
99.7076960585
 30
0.0
 40
0.5
100
AcDbArc
 50
180.0
 51
270.0
  0
ARC
  5
5B
330
1F
100
AcDbEntity
  8
0
  6
Continuous
 62
     7
370
    15
100
AcDbCircle
 10
192.0853183729
 20
161.7076960585
 30
0.0
 40
0.5
100
AcDbArc
 50
90.0
 51
180.0
  0
LWPOLYLINE
  5
5C
330
1F
100
AcDbEntity
  8
0
  6
Continuous
 62
     7
370
    15
100
AcDbPolyline
 90
        3
 70
   128
 43
0.0
 10
191.3853183729
 20
108.1678757796
 10
191.5107733164
 20
108.0995736646
 10
191.5853183729
 20
108.0468359065
  0
LWPOLYLINE
  5
5D
330
1F
100
AcDbEntity
  8
0
  6
Continuous
 62
     7
370
    15
100
AcDbPolyline
 90
        3
 70
   128
 43
0.0
 10
191.5853183729
 20
153.3685562104
 10
191.5107733164
 20
153.3158184523
 10
191.3853183729
 20
153.2475163373
  0
ARC
  5
5E
330
1F
100
AcDbEntity
  8
0
  6
Continuous
 62
     7
370
    15
100
AcDbCircle
 10
228.817991385
 20
98.2076960585
 30
0.0
 40
1.0
100
AcDbArc
 50
15.0
 51
90.0
  0
LINE
  5
5F
330
1F
100
AcDbEntity
  8
0
  6
Continuous
 62
     7
370
    15
100
AcDbLine
 10
229.7839172113
 20
98.4665151036
 30
0.0
 11
229.9339582955
 21
97.9065541539
 31
0.0
  0
ARC
  5
60
330
1F
100
AcDbEntity
  8
0
  6
Continuous
 62
     7
370
    15
100
AcDbCircle
 10
240.6906941045
 20
112.7034766187
 30
0.0
 40
1.474237597767303
100
AcDbArc
 50
0.0591742497
 51
175.8981066245
  0
ARC
  5
61
330
1F
100
AcDbEntity
  8
0
  6
Continuous
 62
     7
370
    15
100
AcDbCircle
 10
240.6153497037
 20
112.6404983986
 30
0.0
 40
1.403588637303799
100
AcDbArc
 50
182.5298813913
 51
229.334479413
  0
LINE
  5
62
330
1F
100
AcDbEntity
  8
0
  6
Continuous
 62
     7
370
    15
100
AcDbLine
 10
239.3303170402
 20
112.5335716559
 30
0.0
 11
239.2131290923
 21
112.5785434155
 31
0.0
  0
ARC
  5
63
330
1F
100
AcDbEntity
  8
0
  6
Continuous
 62
     7
370
    15
100
AcDbCircle
 10
240.7348654168
 20
112.6511714898
 30
0.0
 40
1.401463231493361
100
AcDbArc
 50
2.0749712267
 51
175.8563123628
  0
ARC
  5
64
330
1F
100
AcDbEntity
  8
0
  6
Continuous
 62
     7
370
    15
100
AcDbCircle
 10
240.6627449071
 20
112.5924421891
 30
0.0
 40
1.333727768472352
100
AcDbArc
 50
182.5298486136
 51
225.9725076058
  0
LINE
  5
65
330
1F
100
AcDbEntity
  8
0
  6
Continuous
 62
     7
370
    15
100
AcDbLine
 10
239.3370656429
 20
112.7524383712
 30
0.0
 11
239.2202328847
 21
112.8089294316
 31
0.0
  0
LINE
  5
66
330
1F
100
AcDbEntity
  8
0
  6
Continuous
 62
     7
370
    15
100
AcDbLine
 10
239.5516447503
 20
112.552221161
 30
0.0
 11
239.3303170402
 21
112.5335716559
 31
0.0
  0
ARC
  5
67
330
1F
100
AcDbEntity
  8
0
  6
Continuous
 62
     7
370
    15
100
AcDbCircle
 10
240.7349041833
 20
112.6539960514
 30
0.0
 40
1.180465172739188
100
AcDbArc
 50
3.1521292844
 51
175.9908121766
  0
LWPOLYLINE
  5
68
330
1F
100
AcDbEntity
  8
0
  6
Continuous
 62
     7
370
    15
100
AcDbPolyline
 90
        3
 70
   128
 43
0.0
 10
239.8423132647
 20
111.8465537011
 10
239.6474103948
 20
112.1459295583
 10
239.5516447503
 20
112.552221161
  0
LINE
  5
69
330
1F
100
AcDbEntity
  8
0
  6
Continuous
 62
     7
370
    15
100
AcDbLine
 10
239.5573277843
 20
112.7365299738
 30
0.0
 11
239.3370656429
 21
112.7524383712
 31
0.0
  0
LINE
  5
6A
330
1F
100
AcDbEntity
  8
0
  6
Continuous
 62
     7
370
    15
100
AcDbLine
 10
239.3847650776
 20
112.7489932873
 30
0.0
 11
239.5516447503
 21
112.552221161
 31
0.0
  0
LINE
  5
6B
330
1F
100
AcDbEntity
  8
0
  6
Continuous
 62
     7
370
    15
100
AcDbLine
 10
239.2131290923
 20
112.5785434155
 30
0.0
 11
238.1689776653
 21
113.8097292942
 31
0.0
  0
LINE
  5
6C
330
1F
100
AcDbEntity
  8
0
  6
Continuous
 62
     7
370
    15
100
AcDbLine
 10
239.2202328847
 20
112.8089294316
 30
0.0
 11
238.1667373962
 21
114.0511331341
 31
0.0
  0
LWPOLYLINE
  5
6D
330
1F
100
AcDbEntity
  8
0
  6
Continuous
 62
     7
370
    15
100
AcDbPolyline
 90
       40
 70
   128
 43
0.0
 10
240.3942910575
 20
101.0615597397
 10
241.1531231387
 20
100.5881584962
 10
241.9830773927
 20
100.244757306
 10
242.8626584402
 20
100.0402500796
 10
243.7690855941
 20
99.9799334467
 10
244.6788828673
 20
100.0653695763
 10
245.5684869882
 20
100.2943457178
 10
246.4148576775
 20
100.6609315092
 10
247.1960743788
 20
101.1556325711
 10
247.89190399
 20
101.7656364058
 10
248.4843248896
 20
102.4751442345
 10
248.9579936875
 20
103.2657801772
 10
249.3006426106
 20
104.1170671781
 10
249.5033972319
 20
105.0069573511
 10
249.5610063131
 20
105.9124030081
 10
249.4719778093
 20
106.8099535824
 10
249.2386175119
 20
107.6763629854
 10
248.8669693302
 20
108.4891916687
 10
248.3666587567
 20
109.2273877963
 10
247.7506435726
 20
109.8718324764
 10
247.0348782475
 20
110.4058349303
 10
246.2379007274
 20
110.8155647748
 10
245.3803523114
 20
111.0904102222
 10
244.484443053
 20
111.2232529198
 10
243.5733765315
 20
111.2106523115
 10
242.6707488911
 20
111.0529347465
 10
241.7999377137
 20
110.7541850268
 10
240.9834965512
 20
110.3221406133
 10
240.2425708011
 20
109.7679912292
 10
239.5963500509
 20
109.1060890527
 10
239.0615710788
 20
108.3535770023
 10
238.652084379
 20
107.5299447449
 10
238.3784954422
 20
106.6565239234
 10
238.247890078
 20
105.7559356782
 10
238.2636508968
 20
104.8515047718
 10
238.4253697017
 20
103.9666554896
 10
238.7288580604
 20
103.1243049633
 10
239.1662557841
 20
102.3462696289
 10
239.7262345013
 20
101.6527001931
 10
240.3942910575
 20
101.0615597397
  0
LWPOLYLINE
  5
6E
330
1F
100
AcDbEntity
  8
0
  6
Continuous
 62
     7
370
    15
100
AcDbPolyline
 90
       26
 70
   128
 43
0.0
 10
242.7226278012
 20
103.2215362247
 10
243.2514039698
 20
102.9248525275
 10
243.8427059974
 20
102.7710028966
 10
244.4593802028
 20
102.7696542702
 10
245.0626786778
 20
102.9208913875
 10
245.6146939603
 20
103.2152114641
 10
246.0807409001
 20
103.6341212871
 10
246.4315360538
 20
104.1512992119
 10
246.645037672
 20
104.7342490473
 10
246.7078306626
 20
105.3463419112
 10
246.6159695111
 20
105.9491177578
 10
246.3752261916
 20
106.5047019639
 10
246.0007274922
 20
106.9781851305
 10
245.5160045434
 20
107.3398165689
 10
244.9515142709
 20
107.5668736458
 10
244.3427256745
 20
107.6450895301
 10
243.7278911807
 20
107.5695496299
 10
243.1456431019
 20
107.3450003952
 10
242.6325662264
 20
106.9855510802
 10
242.220899061
 20
106.5137872072
 10
241.936508168
 20
105.9593514355
 10
241.7972628728
 20
105.3570810036
 10
241.8119124697
 20
104.7448187778
 10
241.9795364705
 20
104.1610354455
 10
242.2896024428
 20
103.6424122604
 10
242.7226278012
 20
103.2215362247
  0
SPLINE
  5
6F
330
1F
100
AcDbEntity
  8
0
  6
Continuous
 62
     7
370
    15
100
AcDbSpline
210
0.0
220
0.0
230
1.0
 70
     8
 71
     3
 72
    11
 73
     7
 74
     0
 42
0.00000001
 43
0.00000001
 12
1.0
 22
0.0
 32
0.0
 13
1.0
 23
0.0
 33
0.0
 40
0.0
 40
0.0
 40
0.0
 40
0.0
 40
0.12089138753405
 40
0.4766714197330118
 40
0.8143663490172408
 40
1.0
 40
1.0
 40
1.0
 40
1.0
 10
244.5393549180397
 20
107.4846522762945
 30
0.0
 10
244.5997440986014
 20
107.4427226583944
 30
0.0
 10
244.837856978452
 20
107.277395326969
 30
0.0
 10
245.3122588645862
 20
106.9357210428428
 30
0.0
 10
245.8855648470998
 20
106.4982884503932
 30
0.0
 10
246.2104293450252
 20
106.2426434726024
 30
0.0
 10
246.325664371543
 20
106.1519618007578
 30
0.0
  0
SPLINE
  5
70
330
1F
100
AcDbEntity
  8
0
  6
Continuous
 62
     7
370
    15
100
AcDbSpline
210
0.0
220
0.0
230
1.0
 70
     8
 71
     3
 72
    10
 73
     6
 74
     0
 42
0.00000001
 43
0.00000001
 12
1.0
 22
0.0
 32
0.0
 13
1.0
 23
0.0
 33
0.0
 40
0.0
 40
0.0
 40
0.0
 40
0.0
 40
0.4391222274230481
 40
0.7513714712594615
 40
1.0
 40
1.0
 40
1.0
 40
1.0
 10
242.4270984138242
 20
106.5697774678751
 30
0.0
 10
242.7057020035367
 20
106.7287979345969
 30
0.0
 10
243.1824138983748
 20
107.0008940267084
 30
0.0
 10
243.9526498728402
 20
107.3053350701106
 30
0.0
 10
244.3591566762778
 20
107.4295775065505
 30
0.0
 10
244.5393549180397
 20
107.4846522762945
 30
0.0
  0
SPLINE
  5
71
330
1F
100
AcDbEntity
  8
0
  6
Continuous
 62
     7
370
    15
100
AcDbSpline
210
0.0
220
0.0
230
1.0
 70
     8
 71
     3
 72
    10
 73
     6
 74
     0
 42
0.00000001
 43
0.00000001
 12
1.0
 22
0.0
 32
0.0
 13
1.0
 23
0.0
 33
0.0
 40
0.0
 40
0.0
 40
0.0
 40
0.0
 40
0.4391222274230467
 40
0.7513714712594604
 40
1.0
 40
1.0
 40
1.0
 40
1.0
 10
242.1011513631121
 20
104.3222121839189
 30
0.0
 10
242.1240273828035
 20
104.6720202525485
 30
0.0
 10
242.163169989346
 20
105.2705684169789
 30
0.0
 10
242.2973269610568
 20
106.0495612951697
 30
0.0
 10
242.387240928686
 20
106.4100003525688
 30
0.0
 10
242.4270984138242
 20
106.5697774678751
 30
0.0
  0
SPLINE
  5
72
330
1F
100
AcDbEntity
  8
0
  6
Continuous
 62
     7
370
    15
100
AcDbSpline
210
0.0
220
0.0
230
1.0
 70
     8
 71
     3
 72
    11
 73
     7
 74
     0
 42
0.00000001
 43
0.00000001
 12
1.0
 22
0.0
 32
0.0
 13
1.0
 23
0.0
 33
0.0
 40
0.0
 40
0.0
 40
0.0
 40
0.0
 40
0.1856336509827597
 40
0.5233285802669894
 40
0.8791086124659521
 40
1.0
 40
1.0
 40
1.0
 40
1.0
 10
243.8874608166153
 20
102.9895217083822
 30
0.0
 10
243.7722257900976
 20
103.0802033802268
 30
0.0
 10
243.4473612921721
 20
103.3358483580176
 30
0.0
 10
242.8740553096586
 20
103.7732809504672
 30
0.0
 10
242.3996534235243
 20
104.1149552345935
 30
0.0
 10
242.1615405436738
 20
104.2802825660188
 30
0.0
 10
242.1011513631121
 20
104.3222121839189
 30
0.0
  0
SPLINE
  5
73
330
1F
100
AcDbEntity
  8
0
  6
Continuous
 62
     7
370
    15
100
AcDbSpline
210
0.0
220
0.0
230
1.0
 70
     8
 71
     3
 72
    13
 73
     9
 74
     0
 42
0.00000001
 43
0.00000001
 12
1.0
 22
0.0
 32
0.0
 13
1.0
 23
0.0
 33
0.0
 40
0.0
 40
0.0
 40
0.0
 40
0.0
 40
0.216126813583993
 40
0.4396426651110867
 40
0.5932590105054149
 40
0.7520094001456941
 40
0.8754366676457819
 40
1.0
 40
1.0
 40
1.0
 40
1.0
 10
245.9997173208308
 20
103.9043965168016
 30
0.0
 10
245.8424987145534
 20
103.856592225897
 30
0.0
 10
245.522686443588
 20
103.7593492901014
 30
0.0
 10
245.073527849217
 20
103.5918212996841
 30
0.0
 10
244.679233176677
 20
103.418687550424
 30
0.0
 10
244.3767604730964
 20
103.2675074389893
 30
0.0
 10
244.1125364630695
 20
103.122992192633
 30
0.0
 10
243.9627148137693
 20
103.0341475379652
 30
0.0
 10
243.8874608166153
 20
102.9895217083822
 30
0.0
  0
SPLINE
  5
74
330
1F
100
AcDbEntity
  8
0
  6
Continuous
 62
     7
370
    15
100
AcDbSpline
210
0.0
220
0.0
230
1.0
 70
     8
 71
     3
 72
    10
 73
     6
 74
     0
 42
0.00000001
 43
0.00000001
 12
1.0
 22
0.0
 32
0.0
 13
1.0
 23
0.0
 33
0.0
 40
0.0
 40
0.0
 40
0.0
 40
0.0
 40
0.4391222274230465
 40
0.7513714712594607
 40
1.0
 40
1.0
 40
1.0
 40
1.0
 10
246.325664371543
 20
106.1519618007578
 30
0.0
 10
246.2552154109846
 20
105.8582482137162
 30
0.0
 10
246.1346718906665
 20
105.3556819662289
 30
0.0
 10
246.0366987859662
 20
104.5340237571838
 30
0.0
 10
246.0110756601696
 20
104.0977777099763
 30
0.0
 10
245.9997173208308
 20
103.9043965168016
 30
0.0
  0
LINE
  5
75
330
1F
100
AcDbEntity
  8
0
  6
Continuous
 62
     7
370
    15
100
AcDbLine
 10
242.1181941876
 20
104.5207682301
 30
0.0
 11
242.5064587125
 21
104.2311003714
 31
0.0
  0
LINE
  5
76
330
1F
100
AcDbEntity
  8
0
  6
Continuous
 62
     7
370
    15
100
AcDbLine
 10
242.5064587125
 20
104.2311003714
 30
0.0
 11
243.3996134393
 21
103.5647551336
 31
0.0
  0
LINE
  5
77
330
1F
100
AcDbEntity
  8
0
  6
Continuous
 62
     7
370
    15
100
AcDbLine
 10
243.3996134393
 20
103.5647551336
 30
0.0
 11
243.8874608166
 21
102.9895217084
 31
0.0
  0
ARC
  5
78
330
1F
100
AcDbEntity
  8
0
  6
Continuous
 62
     7
370
    15
100
AcDbCircle
 10
243.6625334382
 20
105.8866372399
 30
0.0
 40
5.752542971737848
100
AcDbArc
 50
42.0045138198
 51
218.5971033234
  0
LINE
  5
79
330
1F
100
AcDbEntity
  8
0
  6
Continuous
 62
     7
370
    15
100
AcDbLine
 10
245.5118699435
 20
104.4796299421
 30
0.0
 11
245.9997173208
 21
103.9043965168
 31
0.0
  0
LINE
  5
7A
330
1F
100
AcDbEntity
  8
0
  6
Continuous
 62
     7
370
    15
100
AcDbLine
 10
245.5118699435
 20
104.4796299421
 30
0.0
 11
245.6748434689
 21
105.603412584
 31
0.0
  0
LINE
  5
7B
330
1F
100
AcDbEntity
  8
0
  6
Continuous
 62
     7
370
    15
100
AcDbLine
 10
245.6748434689
 20
105.603412584
 30
0.0
 11
245.8122331086
 21
106.5507817468
 31
0.0
  0
LINE
  5
7C
330
1F
100
AcDbEntity
  8
0
  6
Continuous
 62
     7
370
    15
100
AcDbLine
 10
243.3996134393
 20
103.5647551336
 30
0.0
 11
244.4557416914
 21
104.0221925379
 31
0.0
  0
LINE
  5
7D
330
1F
100
AcDbEntity
  8
0
  6
Continuous
 62
     7
370
    15
100
AcDbLine
 10
244.4557416914
 20
104.0221925379
 30
0.0
 11
245.5118699435
 21
104.4796299421
 31
0.0
  0
ARC
  5
7E
330
1F
100
AcDbEntity
  8
0
  6
Continuous
 62
     7
370
    15
100
AcDbCircle
 10
243.6168694503
 20
105.7201133417
 30
0.0
 40
1.857463763393878
100
AcDbArc
 50
216.017126669
 51
233.2867765417
  0
ARC
  5
7F
330
1F
100
AcDbEntity
  8
0
  6
Continuous
 62
     7
370
    15
100
AcDbCircle
 10
243.7925519419
 20
105.884866964
 30
0.0
 40
1.903217791131153
100
AcDbArc
 50
351.4957117536
 51
32.1604410786
  0
ARC
  5
80
330
1F
100
AcDbEntity
  8
0
  6
Continuous
 62
     7
370
    15
100
AcDbCircle
 10
243.6425724601
 20
105.9097027876
 30
0.0
 40
2.05522240689168
100
AcDbArc
 50
293.307140917
 51
351.4292706549
  0
ARC
  5
81
330
1F
100
AcDbEntity
  8
0
  6
Continuous
 62
     7
370
    15
100
AcDbCircle
 10
243.6614840258
 20
105.809776816
 30
0.0
 40
1.956093758204304
100
AcDbArc
 50
233.8092462115
 51
293.9564869953
  0
ARC
  5
82
330
1F
100
AcDbEntity
  8
0
  6
Continuous
 62
     7
370
    15
100
AcDbCircle
 10
243.2491341247
 20
105.7600535143
 30
0.0
 40
5.60166025187087
100
AcDbArc
 50
202.4124282603
 51
250.367958979
  0
LWPOLYLINE
  5
83
330
1F
100
AcDbEntity
  8
0
  6
Continuous
 62
     7
370
    15
100
AcDbPolyline
 90
       23
 70
   128
 43
0.0
 10
249.3674710691
 20
107.2690235605
 10
249.1930152751
 20
107.9705151178
 10
248.8378765706
 20
108.8336539251
 10
248.3458341684
 20
109.623844778
 10
247.7296317082
 20
110.3206221483
 10
247.0052285102
 20
110.9059398682
 10
246.1913862365
 20
111.3646385162
 10
245.3091829747
 20
111.6848380383
 10
244.3814673258
 20
111.858245435
 10
243.4322666378
 20
111.8803695459
 10
242.4861647099
 20
111.750637368
 10
241.5676650851
 20
111.4724088967
 10
240.7005564212
 20
111.0528901033
 10
239.9072963771
 20
110.502946304
 10
239.2084299713
 20
109.8368207544
 10
238.6220574767
 20
109.0717657564
 10
238.1633656327
 20
108.2275958326
 10
237.8442343173
 20
107.3261745405
 10
237.6729288638
 20
106.3908482181
 10
237.6538859936
 20
105.4458413259
 10
237.7875989069
 20
104.515629046
 10
238.0706045096
 20
103.6243033878
 10
238.0706045096
 20
103.6243033878
  0
LWPOLYLINE
  5
84
330
1F
100
AcDbEntity
  8
0
  6
Continuous
 62
     7
370
    15
100
AcDbPolyline
 90
       37
 70
   128
 43
0.0
 10
237.9623022252
 20
110.2593847237
 10
237.4008616514
 20
109.4135802677
 10
236.9658949039
 20
108.5002425794
 10
236.6666052961
 20
107.5386966603
 10
236.509325395
 20
106.5492875335
 10
236.4973830326
 20
105.5529497702
 10
236.6310308933
 20
104.5707645424
 10
236.9074411674
 20
103.6235135731
 10
237.320765384
 20
102.7312394236
 10
237.8622581565
 20
101.912821419
 10
238.5204622235
 20
101.1855761876
 10
239.281450869
 20
100.564891264
 10
240.1291225931
 20
100.0638995092
 10
241.045541798
 20
99.6932012375
 10
242.0113182815
 20
99.4606399275
 10
243.0060175075
 20
99.3711362649
 10
244.0085929732
 20
99.4265840273
 10
244.9978315253
 20
99.6258100142
 10
245.9528022019
 20
99.9645988708
 10
246.8532991031
 20
100.435782279
 10
247.6802689213
 20
101.0293906291
 10
248.4162140833
 20
101.7328639641
 10
249.0455629757
 20
102.5313177309
 10
249.5549994194
 20
103.4078577177
 10
249.9337444218
 20
104.3439375131
 10
250.1737842464
 20
105.3197509231
 10
250.2700399721
 20
106.3146510436
 10
250.2204749567
 20
107.3075871213
 10
250.0261379296
 20
108.2775499595
 10
249.6911408017
 20
109.2040164443
 10
249.2225716635
 20
110.0673837864
 10
248.6303448099
 20
110.84938429
 10
247.9269909675
 20
111.5334718723
 10
247.127392161
 20
112.1051721567
 10
246.2484668297
 20
112.5523887315
 10
245.3088118558
 20
112.8656590933
 10
244.3283090792
 20
113.0383548609
  0
SPLINE
  5
85
330
1F
100
AcDbEntity
  8
0
  6
Continuous
 62
     7
370
    15
100
AcDbSpline
210
0.0
220
0.0
230
1.0
 70
     8
 71
     3
 72
    14
 73
    10
 74
     0
 42
0.00000001
 43
0.00000001
 12
1.0
 22
0.0
 32
0.0
 13
1.0
 23
0.0
 33
0.0
 40
0.0
 40
0.0
 40
0.0
 40
0.0
 40
0.2406877603022506
 40
0.365495483173989
 40
0.4913832497566443
 40
0.5985915213214242
 40
0.7015343678751452
 40
0.8683340671896904
 40
0.9999999999999999
 40
0.9999999999999999
 40
0.9999999999999999
 40
0.9999999999999999
 10
237.9623022251992
 20
110.2593847236846
 30
0.0
 10
238.1846315799852
 20
110.2145883118546
 30
0.0
 10
238.5222489762718
 20
110.1465628910119
 30
0.0
 10
239.0061261332473
 20
110.2662924102637
 30
0.0
 10
239.3333020427191
 20
110.4649345397159
 30
0.0
 10
239.5643285742683
 20
110.7428071539868
 30
0.0
 10
239.7226032162255
 20
111.0974883209281
 30
0.0
 10
239.7775708802213
 20
111.4919785862302
 30
0.0
 10
239.7356570115839
 20
111.7676353384989
 30
0.0
 10
239.7171670146869
 20
111.8892393006185
 30
0.0
  0
ARC
  5
86
330
1F
100
AcDbEntity
  8
0
  6
Continuous
 62
     7
370
    15
100
AcDbCircle
 10
243.7096237436
 20
105.8327235779
 30
0.0
 40
7.254039800825504
100
AcDbArc
 50
123.1052215323
 51
123.3928812078
  0
SPLINE
  5
87
330
1F
100
AcDbEntity
  8
0
  6
Continuous
 62
     7
370
    15
100
AcDbSpline
210
0.0
220
0.0
230
1.0
 70
     8
 71
     3
 72
    14
 73
    10
 74
     0
 42
0.00000001
 43
0.00000001
 12
1.0
 22
0.0
 32
0.0
 13
1.0
 23
0.0
 33
0.0
 40
0.0
 40
0.0
 40
0.0
 40
0.0
 40
0.2547943600210852
 40
0.3869170065356951
 40
0.5201829976299065
 40
0.633674697033409
 40
0.7426509768137896
 40
0.919226730334439
 40
1.0
 40
1.0
 40
1.0
 40
1.0
 10
239.7476245988701
 20
111.9092074467949
 30
0.0
 10
239.9520626463531
 20
111.7990714149881
 30
0.0
 10
240.2625112659677
 20
111.6318247626883
 30
0.0
 10
240.7713809504455
 20
111.5925173822717
 30
0.0
 10
241.1491289092815
 20
111.6740371312368
 30
0.0
 10
241.4556072643472
 20
111.8578435849982
 30
0.0
 10
241.7111711696138
 20
112.1348099968557
 30
0.0
 10
241.8616814995884
 20
112.4318783049916
 30
0.0
 10
241.8962178794263
 20
112.6487423387224
 30
0.0
 10
241.9070576964475
 20
112.7168087213355
 30
0.0
  0
SPLINE
  5
88
330
1F
100
AcDbEntity
  8
0
  6
Continuous
 62
     7
370
    15
100
AcDbSpline
210
0.0
220
0.0
230
1.0
 70
     8
 71
     3
 72
    21
 73
    17
 74
     0
 42
0.00000001
 43
0.00000001
 12
1.0
 22
0.0
 32
0.0
 13
1.0
 23
0.0
 33
0.0
 40
0.0
 40
0.0
 40
0.0
 40
0.0
 40
0.0769167086151733
 40
0.2051347906709751
 40
0.2697482541421849
 40
0.3357549017001568
 40
0.4004946298617207
 40
0.467794737716109
 40
0.5230710560762649
 40
0.5801149178891701
 40
0.6334185110513468
 40
0.6878098845522734
 40
0.7739248743049758
 40
0.862444410759851
 40
0.9309217081140952
 40
0.9999999999999999
 40
0.9999999999999999
 40
0.9999999999999999
 40
0.9999999999999999
 10
242.0624477990661
 20
112.7804959869254
 30
0.0
 10
242.1105837940766
 20
112.7289763449477
 30
0.0
 10
242.2389611965679
 20
112.5915748471091
 30
0.0
 10
242.4542827285061
 20
112.4446858353032
 30
0.0
 10
242.681897228456
 20
112.3322699200647
 30
0.0
 10
242.8671102510211
 20
112.2684909679043
 30
0.0
 10
243.0642830096035
 20
112.2298433721204
 30
0.0
 10
243.2543371611902
 20
112.2228567131865
 30
0.0
 10
243.4317329010206
 20
112.2441781535723
 30
0.0
 10
243.5863127734636
 20
112.286336024163
 30
0.0
 10
243.7275930272652
 20
112.3473996245257
 30
0.0
 10
243.8777578522571
 20
112.4374890167172
 30
0.0
 10
244.0302638897015
 20
112.5666768481344
 30
0.0
 10
244.1604525827486
 20
112.7247674801896
 30
0.0
 10
244.2594086690832
 20
112.8836397500933
 30
0.0
 10
244.3052754768724
 20
112.9866331609934
 30
0.0
 10
244.3283090791698
 20
113.0383548608516
 30
0.0
  0
LINE
  5
89
330
1F
100
AcDbEntity
  8
0
  6
Continuous
 62
     7
370
    15
100
AcDbLine
 10
237.1650118964
 20
111.1994903143
 30
0.0
 11
237.9623022252
 21
110.2593847237
 31
0.0
  0
SPLINE
  5
8A
330
1F
100
AcDbEntity
  8
0
  6
Continuous
 62
     7
370
    15
100
AcDbSpline
210
0.0
220
0.0
230
1.0
 70
     8
 71
     3
 72
    16
 73
    12
 74
     0
 42
0.00000001
 43
0.00000001
 12
1.0
 22
0.0
 32
0.0
 13
1.0
 23
0.0
 33
0.0
 40
0.0
 40
0.0
 40
0.0
 40
0.0
 40
0.1172702665044549
 40
0.2230666941705858
 40
0.329696625768577
 40
0.399155714170558
 40
0.4688599420014262
 40
0.5507987705873381
 40
0.6793862859826494
 40
0.9317467574563467
 40
1.0
 40
1.0
 40
1.0
 40
1.0
 10
238.810599959611
 20
112.5982198251529
 30
0.0
 10
238.7906630734551
 20
112.5480893242852
 30
0.0
 10
238.7527399457995
 20
112.4527331403265
 30
0.0
 10
238.610464950973
 20
112.2571824800391
 30
0.0
 10
238.4501201582255
 20
112.0655343149209
 30
0.0
 10
238.2661597613441
 20
111.8787422245149
 30
0.0
 10
238.0842985644504
 20
111.7152086360647
 30
0.0
 10
237.8641049444313
 20
111.5419041848482
 30
0.0
 10
237.5566122674303
 20
111.341610973399
 30
0.0
 10
237.3293565492685
 20
111.2421733032321
 30
0.0
 10
237.1938573800883
 20
111.206981957225
 30
0.0
 10
237.1650118963982
 20
111.199490314262
 30
0.0
  0
SPLINE
  5
8B
330
1F
100
AcDbEntity
  8
0
  6
Continuous
 62
     7
370
    15
100
AcDbSpline
210
0.0
220
0.0
230
1.0
 70
     8
 71
     3
 72
    14
 73
    10
 74
     0
 42
0.00000001
 43
0.00000001
 12
1.0
 22
0.0
 32
0.0
 13
1.0
 23
0.0
 33
0.0
 40
0.0
 40
0.0
 40
0.0
 40
0.0
 40
0.3137452507466904
 40
0.469554348858737
 40
0.6265909694756652
 40
0.7288851410118811
 40
0.8315403356390394
 40
0.9522137389284021
 40
0.9999999999999999
 40
0.9999999999999999
 40
0.9999999999999999
 40
0.9999999999999999
 10
241.0443585781909
 20
113.7159766718868
 30
0.0
 10
240.9661558068677
 20
113.6327113434163
 30
0.0
 10
240.8491167400444
 20
113.5080956018253
 30
0.0
 10
240.5733762995052
 20
113.3162503843365
 30
0.0
 10
240.3436089844563
 20
113.1799028200774
 30
0.0
 10
240.1029329932819
 20
113.0609679917954
 30
0.0
 10
239.8821553404635
 20
112.9698785230393
 30
0.0
 10
239.7075041113291
 20
112.9087874168542
 30
0.0
 10
239.6278939274464
 20
112.8920595008477
 30
0.0
 10
239.6053112335689
 20
112.887314361621
 30
0.0
  0
SPLINE
  5
8C
330
1F
100
AcDbEntity
  8
0
  6
Continuous
 62
     7
370
    15
100
AcDbSpline
210
0.0
220
0.0
230
1.0
 70
     8
 71
     3
 72
    19
 73
    15
 74
     0
 42
0.00000001
 43
0.00000001
 12
1.0
 22
0.0
 32
0.0
 13
1.0
 23
0.0
 33
0.0
 40
0.0
 40
0.0
 40
0.0
 40
0.0
 40
0.2120893517127684
 40
0.319739048171807
 40
0.4281053626471237
 40
0.5067875704692267
 40
0.5861902950318685
 40
0.6649912045024444
 40
0.7458988518185067
 40
0.7972309835733994
 40
0.8499084642553663
 40
0.9012989054013372
 40
0.9543433821407069
 40
1.0
 40
1.0
 40
1.0
 40
1.0
 10
243.5310187503689
 20
113.978460451429
 30
0.0
 10
243.4571311871157
 20
113.9365436650239
 30
0.0
 10
243.3457406861052
 20
113.8733512733298
 30
0.0
 10
243.1634386067453
 20
113.7939998755293
 30
0.0
 10
243.0247419197232
 20
113.7414747207521
 30
0.0
 10
242.8861046152794
 20
113.6963209900937
 30
0.0
 10
242.7516626356779
 20
113.6583862213009
 30
0.0
 10
242.6033085163697
 20
113.6232125601911
 30
0.0
 10
242.4603463066612
 20
113.5962184342122
 30
0.0
 10
242.3285864649136
 20
113.5771599345777
 30
0.0
 10
242.2155020303788
 20
113.564899905313
 30
0.0
 10
242.1026664764998
 20
113.5571764283175
 30
0.0
 10
241.9984092035885
 20
113.5538504903746
 30
0.0
 10
241.9368486451038
 20
113.5555420208732
 30
0.0
 10
241.908372295319
 20
113.5563244798913
 30
0.0
  0
LINE
  5
8D
330
1F
100
AcDbEntity
  8
0
  6
Continuous
 62
     7
370
    15
100
AcDbLine
 10
244.3283090792
 20
113.0383548609
 30
0.0
 11
243.5310187504
 21
113.9784604514
 31
0.0
  0
ARC
  5
8E
330
1F
100
AcDbEntity
  8
0
  6
Continuous
 62
     7
370
    15
100
AcDbCircle
 10
242.4823950027
 20
106.9645785696
 30
0.0
 40
6.797723191200102
100
AcDbArc
 50
141.4652092826
 51
219.5695789891
  0
ARC
  5
8F
330
1F
100
AcDbEntity
  8
0
  6
Continuous
 62
     7
370
    15
100
AcDbCircle
 10
242.893593632
 20
107.4047430358
 30
0.0
 40
6.604549298971396
100
AcDbArc
 50
40.448466498
 51
84.4615892783
  0
SPLINE
  5
90
330
1F
100
AcDbEntity
  8
0
  6
Continuous
 62
     7
370
    15
100
AcDbSpline
210
0.0
220
0.0
230
1.0
 70
     8
 71
     3
 72
    10
 73
     6
 74
     0
 42
0.00000001
 43
0.00000001
 12
1.0
 22
0.0
 32
0.0
 13
1.0
 23
0.0
 33
0.0
 40
0.0
 40
0.0
 40
0.0
 40
0.0
 40
0.3401614754193024
 40
0.6905232880456957
 40
1.0
 40
1.0
 40
1.0
 40
1.0
 10
246.3080447848481
 20
117.3802394302974
 30
0.0
 10
246.1090409155254
 20
117.7795077458411
 30
0.0
 10
245.7050656975524
 20
118.5900171361883
 30
0.0
 10
244.8884788672958
 20
119.6288979726674
 30
0.0
 10
244.2391173640591
 20
120.1985643461923
 30
0.0
 10
243.9345545727018
 20
120.4657486187405
 30
0.0
  0
SPLINE
  5
91
330
1F
100
AcDbEntity
  8
0
  6
Continuous
 62
     7
370
    15
100
AcDbSpline
210
0.0
220
0.0
230
1.0
 70
     8
 71
     3
 72
    14
 73
    10
 74
     0
 42
0.00000001
 43
0.00000001
 12
1.0
 22
0.0
 32
0.0
 13
1.0
 23
0.0
 33
0.0
 40
0.0
 40
0.0
 40
0.0
 40
0.0
 40
0.125158417386101
 40
0.2544524011474444
 40
0.4190677586698854
 40
0.588334210101139
 40
0.790715113846119
 40
0.9982398708096724
 40
0.9999999999999999
 40
0.9999999999999999
 40
0.9999999999999999
 40
0.9999999999999999
 10
243.9345545727017
 20
120.4657486187405
 30
0.0
 10
243.6045658025515
 20
120.7088560944683
 30
0.0
 10
242.9336845572464
 20
121.2031039623123
 30
0.0
 10
241.7378935756628
 20
121.809210384922
 30
0.0
 10
240.3912523157651
 20
122.2931282878586
 30
0.0
 10
238.8332164194962
 20
122.6115321017691
 30
0.0
 10
237.1900854437679
 20
122.6980362078702
 30
0.0
 10
236.0746966705795
 20
122.5722377306202
 30
0.0
 10
235.5279076833234
 20
122.4615898157634
 30
0.0
 10
235.5233090748185
 20
122.4606592439081
 30
0.0
  0
SPLINE
  5
92
330
1F
100
AcDbEntity
  8
0
  6
Continuous
 62
     7
370
    15
100
AcDbSpline
210
0.0
220
0.0
230
1.0
 70
     8
 71
     3
 72
    14
 73
    10
 74
     0
 42
0.00000001
 43
0.00000001
 12
1.0
 22
0.0
 32
0.0
 13
1.0
 23
0.0
 33
0.0
 40
0.0
 40
0.0
 40
0.0
 40
0.0
 40
0.1271126450963729
 40
0.2544452924943837
 40
0.421268886866188
 40
0.588329044127556
 40
0.7932264515618573
 40
0.9982398467833085
 40
1.0
 40
1.0
 40
1.0
 40
1.0
 10
231.9311318079671
 20
115.2087982533993
 30
0.0
 10
231.9692118645058
 20
115.6188718012389
 30
0.0
 10
232.0454378852676
 20
116.4397286384571
 30
0.0
 10
232.3521602167078
 20
117.7093754179261
 30
0.0
 10
232.8206614599282
 20
118.981974458026
 30
0.0
 10
233.5199091893777
 20
120.2923590012625
 30
0.0
 10
234.4111452679834
 20
121.4838187003312
 30
0.0
 10
235.1370751841803
 20
122.1631499667028
 30
0.0
 10
235.5200490222725
 20
122.4581480818892
 30
0.0
 10
235.5233090748185
 20
122.4606592439081
 30
0.0
  0
SPLINE
  5
93
330
1F
100
AcDbEntity
  8
0
  6
Continuous
 62
     7
370
    15
100
AcDbSpline
210
0.0
220
0.0
230
1.0
 70
     8
 71
     3
 72
    10
 73
     6
 74
     0
 42
0.00000001
 43
0.00000001
 12
1.0
 22
0.0
 32
0.0
 13
1.0
 23
0.0
 33
0.0
 40
0.0
 40
0.0
 40
0.0
 40
0.0
 40
0.3401614754193031
 40
0.6905232880456962
 40
1.0
 40
1.0
 40
1.0
 40
1.0
 10
232.6115770581713
 20
111.381812778928
 30
0.0
 10
232.4534901984756
 20
111.7990008739316
 30
0.0
 10
232.1325759679053
 20
112.6458871791497
 30
0.0
 10
231.9143076668328
 20
113.9468041758336
 30
0.0
 10
231.9257603047828
 20
114.8058769302733
 30
0.0
 10
231.9311318079671
 20
115.2087982533993
 30
0.0
  0
SPLINE
  5
94
330
1F
100
AcDbEntity
  8
0
  6
Continuous
 62
     7
370
    15
100
AcDbSpline
210
0.0
220
0.0
230
1.0
 70
     8
 71
     3
 72
    10
 73
     6
 74
     0
 42
0.00000001
 43
0.00000001
 12
1.0
 22
0.0
 32
0.0
 13
1.0
 23
0.0
 33
0.0
 40
0.0
 40
0.0
 40
0.0
 40
0.0
 40
0.1480669295196477
 40
0.9078073725016005
 40
1.0
 40
1.0
 40
1.0
 40
1.0
 10
231.0890561351059
 20
113.715913634896
 30
0.0
 10
231.1079962333278
 20
113.6689530453839
 30
0.0
 10
231.2241191303012
 20
113.3810348079056
 30
0.0
 10
231.3773618194043
 20
113.0044684459985
 30
0.0
 10
231.5293487484544
 20
112.674238638024
 30
0.0
 10
231.5457961371285
 20
112.6385025517863
 30
0.0
  0
ARC
  5
95
330
1F
100
AcDbEntity
  8
0
  6
Continuous
 62
     7
370
    15
100
AcDbCircle
 10
238.3889404405
 20
115.5933816613
 30
0.0
 40
7.537452955929571
100
AcDbArc
 50
42.3660356712
 51
194.4233860353
  0
ARC
  5
96
330
1F
100
AcDbEntity
  8
0
  6
Continuous
 62
     7
370
    15
100
AcDbCircle
 10
-113.8731154755
 20
-39.7559291437
 30
0.0
 40
392.9659574067481
100
AcDbArc
 50
22.6722553322
 51
23.5701903867
  0
SPLINE
  5
97
330
1F
100
AcDbEntity
  8
0
  6
Continuous
 62
     7
370
    15
100
AcDbSpline
210
0.0
220
0.0
230
1.0
 70
     8
 71
     3
 72
     9
 73
     5
 74
     0
 42
0.00000001
 43
0.00000001
 12
1.0
 22
0.0
 32
0.0
 13
1.0
 23
0.0
 33
0.0
 40
0.0
 40
0.0
 40
0.0
 40
0.0
 40
0.740494262416869
 40
0.9999999999999999
 40
0.9999999999999999
 40
0.9999999999999999
 40
0.9999999999999999
 10
248.7263389464684
 20
111.716442374993
 30
0.0
 10
249.0059623011251
 20
111.0303643769206
 30
0.0
 10
249.3835794804183
 20
110.103850786075
 30
0.0
 10
249.660669454094
 20
109.1715508921924
 30
0.0
 10
249.7325758920896
 20
108.9296137205817
 30
0.0
  0
SPLINE
  5
98
330
1F
100
AcDbEntity
  8
0
  6
Continuous
 62
     7
370
    15
100
AcDbSpline
210
0.0
220
0.0
230
1.0
 70
     8
 71
     3
 72
    14
 73
    10
 74
     0
 42
0.00000001
 43
0.00000001
 12
1.0
 22
0.0
 32
0.0
 13
1.0
 23
0.0
 33
0.0
 40
0.0
 40
0.0
 40
0.0
 40
0.0
 40
0.0131709966380548
 40
0.1779762254971885
 40
0.3427950738516763
 40
0.5049660185440709
 40
0.6671536986589909
 40
0.8335680417002749
 40
1.0
 40
1.0
 40
1.0
 40
1.0
 10
250.0925108867173
 20
107.7560521353262
 30
0.0
 10
250.1101390973873
 20
107.6990355237633
 30
0.0
 10
250.3483444878789
 20
106.9285849955709
 30
0.0
 10
250.656936324896
 20
105.4492192352643
 30
0.0
 10
251.001234949124
 20
103.3521623861987
 30
0.0
 10
251.1696599742569
 20
101.3077623484988
 30
0.0
 10
251.1921639083455
 20
99.31218657981577
 30
0.0
 10
251.0775323000219
 20
97.35991663016245
 30
0.0
 10
250.8871454363335
 20
96.11357966866116
 30
0.0
 10
250.7919469665576
 20
95.49037820790204
 30
0.0
  0
SPLINE
  5
99
330
1F
100
AcDbEntity
  8
0
  6
Continuous
 62
     7
370
    15
100
AcDbSpline
210
0.0
220
0.0
230
1.0
 70
     8
 71
     3
 72
    15
 73
    11
 74
     0
 42
0.00000001
 43
0.00000001
 12
1.0
 22
0.0
 32
0.0
 13
1.0
 23
0.0
 33
0.0
 40
0.0
 40
0.0
 40
0.0
 40
0.0
 40
0.1215859564645528
 40
0.2441784927720078
 40
0.36989112277519
 40
0.4966411439786733
 40
0.6204309125625048
 40
0.7450703576183061
 40
0.8721601851370038
 40
1.0
 40
1.0
 40
1.0
 40
1.0
 10
235.0298712197916
 20
105.7180157236237
 30
0.0
 10
235.3231327521642
 20
105.0444492635377
 30
0.0
 10
235.9120836560759
 20
103.691740054448
 30
0.0
 10
236.9158444459535
 20
101.7590558493008
 30
0.0
 10
238.0066831695641
 20
99.90697046501147
 30
0.0
 10
239.1729548804525
 20
98.1787214419804
 30
0.0
 10
240.3924385792158
 20
96.58957556166008
 30
0.0
 10
241.6580604191287
 20
95.14093846557253
 30
0.0
 10
242.9701971796199
 20
93.81087590224338
 30
0.0
 10
243.8683771481494
 20
93.04133373717133
 30
0.0
 10
244.3187883275546
 20
92.6554306817519
 30
0.0
  0
ARC
  5
9A
330
1F
100
AcDbEntity
  8
0
  6
Continuous
 62
     7
370
    15
100
AcDbCircle
 10
-127.5695832023
 20
-45.7543557951
 30
0.0
 40
392.9659574068882
100
AcDbArc
 50
22.6722553322
 51
23.5701903867
  0
SPLINE
  5
9B
330
1F
100
AcDbEntity
  8
0
  6
Continuous
 62
     7
370
    15
100
AcDbSpline
210
0.0
220
0.0
230
1.0
 70
     8
 71
     3
 72
    24
 73
    20
 74
     0
 42
0.00000001
 43
0.00000001
 12
1.0
 22
0.0
 32
0.0
 13
1.0
 23
0.0
 33
0.0
 40
0.0
 40
0.0
 40
0.0
 40
0.0
 40
0.0607470131893483
 40
0.1232510961804451
 40
0.1839988998807361
 40
0.2465317845661117
 40
0.3067918258339797
 40
0.3689003663297642
 40
0.4274100913332456
 40
0.487735430825352
 40
0.5442811105081586
 40
0.6025246452184208
 40
0.6581497830988544
 40
0.7153566349120443
 40
0.7716170738012416
 40
0.8294161044329827
 40
0.8874205084235725
 40
0.9470061283589689
 40
1.0
 40
1.0
 40
1.0
 40
1.0
 10
238.2952664584312
 20
113.3101418641459
 30
0.0
 10
238.2642317629875
 20
113.3920443062373
 30
0.0
 10
238.2012647127206
 20
113.5582181679244
 30
0.0
 10
238.1610173338495
 20
113.8219059784767
 30
0.0
 10
238.1621702969069
 20
114.0901655379249
 30
0.0
 10
238.2086395408413
 20
114.3514503228723
 30
0.0
 10
238.2992131999508
 20
114.6025317082611
 30
0.0
 10
238.4289814458228
 20
114.8291373537357
 30
0.0
 10
238.5960384327
 20
115.0295286080457
 30
0.0
 10
238.7894404621566
 20
115.192575778227
 30
0.0
 10
239.0077240173334
 20
115.3192186684382
 30
0.0
 10
239.2382952899034
 20
115.4042474999574
 30
0.0
 10
239.480798201754
 20
115.4490715138761
 30
0.0
 10
239.7246947380436
 20
115.4528680355477
 30
0.0
 10
239.9689186294211
 20
115.4158754871293
 30
0.0
 10
240.2052741370724
 20
115.3393667222853
 30
0.0
 10
240.4295513112486
 20
115.2226009143766
 30
0.0
 10
240.6293211900364
 20
115.077397027305
 30
0.0
 10
240.7379471927676
 20
114.9569449731012
 30
0.0
 10
240.7890800622185
 20
114.9002452970768
 30
0.0
  0
SPLINE
  5
9C
330
1F
100
AcDbEntity
  8
0
  6
Continuous
 62
     7
370
    15
100
AcDbSpline
210
0.0
220
0.0
230
1.0
 70
     8
 71
     3
 72
    10
 73
     6
 74
     0
 42
0.00000001
 43
0.00000001
 12
1.0
 22
0.0
 32
0.0
 13
1.0
 23
0.0
 33
0.0
 40
0.0
 40
0.0
 40
0.0
 40
0.0
 40
0.3029725757899363
 40
0.6496479865616859
 40
1.0
 40
1.0
 40
1.0
 40
1.0
 10
238.5420391047618
 20
112.9231181045849
 30
0.0
 10
238.5111950772068
 20
112.9580260097261
 30
0.0
 10
238.4450578687605
 20
113.0328771748223
 30
0.0
 10
238.3643345094974
 20
113.1646083511317
 30
0.0
 10
238.3183699583526
 20
113.261460404997
 30
0.0
 10
238.2952664584312
 20
113.3101418641459
 30
0.0
  0
LINE
  5
9D
330
1F
100
AcDbEntity
  8
0
  6
Continuous
 62
     7
370
    15
100
AcDbLine
 10
233.8789166444
 20
107.0751359491
 30
0.0
 11
232.1689626869
 21
111.216110344
 31
0.0
  0
ARC
  5
9E
330
1F
100
AcDbEntity
  8
0
  6
Continuous
 62
     7
370
    15
100
AcDbCircle
 10
198.0265745512
 20
97.1056378359
 30
0.0
 40
36.94330929966153
100
AcDbArc
 50
22.4544814801
 51
24.8630871426
  0
SPLINE
  5
9F
330
1F
100
AcDbEntity
  8
0
  6
Continuous
 62
     7
370
    15
100
AcDbSpline
210
0.0
220
0.0
230
1.0
 70
     8
 71
     3
 72
    12
 73
     8
 74
     0
 42
0.00000001
 43
0.00000001
 12
1.0
 22
0.0
 32
0.0
 13
1.0
 23
0.0
 33
0.0
 40
0.0
 40
0.0
 40
0.0
 40
0.0
 40
0.2188995491151177
 40
0.4437466788580112
 40
0.662805507101886
 40
0.8894870632045578
 40
1.0
 40
1.0
 40
1.0
 40
1.0
 10
244.3187883275546
 20
92.6554306817519
 30
0.0
 10
244.4521278746568
 20
92.54765291463451
 30
0.0
 10
244.7224298530128
 20
92.32916901913812
 30
0.0
 10
245.0511363671646
 20
92.08882222043857
 30
0.0
 10
245.3011145659852
 20
91.92560937015567
 30
0.0
 10
245.4441753827564
 20
91.850248018035
 30
0.0
 10
245.4585888712653
 20
91.8644233690474
 30
0.0
 10
245.4633127827708
 20
91.86906923279511
 30
0.0
  0
SPLINE
  5
A0
330
1F
100
AcDbEntity
  8
0
  6
Continuous
 62
     7
370
    15
100
AcDbSpline
210
0.0
220
0.0
230
1.0
 70
     8
 71
     3
 72
     9
 73
     5
 74
     0
 42
0.00000001
 43
0.00000001
 12
1.0
 22
0.0
 32
0.0
 13
1.0
 23
0.0
 33
0.0
 40
0.0
 40
0.0
 40
0.0
 40
0.0
 40
0.1073109529679361
 40
1.0
 40
1.0
 40
1.0
 40
1.0
 10
239.8888418746301
 20
97.20840788422339
 30
0.0
 10
239.8782294997991
 20
97.22075342585192
 30
0.0
 10
239.7793358217775
 20
97.33579798828578
 30
0.0
 10
239.6723467892728
 20
97.46533045895755
 30
0.0
 10
239.5768388518034
 20
97.58096267676125
 30
0.0
  0
ARC
  5
A1
330
1F
100
AcDbEntity
  8
0
  6
Continuous
 62
     7
370
    15
100
AcDbCircle
 10
268.3032274392
 20
121.2779758679
 30
0.0
 40
37.23914386040145
100
AcDbArc
 50
202.4201466732
 51
219.5199521349
  0
SPLINE
  5
A2
330
1F
100
AcDbEntity
  8
0
  6
Continuous
 62
     7
370
    15
100
AcDbSpline
210
0.0
220
0.0
230
1.0
 70
     8
 71
     3
 72
    12
 73
     8
 74
     0
 42
0.00000001
 43
0.00000001
 12
1.0
 22
0.0
 32
0.0
 13
1.0
 23
0.0
 33
0.0
 40
0.0
 40
0.0
 40
0.0
 40
0.0
 40
0.2188995491151176
 40
0.4437466788580122
 40
0.6628055071018867
 40
0.8894870632045585
 40
1.0
 40
1.0
 40
1.0
 40
1.0
 10
250.7919469665576
 20
95.49037820790204
 30
0.0
 10
250.756649495421
 20
95.30874513700871
 30
0.0
 10
250.6850955079768
 20
94.94054395840638
 30
0.0
 10
250.5513842683414
 20
94.49767932563924
 30
0.0
 10
250.404713811519
 20
94.16075249926276
 30
0.0
 10
250.276632756094
 20
93.96664340393265
 30
0.0
 10
250.2023557450794
 20
93.94197637115077
 30
0.0
 10
250.1780120182496
 20
93.93389193830218
 30
0.0
  0
LINE
  5
A3
330
1F
100
AcDbEntity
  8
0
  6
Continuous
 62
     7
370
    15
100
AcDbLine
 10
241.4507932385
 20
95.4068087991
 30
0.0
 11
242.7741568921
 21
92.7224855243
 31
0.0
  0
LINE
  5
A4
330
1F
100
AcDbEntity
  8
0
  6
Continuous
 62
     7
370
    15
100
AcDbLine
 10
256.5463915536
 20
86.2818237711
 30
0.0
 11
251.0522587523
 21
97.4261743909
 31
0.0
  0
ARC
  5
A5
330
1F
100
AcDbEntity
  8
0
  6
Continuous
 62
     7
370
    15
100
AcDbCircle
 10
256.1797360241
 20
86.112108744
 30
0.0
 40
0.4040290431581089
100
AcDbArc
 50
243.353195955
 51
24.8381548346
  0
LINE
  5
A6
330
1F
100
AcDbEntity
  8
0
  6
Continuous
 62
     7
370
    15
100
AcDbLine
 10
242.9362911997
 20
92.556858611
 30
0.0
 11
255.9985332974
 21
85.7509923645
 31
0.0
  0
ARC
  5
A7
330
1F
100
AcDbEntity
  8
0
  6
Continuous
 62
     7
370
    15
100
AcDbCircle
 10
243.1079317341
 20
92.8870508615
 30
0.0
 40
0.372138946248354
100
AcDbArc
 50
206.2452775454
 51
242.5336872448
  0
ARC
  5
A8
330
1F
100
AcDbEntity
  8
0
  6
Continuous
 62
     7
370
    15
100
AcDbCircle
 10
256.1803189865
 20
86.111464383
 30
0.0
 40
0.3838275910002209
100
AcDbArc
 50
243.3531959551
 51
24.8381548346
  0
LINE
  5
A9
330
1F
100
AcDbEntity
  8
0
  6
Continuous
 62
     7
370
    15
100
AcDbLine
 10
256.5286417395
 20
86.2726936587
 30
0.0
 11
251.0497935922
 21
97.3860407428
 31
0.0
  0
LINE
  5
AA
330
1F
100
AcDbEntity
  8
0
  6
Continuous
 62
     7
370
    15
100
AcDbLine
 10
241.5020587284
 20
95.3479553996
 30
0.0
 11
242.7919067063
 21
92.7316156366
 31
0.0
  0
ARC
  5
AB
330
1F
100
AcDbEntity
  8
0
  6
Continuous
 62
     7
370
    15
100
AcDbCircle
 10
243.1089928061
 20
92.8879527069
 30
0.0
 40
0.3535319989353594
100
AcDbArc
 50
206.2452775454
 51
242.5336872449
  0
LINE
  5
AC
330
1F
100
AcDbEntity
  8
0
  6
Continuous
 62
     7
370
    15
100
AcDbLine
 10
242.9459342984
 20
92.574270069
 30
0.0
 11
256.0081763962
 21
85.7684038224
 31
0.0
  0
LINE
  5
AD
330
1F
100
AcDbEntity
  8
0
  6
Continuous
 62
     7
370
    15
100
AcDbLine
 10
243.0910559616
 20
92.9500091767
 30
0.0
 11
242.7919067063
 21
92.7316156366
 31
0.0
  0
LINE
  5
AE
330
1F
100
AcDbEntity
  8
0
  6
Continuous
 62
     7
370
    15
100
AcDbLine
 10
243.3096202627
 20
93.23390043
 30
0.0
 11
243.0910559616
 21
92.9500091767
 31
0.0
  0
LINE
  5
AF
330
1F
100
AcDbEntity
  8
0
  6
Continuous
 62
     7
370
    15
100
AcDbLine
 10
251.2066619289
 20
92.554447325
 30
0.0
 11
250.4048925603
 21
94.1807638492
 31
0.0
  0
ARC
  5
B0
330
1F
100
AcDbEntity
  8
0
  6
Continuous
 62
     7
370
    15
100
AcDbCircle
 10
250.2900231054
 20
92.1301597569
 30
0.0
 40
1.010072607947075
100
AcDbArc
 50
243.3531959407
 51
24.8381548513
  0
LINE
  5
B1
330
1F
100
AcDbEntity
  8
0
  6
Continuous
 62
     7
370
    15
100
AcDbLine
 10
247.1871079128
 20
92.6080599511
 30
0.0
 11
249.8370162884
 21
91.2273688081
 31
0.0
  0
LINE
  5
B2
330
1F
100
AcDbEntity
  8
0
  6
Continuous
 62
     7
370
    15
100
AcDbLine
 10
256.1532980593
 20
86.1441429302
 30
0.0
 11
256.5286417395
 21
86.2726936587
 31
0.0
  0
LINE
  5
B3
330
1F
100
AcDbEntity
  8
0
  6
Continuous
 62
     7
370
    15
100
AcDbLine
 10
253.7985274224
 20
88.5655265716
 30
0.0
 11
256.1532980593
 21
86.1441429302
 31
0.0
  0
LINE
  5
B4
330
1F
100
AcDbEntity
  8
0
  6
Continuous
 62
     7
370
    15
100
AcDbLine
 10
253.7985274224
 20
88.5655265716
 30
0.0
 11
252.6485048568
 21
90.8982431541
 31
0.0
  0
LINE
  5
B5
330
1F
100
AcDbEntity
  8
0
  6
Continuous
 62
     7
370
    15
100
AcDbLine
 10
256.1532980593
 20
86.1441429302
 30
0.0
 11
256.0081763962
 21
85.7684038224
 31
0.0
  0
LINE
  5
B6
330
1F
100
AcDbEntity
  8
0
  6
Continuous
 62
     7
370
    15
100
AcDbLine
 10
243.0910559616
 20
92.9500091767
 30
0.0
 11
242.9459342984
 21
92.574270069
 31
0.0
  0
LINE
  5
B7
330
1F
100
AcDbEntity
  8
0
  6
Continuous
 62
     7
370
    15
100
AcDbLine
 10
251.4850356856
 20
89.7709333621
 30
0.0
 11
253.7985274224
 21
88.5655265716
 31
0.0
  0
SPLINE
  5
B8
330
1F
100
AcDbEntity
  8
0
  6
Continuous
 62
     7
370
    15
100
AcDbSpline
210
0.0
220
0.0
230
1.0
 70
     8
 71
     3
 72
     9
 73
     5
 74
     0
 42
0.00000001
 43
0.00000001
 12
1.0
 22
0.0
 32
0.0
 13
1.0
 23
0.0
 33
0.0
 40
0.0
 40
0.0
 40
0.0
 40
0.0
 40
0.9628416218860951
 40
1.0
 40
1.0
 40
1.0
 40
1.0
 10
243.3096202626716
 20
93.23390043003302
 30
0.0
 10
243.3548053612668
 20
93.29193096188523
 30
0.0
 10
243.4017342616883
 20
93.35220103178368
 30
0.0
 10
243.4605182018221
 20
93.40889748394787
 30
0.0
 10
243.4627025176966
 20
93.4110042321551
 30
0.0
  0
ARC
  5
B9
330
1F
100
AcDbEntity
  8
0
  6
Continuous
 62
     7
370
    15
100
AcDbCircle
 10
250.066622694
 20
92.3956979526
 30
0.0
 40
2.473724759232311
100
AcDbArc
 50
304.4300090717
 51
323.7613417179
  0
SPLINE
  5
BA
330
1F
100
AcDbEntity
  8
0
  6
Continuous
 62
     7
370
    15
100
AcDbSpline
210
0.0
220
0.0
230
1.0
 70
     8
 71
     3
 72
    14
 73
    10
 74
     0
 42
0.00000001
 43
0.00000001
 12
1.0
 22
0.0
 32
0.0
 13
1.0
 23
0.0
 33
0.0
 40
0.0
 40
0.0
 40
0.0
 40
0.0
 40
0.2234968253973802
 40
0.3567622963774786
 40
0.4531212562341465
 40
0.5344619041500376
 40
0.6157317558035345
 40
0.7396161778922102
 40
0.9999999999999999
 40
0.9999999999999999
 40
0.9999999999999999
 40
0.9999999999999999
 10
252.6485048568217
 20
90.89824315407249
 30
0.0
 10
252.6207079766339
 20
90.94881860970835
 30
0.0
 10
252.5763365239732
 20
91.02955092284485
 30
0.0
 10
252.491377250077
 20
91.11126920385352
 30
0.0
 10
252.4185221175297
 20
91.14786501353073
 30
0.0
 10
252.3498863222859
 20
91.15528557281138
 30
0.0
 10
252.2751303375513
 20
91.13700820538708
 30
0.0
 10
252.1685143596302
 20
91.06936399832358
 30
0.0
 10
252.1049237747327
 20
90.98829123545185
 30
0.0
 10
252.0618341887579
 20
90.93335555917831
 30
0.0
  0
SPLINE
  5
BB
330
1F
100
AcDbEntity
  8
0
  6
Continuous
 62
     7
370
    15
100
AcDbSpline
210
0.0
220
0.0
230
1.0
 70
     8
 71
     3
 72
    14
 73
    10
 74
     0
 42
0.00000001
 43
0.00000001
 12
1.0
 22
0.0
 32
0.0
 13
1.0
 23
0.0
 33
0.0
 40
0.0
 40
0.0
 40
0.0
 40
0.0
 40
0.2210591904779489
 40
0.3460797326519234
 40
0.4396016244131509
 40
0.5338897453199685
 40
0.6146561933587688
 40
0.7517253237593973
 40
0.9999999999999999
 40
0.9999999999999999
 40
0.9999999999999999
 40
0.9999999999999999
 10
251.4652644093408
 20
90.35532653138365
 30
0.0
 10
251.4175721816994
 20
90.32039302470096
 30
0.0
 10
251.342907503176
 20
90.2657027916136
 30
0.0
 10
251.2688387043012
 20
90.17340854733713
 30
0.0
 10
251.2367216091561
 20
90.09573426887799
 30
0.0
 10
251.2362978833016
 20
90.02369005333293
 30
0.0
 10
251.2653517433278
 20
89.947633273016
 30
0.0
 10
251.3430110519049
 20
89.85362527673009
 30
0.0
 10
251.4293852888405
 20
89.80333504999874
 30
0.0
 10
251.4850356855541
 20
89.77093336209144
 30
0.0
  0
ELLIPSE
  5
BC
330
1F
100
AcDbEntity
  8
0
  6
Continuous
 62
     7
370
    15
100
AcDbEllipse
 10
307.9183478779
 20
130.7076960585
 30
0.0
 11
178.6415948019417
 21
6.749583177696024
 31
0.0
210
0.0
220
0.0
230
1.0
 40
0.1722352441
 41
2.022984170111707
 42
2.032171904624165
  0
SPLINE
  5
BD
330
1F
100
AcDbEntity
  8
0
  6
Continuous
 62
     7
370
    15
100
AcDbSpline
210
0.0
220
0.0
230
1.0
 70
     8
 71
     3
 72
    18
 73
    14
 74
     0
 42
0.00000001
 43
0.00000001
 12
1.0
 22
0.0
 32
0.0
 13
1.0
 23
0.0
 33
0.0
 40
0.0
 40
0.0
 40
0.0
 40
0.0
 40
0.2499999999999998
 40
0.2499999999999998
 40
0.4999999999999996
 40
0.4999999999999996
 40
0.6249999999999998
 40
0.6249999999999998
 40
0.75
 40
0.75
 40
0.8750000000000002
 40
0.8750000000000002
 40
1.0
 40
1.0
 40
1.0
 40
1.0
 10
227.3496687652849
 20
155.254181447983
 30
0.0
 10
226.7394292939424
 20
155.1786262269909
 30
0.0
 10
226.1675695143667
 20
155.0406199082479
 30
0.0
 10
225.0966718177349
 20
154.6368545688298
 30
0.0
 10
224.6239157023581
 20
154.3801522635844
 30
0.0
 10
224.0056113978492
 20
153.9145117698426
 30
0.0
 10
223.8175658183562
 20
153.7476134824049
 30
0.0
 10
223.4789700098822
 20
153.3951280646564
 30
0.0
 10
223.3275786960855
 20
153.2088890513996
 30
0.0
 10
223.058503973242
 20
152.8161337638731
 30
0.0
 10
222.9414260190082
 20
152.610084397324
 30
0.0
 10
222.7433446235848
 20
152.1863129811939
 30
0.0
 10
222.6616188748813
 20
151.9675750586463
 30
0.0
 10
222.5960028735521
 20
151.7419535538457
 30
0.0
  0
ELLIPSE
  5
BE
330
1F
100
AcDbEntity
  8
0
  6
Continuous
 62
     7
370
    15
100
AcDbEllipse
 10
227.5697733639
 20
130.7076960585
 30
0.0
 11
1.883604809472672
 21
31.49615682494977
 31
0.0
210
0.0
220
0.0
230
1.0
 40
0.2612235458
 41
0.8552296432477351
 42
2.736484058683514
  0
SPLINE
  5
BF
330
1F
100
AcDbEntity
  8
0
  6
Continuous
 62
     7
370
    15
100
AcDbSpline
210
0.0
220
0.0
230
1.0
 70
     8
 71
     3
 72
    20
 73
    16
 74
     0
 42
0.00000001
 43
0.00000001
 12
1.0
 22
0.0
 32
0.0
 13
1.0
 23
0.0
 33
0.0
 40
0.0
 40
0.0
 40
0.0
 40
0.0
 40
0.25
 40
0.25
 40
0.375
 40
0.375
 40
0.5
 40
0.5
 40
0.625
 40
0.625
 40
0.75
 40
0.75
 40
0.875
 40
0.875
 40
1.0
 40
1.0
 40
1.0
 40
1.0
 10
222.5960028735521
 20
101.9547735206425
 30
0.0
 10
222.7275151044852
 20
101.7066573525313
 30
0.0
 10
222.9221635598394
 20
101.4848218224529
 30
0.0
 10
223.3235908890089
 20
101.1875690573703
 30
0.0
 10
223.47739218592
 20
101.093724840835
 30
0.0
 10
223.8177153529585
 20
100.9220332279999
 30
0.0
 10
224.0039734696329
 20
100.8439539312691
 30
0.0
 10
224.4099087848371
 20
100.7017523784926
 30
0.0
 10
224.6295619859932
 20
100.637627962245
 30
0.0
 10
225.1054055713194
 20
100.522387070056
 30
0.0
 10
225.3618934412536
 20
100.4714845720228
 30
0.0
 10
225.8919639295299
 20
100.3855518586165
 30
0.0
 10
226.1679720209479
 20
100.3498648210381
 30
0.0
 10
226.7426573684968
 20
100.2917783100258
 30
0.0
 10
227.0433561848947
 20
100.2693102949209
 30
0.0
 10
227.3496687652849
 20
100.2538441038184
 30
0.0
  0
ELLIPSE
  5
C0
330
1F
100
AcDbEntity
  8
0
  6
Continuous
 62
     7
370
    15
100
AcDbEllipse
 10
307.9183478779
 20
130.7076960585
 30
0.0
 11
178.6415948019417
 21
6.749583177696024
 31
0.0
210
0.0
220
0.0
230
1.0
 40
0.1722352441
 41
4.237998519904498
 42
4.247186254416956
  0
ELLIPSE
  5
C1
330
1F
100
AcDbEntity
  8
0
  6
Continuous
 62
     7
370
    15
100
AcDbEllipse
 10
247.1187203496
 20
130.7076960585
 30
0.0
 11
-23.06970548232147
 21
31.49782548750571
 31
0.0
210
0.0
220
0.0
230
1.0
 40
0.0160435947
 41
5.650154813750813
 42
6.271435163618884
  0
SPLINE
  5
C2
330
1F
100
AcDbEntity
  8
0
  6
Continuous
 62
     7
370
    15
100
AcDbSpline
210
0.0
220
0.0
230
1.0
 70
     8
 71
     3
 72
    12
 73
     8
 74
     0
 42
0.00000001
 43
0.00000001
 12
1.0
 22
0.0
 32
0.0
 13
1.0
 23
0.0
 33
0.0
 40
0.0
 40
0.0
 40
0.0
 40
0.0
 40
0.5000000000000001
 40
0.5000000000000001
 40
0.75
 40
0.75
 40
1.0
 40
1.0
 40
1.0
 40
1.0
 10
201.6800624846188
 20
100.8069535983386
 30
0.0
 10
201.7112076825809
 20
100.7691380754185
 30
0.0
 10
201.7534819489154
 20
100.7330712173348
 30
0.0
 10
201.8534274827406
 20
100.6851111523236
 30
0.0
 10
201.8931577874447
 20
100.6702501784259
 30
0.0
 10
201.9900458374509
 20
100.6472990322948
 30
0.0
 10
202.0501110791974
 20
100.6392040995827
 30
0.0
 10
202.113075186511
 20
100.6392040995827
 30
0.0
  0
LINE
  5
C3
330
1F
100
AcDbEntity
  8
0
  6
Continuous
 62
     7
370
    15
100
AcDbLine
 10
202.1130751865
 20
100.6392040996
 30
0.0
 11
205.0575615594
 21
100.6392040996
 31
0.0
  0
SPLINE
  5
C4
330
1F
100
AcDbEntity
  8
0
  6
Continuous
 62
     7
370
    15
100
AcDbSpline
210
0.0
220
0.0
230
1.0
 70
     8
 71
     3
 72
    12
 73
     8
 74
     0
 42
0.00000001
 43
0.00000001
 12
1.0
 22
0.0
 32
0.0
 13
1.0
 23
0.0
 33
0.0
 40
0.0
 40
0.0
 40
0.0
 40
0.0
 40
0.2500000000000032
 40
0.2500000000000032
 40
0.5000000000000064
 40
0.5000000000000064
 40
1.0
 40
1.0
 40
1.0
 40
1.0
 10
205.0575615593781
 20
100.6392040995828
 30
0.0
 10
205.1206185142759
 20
100.6392040995828
 30
0.0
 10
205.1797486640215
 20
100.6471044306623
 30
0.0
 10
205.2781962145548
 20
100.6704151786674
 30
0.0
 10
205.3172284527429
 20
100.685120304951
 30
0.0
 10
205.4171183371998
 20
100.7330538331377
 30
0.0
 10
205.4594173108092
 20
100.7691238059024
 30
0.0
 10
205.4905742612704
 20
100.8069535983387
 30
0.0
  0
ELLIPSE
  5
C5
330
1F
100
AcDbEntity
  8
0
  6
Continuous
 62
     7
370
    15
100
AcDbEllipse
 10
189.2381641836
 20
130.7076960585
 30
0.0
 11
-14.75368316065615
 21
31.09325491558116
 31
0.0
210
0.0
220
0.0
230
1.0
 40
0.3419987131
 41
3.300734856217125
 42
4.231496223360774
  0
SPLINE
  5
C6
330
1F
100
AcDbEntity
  8
0
  6
Continuous
 62
     7
370
    15
100
AcDbSpline
210
0.0
220
0.0
230
1.0
 70
     8
 71
     3
 72
    12
 73
     8
 74
     0
 42
0.00000001
 43
0.00000001
 12
1.0
 22
0.0
 32
0.0
 13
1.0
 23
0.0
 33
0.0
 40
0.0
 40
0.0
 40
0.0
 40
0.0
 40
0.4999999999999953
 40
0.4999999999999953
 40
0.7499999999999977
 40
0.7499999999999977
 40
1.0
 40
1.0
 40
1.0
 40
1.0
 10
205.4905742612704
 20
120.7983267377705
 30
0.0
 10
205.4594290633082
 20
120.9124321036358
 30
0.0
 10
205.4171547969738
 20
121.0235384308546
 30
0.0
 10
205.3172092631485
 20
121.1736960382849
 30
0.0
 10
205.2774789584444
 20
121.2206887299022
 30
0.0
 10
205.1805909084382
 20
121.2936643144407
 30
0.0
 10
205.1205256666917
 20
121.3196296271198
 30
0.0
 10
205.0575615593781
 20
121.3196296271198
 30
0.0
  0
LINE
  5
C7
330
1F
100
AcDbEntity
  8
0
  6
Continuous
 62
     7
370
    15
100
AcDbLine
 10
205.0575615594
 20
121.3196296271
 30
0.0
 11
202.1130751865
 21
121.3196296271
 31
0.0
  0
SPLINE
  5
C8
330
1F
100
AcDbEntity
  8
0
  6
Continuous
 62
     7
370
    15
100
AcDbSpline
210
0.0
220
0.0
230
1.0
 70
     8
 71
     3
 72
    12
 73
     8
 74
     0
 42
0.00000001
 43
0.00000001
 12
1.0
 22
0.0
 32
0.0
 13
1.0
 23
0.0
 33
0.0
 40
0.0
 40
0.0
 40
0.0
 40
0.0
 40
0.25
 40
0.25
 40
0.5
 40
0.5
 40
1.0
 40
1.0
 40
1.0
 40
1.0
 10
202.113075186511
 20
121.3196296271197
 30
0.0
 10
202.0500182316132
 20
121.3196296271197
 30
0.0
 10
201.9908880818676
 20
121.294283273739
 30
0.0
 10
201.8924405313343
 20
121.2201638915995
 30
0.0
 10
201.8534082931463
 20
121.1736673769014
 30
0.0
 10
201.7535184086893
 20
121.0235928698929
 30
0.0
 10
201.71121943508
 20
120.912475160778
 30
0.0
 10
201.6800624846187
 20
120.7983267377706
 30
0.0
  0
ELLIPSE
  5
C9
330
1F
100
AcDbEntity
  8
0
  6
Continuous
 62
     7
370
    15
100
AcDbEllipse
 10
217.9324725623
 20
130.7076960585
 30
0.0
 11
14.75368316065621
 21
31.09325491558116
 31
0.0
210
0.0
220
0.0
230
1.0
 40
0.3419987131
 41
2.051689083818828
 42
2.982450450962507
  0
SPLINE
  5
CA
330
1F
100
AcDbEntity
  8
0
  6
Continuous
 62
     7
370
    15
100
AcDbSpline
210
0.0
220
0.0
230
1.0
 70
     8
 71
     3
 72
    12
 73
     8
 74
     0
 42
0.00000001
 43
0.00000001
 12
1.0
 22
0.0
 32
0.0
 13
1.0
 23
0.0
 33
0.0
 40
0.0
 40
0.0
 40
0.0
 40
0.0
 40
0.4999999999999981
 40
0.4999999999999981
 40
0.749999999999999
 40
0.749999999999999
 40
1.0
 40
1.0
 40
1.0
 40
1.0
 10
201.6800624846188
 20
140.617065379141
 30
0.0
 10
201.7107847265379
 20
140.5045095797318
 30
0.0
 10
201.753621941073
 20
140.3917517199922
 30
0.0
 10
201.8530489652728
 20
140.2422108341958
 30
0.0
 10
201.8928011600895
 20
140.1949181024889
 30
0.0
 10
201.9908426169477
 20
140.1211818091675
 30
0.0
 10
202.0503986725352
 20
140.0957624897918
 30
0.0
 10
202.113075186511
 20
140.0957624897918
 30
0.0
  0
LINE
  5
CB
330
1F
100
AcDbEntity
  8
0
  6
Continuous
 62
     7
370
    15
100
AcDbLine
 10
202.1130751865
 20
140.0957624898
 30
0.0
 11
205.0575615594
 21
140.0957624898
 31
0.0
  0
SPLINE
  5
CC
330
1F
100
AcDbEntity
  8
0
  6
Continuous
 62
     7
370
    15
100
AcDbSpline
210
0.0
220
0.0
230
1.0
 70
     8
 71
     3
 72
    12
 73
     8
 74
     0
 42
0.00000001
 43
0.00000001
 12
1.0
 22
0.0
 32
0.0
 13
1.0
 23
0.0
 33
0.0
 40
0.0
 40
0.0
 40
0.0
 40
0.0
 40
0.2499999999999977
 40
0.2499999999999977
 40
0.4999999999999953
 40
0.4999999999999953
 40
1.0
 40
1.0
 40
1.0
 40
1.0
 10
205.0575615593781
 20
140.0957624897918
 30
0.0
 10
205.1206415978715
 20
140.0957624897918
 30
0.0
 10
205.1797902200529
 20
140.1211268090067
 30
0.0
 10
205.278262770122
 20
140.1952916693796
 30
0.0
 10
205.3172993821067
 20
140.2418120099338
 30
0.0
 10
205.4171958488857
 20
140.391954352779
 30
0.0
 10
205.4596167299524
 20
140.5036475597512
 30
0.0
 10
205.4905742612704
 20
140.617065379141
 30
0.0
  0
ELLIPSE
  5
CD
330
1F
100
AcDbEntity
  8
0
  6
Continuous
 62
     7
370
    15
100
AcDbEllipse
 10
189.2381641836
 20
130.7076960585
 30
0.0
 11
14.75368316065604
 21
31.09325491558116
 31
0.0
210
0.0
220
0.0
230
1.0
 40
0.3419987131
 41
5.193281737408618
 42
6.124043104552322
  0
SPLINE
  5
CE
330
1F
100
AcDbEntity
  8
0
  6
Continuous
 62
     7
370
    15
100
AcDbSpline
210
0.0
220
0.0
230
1.0
 70
     8
 71
     3
 72
    12
 73
     8
 74
     0
 42
0.00000001
 43
0.00000001
 12
1.0
 22
0.0
 32
0.0
 13
1.0
 23
0.0
 33
0.0
 40
0.0
 40
0.0
 40
0.0
 40
0.0
 40
0.5000000000000047
 40
0.5000000000000047
 40
0.7500000000000023
 40
0.7500000000000023
 40
1.0
 40
1.0
 40
1.0
 40
1.0
 10
205.4905742612704
 20
160.6084385185731
 30
0.0
 10
205.4598520193513
 20
160.6457405015261
 30
0.0
 10
205.4170148048161
 20
160.6823523335725
 30
0.0
 10
205.3175877806163
 20
160.7301171168577
 30
0.0
 10
205.2778355857997
 20
160.7450746323401
 30
0.0
 10
205.1797941289414
 20
160.7682645781092
 30
0.0
 10
205.1202380733539
 20
160.776188017329
 30
0.0
 10
205.0575615593781
 20
160.776188017329
 30
0.0
  0
LINE
  5
CF
330
1F
100
AcDbEntity
  8
0
  6
Continuous
 62
     7
370
    15
100
AcDbLine
 10
205.0575615594
 20
160.7761880173
 30
0.0
 11
202.1130751865
 21
160.7761880173
 31
0.0
  0
SPLINE
  5
D0
330
1F
100
AcDbEntity
  8
0
  6
Continuous
 62
     7
370
    15
100
AcDbSpline
210
0.0
220
0.0
230
1.0
 70
     8
 71
     3
 72
    12
 73
     8
 74
     0
 42
0.00000001
 43
0.00000001
 12
1.0
 22
0.0
 32
0.0
 13
1.0
 23
0.0
 33
0.0
 40
0.0
 40
0.0
 40
0.0
 40
0.0
 40
0.2499999999999982
 40
0.2499999999999982
 40
0.4999999999999963
 40
0.4999999999999963
 40
1.0
 40
1.0
 40
1.0
 40
1.0
 10
202.113075186511
 20
160.776188017329
 30
0.0
 10
202.0499951480177
 20
160.776188017329
 30
0.0
 10
201.9908465258362
 20
160.7682820911165
 30
0.0
 10
201.8923739757672
 20
160.7449569296803
 30
0.0
 10
201.8533373637824
 20
160.7302441398486
 30
0.0
 10
201.7534408970034
 20
160.6822883391176
 30
0.0
 10
201.7110200159368
 20
160.6460261825376
 30
0.0
 10
201.6800624846188
 20
160.6084385185731
 30
0.0
  0
ELLIPSE
  5
D1
330
1F
100
AcDbEntity
  8
0
  6
Continuous
 62
     7
370
    15
100
AcDbEllipse
 10
217.9324725623
 20
130.7076960585
 30
0.0
 11
-14.75368316065607
 21
31.09325491558116
 31
0.0
210
0.0
220
0.0
230
1.0
 40
0.3419987131
 41
0.1591422026273005
 42
1.089903569770978
  0
LINE
  5
D2
330
1F
100
AcDbEntity
  8
0
  6
Continuous
 62
     7
370
    15
100
AcDbLine
 10
191.5853183729
 20
99.7076960585
 30
0.0
 11
191.5853183729
 21
161.7076960585
 31
0.0
  0
SPLINE
  5
D3
330
1F
100
AcDbEntity
  8
0
  6
Continuous
 62
     7
370
    15
100
AcDbSpline
210
0.0
220
0.0
230
1.0
 70
     8
 71
     3
 72
    12
 73
     8
 74
     0
 42
0.00000001
 43
0.00000001
 12
1.0
 22
0.0
 32
0.0
 13
1.0
 23
0.0
 33
0.0
 40
0.0
 40
0.0
 40
0.0
 40
0.0
 40
0.5000000000000002
 40
0.5000000000000002
 40
0.7500000000000003
 40
0.7500000000000003
 40
1.0
 40
1.0
 40
1.0
 40
1.0
 10
190.7688060864881
 20
108.8529023559801
 30
0.0
 10
190.8252425873953
 20
108.8514844746383
 30
0.0
 10
190.894327218084
 20
108.84992013839
 30
0.0
 10
191.0131294898019
 20
108.8469759464156
 30
0.0
 10
191.053314765272
 20
108.8459377433182
 30
0.0
 10
191.1266958126758
 20
108.8440038481036
 30
0.0
 10
191.1601053764185
 20
108.8431089608148
 30
0.0
 10
191.1903414840749
 20
108.8423251705424
 30
0.0
  0
SPLINE
  5
D4
330
1F
100
AcDbEntity
  8
0
  6
Continuous
 62
     7
370
    15
100
AcDbSpline
210
0.0
220
0.0
230
1.0
 70
     8
 71
     3
 72
    16
 73
    12
 74
     0
 42
0.00000001
 43
0.00000001
 12
1.0
 22
0.0
 32
0.0
 13
1.0
 23
0.0
 33
0.0
 40
0.0
 40
0.0
 40
0.0
 40
0.0
 40
0.0624999999999991
 40
0.0624999999999991
 40
0.1249999999999982
 40
0.1249999999999982
 40
0.2499999999999963
 40
0.2499999999999963
 40
0.4999999999999976
 40
0.4999999999999976
 40
1.0
 40
1.0
 40
1.0
 40
1.0
 10
191.1903414840377
 20
108.8423251705667
 30
0.0
 10
191.2019218916257
 20
108.8420249794553
 30
0.0
 10
191.2152314183869
 20
108.8406972311963
 30
0.0
 10
191.2445328484731
 20
108.8339985564213
 30
0.0
 10
191.2593469483574
 20
108.8286403733156
 30
0.0
 10
191.2951753500602
 20
108.8115947241483
 30
0.0
 10
191.3092949744233
 20
108.8001321863725
 30
0.0
 10
191.3437991185118
 20
108.7685688610003
 30
0.0
 10
191.3549036692164
 20
108.750671561955
 30
0.0
 10
191.3810798464326
 20
108.7005101443408
 30
0.0
 10
191.3853183729446
 20
108.6727657321442
 30
0.0
 10
191.3853183729446
 20
108.6481015702146
 30
0.0
  0
LINE
  5
D5
330
1F
100
AcDbEntity
  8
0
  6
Continuous
 62
     7
370
    15
100
AcDbLine
 10
191.3853183729
 20
123.6858087327
 30
0.0
 11
191.3853183729
 21
108.1678757796
 31
0.0
  0
SPLINE
  5
D6
330
1F
100
AcDbEntity
  8
0
  6
Continuous
 62
     7
370
    15
100
AcDbSpline
210
0.0
220
0.0
230
1.0
 70
     8
 71
     3
 72
    16
 73
    12
 74
     0
 42
0.00000001
 43
0.00000001
 12
1.0
 22
0.0
 32
0.0
 13
1.0
 23
0.0
 33
0.0
 40
0.0
 40
0.0
 40
0.0
 40
0.0
 40
0.5000000000000016
 40
0.5000000000000016
 40
0.7500000000000007
 40
0.7500000000000007
 40
0.8750000000000002
 40
0.8750000000000002
 40
0.9375000000000001
 40
0.9375000000000001
 40
1.0
 40
1.0
 40
1.0
 40
1.0
 10
191.3853183729446
 20
123.6858087327059
 30
0.0
 10
191.3853183729446
 20
123.7995012768337
 30
0.0
 10
191.3811720978666
 20
123.9138214381832
 30
0.0
 10
191.3552065024731
 20
124.0868697286803
 30
0.0
 10
191.3437455970957
 20
124.1460452358421
 30
0.0
 10
191.3094338593213
 20
124.2291683553102
 30
0.0
 10
191.2954091233917
 20
124.2572896714108
 30
0.0
 10
191.2593861603579
 20
124.2859054853883
 30
0.0
 10
191.2446316512683
 20
124.2916985332901
 30
0.0
 10
191.2152794901214
 20
124.2901051073531
 30
0.0
 10
191.2019396156173
 20
124.2836087040292
 30
0.0
 10
191.1903414840689
 20
124.2750929578261
 30
0.0
  0
SPLINE
  5
D7
330
1F
100
AcDbEntity
  8
0
  6
Continuous
 62
     7
370
    15
100
AcDbSpline
210
0.0
220
0.0
230
1.0
 70
     8
 71
     3
 72
    12
 73
     8
 74
     0
 42
0.00000001
 43
0.00000001
 12
1.0
 22
0.0
 32
0.0
 13
1.0
 23
0.0
 33
0.0
 40
0.0
 40
0.0
 40
0.0
 40
0.0
 40
0.2499999999999998
 40
0.2499999999999998
 40
0.4999999999999996
 40
0.4999999999999996
 40
1.0
 40
1.0
 40
1.0
 40
1.0
 10
191.190341484076
 20
124.275092957817
 30
0.0
 10
191.1601430426354
 20
124.2529202257719
 30
0.0
 10
191.1267756872994
 20
124.2338405698947
 30
0.0
 10
191.0536204114695
 20
124.208667525452
 30
0.0
 10
191.0133677124455
 20
124.2031109890352
 30
0.0
 10
190.8956389691707
 20
124.2140228000219
 30
0.0
 10
190.8251805211117
 20
124.2559585554328
 30
0.0
 10
190.7688060864934
 20
124.3051703378143
 30
0.0
  0
SPLINE
  5
D8
330
1F
100
AcDbEntity
  8
0
  6
Continuous
 62
     7
370
    15
100
AcDbSpline
210
0.0
220
0.0
230
1.0
 70
     8
 71
     3
 72
    12
 73
     8
 74
     0
 42
0.00000001
 43
0.00000001
 12
1.0
 22
0.0
 32
0.0
 13
1.0
 23
0.0
 33
0.0
 40
0.0
 40
0.0
 40
0.0
 40
0.0
 40
0.5000000000000016
 40
0.5000000000000016
 40
0.7500000000000008
 40
0.7500000000000008
 40
1.0
 40
1.0
 40
1.0
 40
1.0
 10
190.2639980293849
 20
125.5215217296949
 30
0.0
 10
190.3077483812694
 20
125.3010747447204
 30
0.0
 10
190.3606385323939
 20
125.0855297549148
 30
0.0
 10
190.4722500755355
 20
124.7731156783429
 30
0.0
 10
190.514809419439
 20
124.671036202727
 30
0.0
 10
190.6197866547765
 20
124.4765961900852
 30
0.0
 10
190.6813538978711
 20
124.3815112910215
 30
0.0
 10
190.7688060864934
 20
124.3051703378143
 30
0.0
  0
SPLINE
  5
D9
330
1F
100
AcDbEntity
  8
0
  6
Continuous
 62
     7
370
    15
100
AcDbSpline
210
0.0
220
0.0
230
1.0
 70
     8
 71
     3
 72
    12
 73
     8
 74
     0
 42
0.00000001
 43
0.00000001
 12
1.0
 22
0.0
 32
0.0
 13
1.0
 23
0.0
 33
0.0
 40
0.0
 40
0.0
 40
0.0
 40
0.0
 40
0.2500000000000003
 40
0.2500000000000003
 40
0.5000000000000007
 40
0.5000000000000007
 40
1.0
 40
1.0
 40
1.0
 40
1.0
 10
190.7688060864934
 20
137.1102217790975
 30
0.0
 10
190.6803126789255
 20
137.0329718989892
 30
0.0
 10
190.6202546381596
 20
136.9396525751
 30
0.0
 10
190.514406365177
 20
136.7436195221305
 30
0.0
 10
190.4718728438995
 20
136.6412931639188
 30
0.0
 10
190.3607215370759
 20
136.3299487581429
 30
0.0
 10
190.3077906800281
 20
136.1145305049648
 30
0.0
 10
190.2639980293849
 20
135.893870387217
 30
0.0
  0
SPLINE
  5
DA
330
1F
100
AcDbEntity
  8
0
  6
Continuous
 62
     7
370
    15
100
AcDbSpline
210
0.0
220
0.0
230
1.0
 70
     8
 71
     3
 72
    12
 73
     8
 74
     0
 42
0.00000001
 43
0.00000001
 12
1.0
 22
0.0
 32
0.0
 13
1.0
 23
0.0
 33
0.0
 40
0.0
 40
0.0
 40
0.0
 40
0.0
 40
0.5000000000000006
 40
0.5000000000000006
 40
0.7500000000000004
 40
0.7500000000000004
 40
1.0
 40
1.0
 40
1.0
 40
1.0
 10
190.7688060864933
 20
137.1102217790975
 30
0.0
 10
190.825114634789
 20
137.1593760463414
 30
0.0
 10
190.8953892955071
 20
137.2013333649451
 30
0.0
 10
191.0134272098307
 20
137.2122930424775
 30
0.0
 10
191.0536034506846
 20
137.2067842842302
 30
0.0
 10
191.1275605453625
 20
137.1812270554412
 30
0.0
 10
191.160176933074
 20
137.1624470076019
 30
0.0
 10
191.1903414840697
 20
137.1402991590852
 30
0.0
  0
SPLINE
  5
DB
330
1F
100
AcDbEntity
  8
0
  6
Continuous
 62
     7
370
    15
100
AcDbSpline
210
0.0
220
0.0
230
1.0
 70
     8
 71
     3
 72
    16
 73
    12
 74
     0
 42
0.00000001
 43
0.00000001
 12
1.0
 22
0.0
 32
0.0
 13
1.0
 23
0.0
 33
0.0
 40
0.0
 40
0.0
 40
0.0
 40
0.0
 40
0.0625000000000003
 40
0.0625000000000003
 40
0.1250000000000006
 40
0.1250000000000006
 40
0.2500000000000022
 40
0.2500000000000022
 40
0.5000000000000003
 40
0.5000000000000003
 40
1.0
 40
1.0
 40
1.0
 40
1.0
 10
191.190341484038
 20
137.1402991590307
 30
0.0
 10
191.2019543838774
 20
137.1317725694354
 30
0.0
 10
191.2153055683098
 20
137.1252723079026
 30
0.0
 10
191.244705407929
 20
137.1237029107851
 30
0.0
 10
191.2595461324843
 20
137.1295863014157
 30
0.0
 10
191.2953793404529
 20
137.1581339374663
 30
0.0
 10
191.3094925482744
 20
137.1863009567721
 30
0.0
 10
191.3439839194933
 20
137.270055215194
 30
0.0
 10
191.3550679906037
 20
137.3277686288154
 30
0.0
 10
191.3811908083997
 20
137.5013591654613
 30
0.0
 10
191.3853183729446
 20
137.6163872181032
 30
0.0
 10
191.3853183729446
 20
137.729583384206
 30
0.0
  0
LINE
  5
DC
330
1F
100
AcDbEntity
  8
0
  6
Continuous
 62
     7
370
    15
100
AcDbLine
 10
191.3853183729
 20
153.2475163373
 30
0.0
 11
191.3853183729
 21
137.7295833842
 31
0.0
  0
SPLINE
  5
DD
330
1F
100
AcDbEntity
  8
0
  6
Continuous
 62
     7
370
    15
100
AcDbSpline
210
0.0
220
0.0
230
1.0
 70
     8
 71
     3
 72
    16
 73
    12
 74
     0
 42
0.00000001
 43
0.00000001
 12
1.0
 22
0.0
 32
0.0
 13
1.0
 23
0.0
 33
0.0
 40
0.0
 40
0.0
 40
0.0
 40
0.0
 40
0.4999999999999953
 40
0.4999999999999953
 40
0.749999999999995
 40
0.749999999999995
 40
0.8749999999999948
 40
0.8749999999999948
 40
0.9374999999999974
 40
0.9374999999999974
 40
1.0
 40
1.0
 40
1.0
 40
1.0
 10
191.3853183729446
 20
152.7672905466972
 30
0.0
 10
191.3853183729446
 20
152.7426193906543
 30
0.0
 10
191.3811526744846
 20
152.715037559263
 30
0.0
 10
191.3548943461597
 20
152.6646946884397
 30
0.0
 10
191.3433905644221
 20
152.6464051903778
 30
0.0
 10
191.3092598050755
 20
152.6152501593408
 30
0.0
 10
191.2948379184048
 20
152.603610784129
 30
0.0
 10
191.259270949967
 20
152.586728758198
 30
0.0
 10
191.2443191816724
 20
152.5813396543903
 30
0.0
 10
191.2153153633126
 20
152.5747191584458
 30
0.0
 10
191.2019000093033
 20
152.5733665702394
 30
0.0
 10
191.1903414840667
 20
152.5730669463678
 30
0.0
  0
SPLINE
  5
DE
330
1F
100
AcDbEntity
  8
0
  6
Continuous
 62
     7
370
    15
100
AcDbSpline
210
0.0
220
0.0
230
1.0
 70
     8
 71
     3
 72
    12
 73
     8
 74
     0
 42
0.00000001
 43
0.00000001
 12
1.0
 22
0.0
 32
0.0
 13
1.0
 23
0.0
 33
0.0
 40
0.0
 40
0.0
 40
0.0
 40
0.0
 40
0.2500000000000001
 40
0.2500000000000001
 40
0.5000000000000001
 40
0.5000000000000001
 40
1.0
 40
1.0
 40
1.0
 40
1.0
 10
191.190341484076
 20
152.5730669463695
 30
0.0
 10
191.1601537075263
 20
152.5722844089519
 30
0.0
 10
191.1267999034347
 20
152.5713910771334
 30
0.0
 10
191.0536737002387
 20
152.5694637683298
 30
0.0
 10
191.0134384972145
 20
152.5684242371172
 30
0.0
 10
190.8957468670814
 20
152.5655063537699
 30
0.0
 10
190.8253661939214
 20
152.5639107476997
 30
0.0
 10
190.7688060864908
 20
152.5624897609318
 30
0.0
  0
SPLINE
  5
DF
330
1F
100
AcDbEntity
  8
0
  6
Continuous
 62
     7
370
    15
100
AcDbSpline
210
0.0
220
0.0
230
1.0
 70
     8
 71
     3
 72
    16
 73
    12
 74
     0
 42
0.00000001
 43
0.00000001
 12
1.0
 22
0.0
 32
0.0
 13
1.0
 23
0.0
 33
0.0
 40
0.0
 40
0.0
 40
0.0
 40
0.0
 40
0.25
 40
0.25
 40
0.3750000000000001
 40
0.3750000000000001
 40
0.5
 40
0.5
 40
0.75
 40
0.75
 40
1.0
 40
1.0
 40
1.0
 40
1.0
 10
190.2639980293849
 20
135.893870387217
 30
0.0
 10
190.1027655519005
 20
135.0814606119702
 30
0.0
 10
189.9822857122608
 20
134.2413823175854
 30
0.0
 10
189.8599051949475
 20
132.9400872682226
 30
0.0
 10
189.82892753455
 20
132.4994062326379
 30
0.0
 10
189.7873137969221
 20
131.6035665917067
 30
0.0
 10
189.7770778839893
 20
131.1569084605043
 30
0.0
 10
189.7768894869332
 20
129.8215985033644
 30
0.0
 10
189.8170341895708
 20
128.9371031300569
 30
0.0
 10
189.9811879445104
 20
127.1798532420309
 30
0.0
 10
190.1027395949199
 20
126.3340622956178
 30
0.0
 10
190.2639980293849
 20
125.5215217296949
 30
0.0
  0
LINE
  5
E0
330
1F
100
AcDbEntity
  8
0
  6
Continuous
 62
     7
370
    15
100
AcDbLine
 10
189.3853183729
 20
137.1928743201
 30
0.0
 11
189.3853183729
 21
124.2225177968
 31
0.0
  0
LINE
  5
E1
330
1F
100
AcDbEntity
  8
0
  6
Continuous
 62
     7
370
    15
100
AcDbLine
 10
155.0853183729
 20
136.762006626
 30
0.0
 11
155.0853183729
 21
124.6533854909
 31
0.0
  0
LINE
  5
E2
330
1F
100
AcDbEntity
  8
0
  6
Continuous
 62
     7
370
    15
100
AcDbLine
 10
153.5853183729
 20
136.3289939241
 30
0.0
 11
153.5853183729
 21
125.0863981928
 31
0.0
  0
LINE
  5
E3
330
1F
100
AcDbEntity
  8
0
  6
Continuous
 62
     7
370
    15
100
AcDbLine
 10
189.3853183729
 20
137.1928743201
 30
0.0
 11
189.3853183729
 21
152.727794843
 31
0.0
  0
ARC
  5
E4
330
1F
100
AcDbEntity
  8
0
  6
Continuous
 62
     7
370
    15
100
AcDbCircle
 10
189.5852552839
 20
152.7328179541
 30
0.0
 40
0.1999999999999775
100
AcDbArc
 50
181.4391666667
 51
271.4391666667
  0
LINE
  5
E5
330
1F
100
AcDbEntity
  8
0
  6
Continuous
 62
     7
370
    15
100
AcDbLine
 10
155.0853183729
 20
136.762006626
 30
0.0
 11
155.0853183729
 21
151.8660594547
 31
0.0
  0
LINE
  5
E6
330
1F
100
AcDbEntity
  8
0
  6
Continuous
 62
     7
370
    15
100
AcDbLine
 10
155.0853183729
 20
151.8660594547
 30
0.0
 11
189.3853183729
 21
152.727794843
 31
0.0
  0
LINE
  5
E7
330
1F
100
AcDbEntity
  8
0
  6
Continuous
 62
     7
370
    15
100
AcDbLine
 10
155.0853183729
 20
109.5493326622
 30
0.0
 11
155.0853183729
 21
124.6533854909
 31
0.0
  0
LINE
  5
E8
330
1F
100
AcDbEntity
  8
0
  6
Continuous
 62
     7
370
    15
100
AcDbLine
 10
189.3853183729
 20
108.6875972739
 30
0.0
 11
189.3853183729
 21
124.2225177968
 31
0.0
  0
LINE
  5
E9
330
1F
100
AcDbEntity
  8
0
  6
Continuous
 62
     7
370
    15
100
AcDbLine
 10
155.0853183729
 20
109.5493326622
 30
0.0
 11
189.3853183729
 21
108.6875972739
 31
0.0
  0
ARC
  5
EA
330
1F
100
AcDbEntity
  8
0
  6
Continuous
 62
     7
370
    15
100
AcDbCircle
 10
189.5852552839
 20
108.6825741628
 30
0.0
 40
0.2000000000000059
100
AcDbArc
 50
88.5608333333
 51
178.5608333333
  0
LINE
  5
EB
330
1F
100
AcDbEntity
  8
0
  6
Continuous
 62
     7
370
    15
100
AcDbLine
 10
189.590278395
 20
152.5328810432
 30
0.0
 11
190.7688060865
 21
152.5624897609
 31
0.0
  0
LINE
  5
EC
330
1F
100
AcDbEntity
  8
0
  6
Continuous
 62
     7
370
    15
100
AcDbLine
 10
189.590278395
 20
108.8825110737
 30
0.0
 11
190.7688060865
 21
108.852902356
 31
0.0
  0
LINE
  5
ED
330
1F
100
AcDbEntity
  8
0
  6
Continuous
 62
     7
370
    15
100
AcDbLine
 10
153.5853183729
 20
151.000034051
 30
0.0
 11
155.0853183729
 21
151.8660594547
 31
0.0
  0
LINE
  5
EE
330
1F
100
AcDbEntity
  8
0
  6
Continuous
 62
     7
370
    15
100
AcDbLine
 10
153.5853183729
 20
136.3289939241
 30
0.0
 11
153.5853183729
 21
151.000034051
 31
0.0
  0
LINE
  5
EF
330
1F
100
AcDbEntity
  8
0
  6
Continuous
 62
     7
370
    15
100
AcDbLine
 10
153.5853183729
 20
110.415358066
 30
0.0
 11
155.0853183729
 21
109.5493326622
 31
0.0
  0
LINE
  5
F0
330
1F
100
AcDbEntity
  8
0
  6
Continuous
 62
     7
370
    15
100
AcDbLine
 10
153.5853183729
 20
110.415358066
 30
0.0
 11
153.5853183729
 21
125.0863981928
 31
0.0
  0
SPLINE
  5
F1
330
1F
100
AcDbEntity
  8
0
  6
Continuous
 62
     7
370
    15
100
AcDbSpline
210
0.0
220
0.0
230
1.0
 70
     8
 71
     3
 72
    10
 73
     6
 74
     0
 42
0.00000001
 43
0.00000001
 12
1.0
 22
0.0
 32
0.0
 13
1.0
 23
0.0
 33
0.0
 40
0.0
 40
0.0
 40
0.0
 40
0.0
 40
0.5
 40
0.5
 40
1.0
 40
1.0
 40
1.0
 40
1.0
 10
228.8179913849656
 20
100.1811633100761
 30
0.0
 10
229.053088824745
 20
100.169758401415
 30
0.0
 10
229.2710464737782
 20
100.0693037564048
 30
0.0
 10
229.6105006078425
 20
99.75963450439477
 30
0.0
 10
229.7287554357028
 20
99.55612704470128
 30
0.0
 10
229.7839172112547
 20
99.33092561019177
 30
0.0
  0
SPLINE
  5
F2
330
1F
100
AcDbEntity
  8
0
  6
Continuous
 62
     7
370
    15
100
AcDbSpline
210
0.0
220
0.0
230
1.0
 70
     8
 71
     3
 72
    10
 73
     6
 74
     0
 42
0.00000001
 43
0.00000001
 12
1.0
 22
0.0
 32
0.0
 13
1.0
 23
0.0
 33
0.0
 40
0.0
 40
0.0
 40
0.0
 40
0.0
 40
0.5
 40
0.5
 40
1.0
 40
1.0
 40
1.0
 40
1.0
 10
229.3346631919559
 20
155.6538474148161
 30
0.0
 10
229.2589967530765
 20
155.5950370158172
 30
0.0
 10
229.1780690994156
 20
155.546685591201
 30
0.0
 10
229.0050961875808
 20
155.4720838622661
 30
0.0
 10
228.9122574600052
 20
155.4460056024374
 30
0.0
 10
228.8179913849658
 20
155.4345209503664
 30
0.0
  0
LINE
  5
F3
330
1F
100
AcDbEntity
  8
0
  6
Continuous
 62
     7
370
    15
100
AcDbLine
 10
229.334663192
 20
155.6538474148
 30
0.0
 11
249.1471657721
 21
128.2763538191
 31
0.0
  0
LINE
  5
F4
330
1F
100
AcDbEntity
  8
0
  6
Continuous
 62
     7
370
    15
100
AcDbLine
 10
249.1471657721
 20
128.2763538191
 30
0.0
 11
249.1471657721
 21
110.6095872393
 31
0.0
  0
ARC
  5
F5
330
1F
100
AcDbEntity
  8
0
  6
Continuous
 62
     7
370
    15
100
AcDbCircle
 10
234.5867844325
 20
105.2350670422
 30
0.0
 40
2.058435604391406
100
AcDbArc
 50
111.100496778
 51
240.7346389839
  0
LINE
  5
F6
330
1F
100
AcDbEntity
  8
0
  6
Continuous
 62
     7
370
    15
100
AcDbLine
 10
236.4882176094
 20
101.9243454776
 30
0.0
 11
233.5805076062
 21
103.4393599152
 31
0.0
  0
LINE
  5
F7
330
1F
100
AcDbEntity
  8
0
  6
Continuous
 62
     7
370
    15
100
AcDbLine
 10
242.4782166761
 20
93.2785304751
 30
0.0
 11
241.4005398336
 21
95.4645003129
 31
0.0
  0
LINE
  5
F8
330
1F
100
AcDbEntity
  8
0
  6
Continuous
 62
     7
370
    15
100
AcDbLine
 10
241.6303327417
 20
93.7203064434
 30
0.0
 11
242.4782166761
 21
93.2785304751
 31
0.0
  0
ARC
  5
F9
330
1F
100
AcDbEntity
  8
0
  6
Continuous
 62
     7
370
    15
100
AcDbCircle
 10
230.097394648
 20
71.4886043836
 30
0.0
 40
25.04510406346862
100
AcDbArc
 50
62.5814801863
 51
89.1323068756
  0
SPLINE
  5
FA
330
1F
100
AcDbEntity
  8
0
  6
Continuous
 62
     7
370
    15
100
AcDbSpline
210
0.0
220
0.0
230
1.0
 70
     8
 71
     3
 72
     8
 73
     4
 74
     0
 42
0.00000001
 43
0.00000001
 12
1.0
 22
0.0
 32
0.0
 13
1.0
 23
0.0
 33
0.0
 40
0.0
 40
0.0
 40
0.0
 40
0.0
 40
1.0
 40
1.0
 40
1.0
 40
1.0
 10
229.7839172112546
 20
99.33092561019176
 30
0.0
 10
230.0126886094297
 20
98.39695192047019
 30
0.0
 10
230.2437629295465
 20
97.46363391937105
 30
0.0
 10
230.4766657588675
 20
96.53083653195816
 30
0.0
  0
ARC
  5
FB
330
1F
100
AcDbEntity
  8
0
  6
Continuous
 62
     7
370
    15
100
AcDbCircle
 10
236.3837638349
 20
120.4320345595
 30
0.0
 40
2.55222687264692
100
AcDbArc
 50
81.4496922055
 51
145.8527493462
  0
SPLINE
  5
FC
330
1F
100
AcDbEntity
  8
0
  6
Continuous
 62
     7
370
    15
100
AcDbSpline
210
0.0
220
0.0
230
1.0
 70
     8
 71
     3
 72
     8
 73
     4
 74
     0
 42
0.00000001
 43
0.00000001
 12
1.0
 22
0.0
 32
0.0
 13
1.0
 23
0.0
 33
0.0
 40
0.0
 40
0.0
 40
0.0
 40
0.0
 40
1.0
 40
1.0
 40
1.0
 40
1.0
 10
229.3346631919559
 20
155.6538474148161
 30
0.0
 10
229.1813295069978
 20
155.8497674835358
 30
0.0
 10
229.0109350045566
 20
156.0697129931263
 30
0.0
 10
228.8179913849656
 20
156.3214126951119
 30
0.0
  0
LINE
  5
FD
330
1F
100
AcDbEntity
  8
0
  6
Continuous
 62
     7
370
    15
100
AcDbLine
 10
232.5544497702
 20
104.8470430769
 30
0.0
 11
235.7593222843
 21
103.1771970042
 31
0.0
  0
SPLINE
  5
FE
330
1F
100
AcDbEntity
  8
0
  6
Continuous
 62
     7
370
    15
100
AcDbSpline
210
0.0
220
0.0
230
1.0
 70
     8
 71
     3
 72
    10
 73
     6
 74
     0
 42
0.00000001
 43
0.00000001
 12
1.0
 22
0.0
 32
0.0
 13
1.0
 23
0.0
 33
0.0
 40
0.0
 40
0.0
 40
0.0
 40
0.0
 40
0.4025394574504707
 40
0.8052361450444223
 40
1.0
 40
1.0
 40
1.0
 40
1.0
 10
230.4766657588675
 20
96.53083653195816
 30
0.0
 10
230.3867974839218
 20
96.71730683265193
 30
0.0
 10
230.207025831877
 20
97.0903202685196
 30
0.0
 10
230.0309434080415
 20
97.55031978457015
 30
0.0
 10
229.9630601490094
 20
97.82038500555045
 30
0.0
 10
229.9409311475533
 20
97.90842252398319
 30
0.0
  0
ELLIPSE
  5
FF
330
1F
100
AcDbEntity
  8
0
  6
HIDDEN
 62
     7
370
     0
100
AcDbEllipse
 10
247.1187203496
 20
130.7076960585
 30
0.0
 11
-23.06970548232147
 21
31.49782548750571
 31
0.0
210
0.0
220
0.0
230
1.0
 40
0.0160435947
 41
6.271435163618884
 42
6.960018487757982
  0
SPLINE
  5
100
330
1F
100
AcDbEntity
  8
0
  6
HIDDEN
 62
     7
370
     0
100
AcDbSpline
210
0.0
220
0.0
230
1.0
 70
     8
 71
     3
 72
    12
 73
     8
 74
     0
 42
0.00000001
 43
0.00000001
 12
1.0
 22
0.0
 32
0.0
 13
1.0
 23
0.0
 33
0.0
 40
0.0
 40
0.0
 40
0.0
 40
0.0
 40
0.5000000000000028
 40
0.5000000000000028
 40
0.7500000000000013
 40
0.7500000000000013
 40
1.0
 40
1.0
 40
1.0
 40
1.0
 10
201.6800624846188
 20
160.6084385185733
 30
0.0
 10
201.7107847265379
 20
160.6457405015263
 30
0.0
 10
201.753621941073
 20
160.6823523335727
 30
0.0
 10
201.8530489652728
 20
160.7301171168579
 30
0.0
 10
201.8928011600895
 20
160.7450746323403
 30
0.0
 10
201.9908426169477
 20
160.7682645781094
 30
0.0
 10
202.0503986725352
 20
160.7761880173292
 30
0.0
 10
202.113075186511
 20
160.7761880173292
 30
0.0
  0
LINE
  5
101
330
1F
100
AcDbEntity
  8
0
  6
HIDDEN
 62
     7
370
     0
100
AcDbLine
 10
202.1130751865
 20
160.7761880173
 30
0.0
 11
205.0575615594
 21
160.7761880173
 31
0.0
  0
SPLINE
  5
102
330
1F
100
AcDbEntity
  8
0
  6
HIDDEN
 62
     7
370
     0
100
AcDbSpline
210
0.0
220
0.0
230
1.0
 70
     8
 71
     3
 72
    12
 73
     8
 74
     0
 42
0.00000001
 43
0.00000001
 12
1.0
 22
0.0
 32
0.0
 13
1.0
 23
0.0
 33
0.0
 40
0.0
 40
0.0
 40
0.0
 40
0.0
 40
0.2499999999999991
 40
0.2499999999999991
 40
0.4999999999999981
 40
0.4999999999999981
 40
1.0
 40
1.0
 40
1.0
 40
1.0
 10
205.0575615593781
 20
160.7761880173292
 30
0.0
 10
205.1206415978715
 20
160.7761880173292
 30
0.0
 10
205.1797902200529
 20
160.7682820911167
 30
0.0
 10
205.278262770122
 20
160.7449569296805
 30
0.0
 10
205.3172993821067
 20
160.7302441398488
 30
0.0
 10
205.4171958488857
 20
160.6822883391179
 30
0.0
 10
205.4596167299524
 20
160.6460261825378
 30
0.0
 10
205.4905742612704
 20
160.6084385185733
 30
0.0
  0
ELLIPSE
  5
103
330
1F
100
AcDbEntity
  8
0
  6
HIDDEN
 62
     7
370
     0
100
AcDbEllipse
 10
189.2381641836
 20
130.7076960585
 30
0.0
 11
14.75368316065627
 21
31.09325491558116
 31
0.0
210
0.0
220
0.0
230
1.0
 40
0.3419987131
 41
5.193281737408636
 42
6.124043104552341
  0
SPLINE
  5
104
330
1F
100
AcDbEntity
  8
0
  6
HIDDEN
 62
     7
370
     0
100
AcDbSpline
210
0.0
220
0.0
230
1.0
 70
     8
 71
     3
 72
    12
 73
     8
 74
     0
 42
0.00000001
 43
0.00000001
 12
1.0
 22
0.0
 32
0.0
 13
1.0
 23
0.0
 33
0.0
 40
0.0
 40
0.0
 40
0.0
 40
0.0
 40
0.5
 40
0.5
 40
0.75
 40
0.75
 40
1.0
 40
1.0
 40
1.0
 40
1.0
 10
205.4905742612704
 20
140.6170653791415
 30
0.0
 10
205.4598520193512
 20
140.5045095797323
 30
0.0
 10
205.4170148048161
 20
140.3917517199928
 30
0.0
 10
205.3175877806163
 20
140.2422108341964
 30
0.0
 10
205.2778355857996
 20
140.1949181024895
 30
0.0
 10
205.1797941289414
 20
140.1211818091681
 30
0.0
 10
205.120238073354
 20
140.0957624897924
 30
0.0
 10
205.0575615593781
 20
140.0957624897924
 30
0.0
  0
LINE
  5
105
330
1F
100
AcDbEntity
  8
0
  6
HIDDEN
 62
     7
370
     0
100
AcDbLine
 10
205.0575615594
 20
140.0957624898
 30
0.0
 11
202.1130751865
 21
140.0957624898
 31
0.0
  0
SPLINE
  5
106
330
1F
100
AcDbEntity
  8
0
  6
HIDDEN
 62
     7
370
     0
100
AcDbSpline
210
0.0
220
0.0
230
1.0
 70
     8
 71
     3
 72
    12
 73
     8
 74
     0
 42
0.00000001
 43
0.00000001
 12
1.0
 22
0.0
 32
0.0
 13
1.0
 23
0.0
 33
0.0
 40
0.0
 40
0.0
 40
0.0
 40
0.0
 40
0.2499999999999991
 40
0.2499999999999991
 40
0.4999999999999982
 40
0.4999999999999982
 40
1.0
 40
1.0
 40
1.0
 40
1.0
 10
202.113075186511
 20
140.0957624897924
 30
0.0
 10
202.0499951480177
 20
140.0957624897924
 30
0.0
 10
201.9908465258363
 20
140.1211268090073
 30
0.0
 10
201.8923739757672
 20
140.1952916693803
 30
0.0
 10
201.8533373637825
 20
140.2418120099344
 30
0.0
 10
201.7534408970034
 20
140.3919543527796
 30
0.0
 10
201.7110200159368
 20
140.5036475597518
 30
0.0
 10
201.6800624846188
 20
140.6170653791415
 30
0.0
  0
ELLIPSE
  5
107
330
1F
100
AcDbEntity
  8
0
  6
HIDDEN
 62
     7
370
     0
100
AcDbEllipse
 10
217.9324725623
 20
130.7076960585
 30
0.0
 11
-14.75368316065627
 21
31.09325491558116
 31
0.0
210
0.0
220
0.0
230
1.0
 40
0.3419987131
 41
0.159142202627285
 42
1.089903569770962
  0
SPLINE
  5
108
330
1F
100
AcDbEntity
  8
0
  6
HIDDEN
 62
     7
370
     0
100
AcDbSpline
210
0.0
220
0.0
230
1.0
 70
     8
 71
     3
 72
    12
 73
     8
 74
     0
 42
0.00000001
 43
0.00000001
 12
1.0
 22
0.0
 32
0.0
 13
1.0
 23
0.0
 33
0.0
 40
0.0
 40
0.0
 40
0.0
 40
0.0
 40
0.5
 40
0.5
 40
0.75
 40
0.75
 40
1.0
 40
1.0
 40
1.0
 40
1.0
 10
201.6800624846188
 20
120.7983267377707
 30
0.0
 10
201.7107847265379
 20
120.9108825371799
 30
0.0
 10
201.753621941073
 20
121.0236403969195
 30
0.0
 10
201.8530489652728
 20
121.1731812827159
 30
0.0
 10
201.8928011600895
 20
121.2204740144227
 30
0.0
 10
201.9908426169477
 20
121.2942103077442
 30
0.0
 10
202.0503986725352
 20
121.3196296271199
 30
0.0
 10
202.113075186511
 20
121.3196296271199
 30
0.0
  0
LINE
  5
109
330
1F
100
AcDbEntity
  8
0
  6
HIDDEN
 62
     7
370
     0
100
AcDbLine
 10
202.1130751865
 20
121.3196296271
 30
0.0
 11
205.0575615594
 21
121.3196296271
 31
0.0
  0
SPLINE
  5
10A
330
1F
100
AcDbEntity
  8
0
  6
HIDDEN
 62
     7
370
     0
100
AcDbSpline
210
0.0
220
0.0
230
1.0
 70
     8
 71
     3
 72
    12
 73
     8
 74
     0
 42
0.00000001
 43
0.00000001
 12
1.0
 22
0.0
 32
0.0
 13
1.0
 23
0.0
 33
0.0
 40
0.0
 40
0.0
 40
0.0
 40
0.0
 40
0.2500000000000014
 40
0.2500000000000014
 40
0.5000000000000029
 40
0.5000000000000029
 40
1.0
 40
1.0
 40
1.0
 40
1.0
 10
205.0575615593781
 20
121.3196296271199
 30
0.0
 10
205.1206415978715
 20
121.3196296271199
 30
0.0
 10
205.1797902200529
 20
121.294265307905
 30
0.0
 10
205.278262770122
 20
121.220100447532
 30
0.0
 10
205.3172993821067
 20
121.1735801069779
 30
0.0
 10
205.4171958488857
 20
121.0234377641327
 30
0.0
 10
205.4596167299524
 20
120.9117445571605
 30
0.0
 10
205.4905742612704
 20
120.7983267377708
 30
0.0
  0
ELLIPSE
  5
10B
330
1F
100
AcDbEntity
  8
0
  6
HIDDEN
 62
     7
370
     0
100
AcDbEllipse
 10
189.2381641836
 20
130.7076960585
 30
0.0
 11
-14.75368316065607
 21
31.09325491558116
 31
0.0
210
0.0
220
0.0
230
1.0
 40
0.3419987131
 41
3.300734856217132
 42
4.23149622336078
  0
SPLINE
  5
10C
330
1F
100
AcDbEntity
  8
0
  6
HIDDEN
 62
     7
370
     0
100
AcDbSpline
210
0.0
220
0.0
230
1.0
 70
     8
 71
     3
 72
    12
 73
     8
 74
     0
 42
0.00000001
 43
0.00000001
 12
1.0
 22
0.0
 32
0.0
 13
1.0
 23
0.0
 33
0.0
 40
0.0
 40
0.0
 40
0.0
 40
0.0
 40
0.4999999999999981
 40
0.4999999999999981
 40
0.749999999999999
 40
0.749999999999999
 40
1.0
 40
1.0
 40
1.0
 40
1.0
 10
205.4905742612704
 20
100.8069535983387
 30
0.0
 10
205.4598520193512
 20
100.7696516153857
 30
0.0
 10
205.4170148048161
 20
100.7330397833393
 30
0.0
 10
205.3175877806163
 20
100.6852750000541
 30
0.0
 10
205.2778355857996
 20
100.6703174845717
 30
0.0
 10
205.1797941289414
 20
100.6471275388026
 30
0.0
 10
205.1202380733539
 20
100.6392040995829
 30
0.0
 10
205.0575615593781
 20
100.6392040995829
 30
0.0
  0
LINE
  5
10D
330
1F
100
AcDbEntity
  8
0
  6
HIDDEN
 62
     7
370
     0
100
AcDbLine
 10
205.0575615594
 20
100.6392040996
 30
0.0
 11
202.1130751865
 21
100.6392040996
 31
0.0
  0
SPLINE
  5
10E
330
1F
100
AcDbEntity
  8
0
  6
HIDDEN
 62
     7
370
     0
100
AcDbSpline
210
0.0
220
0.0
230
1.0
 70
     8
 71
     3
 72
    12
 73
     8
 74
     0
 42
0.00000001
 43
0.00000001
 12
1.0
 22
0.0
 32
0.0
 13
1.0
 23
0.0
 33
0.0
 40
0.0
 40
0.0
 40
0.0
 40
0.0
 40
0.2500000000000023
 40
0.2500000000000023
 40
0.5000000000000046
 40
0.5000000000000046
 40
1.0
 40
1.0
 40
1.0
 40
1.0
 10
202.113075186511
 20
100.6392040995829
 30
0.0
 10
202.0499951480177
 20
100.6392040995829
 30
0.0
 10
201.9908465258363
 20
100.6471100257953
 30
0.0
 10
201.8923739757672
 20
100.6704351872315
 30
0.0
 10
201.8533373637825
 20
100.6851479770632
 30
0.0
 10
201.7534408970034
 20
100.7331037777942
 30
0.0
 10
201.7110200159368
 20
100.7693659343742
 30
0.0
 10
201.6800624846188
 20
100.8069535983387
 30
0.0
  0
ELLIPSE
  5
10F
330
1F
100
AcDbEntity
  8
0
  6
HIDDEN
 62
     7
370
     0
100
AcDbEllipse
 10
217.9324725623
 20
130.7076960585
 30
0.0
 11
14.75368316065615
 21
31.09325491558116
 31
0.0
210
0.0
220
0.0
230
1.0
 40
0.3419987131
 41
2.051689083818823
 42
2.982450450962502
  0
SPLINE
  5
110
330
1F
100
AcDbEntity
  8
0
  6
HIDDEN
 62
     7
370
     0
100
AcDbSpline
210
0.0
220
0.0
230
1.0
 70
     8
 71
     3
 72
    60
 73
    56
 74
     0
 42
0.00000001
 43
0.00000001
 12
1.0
 22
0.0
 32
0.0
 13
1.0
 23
0.0
 33
0.0
 40
-0.0625000000000002
 40
-0.0625000000000002
 40
0.0
 40
0.0
 40
0.0312500000000001
 40
0.0312500000000001
 40
0.0625000000000001
 40
0.0625000000000001
 40
0.0937500000000002
 40
0.0937500000000002
 40
0.1250000000000002
 40
0.1250000000000002
 40
0.1875000000000004
 40
0.1875000000000004
 40
0.2500000000000006
 40
0.2500000000000006
 40
0.2812500000000004
 40
0.2812500000000004
 40
0.3125000000000003
 40
0.3125000000000003
 40
0.3437500000000002
 40
0.3437500000000002
 40
0.3750000000000001
 40
0.3750000000000001
 40
0.40625
 40
0.40625
 40
0.4374999999999999
 40
0.4374999999999999
 40
0.4687499999999998
 40
0.4687499999999998
 40
0.4999999999999997
 40
0.4999999999999997
 40
0.5624999999999994
 40
0.5624999999999994
 40
0.6249999999999992
 40
0.6249999999999992
 40
0.6562499999999992
 40
0.6562499999999992
 40
0.6874999999999993
 40
0.6874999999999993
 40
0.7187499999999993
 40
0.7187499999999993
 40
0.7499999999999994
 40
0.7499999999999994
 40
0.7812499999999994
 40
0.7812499999999994
 40
0.8124999999999996
 40
0.8124999999999996
 40
0.8437499999999996
 40
0.8437499999999996
 40
0.8749999999999997
 40
0.8749999999999997
 40
0.9062499999999997
 40
0.9062499999999997
 40
0.9374999999999998
 40
0.9374999999999998
 40
1.0
 40
1.0
 40
1.03125
 40
1.03125
 10
205.5853183729446
 20
130.4433655333692
 30
0.0
 10
205.5853183729446
 20
130.8398613209993
 30
0.0
 10
205.5723465144558
 20
130.9698113820034
 30
0.0
 10
205.5215263447634
 20
131.2254643153635
 30
0.0
 10
205.4830590212965
 20
131.3524938219128
 30
0.0
 10
205.3826607852243
 20
131.5946819530374
 30
0.0
 10
205.3212277542512
 20
131.7095434455902
 30
0.0
 10
205.1760929227062
 20
131.9269236414144
 30
0.0
 10
205.0916378052984
 20
132.029821208613
 30
0.0
 10
204.8149183549401
 20
132.3064882476208
 30
0.0
 10
204.591841463022
 20
132.4554863381007
 30
0.0
 10
204.1105581008017
 20
132.6549974785654
 30
0.0
 10
203.8473276818107
 20
132.7075555815621
 30
0.0
 10
203.4559254801227
 20
132.7077658639402
 30
0.0
 10
203.3234024520139
 20
132.6947800932131
 30
0.0
 10
203.0668719987728
 20
132.6437529449993
 30
0.0
 10
202.9421851644762
 20
132.6059977458489
 30
0.0
 10
202.7000059022407
 20
132.5058594129402
 30
0.0
 10
202.5829123700906
 20
132.4432537455286
 30
0.0
 10
202.3661973667352
 20
132.2985204522637
 30
0.0
 10
202.2651785398724
 20
132.2158931049841
 30
0.0
 10
202.0783936524203
 20
132.0292880517325
 30
0.0
 10
201.9955367712241
 20
131.9281729878563
 30
0.0
 10
201.8506525061503
 20
131.7116401838665
 30
0.0
 10
201.7880149983293
 20
131.5947699762654
 30
0.0
 10
201.6875661749296
 20
131.3524721056152
 30
0.0
 10
201.6497150739123
 20
131.2278081071542
 30
0.0
 10
201.598493508656
 20
130.9715210630904
 30
0.0
 10
201.5853653820388
 20
130.8389490673448
 30
0.0
 10
201.5852247416985
 20
130.4473448745708
 30
0.0
 10
201.6375494910704
 20
130.1841795432468
 30
0.0
 10
201.8366605531276
 20
129.7026741740737
 30
0.0
 10
201.9855228895849
 20
129.4794226345896
 30
0.0
 10
202.2618438489104
 20
129.2025663357007
 30
0.0
 10
202.364607497284
 20
129.1180528888571
 30
0.0
 10
202.5819910546634
 20
128.9726356154168
 30
0.0
 10
202.6967898226199
 20
128.9111244163584
 30
0.0
 10
202.9386665460439
 20
128.8105945681036
 30
0.0
 10
203.0658201540441
 20
128.7719495448856
 30
0.0
 10
203.3214861634767
 20
128.7208932173346
 30
0.0
 10
203.4513522012327
 20
128.707828358789
 30
0.0
 10
203.7153047279644
 20
128.707565737991
 30
0.0
 10
203.8457090513884
 20
128.7204427382351
 30
0.0
 10
204.1013598147678
 20
128.7710287420409
 30
0.0
 10
204.2282253638821
 20
128.8093051066627
 30
0.0
 10
204.470745821828
 20
128.9095759741427
 30
0.0
 10
204.5856724604884
 20
128.9709319982836
 30
0.0
 10
204.8030439293204
 20
129.1157782934564
 30
0.0
 10
204.9060577419826
 20
129.2001558079511
 30
0.0
 10
205.0907582875646
 20
129.3845631281393
 30
0.0
 10
205.1735880218211
 20
129.4851361914087
 30
0.0
 10
205.3198404604186
 20
129.7033623319877
 30
0.0
 10
205.382208941211
 20
129.819917441909
 30
0.0
 10
205.5321650927778
 20
130.1807670359428
 30
0.0
 10
205.5853183729446
 20
130.4433655333692
 30
0.0
 10
205.5853183729446
 20
130.8398613209993
 30
0.0
  0
LINE
  5
111
330
1F
100
AcDbEntity
  8
0
  6
HIDDEN
 62
     7
370
     0
100
AcDbLine
 10
191.5853183729
 20
161.7076960521
 30
0.0
 11
191.5853183729
 21
99.7076960585
 31
0.0
  0
LINE
  5
112
330
1F
100
AcDbEntity
  8
0
  6
HIDDEN
 62
     7
370
     0
100
AcDbLine
 10
191.5853183729
 20
106.4576960585
 30
0.0
 11
191.5853183729
 21
154.9576960585
 31
0.0
  0
SPLINE
  5
113
330
1F
100
AcDbEntity
  8
0
  6
HIDDEN
 62
     7
370
     0
100
AcDbSpline
210
0.0
220
0.0
230
1.0
 70
     8
 71
     3
 72
    12
 73
     8
 74
     0
 42
0.00000001
 43
0.00000001
 12
1.0
 22
0.0
 32
0.0
 13
1.0
 23
0.0
 33
0.0
 40
0.0
 40
0.0
 40
0.0
 40
0.0
 40
0.5
 40
0.5
 40
0.75
 40
0.75
 40
1.0
 40
1.0
 40
1.0
 40
1.0
 10
190.7688060864975
 20
146.1599640402868
 30
0.0
 10
190.8252122651778
 20
146.112141666627
 30
0.0
 10
190.8953751666496
 20
146.0718708196884
 30
0.0
 10
191.0133858800388
 20
146.0638249512115
 30
0.0
 10
191.0535916636342
 20
146.0703875495503
 30
0.0
 10
191.1273123603673
 20
146.097769644004
 30
0.0
 10
191.1601730821538
 20
146.1175311345343
 30
0.0
 10
191.1903414840831
 20
146.1404638457224
 30
0.0
  0
SPLINE
  5
114
330
1F
100
AcDbEntity
  8
0
  6
HIDDEN
 62
     7
370
     0
100
AcDbSpline
210
0.0
220
0.0
230
1.0
 70
     8
 71
     3
 72
    16
 73
    12
 74
     0
 42
0.00000001
 43
0.00000001
 12
1.0
 22
0.0
 32
0.0
 13
1.0
 23
0.0
 33
0.0
 40
0.0
 40
0.0
 40
0.0
 40
0.0
 40
0.0624999999999986
 40
0.0624999999999986
 40
0.1249999999999973
 40
0.1249999999999973
 40
0.2499999999999947
 40
0.2499999999999947
 40
0.4999999999999999
 40
0.4999999999999999
 40
1.0
 40
1.0
 40
1.0
 40
1.0
 10
191.1903414840379
 20
146.1404638457705
 30
0.0
 10
191.2019543838773
 20
146.1492914687519
 30
0.0
 10
191.2153055683098
 20
146.1571258506338
 30
0.0
 10
191.2447054079289
 20
146.1654359767061
 30
0.0
 10
191.2595461324842
 20
146.1649401574711
 30
0.0
 10
191.2953793404528
 20
146.1534891865018
 30
0.0
 10
191.3094925482744
 20
146.1368086856431
 30
0.0
 10
191.3439839194933
 20
146.0846879998861
 30
0.0
 10
191.3550679906037
 20
146.0448985058611
 30
0.0
 10
191.3811908083997
 20
145.921561873764
 30
0.0
 10
191.3853183729446
 20
145.8341404632654
 30
0.0
 10
191.3853183729446
 20
145.7454032209471
 30
0.0
  0
LINE
  5
115
330
1F
100
AcDbEntity
  8
0
  6
HIDDEN
 62
     7
370
     0
100
AcDbLine
 10
191.3853183729
 20
115.669988896
 30
0.0
 11
191.3853183729
 21
145.7454032209
 31
0.0
  0
SPLINE
  5
116
330
1F
100
AcDbEntity
  8
0
  6
HIDDEN
 62
     7
370
     0
100
AcDbSpline
210
0.0
220
0.0
230
1.0
 70
     8
 71
     3
 72
    16
 73
    12
 74
     0
 42
0.00000001
 43
0.00000001
 12
1.0
 22
0.0
 32
0.0
 13
1.0
 23
0.0
 33
0.0
 40
0.0
 40
0.0
 40
0.0
 40
0.0
 40
0.4999999999999997
 40
0.4999999999999997
 40
0.7500000000000019
 40
0.7500000000000019
 40
0.8749999999999979
 40
0.8749999999999979
 40
0.9374999999999989
 40
0.9374999999999989
 40
1.0
 40
1.0
 40
1.0
 40
1.0
 10
191.3853183729446
 20
115.6699888959647
 30
0.0
 10
191.3853183729446
 20
115.580862530776
 30
0.0
 10
191.3811720978667
 20
115.4940011631626
 30
0.0
 10
191.3552065024731
 20
115.3710189166686
 30
0.0
 10
191.3437455970956
 20
115.3302476214373
 30
0.0
 10
191.3094338593213
 20
115.2785433014375
 30
0.0
 10
191.2954091233916
 20
115.2618729348471
 30
0.0
 10
191.2593861603579
 20
115.2504207143904
 30
0.0
 10
191.2446316512682
 20
115.2499676681154
 30
0.0
 10
191.2152794901214
 20
115.2582829893315
 30
0.0
 10
191.2019396156173
 20
115.2661118744098
 30
0.0
 10
191.1903414840689
 20
115.2749282711724
 30
0.0
  0
SPLINE
  5
117
330
1F
100
AcDbEntity
  8
0
  6
HIDDEN
 62
     7
370
     0
100
AcDbSpline
210
0.0
220
0.0
230
1.0
 70
     8
 71
     3
 72
    12
 73
     8
 74
     0
 42
0.00000001
 43
0.00000001
 12
1.0
 22
0.0
 32
0.0
 13
1.0
 23
0.0
 33
0.0
 40
0.0
 40
0.0
 40
0.0
 40
0.0
 40
0.2500000000000004
 40
0.2500000000000004
 40
0.5000000000000008
 40
0.5000000000000008
 40
1.0
 40
1.0
 40
1.0
 40
1.0
 10
191.190341484076
 20
115.2749282711813
 30
0.0
 10
191.1601496423588
 20
115.2978788002791
 30
0.0
 10
191.1267906729442
 20
115.3178482743033
 30
0.0
 10
191.0536533883636
 20
115.3449494079288
 30
0.0
 10
191.0134115157096
 20
115.3515501485742
 30
0.0
 10
190.8957057387411
 20
115.3435812740675
 30
0.0
 10
190.8252952609617
 20
115.3033208158997
 30
0.0
 10
190.7688060864934
 20
115.2554280766216
 30
0.0
  0
SPLINE
  5
118
330
1F
100
AcDbEntity
  8
0
  6
HIDDEN
 62
     7
370
     0
100
AcDbSpline
210
0.0
220
0.0
230
1.0
 70
     8
 71
     3
 72
    12
 73
     8
 74
     0
 42
0.00000001
 43
0.00000001
 12
1.0
 22
0.0
 32
0.0
 13
1.0
 23
0.0
 33
0.0
 40
0.0
 40
0.0
 40
0.0
 40
0.0
 40
0.249999999999999
 40
0.249999999999999
 40
0.499999999999998
 40
0.499999999999998
 40
1.0
 40
1.0
 40
1.0
 40
1.0
 10
190.768806086493
 20
115.2554280766218
 30
0.0
 10
190.6806521487553
 20
115.1806892687677
 30
0.0
 10
190.6202987241266
 20
115.0897087682853
 30
0.0
 10
190.5140367660597
 20
114.9007949455327
 30
0.0
 10
190.4718045994977
 20
114.8042904859921
 30
0.0
 10
190.3607339041805
 20
114.5135227318249
 30
0.0
 10
190.3077971277537
 20
114.3178559172812
 30
0.0
 10
190.2639980293849
 20
114.1237894322149
 30
0.0
  0
SPLINE
  5
119
330
1F
100
AcDbEntity
  8
0
  6
HIDDEN
 62
     7
370
     0
100
AcDbSpline
210
0.0
220
0.0
230
1.0
 70
     8
 71
     3
 72
    12
 73
     8
 74
     0
 42
0.00000001
 43
0.00000001
 12
1.0
 22
0.0
 32
0.0
 13
1.0
 23
0.0
 33
0.0
 40
0.0
 40
0.0
 40
0.0
 40
0.0
 40
0.5000000000000011
 40
0.5000000000000011
 40
0.7500000000000006
 40
0.7500000000000006
 40
1.0
 40
1.0
 40
1.0
 40
1.0
 10
190.2639980293849
 20
108.9376151034538
 30
0.0
 10
190.3077445702215
 20
108.9110209328127
 30
0.0
 10
190.360628925453
 20
108.8912607074869
 30
0.0
 10
190.4721960127892
 20
108.8708097172579
 30
0.0
 10
190.5147796093321
 20
108.8655494926014
 30
0.0
 10
190.619696336414
 20
108.8576666986788
 30
0.0
 10
190.6812299442587
 20
108.8551025734996
 30
0.0
 10
190.7688060864849
 20
108.85290235598
 30
0.0
  0
LINE
  5
11A
330
1F
100
AcDbEntity
  8
0
  6
HIDDEN
 62
     7
370
     0
100
AcDbLine
 10
191.3853183729
 20
108.1678757796
 30
0.0
 11
191.3853183729
 21
108.6481015702
 31
0.0
  0
LINE
  5
11B
330
1F
100
AcDbEntity
  8
0
  6
HIDDEN
 62
     7
370
     0
100
AcDbLine
 10
191.3853183729
 20
152.7672905467
 30
0.0
 11
191.3853183729
 21
153.2475163373
 31
0.0
  0
SPLINE
  5
11C
330
1F
100
AcDbEntity
  8
0
  6
HIDDEN
 62
     7
370
     0
100
AcDbSpline
210
0.0
220
0.0
230
1.0
 70
     8
 71
     3
 72
    12
 73
     8
 74
     0
 42
0.00000001
 43
0.00000001
 12
1.0
 22
0.0
 32
0.0
 13
1.0
 23
0.0
 33
0.0
 40
0.0
 40
0.0
 40
0.0
 40
0.0
 40
0.2500000000000004
 40
0.2500000000000004
 40
0.5000000000000009
 40
0.5000000000000009
 40
1.0
 40
1.0
 40
1.0
 40
1.0
 10
190.7688060864928
 20
152.5624897609318
 30
0.0
 10
190.6801214266365
 20
152.5602616935909
 30
0.0
 10
190.6202030109131
 20
152.5577599095605
 30
0.0
 10
190.5145437835923
 20
152.5498284737245
 30
0.0
 10
190.4719025454774
 20
152.5445363188277
 30
0.0
 10
190.3607132033749
 20
152.5241313783405
 30
0.0
 10
190.3077865212539
 20
152.5043966867537
 30
0.0
 10
190.2639980293849
 20
152.4777770134581
 30
0.0
  0
SPLINE
  5
11D
330
1F
100
AcDbEntity
  8
0
  6
HIDDEN
 62
     7
370
     0
100
AcDbSpline
210
0.0
220
0.0
230
1.0
 70
     8
 71
     3
 72
    12
 73
     8
 74
     0
 42
0.00000001
 43
0.00000001
 12
1.0
 22
0.0
 32
0.0
 13
1.0
 23
0.0
 33
0.0
 40
0.0
 40
0.0
 40
0.0
 40
0.0
 40
0.4999999999999982
 40
0.4999999999999982
 40
0.7499999999999991
 40
0.7499999999999991
 40
1.0
 40
1.0
 40
1.0
 40
1.0
 10
190.2639980293833
 20
147.2916026846972
 30
0.0
 10
190.3077595056821
 20
147.0977028967351
 30
0.0
 10
190.3606658213351
 20
146.9018465327983
 30
0.0
 10
190.4723770189825
 20
146.6097043862993
 30
0.0
 10
190.5148964625689
 20
146.5129864496014
 30
0.0
 10
190.6200198051363
 20
146.3262620131769
 30
0.0
 10
190.681585768854
 20
146.2339113049072
 30
0.0
 10
190.7688060864967
 20
146.1599640402875
 30
0.0
  0
LINE
  5
11E
330
1F
100
AcDbEntity
  8
0
  6
HIDDEN
 62
     7
370
     0
100
AcDbLine
 10
191.3853183729
 20
108.6481015702
 30
0.0
 11
191.3853183729
 21
123.6858087327
 31
0.0
  0
LINE
  5
11F
330
1F
100
AcDbEntity
  8
0
  6
HIDDEN
 62
     7
370
     0
100
AcDbLine
 10
191.3853183729
 20
137.7295833842
 30
0.0
 11
191.3853183729
 21
152.7672905467
 31
0.0
  0
LINE
  5
120
330
1F
100
AcDbEntity
  8
0
  6
HIDDEN
 62
     7
370
     0
100
AcDbLine
 10
249.1471657721
 20
110.6095872393
 30
0.0
 11
249.1471657721
 21
106.1416460755
 31
0.0
  0
ARC
  5
121
330
1F
100
AcDbEntity
  8
0
  6
HIDDEN
 62
     7
370
     0
100
AcDbCircle
 10
274.0591875748
 20
106.1266127582
 30
0.0
 40
24.91202633867486
100
AcDbArc
 50
179.9654245031
 51
195.2247091517
  0
LINE
  5
122
330
1F
100
AcDbEntity
  8
0
  6
HIDDEN
 62
     7
370
     0
100
AcDbLine
 10
235.6055583363
 20
107.0957660949
 30
0.0
 11
250.0214903022
 21
99.5845820237
 31
0.0
  0
ARC
  5
123
330
1F
100
AcDbEntity
  8
0
  6
HIDDEN
 62
     7
370
     0
100
AcDbCircle
 10
234.6618074511
 20
105.2443608831
 30
0.0
 40
2.078068091229944
100
AcDbArc
 50
62.989858633
 51
113.1229830176
  0
LINE
  5
124
330
1F
100
AcDbEntity
  8
0
  6
HIDDEN
 62
     7
370
     0
100
AcDbLine
 10
238.8130229252
 20
100.713043933
 30
0.0
 11
236.4882176094
 21
101.9243454776
 31
0.0
  0
LINE
  5
125
330
1F
100
AcDbEntity
  8
0
  6
HIDDEN
 62
     7
370
     0
100
AcDbLine
 10
241.4005398336
 20
95.4645003129
 30
0.0
 11
238.8130229252
 21
100.713043933
 31
0.0
  0
LWPOLYLINE
  5
126
330
1F
100
AcDbEntity
  8
0
  6
HIDDEN
 62
     7
370
     0
100
AcDbPolyline
 90
       32
 70
   128
 43
0.0
 10
240.4067731325
 20
105.9434294455
 10
241.0861081895
 20
105.8923091402
 10
241.7654432465
 20
105.9932388907
 10
242.4107136071
 20
106.2411576578
 10
242.9895627209
 20
106.6236337593
 10
243.4729646765
 20
107.1214882465
 10
243.8366796811
 20
107.7097566165
 10
244.0624695458
 20
108.3589406367
 10
244.1390122238
 20
109.0364875098
 10
244.0624695458
 20
109.7084222062
 10
243.8366796811
 20
110.3410511146
 10
243.4729646765
 20
110.9026515799
 10
243.4503517156
 20
110.9296483839
 10
242.9895627209
 20
111.3650626096
 10
242.4107136071
 20
111.7050969839
 10
241.7654432465
 20
111.9057039595
 10
241.0861081895
 20
111.9568242648
 10
240.4067731325
 20
111.8558945143
 10
239.7615027719
 20
111.6079757472
 10
239.182653658
 20
111.2254996457
 10
238.6992517025
 20
110.7276451585
 10
238.3355366978
 20
110.1393767885
 10
238.1097468332
 20
109.4901927683
 10
238.0332041551
 20
108.8126458952
 10
238.1097468332
 20
108.1407111988
 10
238.3355366978
 20
107.5080822904
 10
238.6992517025
 20
106.9464818251
 10
239.182653658
 20
106.4840707954
 10
239.7615027719
 20
106.1440364211
 10
240.2012797152
 20
105.9900226585
 10
240.3411116693
 20
105.9566684986
 10
240.4067731325
 20
105.9434294455
  0
ARC
  5
127
330
1F
100
AcDbEntity
  8
0
  6
HIDDEN
 62
     7
370
     0
100
AcDbCircle
 10
236.2906927695
 20
120.4575556718
 30
0.0
 40
2.461072701210644
100
AcDbArc
 50
145.1281939562
 51
201.9151041484
  0
ARC
  5
128
330
1F
100
AcDbEntity
  8
0
  6
HIDDEN
 62
     7
370
     0
100
AcDbCircle
 10
236.4094891373
 20
120.6402341012
 30
0.0
 40
2.342523035678723
100
AcDbArc
 50
22.5476720405
 51
81.3147944395
  0
LINE
  5
129
330
1F
100
AcDbEntity
  8
0
  6
HIDDEN
 62
     7
370
     0
100
AcDbLine
 10
235.1142087931
 20
116.8588095152
 30
0.0
 11
234.0074623605
 21
119.5390036916
 31
0.0
  0
ARC
  5
12A
330
1F
100
AcDbEntity
  8
0
  6
HIDDEN
 62
     7
370
     0
100
AcDbCircle
 10
237.3721461933
 20
117.915190694
 30
0.0
 40
2.492834229910257
100
AcDbArc
 50
205.0726509623
 51
22.2297905896
  0
LINE
  5
12B
330
1F
100
AcDbEntity
  8
0
  6
HIDDEN
 62
     7
370
     0
100
AcDbLine
 10
238.5729516028
 20
121.5384792421
 30
0.0
 11
239.6796980353
 21
118.8582850657
 31
0.0
  0
CIRCLE
  5
12C
330
1F
100
AcDbEntity
  8
0
  6
HIDDEN
 62
     7
370
     0
100
AcDbCircle
 10
176.0853183729
 20
130.7076960585
 30
0.0
 40
4.049999999999983
  0
LINE
  5
12D
330
1F
100
AcDbEntity
  8
0
  6
HIDDEN
 62
     7
370
     0
100
AcDbLine
 10
155.1155468126
 20
146.0206471014
 30
0.0
 11
155.1155468126
 21
115.3947450155
 31
0.0
  0
LINE
  5
12E
330
1F
100
AcDbEntity
  8
0
  6
HIDDEN
 62
     7
370
     0
100
AcDbLine
 10
153.5853183729
 20
114.511267214
 30
0.0
 11
153.5853183729
 21
146.8852111479
 31
0.0
  0
LINE
  5
12F
330
1F
100
AcDbEntity
  8
0
  6
HIDDEN
 62
     7
370
     0
100
AcDbLine
 10
161.6155468126
 20
145.05410622
 30
0.0
 11
161.6155468126
 21
116.3612858969
 31
0.0
  0
LINE
  5
130
330
1F
100
AcDbEntity
  8
0
  6
HIDDEN
 62
     7
370
     0
100
AcDbLine
 10
167.4155468126
 20
144.7076960585
 30
0.0
 11
167.4155468126
 21
116.7076960585
 31
0.0
  0
LINE
  5
131
330
1F
100
AcDbEntity
  8
0
  6
HIDDEN
 62
     7
370
     0
100
AcDbLine
 10
160.0155468126
 20
144.7076960585
 30
0.0
 11
160.0155468126
 21
116.7076960585
 31
0.0
  0
LINE
  5
132
330
1F
100
AcDbEntity
  8
0
  6
HIDDEN
 62
     7
370
     0
100
AcDbLine
 10
161.0155468126
 20
144.7076960585
 30
0.0
 11
161.0155468126
 21
116.7076960585
 31
0.0
  0
SPLINE
  5
133
330
1F
100
AcDbEntity
  8
0
  6
HIDDEN
 62
     7
370
     0
100
AcDbSpline
210
0.0
220
0.0
230
1.0
 70
     8
 71
     3
 72
    10
 73
     6
 74
     0
 42
0.00000001
 43
0.00000001
 12
1.0
 22
0.0
 32
0.0
 13
1.0
 23
0.0
 33
0.0
 40
0.0
 40
0.0
 40
0.0
 40
0.0
 40
0.5
 40
0.5
 40
1.0
 40
1.0
 40
1.0
 40
1.0
 10
180.0853183729446
 20
131.3421249354785
 30
0.0
 10
180.118465791021
 20
131.1331343344704
 30
0.0
 10
180.1353246363826
 20
130.9215718684488
 30
0.0
 10
180.135312106035
 20
130.4935831024812
 30
0.0
 10
180.1183971482946
 20
130.2818249980655
 30
0.0
 10
180.0853183729446
 20
130.0732671814334
 30
0.0
  0
LINE
  5
134
330
1F
100
AcDbEntity
  8
0
  6
HIDDEN
 62
     7
370
     0
100
AcDbLine
 10
180.5853183729
 20
144.2076960585
 30
0.0
 11
180.5853183729
 21
117.2076960585
 31
0.0
  0
SPLINE
  5
135
330
1F
100
AcDbEntity
  8
0
  6
HIDDEN
 62
     7
370
     0
100
AcDbSpline
210
0.0
220
0.0
230
1.0
 70
     8
 71
     3
 72
    10
 73
     6
 74
     0
 42
0.00000001
 43
0.00000001
 12
1.0
 22
0.0
 32
0.0
 13
1.0
 23
0.0
 33
0.0
 40
0.0
 40
0.0
 40
0.0
 40
0.0
 40
0.5
 40
0.5
 40
1.0
 40
1.0
 40
1.0
 40
1.0
 10
180.0853183729446
 20
130.0732671814334
 30
0.0
 10
180.1185073354183
 20
130.2825197150159
 30
0.0
 10
180.1352081116729
 20
130.4933364759148
 30
0.0
 10
180.1354275521176
 20
130.9178687571181
 30
0.0
 10
180.1185478367242
 20
131.1326170458908
 30
0.0
 10
180.0853183729446
 20
131.3421249354785
 30
0.0
  0
SPLINE
  5
136
330
1F
100
AcDbEntity
  8
0
  6
HIDDEN
 62
     7
370
     0
100
AcDbSpline
210
0.0
220
0.0
230
1.0
 70
     8
 71
     3
 72
    68
 73
    64
 74
     0
 42
0.00000001
 43
0.00000001
 12
1.0
 22
0.0
 32
0.0
 13
1.0
 23
0.0
 33
0.0
 40
0.0
 40
0.0
 40
0.0
 40
0.0
 40
0.0312500000000003
 40
0.0312500000000003
 40
0.0625000000000005
 40
0.0625000000000005
 40
0.0937500000000007
 40
0.0937500000000007
 40
0.1250000000000009
 40
0.1250000000000009
 40
0.1562500000000011
 40
0.1562500000000011
 40
0.1875000000000013
 40
0.1875000000000013
 40
0.2187500000000016
 40
0.2187500000000016
 40
0.2500000000000018
 40
0.2500000000000018
 40
0.2812500000000018
 40
0.2812500000000018
 40
0.3125000000000018
 40
0.3125000000000018
 40
0.3437500000000019
 40
0.3437500000000019
 40
0.3750000000000019
 40
0.3750000000000019
 40
0.4062500000000019
 40
0.4062500000000019
 40
0.4375000000000019
 40
0.4375000000000019
 40
0.4687500000000019
 40
0.4687500000000019
 40
0.5000000000000019
 40
0.5000000000000019
 40
0.562500000000002
 40
0.562500000000002
 40
0.5937500000000019
 40
0.5937500000000019
 40
0.6250000000000018
 40
0.6250000000000018
 40
0.6562500000000018
 40
0.6562500000000018
 40
0.6875000000000017
 40
0.6875000000000017
 40
0.7187500000000016
 40
0.7187500000000016
 40
0.7500000000000014
 40
0.7500000000000014
 40
0.7812500000000013
 40
0.7812500000000013
 40
0.8125000000000011
 40
0.8125000000000011
 40
0.8437500000000009
 40
0.8437500000000009
 40
0.8750000000000008
 40
0.8750000000000008
 40
0.9062500000000006
 40
0.9062500000000006
 40
0.9375000000000003
 40
0.9375000000000003
 40
0.9687500000000002
 40
0.9687500000000002
 40
1.0
 40
1.0
 40
1.0
 40
1.0
 10
180.0853183729446
 20
130.0732671814334
 30
0.0
 10
180.0453034205949
 20
129.8209775786178
 30
0.0
 10
179.9823616191836
 20
129.576978728242
 30
0.0
 10
179.8129749571115
 20
129.1045603391795
 30
0.0
 10
179.705281394526
 20
128.8741469530196
 30
0.0
 10
179.4499966259881
 20
128.4394423572224
 30
0.0
 10
179.3039573955159
 20
128.2368003905711
 30
0.0
 10
178.9757359589566
 20
127.8598110998133
 30
0.0
 10
178.7914886711817
 20
127.684153146236
 30
0.0
 10
178.3985285038734
 20
127.3738951772897
 30
0.0
 10
178.1892339069142
 20
127.2379499696398
 30
0.0
 10
177.7443484799768
 20
127.0045598742339
 30
0.0
 10
177.5075508874778
 20
126.9073132678196
 30
0.0
 10
177.0268158185586
 20
126.7606418099482
 30
0.0
 10
176.7805727253758
 20
126.7097494650058
 30
0.0
 10
176.2758559453963
 20
126.6542221147703
 30
0.0
 10
176.0196612444599
 20
126.6503972277004
 30
0.0
 10
175.5172824952597
 20
126.6898210103448
 30
0.0
 10
175.2680327960762
 20
126.732848459556
 30
0.0
 10
174.7765049985974
 20
126.8665534290073
 30
0.0
 10
174.5412093973715
 20
126.9552232749125
 30
0.0
 10
174.0902955027094
 20
127.1742546386899
 30
0.0
 10
173.8726831522461
 20
127.3062562043735
 30
0.0
 10
173.4694759826978
 20
127.6056134853764
 30
0.0
 10
173.2838644902633
 20
127.7722324128142
 30
0.0
 10
172.9438764198608
 20
128.1393438382417
 30
0.0
 10
172.7888034890379
 20
128.3416475837824
 30
0.0
 10
172.5224604123746
 20
128.7657282633764
 30
0.0
 10
172.4094763116578
 20
128.9888878688426
 30
0.0
 10
172.2246210547269
 20
129.4582431104368
 30
0.0
 10
172.1534802932235
 20
129.7044536137723
 30
0.0
 10
172.0595198819354
 20
130.1989794401435
 30
0.0
 10
172.035510551979
 20
130.4499104352355
 30
0.0
 10
172.0349374313064
 20
131.2141558147917
 30
0.0
 10
172.130336542625
 20
131.7163801168426
 30
0.0
 10
172.4082003348261
 20
132.423944623115
 30
0.0
 10
172.5213622909067
 20
132.6476508868558
 30
0.0
 10
172.7874934729505
 20
133.0719207981764
 30
0.0
 10
172.9423212471503
 20
133.2741727602325
 30
0.0
 10
173.2825023529381
 20
133.6418835016007
 30
0.0
 10
173.4680048098878
 20
133.80850037685
 30
0.0
 10
173.8702986109471
 20
134.1075497556454
 30
0.0
 10
174.0883066591992
 20
134.2400064636738
 30
0.0
 10
174.5389050263495
 20
134.4592128643785
 30
0.0
 10
174.7734540252302
 20
134.5476979943822
 30
0.0
 10
175.2619140187825
 20
134.6811842243208
 30
0.0
 10
175.5141794144964
 20
134.7251259368146
 30
0.0
 10
176.0163600526567
 20
134.764934933288
 30
0.0
 10
176.2688421700084
 20
134.7615907204745
 30
0.0
 10
176.7767072130779
 20
134.706411400484
 30
0.0
 10
177.0242526862617
 20
134.6553654720146
 30
0.0
 10
177.5052202237324
 20
134.508955083779
 30
0.0
 10
177.7411800888377
 20
134.4123088790054
 30
0.0
 10
178.1877505383592
 20
134.1784039346924
 30
0.0
 10
178.3973954009327
 20
134.0422789208659
 30
0.0
 10
178.7903821076872
 20
133.7322246565368
 30
0.0
 10
178.9747780115022
 20
133.5565674089617
 30
0.0
 10
179.3033284293626
 20
133.1794274862973
 30
0.0
 10
179.4492705258857
 20
132.9769612810274
 30
0.0
 10
179.7041558810879
 20
132.5433849828941
 30
0.0
 10
179.8124671938962
 20
132.3120931393125
 30
0.0
 10
179.9823021713132
 20
131.8387334591793
 30
0.0
 10
180.0452975324502
 20
131.5944516623585
 30
0.0
 10
180.0853183729446
 20
131.3421249354785
 30
0.0
  0
SPLINE
  5
137
330
1F
100
AcDbEntity
  8
0
  6
HIDDEN
 62
     7
370
     0
100
AcDbSpline
210
0.0
220
0.0
230
1.0
 70
     8
 71
     3
 72
    68
 73
    64
 74
     0
 42
0.00000001
 43
0.00000001
 12
1.0
 22
0.0
 32
0.0
 13
1.0
 23
0.0
 33
0.0
 40
0.0
 40
0.0
 40
0.0
 40
0.0
 40
0.0312500000000003
 40
0.0312500000000003
 40
0.0625000000000005
 40
0.0625000000000005
 40
0.0937500000000007
 40
0.0937500000000007
 40
0.1250000000000009
 40
0.1250000000000009
 40
0.1562500000000011
 40
0.1562500000000011
 40
0.1875000000000013
 40
0.1875000000000013
 40
0.2187500000000016
 40
0.2187500000000016
 40
0.2500000000000018
 40
0.2500000000000018
 40
0.2812500000000018
 40
0.2812500000000018
 40
0.3125000000000018
 40
0.3125000000000018
 40
0.3437500000000019
 40
0.3437500000000019
 40
0.3750000000000019
 40
0.3750000000000019
 40
0.4062500000000019
 40
0.4062500000000019
 40
0.4375000000000019
 40
0.4375000000000019
 40
0.4687500000000019
 40
0.4687500000000019
 40
0.5000000000000019
 40
0.5000000000000019
 40
0.562500000000002
 40
0.562500000000002
 40
0.5937500000000019
 40
0.5937500000000019
 40
0.6250000000000018
 40
0.6250000000000018
 40
0.6562500000000018
 40
0.6562500000000018
 40
0.6875000000000017
 40
0.6875000000000017
 40
0.7187500000000016
 40
0.7187500000000016
 40
0.7500000000000014
 40
0.7500000000000014
 40
0.7812500000000013
 40
0.7812500000000013
 40
0.8125000000000011
 40
0.8125000000000011
 40
0.8437500000000009
 40
0.8437500000000009
 40
0.8750000000000008
 40
0.8750000000000008
 40
0.9062500000000006
 40
0.9062500000000006
 40
0.9375000000000003
 40
0.9375000000000003
 40
0.9687500000000002
 40
0.9687500000000002
 40
1.0
 40
1.0
 40
1.0
 40
1.0
 10
180.0853183729446
 20
131.3421249354785
 30
0.0
 10
180.0453034205949
 20
131.5944145382941
 30
0.0
 10
179.9823616191836
 20
131.8384133886699
 30
0.0
 10
179.8129749571115
 20
132.3108317777324
 30
0.0
 10
179.705281394526
 20
132.5412451638923
 30
0.0
 10
179.4499966259881
 20
132.9759497596894
 30
0.0
 10
179.3039573955159
 20
133.1785917263407
 30
0.0
 10
178.9757359589566
 20
133.5555810170985
 30
0.0
 10
178.7914886711817
 20
133.7312389706759
 30
0.0
 10
178.3985285038734
 20
134.0414969396222
 30
0.0
 10
178.1892339069142
 20
134.1774421472721
 30
0.0
 10
177.7443484799768
 20
134.4108322426779
 30
0.0
 10
177.5075508874778
 20
134.5080788490923
 30
0.0
 10
177.0268158185586
 20
134.6547503069637
 30
0.0
 10
176.7805727253758
 20
134.7056426519061
 30
0.0
 10
176.2758559453963
 20
134.7611700021416
 30
0.0
 10
176.0196612444599
 20
134.7649948892115
 30
0.0
 10
175.5172824952597
 20
134.7255711065671
 30
0.0
 10
175.2680327960762
 20
134.6825436573559
 30
0.0
 10
174.7765049985974
 20
134.5488386879046
 30
0.0
 10
174.5412093973715
 20
134.4601688419994
 30
0.0
 10
174.0902955027094
 20
134.241137478222
 30
0.0
 10
173.8726831522461
 20
134.1091359125384
 30
0.0
 10
173.4694759826978
 20
133.8097786315355
 30
0.0
 10
173.2838644902633
 20
133.6431597040977
 30
0.0
 10
172.9438764198608
 20
133.2760482786702
 30
0.0
 10
172.7888034890379
 20
133.0737445331295
 30
0.0
 10
172.5224604123746
 20
132.6496638535354
 30
0.0
 10
172.4094763116578
 20
132.4265042480692
 30
0.0
 10
172.2246210547269
 20
131.9571490064751
 30
0.0
 10
172.1534802932235
 20
131.7109385031396
 30
0.0
 10
172.0595198819354
 20
131.2164126767684
 30
0.0
 10
172.035510551979
 20
130.9654816816764
 30
0.0
 10
172.0349374313064
 20
130.2012363021202
 30
0.0
 10
172.130336542625
 20
129.6990120000692
 30
0.0
 10
172.4082003348261
 20
128.9914474937968
 30
0.0
 10
172.5213622909067
 20
128.767741230056
 30
0.0
 10
172.7874934729505
 20
128.3434713187355
 30
0.0
 10
172.9423212471503
 20
128.1412193566794
 30
0.0
 10
173.2825023529381
 20
127.7735086153112
 30
0.0
 10
173.4680048098878
 20
127.6068917400619
 30
0.0
 10
173.8702986109471
 20
127.3078423612664
 30
0.0
 10
174.0883066591992
 20
127.175385653238
 30
0.0
 10
174.5389050263495
 20
126.9561792525334
 30
0.0
 10
174.7734540252302
 20
126.8676941225297
 30
0.0
 10
175.2619140187825
 20
126.7342078925911
 30
0.0
 10
175.5141794144964
 20
126.6902661800973
 30
0.0
 10
176.0163600526567
 20
126.6504571836238
 30
0.0
 10
176.2688421700084
 20
126.6538013964373
 30
0.0
 10
176.7767072130779
 20
126.7089807164279
 30
0.0
 10
177.0242526862617
 20
126.7600266448973
 30
0.0
 10
177.5052202237324
 20
126.9064370331328
 30
0.0
 10
177.7411800888377
 20
127.0030832379065
 30
0.0
 10
178.1877505383592
 20
127.2369881822195
 30
0.0
 10
178.3973954009327
 20
127.373113196046
 30
0.0
 10
178.7903821076872
 20
127.6831674603751
 30
0.0
 10
178.9747780115022
 20
127.8588247079502
 30
0.0
 10
179.3033284293626
 20
128.2359646306146
 30
0.0
 10
179.4492705258857
 20
128.4384308358845
 30
0.0
 10
179.7041558810879
 20
128.8720071340178
 30
0.0
 10
179.8124671938962
 20
129.1032989775994
 30
0.0
 10
179.9823021713132
 20
129.5766586577326
 30
0.0
 10
180.0452975324502
 20
129.8209404545534
 30
0.0
 10
180.0853183729446
 20
130.0732671814334
 30
0.0
  0
ARC
  5
138
330
1F
100
AcDbEntity
  8
0
  6
HIDDEN
 62
     7
370
     0
100
AcDbCircle
 10
236.2260775342
 20
120.5892983304
 30
0.0
 40
1.994456177368324
100
AcDbArc
 50
25.2765949177
 51
202.0258466342
  0
LINE
  5
139
330
1F
100
AcDbEntity
  8
0
  6
HIDDEN
 62
     7
370
     0
100
AcDbLine
 10
234.3771871959
 20
119.8413277692
 30
0.0
 11
235.4839336285
 21
117.1611335928
 31
0.0
  0
ARC
  5
13A
330
1F
100
AcDbEntity
  8
0
  6
HIDDEN
 62
     7
370
     0
100
AcDbCircle
 10
235.6162645289
 20
121.3106020175
 30
0.0
 40
1.994318136348253
100
AcDbArc
 50
25.1302458762
 51
202.1721956756
  0
LINE
  5
13B
330
1F
100
AcDbEntity
  8
0
  6
HIDDEN
 62
     7
370
     0
100
AcDbLine
 10
239.1363250223
 20
118.7607140332
 30
0.0
 11
238.0295785897
 21
121.4409082096
 31
0.0
  0
LINE
  5
13C
330
1F
100
AcDbEntity
  8
0
  6
HIDDEN
 62
     7
370
     0
100
AcDbLine
 10
181.8353183729
 20
139.7076960585
 30
0.0
 11
181.8353183729
 21
121.7076960585
 31
0.0
  0
LINE
  5
13D
330
1F
100
AcDbEntity
  8
0
  6
HIDDEN
 62
     7
370
     0
100
AcDbLine
 10
180.5853183729
 20
120.4576960585
 30
0.0
 11
180.5853183729
 21
140.9576960585
 31
0.0
  0
ARC
  5
13E
330
1F
100
AcDbEntity
  8
0
  6
HIDDEN
 62
     7
370
     0
100
AcDbCircle
 10
237.2894790674
 20
118.0080754426
 30
0.0
 40
1.994318136348258
100
AcDbArc
 50
205.1302458762
 51
22.1721956756
  0
LINE
  5
13F
330
1F
100
AcDbEntity
  8
0
  6
HIDDEN
 62
     7
370
     0
100
AcDbLine
 10
238.5285564004
 20
119.4773496909
 30
0.0
 11
237.4218099679
 21
122.1575438673
 31
0.0
  0
LINE
  5
140
330
1F
100
AcDbEntity
  8
0
  6
HIDDEN
 62
     7
370
     0
100
AcDbLine
 10
249.1471657721
 20
128.2763538191
 30
0.0
 11
241.6776561468
 21
137.0838452735
 31
0.0
  0
ARC
  5
141
330
1F
100
AcDbEntity
  8
0
  6
HIDDEN
 62
     7
370
     0
100
AcDbCircle
 10
236.6817104456
 20
118.7247111003
 30
0.0
 40
1.994318136348245
100
AcDbArc
 50
205.1302458762
 51
22.1721956756
  0
LINE
  5
142
330
1F
100
AcDbEntity
  8
0
  6
HIDDEN
 62
     7
370
     0
100
AcDbLine
 10
218.5853183729
 20
121.7076960585
 30
0.0
 11
218.5853183729
 21
139.7076960585
 31
0.0
  0
SPLINE
  5
143
330
1F
100
AcDbEntity
  8
0
  6
HIDDEN
 62
     7
370
     0
100
AcDbSpline
210
0.0
220
0.0
230
1.0
 70
     8
 71
     3
 72
     8
 73
     4
 74
     0
 42
0.00000001
 43
0.00000001
 12
1.0
 22
0.0
 32
0.0
 13
1.0
 23
0.0
 33
0.0
 40
0.0
 40
0.0
 40
0.0
 40
0.0
 40
1.0
 40
1.0
 40
1.0
 40
1.0
 10
218.5853183729446
 20
123.0600279530066
 30
0.0
 10
218.5575543032334
 20
122.9597084141017
 30
0.0
 10
218.5575543032334
 20
122.8646126019974
 30
0.0
 10
218.5853183729446
 20
122.7747405166939
 30
0.0
  0
SPLINE
  5
144
330
1F
100
AcDbEntity
  8
0
  6
HIDDEN
 62
     7
370
     0
100
AcDbSpline
210
0.0
220
0.0
230
1.0
 70
     8
 71
     3
 72
    62
 73
    58
 74
     0
 42
0.00000001
 43
0.00000001
 12
1.0
 22
0.0
 32
0.0
 13
1.0
 23
0.0
 33
0.0
 40
0.0
 40
0.0
 40
0.0
 40
0.0
 40
0.0312499999999998
 40
0.0312499999999998
 40
0.0624999999999995
 40
0.0624999999999995
 40
0.0937499999999992
 40
0.0937499999999992
 40
0.1249999999999989
 40
0.1249999999999989
 40
0.1562499999999986
 40
0.1562499999999986
 40
0.1874999999999983
 40
0.1874999999999983
 40
0.249999999999998
 40
0.249999999999998
 40
0.3124999999999978
 40
0.3124999999999978
 40
0.3437499999999978
 40
0.3437499999999978
 40
0.3749999999999979
 40
0.3749999999999979
 40
0.406249999999998
 40
0.406249999999998
 40
0.4374999999999981
 40
0.4374999999999981
 40
0.4999999999999981
 40
0.4999999999999981
 40
0.5312499999999981
 40
0.5312499999999981
 40
0.5624999999999982
 40
0.5624999999999982
 40
0.5937499999999982
 40
0.5937499999999982
 40
0.6249999999999982
 40
0.6249999999999982
 40
0.6562499999999982
 40
0.6562499999999982
 40
0.6874999999999982
 40
0.6874999999999982
 40
0.7499999999999983
 40
0.7499999999999983
 40
0.7812499999999986
 40
0.7812499999999986
 40
0.8124999999999988
 40
0.8124999999999988
 40
0.843749999999999
 40
0.843749999999999
 40
0.8749999999999992
 40
0.8749999999999992
 40
0.9062499999999994
 40
0.9062499999999994
 40
0.9374999999999997
 40
0.9374999999999997
 40
0.9687499999999999
 40
0.9687499999999999
 40
1.0
 40
1.0
 40
1.0
 40
1.0
 10
218.5853183729446
 20
122.7747405166939
 30
0.0
 10
218.5927378630427
 20
122.7102369166726
 30
0.0
 10
218.606182065154
 20
122.6602241679476
 30
0.0
 10
218.6447536473705
 20
122.5876186898088
 30
0.0
 10
218.6702317283567
 20
122.5650063529638
 30
0.0
 10
218.7321676939114
 20
122.5487852703453
 30
0.0
 10
218.7683375898437
 20
122.5548535216139
 30
0.0
 10
218.8514158485396
 20
122.594252080511
 30
0.0
 10
218.8987697049357
 20
122.6281341687087
 30
0.0
 10
219.0014423556887
 20
122.7203899130703
 30
0.0
 10
219.0570563504594
 20
122.7787648170861
 30
0.0
 10
219.1777978456622
 20
122.9197187252266
 30
0.0
 10
219.2426954324054
 20
123.0021715382117
 30
0.0
 10
219.4454765482432
 20
123.2756157561397
 30
0.0
 10
219.5967540783932
 20
123.4998989976263
 30
0.0
 10
219.9107409912576
 20
123.9891200504564
 30
0.0
 10
220.0776786900792
 20
124.2602099018489
 30
0.0
 10
220.3202975343904
 20
124.6673997753544
 30
0.0
 10
220.4014681547964
 20
124.8060062171665
 30
0.0
 10
220.5567706641103
 20
125.0776860376778
 30
0.0
 10
220.6308474402772
 20
125.2105744786217
 30
0.0
 10
220.770493514779
 20
125.4714463130127
 30
0.0
 10
220.8362488413344
 20
125.599983284406
 30
0.0
 10
220.9516564796853
 20
125.8428869528262
 30
0.0
 10
221.0020885302116
 20
125.9586378155793
 30
0.0
 10
221.1277234955745
 20
126.2908496152079
 30
0.0
 10
221.173291224158
 20
126.4838786966443
 30
0.0
 10
221.1731888100092
 20
126.7237575165939
 30
0.0
 10
221.1618905710106
 20
126.7933976623934
 30
0.0
 10
221.1182631575215
 20
126.9123182762126
 30
0.0
 10
221.0854318638334
 20
126.9619360356821
 30
0.0
 10
221.0018527164438
 20
127.0359782788162
 30
0.0
 10
220.9514687838229
 20
127.060631715927
 30
0.0
 10
220.8358495323933
 20
127.0839043806032
 30
0.0
 10
220.7700308884969
 20
127.0821576465709
 30
0.0
 10
220.6306463188451
 20
127.0507806686005
 30
0.0
 10
220.5565908111838
 20
127.0214420210585
 30
0.0
 10
220.4010139930543
 20
126.9340040647695
 30
0.0
 10
220.3200636460845
 20
126.8759296024803
 30
0.0
 10
220.0774283883435
 20
126.6651755365213
 30
0.0
 10
219.9105281544811
 20
126.4702807188586
 30
0.0
 10
219.67458669798
 20
126.1258619823176
 30
0.0
 10
219.5967999237635
 20
126.0004087975733
 30
0.0
 10
219.4481062568582
 20
125.7380788813173
 30
0.0
 10
219.3773011944131
 20
125.6016960052433
 30
0.0
 10
219.2417297552348
 20
125.3190797425738
 30
0.0
 10
219.176599306776
 20
125.1717533873288
 30
0.0
 10
219.0565266583199
 20
124.8787350108676
 30
0.0
 10
219.0009527103273
 20
124.731855695447
 30
0.0
 10
218.8979932202713
 20
124.4377229462446
 30
0.0
 10
218.8508444843675
 20
124.2908414526092
 30
0.0
 10
218.7681025651758
 20
124.0093419595103
 30
0.0
 10
218.7319361133612
 20
123.8731301175667
 30
0.0
 10
218.6698721297751
 20
123.6105040101674
 30
0.0
 10
218.6446257383425
 20
123.4865963540783
 30
0.0
 10
218.6061750247117
 20
123.2591734245763
 30
0.0
 10
218.5927387009503
 20
123.1546827122781
 30
0.0
 10
218.5853183729446
 20
123.0600279530066
 30
0.0
  0
ARC
  5
145
330
1F
100
AcDbEntity
  8
0
  6
HIDDEN
 62
     7
370
     0
100
AcDbCircle
 10
233.299457771
 20
106.813546015
 30
0.0
 40
2.090207060130588
100
AcDbArc
 50
62.0578621663
 51
239.9835803063
  0
LWPOLYLINE
  5
146
330
1F
100
AcDbEntity
  8
0
  6
HIDDEN
 62
     7
370
     0
100
AcDbPolyline
 90
       29
 70
   128
 43
0.0
 10
240.3915154788
 20
106.7113213205
 10
241.0708505358
 20
106.8122510709
 10
241.7161208964
 20
107.060169838
 10
242.2949700103
 20
107.4426459396
 10
242.7783719658
 20
107.9405004267
 10
243.1420869704
 20
108.5287687967
 10
243.3678768351
 20
109.177952817
 10
243.4444195131
 20
109.85549969
 10
243.3678768351
 20
110.5274343865
 10
243.1420869704
 20
111.1600632949
 10
242.7783719658
 20
111.7216637601
 10
242.2949700103
 20
112.1840747898
 10
241.7161208964
 20
112.5241091642
 10
241.0708505358
 20
112.7247161397
 10
240.3915154788
 20
112.775836445
 10
239.7121804218
 20
112.6749066946
 10
239.0669100612
 20
112.4269879274
 10
238.4880609473
 20
112.0445118259
 10
238.0046589918
 20
111.5466573387
 10
237.6409439872
 20
110.9583889688
 10
237.4151541225
 20
110.3092049485
 10
237.3386114445
 20
109.6316580754
 10
237.4151541225
 20
108.959723379
 10
237.6409439872
 20
108.3270944706
 10
238.0046589918
 20
107.7654940054
 10
238.4880609473
 20
107.3030829756
 10
239.0669100612
 20
106.9630486013
 10
239.7121804218
 20
106.7624416258
 10
240.3915154788
 20
106.7113213205
  0
SPLINE
  5
147
330
1F
100
AcDbEntity
  8
0
  6
HIDDEN
 62
     7
370
     0
100
AcDbSpline
210
0.0
220
0.0
230
1.0
 70
     8
 71
     3
 72
    10
 73
     6
 74
     0
 42
0.00000001
 43
0.00000001
 12
1.0
 22
0.0
 32
0.0
 13
1.0
 23
0.0
 33
0.0
 40
0.0
 40
0.0
 40
0.0
 40
0.0
 40
0.5
 40
0.5
 40
1.0
 40
1.0
 40
1.0
 40
1.0
 10
229.7839172112547
 20
126.7714860327531
 30
0.0
 10
229.7625515646721
 20
127.4246109695131
 30
0.0
 10
229.7359843900236
 20
128.0818318489244
 30
0.0
 10
229.6965312019313
 20
129.3946354239005
 30
0.0
 10
229.6840167887501
 20
130.0512264399382
 30
0.0
 10
229.6840167887501
 20
130.707696058456
 30
0.0
  0
LINE
  5
148
330
1F
100
AcDbEntity
  8
0
  6
HIDDEN
 62
     7
370
     0
100
AcDbLine
 10
229.6840167888
 20
153.7746407289
 30
0.0
 11
229.6840167888
 21
130.7076960585
 31
0.0
  0
SPLINE
  5
149
330
1F
100
AcDbEntity
  8
0
  6
HIDDEN
 62
     7
370
     0
100
AcDbSpline
210
0.0
220
0.0
230
1.0
 70
     8
 71
     3
 72
    10
 73
     6
 74
     0
 42
0.00000001
 43
0.00000001
 12
1.0
 22
0.0
 32
0.0
 13
1.0
 23
0.0
 33
0.0
 40
0.0
 40
0.0
 40
0.0
 40
0.0
 40
0.5
 40
0.5
 40
1.0
 40
1.0
 40
1.0
 40
1.0
 10
229.7839172112546
 20
98.72981370266079
 30
0.0
 10
229.7723105935948
 20
98.85685047918003
 30
0.0
 10
229.7639484950248
 20
98.98298282168969
 30
0.0
 10
229.7638844832815
 20
99.23196140675847
 30
0.0
 10
229.7722239652999
 20
99.35472624429659
 30
0.0
 10
229.783917211255
 20
99.47611965305408
 30
0.0
  0
SPLINE
  5
14A
330
1F
100
AcDbEntity
  8
0
  6
HIDDEN
 62
     7
370
     0
100
AcDbSpline
210
0.0
220
0.0
230
1.0
 70
     8
 71
     3
 72
    10
 73
     6
 74
     0
 42
0.00000001
 43
0.00000001
 12
1.0
 22
0.0
 32
0.0
 13
1.0
 23
0.0
 33
0.0
 40
0.0
 40
0.0
 40
0.0
 40
0.0
 40
0.5
 40
0.5
 40
1.0
 40
1.0
 40
1.0
 40
1.0
 10
228.8179913849656
 20
155.0303267985382
 30
0.0
 10
228.9996448983863
 20
154.771628791476
 30
0.0
 10
229.1606569843022
 20
154.5402356123228
 30
0.0
 10
229.4523529824364
 20
154.1175678729157
 30
0.0
 10
229.5843745027953
 20
153.9243640564886
 30
0.0
 10
229.6840167887501
 20
153.7746407289409
 30
0.0
  0
LINE
  5
14B
330
1F
100
AcDbEntity
  8
0
  6
HIDDEN
 62
     7
370
     0
100
AcDbLine
 10
232.2538355288
 20
105.0036731795
 30
0.0
 11
232.5544497702
 21
104.8470430769
 31
0.0
  0
LINE
  5
14C
330
1F
100
AcDbEntity
  8
0
  6
HIDDEN
 62
     7
370
     0
100
AcDbLine
 10
235.7593222843
 20
103.1771970042
 30
0.0
 11
237.4863508478
 21
102.2773571973
 31
0.0
  0
LINE
  5
14D
330
1F
100
AcDbEntity
  8
0
  6
HIDDEN
 62
     7
370
     0
100
AcDbLine
 10
237.4863508478
 20
102.2773571973
 30
0.0
 11
238.8130229252
 21
100.713043933
 31
0.0
  0
LINE
  5
14E
330
1F
100
AcDbEntity
  8
0
  6
HIDDEN
 62
     7
370
     0
100
AcDbLine
 10
233.7694185741
 20
120.5579634269
 30
0.0
 11
234.8761650067
 21
117.8777692505
 31
0.0
  0
SPLINE
  5
14F
330
1F
100
AcDbEntity
  8
0
  6
HIDDEN
 62
     7
370
     0
100
AcDbSpline
210
0.0
220
0.0
230
1.0
 70
     8
 71
     3
 72
     9
 73
     5
 74
     0
 42
0.00000001
 43
0.00000001
 12
1.0
 22
0.0
 32
0.0
 13
1.0
 23
0.0
 33
0.0
 40
0.0
 40
0.0
 40
0.0
 40
0.0
 40
0.3406858733635558
 40
1.0
 40
1.0
 40
1.0
 40
1.0
 10
229.9409311475533
 20
97.90842252398319
 30
0.0
 10
229.9139500367865
 20
98.00313490967626
 30
0.0
 10
229.8347535896301
 20
98.28113993746912
 30
0.0
 10
229.8041166068193
 20
98.55153705998454
 30
0.0
 10
229.7839172112546
 20
98.72981370266079
 30
0.0
  0
LINE
  5
150
330
1F
100
AcDbEntity
  8
0
  6
HIDDEN
 62
     7
370
     0
100
AcDbLine
 10
250.0214903022
 20
99.5845820237
 30
0.0
 11
248.6948182248
 21
101.148895288
 31
0.0
  0
LWPOLYLINE
  5
151
330
1F
100
AcDbEntity
  8
0
  6
HIDDEN
 62
     7
370
     0
100
AcDbPolyline
 90
       26
 70
   128
 43
0.0
 10
240.3289124679
 20
107.3720267057
 10
240.9411917903
 20
107.4712988994
 10
241.5149993511
 20
107.7179849839
 10
242.0142807109
 20
108.0965847653
 10
242.4076641857
 20
108.5833094269
 10
242.6704320449
 20
109.1475762681
 10
242.7860736176
 20
109.7539303281
 10
242.7473227184
 20
110.3642721514
 10
242.5566142089
 20
110.9402517164
 10
242.2259310061
 20
111.4456781088
 10
241.7760511518
 20
111.8487935295
 10
241.2352422518
 20
112.1242687541
 10
240.6374853182
 20
112.2547946611
 10
240.0203396176
 20
112.2321698278
 10
239.422582684
 20
112.0578158555
 10
238.881773784
 20
111.7426880457
 10
238.4318939297
 20
111.3065870375
 10
238.1012107269
 20
110.7769146612
 10
237.9105022174
 20
110.1869521802
 10
237.8717513182
 20
109.5737691069
 10
237.9873928909
 20
108.9758939889
 10
238.2501607501
 20
108.4308935187
 10
238.6435442248
 20
107.9730120802
 10
239.1428255846
 20
107.6310200483
 10
239.7166331455
 20
107.4264060399
 10
240.3289124679
 20
107.3720267057
  0
LINE
  5
152
330
1F
100
AcDbEntity
  8
0
  6
HIDDEN
 62
     7
370
     0
100
AcDbLine
 10
242.4782166761
 20
93.2785304751
 30
0.0
 11
241.1515445987
 21
94.8428437394
 31
0.0
  0
SPLINE
  5
153
330
1F
100
AcDbEntity
  8
0
  6
HIDDEN
 62
     7
370
     0
100
AcDbSpline
210
0.0
220
0.0
230
1.0
 70
     8
 71
     3
 72
    44
 73
    40
 74
     0
 42
0.00000001
 43
0.00000001
 12
1.0
 22
0.0
 32
0.0
 13
1.0
 23
0.0
 33
0.0
 40
0.0
 40
0.0
 40
0.0
 40
0.0
 40
0.062500000000002
 40
0.062500000000002
 40
0.093750000000002
 40
0.093750000000002
 40
0.1250000000000019
 40
0.1250000000000019
 40
0.1562500000000019
 40
0.1562500000000019
 40
0.1875000000000019
 40
0.1875000000000019
 40
0.2187500000000019
 40
0.2187500000000019
 40
0.2500000000000018
 40
0.2500000000000018
 40
0.3125000000000016
 40
0.3125000000000016
 40
0.3750000000000013
 40
0.3750000000000013
 40
0.437500000000001
 40
0.437500000000001
 40
0.5000000000000009
 40
0.5000000000000009
 40
0.5625000000000008
 40
0.5625000000000008
 40
0.6250000000000007
 40
0.6250000000000007
 40
0.6875000000000006
 40
0.6875000000000006
 40
0.7500000000000004
 40
0.7500000000000004
 40
0.8125000000000003
 40
0.8125000000000003
 40
0.8750000000000002
 40
0.8750000000000002
 40
0.9375000000000001
 40
0.9375000000000001
 40
1.0
 40
1.0
 40
1.0
 40
1.0
 10
237.8052614263977
 20
110.008993551767
 30
0.0
 10
237.6203190797707
 20
110.0464575350038
 30
0.0
 10
237.4394975101506
 20
110.0999059194642
 30
0.0
 10
237.16859839701
 20
110.2049465402512
 30
0.0
 10
237.0784061400407
 20
110.2441727961322
 30
0.0
 10
236.8989026437841
 20
110.3311269719422
 30
0.0
 10
236.8080973640735
 20
110.379664245789
 30
0.0
 10
236.632771672133
 20
110.4832005656727
 30
0.0
 10
236.5471404873947
 20
110.5390465875535
 30
0.0
 10
236.398518090247
 20
110.6465896235307
 30
0.0
 10
236.3339057073313
 20
110.6992365777891
 30
0.0
 10
236.2231490035179
 20
110.8002560664803
 30
0.0
 10
236.1751926152807
 20
110.8501353487215
 30
0.0
 10
236.0903924307188
 20
110.9498099008199
 30
0.0
 10
236.0533161737762
 20
110.9998154569501
 30
0.0
 10
235.9534167697481
 20
111.1537073000101
 30
0.0
 10
235.9017199143201
 20
111.2614769631175
 30
0.0
 10
235.8227499173609
 20
111.4959069781097
 30
0.0
 10
235.7962950687421
 20
111.6213725756715
 30
0.0
 10
235.7711700838664
 20
111.8881647747606
 30
0.0
 10
235.772189522893
 20
112.0300863891105
 30
0.0
 10
235.8076937937061
 20
112.3374316654778
 30
0.0
 10
235.8422680220027
 20
112.5004450215957
 30
0.0
 10
235.9500551983297
 20
112.8386125128929
 30
0.0
 10
236.0243620662795
 20
113.0155270343929
 30
0.0
 10
236.2084883560242
 20
113.3613095859302
 30
0.0
 10
236.3218224667588
 20
113.5359525530869
 30
0.0
 10
236.5696534364175
 20
113.8553213975091
 30
0.0
 10
236.7073621664891
 20
114.004679396835
 30
0.0
 10
236.9863642960534
 20
114.2645439652047
 30
0.0
 10
237.1305207326432
 20
114.378106808582
 30
0.0
 10
237.4095678009905
 20
114.5678090670498
 30
0.0
 10
237.5469745704665
 20
114.6460804019933
 30
0.0
 10
237.8130132055761
 20
114.7743535023888
 30
0.0
 10
237.9390824544735
 20
114.8231933252479
 30
0.0
 10
238.1773955625218
 20
114.8983579023393
 30
0.0
 10
238.2901272047341
 20
114.9244796708826
 30
0.0
 10
238.494475521355
 20
114.9610771227971
 30
0.0
 10
238.5864379522872
 20
114.9703806326819
 30
0.0
 10
238.6510633724222
 20
114.982629783716
 30
0.0
  0
SPLINE
  5
154
330
1F
100
AcDbEntity
  8
0
  6
HIDDEN
 62
     7
370
     0
100
AcDbSpline
210
0.0
220
0.0
230
1.0
 70
     8
 71
     3
 72
     8
 73
     4
 74
     0
 42
0.00000001
 43
0.00000001
 12
1.0
 22
0.0
 32
0.0
 13
1.0
 23
0.0
 33
0.0
 40
0.0
 40
0.0
 40
0.0
 40
0.0
 40
1.0
 40
1.0
 40
1.0
 40
1.0
 10
238.3879200883842
 20
109.8117743169328
 30
0.0
 10
238.1735055869003
 20
109.8614717736269
 30
0.0
 10
237.975676931265
 20
109.9315226756
 30
0.0
 10
237.8052614263977
 20
110.008993551767
 30
0.0
  0
SPLINE
  5
155
330
1F
100
AcDbEntity
  8
0
  6
HIDDEN
 62
     7
370
     0
100
AcDbSpline
210
0.0
220
0.0
230
1.0
 70
     8
 71
     3
 72
    24
 73
    20
 74
     0
 42
0.00000001
 43
0.00000001
 12
1.0
 22
0.0
 32
0.0
 13
1.0
 23
0.0
 33
0.0
 40
0.0
 40
0.0
 40
0.0
 40
0.0
 40
0.125
 40
0.125
 40
0.25
 40
0.25
 40
0.375
 40
0.375
 40
0.5
 40
0.5
 40
0.5625
 40
0.5625
 40
0.625
 40
0.625
 40
0.75
 40
0.75
 40
0.875
 40
0.875
 40
1.0
 40
1.0
 40
1.0
 40
1.0
 10
240.6066621737772
 20
113.0315302677568
 30
0.0
 10
240.6694478643819
 20
112.8496024129335
 30
0.0
 10
240.7143420182418
 20
112.664569352019
 30
0.0
 10
240.7666786085042
 20
112.2862404789738
 30
0.0
 10
240.7737961585213
 20
112.0904657754631
 30
0.0
 10
240.7429588280926
 20
111.7038838518193
 30
0.0
 10
240.7053625402407
 20
111.511589749293
 30
0.0
 10
240.5791743011025
 20
111.1362609823915
 30
0.0
 10
240.4932156114302
 20
110.9604342846264
 30
0.0
 10
240.3283123867336
 20
110.7153104989438
 30
0.0
 10
240.266711906772
 20
110.6362144406491
 30
0.0
 10
240.1352105505807
 20
110.4897377404241
 30
0.0
 10
240.0650402553456
 20
110.4217707522134
 30
0.0
 10
239.8417751076855
 20
110.2330173092974
 30
0.0
 10
239.6747006865018
 20
110.1273531330561
 30
0.0
 10
239.3267952029972
 20
109.9640602868351
 30
0.0
 10
239.1419805768776
 20
109.9042513322186
 30
0.0
 10
238.7693085326698
 20
109.8278479378996
 30
0.0
 10
238.5803744951293
 20
109.8103023479801
 30
0.0
 10
238.3879200883841
 20
109.8117743169328
 30
0.0
  0
SPLINE
  5
156
330
1F
100
AcDbEntity
  8
0
  6
HIDDEN
 62
     7
370
     0
100
AcDbSpline
210
0.0
220
0.0
230
1.0
 70
     8
 71
     3
 72
     8
 73
     4
 74
     0
 42
0.00000001
 43
0.00000001
 12
1.0
 22
0.0
 32
0.0
 13
1.0
 23
0.0
 33
0.0
 40
0.0
 40
0.0
 40
0.0
 40
0.0
 40
1.0
 40
1.0
 40
1.0
 40
1.0
 10
240.2529526536243
 20
113.6622515530793
 30
0.0
 10
240.366609552402
 20
113.4905500523826
 30
0.0
 10
240.4933920866515
 20
113.2766037970776
 30
0.0
 10
240.6066621737773
 20
113.0315302677568
 30
0.0
  0
SPLINE
  5
157
330
1F
100
AcDbEntity
  8
0
  6
HIDDEN
 62
     7
370
     0
100
AcDbSpline
210
0.0
220
0.0
230
1.0
 70
     8
 71
     3
 72
     8
 73
     4
 74
     0
 42
0.00000001
 43
0.00000001
 12
1.0
 22
0.0
 32
0.0
 13
1.0
 23
0.0
 33
0.0
 40
0.0
 40
0.0
 40
0.0
 40
0.0
 40
1.0
 40
1.0
 40
1.0
 40
1.0
 10
240.0191046764093
 20
114.0268100746104
 30
0.0
 10
240.0984376636954
 20
113.9172238251206
 30
0.0
 10
240.1788146938346
 20
113.7942301501948
 30
0.0
 10
240.2529526536242
 20
113.6622515530795
 30
0.0
  0
ARC
  5
158
330
1F
100
AcDbEntity
  8
0
  6
HIDDEN
 62
     7
370
     0
100
AcDbCircle
 10
238.0818933945
 20
112.7110589205
 30
0.0
 40
2.341791760657332
100
AcDbArc
 50
34.1842914169
 51
75.9334392721
  0
LINE
  5
159
330
1F
100
AcDbEntity
  8
0
  6
HIDDEN
 62
     7
370
     0
100
AcDbLine
 10
250.3507369528
 20
96.7755039481
 30
0.0
 11
254.5992004395
 21
88.1578806753
 31
0.0
  0
LINE
  5
15A
330
1F
100
AcDbEntity
  8
0
  6
HIDDEN
 62
     7
370
     0
100
AcDbLine
 10
254.3832766337
 20
87.9486675508
 30
0.0
 11
254.5992004395
 21
88.1578806753
 31
0.0
  0
LWPOLYLINE
  5
15B
330
1F
100
AcDbEntity
  8
0
  6
HIDDEN
 62
     7
370
     0
100
AcDbPolyline
 90
       26
 70
   128
 43
0.0
 10
245.0349274407
 20
95.3657334842
 10
245.6227155902
 20
95.4610347902
 10
246.1735708486
 20
95.6978534313
 10
246.652880954
 20
96.0613092214
 10
247.0305290898
 20
96.5285648965
 10
247.2827862346
 20
97.070261064
 10
247.3938021444
 20
97.6523609617
 10
247.3566012812
 20
98.238289112
 10
247.1735211121
 20
98.7912294944
 10
246.8560652374
 20
99.2764388311
 10
246.4241805772
 20
99.663429635
 10
245.9050040332
 20
99.9278858506
 10
245.331157377
 20
100.0531907214
 10
244.7386975044
 20
100.0314708813
 10
244.1648508482
 20
99.864091068
 10
243.6456743041
 20
99.5615683705
 10
243.213789644
 20
99.1429114027
 10
242.8963337693
 20
98.6344259215
 10
242.7132536002
 20
98.0680619397
 10
242.676052737
 20
97.4794061893
 10
242.7870686468
 20
96.905446076
 10
243.0393257916
 20
96.3822456246
 10
243.4169739274
 20
95.9426794437
 10
243.8962840328
 20
95.614367093
 10
244.4471392912
 20
95.417937645
 10
245.0349274407
 20
95.3657334842
  0
LINE
  5
15C
330
1F
100
AcDbEntity
  8
0
  6
HIDDEN
 62
     7
370
     0
100
AcDbLine
 10
241.1515445987
 20
94.8428437394
 30
0.0
 11
254.3832766337
 21
87.9486675508
 31
0.0
  0
ARC
  5
15D
330
1F
100
AcDbEntity
  8
0
  6
HIDDEN
 62
     7
370
     0
100
AcDbCircle
 10
272.2603924157
 20
107.5714548379
 30
0.0
 40
24.42510098480066
100
AcDbArc
 50
195.2451265161
 51
206.2317059004
  0
LINE
  5
15E
330
1F
100
AcDbEntity
  8
0
  6
HIDDEN
 62
     7
370
     0
100
AcDbLine
 10
237.4863508478
 20
102.2773571973
 30
0.0
 11
241.1515445987
 21
94.8428437394
 31
0.0
  0
LINE
  5
15F
330
1F
100
AcDbEntity
  8
0
  6
HIDDEN
 62
     7
370
     0
100
AcDbLine
 10
248.6948182248
 20
101.148895288
 30
0.0
 11
234.2788862589
 21
108.6600793592
 31
0.0
  0
LWPOLYLINE
  5
160
330
1F
100
AcDbEntity
  8
0
  6
HIDDEN
 62
     7
370
     0
100
AcDbPolyline
 90
       17
 70
   128
 43
0.0
 10
240.2529526536
 20
113.6622515531
 10
240.2232106859
 20
113.9503894361
 10
240.0934488399
 20
114.1108336935
 10
239.8722785123
 20
114.1329367489
 10
239.574377249
 20
114.0152317754
 10
239.2195146976
 20
113.7655300383
 10
238.8312406327
 20
113.4004025159
 10
238.4353221201
 20
112.9440801981
 10
238.0580335347
 20
112.4268460428
 10
237.724412912
 20
111.8830253055
 10
237.4566003467
 20
111.3487076095
 10
237.2723687074
 20
110.8593519268
 10
237.1839441746
 20
110.4474334117
 10
237.1971948734
 20
110.1402882484
 10
237.3112414463
 20
109.9582995385
 10
237.5185154107
 20
109.9135446147
 10
237.8052614264
 20
110.0089935518
  0
SPLINE
  5
161
330
1F
100
AcDbEntity
  8
0
  6
HIDDEN
 62
     7
370
     0
100
AcDbSpline
210
0.0
220
0.0
230
1.0
 70
     8
 71
     3
 72
    10
 73
     6
 74
     0
 42
0.00000001
 43
0.00000001
 12
1.0
 22
0.0
 32
0.0
 13
1.0
 23
0.0
 33
0.0
 40
0.0
 40
0.0
 40
0.0
 40
0.0
 40
0.5
 40
0.5
 40
1.0
 40
1.0
 40
1.0
 40
1.0
 10
238.6510633724222
 20
114.9826297837158
 30
0.0
 10
238.8737925769895
 20
114.8444487456995
 30
0.0
 10
239.0989942292602
 20
114.6962250741129
 30
0.0
 10
239.5572763161
 20
114.3772312959697
 30
0.0
 10
239.7909445570481
 20
114.2057681236715
 30
0.0
 10
240.0191046764098
 20
114.0268100746096
 30
0.0
  0
LWPOLYLINE
  5
162
330
1F
100
AcDbEntity
  8
0
  6
HIDDEN
 62
     7
370
     0
100
AcDbPolyline
 90
       21
 70
   128
 43
0.0
 10
244.9046913074
 20
96.2529089685
 10
245.406823155
 20
96.3503093628
 10
245.8598028388
 20
96.5961595666
 10
246.2192895513
 20
96.9663940492
 10
246.4500942283
 20
97.4247716797
 10
246.5296240999
 20
97.926423262
 10
246.4500942283
 20
98.4222436441
 10
246.2192895513
 20
98.8636984723
 10
245.8598028388
 20
99.2075750722
 10
245.406823155
 20
99.4202124064
 10
244.9046913074
 20
99.480796051
 10
244.4025594599
 20
99.3833956567
 10
243.9495797761
 20
99.1375454529
 10
243.5900930636
 20
98.7673109704
 10
243.3592883866
 20
98.3089333398
 10
243.279758515
 20
97.8072817575
 10
243.3592883866
 20
97.3114613754
 10
243.5900930636
 20
96.8700065472
 10
243.9495797761
 20
96.5261299473
 10
244.4025594599
 20
96.3134926131
 10
244.9046913074
 20
96.2529089685
  0
LWPOLYLINE
  5
163
330
1F
100
AcDbEntity
  8
0
  6
HIDDEN
 62
     7
370
     0
100
AcDbPolyline
 90
       21
 70
   128
 43
0.0
 10
243.0379733975
 20
98.4540042029
 10
243.5401052451
 20
98.5514045972
 10
243.9930849289
 20
98.797254801
 10
244.3525716414
 20
99.1674892835
 10
244.5833763183
 20
99.6258669141
 10
244.66290619
 20
100.1275184964
 10
244.5833763183
 20
100.6233388785
 10
244.3525716414
 20
101.0647937067
 10
243.9930849289
 20
101.4086703066
 10
243.5401052451
 20
101.6213076408
 10
243.0379733975
 20
101.6818912854
 10
242.5358415499
 20
101.5844908911
 10
242.0828618661
 20
101.3386406873
 10
241.7233751537
 20
100.9684062047
 10
241.4925704767
 20
100.5100285742
 10
241.4130406051
 20
100.0083769919
 10
241.4925704767
 20
99.5125566098
 10
241.7233751537
 20
99.0711017816
 10
242.0828618661
 20
98.7272251817
 10
242.5358415499
 20
98.5145878475
 10
243.0379733975
 20
98.4540042029
  0
LINE
  5
164
330
1F
100
AcDbEntity
  8
0
  6
HIDDEN
 62
     7
370
     0
100
AcDbLine
 10
155.0853183729
 20
115.6036432297
 30
0.0
 11
155.0853183729
 21
109.5493326622
 31
0.0
  0
LINE
  5
165
330
1F
100
AcDbEntity
  8
0
  6
HIDDEN
 62
     7
370
     0
100
AcDbLine
 10
153.5853183729
 20
116.0366559316
 30
0.0
 11
153.5853183729
 21
110.415358066
 31
0.0
  0
LINE
  5
166
330
1F
100
AcDbEntity
  8
0
  6
HIDDEN
 62
     7
370
     0
100
AcDbLine
 10
189.3853183729
 20
115.1727755356
 30
0.0
 11
189.3853183729
 21
108.6875972739
 31
0.0
  0
SPLINE
  5
167
330
1F
100
AcDbEntity
  8
0
  6
HIDDEN
 62
     7
370
     0
100
AcDbSpline
210
0.0
220
0.0
230
1.0
 70
     8
 71
     3
 72
    16
 73
    12
 74
     0
 42
0.00000001
 43
0.00000001
 12
1.0
 22
0.0
 32
0.0
 13
1.0
 23
0.0
 33
0.0
 40
0.0
 40
0.0
 40
0.0
 40
0.0
 40
0.2500000000000007
 40
0.2500000000000007
 40
0.3750000000000007
 40
0.3750000000000007
 40
0.5000000000000008
 40
0.5000000000000008
 40
0.7500000000000003
 40
0.7500000000000003
 40
1.0
 40
1.0
 40
1.0
 40
1.0
 10
190.2639980293849
 20
114.1237894322149
 30
0.0
 10
190.1027655519005
 20
113.4093952700228
 30
0.0
 10
189.9822857122608
 20
112.7560530073141
 30
0.0
 10
189.8599051949475
 20
111.8677977655102
 30
0.0
 10
189.82892753455
 20
111.5871172291584
 30
0.0
 10
189.7873137969221
 20
111.0580832393184
 30
0.0
 10
189.7770778839893
 20
110.8147622607399
 30
0.0
 10
189.7768894869332
 20
110.1467395702267
 30
0.0
 10
189.8170341895708
 20
109.7830586608073
 30
0.0
 10
189.9811879445104
 20
109.2231677882589
 30
0.0
 10
190.1027395949199
 20
109.0356464961418
 30
0.0
 10
190.2639980293849
 20
108.9376151034538
 30
0.0
  0
SPLINE
  5
168
330
1F
100
AcDbEntity
  8
0
  6
HIDDEN
 62
     7
370
     0
100
AcDbSpline
210
0.0
220
0.0
230
1.0
 70
     8
 71
     3
 72
    16
 73
    12
 74
     0
 42
0.00000001
 43
0.00000001
 12
1.0
 22
0.0
 32
0.0
 13
1.0
 23
0.0
 33
0.0
 40
0.0
 40
0.0
 40
0.0
 40
0.0
 40
0.2499999999999997
 40
0.2499999999999997
 40
0.3749999999999997
 40
0.3749999999999997
 40
0.4999999999999998
 40
0.4999999999999998
 40
0.7499999999999999
 40
0.7499999999999999
 40
1.0
 40
1.0
 40
1.0
 40
1.0
 10
190.2639980293849
 20
152.4777770134581
 30
0.0
 10
190.1027655519005
 20
152.3797614004033
 30
0.0
 10
189.9822857122608
 20
152.1930253687273
 30
0.0
 10
189.8599051949475
 20
151.7799855611684
 30
0.0
 10
189.82892753455
 20
151.6199850619355
 30
0.0
 10
189.7873137969221
 20
151.2531794108443
 30
0.0
 10
189.7770778839893
 20
151.0498422582203
 30
0.0
 10
189.7768894869332
 20
150.3825549915936
 30
0.0
 10
189.8170341895708
 20
149.8617405277056
 30
0.0
 10
189.9811879445104
 20
148.6643815122279
 30
0.0
 10
190.1027395949199
 20
148.0061118579319
 30
0.0
 10
190.2639980293849
 20
147.291602684697
 30
0.0
  0
LINE
  5
169
330
1F
100
AcDbEntity
  8
0
  6
HIDDEN
 62
     7
370
     0
100
AcDbLine
 10
189.3853183729
 20
152.727794843
 30
0.0
 11
189.3853183729
 21
146.2426165813
 31
0.0
  0
LINE
  5
16A
330
1F
100
AcDbEntity
  8
0
  6
HIDDEN
 62
     7
370
     0
100
AcDbLine
 10
155.0853183729
 20
151.8660594547
 30
0.0
 11
155.0853183729
 21
145.8117488872
 31
0.0
  0
LINE
  5
16B
330
1F
100
AcDbEntity
  8
0
  6
HIDDEN
 62
     7
370
     0
100
AcDbLine
 10
153.5853183729
 20
151.000034051
 30
0.0
 11
153.5853183729
 21
145.3787361853
 31
0.0
  0
LINE
  5
16C
330
1F
100
AcDbEntity
  8
0
  6
HIDDEN
 62
     7
370
     0
100
AcDbLine
 10
254.5992004395
 20
88.1578806753
 30
0.0
 11
252.9882835638
 21
90.0573543126
 31
0.0
  0
LINE
  5
16D
330
1F
100
AcDbEntity
  8
0
  6
HIDDEN
 62
     7
370
     0
100
AcDbLine
 10
252.938773408
 20
89.6519185612
 30
0.0
 11
254.3832766337
 21
87.9486675508
 31
0.0
  0
SPLINE
  5
16E
330
1F
100
AcDbEntity
  8
0
  6
HIDDEN
 62
     7
370
     0
100
AcDbSpline
210
0.0
220
0.0
230
1.0
 70
     8
 71
     3
 72
    10
 73
     6
 74
     0
 42
0.00000001
 43
0.00000001
 12
1.0
 22
0.0
 32
0.0
 13
1.0
 23
0.0
 33
0.0
 40
0.0
 40
0.0
 40
0.0
 40
0.0
 40
0.5
 40
0.5
 40
1.0
 40
1.0
 40
1.0
 40
1.0
 10
229.783917211255
 20
99.47611965305407
 30
0.0
 10
229.8552647572507
 20
100.2168140545969
 30
0.0
 10
230.1501517452768
 20
100.891189383271
 30
0.0
 10
231.0935557555649
 20
101.9842923347685
 30
0.0
 10
231.7367474804323
 20
102.4035898596155
 30
0.0
 10
232.4890802994998
 20
102.6296488706371
 30
0.0
  0
LWPOLYLINE
  5
16F
330
1F
100
AcDbEntity
  8
0
  6
HIDDEN
 62
     7
370
     0
100
AcDbPolyline
 90
       22
 70
   128
 43
0.0
 10
240.6066621738
 20
113.0315302678
 10
240.7512222023
 20
113.5178565306
 10
240.7997732265
 20
113.9160007611
 10
240.7497233554
 20
114.2047080756
 10
240.6037444958
 20
114.3685658678
 10
240.3696297121
 20
114.3988266084
 10
240.0598771948
 20
114.2938748312
 10
239.6910230461
 20
114.0593133747
 10
239.282758502
 20
113.7076642751
 10
238.8568787178
 20
113.2577002787
 10
238.4361192363
 20
112.7334426613
 10
238.0429422536
 20
112.1628788548
 10
237.6983374774
 20
111.5764683421
 10
237.4207015935
 20
111.0055165801
 10
237.2248561616
 20
110.4805037625
 10
237.1212563671
 20
110.0294576376
 10
237.1154328732
 20
109.6764572504
 10
237.2076965663
 20
109.4403474857
 10
237.39312196
 20
109.3337330359
 10
237.661810141
 20
109.3623055009
 10
237.9994172221
 20
109.5245395431
 10
238.3879200884
 20
109.8117743169
  0
SPLINE
  5
170
330
1F
100
AcDbEntity
  8
0
  6
HIDDEN
 62
     7
370
     0
100
AcDbSpline
210
0.0
220
0.0
230
1.0
 70
     8
 71
     3
 72
    50
 73
    46
 74
     0
 42
0.00000001
 43
0.00000001
 12
1.0
 22
0.0
 32
0.0
 13
1.0
 23
0.0
 33
0.0
 40
0.0
 40
0.0
 40
0.0
 40
0.0
 40
0.0625000000000003
 40
0.0625000000000003
 40
0.1250000000000005
 40
0.1250000000000005
 40
0.1875000000000008
 40
0.1875000000000008
 40
0.2500000000000011
 40
0.2500000000000011
 40
0.3125000000000013
 40
0.3125000000000013
 40
0.3750000000000016
 40
0.3750000000000016
 40
0.4062500000000016
 40
0.4062500000000016
 40
0.4375000000000016
 40
0.4375000000000016
 40
0.4687500000000017
 40
0.4687500000000017
 40
0.5000000000000017
 40
0.5000000000000017
 40
0.5312500000000017
 40
0.5312500000000017
 40
0.5625000000000017
 40
0.5625000000000017
 40
0.5937500000000018
 40
0.5937500000000018
 40
0.6250000000000018
 40
0.6250000000000018
 40
0.6562500000000018
 40
0.6562500000000018
 40
0.6875000000000018
 40
0.6875000000000018
 40
0.7500000000000013
 40
0.7500000000000013
 40
0.812500000000001
 40
0.812500000000001
 40
0.8750000000000006
 40
0.8750000000000006
 40
0.9375000000000002
 40
0.9375000000000002
 40
0.9687500000000001
 40
0.9687500000000001
 40
1.0
 40
1.0
 40
1.0
 40
1.0
 10
246.1808717852184
 20
109.6392798227165
 30
0.0
 10
246.2282138455377
 20
109.3140456368285
 30
0.0
 10
246.2691750073626
 20
108.9604957538634
 30
0.0
 10
246.3506806479453
 20
108.2094970241782
 30
0.0
 10
246.389312773435
 20
107.8290702094045
 30
0.0
 10
246.4696108527503
 20
107.0629481307412
 30
0.0
 10
246.5098057325725
 20
106.6906664592575
 30
0.0
 10
246.5931482522458
 20
105.9654194967867
 30
0.0
 10
246.6366706863497
 20
105.609556104667
 30
0.0
 10
246.7229994388046
 20
104.9419436533106
 30
0.0
 10
246.7661546925318
 20
104.6271491969975
 30
0.0
 10
246.8481753195465
 20
104.0383862130661
 30
0.0
 10
246.8862088991456
 20
103.7711367151918
 30
0.0
 10
246.9299842821677
 20
103.4254739461044
 30
0.0
 10
246.9423914908726
 20
103.3186630237136
 30
0.0
 10
246.9593478856565
 20
103.1332086906747
 30
0.0
 10
246.9639980082043
 20
103.0541483527319
 30
0.0
 10
246.961636448909
 20
102.9311127822298
 30
0.0
 10
246.9544502798752
 20
102.8880681959844
 30
0.0
 10
246.924061814076
 20
102.8519117990883
 30
0.0
 10
246.9001939862197
 20
102.8592653998652
 30
0.0
 10
246.8360765593375
 20
102.9302769802378
 30
0.0
 10
246.7948863395661
 20
102.9948475001793
 30
0.0
 10
246.7003745850119
 20
103.172672446545
 30
0.0
 10
246.6470499495804
 20
103.2856986745214
 30
0.0
 10
246.5354894434065
 20
103.5435109155678
 30
0.0
 10
246.4780400875882
 20
103.6862386824834
 30
0.0
 10
246.3620421478423
 20
103.993251159893
 30
0.0
 10
246.3034859985146
 20
104.1578124763578
 30
0.0
 10
246.190687915326
 20
104.4938649009434
 30
0.0
 10
246.1358620915101
 20
104.6668710749449
 30
0.0
 10
246.0299839283958
 20
105.0215250656401
 30
0.0
 10
245.978646481111
 20
105.2043103893282
 30
0.0
 10
245.8337867616487
 20
105.7551001426941
 30
0.0
 10
245.7491469106679
 20
106.1254160375958
 30
0.0
 10
245.6049112242399
 20
106.8724202926099
 30
0.0
 10
245.5452925759353
 20
107.251635262422
 30
0.0
 10
245.4580095632214
 20
107.9837461696149
 30
0.0
 10
245.4294077923545
 20
108.3405355267098
 30
0.0
 10
245.4040526406934
 20
109.0315752033483
 30
0.0
 10
245.4078520806945
 20
109.3559928267997
 30
0.0
 10
245.4372248951874
 20
109.7945969412689
 30
0.0
 10
245.4511230619859
 20
109.9339991415873
 30
0.0
 10
245.4860397150575
 20
110.1879967895415
 30
0.0
 10
245.5070353330823
 20
110.3032591737823
 30
0.0
 10
245.5313523965281
 20
110.4051448864687
 30
0.0
  0
ELLIPSE
  5
171
330
1F
100
AcDbEntity
  8
0
  6
HIDDEN
 62
     7
370
     0
100
AcDbEllipse
 10
245.8411877035
 20
107.2052603544
 30
0.0
 11
-0.07046115653542982
 21
3.651938161779071
 31
0.0
210
0.0
220
0.0
230
1.0
 40
0.1416183515
 41
5.439158297090954
 42
6.783303914987782
  0
LINE
  5
172
330
1F
100
AcDbEntity
  8
0
  6
HIDDEN
 62
     7
370
     0
100
AcDbLine
 10
153.5853183729
 20
145.3787361853
 30
0.0
 11
153.5853183729
 21
133.6096833914
 31
0.0
  0
LINE
  5
173
330
1F
100
AcDbEntity
  8
0
  6
HIDDEN
 62
     7
370
     0
100
AcDbLine
 10
153.5853183729
 20
127.8057087255
 30
0.0
 11
153.5853183729
 21
116.0366559316
 31
0.0
  0
SPLINE
  5
174
330
1F
100
AcDbEntity
  8
0
  6
HIDDEN
 62
     7
370
     0
100
AcDbSpline
210
0.0
220
0.0
230
1.0
 70
     8
 71
     3
 72
     8
 73
     4
 74
     0
 42
0.00000001
 43
0.00000001
 12
1.0
 22
0.0
 32
0.0
 13
1.0
 23
0.0
 33
0.0
 40
0.0
 40
0.0
 40
0.0
 40
0.0
 40
1.0
 40
1.0
 40
1.0
 40
1.0
 10
232.4890802994998
 20
102.6296488706371
 30
0.0
 10
232.4845018370361
 20
102.7743317519281
 30
0.0
 10
232.479894860029
 20
102.9198281302717
 30
0.0
 10
232.4752591581814
 20
103.0661413415201
 30
0.0
  0
ELLIPSE
  5
175
330
1F
100
AcDbEntity
  8
0
  6
HIDDEN
 62
     7
370
     0
100
AcDbEllipse
 10
295.8842685672
 20
125.7076960585
 30
0.0
 11
42.36497817157283
 21
38.39272476424022
 31
0.0
210
0.0
220
0.0
230
1.0
 40
0.1868161121
 41
2.916046710237461
 42
2.941638917776254
  0
ELLIPSE
  5
176
330
1F
100
AcDbEntity
  8
0
  6
HIDDEN
 62
     7
370
     0
100
AcDbEllipse
 10
235.8067308116
 20
125.7076960585
 30
0.0
 11
-20.23561704217289
 21
39.18359148628072
 31
0.0
210
0.0
220
0.0
230
1.0
 40
0.0560442098
 41
2.176286265078756
 42
2.683814849116098
  0
ELLIPSE
  5
177
330
1F
100
AcDbEntity
  8
0
  6
HIDDEN
 62
     7
370
     0
100
AcDbEllipse
 10
184.7062206856
 20
125.7076960585
 30
0.0
 11
71.20316909743011
 21
-39.05431468797896
 31
0.0
210
0.0
220
0.0
230
1.0
 40
0.0474201264
 41
0.3170095824924757
 42
0.8049133861423684
  0
SPLINE
  5
178
330
1F
100
AcDbEntity
  8
0
  6
HIDDEN
 62
     7
370
     0
100
AcDbSpline
210
0.0
220
0.0
230
1.0
 70
     8
 71
     3
 72
     8
 73
     4
 74
     0
 42
0.00000001
 43
0.00000001
 12
1.0
 22
0.0
 32
0.0
 13
1.0
 23
0.0
 33
0.0
 40
0.0
 40
0.0
 40
0.0
 40
0.0
 40
1.0
 40
1.0
 40
1.0
 40
1.0
 10
245.1895955158639
 20
103.0661413415201
 30
0.0
 10
245.2978490292357
 20
102.8668209255308
 30
0.0
 10
245.4075155792224
 20
102.669217676282
 30
0.0
 10
245.5185219561898
 20
102.4732932840732
 30
0.0
  0
SPLINE
  5
179
330
1F
100
AcDbEntity
  8
0
  6
HIDDEN
 62
     7
370
     0
100
AcDbSpline
210
0.0
220
0.0
230
1.0
 70
     8
 71
     3
 72
     8
 73
     4
 74
     0
 42
0.00000001
 43
0.00000001
 12
1.0
 22
0.0
 32
0.0
 13
1.0
 23
0.0
 33
0.0
 40
0.0
 40
0.0
 40
0.0
 40
0.0
 40
1.0
 40
1.0
 40
1.0
 40
1.0
 10
232.4890802994998
 20
102.6296488706371
 30
0.0
 10
233.504122849313
 20
102.1570468624546
 30
0.0
 10
234.472287174122
 20
101.6335260312627
 30
0.0
 10
235.3972211853673
 20
101.0699290452421
 30
0.0
  0
LINE
  5
17A
330
1F
100
AcDbEntity
  8
0
  6
HIDDEN
 62
     7
370
     0
100
AcDbLine
 10
155.0853183729
 20
126.7424851616
 30
0.0
 11
155.0853183729
 21
115.6036432297
 31
0.0
  0
LINE
  5
17B
330
1F
100
AcDbEntity
  8
0
  6
HIDDEN
 62
     7
370
     0
100
AcDbLine
 10
155.0853183729
 20
145.8117488872
 30
0.0
 11
155.0853183729
 21
134.6729069553
 31
0.0
  0
LINE
  5
17C
330
1F
100
AcDbEntity
  8
0
  6
HIDDEN
 62
     7
370
     0
100
AcDbLine
 10
189.3853183729
 20
146.2426165813
 30
0.0
 11
189.3853183729
 21
115.1727755356
 31
0.0
  0
LINE
  5
17D
330
1F
100
AcDbEntity
  8
0
  6
HIDDEN
 62
     7
370
     0
100
AcDbLine
 10
191.3853183729
 20
145.7454032209
 30
0.0
 11
191.3853183729
 21
115.669988896
 31
0.0
  0
SPLINE
  5
17E
330
1F
100
AcDbEntity
  8
0
  6
HIDDEN
 62
     7
370
     0
100
AcDbSpline
210
0.0
220
0.0
230
1.0
 70
     8
 71
     3
 72
    24
 73
    20
 74
     0
 42
0.00000001
 43
0.00000001
 12
1.0
 22
0.0
 32
0.0
 13
1.0
 23
0.0
 33
0.0
 40
0.0
 40
0.0
 40
0.0
 40
0.0
 40
0.1250000000000001
 40
0.1250000000000001
 40
0.2500000000000002
 40
0.2500000000000002
 40
0.3750000000000003
 40
0.3750000000000003
 40
0.4375000000000004
 40
0.4375000000000004
 40
0.5000000000000003
 40
0.5000000000000003
 40
0.6250000000000003
 40
0.6250000000000003
 40
0.7500000000000003
 40
0.7500000000000003
 40
0.8750000000000002
 40
0.8750000000000002
 40
1.0
 40
1.0
 40
1.0
 40
1.0
 10
160.0353183729445
 20
126.6217350053567
 30
0.0
 10
160.2731220052196
 20
126.9207421076868
 30
0.0
 10
160.5032076664309
 20
127.2250799590056
 30
0.0
 10
160.9379610650408
 20
127.8508134964015
 30
0.0
 10
161.142893857327
 20
128.1720382237291
 30
0.0
 10
161.5079958078256
 20
128.8439639944618
 30
0.0
 10
161.6697961936171
 20
129.1992792263407
 30
0.0
 10
161.8416563981969
 20
129.7495104476931
 30
0.0
 10
161.887241589857
 20
129.9359142326736
 30
0.0
 10
161.9497163294318
 20
130.3160487347699
 30
0.0
 10
161.9663874751803
 20
130.5117185270557
 30
0.0
 10
161.9669085183568
 20
131.0901989057301
 30
0.0
 10
161.9024662174701
 20
131.4681107446989
 30
0.0
 10
161.6726171240967
 20
132.2100787697974
 30
0.0
 10
161.5140964464337
 20
132.5587942299584
 30
0.0
 10
161.1498621165335
 20
133.2318866276915
 30
0.0
 10
160.9431258764699
 20
133.5568391149331
 30
0.0
 10
160.5051879307295
 20
134.1877629253949
 30
0.0
 10
160.27391520345
 20
134.4936526657356
 30
0.0
 10
160.0353183729447
 20
134.7936571115551
 30
0.0
  0
LINE
  5
17F
330
1F
100
AcDbEntity
  8
0
  6
HIDDEN
 62
     7
370
     0
100
AcDbLine
 10
160.0353183729
 20
126.6217350054
 30
0.0
 11
160.0353183729
 21
134.7936571116
 31
0.0
  0
SPLINE
  5
180
330
1F
100
AcDbEntity
  8
0
  6
HIDDEN
 62
     7
370
     0
100
AcDbSpline
210
0.0
220
0.0
230
1.0
 70
     8
 71
     3
 72
     8
 73
     4
 74
     0
 42
0.00000001
 43
0.00000001
 12
1.0
 22
0.0
 32
0.0
 13
1.0
 23
0.0
 33
0.0
 40
0.0000249638557296
 40
0.0000249638557296
 40
0.0000249638557296
 40
0.0000249638557296
 40
0.0049776420541172
 40
0.0049776420541172
 40
0.0049776420541172
 40
0.0049776420541172
 10
155.0853183729446
 20
126.7424851616194
 30
0.0
 10
156.7352946074541
 20
126.7012059238512
 30
0.0
 10
158.3852959271991
 20
126.6609842426117
 30
0.0
 10
160.0353183729445
 20
126.6217350053567
 30
0.0
  0
SPLINE
  5
181
330
1F
100
AcDbEntity
  8
0
  6
HIDDEN
 62
     7
370
     0
100
AcDbSpline
210
0.0
220
0.0
230
1.0
 70
     8
 71
     3
 72
     8
 73
     4
 74
     0
 42
0.00000001
 43
0.00000001
 12
1.0
 22
0.0
 32
0.0
 13
1.0
 23
0.0
 33
0.0
 40
0.0000249631533153
 40
0.0000249631533153
 40
0.0000249631533153
 40
0.0000249631533153
 40
0.0049776413517028
 40
0.0049776413517028
 40
0.0049776413517028
 40
0.0049776413517028
 10
160.0353183729445
 20
134.7936571115552
 30
0.0
 10
158.3852959271991
 20
134.7544078743002
 30
0.0
 10
156.7352946074541
 20
134.7141861930607
 30
0.0
 10
155.0853183729446
 20
134.6729069552925
 30
0.0
  0
SPLINE
  5
182
330
1F
100
AcDbEntity
  8
0
  6
HIDDEN
 62
     7
370
     0
100
AcDbSpline
210
0.0
220
0.0
230
1.0
 70
     8
 71
     3
 72
     8
 73
     4
 74
     0
 42
0.00000001
 43
0.00000001
 12
1.0
 22
0.0
 32
0.0
 13
1.0
 23
0.0
 33
0.0
 40
0.0
 40
0.0
 40
0.0
 40
0.0
 40
1.0
 40
1.0
 40
1.0
 40
1.0
 10
153.5853183729423
 20
127.8057087254756
 30
0.0
 10
154.0520789843201
 20
127.3903454798526
 30
0.0
 10
154.5578265311002
 20
127.045755050548
 30
0.0
 10
155.0853183729446
 20
126.7424851616194
 30
0.0
  0
SPLINE
  5
183
330
1F
100
AcDbEntity
  8
0
  6
HIDDEN
 62
     7
370
     0
100
AcDbSpline
210
0.0
220
0.0
230
1.0
 70
     8
 71
     3
 72
     8
 73
     4
 74
     0
 42
0.00000001
 43
0.00000001
 12
1.0
 22
0.0
 32
0.0
 13
1.0
 23
0.0
 33
0.0
 40
0.0
 40
0.0
 40
0.0
 40
0.0
 40
1.0
 40
1.0
 40
1.0
 40
1.0
 10
155.0853183729446
 20
134.6729069552925
 30
0.0
 10
154.5578265311011
 20
134.3696370663644
 30
0.0
 10
154.0520789843218
 20
134.0250466370604
 30
0.0
 10
153.5853183729446
 20
133.6096833914383
 30
0.0
  0
LINE
  5
184
330
1F
100
AcDbEntity
  8
0
  6
HIDDEN
 62
     7
370
     0
100
AcDbLine
 10
153.5853183729
 20
127.8057087255
 30
0.0
 11
153.5853183729
 21
133.6096833914
 31
0.0
  0
SPLINE
  5
185
330
1F
100
AcDbEntity
  8
0
  6
HIDDEN
 62
     7
370
     0
100
AcDbSpline
210
0.0
220
0.0
230
1.0
 70
     8
 71
     3
 72
    72
 73
    68
 74
     0
 42
0.00000001
 43
0.00000001
 12
1.0
 22
0.0
 32
0.0
 13
1.0
 23
0.0
 33
0.0
 40
-0.0312500000000001
 40
-0.0312500000000001
 40
0.0
 40
0.0
 40
0.03125
 40
0.03125
 40
0.0624999999999999
 40
0.0624999999999999
 40
0.0937499999999999
 40
0.0937499999999999
 40
0.1249999999999998
 40
0.1249999999999998
 40
0.1562499999999998
 40
0.1562499999999998
 40
0.1874999999999997
 40
0.1874999999999997
 40
0.2187499999999997
 40
0.2187499999999997
 40
0.2499999999999996
 40
0.2499999999999996
 40
0.2812499999999996
 40
0.2812499999999996
 40
0.3124999999999995
 40
0.3124999999999995
 40
0.3437499999999994
 40
0.3437499999999994
 40
0.3749999999999994
 40
0.3749999999999994
 40
0.3906249999999994
 40
0.3906249999999994
 40
0.4062499999999994
 40
0.4062499999999994
 40
0.4374999999999994
 40
0.4374999999999994
 40
0.4687499999999994
 40
0.4687499999999994
 40
0.4999999999999994
 40
0.4999999999999994
 40
0.5312499999999996
 40
0.5312499999999996
 40
0.5624999999999996
 40
0.5624999999999996
 40
0.5937499999999997
 40
0.5937499999999997
 40
0.6249999999999997
 40
0.6249999999999997
 40
0.6562499999999998
 40
0.6562499999999998
 40
0.6874999999999998
 40
0.6874999999999998
 40
0.7187499999999999
 40
0.7187499999999999
 40
0.7499999999999999
 40
0.7499999999999999
 40
0.78125
 40
0.78125
 40
0.8125000000000001
 40
0.8125000000000001
 40
0.84375
 40
0.84375
 40
0.875
 40
0.875
 40
0.9062499999999999
 40
0.9062499999999999
 40
0.9375
 40
0.9375
 40
0.9687499999999999
 40
0.9687499999999999
 40
1.0
 40
1.0
 40
1.03125
 40
1.03125
 10
172.7092646917698
 20
133.1485297082708
 30
0.0
 10
173.0836949116436
 20
133.5588855087559
 30
0.0
 10
173.2885475129092
 20
133.7425345914144
 30
0.0
 10
173.7314157097562
 20
134.0694894949097
 30
0.0
 10
173.9713711270745
 20
134.2132677030896
 30
0.0
 10
174.4669821098491
 20
134.4507850585355
 30
0.0
 10
174.7242484010036
 20
134.5461046234332
 30
0.0
 10
175.2576021688406
 20
134.6901901560677
 30
0.0
 10
175.5318823087389
 20
134.7379261630373
 30
0.0
 10
176.0783108433185
 20
134.7835083035711
 30
0.0
 10
176.3528871617862
 20
134.7820745434988
 30
0.0
 10
176.9048543360569
 20
134.729161235408
 30
0.0
 10
177.1754712986287
 20
134.6781915092038
 30
0.0
 10
177.7017564697078
 20
134.5295848822602
 30
0.0
 10
177.9593880331155
 20
134.4312995115031
 30
0.0
 10
178.455314197789
 20
134.1870461523174
 30
0.0
 10
178.6882978755806
 20
134.0439660212952
 30
0.0
 10
179.1246311509056
 20
133.7161074708264
 30
0.0
 10
179.3299124047639
 20
133.5291138331262
 30
0.0
 10
179.6979467026241
 20
133.1196832133031
 30
0.0
 10
179.8594616926092
 20
132.8995777723187
 30
0.0
 10
180.1366193757564
 20
132.4278276908807
 30
0.0
 10
180.2530135551901
 20
132.1728111644394
 30
0.0
 10
180.4262875918367
 20
131.6515733410425
 30
0.0
 10
180.4847341463025
 20
131.3840892232615
 30
0.0
 10
180.5285988717783
 20
130.9721735639291
 30
0.0
 10
180.5357790884077
 20
130.8324662608536
 30
0.0
 10
180.5348110611123
 20
130.5563432053911
 30
0.0
 10
180.5268082716987
 20
130.4191666390603
 30
0.0
 10
180.4807355397862
 20
130.0102331977971
 30
0.0
 10
180.4198007073342
 20
129.7383069487929
 30
0.0
 10
180.2416805509257
 20
129.2151264323377
 30
0.0
 10
180.1261126395833
 20
128.9664144319744
 30
0.0
 10
179.844265855644
 20
128.4935299069824
 30
0.0
 10
179.6773959102294
 20
128.2699206897503
 30
0.0
 10
179.3080703554306
 20
127.8652633015627
 30
0.0
 10
179.1032851991331
 20
127.6808497133931
 30
0.0
 10
178.6586322516169
 20
127.3518236784987
 30
0.0
 10
178.4237831221061
 20
127.2106556025105
 30
0.0
 10
177.930373359629
 20
126.97224607373
 30
0.0
 10
177.6690864059244
 20
126.8744635173252
 30
0.0
 10
177.1383481254117
 20
126.729135489135
 30
0.0
 10
176.8687084245145
 20
126.6808460989401
 30
0.0
 10
176.3209570847693
 20
126.6324308751534
 30
0.0
 10
176.0410530429106
 20
126.6328890607894
 30
0.0
 10
175.4939751350756
 20
126.6830409163915
 30
0.0
 10
175.2243700303882
 20
126.7322144834236
 30
0.0
 10
174.6932152737322
 20
126.8798890067306
 30
0.0
 10
174.4319204572886
 20
126.9790441710962
 30
0.0
 10
173.9396064791132
 20
127.2200569415729
 30
0.0
 10
173.7056496035346
 20
127.3625450661977
 30
0.0
 10
173.2634809830041
 20
127.6940324951826
 30
0.0
 10
173.0582874518925
 20
127.8814661231709
 30
0.0
 10
172.6925932355345
 20
128.2883698422214
 30
0.0
 10
172.5298226131461
 20
128.5095489168903
 30
0.0
 10
172.2488701823806
 20
128.9892962461056
 30
0.0
 10
172.1356663301071
 20
129.2393082129159
 30
0.0
 10
171.9630576059681
 20
129.7593834229363
 30
0.0
 10
171.9034513232917
 20
130.0331148875661
 30
0.0
 10
171.8455595532219
 20
130.5817325374646
 30
0.0
 10
171.8463490920819
 20
130.8560724013562
 30
0.0
 10
171.9075395676983
 20
131.4048143524951
 30
0.0
 10
171.9686682914323
 20
131.6778796663523
 30
0.0
 10
172.1447479770621
 20
132.1980449151206
 30
0.0
 10
172.2610785720521
 20
132.4503640486796
 30
0.0
 10
172.5442798017928
 20
132.9267683900866
 30
0.0
 10
172.7092646917698
 20
133.1485297082708
 30
0.0
 10
173.0836949116436
 20
133.5588855087559
 30
0.0
  0
CIRCLE
  5
186
330
1F
100
AcDbEntity
  8
0
  6
HIDDEN
 62
     7
370
     0
100
AcDbCircle
 10
176.0853183729
 20
130.7076960585
 30
0.0
 40
4.049999999999983
  0
ELLIPSE
  5
187
330
1F
100
AcDbEntity
  8
0
  6
HIDDEN
 62
     7
370
     0
100
AcDbEllipse
 10
247.3198989525
 20
130.7076960585
 30
0.0
 11
-1.209024632648891
 21
31.99932245370934
 31
0.0
210
0.0
220
0.0
230
1.0
 40
0.1722352441
 41
1.363691612121201
 42
1.564288885469425
  0
ELLIPSE
  5
188
330
1F
100
AcDbEntity
  8
0
  6
HIDDEN
 62
     7
370
     0
100
AcDbEllipse
 10
247.1187203496
 20
130.7076960585
 30
0.0
 11
-23.43589128363038
 21
31.99779097143741
 31
0.0
210
0.0
220
0.0
230
1.0
 40
0.0160435947
 41
0.7540297673247132
 42
1.358448909885118
  0
CIRCLE
  5
189
330
1F
100
AcDbEntity
  8
0
  6
HIDDEN
 62
     7
370
     0
100
AcDbCircle
 10
203.5853183729
 20
130.7076960585
 30
0.0
 40
2.0
  0
LINE
  5
18A
330
1F
100
AcDbEntity
  8
0
  6
HIDDEN
 62
     7
370
     0
100
AcDbLine
 10
245.1895955159
 20
103.0661413415
 30
0.0
 11
232.4752591582
 21
103.0661413415
 31
0.0
  0
SPLINE
  5
18B
330
1F
100
AcDbEntity
  8
0
  6
HIDDEN
 62
     7
370
     0
100
AcDbSpline
210
0.0
220
0.0
230
1.0
 70
     8
 71
     3
 72
     8
 73
     4
 74
     0
 42
0.00000001
 43
0.00000001
 12
1.0
 22
0.0
 32
0.0
 13
1.0
 23
0.0
 33
0.0
 40
0.0
 40
0.0
 40
0.0
 40
0.0
 40
1.0
 40
1.0
 40
1.0
 40
1.0
 10
232.4752591581814
 20
103.0661413415201
 30
0.0
 10
231.1026703175838
 20
110.9025314509052
 30
0.0
 10
230.0452681147488
 20
118.7822687789258
 30
0.0
 10
229.7839172112546
 20
126.7714860327531
 30
0.0
  0
ELLIPSE
  5
18C
330
1F
100
AcDbEntity
  8
0
  6
HIDDEN
 62
     7
370
     0
100
AcDbEllipse
 10
268.8112067317
 20
114.0854766134
 30
0.0
 11
-17.45773393909479
 21
20.58486436131486
 31
0.0
210
0.0
220
0.0
230
1.0
 40
0.9632873408
 41
0.8858048658270324
 42
1.313263111497686
  0
LINE
  5
18D
330
1F
100
AcDbEntity
  8
0
  6
HIDDEN
 62
     7
370
     0
100
AcDbLine
 10
241.8007369325
 20
130.7076960585
 30
0.0
 11
242.4101148227
 21
114.0854766134
 31
0.0
  0
LINE
  5
18E
330
1F
100
AcDbEntity
  8
0
  6
HIDDEN
 62
     7
370
     0
100
AcDbLine
 10
191.5853183729
 20
106.4576960585
 30
0.0
 11
191.6782115918
 21
106.5505892773
 31
0.0
  0
LINE
  5
18F
330
1F
100
AcDbEntity
  8
0
  6
HIDDEN
 62
     7
370
     0
100
AcDbLine
 10
191.6782115918
 20
154.8648028396
 30
0.0
 11
191.5853183729
 21
154.9576960585
 31
0.0
  0
ARC
  5
190
330
1F
100
AcDbEntity
  8
0
  6
HIDDEN
 62
     7
370
     0
100
AcDbCircle
 10
190.9711048106
 20
107.2576960585
 30
0.0
 40
1.000000000000018
100
AcDbArc
 50
315.0
 51
0.0
  0
ARC
  5
191
330
1F
100
AcDbEntity
  8
0
  6
HIDDEN
 62
     7
370
     0
100
AcDbCircle
 10
190.9711048106
 20
107.2576960585
 30
0.0
 40
1.0
100
AcDbArc
 50
0.0
 51
52.1052014664
  0
ARC
  5
192
330
1F
100
AcDbEntity
  8
0
  6
HIDDEN
 62
     7
370
     0
100
AcDbCircle
 10
190.9711048106
 20
154.1576960585
 30
0.0
 40
1.000000000000034
100
AcDbArc
 50
351.8087250651
 51
45.0
  0
ARC
  5
193
330
1F
100
AcDbEntity
  8
0
  6
HIDDEN
 62
     7
370
     0
100
AcDbCircle
 10
190.9711048106
 20
154.1576960585
 30
0.0
 40
1.000000000000034
100
AcDbArc
 50
307.8947985336
 51
351.8087250651
  0
LINE
  5
194
330
1F
100
AcDbEntity
  8
0
  6
HIDDEN
 62
     7
370
     0
100
AcDbLine
 10
191.9711048106
 20
107.2576960585
 30
0.0
 11
191.9711048106
 21
154.1576960585
 31
0.0
  0
LINE
  5
195
330
1F
100
AcDbEntity
  8
0
  6
HIDDEN
 62
     7
370
     0
100
AcDbLine
 10
191.9711048106
 20
107.2576960585
 30
0.0
 11
191.9711048106
 21
154.1576960585
 31
0.0
  0
LINE
  5
196
330
1F
100
AcDbEntity
  8
0
  6
HIDDEN
 62
     7
370
     0
100
AcDbLine
 10
153.5853183729
 20
114.511267214
 30
0.0
 11
155.1155468126
 21
115.3947450155
 31
0.0
  0
LINE
  5
197
330
1F
100
AcDbEntity
  8
0
  6
HIDDEN
 62
     7
370
     0
100
AcDbLine
 10
155.1155468126
 20
146.0206471014
 30
0.0
 11
153.5853183729
 21
146.9041249029
 31
0.0
  0
ARC
  5
198
330
1F
100
AcDbEntity
  8
0
  6
HIDDEN
 62
     7
370
     0
100
AcDbCircle
 10
163.5853183729
 20
116.7076960585
 30
0.0
 40
2.000000000000027
100
AcDbArc
 50
189.9742217944
 51
270.0
  0
ARC
  5
199
330
1F
100
AcDbEntity
  8
0
  6
HIDDEN
 62
     7
370
     0
100
AcDbCircle
 10
163.5853183729
 20
144.7076960585
 30
0.0
 40
2.000000000000032
100
AcDbArc
 50
90.0
 51
170.0257782056
  0
LINE
  5
19A
330
1F
100
AcDbEntity
  8
0
  6
HIDDEN
 62
     7
370
     0
100
AcDbLine
 10
163.5853183729
 20
114.7076960585
 30
0.0
 11
164.5871196878
 21
114.7076960585
 31
0.0
  0
LINE
  5
19B
330
1F
100
AcDbEntity
  8
0
  6
HIDDEN
 62
     7
370
     0
100
AcDbLine
 10
164.5871196878
 20
146.7076960585
 30
0.0
 11
163.5853183729
 21
146.7076960585
 31
0.0
  0
ARC
  5
19C
330
1F
100
AcDbEntity
  8
0
  6
HIDDEN
 62
     7
370
     0
100
AcDbCircle
 10
164.5871196878
 20
116.7076960585
 30
0.0
 40
1.999999999999986
100
AcDbArc
 50
270.0
 51
315.0
  0
ARC
  5
19D
330
1F
100
AcDbEntity
  8
0
  6
HIDDEN
 62
     7
370
     0
100
AcDbCircle
 10
164.5871196878
 20
144.7076960585
 30
0.0
 40
2.0
100
AcDbArc
 50
45.0
 51
90.0
  0
LINE
  5
19E
330
1F
100
AcDbEntity
  8
0
  6
HIDDEN
 62
     7
370
     0
100
AcDbLine
 10
166.0013332502
 20
115.2934824961
 30
0.0
 11
167.4155468126
 21
116.7076960585
 31
0.0
  0
LINE
  5
19F
330
1F
100
AcDbEntity
  8
0
  6
HIDDEN
 62
     7
370
     0
100
AcDbLine
 10
167.4155468126
 20
144.7076960585
 30
0.0
 11
166.0013332502
 21
146.1219096208
 31
0.0
  0
LINE
  5
1A0
330
1F
100
AcDbEntity
  8
0
  6
HIDDEN
 62
     7
370
     0
100
AcDbLine
 10
155.1155468126
 20
115.3947450155
 30
0.0
 11
160.0155468126
 21
116.7076960585
 31
0.0
  0
LINE
  5
1A1
330
1F
100
AcDbEntity
  8
0
  6
HIDDEN
 62
     7
370
     0
100
AcDbLine
 10
160.0155468126
 20
144.7076960585
 30
0.0
 11
155.1155468126
 21
146.0206471014
 31
0.0
  0
LINE
  5
1A2
330
1F
100
AcDbEntity
  8
0
  6
HIDDEN
 62
     7
370
     0
100
AcDbLine
 10
161.6155468126
 20
145.05410622
 30
0.0
 11
161.0155468126
 21
144.7076960585
 31
0.0
  0
LINE
  5
1A3
330
1F
100
AcDbEntity
  8
0
  6
HIDDEN
 62
     7
370
     0
100
AcDbLine
 10
161.0155468126
 20
116.7076960585
 30
0.0
 11
161.6155468126
 21
116.3612858969
 31
0.0
  0
ARC
  5
1A4
330
1F
100
AcDbEntity
  8
0
  6
HIDDEN
 62
     7
370
     0
100
AcDbCircle
 10
180.0853183729
 20
117.2076960585
 30
0.0
 40
0.5
100
AcDbArc
 50
270.0
 51
0.0
  0
ARC
  5
1A5
330
1F
100
AcDbEntity
  8
0
  6
HIDDEN
 62
     7
370
     0
100
AcDbCircle
 10
180.0853183729
 20
144.2076960585
 30
0.0
 40
0.5
100
AcDbArc
 50
0.0
 51
90.0
  0
LINE
  5
1A6
330
1F
100
AcDbEntity
  8
0
  6
HIDDEN
 62
     7
370
     0
100
AcDbLine
 10
167.4155468126
 20
116.7076960585
 30
0.0
 11
180.0853183729
 21
116.7076960585
 31
0.0
  0
LINE
  5
1A7
330
1F
100
AcDbEntity
  8
0
  6
HIDDEN
 62
     7
370
     0
100
AcDbLine
 10
180.0853183729
 20
144.7076960585
 30
0.0
 11
167.4155468126
 21
144.7076960585
 31
0.0
  0
LINE
  5
1A8
330
1F
100
AcDbEntity
  8
0
  6
HIDDEN
 62
     7
370
     0
100
AcDbLine
 10
160.0155468126
 20
116.7076960585
 30
0.0
 11
161.0155468126
 21
116.7076960585
 31
0.0
  0
LINE
  5
1A9
330
1F
100
AcDbEntity
  8
0
  6
HIDDEN
 62
     7
370
     0
100
AcDbLine
 10
161.0155468126
 20
144.7076960585
 30
0.0
 11
160.0155468126
 21
144.7076960585
 31
0.0
  0
LINE
  5
1AA
330
1F
100
AcDbEntity
  8
0
  6
HIDDEN
 62
     7
370
     0
100
AcDbLine
 10
237.7287012967
 20
121.9347190742
 30
0.0
 11
237.1209326749
 21
122.6513547319
 31
0.0
  0
LINE
  5
1AB
330
1F
100
AcDbEntity
  8
0
  6
HIDDEN
 62
     7
370
     0
100
AcDbLine
 10
180.5853183729
 20
120.4576960585
 30
0.0
 11
181.8353183729
 21
121.7076960585
 31
0.0
  0
LINE
  5
1AC
330
1F
100
AcDbEntity
  8
0
  6
HIDDEN
 62
     7
370
     0
100
AcDbLine
 10
181.8353183729
 20
139.7076960585
 30
0.0
 11
180.5853183729
 21
140.9576960585
 31
0.0
  0
LINE
  5
1AD
330
1F
100
AcDbEntity
  8
0
  6
HIDDEN
 62
     7
370
     0
100
AcDbLine
 10
235.1770422996
 20
117.3839583859
 30
0.0
 11
235.7848109214
 21
116.6673227282
 31
0.0
  0
LINE
  5
1AE
330
1F
100
AcDbEntity
  8
0
  6
HIDDEN
 62
     7
370
     0
100
AcDbLine
 10
218.5853183729
 20
139.7076960585
 30
0.0
 11
181.8353183729
 21
139.7076960585
 31
0.0
  0
LINE
  5
1AF
330
1F
100
AcDbEntity
  8
0
  6
HIDDEN
 62
     7
370
     0
100
AcDbLine
 10
181.8353183729
 20
121.7076960585
 30
0.0
 11
218.5853183729
 21
121.7076960585
 31
0.0
  0
LINE
  5
1B0
330
1F
100
AcDbEntity
  8
0
  6
HIDDEN
 62
     7
370
     0
100
AcDbLine
 10
218.5853183729
 20
121.7076960585
 30
0.0
 11
223.9930639442
 21
130.7076960585
 31
0.0
  0
LINE
  5
1B1
330
1F
100
AcDbEntity
  8
0
  6
HIDDEN
 62
     7
370
     0
100
AcDbLine
 10
223.9930639442
 20
130.7076960585
 30
0.0
 11
218.5853183729
 21
139.7076960585
 31
0.0
  0
LINE
  5
1B2
330
1F
100
AcDbEntity
  8
0
  6
HIDDEN
 62
     7
370
     0
100
AcDbLine
 10
231.6647765697
 20
105.4735951303
 30
0.0
 11
232.9914486471
 21
103.909281866
 31
0.0
  0
LINE
  5
1B3
330
1F
100
AcDbEntity
  8
0
  6
HIDDEN
 62
     7
370
     0
100
AcDbLine
 10
243.4503517156
 20
110.9296483839
 30
0.0
 11
242.7557590049
 21
111.7486605642
 31
0.0
  0
LINE
  5
1B4
330
1F
100
AcDbEntity
  8
0
  6
HIDDEN
 62
     7
370
     0
100
AcDbLine
 10
238.0272719527
 20
107.7384972013
 30
0.0
 11
238.7218646634
 21
106.919485021
 31
0.0
  0
LINE
  5
1B5
330
1F
100
AcDbEntity
  8
0
  6
HIDDEN
 62
     7
370
     0
100
AcDbLine
 10
242.2355604728
 20
111.4343970636
 30
0.0
 11
239.8670889964
 21
114.2271228696
 31
0.0
  0
LINE
  5
1B6
330
1F
100
AcDbEntity
  8
0
  6
HIDDEN
 62
     7
370
     0
100
AcDbLine
 10
236.1317933648
 20
110.9011478998
 30
0.0
 11
238.422264463
 21
108.2003943516
 31
0.0
  0
LINE
  5
1B7
330
1F
100
AcDbEntity
  8
0
  6
HIDDEN
 62
     7
370
     0
100
AcDbLine
 10
218.6697537858
 20
122.5713208774
 30
0.0
 11
237.3150733764
 21
109.9556515211
 31
0.0
  0
LINE
  5
1B8
330
1F
100
AcDbEntity
  8
0
  6
HIDDEN
 62
     7
370
     0
100
AcDbLine
 10
240.1170253684
 20
114.0967944834
 30
0.0
 11
221.0119612477
 21
127.0235330575
 31
0.0
  0
LINE
  5
1B9
330
1F
100
AcDbEntity
  8
0
  6
HIDDEN
 62
     7
370
     0
100
AcDbLine
 10
246.1630789907
 20
98.9340734047
 30
0.0
 11
244.2963610808
 21
101.1351686391
 31
0.0
  0
LINE
  5
1BA
330
1F
100
AcDbEntity
  8
0
  6
HIDDEN
 62
     7
370
     0
100
AcDbLine
 10
241.7795857143
 20
99.0007268492
 30
0.0
 11
243.6463036242
 21
96.7996316148
 31
0.0
  0
LINE
  5
1BB
330
1F
100
AcDbEntity
  8
0
  6
HIDDEN
 62
     7
370
     0
100
AcDbLine
 10
237.2716204918
 20
109.3813542498
 30
0.0
 11
246.888798216
 21
102.8742448532
 31
0.0
  0
LINE
  5
1BC
330
1F
100
AcDbEntity
  8
0
  6
HIDDEN
 62
     7
370
     0
100
AcDbLine
 10
245.8224637827
 20
110.8401176062
 30
0.0
 11
240.6339628823
 21
114.3507258045
 31
0.0
  0
LINE
  5
1BD
330
1F
100
AcDbEntity
  8
0
  6
HIDDEN
 62
     7
370
     0
100
AcDbLine
 10
239.9575779051
 20
114.2384211075
 30
0.0
 11
239.5533712208
 21
114.0032072358
 31
0.0
  0
LINE
  5
1BE
330
1F
100
AcDbEntity
  8
0
  6
HIDDEN
 62
     7
370
     0
100
AcDbLine
 10
237.1923097445
 20
110.5136780991
 30
0.0
 11
237.1243041335
 21
110.0509861434
 31
0.0
  0
LINE
  5
1BF
330
1F
100
AcDbEntity
  8
VERMASSUNG
  6
CENTERX2
100
AcDbLine
 10
149.8036878969
 20
130.7076960585
 30
0.0
 11
256.5853183729
 21
130.7076960585
 31
0.0
  0
LINE
  5
1C0
330
1F
100
AcDbEntity
  8
VERMASSUNG
  6
CENTERX2
100
AcDbLine
 10
256.5853183729
 20
85.7076960585
 30
0.0
 11
256.5853183729
 21
130.7076960585
 31
0.0
  0
LINE
  5
1C1
330
1F
100
AcDbEntity
  8
VERMASSUNG
  6
CENTERX2
100
AcDbLine
 10
256.5853183729
 20
85.7076960585
 30
0.0
 11
270.635762993
 21
85.7076960585
 31
0.0
  0
LINE
  5
1C2
330
1F
100
AcDbEntity
  8
VERMASSUNG
100
AcDbLine
 10
256.5853183729
 20
85.7076960585
 30
0.0
 11
256.5853183729
 21
76.1406268717
 31
0.0
  0
DIMENSION
  5
1C3
330
1F
100
AcDbEntity
  8
VERMASSUNG
100
AcDbDimension
  2
_D
 10
269.1126939287
 20
130.7076960585
 30
0.0
 11
269.1126939287
 21
108.2076960585
 31
0.0
 70
   160
  1
<>
 71
     2
 42
-1.0
  3
SLDDIMSTYLE0
100
AcDbAlignedDimension
 13
256.5853183729
 23
85.7076960585
 33
0.0
 14
256.5853183729
 24
130.7076960585
 34
0.0
 50
90.0
100
AcDbRotatedDimension
  0
DIMENSION
  5
1D0
330
1F
100
AcDbEntity
  8
VERMASSUNG
100
AcDbDimension
  2
_D_1
 10
256.5853183729
 20
69.4200606162
 30
0.0
 11
224.0853183729
 21
69.4200606162
 31
0.0
 70
   160
  1
<>
 71
     2
 42
-1.0
  3
SLDDIMSTYLE0
100
AcDbAlignedDimension
 13
191.5853183729
 23
99.7076960585
 33
0.0
 14
256.5853183729
 24
85.7076960585
 34
0.0
100
AcDbRotatedDimension
  0
DIMENSION
  5
1DC
330
1F
100
AcDbEntity
  8
VERMASSUNG
100
AcDbDimension
  2
_D_2
 10
256.5853183729
 20
76.1406268717
 30
0.0
 11
248.0171145184
 21
80.2480946553
 31
0.0
 70
   162
  1
<>
 71
     1
 42
-1.0
  3
SLDDIMSTYLE1
100
AcDb2LineAngularDimension
 13
255.9985332974
 23
85.7509923645
 33
0.0
 14
242.9362911997
 24
92.556858611
 34
0.0
 15
256.5853183729
 25
85.7076960585
 35
0.0
 16
248.0171145184
 26
80.2480946553
 36
0.0
  0
DIMENSION
  5
1E6
330
1F
100
AcDbEntity
  8
VERMASSUNG
100
AcDbDimension
  2
_D_3
 10
153.5853183729
 20
60.7499216409
 30
0.0
 11
205.0853183729
 21
60.7499216409
 31
0.0
 70
   160
  1
<>
 71
     2
 42
-1.0
  3
SLDDIMSTYLE2
100
AcDbAlignedDimension
 13
256.5853183729
 23
85.7076960585
 33
0.0
 14
153.5853183729
 24
110.415358066
 34
0.0
 50
0.0
100
AcDbRotatedDimension
  0
DIMENSION
  5
1F1
330
1F
100
AcDbEntity
  8
VERMASSUNG
100
AcDbDimension
  2
_D_4
 10
143.5852683729
 20
99.2076960585
 30
0.0
 11
143.5852683729
 21
130.7076960585
 31
0.0
 70
   160
  1
PSC%%c<>
 71
     2
 42
-1.0
  3
SLDDIMSTYLE2
100
AcDbAlignedDimension
 13
192.0853183729
 23
162.2076960585
 33
0.0
 14
192.0853183729
 24
99.2076960585
 34
0.0
 50
90.0
100
AcDbRotatedDimension
  0
ARC
  5
1FD
330
1F
100
AcDbEntity
  8
0
  6
Continuous
 62
     7
370
    15
100
AcDbCircle
 10
93.6003281987
 20
110.2131867461
 30
0.0
 40
2.500000000000001
100
AcDbArc
 50
240.5206016999
 51
2.0769344244
  0
LINE
  5
1FE
330
1F
100
AcDbEntity
  8
0
  6
Continuous
 62
     7
370
    15
100
AcDbLine
 10
59.6033481454
 20
114.1651756844
 30
0.0
 11
59.3787727451
 21
114.0408720604
 31
0.0
  0
LINE
  5
1FF
330
1F
100
AcDbEntity
  8
0
  6
Continuous
 62
     7
370
    15
100
AcDbLine
 10
65.634386385
 20
115.4492599672
 30
0.0
 11
59.6163885241
 21
114.1700949302
 31
0.0
  0
SPLINE
  5
200
330
1F
100
AcDbEntity
  8
0
  6
Continuous
 62
     7
370
    15
100
AcDbSpline
210
0.0
220
0.0
230
1.0
 70
     8
 71
     3
 72
    23
 73
    19
 74
     0
 42
0.00000001
 43
0.00000001
 12
1.0
 22
0.0
 32
0.0
 13
1.0
 23
0.0
 33
0.0
 40
0.0
 40
0.0
 40
0.0
 40
0.0
 40
0.0500809430215371
 40
0.1023563377611148
 40
0.1524253924035588
 40
0.2010229484230536
 40
0.2494474443354081
 40
0.3000951510005095
 40
0.3583483818034036
 40
0.4363803592677209
 40
0.5109696996171366
 40
0.5800988701021396
 40
0.6521770868688759
 40
0.7223207373877378
 40
0.7923548368769937
 40
0.8634176348603702
 40
0.9376166301322696
 40
1.0
 40
1.0
 40
1.0
 40
1.0
 10
57.48812458868016
 20
111.2010665020385
 30
0.0
 10
57.34477423135836
 20
111.1041006959516
 30
0.0
 10
57.05179217656963
 20
110.9059202264895
 30
0.0
 10
56.6941080585604
 20
110.5210858794214
 30
0.0
 10
56.40561975139357
 20
110.0992306999085
 30
0.0
 10
56.19645061158526
 20
109.6599023570468
 30
0.0
 10
56.05437272795692
 20
109.214424222717
 30
0.0
 10
55.96615075466079
 20
108.7538793830636
 30
0.0
 10
55.92022850513496
 20
108.2275163611469
 30
0.0
 10
55.92286673756802
 20
107.629586585103
 30
0.0
 10
55.97313305012559
 20
106.9548548480913
 30
0.0
 10
56.06151033572673
 20
106.252283256923
 30
0.0
 10
56.18280245452353
 20
105.532361021605
 30
0.0
 10
56.33535598984157
 20
104.8001123195759
 30
0.0
 10
56.51196142526319
 20
104.0865116261443
 30
0.0
 10
56.71295709966554
 20
103.398825573156
 30
0.0
 10
56.92120407432014
 20
102.7875677232699
 30
0.0
 10
57.07611466701212
 20
102.4267239392966
 30
0.0
 10
57.14686937088955
 20
102.2619101932683
 30
0.0
  0
SPLINE
  5
201
330
1F
100
AcDbEntity
  8
0
  6
Continuous
 62
     7
370
    15
100
AcDbSpline
210
0.0
220
0.0
230
1.0
 70
     8
 71
     3
 72
    15
 73
    11
 74
     0
 42
0.00000001
 43
0.00000001
 12
1.0
 22
0.0
 32
0.0
 13
1.0
 23
0.0
 33
0.0
 40
0.0
 40
0.0
 40
0.0
 40
0.0
 40
0.1089271423475415
 40
0.2613818326262625
 40
0.3971012081412295
 40
0.5349812537524594
 40
0.6752714263720141
 40
0.8191689955862176
 40
0.9661537878292277
 40
1.0
 40
1.0
 40
1.0
 40
1.0
 10
57.14686937088955
 20
102.2619101932683
 30
0.0
 10
57.19815393961797
 20
102.1532660450065
 30
0.0
 10
57.32121651402123
 20
101.8925632856686
 30
0.0
 10
57.54295664262306
 20
101.5123423405054
 30
0.0
 10
57.84176227151858
 20
101.1073112320396
 30
0.0
 10
58.20504582039912
 20
100.7350269917487
 30
0.0
 10
58.647788954122
 20
100.4038994801524
 30
0.0
 10
59.16317447990919
 20
100.1537342917596
 30
0.0
 10
59.58135944599065
 20
100.0127376308066
 30
0.0
 10
59.82435203969014
 20
99.99579003192412
 30
0.0
 10
59.86983306164731
 20
99.9926179429927
 30
0.0
  0
LINE
  5
202
330
1F
100
AcDbEntity
  8
0
  6
Continuous
 62
     7
370
    15
100
AcDbLine
 10
59.9406061267
 20
99.9832190356
 30
0.0
 11
61.8671809828
 21
100.3927252969
 31
0.0
  0
LINE
  5
203
330
1F
100
AcDbEntity
  8
0
  6
Continuous
 62
     7
370
    15
100
AcDbLine
 10
59.476196537
 20
111.6414218923
 30
0.0
 11
57.5496216809
 21
111.231915631
 31
0.0
  0
SPLINE
  5
204
330
1F
100
AcDbEntity
  8
0
  6
Continuous
 62
     7
370
    15
100
AcDbSpline
210
0.0
220
0.0
230
1.0
 70
     8
 71
     3
 72
    19
 73
    15
 74
     0
 42
0.00000001
 43
0.00000001
 12
1.0
 22
0.0
 32
0.0
 13
1.0
 23
0.0
 33
0.0
 40
0.0
 40
0.0
 40
0.0
 40
0.0
 40
0.0115026142956546
 40
0.1047862956988937
 40
0.1945583300777239
 40
0.282951565013719
 40
0.3707696833326929
 40
0.4583896379417835
 40
0.5460488749929395
 40
0.6339363764777046
 40
0.7223900818574445
 40
0.8120373194650778
 40
0.9044013164640919
 40
1.0
 40
1.0
 40
1.0
 40
1.0
 10
75.11343970353592
 20
106.2296349337735
 30
0.0
 10
75.11411850231481
 20
106.2490593514531
 30
0.0
 10
75.12030221044729
 20
106.4260115400973
 30
0.0
 10
75.09231106727853
 20
106.839453676804
 30
0.0
 10
75.0301379624216
 20
107.4598115183668
 30
0.0
 10
74.9312824835094
 20
108.1275934052851
 30
0.0
 10
74.80450190651699
 20
108.815076264762
 30
0.0
 10
74.65288026938816
 20
109.5034171593739
 30
0.0
 10
74.48195327723357
 20
110.1689493460396
 30
0.0
 10
74.29689841392916
 20
110.7896051578168
 30
0.0
 10
74.10367984132974
 20
111.3461795223479
 30
0.0
 10
73.90259922986209
 20
111.8227399964234
 30
0.0
 10
73.70454066858879
 20
112.2147195769377
 30
0.0
 10
73.53636406653938
 20
112.4031987258026
 30
0.0
 10
73.45082867349376
 20
112.4990600875058
 30
0.0
  0
LINE
  5
205
330
1F
100
AcDbEntity
  8
0
  6
Continuous
 62
     7
370
    15
100
AcDbLine
 10
59.8221251314
 20
112.6451138189
 30
0.0
 11
59.2640654689
 21
111.755806931
 31
0.0
  0
LINE
  5
206
330
1F
100
AcDbEntity
  8
0
  6
Continuous
 62
     7
370
    15
100
AcDbLine
 10
61.7199146693
 20
100.2019475928
 30
0.0
 11
62.8579051738
 21
99.4375124356
 31
0.0
  0
LINE
  5
207
330
1F
100
AcDbEntity
  8
0
  6
Continuous
 62
     7
370
    15
100
AcDbLine
 10
63.0903577005
 20
99.3747934482
 30
0.0
 11
67.5132067447
 21
100.3148983946
 31
0.0
  0
LINE
  5
208
330
1F
100
AcDbEntity
  8
0
  6
Continuous
 62
     7
370
    15
100
AcDbLine
 10
67.6266865378
 20
100.3761999092
 30
0.0
 11
69.3640958091
 21
101.9688918969
 31
0.0
  0
LINE
  5
209
330
1F
100
AcDbEntity
  8
0
  6
Continuous
 62
     7
370
    15
100
AcDbLine
 10
65.9418290054
 20
113.5937236032
 30
0.0
 11
65.2998534536
 21
113.8086709908
 31
0.0
  0
LINE
  5
20A
330
1F
100
AcDbEntity
  8
0
  6
Continuous
 62
     7
370
    15
100
AcDbLine
 10
70.8116188219
 20
123.1577065556
 30
0.0
 11
68.118649306
 21
122.5852984718
 31
0.0
  0
LINE
  5
20B
330
1F
100
AcDbEntity
  8
0
  6
Continuous
 62
     7
370
    15
100
AcDbLine
 10
66.3134965619
 20
120.7869192368
 30
0.0
 11
65.3121934777
 21
115.7565880349
 31
0.0
  0
LINE
  5
20C
330
1F
100
AcDbEntity
  8
0
  6
Continuous
 62
     7
370
    15
100
AcDbLine
 10
81.6967500689
 20
85.7079624912
 30
0.0
 11
86.2819978541
 21
86.6825878403
 31
0.0
  0
LINE
  5
20D
330
1F
100
AcDbEntity
  8
0
  6
Continuous
 62
     7
370
    15
100
AcDbLine
 10
79.4260578735
 20
91.1555029234
 30
0.0
 11
79.8905242739
 21
90.6103662929
 31
0.0
  0
LINE
  5
20E
330
1F
100
AcDbEntity
  8
0
  6
Continuous
 62
     7
370
    15
100
AcDbLine
 10
86.3043631
 20
86.8329964361
 30
0.0
 11
88.9879867939
 21
87.4034203371
 31
0.0
  0
LINE
  5
20F
330
1F
100
AcDbEntity
  8
0
  6
Continuous
 62
     7
370
    15
100
AcDbLine
 10
89.0013326464
 20
87.4142646572
 30
0.0
 11
89.2199378034
 21
87.7626277289
 31
0.0
  0
ARC
  5
210
330
1F
100
AcDbEntity
  8
0
  6
Continuous
 62
     7
370
    15
100
AcDbCircle
 10
93.9830353786
 20
108.4436857528
 30
0.0
 40
2.513517571692715
100
AcDbArc
 50
233.9142046016
 51
276.7193429531
  0
ARC
  5
211
330
1F
100
AcDbEntity
  8
0
  6
Continuous
 62
     7
370
    15
100
AcDbCircle
 10
94.1999368356
 20
109.166660052
 30
0.0
 40
3.220152450183531
100
AcDbArc
 50
271.3736570387
 51
5.0203692131
  0
ARC
  5
212
330
1F
100
AcDbEntity
  8
0
  6
Continuous
 62
     7
370
    15
100
AcDbCircle
 10
94.0466162742
 20
108.3137710674
 30
0.0
 40
2.340920054176474
100
AcDbArc
 50
228.2225620137
 51
277.0881180374
  0
ARC
  5
213
330
1F
100
AcDbEntity
  8
0
  6
Continuous
 62
     7
370
    15
100
AcDbCircle
 10
95.2161512921
 20
107.4820852757
 30
0.0
 40
3.335313632462535
100
AcDbArc
 50
85.9565953491
 51
122.8690063487
  0
LWPOLYLINE
  5
214
330
1F
100
AcDbEntity
  8
0
  6
Continuous
 62
     7
370
    15
100
AcDbPolyline
 90
       11
 70
   128
 43
0.0
 10
97.0179063773
 20
109.9926531097
 10
97.143762516
 20
109.7948439202
 10
97.3259571513
 20
109.3012541315
 10
97.363726007
 20
108.7590995958
 10
97.255033212
 20
108.1976052156
 10
97.0057377165
 20
107.6470445624
 10
96.6292794367
 20
107.1370951614
 10
96.1459537541
 20
106.695249655
 10
95.5818162804
 20
106.3453275493
 10
94.9672802856
 20
106.1061937144
 10
94.3354757076
 20
105.9907413802
  0
ARC
  5
215
330
1F
100
AcDbEntity
  8
0
  6
Continuous
 62
     7
370
    15
100
AcDbCircle
 10
94.0790591024
 20
108.1606606038
 30
0.0
 40
1.889872600969502
100
AcDbArc
 50
212.3151800616
 51
278.9994540436
  0
LWPOLYLINE
  5
216
330
1F
100
AcDbEntity
  8
0
  6
Continuous
 62
     7
370
    15
100
AcDbPolyline
 90
       19
 70
   128
 43
0.0
 10
92.6480114033
 20
109.1601829758
 10
92.9998054674
 20
109.5955129495
 10
93.4783059677
 20
109.9919210902
 10
94.0302365964
 20
110.2883275381
 10
94.6209176948
 20
110.4661077043
 10
95.2132341957
 20
110.5140894434
 10
95.7699695175
 20
110.4292589954
 10
96.2561422532
 20
110.2169472507
 10
96.6412031596
 20
109.8904926112
 10
96.9009574076
 20
109.4704102507
 10
97.0190845003
 20
108.9830938509
 10
96.9881627282
 20
108.4591634354
 10
96.8101329675
 20
107.9315375319
 10
96.4961831963
 20
107.4333730868
 10
96.066039758
 20
106.9959681264
 10
95.5467296338
 20
106.6468078426
 10
94.9708826413
 20
106.4078304699
 10
94.3746825253
 20
106.2940526536
 10
94.3746825253
 20
106.2940526536
  0
ARC
  5
217
330
1F
100
AcDbEntity
  8
0
  6
Continuous
 62
     7
370
    15
100
AcDbCircle
 10
57.9876397716
 20
112.6899602708
 30
0.0
 40
2.187869755225398
100
AcDbArc
 50
3.0481258764
 51
42.3975039399
  0
LWPOLYLINE
  5
218
330
1F
100
AcDbEntity
  8
0
  6
Continuous
 62
     7
370
    15
100
AcDbPolyline
 90
       10
 70
   128
 43
0.0
 10
59.4145485705
 20
112.7524375698
 10
59.3406965529
 20
113.211039432
 10
59.3066213226
 20
113.6054750314
 10
59.3162307089
 20
113.8904932669
 10
59.3684238886
 20
114.033399128
 10
59.4572143203
 20
114.0177976123
 10
59.5724133348
 20
113.8454824469
 10
59.7008091902
 20
113.5362162969
 10
59.8276683634
 20
113.1254806897
 10
59.9297357296
 20
112.7019151828
  0
LINE
  5
219
330
1F
100
AcDbEntity
  8
0
  6
Continuous
 62
     7
370
    15
100
AcDbLine
 10
59.5397239124
 20
112.2056655368
 30
0.0
 11
59.4598536884
 21
112.5335711768
 31
0.0
  0
LINE
  5
21A
330
1F
100
AcDbEntity
  8
0
  6
Continuous
 62
     7
370
    15
100
AcDbLine
 10
59.4957878386
 20
112.5522218427
 30
0.0
 11
59.4598536884
 21
112.5335711768
 31
0.0
  0
LWPOLYLINE
  5
21B
330
1F
100
AcDbEntity
  8
0
  6
Continuous
 62
     7
370
    15
100
AcDbPolyline
 90
       10
 70
   128
 43
0.0
 10
59.4576352781
 20
112.7365305802
 10
59.392777974
 20
113.1441667458
 10
59.3657714819
 20
113.488538169
 10
59.3800840473
 20
113.72540889
 10
59.4338809645
 20
113.8243507376
 10
59.5202480947
 20
113.7726511589
 10
59.6280915236
 20
113.5769523463
 10
59.743558759
 20
113.2623944214
 10
59.8518175578
 20
112.8693856081
 10
59.8829498088
 20
112.7335596612
  0
LINE
  5
21C
330
1F
100
AcDbEntity
  8
0
  6
Continuous
 62
     7
370
    15
100
AcDbLine
 10
59.5713180995
 20
112.2454367361
 30
0.0
 11
59.4957878386
 21
112.5522218427
 31
0.0
  0
LINE
  5
21D
330
1F
100
AcDbEntity
  8
0
  6
Continuous
 62
     7
370
    15
100
AcDbLine
 10
59.4576352781
 20
112.7365305802
 30
0.0
 11
59.4145485705
 21
112.7524375698
 31
0.0
  0
LINE
  5
21E
330
1F
100
AcDbEntity
  8
0
  6
Continuous
 62
     7
370
    15
100
AcDbLine
 10
59.8050875163
 20
112.6179657659
 30
0.0
 11
59.4957878386
 21
112.5522218427
 31
0.0
  0
LINE
  5
21F
330
1F
100
AcDbEntity
  8
0
  6
Continuous
 62
     7
370
    15
100
AcDbLine
 10
59.8628574556
 20
112.8226630172
 30
0.0
 11
59.4576352781
 21
112.7365305802
 31
0.0
  0
LWPOLYLINE
  5
220
330
1F
100
AcDbEntity
  8
0
  6
Continuous
 62
     7
370
    15
100
AcDbPolyline
 90
       23
 70
   128
 43
0.0
 10
59.8765665239
 20
99.981332176
 10
59.9178483283
 20
99.9799333295
 10
60.0636934435
 20
100.0653691372
 10
60.1753888225
 20
100.2943459681
 10
60.2500399148
 20
100.6609312972
 10
60.2857151573
 20
101.1556330851
 10
60.2814888155
 20
101.7656363329
 10
60.237472648
 20
102.4751439473
 10
60.154804731
 20
103.2657809338
 10
60.0356252437
 20
104.117067509
 10
59.8830243146
 20
105.0069574049
 10
59.7009507513
 20
105.9124022505
 10
59.4941207712
 20
106.8099532059
 10
59.2678932046
 20
107.6763625971
 10
59.0281260705
 20
108.4891911379
 10
58.781027565
 20
109.2273872128
 10
58.5329995995
 20
109.8718326321
 10
58.2904664373
 20
110.40583437
 10
58.059707055
 20
110.8155641487
 10
57.8467005437
 20
111.090410479
 10
57.6569603329
 20
111.2232524684
 10
57.4954056686
 20
111.210651674
 10
57.4905963188
 20
111.2077459475
  0
LWPOLYLINE
  5
221
330
1F
100
AcDbEntity
  8
0
  6
Continuous
 62
     7
370
    15
100
AcDbPolyline
 90
       21
 70
   128
 43
0.0
 10
61.8671809828
 20
100.3927252969
 10
61.9902682995
 20
100.4748753986
 10
62.1019636786
 20
100.7038522294
 10
62.1766147708
 20
101.0704375586
 10
62.2122900134
 20
101.5651393464
 10
62.2080636715
 20
102.1751425943
 10
62.164047504
 20
102.8846502087
 10
62.081379587
 20
103.6752871951
 10
61.9622000998
 20
104.5265737703
 10
61.809597308
 20
105.4164636663
 10
61.6275256073
 20
106.3219085118
 10
61.4206956273
 20
107.2194594672
 10
61.1944680607
 20
108.0858688584
 10
60.9546990638
 20
108.8986973992
 10
60.707602421
 20
109.6368934742
 10
60.4595744556
 20
110.2813388935
 10
60.2170412933
 20
110.8153406313
 10
59.9862819111
 20
111.2250704101
 10
59.7732753998
 20
111.4999167404
 10
59.583535189
 20
111.6327587298
 10
59.476196537
 20
111.6414218923
  0
LWPOLYLINE
  5
222
330
1F
100
AcDbEntity
  8
0
  6
Continuous
 62
     7
370
    15
100
AcDbPolyline
 90
       26
 70
   128
 43
0.0
 10
56.9639594799
 20
103.2215356609
 10
57.1223420596
 20
102.9248516789
 10
57.2616343891
 20
102.7710027775
 10
57.3730876243
 20
102.7696542224
 10
57.449694494
 20
102.9208916953
 10
57.4866456484
 20
103.2152119806
 10
57.4816165065
 20
103.6341208747
 10
57.4349218553
 20
104.1512992016
 10
57.3495009487
 20
104.7342493913
 10
57.2307144796
 20
105.346342527
 10
57.086031655
 20
105.949116849
 10
56.9245403206
 20
106.5047010562
 10
56.7563900297
 20
106.9781854531
 10
56.5921438431
 20
107.3398161462
 10
56.4421226775
 20
107.5668744525
 10
56.31575338
 20
107.645088785
 10
56.2209745442
 20
107.569549211
 10
56.163744772
 20
107.3449998876
 10
56.1476571059
 20
106.985550352
 10
56.1737248247
 20
106.5137870392
 10
56.2403069382
 20
105.9593520841
 10
56.3432236707
 20
105.3570806763
 10
56.4760041928
 20
104.7448180398
 10
56.6303075796
 20
104.1610352477
 10
56.7964387631
 20
103.6424115083
 10
56.9639594799
 20
103.2215356609
  0
LINE
  5
223
330
1F
100
AcDbEntity
  8
0
  6
Continuous
 62
     7
370
    15
100
AcDbLine
 10
56.3968566751
 20
106.5697781524
 30
0.0
 11
56.738421092
 21
106.9914512119
 31
0.0
  0
SPLINE
  5
224
330
1F
100
AcDbEntity
  8
0
  6
Continuous
 62
     7
370
    15
100
AcDbSpline
210
0.0
220
0.0
230
1.0
 70
     8
 71
     3
 72
    10
 73
     6
 74
     0
 42
0.00000001
 43
0.00000001
 12
1.0
 22
0.0
 32
0.0
 13
1.0
 23
0.0
 33
0.0
 40
0.0
 40
0.0
 40
0.0
 40
0.0
 40
0.4391224214460407
 40
0.7513711649880831
 40
1.0
 40
1.0
 40
1.0
 40
1.0
 10
56.81583448703278
 20
104.3222117951551
 30
0.0
 10
56.88780627897965
 20
104.67202033264
 30
0.0
 10
57.01095537481336
 20
105.2705687908748
 30
0.0
 10
56.76140095487187
 20
106.049561382768
 30
0.0
 10
56.50882147003078
 20
106.4100006790976
 30
0.0
 10
56.39685667510022
 20
106.56977815241
 30
0.0
  0
SPLINE
  5
225
330
1F
100
AcDbEntity
  8
0
  6
Continuous
 62
     7
370
    15
100
AcDbSpline
210
0.0
220
0.0
230
1.0
 70
     8
 71
     3
 72
    11
 73
     7
 74
     0
 42
0.00000001
 43
0.00000001
 12
1.0
 22
0.0
 32
0.0
 13
1.0
 23
0.0
 33
0.0
 40
0.0
 40
0.0
 40
0.0
 40
0.0
 40
0.1856339456970704
 40
0.5233284618604734
 40
0.8791085180649774
 40
0.9999999999999999
 40
0.9999999999999999
 40
0.9999999999999999
 40
0.9999999999999999
 10
57.42111779208172
 20
102.9895208558478
 30
0.0
 10
57.44608447810236
 20
103.0802029866104
 30
0.0
 10
57.51646911246364
 20
103.3358487944501
 30
0.0
 10
57.45422415231945
 20
103.7732806335283
 30
0.0
 10
57.12687929848814
 20
104.1149564121258
 30
0.0
 10
56.87876118587761
 20
104.2802824763188
 30
0.0
 10
56.81583448703278
 20
104.3222117951551
 30
0.0
  0
LINE
  5
226
330
1F
100
AcDbEntity
  8
0
  6
Continuous
 62
     7
370
    15
100
AcDbLine
 10
56.8697245365
 20
106.6702883473
 30
0.0
 11
56.3968566751
 21
106.5697781524
 31
0.0
  0
LINE
  5
227
330
1F
100
AcDbEntity
  8
0
  6
Continuous
 62
     7
370
    15
100
AcDbLine
 10
57.3954989707
 20
104.4454239091
 30
0.0
 11
56.815834487
 21
104.3222117952
 31
0.0
  0
LWPOLYLINE
  5
228
330
1F
100
AcDbEntity
  8
0
  6
Continuous
 62
     7
370
    15
100
AcDbPolyline
 90
       25
 70
   128
 43
0.0
 10
61.5760663098
 20
100.3308463624
 10
61.6649014449
 20
100.2438850483
 10
61.8554723954
 20
100.1458000174
 10
62.0153842067
 20
100.1997794738
 10
62.1404943561
 20
100.4044245711
 10
62.2275637036
 20
100.7544323584
 10
62.274336586
 20
101.2407410672
 10
62.2796022838
 20
101.8507536283
 10
62.2432229614
 20
102.5686710855
 10
62.1661429798
 20
103.3759023777
 10
62.0503553694
 20
104.2515374503
 10
61.8988627141
 20
105.1728985986
 10
61.7155877447
 20
106.1161234757
 10
61.5052746182
 20
107.0567834905
 10
61.2733715719
 20
107.9705152443
 10
61.0258874988
 20
108.8336538306
 10
60.7692280358
 20
109.6238456449
 10
60.5100428259
 20
110.3206220797
 10
60.2550448423
 20
110.9059396914
 10
60.0108371621
 20
111.3646384111
 10
59.7837453281
 20
111.6848382881
 10
59.5796497112
 20
111.8582449636
 10
59.4038383609
 20
111.8803694627
 10
59.2608635818
 20
111.7506380907
 10
59.185081864
 20
111.5795448205
  0
LWPOLYLINE
  5
229
330
1F
100
AcDbEntity
  8
0
  6
Continuous
 62
     7
370
    15
100
AcDbPolyline
 90
       24
 70
   128
 43
0.0
 10
62.8579051738
 20
99.4375124356
 10
63.0240307694
 20
99.3711352131
 10
63.1929764097
 20
99.4265824339
 10
63.3289550936
 20
99.6258090964
 10
63.4290927594
 20
99.964598172
 10
63.4912697172
 20
100.4357822022
 10
63.5141690766
 20
101.0293904474
 10
63.4973065501
 20
101.7328630915
 10
63.4410397654
 20
102.5313175997
 10
63.3465608155
 20
103.4078579178
 10
63.2158645933
 20
104.3439376882
 10
63.0517208522
 20
105.3197514048
 10
62.8575997
 20
106.3146516463
 10
62.6376101321
 20
107.3075867972
 10
62.3964050358
 20
108.2775499454
 10
62.1390899217
 20
109.2040166041
 10
61.8711093014
 20
110.0673842958
 10
61.5981312042
 20
110.8493841967
 10
61.3259335553
 20
111.5334722927
 10
61.0602737909
 20
112.1051721057
 10
60.806773374
 20
112.5523894808
 10
60.5707985854
 20
112.8656584552
 10
60.3573394513
 20
113.0383554629
 10
60.3573394513
 20
113.0383554629
  0
SPLINE
  5
22A
330
1F
100
AcDbEntity
  8
0
  6
Continuous
 62
     7
370
    15
100
AcDbSpline
210
0.0
220
0.0
230
1.0
 70
     8
 71
     3
 72
    14
 73
    10
 74
     0
 42
0.00000001
 43
0.00000001
 12
1.0
 22
0.0
 32
0.0
 13
1.0
 23
0.0
 33
0.0
 40
0.0
 40
0.0
 40
0.0
 40
0.0
 40
0.2406869590913551
 40
0.3654953567906414
 40
0.4913834095736901
 40
0.5985907742968736
 40
0.7015337617721312
 40
0.8683340198950305
 40
1.0
 40
1.0
 40
1.0
 40
1.0
 10
59.96750644798268
 20
112.8730475685039
 30
0.0
 10
59.86099202630191
 20
112.7067709700943
 30
0.0
 10
59.69924447378585
 20
112.4542715206391
 30
0.0
 10
59.59020249349066
 20
112.2550309176818
 30
0.0
 10
59.59305984705726
 20
112.2077508562131
 30
0.0
 10
59.68651112538577
 20
112.2764889336189
 30
0.0
 10
59.85824534730507
 20
112.4456138894494
 30
0.0
 10
60.09193852399838
 20
112.7061091328653
 30
0.0
 10
60.27609867989312
 20
112.9366529239367
 30
0.0
 10
60.35733945126523
 20
113.038355462853
 30
0.0
  0
SPLINE
  5
22B
330
1F
100
AcDbEntity
  8
0
  6
Continuous
 62
     7
370
    15
100
AcDbSpline
210
0.0
220
0.0
230
1.0
 70
    11
 71
     3
 72
    26
 73
    22
 74
     0
 42
0.00000001
 43
0.00000001
 12
1.0
 22
0.0
 32
0.0
 13
1.0
 23
0.0
 33
0.0
 40
0.0
 40
0.0
 40
0.0
 40
0.0
 40
0.045633197363532
 40
0.0911468699996207
 40
0.1396867669224684
 40
0.195235674608618
 40
0.2567873466480571
 40
0.3195027808215822
 40
0.3782722796929794
 40
0.4320417255797078
 40
0.4825629618998518
 40
0.5316195438158188
 40
0.5803378468324252
 40
0.6295799730315644
 40
0.680401022598068
 40
0.7342118723924669
 40
0.7923208595913876
 40
0.8544917486265365
 40
0.9168151662210178
 40
0.9638629393656125
 40
1.0
 40
1.0
 40
1.0
 40
1.0
 10
67.20442860777368
 20
100.7670704057851
 30
0.0
 10
67.20201472744033
 20
100.8062520096025
 30
0.0
 10
67.19719328932841
 20
100.8845125908429
 30
0.0
 10
67.0604235324039
 20
100.9762596238195
 30
0.0
 10
66.84074515427321
 20
101.0378221206631
 30
0.0
 10
66.52913383364574
 20
101.0541316582873
 30
0.0
 10
66.14889570729567
 20
101.0047183585163
 30
0.0
 10
65.7569463461928
 20
100.8813306647676
 30
0.0
 10
65.42493137513961
 20
100.7071406604176
 30
0.0
 10
65.19582050836722
 20
100.5230277380394
 30
0.0
 10
65.07754398087681
 20
100.359375633671
 30
0.0
 10
65.06617504608877
 20
100.2325449990817
 30
0.0
 10
65.15641648605572
 20
100.1510273689169
 30
0.0
 10
65.3402820500403
 20
100.1171498313423
 30
0.0
 10
65.6060267733823
 20
100.1283519045666
 30
0.0
 10
65.93864383578416
 20
100.1801988656039
 30
0.0
 10
66.3154805302583
 20
100.2688932370999
 30
0.0
 10
66.69528696739964
 20
100.3903822065481
 30
0.0
 10
66.99132243401709
 20
100.52873203412
 30
0.0
 10
67.16164346468656
 20
100.660179057332
 30
0.0
 10
67.19147097482968
 20
100.7346979802606
 30
0.0
 10
67.20442860777368
 20
100.7670704057851
 30
0.0
  0
LWPOLYLINE
  5
22C
330
1F
100
AcDbEntity
  8
0
  6
Continuous
 62
     7
370
    15
100
AcDbPolyline
 90
       22
 70
   128
 43
0.0
 10
67.5132067447
 20
100.3148983946
 10
67.6158254539
 20
100.366689243
 10
67.7518050691
 20
100.5659159055
 10
67.8519418036
 20
100.9047049812
 10
67.91411783
 20
101.3758871487
 10
67.9370171895
 20
101.9694953939
 10
67.9201555943
 20
102.6729699007
 10
67.863889741
 20
103.4714225462
 10
67.7694089284
 20
104.3479628643
 10
67.6387145689
 20
105.2840426347
 10
67.4745698964
 20
106.2598563513
 10
67.2804487442
 20
107.2547565928
 10
67.0604591763
 20
108.2476936063
 10
66.8192550113
 20
109.2176548919
 10
66.5619398972
 20
110.1441215506
 10
66.2939583456
 20
111.0074892423
 10
66.0209802484
 20
111.7894891432
 10
65.7487825995
 20
112.4735772392
 10
65.4831228351
 20
113.0452770522
 10
65.2296224182
 20
113.4924944273
 10
64.9936476296
 20
113.8057652643
 10
64.7801884955
 20
113.9784604093
  0
LINE
  5
22D
330
1F
100
AcDbEntity
  8
0
  6
Continuous
 62
     7
370
    15
100
AcDbLine
 10
60.3573394513
 20
113.0383554629
 30
0.0
 11
64.7801884955
 21
113.9784604093
 31
0.0
  0
LINE
  5
22E
330
1F
100
AcDbEntity
  8
0
  6
Continuous
 62
     7
370
    15
100
AcDbLine
 10
64.7801884955
 20
113.9784604093
 30
0.0
 11
65.2993207371
 21
113.807089605
 31
0.0
  0
ARC
  5
22F
330
1F
100
AcDbEntity
  8
0
  6
Continuous
 62
     7
370
    15
100
AcDbCircle
 10
-129.0106307581
 20
55.2450891449
 30
0.0
 40
210.4023801169728
100
AcDbArc
 50
12.9121533619
 51
15.9528997071
  0
SPLINE
  5
230
330
1F
100
AcDbEntity
  8
0
  6
Continuous
 62
     7
370
    15
100
AcDbSpline
210
0.0
220
0.0
230
1.0
 70
     8
 71
     3
 72
    10
 73
     6
 74
     0
 42
0.00000001
 43
0.00000001
 12
1.0
 22
0.0
 32
0.0
 13
1.0
 23
0.0
 33
0.0
 40
0.0
 40
0.0
 40
0.0
 40
0.0
 40
0.4116165512921897
 40
0.8227990659550363
 40
1.0
 40
1.0
 40
1.0
 40
1.0
 10
77.54959795082796
 20
100.1741364380755
 30
0.0
 10
77.26372967251427
 20
100.3942015646262
 30
0.0
 10
76.69229455494118
 20
100.8340997660146
 30
0.0
 10
76.2490088611306
 20
101.6195918487458
 30
0.0
 10
76.11256772883299
 20
102.1125001228546
 30
0.0
 10
76.07147633488167
 20
102.2609472057262
 30
0.0
  0
ARC
  5
231
330
1F
100
AcDbEntity
  8
0
  6
Continuous
 62
     7
370
    15
100
AcDbCircle
 10
-146.4650386376
 20
51.0435874349
 30
0.0
 40
229.338981098247
100
AcDbArc
 50
10.7900384943
 51
12.3701675253
  0
SPLINE
  5
232
330
1F
100
AcDbEntity
  8
0
  6
Continuous
 62
     7
370
    15
100
AcDbSpline
210
0.0
220
0.0
230
1.0
 70
     8
 71
     3
 72
    12
 73
     8
 74
     0
 42
0.00000001
 43
0.00000001
 12
1.0
 22
0.0
 32
0.0
 13
1.0
 23
0.0
 33
0.0
 40
0.0
 40
0.0
 40
0.0
 40
0.0
 40
0.3369380095852473
 40
0.5038342666763097
 40
0.6765380712931678
 40
0.8351216859006373
 40
1.0
 40
1.0
 40
1.0
 40
1.0
 10
75.03503491560805
 20
95.49037737459325
 30
0.0
 10
75.37009925485913
 20
95.13459987286416
 30
0.0
 10
75.87113176188838
 20
94.6025943063083
 30
0.0
 10
76.73655354393583
 20
94.15737432263838
 30
0.0
 10
77.41701249924498
 20
93.95045282276526
 30
0.0
 10
78.12641520465742
 20
93.87413280522622
 30
0.0
 10
78.58528623875489
 20
93.94310333080466
 30
0.0
 10
78.81918666343081
 20
93.97825969070578
 30
0.0
  0
SPLINE
  5
233
330
1F
100
AcDbEntity
  8
0
  6
Continuous
 62
     7
370
    15
100
AcDbSpline
210
0.0
220
0.0
230
1.0
 70
     8
 71
     3
 72
    15
 73
    11
 74
     0
 42
0.00000001
 43
0.00000001
 12
1.0
 22
0.0
 32
0.0
 13
1.0
 23
0.0
 33
0.0
 40
0.0
 40
0.0
 40
0.0
 40
0.0
 40
0.1220877165478298
 40
0.2441780188285023
 40
0.37040393021277
 40
0.4966403422683772
 40
0.6208486535706947
 40
0.7450698232837224
 40
0.8725281048490973
 40
1.0
 40
1.0
 40
1.0
 40
1.0
 10
66.90397556329955
 20
111.7164417883792
 30
0.0
 10
67.07779943962426
 20
111.0301588750226
 30
0.0
 10
67.42545087374238
 20
109.6575785133152
 30
0.0
 10
68.13553218057027
 20
107.5599353976206
 30
0.0
 10
68.9834785417525
 20
105.4491485019074
 30
0.0
 10
69.97075454182045
 20
103.3521804876906
 30
0.0
 10
71.07149282122553
 20
101.3077568008242
 30
0.0
 10
72.28383994938802
 20
99.31218652170837
 30
0.0
 10
73.59916782217186
 20
97.35991638970607
 30
0.0
 10
74.55639551208331
 20
96.11357923161079
 30
0.0
 10
75.03503491560805
 20
95.49037737459327
 30
0.0
  0
SPLINE
  5
234
330
1F
100
AcDbEntity
  8
0
  6
Continuous
 62
     7
370
    15
100
AcDbSpline
210
0.0
220
0.0
230
1.0
 70
     8
 71
     3
 72
    10
 73
     6
 74
     0
 42
0.00000001
 43
0.00000001
 12
1.0
 22
0.0
 32
0.0
 13
1.0
 23
0.0
 33
0.0
 40
0.0
 40
0.0
 40
0.0
 40
0.0
 40
0.3401614687819903
 40
0.6905229489512767
 40
1.0
 40
1.0
 40
1.0
 40
1.0
 10
66.19059271569242
 20
117.3802390477099
 30
0.0
 10
66.18605710387848
 20
117.779507301759
 30
0.0
 10
66.17684987633369
 20
118.5900161850719
 30
0.0
 10
66.20887518079353
 20
119.6288984879583
 30
0.0
 10
66.24996653897448
 20
120.1985645194443
 30
0.0
 10
66.2692391818284
 20
120.4657489216366
 30
0.0
  0
ARC
  5
235
330
1F
100
AcDbEntity
  8
0
  6
Continuous
 62
     7
370
    15
100
AcDbCircle
 10
93.5561086232
 20
117.9502333952
 30
0.0
 40
27.37145144928985
100
AcDbArc
 50
181.1932370992
 51
193.1645195656
  0
SPLINE
  5
236
330
1F
100
AcDbEntity
  8
0
  6
Continuous
 62
     7
370
    15
100
AcDbSpline
210
0.0
220
0.0
230
1.0
 70
     8
 71
     3
 72
    13
 73
     9
 74
     0
 42
0.00000001
 43
0.00000001
 12
1.0
 22
0.0
 32
0.0
 13
1.0
 23
0.0
 33
0.0
 40
0.0
 40
0.0
 40
0.0
 40
0.0
 40
0.0497704952977078
 40
0.2402950408986584
 40
0.4277587490651969
 40
0.6152418264428284
 40
0.8076107984406622
 40
1.0
 40
1.0
 40
1.0
 40
1.0
 10
67.66799162532081
 20
100.4140656223931
 30
0.0
 10
67.74603348676672
 20
100.2505491568969
 30
0.0
 10
68.12282443842957
 20
99.46108151087527
 30
0.0
 10
68.94758959906949
 20
98.18036641189782
 30
0.0
 10
70.13005413807255
 20
96.5865864676548
 30
0.0
 10
71.45348815610937
 20
95.13836721138073
 30
0.0
 10
72.89237553699513
 20
93.80973753845035
 30
0.0
 10
73.94459327395643
 20
93.04021363763265
 30
0.0
 10
74.47072980384219
 20
92.65543145746375
 30
0.0
  0
LINE
  5
237
330
1F
100
AcDbEntity
  8
0
  6
Continuous
 62
     7
370
    15
100
AcDbLine
 10
68.2067030614
 20
100.6276588669
 30
0.0
 11
68.0577706119
 21
100.7713768414
 31
0.0
  0
SPLINE
  5
238
330
1F
100
AcDbEntity
  8
0
  6
Continuous
 62
     7
370
    15
100
AcDbSpline
210
0.0
220
0.0
230
1.0
 70
     8
 71
     3
 72
    22
 73
    18
 74
     0
 42
0.00000001
 43
0.00000001
 12
1.0
 22
0.0
 32
0.0
 13
1.0
 23
0.0
 33
0.0
 40
0.0
 40
0.0
 40
0.0
 40
0.0
 40
0.0288186904802825
 40
0.0922717725794226
 40
0.153064201185876
 40
0.2138682222018753
 40
0.2755597931353215
 40
0.3372673425678338
 40
0.4024543630737907
 40
0.4676528081745282
 40
0.5365258893652424
 40
0.6054019485304861
 40
0.676082953937877
 40
0.7467641720704465
 40
0.8176906093647668
 40
0.8886154452144307
 40
1.0
 40
1.0
 40
1.0
 40
1.0
 10
67.1493986194848
 20
110.140770652
 30
0.0
 10
67.19002067351865
 20
110.0161336654465
 30
0.0
 10
67.32008449213964
 20
109.6170705752581
 30
0.0
 10
67.56081910276876
 20
108.8643669836974
 30
0.0
 10
67.86099826519161
 20
107.9223726795326
 30
0.0
 10
68.16221712792553
 20
106.9621695165558
 30
0.0
 10
68.4559511699946
 20
106.0010171199913
 30
0.0
 10
68.7351726366815
 20
105.0423189185226
 30
0.0
 10
68.98325948774752
 20
104.1152536769837
 30
0.0
 10
69.19011526847592
 20
103.2250240867502
 30
0.0
 10
69.33328959392017
 20
102.4146396453996
 30
0.0
 10
69.40205689333699
 20
101.6992481145494
 30
0.0
 10
69.38026785385557
 20
101.1190248242879
 30
0.0
 10
69.2683773173212
 20
100.6864588964713
 30
0.0
 10
69.06404350395255
 20
100.4310561187588
 30
0.0
 10
68.73204994679303
 20
100.3179273142517
 30
0.0
 10
68.40594288180603
 20
100.5101919881157
 30
0.0
 10
68.20670306141366
 20
100.6276588669458
 30
0.0
  0
SPLINE
  5
239
330
1F
100
AcDbEntity
  8
0
  6
Continuous
 62
     7
370
    15
100
AcDbSpline
210
0.0
220
0.0
230
1.0
 70
     8
 71
     3
 72
    13
 73
     9
 74
     0
 42
0.00000001
 43
0.00000001
 12
1.0
 22
0.0
 32
0.0
 13
1.0
 23
0.0
 33
0.0
 40
0.0
 40
0.0
 40
0.0
 40
0.0
 40
0.0452129710509491
 40
0.2288342897715784
 40
0.41814151806634
 40
0.6135085910752505
 40
0.8120469820737033
 40
1.0
 40
1.0
 40
1.0
 40
1.0
 10
65.63395983929624
 20
115.4341827860513
 30
0.0
 10
65.63691469519068
 20
115.4392973479439
 30
0.0
 10
65.65186996873868
 20
115.4651834401644
 30
0.0
 10
65.67369331200089
 20
115.3480003928204
 30
0.0
 10
65.69966036600745
 20
115.0849317499404
 30
0.0
 10
65.72128281971312
 20
114.6719273231036
 30
0.0
 10
65.7393983905243
 20
114.1747425291778
 30
0.0
 10
65.7444163577949
 20
113.8277500495014
 30
0.0
 10
65.74685662443628
 20
113.6590055903831
 30
0.0
  0
SPLINE
  5
23A
330
1F
100
AcDbEntity
  8
0
  6
Continuous
 62
     7
370
    15
100
AcDbSpline
210
0.0
220
0.0
230
1.0
 70
     8
 71
     3
 72
    12
 73
     8
 74
     0
 42
0.00000001
 43
0.00000001
 12
1.0
 22
0.0
 32
0.0
 13
1.0
 23
0.0
 33
0.0
 40
0.0
 40
0.0
 40
0.0
 40
0.0
 40
0.3369381025106954
 40
0.5038343610786881
 40
0.6765382395699434
 40
0.8351217706552054
 40
1.0
 40
1.0
 40
1.0
 40
1.0
 10
74.47072980384219
 20
92.65543145746375
 30
0.0
 10
74.83528694329175
 20
92.44782126888937
 30
0.0
 10
75.38042093693208
 20
92.13737508920723
 30
0.0
 10
76.29195246445336
 20
91.92379036260667
 30
0.0
 10
76.99856106210058
 20
91.84824624198569
 30
0.0
 10
77.72513453011663
 20
91.85818486962785
 30
0.0
 10
78.18617734740215
 20
91.93806653246531
 30
0.0
 10
78.42118479701567
 20
91.97878462881232
 30
0.0
  0
LINE
  5
23B
330
1F
100
AcDbEntity
  8
0
  6
Continuous
 62
     7
370
    15
100
AcDbLine
 10
78.8191866634
 20
93.9782596907
 30
0.0
 11
78.421184797
 21
91.9787846288
 31
0.0
  0
ARC
  5
23C
330
1F
100
AcDbEntity
  8
0
  6
Continuous
 62
     7
370
    15
100
AcDbCircle
 10
74.533653254
 20
117.9213429881
 30
0.0
 40
2.53393960332791
100
AcDbArc
 50
163.5964592093
 51
196.1966840444
  0
LINE
  5
23D
330
1F
100
AcDbEntity
  8
0
  6
Continuous
 62
     7
370
    15
100
AcDbLine
 10
73.2887245288
 20
113.0735631815
 30
0.0
 11
72.1002861431
 21
117.2145372039
 31
0.0
  0
SPLINE
  5
23E
330
1F
100
AcDbEntity
  8
0
  6
Continuous
 62
     7
370
    15
100
AcDbSpline
210
0.0
220
0.0
230
1.0
 70
     8
 71
     3
 72
    12
 73
     8
 74
     0
 42
0.00000001
 43
0.00000001
 12
1.0
 22
0.0
 32
0.0
 13
1.0
 23
0.0
 33
0.0
 40
0.0
 40
0.0
 40
0.0
 40
0.0
 40
0.2041496096632893
 40
0.4150449324408588
 40
0.6835540771531692
 40
0.9596499670310491
 40
1.0
 40
1.0
 40
1.0
 40
1.0
 10
66.2692391818284
 20
120.4657489216366
 30
0.0
 10
66.30810708127215
 20
120.7086517041795
 30
0.0
 10
66.38712719169689
 20
121.2024835030083
 30
0.0
 10
66.73180345899819
 20
121.8120824977605
 30
0.0
 10
67.26718476414709
 20
122.2788718058067
 30
0.0
 10
67.75776574513623
 20
122.540773381841
 30
0.0
 10
68.08108648746853
 20
122.5659196531316
 30
0.0
 10
68.12231312896003
 20
122.5691260552445
 30
0.0
  0
LINE
  5
23F
330
1F
100
AcDbEntity
  8
0
  6
Continuous
 62
     7
370
    15
100
AcDbLine
 10
65.2561334466
 20
115.3688598207
 30
0.0
 11
65.3357894665
 21
115.7516669264
 31
0.0
  0
LWPOLYLINE
  5
240
330
1F
100
AcDbEntity
  8
0
  6
Continuous
 62
     7
370
    15
100
AcDbPolyline
 90
        9
 70
   128
 43
0.0
 10
72.7137445977
 20
119.6637684262
 10
72.4252944386
 20
120.5221442288
 10
72.1357173791
 20
121.2831027588
 10
71.8510157933
 20
121.9308729997
 10
71.5770896098
 20
122.4520308679
 10
71.3196161708
 20
122.8357758156
 10
71.0839310234
 20
123.0741543478
 10
70.8749198859
 20
123.1622257984
 10
70.8116188219
 20
123.1577065556
  0
SPLINE
  5
241
330
1F
100
AcDbEntity
  8
0
  6
Continuous
 62
     7
370
    15
100
AcDbSpline
210
0.0
220
0.0
230
1.0
 70
     8
 71
     3
 72
    10
 73
     6
 74
     0
 42
0.00000001
 43
0.00000001
 12
1.0
 22
0.0
 32
0.0
 13
1.0
 23
0.0
 33
0.0
 40
0.0
 40
0.0
 40
0.0
 40
0.0
 40
0.1480678755052013
 40
0.9078079151383769
 40
0.9999999999999999
 40
0.9999999999999999
 40
0.9999999999999999
 40
0.9999999999999999
 10
72.71374459768523
 20
119.6637684261837
 30
0.0
 10
72.67270218152879
 20
119.6206572602139
 30
0.0
 10
72.42107008296533
 20
119.3563416038657
 30
0.0
 10
72.21676315221261
 20
119.0015845977194
 30
0.0
 10
72.11397684934336
 20
118.6725373525179
 30
0.0
 10
72.10285379941452
 20
118.6369294083157
 30
0.0
  0
LINE
  5
242
330
1F
100
AcDbEntity
  8
0
  6
Continuous
 62
     7
370
    15
100
AcDbLine
 10
72.2381274721
 20
117.2743681601
 30
0.0
 11
72.7137445977
 21
119.6637684262
 31
0.0
  0
SPLINE
  5
243
330
1F
100
AcDbEntity
  8
0
  6
Continuous
 62
     7
370
    15
100
AcDbSpline
210
0.0
220
0.0
230
1.0
 70
     8
 71
     3
 72
     9
 73
     5
 74
     0
 42
0.00000001
 43
0.00000001
 12
1.0
 22
0.0
 32
0.0
 13
1.0
 23
0.0
 33
0.0
 40
0.0
 40
0.0
 40
0.0
 40
0.0
 40
0.6541879202964928
 40
1.0
 40
1.0
 40
1.0
 40
1.0
 10
72.2405619492649
 20
117.2158727204838
 30
0.0
 10
72.23682103786506
 20
117.2251918567621
 30
0.0
 10
72.23110263297895
 20
117.2394372073552
 30
0.0
 10
72.23632241007996
 20
117.2653925047139
 30
0.0
 10
72.23812747205486
 20
117.2743681600728
 30
0.0
  0
SPLINE
  5
244
330
1F
100
AcDbEntity
  8
0
  6
Continuous
 62
     7
370
    15
100
AcDbSpline
210
0.0
220
0.0
230
1.0
 70
     8
 71
     3
 72
    10
 73
     6
 74
     0
 42
0.00000001
 43
0.00000001
 12
1.0
 22
0.0
 32
0.0
 13
1.0
 23
0.0
 33
0.0
 40
0.0
 40
0.0
 40
0.0
 40
0.0
 40
0.1169353193520679
 40
0.702798145447264
 40
1.0
 40
1.0
 40
1.0
 40
1.0
 10
72.3062742074846
 20
116.5727097323575
 30
0.0
 10
72.31272484182135
 20
116.5777387506251
 30
0.0
 10
72.35149408514263
 20
116.607963876203
 30
0.0
 10
72.40173037827437
 20
116.6328001866556
 30
0.0
 10
72.44174223697453
 20
116.6482500481484
 30
0.0
 10
72.4552085196494
 20
116.6534498116412
 30
0.0
  0
LINE
  5
245
330
1F
100
AcDbEntity
  8
0
  6
Continuous
 62
     7
370
    15
100
AcDbLine
 10
77.0447191356
 20
100.6201095662
 30
0.0
 11
76.0315840637
 21
102.434024193
 31
0.0
  0
LINE
  5
246
330
1F
100
AcDbEntity
  8
0
  6
Continuous
 62
     7
370
    15
100
AcDbLine
 10
81.6387659327
 20
86.2818248352
 30
0.0
 11
77.8006950898
 21
99.0148149213
 31
0.0
  0
LWPOLYLINE
  5
247
330
1F
100
AcDbEntity
  8
0
  6
Continuous
 62
     7
370
    15
100
AcDbPolyline
 90
        9
 70
   128
 43
0.0
 10
81.6528372855
 20
85.7509933195
 10
81.6819857903
 20
85.7125967523
 10
81.704346256
 20
85.7125706753
 10
81.7176996245
 20
85.7509150884
 10
81.7207207186
 20
85.8238227448
 10
81.7131097176
 20
85.9240665814
 10
81.695621939
 20
86.0416888973
 10
81.6699928658
 20
86.1650220832
 10
81.6387659327
 20
86.2818248352
  0
LINE
  5
248
330
1F
100
AcDbEntity
  8
0
  6
Continuous
 62
     7
370
    15
100
AcDbLine
 10
78.1929509288
 20
91.9455699405
 30
0.0
 11
81.6528372855
 21
85.7509933195
 31
0.0
  0
LWPOLYLINE
  5
249
330
1F
100
AcDbEntity
  8
0
  6
Continuous
 62
     7
370
    15
100
AcDbPolyline
 90
        9
 70
   128
 43
0.0
 10
81.6508746905
 20
85.7684053263
 10
81.6785657701
 20
85.7319272837
 10
81.6998082121
 20
85.7319012067
 10
81.7124939133
 20
85.7683308205
 10
81.7153639512
 20
85.837595143
 10
81.7081335011
 20
85.9328247389
 10
81.6915201106
 20
86.0445648214
 10
81.6671724936
 20
86.1617326519
 10
81.637506901
 20
86.2726941487
  0
LINE
  5
24A
330
1F
100
AcDbEntity
  8
0
  6
Continuous
 62
     7
370
    15
100
AcDbLine
 10
81.637506901
 20
86.2726941487
 30
0.0
 11
77.8104795648
 21
98.9690460047
 31
0.0
  0
LINE
  5
24B
330
1F
100
AcDbEntity
  8
0
  6
Continuous
 62
     7
370
    15
100
AcDbLine
 10
77.0293979479
 20
100.6336416832
 30
0.0
 11
76.1468180029
 21
102.2138129702
 31
0.0
  0
LINE
  5
24C
330
1F
100
AcDbEntity
  8
0
  6
Continuous
 62
     7
370
    15
100
AcDbLine
 10
76.1287875978
 20
102.2460944733
 30
0.0
 11
76.0370523242
 21
102.4103369346
 31
0.0
  0
LINE
  5
24D
330
1F
100
AcDbEntity
  8
0
  6
Continuous
 62
     7
370
    15
100
AcDbLine
 10
78.2001295632
 20
91.9466130218
 30
0.0
 11
81.6508746905
 21
85.7684053263
 31
0.0
  0
LINE
  5
24E
330
1F
100
AcDbEntity
  8
0
  6
Continuous
 62
     7
370
    15
100
AcDbLine
 10
86.2240137106
 20
87.256446459
 30
0.0
 11
82.2539787371
 21
100.4272363862
 31
0.0
  0
ARC
  5
24F
330
1F
100
AcDbEntity
  8
0
  6
Continuous
 62
     7
370
    15
100
AcDbCircle
 10
85.316348793
 20
86.8748749303
 30
0.0
 40
0.9846077564835264
100
AcDbArc
 50
348.7381544722
 51
22.8013051878
  0
LINE
  5
250
330
1F
100
AcDbEntity
  8
0
  6
Continuous
 62
     7
370
    15
100
AcDbLine
 10
79.3429056687
 20
92.5544462881
 30
0.0
 11
78.6520028526
 21
94.8465503535
 31
0.0
  0
LWPOLYLINE
  5
251
330
1F
100
AcDbEntity
  8
0
  6
Continuous
 62
     7
370
    15
100
AcDbPolyline
 90
        9
 70
   128
 43
0.0
 10
79.3780840507
 20
91.2273674986
 10
79.4509553855
 20
91.1313816688
 10
79.5068566261
 20
91.1313146135
 10
79.5402398838
 20
91.2271737835
 10
79.547792677
 20
91.4094485125
 10
79.5287650583
 20
91.6600525162
 10
79.4850457499
 20
91.9541083059
 10
79.420973085
 20
92.262439408
 10
79.3429056687
 20
92.5544462881
  0
LINE
  5
252
330
1F
100
AcDbEntity
  8
0
  6
Continuous
 62
     7
370
    15
100
AcDbLine
 10
78.5623337181
 20
92.6878861865
 30
0.0
 11
79.3780840507
 21
91.2273674986
 31
0.0
  0
ARC
  5
253
330
1F
100
AcDbEntity
  8
0
  6
Continuous
 62
     7
370
    15
100
AcDbCircle
 10
80.8841451977
 20
100.0166639279
 30
0.0
 40
1.430039743897006
100
AcDbArc
 50
16.6847532699
 51
19.5604399557
  0
ARC
  5
254
330
1F
100
AcDbEntity
  8
0
  6
Continuous
 62
     7
370
    15
100
AcDbCircle
 10
87.7809154229
 20
87.6437806618
 30
0.0
 40
1.230769832382145
100
AcDbArc
 50
348.7381790385
 51
22.801221098
  0
LINE
  5
255
330
1F
100
AcDbEntity
  8
0
  6
Continuous
 62
     7
370
    15
100
AcDbLine
 10
86.1412386915
 20
87.5310562334
 30
0.0
 11
82.2333130966
 21
100.4957947663
 31
0.0
  0
LINE
  5
256
330
1F
100
AcDbEntity
  8
0
  6
Continuous
 62
     7
370
    15
100
AcDbLine
 10
88.9155066145
 20
88.1207473359
 30
0.0
 11
85.0075806996
 21
101.0854840061
 31
0.0
  0
ARC
  5
257
330
1F
100
AcDbEntity
  8
0
  6
Continuous
 62
     7
370
    15
100
AcDbCircle
 10
88.6414139078
 20
87.8357284118
 30
0.0
 40
0.5831240071129192
100
AcDbArc
 50
352.7984287113
 51
21.0546788998
  0
LINE
  5
258
330
1F
100
AcDbEntity
  8
0
  6
Continuous
 62
     7
370
    15
100
AcDbLine
 10
85.0532527586
 20
101.0951921126
 30
0.0
 11
85.2901181245
 21
100.9686980179
 31
0.0
  0
LINE
  5
259
330
1F
100
AcDbEntity
  8
0
  6
Continuous
 62
     7
370
    15
100
AcDbLine
 10
85.9457298687
 20
98.7936742386
 30
0.0
 11
89.1856073907
 21
88.0452208003
 31
0.0
  0
LINE
  5
25A
330
1F
100
AcDbEntity
  8
0
  6
Continuous
 62
     7
370
    15
100
AcDbLine
 10
85.2018285116
 20
101.1267732611
 30
0.0
 11
85.2901181245
 21
100.9686980179
 31
0.0
  0
ARC
  5
25B
330
1F
100
AcDbEntity
  8
0
  6
Continuous
 62
     7
370
    15
100
AcDbCircle
 10
81.7678177303
 20
125.7076960585
 30
0.0
 40
39.20000000000001
100
AcDbArc
 50
294.5708894508
 51
323.6501352984
  0
LINE
  5
25C
330
1F
100
AcDbEntity
  8
0
  6
Continuous
 62
     7
370
    15
100
AcDbLine
 10
89.1504406502
 20
88.1618857166
 30
0.0
 11
98.0679129755
 21
90.0573543987
 31
0.0
  0
ARC
  5
25D
330
1F
100
AcDbEntity
  8
0
  6
Continuous
 62
     7
370
    15
100
AcDbCircle
 10
81.7678177303
 20
125.7076960585
 30
0.0
 40
39.20000000000001
100
AcDbArc
 50
293.1045639704
 51
294.5708894508
  0
LINE
  5
25E
330
1F
100
AcDbEntity
  8
0
  6
Continuous
 62
     7
370
    15
100
AcDbLine
 10
97.1503050571
 20
89.6519198796
 30
0.0
 11
89.2065025439
 21
87.9634097001
 31
0.0
  0
ARC
  5
25F
330
1F
100
AcDbEntity
  8
0
  6
Continuous
 62
     7
370
    15
100
AcDbCircle
 10
210.247242435
 20
133.8261272115
 30
0.0
 40
129.1438685636085
100
AcDbArc
 50
194.6568655543
 51
195.7396668908
  0
LINE
  5
260
330
1F
100
AcDbEntity
  8
0
  6
Continuous
 62
     7
370
    15
100
AcDbLine
 10
77.946391659
 20
99.5845813087
 30
0.0
 11
85.3059068361
 21
101.1488958976
 31
0.0
  0
ARC
  5
261
330
1F
100
AcDbEntity
  8
0
  6
Continuous
 62
     7
370
    15
100
AcDbCircle
 10
218.5373259584
 20
136.3095196093
 30
0.0
 40
145.3084027176168
100
AcDbArc
 50
191.9824886948
 51
194.6395854284
  0
SPLINE
  5
262
330
1F
100
AcDbEntity
  8
0
  6
Continuous
 62
     7
370
    15
100
AcDbSpline
210
0.0
220
0.0
230
1.0
 70
     8
 71
     3
 72
    50
 73
    46
 74
     0
 42
0.00000001
 43
0.00000001
 12
1.0
 22
0.0
 32
0.0
 13
1.0
 23
0.0
 33
0.0
 40
0.0
 40
0.0
 40
0.0
 40
0.0
 40
0.0625000000000003
 40
0.0625000000000003
 40
0.1250000000000005
 40
0.1250000000000005
 40
0.1875000000000008
 40
0.1875000000000008
 40
0.2500000000000011
 40
0.2500000000000011
 40
0.3125000000000013
 40
0.3125000000000013
 40
0.3750000000000016
 40
0.3750000000000016
 40
0.4062500000000016
 40
0.4062500000000016
 40
0.4375000000000016
 40
0.4375000000000016
 40
0.4687500000000017
 40
0.4687500000000017
 40
0.5000000000000017
 40
0.5000000000000017
 40
0.5312500000000017
 40
0.5312500000000017
 40
0.5625000000000017
 40
0.5625000000000017
 40
0.5937500000000018
 40
0.5937500000000018
 40
0.6250000000000018
 40
0.6250000000000018
 40
0.6562500000000018
 40
0.6562500000000018
 40
0.6875000000000018
 40
0.6875000000000018
 40
0.7500000000000013
 40
0.7500000000000013
 40
0.812500000000001
 40
0.812500000000001
 40
0.8750000000000006
 40
0.8750000000000006
 40
0.9375000000000002
 40
0.9375000000000002
 40
0.9687500000000001
 40
0.9687500000000001
 40
1.0
 40
1.0
 40
1.0
 40
1.0
 10
92.85010643604629
 20
109.6392798227165
 30
0.0
 10
92.64474870032022
 20
109.3140456368285
 30
0.0
 10
92.5082923706505
 20
108.9604957538634
 30
0.0
 10
92.34509933762003
 20
108.2094970241782
 30
0.0
 10
92.32254400172975
 20
107.8290702094045
 30
0.0
 10
92.37195602475911
 20
107.0629481307412
 30
0.0
 10
92.44320157888151
 20
106.6906664592575
 30
0.0
 10
92.6611690779009
 20
105.9654194967867
 30
0.0
 10
92.810139351656
 20
105.609556104667
 30
0.0
 10
93.16952729903193
 20
104.9419436533106
 30
0.0
 10
93.38013118614293
 20
104.6271491969975
 30
0.0
 10
93.86863255970263
 20
104.0383862130661
 30
0.0
 10
94.14080573904809
 20
103.7711367151918
 30
0.0
 10
94.59663453129717
 20
103.4254739461044
 30
0.0
 10
94.75825901917909
 20
103.3186630237136
 30
0.0
 10
95.09416102996502
 20
103.1332086906747
 30
0.0
 10
95.26844437238837
 20
103.0541483527319
 30
0.0
 10
95.63331353867503
 20
102.9311127822298
 30
0.0
 10
95.82283181692685
 20
102.8880681959844
 30
0.0
 10
96.20321106019458
 20
102.8519117990883
 30
0.0
 10
96.39841451785959
 20
102.8592653998652
 30
0.0
 10
96.76788035988864
 20
102.9302769802378
 30
0.0
 10
96.94786856993817
 20
102.9948475001793
 30
0.0
 10
97.27602856922695
 20
103.172672446545
 30
0.0
 10
97.42523468209538
 20
103.2856986745214
 30
0.0
 10
97.68915384986009
 20
103.5435109155678
 30
0.0
 10
97.80275523293037
 20
103.6862386824834
 30
0.0
 10
98.00208535454678
 20
103.993251159893
 30
0.0
 10
98.0874325073367
 20
104.1578124763578
 30
0.0
 10
98.23025761715671
 20
104.4938649009434
 30
0.0
 10
98.28870311933714
 20
104.6668710749449
 30
0.0
 10
98.3840464576228
 20
105.0215250656401
 30
0.0
 10
98.42102101346171
 20
105.2043103893282
 30
0.0
 10
98.50096984650284
 20
105.7551001426941
 30
0.0
 10
98.51437617412344
 20
106.1254160375958
 30
0.0
 10
98.47123820633549
 20
106.8724202926099
 30
0.0
 10
98.41314981011931
 20
107.251635262422
 30
0.0
 10
98.22743334083657
 20
107.9837461696149
 30
0.0
 10
98.10014612258783
 20
108.3405355267098
 30
0.0
 10
97.76331990751775
 20
109.0315752033483
 30
0.0
 10
97.55807062669025
 20
109.3559928267997
 30
0.0
 10
97.18926110996371
 20
109.7945969412689
 30
0.0
 10
97.05471661650928
 20
109.9339991415873
 30
0.0
 10
96.76815302392214
 20
110.1879967895415
 30
0.0
 10
96.61586463867742
 20
110.3032591737823
 30
0.0
 10
96.45321827477233
 20
110.4051448864687
 30
0.0
  0
LINE
  5
263
330
1F
100
AcDbEntity
  8
0
  6
Continuous
 62
     7
370
    15
100
AcDbLine
 10
113.7678192502
 20
114.0854768238
 30
0.0
 11
113.7678192502
 21
103.0661407641
 31
0.0
  0
SPLINE
  5
264
330
1F
100
AcDbEntity
  8
0
  6
Continuous
 62
     7
370
    15
100
AcDbSpline
210
0.0
220
0.0
230
1.0
 70
     8
 71
     3
 72
     8
 73
     4
 74
     0
 42
0.00000001
 43
0.00000001
 12
1.0
 22
0.0
 32
0.0
 13
1.0
 23
0.0
 33
0.0
 40
0.0
 40
0.0
 40
0.0
 40
0.0
 40
1.0
 40
1.0
 40
1.0
 40
1.0
 10
113.7678177302598
 20
103.0661413415201
 30
0.0
 10
113.6267888519841
 20
102.8668209255308
 30
0.0
 10
113.484180842587
 20
102.669217676282
 30
0.0
 10
113.3399973781358
 20
102.4732932840732
 30
0.0
  0
ARC
  5
265
330
1F
100
AcDbEntity
  8
0
  6
Continuous
 62
     7
370
    15
100
AcDbCircle
 10
81.7678177303
 20
130.7076960585
 30
0.0
 40
31.49999999999999
100
AcDbArc
 50
128.2813038926
 51
128.8077223034
  0
SPLINE
  5
266
330
1F
100
AcDbEntity
  8
0
  6
Continuous
 62
     7
370
    15
100
AcDbSpline
210
0.0
220
0.0
230
1.0
 70
     8
 71
     3
 72
    10
 73
     6
 74
     0
 42
0.00000001
 43
0.00000001
 12
1.0
 22
0.0
 32
0.0
 13
1.0
 23
0.0
 33
0.0
 40
0.0
 40
0.0
 40
0.0
 40
0.0
 40
0.5
 40
0.5
 40
1.0
 40
1.0
 40
1.0
 40
1.0
 10
62.29936496583545
 20
155.6538474148161
 30
0.0
 10
62.29822539833646
 20
155.5950370158172
 30
0.0
 10
62.29391428784833
 20
155.546685591201
 30
0.0
 10
62.27859020007656
 20
155.4720838622661
 30
0.0
 10
62.26739761786969
 20
155.4460056024374
 30
0.0
 10
62.25284576602881
 20
155.4345209503664
 30
0.0
  0
LINE
  5
267
330
1F
100
AcDbEntity
  8
0
  6
Continuous
 62
     7
370
    15
100
AcDbLine
 10
62.2993649488
 20
155.6538473597
 30
0.0
 11
71.6901558956
 21
128.276353913
 31
0.0
  0
LINE
  5
268
330
1F
100
AcDbEntity
  8
0
  6
Continuous
 62
     7
370
    15
100
AcDbLine
 10
71.6901558956
 20
128.276353913
 30
0.0
 11
76.3950336298
 21
106.1416454396
 31
0.0
  0
ARC
  5
269
330
1F
100
AcDbEntity
  8
0
  6
Continuous
 62
     7
370
    15
100
AcDbCircle
 10
64.3849458906
 20
106.7724201873
 30
0.0
 40
10.77592675459969
100
AcDbArc
 50
356.6417916549
 51
28.1895173089
  0
ARC
  5
26A
330
1F
100
AcDbEntity
  8
0
  6
Continuous
 62
     7
370
    15
100
AcDbCircle
 10
63.6441592574
 20
115.8346979587
 30
0.0
 40
8.814091299602044
100
AcDbArc
 50
0.8855480932
 51
11.1674705336
  0
LINE
  5
26B
330
1F
100
AcDbEntity
  8
0
  6
Continuous
 62
     7
370
    15
100
AcDbLine
 10
75.7997219955
 20
103.4279782108
 30
0.0
 11
77.946391659
 21
99.5845813087
 31
0.0
  0
LINE
  5
26C
330
1F
100
AcDbEntity
  8
0
  6
Continuous
 62
     7
370
    15
100
AcDbLine
 10
71.6901558956
 20
128.276353913
 30
0.0
 11
113.1261454468
 21
137.0838451913
 31
0.0
  0
ARC
  5
26D
330
1F
100
AcDbEntity
  8
0
  6
Continuous
 62
     7
370
    15
100
AcDbCircle
 10
81.7678177303
 20
130.7076960585
 30
0.0
 40
32.00000000000001
100
AcDbArc
 50
0.0
 51
11.4933771447
  0
LINE
  5
26E
330
1F
100
AcDbEntity
  8
0
  6
Continuous
 62
     7
370
    15
100
AcDbLine
 10
113.7678192502
 20
130.7076960585
 30
0.0
 11
113.7678192502
 21
114.0854768238
 31
0.0
  0
ELLIPSE
  5
26F
330
1F
100
AcDbEntity
  8
0
  6
Continuous
 62
     7
370
    15
100
AcDbEllipse
 10
95.3369553106
 20
107.2052603544
 30
0.0
 11
-1.058922219707483
 21
3.553106736421896
 31
0.0
210
0.0
220
0.0
230
1.0
 40
0.7969520202
 41
5.547141880007874
 42
6.891287497904758
  0
SPLINE
  5
270
330
1F
100
AcDbEntity
  8
0
  6
Continuous
 62
     7
370
    15
100
AcDbSpline
210
0.0
220
0.0
230
1.0
 70
     8
 71
     3
 72
     8
 73
     4
 74
     0
 42
0.00000001
 43
0.00000001
 12
1.0
 22
0.0
 32
0.0
 13
1.0
 23
0.0
 33
0.0
 40
0.0
 40
0.0
 40
0.0
 40
0.0
 40
1.0
 40
1.0
 40
1.0
 40
1.0
 10
62.29936496583546
 20
155.6538474148161
 30
0.0
 10
62.70080794113202
 20
155.8497674835358
 30
0.0
 10
63.08078797134095
 20
156.0697129931263
 30
0.0
 10
63.43240063500133
 20
156.3214126951119
 30
0.0
  0
ARC
  5
271
330
1F
100
AcDbEntity
  8
0
  6
Continuous
 62
     7
370
    15
100
AcDbCircle
 10
81.7678177303
 20
130.7076960585
 30
0.0
 40
31.5
100
AcDbArc
 50
50.5470816837
 51
125.5967419418
  0
SPLINE
  5
272
330
1F
100
AcDbEntity
  8
0
  6
Continuous
 62
     7
370
    15
100
AcDbSpline
210
0.0
220
0.0
230
1.0
 70
     8
 71
     3
 72
    10
 73
     6
 74
     0
 42
0.00000001
 43
0.00000001
 12
1.0
 22
0.0
 32
0.0
 13
1.0
 23
0.0
 33
0.0
 40
0.0
 40
0.0
 40
0.0
 40
0.0
 40
0.5
 40
0.5
 40
1.0
 40
1.0
 40
1.0
 40
1.0
 10
101.784301784199
 20
155.0303267985382
 30
0.0
 10
102.0986534996158
 20
154.771628791476
 30
0.0
 10
102.4394053214916
 20
154.5402356123228
 30
0.0
 10
103.1596982890018
 20
154.1175678729157
 30
0.0
 10
103.542276889542
 20
153.9243640564886
 30
0.0
 10
103.946998589092
 20
153.7746407289409
 30
0.0
  0
ARC
  5
273
330
1F
100
AcDbEntity
  8
0
  6
Continuous
 62
     7
370
    15
100
AcDbCircle
 10
81.7678177303
 20
130.7076960585
 30
0.0
 40
32.00000000000001
100
AcDbArc
 50
11.4933771447
 51
46.1240430703
  0
LWPOLYLINE
  5
274
330
1F
100
AcDbEntity
  8
0
  6
Continuous
 62
     7
370
    15
100
AcDbPolyline
 90
        3
 70
   128
 43
0.0
 10
72.3010485565
 20
116.5793565816
 10
72.411319012
 20
116.3220824456
 10
72.4521183913
 20
116.2419337562
  0
SPLINE
  5
275
330
1F
100
AcDbEntity
  8
0
  6
Continuous
 62
     7
370
    15
100
AcDbSpline
210
0.0
220
0.0
230
1.0
 70
     8
 71
     3
 72
    18
 73
    14
 74
     0
 42
0.00000001
 43
0.00000001
 12
1.0
 22
0.0
 32
0.0
 13
1.0
 23
0.0
 33
0.0
 40
0.0
 40
0.0
 40
0.0
 40
0.0
 40
0.2499999999999998
 40
0.2499999999999998
 40
0.4999999999999996
 40
0.4999999999999996
 40
0.6249999999999998
 40
0.6249999999999998
 40
0.75
 40
0.75
 40
0.8750000000000002
 40
0.8750000000000002
 40
1.0
 40
1.0
 40
1.0
 40
1.0
 10
62.02648912700378
 20
155.254181447983
 30
0.0
 10
61.93254331588546
 20
155.1786262269909
 30
0.0
 10
61.76138209962298
 20
155.0406199082479
 30
0.0
 10
61.28016235664542
 20
154.6368545688298
 30
0.0
 10
60.98130806697466
 20
154.3801522635844
 30
0.0
 10
60.46647396445164
 20
153.9145117698426
 30
0.0
 10
60.28578219591783
 20
153.7476134824049
 30
0.0
 10
59.91384613319877
 20
153.3951280646564
 30
0.0
 10
59.72187349204656
 20
153.2088890513996
 30
0.0
 10
59.32802437814109
 20
152.8161337638731
 30
0.0
 10
59.12668784274288
 20
152.610084397324
 30
0.0
 10
58.72428517519627
 20
152.1863129811939
 30
0.0
 10
58.52218558152957
 20
151.9675750586463
 30
0.0
 10
58.31978984692508
 20
151.7419535538457
 30
0.0
  0
ARC
  5
276
330
1F
100
AcDbEntity
  8
0
  6
Continuous
 62
     7
370
    15
100
AcDbCircle
 10
81.7678177303
 20
130.7076960585
 30
0.0
 40
31.5
100
AcDbArc
 50
138.1060309026
 51
218.755957043
  0
CIRCLE
  5
277
330
1F
100
AcDbEntity
  8
VERMASSUNG
  6
CENTERX2
100
AcDbCircle
 10
81.7678177303
 20
125.7077212347
 30
0.0
 40
39.99999999999999
  0
DIMENSION
  5
278
330
1F
100
AcDbEntity
  8
VERMASSUNG
100
AcDbDimension
  2
_D_5
 10
107.0899030465
 20
94.7433546944
 30
0.0
 11
113.7750410432
 21
86.5686305073
 31
0.0
 70
   160
  1
%%c<> min. 
 71
     2
 42
-1.0
  3
SLDDIMSTYLE3
100
AcDbAlignedDimension
 13
56.445732414
 23
156.6720877749
 33
0.0
 14
107.0899030465
 24
94.7433546944
 34
0.0
 50
-50.7243359358
100
AcDbRotatedDimension
  0
OLE2FRAME
  5
287
330
1F
100
AcDbEntity
  8
0
100
AcDbOle2Frame
 70
     2
  3
Paintbrush-Bild
 10
13.8511154363
 20
38.264191557
 30
0.0
 11
51.6290888628
 21
31.9806341108
 31
0.0
 71
     2
 72
     0
 73
     1
 90
    12928
310
80552BED0767C5B32B40DDAF6807D121434000000000000000006FFBDDFB85D0
310
4940DDAF6807D121434000000000000000006FFBDDFB85D04940416F4BD60AFB
310
3F4000000000000000002BED0767C5B32B40416F4BD60AFB3F40000000000000
310
0000000000000100000000010000010000000100000000000100000000320000
310
D0CF11E0A1B11AE1000000000000000000000000000000003E000300FEFF0900
310
0600000000000000000000000100000001000000000000000010000002000000
310
01000000FEFFFFFF0000000000000000FFFFFFFFFFFFFFFFFFFFFFFFFFFFFFFF
310
FFFFFFFFFFFFFFFFFFFFFFFFFFFFFFFFFFFFFFFFFFFFFFFFFFFFFFFFFFFFFFFF
310
FFFFFFFFFFFFFFFFFFFFFFFFFFFFFFFFFFFFFFFFFFFFFFFFFFFFFFFFFFFFFFFF
310
FFFFFFFFFFFFFFFFFFFFFFFFFFFFFFFFFFFFFFFFFFFFFFFFFFFFFFFFFFFFFFFF
310
FFFFFFFFFFFFFFFFFFFFFFFFFFFFFFFFFFFFFFFFFFFFFFFFFFFFFFFFFFFFFFFF
310
FFFFFFFFFFFFFFFFFFFFFFFFFFFFFFFFFFFFFFFFFFFFFFFFFFFFFFFFFFFFFFFF
310
FFFFFFFFFFFFFFFFFFFFFFFFFFFFFFFFFFFFFFFFFFFFFFFFFFFFFFFFFFFFFFFF
310
FFFFFFFFFFFFFFFFFFFFFFFFFFFFFFFFFFFFFFFFFFFFFFFFFFFFFFFFFFFFFFFF
310
FFFFFFFFFFFFFFFFFFFFFFFFFFFFFFFFFFFFFFFFFFFFFFFFFFFFFFFFFFFFFFFF
310
FFFFFFFFFFFFFFFFFFFFFFFFFFFFFFFFFFFFFFFFFFFFFFFFFFFFFFFFFFFFFFFF
310
FFFFFFFFFFFFFFFFFFFFFFFFFFFFFFFFFFFFFFFFFFFFFFFFFFFFFFFFFFFFFFFF
310
FFFFFFFFFFFFFFFFFFFFFFFFFFFFFFFFFFFFFFFFFFFFFFFFFFFFFFFFFFFFFFFF
310
FFFFFFFFFFFFFFFFFFFFFFFFFFFFFFFFFFFFFFFFFFFFFFFFFFFFFFFFFFFFFFFF
310
FFFFFFFFFFFFFFFFFFFFFFFFFFFFFFFFFFFFFFFFFFFFFFFFFFFFFFFFFFFFFFFF
310
FDFFFFFFFEFFFFFFFEFFFFFFFEFFFFFF05000000060000000700000008000000
310
090000000A0000000B0000000C0000000D0000000E0000000F00000010000000
310
11000000120000001300000014000000150000001600000017000000FEFFFFFF
310
FFFFFFFFFFFFFFFFFFFFFFFFFFFFFFFFFFFFFFFFFFFFFFFFFFFFFFFFFFFFFFFF
310
FFFFFFFFFFFFFFFFFFFFFFFFFFFFFFFFFFFFFFFFFFFFFFFFFFFFFFFFFFFFFFFF
310
FFFFFFFFFFFFFFFFFFFFFFFFFFFFFFFFFFFFFFFFFFFFFFFFFFFFFFFFFFFFFFFF
310
FFFFFFFFFFFFFFFFFFFFFFFFFFFFFFFFFFFFFFFFFFFFFFFFFFFFFFFFFFFFFFFF
310
FFFFFFFFFFFFFFFFFFFFFFFFFFFFFFFFFFFFFFFFFFFFFFFFFFFFFFFFFFFFFFFF
310
FFFFFFFFFFFFFFFFFFFFFFFFFFFFFFFFFFFFFFFFFFFFFFFFFFFFFFFFFFFFFFFF
310
FFFFFFFFFFFFFFFFFFFFFFFFFFFFFFFFFFFFFFFFFFFFFFFFFFFFFFFFFFFFFFFF
310
FFFFFFFFFFFFFFFFFFFFFFFFFFFFFFFFFFFFFFFFFFFFFFFFFFFFFFFFFFFFFFFF
310
FFFFFFFFFFFFFFFFFFFFFFFFFFFFFFFFFFFFFFFFFFFFFFFFFFFFFFFFFFFFFFFF
310
FFFFFFFFFFFFFFFFFFFFFFFFFFFFFFFFFFFFFFFFFFFFFFFFFFFFFFFFFFFFFFFF
310
FFFFFFFFFFFFFFFFFFFFFFFFFFFFFFFFFFFFFFFFFFFFFFFFFFFFFFFFFFFFFFFF
310
FFFFFFFFFFFFFFFFFFFFFFFFFFFFFFFFFFFFFFFFFFFFFFFFFFFFFFFFFFFFFFFF
310
FFFFFFFFFFFFFFFFFFFFFFFFFFFFFFFFFFFFFFFFFFFFFFFFFFFFFFFFFFFFFFFF
310
52006F006F007400200045006E00740072007900000000000000000000000000
310
0000000000000000000000000000000000000000000000000000000000000000
310
16000500FFFFFFFFFFFFFFFF020000000A00030000000000C000000000000046
310
00000000000000000000000050E8F671AB39CD0103000000C000000000000000
310
01004F006C006500000000000000000000000000000000000000000000000000
310
0000000000000000000000000000000000000000000000000000000000000000
310
0A000200FFFFFFFFFFFFFFFFFFFFFFFF00000000000000000000000000000000
310
0000000000000000000000000000000000000000000000001400000000000000
310
010043006F006D0070004F0062006A0000000000000000000000000000000000
310
0000000000000000000000000000000000000000000000000000000000000000
310
120002010100000003000000FFFFFFFF00000000000000000000000000000000
310
0000000000000000000000000000000000000000010000004D00000000000000
310
01004F006C006500310030004E00610074006900760065000000000000000000
310
0000000000000000000000000000000000000000000000000000000000000000
310
1A000200FFFFFFFFFFFFFFFFFFFFFFFF00000000000000000000000000000000
310
0000000000000000000000000000000000000000040000002426000000000000
310
FEFFFFFF02000000FEFFFFFFFFFFFFFFFFFFFFFFFFFFFFFFFFFFFFFFFFFFFFFF
310
FFFFFFFFFFFFFFFFFFFFFFFFFFFFFFFFFFFFFFFFFFFFFFFFFFFFFFFFFFFFFFFF
310
FFFFFFFFFFFFFFFFFFFFFFFFFFFFFFFFFFFFFFFFFFFFFFFFFFFFFFFFFFFFFFFF
310
FFFFFFFFFFFFFFFFFFFFFFFFFFFFFFFFFFFFFFFFFFFFFFFFFFFFFFFFFFFFFFFF
310
FFFFFFFFFFFFFFFFFFFFFFFFFFFFFFFFFFFFFFFFFFFFFFFFFFFFFFFFFFFFFFFF
310
FFFFFFFFFFFFFFFFFFFFFFFFFFFFFFFFFFFFFFFFFFFFFFFFFFFFFFFFFFFFFFFF
310
FFFFFFFFFFFFFFFFFFFFFFFFFFFFFFFFFFFFFFFFFFFFFFFFFFFFFFFFFFFFFFFF
310
FFFFFFFFFFFFFFFFFFFFFFFFFFFFFFFFFFFFFFFFFFFFFFFFFFFFFFFFFFFFFFFF
310
FFFFFFFFFFFFFFFFFFFFFFFFFFFFFFFFFFFFFFFFFFFFFFFFFFFFFFFFFFFFFFFF
310
FFFFFFFFFFFFFFFFFFFFFFFFFFFFFFFFFFFFFFFFFFFFFFFFFFFFFFFFFFFFFFFF
310
FFFFFFFFFFFFFFFFFFFFFFFFFFFFFFFFFFFFFFFFFFFFFFFFFFFFFFFFFFFFFFFF
310
FFFFFFFFFFFFFFFFFFFFFFFFFFFFFFFFFFFFFFFFFFFFFFFFFFFFFFFFFFFFFFFF
310
FFFFFFFFFFFFFFFFFFFFFFFFFFFFFFFFFFFFFFFFFFFFFFFFFFFFFFFFFFFFFFFF
310
FFFFFFFFFFFFFFFFFFFFFFFFFFFFFFFFFFFFFFFFFFFFFFFFFFFFFFFFFFFFFFFF
310
FFFFFFFFFFFFFFFFFFFFFFFFFFFFFFFFFFFFFFFFFFFFFFFFFFFFFFFFFFFFFFFF
310
FFFFFFFFFFFFFFFFFFFFFFFFFFFFFFFFFFFFFFFFFFFFFFFFFFFFFFFFFFFFFFFF
310
0100000200000000000000000000000000000000000000000000000000000000
310
0000000000000000000000000000000000000000000000000000000000000000
310
0100FEFF030A0000FFFFFFFF0A00030000000000C00000000000004607000000
310
5042727573680007000000504272757368000700000050427275736800F439B2
310
7100000000000000000000000000000000000000000000000000000000000000
310
0000000000000000000000000000000000000000000000000000000000000000
310
0000000000000000000000000000000000000000000000000000000000000000
310
0000000000000000000000000000000000000000000000000000000000000000
310
0000000000000000000000000000000000000000000000000000000000000000
310
0000000000000000000000000000000000000000000000000000000000000000
310
0000000000000000000000000000000000000000000000000000000000000000
310
0000000000000000000000000000000000000000000000000000000000000000
310
0000000000000000000000000000000000000000000000000000000000000000
310
0000000000000000000000000000000000000000000000000000000000000000
310
0000000000000000000000000000000000000000000000000000000000000000
310
0000000000000000000000000000000000000000000000000000000000000000
310
20260000424D0E260000000000003E00000028000000B40200006E0000000100
310
01000000000000000000130B0000130B00000200000002000000000000FFFFFF
310
FFFFFFFFFFFFFFFFFFFFFFFFFFFFFFFFFFFFFFFFFFFFFFFFFFFFFFFFFFFFFFFF
310
FFFFFFFFFFFFFFFFFFFFFFFFFFFFFFFFFFFFFFFFFFFFFFFFFFFFFFFFFFFFFFFF
310
FFFFFFFFFFFFFFFFFFFFFFFFFFFFFFFFFFFFFFFFFFFFFFFFF000FFFFFFFFFFFF
310
FFFFFFFFFFFFFFFFFFFFFFFFFFFFFFFFFFFFFFFFFFFFFFFFFFFFFFFFFFFFFFFF
310
FFFFFFFFFFFFFFFFFFFFFFFFFFFFFFFFFFFFFFFFFFFFFFFFFFFFFFFFFFFFFFFF
310
FFFFFFFFFFFFFFFFFFFFFFFFFFFFFFFFF000FFFFFFFFFFFFFFFFFFFFFFFFFFFF
310
FFFFFFFFFFFFFFFFFFFFFFFFFFFFFFFFFFFFFFFFFFFFFFFFFFFFFFFFFFFFFFFF
310
FFFFFFFFFFFFFFFFFFFFFFFFFFFFFFFFFFFFFFFFFFFFFFFFFFFFFFFFFFFFFFFF
310
FFFFFFFFFFFFFFFFF000FFFFFFFFFFFFFFFFFFFFFFFFFFFFFFFFFFFFFFFFFFFF
310
FFFFFFFFFFFFFFFFFFFFFFFFFFFFFFFFFFFFFFFFFFFFFFFFFFFFFFFFFFFFFFFF
310
FFFFFFFFFFFFFFFFFFFFFFFFFFFFFFFFFFFFFFFFFFFFFFFFFFFFFFFFFFFFFFFF
310
F000FFFFFFFFFFFFFFFFFFFFFFFFFFFFFFFFFFFFFFFFFFFFFFFFFFFFFFFFFFFF
310
FFFFFFFFFFFFFFFFFFFFFFFFFFFFFFFFFFFFFFFFFFFFFFFFFFFFFFFFFFFFFFFF
310
FFFFFFFFFFFFFFFFFFFFFFFFFFFFFFFFFFFFFFFFFFFFFFFFF000FFFFFFFFFFFF
310
FFFFFFFFFFFFFFFFFFFFFFFFFFFFFFFFFFFFFFFFFFFFFFFFFFFFFFFFFFFFFFFF
310
FFFFFFFFFFFFFFFFFFFFFFFFFFFFFFFFFFFFFFFFFFFFFFFFFFFFFFFFFFFFFFFF
310
FFFFFFFFFFFFFFFFFFFFFFFFFFFFFFFFF000FFFFFFFFFFFFFFFFFFFFFFFFFFFF
310
FFFFFFFFFFFFFFFFFFFFFFFFFFFFFFFFFFFFFFFFFFFFFFFFFFFFFFFFFFFFFFFF
310
FFFFFFFFFFFFFFFFFFFFFFFFFFFFFFFFFFFFFFFFFFFFFFFFFFFFFFFFFFFFFFFF
310
FFFFFFFFFFFFFFFFF000FFFFFFFFFFFFFFFFFFFFFFFFFFFFFFFFFFFFFFFFFFFF
310
FFFFFFFFFFFFFFFFFFFFFFFFFFFFFFFFFFFFFFFFFFFFFFFFFFFFFFFFFFFFFFFF
310
FFFFFFFFFFFFFFFFFFFFFFFFFFFFFFFFFFFFFFFFFFFFFFFFFFFFFFFFFFFFFFFF
310
F000FFFFFFFFFFFFFFFFFFFFFFFFFFFFFFFFFFFFFFFFFFFFFFFFFFFFFFFFFFFF
310
FFFFFFFFFFFFFFFFFFFFFFFFFFFFFFFFFFFFFFFFFFFFFFFFFFFFFFFFFFFFFFFF
310
FFFFFFFFFFFFFFFFFFFFFFFFFFFFFFFFFFFFFFFFFFFFFFFFF000FFFFFFFFFFFF
310
FFFFFFFFFFFFFFFFFFFFFFFFFFFFFFFFFFFFFFFFFFFFFFFFFFFFFFFFFFFFFFFF
310
FFFFFFFFFFFFFFFFFFFFFFFFFFFFFFFFFFFFFFFFFFFFFFFFFFFFFFFFFFFFFFFF
310
FFFFFFFFFFFFFFFFFFFFFFFFFFFFFFFFF000FFFFFFFFFFFFFFFFFFFFFFFFFFFF
310
FFFFFFFFFFFFFFFFFFFFFFFFFFFFFFFFFFFFFFFFFFFFFFFFFFFFFFFFFFFFFFFF
310
FFFFFFFFFFFFFFFFFFFFFFFFFFFFFFFFFFFFFFFFFFFFFFFFFFFFFFFFFFFFFFFF
310
FFFFFFFFFFFFFFFFF000FFFFFFFFFFFFFFFFFFFFFFFFFFFFFFFFFFFFFFFFFFFF
310
FFFFFFFFFFFFFFFFFFFFFFFFFFFFFFFFFFFFFFFFFFFFFFFFFFFFFFFFFFFFFFFF
310
FFFFFFFFFFFFFFFFFFFFFFFFFFFFFFFFFFFFFFFFFFFFFFFFFFFFFFFFFFFFFFFF
310
F000FFFFFFFFFFFFFFFFFFFFFFFFFFFFFFFFFFFFFFFFFFFFFFFFFFFFFFFFFFFF
310
FFFFFFFFFFFFFFFFFFFFFFFFFFFFFFFFFFFFFFFFFFFFFFFFFFFFFFFFFFFFFFFF
310
FFFFFFFFFFFFFFFFFFFFFFFFFFFFFFFFFFFFFFFFFFFFFFFFF000FFFFFFFFFFFF
310
FFFFFFFFFFFFFFFFFFFFFFFFFFFFFFFFFFFFFFFFFFFFFFFFFFFFFFFFFFFFFFFF
310
FFFFFFFFFFFFFFFFFFFFFFFFFFFFFFFFFFFFFFFFFFFFFFFFFFFFFFFFFFFFFFFF
310
FFFFFFFFFFFFFFFFFFFFFFFFFFFFFFFFF000FFFFFFFFFFFFFFFFFFFFFFFFFFFF
310
FFFFFFFFFFFFFFFFFFFFFFFFFFFFFFFFFFFFFFFFFFFFFFFFFFFFFFFFFFFFFFFF
310
FFFFFFFFFFFFFFFFFFFFFFFFFFFFFFFFFFFFFFFFFFFFFFFFFFFFFFFFFFFFFFFF
310
FFFFFFFFFFFFFFFFF000FFFFFFFFFFFFFFFFFFFFFFFFFFFFFFFFFFFFFFFFFFFF
310
FFFFFFFFFFFFFFFFFFFFFFFFFFFFFFFFFFFFFFFFFFFFFFFFFFFFFFFFFFFFFFFF
310
FFFFFFFFFFFFFFFFFFFFFFFFFFFFFFFFFFFFFFFFFFFFFFFFFFFFFFFFFFFFFFFF
310
F000FFFFFFFFFFFFFFFFFFFFFFFFFFFFFFFFFFFFFFFFFFFFFFFFFFFFFFFFFFFF
310
FFFFFFFFFFFFFFFFFFFFFFFFFFFFFFFFFFFFFFFFFFFFFFFFFFFFFFFFFFFFFFFF
310
FFFFFFFFFFFFFFFFFFFFFFFFFFFFFFFFFFFFFFFFFFFFFFFFF000FFFFFFFFFFFF
310
FFFFFFFFFFFFFFFFFFFFFFFFFFFFFFFFFFFFFFFFFFFFFFFFFFFFFFFFFFFFFFFF
310
FFFFFFFFFFFFFFFFFFFFFFFFFFFFFFFFFFFFFFFFFFFFFFFFFFFFFFFFFFFFFFFF
310
FFFFFFFFFFFFFFFFFFFFFFFFFFFFFFFFF000FFFFFFFFFFFFFFFFFFFFFFFFFFFF
310
FFFFFFFFFFFFFFFFFFFFFFFFFFFFFFFFFFFFFFFFFFFFFFFFFFFFFFFFFFFFFFFF
310
FFFFFFFFFFFFFFFFFFFFFFFFFFFFFFFFFFFFFFFFFFFFFFFFFFFFFFFFFFFFFFFF
310
FFFFFFFFFFFFFFFFF000FFFFF80003FFFFFFFFFFFFFFFFFFFFFFFFFFFFFFFFFF
310
FFFFF00007FFFFFFFFFF00007FFFFFF800000000000000007FFFFFFFFFFFFFFF
310
FFFFFFFC001FFFFFFFFFFFFFFC001FFFFFFFFFFFFFFFFFFFFFFFFFFE0007FFFF
310
F000FFFF8000007FFFFFFFF8000FFFFFC0007FFFFF80007FFFFF0000007FFFFF
310
FFF8000007FFFFF800000000000000007FFFFFF0001FFFFFFFFFFFC00001FFFF
310
FFFFFFFFC00001FFFFFFFF000000000003FFFFE000007FFFF000FFFE0000000F
310
FFFFFFF0000FFFFF80007FFFFF80007FFFFC0000001FFFFFFFC0000001FFFFF8
310
00000000000000007FFFFFF0001FFFFFFFFFFE0000003FFFFFFFFFFE0000003F
310
FFFFFF000000000003FFFF0000000FFFF000FFF800000003FFFFFFF00007FFFF
310
80007FFFFF80007FFFF000000007FFFFFF000000003FFFF80000000000000000
310
7FFFFFF0001FFFFFFFFFF80000000FFFFFFFFFF80000000FFFFFFF0000000000
310
03FFFC00000003FFF000FFE000000000FFFFFFF00007FFFF80003FFFFF80007F
310
FFC000000001FFFFFC000000001FFFF800000000000000007FFFFFF0001FFFFF
310
FFFFE000000003FFFFFFFFE000000003FFFFFF000000000003FFF000000000FF
310
F000FF80000000007FFFFFF00007FFFF80003FFFFF80007FFF8000000000FFFF
310
F80000000007FFF800000000000000007FFFFFF0001FFFFFFFFFC000000001FF
310
FFFFFFC000000001FFFFFF000000000003FFC0000000007FF000FF0000000000
310
3FFFFFE00007FFFF00003FFFFF80007FFE00000000003FFFF00000000003FFF8
310
00000000000000007FFFFFF0001FFFFFFFFF8000000000FFFFFFFF8000000000
310
FFFFFF000000000003FF80000000003FF000FE00000000001FFFFFE00003FFFF
310
00003FFFFF80007FFC00000000001FFFE00000000001FFF8000001FFFE000000
310
7FFFFFF0001FFFFFFFFE00000000003FFFFFFE00000000003FFFFF0000000000
310
03FF00000000001FF000FC00000000000FFFFFE00003FFFF00001FFFFF80007F
310
F800000000001FFFC00000000000FFF8000001FFFE0000007FFFFFF0001FFFFF
310
FFFC00000000001FFFFFFC00000000001FFFFF000000000003FE00000000000F
310
F000F8000000000007FFFFE00003FFFF00001FFFFF80007FF800000000000FFF
310
800000000000FFF8000001FFFE0000007FFFFFF0001FFFFFFFF800000000000F
310
FFFFF800000000000FFFFF000000000003FC000000000007F000F80000000000
310
03FFFFC00003FFFE00001FFFFF80007FF0000000000007FF0000000000007FF8
310
000001FFFE0000007FFFFFF0001FFFFFFFF0000000000007FFFFF00000000000
310
07FFFF000000000003F8000000000003F000F0000000000003FFFFC00001FFFE
310
00001FFFFF80007FE0000000000007FE0000000000003FF8000001FFFE000000
310
7FFFFFF0001FFFFFFFF0000000000007FFFFF0000000000007FFFF0000000000
310
03F800001F800003F000E00001FFF00001FFFFC00001FFFE00000FFFFF80007F
310
E00001FFE00003FE00001FFF00003FF8000001FFFE0000007FFFFFF0001FFFFF
310
FFE000003E000003FFFFE000003E000003FFFF000000000003F00001FFF80001
310
F000E00007FFFC0001FFFFC00001FFFE00000FFFFF80007FC0000FFFFC0003FC
310
0000FFFFC0001FF8000001FFFE0000007FFFFFF0001FFFFFFFC00003FFE00001
310
FFFFC00003FFE00001FFFF0001FFFFFFFFF00007FFFE0001F000E0000FFFFF00
310
00FFFF800001FFFC00000FFFFF80007FC0001FFFFE0001FC0001FFFFE0001FF8
310
000001FFFE0000007FFFFFF0001FFFFFFF80000FFFF80000FFFF80000FFFF800
310
00FFFF0003FFFFFFFFE0000FFFFF8000F000C0003FFFFF8000FFFF800000FFFC
310
000007FFFF80007F80003FFFFF0001FC0003FFFFF0001FF8000001FFFE000000
310
7FFFFFF0001FFFFFFF80003FFFFE0000FFFF80003FFFFE0000FFFF0003FFFFFF
310
FFE0003FFFFF8000F000C0003FFFFF8000FFFF800000FFFC000007FFFF80007F
310
80007FFFFF8001F80007FFFFF8000FF8000001FFFE0000007FFFFFF0001FFFFF
310
FF00007FFFFF00007FFF00007FFFFF00007FFF0003FFFFFFFFE0003FFFFFC000
310
F000C0007FFFFFC000FFFF000000FFFC000007FFFF80007F8000FFFFFF8000F8
310
000FFFFFF8000FF8000001FFFE0000007FFFFFF0001FFFFFFF0000FFFFFF8000
310
7FFF0000FFFFFF80007FFF0003FFFFFFFFC0007FFFFFC00070008000FFFFFFC0
310
00FFFF000000FFF8000007FFFF80007F8000FFFFFF8000F8000FFFFFF8000FF8
310
000001FFFE0000007FFFFFF0001FFFFFFE0001FFFFFFC0003FFE0001FFFFFFC0
310
003FFF0003FFFFFFFFC0007FFFFFE00070008000FFFFFFC0007FFF0000007FF8
310
000003FFFF80007F0001FFFFFF8000F8000FFFFFF8000FF8000001FFFE000000
310
7FFFFFF0001FFFFFFE0001FFFFFFC0003FFE0001FFFFFFC0003FFF0003FFFFFF
310
FFC000FFFFFFE00070008000FFFFFFC0007FFF0000007FF8000003FFFF80007F
310
0001FFFFFF8000F8001FFFFFF8000FF8000001FFFE0000007FFFFFF0001FFFFF
310
FE0003FFFFFFE0003FFE0003FFFFFFE0003FFF0003FFFFFFFFC000FFFFFFE000
310
70008000FFFFFFC0007FFE0000007FF8000003FFFF80007F0001FFFFFF8000F0
310
001FFFFFF8000FF8000001FFFE0000007FFFFFF0001FFFFFFC0003FFFFFFE000
310
1FFC0003FFFFFFE0001FFF0003FFFFFFFFC000FFFFFFC00070008000FFFFFF80
310
007FFE0000007FF0000003FFFF80007F0001FFFFFF0000F0001FFFFFF8000FF8
310
000001FFFE0000007FFFFFF0001FFFFFFC0007FFFFFFF0001FFC0007FFFFFFF0
310
001FFF0003FFFFFFFFC000FFFFFFC00070008001FFFFFF0000FFFE0000003FF0
310
000001FFFF80007F0001FFFFFF0000F8001FFFFFF0000FF8000001FFFE000000
310
7FFFFFF0001FFFFFFC0007FFFFFFF0001FFC0007FFFFFFF0001FFF0003FFFFFF
310
FFC001FFFFFF80007000FFFFFFFFFE0000FFFE0008003FF0008001FFFF80007F
310
FFFFFFFFFC0000FFFFFFFFFFE0000FF8000001FFFE0000007FFFFFF0001FFFFF
310
F8000FFFFFFFF8000FF8000FFFFFFFF8000FFF0003FFFFFFFFFFFFFFFFFF0000
310
7000FFFFFFFFFC0000FFFC0008003FF0008001FFFF80007FFFFFFFFFF80001FF
310
FFFFFFFF80000FF8000001FFFE0000007FFFFFF0001FFFFFF8000FFFFFFFF800
310
0FF8000FFFFFFFF8000FFF0003FFFFFFFFFFFFFFFFFE0000F000FFFFFFFFE000
310
00FFFC000C003FE000C001FFFF80007FFFFFFFFFC00001FFFFFFFFFE00001FF8
310
000001FFFE0000007FFFFFF0001FFFFFF8000FFFFFFFF8000FF8000FFFFFFFF8
310
000FFF0003FFFFFFFFFFFFFFFFF00000F000FFFFFFFE000001FFFC000C001FE0
310
00C000FFFF80007FFFFFFFFE000001FFFFFFFFE000001FF80FFFFFFFFFFFFFC0
310
7FFFFFF0001FFFFFF8000FFFFFFFF8000FF8000FFFFFFFF8000FFF0003FFFFFF
310
FFFFFFFFFF800000F000FFFFFFC0000001FFFC001C001FE001C000FFFF80007F
310
FFFFFF80000003FFFFFFF80000001FF80FFFFFFFFFFFFFC07FFFFFF0001FFFFF
310
F8001FFFFFFFFC000FF8001FFFFFFFFC000FFF0003FFFFFFFFFFFFFFF0000001
310
F000FFFFF800000001FFF8001C001FE001C000FFFF80007FFFFFF800000003FF
310
FFFF800000003FF80FFFFFFFFFFFFFC07FFFFFF0001FFFFFF8001FFFFFFFFC00
310
0FF8001FFFFFFFFC000FFF0003FFFFFFFFFFFFFE00000001F000FFFFC0000000
310
03FFF8001E001FC001E000FFFF80007FFFFF8000000007FFFFFC000000003FF8
310
0FFFFFFFFFFFFFC07FFFFFF0001FFFFFF8001FFFFFFFFC000FF8001FFFFFFFFC
310
000FFF0003FFFFFFFFFFFFE000000003F000FFFE0000000007FFF8001E000FC0
310
01E0007FFF80007FFFFE0000000007FFFFE0000000007FF80FFFFFFFFFFFFFC0
310
7FFFFFF0001FFFFFF0001FFFFFFFFC0007F0001FFFFFFFFC0007FF0003FFFFFF
310
FFFFFF0000000003F000FFF80000000007FFF8001E000FC003E0007FFF80007F
310
FFF0000000000FFFFF8000000000FFF80FFFFFFFFFFFFFC07FFFFFF0001FFFFF
310
F0001FFFFFFFFC0007F0001FFFFFFFFC0007FF0003FFFFFFFFFFFC0000000007
310
F000FFE0000000000FFFF0003E000FC003E0007FFF80007FFFC0000000001FFF
310
FE0000000001FFF80FFFFFFFFFFFFFC07FFFFFF0001FFFFFF0001FFFFFFFFC00
310
07F0001FFFFFFFFC0007FF0003FFFFFFFFFFF0000000000FF000FFC000000000
310
1FFFF0003F000F8003F0003FFF80007FFF80000000003FFFF80000000003FFF8
310
0FFFFFFFFFFFFFC07FFFFFF0001FFFFFF0001FFFFFFFFC0007F0001FFFFFFFFC
310
0007FF0003FFFFFFFFFFE0000000001FF000FF00000000007FFFF0003F000780
310
03F0003FFF80007FFF00000000007FFFF00000000007FFF80FFFFFFFFFFFFFC0
310
7FFFFFF0001FFFFFF0001FFFFFFFFC0007F0001FFFFFFFFC0007FF0003FFFFFF
310
FFFF80000000007FF000FE0000000000FFFFE0003F00078007F0003FFF80007F
310
FE0000000001FFFFE0000000001FFFF80FFFFFFFFFFFFFC07FFFFFF0001FFFFF
310
F0001FFFFFFFFC0007F0001FFFFFFFFC0007FF0003FFFFFFFFFF0000000000FF
310
F000FC0000000003FFFFE0007F00078007F0003FFF80007FFC0000000007FFFF
310
C0000000007FFFF80FFFFFFFFFFFFFC07FFFFFF0001FFFFFF8001FFFFFFFFC00
310
0FF8001FFFFFFFFC000FFF0003FFFFFFFFFE0000000003FFF000FC000000000F
310
FFFFE0007F80070007F8001FFF80007FF8000000001FFFFF8000000001FFFFF8
310
0FFFFFFFFFFFFFC07FFFFFF0001FFFFFF8001FFFFFFFFC000FF8001FFFFFFFFC
310
000FFF0003FFFFFFFFFC000000000FFFF000F8000000007FFFFFE0007F800700
310
07F8001FFF80007FF000000000FFFFFF800000000FFFFFF80FFFFFFFFFFFFFC0
310
7FFFFFF0001FFFFFF8000FFFFFFFF8000FF8000FFFFFFFF8000FFF0003FFFFFF
310
FFFC000000007FFFF000F800000007FFFFFFC0007F8003000FF8001FFF80007F
310
F000000007FFFFFF000000007FFFFFF80FFFFFFFFFFFFFC07FFFFFF0001FFFFF
310
F8000FFFFFFFF8000FF8000FFFFFFFF8000FFF0003FFFFFFFFF80000000FFFFF
310
F000F0000000FFFFFFFFC000FF8003000FF8001FFF80007FE0000000FFFFFFFF
310
0000000FFFFFFFF8000001FFFE0000007FFFFFF0001FFFFFF8000FFFFFFFF800
310
0FF8000FFFFFFFF8000FFF0003FFFFFFFFF8000000FFFFFFF000F000000FFFFF
310
FFFFC000FFC002000FF8000FFF80007FE000001FFFFFFFFE000001FFFFFFFFF8
310
000001FFFE0000007FFFFFF0001FFFFFF8000FFFFFFFF8000FF8000FFFFFFFF8
310
000FFF0003FFFFFFFFF000001FFFFFFFF000E00000FFFFFFFFFFC000FFC00200
310
0FFC000FFF80007FE00001FFFFFFFFFE00001FFFFFFFFFF8000001FFFE000000
310
7FFFFFF0001FFFFFFC000FFFFFFFF8001FFC000FFFFFFFF8001FFF0003FFFFFF
310
FFF00001FFFFFFFFF000E00007FFFFFFFFFF8000FFC000001FFC000FFF80007F
310
C0000FFFFFFFFFFE0000FFFFFFFFFFF8000001FFFE0000007FFFFFF0001FFFFF
310
FC0007FFFFFFF0001FFC0007FFFFFFF0001FFF0003FFFFFFFFF00007FFFFFFFF
310
F000E0001FFFFFFFFFFF8000FFC000001FFC000FFF80007FC0003FFFFFFFFFFE
310
0001FFFFFFFFFFF8000001FFFE0000007FFFFFF0001FFFFFFC0007FFFFFFF000
310
1FFC0007FFFFFFF0001FFF0003FFFFFFFFF0001FFFFFFFFFF000E0003FFFFF00
310
03FF8001FFE000001FFC0007FF80007FC0007FFFFF0007FC0003FFFFF0003FF8
310
000001FFFE0000007FFFFFF0001FFFFFFC0003FFFFFFE0001FFC0003FFFFFFE0
310
001FFF0003FFFFFFFFF0003FFFFFFFFFF000E0003FFFFF0001FF8001FFE00000
310
1FFE0007FF80007FC0007FFFFE0003FC0007FFFFE0003FF8000001FFFE000000
310
7FFFFFF0001FFFFFFE0003FFFFFFE0003FFE0003FFFFFFE0003FFF0003FFFFFF
310
FFF0003FFFFF8001F000E0003FFFFF0001FF0001FFE000001FFE0007FF80007F
310
C0007FFFFE0003FC0007FFFFE0003FF8000001FFFE0000007FFFFFF0001FFFFF
310
FE0001FFFFFFC0003FFE0001FFFFFFC0003FFF0003FFFFFFFFF0003FFFFF0001
310
F000E0003FFFFF0003FF0001FFE000003FFE0007FF80007FC0007FFFFE0003FC
310
0007FFFFE0003FF8000001FFFE0000007FFFFFF0001FFFFFFF0001FFFFFFC000
310
7FFF0001FFFFFFC0007FFF0003FFFFFFFFF0003FFFFF0001F000E0003FFFFE00
310
03FF0003FFF000003FFE0003FF80007FC0007FFFFC0003FE0007FFFFE0003FF8
310
000001FFFE0000007FFFFFF0001FFFFFFF0000FFFFFF80007FFF0000FFFFFF80
310
007FFF0003FFFFFFFFF0003FFFFF0001F000E0003FFFFE0003FF0003FFF00000
310
3FFF0003FF80007FC0007FFFFC0007FE0007FFFFC0003FF8000001FFFE000000
310
7FFFFFF0001FFFFFFF80007FFFFF0000FFFF80007FFFFF0000FFFF0003FFFFFF
310
FFF0003FFFFF0003F000E0003FFFFC0003FE0003FFF000003FFF0003FF80007F
310
E0003FFFF80007FE0003FFFFC0007FF8000001FFFE0000007FFFFFF0001FFFFF
310
FF80003FFFFE0000FFFF80003FFFFE0000FFFF0003FFFFFFFFF0001FFFFE0003
310
F000F0001FFFF80003FE0003FFF000007FFF0001FF80007FE0003FFFF00007FE
310
0001FFFF80007FF8000001FFFE0000007FFFFFF0001FFFFFFFC0000FFFF80001
310
FFFFC0000FFFF80001FFFF0003FFFFFFFFF0001FFFFC0003F000F0000FFFF000
310
07FE0007FFF800007FFF0001FF80007FE0001FFFE00007FF0000FFFE00007FF8
310
000001FFFE0000007FFFFFF0001FFFFFFFC00003FFE00001FFFFC00003FFE000
310
01FFFF0003FFFFFFFFF8000FFFF80003F000F00003FFC00007FC0007FFF80000
310
7FFF8001FF80007FF00007FF80000FFF00007FF80000FFF8000001FFFE000000
310
7F80000000000001FFE000003E000003FFFFE000003E000003FFFF0003FFFFFF
310
FFF80003FFE00007F000F800000000000FFC0007FFF800007FFF8001FF80007F
310
F000000000000FFF000000000000FFF8000001FFFE0000007F80000000000001
310
FFF0000000000007FFFFF0000000000007FFFF0003FFFFFFFFFC00007E000007
310
F000F800000000000FFC0007FFF80000FFFF8000FF80007FF800000000001FFF
310
800000000001FFF8000001FFFE0000007F80000000000001FFF800000000000F
310
FFFFF800000000000FFFFF0003FFFFFFFFFC00000000000FF000FC0000000000
310
1FFC0007FFFC0000FFFF8000FF80007FF800000000003FFFC00000000001FFF8
310
000001FFFE0000007F80000000000001FFF800000000000FFFFFF80000000000
310
0FFFFF0003FFFFFFFFFE00000000001FF000FE00000000003FF8000FFFFC0000
310
FFFF8000FF80007FFC00000000003FFFC00000000003FFF8000001FFFE000000
310
7F80000000000001FFFC00000000001FFFFFFC00000000001FFFFF0003FFFFFF
310
FFFF00000000001FF000FF00000000003FF8000FFFFC0000FFFFC000FF80007F
310
FE00000000007FFFE00000000007FFF8000001FFFE0000007F80000000000001
310
FFFE00000000003FFFFFFE00000000003FFFFF0003FFFFFFFFFF80000000003F
310
F000FF80000000007FF8000FFFFC0001FFFFC0007F80007FFF0000000000FFFF
310
F0000000000FFFF800000000000000007F80000000000001FFFF8000000000FF
310
FFFFFF8000000000FFFFFF0003FFFFFFFFFFC0000000007FF000FFC000000000
310
FFF8000FFFFE0001FFFFC0007F80007FFF8000000001FFFFF8000000001FFFF8
310
00000000000000007F80000000000001FFFFC000000001FFFFFFFFC000000001
310
FFFFFF0003FFFFFFFFFFE000000000FFF000FFE000000003FFF0001FFFFE0001
310
FFFFC0007F80007FFFC000000007FFFFFE000000003FFFF80000000000000000
310
7F80000000000001FFFFE000000003FFFFFFFFE000000003FFFFFF0003FFFFFF
310
FFFFF000000003FFF000FFF80000000FFFF0001FFFFE0001FFFFE0007F80007F
310
FFF00000000FFFFFFF00000000FFFFF800000000000000007F80000000000001
310
FFFFF80000000FFFFFFFFFF80000000FFFFFFF0003FFFFFFFFFFFC0000000FFF
310
F000FFFE0000003FFFF0001FFFFE0003FFFFE0003F80007FFFFC0000003FFFFF
310
FFC0000003FFFFF800000000000000007F80000000000001FFFFFE0000003FFF
310
FFFFFFFE0000003FFFFFFF0003FFFFFFFFFFFF0000003FFFF000FFFF800000FF
310
FFF0001FFFFF0003FFFFE0003F80007FFFFF000001FFFFFFFFF800001FFFFFF8
310
00000000000000007F80000000000001FFFFFFC00001FFFFFFFFFFFFC00001FF
310
FFFFFF0003FFFFFFFFFFFFC00000FFFFF000FFFFF8000FFFFFFFFFFFFFFFFFFF
310
FFFFFFFFFFFFFFFFFFFFF0001FFFFFFFFFFF0000FFFFFFF80000000000000000
310
7FFFFFFFFFFFFFFFFFFFFFFC001FFFFFFFFFFFFFFC001FFFFFFFFFFFFFFFFFFF
310
FFFFFFFC001FFFFFF000FFFFFFFFFFFFFFFFFFFFFFFFFFFFFFFFFFFFFFFFFFFF
310
FFFFFFFFFFFFFFFFFFFFFFFFFFFFFFFFFFFFFFFFFFFFFFFFFFFFFFFFFFFFFFFF
310
FFFFFFFFFFFFFFFFFFFFFFFFFFFFFFFFFFFFFFFFFFFFFFFFFFFFFFFFFFFFFFFF
310
F000FFFFFFFFFFFFFFFFFFFFFFFFFFFFFFFFFFFFFFFFFFFFFFFFFFFFFFFFFFFF
310
FFFFFFFFFFFFFFFFFFFFFFFFFFFFFFFFFFFFFFFFFFFFFFFFFFFFFFFFFFFFFFFF
310
FFFFFFFFFFFFFFFFFFFFFFFFFFFFFFFFFFFFFFFFFFFFFFFFF000FFFFFFFFFFFF
310
FFFFFFFFFFFFFFFFFFFFFFFFFFFFFFFFFFFFFFFFFFFFFFFFFFFFFFFFFFFFFFFF
310
FFFFFFFFFFFFFFFFFFFFFFFFFFFFFFFFFFFFFFFFFFFFFFFFFFFFFFFFFFFFFFFF
310
FFFFFFFFFFFFFFFFFFFFFFFFFFFFFFFFF000FFFFFFFFFFFFFFFFFFFFFFFFFFFF
310
FFFFFFFFFFFFFFFFFFFFFFFFFFFFFFFFFFFFFFFFFFFFFFFFFFFFFFFFFFFFFFFF
310
FFFFFFFFFFFFFFFFFFFFFFFFFFFFFFFFFFFFFFFFFFFFFFFFFFFFFFFFFFFFFFFF
310
FFFFFFFFFFFFFFFFF000FFFFFFFFFFFFFFFFFFFFFFFFFFFFFFFFFFFFFFFFFFFF
310
FFFFFFFFFFFFFFFFFFFFFFFFFFFFFFFFFFFFFFFFFFFFFFFFFFFFFFFFFFFFFFFF
310
FFFFFFFFFFFFFFFFFFFFFFFFFFFFFFFFFFFFFFFFFFFFFFFFFFFFFFFFFFFFFFFF
310
F000FFFFFFFFFFFFFFFFFFFFFFFFFFFFFFFFFFFFFFFFFFFFFFFFFFFFFFFFFFFF
310
FFFFFFFFFFFFFFFFFFFFFFFFFFFFFFFFFFFFFFFFFFFFFFFFFFFFFFFFFFFFFFFF
310
FFFFFFFFFFFFFFFFFFFFFFFFFFFFFFFFFFFFFFFFFFFFFFFFF000FFFFFFFFFFFF
310
FFFFFFFFFFFFFFFFFFFFFFFFFFFFFFFFFFFFFFFFFFFFFFFFFFFFFFFFFFFFFFFF
310
FFFFFFFFFFFFFFFFFFFFFFFFFFFFFFFFFFFFFFFFFFFFFFFFFFFFFFFFFFFFFFFF
310
FFFFFFFFFFFFFFFFFFFFFFFFFFFFFFFFF000FFFFFFFFFFFFFFFFFFFFFFFFFFFF
310
FFFFFFFFFFFFFFFFFFFFFFFFFFFFFFFFFFFFFFFFFFFFFFFFFFFFFFFFFFFFFFFF
310
FFFFFFFFFFFFFFFFFFFFFFFFFFFFFFFFFFFFFFFFFFFFFFFFFFFFFFFFFFFFFFFF
310
FFFFFFFFFFFFFFFFF000FFFFFFFFFFFFFFFFFFFFFFFFFFFFFFFFFFFFFFFFFFFF
310
FFFFFFFFFFFFFFFFFFFFFFFFFFFFFFFFFFFFFFFFFFFFFFFFFFFFFFFFFFFFFFFF
310
FFFFFFFFFFFFFFFFFFFFFFFFFFFFFFFFFFFFFFFFFFFFFFFFFFFFFFFFFFFFFFFF
310
F000FFFFFFFFFFFFFFFFFFFFFFFFFFFFFFFFFFFFFFFFFFFFFFFFFFFFFFFFFFFF
310
FFFFFFFFFFFFFFFFFFFFFFFFFFFFFFFFFFFFFFFFFFFFFFFFFFFFFFFFFFFFFFFF
310
FFFFFFFFFFFFFFFFFFFFFFFFFFFFFFFFFFFFFFFFFFFFFFFFF000FFFFFFFFFFFF
310
FFFFFFFFFFFFFFFFFFFFFFFFFFFFFFFFFFFFFFFFFFFFFFFFFFFFFFFFFFFFFFFF
310
FFFFFFFFFFFFFFFFFFFFFFFFFFFFFFFFFFFFFFFFFFFFFFFFFFFFFFFFFFFFFFFF
310
FFFFFFFFFFFFFFFFFFFFFFFFFFFFFFFFF000FFFFFFFFFFFFFFFFFFFFFFFFFFFF
310
FFFFFFFFFFFFFFFFFFFFFFFFFFFFFFFFFFFFFFFFFFFFFFFFFFFFFFFFFFFFFFFF
310
FFFFFFFFFFFFFFFFFFFFFFFFFFFFFFFFFFFFFFFFFFFFFFFFFFFFFFFFFFFFFFFF
310
FFFFFFFFFFFFFFFFF000FFFFFFFFFFFFFFFFFFFFFFFFFFFFFFFFFFFFFFFFFFFF
310
FFFFFFFFFFFFFFFFFFFFFFFFFFFFFFFFFFFFFFFFFFFFFFFFFFFFFFFFFFFFFFFF
310
FFFFFFFFFFFFFFFFFFFFFFFFFFFFFFFFFFFFFFFFFFFFFFFFFFFFFFFFFFFFFFFF
310
F000FFFFFFFFFFFFFFFFFFFFFFFFFFFFFFFFFFFFFFFFFFFFFFFFFFFFFFFFFFFF
310
FFFFFFFFFFFFFFFFFFFFFFFFFFFFFFFFFFFFFFFFFFFFFFFFFFFFFFFFFFFFFFFF
310
FFFFFFFFFFFFFFFFFFFFFFFFFFFFFFFFFFFFFFFFFFFFFFFFF000FFFFFFFFFFFF
310
FFFFFFFFFFFFFFFFFFFFFFFFFFFFFFFFFFFFFFFFFFFFFFFFFFFFFFFFFFFFFFFF
310
FFFFFFFFFFFFFFFFFFFFFFFFFFFFFFFFFFFFFFFFFFFFFFFFFFFFFFFFFFFFFFFF
310
FFFFFFFFFFFFFFFFFFFFFFFFFFFFFFFFF000FFFFFFFFFFFFFFFFFFFFFFFFFFFF
310
FFFFFFFFFFFFFFFFFFFFFFFFFFFFFFFFFFFFFFFFFFFFFFFFFFFFFFFFFFFFFFFF
310
FFFFFFFFFFFFFFFFFFFFFFFFFFFFFFFFFFFFFFFFFFFFFFFFFFFFFFFFFFFFFFFF
310
FFFFFFFFFFFFFFFFF000FFFFFFFFFFFFFFFFFFFFFFFFFFFFFFFFFFFFFFFFFFFF
310
FFFFFFFFFFFFFFFFFFFFFFFFFFFFFFFFFFFFFFFFFFFFFFFFFFFFFFFFFFFFFFFF
310
FFFFFFFFFFFFFFFFFFFFFFFFFFFFFFFFFFFFFFFFFFFFFFFFFFFFFFFFFFFFFFFF
310
F000FFFFFFFFFFFFFFFFFFFFFFFFFFFFFFFFFFFFFFFFFFFFFFFFFFFFFFFFFFFF
310
FFFFFFFFFFFFFFFFFFFFFFFFFFFFFFFFFFFFFFFFFFFFFFFFFFFFFFFFFFFFFFFF
310
FFFFFFFFFFFFFFFFFFFFFFFFFFFFFFFFFFFFFFFFFFFFFFFFF000FFFFFFFFFFFF
310
FFFFFFFFFFFFFFFFFFFFFFFFFFFFFFFFFFFFFFFFFFFFFFFFFFFFFFFFFFFFFFFF
310
FFFFFFFFFFFFFFFFFFFFFFFFFFFFFFFFFFFFFFFFFFFFFFFFFFFFFFFFFFFFFFFF
310
FFFFFFFFFFFFFFFFFFFFFFFFFFFFFFFFF000FFFFFFFFFFFFFFFFFFFFFFFFFFFF
310
FFFFFFFFFFFFFFFFFFFFFFFFFFFFFFFFFFFFFFFFFFFFFFFFFFFFFFFFFFFFFFFF
310
FFFFFFFFFFFFFFFFFFFFFFFFFFFFFFFFFFFFFFFFFFFFFFFFFFFFFFFFFFFFFFFF
310
FFFFFFFFFFFFFFFFF000FFFFFFFFFFFFFFFFFFFFFFFFFFFFFFFFFFFFFFFFFFFF
310
FFFFFFFFFFFFFFFFFFFFFFFFFFFFFFFFFFFFFFFFFFFFFFFFFFFFFFFFFFFFFFFF
310
FFFFFFFFFFFFFFFFFFFFFFFFFFFFFFFFFFFFFFFFFFFFFFFFFFFFFFFFFFFFFFFF
310
F000FFFFFFFFFFFFFFFFFFFFFFFFFFFFFFFFFFFFFFFFFFFFFFFFFFFFFFFFFFFF
310
FFFFFFFFFFFFFFFFFFFFFFFFFFFFFFFFFFFFFFFFFFFFFFFFFFFFFFFFFFFFFFFF
310
FFFFFFFFFFFFFFFFFFFFFFFFFFFFFFFFFFFFFFFFFFFFFFFFF000FFFFFFFFFFFF
310
FFFFFFFFFFFFFFFFFFFFFFFFFFFFFFFFFFFFFFFFFFFFFFFFFFFFFFFFFFFFFFFF
310
FFFFFFFFFFFFFFFFFFFFFFFFFFFFFFFFFFFFFFFFFFFFFFFFFFFFFFFFFFFFFFFF
310
FFFFFFFFFFFFFFFFFFFFFFFFFFFFFFFFF0000000000000000000000000000000
310
0000000000000000000000000000000000000000000000000000000000000000
310
0000000000000000000000000000000000000000000000000000000000000000
310
0000000000000000000000000000000000000000000000000000000000000000
310
0000000000000000000000000000000000000000000000000000000000000000
310
0000000000000000000000000000000000000000000000000000000000000000
310
0000000000000000000000000000000000000000000000000000000000000000
310
0000000000000000000000000000000000000000000000000000000000000000
310
0000000000000000000000000000000000000000000000000000000000000000
310
0000000000000000000000000000000000000000000000000000000000000000
310
0000000000000000000000000000000000000000000000000000000000000000
310
0000000000000000000000000000000000000000000000000000000000000000
310
0000000000000000000000000000000000000000000000000000000000000000
310
0000000000000000000000000000000000000000000000000000000000000000
310
0000000000000000000000000000000000000000000000000000000000000000
310
0000000000000000000000000000000000000000000000000000000000000000
  1
OLE
  0
ENDSEC
  0
SECTION
  2
OBJECTS
  0
DICTIONARY
  5
C
330
0
100
AcDbDictionary
281
     1
  3
ACAD_GROUP
350
D
  3
ACAD_LAYOUT
350
1A
  3
ACAD_MLINESTYLE
350
17
  3
ACAD_PLOTSETTINGS
350
19
  3
ACAD_PLOTSTYLENAME
350
E
  0
DICTIONARY
  5
D
102
{ACAD_REACTORS
330
C
102
}
330
C
100
AcDbDictionary
281
     1
  0
DICTIONARY
  5
1A
102
{ACAD_REACTORS
330
C
102
}
330
C
100
AcDbDictionary
281
     1
  3
Layout1
350
1E
  3
Layout2
350
26
  3
Model
350
22
  0
DICTIONARY
  5
17
102
{ACAD_REACTORS
330
C
102
}
330
C
100
AcDbDictionary
281
     1
  3
Standard
350
18
  0
DICTIONARY
  5
19
102
{ACAD_REACTORS
330
C
102
}
330
C
100
AcDbDictionary
281
     1
  0
ACDBDICTIONARYWDFLT
  5
E
102
{ACAD_REACTORS
330
C
102
}
330
C
100
AcDbDictionary
281
     1
  3
Normal
350
F
100
AcDbDictionaryWithDefault
340
F
  0
LAYOUT
  5
1E
102
{ACAD_REACTORS
330
1A
102
}
330
1A
100
AcDbPlotSettings
  1

  2
none_device
  4

  6

 40
0.0
 41
0.0
 42
0.0
 43
0.0
 44
0.0
 45
0.0
 46
0.0
 47
0.0
 48
0.0
 49
0.0
140
0.0
141
0.0
142
1.0
143
1.0
 70
   688
 72
     0
 73
     0
 74
     5
  7

 75
    16
147
1.0
148
0.0
149
0.0
100
AcDbLayout
  1
Layout1
 70
     1
 71
     1
 10
0.0
 20
0.0
 11
420.0
 21
297.0
 12
0.0
 22
0.0
 32
0.0
 14
1.0000000000E+20
 24
1.0000000000E+20
 34
1.0000000000E+20
 15
-1.0000000000E+20
 25
-1.0000000000E+20
 35
-1.0000000000E+20
146
0.0
 13
0.0
 23
0.0
 33
0.0
 16
1.0
 26
0.0
 36
0.0
 17
0.0
 27
1.0
 37
0.0
 76
     0
330
1B
  0
LAYOUT
  5
26
102
{ACAD_REACTORS
330
1A
102
}
330
1A
100
AcDbPlotSettings
  1

  2
none_device
  4

  6

 40
0.0
 41
0.0
 42
0.0
 43
0.0
 44
0.0
 45
0.0
 46
0.0
 47
0.0
 48
0.0
 49
0.0
140
0.0
141
0.0
142
1.0
143
1.0
 70
   688
 72
     0
 73
     0
 74
     5
  7

 75
    16
147
1.0
148
0.0
149
0.0
100
AcDbLayout
  1
Layout2
 70
     1
 71
     2
 10
0.0
 20
0.0
 11
0.0
 21
0.0
 12
0.0
 22
0.0
 32
0.0
 14
0.0
 24
0.0
 34
0.0
 15
0.0
 25
0.0
 35
0.0
146
0.0
 13
0.0
 23
0.0
 33
0.0
 16
1.0
 26
0.0
 36
0.0
 17
0.0
 27
1.0
 37
0.0
 76
     0
330
23
  0
LAYOUT
  5
22
102
{ACAD_REACTORS
330
1A
102
}
330
1A
100
AcDbPlotSettings
  1

  2
none_device
  4

  6

 40
0.0
 41
0.0
 42
0.0
 43
0.0
 44
0.0
 45
0.0
 46
0.0
 47
0.0
 48
0.0
 49
0.0
140
0.0
141
0.0
142
1.0
143
1.0
 70
  1712
 72
     0
 73
     0
 74
     0
  7

 75
     0
147
1.0
148
0.0
149
0.0
100
AcDbLayout
  1
Model
 70
     1
 71
     0
 10
0.0
 20
0.0
 11
297.0
 21
210.0
 12
0.0
 22
0.0
 32
0.0
 14
0.0
 24
0.0
 34
0.0
 15
297.0
 25
210.0
 35
0.0
146
0.0
 13
0.0
 23
0.0
 33
0.0
 16
1.0
 26
0.0
 36
0.0
 17
0.0
 27
1.0
 37
0.0
 76
     0
330
1F
331
29
  0
MLINESTYLE
  5
18
102
{ACAD_REACTORS
330
17
102
}
330
17
100
AcDbMlineStyle
  2
Standard
 70
     0
  3

 62
   256
 51
90.0
 52
90.0
 71
     2
 49
0.5
 62
   256
  6
BYLAYER
 49
-0.5
 62
   256
  6
BYLAYER
  0
ACDBPLACEHOLDER
  5
F
102
{ACAD_REACTORS
330
E
102
}
330
E
  0
ENDSEC
  0
EOF
