  0
SECTION
  2
HEADER
  9
$ACADVER
  1
AC1015
  9
$ACADMAINTVER
 70
     6
  9
$DWGCODEPAGE
  3
ANSI_1252
  9
$INSBASE
 10
0.0
 20
0.0
 30
0.0
  9
$EXTMIN
 10
0.0
 20
0.0
 30
0.0
  9
$EXTMAX
 10
297.0
 20
210.0
 30
0.0
  9
$LIMMIN
 10
0.0
 20
0.0
  9
$LIMMAX
 10
297.0
 20
210.0
  9
$ORTHOMODE
 70
     0
  9
$REGENMODE
 70
     1
  9
$FILLMODE
 70
     1
  9
$QTEXTMODE
 70
     0
  9
$MIRRTEXT
 70
     1
  9
$LTSCALE
 40
1.0
  9
$ATTMODE
 70
     1
  9
$TEXTSIZE
 40
2.0
  9
$TRACEWID
 40
1.0
  9
$TEXTSTYLE
  7
Standard
  9
$CLAYER
  8
0
  9
$CELTYPE
  6
ByLayer
  9
$CECOLOR
 62
   256
  9
$CELTSCALE
 40
1.0
  9
$DISPSILH
 70
     0
  9
$DIMSCALE
 40
1.0
  9
$DIMASZ
 40
3.0
  9
$DIMEXO
 40
0.0
  9
$DIMDLI
 40
3.75
  9
$DIMRND
 40
0.0
  9
$DIMDLE
 40
0.0
  9
$DIMEXE
 40
1.0
  9
$DIMTP
 40
0.0
  9
$DIMTM
 40
0.0
  9
$DIMTXT
 40
2.0
  9
$DIMCEN
 40
2.5
  9
$DIMTSZ
 40
0.0
  9
$DIMTOL
 70
     0
  9
$DIMLIM
 70
     0
  9
$DIMTIH
 70
     1
  9
$DIMTOH
 70
     1
  9
$DIMSE1
 70
     0
  9
$DIMSE2
 70
     0
  9
$DIMTAD
 70
     1
  9
$DIMZIN
 70
     0
  9
$DIMBLK
  1

  9
$DIMASO
 70
     1
  9
$DIMSHO
 70
     1
  9
$DIMPOST
  1

  9
$DIMAPOST
  1

  9
$DIMALT
 70
     0
  9
$DIMALTD
 70
     3
  9
$DIMALTF
 40
0.0393700787
  9
$DIMLFAC
 40
2.0
  9
$DIMTOFL
 70
     1
  9
$DIMTVP
 40
0.0
  9
$DIMTIX
 70
     0
  9
$DIMSOXD
 70
     0
  9
$DIMSAH
 70
     0
  9
$DIMBLK1
  1

  9
$DIMBLK2
  1

  9
$DIMSTYLE
  2
ISO-25
  9
$DIMCLRD
 70
     0
  9
$DIMCLRE
 70
     0
  9
$DIMCLRT
 70
     0
  9
$DIMTFAC
 40
1.0
  9
$DIMGAP
 40
1.524
  9
$DIMJUST
 70
     0
  9
$DIMSD1
 70
     0
  9
$DIMSD2
 70
     0
  9
$DIMTOLJ
 70
     0
  9
$DIMTZIN
 70
     0
  9
$DIMALTZ
 70
     0
  9
$DIMALTTZ
 70
     0
  9
$DIMUPT
 70
     0
  9
$DIMDEC
 70
     2
  9
$DIMTDEC
 70
     3
  9
$DIMALTU
 70
     2
  9
$DIMALTTD
 70
     3
  9
$DIMTXSTY
  7
Standard
  9
$DIMAUNIT
 70
     0
  9
$DIMADEC
 70
     2
  9
$DIMALTRND
 40
0.0
  9
$DIMAZIN
 70
     0
  9
$DIMDSEP
 70
    44
  9
$DIMATFIT
 70
     3
  9
$DIMFRAC
 70
     0
  9
$DIMLDRBLK
  1

  9
$DIMLUNIT
 70
     2
  9
$DIMLWD
 70
    -2
  9
$DIMLWE
 70
    -2
  9
$DIMTMOVE
 70
     0
  9
$LUNITS
 70
     2
  9
$LUPREC
 70
     2
  9
$SKETCHINC
 40
1.0
  9
$FILLETRAD
 40
10.0
  9
$AUNITS
 70
     0
  9
$AUPREC
 70
     2
  9
$MENU
  1
.
  9
$ELEVATION
 40
0.0
  9
$PELEVATION
 40
0.0
  9
$THICKNESS
 40
0.0
  9
$LIMCHECK
 70
     0
  9
$CHAMFERA
 40
0.0
  9
$CHAMFERB
 40
0.0
  9
$CHAMFERC
 40
0.0
  9
$CHAMFERD
 40
0.0
  9
$SKPOLY
 70
     0
  9
$TDCREATE
 40
2458162.553942593
  9
$TDUCREATE
 40
2458162.512275926
  9
$TDUPDATE
 40
2458162.553944329
  9
$TDUUPDATE
 40
2458162.512277662
  9
$TDINDWG
 40
0.0000000116
  9
$TDUSRTIMER
 40
0.0000000116
  9
$USRTIMER
 70
     1
  9
$ANGBASE
 50
0.0
  9
$ANGDIR
 70
     0
  9
$PDMODE
 70
     0
  9
$PDSIZE
 40
-1.0
  9
$PLINEWID
 40
0.0
  9
$SPLFRAME
 70
     0
  9
$SPLINETYPE
 70
     6
  9
$SPLINESEGS
 70
     8
  9
$HANDSEED
  5
31E
  9
$SURFTAB1
 70
     6
  9
$SURFTAB2
 70
     6
  9
$SURFTYPE
 70
     6
  9
$SURFU
 70
     6
  9
$SURFV
 70
     6
  9
$UCSBASE
  2

  9
$UCSNAME
  2

  9
$UCSORG
 10
0.0
 20
0.0
 30
0.0
  9
$UCSXDIR
 10
1.0
 20
0.0
 30
0.0
  9
$UCSYDIR
 10
0.0
 20
1.0
 30
0.0
  9
$UCSORTHOREF
  2

  9
$UCSORTHOVIEW
 70
     0
  9
$UCSORGTOP
 10
0.0
 20
0.0
 30
0.0
  9
$UCSORGBOTTOM
 10
0.0
 20
0.0
 30
0.0
  9
$UCSORGLEFT
 10
0.0
 20
0.0
 30
0.0
  9
$UCSORGRIGHT
 10
0.0
 20
0.0
 30
0.0
  9
$UCSORGFRONT
 10
0.0
 20
0.0
 30
0.0
  9
$UCSORGBACK
 10
0.0
 20
0.0
 30
0.0
  9
$PUCSBASE
  2

  9
$PUCSNAME
  2

  9
$PUCSORG
 10
0.0
 20
0.0
 30
0.0
  9
$PUCSXDIR
 10
1.0
 20
0.0
 30
0.0
  9
$PUCSYDIR
 10
0.0
 20
1.0
 30
0.0
  9
$PUCSORTHOREF
  2

  9
$PUCSORTHOVIEW
 70
     0
  9
$PUCSORGTOP
 10
0.0
 20
0.0
 30
0.0
  9
$PUCSORGBOTTOM
 10
0.0
 20
0.0
 30
0.0
  9
$PUCSORGLEFT
 10
0.0
 20
0.0
 30
0.0
  9
$PUCSORGRIGHT
 10
0.0
 20
0.0
 30
0.0
  9
$PUCSORGFRONT
 10
0.0
 20
0.0
 30
0.0
  9
$PUCSORGBACK
 10
0.0
 20
0.0
 30
0.0
  9
$USERI1
 70
     0
  9
$USERI2
 70
     0
  9
$USERI3
 70
     0
  9
$USERI4
 70
     0
  9
$USERI5
 70
     0
  9
$USERR1
 40
0.0
  9
$USERR2
 40
0.0
  9
$USERR3
 40
0.0
  9
$USERR4
 40
0.0
  9
$USERR5
 40
0.0
  9
$WORLDVIEW
 70
     1
  9
$SHADEDGE
 70
     3
  9
$SHADEDIF
 70
    70
  9
$TILEMODE
 70
     1
  9
$MAXACTVP
 70
    64
  9
$PINSBASE
 10
0.0
 20
0.0
 30
0.0
  9
$PLIMCHECK
 70
     0
  9
$PEXTMIN
 10
1.0000000000E+20
 20
1.0000000000E+20
 30
1.0000000000E+20
  9
$PEXTMAX
 10
-1.0000000000E+20
 20
-1.0000000000E+20
 30
-1.0000000000E+20
  9
$PLIMMIN
 10
0.0
 20
0.0
  9
$PLIMMAX
 10
420.0
 20
297.0
  9
$UNITMODE
 70
     0
  9
$VISRETAIN
 70
     1
  9
$PLINEGEN
 70
     0
  9
$PSLTSCALE
 70
     1
  9
$TREEDEPTH
 70
  3020
  9
$CMLSTYLE
  2
Standard
  9
$CMLJUST
 70
     0
  9
$CMLSCALE
 40
20.0
  9
$PROXYGRAPHICS
 70
     1
  9
$MEASUREMENT
 70
     1
  9
$CELWEIGHT
370
    -1
  9
$ENDCAPS
280
     0
  9
$JOINSTYLE
280
     0
  9
$LWDISPLAY
290
     1
  9
$INSUNITS
 70
     4
  9
$HYPERLINKBASE
  1

  9
$STYLESHEET
  1

  9
$XEDIT
290
     1
  9
$CEPSNTYPE
380
     0
  9
$PSTYLEMODE
290
     1
  9
$FINGERPRINTGUID
  2
{E14A82B4-D6F6-4487-8EA3-17E8CAE33128}
  9
$VERSIONGUID
  2
{FAEB1C32-E019-11D5-929B-00C0DF256EC4}
  9
$EXTNAMES
290
     1
  9
$PSVPSCALE
 40
0.0
  9
$OLESTARTUP
290
     0
  0
ENDSEC
  0
SECTION
  2
CLASSES
  0
CLASS
  1
ACDBDICTIONARYWDFLT
  2
AcDbDictionaryWithDefault
  3
ObjectDBX Classes
 90
        0
280
     0
281
     0
  0
CLASS
  1
VISUALSTYLE
  2
AcDbVisualStyle
  3
ObjectDBX Classes
 90
     4095
280
     0
281
     0
  0
CLASS
  1
MATERIAL
  2
AcDbMaterial
  3
ObjectDBX Classes
 90
     1153
280
     0
281
     0
  0
CLASS
  1
SCALE
  2
AcDbScale
  3
ObjectDBX Classes
 90
     1153
280
     0
281
     0
  0
CLASS
  1
TABLESTYLE
  2
AcDbTableStyle
  3
ObjectDBX Classes
 90
     4095
280
     0
281
     0
  0
CLASS
  1
MLEADERSTYLE
  2
AcDbMLeaderStyle
  3
ACDB_MLEADERSTYLE_CLASS
 90
     4095
280
     0
281
     0
  0
CLASS
  1
SUN
  2
AcDbSun
  3
SCENEOE
 90
     1153
280
     0
281
     0
  0
CLASS
  1
ACDBPLACEHOLDER
  2
AcDbPlaceHolder
  3
ObjectDBX Classes
 90
        0
280
     0
281
     0
  0
CLASS
  1
LAYOUT
  2
AcDbLayout
  3
ObjectDBX Classes
 90
        0
280
     0
281
     0
  0
ENDSEC
  0
SECTION
  2
TABLES
  0
TABLE
  2
VPORT
  5
8
330
0
100
AcDbSymbolTable
 70
     1
  0
VPORT
  5
29
330
8
100
AcDbSymbolTableRecord
100
AcDbViewportTableRecord
  2
*Active
 70
     0
 10
0.0
 20
0.0
 11
1.0
 21
1.0
 12
148.5
 22
105.0
 13
0.0
 23
0.0
 14
10.0
 24
10.0
 15
10.0
 25
10.0
 16
0.0
 26
0.0
 36
1.0
 17
0.0
 27
0.0
 37
0.0
 40
210.0
 41
1.4142857143
 42
50.0
 43
0.0
 44
0.0
 50
0.0
 51
0.0
 71
     0
 72
  2000
 73
     1
 74
     3
 75
     0
 76
     0
 77
     0
 78
     0
281
     0
 65
     1
110
0.0
120
0.0
130
0.0
111
1.0
121
0.0
131
0.0
112
0.0
122
1.0
132
0.0
 79
     0
146
0.0
  0
ENDTAB
  0
TABLE
  2
LTYPE
  5
5
330
0
100
AcDbSymbolTable
 70
     6
  0
LTYPE
  5
14
330
5
100
AcDbSymbolTableRecord
100
AcDbLinetypeTableRecord
  2
ByBlock
 70
     0
  3

 72
    65
 73
     0
 40
0.0
  0
LTYPE
  5
15
330
5
100
AcDbSymbolTableRecord
100
AcDbLinetypeTableRecord
  2
ByLayer
 70
     0
  3

 72
    65
 73
     0
 40
0.0
  0
LTYPE
  5
16
330
5
100
AcDbSymbolTableRecord
100
AcDbLinetypeTableRecord
  2
Continuous
 70
     0
  3
Solid line
 72
    65
 73
     0
 40
0.0
  0
LTYPE
  5
6E
330
5
100
AcDbSymbolTableRecord
100
AcDbLinetypeTableRecord
  2
HIDDEN
 70
     0
  3
Hidden __ __ __ __ __ __ __ __ __ __ __ __ __ __
 72
    65
 73
     2
 40
1.905
 49
1.27
 74
     0
 49
-0.635
 74
     0
  0
LTYPE
  5
6F
330
5
100
AcDbSymbolTableRecord
100
AcDbLinetypeTableRecord
  2
PHANTOM
 70
     0
  3
Phantom ______  __  __  ______  __  __  ______
 72
    65
 73
     6
 40
12.7
 49
6.35
 74
     0
 49
-1.27
 74
     0
 49
1.27
 74
     0
 49
-1.27
 74
     0
 49
1.27
 74
     0
 49
-1.27
 74
     0
  0
LTYPE
  5
70
330
5
100
AcDbSymbolTableRecord
100
AcDbLinetypeTableRecord
  2
CENTER
 70
     0
  3
Center ____ _ ____ _ ____ _ ____ _ ____ _ ____
 72
    65
 73
     4
 40
10.16
 49
6.35
 74
     0
 49
-1.27
 74
     0
 49
1.27
 74
     0
 49
-1.27
 74
     0
  0
LTYPE
  5
71
330
5
100
AcDbSymbolTableRecord
100
AcDbLinetypeTableRecord
  2
CENTERX2
 70
     0
  3
Center (2x) ________  __  ________  __  _____
 72
    65
 73
     4
 40
20.32
 49
12.7
 74
     0
 49
-2.54
 74
     0
 49
2.54
 74
     0
 49
-2.54
 74
     0
  0
LTYPE
  5
72
330
5
100
AcDbSymbolTableRecord
100
AcDbLinetypeTableRecord
  2
DOT2
 70
     0
  3
Dot (.5x) ........................................
 72
    65
 73
     2
 40
0.635
 49
0.0
 74
     0
 49
-0.635
 74
     0
  0
ENDTAB
  0
TABLE
  2
LAYER
  5
2
330
0
100
AcDbSymbolTable
 70
     5
  0
LAYER
  5
10
330
2
100
AcDbSymbolTableRecord
100
AcDbLayerTableRecord
  2
0
 70
     0
 62
     7
  6
Continuous
370
    -3
390
F
  0
LAYER
  5
73
330
2
100
AcDbSymbolTableRecord
100
AcDbLayerTableRecord
  2
FORMAT
 70
     0
 62
     7
  6
Continuous
370
    -3
390
F
  0
LAYER
  5
74
330
2
100
AcDbSymbolTableRecord
100
AcDbLayerTableRecord
  2
VERMASSUNG
 70
     0
 62
     7
  6
Continuous
370
    -3
390
F
  0
LAYER
  5
75
330
2
100
AcDbSymbolTableRecord
100
AcDbLayerTableRecord
  2
KOPF_DÜNN
 70
     0
 62
     7
  6
Continuous
370
    -3
390
F
  0
LAYER
  5
76
330
2
100
AcDbSymbolTableRecord
100
AcDbLayerTableRecord
  2
KOPF_DICK
 70
     0
 62
     7
  6
Continuous
370
    25
390
F
  0
ENDTAB
  0
TABLE
  2
STYLE
  5
3
330
0
100
AcDbSymbolTable
 70
     3
  0
STYLE
  5
11
330
3
100
AcDbSymbolTableRecord
100
AcDbTextStyleTableRecord
  2
Standard
 70
     0
 40
0.0
 41
1.0
 50
0.0
 71
     0
 42
2.0
  3
txt
  4

  0
STYLE
  5
77
330
3
100
AcDbSymbolTableRecord
100
AcDbTextStyleTableRecord
  2
SLDTEXTSTYLE0
 70
     0
 40
0.0
 41
0.7
 50
0.0
 71
     0
 42
2.0
  3
TXT
  4

  0
STYLE
  5
7B
330
3
100
AcDbSymbolTableRecord
100
AcDbTextStyleTableRecord
  2
SLDTEXTSTYLE1
 70
     0
 40
0.0
 41
0.6534883721
 50
0.0
 71
     0
 42
2.0
  3
TXT
  4

  0
ENDTAB
  0
TABLE
  2
VIEW
  5
6
330
0
100
AcDbSymbolTable
 70
     0
  0
ENDTAB
  0
TABLE
  2
UCS
  5
7
330
0
100
AcDbSymbolTable
 70
     0
  0
ENDTAB
  0
TABLE
  2
APPID
  5
9
330
0
100
AcDbSymbolTable
 70
     1
  0
APPID
  5
12
330
9
100
AcDbSymbolTableRecord
100
AcDbRegAppTableRecord
  2
ACAD
 70
     0
  0
ENDTAB
  0
TABLE
  2
DIMSTYLE
  5
A
330
0
100
AcDbSymbolTable
 70
     2
100
AcDbDimStyleTable
  0
DIMSTYLE
105
27
330
A
100
AcDbSymbolTableRecord
100
AcDbDimStyleTableRecord
  2
ISO-25
 70
     0
 41
2.5
 42
0.625
 43
3.75
 44
1.25
 73
     0
 74
     0
 77
     1
 78
     8
140
2.5
141
2.5
143
0.0393700787
147
0.625
171
     3
172
     1
178
     0
271
     2
272
     2
274
     3
278
    44
283
     0
284
     8
340
11
  0
DIMSTYLE
105
152
102
{ACAD_REACTORS
330
151
330
233
330
23D
102
}
330
A
100
AcDbSymbolTableRecord
100
AcDbDimStyleTableRecord
  2
SLDDIMSTYLE0
 70
     0
 41
3.0
 44
0.0
 45
0.000000001
 73
     0
 74
     0
 77
     1
 78
    12
 79
     3
140
2.0
147
0.5
173
     1
178
     0
271
     2
272
     3
276
     2
284
    12
340
77
  0
ENDTAB
  0
TABLE
  2
BLOCK_RECORD
  5
1
330
0
100
AcDbSymbolTable
 70
     4
  0
BLOCK_RECORD
  5
1F
330
1
100
AcDbSymbolTableRecord
100
AcDbBlockTableRecord
  2
*Model_Space
340
22
  0
BLOCK_RECORD
  5
1B
330
1
100
AcDbSymbolTableRecord
100
AcDbBlockTableRecord
  2
*Paper_Space
340
1E
  0
BLOCK_RECORD
  5
23
330
1
100
AcDbSymbolTableRecord
100
AcDbBlockTableRecord
  2
*Paper_Space0
340
26
  0
BLOCK_RECORD
  5
153
330
1
100
AcDbSymbolTableRecord
100
AcDbBlockTableRecord
  2
_D
340
0
  0
BLOCK_RECORD
  5
234
330
1
100
AcDbSymbolTableRecord
100
AcDbBlockTableRecord
  2
_D_1
340
0
  0
BLOCK_RECORD
  5
23E
330
1
100
AcDbSymbolTableRecord
100
AcDbBlockTableRecord
  2
_D_2
340
0
  0
ENDTAB
  0
ENDSEC
  0
SECTION
  2
BLOCKS
  0
BLOCK
  5
20
330
1F
100
AcDbEntity
  8
0
100
AcDbBlockBegin
  2
*Model_Space
 70
     0
 10
0.0
 20
0.0
 30
0.0
  3
*Model_Space
  1

  0
ENDBLK
  5
21
330
1F
100
AcDbEntity
  8
0
100
AcDbBlockEnd
  0
BLOCK
  5
1C
330
1B
100
AcDbEntity
 67
     1
  8
0
100
AcDbBlockBegin
  2
*Paper_Space
 70
     0
 10
0.0
 20
0.0
 30
0.0
  3
*Paper_Space
  1

  0
ENDBLK
  5
1D
330
1B
100
AcDbEntity
 67
     1
  8
0
100
AcDbBlockEnd
  0
BLOCK
  5
24
330
23
100
AcDbEntity
  8
0
100
AcDbBlockBegin
  2
*Paper_Space0
 70
     0
 10
0.0
 20
0.0
 30
0.0
  3
*Paper_Space0
  1

  0
ENDBLK
  5
25
330
23
100
AcDbEntity
  8
0
100
AcDbBlockEnd
  0
BLOCK
  5
154
330
153
100
AcDbEntity
  8
0
100
AcDbBlockBegin
  2
_D
 70
     0
 10
0.0
 20
0.0
 30
0.0
  3
_D
  1

  0
SOLID
  5
156
330
153
100
AcDbEntity
  8
VERMASSUNG
100
AcDbTrace
 10
78.3979391266
 20
39.833012905
 30
0.0
 11
78.8479391266
 21
42.833012905
 31
0.0
 12
77.9479391266
 22
42.833012905
 32
0.0
 13
77.9479391266
 23
42.833012905
 33
0.0
  0
SOLID
  5
157
330
153
100
AcDbEntity
  8
VERMASSUNG
100
AcDbTrace
 10
78.3979391266
 20
102.833012905
 30
0.0
 11
77.9479391266
 21
99.833012905
 31
0.0
 12
78.8479391266
 22
99.833012905
 32
0.0
 13
78.8479391266
 23
99.833012905
 33
0.0
  0
LINE
  5
158
330
153
100
AcDbEntity
  8
VERMASSUNG
100
AcDbLine
 10
126.8979391266
 20
39.833012905
 30
0.0
 11
77.3979391266
 21
39.833012905
 31
0.0
  0
LINE
  5
159
330
153
100
AcDbEntity
  8
VERMASSUNG
100
AcDbLine
 10
126.8979391266
 20
102.833012905
 30
0.0
 11
77.3979391266
 21
102.833012905
 31
0.0
  0
LINE
  5
15A
330
153
100
AcDbEntity
  8
VERMASSUNG
100
AcDbLine
 10
78.3979391266
 20
39.833012905
 30
0.0
 11
78.3979391266
 21
102.833012905
 31
0.0
  0
MTEXT
  5
15B
330
153
100
AcDbEntity
  8
VERMASSUNG
100
AcDbMText
 10
75.6198038703
 20
65.8280135952
 30
0.0
 40
2.0
 41
0.0
 71
     1
 72
     1
  1
PSC
  7
SLDTEXTSTYLE0
 11
6.123233995736766E-17
 21
1.0
 31
0.0
 73
     1
 44
1.0
  0
MTEXT
  5
15C
330
153
100
AcDbEntity
  8
VERMASSUNG
100
AcDbMText
 10
75.8198038216
 20
70.4280132316
 30
0.0
 40
2.0
 41
0.0
 71
     1
 72
     1
  1
%%c
  7
SLDTEXTSTYLE0
 11
6.123233995736766E-17
 21
1.0
 31
0.0
 73
     1
 44
1.0
  0
MTEXT
  5
15D
330
153
100
AcDbEntity
  8
VERMASSUNG
100
AcDbMText
 10
75.6198038703
 20
74.0380132459
 30
0.0
 40
2.0
 41
0.0
 71
     1
 72
     1
  1
63
  7
SLDTEXTSTYLE0
 11
6.123233995736766E-17
 21
1.0
 31
0.0
 73
     1
 44
1.0
  0
ENDBLK
  5
155
330
153
100
AcDbEntity
  8
0
100
AcDbBlockEnd
  0
BLOCK
  5
235
330
234
100
AcDbEntity
  8
0
100
AcDbBlockBegin
  2
_D_1
 70
     0
 10
0.0
 20
0.0
 30
0.0
  3
_D_1
  1

  0
SOLID
  5
237
330
234
100
AcDbEntity
  8
VERMASSUNG
100
AcDbTrace
 10
226.3979391266
 20
185.8162375891
 30
0.0
 11
223.3979391266
 21
186.2662375891
 31
0.0
 12
223.3979391266
 22
185.3662375891
 32
0.0
 13
223.3979391266
 23
185.3662375891
 33
0.0
  0
SOLID
  5
238
330
234
100
AcDbEntity
  8
VERMASSUNG
100
AcDbTrace
 10
126.3979391266
 20
185.8162375891
 30
0.0
 11
129.3979391266
 21
185.3662375891
 31
0.0
 12
129.3979391266
 22
186.2662375891
 32
0.0
 13
129.3979391266
 23
186.2662375891
 33
0.0
  0
LINE
  5
239
330
234
100
AcDbEntity
  8
VERMASSUNG
100
AcDbLine
 10
226.3979391266
 20
146.7958895344
 30
0.0
 11
226.3979391266
 21
186.8162375891
 31
0.0
  0
LINE
  5
23A
330
234
100
AcDbEntity
  8
VERMASSUNG
100
AcDbLine
 10
126.3979391266
 20
177.7958895344
 30
0.0
 11
126.3979391266
 21
186.8162375891
 31
0.0
  0
LINE
  5
23B
330
234
100
AcDbEntity
  8
VERMASSUNG
100
AcDbLine
 10
226.3979391266
 20
185.8162375891
 30
0.0
 11
126.3979391266
 21
185.8162375891
 31
0.0
  0
MTEXT
  5
23C
330
234
100
AcDbEntity
  8
VERMASSUNG
100
AcDbMText
 10
174.4979390945
 20
188.3943731851
 30
0.0
 40
2.0
 41
0.0
 71
     1
 72
     1
  1
100
  7
SLDTEXTSTYLE0
 73
     1
 44
1.0
  0
ENDBLK
  5
236
330
234
100
AcDbEntity
  8
0
100
AcDbBlockEnd
  0
BLOCK
  5
23F
330
23E
100
AcDbEntity
  8
0
100
AcDbBlockBegin
  2
_D_2
 70
     0
 10
0.0
 20
0.0
 30
0.0
  3
_D_2
  1

  0
SOLID
  5
241
330
23E
100
AcDbEntity
  8
VERMASSUNG
100
AcDbTrace
 10
226.3979391266
 20
194.2958895344
 30
0.0
 11
223.3979391266
 21
194.7458895344
 31
0.0
 12
223.3979391266
 22
193.8458895344
 32
0.0
 13
223.3979391266
 23
193.8458895344
 33
0.0
  0
SOLID
  5
242
330
23E
100
AcDbEntity
  8
VERMASSUNG
100
AcDbTrace
 10
88.3979391266
 20
194.2958895344
 30
0.0
 11
91.3979391266
 21
193.8458895344
 31
0.0
 12
91.3979391266
 22
194.7458895344
 32
0.0
 13
91.3979391266
 23
194.7458895344
 33
0.0
  0
LINE
  5
243
330
23E
100
AcDbEntity
  8
VERMASSUNG
100
AcDbLine
 10
226.3979391266
 20
146.7958895344
 30
0.0
 11
226.3979391266
 21
195.2958895344
 31
0.0
  0
LINE
  5
244
330
23E
100
AcDbEntity
  8
VERMASSUNG
100
AcDbLine
 10
88.3979391266
 20
166.9820053034
 30
0.0
 11
88.3979391266
 21
195.2958895344
 31
0.0
  0
LINE
  5
245
330
23E
100
AcDbEntity
  8
VERMASSUNG
100
AcDbLine
 10
226.3979391266
 20
194.2958895344
 30
0.0
 11
88.3979391266
 21
194.2958895344
 31
0.0
  0
MTEXT
  5
246
330
23E
100
AcDbEntity
  8
VERMASSUNG
100
AcDbMText
 10
155.4979390945
 20
196.8740251304
 30
0.0
 40
2.0
 41
0.0
 71
     1
 72
     1
  1
138
  7
SLDTEXTSTYLE0
 73
     1
 44
1.0
  0
ENDBLK
  5
240
330
23E
100
AcDbEntity
  8
0
100
AcDbBlockEnd
  0
ENDSEC
  0
SECTION
  2
ENTITIES
  0
MTEXT
  5
78
330
1F
100
AcDbEntity
  8
KOPF_DÜNN
100
AcDbMText
 10
13.8892156294
 20
23.8442973028
 30
0.0
 40
3.0
 41
0.0
 71
     1
 72
     1
  1
PS6.KVD.NVA.100
  7
SLDTEXTSTYLE0
 73
     1
 44
1.0
  0
MTEXT
  5
79
330
1F
100
AcDbEntity
  8
VERMASSUNG
100
AcDbMText
 10
13.9329988022
 20
28.8834360957
 30
0.0
 40
3.0
 41
0.0
 71
     1
 72
     1
  1
Klemhalter_Turning tool neutral
  7
SLDTEXTSTYLE0
 73
     1
 44
1.0
  0
MTEXT
  5
7A
330
1F
100
AcDbEntity
  8
VERMASSUNG
100
AcDbMText
 10
98.8601118557
 20
13.8365368761
 30
0.0
 40
2.0
 41
0.0
 71
     1
 72
     1
  1
Datum: 12.02.2018
  7
SLDTEXTSTYLE0
 73
     1
 44
1.0
  0
MTEXT
  5
7C
330
1F
100
AcDbEntity
  8
VERMASSUNG
100
AcDbMText
 10
13.933048693
 20
18.0482802738
 30
0.0
 40
2.0
 41
0.0
 71
     1
 72
     1
  1
PSC Ø63 / VN .. 16 04 .. /  72.5°/35°/72.5°
  7
SLDTEXTSTYLE1
 73
     1
 44
1.0
  0
MTEXT
  5
7D
330
1F
100
AcDbEntity
  8
VERMASSUNG
100
AcDbMText
 10
13.9808475933
 20
13.9090974274
 30
0.0
 40
2.0
 41
0.0
 71
     1
 72
     1
  1
Gewicht: 1546g
  7
SLDTEXTSTYLE0
 73
     1
 44
1.0
  0
LINE
  5
7E
330
1F
100
AcDbEntity
  8
0
  6
Continuous
 62
     7
370
    25
100
AcDbLine
 10
187.2006931996
 20
69.833012905
 30
0.0
 11
188.1947478024
 21
69.833012905
 31
0.0
  0
LINE
  5
7F
330
1F
100
AcDbEntity
  8
0
  6
Continuous
 62
     7
370
    25
100
AcDbLine
 10
188.1947478024
 20
72.833012905
 30
0.0
 11
187.2006931996
 21
72.833012905
 31
0.0
  0
LINE
  5
80
330
1F
100
AcDbEntity
  8
0
  6
Continuous
 62
     7
370
    25
100
AcDbLine
 10
197.0046875834
 20
77.083012905
 30
0.0
 11
196.5208437922
 21
77.083012905
 31
0.0
  0
LINE
  5
81
330
1F
100
AcDbEntity
  8
0
  6
Continuous
 62
     7
370
    25
100
AcDbLine
 10
196.5208437922
 20
65.583012905
 30
0.0
 11
197.0046875834
 21
65.583012905
 31
0.0
  0
LINE
  5
82
330
1F
100
AcDbEntity
  8
0
  6
Continuous
 62
     7
370
    25
100
AcDbLine
 10
196.2789218966
 20
78.333012905
 30
0.0
 11
195.1681587992
 21
78.333012905
 31
0.0
  0
LINE
  5
83
330
1F
100
AcDbEntity
  8
0
  6
Continuous
 62
     7
370
    25
100
AcDbLine
 10
195.1681587992
 20
64.333012905
 30
0.0
 11
196.2789218966
 21
64.333012905
 31
0.0
  0
LINE
  5
84
330
1F
100
AcDbEntity
  8
0
  6
Continuous
 62
     7
370
    25
100
AcDbLine
 10
214.6821352546
 20
68.7416519352
 30
0.0
 11
214.6821352546
 21
73.9243738748
 31
0.0
  0
LINE
  5
85
330
1F
100
AcDbEntity
  8
0
  6
Continuous
 62
     7
370
    25
100
AcDbLine
 10
210.7816731165
 20
66.3588045966
 30
0.0
 11
211.9332213396
 21
66.3588045966
 31
0.0
  0
LINE
  5
86
330
1F
100
AcDbEntity
  8
0
  6
Continuous
 62
     7
370
    25
100
AcDbLine
 10
211.9332213396
 20
76.3072212134
 30
0.0
 11
210.7816731165
 21
76.3072212134
 31
0.0
  0
ARC
  5
87
330
1F
100
AcDbEntity
  8
0
  6
Continuous
 62
     7
370
    25
100
AcDbCircle
 10
126.8979391266
 20
40.333012905
 30
0.0
 40
0.5
100
AcDbArc
 50
180.0
 51
270.0
  0
ARC
  5
88
330
1F
100
AcDbEntity
  8
0
  6
Continuous
 62
     7
370
    25
100
AcDbCircle
 10
126.8979391266
 20
102.333012905
 30
0.0
 40
0.5
100
AcDbArc
 50
90.0
 51
180.0
  0
LINE
  5
89
330
1F
100
AcDbEntity
  8
0
  6
Continuous
 62
     7
370
    25
100
AcDbLine
 10
155.5351501111
 20
102.833012905
 30
0.0
 11
126.8979391266
 21
102.833012905
 31
0.0
  0
LINE
  5
8A
330
1F
100
AcDbEntity
  8
0
  6
Continuous
 62
     7
370
    25
100
AcDbLine
 10
126.8979391266
 20
39.833012905
 30
0.0
 11
155.5351501111
 21
39.833012905
 31
0.0
  0
LWPOLYLINE
  5
8B
330
1F
100
AcDbEntity
  8
0
  6
Continuous
 62
     7
370
    25
100
AcDbPolyline
 90
        3
 70
   128
 43
0.0
 10
126.1979391266
 20
48.7931926261
 10
126.32339407
 20
48.7248905112
 10
126.3979391266
 20
48.672152753
  0
LWPOLYLINE
  5
8C
330
1F
100
AcDbEntity
  8
0
  6
Continuous
 62
     7
370
    25
100
AcDbPolyline
 90
        3
 70
   128
 43
0.0
 10
126.3979391266
 20
93.9938730569
 10
126.32339407
 20
93.9411352988
 10
126.1979391266
 20
93.8728331839
  0
LWPOLYLINE
  5
8D
330
1F
100
AcDbEntity
  8
0
  6
Continuous
 62
     7
370
    25
100
AcDbPolyline
 90
       19
 70
   128
 43
0.0
 10
187.2456771415
 20
70.1957920932
 10
186.931778414
 20
70.5875262702
 10
186.7627637683
 20
71.0647804509
 10
186.7580220605
 20
71.5728054587
 10
186.9180972453
 20
72.0533221799
 10
187.2246259747
 20
72.4512071692
 10
187.6424441872
 20
72.7208162471
 10
188.1236210233
 20
72.8312206643
 10
188.6129573113
 20
72.7697551553
 10
189.0543178517
 20
72.54347086
 10
189.3970710795
 20
72.1783264378
 10
189.6018973664
 20
71.7162101681
 10
189.6452996517
 20
71.2101346511
 10
189.5222989547
 20
70.718155361
 10
189.2470055485
 20
70.2967106946
 10
188.8510002716
 20
69.9941475274
 10
188.3797116686
 20
69.8451750036
 10
187.8872045624
 20
69.8668828068
 10
187.4299778996
 20
70.0567806826
  0
LINE
  5
8E
330
1F
100
AcDbEntity
  8
0
  6
Continuous
 62
     7
370
    25
100
AcDbLine
 10
187.5286968686
 20
70.1205922937
 30
0.0
 11
187.4299778996
 21
70.0567806826
 31
0.0
  0
LWPOLYLINE
  5
8F
330
1F
100
AcDbEntity
  8
0
  6
Continuous
 62
     7
370
    25
100
AcDbPolyline
 90
       18
 70
   128
 43
0.0
 10
187.3536111485
 20
70.2526531338
 10
187.0418914927
 20
70.6496965778
 10
186.8860364943
 20
71.1345185073
 10
186.9060672109
 20
71.6448389312
 10
187.0994105066
 20
72.1151023344
 10
187.4412295947
 20
72.4848989072
 10
187.8876145605
 20
72.7067247603
 10
188.3812230066
 20
72.7520842519
 10
188.8586462305
 20
72.6151505235
 10
189.2585546754
 20
72.3135140158
 10
189.5295762956
 20
71.8859228088
 10
189.6368957846
 20
71.3873050626
 10
189.5667269326
 20
70.8817129721
 10
189.3280835966
 20
70.434094653
 10
188.9516217842
 20
70.1019509385
 10
188.4857015981
 20
69.9279488497
 10
187.9901749203
 20
69.9344406109
 10
187.5286968686
 20
70.1205922937
  0
LINE
  5
90
330
1F
100
AcDbEntity
  8
0
  6
Continuous
 62
     7
370
    25
100
AcDbLine
 10
187.3536111485
 20
70.2526531338
 30
0.0
 11
187.2456771415
 21
70.1957920932
 31
0.0
  0
LINE
  5
91
330
1F
100
AcDbEntity
  8
0
  6
Continuous
 62
     7
370
    25
100
AcDbLine
 10
187.643412354
 20
70.3120271271
 30
0.0
 11
187.5286968686
 21
70.1205922937
 31
0.0
  0
LWPOLYLINE
  5
92
330
1F
100
AcDbEntity
  8
0
  6
Continuous
 62
     7
370
    25
100
AcDbPolyline
 90
       17
 70
   128
 43
0.0
 10
187.4959717476
 20
70.4232362555
 10
187.221156189
 20
70.7814495334
 10
187.0960909477
 20
71.219538084
 10
187.1388874878
 20
71.6740596189
 10
187.3433481801
 20
72.0791920887
 10
187.6798638185
 20
72.3762657772
 10
188.0997015107
 20
72.5222596227
 10
188.5420619872
 20
72.4960313616
 10
188.9428843158
 20
72.301379269
 10
189.2441229583
 20
71.9664921076
 10
189.4021537005
 20
71.5398669401
 10
189.394091142
 20
71.0832859717
 10
189.2211028712
 20
70.6628694913
 10
188.90824038
 20
70.3395005863
 10
188.5008112035
 20
70.1600082898
 10
188.0578176579
 20
70.1503859816
 10
187.643412354
 20
70.3120271271
  0
LINE
  5
93
330
1F
100
AcDbEntity
  8
0
  6
Continuous
 62
     7
370
    25
100
AcDbLine
 10
187.4959717476
 20
70.4232362555
 30
0.0
 11
187.3536111485
 21
70.2526531338
 31
0.0
  0
LINE
  5
94
330
1F
100
AcDbEntity
  8
0
  6
Continuous
 62
     7
370
    25
100
AcDbLine
 10
187.4031618729
 20
70.3120271271
 30
0.0
 11
187.643412354
 21
70.3120271271
 31
0.0
  0
LINE
  5
95
330
1F
100
AcDbEntity
  8
0
  6
Continuous
 62
     7
370
    25
100
AcDbLine
 10
187.4299778996
 20
70.0567806826
 30
0.0
 11
186.4009921243
 21
70.0567806826
 31
0.0
  0
LINE
  5
96
330
1F
100
AcDbEntity
  8
0
  6
Continuous
 62
     7
370
    25
100
AcDbLine
 10
187.2456771415
 20
70.1957920932
 30
0.0
 11
186.2078000244
 21
70.1957920932
 31
0.0
  0
LWPOLYLINE
  5
97
330
1F
100
AcDbEntity
  8
0
  6
Continuous
 62
     7
370
    25
100
AcDbPolyline
 90
       38
 70
   128
 43
0.0
 10
201.8205751099
 20
74.2361080301
 10
201.2752511672
 20
75.0331546866
 10
200.6070708856
 20
75.7237550008
 10
199.8352565953
 20
76.2880416591
 10
198.9820119881
 20
76.7097811617
 10
198.0718833578
 20
76.9768408311
 10
197.1310534482
 20
77.0815378467
 10
196.1865882227
 20
77.0208602661
 10
195.2656582263
 20
76.7965536727
 10
194.3947569383
 20
76.4150709589
 10
193.5989386031
 20
75.8873866877
 10
192.9010974651
 20
75.2286813749
 10
192.3213091435
 20
74.4579047731
 10
191.8762530926
 20
73.5972307217
 10
191.5787327647
 20
72.6714192462
 10
191.4373072779
 20
71.7071042571
 10
191.456045186
 20
70.7320273409
 10
191.6344074335
 20
69.7742396851
 10
191.9672628632
 20
68.8612950969
 10
192.4450358306
 20
68.0194573297
 10
193.0539816771
 20
67.2729445234
 10
193.7765821395
 20
66.6432324924
 10
194.5920493181
 20
66.1484369051
 10
195.476923707
 20
65.8027921299
 10
196.4057490809
 20
65.6162417374
 10
197.3518048251
 20
65.594152443
 10
198.2878746383
 20
65.7371597154
 10
199.1870294962
 20
66.0411494956
 10
200.0234023506
 20
66.4973765513
 10
200.7729322774
 20
67.0927160607
 10
201.4140566651
 20
67.81004119
 10
201.9283315324
 20
68.6287158012
 10
202.3009621278
 20
69.5251881165
 10
202.5212285475
 20
70.4736682594
 10
202.5827941275
 20
71.4468701831
 10
202.4838877384
 20
72.4167966403
 10
202.2273547367
 20
73.3555446126
 10
201.8205751099
 20
74.2361080301
  0
LWPOLYLINE
  5
98
330
1F
100
AcDbEntity
  8
0
  6
Continuous
 62
     7
370
    25
100
AcDbPolyline
 90
       25
 70
   128
 43
0.0
 10
199.5823955165
 20
72.5952281768
 10
199.1940674258
 20
73.110741655
 10
198.6895098717
 20
73.5051058568
 10
198.1031076177
 20
73.7514455134
 10
197.4748230083
 20
73.8329729844
 10
196.8474726015
 20
73.7441323074
 10
196.2638092907
 20
73.4909778277
 10
195.7636087659
 20
73.0907616047
 10
195.3809588664
 20
72.5707577126
 10
195.1419365504
 20
71.9664035574
 10
195.0628307936
 20
71.3188848759
 10
195.1490325229
 20
70.6723289963
 10
195.3946672326
 20
70.0707976332
 10
195.7829953234
 20
69.5552841549
 10
196.2875528775
 20
69.1609199532
 10
196.8739551315
 20
68.9145802966
 10
197.5022397408
 20
68.8330528255
 10
198.1295901476
 20
68.9218935026
 10
198.7132534585
 20
69.1750479823
 10
199.2134539832
 20
69.5752642053
 10
199.5961038828
 20
70.0952680973
 10
199.8351261988
 20
70.6996222526
 10
199.9142319555
 20
71.3471409341
 10
199.8280302263
 20
71.9936968137
 10
199.5823955165
 20
72.5952281768
  0
SPLINE
  5
99
330
1F
100
AcDbEntity
  8
0
  6
Continuous
 62
     7
370
    25
100
AcDbSpline
210
0.0
220
0.0
230
1.0
 70
     8
 71
     3
 72
    11
 73
     7
 74
     0
 42
0.000000001
 43
0.00000001
 40
0.0
 40
0.0
 40
0.0
 40
0.0
 40
0.1208913875340502
 40
0.4766714197330104
 40
0.8143663490172462
 40
0.9999999999999999
 40
0.9999999999999999
 40
0.9999999999999999
 40
0.9999999999999999
 10
196.3330049080635
 20
69.32651938431222
 30
0.0
 10
196.2801381430103
 20
69.401961716022
 30
0.0
 10
196.0716859408429
 20
69.69942875728617
 30
0.0
 10
195.7138697994322
 20
70.2604250578021
 30
0.0
 10
195.396221238448
 20
70.8751800151509
 30
0.0
 10
195.2526000240391
 20
71.20350091795594
 30
0.0
 10
195.2016551083692
 20
71.31996199074993
 30
0.0
  0
SPLINE
  5
9A
330
1F
100
AcDbEntity
  8
0
  6
Continuous
 62
     7
370
    25
100
AcDbSpline
210
0.0
220
0.0
230
1.0
 70
     8
 71
     3
 72
    10
 73
     6
 74
     0
 42
0.000000001
 43
0.00000001
 40
0.0
 40
0.0
 40
0.0
 40
0.0
 40
0.439122227423045
 40
0.7513714712594634
 40
1.0
 40
1.0
 40
1.0
 40
1.0
 10
198.5737711214713
 20
69.339570298541
 30
0.0
 10
198.2198449861434
 20
69.33770193324979
 30
0.0
 10
197.61425049693
 20
69.33450501838182
 30
0.0
 10
196.8415511914943
 20
69.32985777627528
 30
0.0
 10
196.4891977802376
 20
69.32754472467187
 30
0.0
 10
196.3330049080635
 20
69.32651938431222
 30
0.0
  0
SPLINE
  5
9B
330
1F
100
AcDbEntity
  8
0
  6
Continuous
 62
     7
370
    25
100
AcDbSpline
210
0.0
220
0.0
230
1.0
 70
     8
 71
     3
 72
    10
 73
     6
 74
     0
 42
0.000000001
 43
0.00000001
 40
0.0
 40
0.0
 40
0.0
 40
0.0
 40
0.4391222274230479
 40
0.7513714712594599
 40
1.0
 40
1.0
 40
1.0
 40
1.0
 10
199.6831875351849
 20
71.34606381920749
 30
0.0
 10
199.491225125992
 20
71.05881475869525
 30
0.0
 10
199.1627628692117
 20
70.56730980691549
 30
0.0
 10
198.7929208911807
 20
69.85282643721932
 30
0.0
 10
198.6410799055142
 20
69.49720973682449
 30
0.0
 10
198.5737711214713
 20
69.339570298541
 30
0.0
  0
SPLINE
  5
9C
330
1F
100
AcDbEntity
  8
0
  6
Continuous
 62
     7
370
    25
100
AcDbSpline
210
0.0
220
0.0
230
1.0
 70
     8
 71
     3
 72
    11
 73
     7
 74
     0
 42
0.000000001
 43
0.00000001
 40
0.0
 40
0.0
 40
0.0
 40
0.0
 40
0.1856336509827584
 40
0.5233285802669885
 40
0.8791086124659532
 40
1.0
 40
1.0
 40
1.0
 40
1.0
 10
198.5518377354907
 20
73.3395064256452
 30
0.0
 10
198.6027826511605
 20
73.2230453528512
 30
0.0
 10
198.7464038655695
 20
72.89472445004617
 30
0.0
 10
199.0640524265537
 20
72.27996949269736
 30
0.0
 10
199.4218685679644
 20
71.71897319218144
 30
0.0
 10
199.6303207701318
 20
71.42150615091728
 30
0.0
 10
199.6831875351849
 20
71.34606381920749
 30
0.0
  0
SPLINE
  5
9D
330
1F
100
AcDbEntity
  8
0
  6
Continuous
 62
     7
370
    25
100
AcDbSpline
210
0.0
220
0.0
230
1.0
 70
     8
 71
     3
 72
    10
 73
     6
 74
     0
 42
0.000000001
 43
0.00000001
 40
0.0
 40
0.0
 40
0.0
 40
0.0
 40
0.4391222274230439
 40
0.751371471259459
 40
1.0
 40
1.0
 40
1.0
 40
1.0
 10
196.3110715220828
 20
73.32645551141644
 30
0.0
 10
196.598720336287
 20
73.32832387670764
 30
0.0
 10
197.0909092969846
 20
73.3315207915756
 30
0.0
 10
197.9140189770922
 20
73.33616803368216
 30
0.0
 10
198.3559406322246
 20
73.33848108528555
 30
0.0
 10
198.5518377354907
 20
73.3395064256452
 30
0.0
  0
SPLINE
  5
9E
330
1F
100
AcDbEntity
  8
0
  6
Continuous
 62
     7
370
    25
100
AcDbSpline
210
0.0
220
0.0
230
1.0
 70
     8
 71
     3
 72
    10
 73
     6
 74
     0
 42
0.000000001
 43
0.00000001
 40
0.0
 40
0.0
 40
0.0
 40
0.0
 40
0.4391222274230481
 40
0.7513714712594618
 40
1.0
 40
1.0
 40
1.0
 40
1.0
 10
195.2016551083692
 20
71.31996199074993
 30
0.0
 10
195.3273401964383
 20
71.60721105126218
 30
0.0
 10
195.5423969247029
 20
72.09871600304194
 30
0.0
 10
195.9626492774058
 20
72.81319937273811
 30
0.0
 10
196.2040585069481
 20
73.16881607313293
 30
0.0
 10
196.3110715220828
 20
73.32645551141644
 30
0.0
  0
LINE
  5
9F
330
1F
100
AcDbEntity
  8
0
  6
Continuous
 62
     7
370
    25
100
AcDbLine
 10
196.7737323808
 20
69.3330448414
 30
0.0
 11
197.8941154875
 21
69.3395702985
 31
0.0
  0
LINE
  5
A0
330
1F
100
AcDbEntity
  8
0
  6
Continuous
 62
     7
370
    25
100
AcDbLine
 10
197.8941154875
 20
69.3395702985
 30
0.0
 11
198.5737711215
 21
69.3395702985
 31
0.0
  0
ARC
  5
A1
330
1F
100
AcDbEntity
  8
0
  6
Continuous
 62
     7
370
    25
100
AcDbCircle
 10
196.6542936528
 20
71.333012905
 30
0.0
 40
5.751548388503758
100
AcDbArc
 50
91.3295202423
 51
268.6704797577
  0
LINE
  5
A2
330
1F
100
AcDbEntity
  8
0
  6
Continuous
 62
     7
370
    25
100
AcDbLine
 10
197.8941154875
 20
69.3395702985
 30
0.0
 11
198.4488236943
 21
70.3428170589
 31
0.0
  0
LINE
  5
A3
330
1F
100
AcDbEntity
  8
0
  6
Continuous
 62
     7
370
    25
100
AcDbLine
 10
198.4488236943
 20
70.3428170589
 30
0.0
 11
199.0035319012
 21
71.3460638192
 31
0.0
  0
LINE
  5
A4
330
1F
100
AcDbEntity
  8
0
  6
Continuous
 62
     7
370
    25
100
AcDbLine
 10
199.0035319012
 20
71.3460638192
 30
0.0
 11
199.6831875352
 21
71.3460638192
 31
0.0
  0
LINE
  5
A5
330
1F
100
AcDbEntity
  8
0
  6
Continuous
 62
     7
370
    25
100
AcDbLine
 10
199.0035319012
 20
71.3460638192
 30
0.0
 11
198.4378570013
 21
72.3427851224
 31
0.0
  0
LINE
  5
A6
330
1F
100
AcDbEntity
  8
0
  6
Continuous
 62
     7
370
    25
100
AcDbLine
 10
198.4378570013
 20
72.3427851224
 30
0.0
 11
197.8721821015
 21
73.3395064256
 31
0.0
  0
ARC
  5
A7
330
1F
100
AcDbEntity
  8
0
  6
Continuous
 62
     7
370
    25
100
AcDbCircle
 10
196.6515866773
 20
71.3329761276
 30
0.0
 40
2.051944413638383
100
AcDbArc
 50
331.1481344594
 51
29.4802145002
  0
ARC
  5
A8
330
1F
100
AcDbEntity
  8
0
  6
Continuous
 62
     7
370
    25
100
AcDbCircle
 10
196.7509807152
 20
71.2650612939
 30
0.0
 40
1.93215041100528
100
AcDbArc
 50
270.674691025
 51
331.4898178997
  0
ARC
  5
A9
330
1F
100
AcDbEntity
  8
0
  6
Continuous
 62
     7
370
    25
100
AcDbCircle
 10
196.7517805146
 20
71.4023822151
 30
0.0
 40
1.930598753531242
100
AcDbArc
 50
29.1504310479
 51
89.9994515512
  0
ARC
  5
AA
330
1F
100
AcDbEntity
  8
0
  6
Continuous
 62
     7
370
    25
100
AcDbCircle
 10
196.5132770032
 20
71.0344313519
 30
0.0
 40
5.701398248446208
100
AcDbArc
 50
269.8872583293
 51
303.0264903892
  0
ARC
  5
AB
330
1F
100
AcDbEntity
  8
0
  6
Continuous
 62
     7
370
    25
100
AcDbCircle
 10
196.5816596085
 20
71.2889353783
 30
0.0
 40
5.956423154760274
100
AcDbArc
 50
59.3221232111
 51
269.2342795211
  0
LWPOLYLINE
  5
AC
330
1F
100
AcDbEntity
  8
0
  6
Continuous
 62
     7
370
    25
100
AcDbPolyline
 90
       35
 70
   128
 43
0.0
 10
190.3771188588
 20
67.8684128573
 10
190.9632658874
 20
66.9755744316
 10
191.6754792886
 20
66.1860772418
 10
192.4968681725
 20
65.5186450442
 10
193.407952438
 20
64.9891066951
 10
194.3871247634
 20
64.6100207534
 10
195.4111630474
 20
64.3903776409
 10
196.4557811451
 20
64.3353864251
 10
197.4962048397
 20
64.4463512803
 10
198.5077593892
 20
64.7206405585
 10
199.4664547135
 20
65.1517492008
 10
200.3495543448
 20
65.7294530125
 10
201.1361146467
 20
66.4400511401
 10
201.8074815144
 20
67.2666910017
 10
202.3477327766
 20
68.1897679637
 10
202.7440558064
 20
69.1873902851
 10
202.9870513864
 20
70.2358983033
 10
203.0709566209
 20
71.3104255482
 10
202.9937816089
 20
72.385488476
 10
202.757356637
 20
73.4355908387
 10
202.3672887722
 20
74.4358283546
 10
201.832828884
 20
75.3624793389
 10
201.1666522507
 20
76.1935672891
 10
200.3845579519
 20
76.9093820805
 10
199.5050941762
 20
77.4929474123
 10
198.5491183321
 20
77.9304234192
 10
197.539302392
 20
78.2114348974
 10
196.499595203
 20
78.3293173643
 10
195.4546545144
 20
78.2812751132
 10
194.4292621937
 20
78.0684475166
 10
193.447736498
 20
77.6958820047
 10
192.5333553416
 20
77.1724143606
 10
191.707804235
 20
76.5104591698
 10
190.9906619911
 20
75.725715396
 10
190.3989363923
 20
74.8367940629
  0
SPLINE
  5
AD
330
1F
100
AcDbEntity
  8
0
  6
Continuous
 62
     7
370
    25
100
AcDbSpline
210
0.0
220
0.0
230
1.0
 70
     8
 71
     3
 72
    14
 73
    10
 74
     0
 42
0.000000001
 43
0.00000001
 40
0.0
 40
0.0
 40
0.0
 40
0.0
 40
0.2406877603022457
 40
0.3654954831739899
 40
0.4913832497566468
 40
0.5985915213214188
 40
0.7015343678751409
 40
0.8683340671896864
 40
1.0
 40
1.0
 40
1.0
 40
1.0
 10
190.3771188587578
 20
67.86841285732353
 30
0.0
 10
190.5055119190062
 20
68.0436094145987
 30
0.0
 10
190.7004827124225
 20
68.30965348045108
 30
0.0
 10
190.7824537446998
 20
68.78532520558477
 30
0.0
 10
190.7310611235779
 20
69.1588919634599
 30
0.0
 10
190.5699038231301
 20
69.48355894358497
 30
0.0
 10
190.3103709897601
 20
69.778566064301
 30
0.0
 10
189.973941140415
 20
70.00055810918384
 30
0.0
 10
189.7070439069841
 20
70.08467076355473
 30
0.0
 10
189.5893041425965
 20
70.12177644644373
 30
0.0
  0
ARC
  5
AE
330
1F
100
AcDbEntity
  8
0
  6
Continuous
 62
     7
370
    25
100
AcDbCircle
 10
196.6828760513
 20
71.330983506
 30
0.0
 40
7.195897729740461
100
AcDbArc
 50
189.3840411295
 51
189.6739479138
  0
SPLINE
  5
AF
330
1F
100
AcDbEntity
  8
0
  6
Continuous
 62
     7
370
    25
100
AcDbSpline
210
0.0
220
0.0
230
1.0
 70
     8
 71
     3
 72
    21
 73
    17
 74
     0
 42
0.000000001
 43
0.00000001
 40
0.0
 40
0.0
 40
0.0
 40
0.0
 40
0.1184898130330147
 40
0.2409333092377989
 40
0.3026367619995367
 40
0.3656706537111136
 40
0.4274946845526815
 40
0.4917637827059391
 40
0.5445506094064958
 40
0.599025374318101
 40
0.649928321877582
 40
0.7018700591743899
 40
0.7841066692679696
 40
0.8686395319671157
 40
0.9340328022789203
 40
1.0
 40
1.0
 40
1.0
 40
1.0
 10
189.5832765931913
 20
70.15768402536715
 30
0.0
 10
189.6739543978765
 20
70.21865474687085
 30
0.0
 10
189.858335679254
 20
70.34263061722191
 30
0.0
 10
190.054671215772
 20
70.55825659169223
 30
0.0
 10
190.1856514006245
 20
70.76420876773744
 30
0.0
 10
190.2643787625651
 20
70.93672211202856
 30
0.0
 10
190.3183730517522
 20
71.12636965622548
 30
0.0
 10
190.339649643447
 20
71.31529590649878
 30
0.0
 10
190.3311756530159
 20
71.49735107637144
 30
0.0
 10
190.2998043929867
 20
71.66080673585915
 30
0.0
 10
190.2482142983914
 20
71.81476148329628
 30
0.0
 10
190.1677745204631
 20
71.98343048984867
 30
0.0
 10
190.0477765610418
 20
72.16214638200154
 30
0.0
 10
189.8967958099502
 20
72.32386938368755
 30
0.0
 10
189.7427557416118
 20
72.45406251396294
 30
0.0
 10
189.6415830574503
 20
72.51982537023763
 30
0.0
 10
189.5907756984327
 20
72.55285046071987
 30
0.0
  0
ARC
  5
B0
330
1F
100
AcDbEntity
  8
0
  6
Continuous
 62
     7
370
    25
100
AcDbCircle
 10
196.6814993843
 20
71.3352778596
 30
0.0
 40
7.194501054834896
100
AcDbArc
 50
169.9666217452
 51
170.2565660482
  0
SPLINE
  5
B1
330
1F
100
AcDbEntity
  8
0
  6
Continuous
 62
     7
370
    25
100
AcDbSpline
210
0.0
220
0.0
230
1.0
 70
     8
 71
     3
 72
    14
 73
    10
 74
     0
 42
0.000000001
 43
0.00000001
 40
0.0
 40
0.0
 40
0.0
 40
0.0
 40
0.2406877603025112
 40
0.3654954831741932
 40
0.4913832497567869
 40
0.5985915213215416
 40
0.7015343678752785
 40
0.868334067189889
 40
1.0
 40
1.0
 40
1.0
 40
1.0
 10
189.5970279684149
 20
72.58871720229878
 30
0.0
 10
189.8140112967758
 20
72.66437175631934
 30
0.0
 10
190.143510504963
 20
72.77925669164519
 30
0.0
 10
190.5159217430171
 20
73.12599187346197
 30
0.0
 10
190.7137151916435
 20
73.45801731942382
 30
0.0
 10
190.7902381758105
 20
73.80636290376243
 30
0.0
 10
190.7672549985928
 20
74.18116687389042
 30
0.0
 10
190.6347319903775
 20
74.5365549271629
 30
0.0
 10
190.4711148834918
 20
74.74488900617091
 30
0.0
 10
190.3989363922919
 20
74.83679406288866
 30
0.0
  0
LINE
  5
B2
330
1F
100
AcDbEntity
  8
0
  6
Continuous
 62
     7
370
    25
100
AcDbLine
 10
189.2663557613
 20
67.8684128573
 30
0.0
 11
190.3771188588
 21
67.8684128573
 31
0.0
  0
SPLINE
  5
B3
330
1F
100
AcDbEntity
  8
0
  6
Continuous
 62
     7
370
    25
100
AcDbSpline
210
0.0
220
0.0
230
1.0
 70
     8
 71
     3
 72
     9
 73
     5
 74
     0
 42
0.000000001
 43
0.00000001
 40
0.0
 40
0.0
 40
0.0
 40
0.0
 40
0.5924445293241458
 40
1.0
 40
1.0
 40
1.0
 40
1.0
 10
189.2841359842225
 20
68.16543542037012
 30
0.0
 10
189.2859013408555
 20
68.09798970497988
 30
0.0
 10
189.2888811246929
 20
67.98414661579281
 30
0.0
 10
189.2728779448358
 20
67.90192338489327
 30
0.0
 10
189.2663557613369
 20
67.8684128573235
 30
0.0
  0
LINE
  5
B4
330
1F
100
AcDbEntity
  8
0
  6
Continuous
 62
     7
370
    25
100
AcDbLine
 10
189.5893041426
 20
70.1217764464
 30
0.0
 11
189.0532847622
 21
70.1217764464
 31
0.0
  0
LINE
  5
B5
330
1F
100
AcDbEntity
  8
0
  6
Continuous
 62
     7
370
    25
100
AcDbLine
 10
189.0990519801
 20
70.1576840254
 30
0.0
 11
189.5832765932
 21
70.1576840254
 31
0.0
  0
LINE
  5
B6
330
1F
100
AcDbEntity
  8
0
  6
Continuous
 62
     7
370
    25
100
AcDbLine
 10
189.5907756984
 20
72.5528504607
 30
0.0
 11
189.0417422444
 21
72.5528504607
 31
0.0
  0
LINE
  5
B7
330
1F
100
AcDbEntity
  8
0
  6
Continuous
 62
     7
370
    25
100
AcDbLine
 10
188.9908674443
 20
72.5887172023
 30
0.0
 11
189.5970279684
 21
72.5887172023
 31
0.0
  0
LINE
  5
B8
330
1F
100
AcDbEntity
  8
0
  6
Continuous
 62
     7
370
    25
100
AcDbLine
 10
189.2881732949
 20
74.8367940629
 30
0.0
 11
189.3013894938
 21
74.536191103
 31
0.0
  0
LINE
  5
B9
330
1F
100
AcDbEntity
  8
0
  6
Continuous
 62
     7
370
    25
100
AcDbLine
 10
190.3989363923
 20
74.8367940629
 30
0.0
 11
189.2881732949
 21
74.8367940629
 31
0.0
  0
ARC
  5
BA
330
1F
100
AcDbEntity
  8
0
  6
Continuous
 62
     7
370
    25
100
AcDbCircle
 10
195.2011947827
 20
71.0819347101
 30
0.0
 40
6.749002660231813
100
AcDbArc
 50
208.4341006654
 51
269.7195393034
  0
ARC
  5
BB
330
1F
100
AcDbEntity
  8
0
  6
Continuous
 62
     7
370
    25
100
AcDbCircle
 10
195.2138658528
 20
71.5635154155
 30
0.0
 40
6.769651792697608
100
AcDbArc
 50
90.3868502022
 51
151.084287107
  0
LINE
  5
BC
330
1F
100
AcDbEntity
  8
0
  6
Continuous
 62
     7
370
    25
100
AcDbLine
 10
186.6937524459
 20
78.833012905
 30
0.0
 11
185.0842819654
 21
78.833012905
 31
0.0
  0
SPLINE
  5
BD
330
1F
100
AcDbEntity
  8
0
  6
Continuous
 62
     7
370
    25
100
AcDbSpline
210
0.0
220
0.0
230
1.0
 70
     8
 71
     3
 72
    11
 73
     7
 74
     0
 42
0.000000001
 43
0.00000001
 40
0.0
 40
0.0
 40
0.0
 40
0.0
 40
0.2470280283805161
 40
0.4952240180322483
 40
0.7470074342714761
 40
1.0
 40
1.0
 40
1.0
 40
1.0
 10
186.6937524459442
 20
78.83301290497864
 30
0.0
 10
186.518170918637
 20
78.82959128383516
 30
0.0
 10
186.1661777054971
 20
78.82273186394679
 30
0.0
 10
185.6374648484012
 20
78.76610547411006
 30
0.0
 10
185.1085638030146
 20
78.67799539761272
 30
0.0
 10
184.7606114923275
 20
78.58809992362795
 30
0.0
 10
184.5862185913643
 20
78.54304451801588
 30
0.0
  0
SPLINE
  5
BE
330
1F
100
AcDbEntity
  8
0
  6
Continuous
 62
     7
370
    25
100
AcDbSpline
210
0.0
220
0.0
230
1.0
 70
     8
 71
     3
 72
    16
 73
    12
 74
     0
 42
0.000000001
 43
0.00000001
 40
0.0
 40
0.0
 40
0.0
 40
0.0
 40
0.0951182873398479
 40
0.19363631134963
 40
0.3110214900494937
 40
0.4317771131308445
 40
0.5936211337431362
 40
0.7600369482782926
 40
0.8786868083121063
 40
0.9985545616448848
 40
1.0
 40
1.0
 40
1.0
 40
1.0
 10
184.5862185913643
 20
78.54304451801589
 30
0.0
 10
184.2236270249533
 20
78.42621640562116
 30
0.0
 10
183.4854840725319
 20
78.18838448729379
 30
0.0
 10
182.3929610151208
 20
77.62923642671737
 30
0.0
 10
181.3269311599471
 20
76.91499351677619
 30
0.0
 10
180.2304897470443
 20
75.95168354998296
 30
0.0
 10
179.2196030316146
 20
74.77067324262318
 30
0.0
 10
178.4581121222022
 20
73.52784150298655
 30
0.0
 10
177.9534819976768
 20
72.37548733685328
 30
0.0
 10
177.7449848030424
 20
71.68565749503755
 30
0.0
 10
177.6633489728469
 20
71.33716516715374
 30
0.0
 10
177.6623762875315
 20
71.33301290497864
 30
0.0
  0
SPLINE
  5
BF
330
1F
100
AcDbEntity
  8
0
  6
Continuous
 62
     7
370
    25
100
AcDbSpline
210
0.0
220
0.0
230
1.0
 70
     8
 71
     3
 72
    16
 73
    12
 74
     0
 42
0.000000001
 43
0.00000001
 40
0.0
 40
0.0
 40
0.0
 40
0.0
 40
0.0951182873398481
 40
0.1936363113496299
 40
0.311021490049493
 40
0.4317771131308438
 40
0.5936211337431357
 40
0.7600369482782917
 40
0.8786868083121057
 40
0.9985545616448838
 40
0.9999999999999999
 40
0.9999999999999999
 40
0.9999999999999999
 40
0.9999999999999999
 10
184.5862185913643
 20
64.1229812919414
 30
0.0
 10
184.2236270249533
 20
64.2398094043361
 30
0.0
 10
183.4854840725319
 20
64.4776413226635
 30
0.0
 10
182.3929610151207
 20
65.03678938323989
 30
0.0
 10
181.3269311599472
 20
65.75103229318108
 30
0.0
 10
180.2304897470443
 20
66.71434225997432
 30
0.0
 10
179.2196030316146
 20
67.89535256733411
 30
0.0
 10
178.4581121222022
 20
69.13818430697069
 30
0.0
 10
177.9534819976769
 20
70.29053847310406
 30
0.0
 10
177.7449848030423
 20
70.98036831491956
 30
0.0
 10
177.6633489728469
 20
71.32886064280353
 30
0.0
 10
177.6623762875315
 20
71.33301290497864
 30
0.0
  0
SPLINE
  5
C0
330
1F
100
AcDbEntity
  8
0
  6
Continuous
 62
     7
370
    25
100
AcDbSpline
210
0.0
220
0.0
230
1.0
 70
     8
 71
     3
 72
    11
 73
     7
 74
     0
 42
0.000000001
 43
0.00000001
 40
0.0
 40
0.0
 40
0.0
 40
0.0
 40
0.247028028380517
 40
0.4952240180322501
 40
0.7470074342714789
 40
0.9999999999999999
 40
0.9999999999999999
 40
0.9999999999999999
 40
0.9999999999999999
 10
186.6937524459442
 20
63.83301290497864
 30
0.0
 10
186.518170918637
 20
63.83643452612212
 30
0.0
 10
186.1661777054971
 20
63.8432939460105
 30
0.0
 10
185.6374648484012
 20
63.89992033584721
 30
0.0
 10
185.1085638030146
 20
63.98803041234456
 30
0.0
 10
184.7606114923275
 20
64.07792588632934
 30
0.0
 10
184.5862185913643
 20
64.1229812919414
 30
0.0
  0
LINE
  5
C1
330
1F
100
AcDbEntity
  8
0
  6
Continuous
 62
     7
370
    25
100
AcDbLine
 10
186.6937524459
 20
63.833012905
 30
0.0
 11
185.0842819654
 21
63.833012905
 31
0.0
  0
SPLINE
  5
C2
330
1F
100
AcDbEntity
  8
0
  6
Continuous
 62
     7
370
    25
100
AcDbSpline
210
0.0
220
0.0
230
1.0
 70
     8
 71
     3
 72
    11
 73
     7
 74
     0
 42
0.000000001
 43
0.00000001
 40
0.0
 40
0.0
 40
0.0
 40
0.0
 40
0.1476531735280472
 40
0.5222779689491865
 40
0.9080649941875067
 40
1.0
 40
1.0
 40
1.0
 40
1.0
 10
183.924044090582
 20
63.89624450354346
 30
0.0
 10
183.9739997085063
 20
63.89142203208292
 30
0.0
 10
184.1507024372297
 20
63.87436401335197
 30
0.0
 10
184.4921988445119
 20
63.84806606048206
 30
0.0
 10
184.8415394644124
 20
63.833990030808
 30
0.0
 10
185.0451065812447
 20
63.83317059998281
 30
0.0
 10
185.0842819653651
 20
63.83301290497864
 30
0.0
  0
ARC
  5
C3
330
1F
100
AcDbEntity
  8
0
  6
Continuous
 62
     7
370
    25
100
AcDbCircle
 10
185.0806668743
 20
71.333012905
 30
0.0
 40
7.526174361545092
100
AcDbArc
 50
98.8402509801
 51
261.1597490199
  0
SPLINE
  5
C4
330
1F
100
AcDbEntity
  8
0
  6
Continuous
 62
     7
370
    25
100
AcDbSpline
210
0.0
220
0.0
230
1.0
 70
     8
 71
     3
 72
    11
 73
     7
 74
     0
 42
0.000000001
 43
0.00000001
 40
0.0
 40
0.0
 40
0.0
 40
0.0
 40
0.1476531735280416
 40
0.5222779689491787
 40
0.9080649941874976
 40
1.0
 40
1.0
 40
1.0
 40
1.0
 10
183.9240440905821
 20
78.76978130641383
 30
0.0
 10
183.9739997085063
 20
78.77460377787436
 30
0.0
 10
184.1507024372297
 20
78.7916617966053
 30
0.0
 10
184.492198844512
 20
78.81795974947522
 30
0.0
 10
184.8415394644124
 20
78.83203577914927
 30
0.0
 10
185.0451065812447
 20
78.83285520997448
 30
0.0
 10
185.0842819653651
 20
78.83301290497864
 30
0.0
  0
LINE
  5
C5
330
1F
100
AcDbEntity
  8
0
  6
Continuous
 62
     7
370
    25
100
AcDbLine
 10
186.6937524459
 20
78.833012905
 30
0.0
 11
197.6909157363
 21
78.833012905
 31
0.0
  0
SPLINE
  5
C6
330
1F
100
AcDbEntity
  8
0
  6
Continuous
 62
     7
370
    25
100
AcDbSpline
210
0.0
220
0.0
230
1.0
 70
     8
 71
     3
 72
    13
 73
     9
 74
     0
 42
0.000000001
 43
0.00000001
 40
0.0
 40
0.0
 40
0.0
 40
0.0
 40
0.1635392615137325
 40
0.3270849571556383
 40
0.4958211442708343
 40
0.6645723614732636
 40
0.8317545527462892
 40
1.0
 40
1.0
 40
1.0
 40
1.0
 10
197.6909157363337
 20
78.83301290497864
 30
0.0
 10
198.5798066839476
 20
78.81412814115693
 30
0.0
 10
200.3576235508284
 20
78.7763578705299
 30
0.0
 10
202.9757073471659
 20
78.47341489477488
 30
0.0
 10
205.5385786749295
 20
77.9883248982846
 30
0.0
 10
208.0123631953772
 20
77.30621659770792
 30
0.0
 10
210.3757468285142
 20
76.46051440251516
 30
0.0
 10
211.8404690028879
 20
75.76232975361188
 30
0.0
 10
212.5751515663532
 20
75.41213085814717
 30
0.0
  0
SPLINE
  5
C7
330
1F
100
AcDbEntity
  8
0
  6
Continuous
 62
     7
370
    25
100
AcDbSpline
210
0.0
220
0.0
230
1.0
 70
     8
 71
     3
 72
    13
 73
     9
 74
     0
 42
0.000000001
 43
0.00000001
 40
0.0
 40
0.0
 40
0.0
 40
0.0
 40
0.1635392615137324
 40
0.327084957155638
 40
0.4958211442708347
 40
0.6645723614732639
 40
0.8317545527462891
 40
1.0
 40
1.0
 40
1.0
 40
1.0
 10
197.6909157363337
 20
63.83301290497864
 30
0.0
 10
198.5798066839477
 20
63.85189766880035
 30
0.0
 10
200.3576235508284
 20
63.88966793942738
 30
0.0
 10
202.9757073471658
 20
64.1926109151824
 30
0.0
 10
205.5385786749295
 20
64.67770091167267
 30
0.0
 10
208.0123631953772
 20
65.35980921224936
 30
0.0
 10
210.3757468285143
 20
66.20551140744212
 30
0.0
 10
211.8404690028879
 20
66.90369605634538
 30
0.0
 10
212.5751515663532
 20
67.25389495181012
 30
0.0
  0
LINE
  5
C8
330
1F
100
AcDbEntity
  8
0
  6
Continuous
 62
     7
370
    25
100
AcDbLine
 10
186.6937524459
 20
63.833012905
 30
0.0
 11
197.6909157363
 21
63.833012905
 31
0.0
  0
SPLINE
  5
C9
330
1F
100
AcDbEntity
  8
0
  6
Continuous
 62
     7
370
    25
100
AcDbSpline
210
0.0
220
0.0
230
1.0
 70
     8
 71
     3
 72
    10
 73
     6
 74
     0
 42
0.000000001
 43
0.00000001
 40
0.0
 40
0.0
 40
0.0
 40
0.0
 40
0.1131573290826481
 40
0.8816389258498404
 40
1.0
 40
1.0
 40
1.0
 40
1.0
 10
189.374856429403
 20
68.37846951326138
 30
0.0
 10
189.347994409049
 20
68.42892984975298
 30
0.0
 10
189.138705245342
 20
68.8220797873057
 30
0.0
 10
188.9761532406163
 20
69.31224182613298
 30
0.0
 10
188.9107006214219
 20
69.75612148459494
 30
0.0
 10
188.9019650896666
 20
69.81536319103496
 30
0.0
  0
SPLINE
  5
CA
330
1F
100
AcDbEntity
  8
0
  6
Continuous
 62
     7
370
    25
100
AcDbSpline
210
0.0
220
0.0
230
1.0
 70
     8
 71
     3
 72
    10
 73
     6
 74
     0
 42
0.000000001
 43
0.00000001
 40
0.0
 40
0.0
 40
0.0
 40
0.0
 40
0.2144658251996368
 40
0.9955377317710912
 40
1.0
 40
1.0
 40
1.0
 40
1.0
 10
188.9180688553296
 20
72.88881040210084
 30
0.0
 10
188.936185139588
 20
72.99603260699197
 30
0.0
 10
189.0202798643394
 20
73.49375176832429
 30
0.0
 10
189.1858693878019
 20
73.98564874228845
 30
0.0
 10
189.3823599539743
 20
74.33174545750558
 30
0.0
 10
189.3834761289783
 20
74.33371147811421
 30
0.0
  0
SPLINE
  5
CB
330
1F
100
AcDbEntity
  8
0
  6
Continuous
 62
     7
370
    25
100
AcDbSpline
210
0.0
220
0.0
230
1.0
 70
     8
 71
     3
 72
    39
 73
    35
 74
     0
 42
0.000000001
 43
0.00000001
 40
0.0
 40
0.0
 40
0.0
 40
0.0
 40
0.0061087973335399
 40
0.0336854729428379
 40
0.0605797706769591
 40
0.0876597070616186
 40
0.115325643424075
 40
0.1431944744175736
 40
0.170139982693426
 40
0.1972746400648586
 40
0.2250101488224711
 40
0.2529552810846036
 40
0.279636936394678
 40
0.3339359284063365
 40
0.3616253766643808
 40
0.3878190746549898
 40
0.4411244832858732
 40
0.4683053438677929
 40
0.494061398442771
 40
0.5464583990253773
 40
0.5731624205155421
 40
0.5987955157669144
 40
0.6509194643940691
 40
0.67746831549257
 40
0.7033575392648691
 40
0.7559883201729791
 40
0.7827864902125339
 40
0.8091522777215998
 40
0.8627535609039614
 40
0.890048223119112
 40
0.9168426024094956
 40
0.9713299782958505
 40
0.9990869245724837
 40
1.0
 40
1.0
 40
1.0
 40
1.0
 10
187.2005345606907
 20
69.83515829123687
 30
0.0
 10
187.1909083402266
 20
69.83442824960447
 30
0.0
 10
187.1378268953401
 20
69.83040261308179
 30
0.0
 10
187.0420452767912
 20
69.8406033257036
 30
0.0
 10
186.9144395423478
 20
69.85772933224389
 30
0.0
 10
186.7885883711611
 20
69.88735660946394
 30
0.0
 10
186.6641530440413
 20
69.92742074624766
 30
0.0
 10
186.5437619919137
 20
69.97803690748759
 30
0.0
 10
186.4288028880123
 20
70.03821539578071
 30
0.0
 10
186.3194230353848
 20
70.10769816560611
 30
0.0
 10
186.2150619542825
 20
70.18720173054803
 30
0.0
 10
186.1184835541814
 20
70.27499618767355
 30
0.0
 10
186.0011651814634
 20
70.40153048895208
 30
0.0
 10
185.9005979609012
 20
70.54235148069748
 30
0.0
 10
185.8199407115378
 20
70.69366622411556
 30
0.0
 10
185.7531677922963
 20
70.84987569472122
 30
0.0
 10
185.7068023247169
 20
71.01334516051433
 30
0.0
 10
185.682233112958
 20
71.17996942065629
 30
0.0
 10
185.672037892502
 20
71.34662325676345
 30
0.0
 10
185.6829542087144
 20
71.513266995989
 30
0.0
 10
185.714842426514
 20
71.67620042207315
 30
0.0
 10
185.7601759653956
 20
71.83544322826856
 30
0.0
 10
185.8252060372675
 20
71.98825320422694
 30
0.0
 10
185.9086626859641
 20
72.13140986676105
 30
0.0
 10
186.0041364314199
 20
72.26779896214069
 30
0.0
 10
186.1164973694138
 20
72.39215987338055
 30
0.0
 10
186.2433836038299
 20
72.50161956120787
 30
0.0
 10
186.3800750461694
 20
72.60112367516865
 30
0.0
 10
186.5293513353268
 20
72.68370947358923
 30
0.0
 10
186.6876138132647
 20
72.74691088514594
 30
0.0
 10
186.8518835420794
 20
72.79753920266707
 30
0.0
 10
187.0225510565664
 20
72.82533578138877
 30
0.0
 10
187.1539943206628
 20
72.83470466699382
 30
0.0
 10
187.1992438823103
 20
72.83289676018602
 30
0.0
 10
187.2006849786329
 20
72.83283918243815
 30
0.0
  0
SPLINE
  5
CC
330
1F
100
AcDbEntity
  8
0
  6
Continuous
 62
     7
370
    25
100
AcDbSpline
210
0.0
220
0.0
230
1.0
 70
     8
 71
     3
 72
    13
 73
     9
 74
     0
 42
0.000000001
 43
0.00000001
 40
0.0
 40
0.0
 40
0.0
 40
0.0
 40
0.1879317022363128
 40
0.3811023639816482
 40
0.5691234428992047
 40
0.7634650722376773
 40
0.9369528940773478
 40
1.0
 40
1.0
 40
1.0
 40
1.0
 10
212.5751515663532
 20
67.25389495181012
 30
0.0
 10
212.803511875521
 20
67.3732855124634
 30
0.0
 10
213.2665984789406
 20
67.61539487645375
 30
0.0
 10
213.8272017308041
 20
67.95984545530229
 30
0.0
 10
214.2770339467899
 20
68.2771934659158
 30
0.0
 10
214.5571143133478
 20
68.52835483531845
 30
0.0
 10
214.6873008489575
 20
68.68801310100262
 30
0.0
 10
214.6688191665137
 20
68.7303636305421
 30
0.0
 10
214.6638929739987
 20
68.74165193517861
 30
0.0
  0
SPLINE
  5
CD
330
1F
100
AcDbEntity
  8
0
  6
Continuous
 62
     7
370
    25
100
AcDbSpline
210
0.0
220
0.0
230
1.0
 70
     8
 71
     3
 72
    13
 73
     9
 74
     0
 42
0.000000001
 43
0.00000001
 40
0.0
 40
0.0
 40
0.0
 40
0.0
 40
0.1879317022363123
 40
0.3811023639816464
 40
0.5691234428992032
 40
0.763465072237677
 40
0.9369528940773473
 40
1.0
 40
1.0
 40
1.0
 40
1.0
 10
212.5751515663532
 20
75.41213085814717
 30
0.0
 10
212.8035118755211
 20
75.29274029749388
 30
0.0
 10
213.2665984789406
 20
75.05063093350353
 30
0.0
 10
213.8272017308041
 20
74.706180354655
 30
0.0
 10
214.2770339467899
 20
74.38883234404145
 30
0.0
 10
214.5571143133478
 20
74.13767097463884
 30
0.0
 10
214.6873008489576
 20
73.97801270895464
 30
0.0
 10
214.6688191665137
 20
73.93566217941517
 30
0.0
 10
214.6638929739987
 20
73.92437387477867
 30
0.0
  0
LINE
  5
CE
330
1F
100
AcDbEntity
  8
0
  6
Continuous
 62
     7
370
    25
100
AcDbLine
 10
211.1362952283
 20
66.5983550659
 30
0.0
 11
211.8165119187
 21
66.3773178163
 31
0.0
  0
LINE
  5
CF
330
1F
100
AcDbEntity
  8
0
  6
Continuous
 62
     7
370
    25
100
AcDbLine
 10
211.8165119187
 20
76.2887079937
 30
0.0
 11
211.1362952283
 21
76.0676707441
 31
0.0
  0
ARC
  5
D0
330
1F
100
AcDbEntity
  8
0
  6
Continuous
 62
     7
370
    25
100
AcDbCircle
 10
211.9332213396
 20
75.9299991197
 30
0.0
 40
0.3772176363723017
100
AcDbArc
 50
71.9771986336
 51
108.0228013664
  0
LINE
  5
D1
330
1F
100
AcDbEntity
  8
0
  6
Continuous
 62
     7
370
    25
100
AcDbLine
 10
226.1265302569
 20
71.7144996853
 30
0.0
 11
212.0499307604
 21
76.2887079937
 31
0.0
  0
ARC
  5
D2
330
1F
100
AcDbEntity
  8
0
  6
Continuous
 62
     7
370
    25
100
AcDbCircle
 10
225.9956863142
 20
71.333012905
 30
0.0
 40
0.4033017491727863
100
AcDbArc
 50
288.9311588731
 51
71.0688411269
  0
LINE
  5
D3
330
1F
100
AcDbEntity
  8
0
  6
Continuous
 62
     7
370
    25
100
AcDbLine
 10
212.0499307604
 20
66.3773178163
 30
0.0
 11
226.1265302569
 21
70.9515261247
 31
0.0
  0
ARC
  5
D4
330
1F
100
AcDbEntity
  8
0
  6
Continuous
 62
     7
370
    25
100
AcDbCircle
 10
211.9332213396
 20
66.7360266902
 30
0.0
 40
0.3772176363723422
100
AcDbArc
 50
251.9771986336
 51
288.0228013664
  0
ARC
  5
D5
330
1F
100
AcDbEntity
  8
0
  6
Continuous
 62
     7
370
    25
100
AcDbCircle
 10
225.9963930403
 20
71.333012905
 30
0.0
 40
0.3831366617141198
100
AcDbArc
 50
288.9311588731
 51
71.0688411269
  0
LINE
  5
D6
330
1F
100
AcDbEntity
  8
0
  6
Continuous
 62
     7
370
    25
100
AcDbLine
 10
226.1206947859
 20
71.6954253463
 30
0.0
 11
212.0440952893
 21
76.2696336544
 31
0.0
  0
ARC
  5
D7
330
1F
100
AcDbEntity
  8
0
  6
Continuous
 62
     7
370
    25
100
AcDbCircle
 10
211.9332213391
 20
75.9288602209
 30
0.0
 40
0.35835675776233
100
AcDbArc
 50
71.9771987384
 51
108.022801116
  0
LINE
  5
D8
330
1F
100
AcDbEntity
  8
0
  6
Continuous
 62
     7
370
    25
100
AcDbLine
 10
211.8223473898
 20
76.2696336547
 30
0.0
 11
211.1631616771
 21
76.0554304471
 31
0.0
  0
LINE
  5
D9
330
1F
100
AcDbEntity
  8
0
  6
Continuous
 62
     7
370
    25
100
AcDbLine
 10
211.1631616771
 20
66.6105953628
 30
0.0
 11
211.8223473898
 21
66.3963921553
 31
0.0
  0
ARC
  5
DA
330
1F
100
AcDbEntity
  8
0
  6
Continuous
 62
     7
370
    25
100
AcDbCircle
 10
211.9332213396
 20
66.7371655856
 30
0.0
 40
0.3583567545536953
100
AcDbArc
 50
251.9771986336
 51
288.0228013664
  0
LINE
  5
DB
330
1F
100
AcDbEntity
  8
0
  6
Continuous
 62
     7
370
    25
100
AcDbLine
 10
212.0440952894
 20
66.3963921553
 30
0.0
 11
226.1206947859
 21
70.9706004637
 31
0.0
  0
LINE
  5
DC
330
1F
100
AcDbEntity
  8
0
  6
Continuous
 62
     7
370
    25
100
AcDbLine
 10
211.8801453445
 20
66.7588045966
 30
0.0
 11
211.8223473898
 21
66.3963921553
 31
0.0
  0
LINE
  5
DD
330
1F
100
AcDbEntity
  8
0
  6
Continuous
 62
     7
370
    25
100
AcDbLine
 10
211.8801453445
 20
75.9072212134
 30
0.0
 11
211.8223473898
 21
76.2696336547
 31
0.0
  0
LINE
  5
DE
330
1F
100
AcDbEntity
  8
0
  6
Continuous
 62
     7
370
    25
100
AcDbLine
 10
217.8475678711
 20
72.2867298557
 30
0.0
 11
214.6821352546
 21
73.3153410752
 31
0.0
  0
ARC
  5
DF
330
1F
100
AcDbEntity
  8
0
  6
Continuous
 62
     7
370
    25
100
AcDbCircle
 10
217.5204580146
 20
71.3330129048
 30
0.0
 40
1.008254372988274
100
AcDbArc
 50
288.9311588591
 51
71.0688411436
  0
LINE
  5
E0
330
1F
100
AcDbEntity
  8
0
  6
Continuous
 62
     7
370
    25
100
AcDbLine
 10
214.6821352546
 20
69.3506847346
 30
0.0
 11
217.8475678712
 21
70.3792959539
 31
0.0
  0
LINE
  5
E1
330
1F
100
AcDbEntity
  8
0
  6
Continuous
 62
     7
370
    25
100
AcDbLine
 10
222.5713548126
 20
71.333012905
 30
0.0
 11
225.9567448409
 21
71.333012905
 31
0.0
  0
LINE
  5
E2
330
1F
100
AcDbEntity
  8
0
  6
Continuous
 62
     7
370
    25
100
AcDbLine
 10
225.9567448409
 20
71.333012905
 30
0.0
 11
226.1206947859
 21
70.9706004637
 31
0.0
  0
LINE
  5
E3
330
1F
100
AcDbEntity
  8
0
  6
Continuous
 62
     7
370
    25
100
AcDbLine
 10
211.8801453445
 20
66.7588045966
 30
0.0
 11
212.0440952894
 21
66.3963921553
 31
0.0
  0
LINE
  5
E4
330
1F
100
AcDbEntity
  8
0
  6
Continuous
 62
     7
370
    25
100
AcDbLine
 10
220.0782072829
 20
70.5228615508
 30
0.0
 11
222.5713548126
 21
71.333012905
 31
0.0
  0
LINE
  5
E5
330
1F
100
AcDbEntity
  8
0
  6
Continuous
 62
     7
370
    25
100
AcDbLine
 10
211.8801453445
 20
75.9072212134
 30
0.0
 11
212.0440952893
 21
76.2696336544
 31
0.0
  0
LINE
  5
E6
330
1F
100
AcDbEntity
  8
0
  6
Continuous
 62
     7
370
    25
100
AcDbLine
 10
225.9567448409
 20
71.333012905
 30
0.0
 11
226.1206947859
 21
71.6954253463
 31
0.0
  0
LINE
  5
E7
330
1F
100
AcDbEntity
  8
0
  6
Continuous
 62
     7
370
    25
100
AcDbLine
 10
222.5713548126
 20
71.333012905
 30
0.0
 11
220.0782072829
 21
72.1431642592
 31
0.0
  0
ARC
  5
E8
330
1F
100
AcDbEntity
  8
0
  6
Continuous
 62
     7
370
    25
100
AcDbCircle
 10
217.2196426523
 20
71.333012905
 30
0.0
 40
2.457393714763543
100
AcDbArc
 50
350.2678047689
 51
9.7321952311
  0
SPLINE
  5
E9
330
1F
100
AcDbEntity
  8
0
  6
Continuous
 62
     7
370
    25
100
AcDbSpline
210
0.0
220
0.0
230
1.0
 70
     8
 71
     3
 72
    14
 73
    10
 74
     0
 42
0.000000001
 43
0.00000001
 40
0.0
 40
0.0
 40
0.0
 40
0.0
 40
0.2210591904779567
 40
0.3460797326519219
 40
0.4396016244131504
 40
0.5338897453199763
 40
0.6146561933587528
 40
0.7517253237593984
 40
0.9999999999999999
 40
0.9999999999999999
 40
0.9999999999999999
 40
0.9999999999999999
 10
219.6416711224361
 20
70.91760712835696
 30
0.0
 10
219.6335150473726
 20
70.85907837387475
 30
0.0
 10
219.6207462849821
 20
70.76744854541182
 30
0.0
 10
219.6355933787944
 20
70.64993457475832
 30
0.0
 10
219.6692659723473
 20
70.5726338425267
 30
0.0
 10
219.7210772283786
 20
70.52192450938047
 30
0.0
 10
219.7964486495374
 20
70.4894763193956
 30
0.0
 10
219.9188666418942
 20
70.47920824740045
 30
0.0
 10
220.0157718471757
 20
70.505756605053
 30
0.0
 10
220.0782072828896
 20
70.52286155078535
 30
0.0
  0
SPLINE
  5
EA
330
1F
100
AcDbEntity
  8
0
  6
Continuous
 62
     7
370
    25
100
AcDbSpline
210
0.0
220
0.0
230
1.0
 70
     8
 71
     3
 72
    14
 73
    10
 74
     0
 42
0.000000001
 43
0.00000001
 40
0.0
 40
0.0
 40
0.0
 40
0.0
 40
0.223496825398048
 40
0.3567622963775203
 40
0.4531212562342753
 40
0.5344619041501645
 40
0.6157317558036548
 40
0.7396161778923978
 40
0.9999999999999999
 40
0.9999999999999999
 40
0.9999999999999999
 40
0.9999999999999999
 10
220.0782072828896
 20
72.14316425917114
 30
0.0
 10
220.0221469108976
 20
72.1586825798262
 30
0.0
 10
219.9326591653244
 20
72.18345408028473
 30
0.0
 10
219.8140142581763
 20
72.17990600624827
 30
0.0
 10
219.7364881795644
 20
72.15343874500611
 30
0.0
 10
219.6830209222772
 20
72.10957441284951
 30
0.0
 10
219.643851442593
 20
72.04335596406769
 30
0.0
 10
219.6180605046427
 20
71.91982613525947
 30
0.0
 10
219.6321344696823
 20
71.81765250594385
 30
0.0
 10
219.6416711224361
 20
71.74841868159947
 30
0.0
  0
LINE
  5
EB
330
1F
100
AcDbEntity
  8
0
  6
Continuous
 62
     7
370
    25
100
AcDbLine
 10
126.3979391266
 20
40.333012905
 30
0.0
 11
126.3979391266
 21
102.333012905
 31
0.0
  0
SPLINE
  5
EC
330
1F
100
AcDbEntity
  8
0
  6
Continuous
 62
     7
370
    25
100
AcDbSpline
210
0.0
220
0.0
230
1.0
 70
     8
 71
     3
 72
    12
 73
     8
 74
     0
 42
0.000000001
 43
0.00000001
 40
0.0
 40
0.0
 40
0.0
 40
0.0
 40
0.4999999999999953
 40
0.4999999999999953
 40
0.7499999999999977
 40
0.7499999999999977
 40
1.0
 40
1.0
 40
1.0
 40
1.0
 10
136.492683238226
 20
81.24238222566373
 30
0.0
 10
136.5234054801451
 20
81.12982642625454
 30
0.0
 10
136.5662426946803
 20
81.01706856651495
 30
0.0
 10
136.6656697188801
 20
80.86752768071858
 30
0.0
 10
136.7054219136967
 20
80.82023494901172
 30
0.0
 10
136.8034633705549
 20
80.74649865569027
 30
0.0
 10
136.8630194261424
 20
80.72107933631459
 30
0.0
 10
136.9256959401182
 20
80.72107933631459
 30
0.0
  0
LINE
  5
ED
330
1F
100
AcDbEntity
  8
0
  6
Continuous
 62
     7
370
    25
100
AcDbLine
 10
136.9256959401
 20
80.7210793363
 30
0.0
 11
139.870182313
 21
80.7210793363
 31
0.0
  0
SPLINE
  5
EE
330
1F
100
AcDbEntity
  8
0
  6
Continuous
 62
     7
370
    25
100
AcDbSpline
210
0.0
220
0.0
230
1.0
 70
     8
 71
     3
 72
    12
 73
     8
 74
     0
 42
0.000000001
 43
0.00000001
 40
0.0
 40
0.0
 40
0.0
 40
0.0
 40
0.2499999999999977
 40
0.2499999999999977
 40
0.4999999999999953
 40
0.4999999999999953
 40
1.0
 40
1.0
 40
1.0
 40
1.0
 10
139.8701823129853
 20
80.72107933631457
 30
0.0
 10
139.9332623514787
 20
80.72107933631457
 30
0.0
 10
139.9924109736601
 20
80.7464436555295
 30
0.0
 10
140.0908835237292
 20
80.82060851590242
 30
0.0
 10
140.1299201357139
 20
80.86712885645656
 30
0.0
 10
140.2298166024929
 20
81.0172711993018
 30
0.0
 10
140.2722374835596
 20
81.12896440627395
 30
0.0
 10
140.3031950148776
 20
81.24238222566372
 30
0.0
  0
ELLIPSE
  5
EF
330
1F
100
AcDbEntity
  8
0
  6
Continuous
 62
     7
370
    25
100
AcDbEllipse
 10
124.0507849372
 20
71.333012905
 30
0.0
 11
14.75368316065605
 21
31.09325491558116
 31
0.0
210
0.0
220
0.0
230
1.0
 40
0.3419987131
 41
5.193281737408619
 42
6.124043104552324
  0
SPLINE
  5
F0
330
1F
100
AcDbEntity
  8
0
  6
Continuous
 62
     7
370
    25
100
AcDbSpline
210
0.0
220
0.0
230
1.0
 70
     8
 71
     3
 72
    12
 73
     8
 74
     0
 42
0.000000001
 43
0.00000001
 40
0.0
 40
0.0
 40
0.0
 40
0.0
 40
0.5000000000000029
 40
0.5000000000000029
 40
0.7500000000000014
 40
0.7500000000000014
 40
1.0
 40
1.0
 40
1.0
 40
1.0
 10
140.3031950148776
 20
101.2337553650959
 30
0.0
 10
140.2724727729585
 20
101.2710573480489
 30
0.0
 10
140.2296355584233
 20
101.3076691800953
 30
0.0
 10
140.1302085342235
 20
101.3554339633805
 30
0.0
 10
140.0904563394069
 20
101.3703914788629
 30
0.0
 10
139.9924148825486
 20
101.393581424632
 30
0.0
 10
139.9328588269612
 20
101.4015048638517
 30
0.0
 10
139.8701823129853
 20
101.4015048638517
 30
0.0
  0
LINE
  5
F1
330
1F
100
AcDbEntity
  8
0
  6
Continuous
 62
     7
370
    25
100
AcDbLine
 10
139.870182313
 20
101.4015048639
 30
0.0
 11
136.9256959401
 21
101.4015048639
 31
0.0
  0
SPLINE
  5
F2
330
1F
100
AcDbEntity
  8
0
  6
Continuous
 62
     7
370
    25
100
AcDbSpline
210
0.0
220
0.0
230
1.0
 70
     8
 71
     3
 72
    12
 73
     8
 74
     0
 42
0.000000001
 43
0.00000001
 40
0.0
 40
0.0
 40
0.0
 40
0.0
 40
0.2500000000000009
 40
0.2500000000000009
 40
0.5000000000000018
 40
0.5000000000000018
 40
1.0
 40
1.0
 40
1.0
 40
1.0
 10
136.9256959401182
 20
101.4015048638517
 30
0.0
 10
136.8626159016249
 20
101.4015048638517
 30
0.0
 10
136.8034672794435
 20
101.3935989376393
 30
0.0
 10
136.7049947293744
 20
101.370273776203
 30
0.0
 10
136.6659581173897
 20
101.3555609863713
 30
0.0
 10
136.5660616506106
 20
101.3076051856404
 30
0.0
 10
136.523640769544
 20
101.2713430290604
 30
0.0
 10
136.492683238226
 20
101.2337553650959
 30
0.0
  0
ELLIPSE
  5
F3
330
1F
100
AcDbEntity
  8
0
  6
Continuous
 62
     7
370
    25
100
AcDbEllipse
 10
152.7450933159
 20
71.333012905
 30
0.0
 11
-14.75368316065606
 21
31.09325491558114
 31
0.0
210
0.0
220
0.0
230
1.0
 40
0.3419987131
 41
0.1591422026273028
 42
1.089903569770979
  0
SPLINE
  5
F4
330
1F
100
AcDbEntity
  8
0
  6
Continuous
 62
     7
370
    25
100
AcDbSpline
210
0.0
220
0.0
230
1.0
 70
     8
 71
     3
 72
    12
 73
     8
 74
     0
 42
0.000000001
 43
0.00000001
 40
0.0
 40
0.0
 40
0.0
 40
0.0
 40
0.499999999999999
 40
0.499999999999999
 40
0.7499999999999994
 40
0.7499999999999994
 40
1.0
 40
1.0
 40
1.0
 40
1.0
 10
136.492683238226
 20
41.43227044486144
 30
0.0
 10
136.5238284361881
 20
41.39445492194125
 30
0.0
 10
136.5661027025225
 20
41.35838806385762
 30
0.0
 10
136.6660482363478
 20
41.31042799884638
 30
0.0
 10
136.7057785410519
 20
41.2955670249487
 30
0.0
 10
136.8026665910581
 20
41.27261587881759
 30
0.0
 10
136.8627318328047
 20
41.26452094610553
 30
0.0
 10
136.9256959401182
 20
41.26452094610553
 30
0.0
  0
LINE
  5
F5
330
1F
100
AcDbEntity
  8
0
  6
Continuous
 62
     7
370
    25
100
AcDbLine
 10
136.9256959401
 20
41.2645209461
 30
0.0
 11
139.870182313
 21
41.2645209461
 31
0.0
  0
SPLINE
  5
F6
330
1F
100
AcDbEntity
  8
0
  6
Continuous
 62
     7
370
    25
100
AcDbSpline
210
0.0
220
0.0
230
1.0
 70
     8
 71
     3
 72
    12
 73
     8
 74
     0
 42
0.000000001
 43
0.00000001
 40
0.0
 40
0.0
 40
0.0
 40
0.0
 40
0.2500000000000018
 40
0.2500000000000018
 40
0.5000000000000037
 40
0.5000000000000037
 40
1.0
 40
1.0
 40
1.0
 40
1.0
 10
139.8701823129853
 20
41.26452094610558
 30
0.0
 10
139.9332392678832
 20
41.26452094610559
 30
0.0
 10
139.9923694176287
 20
41.27242127718513
 30
0.0
 10
140.090816968162
 20
41.29573202519017
 30
0.0
 10
140.1298492063501
 20
41.31043715147381
 30
0.0
 10
140.229739090807
 20
41.35837067966046
 30
0.0
 10
140.2720380644164
 20
41.3944406524252
 30
0.0
 10
140.3031950148776
 20
41.43227044486142
 30
0.0
  0
ELLIPSE
  5
F7
330
1F
100
AcDbEntity
  8
0
  6
Continuous
 62
     7
370
    25
100
AcDbEllipse
 10
124.0507849372
 20
71.333012905
 30
0.0
 11
-14.75368316065617
 21
31.09325491558117
 31
0.0
210
0.0
220
0.0
230
1.0
 40
0.3419987131
 41
3.300734856217124
 42
4.231496223360773
  0
SPLINE
  5
F8
330
1F
100
AcDbEntity
  8
0
  6
Continuous
 62
     7
370
    25
100
AcDbSpline
210
0.0
220
0.0
230
1.0
 70
     8
 71
     3
 72
    12
 73
     8
 74
     0
 42
0.000000001
 43
0.00000001
 40
0.0
 40
0.0
 40
0.0
 40
0.0
 40
0.4999999999999991
 40
0.4999999999999991
 40
0.7499999999999996
 40
0.7499999999999996
 40
1.0
 40
1.0
 40
1.0
 40
1.0
 10
140.3031950148776
 20
61.4236435842933
 30
0.0
 10
140.2720498169155
 20
61.53774895015861
 30
0.0
 10
140.229775550581
 20
61.64885527737737
 30
0.0
 10
140.1298300167557
 20
61.79901288480766
 30
0.0
 10
140.0900997120517
 20
61.84600557642501
 30
0.0
 10
139.9932116620454
 20
61.9189811609635
 30
0.0
 10
139.9331464202989
 20
61.94494647364252
 30
0.0
 10
139.8701823129854
 20
61.94494647364253
 30
0.0
  0
LINE
  5
F9
330
1F
100
AcDbEntity
  8
0
  6
Continuous
 62
     7
370
    25
100
AcDbLine
 10
139.870182313
 20
61.9449464736
 30
0.0
 11
136.9256959401
 21
61.9449464736
 31
0.0
  0
SPLINE
  5
FA
330
1F
100
AcDbEntity
  8
0
  6
Continuous
 62
     7
370
    25
100
AcDbSpline
210
0.0
220
0.0
230
1.0
 70
     8
 71
     3
 72
    12
 73
     8
 74
     0
 42
0.000000001
 43
0.00000001
 40
0.0
 40
0.0
 40
0.0
 40
0.0
 40
0.2500000000000005
 40
0.2500000000000005
 40
0.500000000000001
 40
0.500000000000001
 40
1.0
 40
1.0
 40
1.0
 40
1.0
 10
136.9256959401182
 20
61.94494647364243
 30
0.0
 10
136.8626389852204
 20
61.94494647364243
 30
0.0
 10
136.8035088354748
 20
61.91960012026173
 30
0.0
 10
136.7050612849416
 20
61.84548073812225
 30
0.0
 10
136.6660290467535
 20
61.79898422342423
 30
0.0
 10
136.5661391622965
 20
61.64890971641565
 30
0.0
 10
136.5238401886872
 20
61.53779200730081
 30
0.0
 10
136.4926832382259
 20
61.42364358429332
 30
0.0
  0
ELLIPSE
  5
FB
330
1F
100
AcDbEntity
  8
0
  6
Continuous
 62
     7
370
    25
100
AcDbEllipse
 10
152.7450933159
 20
71.333012905
 30
0.0
 11
14.75368316065618
 21
31.09325491558116
 31
0.0
210
0.0
220
0.0
230
1.0
 40
0.3419987131
 41
2.051689083818826
 42
2.982450450962498
  0
ELLIPSE
  5
FC
330
1F
100
AcDbEntity
  8
0
  6
Continuous
 62
     7
370
    25
100
AcDbEllipse
 10
211.7650179348
 20
71.333012905
 30
0.0
 11
56.74573622399942
 21
-31.32225459513993
 31
0.0
210
0.0
220
0.0
230
1.0
 40
0.0588874455
 41
2.486021551580389
 42
3.035309767258775
  0
SPLINE
  5
FD
330
1F
100
AcDbEntity
  8
0
  6
Continuous
 62
     7
370
    25
100
AcDbSpline
210
0.0
220
0.0
230
1.0
 70
     8
 71
     3
 72
     8
 73
     4
 74
     0
 42
0.000000001
 43
0.00000001
 40
0.0
 40
0.0
 40
0.0
 40
0.0
 40
1.0
 40
1.0
 40
1.0
 40
1.0
 10
167.4832027145176
 20
97.48060909119242
 30
0.0
 10
167.5853520185858
 20
97.73671301210106
 30
0.0
 10
167.725552948886
 20
97.97592738705036
 30
0.0
 10
167.907099975643
 20
98.19924782421937
 30
0.0
  0
ELLIPSE
  5
FE
330
1F
100
AcDbEntity
  8
0
  6
Continuous
 62
     7
370
    25
100
AcDbEllipse
 10
172.1899132464
 20
71.333012905
 30
0.0
 11
0.0
 21
31.49999999999998
 31
0.0
210
0.0
220
0.0
230
1.0
 40
0.2679491924
 41
0.5915408599167948
 42
2.550051793672998
  0
SPLINE
  5
FF
330
1F
100
AcDbEntity
  8
0
  6
Continuous
 62
     7
370
    25
100
AcDbSpline
210
0.0
220
0.0
230
1.0
 70
     8
 71
     3
 72
     8
 73
     4
 74
     0
 42
0.000000001
 43
0.00000001
 40
0.0
 40
0.0
 40
0.0
 40
0.0
 40
1.0
 40
1.0
 40
1.0
 40
1.0
 10
167.9070999756424
 20
44.46677798573878
 30
0.0
 10
167.7257773225275
 20
44.68982242158355
 30
0.0
 10
167.5846353951192
 20
44.93110948243771
 30
0.0
 10
167.4832027145176
 20
45.18541671876501
 30
0.0
  0
ELLIPSE
  5
100
330
1F
100
AcDbEntity
  8
0
  6
Continuous
 62
     7
370
    25
100
AcDbEllipse
 10
211.7650179348
 20
71.333012905
 30
0.0
 11
56.7457362239997
 21
31.32225459514007
 31
0.0
210
0.0
220
0.0
230
1.0
 40
0.0588874455
 41
3.247875539921047
 42
3.797163755599379
  0
SPLINE
  5
101
330
1F
100
AcDbEntity
  8
0
  6
Continuous
 62
     7
370
    25
100
AcDbSpline
210
0.0
220
0.0
230
1.0
 70
     8
 71
     3
 72
    12
 73
     8
 74
     0
 42
0.000000001
 43
0.00000001
 40
0.0
 40
0.0
 40
0.0
 40
0.0
 40
0.4999999999999997
 40
0.4999999999999997
 40
0.7499999999999998
 40
0.7499999999999998
 40
1.0
 40
1.0
 40
1.0
 40
1.0
 10
125.5814268400953
 20
49.47821920250285
 30
0.0
 10
125.6378633410025
 20
49.47680132116111
 30
0.0
 10
125.7069479716912
 20
49.4752369849128
 30
0.0
 10
125.8257502434092
 20
49.47229279293835
 30
0.0
 10
125.8659355188793
 20
49.47125458984097
 30
0.0
 10
125.9393165662831
 20
49.46932069462634
 30
0.0
 10
125.9727261300257
 20
49.46842580733754
 30
0.0
 10
126.0029622376821
 20
49.46764201706519
 30
0.0
  0
SPLINE
  5
102
330
1F
100
AcDbEntity
  8
0
  6
Continuous
 62
     7
370
    25
100
AcDbSpline
210
0.0
220
0.0
230
1.0
 70
     8
 71
     3
 72
    16
 73
    12
 74
     0
 42
0.000000001
 43
0.00000001
 40
0.0
 40
0.0
 40
0.0
 40
0.0
 40
0.0624999999999986
 40
0.0624999999999986
 40
0.1249999999999973
 40
0.1249999999999973
 40
0.2499999999999998
 40
0.2499999999999998
 40
0.4999999999999999
 40
0.4999999999999999
 40
1.0
 40
1.0
 40
1.0
 40
1.0
 10
126.002962237645
 20
49.46764201708943
 30
0.0
 10
126.0145426452329
 20
49.46734182597808
 30
0.0
 10
126.0278521719941
 20
49.46601407771908
 30
0.0
 10
126.0571536020803
 20
49.45931540294409
 30
0.0
 10
126.0719677019646
 20
49.45395721983839
 30
0.0
 10
126.1077961036674
 20
49.43691157067104
 30
0.0
 10
126.1219157280305
 20
49.42544903289531
 30
0.0
 10
126.1564198721189
 20
49.39388570752308
 30
0.0
 10
126.1675244228236
 20
49.3759884084778
 30
0.0
 10
126.1937006000398
 20
49.32582699086355
 30
0.0
 10
126.1979391265518
 20
49.29808257866699
 30
0.0
 10
126.1979391265518
 20
49.27341841673744
 30
0.0
  0
LINE
  5
103
330
1F
100
AcDbEntity
  8
0
  6
Continuous
 62
     7
370
    25
100
AcDbLine
 10
126.1979391266
 20
64.3111255792
 30
0.0
 11
126.1979391266
 21
48.7931926261
 31
0.0
  0
SPLINE
  5
104
330
1F
100
AcDbEntity
  8
0
  6
Continuous
 62
     7
370
    25
100
AcDbSpline
210
0.0
220
0.0
230
1.0
 70
     8
 71
     3
 72
    16
 73
    12
 74
     0
 42
0.000000001
 43
0.00000001
 40
0.0
 40
0.0
 40
0.0
 40
0.0
 40
0.499999999999994
 40
0.499999999999994
 40
0.7499999999999944
 40
0.7499999999999944
 40
0.8749999999999972
 40
0.8749999999999972
 40
0.9374999999999987
 40
0.9374999999999987
 40
1.0
 40
1.0
 40
1.0
 40
1.0
 10
126.1979391265518
 20
64.31112557922862
 30
0.0
 10
126.1979391265518
 20
64.4248181233565
 30
0.0
 10
126.1937928514738
 20
64.539138284706
 30
0.0
 10
126.1678272560803
 20
64.71218657520309
 30
0.0
 10
126.1563663507029
 20
64.7713620823648
 30
0.0
 10
126.1220546129285
 20
64.85448520183296
 30
0.0
 10
126.108029876999
 20
64.88260651793362
 30
0.0
 10
126.0720069139651
 20
64.91122233191108
 30
0.0
 10
126.0572524048755
 20
64.91701537981285
 30
0.0
 10
126.0279002437286
 20
64.91542195387582
 30
0.0
 10
126.0145603692245
 20
64.90892555055203
 30
0.0
 10
126.0029622376762
 20
64.9004098043489
 30
0.0
  0
SPLINE
  5
105
330
1F
100
AcDbEntity
  8
0
  6
Continuous
 62
     7
370
    25
100
AcDbSpline
210
0.0
220
0.0
230
1.0
 70
     8
 71
     3
 72
    12
 73
     8
 74
     0
 42
0.000000001
 43
0.00000001
 40
0.0
 40
0.0
 40
0.0
 40
0.0
 40
0.25
 40
0.25
 40
0.5
 40
0.5
 40
1.0
 40
1.0
 40
1.0
 40
1.0
 10
126.0029622376832
 20
64.90040980433974
 30
0.0
 10
125.9727637962426
 20
64.8782370722947
 30
0.0
 10
125.9393964409066
 20
64.85915741641746
 30
0.0
 10
125.8662411650767
 20
64.83398437197475
 30
0.0
 10
125.8259884660527
 20
64.82842783555797
 30
0.0
 10
125.7082597227779
 20
64.83933964654473
 30
0.0
 10
125.6378012747189
 20
64.88127540195553
 30
0.0
 10
125.5814268401007
 20
64.9304871843371
 30
0.0
  0
SPLINE
  5
106
330
1F
100
AcDbEntity
  8
0
  6
Continuous
 62
     7
370
    25
100
AcDbSpline
210
0.0
220
0.0
230
1.0
 70
     8
 71
     3
 72
    12
 73
     8
 74
     0
 42
0.000000001
 43
0.00000001
 40
0.0
 40
0.0
 40
0.0
 40
0.0
 40
0.4999999999999983
 40
0.4999999999999983
 40
0.749999999999999
 40
0.749999999999999
 40
1.0
 40
1.0
 40
1.0
 40
1.0
 10
125.0766187829921
 20
66.14683857621766
 30
0.0
 10
125.1203691348766
 20
65.92639159124313
 30
0.0
 10
125.1732592860011
 20
65.71084660143755
 30
0.0
 10
125.2848708291427
 20
65.39843252486563
 30
0.0
 10
125.3274301730463
 20
65.29635304924973
 30
0.0
 10
125.4324074083837
 20
65.10191303660797
 30
0.0
 10
125.4939746514783
 20
65.00682813754432
 30
0.0
 10
125.5814268401007
 20
64.93048718433712
 30
0.0
  0
SPLINE
  5
107
330
1F
100
AcDbEntity
  8
0
  6
Continuous
 62
     7
370
    25
100
AcDbSpline
210
0.0
220
0.0
230
1.0
 70
     8
 71
     3
 72
    12
 73
     8
 74
     0
 42
0.000000001
 43
0.00000001
 40
0.0
 40
0.0
 40
0.0
 40
0.0
 40
0.2500000000000003
 40
0.2500000000000003
 40
0.5000000000000007
 40
0.5000000000000007
 40
1.0
 40
1.0
 40
1.0
 40
1.0
 10
125.5814268401006
 20
77.73553862562025
 30
0.0
 10
125.4929334325327
 20
77.65828874551197
 30
0.0
 10
125.4328753917668
 20
77.56496942162273
 30
0.0
 10
125.3270271187842
 20
77.3689363686533
 30
0.0
 10
125.2844935975068
 20
77.26661001044155
 30
0.0
 10
125.1733422906831
 20
76.95526560466567
 30
0.0
 10
125.1204114336353
 20
76.73984735148765
 30
0.0
 10
125.0766187829921
 20
76.51918723373979
 30
0.0
  0
SPLINE
  5
108
330
1F
100
AcDbEntity
  8
0
  6
Continuous
 62
     7
370
    25
100
AcDbSpline
210
0.0
220
0.0
230
1.0
 70
     8
 71
     3
 72
    12
 73
     8
 74
     0
 42
0.000000001
 43
0.00000001
 40
0.0
 40
0.0
 40
0.0
 40
0.0
 40
0.5000000000000002
 40
0.5000000000000002
 40
0.7500000000000003
 40
0.7500000000000003
 40
1.0
 40
1.0
 40
1.0
 40
1.0
 10
125.5814268401006
 20
77.73553862562026
 30
0.0
 10
125.6377353883962
 20
77.7846928928641
 30
0.0
 10
125.7080100491143
 20
77.82665021146784
 30
0.0
 10
125.8260479634379
 20
77.83760988900028
 30
0.0
 10
125.8662242042918
 20
77.83210113075292
 30
0.0
 10
125.9401812989697
 20
77.80654390196396
 30
0.0
 10
125.9727976866812
 20
77.78776385412468
 30
0.0
 10
126.0029622376769
 20
77.76561600560795
 30
0.0
  0
SPLINE
  5
109
330
1F
100
AcDbEntity
  8
0
  6
Continuous
 62
     7
370
    25
100
AcDbSpline
210
0.0
220
0.0
230
1.0
 70
     8
 71
     3
 72
    16
 73
    12
 74
     0
 42
0.000000001
 43
0.00000001
 40
0.0
 40
0.0
 40
0.0
 40
0.0
 40
0.0625000000000004
 40
0.0625000000000004
 40
0.1250000000000008
 40
0.1250000000000008
 40
0.2500000000000007
 40
0.2500000000000007
 40
0.5000000000000004
 40
0.5000000000000004
 40
1.0
 40
1.0
 40
1.0
 40
1.0
 10
126.0029622376452
 20
77.76561600555345
 30
0.0
 10
126.0145751374846
 20
77.75708941595822
 30
0.0
 10
126.027926321917
 20
77.75058915442543
 30
0.0
 10
126.0573261615362
 20
77.7490197573079
 30
0.0
 10
126.0721668860915
 20
77.75490314793849
 30
0.0
 10
126.1080000940601
 20
77.78345078398903
 30
0.0
 10
126.1221133018816
 20
77.81161780329485
 30
0.0
 10
126.1566046731005
 20
77.89537206171677
 30
0.0
 10
126.1676887442109
 20
77.9530854753382
 30
0.0
 10
126.1938115620069
 20
78.12667601198405
 30
0.0
 10
126.1979391265518
 20
78.24170406462598
 30
0.0
 10
126.1979391265518
 20
78.35490023072882
 30
0.0
  0
LINE
  5
10A
330
1F
100
AcDbEntity
  8
0
  6
Continuous
 62
     7
370
    25
100
AcDbLine
 10
126.1979391266
 20
93.8728331839
 30
0.0
 11
126.1979391266
 21
78.3549002307
 31
0.0
  0
SPLINE
  5
10B
330
1F
100
AcDbEntity
  8
0
  6
Continuous
 62
     7
370
    25
100
AcDbSpline
210
0.0
220
0.0
230
1.0
 70
     8
 71
     3
 72
    16
 73
    12
 74
     0
 42
0.000000001
 43
0.00000001
 40
0.0
 40
0.0
 40
0.0
 40
0.0
 40
0.4999999999999971
 40
0.4999999999999971
 40
0.7499999999999959
 40
0.7499999999999959
 40
0.8749999999999952
 40
0.8749999999999952
 40
0.9374999999999977
 40
0.9374999999999977
 40
1.0
 40
1.0
 40
1.0
 40
1.0
 10
126.1979391265518
 20
93.39260739322
 30
0.0
 10
126.1979391265518
 20
93.36793623717705
 30
0.0
 10
126.1937734280918
 20
93.34035440578582
 30
0.0
 10
126.1675150997669
 20
93.2900115349625
 30
0.0
 10
126.1560113180293
 20
93.2717220369006
 30
0.0
 10
126.1218805586828
 20
93.24056700586355
 30
0.0
 10
126.107458672012
 20
93.22892763065182
 30
0.0
 10
126.0718917035742
 20
93.21204560472077
 30
0.0
 10
126.0569399352796
 20
93.2066565009131
 30
0.0
 10
126.0279361169198
 20
93.2000360049686
 30
0.0
 10
126.0145207629105
 20
93.19868341676215
 30
0.0
 10
126.002962237674
 20
93.19838379289054
 30
0.0
  0
SPLINE
  5
10C
330
1F
100
AcDbEntity
  8
0
  6
Continuous
 62
     7
370
    25
100
AcDbSpline
210
0.0
220
0.0
230
1.0
 70
     8
 71
     3
 72
    12
 73
     8
 74
     0
 42
0.000000001
 43
0.00000001
 40
0.0
 40
0.0
 40
0.0
 40
0.0
 40
0.2499999999999999
 40
0.2499999999999999
 40
0.4999999999999998
 40
0.4999999999999998
 40
1.0
 40
1.0
 40
1.0
 40
1.0
 10
126.0029622376832
 20
93.19838379289229
 30
0.0
 10
125.9727744611336
 20
93.19760125547471
 30
0.0
 10
125.9394206570419
 20
93.19670792365618
 30
0.0
 10
125.8662944538459
 20
93.19478061485258
 30
0.0
 10
125.8260592508217
 20
93.19374108363992
 30
0.0
 10
125.7083676206886
 20
93.19082320029267
 30
0.0
 10
125.6379869475286
 20
93.18922759422246
 30
0.0
 10
125.581426840098
 20
93.18780660745459
 30
0.0
  0
SPLINE
  5
10D
330
1F
100
AcDbEntity
  8
0
  6
Continuous
 62
     7
370
    25
100
AcDbSpline
210
0.0
220
0.0
230
1.0
 70
     8
 71
     3
 72
    16
 73
    12
 74
     0
 42
0.000000001
 43
0.00000001
 40
0.0
 40
0.0
 40
0.0
 40
0.0
 40
0.2500000000000001
 40
0.2500000000000001
 40
0.3750000000000001
 40
0.3750000000000001
 40
0.5000000000000001
 40
0.5000000000000001
 40
0.7500000000000001
 40
0.7500000000000001
 40
1.0
 40
1.0
 40
1.0
 40
1.0
 10
125.0766187829921
 20
76.5191872337398
 30
0.0
 10
124.9153863055077
 20
75.70677745849295
 30
0.0
 10
124.7949064658681
 20
74.86669916410821
 30
0.0
 10
124.6725259485547
 20
73.56540411474543
 30
0.0
 10
124.6415482881573
 20
73.12472307916066
 30
0.0
 10
124.5999345505293
 20
72.22888343822953
 30
0.0
 10
124.5896986375965
 20
71.78222530702708
 30
0.0
 10
124.5895102405404
 20
70.44691534988719
 30
0.0
 10
124.629654943178
 20
69.56241997657966
 30
0.0
 10
124.7938086981176
 20
67.80517008855365
 30
0.0
 10
124.9153603485271
 20
66.95937914214052
 30
0.0
 10
125.0766187829921
 20
66.14683857621766
 30
0.0
  0
LINE
  5
10E
330
1F
100
AcDbEntity
  8
0
  6
Continuous
 62
     7
370
    25
100
AcDbLine
 10
124.1979391266
 20
77.8181911667
 30
0.0
 11
124.1979391266
 21
64.8478346433
 31
0.0
  0
LINE
  5
10F
330
1F
100
AcDbEntity
  8
0
  6
Continuous
 62
     7
370
    25
100
AcDbLine
 10
89.8979391266
 20
77.3873234725
 30
0.0
 11
89.8979391266
 21
65.2787023374
 31
0.0
  0
LINE
  5
110
330
1F
100
AcDbEntity
  8
0
  6
Continuous
 62
     7
370
    25
100
AcDbLine
 10
88.3979391266
 20
76.9543107706
 30
0.0
 11
88.3979391266
 21
65.7117150393
 31
0.0
  0
LINE
  5
111
330
1F
100
AcDbEntity
  8
0
  6
Continuous
 62
     7
370
    25
100
AcDbLine
 10
89.8979391266
 20
77.3873234725
 30
0.0
 11
89.8979391266
 21
92.4913763013
 31
0.0
  0
LINE
  5
112
330
1F
100
AcDbEntity
  8
0
  6
Continuous
 62
     7
370
    25
100
AcDbLine
 10
89.8979391266
 20
92.4913763013
 30
0.0
 11
124.1979391266
 21
93.3531116895
 31
0.0
  0
LINE
  5
113
330
1F
100
AcDbEntity
  8
0
  6
Continuous
 62
     7
370
    25
100
AcDbLine
 10
124.1979391266
 20
77.8181911667
 30
0.0
 11
124.1979391266
 21
93.3531116895
 31
0.0
  0
ARC
  5
114
330
1F
100
AcDbEntity
  8
0
  6
Continuous
 62
     7
370
    25
100
AcDbCircle
 10
124.3978760375
 20
93.3581348007
 30
0.0
 40
0.2000000000000059
100
AcDbArc
 50
181.4391666667
 51
271.4391666667
  0
LINE
  5
115
330
1F
100
AcDbEntity
  8
0
  6
Continuous
 62
     7
370
    25
100
AcDbLine
 10
89.8979391266
 20
50.1746495087
 30
0.0
 11
89.8979391266
 21
65.2787023374
 31
0.0
  0
LINE
  5
116
330
1F
100
AcDbEntity
  8
0
  6
Continuous
 62
     7
370
    25
100
AcDbLine
 10
124.1979391266
 20
49.3129141204
 30
0.0
 11
124.1979391266
 21
64.8478346433
 31
0.0
  0
LINE
  5
117
330
1F
100
AcDbEntity
  8
0
  6
Continuous
 62
     7
370
    25
100
AcDbLine
 10
89.8979391266
 20
50.1746495087
 30
0.0
 11
124.1979391266
 21
49.3129141204
 31
0.0
  0
ARC
  5
118
330
1F
100
AcDbEntity
  8
0
  6
Continuous
 62
     7
370
    25
100
AcDbCircle
 10
124.3978760375
 20
49.3078910093
 30
0.0
 40
0.2000000000000059
100
AcDbArc
 50
88.5608333333
 51
178.5608333333
  0
LINE
  5
119
330
1F
100
AcDbEntity
  8
0
  6
Continuous
 62
     7
370
    25
100
AcDbLine
 10
124.4028991486
 20
93.1581978897
 30
0.0
 11
125.5814268401
 21
93.1878066075
 31
0.0
  0
LINE
  5
11A
330
1F
100
AcDbEntity
  8
0
  6
Continuous
 62
     7
370
    25
100
AcDbLine
 10
124.4028991486
 20
49.5078279202
 30
0.0
 11
125.5814268401
 21
49.4782192025
 31
0.0
  0
LINE
  5
11B
330
1F
100
AcDbEntity
  8
0
  6
Continuous
 62
     7
370
    25
100
AcDbLine
 10
88.3979391266
 20
91.6253508975
 30
0.0
 11
89.8979391266
 21
92.4913763013
 31
0.0
  0
LINE
  5
11C
330
1F
100
AcDbEntity
  8
0
  6
Continuous
 62
     7
370
    25
100
AcDbLine
 10
88.3979391266
 20
76.9543107706
 30
0.0
 11
88.3979391266
 21
91.6253508975
 31
0.0
  0
LINE
  5
11D
330
1F
100
AcDbEntity
  8
0
  6
Continuous
 62
     7
370
    25
100
AcDbLine
 10
88.3979391266
 20
51.0406749125
 30
0.0
 11
89.8979391266
 21
50.1746495087
 31
0.0
  0
LINE
  5
11E
330
1F
100
AcDbEntity
  8
0
  6
Continuous
 62
     7
370
    25
100
AcDbLine
 10
88.3979391266
 20
51.0406749125
 30
0.0
 11
88.3979391266
 21
65.7117150393
 31
0.0
  0
ELLIPSE
  5
11F
330
1F
100
AcDbEntity
  8
0
  6
Continuous
 62
     7
370
    25
100
AcDbEllipse
 10
173.2787576723
 20
47.102626057
 30
0.0
 11
5.989145246900306
 21
3.405509169932393
 31
0.0
210
0.0
220
0.0
230
1.0
 40
0.1059307462
 41
1.754981450188374
 42
2.61968631930343
  0
ELLIPSE
  5
120
330
1F
100
AcDbEntity
  8
0
  6
Continuous
 62
     7
370
    25
100
AcDbEllipse
 10
173.2787576723
 20
95.5633997529
 30
0.0
 11
5.989145246900307
 21
-3.405509169932401
 31
0.0
210
0.0
220
0.0
230
1.0
 40
0.1059307462
 41
3.663498987875233
 42
4.528203856991216
  0
LINE
  5
121
330
1F
100
AcDbEntity
  8
0
  6
Continuous
 62
     7
370
    25
100
AcDbLine
 10
204.049005427
 20
64.4301086152
 30
0.0
 11
199.8514974795
 21
63.0661232484
 31
0.0
  0
ARC
  5
122
330
1F
100
AcDbEntity
  8
0
  6
Continuous
 62
     7
370
    25
100
AcDbCircle
 10
207.5383951352
 20
39.4317682833
 30
0.0
 40
24.85299036699565
100
AcDbArc
 50
108.0167296694
 51
120.7700341796
  0
ARC
  5
123
330
1F
100
AcDbEntity
  8
0
  6
Continuous
 62
     7
370
    25
100
AcDbCircle
 10
207.5383951352
 20
103.2342575266
 30
0.0
 40
24.85299036699526
100
AcDbArc
 50
239.2299658204
 51
251.9832703306
  0
LINE
  5
124
330
1F
100
AcDbEntity
  8
0
  6
Continuous
 62
     7
370
    25
100
AcDbLine
 10
204.049005427
 20
78.2359171947
 30
0.0
 11
199.8514974795
 21
79.5999025616
 31
0.0
  0
LINE
  5
125
330
1F
100
AcDbEntity
  8
0
  6
Continuous
 62
     7
370
    25
100
AcDbLine
 10
194.8237653932
 20
81.8798827827
 30
0.0
 11
171.8272262987
 21
95.5633997529
 31
0.0
  0
LINE
  5
126
330
1F
100
AcDbEntity
  8
0
  6
Continuous
 62
     7
370
    25
100
AcDbLine
 10
194.8237653932
 20
60.7861430273
 30
0.0
 11
171.8272262987
 21
47.102626057
 31
0.0
  0
LWPOLYLINE
  5
127
330
1F
100
AcDbEntity
  8
0
  6
Continuous
 62
     7
370
    18
100
AcDbPolyline
 90
       27
 70
   128
 43
0.0
 10
199.9354820472
 20
72.8080744653
 10
199.5218585378
 20
73.3687326291
 10
198.9900654445
 20
73.8110821621
 10
198.3710086489
 20
74.1094153172
 10
197.7006654818
 20
74.246394056
 10
197.0179938515
 20
74.2140576719
 10
196.3626681517
 20
74.0142854382
 10
195.77277353
 20
73.6586873909
 10
195.2825925178
 20
73.167929596
 10
194.9206126536
 20
72.5705331126
 10
194.7078708915
 20
71.9012164529
 10
194.6567310094
 20
71.1988778684
 10
194.7701650713
 20
70.5043347247
 10
195.041580702
 20
69.8579513446
 10
195.4552042114
 20
69.2972931809
 10
195.9869973047
 20
68.8549436479
 10
196.6060541002
 20
68.5566104928
 10
197.2763972673
 20
68.419631754
 10
197.9590688977
 20
68.451968138
 10
198.6143945975
 20
68.6517403717
 10
199.2042892191
 20
69.007338419
 10
199.6944702314
 20
69.498096214
 10
200.0564500956
 20
70.0954926974
 10
200.2691918577
 20
70.764809357
 10
200.3203317398
 20
71.4671479415
 10
200.2068976778
 20
72.1616910853
 10
199.9354820472
 20
72.8080744653
  0
LINE
  5
128
330
1F
100
AcDbEntity
  8
0
  6
Continuous
 62
     7
370
    18
100
AcDbLine
 10
184.5862185914
 20
78.543044518
 30
0.0
 11
184.5862185914
 21
64.1229812919
 31
0.0
  0
LINE
  5
129
330
1F
100
AcDbEntity
  8
0
  6
Continuous
 62
     7
370
    18
100
AcDbLine
 10
212.5751515664
 20
75.4121308581
 30
0.0
 11
212.5751515664
 21
67.2538949518
 31
0.0
  0
LINE
  5
12A
330
1F
100
AcDbEntity
  8
0
  6
Continuous
 62
     7
370
    18
100
AcDbLine
 10
210.6649636957
 20
76.2887079937
 30
0.0
 11
211.8165119187
 21
76.2887079937
 31
0.0
  0
LINE
  5
12B
330
1F
100
AcDbEntity
  8
0
  6
Continuous
 62
     7
370
    18
100
AcDbLine
 10
210.6649636957
 20
66.3773178163
 30
0.0
 11
211.8165119187
 21
66.3773178163
 31
0.0
  0
LINE
  5
12C
330
1F
100
AcDbEntity
  8
0
  6
Continuous
 62
     7
370
    18
100
AcDbLine
 10
218.15067428
 20
69.0917780707
 30
0.0
 11
212.6992110912
 21
67.3203184069
 31
0.0
  0
SPLINE
  5
12D
330
1F
100
AcDbEntity
  8
0
  6
Continuous
 62
     7
370
    18
100
AcDbSpline
210
0.0
220
0.0
230
1.0
 70
     8
 71
     3
 72
    11
 73
     7
 74
     0
 42
0.000000001
 43
0.00000001
 40
0.0
 40
0.0
 40
0.0
 40
0.0
 40
0.2883198226668174
 40
0.5831413798788424
 40
0.7892605373399266
 40
1.0
 40
1.0
 40
1.0
 40
1.0
 10
220.0782072828896
 20
70.52286155078535
 30
0.0
 10
219.934617443765
 20
70.34635660818483
 30
0.0
 10
219.6441997536137
 20
69.98936646150854
 30
0.0
 10
219.1501292980093
 20
69.58143648387347
 30
0.0
 10
218.6469805761661
 20
69.27689402347734
 30
0.0
 10
218.3173276287642
 20
69.15393765578591
 30
0.0
 10
218.1506742800111
 20
69.0917780707199
 30
0.0
  0
SPLINE
  5
12E
330
1F
100
AcDbEntity
  8
0
  6
Continuous
 62
     7
370
    18
100
AcDbSpline
210
0.0
220
0.0
230
1.0
 70
     8
 71
     3
 72
    11
 73
     7
 74
     0
 42
0.000000001
 43
0.00000001
 40
0.0
 40
0.0
 40
0.0
 40
0.0
 40
0.206006332518448
 40
0.4168565904313788
 40
0.7046155205336574
 40
1.0
 40
1.0
 40
1.0
 40
1.0
 10
218.1506742800111
 20
73.57424773923655
 30
0.0
 10
218.3136387200689
 20
73.51362577255216
 30
0.0
 10
218.6433994609819
 20
73.39095640589551
 30
0.0
 10
219.1421885892005
 20
73.09004235803607
 30
0.0
 10
219.6401564480808
 20
72.68076605108476
 30
0.0
 10
219.9309229229566
 20
72.32392030282843
 30
0.0
 10
220.0782072828896
 20
72.1431642591711
 30
0.0
  0
LINE
  5
12F
330
1F
100
AcDbEntity
  8
0
  6
Continuous
 62
     7
370
    18
100
AcDbLine
 10
212.6992110912
 20
75.345707403
 30
0.0
 11
218.15067428
 21
73.5742477392
 31
0.0
  0
LINE
  5
130
330
1F
100
AcDbEntity
  8
0
  6
Continuous
 62
     7
370
    18
100
AcDbLine
 10
217.9464327935
 20
72.9066458737
 30
0.0
 11
214.6637655037
 21
73.9733526444
 31
0.0
  0
LINE
  5
131
330
1F
100
AcDbEntity
  8
0
  6
Continuous
 62
     7
370
    18
100
AcDbLine
 10
217.9464327935
 20
72.9066458737
 30
0.0
 11
217.8475678711
 21
72.2867298557
 31
0.0
  0
LINE
  5
132
330
1F
100
AcDbEntity
  8
0
  6
Continuous
 62
     7
370
    18
100
AcDbLine
 10
217.9464327935
 20
69.7593799362
 30
0.0
 11
217.8475678712
 21
70.3792959539
 31
0.0
  0
LINE
  5
133
330
1F
100
AcDbEntity
  8
0
  6
Continuous
 62
     7
370
    18
100
AcDbLine
 10
214.6785153601
 20
68.6974661495
 30
0.0
 11
217.9464327935
 21
69.7593799362
 31
0.0
  0
ARC
  5
134
330
1F
100
AcDbEntity
  8
0
  6
Continuous
 62
     7
370
    18
100
AcDbCircle
 10
220.6918236836
 20
72.4317830626
 30
0.0
 40
2.786156102731984
100
AcDbArc
 50
155.7919934232
 51
170.1867985183
  0
ARC
  5
135
330
1F
100
AcDbEntity
  8
0
  6
Continuous
 62
     7
370
    18
100
AcDbCircle
 10
220.6918236836
 20
70.2342427473
 30
0.0
 40
2.786156102729725
100
AcDbArc
 50
189.8132014817
 51
204.2080065768
  0
SPLINE
  5
136
330
1F
100
AcDbEntity
  8
0
  6
Continuous
 62
     7
370
    18
100
AcDbSpline
210
0.0
220
0.0
230
1.0
 70
     8
 71
     3
 72
    11
 73
     7
 74
     0
 42
0.000000001
 43
0.00000001
 40
0.0
 40
0.0
 40
0.0
 40
0.0
 40
0.1993254664887212
 40
0.4025893611457745
 40
0.6977196593249902
 40
1.0
 40
1.0
 40
1.0
 40
1.0
 10
217.9464327935233
 20
69.75937993624365
 30
0.0
 10
218.0828612456765
 20
69.80892750178828
 30
0.0
 10
218.3584138098421
 20
69.90900163235636
 30
0.0
 10
218.7901636302889
 20
70.1469909602164
 30
0.0
 10
219.2347148233778
 20
70.47440706740124
 30
0.0
 10
219.5049409656177
 20
70.76869970518486
 30
0.0
 10
219.6416711224361
 20
70.91760712835696
 30
0.0
  0
SPLINE
  5
137
330
1F
100
AcDbEntity
  8
0
  6
Continuous
 62
     7
370
    18
100
AcDbSpline
210
0.0
220
0.0
230
1.0
 70
     8
 71
     3
 72
    15
 73
    11
 74
     0
 42
0.000000001
 43
0.00000001
 40
0.0
 40
0.0
 40
0.0
 40
0.0
 40
0.2466577994783922
 40
0.3957946729498311
 40
0.5467042120446971
 40
0.5974483436334393
 40
0.647182204112223
 40
0.7973124509256461
 40
0.9490299976130332
 40
1.0
 40
1.0
 40
1.0
 40
1.0
 10
219.6416711224361
 20
71.74841868159947
 30
0.0
 10
219.5310645943012
 20
71.87063814955559
 30
0.0
 10
219.3535819656479
 20
72.06675525775198
 30
0.0
 10
219.0711377118564
 20
72.30814368062711
 30
0.0
 10
218.8761584747618
 20
72.45043624789668
 30
0.0
 10
218.7290006783071
 20
72.54475879795595
 30
0.0
 10
218.5787450375801
 20
72.63496807118764
 30
0.0
 10
218.3577215310488
 20
72.75016101328453
 30
0.0
 10
218.1221707631112
 20
72.84772548002849
 30
0.0
 10
217.9817456185418
 20
72.89480639726344
 30
0.0
 10
217.9464327935233
 20
72.9066458737128
 30
0.0
  0
LINE
  5
138
330
1F
100
AcDbEntity
  8
0
  6
Continuous
 62
     7
370
    18
100
AcDbLine
 10
126.8979391266
 20
39.833012905
 30
0.0
 11
126.8979391266
 21
102.833012905
 31
0.0
  0
LINE
  5
139
330
1F
100
AcDbEntity
  8
0
  6
Continuous
 62
     7
370
    18
100
AcDbLine
 10
167.4832027145
 20
45.1854167188
 30
0.0
 11
167.4832027145
 21
97.4806090912
 31
0.0
  0
LINE
  5
13A
330
1F
100
AcDbEntity
  8
0
  6
Continuous
 62
     7
370
    18
100
AcDbLine
 10
140.3031950149
 20
61.4236435843
 30
0.0
 11
140.3031950149
 21
41.4322704449
 31
0.0
  0
LINE
  5
13B
330
1F
100
AcDbEntity
  8
0
  6
Continuous
 62
     7
370
    18
100
AcDbLine
 10
139.870182313
 20
61.9449464736
 30
0.0
 11
139.870182313
 21
41.2645209461
 31
0.0
  0
LINE
  5
13C
330
1F
100
AcDbEntity
  8
0
  6
Continuous
 62
     7
370
    18
100
AcDbLine
 10
140.3031950149
 20
101.2337553651
 30
0.0
 11
140.3031950149
 21
81.2423822257
 31
0.0
  0
LINE
  5
13D
330
1F
100
AcDbEntity
  8
0
  6
Continuous
 62
     7
370
    18
100
AcDbLine
 10
139.870182313
 20
101.4015048639
 30
0.0
 11
139.870182313
 21
80.7210793363
 31
0.0
  0
LINE
  5
13E
330
1F
100
AcDbEntity
  8
0
  6
Continuous
 62
     7
370
    18
100
AcDbLine
 10
136.9256959401
 20
61.9449464736
 30
0.0
 11
136.9256959401
 21
41.2645209461
 31
0.0
  0
LINE
  5
13F
330
1F
100
AcDbEntity
  8
0
  6
Continuous
 62
     7
370
    18
100
AcDbLine
 10
136.4926832382
 20
61.4236435843
 30
0.0
 11
136.4926832382
 21
41.4322704449
 31
0.0
  0
LINE
  5
140
330
1F
100
AcDbEntity
  8
0
  6
Continuous
 62
     7
370
    18
100
AcDbLine
 10
136.9256959401
 20
101.4015048639
 30
0.0
 11
136.9256959401
 21
80.7210793363
 31
0.0
  0
LINE
  5
141
330
1F
100
AcDbEntity
  8
0
  6
Continuous
 62
     7
370
    18
100
AcDbLine
 10
136.4926832382
 20
101.2337553651
 30
0.0
 11
136.4926832382
 21
81.2423822257
 31
0.0
  0
LINE
  5
142
330
1F
100
AcDbEntity
  8
0
  6
Continuous
 62
     7
370
    18
100
AcDbLine
 10
125.076618783
 20
66.1468385762
 30
0.0
 11
125.076618783
 21
76.5191872337
 31
0.0
  0
LINE
  5
143
330
1F
100
AcDbEntity
  8
0
  6
Continuous
 62
     7
370
    18
100
AcDbLine
 10
124.4028991486
 20
64.9452915432
 30
0.0
 11
125.5814268401
 21
64.9304871843
 31
0.0
  0
LINE
  5
144
330
1F
100
AcDbEntity
  8
0
  6
Continuous
 62
     7
370
    18
100
AcDbLine
 10
124.4028991486
 20
77.7207342668
 30
0.0
 11
124.4028991486
 21
64.9452915432
 31
0.0
  0
LINE
  5
145
330
1F
100
AcDbEntity
  8
0
  6
Continuous
 62
     7
370
    18
100
AcDbLine
 10
124.4028991486
 20
77.7207342668
 30
0.0
 11
125.5814268401
 21
77.7355386256
 31
0.0
  0
LINE
  5
146
330
1F
100
AcDbEntity
  8
0
  6
Continuous
 62
     7
370
    18
100
AcDbLine
 10
89.8979391266
 20
65.2787023374
 30
0.0
 11
124.1979391266
 21
64.8478346433
 31
0.0
  0
LINE
  5
147
330
1F
100
AcDbEntity
  8
0
  6
Continuous
 62
     7
370
    18
100
AcDbLine
 10
89.8979391266
 20
77.3873234725
 30
0.0
 11
124.1979391266
 21
77.8181911667
 31
0.0
  0
LWPOLYLINE
  5
148
330
1F
100
AcDbEntity
  8
0
  6
Continuous
 62
     7
370
    18
100
AcDbPolyline
 90
        9
 70
   128
 43
0.0
 10
124.1979391266
 20
64.8478346433
 10
124.2027608186
 20
64.8672892626
 10
124.2150806791
 20
64.8858997342
 10
124.2344252627
 20
64.902950868
 10
124.2600511679
 20
64.9177873985
 10
124.2909736055
 20
64.9298391661
 10
124.3260042437
 20
64.9386430283
 10
124.3637968746
 20
64.9438606575
 10
124.4028991486
 20
64.9452915432
  0
LWPOLYLINE
  5
149
330
1F
100
AcDbEntity
  8
0
  6
Continuous
 62
     7
370
    18
100
AcDbPolyline
 90
        9
 70
   128
 43
0.0
 10
124.1979391266
 20
77.8181911667
 10
124.2027608186
 20
77.7987365473
 10
124.2150806791
 20
77.7801260758
 10
124.2344252627
 20
77.763074942
 10
124.2600511679
 20
77.7482384115
 10
124.2909736055
 20
77.7361866438
 10
124.3260042437
 20
77.7273827816
 10
124.3637968746
 20
77.7221651524
 10
124.4028991486
 20
77.7207342668
  0
LINE
  5
14A
330
1F
100
AcDbEntity
  8
0
  6
Continuous
 62
     7
370
    18
100
AcDbLine
 10
88.3979391266
 20
65.7117150393
 30
0.0
 11
89.8979391266
 21
65.2787023374
 31
0.0
  0
LINE
  5
14B
330
1F
100
AcDbEntity
  8
0
  6
Continuous
 62
     7
370
    18
100
AcDbLine
 10
88.3979391266
 20
76.9543107706
 30
0.0
 11
89.8979391266
 21
77.3873234725
 31
0.0
  0
LINE
  5
14C
330
1F
100
AcDbEntity
  8
0
  6
Continuous
 62
     7
370
    18
100
AcDbLine
 10
124.4028991486
 20
77.7207342668
 30
0.0
 11
124.4028991486
 21
93.1581978897
 31
0.0
  0
LINE
  5
14D
330
1F
100
AcDbEntity
  8
0
  6
Continuous
 62
     7
370
    18
100
AcDbLine
 10
124.4028991486
 20
49.5078279202
 30
0.0
 11
124.4028991486
 21
64.9452915432
 31
0.0
  0
LINE
  5
14E
330
1F
100
AcDbEntity
  8
0
  6
Continuous
 62
     7
370
    18
100
AcDbLine
 10
126.0029622377
 20
49.4676420171
 30
0.0
 11
126.0029622377
 21
64.9004098043
 31
0.0
  0
LINE
  5
14F
330
1F
100
AcDbEntity
  8
0
  6
Continuous
 62
     7
370
    18
100
AcDbLine
 10
126.0029622377
 20
77.7656160056
 30
0.0
 11
126.0029622377
 21
93.1983837929
 31
0.0
  0
LINE
  5
150
330
1F
100
AcDbEntity
  8
0
  6
Continuous
 62
     7
370
    18
100
AcDbLine
 10
171.8272262987
 20
47.102626057
 30
0.0
 11
171.8272262987
 21
95.5633997529
 31
0.0
  0
DIMENSION
  5
151
330
1F
100
AcDbEntity
  8
VERMASSUNG
100
AcDbDimension
  2
_D
 10
78.3979391266
 20
102.833012905
 30
0.0
 11
78.3979391266
 21
71.333012905
 31
0.0
 70
   160
  1
PSC%%c<>
 71
     2
 42
-1.0
  3
SLDDIMSTYLE0
100
AcDbAlignedDimension
 13
126.8979391266
 23
39.833012905
 33
0.0
 14
126.8979391266
 24
102.833012905
 34
0.0
 50
90.0
100
AcDbRotatedDimension
  0
LINE
  5
15E
330
1F
100
AcDbEntity
  8
VERMASSUNG
  6
CENTERX2
370
    18
100
AcDbLine
 10
185.7559755432
 20
71.358181674
 30
0.0
 11
190.7679140897
 21
71.358181674
 31
0.0
  0
LINE
  5
15F
330
1F
100
AcDbEntity
  8
VERMASSUNG
  6
CENTERX2
370
    18
100
AcDbLine
 10
222.858272613
 20
71.333012905
 30
0.0
 11
228.009820836
 21
71.333012905
 31
0.0
  0
LINE
  5
160
330
1F
100
AcDbEntity
  8
VERMASSUNG
  6
CENTERX2
370
    18
100
AcDbLine
 10
82.9571414189
 20
71.333012905
 30
0.0
 11
219.555794319
 21
71.333012905
 31
0.0
  0
LINE
  5
161
330
1F
100
AcDbEntity
  8
0
  6
Continuous
 62
     7
370
    25
100
AcDbLine
 10
186.8680895924
 20
156.60025729
 30
0.0
 11
187.1221075828
 21
157.6190678026
 31
0.0
  0
LINE
  5
162
330
1F
100
AcDbEntity
  8
0
  6
Continuous
 62
     7
370
    25
100
AcDbLine
 10
186.7393042129
 20
168.484423829
 30
0.0
 11
185.6760028465
 21
164.2197549818
 31
0.0
  0
LINE
  5
163
330
1F
100
AcDbEntity
  8
0
  6
Continuous
 62
     7
370
    25
100
AcDbLine
 10
186.734836939
 20
156.3758275006
 30
0.0
 11
186.8680895924
 21
156.60025729
 31
0.0
  0
LINE
  5
164
330
1F
100
AcDbEntity
  8
0
  6
Continuous
 62
     7
370
    25
100
AcDbLine
 10
186.8725568663
 20
168.7088536184
 30
0.0
 11
186.7393042129
 21
168.484423829
 31
0.0
  0
LINE
  5
165
330
1F
100
AcDbEntity
  8
0
  6
Continuous
 62
     7
370
    25
100
AcDbLine
 10
191.4254871573
 20
171.6961351192
 30
0.0
 11
190.9416433661
 21
169.7555436667
 31
0.0
  0
LINE
  5
166
330
1F
100
AcDbEntity
  8
0
  6
Continuous
 62
     7
370
    25
100
AcDbLine
 10
202.1000442183
 20
166.9734418673
 30
0.0
 11
202.5838880095
 21
168.9140333198
 31
0.0
  0
ARC
  5
167
330
1F
100
AcDbEntity
  8
0
  6
Continuous
 62
     7
370
    25
100
AcDbCircle
 10
193.9279760129
 20
170.0415809414
 30
0.0
 40
3.000000000000014
100
AcDbArc
 50
76.0
 51
146.5287793655
  0
ARC
  5
168
330
1F
100
AcDbEntity
  8
0
  6
Continuous
 62
     7
370
    25
100
AcDbCircle
 10
199.5975553627
 20
168.6279960451
 30
0.0
 40
3.000000000000017
100
AcDbArc
 50
5.4712206345
 51
76.0
  0
LINE
  5
169
330
1F
100
AcDbEntity
  8
0
  6
Continuous
 62
     7
370
    25
100
AcDbLine
 10
190.4405189666
 20
156.7916949196
 30
0.0
 11
190.3679423979
 21
156.5006062018
 31
0.0
  0
LINE
  5
16A
330
1F
100
AcDbEntity
  8
0
  6
Continuous
 62
     7
370
    25
100
AcDbLine
 10
196.3837759008
 20
155.000690449
 30
0.0
 11
196.4563524695
 21
155.2917791669
 31
0.0
  0
ARC
  5
16B
330
1F
100
AcDbEntity
  8
0
  6
Continuous
 62
     7
370
    25
100
AcDbCircle
 10
189.8588631596
 20
156.1122270969
 30
0.0
 40
0.5000000000000039
100
AcDbArc
 50
76.0
 51
256.0
  0
ARC
  5
16C
330
1F
100
AcDbEntity
  8
0
  6
Continuous
 62
     7
370
    25
100
AcDbCircle
 10
196.6509332436
 20
154.4187738277
 30
0.0
 40
0.5000000000000039
100
AcDbArc
 50
256.0
 51
76.0
  0
LINE
  5
16D
330
1F
100
AcDbEntity
  8
0
  6
Continuous
 62
     7
370
    25
100
AcDbLine
 10
196.7718941914
 20
154.9039216908
 30
0.0
 11
189.9798241074
 21
156.59737496
 31
0.0
  0
LINE
  5
16E
330
1F
100
AcDbEntity
  8
0
  6
Continuous
 62
     7
370
    25
100
AcDbLine
 10
202.6558547274
 20
164.0357191918
 30
0.0
 11
203.0709919805
 21
165.7007437715
 31
0.0
  0
LINE
  5
16F
330
1F
100
AcDbEntity
  8
0
  6
Continuous
 62
     7
370
    25
100
AcDbLine
 10
201.9602288831
 20
161.2457163187
 30
0.0
 11
202.1233242159
 21
161.8998559698
 31
0.0
  0
LINE
  5
170
330
1F
100
AcDbEntity
  8
0
  6
Continuous
 62
     7
370
    25
100
AcDbLine
 10
201.6230032687
 20
160.8965089724
 30
0.0
 11
201.9602288831
 21
161.2457163187
 31
0.0
  0
LINE
  5
171
330
1F
100
AcDbEntity
  8
0
  6
Continuous
 62
     7
370
    25
100
AcDbLine
 10
203.0709919805
 20
165.7007437715
 30
0.0
 11
202.3426181498
 21
166.9129613934
 31
0.0
  0
LINE
  5
172
330
1F
100
AcDbEntity
  8
0
  6
Continuous
 62
     7
370
    25
100
AcDbLine
 10
190.6990694345
 20
169.8160241406
 30
0.0
 11
190.334801318
 21
169.5971497746
 31
0.0
  0
LINE
  5
173
330
1F
100
AcDbEntity
  8
0
  6
Continuous
 62
     7
370
    25
100
AcDbLine
 10
177.6623762875
 20
158.9470300845
 30
0.0
 11
177.5897997189
 21
158.6559413666
 31
0.0
  0
LINE
  5
174
330
1F
100
AcDbEntity
  8
0
  6
Continuous
 62
     7
370
    25
100
AcDbLine
 10
224.324012649
 20
139.4390893529
 30
0.0
 11
225.0207477083
 21
142.2335410446
 31
0.0
  0
LINE
  5
175
330
1F
100
AcDbEntity
  8
0
  6
Continuous
 62
     7
370
    25
100
AcDbLine
 10
223.9603473624
 20
139.2205772037
 30
0.0
 11
224.324012649
 21
139.4390893529
 31
0.0
  0
LINE
  5
176
330
1F
100
AcDbEntity
  8
0
  6
Continuous
 62
     7
370
    25
100
AcDbLine
 10
197.4685035526
 20
154.0088079294
 30
0.0
 11
197.395926984
 21
153.7177192116
 31
0.0
  0
LINE
  5
177
330
1F
100
AcDbEntity
  8
0
  6
Continuous
 62
     7
370
    25
100
AcDbLine
 10
225.2463909035
 20
142.1772818773
 30
0.0
 11
226.3979391266
 21
146.7958895344
 31
0.0
  0
ARC
  5
178
330
1F
100
AcDbEntity
  8
0
  6
Continuous
 62
     7
370
    25
100
AcDbCircle
 10
126.8979391266
 20
115.7958895344
 30
0.0
 40
0.5
100
AcDbArc
 50
180.0
 51
270.0
  0
ARC
  5
179
330
1F
100
AcDbEntity
  8
0
  6
Continuous
 62
     7
370
    25
100
AcDbCircle
 10
126.8979391266
 20
177.7958895344
 30
0.0
 40
0.5
100
AcDbArc
 50
90.0
 51
180.0
  0
LINE
  5
17A
330
1F
100
AcDbEntity
  8
0
  6
Continuous
 62
     7
370
    25
100
AcDbLine
 10
163.7495136848
 20
178.2958895344
 30
0.0
 11
126.8979391266
 21
178.2958895344
 31
0.0
  0
LINE
  5
17B
330
1F
100
AcDbEntity
  8
0
  6
Continuous
 62
     7
370
    25
100
AcDbLine
 10
208.1582807227
 20
115.2958895344
 30
0.0
 11
216.9549416534
 21
115.2958895344
 31
0.0
  0
LINE
  5
17C
330
1F
100
AcDbEntity
  8
0
  6
Continuous
 62
     7
370
    25
100
AcDbLine
 10
140.3979391266
 20
115.2958895344
 30
0.0
 11
199.8204283013
 21
115.2958895344
 31
0.0
  0
LINE
  5
17D
330
1F
100
AcDbEntity
  8
0
  6
Continuous
 62
     7
370
    25
100
AcDbLine
 10
126.8979391266
 20
115.2958895344
 30
0.0
 11
136.404185809
 21
115.2958895344
 31
0.0
  0
LWPOLYLINE
  5
17E
330
1F
100
AcDbEntity
  8
0
  6
Continuous
 62
     7
370
    25
100
AcDbPolyline
 90
        3
 70
   128
 43
0.0
 10
126.1979391266
 20
124.2560692555
 10
126.32339407
 20
124.1877671406
 10
126.3979391266
 20
124.1350293825
  0
ARC
  5
17F
330
1F
100
AcDbEntity
  8
0
  6
Continuous
 62
     7
370
    25
100
AcDbCircle
 10
125.7837255642
 20
170.2458895344
 30
0.0
 40
0.9999999999999989
100
AcDbArc
 50
225.0
 51
307.8947985336
  0
ARC
  5
180
330
1F
100
AcDbEntity
  8
0
  6
Continuous
 62
     7
370
    25
100
AcDbCircle
 10
124.3978760375
 20
126.1707676387
 30
0.0
 40
0.2000000000000063
100
AcDbArc
 50
88.5608333333
 51
178.5608333333
  0
LINE
  5
181
330
1F
100
AcDbEntity
  8
0
  6
Continuous
 62
     7
370
    25
100
AcDbLine
 10
115.3449606675
 20
126.3982083834
 30
0.0
 11
124.1979391266
 21
126.1757907499
 31
0.0
  0
LINE
  5
182
330
1F
100
AcDbEntity
  8
0
  6
Continuous
 62
     7
370
    25
100
AcDbLine
 10
96.7638465319
 20
126.8650306459
 30
0.0
 11
106.6802188911
 21
126.6158968562
 31
0.0
  0
ARC
  5
183
330
1F
100
AcDbEntity
  8
0
  6
Continuous
 62
     7
370
    25
100
AcDbCircle
 10
125.9979391266
 20
126.1305684846
 30
0.0
 40
0.2000000000000028
100
AcDbArc
 50
360.0
 51
88.5608333333
  0
LINE
  5
184
330
1F
100
AcDbEntity
  8
0
  6
Continuous
 62
     7
370
    25
100
AcDbLine
 10
124.4028991486
 20
126.3707045497
 30
0.0
 11
126.0029622377
 21
126.3305053955
 31
0.0
  0
LINE
  5
185
330
1F
100
AcDbEntity
  8
0
  6
Continuous
 62
     7
370
    25
100
AcDbLine
 10
124.1979391266
 20
170.215988319
 30
0.0
 11
89.8979391266
 21
169.3542529307
 31
0.0
  0
ARC
  5
186
330
1F
100
AcDbEntity
  8
0
  6
Continuous
 62
     7
370
    25
100
AcDbCircle
 10
124.3978760375
 20
170.2210114301
 30
0.0
 40
0.2000000000000059
100
AcDbArc
 50
181.4391666667
 51
271.4391666667
  0
LINE
  5
187
330
1F
100
AcDbEntity
  8
0
  6
Continuous
 62
     7
370
    25
100
AcDbLine
 10
124.6036782756
 20
170.0261187897
 30
0.0
 11
124.4028991486
 21
170.0210745192
 31
0.0
  0
LINE
  5
188
330
1F
100
AcDbEntity
  8
0
  6
Continuous
 62
     7
370
    25
100
AcDbLine
 10
89.8979391266
 20
169.3542529307
 30
0.0
 11
88.3979391266
 21
168.4882275269
 31
0.0
  0
LINE
  5
189
330
1F
100
AcDbEntity
  8
0
  6
Continuous
 62
     7
370
    25
100
AcDbLine
 10
125.076618783
 20
169.5387827532
 30
0.0
 11
124.6138736869
 21
170.0015278493
 31
0.0
  0
LINE
  5
18A
330
1F
100
AcDbEntity
  8
0
  6
Continuous
 62
     7
370
    25
100
AcDbLine
 10
184.4635753422
 20
157.1997700258
 30
0.0
 11
184.1654805195
 21
157.2740934126
 31
0.0
  0
LINE
  5
18B
330
1F
100
AcDbEntity
  8
0
  6
Continuous
 62
     7
370
    25
100
AcDbLine
 10
186.8680895924
 20
156.60025729
 30
0.0
 11
184.6478761002
 21
157.1538186859
 31
0.0
  0
LINE
  5
18C
330
1F
100
AcDbEntity
  8
0
  6
Continuous
 62
     7
370
    25
100
AcDbLine
 10
187.4299778996
 20
168.3122195381
 30
0.0
 11
186.4008231594
 21
164.1845053284
 31
0.0
  0
LINE
  5
18D
330
1F
100
AcDbEntity
  8
0
  6
Continuous
 62
     7
370
    25
100
AcDbLine
 10
184.7555767607
 20
157.5857824418
 30
0.0
 11
184.6478761002
 21
157.1538186859
 31
0.0
  0
LINE
  5
18E
330
1F
100
AcDbEntity
  8
0
  6
Continuous
 62
     7
370
    25
100
AcDbLine
 10
187.2456771415
 20
168.358170878
 30
0.0
 11
186.7393042129
 21
168.484423829
 31
0.0
  0
LINE
  5
18F
330
1F
100
AcDbEntity
  8
0
  6
Continuous
 62
     7
370
    25
100
AcDbLine
 10
189.2808742237
 20
167.8507392541
 30
0.0
 11
187.4299778996
 21
168.3122195381
 31
0.0
  0
LINE
  5
190
330
1F
100
AcDbEntity
  8
0
  6
Continuous
 62
     7
370
    25
100
AcDbLine
 10
187.2456771415
 20
168.358170878
 30
0.0
 11
186.2077515058
 21
164.1952785278
 31
0.0
  0
LINE
  5
191
330
1F
100
AcDbEntity
  8
0
  6
Continuous
 62
     7
370
    25
100
AcDbLine
 10
184.5363156522
 20
157.4915154745
 30
0.0
 11
184.4635753422
 21
157.1997700258
 31
0.0
  0
LINE
  5
192
330
1F
100
AcDbEntity
  8
0
  6
Continuous
 62
     7
370
    25
100
AcDbLine
 10
184.6478761002
 20
157.1538186859
 30
0.0
 11
184.6256341214
 21
156.9017108267
 31
0.0
  0
LINE
  5
193
330
1F
100
AcDbEntity
  8
0
  6
Continuous
 62
     7
370
    25
100
AcDbLine
 10
184.4635753422
 20
157.1997700258
 30
0.0
 11
184.4505484013
 21
156.9453645996
 31
0.0
  0
LINE
  5
194
330
1F
100
AcDbEntity
  8
0
  6
Continuous
 62
     7
370
    25
100
AcDbLine
 10
187.5286968686
 20
168.545259542
 30
0.0
 11
187.4299778996
 21
168.3122195381
 31
0.0
  0
LINE
  5
195
330
1F
100
AcDbEntity
  8
0
  6
Continuous
 62
     7
370
    25
100
AcDbLine
 10
187.3536111485
 20
168.5889133149
 30
0.0
 11
186.8725568663
 21
168.7088536184
 31
0.0
  0
LINE
  5
196
330
1F
100
AcDbEntity
  8
0
  6
Continuous
 62
     7
370
    25
100
AcDbLine
 10
189.3488538028
 20
168.0914434487
 30
0.0
 11
187.5286968686
 21
168.545259542
 31
0.0
  0
LINE
  5
197
330
1F
100
AcDbEntity
  8
0
  6
Continuous
 62
     7
370
    25
100
AcDbLine
 10
187.3536111485
 20
168.5889133149
 30
0.0
 11
187.2456771415
 21
168.358170878
 31
0.0
  0
LINE
  5
198
330
1F
100
AcDbEntity
  8
0
  6
Continuous
 62
     7
370
    25
100
AcDbLine
 10
184.5929090004
 20
156.9098701158
 30
0.0
 11
184.6446691657
 21
157.1174687997
 31
0.0
  0
LINE
  5
199
330
1F
100
AcDbEntity
  8
0
  6
Continuous
 62
     7
370
    25
100
AcDbLine
 10
187.4442115824
 20
168.3458201472
 30
0.0
 11
187.4959717476
 21
168.5534188311
 31
0.0
  0
LINE
  5
19A
330
1F
100
AcDbEntity
  8
0
  6
Continuous
 62
     7
370
    25
100
AcDbLine
 10
187.4959717476
 20
168.5534188311
 30
0.0
 11
187.5286968686
 21
168.545259542
 31
0.0
  0
LINE
  5
19B
330
1F
100
AcDbEntity
  8
0
  6
Continuous
 62
     7
370
    25
100
AcDbLine
 10
187.4959717476
 20
168.5534188311
 30
0.0
 11
187.3536111485
 21
168.5889133149
 31
0.0
  0
LINE
  5
19C
330
1F
100
AcDbEntity
  8
0
  6
Continuous
 62
     7
370
    25
100
AcDbLine
 10
191.4254871573
 20
171.6961351192
 30
0.0
 11
202.5838880095
 21
168.9140333198
 31
0.0
  0
LINE
  5
19D
330
1F
100
AcDbEntity
  8
0
  6
Continuous
 62
     7
370
    25
100
AcDbLine
 10
194.6537416997
 20
172.9524681202
 30
0.0
 11
200.3233210494
 21
171.538883224
 31
0.0
  0
SPLINE
  5
19E
330
1F
100
AcDbEntity
  8
0
  6
Continuous
 62
     7
370
    25
100
AcDbSpline
210
0.0
220
0.0
230
1.0
 70
     8
 71
     3
 72
    36
 73
    32
 74
     0
 42
0.000000001
 43
0.00000001
 40
0.0
 40
0.0
 40
0.0
 40
0.0
 40
0.0467151771286139
 40
0.0945282004580922
 40
0.1411852646446509
 40
0.1887402186060641
 40
0.2385427407815294
 40
0.2891744751940272
 40
0.3175152172033945
 40
0.3461924935525334
 40
0.3750358117094659
 40
0.4042158168442343
 40
0.4355643231217639
 40
0.4673398085749202
 40
0.4993326338056324
 40
0.5317767678350148
 40
0.5636491479867107
 40
0.5957612240353776
 40
0.6286636981521578
 40
0.661855297906455
 40
0.6916988134307173
 40
0.7220386588815593
 40
0.7526376680107523
 40
0.7837804777888446
 40
0.8111040479336669
 40
0.83886338532575
 40
0.8668478010889237
 40
0.8952998377645958
 40
0.9470306934643966
 40
0.9733112148523371
 40
1.0
 40
1.0
 40
1.0
 40
1.0
 10
202.1228113717319
 20
161.8979497002238
 30
0.0
 10
202.1232778270618
 20
161.9004390399624
 30
0.0
 10
202.1242216998166
 20
161.9054762210303
 30
0.0
 10
202.1297711958105
 20
161.9460120190447
 30
0.0
 10
202.1383848322613
 20
162.0085787576025
 30
0.0
 10
202.1504888817346
 20
162.0934109957714
 30
0.0
 10
202.1664414816572
 20
162.1989781594285
 30
0.0
 10
202.1835441840204
 20
162.3043147492057
 30
0.0
 10
202.1999608426232
 20
162.399150048215
 30
0.0
 10
202.214291136287
 20
162.4782034771445
 30
0.0
 10
202.2300178663376
 20
162.5609356688344
 30
0.0
 10
202.2475276628617
 20
162.6486970655005
 30
0.0
 10
202.2669906132565
 20
162.7414403048082
 30
0.0
 10
202.2884831751849
 20
162.8386143867982
 30
0.0
 10
202.3116191972318
 20
162.937876642365
 30
0.0
 10
202.3360844677758
 20
163.0375254066357
 30
0.0
 10
202.3617358954081
 20
163.1368530787313
 30
0.0
 10
202.3884746394258
 20
163.2354689563459
 30
0.0
 10
202.4163226394694
 20
163.3334037927375
 30
0.0
 10
202.4439585917615
 20
163.4262159117048
 30
0.0
 10
202.4709073185464
 20
163.5130524268555
 30
0.0
 10
202.4968322806907
 20
163.5935462742127
 30
0.0
 10
202.5224677019177
 20
163.6704143672392
 30
0.0
 10
202.5462208955935
 20
163.7393763447008
 30
0.0
 10
202.567871074284
 20
163.8005469239984
 30
0.0
 10
202.5872054911986
 20
163.8539405063067
 30
0.0
 10
202.604923527617
 20
163.9019089743898
 30
0.0
 10
202.6248771691778
 20
163.9550440914066
 30
0.0
 10
202.63999210546
 20
163.9945739070269
 30
0.0
 10
202.6501401821073
 20
164.0211014849796
 30
0.0
 10
202.6530143957484
 20
164.0287773035267
 30
0.0
 10
202.6544625791466
 20
164.032644793691
 30
0.0
  0
SPLINE
  5
19F
330
1F
100
AcDbEntity
  8
0
  6
Continuous
 62
     7
370
    25
100
AcDbSpline
210
0.0
220
0.0
230
1.0
 70
     8
 71
     3
 72
    37
 73
    33
 74
     0
 42
0.000000001
 43
0.00000001
 40
0.0
 40
0.0
 40
0.0
 40
0.0
 40
0.0141425129346815
 40
0.0636919892905308
 40
0.1118538559658926
 40
0.1610374320990193
 40
0.20973009180192
 40
0.2344259247194881
 40
0.2594564858735687
 40
0.3097263313940416
 40
0.3352056052386774
 40
0.3610110905542145
 40
0.3874856677528458
 40
0.4142923755877096
 40
0.4412633939414196
 40
0.4685655372492775
 40
0.4971511126797739
 40
0.5260985035422104
 40
0.5552260211593054
 40
0.5847202895790619
 40
0.6152622722667669
 40
0.6460103298619494
 40
0.6774196823730677
 40
0.709064677139519
 40
0.7395910969250911
 40
0.7703592113730179
 40
0.8019521318363987
 40
0.8338610722835309
 40
0.8803826920913621
 40
0.9278692940483885
 40
0.9635867506696086
 40
1.0
 40
1.0
 40
1.0
 40
1.0
 10
202.6556411930454
 20
164.0365664468736
 30
0.0
 10
202.6558993281483
 20
164.0373451349554
 30
0.0
 10
202.6570618611641
 20
164.0408520218291
 30
0.0
 10
202.6488079330042
 20
164.0213255994709
 30
0.0
 10
202.6310715127686
 20
163.9778239447517
 30
0.0
 10
202.6040824786703
 20
163.9092320058105
 30
0.0
 10
202.5756073305283
 20
163.8338883615341
 30
0.0
 10
202.5500554225096
 20
163.7637381954102
 30
0.0
 10
202.522597763628
 20
163.6863766089937
 30
0.0
 10
202.4930958486328
 20
163.5997300843327
 30
0.0
 10
202.4626535839892
 20
163.5057668885481
 30
0.0
 10
202.4391817207237
 20
163.4307557260738
 30
0.0
 10
202.4153889876598
 20
163.3518248470751
 30
0.0
 10
202.3915508646364
 20
163.2695280942429
 30
0.0
 10
202.367981695698
 20
163.1846758341227
 30
0.0
 10
202.3446047899227
 20
163.0967404682057
 30
0.0
 10
202.3215751982573
 20
163.0059712699957
 30
0.0
 10
202.2991413331514
 20
162.9130655064552
 30
0.0
 10
202.2776949145781
 20
162.8195838356851
 30
0.0
 10
202.2571977852957
 20
162.725399972137
 30
0.0
 10
202.2377851414062
 20
162.6311602712036
 30
0.0
 10
202.2195230748786
 20
162.5373302975958
 30
0.0
 10
202.2026655930773
 20
162.4455499504584
 30
0.0
 10
202.1874956492033
 20
162.3579573682927
 30
0.0
 10
202.1740386865277
 20
162.2756632421959
 30
0.0
 10
202.1621630498965
 20
162.1988678340091
 30
0.0
 10
202.1517196919942
 20
162.127475349657
 30
0.0
 10
202.1414309187934
 20
162.0531899111982
 30
0.0
 10
202.1322901605961
 20
161.9825461343556
 30
0.0
 10
202.1261848885711
 20
161.93152932202
 30
0.0
 10
202.123039073202
 20
161.9029433368815
 30
0.0
 10
202.1228877587623
 20
161.8996249159114
 30
0.0
 10
202.1228113717319
 20
161.8979497002238
 30
0.0
  0
LINE
  5
1A0
330
1F
100
AcDbEntity
  8
0
  6
Continuous
 62
     7
370
    25
100
AcDbLine
 10
189.2663557613
 20
164.4106543525
 30
0.0
 11
201.9602288831
 21
161.2457163187
 31
0.0
  0
LINE
  5
1A1
330
1F
100
AcDbEntity
  8
0
  6
Continuous
 62
     7
370
    25
100
AcDbLine
 10
189.2663557613
 20
164.4106543525
 30
0.0
 11
190.3771188588
 21
168.8656818053
 31
0.0
  0
LINE
  5
1A2
330
1F
100
AcDbEntity
  8
0
  6
Continuous
 62
     7
370
    25
100
AcDbLine
 10
190.3771188588
 20
168.8656818053
 30
0.0
 11
203.0709919805
 21
165.7007437715
 31
0.0
  0
SPLINE
  5
1A3
330
1F
100
AcDbEntity
  8
0
  6
Continuous
 62
     7
370
    25
100
AcDbSpline
210
0.0
220
0.0
230
1.0
 70
     8
 71
     3
 72
    10
 73
     6
 74
     0
 42
0.000000001
 43
0.00000001
 40
0.0
 40
0.0
 40
0.0
 40
0.0
 40
0.1599161261409882
 40
0.7077769639997654
 40
1.0
 40
1.0
 40
1.0
 40
1.0
 10
188.6252665568669
 20
163.9384873487387
 30
0.0
 10
188.6182100479018
 20
163.9713433721632
 30
0.0
 10
188.5869784603673
 20
164.1167617053209
 30
0.0
 10
188.5346130075943
 20
164.3464697220689
 30
0.0
 10
188.4885399879884
 20
164.5409362942915
 30
0.0
 10
188.4725134957704
 20
164.608581459142
 30
0.0
  0
LINE
  5
1A4
330
1F
100
AcDbEntity
  8
0
  6
Continuous
 62
     7
370
    25
100
AcDbLine
 10
188.4725134958
 20
164.6085814591
 30
0.0
 11
188.4785410452
 21
164.6070786223
 31
0.0
  0
LINE
  5
1A5
330
1F
100
AcDbEntity
  8
0
  6
Continuous
 62
     7
370
    25
100
AcDbLine
 10
188.4785410452
 20
164.6070786223
 30
0.0
 11
188.7180743408
 21
163.9274517441
 31
0.0
  0
SPLINE
  5
1A6
330
1F
100
AcDbEntity
  8
0
  6
Continuous
 62
     7
370
    25
100
AcDbSpline
210
0.0
220
0.0
230
1.0
 70
     8
 71
     3
 72
     9
 73
     5
 74
     0
 42
0.000000001
 43
0.00000001
 40
0.0
 40
0.0
 40
0.0
 40
0.0
 40
0.6648358842071382
 40
1.0
 40
1.0
 40
1.0
 40
1.0
 10
189.2846342683612
 20
163.86008313433
 30
0.0
 10
189.2874135384629
 20
163.9751975125941
 30
0.0
 10
189.2915939236792
 20
164.148344571889
 30
0.0
 10
189.2726912569255
 20
164.3448071471665
 30
0.0
 10
189.2663557613368
 20
164.4106543524958
 30
0.0
  0
LINE
  5
1A7
330
1F
100
AcDbEntity
  8
0
  6
Continuous
 62
     7
370
    25
100
AcDbLine
 10
196.502058293
 20
168.369176518
 30
0.0
 11
202.3426181498
 21
166.9129613934
 31
0.0
  0
LINE
  5
1A8
330
1F
100
AcDbEntity
  8
0
  6
Continuous
 62
     7
370
    25
100
AcDbLine
 10
190.6990694345
 20
169.8160241406
 30
0.0
 11
196.502058293
 21
168.369176518
 31
0.0
  0
SPLINE
  5
1A9
330
1F
100
AcDbEntity
  8
0
  6
Continuous
 62
     7
370
    25
100
AcDbSpline
210
0.0
220
0.0
230
1.0
 70
     8
 71
     3
 72
    14
 73
    10
 74
     0
 42
0.000000001
 43
0.00000001
 40
0.0
 40
0.0
 40
0.0
 40
0.0
 40
0.240687760302247
 40
0.3654954831739914
 40
0.4913832497566483
 40
0.5985915213214184
 40
0.7015343678751402
 40
0.8683340671896859
 40
1.0
 40
1.0
 40
1.0
 40
1.0
 10
190.3771188587577
 20
168.8656818053069
 30
0.0
 10
190.5055119190062
 20
169.0040971534376
 30
0.0
 10
190.7004827124225
 20
169.2142872540068
 30
0.0
 10
190.7824537446998
 20
169.4295502784935
 30
0.0
 10
190.7310611235779
 20
169.5183158321256
 30
0.0
 10
190.5699038231301
 20
169.5126786643827
 30
0.0
 10
190.3103709897601
 20
169.4287345128163
 30
0.0
 10
189.973941140415
 20
169.271201852635
 30
0.0
 10
189.7070439069841
 20
169.1261115860635
 30
0.0
 10
189.5893041425965
 20
169.0621060750979
 30
0.0
  0
LINE
  5
1AA
330
1F
100
AcDbEntity
  8
0
  6
Continuous
 62
     7
370
    25
100
AcDbLine
 10
189.5832765932
 20
169.063608912
 30
0.0
 11
189.5893041426
 21
169.0621060751
 31
0.0
  0
SPLINE
  5
1AB
330
1F
100
AcDbEntity
  8
0
  6
Continuous
 62
     7
370
    25
100
AcDbSpline
210
0.0
220
0.0
230
1.0
 70
     8
 71
     3
 72
    14
 73
    10
 74
     0
 42
0.000000001
 43
0.00000001
 40
0.0
 40
0.0
 40
0.0
 40
0.0
 40
0.240115402893136
 40
0.4882428044838894
 40
0.6132826626838082
 40
0.7410186082205783
 40
0.8663028136219747
 40
0.9965418611960329
 40
1.0
 40
1.0
 40
1.0
 40
1.0
 10
189.5832765931913
 20
169.0636089119531
 30
0.0
 10
189.673946382994
 20
169.1255052256891
 30
0.0
 10
189.8583113671717
 20
169.251363165003
 30
0.0
 10
190.0547513075786
 20
169.3919892200384
 30
0.0
 10
190.1855099852338
 20
169.487202748338
 30
0.0
 10
190.2649272384526
 20
169.5457483829943
 30
0.0
 10
190.3163346065203
 20
169.5837760617232
 30
0.0
 10
190.338240653525
 20
169.5999102497277
 30
0.0
 10
190.3349126560574
 20
169.5971783989932
 30
0.0
 10
190.3348265758826
 20
169.5971077384259
 30
0.0
  0
LINE
  5
1AC
330
1F
100
AcDbEntity
  8
0
  6
Continuous
 62
     7
370
    25
100
AcDbLine
 10
189.5893041426
 20
169.0621060751
 30
0.0
 11
188.4785410452
 21
164.6070786223
 31
0.0
  0
LINE
  5
1AD
330
1F
100
AcDbEntity
  8
0
  6
Continuous
 62
     7
370
    25
100
AcDbLine
 10
188.4725134958
 20
164.6085814591
 30
0.0
 11
189.5832765932
 21
169.063608912
 31
0.0
  0
SPLINE
  5
1AE
330
1F
100
AcDbEntity
  8
0
  6
Continuous
 62
     7
370
    25
100
AcDbSpline
210
0.0
220
0.0
230
1.0
 70
     8
 71
     3
 72
    15
 73
    11
 74
     0
 42
0.000000001
 43
0.00000001
 40
0.0
 40
0.0
 40
0.0
 40
0.0
 40
0.1509671110778805
 40
0.3061427222263691
 40
0.4571816303411751
 40
0.6132978895687187
 40
0.7526621104993392
 40
0.8972115735580468
 40
0.9484689525722576
 40
1.0
 40
1.0
 40
1.0
 40
1.0
 10
212.5751515663532
 20
155.0416532160977
 30
0.0
 10
212.8034692654857
 20
154.8617591029079
 30
0.0
 10
213.2664694609973
 20
154.4969559803521
 30
0.0
 10
213.8277286954682
 20
153.8035743718306
 30
0.0
 10
214.2750911587446
 20
153.0102457718549
 30
0.0
 10
214.5643032544023
 20
152.1601995029745
 30
0.0
 10
214.6986291156939
 20
151.2706638603061
 30
0.0
 10
214.6796084269699
 20
150.5745906008792
 30
0.0
 10
214.605369557086
 20
150.0665253293016
 30
0.0
 10
214.5575748599407
 20
149.8583585550329
 30
0.0
 10
214.5336138860194
 20
149.7539980517248
 30
0.0
  0
LINE
  5
1AF
330
1F
100
AcDbEntity
  8
0
  6
Continuous
 62
     7
370
    25
100
AcDbLine
 10
208.940895278
 20
151.1484194127
 30
0.0
 11
210.4576852917
 21
150.7702411879
 31
0.0
  0
SPLINE
  5
1B0
330
1F
100
AcDbEntity
  8
0
  6
Continuous
 62
     7
370
    25
100
AcDbSpline
210
0.0
220
0.0
230
1.0
 70
     8
 71
     3
 72
    13
 73
     9
 74
     0
 42
0.000000001
 43
0.00000001
 40
0.0
 40
0.0
 40
0.0
 40
0.0
 40
0.202920630526801
 40
0.4118693643147428
 40
0.6147294460558053
 40
0.8232179646025021
 40
0.9113859162006888
 40
1.0
 40
1.0
 40
1.0
 40
1.0
 10
208.940895278042
 20
151.1484194127157
 30
0.0
 10
208.8528039602175
 20
151.2968754722049
 30
0.0
 10
208.6740044217976
 20
151.5981977315126
 30
0.0
 10
208.3168257858687
 20
151.9769999020063
 30
0.0
 10
207.9034149161099
 20
152.294487157733
 30
0.0
 10
207.5303553133409
 20
152.4875556166558
 30
0.0
 10
207.2280610628453
 20
152.6011412270701
 30
0.0
 10
207.0849207462216
 20
152.6401269090947
 30
0.0
 10
207.0131699714111
 20
152.6596689427981
 30
0.0
  0
LINE
  5
1B1
330
1F
100
AcDbEntity
  8
0
  6
Continuous
 62
     7
370
    25
100
AcDbLine
 10
207.0131699714
 20
152.6596689428
 30
0.0
 11
195.9858398378
 21
155.4090911417
 31
0.0
  0
SPLINE
  5
1B2
330
1F
100
AcDbEntity
  8
0
  6
Continuous
 62
     7
370
    25
100
AcDbSpline
210
0.0
220
0.0
230
1.0
 70
     8
 71
     3
 72
    13
 73
     9
 74
     0
 42
0.000000001
 43
0.00000001
 40
0.0
 40
0.0
 40
0.0
 40
0.0
 40
0.1635392615137324
 40
0.327084957155638
 40
0.495821144270834
 40
0.6645723614732632
 40
0.8317545527462884
 40
1.0
 40
1.0
 40
1.0
 40
1.0
 10
197.6909157363337
 20
162.2477770457605
 30
0.0
 10
198.5798066839476
 20
161.9717985203791
 30
0.0
 10
200.3576235508284
 20
161.4198306117882
 30
0.0
 10
202.9757073471658
 20
160.3998794362737
 30
0.0
 10
205.5385786749295
 20
159.2431844331803
 30
0.0
 10
208.0123631953772
 20
157.9489166029392
 30
0.0
 10
210.3757468285142
 20
156.5521183693393
 30
0.0
 10
211.8404690028879
 20
155.5462044665869
 30
0.0
 10
212.5751515663532
 20
155.0416532160977
 30
0.0
  0
LINE
  5
1B3
330
1F
100
AcDbEntity
  8
0
  6
Continuous
 62
     7
370
    25
100
AcDbLine
 10
195.9858398378
 20
155.4090911417
 30
0.0
 11
186.6369597196
 21
157.7400287504
 31
0.0
  0
ARC
  5
1B4
330
1F
100
AcDbEntity
  8
0
  6
Continuous
 62
     7
370
    25
100
AcDbCircle
 10
185.9111940328
 20
154.8291415716
 30
0.0
 40
2.999999999999989
100
AcDbArc
 50
76.0
 51
106.0
  0
ARC
  5
1B5
330
1F
100
AcDbEntity
  8
0
  6
Continuous
 62
     7
370
    25
100
AcDbCircle
 10
183.6449884492
 20
114.2611963524
 30
0.0
 40
50.00000000000002
100
AcDbArc
 50
73.6849659708
 51
86.5042053002
  0
SPLINE
  5
1B6
330
1F
100
AcDbEntity
  8
0
  6
Continuous
 62
     7
370
    25
100
AcDbSpline
210
0.0
220
0.0
230
1.0
 70
     8
 71
     3
 72
    16
 73
    12
 74
     0
 42
0.000000001
 43
0.00000001
 40
0.0
 40
0.0
 40
0.0
 40
0.0
 40
0.0951182873398476
 40
0.1936363113496298
 40
0.3110214900494925
 40
0.4317771131308438
 40
0.5936211337431359
 40
0.7600369482782918
 40
0.8786868083121057
 40
0.9985545616448842
 40
1.0
 40
1.0
 40
1.0
 40
1.0
 10
184.5862185913643
 20
164.2523364255642
 30
0.0
 10
184.2236270249533
 20
164.2424005250735
 30
0.0
 10
183.485484072532
 20
164.2221735931685
 30
0.0
 10
182.3929610151208
 20
163.9725016383583
 30
0.0
 10
181.3269311599472
 20
163.5537279316497
 30
0.0
 10
180.2304897470443
 20
162.8877277410071
 30
0.0
 10
179.2196030316146
 20
161.9757398575622
 30
0.0
 10
178.4581121222022
 20
160.9327393879471
 30
0.0
 10
177.953481997677
 20
159.9124043476563
 30
0.0
 10
177.744984803042
 20
159.2775501726731
 30
0.0
 10
177.6633489728469
 20
158.9509218387001
 30
0.0
 10
177.6623762875315
 20
158.9470300845122
 30
0.0
  0
SPLINE
  5
1B7
330
1F
100
AcDbEntity
  8
0
  6
Continuous
 62
     7
370
    25
100
AcDbSpline
210
0.0
220
0.0
230
1.0
 70
     8
 71
     3
 72
    11
 73
     7
 74
     0
 42
0.000000001
 43
0.00000001
 40
0.0
 40
0.0
 40
0.0
 40
0.0
 40
0.147653173528046
 40
0.522277968949188
 40
0.9080649941875018
 40
1.0
 40
1.0
 40
1.0
 40
1.0
 10
183.924044090582
 20
157.0766368679053
 30
0.0
 10
183.9739997085063
 20
157.1190562087903
 30
0.0
 10
184.1507024372297
 20
157.2691016610636
 30
0.0
 10
184.4921988445119
 20
157.4874758273712
 30
0.0
 10
184.8415394644124
 20
157.6399558687817
 30
0.0
 10
185.0451065812447
 20
157.7011501524213
 30
0.0
 10
185.0842819653651
 20
157.7129266593781
 30
0.0
  0
SPLINE
  5
1B8
330
1F
100
AcDbEntity
  8
0
  6
Continuous
 62
     7
370
    25
100
AcDbSpline
210
0.0
220
0.0
230
1.0
 70
     8
 71
     3
 72
    11
 73
     7
 74
     0
 42
0.000000001
 43
0.00000001
 40
0.0
 40
0.0
 40
0.0
 40
0.0
 40
0.2470280283805195
 40
0.495224018032252
 40
0.7470074342714768
 40
1.0
 40
1.0
 40
1.0
 40
1.0
 10
186.6937524459442
 20
164.1681601759735
 30
0.0
 10
186.518170918637
 20
164.1783532746566
 30
0.0
 10
186.1661777054971
 20
164.1987876655198
 30
0.0
 10
185.6374648484012
 20
164.2222874082149
 30
0.0
 10
185.1085638030146
 20
164.240955602207
 30
0.0
 10
184.7606114923275
 20
164.2485367644276
 30
0.0
 10
184.5862185913643
 20
164.2523364255642
 30
0.0
  0
LINE
  5
1B9
330
1F
100
AcDbEntity
  8
0
  6
Continuous
 62
     7
370
    25
100
AcDbLine
 10
210.0849380572
 20
142.9892893832
 30
0.0
 11
223.9847515619
 21
139.5236766422
 31
0.0
  0
LINE
  5
1BA
330
1F
100
AcDbEntity
  8
0
  6
Continuous
 62
     7
370
    25
100
AcDbLine
 10
210.0849380572
 20
142.9892893832
 30
0.0
 11
210.7816731165
 21
145.7837410749
 31
0.0
  0
LINE
  5
1BB
330
1F
100
AcDbEntity
  8
0
  6
Continuous
 62
     7
370
    25
100
AcDbLine
 10
210.7816731165
 20
145.7837410749
 30
0.0
 11
224.6814866212
 21
142.3181283338
 31
0.0
  0
LINE
  5
1BC
330
1F
100
AcDbEntity
  8
0
  6
Continuous
 62
     7
370
    25
100
AcDbLine
 10
223.8246429276
 20
139.2544121194
 30
0.0
 11
210.0123614885
 21
142.6982006653
 31
0.0
  0
LINE
  5
1BD
330
1F
100
AcDbEntity
  8
0
  6
Continuous
 62
     7
370
    25
100
AcDbLine
 10
210.0849380572
 20
142.9892893832
 30
0.0
 11
210.0123614885
 21
142.6982006653
 31
0.0
  0
LINE
  5
1BE
330
1F
100
AcDbEntity
  8
0
  6
Continuous
 62
     7
370
    25
100
AcDbLine
 10
209.1169197537
 20
143.2306434535
 30
0.0
 11
210.0849380572
 21
142.9892893832
 31
0.0
  0
LINE
  5
1BF
330
1F
100
AcDbEntity
  8
0
  6
Continuous
 62
     7
370
    25
100
AcDbLine
 10
209.8136548131
 20
146.0250951452
 30
0.0
 11
210.7816731165
 21
145.7837410749
 31
0.0
  0
LINE
  5
1C0
330
1F
100
AcDbEntity
  8
0
  6
Continuous
 62
     7
370
    25
100
AcDbLine
 10
210.0123614885
 20
142.6982006653
 30
0.0
 11
209.5283523368
 21
142.8188777005
 31
0.0
  0
LINE
  5
1C1
330
1F
100
AcDbEntity
  8
0
  6
Continuous
 62
     7
370
    25
100
AcDbLine
 10
223.9847515619
 20
139.5236766422
 30
0.0
 11
224.324012649
 21
139.4390893529
 31
0.0
  0
LINE
  5
1C2
330
1F
100
AcDbEntity
  8
0
  6
Continuous
 62
     7
370
    25
100
AcDbLine
 10
223.9603473624
 20
139.2205772037
 30
0.0
 11
223.8246429276
 21
139.2544121194
 31
0.0
  0
LINE
  5
1C3
330
1F
100
AcDbEntity
  8
0
  6
Continuous
 62
     7
370
    25
100
AcDbLine
 10
197.7399124223
 20
153.941138098
 30
0.0
 11
208.940895278
 21
151.1484194127
 31
0.0
  0
LINE
  5
1C4
330
1F
100
AcDbEntity
  8
0
  6
Continuous
 62
     7
370
    25
100
AcDbLine
 10
210.4576852917
 20
150.7702411879
 30
0.0
 11
211.8165119187
 21
150.4314476587
 31
0.0
  0
LINE
  5
1C5
330
1F
100
AcDbEntity
  8
0
  6
Continuous
 62
     7
370
    25
100
AcDbLine
 10
209.8136548131
 20
146.0250951452
 30
0.0
 11
210.6649636957
 21
145.8128400017
 31
0.0
  0
LINE
  5
1C6
330
1F
100
AcDbEntity
  8
0
  6
Continuous
 62
     7
370
    25
100
AcDbLine
 10
211.8165119187
 20
150.4314476587
 30
0.0
 11
212.0499307604
 21
150.3732498051
 31
0.0
  0
LINE
  5
1C7
330
1F
100
AcDbEntity
  8
0
  6
Continuous
 62
     7
370
    25
100
AcDbLine
 10
212.0499307604
 20
150.3732498051
 30
0.0
 11
226.1265302569
 21
146.8635593658
 31
0.0
  0
LINE
  5
1C8
330
1F
100
AcDbEntity
  8
0
  6
Continuous
 62
     7
370
    25
100
AcDbLine
 10
210.8983825374
 20
145.754642148
 30
0.0
 11
224.9749820338
 21
142.2449517088
 31
0.0
  0
LINE
  5
1C9
330
1F
100
AcDbEntity
  8
0
  6
Continuous
 62
     7
370
    25
100
AcDbLine
 10
197.4685035526
 20
154.0088079294
 30
0.0
 11
197.7399124223
 21
153.941138098
 31
0.0
  0
LINE
  5
1CA
330
1F
100
AcDbEntity
  8
0
  6
Continuous
 62
     7
370
    25
100
AcDbLine
 10
226.1265302569
 20
146.8635593658
 30
0.0
 11
226.3979391266
 21
146.7958895344
 31
0.0
  0
LINE
  5
1CB
330
1F
100
AcDbEntity
  8
0
  6
Continuous
 62
     7
370
    25
100
AcDbLine
 10
224.9749820338
 20
142.2449517088
 30
0.0
 11
225.2463909035
 21
142.1772818773
 31
0.0
  0
LINE
  5
1CC
330
1F
100
AcDbEntity
  8
0
  6
Continuous
 62
     7
370
    25
100
AcDbLine
 10
126.3979391266
 20
146.7958895344
 30
0.0
 11
126.3979391266
 21
177.7958895344
 31
0.0
  0
LINE
  5
1CD
330
1F
100
AcDbEntity
  8
0
  6
Continuous
 62
     7
370
    25
100
AcDbLine
 10
126.3979391266
 20
115.7958895344
 30
0.0
 11
126.3979391266
 21
146.7958895344
 31
0.0
  0
SPLINE
  5
1CE
330
1F
100
AcDbEntity
  8
0
  6
Continuous
 62
     7
370
    25
100
AcDbSpline
210
0.0
220
0.0
230
1.0
 70
     8
 71
     3
 72
    37
 73
    33
 74
     0
 42
0.000000001
 43
0.00000001
 40
0.0
 40
0.0
 40
0.0
 40
0.0
 40
0.0185509412739219
 40
0.0448960276779707
 40
0.0731462393892922
 40
0.125751993523234
 40
0.1520773800144542
 40
0.1802986053596607
 40
0.2329776072793127
 40
0.259339652940138
 40
0.2875994829792058
 40
0.3139975728363507
 40
0.3403956780853588
 40
0.3667938033283239
 40
0.3950999059521768
 40
0.4478089851195315
 40
0.4741862410694483
 40
0.502474045347762
 40
0.5550926038983217
 40
0.5814244673612818
 40
0.6096577385010228
 40
0.662278442531155
 40
0.6886112934680119
 40
0.7168390293928806
 40
0.7695510366235717
 40
0.7959296328964224
 40
0.8242093254565701
 40
0.8506070743373328
 40
0.877004844383087
 40
0.9034026370540966
 40
0.9317108142293516
 40
0.9999999999999999
 40
0.9999999999999999
 40
0.9999999999999999
 40
0.9999999999999999
 10
136.4041858089707
 20
115.2962852959118
 30
0.0
 10
136.4023089812855
 20
115.2961665008327
 30
0.0
 10
136.3977667800864
 20
115.2958789991323
 30
0.0
 10
136.4168784765306
 20
115.2970897458506
 30
0.0
 10
136.4568015989935
 20
115.299586739512
 30
0.0
 10
136.5267421840424
 20
115.3038574781057
 30
0.0
 10
136.6215481065445
 20
115.3093286375756
 30
0.0
 10
136.7335814582017
 20
115.3155156151334
 30
0.0
 10
136.8699933457615
 20
115.3224900985999
 30
0.0
 10
137.026969462753
 20
115.3296476122207
 30
0.0
 10
137.155522419916
 20
115.3350006505139
 30
0.0
 10
137.2931344638911
 20
115.3401393296186
 30
0.0
 10
137.4351811970293
 20
115.3448188503392
 30
0.0
 10
137.5874439165521
 20
115.3491297312664
 30
0.0
 10
137.7969119180159
 20
115.3540167153882
 30
0.0
 10
138.0160766414236
 20
115.3574600878169
 30
0.0
 10
138.2393768985573
 20
115.3592008857833
 30
0.0
 10
138.4640732059694
 20
115.3597314785175
 30
0.0
 10
138.688865238673
 20
115.358428339517
 30
0.0
 10
138.9082974325064
 20
115.355448843447
 30
0.0
 10
139.1228749513193
 20
115.351404584994
 30
0.0
 10
139.3281521446743
 20
115.3459412523888
 30
0.0
 10
139.5194018890074
 20
115.3395554642204
 30
0.0
 10
139.7000918331447
 20
115.3327058301743
 30
0.0
 10
139.8631280881639
 20
115.3254642573319
 30
0.0
 10
140.004971532559
 20
115.3184524851018
 30
0.0
 10
140.100448393261
 20
115.3134205887966
 30
0.0
 10
140.1834949246162
 20
115.3088074963827
 30
0.0
 10
140.2524655218109
 20
115.304811419197
 30
0.0
 10
140.3096704089021
 20
115.30138570853
 30
0.0
 10
140.3775896675094
 20
115.2971977749231
 30
0.0
 10
140.3895112226403
 20
115.2964313535043
 30
0.0
 10
140.3979391265518
 20
115.2958895344209
 30
0.0
  0
SPLINE
  5
1CF
330
1F
100
AcDbEntity
  8
0
  6
Continuous
 62
     7
370
    25
100
AcDbSpline
210
0.0
220
0.0
230
1.0
 70
     8
 71
     3
 72
    12
 73
     8
 74
     0
 42
0.000000001
 43
0.00000001
 40
0.0
 40
0.0
 40
0.0
 40
0.0
 40
0.4999999999999989
 40
0.4999999999999989
 40
0.7499999999999994
 40
0.7499999999999994
 40
1.0
 40
1.0
 40
1.0
 40
1.0
 10
136.492683238226
 20
116.8951470743036
 30
0.0
 10
136.5234054801451
 20
116.8578450913506
 30
0.0
 10
136.5662426946803
 20
116.8212332593042
 30
0.0
 10
136.6656697188801
 20
116.773468476019
 30
0.0
 10
136.7054219136967
 20
116.7585109605366
 30
0.0
 10
136.8034633705549
 20
116.7353210147675
 30
0.0
 10
136.8630194261424
 20
116.7273975755477
 30
0.0
 10
136.9256959401182
 20
116.7273975755477
 30
0.0
  0
LINE
  5
1D0
330
1F
100
AcDbEntity
  8
0
  6
Continuous
 62
     7
370
    25
100
AcDbLine
 10
136.9256959401
 20
116.7273975755
 30
0.0
 11
139.870182313
 21
116.7273975755
 31
0.0
  0
SPLINE
  5
1D1
330
1F
100
AcDbEntity
  8
0
  6
Continuous
 62
     7
370
    25
100
AcDbSpline
210
0.0
220
0.0
230
1.0
 70
     8
 71
     3
 72
    12
 73
     8
 74
     0
 42
0.000000001
 43
0.00000001
 40
0.0
 40
0.0
 40
0.0
 40
0.0
 40
0.2500000000000009
 40
0.2500000000000009
 40
0.5000000000000019
 40
0.5000000000000019
 40
1.0
 40
1.0
 40
1.0
 40
1.0
 10
139.8701823129853
 20
116.7273975755477
 30
0.0
 10
139.9332623514787
 20
116.7273975755477
 30
0.0
 10
139.9924109736601
 20
116.7353035017602
 30
0.0
 10
140.0908835237292
 20
116.7586286631964
 30
0.0
 10
140.1299201357139
 20
116.7733414530281
 30
0.0
 10
140.2298166024929
 20
116.821297253759
 30
0.0
 10
140.2722374835596
 20
116.8575594103391
 30
0.0
 10
140.3031950148776
 20
116.8951470743036
 30
0.0
  0
ELLIPSE
  5
1D2
330
1F
100
AcDbEntity
  8
0
  6
Continuous
 62
     7
370
    25
100
AcDbEllipse
 10
124.0507849372
 20
146.7958895344
 30
0.0
 11
-14.75368316065623
 21
31.09325491558113
 31
0.0
210
0.0
220
0.0
230
1.0
 40
0.3419987131
 41
3.300734856217117
 42
4.231496223360767
  0
SPLINE
  5
1D3
330
1F
100
AcDbEntity
  8
0
  6
Continuous
 62
     7
370
    25
100
AcDbSpline
210
0.0
220
0.0
230
1.0
 70
     8
 71
     3
 72
    12
 73
     8
 74
     0
 42
0.000000001
 43
0.00000001
 40
0.0
 40
0.0
 40
0.0
 40
0.0
 40
0.5000000000000028
 40
0.5000000000000028
 40
0.7500000000000013
 40
0.7500000000000013
 40
1.0
 40
1.0
 40
1.0
 40
1.0
 10
140.3031950148776
 20
136.8865202137354
 30
0.0
 10
140.2724727729585
 20
136.9990760131446
 30
0.0
 10
140.2296355584233
 20
137.1118338728842
 30
0.0
 10
140.1302085342235
 20
137.2613747586805
 30
0.0
 10
140.0904563394069
 20
137.3086674903874
 30
0.0
 10
139.9924148825486
 20
137.3824037837088
 30
0.0
 10
139.9328588269612
 20
137.4078231030845
 30
0.0
 10
139.8701823129853
 20
137.4078231030845
 30
0.0
  0
LINE
  5
1D4
330
1F
100
AcDbEntity
  8
0
  6
Continuous
 62
     7
370
    25
100
AcDbLine
 10
139.870182313
 20
137.4078231031
 30
0.0
 11
136.9256959401
 21
137.4078231031
 31
0.0
  0
SPLINE
  5
1D5
330
1F
100
AcDbEntity
  8
0
  6
Continuous
 62
     7
370
    25
100
AcDbSpline
210
0.0
220
0.0
230
1.0
 70
     8
 71
     3
 72
    12
 73
     8
 74
     0
 42
0.000000001
 43
0.00000001
 40
0.0
 40
0.0
 40
0.0
 40
0.0
 40
0.2499999999999996
 40
0.2499999999999996
 40
0.4999999999999991
 40
0.4999999999999991
 40
1.0
 40
1.0
 40
1.0
 40
1.0
 10
136.9256959401182
 20
137.4078231030845
 30
0.0
 10
136.8626159016249
 20
137.4078231030845
 30
0.0
 10
136.8034672794435
 20
137.3824587838696
 30
0.0
 10
136.7049947293744
 20
137.3082939234967
 30
0.0
 10
136.6659581173897
 20
137.2617735829426
 30
0.0
 10
136.5660616506106
 20
137.1116312400973
 30
0.0
 10
136.523640769544
 20
136.9999380331251
 30
0.0
 10
136.492683238226
 20
136.8865202137354
 30
0.0
  0
ELLIPSE
  5
1D6
330
1F
100
AcDbEntity
  8
0
  6
Continuous
 62
     7
370
    25
100
AcDbEllipse
 10
152.7450933159
 20
146.7958895344
 30
0.0
 11
14.75368316065621
 21
31.09325491558113
 31
0.0
210
0.0
220
0.0
230
1.0
 40
0.3419987131
 41
2.05168908381883
 42
2.982450450962503
  0
SPLINE
  5
1D7
330
1F
100
AcDbEntity
  8
0
  6
Continuous
 62
     7
370
    25
100
AcDbSpline
210
0.0
220
0.0
230
1.0
 70
     8
 71
     3
 72
    12
 73
     8
 74
     0
 42
0.000000001
 43
0.00000001
 40
0.0
 40
0.0
 40
0.0
 40
0.0
 40
0.499999999999999
 40
0.499999999999999
 40
0.7499999999999994
 40
0.7499999999999994
 40
1.0
 40
1.0
 40
1.0
 40
1.0
 10
136.492683238226
 20
156.7052588551062
 30
0.0
 10
136.5238284361881
 20
156.5911534892409
 30
0.0
 10
136.5661027025225
 20
156.4800471620221
 30
0.0
 10
136.6660482363478
 20
156.3298895545919
 30
0.0
 10
136.7057785410519
 20
156.2828968629745
 30
0.0
 10
136.8026665910581
 20
156.209921278436
 30
0.0
 10
136.8627318328047
 20
156.183955965757
 30
0.0
 10
136.9256959401182
 20
156.183955965757
 30
0.0
  0
LINE
  5
1D8
330
1F
100
AcDbEntity
  8
0
  6
Continuous
 62
     7
370
    25
100
AcDbLine
 10
136.9256959401
 20
156.1839559658
 30
0.0
 11
139.870182313
 21
156.1839559658
 31
0.0
  0
SPLINE
  5
1D9
330
1F
100
AcDbEntity
  8
0
  6
Continuous
 62
     7
370
    25
100
AcDbSpline
210
0.0
220
0.0
230
1.0
 70
     8
 71
     3
 72
    12
 73
     8
 74
     0
 42
0.000000001
 43
0.00000001
 40
0.0
 40
0.0
 40
0.0
 40
0.0
 40
0.2500000000000018
 40
0.2500000000000018
 40
0.5000000000000037
 40
0.5000000000000037
 40
1.0
 40
1.0
 40
1.0
 40
1.0
 10
139.8701823129853
 20
156.1839559657571
 30
0.0
 10
139.9332392678832
 20
156.1839559657571
 30
0.0
 10
139.9923694176287
 20
156.2093023191378
 30
0.0
 10
140.090816968162
 20
156.2834217012773
 30
0.0
 10
140.1298492063501
 20
156.3299182159753
 30
0.0
 10
140.229739090807
 20
156.4799927229839
 30
0.0
 10
140.2720380644164
 20
156.5911104320987
 30
0.0
 10
140.3031950148776
 20
156.7052588551062
 30
0.0
  0
ELLIPSE
  5
1DA
330
1F
100
AcDbEntity
  8
0
  6
Continuous
 62
     7
370
    25
100
AcDbEllipse
 10
124.0507849372
 20
146.7958895344
 30
0.0
 11
14.75368316065614
 21
31.09325491558113
 31
0.0
210
0.0
220
0.0
230
1.0
 40
0.3419987131
 41
5.193281737408628
 42
6.124043104552332
  0
SPLINE
  5
1DB
330
1F
100
AcDbEntity
  8
0
  6
Continuous
 62
     7
370
    25
100
AcDbSpline
210
0.0
220
0.0
230
1.0
 70
     8
 71
     3
 72
    12
 73
     8
 74
     0
 42
0.000000001
 43
0.00000001
 40
0.0
 40
0.0
 40
0.0
 40
0.0
 40
0.4999999999999991
 40
0.4999999999999991
 40
0.7499999999999996
 40
0.7499999999999996
 40
1.0
 40
1.0
 40
1.0
 40
1.0
 10
140.3031950148776
 20
176.6966319945382
 30
0.0
 10
140.2720498169155
 20
176.7344475174583
 30
0.0
 10
140.229775550581
 20
176.770514375542
 30
0.0
 10
140.1298300167557
 20
176.8184744405532
 30
0.0
 10
140.0900997120517
 20
176.8333354144509
 30
0.0
 10
139.9932116620454
 20
176.856286560582
 30
0.0
 10
139.9331464202989
 20
176.864381493294
 30
0.0
 10
139.8701823129854
 20
176.864381493294
 30
0.0
  0
LINE
  5
1DC
330
1F
100
AcDbEntity
  8
0
  6
Continuous
 62
     7
370
    25
100
AcDbLine
 10
139.870182313
 20
176.8643814933
 30
0.0
 11
136.9256959401
 21
176.8643814933
 31
0.0
  0
SPLINE
  5
1DD
330
1F
100
AcDbEntity
  8
0
  6
Continuous
 62
     7
370
    25
100
AcDbSpline
210
0.0
220
0.0
230
1.0
 70
     8
 71
     3
 72
    12
 73
     8
 74
     0
 42
0.000000001
 43
0.00000001
 40
0.0
 40
0.0
 40
0.0
 40
0.0
 40
0.2500000000000005
 40
0.2500000000000005
 40
0.500000000000001
 40
0.500000000000001
 40
1.0
 40
1.0
 40
1.0
 40
1.0
 10
136.9256959401182
 20
176.864381493294
 30
0.0
 10
136.8626389852204
 20
176.864381493294
 30
0.0
 10
136.8035088354748
 20
176.8564811622144
 30
0.0
 10
136.7050612849416
 20
176.8331704142094
 30
0.0
 10
136.6660290467535
 20
176.8184652879258
 30
0.0
 10
136.5661391622965
 20
176.7705317597391
 30
0.0
 10
136.5238401886872
 20
176.7344617869744
 30
0.0
 10
136.4926832382259
 20
176.6966319945382
 30
0.0
  0
ELLIPSE
  5
1DE
330
1F
100
AcDbEntity
  8
0
  6
Continuous
 62
     7
370
    25
100
AcDbEllipse
 10
152.7450933159
 20
146.7958895344
 30
0.0
 11
-14.75368316065618
 21
31.09325491558113
 31
0.0
210
0.0
220
0.0
230
1.0
 40
0.3419987131
 41
0.1591422026272951
 42
1.08990356977097
  0
LINE
  5
1DF
330
1F
100
AcDbEntity
  8
0
  6
Continuous
 62
     7
370
    25
100
AcDbLine
 10
167.4832027145
 20
164.3615723758
 30
0.0
 11
163.7495136848
 21
178.2958895344
 31
0.0
  0
SPLINE
  5
1E0
330
1F
100
AcDbEntity
  8
0
  6
Continuous
 62
     7
370
    25
100
AcDbSpline
210
0.0
220
0.0
230
1.0
 70
     8
 71
     3
 72
     8
 73
     4
 74
     0
 42
0.000000001
 43
0.00000001
 40
0.0
 40
0.0
 40
0.0
 40
0.0
 40
1.0
 40
1.0
 40
1.0
 40
1.0
 10
167.9070999756424
 20
163.2414184485122
 30
0.0
 10
167.7257773225275
 20
163.6057949451356
 30
0.0
 10
167.5846353951192
 20
163.9830204582124
 30
0.0
 10
167.4832027145176
 20
164.3615723757653
 30
0.0
  0
ELLIPSE
  5
1E1
330
1F
100
AcDbEntity
  8
0
  6
Continuous
 62
     7
370
    25
100
AcDbEllipse
 10
211.7650179348
 20
146.7958895344
 30
0.0
 11
56.67482294138177
 21
6.208611295356293
 31
0.0
210
0.0
220
0.0
230
1.0
 40
0.5448995328
 41
2.393906681280352
 42
4.172575682229332
  0
SPLINE
  5
1E2
330
1F
100
AcDbEntity
  8
0
  6
Continuous
 62
     7
370
    25
100
AcDbSpline
210
0.0
220
0.0
230
1.0
 70
     8
 71
     3
 72
     8
 73
     4
 74
     0
 42
0.000000001
 43
0.00000001
 40
0.0
 40
0.0
 40
0.0
 40
0.0
 40
1.0
 40
1.0
 40
1.0
 40
1.0
 10
185.5375404955432
 20
117.1140173599192
 30
0.0
 10
187.1580444933402
 20
116.7746005783474
 30
0.0
 10
188.882569852332
 20
116.5544333283352
 30
0.0
 10
190.6998006938707
 20
116.4000257466392
 30
0.0
  0
ELLIPSE
  5
1E3
330
1F
100
AcDbEntity
  8
0
  6
Continuous
 62
     7
370
    25
100
AcDbEllipse
 10
225.3002305869
 20
146.7958895344
 30
0.0
 11
103.2596818014367
 21
2.63979148712886
 31
0.0
210
0.0
220
0.0
230
1.0
 40
0.3039830597
 41
4.362936729228823
 42
4.623714548403311
  0
LINE
  5
1E4
330
1F
100
AcDbEntity
  8
0
  6
Continuous
 62
     7
370
    25
100
AcDbLine
 10
216.9549416534
 20
115.2958895344
 30
0.0
 11
216.9550311191
 21
115.2962483618
 31
0.0
  0
SPLINE
  5
1E5
330
1F
100
AcDbEntity
  8
0
  6
Continuous
 62
     7
370
    25
100
AcDbSpline
210
0.0
220
0.0
230
1.0
 70
     8
 71
     3
 72
    37
 73
    33
 74
     0
 42
0.000000001
 43
0.00000001
 40
0.0
 40
0.0
 40
0.0
 40
0.0
 40
0.0351152275744428
 40
0.0710899932714261
 40
0.1416633483731637
 40
0.1721142880194922
 40
0.2032275805118346
 40
0.2347571171663406
 40
0.2547946090016974
 40
0.2748311737395873
 40
0.3157537854602599
 40
0.3572126628356075
 40
0.3828379227423392
 40
0.4084623252776753
 40
0.4607821419837277
 40
0.5138243276658733
 40
0.5397542056826894
 40
0.5656841821129569
 40
0.6185196817751764
 40
0.645288342107605
 40
0.6721532015471547
 40
0.708357003102414
 40
0.7450917666557976
 40
0.782280395847149
 40
0.8020527598380004
 40
0.8353832326085043
 40
0.8624972795348541
 40
0.8939448290274421
 40
0.9262331154081298
 40
0.9577193896894899
 40
0.9903184115916581
 40
1.0
 40
1.0
 40
1.0
 40
1.0
 10
199.8204283012907
 20
115.2958895344209
 30
0.0
 10
199.8276872322855
 20
115.2964246414924
 30
0.0
 10
199.8423827758209
 20
115.297507953797
 30
0.0
 10
199.9962061536672
 20
115.3086281685
 30
0.0
 10
200.2689330672612
 20
115.3272883591117
 30
0.0
 10
200.6156911816242
 20
115.3482020103099
 30
0.0
 10
200.889258330164
 20
115.3633376730481
 30
0.0
 10
201.1537353213641
 20
115.3765128335257
 30
0.0
 10
201.3948485538712
 20
115.3873519767802
 30
0.0
 10
201.6767826140485
 20
115.3989491859369
 30
0.0
 10
202.0485328558777
 20
115.4120576357198
 30
0.0
 10
202.4555370440056
 20
115.4230445137768
 30
0.0
 10
202.8117278760066
 20
115.4302368588177
 30
0.0
 10
203.2140176882426
 20
115.436287740422
 30
0.0
 10
203.728774534666
 20
115.4400200186933
 30
0.0
 10
204.245873235016
 20
115.4384062605419
 30
0.0
 10
204.6559982248973
 20
115.4340575566681
 30
0.0
 10
205.0623157886146
 20
115.4277951940207
 30
0.0
 10
205.465952272901
 20
115.418665588593
 30
0.0
 10
205.8622085865331
 20
115.4070131981558
 30
0.0
 10
206.1891128889094
 20
115.3959488727524
 30
0.0
 10
206.5404068942387
 20
115.3822825360294
 30
0.0
 10
206.9080842907199
 20
115.3659672102967
 30
0.0
 10
207.1984914456124
 20
115.3515908641989
 30
0.0
 10
207.4558992661984
 20
115.3379592202642
 30
0.0
 10
207.6633967222595
 20
115.3263176536288
 30
0.0
 10
207.8652050270433
 20
115.314401020638
 30
0.0
 10
208.0229683344994
 20
115.3046989514333
 30
0.0
 10
208.1317858707153
 20
115.2977997999219
 30
0.0
 10
208.1704944630632
 20
115.2952966119797
 30
0.0
 10
208.157374366848
 20
115.2961703674153
 30
0.0
 10
208.1132880866801
 20
115.2989585127085
 30
0.0
 10
208.1031930285457
 20
115.2995969537091
 30
0.0
  0
ARC
  5
1E6
330
1F
100
AcDbEntity
  8
0
  6
Continuous
 62
     7
370
    25
100
AcDbCircle
 10
173.2787576723
 20
165.9144866464
 30
0.0
 40
5.999999999999995
100
AcDbArc
 50
206.4560604752
 51
256.0
  0
LINE
  5
1E7
330
1F
100
AcDbEntity
  8
0
  6
Continuous
 62
     7
370
    25
100
AcDbLine
 10
194.8237653932
 20
154.359031124
 30
0.0
 11
171.8272262987
 21
160.0927122887
 31
0.0
  0
LINE
  5
1E8
330
1F
100
AcDbEntity
  8
0
  6
Continuous
 62
     7
370
    25
100
AcDbLine
 10
126.1979391266
 20
130.0056881807
 30
0.0
 11
126.1979391266
 21
124.2560692555
 31
0.0
  0
SPLINE
  5
1E9
330
1F
100
AcDbEntity
  8
0
  6
Continuous
 62
     7
370
    25
100
AcDbSpline
210
0.0
220
0.0
230
1.0
 70
     8
 71
     3
 72
    16
 73
    12
 74
     0
 42
0.000000001
 43
0.00000001
 40
0.0
 40
0.0
 40
0.0
 40
0.0
 40
0.5000000000000043
 40
0.5000000000000043
 40
0.7499999999999989
 40
0.7499999999999989
 40
0.8749999999999994
 40
0.8749999999999994
 40
0.9374999999999997
 40
0.9374999999999997
 40
1.0
 40
1.0
 40
1.0
 40
1.0
 10
126.1979391265518
 20
130.0056881806798
 30
0.0
 10
126.1979391265518
 20
130.0855118916602
 30
0.0
 10
126.1937928514739
 20
130.1673680095443
 30
0.0
 10
126.1678272560803
 20
130.2961831306283
 30
0.0
 10
126.1563663507029
 20
130.3409738023298
 30
0.0
 10
126.1220546129285
 20
130.4071046100612
 30
0.0
 10
126.1080298769989
 20
130.4299516682642
 30
0.0
 10
126.0720069139651
 20
130.4563824215065
 30
0.0
 10
126.0572524048754
 20
130.4628100906487
 30
0.0
 10
126.0279002437286
 20
130.4657710138039
 30
0.0
 10
126.0145603692245
 20
130.4627896222958
 30
0.0
 10
126.0029622376762
 20
130.4580466346145
 30
0.0
  0
SPLINE
  5
1EA
330
1F
100
AcDbEntity
  8
0
  6
Continuous
 62
     7
370
    25
100
AcDbSpline
210
0.0
220
0.0
230
1.0
 70
     8
 71
     3
 72
    12
 73
     8
 74
     0
 42
0.000000001
 43
0.00000001
 40
0.0
 40
0.0
 40
0.0
 40
0.0
 40
0.2499999999999999
 40
0.2499999999999999
 40
0.5000000000000002
 40
0.5000000000000002
 40
1.0
 40
1.0
 40
1.0
 40
1.0
 10
126.0029622376832
 20
130.4580466346091
 30
0.0
 10
125.972770395966
 20
130.4456998585145
 30
0.0
 10
125.9394114265514
 20
130.4352021720447
 30
0.0
 10
125.8662741419708
 20
130.4217811174655
 30
0.0
 10
125.8260322693168
 20
130.4191707062186
 30
0.0
 10
125.7083264923483
 20
130.4271411589607
 30
0.0
 10
125.6379160145689
 20
130.4522289165786
 30
0.0
 10
125.5814268401006
 20
130.4815185589068
 30
0.0
  0
SPLINE
  5
1EB
330
1F
100
AcDbEntity
  8
0
  6
Continuous
 62
     7
370
    25
100
AcDbSpline
210
0.0
220
0.0
230
1.0
 70
     8
 71
     3
 72
    12
 73
     8
 74
     0
 42
0.000000001
 43
0.00000001
 40
0.0
 40
0.0
 40
0.0
 40
0.0
 40
0.2500000000000003
 40
0.2500000000000003
 40
0.5000000000000033
 40
0.5000000000000033
 40
1.0
 40
1.0
 40
1.0
 40
1.0
 10
125.5814268401003
 20
130.4815185589067
 30
0.0
 10
125.4932729023625
 20
130.5272263839984
 30
0.0
 10
125.4329194777338
 20
130.5826436223176
 30
0.0
 10
125.326657519667
 20
130.7009363493729
 30
0.0
 10
125.2844253531049
 20
130.7627314647818
 30
0.0
 10
125.1733546577877
 20
130.9541520912967
 30
0.0
 10
125.1204178813609
 20
131.0898987561822
 30
0.0
 10
125.0766187829921
 20
131.232688289996
 30
0.0
  0
SPLINE
  5
1EC
330
1F
100
AcDbEntity
  8
0
  6
Continuous
 62
     7
370
    25
100
AcDbSpline
210
0.0
220
0.0
230
1.0
 70
     8
 71
     3
 72
    12
 73
     8
 74
     0
 42
0.000000001
 43
0.00000001
 40
0.0
 40
0.0
 40
0.0
 40
0.0
 40
0.4999999999999998
 40
0.4999999999999998
 40
0.7499999999999999
 40
0.7499999999999999
 40
1.0
 40
1.0
 40
1.0
 40
1.0
 10
125.0766187829921
 20
140.2154057243195
 30
0.0
 10
125.1203653238287
 20
140.4545796513661
 30
0.0
 10
125.1732496790602
 20
140.692022506282
 30
0.0
 10
125.2848167663964
 20
141.0408605426976
 30
0.0
 10
125.3274003629394
 20
141.1557694503081
 30
0.0
 10
125.4323170900212
 20
141.3756518952183
 30
0.0
 10
125.493850697866
 20
141.4840128162326
 30
0.0
 10
125.5814268400921
 20
141.5710184038318
 30
0.0
  0
SPLINE
  5
1ED
330
1F
100
AcDbEntity
  8
0
  6
Continuous
 62
     7
370
    25
100
AcDbSpline
210
0.0
220
0.0
230
1.0
 70
     8
 71
     3
 72
    12
 73
     8
 74
     0
 42
0.000000001
 43
0.00000001
 40
0.0
 40
0.0
 40
0.0
 40
0.0
 40
0.4999999999999997
 40
0.4999999999999997
 40
0.7499999999999998
 40
0.7499999999999998
 40
1.0
 40
1.0
 40
1.0
 40
1.0
 10
125.5814268400953
 20
141.5710184038319
 30
0.0
 10
125.6378633410025
 20
141.6270872234737
 30
0.0
 10
125.7069479716912
 20
141.6741999022281
 30
0.0
 10
125.8257502434092
 20
141.6855203487239
 30
0.0
 10
125.8659355188793
 20
141.6785194582324
 30
0.0
 10
125.9393165662831
 20
141.6483081615736
 30
0.0
 10
125.9727261300257
 20
141.625729351192
 30
0.0
 10
126.0029622376821
 20
141.5996420298378
 30
0.0
  0
SPLINE
  5
1EE
330
1F
100
AcDbEntity
  8
0
  6
Continuous
 62
     7
370
    25
100
AcDbSpline
210
0.0
220
0.0
230
1.0
 70
     8
 71
     3
 72
    16
 73
    12
 74
     0
 42
0.000000001
 43
0.00000001
 40
0.0
 40
0.0
 40
0.0
 40
0.0
 40
0.0624999999999986
 40
0.0624999999999986
 40
0.1249999999999973
 40
0.1249999999999973
 40
0.2499999999999998
 40
0.2499999999999998
 40
0.4999999999999999
 40
0.4999999999999999
 40
1.0
 40
1.0
 40
1.0
 40
1.0
 10
126.002962237645
 20
141.5996420297809
 30
0.0
 10
126.0145426452329
 20
141.5896506043711
 30
0.0
 10
126.0278521719941
 20
141.5813931979894
 30
0.0
 10
126.0571536020803
 20
141.5756439131773
 30
0.0
 10
126.0719677019646
 20
141.5792542118854
 30
0.0
 10
126.1077961036674
 20
141.602174671168
 30
0.0
 10
126.1219157280305
 20
141.6279701794136
 30
0.0
 10
126.1564198721189
 20
141.7061252038326
 30
0.0
 10
126.1675244228236
 20
141.7622680465686
 30
0.0
 10
126.1937006000398
 20
141.9331741021023
 30
0.0
 10
126.1979391265518
 20
142.0503891946811
 30
0.0
 10
126.1979391265518
 20
142.1679537939029
 30
0.0
  0
LINE
  5
1EF
330
1F
100
AcDbEntity
  8
0
  6
Continuous
 62
     7
370
    25
100
AcDbLine
 10
126.1979391266
 20
168.2140266287
 30
0.0
 11
126.1979391266
 21
142.1679537939
 31
0.0
  0
SPLINE
  5
1F0
330
1F
100
AcDbEntity
  8
0
  6
Continuous
 62
     7
370
    25
100
AcDbSpline
210
0.0
220
0.0
230
1.0
 70
     8
 71
     3
 72
    16
 73
    12
 74
     0
 42
0.000000001
 43
0.00000001
 40
0.0
 40
0.0
 40
0.0
 40
0.0
 40
0.499999999999994
 40
0.499999999999994
 40
0.7499999999999944
 40
0.7499999999999944
 40
0.8749999999999972
 40
0.8749999999999972
 40
0.9374999999999987
 40
0.9374999999999987
 40
1.0
 40
1.0
 40
1.0
 40
1.0
 10
126.1979391265518
 20
168.21402662868
 30
0.0
 10
126.1979391265518
 20
168.2513004695902
 30
0.0
 10
126.1937928514738
 20
168.2855965616089
 30
0.0
 10
126.1678272560803
 20
168.3276947507452
 30
0.0
 10
126.1563663507029
 20
168.3406083923099
 30
0.0
 10
126.1220546129285
 20
168.3523202430494
 30
0.0
 10
126.108029876999
 20
168.3553336749056
 30
0.0
 10
126.0720069139651
 20
168.3520362121297
 30
0.0
 10
126.0572524048755
 20
168.3492147271419
 30
0.0
 10
126.0279002437286
 20
168.3405329861505
 30
0.0
 10
126.0145603692245
 20
168.3352436685434
 30
0.0
 10
126.0029622376762
 20
168.3299799388178
 30
0.0
  0
SPLINE
  5
1F1
330
1F
100
AcDbEntity
  8
0
  6
Continuous
 62
     7
370
    25
100
AcDbSpline
210
0.0
220
0.0
230
1.0
 70
     8
 71
     3
 72
    12
 73
     8
 74
     0
 42
0.000000001
 43
0.00000001
 40
0.0
 40
0.0
 40
0.0
 40
0.0
 40
0.25
 40
0.25
 40
0.5
 40
0.5
 40
1.0
 40
1.0
 40
1.0
 40
1.0
 10
126.0029622376832
 20
168.3299799388128
 30
0.0
 10
125.9727637962426
 20
168.3162745903934
 30
0.0
 10
125.9393964409066
 20
168.304226984943
 30
0.0
 10
125.8662411650767
 20
168.2874669967133
 30
0.0
 10
125.8259884660527
 20
168.2830581071724
 30
0.0
 10
125.7082597227779
 20
168.28598787227
 30
0.0
 10
125.6378012747189
 20
168.3083546325257
 30
0.0
 10
125.5814268401007
 20
168.3351316405314
 30
0.0
  0
SPLINE
  5
1F2
330
1F
100
AcDbEntity
  8
0
  6
Continuous
 62
     7
370
    25
100
AcDbSpline
210
0.0
220
0.0
230
1.0
 70
     8
 71
     3
 72
    12
 73
     8
 74
     0
 42
0.000000001
 43
0.00000001
 40
0.0
 40
0.0
 40
0.0
 40
0.0
 40
0.4999999999999983
 40
0.4999999999999983
 40
0.749999999999999
 40
0.749999999999999
 40
1.0
 40
1.0
 40
1.0
 40
1.0
 10
125.0766187829921
 20
168.9395745889472
 30
0.0
 10
125.1203691348766
 20
168.8430104411888
 30
0.0
 10
125.1732592860011
 20
168.7413861780031
 30
0.0
 10
125.2848708291427
 20
168.58463171382
 30
0.0
 10
125.3274301730463
 20
168.5317651441465
 30
0.0
 10
125.4324074083837
 20
168.4286090298321
 30
0.0
 10
125.4939746514783
 20
168.3766701139673
 30
0.0
 10
125.5814268401007
 20
168.3351316405314
 30
0.0
  0
SPLINE
  5
1F3
330
1F
100
AcDbEntity
  8
0
  6
Continuous
 62
     7
370
    25
100
AcDbSpline
210
0.0
220
0.0
230
1.0
 70
     8
 71
     3
 72
    16
 73
    12
 74
     0
 42
0.000000001
 43
0.00000001
 40
0.0
 40
0.0
 40
0.0
 40
0.0
 40
0.2500000000000002
 40
0.2500000000000002
 40
0.3750000000000001
 40
0.3750000000000001
 40
0.5000000000000001
 40
0.5000000000000001
 40
0.75
 40
0.75
 40
1.0
 40
1.0
 40
1.0
 40
1.0
 10
125.0766187829921
 20
131.232688289996
 30
0.0
 10
124.9153863055077
 20
131.758322633009
 30
0.0
 10
124.7949064658681
 20
132.3511541605679
 30
0.0
 10
124.6725259485547
 20
133.3409258516928
 30
0.0
 10
124.6415482881573
 20
133.687729497517
 30
0.0
 10
124.5999345505293
 20
134.4167180967571
 30
0.0
 10
124.5896986375965
 20
134.7919930488463
 30
0.0
 10
124.5895102405404
 20
135.9481930950663
 30
0.0
 10
124.629654943178
 20
136.759549107866
 30
0.0
 10
124.7938086981176
 20
138.4653933536539
 30
0.0
 10
124.9153603485271
 20
139.3337631463509
 30
0.0
 10
125.0766187829921
 20
140.2154057243195
 30
0.0
  0
LINE
  5
1F4
330
1F
100
AcDbEntity
  8
0
  6
Continuous
 62
     7
370
    25
100
AcDbLine
 10
124.1979391266
 20
141.5710184038
 30
0.0
 11
124.1979391266
 21
168.478290041
 31
0.0
  0
LINE
  5
1F5
330
1F
100
AcDbEntity
  8
0
  6
Continuous
 62
     7
370
    25
100
AcDbLine
 10
89.8979391266
 20
141.5710184038
 30
0.0
 11
89.8979391266
 21
167.7320053034
 31
0.0
  0
LINE
  5
1F6
330
1F
100
AcDbEntity
  8
0
  6
Continuous
 62
     7
370
    25
100
AcDbLine
 10
124.1979391266
 20
130.3383601584
 30
0.0
 11
124.1979391266
 21
141.5710184038
 31
0.0
  0
LINE
  5
1F7
330
1F
100
AcDbEntity
  8
0
  6
Continuous
 62
     7
370
    25
100
AcDbLine
 10
89.8979391266
 20
131.084644896
 30
0.0
 11
89.8979391266
 21
141.5710184038
 31
0.0
  0
LINE
  5
1F8
330
1F
100
AcDbEntity
  8
0
  6
Continuous
 62
     7
370
    25
100
AcDbLine
 10
88.3979391266
 20
131.834644896
 30
0.0
 11
88.3979391266
 21
141.5710184038
 31
0.0
  0
LINE
  5
1F9
330
1F
100
AcDbEntity
  8
0
  6
Continuous
 62
     7
370
    25
100
AcDbLine
 10
88.3979391266
 20
141.5710184038
 30
0.0
 11
88.3979391266
 21
166.9820053034
 31
0.0
  0
LINE
  5
1FA
330
1F
100
AcDbEntity
  8
0
  6
Continuous
 62
     7
370
    25
100
AcDbLine
 10
124.1979391266
 20
126.1757907499
 30
0.0
 11
124.1979391266
 21
130.3383601584
 31
0.0
  0
SPLINE
  5
1FB
330
1F
100
AcDbEntity
  8
0
  6
Continuous
 62
     7
370
    25
100
AcDbSpline
210
0.0
220
0.0
230
1.0
 70
     8
 71
     3
 72
     8
 73
     4
 74
     0
 42
0.000000001
 43
0.00000001
 40
0.0000249638557296
 40
0.0000249638557296
 40
0.0000249638557296
 40
0.0000249638557296
 40
0.0049776420541172
 40
0.0049776420541172
 40
0.0049776420541172
 40
0.0049776420541172
 10
89.89793912655178
 20
127.2988999212187
 30
0.0
 10
91.54791536106133
 20
127.2625507082807
 30
0.0
 10
93.19791668080634
 20
127.2261261221486
 30
0.0
 10
94.84793912655178
 20
127.1896262439378
 30
0.0
  0
LINE
  5
1FC
330
1F
100
AcDbEntity
  8
0
  6
Continuous
 62
     7
370
    25
100
AcDbLine
 10
89.8979391266
 20
127.2988999212
 30
0.0
 11
89.8979391266
 21
131.084644896
 31
0.0
  0
SPLINE
  5
1FD
330
1F
100
AcDbEntity
  8
0
  6
Continuous
 62
     7
370
    25
100
AcDbSpline
210
0.0
220
0.0
230
1.0
 70
     8
 71
     3
 72
    12
 73
     8
 74
     0
 42
0.000000001
 43
0.00000001
 40
0.0
 40
0.0
 40
0.0
 40
0.0
 40
0.3217007750382264
 40
0.6482385293902475
 40
0.7953300047197297
 40
0.9461094724574232
 40
1.0
 40
1.0
 40
1.0
 40
1.0
 10
94.84793912655176
 20
127.1896262439378
 30
0.0
 10
95.14663148014282
 20
127.13334777832
 30
0.0
 10
95.7485072201343
 20
127.019944663938
 30
0.0
 10
96.36241212513346
 20
126.9249451767894
 30
0.0
 10
96.67064768879715
 20
126.879860458711
 30
0.0
 10
96.78319778350546
 20
126.8640814179435
 30
0.0
 10
96.76791490329167
 20
126.8662292243104
 30
0.0
 10
96.76389085239958
 20
126.8667947513581
 30
0.0
  0
SPLINE
  5
1FE
330
1F
100
AcDbEntity
  8
0
  6
Continuous
 62
     7
370
    25
100
AcDbSpline
210
0.0
220
0.0
230
1.0
 70
     8
 71
     3
 72
    37
 73
    33
 74
     0
 42
0.000000001
 43
0.00000001
 40
0.0
 40
0.0
 40
0.0
 40
0.0
 40
0.0082088346175162
 40
0.0568531972136972
 40
0.0816511408279061
 40
0.10528843906624
 40
0.1533128249123512
 40
0.1777418966329151
 40
0.2024231120724547
 40
0.2525315413255851
 40
0.2779986732573965
 40
0.3043949669448037
 40
0.3579968697510291
 40
0.3852504953761507
 40
0.4131713023894535
 40
0.4699154050270586
 40
0.498800258248512
 40
0.5274352865224601
 40
0.5562691786691751
 40
0.5857349725469956
 40
0.6154215879247769
 40
0.6439014255725676
 40
0.7018804873819272
 40
0.7314650872387434
 40
0.7590241491214015
 40
0.8151760451390273
 40
0.8438618849323988
 40
0.8698554391757908
 40
0.9228295070356195
 40
0.9498954013012068
 40
0.9743446826445192
 40
1.0
 40
1.0
 40
1.0
 40
1.0
 10
115.344969825977
 20
126.3985729204184
 30
0.0
 10
115.34571423177
 20
126.3984626844734
 30
0.0
 10
115.3508698782568
 20
126.3976992063164
 30
0.0
 10
115.3020255934466
 20
126.4049476203152
 30
0.0
 10
115.2015178570955
 20
126.419552717881
 30
0.0
 10
115.0660089112006
 20
126.4389123519109
 30
0.0
 10
114.8831788773186
 20
126.4642730068403
 30
0.0
 10
114.6543798165042
 20
126.4943984008777
 30
0.0
 10
114.392229974734
 20
126.5275827501305
 30
0.0
 10
114.0860750016808
 20
126.5638057958095
 30
0.0
 10
113.7403270567008
 20
126.6009786733505
 30
0.0
 10
113.360545389684
 20
126.638918562407
 30
0.0
 10
112.942837943354
 20
126.6755150101257
 30
0.0
 10
112.4969532200213
 20
126.7082246601298
 30
0.0
 10
112.0251196821037
 20
126.7382064282628
 30
0.0
 10
111.5299027673941
 20
126.7619964038709
 30
0.0
 10
111.026826443163
 20
126.7778821492109
 30
0.0
 10
110.6462255385671
 20
126.7857137037534
 30
0.0
 10
110.2654516782294
 20
126.7893579113446
 30
0.0
 10
109.8852238615982
 20
126.7887934397925
 30
0.0
 10
109.5145411582811
 20
126.7841530395257
 30
0.0
 10
109.0376851602801
 20
126.7731619954449
 30
0.0
 10
108.5867511110958
 20
126.7557563798397
 30
0.0
 10
108.1779812126624
 20
126.7344168357036
 30
0.0
 10
107.8033764700433
 20
126.7117131227743
 30
0.0
 10
107.4761417197234
 20
126.6879488148616
 30
0.0
 10
107.2085954677373
 20
126.6661410735565
 30
0.0
 10
106.9856482325917
 20
126.646814991917
 30
0.0
 10
106.82031337176
 20
126.6313169551889
 30
0.0
 10
106.7219298509713
 20
126.6217755446429
 30
0.0
 10
106.6710595617798
 20
126.6167518631662
 30
0.0
 10
106.6771464839562
 20
126.6173528595653
 30
0.0
 10
106.6802632022657
 20
126.6176605908663
 30
0.0
  0
SPLINE
  5
1FF
330
1F
100
AcDbEntity
  8
0
  6
Continuous
 62
     7
370
    25
100
AcDbSpline
210
0.0
220
0.0
230
1.0
 70
     8
 71
     3
 72
     8
 73
     4
 74
     0
 42
0.000000001
 43
0.00000001
 40
0.0
 40
0.0
 40
0.0
 40
0.0
 40
1.0
 40
1.0
 40
1.0
 40
1.0
 10
88.39793912654953
 20
128.0474102207766
 30
0.0
 10
88.86469973792732
 20
127.8178807283925
 30
0.0
 10
89.37044728470741
 20
127.5659499533011
 30
0.0
 10
89.89793912655178
 20
127.2988999212187
 30
0.0
  0
LINE
  5
200
330
1F
100
AcDbEntity
  8
0
  6
Continuous
 62
     7
370
    25
100
AcDbLine
 10
88.3979391266
 20
128.0474102208
 30
0.0
 11
88.3979391266
 21
131.834644896
 31
0.0
  0
LINE
  5
201
330
1F
100
AcDbEntity
  8
0
  6
Continuous
 62
     7
370
    25
100
AcDbLine
 10
199.8514974795
 20
153.1054767241
 30
0.0
 11
194.8237653932
 21
154.359031124
 31
0.0
  0
LINE
  5
202
330
1F
100
AcDbEntity
  8
0
  6
Continuous
 62
     7
370
    25
100
AcDbLine
 10
210.8926264674
 20
150.3526140844
 30
0.0
 11
209.0443431851
 21
142.9395547356
 31
0.0
  0
LINE
  5
203
330
1F
100
AcDbEntity
  8
0
  6
Continuous
 62
     7
370
    25
100
AcDbLine
 10
209.0443431851
 20
142.9395547356
 30
0.0
 11
209.5283523368
 21
142.8188777005
 31
0.0
  0
LINE
  5
204
330
1F
100
AcDbEntity
  8
0
  6
Continuous
 62
     7
370
    25
100
AcDbLine
 10
216.9550311191
 20
115.2962483618
 30
0.0
 11
222.9809217086
 21
139.4647754459
 31
0.0
  0
LINE
  5
205
330
1F
100
AcDbEntity
  8
0
  6
Continuous
 62
     7
370
    25
100
AcDbLine
 10
210.8926264674
 20
150.3526140844
 30
0.0
 11
199.8514974795
 21
153.1054767241
 31
0.0
  0
LINE
  5
206
330
1F
100
AcDbEntity
  8
0
  6
Continuous
 62
     7
370
    25
100
AcDbLine
 10
124.1979391266
 20
170.215988319
 30
0.0
 11
124.1979391266
 21
168.478290041
 31
0.0
  0
LINE
  5
207
330
1F
100
AcDbEntity
  8
0
  6
Continuous
 62
     7
370
    25
100
AcDbLine
 10
89.8979391266
 20
169.3542529307
 30
0.0
 11
89.8979391266
 21
167.7320053034
 31
0.0
  0
SPLINE
  5
208
330
1F
100
AcDbEntity
  8
0
  6
Continuous
 62
     7
370
    25
100
AcDbSpline
210
0.0
220
0.0
230
1.0
 70
     8
 71
     3
 72
    11
 73
     7
 74
     0
 42
0.000000001
 43
0.00000001
 40
0.0
 40
0.0
 40
0.0
 40
0.0
 40
0.1208994205875791
 40
0.5020312010339294
 40
0.7494858902525203
 40
1.0
 40
1.0
 40
1.0
 40
1.0
 10
124.6045300808456
 20
169.9922140443156
 30
0.0
 10
124.6003647174218
 20
170.0015945502406
 30
0.0
 10
124.5830681713156
 20
170.0405468184396
 30
0.0
 10
124.6816764684486
 20
169.8184579699507
 30
0.0
 10
124.8527970188982
 20
169.4351905334042
 30
0.0
 10
125.0017065714756
 20
169.1054551797488
 30
0.0
 10
125.0766187829921
 20
168.9395745889472
 30
0.0
  0
LINE
  5
209
330
1F
100
AcDbEntity
  8
0
  6
Continuous
 62
     7
370
    25
100
AcDbLine
 10
88.3979391266
 20
168.4882275269
 30
0.0
 11
88.3979391266
 21
166.9820053034
 31
0.0
  0
LINE
  5
20A
330
1F
100
AcDbEntity
  8
0
  6
Continuous
 62
     7
370
    18
100
AcDbLine
 10
195.9858398378
 20
155.4090911417
 30
0.0
 11
197.6909157363
 21
162.2477770458
 31
0.0
  0
LINE
  5
20B
330
1F
100
AcDbEntity
  8
0
  6
Continuous
 62
     7
370
    18
100
AcDbLine
 10
186.6937524459
 20
164.168160176
 30
0.0
 11
185.0842819654
 21
157.7129266594
 31
0.0
  0
LINE
  5
20C
330
1F
100
AcDbEntity
  8
0
  6
Continuous
 62
     7
370
    18
100
AcDbLine
 10
223.9847515619
 20
139.5236766422
 30
0.0
 11
224.6814866212
 21
142.3181283338
 31
0.0
  0
LINE
  5
20D
330
1F
100
AcDbEntity
  8
0
  6
Continuous
 62
     7
370
    18
100
AcDbLine
 10
223.9847515619
 20
139.5236766422
 30
0.0
 11
223.8246429276
 21
139.2544121194
 31
0.0
  0
LINE
  5
20E
330
1F
100
AcDbEntity
  8
0
  6
Continuous
 62
     7
370
    18
100
AcDbLine
 10
210.6649636957
 20
145.8128400017
 30
0.0
 11
211.8165119187
 21
150.4314476587
 31
0.0
  0
LINE
  5
20F
330
1F
100
AcDbEntity
  8
0
  6
Continuous
 62
     7
370
    18
100
AcDbLine
 10
197.6673358536
 20
153.6500493801
 30
0.0
 11
197.7399124223
 21
153.941138098
 31
0.0
  0
LINE
  5
210
330
1F
100
AcDbEntity
  8
0
  6
Continuous
 62
     7
370
    18
100
AcDbLine
 10
210.8983825374
 20
145.754642148
 30
0.0
 11
212.0499307604
 21
150.3732498051
 31
0.0
  0
LINE
  5
211
330
1F
100
AcDbEntity
  8
0
  6
Continuous
 62
     7
370
    18
100
AcDbLine
 10
224.9749820338
 20
142.2449517088
 30
0.0
 11
226.1265302569
 21
146.8635593658
 31
0.0
  0
LINE
  5
212
330
1F
100
AcDbEntity
  8
0
  6
Continuous
 62
     7
370
    18
100
AcDbLine
 10
126.8979391266
 20
146.7958895344
 30
0.0
 11
126.8979391266
 21
178.2958895344
 31
0.0
  0
LINE
  5
213
330
1F
100
AcDbEntity
  8
0
  6
Continuous
 62
     7
370
    18
100
AcDbLine
 10
126.8979391266
 20
115.2958895344
 30
0.0
 11
126.8979391266
 21
146.7958895344
 31
0.0
  0
LINE
  5
214
330
1F
100
AcDbEntity
  8
0
  6
Continuous
 62
     7
370
    18
100
AcDbLine
 10
185.5375404955
 20
117.1140173599
 30
0.0
 11
194.8237653932
 21
154.359031124
 31
0.0
  0
LINE
  5
215
330
1F
100
AcDbEntity
  8
0
  6
Continuous
 62
     7
370
    18
100
AcDbLine
 10
136.9256959401
 20
176.8643814933
 30
0.0
 11
136.9256959401
 21
156.1839559658
 31
0.0
  0
LINE
  5
216
330
1F
100
AcDbEntity
  8
0
  6
Continuous
 62
     7
370
    18
100
AcDbLine
 10
136.4926832382
 20
176.6966319945
 30
0.0
 11
136.4926832382
 21
156.7052588551
 31
0.0
  0
LINE
  5
217
330
1F
100
AcDbEntity
  8
0
  6
Continuous
 62
     7
370
    18
100
AcDbLine
 10
140.3031950149
 20
176.6966319945
 30
0.0
 11
140.3031950149
 21
156.7052588551
 31
0.0
  0
LINE
  5
218
330
1F
100
AcDbEntity
  8
0
  6
Continuous
 62
     7
370
    18
100
AcDbLine
 10
139.870182313
 20
176.8643814933
 30
0.0
 11
139.870182313
 21
156.1839559658
 31
0.0
  0
LINE
  5
219
330
1F
100
AcDbEntity
  8
0
  6
Continuous
 62
     7
370
    18
100
AcDbLine
 10
136.9256959401
 20
137.4078231031
 30
0.0
 11
136.9256959401
 21
116.7273975755
 31
0.0
  0
LINE
  5
21A
330
1F
100
AcDbEntity
  8
0
  6
Continuous
 62
     7
370
    18
100
AcDbLine
 10
136.4926832382
 20
136.8865202137
 30
0.0
 11
136.4926832382
 21
116.8951470743
 31
0.0
  0
LINE
  5
21B
330
1F
100
AcDbEntity
  8
0
  6
Continuous
 62
     7
370
    18
100
AcDbLine
 10
140.3031950149
 20
136.8865202137
 30
0.0
 11
140.3031950149
 21
116.8951470743
 31
0.0
  0
LINE
  5
21C
330
1F
100
AcDbEntity
  8
0
  6
Continuous
 62
     7
370
    18
100
AcDbLine
 10
139.870182313
 20
137.4078231031
 30
0.0
 11
139.870182313
 21
116.7273975755
 31
0.0
  0
LINE
  5
21D
330
1F
100
AcDbEntity
  8
0
  6
Continuous
 62
     7
370
    18
100
AcDbLine
 10
125.076618783
 20
131.23268829
 30
0.0
 11
125.076618783
 21
140.2154057243
 31
0.0
  0
LINE
  5
21E
330
1F
100
AcDbEntity
  8
0
  6
Continuous
 62
     7
370
    18
100
AcDbLine
 10
125.076618783
 20
168.9395745889
 30
0.0
 11
125.076618783
 21
169.5387827532
 31
0.0
  0
LINE
  5
21F
330
1F
100
AcDbEntity
  8
0
  6
Continuous
 62
     7
370
    18
100
AcDbLine
 10
124.4028991486
 20
130.5071604606
 30
0.0
 11
125.5814268401
 21
130.4815185589
 31
0.0
  0
LINE
  5
220
330
1F
100
AcDbEntity
  8
0
  6
Continuous
 62
     7
370
    18
100
AcDbLine
 10
124.4028991486
 20
130.5071604606
 30
0.0
 11
124.4028991486
 21
141.5710184038
 31
0.0
  0
LINE
  5
221
330
1F
100
AcDbEntity
  8
0
  6
Continuous
 62
     7
370
    18
100
AcDbLine
 10
124.4028991486
 20
141.5710184038
 30
0.0
 11
125.5814268401
 21
141.5710184038
 31
0.0
  0
LINE
  5
222
330
1F
100
AcDbEntity
  8
0
  6
Continuous
 62
     7
370
    18
100
AcDbLine
 10
126.0029622377
 20
141.5996420298
 30
0.0
 11
126.0029622377
 21
168.3299799388
 31
0.0
  0
ARC
  5
223
330
1F
100
AcDbEntity
  8
0
  6
Continuous
 62
     7
370
    18
100
AcDbCircle
 10
124.3865151371
 20
168.4984290272
 30
0.0
 40
0.189648333855763
100
AcDbArc
 50
186.0958016499
 51
274.9560485805
  0
LINE
  5
224
330
1F
100
AcDbEntity
  8
0
  6
Continuous
 62
     7
370
    18
100
AcDbLine
 10
124.4028991486
 20
141.5710184038
 30
0.0
 11
124.4028991486
 21
168.3094897388
 31
0.0
  0
LINE
  5
225
330
1F
100
AcDbEntity
  8
0
  6
Continuous
 62
     7
370
    18
100
AcDbLine
 10
124.1979391266
 20
141.5710184038
 30
0.0
 11
124.4028991486
 21
141.5710184038
 31
0.0
  0
LINE
  5
226
330
1F
100
AcDbEntity
  8
0
  6
Continuous
 62
     7
370
    18
100
AcDbLine
 10
89.8979391266
 20
167.7320053034
 30
0.0
 11
124.1979391266
 21
168.478290041
 31
0.0
  0
LINE
  5
227
330
1F
100
AcDbEntity
  8
0
  6
Continuous
 62
     7
370
    18
100
AcDbLine
 10
89.8979391266
 20
141.5710184038
 30
0.0
 11
124.1979391266
 21
141.5710184038
 31
0.0
  0
ARC
  5
228
330
1F
100
AcDbEntity
  8
0
  6
Continuous
 62
     7
370
    18
100
AcDbCircle
 10
124.3865151371
 20
130.3182211722
 30
0.0
 40
0.1896483338558226
100
AcDbArc
 50
85.0439514195
 51
173.9041983501
  0
LINE
  5
229
330
1F
100
AcDbEntity
  8
0
  6
Continuous
 62
     7
370
    18
100
AcDbLine
 10
89.8979391266
 20
131.084644896
 30
0.0
 11
124.1979391266
 21
130.3383601584
 31
0.0
  0
LINE
  5
22A
330
1F
100
AcDbEntity
  8
0
  6
Continuous
 62
     7
370
    18
100
AcDbLine
 10
124.4028991486
 20
168.3094897388
 30
0.0
 11
125.5814268401
 21
168.3351316405
 31
0.0
  0
LINE
  5
22B
330
1F
100
AcDbEntity
  8
0
  6
Continuous
 62
     7
370
    18
100
AcDbLine
 10
88.3979391266
 20
141.5710184038
 30
0.0
 11
89.8979391266
 21
141.5710184038
 31
0.0
  0
LINE
  5
22C
330
1F
100
AcDbEntity
  8
0
  6
Continuous
 62
     7
370
    18
100
AcDbLine
 10
88.3979391266
 20
131.834644896
 30
0.0
 11
89.8979391266
 21
131.084644896
 31
0.0
  0
LINE
  5
22D
330
1F
100
AcDbEntity
  8
0
  6
Continuous
 62
     7
370
    18
100
AcDbLine
 10
88.3979391266
 20
166.9820053034
 30
0.0
 11
89.8979391266
 21
167.7320053034
 31
0.0
  0
LINE
  5
22E
330
1F
100
AcDbEntity
  8
0
  6
Continuous
 62
     7
370
    18
100
AcDbLine
 10
124.4028991486
 20
126.3707045497
 30
0.0
 11
124.4028991486
 21
130.5071604606
 31
0.0
  0
LINE
  5
22F
330
1F
100
AcDbEntity
  8
0
  6
Continuous
 62
     7
370
    18
100
AcDbLine
 10
126.0029622377
 20
126.3305053955
 30
0.0
 11
126.0029622377
 21
130.4580466346
 31
0.0
  0
LINE
  5
230
330
1F
100
AcDbEntity
  8
0
  6
Continuous
 62
     7
370
    18
100
AcDbLine
 10
190.6998006939
 20
116.4000257466
 30
0.0
 11
199.8514974795
 21
153.1054767241
 31
0.0
  0
LINE
  5
231
330
1F
100
AcDbEntity
  8
0
  6
Continuous
 62
     7
370
    18
100
AcDbLine
 10
124.4028991486
 20
170.0210745192
 30
0.0
 11
124.4028991486
 21
168.3094897388
 31
0.0
  0
LINE
  5
232
330
1F
100
AcDbEntity
  8
VERMASSUNG
100
AcDbLine
 10
226.3979391266
 20
146.7958895344
 30
0.0
 11
226.3979391266
 21
152.804634152
 31
0.0
  0
DIMENSION
  5
233
330
1F
100
AcDbEntity
  8
VERMASSUNG
100
AcDbDimension
  2
_D_1
 10
126.3979391266
 20
185.8162375891
 30
0.0
 11
176.3979391266
 21
185.8162375891
 31
0.0
 70
   160
  1
<>
 71
     2
 42
-1.0
  3
SLDDIMSTYLE0
100
AcDbAlignedDimension
 13
226.3979391266
 23
146.7958895344
 33
0.0
 14
126.3979391266
 24
177.7958895344
 34
0.0
100
AcDbRotatedDimension
  0
DIMENSION
  5
23D
330
1F
100
AcDbEntity
  8
VERMASSUNG
100
AcDbDimension
  2
_D_2
 10
88.3979391266
 20
194.2958895344
 30
0.0
 11
157.3979391266
 21
194.2958895344
 31
0.0
 70
   160
  1
<>
 71
     2
 42
-1.0
  3
SLDDIMSTYLE0
100
AcDbAlignedDimension
 13
226.3979391266
 23
146.7958895344
 33
0.0
 14
88.3979391266
 24
166.9820053034
 34
0.0
100
AcDbRotatedDimension
  0
LINE
  5
247
330
1F
100
AcDbEntity
  8
VERMASSUNG
  6
CENTERX2
370
    18
100
AcDbLine
 10
82.9571414189
 20
146.7958895344
 30
0.0
 11
228.3428739863
 21
146.7958895344
 31
0.0
  0
LINE
  5
248
330
1F
100
AcDbEntity
  8
0
  6
Continuous
 62
     7
370
    25
100
AcDbLine
 10
266.6113484981
 20
38.4957596794
 30
0.0
 11
266.5570117541
 21
38.4251409993
 31
0.0
  0
LINE
  5
249
330
1F
100
AcDbEntity
  8
0
  6
Continuous
 62
     7
370
    25
100
AcDbLine
 10
266.4879076537
 20
38.2832976899
 30
0.0
 11
266.1169943134
 21
36.7795380137
 31
0.0
  0
SPLINE
  5
24A
330
1F
100
AcDbEntity
  8
0
  6
Continuous
 62
     7
370
    25
100
AcDbSpline
210
0.0
220
0.0
230
1.0
 70
     8
 71
     3
 72
    20
 73
    16
 74
     0
 42
0.000000001
 43
0.00000001
 40
0.0
 40
0.0
 40
0.0
 40
0.0
 40
0.0049540318977577
 40
0.0823480256252108
 40
0.1610169919539754
 40
0.2420774452846698
 40
0.3259770282771907
 40
0.4123304482907866
 40
0.5003523528129386
 40
0.5896318898672551
 40
0.6804091106682254
 40
0.7729488288114658
 40
0.855371831563087
 40
0.9354133776605331
 40
1.0
 40
1.0
 40
1.0
 40
1.0
 10
273.1157587604357
 20
37.21735771465379
 30
0.0
 10
273.1142958570525
 20
37.22756503130043
 30
0.0
 10
273.0899788547065
 20
37.39723539074291
 30
0.0
 10
272.950106685355
 20
37.70985255825292
 30
0.0
 10
272.6982079318001
 20
38.13715903716886
 30
0.0
 10
272.3491386694796
 20
38.52090204973646
 30
0.0
 10
271.9232546842802
 20
38.85314237571509
 30
0.0
 10
271.4270827656893
 20
39.11995886524194
 30
0.0
 10
270.8783499306567
 20
39.30823761253605
 30
0.0
 10
270.2963147071578
 20
39.4069508915151
 30
0.0
 10
269.7012973308943
 20
39.40683665845187
 30
0.0
 10
269.1378161747436
 20
39.30465378000321
 30
0.0
 10
268.6345507958592
 20
39.10863399742517
 30
0.0
 10
268.2227133761438
 20
38.86196641063977
 30
0.0
 10
268.0110531465777
 20
38.6464638219409
 30
0.0
 10
267.9165320068922
 20
38.55022679937539
 30
0.0
  0
LINE
  5
24B
330
1F
100
AcDbEntity
  8
0
  6
Continuous
 62
     7
370
    25
100
AcDbLine
 10
267.5395258951
 20
37.8855416535
 30
0.0
 11
267.3684623737
 21
37.1920085406
 31
0.0
  0
LINE
  5
24C
330
1F
100
AcDbEntity
  8
0
  6
Continuous
 62
     7
370
    25
100
AcDbLine
 10
272.9511433776
 20
35.8150021365
 30
0.0
 11
273.1222095332
 21
36.5085337288
 31
0.0
  0
LINE
  5
24D
330
1F
100
AcDbEntity
  8
0
  6
Continuous
 62
     7
370
    25
100
AcDbLine
 10
266.6761162579
 20
36.994917023
 30
0.0
 11
266.2834024601
 21
35.4027705016
 31
0.0
  0
LINE
  5
24E
330
1F
100
AcDbEntity
  8
0
  6
Continuous
 62
     7
370
    25
100
AcDbLine
 10
273.0797121743
 20
33.7264132594
 30
0.0
 11
273.4724259721
 21
35.3185605412
 31
0.0
  0
LINE
  5
24F
330
1F
100
AcDbEntity
  8
0
  6
Continuous
 62
     7
370
    25
100
AcDbLine
 10
266.5474575698
 20
33.9106705502
 30
0.0
 11
266.5655318177
 21
33.8800719136
 31
0.0
  0
LINE
  5
250
330
1F
100
AcDbEntity
  8
0
  6
Continuous
 62
     7
370
    25
100
AcDbLine
 10
272.0358231
 20
32.4563912904
 30
0.0
 11
272.1520837719
 21
32.528250624
 31
0.0
  0
LINE
  5
251
330
1F
100
AcDbEntity
  8
0
  6
Continuous
 62
     7
370
    25
100
AcDbLine
 10
262.7864968784
 20
36.6479579179
 30
0.0
 11
262.3986721152
 21
35.0756378833
 31
0.0
  0
LINE
  5
252
330
1F
100
AcDbEntity
  8
0
  6
Continuous
 62
     7
370
    25
100
AcDbLine
 10
265.4611603334
 20
38.2216740615
 30
0.0
 11
262.8261878498
 21
36.7005368251
 31
0.0
  0
LINE
  5
253
330
1F
100
AcDbEntity
  8
0
  6
Continuous
 62
     7
370
    25
100
AcDbLine
 10
280.0609062424
 20
19.1079712469
 30
0.0
 11
280.2634798014
 21
19.9292475915
 31
0.0
  0
LINE
  5
254
330
1F
100
AcDbEntity
  8
0
  6
Continuous
 62
     7
370
    25
100
AcDbLine
 10
279.7284808464
 20
19.0134242937
 30
0.0
 11
279.7566423601
 21
19.0020438075
 31
0.0
  0
LINE
  5
255
330
1F
100
AcDbEntity
  8
0
  6
Continuous
 62
     7
370
    25
100
AcDbLine
 10
279.7955649644
 20
18.9924432875
 30
0.0
 11
279.8257873623
 21
18.9894229016
 31
0.0
  0
LINE
  5
256
330
1F
100
AcDbEntity
  8
0
  6
Continuous
 62
     7
370
    25
100
AcDbLine
 10
280.3727760719
 20
20.0199280993
 30
0.0
 11
280.7799119943
 21
21.6705343895
 31
0.0
  0
LINE
  5
257
330
1F
100
AcDbEntity
  8
0
  6
Continuous
 62
     7
370
    25
100
AcDbLine
 10
256.127187471
 20
53.9845804957
 30
0.0
 11
253.4187489763
 21
55.5481287576
 31
0.0
  0
LINE
  5
258
330
1F
100
AcDbEntity
  8
0
  6
Continuous
 62
     7
370
    25
100
AcDbLine
 10
267.3216090722
 20
47.5221784614
 30
0.0
 11
258.8420385222
 21
52.4173303437
 31
0.0
  0
LINE
  5
259
330
1F
100
AcDbEntity
  8
0
  6
Continuous
 62
     7
370
    25
100
AcDbLine
 10
243.0933180329
 20
25.1367912232
 30
0.0
 11
251.6551302553
 21
20.1941622341
 31
0.0
  0
LINE
  5
25A
330
1F
100
AcDbEntity
  8
0
  6
Continuous
 62
     7
370
    25
100
AcDbLine
 10
237.670028487
 20
28.2675896372
 30
0.0
 11
240.3784669817
 21
26.7040413753
 31
0.0
  0
SPLINE
  5
25B
330
1F
100
AcDbEntity
  8
0
  6
Continuous
 62
     7
370
    25
100
AcDbSpline
210
0.0
220
0.0
230
1.0
 70
     8
 71
     3
 72
    31
 73
    27
 74
     0
 42
0.000000001
 43
0.00000001
 40
0.0
 40
0.0
 40
0.0
 40
0.0
 40
0.0079404798375007
 40
0.0510290283241253
 40
0.0942289986541761
 40
0.1375037233234336
 40
0.1808206216746372
 40
0.2241554058723689
 40
0.2674895994444752
 40
0.3108147203398281
 40
0.3541275232830391
 40
0.3974274186333933
 40
0.4407153605820203
 40
0.4839932219864238
 40
0.5272634099504979
 40
0.5705285329083571
 40
0.6137913289146865
 40
0.6570546815748539
 40
0.7003206222648392
 40
0.7435918960274288
 40
0.7868714114610675
 40
0.8301620055457826
 40
0.8734663513021532
 40
0.9167867858336927
 40
0.9601249125807304
 40
1.0
 40
1.0
 40
1.0
 40
1.0
 10
249.6499858496107
 20
56.25684477689651
 30
0.0
 10
249.5965451633334
 20
56.25347760369544
 30
0.0
 10
249.2531117248619
 20
56.23183866245186
 30
0.0
 10
248.5926864666798
 20
56.09235969240952
 30
0.0
 10
247.6743240404524
 20
55.83404890285041
 30
0.0
 10
246.7382188378024
 20
55.46695535267163
 30
0.0
 10
245.7944726875015
 20
55.00551814036929
 30
0.0
 10
244.8491219035782
 20
54.45008284093718
 30
0.0
 10
243.9091966891536
 20
53.80567650192737
 30
0.0
 10
242.9812974070825
 20
53.076853058889
 30
0.0
 10
242.0719322286737
 20
52.26898802300553
 30
0.0
 10
241.1874277291129
 20
51.3878837922163
 30
0.0
 10
240.3339350354299
 20
50.43984444471375
 30
0.0
 10
239.5173922157482
 20
49.43160720505803
 30
0.0
 10
238.7434894007175
 20
48.37031222696812
 30
0.0
 10
238.0176320289672
 20
47.26345406477413
 30
0.0
 10
237.344904107607
 20
46.11883262131025
 30
0.0
 10
236.7300358148422
 20
44.9445093040133
 30
0.0
 10
236.1773647640935
 20
43.74874095278913
 30
0.0
 10
235.6908227446886
 20
42.53993038710863
 30
0.0
 10
235.2738410763228
 20
41.32652669122024
 30
0.0
 10
234.9295637780385
 20
40.11709184057934
 30
0.0
 10
234.6600127421345
 20
38.9197935883274
 30
0.0
 10
234.4690984122296
 20
37.74403581766424
 30
0.0
 10
234.3544995537671
 20
36.62490039069537
 30
0.0
 10
234.3407992261645
 20
35.91897180896296
 30
0.0
 10
234.3342341419251
 20
35.58069664208763
 30
0.0
  0
SPLINE
  5
25C
330
1F
100
AcDbEntity
  8
0
  6
Continuous
 62
     7
370
    25
100
AcDbSpline
210
0.0
220
0.0
230
1.0
 70
     8
 71
     3
 72
    12
 73
     8
 74
     0
 42
0.000000001
 43
0.00000001
 40
0.0
 40
0.0
 40
0.0
 40
0.0
 40
0.1190693021156171
 40
0.3452257371425747
 40
0.5714652061532742
 40
0.7976225256858839
 40
1.0
 40
1.0
 40
1.0
 40
1.0
 10
234.3342341419251
 20
35.58069664208763
 30
0.0
 10
234.3364788489269
 20
35.39038099104204
 30
0.0
 10
234.3429870808185
 20
34.83858586203235
 30
0.0
 10
234.4147073178773
 20
33.96101784168268
 30
0.0
 10
234.577777480837
 20
32.97442468550116
 30
0.0
 10
234.8059071782343
 20
32.07671286031187
 30
0.0
 10
235.0175330813179
 20
31.54563793331224
 30
0.0
 10
235.1174743611871
 20
31.2948354221953
 30
0.0
  0
LINE
  5
25D
330
1F
100
AcDbEntity
  8
0
  6
Continuous
 62
     7
370
    25
100
AcDbLine
 10
226.1831285218
 20
40.2679517541
 30
0.0
 11
234.3413349495
 21
35.2175184139
 31
0.0
  0
LINE
  5
25E
330
1F
100
AcDbEntity
  8
0
  6
Continuous
 62
     7
370
    25
100
AcDbLine
 10
244.6970596194
 20
54.3303800126
 30
0.0
 11
236.6793836262
 21
58.6356487527
 31
0.0
  0
LINE
  5
25F
330
1F
100
AcDbEntity
  8
0
  6
Continuous
 62
     7
370
    25
100
AcDbLine
 10
233.9900141315
 20
59.2259053832
 30
0.0
 11
233.3504640228
 21
59.1386943882
 31
0.0
  0
LINE
  5
260
330
1F
100
AcDbEntity
  8
0
  6
Continuous
 62
     7
370
    25
100
AcDbLine
 10
225.0198781371
 20
42.0039939777
 30
0.0
 11
225.2641816859
 21
41.4065444668
 31
0.0
  0
LWPOLYLINE
  5
261
330
1F
100
AcDbEntity
  8
0
  6
Continuous
 62
     7
370
    25
100
AcDbPolyline
 90
        3
 70
   128
 43
0.0
 10
266.4784674593
 20
38.1618962783
 10
266.5215370522
 20
38.3704462715
 10
266.5570117541
 20
38.4251409993
  0
ARC
  5
262
330
1F
100
AcDbEntity
  8
0
  6
Continuous
 62
     7
370
    25
100
AcDbCircle
 10
267.2760897507
 20
38.4263719828
 30
0.0
 40
0.8560795619897289
100
AcDbArc
 50
204.0752016109
 51
264.0228060371
  0
LINE
  5
263
330
1F
100
AcDbEntity
  8
0
  6
Continuous
 62
     7
370
    25
100
AcDbLine
 10
266.5519434927
 20
38.1651649873
 30
0.0
 11
266.4944798455
 21
38.0771468798
 31
0.0
  0
LWPOLYLINE
  5
264
330
1F
100
AcDbEntity
  8
0
  6
Continuous
 62
     7
370
    25
100
AcDbPolyline
 90
        8
 70
   128
 43
0.0
 10
266.5367321847
 20
38.2456770288
 10
266.5776481312
 20
38.4438000724
 10
266.7270976739
 20
38.6002380422
 10
266.9604995457
 20
38.6892573894
 10
267.2394579909
 20
38.6962172776
 10
267.5180908888
 20
38.6199704123
 10
267.7505628212
 20
38.4730601997
 10
267.8003700652
 20
38.4239748502
  0
ARC
  5
265
330
1F
100
AcDbEntity
  8
0
  6
Continuous
 62
     7
370
    25
100
AcDbCircle
 10
267.2951629895
 20
38.497502446
 30
0.0
 40
0.8141396728690283
100
AcDbArc
 50
204.0922467937
 51
264.3259149194
  0
LINE
  5
266
330
1F
100
AcDbEntity
  8
0
  6
Continuous
 62
     7
370
    25
100
AcDbLine
 10
266.5367321847
 20
38.2456770288
 30
0.0
 11
266.4784674593
 21
38.1618962783
 31
0.0
  0
LINE
  5
267
330
1F
100
AcDbEntity
  8
0
  6
Continuous
 62
     7
370
    25
100
AcDbLine
 10
266.6601843787
 20
38.1691464359
 30
0.0
 11
266.5519434927
 21
38.1651649873
 31
0.0
  0
LWPOLYLINE
  5
268
330
1F
100
AcDbEntity
  8
0
  6
Continuous
 62
     7
370
    25
100
AcDbPolyline
 90
        8
 70
   128
 43
0.0
 10
266.6473736712
 20
38.2369464062
 10
266.6818298929
 20
38.4037862606
 10
266.8076820701
 20
38.5355232581
 10
267.0042306774
 20
38.6104873244
 10
267.2391445032
 20
38.61634788
 10
267.4737809273
 20
38.5521411921
 10
267.6695475234
 20
38.4284269262
 10
267.7450700661
 20
38.3467749677
  0
ARC
  5
269
330
1F
100
AcDbEntity
  8
0
  6
Continuous
 62
     7
370
    25
100
AcDbCircle
 10
267.2881946949
 20
38.4507816668
 30
0.0
 40
0.6882698311996187
100
AcDbArc
 50
204.1541534921
 51
265.462316769
  0
LINE
  5
26A
330
1F
100
AcDbEntity
  8
0
  6
Continuous
 62
     7
370
    25
100
AcDbLine
 10
266.6473736712
 20
38.2369464062
 30
0.0
 11
266.5367321847
 21
38.2456770288
 31
0.0
  0
LINE
  5
26B
330
1F
100
AcDbEntity
  8
0
  6
Continuous
 62
     7
370
    25
100
AcDbLine
 10
266.4944798455
 20
38.0771468798
 30
0.0
 11
266.1306787859
 21
36.6022177796
 31
0.0
  0
LINE
  5
26C
330
1F
100
AcDbEntity
  8
0
  6
Continuous
 62
     7
370
    25
100
AcDbLine
 10
266.4784674593
 20
38.1618962783
 30
0.0
 11
266.1115225082
 21
36.6742222856
 31
0.0
  0
LINE
  5
26D
330
1F
100
AcDbEntity
  8
0
  6
Continuous
 62
     7
370
    25
100
AcDbLine
 10
266.6303805887
 20
38.1680499156
 30
0.0
 11
266.6473736712
 21
38.2369464062
 31
0.0
  0
ARC
  5
26E
330
1F
100
AcDbEntity
  8
0
  6
Continuous
 62
     7
370
    25
100
AcDbCircle
 10
271.6813029613
 20
36.8590066816
 30
0.0
 40
1.481571359663987
100
AcDbArc
 50
338.5166038504
 51
14.1045530612
  0
LWPOLYLINE
  5
26F
330
1F
100
AcDbEntity
  8
0
  6
Continuous
 62
     7
370
    25
100
AcDbPolyline
 90
       19
 70
   128
 43
0.0
 10
267.9020594624
 20
38.5446948882
 10
267.8192131227
 20
38.4481932544
 10
267.6017951473
 20
38.0776676869
 10
267.5036513538
 20
37.6686532555
 10
267.5290677144
 20
37.2390291736
 10
267.6769396031
 20
36.8075675651
 10
267.9407976433
 20
36.3931302347
 10
268.3091146719
 20
36.0138254663
 10
268.7657919099
 20
35.6862340581
 10
269.2908710134
 20
35.4246707107
 10
269.8614033528
 20
35.2405688766
 10
270.4524508354
 20
35.1419750041
 10
271.0381885559
 20
35.1331950905
 10
271.5930096697
 20
35.2146174007
 10
272.0926696961
 20
35.3826803688
 10
272.5153328015
 20
35.630037874
 10
272.8425223056
 20
35.9458821279
 10
273.059940281
 20
36.3164084559
 10
273.059940281
 20
36.3164084559
  0
LINE
  5
270
330
1F
100
AcDbEntity
  8
0
  6
Continuous
 62
     7
370
    25
100
AcDbLine
 10
272.8888741254
 20
35.6228768636
 30
0.0
 11
272.9511433776
 21
35.8150021365
 31
0.0
  0
LWPOLYLINE
  5
271
330
1F
100
AcDbEntity
  8
0
  6
Continuous
 62
     7
370
    25
100
AcDbPolyline
 90
       16
 70
   128
 43
0.0
 10
267.3684623737
 20
37.1920085406
 10
267.3325851982
 20
36.9751216633
 10
267.358004193
 20
36.5454960606
 10
267.5058734476
 20
36.1140359728
 10
267.7697341219
 20
35.6995971218
 10
268.1380511505
 20
35.3202923534
 10
268.5947283885
 20
34.9927001847
 10
269.119807492
 20
34.7311375977
 10
269.6903371973
 20
34.5470372844
 10
270.281387314
 20
34.4484418911
 10
270.8671224003
 20
34.4396634982
 10
271.4219461483
 20
34.5210842878
 10
271.9216061747
 20
34.6891472559
 10
272.3442666459
 20
34.9365062817
 10
272.67145615
 20
35.2523505356
 10
272.8888741254
 20
35.6228768636
  0
LWPOLYLINE
  5
272
330
1F
100
AcDbEntity
  8
0
  6
Continuous
 62
     7
370
    25
100
AcDbPolyline
 90
       20
 70
   128
 43
0.0
 10
271.6884840119
 20
37.5076892397
 10
271.7313284648
 20
37.7930907916
 10
271.6409496519
 20
38.0890556999
 10
271.4271399242
 20
38.3635122705
 10
271.1130682768
 20
38.5867192406
 10
270.7327708419
 20
38.7344872269
 10
270.3274606106
 20
38.7908021686
 10
269.9410543522
 20
38.7495649818
 10
269.6154287344
 20
38.615241918
 10
269.385869763
 20
38.4023894121
 10
269.2772536301
 20
38.1340728306
 10
269.3013501852
 20
37.8393699896
 10
269.4555491226
 20
37.5502140386
 10
269.7231381467
 20
37.2979430737
 10
270.0751225307
 20
37.1098910118
 10
270.4733590473
 20
37.0064384126
 10
270.8746921636
 20
36.9987939677
 10
271.2356296042
 20
37.0877884172
 10
271.5170590113
 20
37.2637772288
 10
271.6884840119
 20
37.5076892397
  0
SPLINE
  5
273
330
1F
100
AcDbEntity
  8
0
  6
Continuous
 62
     7
370
    25
100
AcDbSpline
210
0.0
220
0.0
230
1.0
 70
     8
 71
     3
 72
    11
 73
     7
 74
     0
 42
0.000000001
 43
0.00000001
 40
0.0
 40
0.0
 40
0.0
 40
0.0
 40
0.1208921194053495
 40
0.4766719768296457
 40
0.8143653035879076
 40
1.0
 40
1.0
 40
1.0
 40
1.0
 10
269.3839900300421
 20
37.75431305825051
 30
0.0
 10
269.3919712241773
 20
37.76840224004597
 30
0.0
 10
269.4234406996446
 20
37.82395522539675
 30
0.0
 10
269.4952749370734
 20
37.97932857369447
 30
0.0
 10
269.600323734823
 20
38.25631461212745
 30
0.0
 10
269.6656213942102
 20
38.44154842087224
 30
0.0
 10
269.6887837525019
 20
38.50725447965213
 30
0.0
  0
SPLINE
  5
274
330
1F
100
AcDbEntity
  8
0
  6
Continuous
 62
     7
370
    25
100
AcDbSpline
210
0.0
220
0.0
230
1.0
 70
     8
 71
     3
 72
    10
 73
     6
 74
     0
 42
0.000000001
 43
0.00000001
 40
0.0
 40
0.0
 40
0.0
 40
0.0
 40
0.3694694221945248
 40
0.7204968419479986
 40
1.0
 40
1.0
 40
1.0
 40
1.0
 10
270.0866491175256
 20
37.1200989365887
 30
0.0
 10
269.9925860290666
 20
37.15889934255409
 30
0.0
 10
269.8091549949743
 20
37.23456343891777
 30
0.0
 10
269.5650201500176
 20
37.487769460894
 30
0.0
 10
269.439590705316
 20
37.67244820612007
 30
0.0
 10
269.3839900300421
 20
37.75431305825051
 30
0.0
  0
SPLINE
  5
275
330
1F
100
AcDbEntity
  8
0
  6
Continuous
 62
     7
370
    25
100
AcDbSpline
210
0.0
220
0.0
230
1.0
 70
     8
 71
     3
 72
     9
 73
     5
 74
     0
 42
0.000000001
 43
0.00000001
 40
0.0
 40
0.0
 40
0.0
 40
0.0
 40
0.6372307180137409
 40
0.9999999999999999
 40
0.9999999999999999
 40
0.9999999999999999
 40
0.9999999999999999
 10
271.28247549705
 20
37.1417004094644
 30
0.0
 10
271.1113811725081
 20
37.08095000313264
 30
0.0
 10
270.8428845044955
 20
36.98561497829089
 30
0.0
 10
270.5882633414666
 20
37.00382767447269
 30
0.0
 10
270.4958946049761
 20
37.01043468118959
 30
0.0
  0
SPLINE
  5
276
330
1F
100
AcDbEntity
  8
0
  6
Continuous
 62
     7
370
    25
100
AcDbSpline
210
0.0
220
0.0
230
1.0
 70
     8
 71
     3
 72
    11
 73
     7
 74
     0
 42
0.000000001
 43
0.00000001
 40
0.0
 40
0.0
 40
0.0
 40
0.0
 40
0.1856332263321242
 40
0.5233280095195576
 40
0.8791078730664185
 40
0.9999999999999999
 40
0.9999999999999999
 40
0.9999999999999999
 40
0.9999999999999999
 10
271.5872692195098
 20
37.89464183086602
 30
0.0
 10
271.5641056462889
 20
37.82893659940878
 30
0.0
 10
271.498804046427
 20
37.64370366092604
 30
0.0
 10
271.3937624678429
 20
37.36671709651207
 30
0.0
 10
271.3219259947668
 20
37.21134249177994
 30
0.0
 10
271.2904566566253
 20
37.15578957447592
 30
0.0
 10
271.2824754970499
 20
37.1417004094644
 30
0.0
  0
SPLINE
  5
277
330
1F
100
AcDbEntity
  8
0
  6
Continuous
 62
     7
370
    25
100
AcDbSpline
210
0.0
220
0.0
230
1.0
 70
     8
 71
     3
 72
    10
 73
     6
 74
     0
 42
0.000000001
 43
0.00000001
 40
0.0
 40
0.0
 40
0.0
 40
0.0
 40
0.4391219194844079
 40
0.751371956278445
 40
1.0
 40
1.0
 40
1.0
 40
1.0
 10
270.7904260019933
 20
38.57741697693013
 30
0.0
 10
270.8927854170092
 20
38.43217071595171
 30
0.0
 10
271.0679303835695
 20
38.18364300095717
 30
0.0
 10
271.3605863453751
 20
37.97664646332404
 30
0.0
 10
271.5176468684814
 20
37.91982836217652
 30
0.0
 10
271.5872692195098
 20
37.89464183086602
 30
0.0
  0
SPLINE
  5
278
330
1F
100
AcDbEntity
  8
0
  6
Continuous
 62
     7
370
    25
100
AcDbSpline
210
0.0
220
0.0
230
1.0
 70
     8
 71
     3
 72
    10
 73
     6
 74
     0
 42
0.000000001
 43
0.00000001
 40
0.0
 40
0.0
 40
0.0
 40
0.0
 40
0.4391228573090727
 40
0.751371429194901
 40
1.0
 40
1.0
 40
1.0
 40
1.0
 10
269.6887837525019
 20
38.50725447965213
 30
0.0
 10
269.8347787620795
 20
38.46979807017826
 30
0.0
 10
270.0845869357507
 20
38.40570740523006
 30
0.0
 10
270.4857763472426
 20
38.46682142668804
 30
0.0
 10
270.6968570413373
 20
38.54344907140993
 30
0.0
 10
270.7904260019933
 20
38.57741697693013
 30
0.0
  0
LINE
  5
279
330
1F
100
AcDbEntity
  8
0
  6
Continuous
 62
     7
370
    25
100
AcDbLine
 10
269.4725677855
 20
37.6306585028
 30
0.0
 11
269.6887837525
 21
38.5072544797
 31
0.0
  0
LINE
  5
27A
330
1F
100
AcDbEntity
  8
0
  6
Continuous
 62
     7
370
    25
100
AcDbLine
 10
271.1349252044
 20
37.1021309334
 30
0.0
 11
270.9485525812
 21
37.2618242108
 31
0.0
  0
LINE
  5
27B
330
1F
100
AcDbEntity
  8
0
  6
Continuous
 62
     7
370
    25
100
AcDbLine
 10
270.9485525812
 20
37.2618242108
 30
0.0
 11
270.5501310136
 21
37.6032118076
 31
0.0
  0
LINE
  5
27C
330
1F
100
AcDbEntity
  8
0
  6
Continuous
 62
     7
370
    25
100
AcDbLine
 10
270.5501310136
 20
37.6032118076
 30
0.0
 11
270.790426002
 21
38.5774169769
 31
0.0
  0
ARC
  5
27D
330
1F
100
AcDbEntity
  8
0
  6
Continuous
 62
     7
370
    25
100
AcDbCircle
 10
270.0498953688
 20
36.5396011669
 30
0.0
 40
1.029772602209871
100
AcDbArc
 50
92.8156709806
 51
115.77953663
  0
ARC
  5
27E
330
1F
100
AcDbEntity
  8
0
  6
Continuous
 62
     7
370
    25
100
AcDbCircle
 10
270.0846412859
 20
36.2085687212
 30
0.0
 40
1.362237076487624
100
AcDbArc
 50
50.6403833485
 51
93.591394944
  0
ARC
  5
27F
330
1F
100
AcDbEntity
  8
0
  6
Continuous
 62
     7
370
    25
100
AcDbCircle
 10
270.3530366289
 20
36.5554836315
 30
0.0
 40
0.9238810872315948
100
AcDbArc
 50
35.6205235274
 51
49.8657521415
  0
LINE
  5
280
330
1F
100
AcDbEntity
  8
0
  6
Continuous
 62
     7
370
    25
100
AcDbLine
 10
270.5501310136
 20
37.6032118076
 30
0.0
 11
269.9993098991
 21
37.5681305649
 31
0.0
  0
LINE
  5
281
330
1F
100
AcDbEntity
  8
0
  6
Continuous
 62
     7
370
    25
100
AcDbLine
 10
269.9993098991
 20
37.5681305649
 30
0.0
 11
269.538388383
 21
37.5387726329
 31
0.0
  0
LWPOLYLINE
  5
282
330
1F
100
AcDbEntity
  8
0
  6
Continuous
 62
     7
370
    25
100
AcDbPolyline
 90
       13
 70
   128
 43
0.0
 10
268.0318527815
 20
35.2846453427
 10
268.5048734477
 20
34.9402014917
 10
269.0502237037
 20
34.6640805015
 10
269.6440690126
 20
34.4683502697
 10
270.2604510316
 20
34.3615685137
 10
270.8724362783
 20
34.3483980996
 10
271.4532780496
 20
34.4294155517
 10
271.9775851332
 20
34.6010823972
 10
272.4224477534
 20
34.8558933227
 10
272.7684233303
 20
35.1827118075
 10
273.0003890066
 20
35.5672561945
 10
273.108204761
 20
35.9927212519
 10
273.0947635383
 20
36.3972676405
  0
ARC
  5
283
330
1F
100
AcDbEntity
  8
0
  6
Continuous
 62
     7
370
    25
100
AcDbCircle
 10
269.0540074377
 20
36.797118787
 30
0.0
 40
1.825479679657118
100
AcDbArc
 50
147.6365786638
 51
235.9485195857
  0
LWPOLYLINE
  5
284
330
1F
100
AcDbEntity
  8
0
  6
Continuous
 62
     7
370
    25
100
AcDbPolyline
 90
       22
 70
   128
 43
0.0
 10
266.7627464708
 20
37.2549416293
 10
266.6393814927
 20
36.7964734551
 10
266.6450464572
 20
36.3139730823
 10
266.77952388
 20
35.8255682571
 10
267.0377643709
 20
35.3496030449
 10
267.4100672401
 20
34.9039566357
 10
267.882448295
 20
34.5053690843
 10
268.4371610782
 20
34.1688145707
 10
269.0533705586
 20
33.9069322548
 10
269.7079284028
 20
33.7295621553
 10
270.376247193
 20
33.6433662812
 10
271.0332250236
 20
33.6515799761
 10
271.6541787409
 20
33.7538982734
 10
272.2157862588
 20
33.9464754633
 10
272.6969495604
 20
34.2220796083
 10
273.0795954473
 20
34.5703563508
 10
273.3493496011
 20
34.9782233632
 10
273.4960802322
 20
35.4303598342
 10
273.5142744999
 20
35.9097819019
 10
273.4032499874
 20
36.3984802637
 10
273.1671754461
 20
36.8780989898
 10
273.1631039947
 20
36.8845300344
  0
SPLINE
  5
285
330
1F
100
AcDbEntity
  8
0
  6
Continuous
 62
     7
370
    25
100
AcDbSpline
210
0.0
220
0.0
230
1.0
 70
     8
 71
     3
 72
    14
 73
    10
 74
     0
 42
0.000000001
 43
0.00000001
 40
0.0
 40
0.0
 40
0.0
 40
0.0
 40
0.2406879869660249
 40
0.3654952459220747
 40
0.4913826376216146
 40
0.5985913695766489
 40
0.7015347267454136
 40
0.8683339995568877
 40
1.0
 40
1.0
 40
1.0
 40
1.0
 10
266.7627464707926
 20
37.25494162933697
 30
0.0
 10
266.870082778791
 20
37.32100435861657
 30
0.0
 10
267.0330776618462
 20
37.42132350536209
 30
0.0
 10
267.2302292515241
 20
37.58956736714967
 30
0.0
 10
267.3441406312385
 20
37.7125402411877
 30
0.0
 10
267.4019464153179
 20
37.80939834235699
 30
0.0
 10
267.4144874917433
 20
37.88830844919784
 30
0.0
 10
267.3740284541606
 20
37.93796785330089
 30
0.0
 10
267.3094040820261
 20
37.95037379889229
 30
0.0
 10
267.2808954635281
 20
37.95584660053493
 30
0.0
  0
ARC
  5
286
330
1F
100
AcDbEntity
  8
0
  6
Continuous
 62
     7
370
    25
100
AcDbCircle
 10
269.0159755562
 20
35.9682314265
 30
0.0
 40
2.63839288357793
100
AcDbArc
 50
130.8153671361
 51
131.1191933339
  0
SPLINE
  5
287
330
1F
100
AcDbEntity
  8
0
  6
Continuous
 62
     7
370
    25
100
AcDbSpline
210
0.0
220
0.0
230
1.0
 70
     8
 71
     3
 72
     9
 73
     5
 74
     0
 42
0.000000001
 43
0.00000001
 40
0.0
 40
0.0
 40
0.0
 40
0.0
 40
0.9171274865447463
 40
1.0
 40
1.0
 40
1.0
 40
1.0
 10
267.291459669889
 20
37.96501933859805
 30
0.0
 10
267.4029413844956
 20
38.00511786664178
 30
0.0
 10
267.5244966930456
 20
38.04883973588245
 30
0.0
 10
267.6497717722151
 20
38.10798092591265
 30
0.0
 10
267.6601536328992
 20
38.11288210497919
 30
0.0
  0
SPLINE
  5
288
330
1F
100
AcDbEntity
  8
0
  6
Continuous
 62
     7
370
    25
100
AcDbSpline
210
0.0
220
0.0
230
1.0
 70
    11
 71
     3
 72
    26
 73
    22
 74
     0
 42
0.000000001
 43
0.00000001
 40
0.0
 40
0.0
 40
0.0
 40
0.0
 40
0.04563315748148
 40
0.0911467478496215
 40
0.1396865101286317
 40
0.1952354321624817
 40
0.2567870449727143
 40
0.3195026415442451
 40
0.3782718800630202
 40
0.432041319851695
 40
0.4825626096834963
 40
0.5316193873176076
 40
0.5803375259048906
 40
0.6295795584515792
 40
0.6804007661097772
 40
0.7342113811712622
 40
0.7923205669967431
 40
0.8544915951796136
 40
0.9168150471610098
 40
0.9638627556960235
 40
1.0
 40
1.0
 40
1.0
 40
1.0
 10
272.1324107200721
 20
32.71542493963957
 30
0.0
 10
272.1685795762574
 20
32.73991803380583
 30
0.0
 10
272.2408225196931
 20
32.7888400458085
 30
0.0
 10
272.3443634815739
 20
32.9046857924274
 30
0.0
 10
272.437798673755
 20
33.04111411046784
 30
0.0
 10
272.5166265655632
 20
33.19548443843238
 30
0.0
 10
272.5688114223362
 20
33.34811604854706
 30
0.0
 10
272.580089406375
 20
33.46910567989421
 30
0.0
 10
272.5444341949802
 20
33.53538981481271
 30
0.0
 10
272.4688259318127
 20
33.54511369926719
 30
0.0
 10
272.3653620183306
 20
33.50862587213462
 30
0.0
 10
272.2455312049935
 20
33.43628232309622
 30
0.0
 10
272.1213475236762
 20
33.3365336138759
 30
0.0
 10
272.0058206951051
 20
33.21720131732518
 30
0.0
 10
271.9115443315748
 20
33.08587914562128
 30
0.0
 10
271.8498188349343
 20
32.95048434866623
 30
0.0
 10
271.8312482427073
 20
32.82203198065218
 30
0.0
 10
271.8640402665268
 20
32.71825577021981
 30
0.0
 10
271.9430977964834
 20
32.66744794566874
 30
0.0
 10
272.0401337796449
 20
32.67042165044748
 30
0.0
 10
272.1044642489235
 20
32.7017954985552
 30
0.0
 10
272.1324107200721
 20
32.71542493963957
 30
0.0
  0
LWPOLYLINE
  5
289
330
1F
100
AcDbEntity
  8
0
  6
Continuous
 62
     7
370
    25
100
AcDbPolyline
 90
       18
 70
   128
 43
0.0
 10
266.2834024601
 20
35.4027705016
 10
266.246667695
 20
35.2043261733
 10
266.2523326595
 20
34.7218265609
 10
266.3868100822
 20
34.2334209753
 10
266.6450505731
 20
33.7574557631
 10
267.0173534424
 20
33.3118093539
 10
267.4897344973
 20
32.9132225629
 10
268.0444472805
 20
32.5766672889
 10
268.6606567609
 20
32.3147857334
 10
269.3152146051
 20
32.1374152537
 10
269.9835333953
 20
32.0512189994
 10
270.6405112259
 20
32.0594330745
 10
271.2614649432
 20
32.1617513718
 10
271.8230724611
 20
32.3543285617
 10
272.3042357627
 20
32.6299323265
 10
272.6868816496
 20
32.978209069
 10
272.9566358034
 20
33.3860764616
 10
273.0797121743
 20
33.7264132594
  0
LINE
  5
28A
330
1F
100
AcDbEntity
  8
0
  6
Continuous
 62
     7
370
    25
100
AcDbLine
 10
267.2808954635
 20
37.9558466005
 30
0.0
 11
267.1813735833
 21
37.5523630287
 31
0.0
  0
SPLINE
  5
28B
330
1F
100
AcDbEntity
  8
0
  6
Continuous
 62
     7
370
    25
100
AcDbSpline
210
0.0
220
0.0
230
1.0
 70
     8
 71
     3
 72
    12
 73
     8
 74
     0
 42
0.000000001
 43
0.00000001
 40
0.0
 40
0.0
 40
0.0
 40
0.0
 40
0.1635822686531891
 40
0.3271706939430811
 40
0.4959506110614689
 40
0.6647460968667885
 40
1.0
 40
1.0
 40
1.0
 40
1.0
 10
267.9218343603164
 20
32.23665288940777
 30
0.0
 10
268.2427854588349
 20
31.94641834820594
 30
0.0
 10
268.8846997352942
 20
31.3659383424385
 30
0.0
 10
269.9173881772146
 20
30.47684901100298
 30
0.0
 10
270.9952033089606
 20
29.58110787974723
 30
0.0
 10
272.481386395953
 20
28.38648984108229
 30
0.0
 10
273.6298230895323
 20
27.52674515818849
 30
0.0
 10
274.3936726099824
 20
26.95491079639081
 30
0.0
  0
SPLINE
  5
28C
330
1F
100
AcDbEntity
  8
0
  6
Continuous
 62
     7
370
    25
100
AcDbSpline
210
0.0
220
0.0
230
1.0
 70
     8
 71
     3
 72
    11
 73
     7
 74
     0
 42
0.000000001
 43
0.00000001
 40
0.0
 40
0.0
 40
0.0
 40
0.0
 40
0.3062284477195354
 40
0.6132384385474643
 40
0.8968963271563182
 40
1.0
 40
1.0
 40
1.0
 40
1.0
 10
274.3936726099824
 20
26.95491079639081
 30
0.0
 10
274.6368744666065
 20
26.7541418141664
 30
0.0
 10
275.1238988692007
 20
26.35209145573328
 30
0.0
 10
275.581902834062
 20
25.64094119565395
 30
0.0
 10
275.7098141727218
 20
25.07774587494839
 30
0.0
 10
275.6581641290419
 20
24.7942644241498
 30
0.0
 10
275.6443951567946
 20
24.71869337037025
 30
0.0
  0
ARC
  5
28D
330
1F
100
AcDbEntity
  8
0
  6
Continuous
 62
     7
370
    25
100
AcDbCircle
 10
284.5710209478
 20
50.9046760113
 30
0.0
 40
27.66568876579117
100
AcDbArc
 50
244.686414324
 51
251.1761010174
  0
SPLINE
  5
28E
330
1F
100
AcDbEntity
  8
0
  6
Continuous
 62
     7
370
    25
100
AcDbSpline
210
0.0
220
0.0
230
1.0
 70
     8
 71
     3
 72
    10
 73
     6
 74
     0
 42
0.000000001
 43
0.00000001
 40
0.0
 40
0.0
 40
0.0
 40
0.0
 40
0.4116165972256557
 40
0.8227976580493703
 40
1.0
 40
1.0
 40
1.0
 40
1.0
 10
272.741940909563
 20
25.89541372044466
 30
0.0
 10
272.6406378465495
 20
26.0351307112607
 30
0.0
 10
272.4381389104944
 20
26.31441685668822
 30
0.0
 10
272.0849975294415
 20
26.59495232211246
 30
0.0
 10
271.8664089672704
 20
26.71863157636562
 30
0.0
 10
271.8005770540014
 20
26.75587982878238
 30
0.0
  0
ARC
  5
28F
330
1F
100
AcDbEntity
  8
0
  6
Continuous
 62
     7
370
    25
100
AcDbCircle
 10
282.8745413254
 20
47.9239165906
 30
0.0
 40
23.88971462858041
100
AcDbArc
 50
229.3724156019
 51
242.3838848704
  0
SPLINE
  5
290
330
1F
100
AcDbEntity
  8
0
  6
Continuous
 62
     7
370
    25
100
AcDbSpline
210
0.0
220
0.0
230
1.0
 70
     8
 71
     3
 72
    12
 73
     8
 74
     0
 42
0.000000001
 43
0.00000001
 40
0.0
 40
0.0
 40
0.0
 40
0.0
 40
0.1331515686281406
 40
0.3026916973683538
 40
0.4776121957245545
 40
0.6525488291904491
 40
1.0
 40
1.0
 40
1.0
 40
1.0
 10
273.4191294711113
 20
35.10249256884585
 30
0.0
 10
273.6601308484256
 20
34.86793844308483
 30
0.0
 10
274.2079960874083
 20
34.33472965566433
 30
0.0
 10
274.9662734494017
 20
33.39125016104408
 30
0.0
 10
275.6993397690445
 20
32.29681633417724
 30
0.0
 10
276.5553025515881
 20
30.73827394062231
 30
0.0
 10
276.9893502458197
 20
29.4661438700213
 30
0.0
 10
277.2780445421138
 20
28.62002326989471
 30
0.0
  0
ARC
  5
291
330
1F
100
AcDbEntity
  8
0
  6
Continuous
 62
     7
370
    25
100
AcDbCircle
 10
247.7631161803
 20
10.3669743864
 30
0.0
 40
29.74317999955569
100
AcDbArc
 50
47.3312025276
 51
56.8359911769
  0
LINE
  5
292
330
1F
100
AcDbEntity
  8
0
  6
Continuous
 62
     7
370
    25
100
AcDbLine
 10
264.0337507067
 20
35.2652315261
 30
0.0
 11
263.3911439636
 21
35.788933543
 31
0.0
  0
SPLINE
  5
293
330
1F
100
AcDbEntity
  8
0
  6
Continuous
 62
     7
370
    25
100
AcDbSpline
210
0.0
220
0.0
230
1.0
 70
     8
 71
     3
 72
    11
 73
     7
 74
     0
 42
0.000000001
 43
0.00000001
 40
0.0
 40
0.0
 40
0.0
 40
0.0
 40
0.3212682591608648
 40
0.6365509399435157
 40
0.9394616524480975
 40
0.9999999999999999
 40
0.9999999999999999
 40
0.9999999999999999
 40
0.9999999999999999
 10
269.7511037331873
 20
31.99298815586261
 30
0.0
 10
269.3700599049023
 20
32.07129880664884
 30
0.0
 10
268.615071510817
 20
32.22646109530994
 30
0.0
 10
267.6313674398603
 20
32.77046556515202
 30
0.0
 10
267.0109409483228
 20
33.25382715141156
 30
0.0
 10
266.8431346087492
 20
33.5461101194554
 30
0.0
 10
266.8151837357852
 20
33.59479459782546
 30
0.0
  0
SPLINE
  5
294
330
1F
100
AcDbEntity
  8
0
  6
Continuous
 62
     7
370
    25
100
AcDbSpline
210
0.0
220
0.0
230
1.0
 70
     8
 71
     3
 72
    11
 73
     7
 74
     0
 42
0.000000001
 43
0.00000001
 40
0.0
 40
0.0
 40
0.0
 40
0.0
 40
0.2278608834861711
 40
0.5130066381680719
 40
0.800511728750342
 40
1.0
 40
1.0
 40
1.0
 40
1.0
 10
272.8665567105822
 20
33.25732351447073
 30
0.0
 10
272.7431272398687
 20
33.05112316069285
 30
0.0
 10
272.4652377800684
 20
32.58688310043224
 30
0.0
 10
271.6431092392248
 20
32.12540358092716
 30
0.0
 10
270.684128239957
 20
31.91569189244072
 30
0.0
 10
270.0222361814854
 20
31.97052623230775
 30
0.0
 10
269.7511037331873
 20
31.99298815586261
 30
0.0
  0
SPLINE
  5
295
330
1F
100
AcDbEntity
  8
0
  6
Continuous
 62
     7
370
    25
100
AcDbSpline
210
0.0
220
0.0
230
1.0
 70
     8
 71
     3
 72
    12
 73
     8
 74
     0
 42
0.000000001
 43
0.00000001
 40
0.0
 40
0.0
 40
0.0
 40
0.0
 40
0.0346936385793805
 40
0.313334577715709
 40
0.5948255008099155
 40
0.876932806960792
 40
1.0
 40
1.0
 40
1.0
 40
1.0
 10
266.5021699990382
 20
36.28970587100659
 30
0.0
 10
266.4922688312761
 20
36.29259549238739
 30
0.0
 10
266.4028467254764
 20
36.3186930230064
 30
0.0
 10
266.2703704440091
 20
36.40997544156857
 30
0.0
 10
266.1425520555915
 20
36.5509030879937
 30
0.0
 10
266.093450950258
 20
36.68285789784405
 30
0.0
 10
266.1197377939951
 20
36.75580089472172
 30
0.0
 10
266.1277221268666
 20
36.7779565088967
 30
0.0
  0
SPLINE
  5
296
330
1F
100
AcDbEntity
  8
0
  6
Continuous
 62
     7
370
    25
100
AcDbSpline
210
0.0
220
0.0
230
1.0
 70
     8
 71
     3
 72
    11
 73
     7
 74
     0
 42
0.000000001
 43
0.00000001
 40
0.0
 40
0.0
 40
0.0
 40
0.0
 40
0.3062284477195354
 40
0.6132384385474643
 40
0.8968963271563182
 40
1.0
 40
1.0
 40
1.0
 40
1.0
 10
277.2780445421138
 20
28.62002326989471
 30
0.0
 10
277.3501553237223
 20
28.32048551241628
 30
0.0
 10
277.4945609249826
 20
27.72064553004366
 30
0.0
 10
277.5430398098036
 20
26.77308147346621
 30
0.0
 10
277.4931191539403
 20
26.10722592750679
 30
0.0
 10
277.4292013947135
 20
25.81666247526758
 30
0.0
 10
277.4121620702483
 20
25.73920348733846
 30
0.0
  0
LINE
  5
297
330
1F
100
AcDbEntity
  8
0
  6
Continuous
 62
     7
370
    25
100
AcDbLine
 10
277.4121620702
 20
25.7392034873
 30
0.0
 11
275.6443951568
 21
24.7186933704
 31
0.0
  0
LINE
  5
298
330
1F
100
AcDbEntity
  8
0
  6
Continuous
 62
     7
370
    25
100
AcDbLine
 10
267.3190000835
 20
29.7926286687
 30
0.0
 11
264.0136716846
 21
32.6524069056
 31
0.0
  0
ARC
  5
299
330
1F
100
AcDbEntity
  8
0
  6
Continuous
 62
     7
370
    25
100
AcDbCircle
 10
263.0921129187
 20
31.643873999
 30
0.0
 40
1.366165869439788
100
AcDbArc
 50
47.5801273397
 51
74.1728011899
  0
SPLINE
  5
29A
330
1F
100
AcDbEntity
  8
0
  6
Continuous
 62
     7
370
    25
100
AcDbSpline
210
0.0
220
0.0
230
1.0
 70
     8
 71
     3
 72
    11
 73
     7
 74
     0
 42
0.000000001
 43
0.00000001
 40
0.0
 40
0.0
 40
0.0
 40
0.0
 40
0.2664426212300547
 40
0.5067918604689353
 40
0.7475015030654555
 40
1.0
 40
1.0
 40
1.0
 40
1.0
 10
268.1535848983902
 20
38.77387969000568
 30
0.0
 10
267.9124753399472
 20
38.82094597479318
 30
0.0
 10
267.453868675833
 20
38.9104692272019
 30
0.0
 10
266.7583157668234
 20
38.77166804425347
 30
0.0
 10
266.0947539909529
 20
38.56450940878879
 30
0.0
 10
265.6801728485067
 20
38.32939595381692
 30
0.0
 10
265.4679275367716
 20
38.20902933933662
 30
0.0
  0
SPLINE
  5
29B
330
1F
100
AcDbEntity
  8
0
  6
Continuous
 62
     7
370
    25
100
AcDbSpline
210
0.0
220
0.0
230
1.0
 70
     8
 71
     3
 72
    11
 73
     7
 74
     0
 42
0.000000001
 43
0.00000001
 40
0.0
 40
0.0
 40
0.0
 40
0.0
 40
0.4103018984020224
 40
0.6600741067982809
 40
0.9170184568332459
 40
1.0
 40
1.0
 40
1.0
 40
1.0
 10
263.3911439636212
 20
35.7889335429882
 30
0.0
 10
263.226780729341
 20
35.97084233451469
 30
0.0
 10
262.9623610045469
 20
36.26348851420149
 30
0.0
 10
262.8208972801253
 20
36.49607986195796
 30
0.0
 10
262.7693218723398
 20
36.61430606761014
 30
0.0
 10
262.7939509294904
 20
36.63826054355116
 30
0.0
 10
262.799963290449
 20
36.64410822805856
 30
0.0
  0
SPLINE
  5
29C
330
1F
100
AcDbEntity
  8
0
  6
Continuous
 62
     7
370
    25
100
AcDbSpline
210
0.0
220
0.0
230
1.0
 70
     8
 71
     3
 72
    10
 73
     6
 74
     0
 42
0.000000001
 43
0.00000001
 40
0.0
 40
0.0
 40
0.0
 40
0.0
 40
0.1480683723297169
 40
0.9078074069879805
 40
1.0
 40
1.0
 40
1.0
 40
1.0
 10
263.0768664388043
 20
32.94818087955804
 30
0.0
 10
263.0928255859981
 20
32.95429421134148
 30
0.0
 10
263.1906711407493
 20
32.99177505743345
 30
0.0
 10
263.323542574991
 20
32.99111524879427
 30
0.0
 10
263.4509313839566
 20
32.9614562295003
 30
0.0
 10
263.4647168853252
 20
32.95824665046121
 30
0.0
  0
ARC
  5
29D
330
1F
100
AcDbEntity
  8
0
  6
Continuous
 62
     7
370
    25
100
AcDbCircle
 10
264.6884008742
 20
34.6337350044
 30
0.0
 40
2.33198112003932
100
AcDbArc
 50
169.076582541
 51
226.2860751091
  0
LINE
  5
29E
330
1F
100
AcDbEntity
  8
0
  6
Continuous
 62
     7
370
    25
100
AcDbLine
 10
273.4362559089
 20
23.3545808678
 30
0.0
 11
279.9474973871
 21
20.0245743636
 31
0.0
  0
LINE
  5
29F
330
1F
100
AcDbEntity
  8
0
  6
Continuous
 62
     7
370
    25
100
AcDbLine
 10
273.2052236782
 20
23.7148948524
 30
0.0
 11
273.4362559089
 21
23.3545808678
 31
0.0
  0
LINE
  5
2A0
330
1F
100
AcDbEntity
  8
0
  6
Continuous
 62
     7
370
    25
100
AcDbLine
 10
273.1899233844
 20
22.3558936927
 30
0.0
 11
279.7011648627
 21
19.025887236
 31
0.0
  0
LINE
  5
2A1
330
1F
100
AcDbEntity
  8
0
  6
Continuous
 62
     7
370
    25
100
AcDbLine
 10
273.1899233844
 20
22.3558936927
 30
0.0
 11
273.4362559089
 21
23.3545808678
 31
0.0
  0
LWPOLYLINE
  5
2A2
330
1F
100
AcDbEntity
  8
0
  6
Continuous
 62
     7
370
    25
100
AcDbPolyline
 90
        7
 70
   128
 43
0.0
 10
279.7011648627
 20
19.025887236
 10
279.7743993336
 20
18.9984464438
 10
279.8519787784
 20
18.9878163977
 10
279.9262023935
 20
18.9950529421
 10
279.9897070855
 20
19.0194363937
 10
280.036189719
 20
19.0585472736
 10
280.0609062424
 20
19.1079712469
  0
LWPOLYLINE
  5
2A3
330
1F
100
AcDbEntity
  8
0
  6
Continuous
 62
     7
370
    25
100
AcDbPolyline
 90
        3
 70
   128
 43
0.0
 10
279.7955649644
 20
18.9924432875
 10
279.7750092282
 20
18.9960529717
 10
279.7566423601
 20
19.0020438075
  0
LINE
  5
2A4
330
1F
100
AcDbEntity
  8
0
  6
Continuous
 62
     7
370
    25
100
AcDbLine
 10
272.9588911537
 20
22.716207701
 30
0.0
 11
273.1899233844
 21
22.3558936927
 31
0.0
  0
LINE
  5
2A5
330
1F
100
AcDbEntity
  8
0
  6
Continuous
 62
     7
370
    25
100
AcDbLine
 10
273.4912293934
 20
25.5544101902
 30
0.0
 11
273.8155358925
 21
25.0486292994
 31
0.0
  0
LINE
  5
2A6
330
1F
100
AcDbEntity
  8
0
  6
Continuous
 62
     7
370
    25
100
AcDbLine
 10
280.7618697218
 20
21.7605922127
 30
0.0
 11
277.5210899417
 21
26.8148479598
 31
0.0
  0
LWPOLYLINE
  5
2A7
330
1F
100
AcDbEntity
  8
0
  6
Continuous
 62
     7
370
    25
100
AcDbPolyline
 90
        9
 70
   128
 43
0.0
 10
280.4921178317
 20
21.6048677613
 10
280.550704359
 20
21.5829158088
 10
280.6127673838
 20
21.5744120711
 10
280.6721473337
 20
21.5802007129
 10
280.7229516141
 20
21.5997071165
 10
280.7601371941
 20
21.6309961781
 10
280.7800150102
 20
21.6709620707
 10
280.7806121249
 20
21.715638737
 10
280.7618697218
 20
21.7605922127
  0
LINE
  5
2A8
330
1F
100
AcDbEntity
  8
0
  6
Continuous
 62
     7
370
    25
100
AcDbLine
 10
273.8980620561
 20
24.9772274864
 30
0.0
 11
280.4921178317
 21
21.6048677613
 31
0.0
  0
ARC
  5
2A9
330
1F
100
AcDbEntity
  8
0
  6
Continuous
 62
     7
370
    25
100
AcDbCircle
 10
273.9904851763
 20
25.1674428079
 30
0.0
 40
0.2114802631214859
100
AcDbArc
 50
214.18164749
 51
244.085493424
  0
LWPOLYLINE
  5
2AA
330
1F
100
AcDbEntity
  8
0
  6
Continuous
 62
     7
370
    25
100
AcDbPolyline
 90
        9
 70
   128
 43
0.0
 10
280.4967990645
 20
21.6105455728
 10
280.552456005
 20
21.5896913719
 10
280.6114168016
 20
21.5816122903
 10
280.6678274875
 20
21.5871116504
 10
280.7160895803
 20
21.6056438754
 10
280.751417859
 20
21.6353673447
 10
280.7703020447
 20
21.6733347887
 10
280.7708683826
 20
21.7157781537
 10
280.7530633662
 20
21.7584838052
  0
LINE
  5
2AB
330
1F
100
AcDbEntity
  8
0
  6
Continuous
 62
     7
370
    25
100
AcDbLine
 10
280.7530633662
 20
21.7584838052
 30
0.0
 11
277.5221561252
 21
26.7973424604
 31
0.0
  0
LINE
  5
2AC
330
1F
100
AcDbEntity
  8
0
  6
Continuous
 62
     7
370
    25
100
AcDbLine
 10
273.5053388741
 20
25.5482495522
 30
0.0
 11
273.8243422789
 21
25.0507377188
 31
0.0
  0
ARC
  5
2AD
330
1F
100
AcDbEntity
  8
0
  6
Continuous
 62
     7
370
    25
100
AcDbCircle
 10
273.9905419296
 20
25.163608423
 30
0.0
 40
0.2009032596048118
100
AcDbArc
 50
214.1814927681
 51
244.0853074084
  0
LINE
  5
2AE
330
1F
100
AcDbEntity
  8
0
  6
Continuous
 62
     7
370
    25
100
AcDbLine
 10
273.9027406855
 20
24.9829068423
 30
0.0
 11
280.4967990645
 21
21.6105455728
 31
0.0
  0
LWPOLYLINE
  5
2AF
330
1F
100
AcDbEntity
  8
0
  6
Continuous
 62
     7
370
    25
100
AcDbPolyline
 90
        7
 70
   128
 43
0.0
 10
280.0849845435
 20
19.9542598992
 10
280.1435710707
 20
19.9323081042
 10
280.2056340955
 20
19.9238042551
 10
280.2650140454
 20
19.9295929227
 10
280.3158183258
 20
19.9490994178
 10
280.3530039058
 20
19.9803883879
 10
280.3727760719
 20
20.0199280993
  0
LINE
  5
2B0
330
1F
100
AcDbEntity
  8
0
  6
Continuous
 62
     7
370
    25
100
AcDbLine
 10
280.5669661278
 20
21.6423523925
 30
0.0
 11
280.7530633662
 21
21.7584838052
 31
0.0
  0
LINE
  5
2B1
330
1F
100
AcDbEntity
  8
0
  6
Continuous
 62
     7
370
    25
100
AcDbLine
 10
280.5669661278
 20
21.6423523925
 30
0.0
 11
280.4967990645
 21
21.6105455728
 31
0.0
  0
LINE
  5
2B2
330
1F
100
AcDbEntity
  8
0
  6
Continuous
 62
     7
370
    25
100
AcDbLine
 10
273.4909287678
 20
23.3266197401
 30
0.0
 11
280.0849845435
 21
19.9542598992
 31
0.0
  0
LINE
  5
2B3
330
1F
100
AcDbEntity
  8
0
  6
Continuous
 62
     7
370
    25
100
AcDbLine
 10
279.3700483136
 20
22.4336267689
 30
0.0
 11
280.5669661278
 21
21.6423523925
 31
0.0
  0
LINE
  5
2B4
330
1F
100
AcDbEntity
  8
0
  6
Continuous
 62
     7
370
    25
100
AcDbLine
 10
273.9729102492
 20
25.0147120908
 30
0.0
 11
273.9027406855
 21
24.9829068423
 31
0.0
  0
LINE
  5
2B5
330
1F
100
AcDbEntity
  8
0
  6
Continuous
 62
     7
370
    25
100
AcDbLine
 10
274.080517245
 20
25.019335432
 30
0.0
 11
273.9729102492
 21
25.0147120908
 31
0.0
  0
LINE
  5
2B6
330
1F
100
AcDbEntity
  8
0
  6
Continuous
 62
     7
370
    25
100
AcDbLine
 10
278.2021573715
 20
23.0309143822
 30
0.0
 11
279.3700483136
 21
22.4336267689
 31
0.0
  0
LINE
  5
2B7
330
1F
100
AcDbEntity
  8
0
  6
Continuous
 62
     7
370
    25
100
AcDbLine
 10
279.3700483136
 20
22.4336267689
 30
0.0
 11
278.7750208762
 21
23.3616214441
 31
0.0
  0
SPLINE
  5
2B8
330
1F
100
AcDbEntity
  8
0
  6
Continuous
 62
     7
370
    25
100
AcDbSpline
210
0.0
220
0.0
230
1.0
 70
     8
 71
     3
 72
    14
 73
    10
 74
     0
 42
0.000000001
 43
0.00000001
 40
0.0
 40
0.0
 40
0.0
 40
0.0
 40
0.221059256420748
 40
0.3460799392327774
 40
0.4396034696026686
 40
0.5338900665337857
 40
0.6146544769576648
 40
0.7517204168405897
 40
0.9999999999999999
 40
0.9999999999999999
 40
0.9999999999999999
 40
0.9999999999999999
 10
278.1873818759476
 20
23.2450172442151
 30
0.0
 10
278.1638049780427
 20
23.23556650578776
 30
0.0
 10
278.1268940993656
 20
23.22077087572188
 30
0.0
 10
278.0905955757967
 20
23.19224400048885
 30
0.0
 10
278.0751733221154
 20
23.16616604890047
 30
0.0
 10
278.0755614659113
 20
23.13996760807098
 30
0.0
 10
278.0907365055563
 20
23.11028938436573
 30
0.0
 10
278.1303874008157
 20
23.0707462691715
 30
0.0
 10
278.1740350350975
 20
23.04652210384219
 30
0.0
 10
278.2021573715395
 20
23.03091438217239
 30
0.0
  0
LWPOLYLINE
  5
2B9
330
1F
100
AcDbEntity
  8
0
  6
Continuous
 62
     7
370
    25
100
AcDbPolyline
 90
        9
 70
   128
 43
0.0
 10
277.3627474422
 20
24.0205706046
 10
277.5092163842
 20
23.9656892102
 10
277.6643726395
 20
23.9444306388
 10
277.812822504
 20
23.9589022068
 10
277.9398318879
 20
24.007669015
 10
278.0327971549
 20
24.0858908698
 10
278.082491685
 20
24.1858056259
 10
278.083985799
 20
24.2974965306
 10
278.0371271468
 20
24.4098817214
  0
ARC
  5
2BA
330
1F
100
AcDbEntity
  8
0
  6
Continuous
 62
     7
370
    25
100
AcDbCircle
 10
277.8781690708
 20
24.119843349
 30
0.0
 40
0.9278648998730076
100
AcDbArc
 50
289.4662761063
 51
310.528347361
  0
SPLINE
  5
2BB
330
1F
100
AcDbEntity
  8
0
  6
Continuous
 62
     7
370
    25
100
AcDbSpline
210
0.0
220
0.0
230
1.0
 70
     8
 71
     3
 72
    14
 73
    10
 74
     0
 42
0.000000001
 43
0.00000001
 40
0.0
 40
0.0
 40
0.0
 40
0.0
 40
0.2234989511763908
 40
0.3567677221925151
 40
0.4531223778565683
 40
0.5344607693983845
 40
0.615731586481909
 40
0.7396164774418441
 40
1.0
 40
1.0
 40
1.0
 40
1.0
 10
278.7750208761763
 20
23.36162144410148
 30
0.0
 10
278.7606868073228
 20
23.38193753133308
 30
0.0
 10
278.737805567533
 20
23.41436776927079
 30
0.0
 10
278.6946038712716
 20
23.44993634044597
 30
0.0
 10
278.657836699637
 20
23.46824921984572
 30
0.0
 10
278.6234255023613
 20
23.47565096258136
 30
0.0
 10
278.5861651148913
 20
23.47411809493251
 30
0.0
 10
278.5333708965222
 20
23.45679536383096
 30
0.0
 10
278.5022237149412
 20
23.43163586103528
 30
0.0
 10
278.4811181216305
 20
23.41458756944197
 30
0.0
  0
LINE
  5
2BC
330
1F
100
AcDbEntity
  8
0
  6
Continuous
 62
     7
370
    25
100
AcDbLine
 10
275.8103565223
 20
24.8145008274
 30
0.0
 11
277.3627474422
 21
24.0205706046
 31
0.0
  0
LINE
  5
2BD
330
1F
100
AcDbEntity
  8
0
  6
Continuous
 62
     7
370
    25
100
AcDbLine
 10
278.0371271468
 20
24.4098817214
 30
0.0
 11
277.2462007047
 21
25.6433960304
 31
0.0
  0
ARC
  5
2BE
330
1F
100
AcDbEntity
  8
0
  6
Continuous
 62
     7
370
    25
100
AcDbCircle
 10
273.583351278
 20
23.5168343565
 30
0.0
 40
0.2114793622399035
100
AcDbArc
 50
214.1815823098
 51
244.0855586041
  0
LINE
  5
2BF
330
1F
100
AcDbEntity
  8
0
  6
Continuous
 62
     7
370
    25
100
AcDbLine
 10
273.9729102492
 20
25.0147120908
 30
0.0
 11
273.8243422789
 21
25.0507377188
 31
0.0
  0
LINE
  5
2C0
330
1F
100
AcDbEntity
  8
0
  6
Continuous
 62
     7
370
    25
100
AcDbLine
 10
273.2052236782
 20
23.7148948524
 30
0.0
 11
273.4084026043
 21
23.3980215532
 31
0.0
  0
SPLINE
  5
2C1
330
1F
100
AcDbEntity
  8
0
  6
Continuous
 62
     7
370
    25
100
AcDbSpline
210
0.0
220
0.0
230
1.0
 70
     8
 71
     3
 72
    11
 73
     7
 74
     0
 42
0.000000001
 43
0.00000001
 40
0.0
 40
0.0
 40
0.0
 40
0.0
 40
0.3243049754913915
 40
0.648454164893366
 40
0.9886720782389613
 40
1.0
 40
1.0
 40
1.0
 40
1.0
 10
274.0805172450072
 20
25.01933543198473
 30
0.0
 10
274.1036426251121
 20
25.02340826379214
 30
0.0
 10
274.1498822766039
 20
25.0315519709444
 30
0.0
 10
274.2373085572178
 20
25.0834866860842
 30
0.0
 10
274.2976551063254
 20
25.13472187229243
 30
0.0
 10
274.327426256709
 20
25.16447211837941
 30
0.0
 10
274.3283855775959
 20
25.16543076566347
 30
0.0
  0
ELLIPSE
  5
2C2
330
1F
100
AcDbEntity
  8
0
  6
Continuous
 62
     7
370
    25
100
AcDbEllipse
 10
244.537767706
 20
42.4889691462
 30
0.0
 11
-0.7461041289971605
 21
17.93477386060238
 31
0.0
210
0.0
220
0.0
230
1.0
 40
0.4444802122
 41
2.401404845694029
 42
2.866866793327966
  0
SPLINE
  5
2C3
330
1F
100
AcDbEntity
  8
0
  6
Continuous
 62
     7
370
    25
100
AcDbSpline
210
0.0
220
0.0
230
1.0
 70
     8
 71
     3
 72
    12
 73
     8
 74
     0
 42
0.000000001
 43
0.00000001
 40
0.0
 40
0.0
 40
0.0
 40
0.0
 40
0.5000000000000028
 40
0.5000000000000028
 40
0.7500000000000013
 40
0.7500000000000013
 40
1.0
 40
1.0
 40
1.0
 40
1.0
 10
239.7123535162933
 20
29.02331488149279
 30
0.0
 10
239.6883033209473
 20
29.06792514492034
 30
0.0
 10
239.660213841149
 20
29.11523145528023
 30
0.0
 10
239.6081736785451
 20
29.18682894156877
 30
0.0
 10
239.5888308749705
 20
29.21119780867552
 30
0.0
 10
239.5459691015252
 20
29.25657950029141
 30
0.0
 10
239.5221114973406
 20
29.27749577784105
 30
0.0
 10
239.4999520033139
 20
29.29028818144871
 30
0.0
  0
LINE
  5
2C4
330
1F
100
AcDbEntity
  8
0
  6
Continuous
 62
     7
370
    25
100
AcDbLine
 10
239.4999518151
 20
29.2902879003
 30
0.0
 11
238.45891873
 21
29.8912635082
 31
0.0
  0
SPLINE
  5
2C5
330
1F
100
AcDbEntity
  8
0
  6
Continuous
 62
     7
370
    25
100
AcDbSpline
210
0.0
220
0.0
230
1.0
 70
     8
 71
     3
 72
    12
 73
     8
 74
     0
 42
0.000000001
 43
0.00000001
 40
0.0
 40
0.0
 40
0.0
 40
0.0
 40
0.2499999999999996
 40
0.2499999999999996
 40
0.4999999999999991
 40
0.4999999999999991
 40
1.0
 40
1.0
 40
1.0
 40
1.0
 10
238.458918862631
 20
29.89126382143873
 30
0.0
 10
238.436616701143
 20
29.90413858521876
 30
0.0
 10
238.41849967224
 20
29.90746905362724
 30
0.0
 10
238.3919310581946
 20
29.90204889589469
 30
0.0
 10
238.3833312884003
 20
29.89402637948419
 30
0.0
 10
238.3649674898093
 20
29.86290465185818
 30
0.0
 10
238.3627900518853
 20
29.833362988456
 30
0.0
 10
238.3651341577626
 20
29.80104806265636
 30
0.0
  0
ELLIPSE
  5
2C6
330
1F
100
AcDbEntity
  8
0
  6
Continuous
 62
     7
370
    25
100
AcDbEllipse
 10
254.6827377241
 20
36.6324026153
 30
0.0
 11
15.90471575942235
 21
8.32220498109897
 31
0.0
210
0.0
220
0.0
230
1.0
 40
0.4445305117
 41
2.950908281021531
 42
3.578705763440486
  0
SPLINE
  5
2C7
330
1F
100
AcDbEntity
  8
0
  6
Continuous
 62
     7
370
    25
100
AcDbSpline
210
0.0
220
0.0
230
1.0
 70
     8
 71
     3
 72
    12
 73
     8
 74
     0
 42
0.000000001
 43
0.00000001
 40
0.0
 40
0.0
 40
0.0
 40
0.0
 40
0.4999999999999953
 40
0.4999999999999953
 40
0.7499999999999977
 40
0.7499999999999977
 40
1.0
 40
1.0
 40
1.0
 40
1.0
 10
252.4401341577625
 20
54.1796631076399
 30
0.0
 10
252.4112016260475
 20
54.165649064566
 30
0.0
 10
252.386480944863
 20
54.1488393218985
 30
0.0
 10
252.3687630191798
 20
54.11752541403402
 30
0.0
 10
252.3660970367954
 20
54.1058660789252
 30
0.0
 10
252.3746902097728
 20
54.08027366032883
 30
0.0
 10
252.3867593686042
 20
54.06616491971924
 30
0.0
 10
252.4089188626309
 20
54.05337251611159
 30
0.0
  0
LINE
  5
2C8
330
1F
100
AcDbEntity
  8
0
  6
Continuous
 62
     7
370
    25
100
AcDbLine
 10
252.4089190676
 20
54.0533727876
 30
0.0
 11
253.4499521527
 21
53.4523971797
 31
0.0
  0
SPLINE
  5
2C9
330
1F
100
AcDbEntity
  8
0
  6
Continuous
 62
     7
370
    25
100
AcDbSpline
210
0.0
220
0.0
230
1.0
 70
     8
 71
     3
 72
    12
 73
     8
 74
     0
 42
0.000000001
 43
0.00000001
 40
0.0
 40
0.0
 40
0.0
 40
0.0
 40
0.2499999999999977
 40
0.2499999999999977
 40
0.4999999999999953
 40
0.4999999999999953
 40
1.0
 40
1.0
 40
1.0
 40
1.0
 10
253.4499520033138
 20
53.45239687612155
 30
0.0
 10
253.4722541648019
 20
53.43952211234154
 30
0.0
 10
253.5021340017816
 20
53.4293989118889
 30
0.0
 10
253.5631705435866
 20
53.41491468999873
 30
0.0
 10
253.5934194942455
 20
53.41043533749929
 30
0.0
 10
253.6818215631681
 20
53.40111168846907
 30
0.0
 10
253.7363091215324
 20
53.4004455452803
 30
0.0
 10
253.7873535162932
 20
53.40192992647633
 30
0.0
  0
ELLIPSE
  5
2CA
330
1F
100
AcDbEntity
  8
0
  6
Continuous
 62
     7
370
    25
100
AcDbEllipse
 10
244.537767706
 20
42.4889691462
 30
0.0
 11
15.90471575942226
 21
8.322204981098992
 31
0.0
210
0.0
220
0.0
230
1.0
 40
0.4445305117
 41
0.2747775750656687
 42
0.7400769945754182
  0
ELLIPSE
  5
2CB
330
1F
100
AcDbEntity
  8
0
  6
Continuous
 62
     7
370
    25
100
AcDbEllipse
 10
254.6827377241
 20
36.6324026153
 30
0.0
 11
-0.7461041289971605
 21
17.93477386060238
 31
0.0
210
0.0
220
0.0
230
1.0
 40
0.4444802122
 41
5.8461239121328
 42
6.473758866427526
  0
SPLINE
  5
2CC
330
1F
100
AcDbEntity
  8
0
  6
Continuous
 62
     7
370
    25
100
AcDbSpline
210
0.0
220
0.0
230
1.0
 70
     8
 71
     3
 72
    12
 73
     8
 74
     0
 42
0.000000001
 43
0.00000001
 40
0.0
 40
0.0
 40
0.0
 40
0.0
 40
0.499999999999999
 40
0.499999999999999
 40
0.7499999999999994
 40
0.7499999999999994
 40
1.0
 40
1.0
 40
1.0
 40
1.0
 10
238.3651341577625
 20
37.89245253304456
 30
0.0
 10
238.3627758417572
 20
37.83179166602111
 30
0.0
 10
238.3649704919911
 20
37.77044065833862
 30
0.0
 10
238.3833501307519
 20
37.67894791832911
 30
0.0
 10
238.3921427669803
 20
37.64862000237483
 30
0.0
 10
238.4182834100353
 20
37.59436680789118
 30
0.0
 10
238.4366576890046
 20
37.56985430931046
 30
0.0
 10
238.458918862631
 20
37.55700320731935
 30
0.0
  0
LINE
  5
2CD
330
1F
100
AcDbEntity
  8
0
  6
Continuous
 62
     7
370
    25
100
AcDbLine
 10
238.45891873
 20
37.5570032182
 30
0.0
 11
239.4999518151
 21
36.9560276102
 31
0.0
  0
SPLINE
  5
2CE
330
1F
100
AcDbEntity
  8
0
  6
Continuous
 62
     7
370
    25
100
AcDbSpline
210
0.0
220
0.0
230
1.0
 70
     8
 71
     3
 72
    12
 73
     8
 74
     0
 42
0.000000001
 43
0.00000001
 40
0.0
 40
0.0
 40
0.0
 40
0.0
 40
0.2500000000000018
 40
0.2500000000000018
 40
0.5000000000000037
 40
0.5000000000000037
 40
1.0
 40
1.0
 40
1.0
 40
1.0
 10
239.4999520033139
 20
36.95602756732937
 30
0.0
 10
239.5222460035185
 20
36.94315751495802
 30
0.0
 10
239.5459448572873
 20
36.94304957106039
 30
0.0
 10
239.5889929165684
 20
36.9579747475246
 30
0.0
 10
239.6079919439789
 20
36.97199268558128
 30
0.0
 10
239.6602554127281
 20
37.02265926779939
 30
0.0
 10
239.6879630194359
 20
37.06675398830264
 30
0.0
 10
239.7123535162933
 20
37.11471935188096
 30
0.0
  0
ELLIPSE
  5
2CF
330
1F
100
AcDbEntity
  8
0
  6
Continuous
 62
     7
370
    25
100
AcDbEllipse
 10
244.537767706
 20
42.4889691462
 30
0.0
 11
7.874888476696781
 21
13.63996451050157
 31
0.0
210
0.0
220
0.0
230
1.0
 40
0.1059897947
 41
1.105338485463666
 42
2.036099852607339
  0
SPLINE
  5
2D0
330
1F
100
AcDbEntity
  8
0
  6
Continuous
 62
     7
370
    25
100
AcDbSpline
210
0.0
220
0.0
230
1.0
 70
     8
 71
     3
 72
    12
 73
     8
 74
     0
 42
0.000000001
 43
0.00000001
 40
0.0
 40
0.0
 40
0.0
 40
0.0
 40
0.4999999999999991
 40
0.4999999999999991
 40
0.7499999999999996
 40
0.7499999999999996
 40
1.0
 40
1.0
 40
1.0
 40
1.0
 10
246.7803712723547
 20
49.35688517824903
 30
0.0
 10
246.8097021210011
 20
49.40197007178148
 30
0.0
 10
246.8340379295083
 20
49.44800039276561
 30
0.0
 10
246.85179057838
 20
49.51862762630516
 30
0.0
 10
246.8543582198971
 20
49.54239526157066
 30
0.0
 10
246.8459038866535
 20
49.58643504760497
 30
0.0
 10
246.8338477411127
 20
49.60729897969381
 30
0.0
 10
246.8115865674863
 20
49.62015008168492
 30
0.0
  0
LINE
  5
2D1
330
1F
100
AcDbEntity
  8
0
  6
Continuous
 62
     7
370
    25
100
AcDbLine
 10
246.8115864363
 20
49.6201502232
 30
0.0
 11
245.7705533511
 21
50.2211258312
 31
0.0
  0
SPLINE
  5
2D2
330
1F
100
AcDbEntity
  8
0
  6
Continuous
 62
     7
370
    25
100
AcDbSpline
210
0.0
220
0.0
230
1.0
 70
     8
 71
     3
 72
    12
 73
     8
 74
     0
 42
0.000000001
 43
0.00000001
 40
0.0
 40
0.0
 40
0.0
 40
0.0
 40
0.2500000000000005
 40
0.2500000000000005
 40
0.500000000000001
 40
0.500000000000001
 40
1.0
 40
1.0
 40
1.0
 40
1.0
 10
245.7705534268034
 20
50.22112572167492
 30
0.0
 10
245.7482594265988
 20
50.23399577404627
 30
0.0
 10
245.718392472493
 20
50.23766564401945
 30
0.0
 10
245.6573808483423
 20
50.23311398397422
 30
0.0
 10
245.6271418677662
 20
50.22558684212406
 30
0.0
 10
245.538766109636
 20
50.19577421787805
 30
0.0
 10
245.4845251212853
 20
50.16700187197701
 30
0.0
 10
245.433151913824
 20
50.13461835941263
 30
0.0
  0
ELLIPSE
  5
2D3
330
1F
100
AcDbEntity
  8
0
  6
Continuous
 62
     7
370
    25
100
AcDbEllipse
 10
254.6827377241
 20
36.6324026153
 30
0.0
 11
14.30238360604716
 21
-8.26390210729774
 31
0.0
210
0.0
220
0.0
230
1.0
 40
0.9534948969
 41
2.67653276147994
 42
3.607294128623632
  0
SPLINE
  5
2D4
330
1F
100
AcDbEntity
  8
0
  6
Continuous
 62
     7
370
    25
100
AcDbSpline
210
0.0
220
0.0
230
1.0
 70
     8
 71
     3
 72
     8
 73
     4
 74
     0
 42
0.000000001
 43
0.00000001
 40
0.0
 40
0.0
 40
0.0
 40
0.0
 40
1.0
 40
1.0
 40
1.0
 40
1.0
 10
269.1380175603827
 20
46.13265047090163
 30
0.0
 10
269.2646792027642
 20
46.0084294662917
 30
0.0
 10
269.3988227703782
 20
45.87590429169533
 30
0.0
 10
269.5419650349901
 20
45.73548210444076
 30
0.0
  0
ELLIPSE
  5
2D5
330
1F
100
AcDbEntity
  8
0
  6
Continuous
 62
     7
370
    25
100
AcDbEllipse
 10
261.55751974
 20
32.6636754343
 30
0.0
 11
3.475918560926403
 21
15.75183195312308
 31
0.0
210
0.0
220
0.0
230
1.0
 40
0.6979108556
 41
5.871965935619655
 42
7.830476869375841
  0
SPLINE
  5
2D6
330
1F
100
AcDbEntity
  8
0
  6
Continuous
 62
     7
370
    25
100
AcDbSpline
210
0.0
220
0.0
230
1.0
 70
     8
 71
     3
 72
     8
 73
     4
 74
     0
 42
0.000000001
 43
0.00000001
 40
0.0
 40
0.0
 40
0.0
 40
0.0
 40
1.0
 40
1.0
 40
1.0
 40
1.0
 10
250.5446681386442
 20
34.76857604334022
 30
0.0
 10
250.5594190163899
 20
34.99987232642789
 30
0.0
 10
250.5948256678712
 20
35.23193687183717
 30
0.0
 10
250.6488749853834
 20
35.45909565535695
 30
0.0
  0
ELLIPSE
  5
2D7
330
1F
100
AcDbEntity
  8
0
  6
Continuous
 62
     7
370
    25
100
AcDbEllipse
 10
275.5494321857
 20
24.5863163108
 30
0.0
 11
31.09416846546015
 21
-4.658414017338989
 31
0.0
210
0.0
220
0.0
230
1.0
 40
0.3673999414
 41
2.558006573914974
 42
4.336675574863976
  0
SPLINE
  5
2D8
330
1F
100
AcDbEntity
  8
0
  6
Continuous
 62
     7
370
    25
100
AcDbSpline
210
0.0
220
0.0
230
1.0
 70
     8
 71
     3
 72
     8
 73
     4
 74
     0
 42
0.000000001
 43
0.00000001
 40
0.0
 40
0.0
 40
0.0
 40
0.0
 40
1.0
 40
1.0
 40
1.0
 40
1.0
 10
262.5477370048839
 20
15.66853011187987
 30
0.0
 10
263.4583910963878
 20
15.39416939714805
 30
0.0
 10
264.3357557506931
 20
15.10681521249647
 30
0.0
 10
265.1789663387681
 20
14.78874927758959
 30
0.0
  0
ELLIPSE
  5
2D9
330
1F
100
AcDbEntity
  8
0
  6
Continuous
 62
     7
370
    25
100
AcDbEllipse
 10
280.3348525112
 20
21.8237519597
 30
0.0
 11
47.49737415196358
 21
-14.73945167485261
 31
0.0
210
0.0
220
0.0
230
1.0
 40
0.2327646484
 41
4.460602374478902
 42
4.721380193653392
  0
ELLIPSE
  5
2DA
330
1F
100
AcDbEntity
  8
0
  6
Continuous
 62
     7
370
    25
100
AcDbEllipse
 10
280.1610962777
 20
21.9240592982
 30
0.0
 11
10.25006903279245
 21
12.21853527437532
 31
0.0
210
0.0
220
0.0
230
1.0
 40
0.4227219488
 41
3.996504432187996
 42
4.00605068429352
  0
ARC
  5
2DB
330
1F
100
AcDbEntity
  8
0
  6
Continuous
 62
     7
370
    25
100
AcDbCircle
 10
250.5177074854
 20
50.2729516029
 30
0.0
 40
6.020260438301863
100
AcDbArc
 50
61.1917575526
 51
97.3526392285
  0
ARC
  5
2DC
330
1F
100
AcDbEntity
  8
0
  6
Continuous
 62
     7
370
    25
100
AcDbCircle
 10
240.816957773
 20
33.4493061286
 30
0.0
 40
6.062454101155677
100
AcDbArc
 50
201.5792264425
 51
238.7291015956
  0
LINE
  5
2DD
330
1F
100
AcDbEntity
  8
0
  6
Continuous
 62
     7
370
    25
100
AcDbLine
 10
273.3625642845
 20
25.6110260918
 30
0.0
 11
273.5866974383
 21
25.2614726934
 31
0.0
  0
LINE
  5
2DE
330
1F
100
AcDbEntity
  8
0
  6
Continuous
 62
     7
370
    25
100
AcDbLine
 10
273.5866974383
 20
25.2614726934
 30
0.0
 11
268.4145805749
 21
27.9066183169
 31
0.0
  0
ARC
  5
2DF
330
1F
100
AcDbEntity
  8
0
  6
Continuous
 62
     7
370
    25
100
AcDbCircle
 10
260.2797304349
 20
11.9597154139
 30
0.0
 40
17.9019412075277
100
AcDbArc
 50
62.9729166612
 51
71.9354459935
  0
LINE
  5
2E0
330
1F
100
AcDbEntity
  8
0
  6
Continuous
 62
     7
370
    25
100
AcDbLine
 10
265.8309135653
 20
28.9792296505
 30
0.0
 11
252.8625544885
 21
33.220929087
 31
0.0
  0
LINE
  5
2E1
330
1F
100
AcDbEntity
  8
0
  6
Continuous
 62
     7
370
    25
100
AcDbLine
 10
271.3276387058
 20
39.1374927741
 30
0.0
 11
269.9960254907
 21
43.111871362
 31
0.0
  0
ELLIPSE
  5
2E2
330
1F
100
AcDbEntity
  8
0
  6
Continuous
 62
     7
370
    25
100
AcDbEllipse
 10
253.3757489531
 20
35.301526389
 30
0.0
 11
3.235900513550007
 21
-1.225304883525716
 31
0.0
210
0.0
220
0.0
230
1.0
 40
0.6165661696
 41
3.921983224476292
 42
4.786688093592678
  0
LINE
  5
2E3
330
1F
100
AcDbEntity
  8
0
  6
Continuous
 62
     7
370
    25
100
AcDbLine
 10
273.5866974383
 20
25.2614726934
 30
0.0
 11
272.9332316255
 21
22.6121776771
 31
0.0
  0
LINE
  5
2E4
330
1F
100
AcDbEntity
  8
0
  6
Continuous
 62
     7
370
    25
100
AcDbLine
 10
272.9332316255
 20
22.6121776771
 30
0.0
 11
273.0706604801
 21
22.5418934263
 31
0.0
  0
LINE
  5
2E5
330
1F
100
AcDbEntity
  8
0
  6
Continuous
 62
     7
370
    25
100
AcDbLine
 10
277.3312207918
 20
10.6359649919
 30
0.0
 11
279.4343142882
 21
19.1623610502
 31
0.0
  0
ELLIPSE
  5
2E6
330
1F
100
AcDbEntity
  8
0
  6
Continuous
 62
     7
370
    25
100
AcDbEllipse
 10
270.509219804
 20
45.1924685766
 30
0.0
 11
-0.3374497450726039
 21
3.241805371628686
 31
0.0
210
0.0
220
0.0
230
1.0
 40
0.2834440984
 41
1.373077421571754
 42
2.237782290687984
  0
LINE
  5
2E7
330
1F
100
AcDbEntity
  8
0
  6
Continuous
 62
     7
370
    25
100
AcDbLine
 10
279.5152785179
 20
19.1209539258
 30
0.0
 11
277.4375363509
 21
10.6973396578
 31
0.0
  0
LWPOLYLINE
  5
2E8
330
1F
100
AcDbEntity
  8
0
  6
Continuous
 62
     7
370
    25
100
AcDbPolyline
 90
       12
 70
   128
 43
0.0
 10
224.982302246
 20
43.0080089964
 10
225.0306631205
 20
44.2082604353
 10
225.1753071533
 20
45.4534781835
 10
225.4149244994
 20
46.7323853171
 10
225.7473452547
 20
48.0333999523
 10
226.1695598707
 20
49.3447403772
 10
226.6777428625
 20
50.6545299463
 10
227.2672933087
 20
51.9509077715
 10
227.9328720599
 20
53.2221333769
 10
228.6684511288
 20
54.45669373
 10
229.4673693377
 20
55.6434098908
 10
230.3223914228
 20
56.7715338705
  0
LINE
  5
2E9
330
1F
100
AcDbEntity
  8
0
  6
Continuous
 62
     7
370
    25
100
AcDbLine
 10
238.45891873
 20
29.8912635082
 30
0.0
 11
239.5015863226
 21
29.2891486457
 31
0.0
  0
LWPOLYLINE
  5
2EA
330
1F
100
AcDbEntity
  8
0
  6
Continuous
 62
     7
370
    25
100
AcDbPolyline
 90
        9
 70
   128
 43
0.0
 10
234.6034354991
 20
59.2429280106
 10
234.1011981764
 20
59.2389996272
 10
233.5709291659
 20
59.1407414468
 10
233.0217018527
 20
58.9498347381
 10
232.4629134609
 20
58.6695462096
 10
231.9041250692
 20
58.3046713937
 10
231.354897756
 20
57.8614537442
 10
230.8246287455
 20
57.3474763569
 10
230.3223914228
 20
56.7715338705
  0
ARC
  5
2EB
330
1F
100
AcDbEntity
  8
0
  6
Continuous
 62
     7
370
    25
100
AcDbCircle
 10
228.0532376822
 20
42.7206833367
 30
0.0
 40
3.084347660107854
100
AcDbArc
 50
174.6548011447
 51
232.6759370834
  0
ARC
  5
2EC
330
1F
100
AcDbEntity
  8
0
  6
Continuous
 62
     7
370
    25
100
AcDbCircle
 10
234.1724367786
 20
53.9176920403
 30
0.0
 40
5.342648971873407
100
AcDbArc
 50
62.0154839217
 51
85.3728438476
  0
LWPOLYLINE
  5
2ED
330
1F
100
AcDbEntity
  8
0
  6
Continuous
 62
     7
370
    25
100
AcDbPolyline
 90
       12
 70
   128
 43
0.0
 10
224.7581587201
 20
43.4909194972
 10
224.8051326999
 20
44.6567610711
 10
224.9456305365
 20
45.8662804661
 10
225.1783786049
 20
47.1085232389
 10
225.501268904
 20
48.3722393944
 10
225.9113788135
 20
49.6459851907
 10
226.4049934836
 20
50.9182252297
 10
226.9776420558
 20
52.1774372071
 10
227.6241394798
 20
53.4122186585
 10
228.3386306365
 20
54.6113860055
 10
229.1146449967
 20
55.7640806353
 10
229.9451547381
 20
56.8598621469
  0
ARC
  5
2EE
330
1F
100
AcDbEntity
  8
0
  6
Continuous
 62
     7
370
    25
100
AcDbCircle
 10
234.7245136702
 20
53.4016911813
 30
0.0
 40
5.899255735221844
100
AcDbArc
 50
103.4689956258
 51
144.1118634589
  0
ARC
  5
2EF
330
1F
100
AcDbEntity
  8
0
  6
Continuous
 62
     7
370
    25
100
AcDbCircle
 10
228.6691919943
 20
43.4128194664
 30
0.0
 40
3.911812992292517
100
AcDbArc
 50
178.8560037274
 51
201.1091891358
  0
LWPOLYLINE
  5
2F0
330
1F
100
AcDbEntity
  8
0
  6
Continuous
 62
     7
370
    18
100
AcDbPolyline
 90
       22
 70
   128
 43
0.0
 10
271.8885728413
 20
37.4431233447
 10
271.9406231291
 20
37.7437643428
 10
271.8648402966
 20
38.0574500205
 10
271.6679546689
 20
38.3563083497
 10
271.3674646788
 20
38.6137830537
 10
270.9900693672
 20
38.8069967521
 10
270.5692977045
 20
38.9187842654
 10
270.1425416421
 20
38.9392090987
 10
269.7477215721
 20
38.8664563612
 10
269.4199123004
 20
38.7069942308
 10
269.1882480471
 20
38.4749878648
 10
269.0733105043
 20
38.1910531218
 10
269.085309638
 20
37.8804209059
 10
269.2231840802
 20
37.5706895265
 10
269.4746804991
 20
37.2893810858
 10
269.8174529155
 20
37.0614905441
 10
270.2210424112
 20
36.9072685323
 10
270.6495922665
 20
36.8404165544
 10
271.0650225159
 20
36.8668743596
 10
271.4304186321
 20
36.9842928415
 10
271.7133132595
 20
37.1822390125
 10
271.8885728413
 20
37.4431233447
  0
LINE
  5
2F1
330
1F
100
AcDbEntity
  8
0
  6
Continuous
 62
     7
370
    18
100
AcDbLine
 10
267.3190000835
 20
29.7926286687
 30
0.0
 11
267.9218343603
 21
32.2366528894
 31
0.0
  0
LINE
  5
2F2
330
1F
100
AcDbEntity
  8
0
  6
Continuous
 62
     7
370
    18
100
AcDbLine
 10
266.2846691499
 20
37.4593300777
 30
0.0
 11
263.3911439636
 21
35.788933543
 31
0.0
  0
LINE
  5
2F3
330
1F
100
AcDbEntity
  8
0
  6
Continuous
 62
     7
370
    18
100
AcDbLine
 10
277.2780445421
 20
28.6200232699
 30
0.0
 11
274.39367261
 21
26.9549107964
 31
0.0
  0
LINE
  5
2F4
330
1F
100
AcDbEntity
  8
0
  6
Continuous
 62
     7
370
    18
100
AcDbLine
 10
264.0337507067
 20
35.2652315261
 30
0.0
 11
263.4647168853
 21
32.9582466505
 31
0.0
  0
LINE
  5
2F5
330
1F
100
AcDbEntity
  8
0
  6
Continuous
 62
     7
370
    18
100
AcDbLine
 10
279.7011648627
 20
19.025887236
 30
0.0
 11
279.9474973871
 21
20.0245743636
 31
0.0
  0
LINE
  5
2F6
330
1F
100
AcDbEntity
  8
0
  6
Continuous
 62
     7
370
    18
100
AcDbLine
 10
280.0849845435
 20
19.9542598992
 30
0.0
 11
280.4921178317
 21
21.6048677613
 31
0.0
  0
LINE
  5
2F7
330
1F
100
AcDbEntity
  8
0
  6
Continuous
 62
     7
370
    18
100
AcDbLine
 10
273.4909287678
 20
23.3266197401
 30
0.0
 11
273.8980620561
 21
24.9772274864
 31
0.0
  0
LINE
  5
2F8
330
1F
100
AcDbEntity
  8
0
  6
Continuous
 62
     7
370
    18
100
AcDbLine
 10
274.38086359
 20
24.85417187
 30
0.0
 11
274.080517245
 21
25.019335432
 31
0.0
  0
LWPOLYLINE
  5
2F9
330
1F
100
AcDbEntity
  8
0
  6
Continuous
 62
     7
370
    18
100
AcDbPolyline
 90
        3
 70
   128
 43
0.0
 10
277.0147074106
 20
23.5071604456
 10
275.5397534223
 20
24.2614877043
 10
274.38086359
 20
24.85417187
  0
SPLINE
  5
2FA
330
1F
100
AcDbEntity
  8
0
  6
Continuous
 62
     7
370
    18
100
AcDbSpline
210
0.0
220
0.0
230
1.0
 70
     8
 71
     3
 72
     9
 73
     5
 74
     0
 42
0.000000001
 43
0.00000001
 40
0.0
 40
0.0
 40
0.0
 40
0.0
 40
0.5831023665692886
 40
1.0
 40
1.0
 40
1.0
 40
1.0
 10
278.2021573715395
 20
23.03091438217239
 30
0.0
 10
277.9691355388713
 20
23.1081597485319
 30
0.0
 10
277.5695113115866
 20
23.2406328283686
 30
0.0
 10
277.1779488670786
 20
23.42873930195528
 30
0.0
 10
277.014707410623
 20
23.50716044562657
 30
0.0
  0
SPLINE
  5
2FB
330
1F
100
AcDbEntity
  8
0
  6
Continuous
 62
     7
370
    18
100
AcDbSpline
210
0.0
220
0.0
230
1.0
 70
     8
 71
     3
 72
     9
 73
     5
 74
     0
 42
0.000000001
 43
0.00000001
 40
0.0
 40
0.0
 40
0.0
 40
0.0
 40
0.4168976334307113
 40
1.0
 40
1.0
 40
1.0
 40
1.0
 10
278.5994997081672
 20
24.42204156520667
 30
0.0
 10
278.6660714338997
 20
24.28781417385828
 30
0.0
 10
278.825755059793
 20
23.96584690759244
 30
0.0
 10
278.7937077426466
 20
23.58417514949864
 30
0.0
 10
278.7750208761763
 20
23.36162144410148
 30
0.0
  0
LWPOLYLINE
  5
2FC
330
1F
100
AcDbEntity
  8
0
  6
Continuous
 62
     7
370
    18
100
AcDbPolyline
 90
        3
 70
   128
 43
0.0
 10
277.4765399819
 20
26.1733856371
 10
278.009055617
 20
25.342885466
 10
278.5994997082
 20
24.4220415652
  0
ARC
  5
2FD
330
1F
100
AcDbEntity
  8
0
  6
Continuous
 62
     7
370
    18
100
AcDbCircle
 10
276.6854133057
 20
23.9454937618
 30
0.0
 40
0.5482432886431925
100
AcDbArc
 50
306.9153893549
 51
334.0855898771
  0
SPLINE
  5
2FE
330
1F
100
AcDbEntity
  8
0
  6
Continuous
 62
     7
370
    18
100
AcDbSpline
210
0.0
220
0.0
230
1.0
 70
     8
 71
     3
 72
     9
 73
     5
 74
     0
 42
0.000000001
 43
0.00000001
 40
0.0
 40
0.0
 40
0.0
 40
0.0
 40
0.4026785373024168
 40
1.0
 40
1.0
 40
1.0
 40
1.0
 10
277.1785295766068
 20
23.7058960844891
 30
0.0
 10
277.3130741653694
 20
23.63756072965361
 30
0.0
 10
277.6471982278634
 20
23.46785872543633
 30
0.0
 10
277.9853791518033
 20
23.32834924883737
 30
0.0
 10
278.1873818759476
 20
23.2450172442151
 30
0.0
  0
LINE
  5
2FF
330
1F
100
AcDbEntity
  8
0
  6
Continuous
 62
     7
370
    18
100
AcDbLine
 10
277.1785295766
 20
23.7058960845
 30
0.0
 11
277.3627474422
 21
24.0205706046
 31
0.0
  0
LINE
  5
300
330
1F
100
AcDbEntity
  8
0
  6
Continuous
 62
     7
370
    18
100
AcDbLine
 10
278.2912560974
 20
24.3482594319
 30
0.0
 11
278.0371271468
 21
24.4098817214
 31
0.0
  0
SPLINE
  5
301
330
1F
100
AcDbEntity
  8
0
  6
Continuous
 62
     7
370
    18
100
AcDbSpline
210
0.0
220
0.0
230
1.0
 70
     8
 71
     3
 72
     9
 73
     5
 74
     0
 42
0.000000001
 43
0.00000001
 40
0.0
 40
0.0
 40
0.0
 40
0.0
 40
0.5973214626975831
 40
1.0
 40
1.0
 40
1.0
 40
1.0
 10
278.4811181216305
 20
23.41458756944197
 30
0.0
 10
278.485079228336
 20
23.6168199627479
 30
0.0
 10
278.4917106771504
 20
23.95538538511297
 30
0.0
 10
278.3488022527218
 20
24.23547382754401
 30
0.0
 10
278.2912560974048
 20
24.34825943185746
 30
0.0
  0
SPLINE
  5
302
330
1F
100
AcDbEntity
  8
0
  6
Continuous
 62
     7
370
    18
100
AcDbSpline
210
0.0
220
0.0
230
1.0
 70
     8
 71
     3
 72
    10
 73
     6
 74
     0
 42
0.000000001
 43
0.00000001
 40
0.0
 40
0.0
 40
0.0
 40
0.0
 40
0.2765300596044074
 40
0.5626689619683539
 40
1.0
 40
1.0
 40
1.0
 40
1.0
 10
274.3808635900299
 20
24.8541718699544
 30
0.0
 10
274.392722203467
 20
24.86162455632883
 30
0.0
 10
274.4168514924223
 20
24.8767888943837
 30
0.0
 10
274.4733996707898
 20
24.93998585542316
 30
0.0
 10
274.517828768272
 20
25.01036434697204
 30
0.0
 10
274.5446857560137
 20
25.05290750881693
 30
0.0
  0
LWPOLYLINE
  5
303
330
1F
100
AcDbEntity
  8
0
  6
Continuous
 62
     7
370
    18
100
AcDbPolyline
 90
        3
 70
   128
 43
0.0
 10
274.544685756
 20
25.0529075088
 10
276.0196371102
 20
24.2985818183
 10
277.1785295766
 20
23.7058960845
  0
LINE
  5
304
330
1F
100
AcDbEntity
  8
0
  6
Continuous
 62
     7
370
    18
100
AcDbLine
 10
274.544685756
 20
25.0529075088
 30
0.0
 11
274.5766161097
 21
25.1074493827
 31
0.0
  0
ARC
  5
305
330
1F
100
AcDbEntity
  8
0
  6
Continuous
 62
     7
370
    18
100
AcDbCircle
 10
278.351992445
 20
24.7752919787
 30
0.0
 40
0.4313301519273284
100
AcDbArc
 50
261.9051793682
 51
305.0172642226
  0
LINE
  5
306
330
1F
100
AcDbEntity
  8
0
  6
Continuous
 62
     7
370
    18
100
AcDbLine
 10
273.4084026043
 20
23.3980215532
 30
0.0
 11
273.8155358925
 21
25.0486292994
 31
0.0
  0
LINE
  5
307
330
1F
100
AcDbEntity
  8
0
  6
Continuous
 62
     7
370
    18
100
AcDbLine
 10
273.8960220498
 20
25.2736576881
 30
0.0
 11
273.7630856213
 21
25.4809824429
 31
0.0
  0
LINE
  5
308
330
1F
100
AcDbEntity
  8
0
  6
Continuous
 62
     7
370
    18
100
AcDbLine
 10
274.080517245
 20
25.019335432
 30
0.0
 11
273.8960220498
 21
25.2736576881
 31
0.0
  0
LINE
  5
309
330
1F
100
AcDbEntity
  8
0
  6
Continuous
 62
     7
370
    18
100
AcDbLine
 10
274.3283855776
 20
25.1654307657
 30
0.0
 11
274.544685756
 21
25.0529075088
 31
0.0
  0
SPLINE
  5
30A
330
1F
100
AcDbEntity
  8
0
  6
Continuous
 62
     7
370
    18
100
AcDbSpline
210
0.0
220
0.0
230
1.0
 70
     8
 71
     3
 72
    10
 73
     6
 74
     0
 42
0.000000001
 43
0.00000001
 40
0.0
 40
0.0
 40
0.0
 40
0.0
 40
0.2765298072610588
 40
0.562668948632393
 40
1.0
 40
1.0
 40
1.0
 40
1.0
 10
274.2042656605913
 20
25.34743982141057
 30
0.0
 10
274.1749224271717
 20
25.33110715398014
 30
0.0
 10
274.1152162911093
 20
25.29787426345573
 30
0.0
 10
274.0033248333621
 20
25.26383307169404
 30
0.0
 10
273.9364482979703
 20
25.26995627076273
 30
0.0
 10
273.8960220498288
 20
25.27365768806137
 30
0.0
  0
LWPOLYLINE
  5
30B
330
1F
100
AcDbEntity
  8
0
  6
Continuous
 62
     7
370
    18
100
AcDbPolyline
 90
        3
 70
   128
 43
0.0
 10
278.2912560974
 20
24.3482594319
 10
277.5397817397
 20
25.5202425913
 10
277.3903978328
 20
25.7532211939
  0
LWPOLYLINE
  5
30C
330
1F
100
AcDbEntity
  8
0
  6
Continuous
 62
     7
370
    18
100
AcDbPolyline
 90
       23
 70
   128
 43
0.0
 10
234.4074567488
 20
35.4786452134
 10
234.4522904589
 20
36.6573351036
 10
234.5864320239
 20
37.8782994913
 10
234.8088001138
 20
39.1317074037
 10
235.1176048044
 20
40.4074670959
 10
235.5103600905
 20
41.6953072288
 10
235.9839029825
 20
42.9848584273
 10
236.5344218251
 20
44.2657384492
 10
237.1574832964
 20
45.5276343128
 10
237.8480712631
 20
46.7603855637
 10
238.6006256337
 20
47.9540675424
 10
239.4090864819
 20
49.0990685665
 10
240.2669457414
 20
50.1861707253
 10
241.1672956096
 20
51.2066204084
 10
242.1028874872
 20
52.1522018745
 10
243.0661882835
 20
53.0153024565
 10
244.0494419906
 20
53.7889716807
 10
245.0447321626
 20
54.4669824318
 10
246.0440453007
 20
55.0438736269
 10
247.0393354727
 20
55.5150004484
 10
248.0225891798
 20
55.8765717901
 10
248.9858899761
 20
56.1256746336
 10
249.7472596235
 20
56.2437091626
  0
ARC
  5
30D
330
1F
100
AcDbEntity
  8
0
  6
Continuous
 62
     7
370
    18
100
AcDbCircle
 10
245.2366166457
 20
35.2419915589
 30
0.0
 40
10.83174542833879
100
AcDbArc
 50
178.7480933091
 51
201.7989628109
  0
LINE
  5
30E
330
1F
100
AcDbEntity
  8
0
  6
Continuous
 62
     7
370
    18
100
AcDbLine
 10
252.8625544885
 20
33.220929087
 30
0.0
 11
269.9960254907
 21
43.111871362
 31
0.0
  0
LINE
  5
30F
330
1F
100
AcDbEntity
  8
0
  6
Continuous
 62
     7
370
    18
100
AcDbLine
 10
262.5477372865
 20
15.6685298992
 30
0.0
 11
265.8309135653
 21
28.9792296505
 31
0.0
  0
LINE
  5
310
330
1F
100
AcDbEntity
  8
0
  6
Continuous
 62
     7
370
    18
100
AcDbLine
 10
265.1789670147
 20
14.7887490411
 30
0.0
 11
268.4145805749
 21
27.9066183169
 31
0.0
  0
LINE
  5
311
330
1F
100
AcDbEntity
  8
0
  6
Continuous
 62
     7
370
    18
100
AcDbLine
 10
250.6488742471
 20
35.459095811
 30
0.0
 11
269.1380170709
 21
46.1326507702
 31
0.0
  0
LINE
  5
312
330
1F
100
AcDbEntity
  8
0
  6
Continuous
 62
     7
370
    18
100
AcDbLine
 10
246.8115864363
 20
49.6201502232
 30
0.0
 11
245.4581105313
 21
47.2758608157
 31
0.0
  0
LINE
  5
313
330
1F
100
AcDbEntity
  8
0
  6
Continuous
 62
     7
370
    18
100
AcDbLine
 10
240.8535182699
 20
39.3004730943
 30
0.0
 11
239.4999518151
 21
36.9560276102
 31
0.0
  0
LINE
  5
314
330
1F
100
AcDbEntity
  8
0
  6
Continuous
 62
     7
370
    18
100
AcDbLine
 10
245.7705533511
 20
50.2211258312
 30
0.0
 11
238.45891873
 21
37.5570032182
 31
0.0
  0
LINE
  5
315
330
1F
100
AcDbEntity
  8
0
  6
Continuous
 62
     7
370
    18
100
AcDbLine
 10
245.4331520237
 20
50.1346185017
 30
0.0
 11
238.3651340895
 21
37.8924523667
 31
0.0
  0
LINE
  5
316
330
1F
100
AcDbEntity
  8
0
  6
Continuous
 62
     7
370
    18
100
AcDbLine
 10
230.3223914228
 20
56.7715338705
 30
0.0
 11
240.7373920131
 21
50.8711105094
 31
0.0
  0
LINE
  5
317
330
1F
100
AcDbEntity
  8
0
  6
Continuous
 62
     7
370
    18
100
AcDbLine
 10
224.982302246
 20
43.0080089964
 30
0.0
 11
234.4340800775
 21
37.2703810156
 31
0.0
  0
LINE
  5
318
330
1F
100
AcDbEntity
  8
0
  6
Continuous
 62
     7
370
    18
100
AcDbLine
 10
238.3651340895
 20
29.8010481162
 30
0.0
 11
239.7125517143
 21
29.0229479938
 31
0.0
  0
LINE
  5
319
330
1F
100
AcDbEntity
  8
0
  6
Continuous
 62
     7
370
    18
100
AcDbLine
 10
253.7869287189
 20
53.4019223948
 30
0.0
 11
252.4401340773
 21
54.17966314
 31
0.0
  0
LINE
  5
31A
330
1F
100
AcDbEntity
  8
0
  6
Continuous
 62
     7
370
    18
100
AcDbLine
 10
234.6034354991
 20
59.2429280106
 30
0.0
 11
244.2726676906
 21
54.0394205471
 31
0.0
  0
LINE
  5
31B
330
1F
100
AcDbEntity
  8
0
  6
Continuous
 62
     7
370
    18
100
AcDbLine
 10
229.9451547381
 20
56.8598621469
 30
0.0
 11
230.3223914228
 21
56.7715338705
 31
0.0
  0
LINE
  5
31C
330
1F
100
AcDbEntity
  8
0
  6
Continuous
 62
     7
370
    18
100
AcDbLine
 10
224.7581587201
 20
43.4909194972
 30
0.0
 11
224.982302246
 21
43.0080089964
 31
0.0
  0
OLE2FRAME
  5
31D
330
1F
100
AcDbEntity
  8
0
100
AcDbOle2Frame
 70
     2
  3
Paintbrush-Bild
 10
13.8511154363
 20
38.264191557
 30
0.0
 11
51.6290888628
 21
31.9806341108
 31
0.0
 71
     2
 72
     0
 73
     1
 90
    12928
310
80552BED0767C5B32B40DDAF6807D121434000000000000000006FFBDDFB85D0
310
4940DDAF6807D121434000000000000000006FFBDDFB85D04940416F4BD60AFB
310
3F4000000000000000002BED0767C5B32B40416F4BD60AFB3F40000000000000
310
0000000000000100000000010000010000000100000000000100000000320000
310
D0CF11E0A1B11AE1000000000000000000000000000000003E000300FEFF0900
310
0600000000000000000000000100000001000000000000000010000002000000
310
01000000FEFFFFFF0000000000000000FFFFFFFFFFFFFFFFFFFFFFFFFFFFFFFF
310
FFFFFFFFFFFFFFFFFFFFFFFFFFFFFFFFFFFFFFFFFFFFFFFFFFFFFFFFFFFFFFFF
310
FFFFFFFFFFFFFFFFFFFFFFFFFFFFFFFFFFFFFFFFFFFFFFFFFFFFFFFFFFFFFFFF
310
FFFFFFFFFFFFFFFFFFFFFFFFFFFFFFFFFFFFFFFFFFFFFFFFFFFFFFFFFFFFFFFF
310
FFFFFFFFFFFFFFFFFFFFFFFFFFFFFFFFFFFFFFFFFFFFFFFFFFFFFFFFFFFFFFFF
310
FFFFFFFFFFFFFFFFFFFFFFFFFFFFFFFFFFFFFFFFFFFFFFFFFFFFFFFFFFFFFFFF
310
FFFFFFFFFFFFFFFFFFFFFFFFFFFFFFFFFFFFFFFFFFFFFFFFFFFFFFFFFFFFFFFF
310
FFFFFFFFFFFFFFFFFFFFFFFFFFFFFFFFFFFFFFFFFFFFFFFFFFFFFFFFFFFFFFFF
310
FFFFFFFFFFFFFFFFFFFFFFFFFFFFFFFFFFFFFFFFFFFFFFFFFFFFFFFFFFFFFFFF
310
FFFFFFFFFFFFFFFFFFFFFFFFFFFFFFFFFFFFFFFFFFFFFFFFFFFFFFFFFFFFFFFF
310
FFFFFFFFFFFFFFFFFFFFFFFFFFFFFFFFFFFFFFFFFFFFFFFFFFFFFFFFFFFFFFFF
310
FFFFFFFFFFFFFFFFFFFFFFFFFFFFFFFFFFFFFFFFFFFFFFFFFFFFFFFFFFFFFFFF
310
FFFFFFFFFFFFFFFFFFFFFFFFFFFFFFFFFFFFFFFFFFFFFFFFFFFFFFFFFFFFFFFF
310
FFFFFFFFFFFFFFFFFFFFFFFFFFFFFFFFFFFFFFFFFFFFFFFFFFFFFFFFFFFFFFFF
310
FDFFFFFFFEFFFFFFFEFFFFFFFEFFFFFF05000000060000000700000008000000
310
090000000A0000000B0000000C0000000D0000000E0000000F00000010000000
310
11000000120000001300000014000000150000001600000017000000FEFFFFFF
310
FFFFFFFFFFFFFFFFFFFFFFFFFFFFFFFFFFFFFFFFFFFFFFFFFFFFFFFFFFFFFFFF
310
FFFFFFFFFFFFFFFFFFFFFFFFFFFFFFFFFFFFFFFFFFFFFFFFFFFFFFFFFFFFFFFF
310
FFFFFFFFFFFFFFFFFFFFFFFFFFFFFFFFFFFFFFFFFFFFFFFFFFFFFFFFFFFFFFFF
310
FFFFFFFFFFFFFFFFFFFFFFFFFFFFFFFFFFFFFFFFFFFFFFFFFFFFFFFFFFFFFFFF
310
FFFFFFFFFFFFFFFFFFFFFFFFFFFFFFFFFFFFFFFFFFFFFFFFFFFFFFFFFFFFFFFF
310
FFFFFFFFFFFFFFFFFFFFFFFFFFFFFFFFFFFFFFFFFFFFFFFFFFFFFFFFFFFFFFFF
310
FFFFFFFFFFFFFFFFFFFFFFFFFFFFFFFFFFFFFFFFFFFFFFFFFFFFFFFFFFFFFFFF
310
FFFFFFFFFFFFFFFFFFFFFFFFFFFFFFFFFFFFFFFFFFFFFFFFFFFFFFFFFFFFFFFF
310
FFFFFFFFFFFFFFFFFFFFFFFFFFFFFFFFFFFFFFFFFFFFFFFFFFFFFFFFFFFFFFFF
310
FFFFFFFFFFFFFFFFFFFFFFFFFFFFFFFFFFFFFFFFFFFFFFFFFFFFFFFFFFFFFFFF
310
FFFFFFFFFFFFFFFFFFFFFFFFFFFFFFFFFFFFFFFFFFFFFFFFFFFFFFFFFFFFFFFF
310
FFFFFFFFFFFFFFFFFFFFFFFFFFFFFFFFFFFFFFFFFFFFFFFFFFFFFFFFFFFFFFFF
310
FFFFFFFFFFFFFFFFFFFFFFFFFFFFFFFFFFFFFFFFFFFFFFFFFFFFFFFFFFFFFFFF
310
52006F006F007400200045006E00740072007900000000000000000000000000
310
0000000000000000000000000000000000000000000000000000000000000000
310
16000500FFFFFFFFFFFFFFFF020000000A00030000000000C000000000000046
310
000000000000000000000000506E4D7AFBA3D30103000000C000000000000000
310
01004F006C006500000000000000000000000000000000000000000000000000
310
0000000000000000000000000000000000000000000000000000000000000000
310
0A000200FFFFFFFFFFFFFFFFFFFFFFFF00000000000000000000000000000000
310
0000000000000000000000000000000000000000000000001400000000000000
310
010043006F006D0070004F0062006A0000000000000000000000000000000000
310
0000000000000000000000000000000000000000000000000000000000000000
310
120002010100000003000000FFFFFFFF00000000000000000000000000000000
310
0000000000000000000000000000000000000000010000004D00000000000000
310
01004F006C006500310030004E00610074006900760065000000000000000000
310
0000000000000000000000000000000000000000000000000000000000000000
310
1A000200FFFFFFFFFFFFFFFFFFFFFFFF00000000000000000000000000000000
310
0000000000000000000000000000000000000000040000002426000000000000
310
FEFFFFFF02000000FEFFFFFFFFFFFFFFFFFFFFFFFFFFFFFFFFFFFFFFFFFFFFFF
310
FFFFFFFFFFFFFFFFFFFFFFFFFFFFFFFFFFFFFFFFFFFFFFFFFFFFFFFFFFFFFFFF
310
FFFFFFFFFFFFFFFFFFFFFFFFFFFFFFFFFFFFFFFFFFFFFFFFFFFFFFFFFFFFFFFF
310
FFFFFFFFFFFFFFFFFFFFFFFFFFFFFFFFFFFFFFFFFFFFFFFFFFFFFFFFFFFFFFFF
310
FFFFFFFFFFFFFFFFFFFFFFFFFFFFFFFFFFFFFFFFFFFFFFFFFFFFFFFFFFFFFFFF
310
FFFFFFFFFFFFFFFFFFFFFFFFFFFFFFFFFFFFFFFFFFFFFFFFFFFFFFFFFFFFFFFF
310
FFFFFFFFFFFFFFFFFFFFFFFFFFFFFFFFFFFFFFFFFFFFFFFFFFFFFFFFFFFFFFFF
310
FFFFFFFFFFFFFFFFFFFFFFFFFFFFFFFFFFFFFFFFFFFFFFFFFFFFFFFFFFFFFFFF
310
FFFFFFFFFFFFFFFFFFFFFFFFFFFFFFFFFFFFFFFFFFFFFFFFFFFFFFFFFFFFFFFF
310
FFFFFFFFFFFFFFFFFFFFFFFFFFFFFFFFFFFFFFFFFFFFFFFFFFFFFFFFFFFFFFFF
310
FFFFFFFFFFFFFFFFFFFFFFFFFFFFFFFFFFFFFFFFFFFFFFFFFFFFFFFFFFFFFFFF
310
FFFFFFFFFFFFFFFFFFFFFFFFFFFFFFFFFFFFFFFFFFFFFFFFFFFFFFFFFFFFFFFF
310
FFFFFFFFFFFFFFFFFFFFFFFFFFFFFFFFFFFFFFFFFFFFFFFFFFFFFFFFFFFFFFFF
310
FFFFFFFFFFFFFFFFFFFFFFFFFFFFFFFFFFFFFFFFFFFFFFFFFFFFFFFFFFFFFFFF
310
FFFFFFFFFFFFFFFFFFFFFFFFFFFFFFFFFFFFFFFFFFFFFFFFFFFFFFFFFFFFFFFF
310
FFFFFFFFFFFFFFFFFFFFFFFFFFFFFFFFFFFFFFFFFFFFFFFFFFFFFFFFFFFFFFFF
310
0100000200000000000000000000000000000000000000000000000000000000
310
0000000000000000000000000000000000000000000000000000000000000000
310
0100FEFF030A0000FFFFFFFF0A00030000000000C00000000000004607000000
310
5042727573680007000000504272757368000700000050427275736800F439B2
310
7100000000000000000000000000000000000000000000000000000000000000
310
0000000000000000000000000000000000000000000000000000000000000000
310
0000000000000000000000000000000000000000000000000000000000000000
310
0000000000000000000000000000000000000000000000000000000000000000
310
0000000000000000000000000000000000000000000000000000000000000000
310
0000000000000000000000000000000000000000000000000000000000000000
310
0000000000000000000000000000000000000000000000000000000000000000
310
0000000000000000000000000000000000000000000000000000000000000000
310
0000000000000000000000000000000000000000000000000000000000000000
310
0000000000000000000000000000000000000000000000000000000000000000
310
0000000000000000000000000000000000000000000000000000000000000000
310
0000000000000000000000000000000000000000000000000000000000000000
310
20260000424D0E260000000000003E00000028000000B40200006E0000000100
310
01000000000000000000130B0000130B00000200000002000000000000FFFFFF
310
FFFFFFFFFFFFFFFFFFFFFFFFFFFFFFFFFFFFFFFFFFFFFFFFFFFFFFFFFFFFFFFF
310
FFFFFFFFFFFFFFFFFFFFFFFFFFFFFFFFFFFFFFFFFFFFFFFFFFFFFFFFFFFFFFFF
310
FFFFFFFFFFFFFFFFFFFFFFFFFFFFFFFFFFFFFFFFFFFFFFFFF000FFFFFFFFFFFF
310
FFFFFFFFFFFFFFFFFFFFFFFFFFFFFFFFFFFFFFFFFFFFFFFFFFFFFFFFFFFFFFFF
310
FFFFFFFFFFFFFFFFFFFFFFFFFFFFFFFFFFFFFFFFFFFFFFFFFFFFFFFFFFFFFFFF
310
FFFFFFFFFFFFFFFFFFFFFFFFFFFFFFFFF000FFFFFFFFFFFFFFFFFFFFFFFFFFFF
310
FFFFFFFFFFFFFFFFFFFFFFFFFFFFFFFFFFFFFFFFFFFFFFFFFFFFFFFFFFFFFFFF
310
FFFFFFFFFFFFFFFFFFFFFFFFFFFFFFFFFFFFFFFFFFFFFFFFFFFFFFFFFFFFFFFF
310
FFFFFFFFFFFFFFFFF000FFFFFFFFFFFFFFFFFFFFFFFFFFFFFFFFFFFFFFFFFFFF
310
FFFFFFFFFFFFFFFFFFFFFFFFFFFFFFFFFFFFFFFFFFFFFFFFFFFFFFFFFFFFFFFF
310
FFFFFFFFFFFFFFFFFFFFFFFFFFFFFFFFFFFFFFFFFFFFFFFFFFFFFFFFFFFFFFFF
310
F000FFFFFFFFFFFFFFFFFFFFFFFFFFFFFFFFFFFFFFFFFFFFFFFFFFFFFFFFFFFF
310
FFFFFFFFFFFFFFFFFFFFFFFFFFFFFFFFFFFFFFFFFFFFFFFFFFFFFFFFFFFFFFFF
310
FFFFFFFFFFFFFFFFFFFFFFFFFFFFFFFFFFFFFFFFFFFFFFFFF000FFFFFFFFFFFF
310
FFFFFFFFFFFFFFFFFFFFFFFFFFFFFFFFFFFFFFFFFFFFFFFFFFFFFFFFFFFFFFFF
310
FFFFFFFFFFFFFFFFFFFFFFFFFFFFFFFFFFFFFFFFFFFFFFFFFFFFFFFFFFFFFFFF
310
FFFFFFFFFFFFFFFFFFFFFFFFFFFFFFFFF000FFFFFFFFFFFFFFFFFFFFFFFFFFFF
310
FFFFFFFFFFFFFFFFFFFFFFFFFFFFFFFFFFFFFFFFFFFFFFFFFFFFFFFFFFFFFFFF
310
FFFFFFFFFFFFFFFFFFFFFFFFFFFFFFFFFFFFFFFFFFFFFFFFFFFFFFFFFFFFFFFF
310
FFFFFFFFFFFFFFFFF000FFFFFFFFFFFFFFFFFFFFFFFFFFFFFFFFFFFFFFFFFFFF
310
FFFFFFFFFFFFFFFFFFFFFFFFFFFFFFFFFFFFFFFFFFFFFFFFFFFFFFFFFFFFFFFF
310
FFFFFFFFFFFFFFFFFFFFFFFFFFFFFFFFFFFFFFFFFFFFFFFFFFFFFFFFFFFFFFFF
310
F000FFFFFFFFFFFFFFFFFFFFFFFFFFFFFFFFFFFFFFFFFFFFFFFFFFFFFFFFFFFF
310
FFFFFFFFFFFFFFFFFFFFFFFFFFFFFFFFFFFFFFFFFFFFFFFFFFFFFFFFFFFFFFFF
310
FFFFFFFFFFFFFFFFFFFFFFFFFFFFFFFFFFFFFFFFFFFFFFFFF000FFFFFFFFFFFF
310
FFFFFFFFFFFFFFFFFFFFFFFFFFFFFFFFFFFFFFFFFFFFFFFFFFFFFFFFFFFFFFFF
310
FFFFFFFFFFFFFFFFFFFFFFFFFFFFFFFFFFFFFFFFFFFFFFFFFFFFFFFFFFFFFFFF
310
FFFFFFFFFFFFFFFFFFFFFFFFFFFFFFFFF000FFFFFFFFFFFFFFFFFFFFFFFFFFFF
310
FFFFFFFFFFFFFFFFFFFFFFFFFFFFFFFFFFFFFFFFFFFFFFFFFFFFFFFFFFFFFFFF
310
FFFFFFFFFFFFFFFFFFFFFFFFFFFFFFFFFFFFFFFFFFFFFFFFFFFFFFFFFFFFFFFF
310
FFFFFFFFFFFFFFFFF000FFFFFFFFFFFFFFFFFFFFFFFFFFFFFFFFFFFFFFFFFFFF
310
FFFFFFFFFFFFFFFFFFFFFFFFFFFFFFFFFFFFFFFFFFFFFFFFFFFFFFFFFFFFFFFF
310
FFFFFFFFFFFFFFFFFFFFFFFFFFFFFFFFFFFFFFFFFFFFFFFFFFFFFFFFFFFFFFFF
310
F000FFFFFFFFFFFFFFFFFFFFFFFFFFFFFFFFFFFFFFFFFFFFFFFFFFFFFFFFFFFF
310
FFFFFFFFFFFFFFFFFFFFFFFFFFFFFFFFFFFFFFFFFFFFFFFFFFFFFFFFFFFFFFFF
310
FFFFFFFFFFFFFFFFFFFFFFFFFFFFFFFFFFFFFFFFFFFFFFFFF000FFFFFFFFFFFF
310
FFFFFFFFFFFFFFFFFFFFFFFFFFFFFFFFFFFFFFFFFFFFFFFFFFFFFFFFFFFFFFFF
310
FFFFFFFFFFFFFFFFFFFFFFFFFFFFFFFFFFFFFFFFFFFFFFFFFFFFFFFFFFFFFFFF
310
FFFFFFFFFFFFFFFFFFFFFFFFFFFFFFFFF000FFFFFFFFFFFFFFFFFFFFFFFFFFFF
310
FFFFFFFFFFFFFFFFFFFFFFFFFFFFFFFFFFFFFFFFFFFFFFFFFFFFFFFFFFFFFFFF
310
FFFFFFFFFFFFFFFFFFFFFFFFFFFFFFFFFFFFFFFFFFFFFFFFFFFFFFFFFFFFFFFF
310
FFFFFFFFFFFFFFFFF000FFFFFFFFFFFFFFFFFFFFFFFFFFFFFFFFFFFFFFFFFFFF
310
FFFFFFFFFFFFFFFFFFFFFFFFFFFFFFFFFFFFFFFFFFFFFFFFFFFFFFFFFFFFFFFF
310
FFFFFFFFFFFFFFFFFFFFFFFFFFFFFFFFFFFFFFFFFFFFFFFFFFFFFFFFFFFFFFFF
310
F000FFFFFFFFFFFFFFFFFFFFFFFFFFFFFFFFFFFFFFFFFFFFFFFFFFFFFFFFFFFF
310
FFFFFFFFFFFFFFFFFFFFFFFFFFFFFFFFFFFFFFFFFFFFFFFFFFFFFFFFFFFFFFFF
310
FFFFFFFFFFFFFFFFFFFFFFFFFFFFFFFFFFFFFFFFFFFFFFFFF000FFFFFFFFFFFF
310
FFFFFFFFFFFFFFFFFFFFFFFFFFFFFFFFFFFFFFFFFFFFFFFFFFFFFFFFFFFFFFFF
310
FFFFFFFFFFFFFFFFFFFFFFFFFFFFFFFFFFFFFFFFFFFFFFFFFFFFFFFFFFFFFFFF
310
FFFFFFFFFFFFFFFFFFFFFFFFFFFFFFFFF000FFFFFFFFFFFFFFFFFFFFFFFFFFFF
310
FFFFFFFFFFFFFFFFFFFFFFFFFFFFFFFFFFFFFFFFFFFFFFFFFFFFFFFFFFFFFFFF
310
FFFFFFFFFFFFFFFFFFFFFFFFFFFFFFFFFFFFFFFFFFFFFFFFFFFFFFFFFFFFFFFF
310
FFFFFFFFFFFFFFFFF000FFFFF80003FFFFFFFFFFFFFFFFFFFFFFFFFFFFFFFFFF
310
FFFFF00007FFFFFFFFFF00007FFFFFF800000000000000007FFFFFFFFFFFFFFF
310
FFFFFFFC001FFFFFFFFFFFFFFC001FFFFFFFFFFFFFFFFFFFFFFFFFFE0007FFFF
310
F000FFFF8000007FFFFFFFF8000FFFFFC0007FFFFF80007FFFFF0000007FFFFF
310
FFF8000007FFFFF800000000000000007FFFFFF0001FFFFFFFFFFFC00001FFFF
310
FFFFFFFFC00001FFFFFFFF000000000003FFFFE000007FFFF000FFFE0000000F
310
FFFFFFF0000FFFFF80007FFFFF80007FFFFC0000001FFFFFFFC0000001FFFFF8
310
00000000000000007FFFFFF0001FFFFFFFFFFE0000003FFFFFFFFFFE0000003F
310
FFFFFF000000000003FFFF0000000FFFF000FFF800000003FFFFFFF00007FFFF
310
80007FFFFF80007FFFF000000007FFFFFF000000003FFFF80000000000000000
310
7FFFFFF0001FFFFFFFFFF80000000FFFFFFFFFF80000000FFFFFFF0000000000
310
03FFFC00000003FFF000FFE000000000FFFFFFF00007FFFF80003FFFFF80007F
310
FFC000000001FFFFFC000000001FFFF800000000000000007FFFFFF0001FFFFF
310
FFFFE000000003FFFFFFFFE000000003FFFFFF000000000003FFF000000000FF
310
F000FF80000000007FFFFFF00007FFFF80003FFFFF80007FFF8000000000FFFF
310
F80000000007FFF800000000000000007FFFFFF0001FFFFFFFFFC000000001FF
310
FFFFFFC000000001FFFFFF000000000003FFC0000000007FF000FF0000000000
310
3FFFFFE00007FFFF00003FFFFF80007FFE00000000003FFFF00000000003FFF8
310
00000000000000007FFFFFF0001FFFFFFFFF8000000000FFFFFFFF8000000000
310
FFFFFF000000000003FF80000000003FF000FE00000000001FFFFFE00003FFFF
310
00003FFFFF80007FFC00000000001FFFE00000000001FFF8000001FFFE000000
310
7FFFFFF0001FFFFFFFFE00000000003FFFFFFE00000000003FFFFF0000000000
310
03FF00000000001FF000FC00000000000FFFFFE00003FFFF00001FFFFF80007F
310
F800000000001FFFC00000000000FFF8000001FFFE0000007FFFFFF0001FFFFF
310
FFFC00000000001FFFFFFC00000000001FFFFF000000000003FE00000000000F
310
F000F8000000000007FFFFE00003FFFF00001FFFFF80007FF800000000000FFF
310
800000000000FFF8000001FFFE0000007FFFFFF0001FFFFFFFF800000000000F
310
FFFFF800000000000FFFFF000000000003FC000000000007F000F80000000000
310
03FFFFC00003FFFE00001FFFFF80007FF0000000000007FF0000000000007FF8
310
000001FFFE0000007FFFFFF0001FFFFFFFF0000000000007FFFFF00000000000
310
07FFFF000000000003F8000000000003F000F0000000000003FFFFC00001FFFE
310
00001FFFFF80007FE0000000000007FE0000000000003FF8000001FFFE000000
310
7FFFFFF0001FFFFFFFF0000000000007FFFFF0000000000007FFFF0000000000
310
03F800001F800003F000E00001FFF00001FFFFC00001FFFE00000FFFFF80007F
310
E00001FFE00003FE00001FFF00003FF8000001FFFE0000007FFFFFF0001FFFFF
310
FFE000003E000003FFFFE000003E000003FFFF000000000003F00001FFF80001
310
F000E00007FFFC0001FFFFC00001FFFE00000FFFFF80007FC0000FFFFC0003FC
310
0000FFFFC0001FF8000001FFFE0000007FFFFFF0001FFFFFFFC00003FFE00001
310
FFFFC00003FFE00001FFFF0001FFFFFFFFF00007FFFE0001F000E0000FFFFF00
310
00FFFF800001FFFC00000FFFFF80007FC0001FFFFE0001FC0001FFFFE0001FF8
310
000001FFFE0000007FFFFFF0001FFFFFFF80000FFFF80000FFFF80000FFFF800
310
00FFFF0003FFFFFFFFE0000FFFFF8000F000C0003FFFFF8000FFFF800000FFFC
310
000007FFFF80007F80003FFFFF0001FC0003FFFFF0001FF8000001FFFE000000
310
7FFFFFF0001FFFFFFF80003FFFFE0000FFFF80003FFFFE0000FFFF0003FFFFFF
310
FFE0003FFFFF8000F000C0003FFFFF8000FFFF800000FFFC000007FFFF80007F
310
80007FFFFF8001F80007FFFFF8000FF8000001FFFE0000007FFFFFF0001FFFFF
310
FF00007FFFFF00007FFF00007FFFFF00007FFF0003FFFFFFFFE0003FFFFFC000
310
F000C0007FFFFFC000FFFF000000FFFC000007FFFF80007F8000FFFFFF8000F8
310
000FFFFFF8000FF8000001FFFE0000007FFFFFF0001FFFFFFF0000FFFFFF8000
310
7FFF0000FFFFFF80007FFF0003FFFFFFFFC0007FFFFFC00070008000FFFFFFC0
310
00FFFF000000FFF8000007FFFF80007F8000FFFFFF8000F8000FFFFFF8000FF8
310
000001FFFE0000007FFFFFF0001FFFFFFE0001FFFFFFC0003FFE0001FFFFFFC0
310
003FFF0003FFFFFFFFC0007FFFFFE00070008000FFFFFFC0007FFF0000007FF8
310
000003FFFF80007F0001FFFFFF8000F8000FFFFFF8000FF8000001FFFE000000
310
7FFFFFF0001FFFFFFE0001FFFFFFC0003FFE0001FFFFFFC0003FFF0003FFFFFF
310
FFC000FFFFFFE00070008000FFFFFFC0007FFF0000007FF8000003FFFF80007F
310
0001FFFFFF8000F8001FFFFFF8000FF8000001FFFE0000007FFFFFF0001FFFFF
310
FE0003FFFFFFE0003FFE0003FFFFFFE0003FFF0003FFFFFFFFC000FFFFFFE000
310
70008000FFFFFFC0007FFE0000007FF8000003FFFF80007F0001FFFFFF8000F0
310
001FFFFFF8000FF8000001FFFE0000007FFFFFF0001FFFFFFC0003FFFFFFE000
310
1FFC0003FFFFFFE0001FFF0003FFFFFFFFC000FFFFFFC00070008000FFFFFF80
310
007FFE0000007FF0000003FFFF80007F0001FFFFFF0000F0001FFFFFF8000FF8
310
000001FFFE0000007FFFFFF0001FFFFFFC0007FFFFFFF0001FFC0007FFFFFFF0
310
001FFF0003FFFFFFFFC000FFFFFFC00070008001FFFFFF0000FFFE0000003FF0
310
000001FFFF80007F0001FFFFFF0000F8001FFFFFF0000FF8000001FFFE000000
310
7FFFFFF0001FFFFFFC0007FFFFFFF0001FFC0007FFFFFFF0001FFF0003FFFFFF
310
FFC001FFFFFF80007000FFFFFFFFFE0000FFFE0008003FF0008001FFFF80007F
310
FFFFFFFFFC0000FFFFFFFFFFE0000FF8000001FFFE0000007FFFFFF0001FFFFF
310
F8000FFFFFFFF8000FF8000FFFFFFFF8000FFF0003FFFFFFFFFFFFFFFFFF0000
310
7000FFFFFFFFFC0000FFFC0008003FF0008001FFFF80007FFFFFFFFFF80001FF
310
FFFFFFFF80000FF8000001FFFE0000007FFFFFF0001FFFFFF8000FFFFFFFF800
310
0FF8000FFFFFFFF8000FFF0003FFFFFFFFFFFFFFFFFE0000F000FFFFFFFFE000
310
00FFFC000C003FE000C001FFFF80007FFFFFFFFFC00001FFFFFFFFFE00001FF8
310
000001FFFE0000007FFFFFF0001FFFFFF8000FFFFFFFF8000FF8000FFFFFFFF8
310
000FFF0003FFFFFFFFFFFFFFFFF00000F000FFFFFFFE000001FFFC000C001FE0
310
00C000FFFF80007FFFFFFFFE000001FFFFFFFFE000001FF80FFFFFFFFFFFFFC0
310
7FFFFFF0001FFFFFF8000FFFFFFFF8000FF8000FFFFFFFF8000FFF0003FFFFFF
310
FFFFFFFFFF800000F000FFFFFFC0000001FFFC001C001FE001C000FFFF80007F
310
FFFFFF80000003FFFFFFF80000001FF80FFFFFFFFFFFFFC07FFFFFF0001FFFFF
310
F8001FFFFFFFFC000FF8001FFFFFFFFC000FFF0003FFFFFFFFFFFFFFF0000001
310
F000FFFFF800000001FFF8001C001FE001C000FFFF80007FFFFFF800000003FF
310
FFFF800000003FF80FFFFFFFFFFFFFC07FFFFFF0001FFFFFF8001FFFFFFFFC00
310
0FF8001FFFFFFFFC000FFF0003FFFFFFFFFFFFFE00000001F000FFFFC0000000
310
03FFF8001E001FC001E000FFFF80007FFFFF8000000007FFFFFC000000003FF8
310
0FFFFFFFFFFFFFC07FFFFFF0001FFFFFF8001FFFFFFFFC000FF8001FFFFFFFFC
310
000FFF0003FFFFFFFFFFFFE000000003F000FFFE0000000007FFF8001E000FC0
310
01E0007FFF80007FFFFE0000000007FFFFE0000000007FF80FFFFFFFFFFFFFC0
310
7FFFFFF0001FFFFFF0001FFFFFFFFC0007F0001FFFFFFFFC0007FF0003FFFFFF
310
FFFFFF0000000003F000FFF80000000007FFF8001E000FC003E0007FFF80007F
310
FFF0000000000FFFFF8000000000FFF80FFFFFFFFFFFFFC07FFFFFF0001FFFFF
310
F0001FFFFFFFFC0007F0001FFFFFFFFC0007FF0003FFFFFFFFFFFC0000000007
310
F000FFE0000000000FFFF0003E000FC003E0007FFF80007FFFC0000000001FFF
310
FE0000000001FFF80FFFFFFFFFFFFFC07FFFFFF0001FFFFFF0001FFFFFFFFC00
310
07F0001FFFFFFFFC0007FF0003FFFFFFFFFFF0000000000FF000FFC000000000
310
1FFFF0003F000F8003F0003FFF80007FFF80000000003FFFF80000000003FFF8
310
0FFFFFFFFFFFFFC07FFFFFF0001FFFFFF0001FFFFFFFFC0007F0001FFFFFFFFC
310
0007FF0003FFFFFFFFFFE0000000001FF000FF00000000007FFFF0003F000780
310
03F0003FFF80007FFF00000000007FFFF00000000007FFF80FFFFFFFFFFFFFC0
310
7FFFFFF0001FFFFFF0001FFFFFFFFC0007F0001FFFFFFFFC0007FF0003FFFFFF
310
FFFF80000000007FF000FE0000000000FFFFE0003F00078007F0003FFF80007F
310
FE0000000001FFFFE0000000001FFFF80FFFFFFFFFFFFFC07FFFFFF0001FFFFF
310
F0001FFFFFFFFC0007F0001FFFFFFFFC0007FF0003FFFFFFFFFF0000000000FF
310
F000FC0000000003FFFFE0007F00078007F0003FFF80007FFC0000000007FFFF
310
C0000000007FFFF80FFFFFFFFFFFFFC07FFFFFF0001FFFFFF8001FFFFFFFFC00
310
0FF8001FFFFFFFFC000FFF0003FFFFFFFFFE0000000003FFF000FC000000000F
310
FFFFE0007F80070007F8001FFF80007FF8000000001FFFFF8000000001FFFFF8
310
0FFFFFFFFFFFFFC07FFFFFF0001FFFFFF8001FFFFFFFFC000FF8001FFFFFFFFC
310
000FFF0003FFFFFFFFFC000000000FFFF000F8000000007FFFFFE0007F800700
310
07F8001FFF80007FF000000000FFFFFF800000000FFFFFF80FFFFFFFFFFFFFC0
310
7FFFFFF0001FFFFFF8000FFFFFFFF8000FF8000FFFFFFFF8000FFF0003FFFFFF
310
FFFC000000007FFFF000F800000007FFFFFFC0007F8003000FF8001FFF80007F
310
F000000007FFFFFF000000007FFFFFF80FFFFFFFFFFFFFC07FFFFFF0001FFFFF
310
F8000FFFFFFFF8000FF8000FFFFFFFF8000FFF0003FFFFFFFFF80000000FFFFF
310
F000F0000000FFFFFFFFC000FF8003000FF8001FFF80007FE0000000FFFFFFFF
310
0000000FFFFFFFF8000001FFFE0000007FFFFFF0001FFFFFF8000FFFFFFFF800
310
0FF8000FFFFFFFF8000FFF0003FFFFFFFFF8000000FFFFFFF000F000000FFFFF
310
FFFFC000FFC002000FF8000FFF80007FE000001FFFFFFFFE000001FFFFFFFFF8
310
000001FFFE0000007FFFFFF0001FFFFFF8000FFFFFFFF8000FF8000FFFFFFFF8
310
000FFF0003FFFFFFFFF000001FFFFFFFF000E00000FFFFFFFFFFC000FFC00200
310
0FFC000FFF80007FE00001FFFFFFFFFE00001FFFFFFFFFF8000001FFFE000000
310
7FFFFFF0001FFFFFFC000FFFFFFFF8001FFC000FFFFFFFF8001FFF0003FFFFFF
310
FFF00001FFFFFFFFF000E00007FFFFFFFFFF8000FFC000001FFC000FFF80007F
310
C0000FFFFFFFFFFE0000FFFFFFFFFFF8000001FFFE0000007FFFFFF0001FFFFF
310
FC0007FFFFFFF0001FFC0007FFFFFFF0001FFF0003FFFFFFFFF00007FFFFFFFF
310
F000E0001FFFFFFFFFFF8000FFC000001FFC000FFF80007FC0003FFFFFFFFFFE
310
0001FFFFFFFFFFF8000001FFFE0000007FFFFFF0001FFFFFFC0007FFFFFFF000
310
1FFC0007FFFFFFF0001FFF0003FFFFFFFFF0001FFFFFFFFFF000E0003FFFFF00
310
03FF8001FFE000001FFC0007FF80007FC0007FFFFF0007FC0003FFFFF0003FF8
310
000001FFFE0000007FFFFFF0001FFFFFFC0003FFFFFFE0001FFC0003FFFFFFE0
310
001FFF0003FFFFFFFFF0003FFFFFFFFFF000E0003FFFFF0001FF8001FFE00000
310
1FFE0007FF80007FC0007FFFFE0003FC0007FFFFE0003FF8000001FFFE000000
310
7FFFFFF0001FFFFFFE0003FFFFFFE0003FFE0003FFFFFFE0003FFF0003FFFFFF
310
FFF0003FFFFF8001F000E0003FFFFF0001FF0001FFE000001FFE0007FF80007F
310
C0007FFFFE0003FC0007FFFFE0003FF8000001FFFE0000007FFFFFF0001FFFFF
310
FE0001FFFFFFC0003FFE0001FFFFFFC0003FFF0003FFFFFFFFF0003FFFFF0001
310
F000E0003FFFFF0003FF0001FFE000003FFE0007FF80007FC0007FFFFE0003FC
310
0007FFFFE0003FF8000001FFFE0000007FFFFFF0001FFFFFFF0001FFFFFFC000
310
7FFF0001FFFFFFC0007FFF0003FFFFFFFFF0003FFFFF0001F000E0003FFFFE00
310
03FF0003FFF000003FFE0003FF80007FC0007FFFFC0003FE0007FFFFE0003FF8
310
000001FFFE0000007FFFFFF0001FFFFFFF0000FFFFFF80007FFF0000FFFFFF80
310
007FFF0003FFFFFFFFF0003FFFFF0001F000E0003FFFFE0003FF0003FFF00000
310
3FFF0003FF80007FC0007FFFFC0007FE0007FFFFC0003FF8000001FFFE000000
310
7FFFFFF0001FFFFFFF80007FFFFF0000FFFF80007FFFFF0000FFFF0003FFFFFF
310
FFF0003FFFFF0003F000E0003FFFFC0003FE0003FFF000003FFF0003FF80007F
310
E0003FFFF80007FE0003FFFFC0007FF8000001FFFE0000007FFFFFF0001FFFFF
310
FF80003FFFFE0000FFFF80003FFFFE0000FFFF0003FFFFFFFFF0001FFFFE0003
310
F000F0001FFFF80003FE0003FFF000007FFF0001FF80007FE0003FFFF00007FE
310
0001FFFF80007FF8000001FFFE0000007FFFFFF0001FFFFFFFC0000FFFF80001
310
FFFFC0000FFFF80001FFFF0003FFFFFFFFF0001FFFFC0003F000F0000FFFF000
310
07FE0007FFF800007FFF0001FF80007FE0001FFFE00007FF0000FFFE00007FF8
310
000001FFFE0000007FFFFFF0001FFFFFFFC00003FFE00001FFFFC00003FFE000
310
01FFFF0003FFFFFFFFF8000FFFF80003F000F00003FFC00007FC0007FFF80000
310
7FFF8001FF80007FF00007FF80000FFF00007FF80000FFF8000001FFFE000000
310
7F80000000000001FFE000003E000003FFFFE000003E000003FFFF0003FFFFFF
310
FFF80003FFE00007F000F800000000000FFC0007FFF800007FFF8001FF80007F
310
F000000000000FFF000000000000FFF8000001FFFE0000007F80000000000001
310
FFF0000000000007FFFFF0000000000007FFFF0003FFFFFFFFFC00007E000007
310
F000F800000000000FFC0007FFF80000FFFF8000FF80007FF800000000001FFF
310
800000000001FFF8000001FFFE0000007F80000000000001FFF800000000000F
310
FFFFF800000000000FFFFF0003FFFFFFFFFC00000000000FF000FC0000000000
310
1FFC0007FFFC0000FFFF8000FF80007FF800000000003FFFC00000000001FFF8
310
000001FFFE0000007F80000000000001FFF800000000000FFFFFF80000000000
310
0FFFFF0003FFFFFFFFFE00000000001FF000FE00000000003FF8000FFFFC0000
310
FFFF8000FF80007FFC00000000003FFFC00000000003FFF8000001FFFE000000
310
7F80000000000001FFFC00000000001FFFFFFC00000000001FFFFF0003FFFFFF
310
FFFF00000000001FF000FF00000000003FF8000FFFFC0000FFFFC000FF80007F
310
FE00000000007FFFE00000000007FFF8000001FFFE0000007F80000000000001
310
FFFE00000000003FFFFFFE00000000003FFFFF0003FFFFFFFFFF80000000003F
310
F000FF80000000007FF8000FFFFC0001FFFFC0007F80007FFF0000000000FFFF
310
F0000000000FFFF800000000000000007F80000000000001FFFF8000000000FF
310
FFFFFF8000000000FFFFFF0003FFFFFFFFFFC0000000007FF000FFC000000000
310
FFF8000FFFFE0001FFFFC0007F80007FFF8000000001FFFFF8000000001FFFF8
310
00000000000000007F80000000000001FFFFC000000001FFFFFFFFC000000001
310
FFFFFF0003FFFFFFFFFFE000000000FFF000FFE000000003FFF0001FFFFE0001
310
FFFFC0007F80007FFFC000000007FFFFFE000000003FFFF80000000000000000
310
7F80000000000001FFFFE000000003FFFFFFFFE000000003FFFFFF0003FFFFFF
310
FFFFF000000003FFF000FFF80000000FFFF0001FFFFE0001FFFFE0007F80007F
310
FFF00000000FFFFFFF00000000FFFFF800000000000000007F80000000000001
310
FFFFF80000000FFFFFFFFFF80000000FFFFFFF0003FFFFFFFFFFFC0000000FFF
310
F000FFFE0000003FFFF0001FFFFE0003FFFFE0003F80007FFFFC0000003FFFFF
310
FFC0000003FFFFF800000000000000007F80000000000001FFFFFE0000003FFF
310
FFFFFFFE0000003FFFFFFF0003FFFFFFFFFFFF0000003FFFF000FFFF800000FF
310
FFF0001FFFFF0003FFFFE0003F80007FFFFF000001FFFFFFFFF800001FFFFFF8
310
00000000000000007F80000000000001FFFFFFC00001FFFFFFFFFFFFC00001FF
310
FFFFFF0003FFFFFFFFFFFFC00000FFFFF000FFFFF8000FFFFFFFFFFFFFFFFFFF
310
FFFFFFFFFFFFFFFFFFFFF0001FFFFFFFFFFF0000FFFFFFF80000000000000000
310
7FFFFFFFFFFFFFFFFFFFFFFC001FFFFFFFFFFFFFFC001FFFFFFFFFFFFFFFFFFF
310
FFFFFFFC001FFFFFF000FFFFFFFFFFFFFFFFFFFFFFFFFFFFFFFFFFFFFFFFFFFF
310
FFFFFFFFFFFFFFFFFFFFFFFFFFFFFFFFFFFFFFFFFFFFFFFFFFFFFFFFFFFFFFFF
310
FFFFFFFFFFFFFFFFFFFFFFFFFFFFFFFFFFFFFFFFFFFFFFFFFFFFFFFFFFFFFFFF
310
F000FFFFFFFFFFFFFFFFFFFFFFFFFFFFFFFFFFFFFFFFFFFFFFFFFFFFFFFFFFFF
310
FFFFFFFFFFFFFFFFFFFFFFFFFFFFFFFFFFFFFFFFFFFFFFFFFFFFFFFFFFFFFFFF
310
FFFFFFFFFFFFFFFFFFFFFFFFFFFFFFFFFFFFFFFFFFFFFFFFF000FFFFFFFFFFFF
310
FFFFFFFFFFFFFFFFFFFFFFFFFFFFFFFFFFFFFFFFFFFFFFFFFFFFFFFFFFFFFFFF
310
FFFFFFFFFFFFFFFFFFFFFFFFFFFFFFFFFFFFFFFFFFFFFFFFFFFFFFFFFFFFFFFF
310
FFFFFFFFFFFFFFFFFFFFFFFFFFFFFFFFF000FFFFFFFFFFFFFFFFFFFFFFFFFFFF
310
FFFFFFFFFFFFFFFFFFFFFFFFFFFFFFFFFFFFFFFFFFFFFFFFFFFFFFFFFFFFFFFF
310
FFFFFFFFFFFFFFFFFFFFFFFFFFFFFFFFFFFFFFFFFFFFFFFFFFFFFFFFFFFFFFFF
310
FFFFFFFFFFFFFFFFF000FFFFFFFFFFFFFFFFFFFFFFFFFFFFFFFFFFFFFFFFFFFF
310
FFFFFFFFFFFFFFFFFFFFFFFFFFFFFFFFFFFFFFFFFFFFFFFFFFFFFFFFFFFFFFFF
310
FFFFFFFFFFFFFFFFFFFFFFFFFFFFFFFFFFFFFFFFFFFFFFFFFFFFFFFFFFFFFFFF
310
F000FFFFFFFFFFFFFFFFFFFFFFFFFFFFFFFFFFFFFFFFFFFFFFFFFFFFFFFFFFFF
310
FFFFFFFFFFFFFFFFFFFFFFFFFFFFFFFFFFFFFFFFFFFFFFFFFFFFFFFFFFFFFFFF
310
FFFFFFFFFFFFFFFFFFFFFFFFFFFFFFFFFFFFFFFFFFFFFFFFF000FFFFFFFFFFFF
310
FFFFFFFFFFFFFFFFFFFFFFFFFFFFFFFFFFFFFFFFFFFFFFFFFFFFFFFFFFFFFFFF
310
FFFFFFFFFFFFFFFFFFFFFFFFFFFFFFFFFFFFFFFFFFFFFFFFFFFFFFFFFFFFFFFF
310
FFFFFFFFFFFFFFFFFFFFFFFFFFFFFFFFF000FFFFFFFFFFFFFFFFFFFFFFFFFFFF
310
FFFFFFFFFFFFFFFFFFFFFFFFFFFFFFFFFFFFFFFFFFFFFFFFFFFFFFFFFFFFFFFF
310
FFFFFFFFFFFFFFFFFFFFFFFFFFFFFFFFFFFFFFFFFFFFFFFFFFFFFFFFFFFFFFFF
310
FFFFFFFFFFFFFFFFF000FFFFFFFFFFFFFFFFFFFFFFFFFFFFFFFFFFFFFFFFFFFF
310
FFFFFFFFFFFFFFFFFFFFFFFFFFFFFFFFFFFFFFFFFFFFFFFFFFFFFFFFFFFFFFFF
310
FFFFFFFFFFFFFFFFFFFFFFFFFFFFFFFFFFFFFFFFFFFFFFFFFFFFFFFFFFFFFFFF
310
F000FFFFFFFFFFFFFFFFFFFFFFFFFFFFFFFFFFFFFFFFFFFFFFFFFFFFFFFFFFFF
310
FFFFFFFFFFFFFFFFFFFFFFFFFFFFFFFFFFFFFFFFFFFFFFFFFFFFFFFFFFFFFFFF
310
FFFFFFFFFFFFFFFFFFFFFFFFFFFFFFFFFFFFFFFFFFFFFFFFF000FFFFFFFFFFFF
310
FFFFFFFFFFFFFFFFFFFFFFFFFFFFFFFFFFFFFFFFFFFFFFFFFFFFFFFFFFFFFFFF
310
FFFFFFFFFFFFFFFFFFFFFFFFFFFFFFFFFFFFFFFFFFFFFFFFFFFFFFFFFFFFFFFF
310
FFFFFFFFFFFFFFFFFFFFFFFFFFFFFFFFF000FFFFFFFFFFFFFFFFFFFFFFFFFFFF
310
FFFFFFFFFFFFFFFFFFFFFFFFFFFFFFFFFFFFFFFFFFFFFFFFFFFFFFFFFFFFFFFF
310
FFFFFFFFFFFFFFFFFFFFFFFFFFFFFFFFFFFFFFFFFFFFFFFFFFFFFFFFFFFFFFFF
310
FFFFFFFFFFFFFFFFF000FFFFFFFFFFFFFFFFFFFFFFFFFFFFFFFFFFFFFFFFFFFF
310
FFFFFFFFFFFFFFFFFFFFFFFFFFFFFFFFFFFFFFFFFFFFFFFFFFFFFFFFFFFFFFFF
310
FFFFFFFFFFFFFFFFFFFFFFFFFFFFFFFFFFFFFFFFFFFFFFFFFFFFFFFFFFFFFFFF
310
F000FFFFFFFFFFFFFFFFFFFFFFFFFFFFFFFFFFFFFFFFFFFFFFFFFFFFFFFFFFFF
310
FFFFFFFFFFFFFFFFFFFFFFFFFFFFFFFFFFFFFFFFFFFFFFFFFFFFFFFFFFFFFFFF
310
FFFFFFFFFFFFFFFFFFFFFFFFFFFFFFFFFFFFFFFFFFFFFFFFF000FFFFFFFFFFFF
310
FFFFFFFFFFFFFFFFFFFFFFFFFFFFFFFFFFFFFFFFFFFFFFFFFFFFFFFFFFFFFFFF
310
FFFFFFFFFFFFFFFFFFFFFFFFFFFFFFFFFFFFFFFFFFFFFFFFFFFFFFFFFFFFFFFF
310
FFFFFFFFFFFFFFFFFFFFFFFFFFFFFFFFF000FFFFFFFFFFFFFFFFFFFFFFFFFFFF
310
FFFFFFFFFFFFFFFFFFFFFFFFFFFFFFFFFFFFFFFFFFFFFFFFFFFFFFFFFFFFFFFF
310
FFFFFFFFFFFFFFFFFFFFFFFFFFFFFFFFFFFFFFFFFFFFFFFFFFFFFFFFFFFFFFFF
310
FFFFFFFFFFFFFFFFF000FFFFFFFFFFFFFFFFFFFFFFFFFFFFFFFFFFFFFFFFFFFF
310
FFFFFFFFFFFFFFFFFFFFFFFFFFFFFFFFFFFFFFFFFFFFFFFFFFFFFFFFFFFFFFFF
310
FFFFFFFFFFFFFFFFFFFFFFFFFFFFFFFFFFFFFFFFFFFFFFFFFFFFFFFFFFFFFFFF
310
F000FFFFFFFFFFFFFFFFFFFFFFFFFFFFFFFFFFFFFFFFFFFFFFFFFFFFFFFFFFFF
310
FFFFFFFFFFFFFFFFFFFFFFFFFFFFFFFFFFFFFFFFFFFFFFFFFFFFFFFFFFFFFFFF
310
FFFFFFFFFFFFFFFFFFFFFFFFFFFFFFFFFFFFFFFFFFFFFFFFF000FFFFFFFFFFFF
310
FFFFFFFFFFFFFFFFFFFFFFFFFFFFFFFFFFFFFFFFFFFFFFFFFFFFFFFFFFFFFFFF
310
FFFFFFFFFFFFFFFFFFFFFFFFFFFFFFFFFFFFFFFFFFFFFFFFFFFFFFFFFFFFFFFF
310
FFFFFFFFFFFFFFFFFFFFFFFFFFFFFFFFF000FFFFFFFFFFFFFFFFFFFFFFFFFFFF
310
FFFFFFFFFFFFFFFFFFFFFFFFFFFFFFFFFFFFFFFFFFFFFFFFFFFFFFFFFFFFFFFF
310
FFFFFFFFFFFFFFFFFFFFFFFFFFFFFFFFFFFFFFFFFFFFFFFFFFFFFFFFFFFFFFFF
310
FFFFFFFFFFFFFFFFF000FFFFFFFFFFFFFFFFFFFFFFFFFFFFFFFFFFFFFFFFFFFF
310
FFFFFFFFFFFFFFFFFFFFFFFFFFFFFFFFFFFFFFFFFFFFFFFFFFFFFFFFFFFFFFFF
310
FFFFFFFFFFFFFFFFFFFFFFFFFFFFFFFFFFFFFFFFFFFFFFFFFFFFFFFFFFFFFFFF
310
F000FFFFFFFFFFFFFFFFFFFFFFFFFFFFFFFFFFFFFFFFFFFFFFFFFFFFFFFFFFFF
310
FFFFFFFFFFFFFFFFFFFFFFFFFFFFFFFFFFFFFFFFFFFFFFFFFFFFFFFFFFFFFFFF
310
FFFFFFFFFFFFFFFFFFFFFFFFFFFFFFFFFFFFFFFFFFFFFFFFF000FFFFFFFFFFFF
310
FFFFFFFFFFFFFFFFFFFFFFFFFFFFFFFFFFFFFFFFFFFFFFFFFFFFFFFFFFFFFFFF
310
FFFFFFFFFFFFFFFFFFFFFFFFFFFFFFFFFFFFFFFFFFFFFFFFFFFFFFFFFFFFFFFF
310
FFFFFFFFFFFFFFFFFFFFFFFFFFFFFFFFF0000000000000000000000000000000
310
0000000000000000000000000000000000000000000000000000000000000000
310
0000000000000000000000000000000000000000000000000000000000000000
310
0000000000000000000000000000000000000000000000000000000000000000
310
0000000000000000000000000000000000000000000000000000000000000000
310
0000000000000000000000000000000000000000000000000000000000000000
310
0000000000000000000000000000000000000000000000000000000000000000
310
0000000000000000000000000000000000000000000000000000000000000000
310
0000000000000000000000000000000000000000000000000000000000000000
310
0000000000000000000000000000000000000000000000000000000000000000
310
0000000000000000000000000000000000000000000000000000000000000000
310
0000000000000000000000000000000000000000000000000000000000000000
310
0000000000000000000000000000000000000000000000000000000000000000
310
0000000000000000000000000000000000000000000000000000000000000000
310
0000000000000000000000000000000000000000000000000000000000000000
310
0000000000000000000000000000000000000000000000000000000000000000
  1
OLE
  0
ENDSEC
  0
SECTION
  2
OBJECTS
  0
DICTIONARY
  5
C
330
0
100
AcDbDictionary
281
     1
  3
ACAD_GROUP
350
D
  3
ACAD_LAYOUT
350
1A
  3
ACAD_MLINESTYLE
350
17
  3
ACAD_PLOTSETTINGS
350
19
  3
ACAD_PLOTSTYLENAME
350
E
  3
ACAD_SCALELIST
350
47
  0
DICTIONARY
  5
D
102
{ACAD_REACTORS
330
C
102
}
330
C
100
AcDbDictionary
281
     1
  0
DICTIONARY
  5
1A
102
{ACAD_REACTORS
330
C
102
}
330
C
100
AcDbDictionary
281
     1
  3
Layout1
350
1E
  3
Layout2
350
26
  3
Model
350
22
  0
DICTIONARY
  5
17
102
{ACAD_REACTORS
330
C
102
}
330
C
100
AcDbDictionary
281
     1
  3
Standard
350
18
  0
DICTIONARY
  5
19
102
{ACAD_REACTORS
330
C
102
}
330
C
100
AcDbDictionary
281
     1
  0
ACDBDICTIONARYWDFLT
  5
E
102
{ACAD_REACTORS
330
C
102
}
330
C
100
AcDbDictionary
281
     1
  3
Normal
350
F
100
AcDbDictionaryWithDefault
340
F
  0
DICTIONARY
  5
47
102
{ACAD_REACTORS
330
C
102
}
330
C
100
AcDbDictionary
281
     1
  3
A0
350
48
  3
A1
350
49
  3
A2
350
4A
  3
A3
350
4B
  3
A4
350
4C
  3
A5
350
4D
  3
A6
350
4E
  3
A7
350
4F
  3
A8
350
50
  3
A9
350
51
  3
B0
350
52
  3
B1
350
53
  3
B2
350
54
  3
B3
350
55
  3
B4
350
56
  3
B5
350
57
  3
B6
350
58
  3
B7
350
59
  3
B8
350
5A
  3
B9
350
5B
  3
C0
350
5C
  3
C1
350
5D
  3
C2
350
5E
  3
C3
350
5F
  3
C4
350
60
  3
C5
350
61
  3
C6
350
62
  3
C7
350
63
  3
C8
350
64
  3
C9
350
65
  3
D0
350
66
  3
D1
350
67
  3
D2
350
68
  0
LAYOUT
  5
1E
102
{ACAD_REACTORS
330
1A
102
}
330
1A
100
AcDbPlotSettings
  1

  2
none_device
  4

  6

 40
0.0
 41
0.0
 42
0.0
 43
0.0
 44
0.0
 45
0.0
 46
0.0
 47
0.0
 48
0.0
 49
0.0
140
0.0
141
0.0
142
1.0
143
1.0
 70
   688
 72
     1
 73
     0
 74
     5
  7

 75
    16
147
1.0
148
0.0
149
0.0
100
AcDbLayout
  1
Layout1
 70
     1
 71
     1
 10
0.0
 20
0.0
 11
420.0
 21
297.0
 12
0.0
 22
0.0
 32
0.0
 14
1.0000000000E+20
 24
1.0000000000E+20
 34
1.0000000000E+20
 15
-1.0000000000E+20
 25
-1.0000000000E+20
 35
-1.0000000000E+20
146
0.0
 13
0.0
 23
0.0
 33
0.0
 16
1.0
 26
0.0
 36
0.0
 17
0.0
 27
1.0
 37
0.0
 76
     0
330
1B
  0
LAYOUT
  5
26
102
{ACAD_REACTORS
330
1A
102
}
330
1A
100
AcDbPlotSettings
  1

  2
none_device
  4

  6

 40
0.0
 41
0.0
 42
0.0
 43
0.0
 44
0.0
 45
0.0
 46
0.0
 47
0.0
 48
0.0
 49
0.0
140
0.0
141
0.0
142
1.0
143
1.0
 70
   688
 72
     1
 73
     0
 74
     5
  7

 75
    16
147
1.0
148
0.0
149
0.0
100
AcDbLayout
  1
Layout2
 70
     1
 71
     2
 10
0.0
 20
0.0
 11
0.0
 21
0.0
 12
0.0
 22
0.0
 32
0.0
 14
0.0
 24
0.0
 34
0.0
 15
0.0
 25
0.0
 35
0.0
146
0.0
 13
0.0
 23
0.0
 33
0.0
 16
1.0
 26
0.0
 36
0.0
 17
0.0
 27
1.0
 37
0.0
 76
     0
330
23
  0
LAYOUT
  5
22
102
{ACAD_REACTORS
330
1A
102
}
330
1A
100
AcDbPlotSettings
  1

  2
none_device
  4
Letter_(8.50_x_11.00_Inches)
  6

 40
6.35
 41
6.35
 42
6.35000508
 43
6.35000508
 44
215.9
 45
279.4
 46
0.0
 47
0.0
 48
0.0
 49
0.0
140
0.0
141
0.0
142
1.0
143
1.0
 70
  1712
 72
     1
 73
     0
 74
     0
  7

 75
     0
147
1.0
148
0.0
149
0.0
100
AcDbLayout
  1
Model
 70
     1
 71
     0
 10
0.0
 20
0.0
 11
297.0
 21
210.0
 12
0.0
 22
0.0
 32
0.0
 14
0.0
 24
0.0
 34
0.0
 15
297.0
 25
210.0
 35
0.0
146
0.0
 13
0.0
 23
0.0
 33
0.0
 16
1.0
 26
0.0
 36
0.0
 17
0.0
 27
1.0
 37
0.0
 76
     0
330
1F
331
29
  0
MLINESTYLE
  5
18
102
{ACAD_REACTORS
330
17
102
}
330
17
100
AcDbMlineStyle
  2
Standard
 70
     0
  3

 62
   256
 51
90.0
 52
90.0
 71
     2
 49
0.5
 62
   256
  6
BYLAYER
 49
-0.5
 62
   256
  6
BYLAYER
  0
ACDBPLACEHOLDER
  5
F
102
{ACAD_REACTORS
330
E
102
}
330
E
  0
SCALE
  5
48
102
{ACAD_REACTORS
330
47
102
}
330
47
100
AcDbScale
 70
     0
300
1:1
140
1.0
141
1.0
290
     1
  0
SCALE
  5
49
102
{ACAD_REACTORS
330
47
102
}
330
47
100
AcDbScale
 70
     0
300
1:2
140
1.0
141
2.0
290
     0
  0
SCALE
  5
4A
102
{ACAD_REACTORS
330
47
102
}
330
47
100
AcDbScale
 70
     0
300
1:4
140
1.0
141
4.0
290
     0
  0
SCALE
  5
4B
102
{ACAD_REACTORS
330
47
102
}
330
47
100
AcDbScale
 70
     0
300
1:5
140
1.0
141
5.0
290
     0
  0
SCALE
  5
4C
102
{ACAD_REACTORS
330
47
102
}
330
47
100
AcDbScale
 70
     0
300
1:8
140
1.0
141
8.0
290
     0
  0
SCALE
  5
4D
102
{ACAD_REACTORS
330
47
102
}
330
47
100
AcDbScale
 70
     0
300
1:10
140
1.0
141
10.0
290
     0
  0
SCALE
  5
4E
102
{ACAD_REACTORS
330
47
102
}
330
47
100
AcDbScale
 70
     0
300
1:16
140
1.0
141
16.0
290
     0
  0
SCALE
  5
4F
102
{ACAD_REACTORS
330
47
102
}
330
47
100
AcDbScale
 70
     0
300
1:20
140
1.0
141
20.0
290
     0
  0
SCALE
  5
50
102
{ACAD_REACTORS
330
47
102
}
330
47
100
AcDbScale
 70
     0
300
1:30
140
1.0
141
30.0
290
     0
  0
SCALE
  5
51
102
{ACAD_REACTORS
330
47
102
}
330
47
100
AcDbScale
 70
     0
300
1:40
140
1.0
141
40.0
290
     0
  0
SCALE
  5
52
102
{ACAD_REACTORS
330
47
102
}
330
47
100
AcDbScale
 70
     0
300
1:50
140
1.0
141
50.0
290
     0
  0
SCALE
  5
53
102
{ACAD_REACTORS
330
47
102
}
330
47
100
AcDbScale
 70
     0
300
1:100
140
1.0
141
100.0
290
     0
  0
SCALE
  5
54
102
{ACAD_REACTORS
330
47
102
}
330
47
100
AcDbScale
 70
     0
300
2:1
140
2.0
141
1.0
290
     0
  0
SCALE
  5
55
102
{ACAD_REACTORS
330
47
102
}
330
47
100
AcDbScale
 70
     0
300
4:1
140
4.0
141
1.0
290
     0
  0
SCALE
  5
56
102
{ACAD_REACTORS
330
47
102
}
330
47
100
AcDbScale
 70
     0
300
8:1
140
8.0
141
1.0
290
     0
  0
SCALE
  5
57
102
{ACAD_REACTORS
330
47
102
}
330
47
100
AcDbScale
 70
     0
300
10:1
140
10.0
141
1.0
290
     0
  0
SCALE
  5
58
102
{ACAD_REACTORS
330
47
102
}
330
47
100
AcDbScale
 70
     0
300
100:1
140
100.0
141
1.0
290
     0
  0
SCALE
  5
59
102
{ACAD_REACTORS
330
47
102
}
330
47
100
AcDbScale
 70
     0
300
1/128" = 1'-0"
140
0.0078125
141
12.0
290
     0
  0
SCALE
  5
5A
102
{ACAD_REACTORS
330
47
102
}
330
47
100
AcDbScale
 70
     0
300
1/64" = 1'-0"
140
0.015625
141
12.0
290
     0
  0
SCALE
  5
5B
102
{ACAD_REACTORS
330
47
102
}
330
47
100
AcDbScale
 70
     0
300
1/32" = 1'-0"
140
0.03125
141
12.0
290
     0
  0
SCALE
  5
5C
102
{ACAD_REACTORS
330
47
102
}
330
47
100
AcDbScale
 70
     0
300
1/16" = 1'-0"
140
0.0625
141
12.0
290
     0
  0
SCALE
  5
5D
102
{ACAD_REACTORS
330
47
102
}
330
47
100
AcDbScale
 70
     0
300
3/32" = 1'-0"
140
0.09375
141
12.0
290
     0
  0
SCALE
  5
5E
102
{ACAD_REACTORS
330
47
102
}
330
47
100
AcDbScale
 70
     0
300
1/8" = 1'-0"
140
0.125
141
12.0
290
     0
  0
SCALE
  5
5F
102
{ACAD_REACTORS
330
47
102
}
330
47
100
AcDbScale
 70
     0
300
3/16" = 1'-0"
140
0.1875
141
12.0
290
     0
  0
SCALE
  5
60
102
{ACAD_REACTORS
330
47
102
}
330
47
100
AcDbScale
 70
     0
300
1/4" = 1'-0"
140
0.25
141
12.0
290
     0
  0
SCALE
  5
61
102
{ACAD_REACTORS
330
47
102
}
330
47
100
AcDbScale
 70
     0
300
3/8" = 1'-0"
140
0.375
141
12.0
290
     0
  0
SCALE
  5
62
102
{ACAD_REACTORS
330
47
102
}
330
47
100
AcDbScale
 70
     0
300
1/2" = 1'-0"
140
0.5
141
12.0
290
     0
  0
SCALE
  5
63
102
{ACAD_REACTORS
330
47
102
}
330
47
100
AcDbScale
 70
     0
300
3/4" = 1'-0"
140
0.75
141
12.0
290
     0
  0
SCALE
  5
64
102
{ACAD_REACTORS
330
47
102
}
330
47
100
AcDbScale
 70
     0
300
1" = 1'-0"
140
1.0
141
12.0
290
     0
  0
SCALE
  5
65
102
{ACAD_REACTORS
330
47
102
}
330
47
100
AcDbScale
 70
     0
300
1-1/2" = 1'-0"
140
1.5
141
12.0
290
     0
  0
SCALE
  5
66
102
{ACAD_REACTORS
330
47
102
}
330
47
100
AcDbScale
 70
     0
300
3" = 1'-0"
140
3.0
141
12.0
290
     0
  0
SCALE
  5
67
102
{ACAD_REACTORS
330
47
102
}
330
47
100
AcDbScale
 70
     0
300
6" = 1'-0"
140
6.0
141
12.0
290
     0
  0
SCALE
  5
68
102
{ACAD_REACTORS
330
47
102
}
330
47
100
AcDbScale
 70
     0
300
1'-0" = 1'-0"
140
12.0
141
12.0
290
     0
  0
ENDSEC
  0
EOF
