  0
SECTION
  2
HEADER
  9
$ACADVER
  1
AC1015
  9
$ACADMAINTVER
 70
     6
  9
$DWGCODEPAGE
  3
ANSI_1252
  9
$INSBASE
 10
0.0
 20
0.0
 30
0.0
  9
$EXTMIN
 10
0.0
 20
0.0
 30
0.0
  9
$EXTMAX
 10
297.0
 20
210.0
 30
0.0
  9
$LIMMIN
 10
0.0
 20
0.0
  9
$LIMMAX
 10
297.0
 20
210.0
  9
$ORTHOMODE
 70
     0
  9
$REGENMODE
 70
     1
  9
$FILLMODE
 70
     1
  9
$QTEXTMODE
 70
     0
  9
$MIRRTEXT
 70
     1
  9
$LTSCALE
 40
1.0
  9
$ATTMODE
 70
     1
  9
$TEXTSIZE
 40
2.0
  9
$TRACEWID
 40
1.0
  9
$TEXTSTYLE
  7
Standard
  9
$CLAYER
  8
0
  9
$CELTYPE
  6
ByLayer
  9
$CECOLOR
 62
   256
  9
$CELTSCALE
 40
1.0
  9
$DISPSILH
 70
     0
  9
$DIMSCALE
 40
1.0
  9
$DIMASZ
 40
3.0
  9
$DIMEXO
 40
0.0
  9
$DIMDLI
 40
3.75
  9
$DIMRND
 40
0.0
  9
$DIMDLE
 40
0.0
  9
$DIMEXE
 40
1.0
  9
$DIMTP
 40
0.0
  9
$DIMTM
 40
0.0
  9
$DIMTXT
 40
2.0
  9
$DIMCEN
 40
2.5
  9
$DIMTSZ
 40
0.0
  9
$DIMTOL
 70
     0
  9
$DIMLIM
 70
     0
  9
$DIMTIH
 70
     1
  9
$DIMTOH
 70
     1
  9
$DIMSE1
 70
     0
  9
$DIMSE2
 70
     0
  9
$DIMTAD
 70
     1
  9
$DIMZIN
 70
     0
  9
$DIMBLK
  1

  9
$DIMASO
 70
     1
  9
$DIMSHO
 70
     1
  9
$DIMPOST
  1

  9
$DIMAPOST
  1

  9
$DIMALT
 70
     0
  9
$DIMALTD
 70
     3
  9
$DIMALTF
 40
0.0393700787
  9
$DIMLFAC
 40
2.0
  9
$DIMTOFL
 70
     1
  9
$DIMTVP
 40
0.0
  9
$DIMTIX
 70
     0
  9
$DIMSOXD
 70
     0
  9
$DIMSAH
 70
     0
  9
$DIMBLK1
  1

  9
$DIMBLK2
  1

  9
$DIMSTYLE
  2
ISO-25
  9
$DIMCLRD
 70
     0
  9
$DIMCLRE
 70
     0
  9
$DIMCLRT
 70
     0
  9
$DIMTFAC
 40
1.0
  9
$DIMGAP
 40
1.524
  9
$DIMJUST
 70
     0
  9
$DIMSD1
 70
     0
  9
$DIMSD2
 70
     0
  9
$DIMTOLJ
 70
     0
  9
$DIMTZIN
 70
     0
  9
$DIMALTZ
 70
     0
  9
$DIMALTTZ
 70
     0
  9
$DIMUPT
 70
     0
  9
$DIMDEC
 70
     2
  9
$DIMTDEC
 70
     3
  9
$DIMALTU
 70
     2
  9
$DIMALTTD
 70
     3
  9
$DIMTXSTY
  7
Standard
  9
$DIMAUNIT
 70
     0
  9
$DIMADEC
 70
     2
  9
$DIMALTRND
 40
0.0
  9
$DIMAZIN
 70
     0
  9
$DIMDSEP
 70
    44
  9
$DIMATFIT
 70
     3
  9
$DIMFRAC
 70
     0
  9
$DIMLDRBLK
  1

  9
$DIMLUNIT
 70
     2
  9
$DIMLWD
 70
    -2
  9
$DIMLWE
 70
    -2
  9
$DIMTMOVE
 70
     0
  9
$LUNITS
 70
     2
  9
$LUPREC
 70
     2
  9
$SKETCHINC
 40
1.0
  9
$FILLETRAD
 40
10.0
  9
$AUNITS
 70
     0
  9
$AUPREC
 70
     2
  9
$MENU
  1
.
  9
$ELEVATION
 40
0.0
  9
$PELEVATION
 40
0.0
  9
$THICKNESS
 40
0.0
  9
$LIMCHECK
 70
     0
  9
$CHAMFERA
 40
0.0
  9
$CHAMFERB
 40
0.0
  9
$CHAMFERC
 40
0.0
  9
$CHAMFERD
 40
0.0
  9
$SKPOLY
 70
     0
  9
$TDCREATE
 40
2458157.671956806
  9
$TDUCREATE
 40
2458157.630290139
  9
$TDUPDATE
 40
2458157.67195897
  9
$TDUUPDATE
 40
2458157.630292303
  9
$TDINDWG
 40
0.0000000116
  9
$TDUSRTIMER
 40
0.0000000116
  9
$USRTIMER
 70
     1
  9
$ANGBASE
 50
0.0
  9
$ANGDIR
 70
     0
  9
$PDMODE
 70
     0
  9
$PDSIZE
 40
-1.0
  9
$PLINEWID
 40
0.0
  9
$SPLFRAME
 70
     0
  9
$SPLINETYPE
 70
     6
  9
$SPLINESEGS
 70
     8
  9
$HANDSEED
  5
33A
  9
$SURFTAB1
 70
     6
  9
$SURFTAB2
 70
     6
  9
$SURFTYPE
 70
     6
  9
$SURFU
 70
     6
  9
$SURFV
 70
     6
  9
$UCSBASE
  2

  9
$UCSNAME
  2

  9
$UCSORG
 10
0.0
 20
0.0
 30
0.0
  9
$UCSXDIR
 10
1.0
 20
0.0
 30
0.0
  9
$UCSYDIR
 10
0.0
 20
1.0
 30
0.0
  9
$UCSORTHOREF
  2

  9
$UCSORTHOVIEW
 70
     0
  9
$UCSORGTOP
 10
0.0
 20
0.0
 30
0.0
  9
$UCSORGBOTTOM
 10
0.0
 20
0.0
 30
0.0
  9
$UCSORGLEFT
 10
0.0
 20
0.0
 30
0.0
  9
$UCSORGRIGHT
 10
0.0
 20
0.0
 30
0.0
  9
$UCSORGFRONT
 10
0.0
 20
0.0
 30
0.0
  9
$UCSORGBACK
 10
0.0
 20
0.0
 30
0.0
  9
$PUCSBASE
  2

  9
$PUCSNAME
  2

  9
$PUCSORG
 10
0.0
 20
0.0
 30
0.0
  9
$PUCSXDIR
 10
1.0
 20
0.0
 30
0.0
  9
$PUCSYDIR
 10
0.0
 20
1.0
 30
0.0
  9
$PUCSORTHOREF
  2

  9
$PUCSORTHOVIEW
 70
     0
  9
$PUCSORGTOP
 10
0.0
 20
0.0
 30
0.0
  9
$PUCSORGBOTTOM
 10
0.0
 20
0.0
 30
0.0
  9
$PUCSORGLEFT
 10
0.0
 20
0.0
 30
0.0
  9
$PUCSORGRIGHT
 10
0.0
 20
0.0
 30
0.0
  9
$PUCSORGFRONT
 10
0.0
 20
0.0
 30
0.0
  9
$PUCSORGBACK
 10
0.0
 20
0.0
 30
0.0
  9
$USERI1
 70
     0
  9
$USERI2
 70
     0
  9
$USERI3
 70
     0
  9
$USERI4
 70
     0
  9
$USERI5
 70
     0
  9
$USERR1
 40
0.0
  9
$USERR2
 40
0.0
  9
$USERR3
 40
0.0
  9
$USERR4
 40
0.0
  9
$USERR5
 40
0.0
  9
$WORLDVIEW
 70
     1
  9
$SHADEDGE
 70
     3
  9
$SHADEDIF
 70
    70
  9
$TILEMODE
 70
     1
  9
$MAXACTVP
 70
    64
  9
$PINSBASE
 10
0.0
 20
0.0
 30
0.0
  9
$PLIMCHECK
 70
     0
  9
$PEXTMIN
 10
1.0000000000E+20
 20
1.0000000000E+20
 30
1.0000000000E+20
  9
$PEXTMAX
 10
-1.0000000000E+20
 20
-1.0000000000E+20
 30
-1.0000000000E+20
  9
$PLIMMIN
 10
0.0
 20
0.0
  9
$PLIMMAX
 10
420.0
 20
297.0
  9
$UNITMODE
 70
     0
  9
$VISRETAIN
 70
     1
  9
$PLINEGEN
 70
     0
  9
$PSLTSCALE
 70
     1
  9
$TREEDEPTH
 70
  3020
  9
$CMLSTYLE
  2
Standard
  9
$CMLJUST
 70
     0
  9
$CMLSCALE
 40
20.0
  9
$PROXYGRAPHICS
 70
     1
  9
$MEASUREMENT
 70
     1
  9
$CELWEIGHT
370
    -1
  9
$ENDCAPS
280
     0
  9
$JOINSTYLE
280
     0
  9
$LWDISPLAY
290
     1
  9
$INSUNITS
 70
     4
  9
$HYPERLINKBASE
  1

  9
$STYLESHEET
  1

  9
$XEDIT
290
     1
  9
$CEPSNTYPE
380
     0
  9
$PSTYLEMODE
290
     1
  9
$FINGERPRINTGUID
  2
{AD88DCF2-B0E1-4922-AAC6-B399B824A2A2}
  9
$VERSIONGUID
  2
{FAEB1C32-E019-11D5-929B-00C0DF256EC4}
  9
$EXTNAMES
290
     1
  9
$PSVPSCALE
 40
0.0
  9
$OLESTARTUP
290
     0
  0
ENDSEC
  0
SECTION
  2
CLASSES
  0
CLASS
  1
ACDBDICTIONARYWDFLT
  2
AcDbDictionaryWithDefault
  3
ObjectDBX Classes
 90
        0
280
     0
281
     0
  0
CLASS
  1
VISUALSTYLE
  2
AcDbVisualStyle
  3
ObjectDBX Classes
 90
     4095
280
     0
281
     0
  0
CLASS
  1
MATERIAL
  2
AcDbMaterial
  3
ObjectDBX Classes
 90
     1153
280
     0
281
     0
  0
CLASS
  1
SCALE
  2
AcDbScale
  3
ObjectDBX Classes
 90
     1153
280
     0
281
     0
  0
CLASS
  1
TABLESTYLE
  2
AcDbTableStyle
  3
ObjectDBX Classes
 90
     4095
280
     0
281
     0
  0
CLASS
  1
MLEADERSTYLE
  2
AcDbMLeaderStyle
  3
ACDB_MLEADERSTYLE_CLASS
 90
     4095
280
     0
281
     0
  0
CLASS
  1
SUN
  2
AcDbSun
  3
SCENEOE
 90
     1153
280
     0
281
     0
  0
CLASS
  1
ACDBPLACEHOLDER
  2
AcDbPlaceHolder
  3
ObjectDBX Classes
 90
        0
280
     0
281
     0
  0
CLASS
  1
LAYOUT
  2
AcDbLayout
  3
ObjectDBX Classes
 90
        0
280
     0
281
     0
  0
ENDSEC
  0
SECTION
  2
TABLES
  0
TABLE
  2
VPORT
  5
8
330
0
100
AcDbSymbolTable
 70
     1
  0
VPORT
  5
29
330
8
100
AcDbSymbolTableRecord
100
AcDbViewportTableRecord
  2
*Active
 70
     0
 10
0.0
 20
0.0
 11
1.0
 21
1.0
 12
148.5
 22
105.0
 13
0.0
 23
0.0
 14
10.0
 24
10.0
 15
10.0
 25
10.0
 16
0.0
 26
0.0
 36
1.0
 17
0.0
 27
0.0
 37
0.0
 40
210.0
 41
1.4142857143
 42
50.0
 43
0.0
 44
0.0
 50
0.0
 51
0.0
 71
     0
 72
  2000
 73
     1
 74
     3
 75
     0
 76
     0
 77
     0
 78
     0
281
     0
 65
     1
110
0.0
120
0.0
130
0.0
111
1.0
121
0.0
131
0.0
112
0.0
122
1.0
132
0.0
 79
     0
146
0.0
  0
ENDTAB
  0
TABLE
  2
LTYPE
  5
5
330
0
100
AcDbSymbolTable
 70
     6
  0
LTYPE
  5
14
330
5
100
AcDbSymbolTableRecord
100
AcDbLinetypeTableRecord
  2
ByBlock
 70
     0
  3

 72
    65
 73
     0
 40
0.0
  0
LTYPE
  5
15
330
5
100
AcDbSymbolTableRecord
100
AcDbLinetypeTableRecord
  2
ByLayer
 70
     0
  3

 72
    65
 73
     0
 40
0.0
  0
LTYPE
  5
16
330
5
100
AcDbSymbolTableRecord
100
AcDbLinetypeTableRecord
  2
Continuous
 70
     0
  3
Solid line
 72
    65
 73
     0
 40
0.0
  0
LTYPE
  5
6E
330
5
100
AcDbSymbolTableRecord
100
AcDbLinetypeTableRecord
  2
HIDDEN
 70
     0
  3
Hidden __ __ __ __ __ __ __ __ __ __ __ __ __ __
 72
    65
 73
     2
 40
1.905
 49
1.27
 74
     0
 49
-0.635
 74
     0
  0
LTYPE
  5
6F
330
5
100
AcDbSymbolTableRecord
100
AcDbLinetypeTableRecord
  2
PHANTOM
 70
     0
  3
Phantom ______  __  __  ______  __  __  ______
 72
    65
 73
     6
 40
12.7
 49
6.35
 74
     0
 49
-1.27
 74
     0
 49
1.27
 74
     0
 49
-1.27
 74
     0
 49
1.27
 74
     0
 49
-1.27
 74
     0
  0
LTYPE
  5
70
330
5
100
AcDbSymbolTableRecord
100
AcDbLinetypeTableRecord
  2
CENTER
 70
     0
  3
Center ____ _ ____ _ ____ _ ____ _ ____ _ ____
 72
    65
 73
     4
 40
10.16
 49
6.35
 74
     0
 49
-1.27
 74
     0
 49
1.27
 74
     0
 49
-1.27
 74
     0
  0
LTYPE
  5
71
330
5
100
AcDbSymbolTableRecord
100
AcDbLinetypeTableRecord
  2
CENTERX2
 70
     0
  3
Center (2x) ________  __  ________  __  _____
 72
    65
 73
     4
 40
20.32
 49
12.7
 74
     0
 49
-2.54
 74
     0
 49
2.54
 74
     0
 49
-2.54
 74
     0
  0
LTYPE
  5
72
330
5
100
AcDbSymbolTableRecord
100
AcDbLinetypeTableRecord
  2
DOT2
 70
     0
  3
Dot (.5x) ........................................
 72
    65
 73
     2
 40
0.635
 49
0.0
 74
     0
 49
-0.635
 74
     0
  0
ENDTAB
  0
TABLE
  2
LAYER
  5
2
330
0
100
AcDbSymbolTable
 70
     5
  0
LAYER
  5
10
330
2
100
AcDbSymbolTableRecord
100
AcDbLayerTableRecord
  2
0
 70
     0
 62
     7
  6
Continuous
370
    -3
390
F
  0
LAYER
  5
73
330
2
100
AcDbSymbolTableRecord
100
AcDbLayerTableRecord
  2
FORMAT
 70
     0
 62
     7
  6
Continuous
370
    -3
390
F
  0
LAYER
  5
74
330
2
100
AcDbSymbolTableRecord
100
AcDbLayerTableRecord
  2
VERMASSUNG
 70
     0
 62
     7
  6
Continuous
370
    -3
390
F
  0
LAYER
  5
75
330
2
100
AcDbSymbolTableRecord
100
AcDbLayerTableRecord
  2
KOPF_DÜNN
 70
     0
 62
     7
  6
Continuous
370
    -3
390
F
  0
LAYER
  5
76
330
2
100
AcDbSymbolTableRecord
100
AcDbLayerTableRecord
  2
KOPF_DICK
 70
     0
 62
     7
  6
Continuous
370
    25
390
F
  0
ENDTAB
  0
TABLE
  2
STYLE
  5
3
330
0
100
AcDbSymbolTable
 70
     2
  0
STYLE
  5
11
330
3
100
AcDbSymbolTableRecord
100
AcDbTextStyleTableRecord
  2
Standard
 70
     0
 40
0.0
 41
1.0
 50
0.0
 71
     0
 42
2.0
  3
txt
  4

  0
STYLE
  5
77
330
3
100
AcDbSymbolTableRecord
100
AcDbTextStyleTableRecord
  2
SLDTEXTSTYLE0
 70
     0
 40
0.0
 41
0.7
 50
0.0
 71
     0
 42
2.0
  3
TXT
  4

  0
ENDTAB
  0
TABLE
  2
VIEW
  5
6
330
0
100
AcDbSymbolTable
 70
     0
  0
ENDTAB
  0
TABLE
  2
UCS
  5
7
330
0
100
AcDbSymbolTable
 70
     0
  0
ENDTAB
  0
TABLE
  2
APPID
  5
9
330
0
100
AcDbSymbolTable
 70
     1
  0
APPID
  5
12
330
9
100
AcDbSymbolTableRecord
100
AcDbRegAppTableRecord
  2
ACAD
 70
     0
  0
ENDTAB
  0
TABLE
  2
DIMSTYLE
  5
A
330
0
100
AcDbSymbolTable
 70
     5
100
AcDbDimStyleTable
  0
DIMSTYLE
105
27
330
A
100
AcDbSymbolTableRecord
100
AcDbDimStyleTableRecord
  2
ISO-25
 70
     0
 41
2.5
 42
0.625
 43
3.75
 44
1.25
 73
     0
 74
     0
 77
     1
 78
     8
140
2.5
141
2.5
143
0.0393700787
147
0.625
171
     3
172
     1
178
     0
271
     2
272
     2
274
     3
278
    44
283
     0
284
     8
340
11
  0
DIMSTYLE
105
171
102
{ACAD_REACTORS
330
170
330
17D
102
}
330
A
100
AcDbSymbolTableRecord
100
AcDbDimStyleTableRecord
  2
SLDDIMSTYLE0
 70
     0
 41
3.0
 44
0.0
 45
0.000000001
 47
0.1
 48
0.1
 71
     1
 73
     0
 74
     0
 77
     1
 78
    12
 79
     3
140
2.0
147
0.5
173
     1
178
     0
271
     2
272
     1
276
     2
284
     8
340
77
  0
DIMSTYLE
105
18A
102
{ACAD_REACTORS
330
189
330
19E
102
}
330
A
100
AcDbSymbolTableRecord
100
AcDbDimStyleTableRecord
  2
SLDDIMSTYLE1
 70
     0
 41
3.0
 44
0.0
 45
0.000000001
 73
     0
 74
     0
 77
     1
 78
    12
 79
     3
140
2.0
147
0.5
173
     1
178
     0
271
     2
272
     3
276
     2
284
    12
340
77
  0
DIMSTYLE
105
195
102
{ACAD_REACTORS
330
194
102
}
330
A
100
AcDbSymbolTableRecord
100
AcDbDimStyleTableRecord
  2
SLDDIMSTYLE2
 70
     0
 41
3.0
 44
0.0
 73
     0
 74
     0
 77
     1
 78
    12
 79
     3
140
2.0
147
0.5
173
     1
178
     0
179
     1
272
     3
276
     2
284
    12
340
77
  0
DIMSTYLE
105
241
102
{ACAD_REACTORS
330
240
102
}
330
A
100
AcDbSymbolTableRecord
100
AcDbDimStyleTableRecord
  2
SLDDIMSTYLE3
 70
     0
 41
3.0
 44
0.0
 45
0.000000001
 73
     0
 74
     0
 77
     1
 78
    12
 79
     3
140
2.0
141
0.0
147
0.5
172
     1
173
     1
178
     0
271
     2
272
     3
276
     2
284
    12
340
77
  0
ENDTAB
  0
TABLE
  2
BLOCK_RECORD
  5
1
330
0
100
AcDbSymbolTable
 70
     8
  0
BLOCK_RECORD
  5
1F
330
1
100
AcDbSymbolTableRecord
100
AcDbBlockTableRecord
  2
*Model_Space
340
22
  0
BLOCK_RECORD
  5
1B
330
1
100
AcDbSymbolTableRecord
100
AcDbBlockTableRecord
  2
*Paper_Space
340
1E
  0
BLOCK_RECORD
  5
23
330
1
100
AcDbSymbolTableRecord
100
AcDbBlockTableRecord
  2
*Paper_Space0
340
26
  0
BLOCK_RECORD
  5
172
330
1
100
AcDbSymbolTableRecord
100
AcDbBlockTableRecord
  2
_D
340
0
  0
BLOCK_RECORD
  5
17E
330
1
100
AcDbSymbolTableRecord
100
AcDbBlockTableRecord
  2
_D_1
340
0
  0
BLOCK_RECORD
  5
18B
330
1
100
AcDbSymbolTableRecord
100
AcDbBlockTableRecord
  2
_D_2
340
0
  0
BLOCK_RECORD
  5
196
330
1
100
AcDbSymbolTableRecord
100
AcDbBlockTableRecord
  2
_D_3
340
0
  0
BLOCK_RECORD
  5
19F
330
1
100
AcDbSymbolTableRecord
100
AcDbBlockTableRecord
  2
_D_4
340
0
  0
BLOCK_RECORD
  5
242
330
1
100
AcDbSymbolTableRecord
100
AcDbBlockTableRecord
  2
_D_5
340
0
  0
BLOCK_RECORD
  5
24C
330
1
100
AcDbSymbolTableRecord
100
AcDbBlockTableRecord
  2
SW_CENTERMARKSYMBOL_0
340
0
102
{BLKREFS
331
257
102
}
  0
ENDTAB
  0
ENDSEC
  0
SECTION
  2
BLOCKS
  0
BLOCK
  5
20
330
1F
100
AcDbEntity
  8
0
100
AcDbBlockBegin
  2
*Model_Space
 70
     0
 10
0.0
 20
0.0
 30
0.0
  3
*Model_Space
  1

  0
ENDBLK
  5
21
330
1F
100
AcDbEntity
  8
0
100
AcDbBlockEnd
  0
BLOCK
  5
1C
330
1B
100
AcDbEntity
 67
     1
  8
0
100
AcDbBlockBegin
  2
*Paper_Space
 70
     0
 10
0.0
 20
0.0
 30
0.0
  3
*Paper_Space
  1

  0
ENDBLK
  5
1D
330
1B
100
AcDbEntity
 67
     1
  8
0
100
AcDbBlockEnd
  0
BLOCK
  5
24
330
23
100
AcDbEntity
  8
0
100
AcDbBlockBegin
  2
*Paper_Space0
 70
     0
 10
0.0
 20
0.0
 30
0.0
  3
*Paper_Space0
  1

  0
ENDBLK
  5
25
330
23
100
AcDbEntity
  8
0
100
AcDbBlockEnd
  0
BLOCK
  5
173
330
172
100
AcDbEntity
  8
0
100
AcDbBlockBegin
  2
_D
 70
     0
 10
0.0
 20
0.0
 30
0.0
  3
_D
  1

  0
SOLID
  5
175
330
172
100
AcDbEntity
  8
VERMASSUNG
100
AcDbTrace
 10
265.8383458647
 20
174.3859164137
 30
0.0
 11
265.3883458647
 21
171.3859164137
 31
0.0
 12
266.2883458647
 22
171.3859164137
 32
0.0
 13
266.2883458647
 23
171.3859164137
 33
0.0
  0
SOLID
  5
176
330
172
100
AcDbEntity
  8
VERMASSUNG
100
AcDbTrace
 10
265.8383458647
 20
129.3859164137
 30
0.0
 11
266.2883458647
 21
132.3859164137
 31
0.0
 12
265.3883458647
 22
132.3859164137
 32
0.0
 13
265.3883458647
 23
132.3859164137
 33
0.0
  0
LINE
  5
177
330
172
100
AcDbEntity
  8
VERMASSUNG
100
AcDbLine
 10
245.8344774599
 20
174.3859164137
 30
0.0
 11
266.8383458647
 21
174.3859164137
 31
0.0
  0
LINE
  5
178
330
172
100
AcDbEntity
  8
VERMASSUNG
100
AcDbLine
 10
248.2782688528
 20
129.3859164137
 30
0.0
 11
266.8383458647
 21
129.3859164137
 31
0.0
  0
LINE
  5
179
330
172
100
AcDbEntity
  8
VERMASSUNG
100
AcDbLine
 10
265.8383458647
 20
174.3859164137
 30
0.0
 11
265.8383458647
 21
129.3859164137
 31
0.0
  0
MTEXT
  5
17A
330
172
100
AcDbEntity
  8
VERMASSUNG
100
AcDbMText
 10
263.2602102687
 20
148.1359160318
 30
0.0
 40
2.0
 41
0.0
 71
     1
 72
     1
  1
45
  7
SLDTEXTSTYLE0
 11
-7.044195017643634E-15
 21
1.0
 31
0.0
 73
     1
 44
1.0
  0
MTEXT
  5
17B
330
172
100
AcDbEntity
  8
VERMASSUNG
100
AcDbMText
 10
263.2602102687
 20
152.3234160579
 30
0.0
 40
2.0
 41
0.0
 71
     1
 72
     1
  1

  7
SLDTEXTSTYLE0
 11
-7.044195017643634E-15
 21
1.0
 31
0.0
 73
     1
 44
1.0
  0
MTEXT
  5
17C
330
172
100
AcDbEntity
  8
VERMASSUNG
100
AcDbMText
 10
263.7547441024
 20
152.3359158821
 30
0.0
 40
1.5
 41
0.0
 71
     1
 72
     1
  1
±0.1
  7
SLDTEXTSTYLE0
 11
-7.044195017643634E-15
 21
1.0
 31
0.0
 73
     1
 44
1.0
  0
ENDBLK
  5
174
330
172
100
AcDbEntity
  8
0
100
AcDbBlockEnd
  0
BLOCK
  5
17F
330
17E
100
AcDbEntity
  8
0
100
AcDbBlockBegin
  2
_D_1
 70
     0
 10
0.0
 20
0.0
 30
0.0
  3
_D_1
  1

  0
SOLID
  5
181
330
17E
100
AcDbEntity
  8
VERMASSUNG
100
AcDbTrace
 10
245.8344774599
 20
184.9932359817
 30
0.0
 11
242.8344774599
 21
185.4432359817
 31
0.0
 12
242.8344774599
 22
184.5432359817
 32
0.0
 13
242.8344774599
 23
184.5432359817
 33
0.0
  0
SOLID
  5
182
330
17E
100
AcDbEntity
  8
VERMASSUNG
100
AcDbTrace
 10
180.8344774599
 20
184.9932359817
 30
0.0
 11
183.8344774599
 21
184.5432359817
 31
0.0
 12
183.8344774599
 22
185.4432359817
 32
0.0
 13
183.8344774599
 23
185.4432359817
 33
0.0
  0
LINE
  5
183
330
17E
100
AcDbEntity
  8
VERMASSUNG
100
AcDbLine
 10
245.8344774599
 20
174.3859164137
 30
0.0
 11
245.8344774599
 21
185.9932359817
 31
0.0
  0
LINE
  5
184
330
17E
100
AcDbEntity
  8
VERMASSUNG
100
AcDbLine
 10
180.8344774599
 20
160.3859164137
 30
0.0
 11
180.8344774599
 21
185.9932359817
 31
0.0
  0
LINE
  5
185
330
17E
100
AcDbEntity
  8
VERMASSUNG
100
AcDbLine
 10
245.8344774599
 20
184.9932359817
 30
0.0
 11
180.8344774599
 21
184.9932359817
 31
0.0
  0
MTEXT
  5
186
330
17E
100
AcDbEntity
  8
VERMASSUNG
100
AcDbMText
 10
209.6844773738
 20
187.5713715776
 30
0.0
 40
2.0
 41
0.0
 71
     1
 72
     1
  1
65
  7
SLDTEXTSTYLE0
 73
     1
 44
1.0
  0
MTEXT
  5
187
330
17E
100
AcDbEntity
  8
VERMASSUNG
100
AcDbMText
 10
213.671977274
 20
187.5713715776
 30
0.0
 40
2.0
 41
0.0
 71
     1
 72
     1
  1

  7
SLDTEXTSTYLE0
 73
     1
 44
1.0
  0
MTEXT
  5
188
330
17E
100
AcDbEntity
  8
VERMASSUNG
100
AcDbMText
 10
213.6844770981
 20
187.076837744
 30
0.0
 40
1.5
 41
0.0
 71
     1
 72
     1
  1
±0.1
  7
SLDTEXTSTYLE0
 73
     1
 44
1.0
  0
ENDBLK
  5
180
330
17E
100
AcDbEntity
  8
0
100
AcDbBlockEnd
  0
BLOCK
  5
18C
330
18B
100
AcDbEntity
  8
0
100
AcDbBlockBegin
  2
_D_2
 70
     0
 10
0.0
 20
0.0
 30
0.0
  3
_D_2
  1

  0
SOLID
  5
18E
330
18B
100
AcDbEntity
  8
VERMASSUNG
100
AcDbTrace
 10
245.8344774599
 20
194.1716235306
 30
0.0
 11
242.8344774599
 21
194.6216235306
 31
0.0
 12
242.8344774599
 22
193.7216235306
 32
0.0
 13
242.8344774599
 23
193.7216235306
 33
0.0
  0
SOLID
  5
18F
330
18B
100
AcDbEntity
  8
VERMASSUNG
100
AcDbTrace
 10
142.8344774599
 20
194.1716235306
 30
0.0
 11
145.8344774599
 21
193.7216235306
 31
0.0
 12
145.8344774599
 22
194.6216235306
 32
0.0
 13
145.8344774599
 23
194.6216235306
 33
0.0
  0
LINE
  5
190
330
18B
100
AcDbEntity
  8
VERMASSUNG
100
AcDbLine
 10
245.8344774599
 20
174.3859164137
 30
0.0
 11
245.8344774599
 21
195.1716235306
 31
0.0
  0
LINE
  5
191
330
18B
100
AcDbEntity
  8
VERMASSUNG
100
AcDbLine
 10
142.8344774599
 20
149.6782544062
 30
0.0
 11
142.8344774599
 21
195.1716235306
 31
0.0
  0
LINE
  5
192
330
18B
100
AcDbEntity
  8
VERMASSUNG
100
AcDbLine
 10
245.8344774599
 20
194.1716235306
 30
0.0
 11
142.8344774599
 21
194.1716235306
 31
0.0
  0
MTEXT
  5
193
330
18B
100
AcDbEntity
  8
VERMASSUNG
100
AcDbMText
 10
192.4344774278
 20
196.7497591265
 30
0.0
 40
2.0
 41
0.0
 71
     1
 72
     1
  1
103
  7
SLDTEXTSTYLE0
 73
     1
 44
1.0
  0
ENDBLK
  5
18D
330
18B
100
AcDbEntity
  8
0
100
AcDbBlockEnd
  0
BLOCK
  5
197
330
196
100
AcDbEntity
  8
0
100
AcDbBlockBegin
  2
_D_3
 70
     0
 10
0.0
 20
0.0
 30
0.0
  3
_D_3
  1

  0
ARC
  5
199
330
196
100
AcDbEntity
  8
VERMASSUNG
100
AcDbCircle
 10
245.8562485837
 20
174.3859164137
 30
0.0
 40
11.33772808354502
100
AcDbArc
 50
266.9629351717
 51
0.0
  0
SOLID
  5
19A
330
196
100
AcDbEntity
  8
VERMASSUNG
100
AcDbTrace
 10
245.2555535055
 20
163.064112515
 30
0.0
 11
248.2811336587
 21
162.844192674
 31
0.0
 12
248.2125027007
 22
163.7415720763
 32
0.0
 13
248.2125027007
 23
163.7415720763
 33
0.0
  0
SOLID
  5
19B
330
196
100
AcDbEntity
  8
VERMASSUNG
100
AcDbTrace
 10
257.1939766673
 20
174.3859164137
 30
0.0
 11
256.3608036488
 21
171.4690134806
 31
0.0
 12
257.2532864515
 22
171.3529339954
 32
0.0
 13
257.2532864515
 23
171.3529339954
 33
0.0
  0
LINE
  5
19C
330
196
100
AcDbEntity
  8
VERMASSUNG
100
AcDbLine
 10
245.8344774599
 20
174.3859164137
 30
0.0
 11
258.1939766673
 21
174.3859164137
 31
0.0
  0
MTEXT
  5
19D
330
196
100
AcDbEntity
  8
VERMASSUNG
100
AcDbMText
 10
250.4327047669
 20
166.6537427994
 30
0.0
 40
2.0
 41
0.0
 71
     1
 72
     1
  1
93°
  7
SLDTEXTSTYLE0
 11
0.7255969824835651
 21
0.6881199161561485
 31
0.0
 73
     1
 44
1.0
  0
ENDBLK
  5
198
330
196
100
AcDbEntity
  8
0
100
AcDbBlockEnd
  0
BLOCK
  5
1A0
330
19F
100
AcDbEntity
  8
0
100
AcDbBlockBegin
  2
_D_4
 70
     0
 10
0.0
 20
0.0
 30
0.0
  3
_D_4
  1

  0
SOLID
  5
1A2
330
19F
100
AcDbEntity
  8
VERMASSUNG
100
AcDbTrace
 10
134.81792591
 20
160.8859164137
 30
0.0
 11
134.36792591
 21
157.8859164137
 31
0.0
 12
135.26792591
 22
157.8859164137
 32
0.0
 13
135.26792591
 23
157.8859164137
 33
0.0
  0
SOLID
  5
1A3
330
19F
100
AcDbEntity
  8
VERMASSUNG
100
AcDbTrace
 10
134.81792591
 20
97.8859164137
 30
0.0
 11
135.26792591
 21
100.8859164137
 31
0.0
 12
134.36792591
 22
100.8859164137
 32
0.0
 13
134.36792591
 23
100.8859164137
 33
0.0
  0
LINE
  5
1A4
330
19F
100
AcDbEntity
  8
VERMASSUNG
100
AcDbLine
 10
181.3344774599
 20
160.8859164137
 30
0.0
 11
133.81792591
 21
160.8859164137
 31
0.0
  0
LINE
  5
1A5
330
19F
100
AcDbEntity
  8
VERMASSUNG
100
AcDbLine
 10
181.3344774599
 20
97.8859164137
 30
0.0
 11
133.81792591
 21
97.8859164137
 31
0.0
  0
LINE
  5
1A6
330
19F
100
AcDbEntity
  8
VERMASSUNG
100
AcDbLine
 10
134.81792591
 20
160.8859164137
 30
0.0
 11
134.81792591
 21
97.8859164137
 31
0.0
  0
MTEXT
  5
1A7
330
19F
100
AcDbEntity
  8
VERMASSUNG
100
AcDbMText
 10
132.0397906538
 20
123.8809171039
 30
0.0
 40
2.0
 41
0.0
 71
     1
 72
     1
  1
PSC
  7
SLDTEXTSTYLE0
 11
-7.044195017643634E-15
 21
1.0
 31
0.0
 73
     1
 44
1.0
  0
MTEXT
  5
1A8
330
19F
100
AcDbEntity
  8
VERMASSUNG
100
AcDbMText
 10
132.2397906051
 20
128.4809167403
 30
0.0
 40
2.0
 41
0.0
 71
     1
 72
     1
  1
%%c
  7
SLDTEXTSTYLE0
 11
-7.044195017643634E-15
 21
1.0
 31
0.0
 73
     1
 44
1.0
  0
MTEXT
  5
1A9
330
19F
100
AcDbEntity
  8
VERMASSUNG
100
AcDbMText
 10
132.0397906538
 20
132.0909167546
 30
0.0
 40
2.0
 41
0.0
 71
     1
 72
     1
  1
63
  7
SLDTEXTSTYLE0
 11
-7.044195017643634E-15
 21
1.0
 31
0.0
 73
     1
 44
1.0
  0
ENDBLK
  5
1A1
330
19F
100
AcDbEntity
  8
0
100
AcDbBlockEnd
  0
BLOCK
  5
243
330
242
100
AcDbEntity
  8
0
100
AcDbBlockBegin
  2
_D_5
 70
     0
 10
0.0
 20
0.0
 30
0.0
  3
_D_5
  1

  0
SOLID
  5
245
330
242
100
AcDbEntity
  8
VERMASSUNG
100
AcDbTrace
 10
42.3362655216
 20
106.1016451662
 30
0.0
 11
39.8967471265
 21
104.2985228742
 31
0.0
 12
40.5331432295
 22
103.6621267711
 32
0.0
 13
40.5331432295
 23
103.6621267711
 33
0.0
  0
SOLID
  5
246
330
242
100
AcDbEntity
  8
VERMASSUNG
100
AcDbTrace
 10
98.9048080165
 20
162.6701876612
 30
0.0
 11
101.3443264116
 21
164.4733099532
 31
0.0
 12
100.7079303085
 22
165.1097060562
 32
0.0
 13
100.7079303085
 23
165.1097060562
 33
0.0
  0
LINE
  5
247
330
242
100
AcDbEntity
  8
VERMASSUNG
100
AcDbLine
 10
98.9048080165
 20
162.6701876612
 30
0.0
 11
110.9239072122
 21
174.6892868568
 31
0.0
  0
LINE
  5
248
330
242
100
AcDbEntity
  8
VERMASSUNG
100
AcDbLine
 10
42.3362655216
 20
106.1016451662
 30
0.0
 11
38.0936248345
 21
101.8590044791
 31
0.0
  0
LINE
  5
249
330
242
100
AcDbEntity
  8
VERMASSUNG
100
AcDbLine
 10
98.9048080165
 20
162.6701876612
 30
0.0
 11
42.3362655216
 21
106.1016451662
 31
0.0
  0
MTEXT
  5
24A
330
242
100
AcDbEntity
  8
VERMASSUNG
100
AcDbMText
 10
104.5693109543
 20
171.9787743009
 30
0.0
 40
2.0
 41
0.0
 71
     1
 72
     1
  1
%%c
  7
SLDTEXTSTYLE0
 11
0.7071067811865464
 21
0.7071067811865488
 31
0.0
 73
     1
 44
1.0
  0
MTEXT
  5
24B
330
242
100
AcDbEntity
  8
VERMASSUNG
100
AcDbMText
 10
106.9805451227
 20
174.6728511129
 30
0.0
 40
2.0
 41
0.0
 71
     1
 72
     1
  1
80
  7
SLDTEXTSTYLE0
 11
0.7071067811865464
 21
0.7071067811865488
 31
0.0
 73
     1
 44
1.0
  0
ENDBLK
  5
244
330
242
100
AcDbEntity
  8
0
100
AcDbBlockEnd
  0
BLOCK
  5
24D
330
24C
100
AcDbEntity
  8
0
100
AcDbBlockBegin
  2
SW_CENTERMARKSYMBOL_0
 70
     0
 10
0.0
 20
0.0
 30
0.0
  3
SW_CENTERMARKSYMBOL_0
  1

  0
LINE
  5
24F
330
24C
100
AcDbEntity
  8
VERMASSUNG
 62
     0
100
AcDbLine
 10
0.0
 20
0.0
 30
0.0
 11
0.0
 21
2.5
 31
0.0
  0
LINE
  5
250
330
24C
100
AcDbEntity
  8
VERMASSUNG
 62
     0
100
AcDbLine
 10
0.0
 20
0.0
 30
0.0
 11
-2.5
 21
0.0
 31
0.0
  0
LINE
  5
251
330
24C
100
AcDbEntity
  8
VERMASSUNG
 62
     0
100
AcDbLine
 10
0.0
 20
0.0
 30
0.0
 11
0.0
 21
-2.5
 31
0.0
  0
LINE
  5
252
330
24C
100
AcDbEntity
  8
VERMASSUNG
 62
     0
100
AcDbLine
 10
0.0
 20
0.0
 30
0.0
 11
2.5
 21
0.0
 31
0.0
  0
LINE
  5
253
330
24C
100
AcDbEntity
  8
VERMASSUNG
 62
     0
100
AcDbLine
 10
0.0
 20
5.0
 30
0.0
 11
0.0
 21
36.8670621596
 31
0.0
  0
LINE
  5
254
330
24C
100
AcDbEntity
  8
VERMASSUNG
 62
     0
100
AcDbLine
 10
-5.0
 20
0.0
 30
0.0
 11
-34.0
 21
0.0
 31
0.0
  0
LINE
  5
255
330
24C
100
AcDbEntity
  8
VERMASSUNG
 62
     0
100
AcDbLine
 10
0.0
 20
-5.0
 30
0.0
 11
0.0
 21
-34.0
 31
0.0
  0
LINE
  5
256
330
24C
100
AcDbEntity
  8
VERMASSUNG
 62
     0
100
AcDbLine
 10
5.0
 20
0.0
 30
0.0
 11
34.0
 21
0.0
 31
0.0
  0
ENDBLK
  5
24E
330
24C
100
AcDbEntity
  8
0
100
AcDbBlockEnd
  0
ENDSEC
  0
SECTION
  2
ENTITIES
  0
MTEXT
  5
78
330
1F
100
AcDbEntity
  8
KOPF_DÜNN
100
AcDbMText
 10
13.8892156294
 20
23.8442973028
 30
0.0
 40
3.0
 41
0.0
 71
     1
 72
     1
  1
PS6.KVD.RUA.065
  7
SLDTEXTSTYLE0
 73
     1
 44
1.0
  0
MTEXT
  5
79
330
1F
100
AcDbEntity
  8
VERMASSUNG
100
AcDbMText
 10
13.9329988022
 20
28.8834360957
 30
0.0
 40
3.0
 41
0.0
 71
     1
 72
     1
  1
Klemmhalter rechts_Toolholder right 93°/35°
  7
SLDTEXTSTYLE0
 73
     1
 44
1.0
  0
MTEXT
  5
7A
330
1F
100
AcDbEntity
  8
VERMASSUNG
100
AcDbMText
 10
98.8601118557
 20
13.8365368761
 30
0.0
 40
2.0
 41
0.0
 71
     1
 72
     1
  1
Datum: 07.02.2018
  7
SLDTEXTSTYLE0
 73
     1
 44
1.0
  0
MTEXT
  5
7B
330
1F
100
AcDbEntity
  8
VERMASSUNG
100
AcDbMText
 10
13.933048693
 20
18.0482802738
 30
0.0
 40
2.0
 41
0.0
 71
     1
 72
     1
  1
PSC Ø63 / VN... 1604... Wp
  7
SLDTEXTSTYLE0
 73
     1
 44
1.0
  0
MTEXT
  5
7C
330
1F
100
AcDbEntity
  8
VERMASSUNG
100
AcDbMText
 10
13.9808475933
 20
13.9090974274
 30
0.0
 40
2.0
 41
0.0
 71
     1
 72
     1
  1
Gewicht: 1386g
  7
SLDTEXTSTYLE0
 73
     1
 44
1.0
  0
LINE
  5
7D
330
1F
100
AcDbEntity
  8
0
  6
Continuous
 62
     7
370
    25
100
AcDbLine
 10
228.7475296015
 20
138.1907406169
 30
0.0
 11
229.2174861486
 21
139.1235179174
 31
0.0
  0
LINE
  5
7E
330
1F
100
AcDbEntity
  8
0
  6
Continuous
 62
     7
370
    25
100
AcDbLine
 10
226.5383206958
 20
140.4733554366
 30
0.0
 11
226.0654099936
 21
139.5347238425
 31
0.0
  0
LINE
  5
7F
330
1F
100
AcDbEntity
  8
0
  6
Continuous
 62
     7
370
    25
100
AcDbLine
 10
226.9946836586
 20
149.6752536762
 30
0.0
 11
226.8203698749
 21
149.3292785156
 31
0.0
  0
LINE
  5
80
330
1F
100
AcDbEntity
  8
0
  6
Continuous
 62
     7
370
    25
100
AcDbLine
 10
237.0905146653
 20
144.1549024451
 30
0.0
 11
237.2648247237
 21
144.5008776057
 31
0.0
  0
LINE
  5
81
330
1F
100
AcDbEntity
  8
0
  6
Continuous
 62
     7
370
    25
100
AcDbLine
 10
225.6168962176
 20
149.7187240887
 30
0.0
 11
225.2167255337
 21
148.9244679827
 31
0.0
  0
LINE
  5
82
330
1F
100
AcDbEntity
  8
0
  6
Continuous
 62
     7
370
    25
100
AcDbLine
 10
237.7195075805
 20
142.6252265367
 30
0.0
 11
238.1196782643
 21
143.4194835741
 31
0.0
  0
LINE
  5
83
330
1F
100
AcDbEntity
  8
0
  6
Continuous
 62
     7
370
    25
100
AcDbLine
 10
220.4434030409
 20
141.7827232647
 30
0.0
 11
219.8365830536
 21
140.578301521
 31
0.0
  0
LINE
  5
84
330
1F
100
AcDbEntity
  8
0
  6
Continuous
 62
     7
370
    25
100
AcDbLine
 10
239.8346417303
 20
145.1869512815
 30
0.0
 11
240.4335231239
 21
146.375611322
 31
0.0
  0
LINE
  5
85
330
1F
100
AcDbEntity
  8
0
  6
Continuous
 62
     7
370
    25
100
AcDbLine
 10
243.9569883699
 20
161.7443541903
 30
0.0
 11
239.5367190892
 21
164.3343808967
 31
0.0
  0
LINE
  5
86
330
1F
100
AcDbEntity
  8
0
  6
Continuous
 62
     7
370
    25
100
AcDbLine
 10
235.7492350692
 20
162.5088843423
 30
0.0
 11
235.6866799946
 21
162.384724142
 31
0.0
  0
LINE
  5
87
330
1F
100
AcDbEntity
  8
0
  6
Continuous
 62
     7
370
    25
100
AcDbLine
 10
244.5852809305
 20
158.0406519491
 30
0.0
 11
245.0001367087
 21
158.8640714902
 31
0.0
  0
ARC
  5
88
330
1F
100
AcDbEntity
  8
0
  6
Continuous
 62
     7
370
    25
100
AcDbCircle
 10
181.3344774599
 20
98.3859164137
 30
0.0
 40
0.5
100
AcDbArc
 50
180.0
 51
270.0
  0
ARC
  5
89
330
1F
100
AcDbEntity
  8
0
  6
Continuous
 62
     7
370
    25
100
AcDbCircle
 10
181.3344774599
 20
160.3859164137
 30
0.0
 40
0.5
100
AcDbArc
 50
90.0
 51
180.0
  0
LINE
  5
8A
330
1F
100
AcDbEntity
  8
0
  6
Continuous
 62
     7
370
    25
100
AcDbLine
 10
218.0671521182
 20
160.8859169203
 30
0.0
 11
181.3344774836
 21
160.8859169203
 31
0.0
  0
LINE
  5
8B
330
1F
100
AcDbEntity
  8
0
  6
Continuous
 62
     7
370
    25
100
AcDbLine
 10
181.3344774836
 20
97.8859159071
 30
0.0
 11
215.0047809536
 21
97.8859159071
 31
0.0
  0
LWPOLYLINE
  5
8C
330
1F
100
AcDbEntity
  8
0
  6
Continuous
 62
     7
370
    25
100
AcDbPolyline
 90
        3
 70
   128
 43
0.0
 10
180.6344774649
 20
106.8460958916
 10
180.7599324001
 20
106.7777945566
 10
180.8344774599
 20
106.7250556219
  0
LWPOLYLINE
  5
8D
330
1F
100
AcDbEntity
  8
0
  6
Continuous
 62
     7
370
    25
100
AcDbPolyline
 90
        3
 70
   128
 43
0.0
 10
180.8344774599
 20
152.0467772055
 10
180.7599324001
 20
151.9940382707
 10
180.6344774649
 20
151.9257369358
  0
ARC
  5
8E
330
1F
100
AcDbEntity
  8
0
  6
Continuous
 62
     7
370
    25
100
AcDbCircle
 10
218.0671504719
 20
161.8859164137
 30
0.0
 40
1.0
100
AcDbArc
 50
270.0
 51
345.0
  0
LINE
  5
8F
330
1F
100
AcDbEntity
  8
0
  6
Continuous
 62
     7
370
    25
100
AcDbLine
 10
219.1025965566
 20
161.8865522462
 30
0.0
 11
219.0330751891
 21
161.6270969528
 31
0.0
  0
ARC
  5
90
330
1F
100
AcDbEntity
  8
0
  6
Continuous
 62
     7
370
    25
100
AcDbCircle
 10
227.8839149975
 20
139.8181097845
 30
0.0
 40
1.491811099345409
100
AcDbArc
 50
242.3494532453
 51
233.3015621199
  0
LINE
  5
91
330
1F
100
AcDbEntity
  8
0
  6
Continuous
 62
     7
370
    25
100
AcDbLine
 10
227.2477016503
 20
138.605006868
 30
0.0
 11
227.1915987785
 21
138.4966717008
 31
0.0
  0
ARC
  5
92
330
1F
100
AcDbEntity
  8
0
  6
Continuous
 62
     7
370
    25
100
AcDbCircle
 10
227.9060480023
 20
139.8614157243
 30
0.0
 40
1.418443912682231
100
AcDbArc
 50
242.345886891
 51
233.3057482982
  0
LINE
  5
93
330
1F
100
AcDbEntity
  8
0
  6
Continuous
 62
     7
370
    25
100
AcDbLine
 10
227.0584643538
 20
138.7240569014
 30
0.0
 11
226.9924037809
 21
138.6219876725
 31
0.0
  0
LINE
  5
94
330
1F
100
AcDbEntity
  8
0
  6
Continuous
 62
     7
370
    25
100
AcDbLine
 10
227.3506463225
 20
138.8002716843
 30
0.0
 11
227.2477016503
 21
138.605006868
 31
0.0
  0
ARC
  5
95
330
1F
100
AcDbEntity
  8
0
  6
Continuous
 62
     7
370
    25
100
AcDbCircle
 10
227.9046168168
 20
139.8576106975
 30
0.0
 40
1.193670430895749
100
AcDbArc
 50
242.3486565665
 51
233.3024083576
  0
LINE
  5
96
330
1F
100
AcDbEntity
  8
0
  6
Continuous
 62
     7
370
    25
100
AcDbLine
 10
227.1912895794
 20
138.9005248341
 30
0.0
 11
227.0584643538
 21
138.7240569014
 31
0.0
  0
LINE
  5
97
330
1F
100
AcDbEntity
  8
0
  6
Continuous
 62
     7
370
    25
100
AcDbLine
 10
226.9924037809
 20
138.6219876725
 30
0.0
 11
226.4962100143
 21
137.6371438521
 31
0.0
  0
LINE
  5
98
330
1F
100
AcDbEntity
  8
0
  6
Continuous
 62
     7
370
    25
100
AcDbLine
 10
226.5486881787
 20
137.6250841561
 30
0.0
 11
227.1912895794
 21
138.9005248341
 31
0.0
  0
LWPOLYLINE
  5
99
330
1F
100
AcDbEntity
  8
0
  6
Continuous
 62
     7
370
    25
100
AcDbPolyline
 90
        3
 70
   128
 43
0.0
 10
227.1886222715
 20
138.8952246774
 10
227.2922896499
 20
138.8585808593
 10
227.5475986952
 20
138.717683861
  0
LINE
  5
9A
330
1F
100
AcDbEntity
  8
0
  6
Continuous
 62
     7
370
    25
100
AcDbLine
 10
227.1915987785
 20
138.4966717008
 30
0.0
 11
226.6952709014
 21
137.5115577969
 31
0.0
  0
LWPOLYLINE
  5
9B
330
1F
100
AcDbEntity
  8
0
  6
Continuous
 62
     7
370
    25
100
AcDbPolyline
 90
       40
 70
   128
 43
0.0
 10
228.6310360486
 20
142.6576086226
 10
229.4038810486
 20
142.1491102222
 10
230.2473240251
 20
141.7685289774
 10
231.139523601
 20
141.5257201436
 10
232.0573680753
 20
141.4269729424
 10
232.9770863707
 20
141.4748457167
 10
233.8748589809
 20
141.6680979449
 10
234.7274363691
 20
142.0017237681
 10
235.5127350146
 20
142.4670842383
 10
236.2104148323
 20
143.0521243158
 10
236.8024081642
 20
143.7416941765
 10
237.2733817155
 20
144.517932916
 10
237.6111388857
 20
145.3607379365
 10
237.8069289679
 20
146.2482790369
 10
237.8556855673
 20
147.1575683821
 10
237.7561420853
 20
148.0650602746
 10
237.5108801479
 20
148.9472481329
 10
237.1262476499
 20
149.7812828887
 10
236.6122097428
 20
150.545565309
 10
235.9820768888
 20
151.2203010637
 10
235.25217331
 20
151.7880129534
 10
234.4413974042
 20
152.23399912
 10
233.5707560832
 20
152.5467074383
 10
232.6627910788
 20
152.7180409897
 10
231.7410201485
 20
152.7435610909
 10
230.8293149526
 20
152.6226065028
 10
229.9512938316
 20
152.3583101946
 10
229.1296922321
 20
151.9575173873
 10
228.3857927377
 20
151.4306086022
 10
227.7388588245
 20
150.7912295777
 10
227.2056468482
 20
150.0559410918
 10
226.79996646
 20
149.2437868285
 10
226.5323229785
 20
148.3757997769
 10
226.4096528942
 20
147.4744602013
 10
226.4351264293
 20
146.5631144959
 10
226.6080916578
 20
145.6653642375
 10
226.9240633304
 20
144.8044617567
 10
227.3748607094
 20
144.002702916
 10
227.9488050098
 20
143.2808534149
 10
228.6310360486
 20
142.6576086226
  0
CIRCLE
  5
9C
330
1F
100
AcDbEntity
  8
0
  6
Continuous
 62
     7
370
    25
100
AcDbCircle
 10
232.3019371964
 20
147.4716978149
 30
0.0
 40
2.4828609675973
  0
SPLINE
  5
9D
330
1F
100
AcDbEntity
  8
0
  6
Continuous
 62
     7
370
    25
100
AcDbSpline
210
0.0
220
0.0
230
1.0
 70
     8
 71
     3
 72
    11
 73
     7
 74
     0
 42
0.000000001
 43
0.00000001
 40
0.0
 40
0.0
 40
0.0
 40
0.0
 40
0.1208909983841156
 40
0.4766710759606757
 40
0.814366048559573
 40
1.0
 40
1.0
 40
1.0
 40
1.0
 10
232.5936012620597
 20
149.6505084353954
 30
0.0
 10
232.6589186525148
 20
149.5897015441441
 30
0.0
 10
232.9164639718796
 20
149.3499410436437
 30
0.0
 10
233.4148940865095
 20
148.923024993767
 30
0.0
 10
233.9879115361223
 20
148.5084379168025
 30
0.0
 10
234.3033174321921
 20
148.3056291081095
 30
0.0
 10
234.4151974374919
 20
148.233689265278
 30
0.0
  0
SPLINE
  5
9E
330
1F
100
AcDbEntity
  8
0
  6
Continuous
 62
     7
370
    25
100
AcDbSpline
210
0.0
220
0.0
230
1.0
 70
     8
 71
     3
 72
    10
 73
     6
 74
     0
 42
0.000000001
 43
0.00000001
 40
0.0
 40
0.0
 40
0.0
 40
0.0
 40
0.4391216582076259
 40
0.7513707218140587
 40
1.0
 40
1.0
 40
1.0
 40
1.0
 10
230.4658570046096
 20
148.8178892898828
 30
0.0
 10
230.7585251807101
 20
148.9133909069967
 30
0.0
 10
231.259302800348
 20
149.0768014736222
 30
0.0
 10
232.0260417648643
 20
149.3913083067779
 30
0.0
 10
232.4192830658714
 20
149.5708986339637
 30
0.0
 10
232.5936012620597
 20
149.6505084353954
 30
0.0
  0
SPLINE
  5
9F
330
1F
100
AcDbEntity
  8
0
  6
Continuous
 62
     7
370
    25
100
AcDbSpline
210
0.0
220
0.0
230
1.0
 70
     8
 71
     3
 72
    10
 73
     6
 74
     0
 42
0.000000001
 43
0.00000001
 40
0.0
 40
0.0
 40
0.0
 40
0.0
 40
0.4391219902679659
 40
0.7513709563268614
 40
1.0
 40
1.0
 40
1.0
 40
1.0
 10
230.1597089225917
 20
146.5684509742528
 30
0.0
 10
230.1915996114189
 20
146.8667838165112
 30
0.0
 10
230.2461669933606
 20
147.3772538862397
 30
0.0
 10
230.3642578378883
 20
148.1962696280851
 30
0.0
 10
230.4346522071299
 20
148.6269672943411
 30
0.0
 10
230.4658570046096
 20
148.8178892898828
 30
0.0
  0
SPLINE
  5
A0
330
1F
100
AcDbEntity
  8
0
  6
Continuous
 62
     7
370
    25
100
AcDbSpline
210
0.0
220
0.0
230
1.0
 70
     8
 71
     3
 72
    11
 73
     7
 74
     0
 42
0.000000001
 43
0.00000001
 40
0.0
 40
0.0
 40
0.0
 40
0.0
 40
0.1856339832000667
 40
0.5233277853653109
 40
0.8791079238113779
 40
1.0
 40
1.0
 40
1.0
 40
1.0
 10
231.9813050980239
 20
145.1516318041355
 30
0.0
 10
231.8694250523968
 20
145.2235715813156
 30
0.0
 10
231.5540197828696
 20
145.4263797289528
 30
0.0
 10
230.9810046593827
 20
145.8409683718113
 30
0.0
 10
230.4825764576559
 20
146.2678854861493
 30
0.0
 10
230.2250276292936
 20
146.5076441515469
 30
0.0
 10
230.1597089225917
 20
146.5684509742528
 30
0.0
  0
SPLINE
  5
A1
330
1F
100
AcDbEntity
  8
0
  6
Continuous
 62
     7
370
    25
100
AcDbSpline
210
0.0
220
0.0
230
1.0
 70
     8
 71
     3
 72
    10
 73
     6
 74
     0
 42
0.000000001
 43
0.00000001
 40
0.0
 40
0.0
 40
0.0
 40
0.0
 40
0.4391223541858488
 40
0.7513717842752304
 40
1.0
 40
1.0
 40
1.0
 40
1.0
 10
234.109049355474
 20
145.984250949648
 30
0.0
 10
233.792503311982
 20
145.8413572792952
 30
0.0
 10
233.2508689286793
 20
145.5968553289135
 30
0.0
 10
232.5022907778775
 20
145.3183949797622
 30
0.0
 10
232.141318442157
 20
145.2028507424713
 30
0.0
 10
231.9813050980239
 20
145.1516318041355
 30
0.0
  0
SPLINE
  5
A2
330
1F
100
AcDbEntity
  8
0
  6
Continuous
 62
     7
370
    25
100
AcDbSpline
210
0.0
220
0.0
230
1.0
 70
     8
 71
     3
 72
    10
 73
     6
 74
     0
 42
0.000000001
 43
0.00000001
 40
0.0
 40
0.0
 40
0.0
 40
0.0
 40
0.439122145124139
 40
0.7513718269713469
 40
1.0
 40
1.0
 40
1.0
 40
1.0
 10
234.4151974374919
 20
148.233689265278
 30
0.0
 10
234.3594303648711
 20
147.8879644858432
 30
0.0
 10
234.2640086064714
 20
147.2964027483232
 30
0.0
 10
234.1640779471609
 20
146.5134321531472
 30
0.0
 10
234.125950598632
 20
146.1467813710307
 30
0.0
 10
234.109049355474
 20
145.984250949648
 30
0.0
  0
LINE
  5
A3
330
1F
100
AcDbEntity
  8
0
  6
Continuous
 62
     7
370
    25
100
AcDbLine
 10
233.9190781767
 20
145.901523428
 30
0.0
 11
234.0172656531
 21
146.6229780484
 31
0.0
  0
LINE
  5
A4
330
1F
100
AcDbEntity
  8
0
  6
Continuous
 62
     7
370
    25
100
AcDbLine
 10
234.0172656531
 20
146.6229780484
 30
0.0
 11
234.1703415568
 21
147.7476972062
 31
0.0
  0
LINE
  5
A5
330
1F
100
AcDbEntity
  8
0
  6
Continuous
 62
     7
370
    25
100
AcDbLine
 10
234.1703415568
 20
147.7476972062
 30
0.0
 11
234.4151974375
 21
148.2336892653
 31
0.0
  0
LINE
  5
A6
330
1F
100
AcDbEntity
  8
0
  6
Continuous
 62
     7
370
    25
100
AcDbLine
 10
232.3487453813
 20
149.1645163763
 30
0.0
 11
232.5936012621
 21
149.6505084354
 31
0.0
  0
LINE
  5
A7
330
1F
100
AcDbEntity
  8
0
  6
Continuous
 62
     7
370
    25
100
AcDbLine
 10
232.3487453813
 20
149.1645163763
 30
0.0
 11
231.2848732526
 21
148.7482077349
 31
0.0
  0
LINE
  5
A8
330
1F
100
AcDbEntity
  8
0
  6
Continuous
 62
     7
370
    25
100
AcDbLine
 10
231.2848732526
 20
148.7482077349
 30
0.0
 11
230.3990662748
 21
148.4015769232
 31
0.0
  0
LINE
  5
A9
330
1F
100
AcDbEntity
  8
0
  6
Continuous
 62
     7
370
    25
100
AcDbLine
 10
234.1703415568
 20
147.7476972062
 30
0.0
 11
233.2595416064
 21
148.4561077225
 31
0.0
  0
LINE
  5
AA
330
1F
100
AcDbEntity
  8
0
  6
Continuous
 62
     7
370
    25
100
AcDbLine
 10
233.2595416064
 20
148.4561077225
 30
0.0
 11
232.3487453813
 21
149.1645163763
 31
0.0
  0
ARC
  5
AB
330
1F
100
AcDbEntity
  8
0
  6
Continuous
 62
     7
370
    25
100
AcDbCircle
 10
232.0159579923
 20
146.7821241173
 30
0.0
 40
5.714317032082772
100
AcDbArc
 50
231.4745509044
 51
332.6282960491
  0
ARC
  5
AC
330
1F
100
AcDbEntity
  8
0
  6
Continuous
 62
     7
370
    25
100
AcDbCircle
 10
231.9013468052
 20
146.8144442784
 30
0.0
 40
5.66927842024432
100
AcDbArc
 50
153.6668484095
 51
232.5842478516
  0
ARC
  5
AD
330
1F
100
AcDbEntity
  8
0
  6
Continuous
 62
     7
370
    25
100
AcDbCircle
 10
231.98895456
 20
146.9388981963
 30
0.0
 40
1.941476627152957
100
AcDbArc
 50
111.2631833316
 51
150.9942321269
  0
ARC
  5
AE
330
1F
100
AcDbEntity
  8
0
  6
Continuous
 62
     7
370
    25
100
AcDbCircle
 10
232.0148536074
 20
146.8623822173
 30
0.0
 40
2.022179319725011
100
AcDbArc
 50
52.0104230461
 51
111.1608206709
  0
ARC
  5
AF
330
1F
100
AcDbEntity
  8
0
  6
Continuous
 62
     7
370
    25
100
AcDbCircle
 10
232.0462252369
 20
146.8814160372
 30
0.0
 40
1.987911093705292
100
AcDbArc
 50
352.5301301738
 51
52.3853734386
  0
ARC
  5
B0
330
1F
100
AcDbEntity
  8
0
  6
Continuous
 62
     7
370
    25
100
AcDbCircle
 10
232.1078559197
 20
146.882237265
 30
0.0
 40
1.926930427226381
100
AcDbArc
 50
324.3294009165
 51
352.2676788532
  0
ARC
  5
B1
330
1F
100
AcDbEntity
  8
0
  6
Continuous
 62
     7
370
    25
100
AcDbCircle
 10
232.1124929585
 20
146.6558159184
 30
0.0
 40
5.820454254024954
100
AcDbArc
 50
329.8275316338
 51
14.659100511
  0
ARC
  5
B2
330
1F
100
AcDbEntity
  8
0
  6
Continuous
 62
     7
370
    25
100
AcDbCircle
 10
231.9963308597
 20
146.7446912532
 30
0.0
 40
5.965575978533679
100
AcDbArc
 50
113.4178134023
 51
329.6503245803
  0
LWPOLYLINE
  5
B3
330
1F
100
AcDbEntity
  8
0
  6
Continuous
 62
     7
370
    25
100
AcDbPolyline
 90
       36
 70
   128
 43
0.0
 10
231.8795227165
 20
139.6752874273
 10
232.9197467024
 20
139.7382904682
 10
233.9364380295
 20
139.9541859421
 10
234.9068351741
 20
140.3181412164
 10
235.8092234189
 20
140.8220100123
 10
236.6234042401
 20
141.4545140136
 10
237.3311497922
 20
142.2014961857
 10
237.916623866
 20
143.0462374258
 10
238.3667171652
 20
143.9698300231
 10
238.6713602299
 20
144.9516014102
 10
238.8237320537
 20
145.9695770312
 10
238.8204202706
 20
147.0009720791
 10
238.6615031118
 20
148.0226999986
 10
238.3505345041
 20
149.0118930954
 10
237.8944732899
 20
149.9464082438
 10
237.3035342152
 20
150.8053316641
 10
236.5909383351
 20
151.5694371331
 10
235.7726336176
 20
152.2216199804
 10
234.8669410402
 20
152.7472863812
 10
233.8941299076
 20
153.1346662808
 10
232.8759745414
 20
153.3750927913
 10
231.8352662677
 20
153.4631828684
 10
230.7952956016
 20
153.3969639707
 10
229.779341882
 20
153.1779187638
 10
228.8101442809
 20
152.8109515924
 10
227.909398889
 20
152.3042729962
 10
227.0972595269
 20
151.669228347
 10
226.3919093365
 20
150.9200277645
 10
225.8091360981
 20
150.073440643
 10
225.3619857783
 20
149.1484193969
 10
225.0604607815
 20
148.1656636018
 10
224.9113150592
 20
147.1471748221
 10
224.9178827459
 20
146.1157462466
 10
225.0800222809
 20
145.0944634992
 10
225.3940977807
 20
144.1061896178
 10
225.8530870731
 20
143.1730407197
  0
SPLINE
  5
B4
330
1F
100
AcDbEntity
  8
0
  6
Continuous
 62
     7
370
    25
100
AcDbSpline
210
0.0
220
0.0
230
1.0
 70
     8
 71
     3
 72
    14
 73
    10
 74
     0
 42
0.000000001
 43
0.00000001
 40
0.0
 40
0.0
 40
0.0
 40
0.0
 40
0.2406878828036911
 40
0.3654958379559112
 40
0.4913834937937908
 40
0.5985918845409512
 40
0.7015339922782441
 40
0.8683340277330459
 40
1.0
 40
1.0
 40
1.0
 40
1.0
 10
231.8795227164893
 20
139.675287427333
 30
0.0
 10
231.786930411179
 20
139.8686947959945
 30
0.0
 10
231.6463246531181
 20
140.1623929558367
 30
0.0
 10
231.2676299118648
 20
140.4627281138522
 30
0.0
 10
230.9153139057748
 20
140.6013913803366
 30
0.0
 10
230.5539337487158
 20
140.6241720038218
 30
0.0
 10
230.1719375765807
 20
140.5499219726267
 30
0.0
 10
229.8174258311163
 20
140.3754224977809
 30
0.0
 10
229.6165848264334
 20
140.1918154129572
 30
0.0
 10
229.5279853696494
 20
140.1108185667068
 30
0.0
  0
ARC
  5
B5
330
1F
100
AcDbEntity
  8
0
  6
Continuous
 62
     7
370
    25
100
AcDbCircle
 10
232.0767794582
 20
147.0471310034
 30
0.0
 40
7.389775471905021
100
AcDbArc
 50
249.5413117213
 51
249.8238085045
  0
SPLINE
  5
B6
330
1F
100
AcDbEntity
  8
0
  6
Continuous
 62
     7
370
    25
100
AcDbSpline
210
0.0
220
0.0
230
1.0
 70
     8
 71
     3
 72
    14
 73
    10
 74
     0
 42
0.000000001
 43
0.00000001
 40
0.0
 40
0.0
 40
0.0
 40
0.0
 40
0.240687836507692
 40
0.3654953448975422
 40
0.4913835036168127
 40
0.5985920828321658
 40
0.7015342402963489
 40
0.8683342111237559
 40
0.9999999999999999
 40
0.9999999999999999
 40
0.9999999999999999
 40
0.9999999999999999
 10
229.4938170070319
 20
140.1234696525604
 30
0.0
 10
229.4641328299828
 20
140.3422598611508
 30
0.0
 10
229.419056067127
 20
140.6745026695505
 30
0.0
 10
229.1525284345802
 20
141.09255385176
 30
0.0
 10
228.8635254292439
 20
141.3442851789193
 30
0.0
 10
228.532366005636
 20
141.4859699732606
 30
0.0
 10
228.153652670203
 20
141.5398916989278
 30
0.0
 10
227.7711796745796
 20
141.4871629056603
 30
0.0
 10
227.5291758305492
 20
141.3751350779459
 30
0.0
 10
227.422417765346
 20
141.3257148954541
 30
0.0
  0
ARC
  5
B7
330
1F
100
AcDbEntity
  8
0
  6
Continuous
 62
     7
370
    25
100
AcDbCircle
 10
231.9770771789
 20
146.7920737058
 30
0.0
 40
7.115195079315073
100
AcDbArc
 50
229.9052212854
 51
230.1983855541
  0
SPLINE
  5
B8
330
1F
100
AcDbEntity
  8
0
  6
Continuous
 62
     7
370
    25
100
AcDbSpline
210
0.0
220
0.0
230
1.0
 70
     8
 71
     3
 72
    14
 73
    10
 74
     0
 42
0.000000001
 43
0.00000001
 40
0.0
 40
0.0
 40
0.0
 40
0.0
 40
0.2406877403694629
 40
0.3654954405654677
 40
0.4913835315603328
 40
0.5985917235550239
 40
0.7015343316553894
 40
0.8683340252466744
 40
1.0
 40
1.0
 40
1.0
 40
1.0
 10
227.39450789043
 20
141.3490910920769
 30
0.0
 10
227.4330493731712
 20
141.5703252466904
 30
0.0
 10
227.4915763932552
 20
141.9062795195772
 30
0.0
 10
227.3717680032199
 20
142.3963942454943
 30
0.0
 10
227.181709035718
 20
142.7323659051305
 30
0.0
 10
226.9202486404119
 20
142.9749430419832
 30
0.0
 10
226.5889798897719
 20
143.1475186270286
 30
0.0
 10
226.2222142352659
 20
143.218034987974
 30
0.0
 10
225.9660791962811
 20
143.1868137454057
 30
0.0
 10
225.8530870730548
 20
143.1730407196552
 30
0.0
  0
LINE
  5
B9
330
1F
100
AcDbEntity
  8
0
  6
Continuous
 62
     7
370
    25
100
AcDbLine
 10
231.4793557579
 20
138.8810313213
 30
0.0
 11
231.8795227165
 21
139.6752874273
 31
0.0
  0
LINE
  5
BA
330
1F
100
AcDbEntity
  8
0
  6
Continuous
 62
     7
370
    25
100
AcDbLine
 10
229.3032721336
 20
139.385638656
 30
0.0
 11
229.4093944783
 21
139.4274196494
 31
0.0
  0
SPLINE
  5
BB
330
1F
100
AcDbEntity
  8
0
  6
Continuous
 62
     7
370
    25
100
AcDbSpline
210
0.0
220
0.0
230
1.0
 70
     8
 71
     3
 72
     9
 73
     5
 74
     0
 42
0.000000001
 43
0.00000001
 40
0.0
 40
0.0
 40
0.0
 40
0.0
 40
0.5895801624119479
 40
1.0
 40
1.0
 40
1.0
 40
1.0
 10
231.2483691329627
 20
139.0605521294743
 30
0.0
 10
231.3040892210952
 20
139.0256480252826
 30
0.0
 10
231.3985972993598
 20
138.9664463994191
 30
0.0
 10
231.4558557527698
 20
138.9058863620255
 30
0.0
 10
231.4793557579188
 20
138.881031321314
 30
0.0
  0
LINE
  5
BC
330
1F
100
AcDbEntity
  8
0
  6
Continuous
 62
     7
370
    25
100
AcDbLine
 10
229.5279853696
 20
140.1108185667
 30
0.0
 11
229.3719739372
 21
139.8011687118
 31
0.0
  0
LINE
  5
BD
330
1F
100
AcDbEntity
  8
0
  6
Continuous
 62
     7
370
    25
100
AcDbLine
 10
229.3687999899
 20
139.8753289971
 30
0.0
 11
229.493817007
 21
140.1234696526
 31
0.0
  0
LINE
  5
BE
330
1F
100
AcDbEntity
  8
0
  6
Continuous
 62
     7
370
    25
100
AcDbLine
 10
227.4224177653
 20
141.3257148955
 30
0.0
 11
227.353950655
 21
141.1898228246
 31
0.0
  0
LINE
  5
BF
330
1F
100
AcDbEntity
  8
0
  6
Continuous
 62
     7
370
    25
100
AcDbLine
 10
227.3050226922
 20
141.1714794952
 30
0.0
 11
227.3945078904
 21
141.3490910921
 31
0.0
  0
LINE
  5
C0
330
1F
100
AcDbEntity
  8
0
  6
Continuous
 62
     7
370
    25
100
AcDbLine
 10
225.4529201145
 20
142.3787846136
 30
0.0
 11
225.737439161
 21
142.2562467772
 31
0.0
  0
LINE
  5
C1
330
1F
100
AcDbEntity
  8
0
  6
Continuous
 62
     7
370
    25
100
AcDbLine
 10
225.8530870731
 20
143.1730407197
 30
0.0
 11
225.4529201145
 21
142.3787846136
 31
0.0
  0
ARC
  5
C2
330
1F
100
AcDbEntity
  8
0
  6
Continuous
 62
     7
370
    25
100
AcDbCircle
 10
231.6116712939
 20
145.7325910775
 30
0.0
 40
6.852837258643367
100
AcDbArc
 50
268.8936563628
 51
333.0352626107
  0
ARC
  5
C3
330
1F
100
AcDbEntity
  8
0
  6
Continuous
 62
     7
370
    25
100
AcDbCircle
 10
231.3371486852
 20
145.8682143548
 30
0.0
 40
6.841071976781853
100
AcDbArc
 50
153.4645980627
 51
210.6685330065
  0
SPLINE
  5
C4
330
1F
100
AcDbEntity
  8
0
  6
Continuous
 62
     7
370
    25
100
AcDbSpline
210
0.0
220
0.0
230
1.0
 70
     8
 71
     3
 72
     9
 73
     5
 74
     0
 42
0.000000001
 43
0.00000001
 40
0.0
 40
0.0
 40
0.0
 40
0.0
 40
0.4952267669398416
 40
1.0
 40
1.0
 40
1.0
 40
1.0
 10
220.679105883327
 20
142.2158460039169
 30
0.0
 10
220.5110537582667
 20
141.9050608442938
 30
0.0
 10
220.1717099742083
 20
141.2774995322436
 30
0.0
 10
219.9667115152513
 20
140.5942716957736
 30
0.0
 10
219.8632337803512
 20
140.2493965718419
 30
0.0
  0
SPLINE
  5
C5
330
1F
100
AcDbEntity
  8
0
  6
Continuous
 62
     7
370
    25
100
AcDbSpline
210
0.0
220
0.0
230
1.0
 70
     8
 71
     3
 72
    16
 73
    12
 74
     0
 42
0.000000001
 43
0.00000001
 40
0.0
 40
0.0
 40
0.0
 40
0.0
 40
0.0967398800168199
 40
0.1936257903527261
 40
0.3126070212198004
 40
0.4317664473280666
 40
0.5957972351436859
 40
0.7600319616807713
 40
0.8792872402469668
 40
0.9985546835170073
 40
1.0
 40
1.0
 40
1.0
 40
1.0
 10
219.8632337803512
 20
140.2493965718419
 30
0.0
 10
219.7806833711185
 20
139.8717256650351
 30
0.0
 10
219.6154579415559
 20
139.1158137514481
 30
0.0
 10
219.5551262330253
 20
137.8946429707408
 30
0.0
 10
219.6504011087201
 20
136.6366162399953
 30
0.0
 10
219.9543063980108
 20
135.2218044873882
 30
0.0
 10
220.4960841237244
 20
133.7929960475609
 30
0.0
 10
221.2234940408061
 20
132.5461825083725
 30
0.0
 10
221.9958693160432
 20
131.5715948142099
 30
0.0
 10
222.5088547199018
 20
131.0666603609367
 30
0.0
 10
222.7786565822531
 20
130.833231612185
 30
0.0
 10
222.7818869704871
 20
130.8304367260531
 30
0.0
  0
SPLINE
  5
C6
330
1F
100
AcDbEntity
  8
0
  6
Continuous
 62
     7
370
    25
100
AcDbSpline
210
0.0
220
0.0
230
1.0
 70
     8
 71
     3
 72
    16
 73
    12
 74
     0
 42
0.000000001
 43
0.00000001
 40
0.0
 40
0.0
 40
0.0
 40
0.0
 40
0.0967397358399268
 40
0.1936257677094358
 40
0.3126069406896925
 40
0.4317663193246684
 40
0.5957971378045502
 40
0.7600319298122754
 40
0.8792871546331231
 40
0.9985544872230318
 40
1.0
 40
1.0
 40
1.0
 40
1.0
 10
232.3038519079356
 20
132.9599007870525
 30
0.0
 10
232.0153610482069
 20
132.7029003684211
 30
0.0
 10
231.4379430543789
 20
132.1885108786515
 30
0.0
 10
230.4086926875867
 20
131.5350692391688
 30
0.0
 10
229.2747971620767
 20
130.9972696375781
 30
0.0
 10
227.9075965123459
 20
130.5616283367377
 30
0.0
 10
226.4169709371747
 20
130.3236968884708
 30
0.0
 10
224.9970154390119
 20
130.3351016431542
 30
0.0
 10
223.7916203477401
 20
130.5194135805679
 30
0.0
 10
223.1142866567651
 20
130.7118577670524
 30
0.0
 10
222.7858202911446
 20
130.8290335686849
 30
0.0
 10
222.7818869704871
 20
130.8304367260531
 30
0.0
  0
SPLINE
  5
C7
330
1F
100
AcDbEntity
  8
0
  6
Continuous
 62
     7
370
    25
100
AcDbSpline
210
0.0
220
0.0
230
1.0
 70
     8
 71
     3
 72
     9
 73
     5
 74
     0
 42
0.000000001
 43
0.00000001
 40
0.0
 40
0.0
 40
0.0
 40
0.0
 40
0.4952263142994702
 40
1.0
 40
1.0
 40
1.0
 40
1.0
 10
233.6200528497367
 20
134.6331857051224
 30
0.0
 10
233.4310379063531
 20
134.3346841040471
 30
0.0
 10
233.0493640374048
 20
133.7319261478234
 30
0.0
 10
232.5539326402761
 20
133.2188753361916
 30
0.0
 10
232.3038519079356
 20
132.9599007870525
 30
0.0
  0
SPLINE
  5
C8
330
1F
100
AcDbEntity
  8
0
  6
Continuous
 62
     7
370
    25
100
AcDbSpline
210
0.0
220
0.0
230
1.0
 70
     8
 71
     3
 72
    10
 73
     6
 74
     0
 42
0.000000001
 43
0.00000001
 40
0.0
 40
0.0
 40
0.0
 40
0.0
 40
0.1480673522197928
 40
0.9078078434826273
 40
1.0
 40
1.0
 40
1.0
 40
1.0
 10
232.4233219678073
 20
132.5374356377393
 30
0.0
 10
232.4511480027859
 20
132.576510771457
 30
0.0
 10
232.6217507212641
 20
132.8160822390512
 30
0.0
 10
232.8409179080618
 20
133.1419521701663
 30
0.0
 10
233.0207574710992
 20
133.4490892505757
 30
0.0
 10
233.0402188653617
 20
133.4823261852831
 30
0.0
  0
ARC
  5
C9
330
1F
100
AcDbEntity
  8
0
  6
Continuous
 62
     7
370
    25
100
AcDbCircle
 10
226.558753295
 20
137.2377691526
 30
0.0
 40
7.515736881351843
100
AcDbArc
 50
157.975710653
 51
321.2885289743
  0
SPLINE
  5
CA
330
1F
100
AcDbEntity
  8
0
  6
Continuous
 62
     7
370
    25
100
AcDbSpline
210
0.0
220
0.0
230
1.0
 70
     8
 71
     3
 72
     9
 73
     5
 74
     0
 42
0.000000001
 43
0.00000001
 40
0.0
 40
0.0
 40
0.0
 40
0.0
 40
0.2820648428121935
 40
1.0
 40
1.0
 40
1.0
 40
1.0
 10
219.5914775783687
 20
140.0561676267058
 30
0.0
 10
219.610538039108
 20
140.0997212096944
 30
0.0
 10
219.6781127873443
 20
140.2541310345926
 30
0.0
 10
219.775255974791
 20
140.440358348276
 30
0.0
 10
219.8449984843402
 20
140.574057483998
 30
0.0
  0
LWPOLYLINE
  5
CB
330
1F
100
AcDbEntity
  8
0
  6
Continuous
 62
     7
370
    25
100
AcDbPolyline
 90
        9
 70
   128
 43
0.0
 10
220.6791058833
 20
142.2158460039
 10
221.3861771578
 20
143.4217038471
 10
222.0929019804
 20
144.6259942743
 10
222.7987141068
 20
145.827773856
 10
223.5030733699
 20
147.0261047501
 10
224.2054209764
 20
148.2200472522
 10
224.9052130336
 20
149.4086700398
 10
225.6018981988
 20
150.5910417903
 10
226.2949325795
 20
151.766236769
  0
SPLINE
  5
CC
330
1F
100
AcDbEntity
  8
0
  6
Continuous
 62
     7
370
    25
100
AcDbSpline
210
0.0
220
0.0
230
1.0
 70
     8
 71
     3
 72
    13
 73
     9
 74
     0
 42
0.000000001
 43
0.00000001
 40
0.0
 40
0.0
 40
0.0
 40
0.0
 40
0.1635393559575794
 40
0.3270850524154811
 40
0.4958211830545275
 40
0.6645724131945479
 40
0.8317547189711175
 40
1.0
 40
1.0
 40
1.0
 40
1.0
 10
226.2949325794845
 20
151.7662367689878
 30
0.0
 10
226.7694867555787
 20
152.5330659606221
 30
0.0
 10
227.7186135064633
 20
154.0667540742312
 30
0.0
 10
229.3371506440755
 20
156.2078883423996
 30
0.0
 10
231.0898916139282
 20
158.214363926352
 30
0.0
 10
232.9726206270302
 20
160.0494870996517
 30
0.0
 10
234.9444847485469
 20
161.7105015948134
 30
0.0
 10
236.3217611076228
 20
162.6570770534432
 30
0.0
 10
237.0125815922885
 20
163.1318646389514
 30
0.0
  0
SPLINE
  5
CD
330
1F
100
AcDbEntity
  8
0
  6
Continuous
 62
     7
370
    25
100
AcDbSpline
210
0.0
220
0.0
230
1.0
 70
     8
 71
     3
 72
    13
 73
     9
 74
     0
 42
0.000000001
 43
0.00000001
 40
0.0
 40
0.0
 40
0.0
 40
0.0
 40
0.1635391936210447
 40
0.32708495099689
 40
0.4958210609394287
 40
0.6645723318769935
 40
0.831754516020146
 40
1.0
 40
1.0
 40
1.0
 40
1.0
 10
239.2358832711844
 20
144.1835769358546
 30
0.0
 10
239.6778521620911
 20
144.9694981177277
 30
0.0
 10
240.5618076826212
 20
146.5413720249458
 30
0.0
 10
241.6576240183139
 20
148.9887905530886
 30
0.0
 10
242.5733656128945
 20
151.4857006770895
 30
0.0
 10
243.2791418124388
 20
154.0104517618269
 30
0.0
 10
243.7917794260802
 20
156.5264882415839
 30
0.0
 10
243.9643708988682
 20
158.1789442132026
 30
0.0
 10
244.050940191236
 20
159.0077913272649
 30
0.0
  0
LWPOLYLINE
  5
CE
330
1F
100
AcDbEntity
  8
0
  6
Continuous
 62
     7
370
    25
100
AcDbPolyline
 90
        9
 70
   128
 43
0.0
 10
233.6200528497
 20
134.6331857051
 10
234.3271278495
 20
135.8390440139
 10
235.0338489468
 20
137.0433344412
 10
235.7396647985
 20
138.2451149541
 10
236.4440203364
 20
139.4434449169
 10
237.1463716681
 20
140.6373874191
 10
237.8461600001
 20
141.8260102067
 10
238.5428451652
 20
143.0083810258
 10
239.2358832712
 20
144.1835769359
  0
SPLINE
  5
CF
330
1F
100
AcDbEntity
  8
0
  6
Continuous
 62
     7
370
    25
100
AcDbSpline
210
0.0
220
0.0
230
1.0
 70
     8
 71
     3
 72
    10
 73
     6
 74
     0
 42
0.000000001
 43
0.00000001
 40
0.0
 40
0.0
 40
0.0
 40
0.0
 40
0.1467923251770558
 40
0.9235766631859246
 40
0.9999999999999999
 40
0.9999999999999999
 40
0.9999999999999999
 40
0.9999999999999999
 10
231.111062383142
 20
139.2483337688714
 30
0.0
 10
231.0366382612897
 20
139.2511638723915
 30
0.0
 10
230.5683822946511
 20
139.2689701000835
 30
0.0
 10
230.060775806321
 20
139.374336365162
 30
0.0
 10
229.6587518575209
 20
139.5354293765903
 30
0.0
 10
229.6227418536811
 20
139.549858765629
 30
0.0
  0
SPLINE
  5
D0
330
1F
100
AcDbEntity
  8
0
  6
Continuous
 62
     7
370
    25
100
AcDbSpline
210
0.0
220
0.0
230
1.0
 70
     8
 71
     3
 72
     9
 73
     5
 74
     0
 42
0.000000001
 43
0.00000001
 40
0.0
 40
0.0
 40
0.0
 40
0.0
 40
0.2460872191273939
 40
1.0
 40
1.0
 40
1.0
 40
1.0
 10
226.9714341218142
 20
141.1044615227252
 30
0.0
 10
226.875187808187
 20
141.183817044686
 30
0.0
 10
226.4840812973794
 20
141.5062861361005
 30
0.0
 10
226.1850487545184
 20
141.9187360548247
 30
0.0
 10
225.9596042985587
 20
142.2296873200208
 30
0.0
  0
SPLINE
  5
D1
330
1F
100
AcDbEntity
  8
0
  6
Continuous
 62
     7
370
    25
100
AcDbSpline
210
0.0
220
0.0
230
1.0
 70
     8
 71
     3
 72
    17
 73
    13
 74
     0
 42
0.000000001
 43
0.00000001
 40
0.0
 40
0.0
 40
0.0
 40
0.0
 40
0.0543296692998622
 40
0.1637960574610786
 40
0.2735010005270676
 40
0.3821576747555415
 40
0.4888260007845955
 40
0.5936820180980336
 40
0.6979993912963579
 40
0.8033367229750611
 40
0.9106160943798717
 40
1.0
 40
1.0
 40
1.0
 40
1.0
 10
228.7283182794719
 20
138.2002345192701
 30
0.0
 10
228.6932325385883
 20
138.1215408976038
 30
0.0
 10
228.5874541286718
 20
137.884291064458
 30
0.0
 10
228.2517151866302
 20
137.5885655064999
 30
0.0
 10
227.7793390324526
 20
137.3647744379612
 30
0.0
 10
227.2569324712709
 20
137.3187420514117
 30
0.0
 10
226.758895481177
 20
137.4482581135916
 30
0.0
 10
226.3391047516852
 20
137.7337454781941
 30
0.0
 10
226.038035682695
 20
138.1406931876388
 30
0.0
 10
225.8893738674097
 20
138.6249144066814
 30
0.0
 10
225.8903809696539
 20
139.1155969513699
 30
0.0
 10
226.0189820311664
 20
139.4006427302074
 30
0.0
 10
226.0774315054088
 20
139.5301966834337
 30
0.0
  0
LINE
  5
D2
330
1F
100
AcDbEntity
  8
0
  6
Continuous
 62
     7
370
    25
100
AcDbLine
 10
238.6216052527
 20
142.9643546137
 30
0.0
 11
233.8223957176
 21
134.8198059853
 31
0.0
  0
ARC
  5
D3
330
1F
100
AcDbEntity
  8
0
  6
Continuous
 62
     7
370
    25
100
AcDbCircle
 10
435.2682458725
 20
16.1140076684
 30
0.0
 40
233.8193685277018
100
AcDbArc
 50
149.4904726505
 51
149.8701438239
  0
SPLINE
  5
D4
330
1F
100
AcDbEntity
  8
0
  6
Continuous
 62
     7
370
    25
100
AcDbSpline
210
0.0
220
0.0
230
1.0
 70
     8
 71
     3
 72
    13
 73
     9
 74
     0
 42
0.000000001
 43
0.00000001
 40
0.0
 40
0.0
 40
0.0
 40
0.0
 40
0.1814880361829412
 40
0.3629328985540332
 40
0.545060819698925
 40
0.727057634631256
 40
0.8953897865859501
 40
1.0
 40
1.0
 40
1.0
 40
1.0
 10
244.050940191236
 20
159.0077913272649
 30
0.0
 10
244.0697126298593
 20
159.2750644822003
 30
0.0
 10
244.1072530413693
 20
159.8095472110157
 30
0.0
 10
244.1179997286065
 20
160.4964448681737
 30
0.0
 10
244.0990500397383
 20
161.0676235672114
 30
0.0
 10
244.0542707463861
 20
161.4738665101227
 30
0.0
 10
244.0012841616985
 20
161.7014219990836
 30
0.0
 10
243.9625180665054
 20
161.7209403531787
 30
0.0
 10
243.9476602430015
 20
161.7284211236507
 30
0.0
  0
LWPOLYLINE
  5
D5
330
1F
100
AcDbEntity
  8
0
  6
Continuous
 62
     7
370
    25
100
AcDbPolyline
 90
        3
 70
   128
 43
0.0
 10
239.8346417303
 20
145.1869512815
 10
239.3165618832
 20
144.1948217246
 10
238.6216052527
 20
142.9643546137
  0
SPLINE
  5
D6
330
1F
100
AcDbEntity
  8
0
  6
Continuous
 62
     7
370
    25
100
AcDbSpline
210
0.0
220
0.0
230
1.0
 70
     8
 71
     3
 72
    13
 73
     9
 74
     0
 42
0.000000001
 43
0.00000001
 40
0.0
 40
0.0
 40
0.0
 40
0.0
 40
0.1814883829566951
 40
0.3629330352902739
 40
0.5450609258195989
 40
0.7270577073626914
 40
0.895389706379661
 40
0.9999999999999999
 40
0.9999999999999999
 40
0.9999999999999999
 40
0.9999999999999999
 10
237.0125815922885
 20
163.1318646389514
 30
0.0
 10
237.2402529172576
 20
163.2767374789779
 30
0.0
 10
237.695540708539
 20
163.566448251124
 30
0.0
 10
238.3039219763577
 20
163.9031655899749
 30
0.0
 10
238.8280336813012
 20
164.1561368121309
 30
0.0
 10
239.2224138981533
 20
164.3050596878943
 30
0.0
 10
239.4634029987573
 20
164.3603667191511
 30
0.0
 10
239.5096588193369
 20
164.3300624963839
 30
0.0
 10
239.5273872370391
 20
164.3184478301078
 30
0.0
  0
LINE
  5
D7
330
1F
100
AcDbEntity
  8
0
  6
Continuous
 62
     7
370
    25
100
AcDbLine
 10
243.858961081
 20
157.424177872
 30
0.0
 11
244.9569233412
 21
158.7967573571
 31
0.0
  0
LINE
  5
D8
330
1F
100
AcDbEntity
  8
0
  6
Continuous
 62
     7
370
    25
100
AcDbLine
 10
235.7085250969
 20
162.3555700201
 30
0.0
 11
235.7001208419
 21
162.197163226
 31
0.0
  0
ARC
  5
D9
330
1F
100
AcDbEntity
  8
0
  6
Continuous
 62
     7
370
    25
100
AcDbCircle
 10
236.0935987584
 20
162.3353671867
 30
0.0
 40
0.3856032666970751
100
AcDbArc
 50
141.3499526352
 51
176.9967388364
  0
LINE
  5
DA
330
1F
100
AcDbEntity
  8
0
  6
Continuous
 62
     7
370
    25
100
AcDbLine
 10
245.1219984049
 20
174.2392423469
 30
0.0
 11
235.792452162
 21
162.576200338
 31
0.0
  0
ARC
  5
DB
330
1F
100
AcDbEntity
  8
0
  6
Continuous
 62
     7
370
    25
100
AcDbCircle
 10
245.4324235351
 20
173.9839155992
 30
0.0
 40
0.4019396839249378
100
AcDbArc
 50
357.343218092
 51
140.5624744637
  0
LINE
  5
DC
330
1F
100
AcDbEntity
  8
0
  6
Continuous
 62
     7
370
    25
100
AcDbLine
 10
245.0408466811
 20
159.0173876751
 30
0.0
 11
245.8339311833
 21
173.9652844984
 31
0.0
  0
ARC
  5
DD
330
1F
100
AcDbEntity
  8
0
  6
Continuous
 62
     7
370
    25
100
AcDbCircle
 10
244.6557875214
 20
159.0375799074
 30
0.0
 40
0.3855882295123191
100
AcDbArc
 50
321.3501827357
 51
356.998199012
  0
ARC
  5
DE
330
1F
100
AcDbEntity
  8
0
  6
Continuous
 62
     7
370
    25
100
AcDbCircle
 10
245.4326039307
 20
173.9843151031
 30
0.0
 40
0.3818445139930424
100
AcDbArc
 50
357.3436205209
 51
140.5629179752
  0
LINE
  5
DF
330
1F
100
AcDbEntity
  8
0
  6
Continuous
 62
     7
370
    25
100
AcDbLine
 10
245.1376967783
 20
174.2268743831
 30
0.0
 11
235.8081542606
 21
162.5638360995
 31
0.0
  0
ARC
  5
E0
330
1F
100
AcDbEntity
  8
0
  6
Continuous
 62
     7
370
    25
100
AcDbCircle
 10
236.0942196433
 20
162.3350508507
 30
0.0
 40
0.3663005504692885
100
AcDbArc
 50
141.3483822347
 51
176.9976777915
  0
LINE
  5
E1
330
1F
100
AcDbEntity
  8
0
  6
Continuous
 62
     7
370
    25
100
AcDbLine
 10
243.8635357375
 20
157.4618833977
 30
0.0
 11
244.9412249679
 21
158.8091215956
 31
0.0
  0
ARC
  5
E2
330
1F
100
AcDbEntity
  8
0
  6
Continuous
 62
     7
370
    25
100
AcDbCircle
 10
244.6550834477
 20
159.0379293046
 30
0.0
 40
0.366374040091817
100
AcDbArc
 50
321.3530759662
 51
356.9947632832
  0
LINE
  5
E3
330
1F
100
AcDbEntity
  8
0
  6
Continuous
 62
     7
370
    25
100
AcDbLine
 10
245.0209536309
 20
159.018721329
 30
0.0
 11
245.8140381331
 21
173.9666181523
 31
0.0
  0
LINE
  5
E4
330
1F
100
AcDbEntity
  8
0
  6
Continuous
 62
     7
370
    25
100
AcDbLine
 10
244.6237929816
 20
159.0060981828
 30
0.0
 11
244.9412249679
 21
158.8091215956
 31
0.0
  0
LINE
  5
E5
330
1F
100
AcDbEntity
  8
0
  6
Continuous
 62
     7
370
    25
100
AcDbLine
 10
244.279293036
 20
159.098733114
 30
0.0
 11
244.6237929816
 21
159.0060981828
 31
0.0
  0
LINE
  5
E6
330
1F
100
AcDbEntity
  8
0
  6
Continuous
 62
     7
370
    25
100
AcDbLine
 10
241.6112997288
 20
166.6192765254
 30
0.0
 11
239.7047818358
 21
164.2359028477
 31
0.0
  0
ARC
  5
E7
330
1F
100
AcDbEntity
  8
0
  6
Continuous
 62
     7
370
    25
100
AcDbCircle
 10
242.387370323
 20
165.980969179
 30
0.0
 40
1.004849160630715
100
AcDbArc
 50
357.3428870315
 51
140.5631752166
  0
LINE
  5
E8
330
1F
100
AcDbEntity
  8
0
  6
Continuous
 62
     7
370
    25
100
AcDbLine
 10
243.1925960536
 20
162.1922421176
 30
0.0
 11
243.3911391253
 21
165.9343856293
 31
0.0
  0
LINE
  5
E9
330
1F
100
AcDbEntity
  8
0
  6
Continuous
 62
     7
370
    25
100
AcDbLine
 10
235.9796330983
 20
162.3962241131
 30
0.0
 11
235.8081542606
 21
162.5638360995
 31
0.0
  0
LINE
  5
EA
330
1F
100
AcDbEntity
  8
0
  6
Continuous
 62
     7
370
    25
100
AcDbLine
 10
245.4168774838
 20
173.9539931435
 30
0.0
 11
245.1376967783
 21
174.2268743831
 31
0.0
  0
LINE
  5
EB
330
1F
100
AcDbEntity
  8
0
  6
Continuous
 62
     7
370
    25
100
AcDbLine
 10
244.1995420212
 20
170.7863899786
 30
0.0
 11
245.4168774838
 21
173.9539931435
 31
0.0
  0
LINE
  5
EC
330
1F
100
AcDbEntity
  8
0
  6
Continuous
 62
     7
370
    25
100
AcDbLine
 10
244.1995420212
 20
170.7863899786
 30
0.0
 11
242.5471634323
 21
168.7207127828
 31
0.0
  0
LINE
  5
ED
330
1F
100
AcDbEntity
  8
0
  6
Continuous
 62
     7
370
    25
100
AcDbLine
 10
245.4168774838
 20
173.9539931435
 30
0.0
 11
245.8140381331
 21
173.9666181523
 31
0.0
  0
LINE
  5
EE
330
1F
100
AcDbEntity
  8
0
  6
Continuous
 62
     7
370
    25
100
AcDbLine
 10
244.6237929816
 20
159.0060981828
 30
0.0
 11
245.0209536309
 21
159.018721329
 31
0.0
  0
LINE
  5
EF
330
1F
100
AcDbEntity
  8
0
  6
Continuous
 62
     7
370
    25
100
AcDbLine
 10
244.0590762252
 20
168.138923021
 30
0.0
 11
244.1995420212
 21
170.7863899786
 31
0.0
  0
LWPOLYLINE
  5
F0
330
1F
100
AcDbEntity
  8
0
  6
Continuous
 62
     7
370
    25
100
AcDbPolyline
 90
        3
 70
   128
 43
0.0
 10
244.5643522496
 20
158.0042167473
 10
244.5757292862
 20
158.0228692758
 10
244.5852809305
 20
158.0406519491
  0
SPLINE
  5
F1
330
1F
100
AcDbEntity
  8
0
  6
Continuous
 62
     7
370
    25
100
AcDbSpline
210
0.0
220
0.0
230
1.0
 70
     8
 71
     3
 72
     9
 73
     5
 74
     0
 42
0.000000001
 43
0.00000001
 40
0.0
 40
0.0
 40
0.0
 40
0.0
 40
0.9826896615064438
 40
0.9999999999999999
 40
0.9999999999999999
 40
0.9999999999999999
 40
0.9999999999999999
 10
244.2792930359511
 20
159.098733114031
 30
0.0
 10
244.2086458741917
 20
159.1179841674673
 30
0.0
 10
244.1367542439784
 20
159.1375743333054
 30
0.0
 10
244.0621337193886
 20
159.166357390609
 30
0.0
 10
244.0608420128493
 20
159.1668556350738
 30
0.0
  0
ARC
  5
F2
330
1F
100
AcDbEntity
  8
0
  6
Continuous
 62
     7
370
    25
100
AcDbCircle
 10
242.2865300096
 20
165.7832446278
 30
0.0
 40
2.429403096708824
100
AcDbArc
 50
59.1095706943
 51
78.7966266106
  0
SPLINE
  5
F3
330
1F
100
AcDbEntity
  8
0
  6
Continuous
 62
     7
370
    25
100
AcDbSpline
210
0.0
220
0.0
230
1.0
 70
     8
 71
     3
 72
    14
 73
    10
 74
     0
 42
0.000000001
 43
0.00000001
 40
0.0
 40
0.0
 40
0.0
 40
0.0
 40
0.2234976386500534
 40
0.3567614025751713
 40
0.453118893065493
 40
0.5344617439177743
 40
0.615728776544014
 40
0.7396162692647539
 40
1.0
 40
1.0
 40
1.0
 40
1.0
 10
242.5471634323268
 20
168.7207127827674
 30
0.0
 10
242.5125252532986
 20
168.6732958169565
 30
0.0
 10
242.4572335490668
 20
168.597605785819
 30
0.0
 10
242.4178878018511
 20
168.4841865551728
 30
0.0
 10
242.4147072843695
 20
168.4014042117371
 30
0.0
 10
242.436415180244
 20
168.3351172490764
 30
0.0
 10
242.4841173047432
 20
168.2743139182526
 30
0.0
 10
242.5901139129096
 20
168.2055840451079
 30
0.0
 10
242.690513016769
 20
168.1821984839829
 30
0.0
 10
242.7585438544421
 20
168.1663523334533
 30
0.0
  0
SPLINE
  5
F4
330
1F
100
AcDbEntity
  8
0
  6
Continuous
 62
     7
370
    25
100
AcDbSpline
210
0.0
220
0.0
230
1.0
 70
     8
 71
     3
 72
    14
 73
    10
 74
     0
 42
0.000000001
 43
0.00000001
 40
0.0
 40
0.0
 40
0.0
 40
0.0
 40
0.2210573421973248
 40
0.3460836605176478
 40
0.4396024968410258
 40
0.5338897132522636
 40
0.6146539236345546
 40
0.7517264288364615
 40
1.0
 40
1.0
 40
1.0
 40
1.0
 10
243.5337804908423
 20
167.8680385369331
 30
0.0
 10
243.5854607478414
 20
167.8393130008427
 30
0.0
 10
243.6663704898157
 20
167.7943407842146
 30
0.0
 10
243.7813631116883
 20
167.7661868667126
 30
0.0
 10
243.8656004716437
 20
167.7702540089343
 30
0.0
 10
243.9315445613232
 20
167.8010208771896
 30
0.0
 10
243.9889209875764
 20
167.8606126947507
 30
0.0
 10
244.0425193890357
 20
167.9726369709186
 30
0.0
 10
244.052588697802
 20
168.0737665321586
 30
0.0
 10
244.0590762252478
 20
168.1389230209857
 30
0.0
  0
LINE
  5
F5
330
1F
100
AcDbEntity
  8
0
  6
Continuous
 62
     7
370
    25
100
AcDbLine
 10
244.5641808862
 20
158.0009925086
 30
0.0
 11
244.6194120402
 21
158.0700351763
 31
0.0
  0
LINE
  5
F6
330
1F
100
AcDbEntity
  8
0
  6
Continuous
 62
     7
370
    25
100
AcDbLine
 10
244.6194120402
 20
158.0700351763
 30
0.0
 11
244.6216844673
 21
158.1129169929
 31
0.0
  0
LINE
  5
F7
330
1F
100
AcDbEntity
  8
0
  6
Continuous
 62
     7
370
    25
100
AcDbLine
 10
244.5617743487
 20
157.9556389618
 30
0.0
 11
244.6194120402
 21
158.0700351763
 31
0.0
  0
LINE
  5
F8
330
1F
100
AcDbEntity
  8
0
  6
Continuous
 62
     7
370
    25
100
AcDbLine
 10
180.8344774599
 20
98.3859169203
 30
0.0
 11
180.8344774599
 21
160.3859159071
 31
0.0
  0
SPLINE
  5
F9
330
1F
100
AcDbEntity
  8
0
  6
Continuous
 62
     7
370
    25
100
AcDbSpline
210
0.0
220
0.0
230
1.0
 70
     8
 71
     3
 72
    12
 73
     8
 74
     0
 42
0.000000001
 43
0.00000001
 40
0.0
 40
0.0
 40
0.0
 40
0.0
 40
0.5000000000000047
 40
0.5000000000000047
 40
0.7500000000000023
 40
0.7500000000000023
 40
1.0
 40
1.0
 40
1.0
 40
1.0
 10
190.9292215715489
 20
139.2952857343766
 30
0.0
 10
190.959943813468
 20
139.1827299349675
 30
0.0
 10
191.0027810280031
 20
139.0699720752279
 30
0.0
 10
191.1022080522029
 20
138.9204311894315
 30
0.0
 10
191.1419602470196
 20
138.8731384577247
 30
0.0
 10
191.2400017038778
 20
138.7994021644032
 30
0.0
 10
191.2995577594652
 20
138.7739828450275
 30
0.0
 10
191.3622342734411
 20
138.7739828450275
 30
0.0
  0
LINE
  5
FA
330
1F
100
AcDbEntity
  8
0
  6
Continuous
 62
     7
370
    25
100
AcDbLine
 10
191.3622344563
 20
138.7739832419
 30
0.0
 11
194.306720672
 21
138.7739832419
 31
0.0
  0
SPLINE
  5
FB
330
1F
100
AcDbEntity
  8
0
  6
Continuous
 62
     7
370
    25
100
AcDbSpline
210
0.0
220
0.0
230
1.0
 70
     8
 71
     3
 72
    12
 73
     8
 74
     0
 42
0.000000001
 43
0.00000001
 40
0.0
 40
0.0
 40
0.0
 40
0.0
 40
0.2499999999999982
 40
0.2499999999999982
 40
0.4999999999999964
 40
0.4999999999999964
 40
1.0
 40
1.0
 40
1.0
 40
1.0
 10
194.3067206463082
 20
138.7739828450275
 30
0.0
 10
194.3698006848015
 20
138.7739828450275
 30
0.0
 10
194.428949306983
 20
138.7993471642424
 30
0.0
 10
194.527421857052
 20
138.8735120246154
 30
0.0
 10
194.5664584690367
 20
138.9200323651695
 30
0.0
 10
194.6663549358158
 20
139.0701747080147
 30
0.0
 10
194.7087758168825
 20
139.1818679149869
 30
0.0
 10
194.7397333482004
 20
139.2952857343766
 30
0.0
  0
ELLIPSE
  5
FC
330
1F
100
AcDbEntity
  8
0
  6
Continuous
 62
     7
370
    25
100
AcDbEllipse
 10
178.4873232705
 20
129.3859164137
 30
0.0
 11
14.75368316065604
 21
31.09325491558116
 31
0.0
210
0.0
220
0.0
230
1.0
 40
0.3419987131
 41
5.193281737408617
 42
6.124043104552319
  0
SPLINE
  5
FD
330
1F
100
AcDbEntity
  8
0
  6
Continuous
 62
     7
370
    25
100
AcDbSpline
210
0.0
220
0.0
230
1.0
 70
     8
 71
     3
 72
    12
 73
     8
 74
     0
 42
0.000000001
 43
0.00000001
 40
0.0
 40
0.0
 40
0.0
 40
0.0
 40
0.4999999999999981
 40
0.4999999999999981
 40
0.749999999999999
 40
0.749999999999999
 40
1.0
 40
1.0
 40
1.0
 40
1.0
 10
194.7397333482004
 20
159.2866588738088
 30
0.0
 10
194.7090111062813
 20
159.3239608567618
 30
0.0
 10
194.6661738917462
 20
159.3605726888082
 30
0.0
 10
194.5667468675464
 20
159.4083374720934
 30
0.0
 10
194.5269946727297
 20
159.4232949875758
 30
0.0
 10
194.4289532158715
 20
159.4464849333449
 30
0.0
 10
194.369397160284
 20
159.4544083725647
 30
0.0
 10
194.3067206463082
 20
159.4544083725647
 30
0.0
  0
LINE
  5
FE
330
1F
100
AcDbEntity
  8
0
  6
Continuous
 62
     7
370
    25
100
AcDbLine
 10
194.306720672
 20
159.4544089306
 30
0.0
 11
191.3622344563
 21
159.4544089306
 31
0.0
  0
SPLINE
  5
FF
330
1F
100
AcDbEntity
  8
0
  6
Continuous
 62
     7
370
    25
100
AcDbSpline
210
0.0
220
0.0
230
1.0
 70
     8
 71
     3
 72
    12
 73
     8
 74
     0
 42
0.000000001
 43
0.00000001
 40
0.0
 40
0.0
 40
0.0
 40
0.0
 40
0.2499999999999991
 40
0.2499999999999991
 40
0.4999999999999982
 40
0.4999999999999982
 40
1.0
 40
1.0
 40
1.0
 40
1.0
 10
191.3622342734411
 20
159.4544083725647
 30
0.0
 10
191.2991542349477
 20
159.4544083725647
 30
0.0
 10
191.2400056127663
 20
159.4465024463522
 30
0.0
 10
191.1415330626972
 20
159.423177284916
 30
0.0
 10
191.1024964507125
 20
159.4084644950843
 30
0.0
 10
191.0025999839335
 20
159.3605086943533
 30
0.0
 10
190.9601791028668
 20
159.3242465377733
 30
0.0
 10
190.9292215715489
 20
159.2866588738088
 30
0.0
  0
ELLIPSE
  5
100
330
1F
100
AcDbEntity
  8
0
  6
Continuous
 62
     7
370
    25
100
AcDbEllipse
 10
207.1816316492
 20
129.3859164137
 30
0.0
 11
-14.75368316065607
 21
31.09325491558116
 31
0.0
210
0.0
220
0.0
230
1.0
 40
0.3419987131
 41
0.1591422026273056
 42
1.08990356977098
  0
SPLINE
  5
101
330
1F
100
AcDbEntity
  8
0
  6
Continuous
 62
     7
370
    25
100
AcDbSpline
210
0.0
220
0.0
230
1.0
 70
     8
 71
     3
 72
    12
 73
     8
 74
     0
 42
0.000000001
 43
0.00000001
 40
0.0
 40
0.0
 40
0.0
 40
0.0
 40
0.5000000000000018
 40
0.5000000000000018
 40
0.7500000000000009
 40
0.7500000000000009
 40
1.0
 40
1.0
 40
1.0
 40
1.0
 10
190.9292215715489
 20
99.48517395357437
 30
0.0
 10
190.960366769511
 20
99.44735843065416
 30
0.0
 10
191.0026410358454
 20
99.41129157257056
 30
0.0
 10
191.1025865696707
 20
99.36333150755928
 30
0.0
 10
191.1423168743748
 20
99.34847053366164
 30
0.0
 10
191.2392049243809
 20
99.3255193875305
 30
0.0
 10
191.2992701661275
 20
99.31742445481845
 30
0.0
 10
191.3622342734411
 20
99.31742445481845
 30
0.0
  0
LINE
  5
102
330
1F
100
AcDbEntity
  8
0
  6
Continuous
 62
     7
370
    25
100
AcDbLine
 10
191.3622344563
 20
99.3174238968
 30
0.0
 11
194.306720672
 21
99.3174238968
 31
0.0
  0
SPLINE
  5
103
330
1F
100
AcDbEntity
  8
0
  6
Continuous
 62
     7
370
    25
100
AcDbSpline
210
0.0
220
0.0
230
1.0
 70
     8
 71
     3
 72
    12
 73
     8
 74
     0
 42
0.000000001
 43
0.00000001
 40
0.0
 40
0.0
 40
0.0
 40
0.0
 40
0.2499999999999991
 40
0.2499999999999991
 40
0.4999999999999981
 40
0.4999999999999981
 40
1.0
 40
1.0
 40
1.0
 40
1.0
 10
194.3067206463082
 20
99.31742445481851
 30
0.0
 10
194.369777601206
 20
99.3174244548185
 30
0.0
 10
194.4289077509516
 20
99.32532478589806
 30
0.0
 10
194.5273553014848
 20
99.3486355339031
 30
0.0
 10
194.5663875396729
 20
99.36334066018675
 30
0.0
 10
194.6662774241299
 20
99.4112741883734
 30
0.0
 10
194.7085763977392
 20
99.44734416113812
 30
0.0
 10
194.7397333482005
 20
99.48517395357435
 30
0.0
  0
ELLIPSE
  5
104
330
1F
100
AcDbEntity
  8
0
  6
Continuous
 62
     7
370
    25
100
AcDbEllipse
 10
178.4873232705
 20
129.3859164137
 30
0.0
 11
-14.75368316065612
 21
31.09325491558116
 31
0.0
210
0.0
220
0.0
230
1.0
 40
0.3419987131
 41
3.30073485621713
 42
4.231496223360774
  0
SPLINE
  5
105
330
1F
100
AcDbEntity
  8
0
  6
Continuous
 62
     7
370
    25
100
AcDbSpline
210
0.0
220
0.0
230
1.0
 70
     8
 71
     3
 72
    12
 73
     8
 74
     0
 42
0.000000001
 43
0.00000001
 40
0.0
 40
0.0
 40
0.0
 40
0.0
 40
0.5000000000000009
 40
0.5000000000000009
 40
0.7500000000000004
 40
0.7500000000000004
 40
1.0
 40
1.0
 40
1.0
 40
1.0
 10
194.7397333482004
 20
119.4765470930062
 30
0.0
 10
194.7085881502383
 20
119.5906524588715
 30
0.0
 10
194.6663138839039
 20
119.7017587860903
 30
0.0
 10
194.5663683500786
 20
119.8519163935206
 30
0.0
 10
194.5266380453745
 20
119.8989090851379
 30
0.0
 10
194.4297499953683
 20
119.9718846696764
 30
0.0
 10
194.3696847536218
 20
119.9978499823555
 30
0.0
 10
194.3067206463082
 20
119.9978499823555
 30
0.0
  0
LINE
  5
106
330
1F
100
AcDbEntity
  8
0
  6
Continuous
 62
     7
370
    25
100
AcDbLine
 10
194.306720672
 20
119.9978495854
 30
0.0
 11
191.3622344563
 21
119.9978495854
 31
0.0
  0
SPLINE
  5
107
330
1F
100
AcDbEntity
  8
0
  6
Continuous
 62
     7
370
    25
100
AcDbSpline
210
0.0
220
0.0
230
1.0
 70
     8
 71
     3
 72
    12
 73
     8
 74
     0
 42
0.000000001
 43
0.00000001
 40
0.0
 40
0.0
 40
0.0
 40
0.0
 40
0.2500000000000009
 40
0.2500000000000009
 40
0.5000000000000018
 40
0.5000000000000018
 40
1.0
 40
1.0
 40
1.0
 40
1.0
 10
191.3622342734411
 20
119.9978499823554
 30
0.0
 10
191.2991773185433
 20
119.9978499823554
 30
0.0
 10
191.2400471687977
 20
119.9725036289747
 30
0.0
 10
191.1415996182644
 20
119.8983842468352
 30
0.0
 10
191.1025673800763
 20
119.8518877321371
 30
0.0
 10
191.0026774956194
 20
119.7018132251286
 30
0.0
 10
190.96037852201
 20
119.5906955160137
 30
0.0
 10
190.9292215715488
 20
119.4765470930062
 30
0.0
  0
ELLIPSE
  5
108
330
1F
100
AcDbEntity
  8
0
  6
Continuous
 62
     7
370
    25
100
AcDbEllipse
 10
207.1816316492
 20
129.3859164137
 30
0.0
 11
14.75368316065618
 21
31.09325491558116
 31
0.0
210
0.0
220
0.0
230
1.0
 40
0.3419987131
 41
2.051689083818828
 42
2.982450450962504
  0
ELLIPSE
  5
109
330
1F
100
AcDbEntity
  8
0
  6
Continuous
 62
     7
370
    25
100
AcDbEllipse
 10
331.7087123717
 20
129.3859164137
 30
0.0
 11
360.0463346069772
 21
-5.510812639502902
 31
0.0
210
0.0
220
0.0
230
1.0
 40
0.0861394841
 41
1.893235396050296
 42
1.896302792269556
  0
SPLINE
  5
10A
330
1F
100
AcDbEntity
  8
0
  6
Continuous
 62
     7
370
    25
100
AcDbSpline
210
0.0
220
0.0
230
1.0
 70
     8
 71
     3
 72
    20
 73
    16
 74
     0
 42
0.000000001
 43
0.00000001
 40
0.0
 40
0.0
 40
0.0
 40
0.0
 40
0.2500000000000008
 40
0.2500000000000008
 40
0.3750000000000007
 40
0.3750000000000007
 40
0.5000000000000006
 40
0.5000000000000006
 40
0.6250000000000004
 40
0.6250000000000004
 40
0.7500000000000002
 40
0.7500000000000002
 40
0.8750000000000001
 40
0.8750000000000001
 40
1.0
 40
1.0
 40
1.0
 40
1.0
 10
211.7471151813965
 20
159.4572720810914
 30
0.0
 10
211.8954837082083
 20
159.6428395431975
 30
0.0
 10
212.1217253208594
 20
159.8009661184998
 30
0.0
 10
212.5899379565242
 20
160.0039247655351
 30
0.0
 10
212.7680896505965
 20
160.0656364970833
 30
0.0
 10
213.1575712677585
 20
160.1749138419036
 30
0.0
 10
213.3701798221986
 20
160.2231101445672
 30
0.0
 10
213.8324748003798
 20
160.3085145304983
 30
0.0
 10
214.0849119317415
 20
160.3459993960781
 30
0.0
 10
214.6133805278402
 20
160.4093809571816
 30
0.0
 10
214.8894496039015
 20
160.4354927472186
 30
0.0
 10
215.4652195123273
 20
160.4785726914182
 30
0.0
 10
215.767049257823
 20
160.4956187519133
 30
0.0
 10
216.3856247372044
 20
160.5210533114023
 30
0.0
 10
216.7000688307451
 20
160.52942807096
 30
0.0
 10
217.0197356826449
 20
160.5338270472679
 30
0.0
  0
ELLIPSE
  5
10B
330
1F
100
AcDbEntity
  8
0
  6
Continuous
 62
     7
370
    25
100
AcDbEllipse
 10
215.6211887016
 20
129.3859164137
 30
0.0
 11
-1.574944762879738
 21
31.49727103316098
 31
0.0
210
0.0
220
0.0
230
1.0
 40
0.263265937
 41
0.2891638384917992
 42
2.477036534050291
  0
SPLINE
  5
10C
330
1F
100
AcDbEntity
  8
0
  6
Continuous
 62
     7
370
    25
100
AcDbSpline
210
0.0
220
0.0
230
1.0
 70
     8
 71
     3
 72
    18
 73
    14
 74
     0
 42
0.000000001
 43
0.00000001
 40
0.0
 40
0.0
 40
0.0
 40
0.0
 40
0.2499999999999997
 40
0.2499999999999997
 40
0.4999999999999993
 40
0.4999999999999993
 40
0.6249999999999994
 40
0.6249999999999994
 40
0.7499999999999997
 40
0.7499999999999997
 40
0.8749999999999998
 40
0.8749999999999998
 40
1.0
 40
1.0
 40
1.0
 40
1.0
 10
217.0197356826449
 20
101.7227723013905
 30
0.0
 10
216.3810455233717
 20
101.7509676754047
 30
0.0
 10
215.7701213360937
 20
101.8283691755689
 30
0.0
 10
214.6029320382037
 20
102.0883105445377
 30
0.0
 10
214.0767448820778
 20
102.2646812695721
 30
0.0
 10
213.3747513719689
 20
102.6054886259605
 30
0.0
 10
213.1598154126823
 20
102.7300467825685
 30
0.0
 10
212.769991320857
 20
102.9990434426015
 30
0.0
 10
212.5943070868244
 20
103.1438776449485
 30
0.0
 10
212.2806814132958
 20
103.4557507771236
 30
0.0
 10
212.1446320625691
 20
103.6212182532434
 30
0.0
 10
211.9153067040669
 20
103.9664676628139
 30
0.0
 10
211.821262866704
 20
104.1470116816177
 30
0.0
 10
211.7471151813965
 20
104.3358545283375
 30
0.0
  0
ELLIPSE
  5
10D
330
1F
100
AcDbEntity
  8
0
  6
Continuous
 62
     7
370
    25
100
AcDbEllipse
 10
331.7087123717
 20
129.3859164137
 30
0.0
 11
360.0463346069772
 21
-5.510812639502902
 31
0.0
210
0.0
220
0.0
230
1.0
 40
0.0861394841
 41
4.389519388207384
 42
4.389981050773583
  0
ELLIPSE
  5
10E
330
1F
100
AcDbEntity
  8
0
  6
Continuous
 62
     7
370
    25
100
AcDbEllipse
 10
237.3847350712
 20
129.3859164137
 30
0.0
 11
22.39639268334679
 21
31.49533398693964
 31
0.0
210
0.0
220
0.0
230
1.0
 40
0.0242074528
 41
2.660545628446954
 42
3.639095338918342
  0
SPLINE
  5
10F
330
1F
100
AcDbEntity
  8
0
  6
Continuous
 62
     7
370
    25
100
AcDbSpline
210
0.0
220
0.0
230
1.0
 70
     8
 71
     3
 72
    12
 73
     8
 74
     0
 42
0.000000001
 43
0.00000001
 40
0.0
 40
0.0
 40
0.0
 40
0.0
 40
0.5
 40
0.5
 40
0.75
 40
0.75
 40
1.0
 40
1.0
 40
1.0
 40
1.0
 10
180.0179651734182
 20
107.5311227112158
 30
0.0
 10
180.0744016743253
 20
107.529704829874
 30
0.0
 10
180.1434863050141
 20
107.5281404936257
 30
0.0
 10
180.262288576732
 20
107.5251963016513
 30
0.0
 10
180.3024738522021
 20
107.5241580985539
 30
0.0
 10
180.3758548996059
 20
107.5222242033393
 30
0.0
 10
180.4092644633486
 20
107.5213293160505
 30
0.0
 10
180.439500571005
 20
107.5205455257781
 30
0.0
  0
SPLINE
  5
110
330
1F
100
AcDbEntity
  8
0
  6
Continuous
 62
     7
370
    25
100
AcDbSpline
210
0.0
220
0.0
230
1.0
 70
     8
 71
     3
 72
    16
 73
    12
 74
     0
 42
0.000000001
 43
0.00000001
 40
0.0
 40
0.0
 40
0.0
 40
0.0
 40
0.0624999999999966
 40
0.0624999999999966
 40
0.1249999999999931
 40
0.1249999999999931
 40
0.2499999999999933
 40
0.2499999999999933
 40
0.4999999999999956
 40
0.4999999999999956
 40
1.0
 40
1.0
 40
1.0
 40
1.0
 10
180.4395005709678
 20
107.5205455258024
 30
0.0
 10
180.4510809785557
 20
107.520245334691
 30
0.0
 10
180.464390505317
 20
107.518917586432
 30
0.0
 10
180.4936919354031
 20
107.512218911657
 30
0.0
 10
180.5085060352874
 20
107.5068607285513
 30
0.0
 10
180.5443344369903
 20
107.489815079384
 30
0.0
 10
180.5584540613534
 20
107.4783525416082
 30
0.0
 10
180.5929582054418
 20
107.446789216236
 30
0.0
 10
180.6040627561464
 20
107.4288919171907
 30
0.0
 10
180.6302389333626
 20
107.3787304995765
 30
0.0
 10
180.6344774598746
 20
107.3509860873799
 30
0.0
 10
180.6344774598746
 20
107.3263219254504
 30
0.0
  0
LINE
  5
111
330
1F
100
AcDbEntity
  8
0
  6
Continuous
 62
     7
370
    25
100
AcDbLine
 10
180.6344774649
 20
122.3640291858
 30
0.0
 11
180.6344774649
 21
106.8460958916
 31
0.0
  0
SPLINE
  5
112
330
1F
100
AcDbEntity
  8
0
  6
Continuous
 62
     7
370
    25
100
AcDbSpline
210
0.0
220
0.0
230
1.0
 70
     8
 71
     3
 72
    16
 73
    12
 74
     0
 42
0.000000001
 43
0.00000001
 40
0.0
 40
0.0
 40
0.0
 40
0.0
 40
0.4999999999999999
 40
0.4999999999999999
 40
0.7499999999999982
 40
0.7499999999999982
 40
0.874999999999998
 40
0.874999999999998
 40
0.937499999999999
 40
0.937499999999999
 40
1.0
 40
1.0
 40
1.0
 40
1.0
 10
180.6344774598746
 20
122.3640290879416
 30
0.0
 10
180.6344774598746
 20
122.4777216320694
 30
0.0
 10
180.6303311847967
 20
122.592041793419
 30
0.0
 10
180.6043655894032
 20
122.765090083916
 30
0.0
 10
180.5929046840257
 20
122.8242655910778
 30
0.0
 10
180.5585929462514
 20
122.9073887105459
 30
0.0
 10
180.5445682103218
 20
122.9355100266466
 30
0.0
 10
180.508545247288
 20
122.964125840624
 30
0.0
 10
180.4937907381983
 20
122.9699188885258
 30
0.0
 10
180.4644385770514
 20
122.9683254625888
 30
0.0
 10
180.4510987025473
 20
122.961829059265
 30
0.0
 10
180.439500570999
 20
122.9533133130619
 30
0.0
  0
SPLINE
  5
113
330
1F
100
AcDbEntity
  8
0
  6
Continuous
 62
     7
370
    25
100
AcDbSpline
210
0.0
220
0.0
230
1.0
 70
     8
 71
     3
 72
    12
 73
     8
 74
     0
 42
0.000000001
 43
0.00000001
 40
0.0
 40
0.0
 40
0.0
 40
0.0
 40
0.2500000000000001
 40
0.2500000000000001
 40
0.4999999999999998
 40
0.4999999999999998
 40
1.0
 40
1.0
 40
1.0
 40
1.0
 10
180.4395005710061
 20
122.9533133130527
 30
0.0
 10
180.4093021295654
 20
122.9311405810076
 30
0.0
 10
180.3759347742294
 20
122.9120609251304
 30
0.0
 10
180.3027794983995
 20
122.8868878806877
 30
0.0
 10
180.2625267993756
 20
122.8813313442709
 30
0.0
 10
180.1447980561007
 20
122.8922431552576
 30
0.0
 10
180.0743396080418
 20
122.9341789106685
 30
0.0
 10
180.0179651734235
 20
122.98339069305
 30
0.0
  0
SPLINE
  5
114
330
1F
100
AcDbEntity
  8
0
  6
Continuous
 62
     7
370
    25
100
AcDbSpline
210
0.0
220
0.0
230
1.0
 70
     8
 71
     3
 72
    12
 73
     8
 74
     0
 42
0.000000001
 43
0.00000001
 40
0.0
 40
0.0
 40
0.0
 40
0.0
 40
0.4999999999999992
 40
0.4999999999999992
 40
0.7499999999999996
 40
0.7499999999999996
 40
1.0
 40
1.0
 40
1.0
 40
1.0
 10
179.513157116315
 20
124.1997420849306
 30
0.0
 10
179.5569074681994
 20
123.9792950999561
 30
0.0
 10
179.6097976193239
 20
123.7637501101505
 30
0.0
 10
179.7214091624656
 20
123.4513360335786
 30
0.0
 10
179.7639685063691
 20
123.3492565579627
 30
0.0
 10
179.8689457417066
 20
123.1548165453209
 30
0.0
 10
179.9305129848011
 20
123.0597316462572
 30
0.0
 10
180.0179651734235
 20
122.98339069305
 30
0.0
  0
SPLINE
  5
115
330
1F
100
AcDbEntity
  8
0
  6
Continuous
 62
     7
370
    25
100
AcDbSpline
210
0.0
220
0.0
230
1.0
 70
     8
 71
     3
 72
    12
 73
     8
 74
     0
 42
0.000000001
 43
0.00000001
 40
0.0
 40
0.0
 40
0.0
 40
0.0
 40
0.2500000000000001
 40
0.2500000000000001
 40
0.5000000000000001
 40
0.5000000000000001
 40
1.0
 40
1.0
 40
1.0
 40
1.0
 10
180.0179651734234
 20
135.7884421343332
 30
0.0
 10
179.9294717658555
 20
135.7111922542249
 30
0.0
 10
179.8694137250897
 20
135.6178729303357
 30
0.0
 10
179.7635654521071
 20
135.4218398773662
 30
0.0
 10
179.7210319308296
 20
135.3195135191545
 30
0.0
 10
179.609880624006
 20
135.0081691133786
 30
0.0
 10
179.5569497669582
 20
134.7927508602006
 30
0.0
 10
179.513157116315
 20
134.5720907424527
 30
0.0
  0
SPLINE
  5
116
330
1F
100
AcDbEntity
  8
0
  6
Continuous
 62
     7
370
    25
100
AcDbSpline
210
0.0
220
0.0
230
1.0
 70
     8
 71
     3
 72
    12
 73
     8
 74
     0
 42
0.000000001
 43
0.00000001
 40
0.0
 40
0.0
 40
0.0
 40
0.0
 40
0.4999999999999998
 40
0.4999999999999998
 40
0.7499999999999997
 40
0.7499999999999997
 40
1.0
 40
1.0
 40
1.0
 40
1.0
 10
180.0179651734234
 20
135.7884421343332
 30
0.0
 10
180.0742737217191
 20
135.837596401577
 30
0.0
 10
180.1445483824372
 20
135.8795537201808
 30
0.0
 10
180.2625862967607
 20
135.8905133977132
 30
0.0
 10
180.3027625376147
 20
135.8850046394658
 30
0.0
 10
180.3767196322926
 20
135.8594474106769
 30
0.0
 10
180.409336020004
 20
135.8406673628376
 30
0.0
 10
180.4395005709998
 20
135.8185195143209
 30
0.0
  0
SPLINE
  5
117
330
1F
100
AcDbEntity
  8
0
  6
Continuous
 62
     7
370
    25
100
AcDbSpline
210
0.0
220
0.0
230
1.0
 70
     8
 71
     3
 72
    16
 73
    12
 74
     0
 42
0.000000001
 43
0.00000001
 40
0.0
 40
0.0
 40
0.0
 40
0.0
 40
0.0624999999999985
 40
0.0624999999999985
 40
0.124999999999997
 40
0.124999999999997
 40
0.2499999999999974
 40
0.2499999999999974
 40
0.4999999999999982
 40
0.4999999999999982
 40
1.0
 40
1.0
 40
1.0
 40
1.0
 10
180.4395005709681
 20
135.8185195142664
 30
0.0
 10
180.4511134708074
 20
135.8099929246711
 30
0.0
 10
180.4644646552399
 20
135.8034926631383
 30
0.0
 10
180.4938644948591
 20
135.8019232660208
 30
0.0
 10
180.5087052194143
 20
135.8078066566514
 30
0.0
 10
180.5445384273829
 20
135.8363542927019
 30
0.0
 10
180.5586516352045
 20
135.8645213120078
 30
0.0
 10
180.5931430064234
 20
135.9482755704297
 30
0.0
 10
180.6042270775337
 20
136.0059889840511
 30
0.0
 10
180.6303498953298
 20
136.179579520697
 30
0.0
 10
180.6344774598746
 20
136.2946075733389
 30
0.0
 10
180.6344774598747
 20
136.4078037394417
 30
0.0
  0
LINE
  5
118
330
1F
100
AcDbEntity
  8
0
  6
Continuous
 62
     7
370
    25
100
AcDbLine
 10
180.6344774649
 20
151.9257369358
 30
0.0
 11
180.6344774649
 21
136.4078036416
 31
0.0
  0
SPLINE
  5
119
330
1F
100
AcDbEntity
  8
0
  6
Continuous
 62
     7
370
    25
100
AcDbSpline
210
0.0
220
0.0
230
1.0
 70
     8
 71
     3
 72
    16
 73
    12
 74
     0
 42
0.000000001
 43
0.00000001
 40
0.0
 40
0.0
 40
0.0
 40
0.0
 40
0.4999999999999961
 40
0.4999999999999961
 40
0.7499999999999961
 40
0.7499999999999961
 40
0.8749999999999962
 40
0.8749999999999962
 40
0.937499999999998
 40
0.937499999999998
 40
1.0
 40
1.0
 40
1.0
 40
1.0
 10
180.6344774598746
 20
151.4455109019329
 30
0.0
 10
180.6344774598746
 20
151.42083974589
 30
0.0
 10
180.6303117614146
 20
151.3932579144987
 30
0.0
 10
180.6040534330897
 20
151.3429150436754
 30
0.0
 10
180.5925496513521
 20
151.3246255456135
 30
0.0
 10
180.5584188920056
 20
151.2934705145765
 30
0.0
 10
180.5439970053349
 20
151.2818311393648
 30
0.0
 10
180.508430036897
 20
151.2649491134337
 30
0.0
 10
180.4934782686024
 20
151.259560009626
 30
0.0
 10
180.4644744502426
 20
151.2529395136815
 30
0.0
 10
180.4510590962334
 20
151.2515869254751
 30
0.0
 10
180.4395005709968
 20
151.2512873016035
 30
0.0
  0
SPLINE
  5
11A
330
1F
100
AcDbEntity
  8
0
  6
Continuous
 62
     7
370
    25
100
AcDbSpline
210
0.0
220
0.0
230
1.0
 70
     8
 71
     3
 72
    12
 73
     8
 74
     0
 42
0.000000001
 43
0.00000001
 40
0.0
 40
0.0
 40
0.0
 40
0.0
 40
0.2499999999999998
 40
0.2499999999999998
 40
0.4999999999999997
 40
0.4999999999999997
 40
1.0
 40
1.0
 40
1.0
 40
1.0
 10
180.4395005710061
 20
151.2512873016052
 30
0.0
 10
180.4093127944564
 20
151.2505047641876
 30
0.0
 10
180.3759589903647
 20
151.2496114323691
 30
0.0
 10
180.3028327871687
 20
151.2476841235655
 30
0.0
 10
180.2625975841446
 20
151.2466445923529
 30
0.0
 10
180.1449059540115
 20
151.2437267090056
 30
0.0
 10
180.0745252808515
 20
151.2421311029354
 30
0.0
 10
180.0179651734209
 20
151.2407101161675
 30
0.0
  0
SPLINE
  5
11B
330
1F
100
AcDbEntity
  8
0
  6
Continuous
 62
     7
370
    25
100
AcDbSpline
210
0.0
220
0.0
230
1.0
 70
     8
 71
     3
 72
    16
 73
    12
 74
     0
 42
0.000000001
 43
0.00000001
 40
0.0
 40
0.0
 40
0.0
 40
0.0
 40
0.2499999999999998
 40
0.2499999999999998
 40
0.3749999999999998
 40
0.3749999999999998
 40
0.4999999999999998
 40
0.4999999999999998
 40
0.7499999999999998
 40
0.7499999999999998
 40
1.0
 40
1.0
 40
1.0
 40
1.0
 10
179.513157116315
 20
134.5720907424527
 30
0.0
 10
179.3519246388305
 20
133.7596809672059
 30
0.0
 10
179.2314447991909
 20
132.9196026728211
 30
0.0
 10
179.1090642818776
 20
131.6183076234583
 30
0.0
 10
179.0780866214801
 20
131.1776265878736
 30
0.0
 10
179.0364728838522
 20
130.2817869469424
 30
0.0
 10
179.0262369709193
 20
129.83512881574
 30
0.0
 10
179.0260485738632
 20
128.4998188586001
 30
0.0
 10
179.0661932765008
 20
127.6153234852926
 30
0.0
 10
179.2303470314404
 20
125.8580735972666
 30
0.0
 10
179.35189868185
 20
125.0122826508535
 30
0.0
 10
179.513157116315
 20
124.1997420849306
 30
0.0
  0
LINE
  5
11C
330
1F
100
AcDbEntity
  8
0
  6
Continuous
 62
     7
370
    25
100
AcDbLine
 10
178.6344774718
 20
135.871094549
 30
0.0
 11
178.6344774718
 21
122.9007382784
 31
0.0
  0
LINE
  5
11D
330
1F
100
AcDbEntity
  8
0
  6
Continuous
 62
     7
370
    25
100
AcDbLine
 10
144.3344779963
 20
135.4402270074
 30
0.0
 11
144.3344779963
 21
123.3316058199
 31
0.0
  0
LINE
  5
11E
330
1F
100
AcDbEntity
  8
0
  6
Continuous
 62
     7
370
    25
100
AcDbLine
 10
142.8344786818
 20
135.0072141643
 30
0.0
 11
142.8344786818
 21
123.7646186631
 31
0.0
  0
LINE
  5
11F
330
1F
100
AcDbEntity
  8
0
  6
Continuous
 62
     7
370
    25
100
AcDbLine
 10
178.6344774718
 20
135.871094549
 30
0.0
 11
178.6344774718
 21
151.4060160983
 31
0.0
  0
ARC
  5
120
330
1F
100
AcDbEntity
  8
0
  6
Continuous
 62
     7
370
    25
100
AcDbCircle
 10
178.8344143708
 20
151.4110383094
 30
0.0
 40
0.2000000000000059
100
AcDbArc
 50
181.4391666667
 51
271.4391666667
  0
LINE
  5
121
330
1F
100
AcDbEntity
  8
0
  6
Continuous
 62
     7
370
    25
100
AcDbLine
 10
144.3344779963
 20
135.4402270074
 30
0.0
 11
144.3344779963
 21
150.5442800838
 31
0.0
  0
LINE
  5
122
330
1F
100
AcDbEntity
  8
0
  6
Continuous
 62
     7
370
    25
100
AcDbLine
 10
144.3344779963
 20
150.5442800838
 30
0.0
 11
178.6344774718
 21
151.4060160983
 31
0.0
  0
LINE
  5
123
330
1F
100
AcDbEntity
  8
0
  6
Continuous
 62
     7
370
    25
100
AcDbLine
 10
178.6344774718
 20
107.3658167291
 30
0.0
 11
178.6344774718
 21
122.9007382784
 31
0.0
  0
ARC
  5
124
330
1F
100
AcDbEntity
  8
0
  6
Continuous
 62
     7
370
    25
100
AcDbCircle
 10
178.8344143708
 20
107.360794518
 30
0.0
 40
0.2000000000000059
100
AcDbArc
 50
88.5608333333
 51
178.5608333333
  0
LINE
  5
125
330
1F
100
AcDbEntity
  8
0
  6
Continuous
 62
     7
370
    25
100
AcDbLine
 10
144.3344779963
 20
108.2275527436
 30
0.0
 11
144.3344779963
 21
123.3316058199
 31
0.0
  0
LINE
  5
126
330
1F
100
AcDbEntity
  8
0
  6
Continuous
 62
     7
370
    25
100
AcDbLine
 10
144.3344779963
 20
108.2275527436
 30
0.0
 11
178.6344774718
 21
107.3658167291
 31
0.0
  0
LINE
  5
127
330
1F
100
AcDbEntity
  8
0
  6
Continuous
 62
     7
370
    25
100
AcDbLine
 10
178.8394375889
 20
151.2111014593
 30
0.0
 11
180.017965189
 21
151.2407100666
 31
0.0
  0
LINE
  5
128
330
1F
100
AcDbEntity
  8
0
  6
Continuous
 62
     7
370
    25
100
AcDbLine
 10
178.8394375889
 20
107.5607313681
 30
0.0
 11
180.017965189
 21
107.5311227608
 31
0.0
  0
LINE
  5
129
330
1F
100
AcDbEntity
  8
0
  6
Continuous
 62
     7
370
    25
100
AcDbLine
 10
142.8344786818
 20
149.6782543975
 30
0.0
 11
144.3344779963
 21
150.5442800838
 31
0.0
  0
LINE
  5
12A
330
1F
100
AcDbEntity
  8
0
  6
Continuous
 62
     7
370
    25
100
AcDbLine
 10
142.8344786818
 20
135.0072141643
 30
0.0
 11
142.8344786818
 21
149.6782543975
 31
0.0
  0
LINE
  5
12B
330
1F
100
AcDbEntity
  8
0
  6
Continuous
 62
     7
370
    25
100
AcDbLine
 10
142.8344786818
 20
109.0935784298
 30
0.0
 11
144.3344779963
 21
108.2275527436
 31
0.0
  0
LINE
  5
12C
330
1F
100
AcDbEntity
  8
0
  6
Continuous
 62
     7
370
    25
100
AcDbLine
 10
142.8344786818
 20
109.0935784298
 30
0.0
 11
142.8344786818
 21
123.7646186631
 31
0.0
  0
LINE
  5
12D
330
1F
100
AcDbEntity
  8
0
  6
Continuous
 62
     7
370
    25
100
AcDbLine
 10
226.7844916041
 20
138.0931072775
 30
0.0
 11
226.9467093701
 21
138.0106172431
 31
0.0
  0
LINE
  5
12E
330
1F
100
AcDbEntity
  8
0
  6
Continuous
 62
     7
370
    25
100
AcDbLine
 10
235.7472718413
 20
163.5267938394
 30
0.0
 11
235.6823772843
 21
162.303673001
 31
0.0
  0
LINE
  5
12F
330
1F
100
AcDbEntity
  8
0
  6
Continuous
 62
     7
370
    25
100
AcDbLine
 10
243.8562192673
 20
157.4015355575
 30
0.0
 11
244.5804082508
 21
158.3068630564
 31
0.0
  0
LINE
  5
130
330
1F
100
AcDbEntity
  8
0
  6
Continuous
 62
     7
370
    25
100
AcDbLine
 10
244.5804082508
 20
158.3068630564
 30
0.0
 11
243.5212486143
 21
138.3439049962
 31
0.0
  0
LINE
  5
131
330
1F
100
AcDbEntity
  8
0
  6
Continuous
 62
     7
370
    25
100
AcDbLine
 10
243.5212486143
 20
138.3439049962
 30
0.0
 11
217.177310651
 21
101.7158198077
 31
0.0
  0
SPLINE
  5
132
330
1F
100
AcDbEntity
  8
0
  6
Continuous
 62
     7
370
    25
100
AcDbSpline
210
0.0
220
0.0
230
1.0
 70
     8
 71
     3
 72
    10
 73
     6
 74
     0
 42
0.000000001
 43
0.00000001
 40
0.0
 40
0.0
 40
0.0
 40
0.0
 40
0.5000000000000024
 40
0.5000000000000024
 40
1.0
 40
1.0
 40
1.0
 40
1.0
 10
218.0671504718957
 20
160.5480866969485
 30
0.0
 10
218.2939301133981
 20
160.5511408063098
 30
0.0
 10
218.5106464509549
 20
160.6343011035995
 30
0.0
 10
218.8558365427756
 20
160.9186633762872
 30
0.0
 10
218.9772484965186
 20
161.11232733879
 30
0.0
 10
219.0330762981847
 20
161.3285311835293
 30
0.0
  0
SPLINE
  5
133
330
1F
100
AcDbEntity
  8
0
  6
Continuous
 62
     7
370
    25
100
AcDbSpline
210
0.0
220
0.0
230
1.0
 70
     8
 71
     3
 72
     8
 73
     4
 74
     0
 42
0.000000001
 43
0.00000001
 40
0.0
 40
0.0
 40
0.0
 40
0.0
 40
1.0
 40
1.0
 40
1.0
 40
1.0
 10
219.0330762981847
 20
161.3285311835293
 30
0.0
 10
219.1430934928464
 20
161.7545938219172
 30
0.0
 10
219.2533444513213
 20
162.1805932134029
 30
0.0
 10
219.3638042468857
 20
162.6065361021356
 30
0.0
  0
LINE
  5
134
330
1F
100
AcDbEntity
  8
0
  6
Continuous
 62
     7
370
    25
100
AcDbLine
 10
219.3638027365
 20
162.6065353769
 30
0.0
 11
230.7953850085
 21
162.4328660685
 31
0.0
  0
ARC
  5
135
330
1F
100
AcDbEntity
  8
0
  6
Continuous
 62
     7
370
    25
100
AcDbCircle
 10
230.9725884699
 20
173.3855444975
 30
0.0
 40
10.9541118231984
100
AcDbArc
 50
269.0730920502
 51
295.8413325672
  0
SPLINE
  5
136
330
1F
100
AcDbEntity
  8
0
  6
Continuous
 62
     7
370
    25
100
AcDbSpline
210
0.0
220
0.0
230
1.0
 70
     8
 71
     3
 72
    12
 73
     8
 74
     0
 42
0.000000001
 43
0.00000001
 40
0.0
 40
0.0
 40
0.0
 40
0.0
 40
0.5
 40
0.5
 40
0.75
 40
0.75
 40
1.0
 40
1.0
 40
1.0
 40
1.0
 10
218.067150471896
 20
101.449801972105
 30
0.0
 10
218.2632469506789
 20
101.7010740020766
 30
0.0
 10
218.4370975296167
 20
101.9199313105416
 30
0.0
 10
218.6721185757656
 20
102.2106896660509
 30
0.0
 10
218.7457674336343
 20
102.3007695858975
 30
0.0
 10
218.8788069413807
 20
102.4604993916415
 30
0.0
 10
218.9387252504491
 20
102.5308752729725
 30
0.0
 10
218.9860523099364
 20
102.5831522923069
 30
0.0
  0
LINE
  5
137
330
1F
100
AcDbEntity
  8
0
  6
Continuous
 62
     7
370
    25
100
AcDbLine
 10
243.5212486143
 20
138.3439049962
 30
0.0
 11
240.1227482314
 21
131.5985358227
 31
0.0
  0
LINE
  5
138
330
1F
100
AcDbEntity
  8
0
  6
Continuous
 62
     7
370
    25
100
AcDbLine
 10
240.1227482314
 20
131.5985358227
 30
0.0
 11
238.5507353301
 21
129.3859164137
 31
0.0
  0
ELLIPSE
  5
139
330
1F
100
AcDbEntity
  8
0
  6
Continuous
 62
     7
370
    25
100
AcDbEllipse
 10
237.3847350712
 20
129.3859164137
 30
0.0
 11
22.75189097990727
 21
31.9952599232395
 31
0.0
210
0.0
220
0.0
230
1.0
 40
0.0242074528
 41
3.737274298197136
 42
4.72960124670108
  0
LINE
  5
13A
330
1F
100
AcDbEntity
  8
0
  6
Continuous
 62
     7
370
    25
100
AcDbLine
 10
218.9860508496
 20
102.5923005212
 30
0.0
 11
218.9860508496
 21
102.5831530708
 31
0.0
  0
LINE
  5
13B
330
1F
100
AcDbEntity
  8
0
  6
Continuous
 62
     7
370
    25
100
AcDbLine
 10
219.1288263256
 20
161.8795226234
 30
0.0
 11
219.3638027365
 21
162.6065353769
 31
0.0
  0
LINE
  5
13C
330
1F
100
AcDbEntity
  8
0
  6
Continuous
 62
     7
370
    25
100
AcDbLine
 10
235.8039148802
 20
162.5905315298
 30
0.0
 11
235.6942497844
 21
162.527436288
 31
0.0
  0
CIRCLE
  5
13D
330
1F
100
AcDbEntity
  8
0
  6
Continuous
 62
     7
370
    18
100
AcDbCircle
 10
232.3021639774
 20
147.4779186775
 30
0.0
 40
2.901800507443402
  0
LINE
  5
13E
330
1F
100
AcDbEntity
  8
0
  6
Continuous
 62
     7
370
    18
100
AcDbLine
 10
233.6200528497
 20
134.6331857051
 30
0.0
 11
233.0402188654
 21
133.4823261853
 31
0.0
  0
LINE
  5
13F
330
1F
100
AcDbEntity
  8
0
  6
Continuous
 62
     7
370
    18
100
AcDbLine
 10
219.8632337804
 20
140.2493965718
 30
0.0
 11
232.3038519079
 21
132.9599007871
 31
0.0
  0
LINE
  5
140
330
1F
100
AcDbEntity
  8
0
  6
Continuous
 62
     7
370
    18
100
AcDbLine
 10
237.0125815923
 20
163.131864639
 30
0.0
 11
244.0509401912
 21
159.0077913273
 31
0.0
  0
LINE
  5
141
330
1F
100
AcDbEntity
  8
0
  6
Continuous
 62
     7
370
    18
100
AcDbLine
 10
238.6216052527
 20
142.9643546137
 30
0.0
 11
239.2358832712
 21
144.1835769359
 31
0.0
  0
LINE
  5
142
330
1F
100
AcDbEntity
  8
0
  6
Continuous
 62
     7
370
    18
100
AcDbLine
 10
244.279293036
 20
159.098733114
 30
0.0
 11
244.1521190757
 21
158.9064950961
 31
0.0
  0
LINE
  5
143
330
1F
100
AcDbEntity
  8
0
  6
Continuous
 62
     7
370
    18
100
AcDbLine
 10
235.6823772843
 20
162.303673001
 30
0.0
 11
235.7085250969
 21
162.3555700201
 31
0.0
  0
LINE
  5
144
330
1F
100
AcDbEntity
  8
0
  6
Continuous
 62
     7
370
    18
100
AcDbLine
 10
244.5651494617
 20
158.0191588867
 30
0.0
 11
244.9569233412
 21
158.7967573571
 31
0.0
  0
SPLINE
  5
145
330
1F
100
AcDbEntity
  8
0
  6
Continuous
 62
     7
370
    18
100
AcDbSpline
210
0.0
220
0.0
230
1.0
 70
     8
 71
     3
 72
     9
 73
     5
 74
     0
 42
0.000000001
 43
0.00000001
 40
0.0
 40
0.0
 40
0.0
 40
0.0
 40
0.4168985977806405
 40
1.0
 40
1.0
 40
1.0
 40
1.0
 10
240.5188248212008
 20
167.3889736551315
 30
0.0
 10
240.7632462078234
 20
167.6480019916622
 30
0.0
 10
241.3495311891682
 20
168.2693241498791
 30
0.0
 10
242.1060413163652
 20
168.5544534740371
 30
0.0
 10
242.5471634323268
 20
168.7207127827674
 30
0.0
  0
LWPOLYLINE
  5
146
330
1F
100
AcDbEntity
  8
0
  6
Continuous
 62
     7
370
    18
100
AcDbPolyline
 90
        3
 70
   128
 43
0.0
 10
237.2139409835
 20
163.2574739772
 10
238.8791792745
 20
165.3392183501
 10
240.5188248212
 20
167.3889736551
  0
LWPOLYLINE
  5
147
330
1F
100
AcDbEntity
  8
0
  6
Continuous
 62
     7
370
    18
100
AcDbPolyline
 90
        3
 70
   128
 43
0.0
 10
241.0683349425
 20
166.9562104064
 10
238.9815092737
 20
164.3474305886
 10
238.8182148988
 20
164.1432921309
  0
LINE
  5
148
330
1F
100
AcDbEntity
  8
0
  6
Continuous
 62
     7
370
    18
100
AcDbLine
 10
241.0683349425
 20
166.9562104064
 30
0.0
 11
241.6112997288
 21
166.6192765254
 31
0.0
  0
LINE
  5
149
330
1F
100
AcDbEntity
  8
0
  6
Continuous
 62
     7
370
    18
100
AcDbLine
 10
244.3846740479
 20
159.8088926542
 30
0.0
 11
244.279293036
 21
159.098733114
 31
0.0
  0
LWPOLYLINE
  5
14A
330
1F
100
AcDbEntity
  8
0
  6
Continuous
 62
     7
370
    18
100
AcDbPolyline
 90
        3
 70
   128
 43
0.0
 10
244.7014503832
 20
165.7794843334
 10
244.5240595097
 20
162.4359543342
 10
244.3846740479
 20
159.8088926542
  0
SPLINE
  5
14B
330
1F
100
AcDbEntity
  8
0
  6
Continuous
 62
     7
370
    18
100
AcDbSpline
210
0.0
220
0.0
230
1.0
 70
     8
 71
     3
 72
     9
 73
     5
 74
     0
 42
0.000000001
 43
0.00000001
 40
0.0
 40
0.0
 40
0.0
 40
0.0
 40
0.5831011153542756
 40
1.0
 40
1.0
 40
1.0
 40
1.0
 10
244.0590762252478
 20
168.1389230209857
 30
0.0
 10
244.2822756426589
 20
167.7170326454499
 30
0.0
 10
244.6650555954555
 20
166.9935039736183
 30
0.0
 10
244.6907418233807
 20
166.136689381306
 30
0.0
 10
244.7014503831534
 20
165.7794843334228
 30
0.0
  0
LINE
  5
14C
330
1F
100
AcDbEntity
  8
0
  6
Continuous
 62
     7
370
    18
100
AcDbLine
 10
244.0050744171
 20
165.8261435944
 30
0.0
 11
243.3911391253
 21
165.9343856293
 31
0.0
  0
LWPOLYLINE
  5
14D
330
1F
100
AcDbEntity
  8
0
  6
Continuous
 62
     7
370
    18
100
AcDbPolyline
 90
        3
 70
   128
 43
0.0
 10
243.7935896868
 20
161.8400941509
 10
243.8656889553
 20
163.1990837771
 10
244.0050744171
 20
165.8261435944
  0
SPLINE
  5
14E
330
1F
100
AcDbEntity
  8
0
  6
Continuous
 62
     7
370
    18
100
AcDbSpline
210
0.0
220
0.0
230
1.0
 70
     8
 71
     3
 72
     9
 73
     5
 74
     0
 42
0.000000001
 43
0.00000001
 40
0.0
 40
0.0
 40
0.0
 40
0.0
 40
0.6866699865543753
 40
1.0
 40
1.0
 40
1.0
 40
1.0
 10
244.384674047914
 20
159.8088926542074
 30
0.0
 10
244.3214010473106
 20
159.8075107449667
 30
0.0
 10
244.2292563463008
 20
159.8054982655111
 30
0.0
 10
244.1309187065732
 20
159.8113774529955
 30
0.0
 10
244.1001065725951
 20
159.813219578889
 30
0.0
  0
ARC
  5
14F
330
1F
100
AcDbEntity
  8
0
  6
Continuous
 62
     7
370
    18
100
AcDbCircle
 10
242.8883688812
 20
169.832493861
 30
0.0
 40
3.403752348311698
100
AcDbArc
 50
225.8805590361
 51
237.6754842052
  0
ARC
  5
150
330
1F
100
AcDbEntity
  8
0
  6
Continuous
 62
     7
370
    18
100
AcDbCircle
 10
244.5930400107
 20
169.3814254058
 30
0.0
 40
3.603572157944982
100
AcDbArc
 50
260.6095292762
 51
271.7239544142
  0
SPLINE
  5
151
330
1F
100
AcDbEntity
  8
0
  6
Continuous
 62
     7
370
    18
100
AcDbSpline
210
0.0
220
0.0
230
1.0
 70
     8
 71
     3
 72
     9
 73
     5
 74
     0
 42
0.000000001
 43
0.00000001
 40
0.0
 40
0.0
 40
0.0
 40
0.0
 40
0.4026803468438295
 40
1.0
 40
1.0
 40
1.0
 40
1.0
 10
244.0050744170813
 20
165.826143594411
 30
0.0
 10
244.0011374980509
 20
166.1230070178231
 30
0.0
 10
243.9913607134094
 20
166.860225572786
 30
0.0
 10
243.7048931790853
 20
167.4911656367586
 30
0.0
 10
243.5337804908423
 20
167.8680385369331
 30
0.0
  0
SPLINE
  5
152
330
1F
100
AcDbEntity
  8
0
  6
Continuous
 62
     7
370
    18
100
AcDbSpline
210
0.0
220
0.0
230
1.0
 70
     8
 71
     3
 72
     9
 73
     5
 74
     0
 42
0.000000001
 43
0.00000001
 40
0.0
 40
0.0
 40
0.0
 40
0.0
 40
0.5973213149993891
 40
1.0
 40
1.0
 40
1.0
 40
1.0
 10
242.7585438544421
 20
168.1663523334533
 30
0.0
 10
242.3860723323899
 20
167.9986525094749
 30
0.0
 10
241.7625025506007
 20
167.7178993875499
 30
0.0
 10
241.2676154353423
 20
167.174874823731
 30
0.0
 10
241.0683349425464
 20
166.9562104064495
 30
0.0
  0
LINE
  5
153
330
1F
100
AcDbEntity
  8
0
  6
Continuous
 62
     7
370
    18
100
AcDbLine
 10
181.3344774836
 20
97.8859159071
 30
0.0
 11
181.3344774836
 21
160.8859169203
 31
0.0
  0
LINE
  5
154
330
1F
100
AcDbEntity
  8
0
  6
Continuous
 62
     7
370
    18
100
AcDbLine
 10
218.0671521182
 20
160.8859169203
 30
0.0
 11
218.0671521182
 21
160.548087107
 31
0.0
  0
LINE
  5
155
330
1F
100
AcDbEntity
  8
0
  6
Continuous
 62
     7
370
    18
100
AcDbLine
 10
211.7471151704
 20
104.3358537275
 30
0.0
 11
211.7471151704
 21
159.4572718162
 31
0.0
  0
LINE
  5
156
330
1F
100
AcDbEntity
  8
0
  6
Continuous
 62
     7
370
    18
100
AcDbLine
 10
194.7397335152
 20
119.4765473622
 30
0.0
 11
194.7397335152
 21
99.485173719
 31
0.0
  0
LINE
  5
157
330
1F
100
AcDbEntity
  8
0
  6
Continuous
 62
     7
370
    18
100
AcDbLine
 10
194.306720672
 20
119.9978495854
 30
0.0
 11
194.306720672
 21
99.3174238968
 31
0.0
  0
LINE
  5
158
330
1F
100
AcDbEntity
  8
0
  6
Continuous
 62
     7
370
    18
100
AcDbLine
 10
194.7397335152
 20
159.2866591084
 30
0.0
 11
194.7397335152
 21
139.2952854651
 31
0.0
  0
LINE
  5
159
330
1F
100
AcDbEntity
  8
0
  6
Continuous
 62
     7
370
    18
100
AcDbLine
 10
194.306720672
 20
159.4544089306
 30
0.0
 11
194.306720672
 21
138.7739832419
 31
0.0
  0
LINE
  5
15A
330
1F
100
AcDbEntity
  8
0
  6
Continuous
 62
     7
370
    18
100
AcDbLine
 10
191.3622344563
 20
119.9978495854
 30
0.0
 11
191.3622344563
 21
99.3174238968
 31
0.0
  0
LINE
  5
15B
330
1F
100
AcDbEntity
  8
0
  6
Continuous
 62
     7
370
    18
100
AcDbLine
 10
190.9292216132
 20
119.4765473622
 30
0.0
 11
190.9292216132
 21
99.485173719
 31
0.0
  0
LINE
  5
15C
330
1F
100
AcDbEntity
  8
0
  6
Continuous
 62
     7
370
    18
100
AcDbLine
 10
191.3622344563
 20
159.4544089306
 30
0.0
 11
191.3622344563
 21
138.7739832419
 31
0.0
  0
LINE
  5
15D
330
1F
100
AcDbEntity
  8
0
  6
Continuous
 62
     7
370
    18
100
AcDbLine
 10
190.9292216132
 20
159.2866591084
 30
0.0
 11
190.9292216132
 21
139.2952854651
 31
0.0
  0
LINE
  5
15E
330
1F
100
AcDbEntity
  8
0
  6
Continuous
 62
     7
370
    18
100
AcDbLine
 10
179.5131571543
 20
124.1997418832
 30
0.0
 11
179.5131571543
 21
134.5720909442
 31
0.0
  0
LINE
  5
15F
330
1F
100
AcDbEntity
  8
0
  6
Continuous
 62
     7
370
    18
100
AcDbLine
 10
178.8394375889
 20
122.9981951322
 30
0.0
 11
180.017965189
 21
122.9833908285
 31
0.0
  0
LINE
  5
160
330
1F
100
AcDbEntity
  8
0
  6
Continuous
 62
     7
370
    18
100
AcDbLine
 10
178.8394375889
 20
135.7736376952
 30
0.0
 11
178.8394375889
 21
122.9981951322
 31
0.0
  0
LINE
  5
161
330
1F
100
AcDbEntity
  8
0
  6
Continuous
 62
     7
370
    18
100
AcDbLine
 10
178.8394375889
 20
135.7736376952
 30
0.0
 11
180.017965189
 21
135.7884419988
 31
0.0
  0
LINE
  5
162
330
1F
100
AcDbEntity
  8
0
  6
Continuous
 62
     7
370
    18
100
AcDbLine
 10
144.3344779963
 20
123.3316058199
 30
0.0
 11
178.6344774718
 21
122.9007382784
 31
0.0
  0
LINE
  5
163
330
1F
100
AcDbEntity
  8
0
  6
Continuous
 62
     7
370
    18
100
AcDbLine
 10
144.3344779963
 20
135.4402270074
 30
0.0
 11
178.6344774718
 21
135.871094549
 31
0.0
  0
LWPOLYLINE
  5
164
330
1F
100
AcDbEntity
  8
0
  6
Continuous
 62
     7
370
    18
100
AcDbPolyline
 90
        9
 70
   128
 43
0.0
 10
178.6344774718
 20
122.9007382784
 10
178.6392991616
 20
122.9201926756
 10
178.6516189294
 20
122.9388032946
 10
178.6709636635
 20
122.955854414
 10
178.6965894698
 20
122.9706908483
 10
178.7275119404
 20
122.982742628
 10
178.7625424749
 20
122.9915464203
 10
178.8003353121
 20
122.9967641551
 10
178.8394375889
 20
122.9981951322
  0
LWPOLYLINE
  5
165
330
1F
100
AcDbEntity
  8
0
  6
Continuous
 62
     7
370
    18
100
AcDbPolyline
 90
        9
 70
   128
 43
0.0
 10
178.6344774718
 20
135.871094549
 10
178.6392991616
 20
135.8516401518
 10
178.6516189294
 20
135.8330295328
 10
178.6709636635
 20
135.8159784134
 10
178.6965894698
 20
135.8011419791
 10
178.7275119404
 20
135.7890901993
 10
178.7625424749
 20
135.7802864071
 10
178.8003353121
 20
135.7750686723
 10
178.8394375889
 20
135.7736376952
  0
LINE
  5
166
330
1F
100
AcDbEntity
  8
0
  6
Continuous
 62
     7
370
    18
100
AcDbLine
 10
142.8344786818
 20
123.7646186631
 30
0.0
 11
144.3344779963
 21
123.3316058199
 31
0.0
  0
LINE
  5
167
330
1F
100
AcDbEntity
  8
0
  6
Continuous
 62
     7
370
    18
100
AcDbLine
 10
142.8344786818
 20
135.0072141643
 30
0.0
 11
144.3344779963
 21
135.4402270074
 31
0.0
  0
LINE
  5
168
330
1F
100
AcDbEntity
  8
0
  6
Continuous
 62
     7
370
    18
100
AcDbLine
 10
178.8394375889
 20
135.7736376952
 30
0.0
 11
178.8394375889
 21
151.2111014593
 31
0.0
  0
LINE
  5
169
330
1F
100
AcDbEntity
  8
0
  6
Continuous
 62
     7
370
    18
100
AcDbLine
 10
178.8394375889
 20
107.5607313681
 30
0.0
 11
178.8394375889
 21
122.9981951322
 31
0.0
  0
LINE
  5
16A
330
1F
100
AcDbEntity
  8
0
  6
Continuous
 62
     7
370
    18
100
AcDbLine
 10
180.4395005583
 20
107.520544799
 30
0.0
 11
180.4395005583
 21
122.9533133003
 31
0.0
  0
LINE
  5
16B
330
1F
100
AcDbEntity
  8
0
  6
Continuous
 62
     7
370
    18
100
AcDbLine
 10
180.4395005583
 20
135.818519527
 30
0.0
 11
180.4395005583
 21
151.2512880284
 31
0.0
  0
LINE
  5
16C
330
1F
100
AcDbEntity
  8
0
  6
Continuous
 62
     7
370
    18
100
AcDbLine
 10
217.0197345967
 20
101.722773062
 30
0.0
 11
217.0197345967
 21
160.5338266957
 31
0.0
  0
LINE
  5
16D
330
1F
100
AcDbEntity
  8
0
  6
Continuous
 62
     7
370
    18
100
AcDbLine
 10
219.0330751891
 20
161.6270969528
 30
0.0
 11
219.0330751891
 21
161.3285298366
 31
0.0
  0
LINE
  5
16E
330
1F
100
AcDbEntity
  8
VERMASSUNG
  6
CENTERX2
100
AcDbLine
 10
245.8344774599
 20
174.3859164137
 30
0.0
 11
245.8344774599
 21
129.3859164137
 31
0.0
  0
LINE
  5
16F
330
1F
100
AcDbEntity
  8
VERMASSUNG
  6
CENTERX2
100
AcDbLine
 10
245.8344774599
 20
174.3859164137
 30
0.0
 11
227.9311132633
 21
174.3859164137
 31
0.0
  0
DIMENSION
  5
170
330
1F
100
AcDbEntity
  8
VERMASSUNG
100
AcDbDimension
  2
_D
 10
265.8383458647
 20
129.3859164137
 30
0.0
 11
265.8383458647
 21
151.8859164137
 31
0.0
 70
   160
  1
<>
 71
     2
 42
-1.0
  3
SLDDIMSTYLE0
100
AcDbAlignedDimension
 13
245.8344774599
 23
174.3859164137
 33
0.0
 14
248.2782688528
 24
129.3859164137
 34
0.0
 50
90.0
100
AcDbRotatedDimension
  0
DIMENSION
  5
17D
330
1F
100
AcDbEntity
  8
VERMASSUNG
100
AcDbDimension
  2
_D_1
 10
180.8344774599
 20
184.9932359817
 30
0.0
 11
213.3344774599
 21
184.9932359817
 31
0.0
 70
   160
  1
<>
 71
     2
 42
-1.0
  3
SLDDIMSTYLE0
100
AcDbAlignedDimension
 13
245.8344774599
 23
174.3859164137
 33
0.0
 14
180.8344774599
 24
160.3859164137
 34
0.0
100
AcDbRotatedDimension
  0
DIMENSION
  5
189
330
1F
100
AcDbEntity
  8
VERMASSUNG
100
AcDbDimension
  2
_D_2
 10
142.8344774599
 20
194.1716235306
 30
0.0
 11
194.3344774599
 21
194.1716235306
 31
0.0
 70
   160
  1
<>
 71
     2
 42
-1.0
  3
SLDDIMSTYLE1
100
AcDbAlignedDimension
 13
245.8344774599
 23
174.3859164137
 33
0.0
 14
142.8344774599
 24
149.6782544062
 34
0.0
100
AcDbRotatedDimension
  0
DIMENSION
  5
194
330
1F
100
AcDbEntity
  8
VERMASSUNG
100
AcDbDimension
  2
_D_3
 10
227.9311132633
 20
174.3859164137
 30
0.0
 11
253.657965082
 21
166.1592951281
 31
0.0
 70
   162
  1
<>
 71
     1
 42
-1.0
  3
SLDDIMSTYLE2
100
AcDb2LineAngularDimension
 13
245.8339313598
 23
173.9652849782
 33
0.0
 14
245.040848573
 24
159.0173885953
 34
0.0
 15
245.8344774599
 25
174.3859164137
 35
0.0
 16
253.657965082
 26
166.1592951281
 36
0.0
  0
DIMENSION
  5
19E
330
1F
100
AcDbEntity
  8
VERMASSUNG
100
AcDbDimension
  2
_D_4
 10
134.81792591
 20
97.8859164137
 30
0.0
 11
134.81792591
 21
129.3859164137
 31
0.0
 70
   160
  1
PSC%%c<>
 71
     2
 42
-1.0
  3
SLDDIMSTYLE1
100
AcDbAlignedDimension
 13
181.3344774599
 23
160.8859164137
 33
0.0
 14
181.3344774599
 24
97.8859164137
 34
0.0
 50
90.0
100
AcDbRotatedDimension
  0
LINE
  5
1AA
330
1F
100
AcDbEntity
  8
VERMASSUNG
  6
CENTERX2
370
    18
100
AcDbLine
 10
248.2782688528
 20
129.3859164137
 30
0.0
 11
143.6957344966
 21
129.3859164137
 31
0.0
  0
LINE
  5
1AB
330
1F
100
AcDbEntity
  8
0
  6
CENTERX2
 62
     7
100
AcDbLine
 10
70.620536769
 20
174.3859164137
 30
0.0
 11
70.620536769
 21
129.3859164137
 31
0.0
  0
LINE
  5
1AC
330
1F
100
AcDbEntity
  8
0
  6
CENTERX2
 62
     7
100
AcDbLine
 10
70.620536769
 20
174.3859164137
 30
0.0
 11
70.620536769
 21
156.6035372477
 31
0.0
  0
LINE
  5
1AD
330
1F
100
AcDbEntity
  8
0
  6
CENTERX2
 62
     7
100
AcDbLine
 10
70.620536769
 20
129.3859164137
 30
0.0
 11
70.620536769
 21
167.9252156295
 31
0.0
  0
POINT
  5
1AE
330
1F
100
AcDbEntity
  8
0
  6
Continuous
 62
     7
100
AcDbPoint
 10
70.620536769
 20
174.3859164137
 30
0.0
  0
ARC
  5
1AF
330
1F
100
AcDbEntity
  8
0
  6
Continuous
 62
     7
370
    25
100
AcDbCircle
 10
85.4486271455
 20
145.8541791568
 30
0.0
 40
2.500000000000011
100
AcDbArc
 50
343.3918321236
 51
109.767870866
  0
LINE
  5
1B0
330
1F
100
AcDbEntity
  8
0
  6
Continuous
 62
     7
370
    25
100
AcDbLine
 10
49.4346171266
 20
138.4393813926
 30
0.0
 11
49.666693399
 21
138.3223299775
 31
0.0
  0
LINE
  5
1B1
330
1F
100
AcDbEntity
  8
0
  6
Continuous
 62
     7
370
    25
100
AcDbLine
 10
49.6699828303
 20
138.3212244976
 30
0.0
 11
55.1995252839
 21
137.3462173063
 31
0.0
  0
SPLINE
  5
1B2
330
1F
100
AcDbEntity
  8
0
  6
Continuous
 62
     7
370
    25
100
AcDbSpline
210
0.0
220
0.0
230
1.0
 70
     8
 71
     3
 72
    25
 73
    21
 74
     0
 42
0.000000001
 43
0.00000001
 40
0.0
 40
0.0
 40
0.0
 40
0.0
 40
0.0522112048740562
 40
0.1027192263383755
 40
0.1500946623261515
 40
0.194466886038538
 40
0.2358503022535904
 40
0.274649893667623
 40
0.3135386133559226
 40
0.3574884728639007
 40
0.4180535851245326
 40
0.4893890131434017
 40
0.5554123982992648
 40
0.6244453912182782
 40
0.6909648191319281
 40
0.7566747339530799
 40
0.8224663945465527
 40
0.8889684706995766
 40
0.9574684187344561
 40
1.0
 40
1.0
 40
1.0
 40
1.0
 10
49.55955404997106
 20
152.7473832387001
 30
0.0
 10
49.38349821606023
 20
152.7084270471821
 30
0.0
 10
49.0371296713139
 20
152.6317854553347
 30
0.0
 10
48.5681436371994
 20
152.4080584105066
 30
0.0
 10
48.16471893246329
 20
152.1336569503014
 30
0.0
 10
47.83477139893436
 20
151.8242048102635
 30
0.0
 10
47.57523257316952
 20
151.5031633692479
 30
0.0
 10
47.37703600618372
 20
151.186607994685
 30
0.0
 10
47.22414079356575
 20
150.878588918601
 30
0.0
 10
47.08963893999493
 20
150.5448875061176
 30
0.0
 10
46.95724498281525
 20
150.1447284846071
 30
0.0
 10
46.8185153977122
 20
149.6456577782351
 30
0.0
 10
46.67516701950223
 20
149.0529419112001
 30
0.0
 10
46.53733043232505
 20
148.4131574019468
 30
0.0
 10
46.4061349348764
 20
147.7351363943875
 30
0.0
 10
46.28805588857635
 20
147.0559175228355
 30
0.0
 10
46.18540962981933
 20
146.3909206024399
 30
0.0
 10
46.10156410248304
 20
145.7566864348809
 30
0.0
 10
46.04661400223154
 20
145.2458373676843
 30
0.0
 10
46.02632957474074
 20
144.9595829872814
 30
0.0
 10
46.01855945050951
 20
144.8499307874114
 30
0.0
  0
SPLINE
  5
1B3
330
1F
100
AcDbEntity
  8
0
  6
Continuous
 62
     7
370
    25
100
AcDbSpline
210
0.0
220
0.0
230
1.0
 70
     8
 71
     3
 72
    16
 73
    12
 74
     0
 42
0.000000001
 43
0.00000001
 40
0.0
 40
0.0
 40
0.0
 40
0.0
 40
0.0861728289273529
 40
0.2112584183256302
 40
0.3484097181476808
 40
0.4422932386183913
 40
0.547836027446654
 40
0.6629080596915433
 40
0.7856476090914555
 40
0.9145210199023981
 40
1.0
 40
1.0
 40
1.0
 40
1.0
 10
46.01855945050951
 20
144.8499307874114
 30
0.0
 10
46.01353930688946
 20
144.7571511395134
 30
0.0
 10
46.00123209109837
 20
144.5296956653028
 30
0.0
 10
45.99924073234103
 20
144.1711176295294
 30
0.0
 10
46.02861922139873
 20
143.7601479468066
 30
0.0
 10
46.11619083350627
 20
143.3176548621621
 30
0.0
 10
46.25906870122519
 20
142.8917179530568
 30
0.0
 10
46.49007585738449
 20
142.4433026779074
 30
0.0
 10
46.82042541530694
 20
142.0124235814899
 30
0.0
 10
47.18627228069159
 20
141.6639700384926
 30
0.0
 10
47.46442301885892
 20
141.5073546961158
 30
0.0
 10
47.57534336507555
 20
141.4448999706179
 30
0.0
  0
LINE
  5
1B4
330
1F
100
AcDbEntity
  8
0
  6
Continuous
 62
     7
370
    25
100
AcDbLine
 10
47.5881136602
 20
141.425421359
 30
0.0
 11
49.5502333736
 21
141.0794461984
 31
0.0
  0
LINE
  5
1B5
330
1F
100
AcDbEntity
  8
0
  6
Continuous
 62
     7
370
    25
100
AcDbLine
 10
51.5471882767
 20
152.4047347623
 30
0.0
 11
49.5850667006
 21
152.7507099229
 31
0.0
  0
SPLINE
  5
1B6
330
1F
100
AcDbEntity
  8
0
  6
Continuous
 62
     7
370
    25
100
AcDbSpline
210
0.0
220
0.0
230
1.0
 70
     8
 71
     3
 72
    11
 73
     7
 74
     0
 42
0.000000001
 43
0.00000001
 40
0.0
 40
0.0
 40
0.0
 40
0.0
 40
0.0583096005508371
 40
0.4745896630214391
 40
0.8944492990119504
 40
1.0
 40
1.0
 40
1.0
 40
1.0
 10
63.07152841449018
 20
141.4405600074202
 30
0.0
 10
63.07905090663783
 20
141.4437807531278
 30
0.0
 10
63.1402774796157
 20
141.4699948346099
 30
0.0
 10
63.30041993144823
 20
141.4594303021793
 30
0.0
 10
63.45047816131304
 20
141.3941367381228
 30
0.0
 10
63.4964845239053
 20
141.3425763810611
 30
0.0
 10
63.50572683125969
 20
141.3322183209926
 30
0.0
  0
SPLINE
  5
1B7
330
1F
100
AcDbEntity
  8
0
  6
Continuous
 62
     7
370
    25
100
AcDbSpline
210
0.0
220
0.0
230
1.0
 70
     8
 71
     3
 72
     9
 73
     5
 74
     0
 42
0.000000001
 43
0.00000001
 40
0.0
 40
0.0
 40
0.0
 40
0.0
 40
0.5959174902442554
 40
1.0
 40
1.0
 40
1.0
 40
1.0
 10
64.5816814734065
 20
147.3995185363561
 30
0.0
 10
64.54790689089073
 20
147.3820055980138
 30
0.0
 10
64.49123028201667
 20
147.3526174048008
 30
0.0
 10
64.41719497060922
 20
147.3613329220465
 30
0.0
 10
64.38727859616513
 20
147.3648547101289
 30
0.0
  0
LINE
  5
1B8
330
1F
100
AcDbEntity
  8
0
  6
Continuous
 62
     7
370
    25
100
AcDbLine
 10
63.5490328653
 20
141.3019605819
 30
0.0
 11
63.7452448367
 21
141.2673638109
 31
0.0
  0
LINE
  5
1B9
330
1F
100
AcDbEntity
  8
0
  6
Continuous
 62
     7
370
    25
100
AcDbLine
 10
64.8218635118
 20
147.3731714207
 30
0.0
 11
64.6256515405
 21
147.4077681917
 31
0.0
  0
LINE
  5
1BA
330
1F
100
AcDbEntity
  8
0
  6
Continuous
 62
     7
370
    25
100
AcDbLine
 10
52.6880826449
 20
153.4455939102
 30
0.0
 11
51.5415481871
 21
152.6362243015
 31
0.0
  0
LINE
  5
1BB
330
1F
100
AcDbEntity
  8
0
  6
Continuous
 62
     7
370
    25
100
AcDbLine
 10
49.4657605535
 20
140.863846885
 30
0.0
 11
49.8104914671
 21
140.3674892056
 31
0.0
  0
LINE
  5
1BC
330
1F
100
AcDbEntity
  8
0
  6
Continuous
 62
     7
370
    25
100
AcDbLine
 10
57.2497602201
 20
152.6685020793
 30
0.0
 11
52.7453086919
 21
153.4627581853
 31
0.0
  0
LINE
  5
1BD
330
1F
100
AcDbEntity
  8
0
  6
Continuous
 62
     7
370
    25
100
AcDbLine
 10
54.8505857235
 20
138.8846420589
 30
0.0
 11
55.2978915742
 21
139.0485669393
 31
0.0
  0
LINE
  5
1BE
330
1F
100
AcDbEntity
  8
0
  6
Continuous
 62
     7
370
    25
100
AcDbLine
 10
57.7261522061
 20
152.2770858276
 30
0.0
 11
57.2785567141
 21
152.6543497014
 31
0.0
  0
LINE
  5
1BF
330
1F
100
AcDbEntity
  8
0
  6
Continuous
 62
     7
370
    25
100
AcDbLine
 10
55.2182076147
 20
138.1022528652
 30
0.0
 11
55.1432575679
 21
135.0691880937
 31
0.0
  0
LINE
  5
1C0
330
1F
100
AcDbEntity
  8
0
  6
Continuous
 62
     7
370
    25
100
AcDbLine
 10
57.5098702332
 20
130.406588912
 30
0.0
 11
61.3342811933
 21
129.7322422172
 31
0.0
  0
LINE
  5
1C1
330
1F
100
AcDbEntity
  8
0
  6
Continuous
 62
     7
370
    25
100
AcDbLine
 10
75.2549753173
 20
173.5624502319
 30
0.0
 11
70.5851284632
 21
174.3858697731
 31
0.0
  0
LINE
  5
1C2
330
1F
100
AcDbEntity
  8
0
  6
Continuous
 62
     7
370
    25
100
AcDbLine
 10
69.3588612715
 20
167.4160043615
 30
0.0
 11
68.9952525657
 21
166.9767702836
 31
0.0
  0
LINE
  5
1C3
330
1F
100
AcDbEntity
  8
0
  6
Continuous
 62
     7
370
    25
100
AcDbLine
 10
66.4185699655
 20
154.4007751066
 30
0.0
 11
66.5870536698
 21
153.9281065482
 31
0.0
  0
LINE
  5
1C4
330
1F
100
AcDbEntity
  8
0
  6
Continuous
 62
     7
370
    25
100
AcDbLine
 10
64.8547070681
 20
146.9870879221
 30
0.0
 11
65.4738335519
 21
146.8779201526
 31
0.0
  0
LINE
  5
1C5
330
1F
100
AcDbEntity
  8
0
  6
Continuous
 62
     7
370
    25
100
AcDbLine
 10
78.0337075351
 20
172.8577296156
 30
0.0
 11
75.2485310307
 21
173.3488309104
 31
0.0
  0
LINE
  5
1C6
330
1F
100
AcDbEntity
  8
0
  6
Continuous
 62
     7
370
    25
100
AcDbLine
 10
78.2773000768
 20
172.5093702692
 30
0.0
 11
78.0371292143
 21
172.855181517
 31
0.0
  0
ARC
  5
1C7
330
1F
100
AcDbEntity
  8
0
  6
Continuous
 62
     7
370
    25
100
AcDbCircle
 10
86.2649908795
 20
146.7744415723
 30
0.0
 40
3.167954649824674
100
AcDbArc
 50
340.5459012031
 51
112.1677945751
  0
ARC
  5
1C8
330
1F
100
AcDbEntity
  8
0
  6
Continuous
 62
     7
370
    25
100
AcDbCircle
 10
86.3848507833
 20
146.9184908894
 30
0.0
 40
2.959368165122444
100
AcDbArc
 50
332.5010709292
 51
118.4055151116
  0
ARC
  5
1C9
330
1F
100
AcDbEntity
  8
0
  6
Continuous
 62
     7
370
    25
100
AcDbCircle
 10
87.2647122817
 20
147.8567096808
 30
0.0
 40
2.807302865536575
100
AcDbArc
 50
216.4602360905
 51
273.8308989126
  0
LWPOLYLINE
  5
1CA
330
1F
100
AcDbEntity
  8
0
  6
Continuous
 62
     7
370
    25
100
AcDbPolyline
 90
       18
 70
   128
 43
0.0
 10
84.6858974195
 20
148.686477812
 10
84.8949700242
 20
148.9754709322
 10
85.2939020491
 20
149.301629411
 10
85.7845479271
 20
149.5022344309
 10
86.3360780871
 20
149.5646796096
 10
86.9138408101
 20
149.4850422162
 10
87.4815303481
 20
149.2683253157
 10
88.0034770465
 20
148.9281485695
 10
88.4468853122
 20
148.4858839679
 10
88.7838955617
 20
147.969320314
 10
88.9933295196
 20
147.4109179247
 10
89.0620313233
 20
146.8457615841
 10
88.985679636
 20
146.3093607593
 10
88.7690763569
 20
145.8354218769
 10
88.4258281088
 20
145.4537249077
 10
87.9775043225
 20
145.1882495451
 10
87.4522737807
 20
145.0556795019
 10
87.4522737807
 20
145.0556795019
  0
ARC
  5
1CB
330
1F
100
AcDbEntity
  8
0
  6
Continuous
 62
     7
370
    25
100
AcDbCircle
 10
45.3703346433
 20
140.3143477836
 30
0.0
 40
4.73569778354363
100
AcDbArc
 50
335.1250815193
 51
355.9861183011
  0
ARC
  5
1CC
330
1F
100
AcDbEntity
  8
0
  6
Continuous
 62
     7
370
    25
100
AcDbCircle
 10
62.4669890983
 20
137.6084493272
 30
0.0
 40
13.10118386439626
100
AcDbArc
 50
167.1054628426
 51
175.1151661602
  0
LWPOLYLINE
  5
1CD
330
1F
100
AcDbEntity
  8
0
  6
Continuous
 62
     7
370
    25
100
AcDbPolyline
 90
        8
 70
   128
 43
0.0
 10
49.8816892153
 20
140.2801842335
 10
49.8060267067
 20
139.8117662314
 10
49.7162527984
 20
139.3450851459
 10
49.6229175127
 20
138.9353721309
 10
49.536725471
 20
138.6296291742
 10
49.4675654566
 20
138.4629289526
 10
49.4233686125
 20
138.4543952439
 10
49.4092087841
 20
138.605006868
  0
LINE
  5
1CE
330
1F
100
AcDbEntity
  8
0
  6
Continuous
 62
     7
370
    25
100
AcDbLine
 10
49.4133904225
 20
138.7240569014
 30
0.0
 11
49.4337677604
 21
138.7150519434
 31
0.0
  0
LINE
  5
1CF
330
1F
100
AcDbEntity
  8
0
  6
Continuous
 62
     7
370
    25
100
AcDbLine
 10
49.4527853674
 20
138.8002716843
 30
0.0
 11
49.4092087841
 21
138.605006868
 31
0.0
  0
ARC
  5
1D0
330
1F
100
AcDbEntity
  8
0
  6
Continuous
 62
     7
370
    25
100
AcDbCircle
 10
60.3993673233
 20
137.9702615783
 30
0.0
 40
10.98253094497144
100
AcDbArc
 50
166.6465362314
 51
175.1410015392
  0
LWPOLYLINE
  5
1D1
330
1F
100
AcDbEntity
  8
0
  6
Continuous
 62
     7
370
    25
100
AcDbPolyline
 90
        9
 70
   128
 43
0.0
 10
49.8773753291
 20
140.4072538856
 10
49.8720202243
 20
140.3655008319
 10
49.8112570143
 20
139.9582688603
 10
49.7342981046
 20
139.536059359
 10
49.6510322785
 20
139.1531106922
 10
49.5721548444
 20
138.8586162496
 10
49.5077967292
 20
138.6904054228
 10
49.4662262148
 20
138.6700867582
 10
49.4527853674
 20
138.8002716843
  0
LINE
  5
1D2
330
1F
100
AcDbEntity
  8
0
  6
Continuous
 62
     7
370
    25
100
AcDbLine
 10
49.4563057667
 20
138.9005248341
 30
0.0
 11
49.4133904225
 21
138.7240569014
 31
0.0
  0
LINE
  5
1D3
330
1F
100
AcDbEntity
  8
0
  6
Continuous
 62
     7
370
    25
100
AcDbLine
 10
49.5473965651
 20
138.783588903
 30
0.0
 11
49.4527853674
 21
138.8002716843
 31
0.0
  0
LINE
  5
1D4
330
1F
100
AcDbEntity
  8
0
  6
Continuous
 62
     7
370
    25
100
AcDbLine
 10
49.5783760792
 20
138.8790001068
 30
0.0
 11
49.4563057667
 21
138.9005248341
 31
0.0
  0
LWPOLYLINE
  5
1D5
330
1F
100
AcDbEntity
  8
0
  6
Continuous
 62
     7
370
    25
100
AcDbPolyline
 90
       22
 70
   128
 43
0.0
 10
47.5730634874
 20
141.4309720415
 10
47.5819557554
 20
141.4269729424
 10
47.6721040553
 20
141.4748457167
 10
47.7859358883
 20
141.6680979449
 10
47.9205045497
 20
142.0017237681
 10
48.0723250306
 20
142.4670842383
 10
48.2374634242
 20
143.0521243158
 10
48.41164496
 20
143.7416941765
 10
48.5903583115
 20
144.517932916
 10
48.7689729428
 20
145.3607379365
 10
48.942863906
 20
146.2482790369
 10
49.1075273252
 20
147.1575683821
 10
49.2586996055
 20
148.0650602746
 10
49.3924636042
 20
148.9472481329
 10
49.5053566641
 20
149.7812828887
 10
49.5944544321
 20
150.545565309
 10
49.6574490911
 20
151.2203010637
 10
49.6927089638
 20
151.7880129534
 10
49.6993194914
 20
152.23399912
 10
49.6771130359
 20
152.5467074383
 10
49.6266614294
 20
152.7180409897
 10
49.569101969
 20
152.7506540436
  0
LWPOLYLINE
  5
1D6
330
1F
100
AcDbEntity
  8
0
  6
Continuous
 62
     7
370
    25
100
AcDbPolyline
 90
       21
 70
   128
 43
0.0
 10
49.5502333736
 20
141.0794461984
 10
49.6342237687
 20
141.1288705561
 10
49.7480556017
 20
141.3221227843
 10
49.8826242632
 20
141.6557495389
 10
50.034444744
 20
142.1211090777
 10
50.1995850003
 20
142.7061500865
 10
50.3737665361
 20
143.3957199472
 10
50.552478025
 20
144.1719586867
 10
50.7310926563
 20
145.0147627759
 10
50.9049836195
 20
145.9023038763
 10
51.0696489012
 20
146.8115950841
 10
51.2208193189
 20
147.719085114
 10
51.3545851803
 20
148.6012729723
 10
51.4674782401
 20
149.4353077281
 10
51.5565741456
 20
150.1995901484
 10
51.6195688045
 20
150.8743259031
 10
51.6548286772
 20
151.4420377928
 10
51.6614410675
 20
151.8880239594
 10
51.6392327493
 20
152.2007341403
 10
51.5887811428
 20
152.3720658291
 10
51.5471882767
 20
152.4047347623
  0
LWPOLYLINE
  5
1D7
330
1F
100
AcDbEntity
  8
0
  6
Continuous
 62
     7
370
    25
100
AcDbPolyline
 90
       26
 70
   128
 43
0.0
 10
46.1496747679
 20
145.5077546555
 10
46.1409017092
 20
145.1868451107
 10
46.1625121182
 20
145.0071333814
 10
46.2131499892
 20
144.9799136165
 10
46.2896320617
 20
145.1068966556
 10
46.3871545738
 20
145.3801019955
 10
46.4995875603
 20
145.7823625672
 10
46.6198660082
 20
146.2884060014
 10
46.7404350287
 20
146.8664332199
 10
46.8537173814
 20
147.4801245052
 10
46.9525958991
 20
148.0909212399
 10
47.0308567977
 20
148.6604436207
 10
47.0835826939
 20
149.1529065091
 10
47.1074599421
 20
149.5373676437
 10
47.1009909755
 20
149.7896666545
 10
47.0645781255
 20
149.8939542938
 10
47.0005143082
 20
149.8436777759
 10
46.9128191119
 20
149.6419924218
 10
46.807007829
 20
149.3015753943
 10
46.6897282398
 20
148.8438135851
 10
46.5683452433
 20
148.2974699605
 10
46.4504900968
 20
147.6968749333
 10
46.3435668147
 20
147.0797638315
 10
46.254293958
 20
146.484913202
 10
46.1882799512
 20
145.9497007448
 10
46.1496747679
 20
145.5077546555
  0
LINE
  5
1D8
330
1F
100
AcDbEntity
  8
0
  6
Continuous
 62
     7
370
    25
100
AcDbLine
 10
46.899454633
 20
148.8178892899
 30
0.0
 11
47.0574497825
 21
148.9283963013
 31
0.0
  0
LINE
  5
1D9
330
1F
100
AcDbEntity
  8
0
  6
Continuous
 62
     7
370
    25
100
AcDbLine
 10
46.4756209052
 20
146.5684509743
 30
0.0
 11
46.7975027508
 21
147.187897833
 31
0.0
  0
LINE
  5
1DA
330
1F
100
AcDbEntity
  8
0
  6
Continuous
 62
     7
370
    25
100
AcDbLine
 10
46.9884313291
 20
148.3716442156
 30
0.0
 11
46.899454633
 21
148.8178892899
 31
0.0
  0
SPLINE
  5
1DB
330
1F
100
AcDbEntity
  8
0
  6
Continuous
 62
     7
370
    25
100
AcDbSpline
210
0.0
220
0.0
230
1.0
 70
     8
 71
     3
 72
     9
 73
     5
 74
     0
 42
0.000000001
 43
0.00000001
 40
0.0
 40
0.0
 40
0.0
 40
0.0
 40
0.3640932576243798
 40
1.0
 40
1.0
 40
1.0
 40
1.0
 10
46.61327224433656
 20
146.2794857937366
 30
0.0
 10
46.60528875844648
 20
146.3148487130443
 30
0.0
 10
46.58336172265851
 20
146.4119747063637
 30
0.0
 10
46.51750172299934
 20
146.5076257993238
 30
0.0
 10
46.47562090516325
 20
146.5684509742528
 30
0.0
  0
ARC
  5
1DC
330
1F
100
AcDbEntity
  8
0
  6
Continuous
 62
     7
370
    25
100
AcDbCircle
 10
42.7559650874
 20
147.9151967399
 30
0.0
 40
21.30323065142385
100
AcDbArc
 50
342.9809457625
 51
351.4557706634
  0
LWPOLYLINE
  5
1DD
330
1F
100
AcDbEntity
  8
0
  6
Continuous
 62
     7
370
    25
100
AcDbPolyline
 90
       17
 70
   128
 43
0.0
 10
63.534405513
 20
141.3099187333
 10
63.5533951803
 20
141.3016010914
 10
63.6279149561
 20
141.378672691
 10
63.7254719271
 20
141.6049831453
 10
63.8411752528
 20
141.9691842887
 10
63.9692218623
 20
142.4530128855
 10
64.1031916833
 20
143.0322089139
 10
64.2363670862
 20
143.6777281481
 10
64.3620695567
 20
144.3572015408
 10
64.4739959037
 20
145.0365575868
 10
64.5665339774
 20
145.6817313004
 10
64.6350429973
 20
146.2603694666
 10
64.6760887115
 20
146.7434595245
 10
64.6876115
 20
147.1067740488
 10
64.6690348743
 20
147.3320963699
 10
64.6212892255
 20
147.4081295449
 10
64.6083689874
 20
147.4049220699
  0
LINE
  5
1DE
330
1F
100
AcDbEntity
  8
0
  6
Continuous
 62
     7
370
    25
100
AcDbLine
 10
47.0465737975
 20
148.7919482309
 30
0.0
 11
46.899454633
 21
148.8178892899
 31
0.0
  0
LINE
  5
1DF
330
1F
100
AcDbEntity
  8
0
  6
Continuous
 62
     7
370
    25
100
AcDbLine
 10
46.6728582627
 20
146.533671664
 30
0.0
 11
46.4756209052
 21
146.5684509743
 31
0.0
  0
LWPOLYLINE
  5
1E0
330
1F
100
AcDbEntity
  8
0
  6
Continuous
 62
     7
370
    25
100
AcDbPolyline
 90
       16
 70
   128
 43
0.0
 10
50.4786483592
 20
143.7304288987
 10
50.6656504816
 20
144.585047746
 10
50.8496220803
 20
145.495531978
 10
51.0258003718
 20
146.4383023697
 10
51.1896237379
 20
147.3889405746
 10
51.3368472105
 20
148.3228261489
 10
51.4636579549
 20
149.2157707829
 10
51.5667721277
 20
150.0446478743
 10
51.6435186958
 20
150.7879923004
 10
51.6919102168
 20
151.4265480358
 10
51.7106931305
 20
151.9437803793
 10
51.6993831491
 20
152.3262913245
 10
51.6582708454
 20
152.5641734618
 10
51.5884197897
 20
152.6512670237
 10
51.4916423357
 20
152.5853163469
 10
51.4000802881
 20
152.4306739587
  0
LWPOLYLINE
  5
1E1
330
1F
100
AcDbEntity
  8
0
  6
Continuous
 62
     7
370
    25
100
AcDbPolyline
 90
       10
 70
   128
 43
0.0
 10
49.403125385
 20
141.1053853947
 10
49.4149177915
 20
141.0203956905
 10
49.4705810791
 20
140.8573788497
 10
49.5541654176
 20
140.8467729482
 10
49.6635082757
 20
140.9888527262
 10
49.7957784331
 20
141.2799385283
 10
49.9475467598
 20
141.7124903667
 10
50.1148868001
 20
142.275307225
 10
50.2934623158
 20
142.9538101796
 10
50.4786483592
 20
143.7304288987
  0
LWPOLYLINE
  5
1E2
330
1F
100
AcDbEntity
  8
0
  6
Continuous
 62
     7
370
    25
100
AcDbPolyline
 90
       23
 70
   128
 43
0.0
 10
50.31520311
 20
139.6752874273
 10
50.4187252021
 20
139.7382904682
 10
50.5471136069
 20
139.9541859421
 10
50.6974979883
 20
140.3181412164
 10
50.8665088213
 20
140.8220100123
 10
51.0503667986
 20
141.4545140136
 10
51.2449554747
 20
142.2014961857
 10
51.4459181225
 20
143.0462374258
 10
51.6487583166
 20
143.9698300231
 10
51.8489349282
 20
144.9516014102
 10
52.0419682956
 20
145.9695770312
 10
52.2235370821
 20
147.0009720791
 10
52.389576996
 20
148.0226999986
 10
52.5363720602
 20
149.0118930954
 10
52.6606365687
 20
149.9464082438
 10
52.7595895922
 20
150.8053316641
 10
52.8310164458
 20
151.5694371331
 10
52.8733171171
 20
152.2216199804
 10
52.8855472451
 20
152.7472863812
 10
52.8674292958
 20
153.1346662808
 10
52.8193711883
 20
153.3750927913
 10
52.7424495316
 20
153.4631828684
 10
52.6880826449
 20
153.4455939102
  0
SPLINE
  5
1E3
330
1F
100
AcDbEntity
  8
0
  6
Continuous
 62
     7
370
    25
100
AcDbSpline
210
0.0
220
0.0
230
1.0
 70
     8
 71
     3
 72
     9
 73
     5
 74
     0
 42
0.000000001
 43
0.00000001
 40
0.0
 40
0.0
 40
0.0
 40
0.0
 40
0.7503325273718136
 40
1.0
 40
1.0
 40
1.0
 40
1.0
 10
50.31520310998197
 20
139.675287427333
 30
0.0
 10
50.16827313171936
 20
139.8734647719371
 30
0.0
 10
49.97245331463471
 20
140.137584128855
 30
0.0
 10
49.84367659364202
 20
140.3221324689932
 30
0.0
 10
49.81152523517843
 20
140.3682081866533
 30
0.0
  0
SPLINE
  5
1E4
330
1F
100
AcDbEntity
  8
0
  6
Continuous
 62
     7
370
    25
100
AcDbSpline
210
0.0
220
0.0
230
1.0
 70
    11
 71
     3
 72
    26
 73
    22
 74
     0
 42
0.000000001
 43
0.00000001
 40
0.0
 40
0.0
 40
0.0
 40
0.0
 40
0.0456331174827055
 40
0.091146424704268
 40
0.1396861836162628
 40
0.1952352174386459
 40
0.2567868655513624
 40
0.3195023407073648
 40
0.3782716264461018
 40
0.4320411890994442
 40
0.4825623958175028
 40
0.5316189399770745
 40
0.5803374224961713
 40
0.6295792493487645
 40
0.680400448882449
 40
0.7342112458341532
 40
0.792320325573536
 40
0.8544912879975619
 40
0.9168148557944862
 40
0.9638623608304213
 40
0.9999999999999999
 40
0.9999999999999999
 40
0.9999999999999999
 40
0.9999999999999999
 10
56.72821585297818
 20
151.8230977374584
 30
0.0
 10
56.71882511800339
 20
151.8743560633324
 30
0.0
 10
56.70006830353369
 20
151.9767381357717
 30
0.0
 10
56.54311577136358
 20
152.1249277889535
 30
0.0
 10
56.30507675362598
 20
152.2614318602829
 30
0.0
 10
55.97780308247929
 20
152.382416717175
 30
0.0
 10
55.58697570550661
 20
152.4736504171604
 30
0.0
 10
55.19235961810265
 20
152.5147223066429
 30
0.0
 10
54.8668357499204
 20
152.4911477604441
 30
0.0
 10
54.65205596128423
 20
152.4049009194591
 30
0.0
 10
54.55359735087689
 20
152.2685881933905
 30
0.0
 10
54.56529804315442
 20
152.0972926301799
 30
0.0
 10
54.67954818163967
 20
151.9091549171204
 30
0.0
 10
54.88586472445135
 20
151.7256770875734
 30
0.0
 10
55.17007354349143
 20
151.5688791277167
 30
0.0
 10
55.51500151388048
 20
151.4589695818961
 30
0.0
 10
55.89593556997951
 20
151.4145447758408
 30
0.0
 10
56.26999036486325
 20
151.4495065731788
 30
0.0
 10
56.55125266599489
 20
151.5566949198288
 30
0.0
 10
56.70315032301318
 20
151.6926531314665
 30
0.0
 10
56.7206246029935
 20
151.7835917858738
 30
0.0
 10
56.72821585297819
 20
151.8230977374584
 30
0.0
  0
LWPOLYLINE
  5
1E5
330
1F
100
AcDbEntity
  8
0
  6
Continuous
 62
     7
370
    25
100
AcDbPolyline
 90
       22
 70
   128
 43
0.0
 10
54.8196546382
 20
138.8810313213
 10
54.9231767303
 20
138.9440343622
 10
55.0515651351
 20
139.1599298361
 10
55.2019495165
 20
139.5238851103
 10
55.3709612808
 20
140.0277539063
 10
55.5548192582
 20
140.6602579075
 10
55.7494079343
 20
141.4072400797
 10
55.950370582
 20
142.2519813198
 10
56.1532107762
 20
143.1755739171
 10
56.3533873877
 20
144.1573453042
 10
56.5464198238
 20
145.1753209251
 10
56.7279886103
 20
146.206715973
 10
56.8940285242
 20
147.2284438926
 10
57.0408245197
 20
148.2176351267
 10
57.1650890282
 20
149.1521521378
 10
57.2640420517
 20
150.0110755581
 10
57.3354689053
 20
150.7751810271
 10
57.3777695766
 20
151.4273638743
 10
57.3899987733
 20
151.9530302751
 10
57.3718817553
 20
152.3404101748
 10
57.3238236478
 20
152.5808366853
 10
57.2497602201
 20
152.6685020793
  0
LINE
  5
1E6
330
1F
100
AcDbEntity
  8
0
  6
Continuous
 62
     7
370
    25
100
AcDbLine
 10
54.8196546382
 20
138.8810313213
 30
0.0
 11
50.31520311
 21
139.6752874273
 31
0.0
  0
SPLINE
  5
1E7
330
1F
100
AcDbEntity
  8
0
  6
Continuous
 62
     7
370
    25
100
AcDbSpline
210
0.0
220
0.0
230
1.0
 70
     8
 71
     3
 72
    13
 73
     9
 74
     0
 42
0.000000001
 43
0.00000001
 40
0.0
 40
0.0
 40
0.0
 40
0.0
 40
0.1635391936210447
 40
0.32708495099689
 40
0.4958210609394287
 40
0.6645723318769935
 40
0.831754516020146
 40
1.0
 40
1.0
 40
1.0
 40
1.0
 10
56.5054276606464
 20
144.1835769358546
 30
0.0
 10
56.73702762756839
 20
144.9694981177277
 30
0.0
 10
57.20023685683179
 20
146.5413720249458
 30
0.0
 10
58.09229270948899
 20
148.9887905530886
 30
0.0
 10
59.12593808858532
 20
151.4857006770895
 30
0.0
 10
60.30386926111026
 20
154.0104517618269
 30
0.0
 10
61.59173744748145
 20
156.5264882415839
 30
0.0
 10
62.53212956766793
 20
158.1789442132026
 30
0.0
 10
63.00381614104148
 20
159.0077913272649
 30
0.0
  0
SPLINE
  5
1E8
330
1F
100
AcDbEntity
  8
0
  6
Continuous
 62
     7
370
    25
100
AcDbSpline
210
0.0
220
0.0
230
1.0
 70
     8
 71
     3
 72
    14
 73
    10
 74
     0
 42
0.000000001
 43
0.00000001
 40
0.0
 40
0.0
 40
0.0
 40
0.0
 40
0.1531032585934349
 40
0.3061700957707862
 40
0.4598131611463102
 40
0.6133456253561206
 40
0.7553505835470306
 40
0.8972673955948454
 40
1.0
 40
1.0
 40
1.0
 40
1.0
 10
63.00381614104148
 20
159.0077913272649
 30
0.0
 10
63.17632017283587
 20
159.2750307519357
 30
0.0
 10
63.52128719979895
 20
159.8094460282458
 30
0.0
 10
64.1937643897461
 20
160.4968501215834
 30
0.0
 10
64.96603062130798
 20
161.0660979288993
 30
0.0
 10
65.8083753210296
 20
161.4793763965055
 30
0.0
 10
66.6880122694952
 20
161.7143947016826
 30
0.0
 10
67.49296356497197
 20
161.7824806598338
 30
0.0
 10
67.99564614671495
 20
161.7160184227543
 30
0.0
 10
68.20673142768676
 20
161.688109757331
 30
0.0
  0
ARC
  5
1E9
330
1F
100
AcDbEntity
  8
0
  6
Continuous
 62
     7
370
    25
100
AcDbCircle
 10
-376.4800520506
 20
240.8071654569
 30
0.0
 40
451.6704112237479
100
AcDbArc
 50
349.1122401689
 51
349.9114552667
  0
SPLINE
  5
1EA
330
1F
100
AcDbEntity
  8
0
  6
Continuous
 62
     7
370
    25
100
AcDbSpline
210
0.0
220
0.0
230
1.0
 70
     8
 71
     3
 72
    10
 73
     6
 74
     0
 42
0.000000001
 43
0.00000001
 40
0.0
 40
0.0
 40
0.0
 40
0.0
 40
0.4116168118912636
 40
0.8227993245434041
 40
1.0
 40
1.0
 40
1.0
 40
1.0
 10
67.05987938888605
 20
155.4931010026008
 30
0.0
 10
66.77768665435516
 20
155.2682845105333
 30
0.0
 10
66.21359892845247
 20
154.8188887315578
 30
0.0
 10
65.79282039936811
 20
154.0362963587626
 30
0.0
 10
65.67338003051891
 20
153.5507045753451
 30
0.0
 10
65.63740872055526
 20
153.4044611174137
 30
0.0
  0
ARC
  5
1EB
330
1F
100
AcDbEntity
  8
0
  6
Continuous
 62
     7
370
    25
100
AcDbCircle
 10
-293.4292478715
 20
224.2128696613
 30
0.0
 40
365.9818227681832
100
AcDbArc
 50
347.173381803
 51
348.8443368798
  0
SPLINE
  5
1EC
330
1F
100
AcDbEntity
  8
0
  6
Continuous
 62
     7
370
    25
100
AcDbSpline
210
0.0
220
0.0
230
1.0
 70
     8
 71
     3
 72
    13
 73
     9
 74
     0
 42
0.000000001
 43
0.00000001
 40
0.0
 40
0.0
 40
0.0
 40
0.0
 40
0.1027434899380442
 40
0.2781760603579706
 40
0.4591763175450511
 40
0.64019277169925
 40
0.8195262684914653
 40
1.0
 40
1.0
 40
1.0
 40
1.0
 10
56.99264068365331
 20
152.7068185526401
 30
0.0
 10
57.12947145401495
 20
153.1544718176889
 30
0.0
 10
57.49993818293276
 20
154.3664845861159
 30
0.0
 10
58.27308041675166
 20
156.2054921440926
 30
0.0
 10
59.29156054236094
 20
158.2150144769409
 30
0.0
 10
60.45327308830607
 20
160.0493154496339
 30
0.0
 10
61.71979433557391
 20
161.7105446575041
 30
0.0
 10
62.64277418563294
 20
162.6570914379673
 30
0.0
 10
63.10572657943006
 20
163.1318646389514
 30
0.0
  0
ARC
  5
1ED
330
1F
100
AcDbEntity
  8
0
  6
Continuous
 62
     7
370
    25
100
AcDbCircle
 10
92.5902890941
 20
134.1322366451
 30
0.0
 40
37.45859936397905
100
AcDbArc
 50
164.4349657292
 51
179.2337374327
  0
SPLINE
  5
1EE
330
1F
100
AcDbEntity
  8
0
  6
Continuous
 62
     7
370
    25
100
AcDbSpline
210
0.0
220
0.0
230
1.0
 70
     8
 71
     3
 72
     9
 73
     5
 74
     0
 42
0.000000001
 43
0.00000001
 40
0.0
 40
0.0
 40
0.0
 40
0.0
 40
0.4952263142994702
 40
1.0
 40
1.0
 40
1.0
 40
1.0
 10
55.13503957748647
 20
134.6331857051224
 30
0.0
 10
55.13315583598434
 20
134.3346841040471
 30
0.0
 10
55.12935203669554
 20
133.7319261478234
 30
0.0
 10
55.14939609183543
 20
133.2188753361916
 30
0.0
 10
55.15951380342479
 20
132.9599007870525
 30
0.0
  0
SPLINE
  5
1EF
330
1F
100
AcDbEntity
  8
0
  6
Continuous
 62
     7
370
    25
100
AcDbSpline
210
0.0
220
0.0
230
1.0
 70
     8
 71
     3
 72
    12
 73
     8
 74
     0
 42
0.000000001
 43
0.00000001
 40
0.0
 40
0.0
 40
0.0
 40
0.0
 40
0.2178201891177314
 40
0.4355947810873647
 40
0.6493839732018493
 40
0.8631387103545468
 40
1.0
 40
1.0
 40
1.0
 40
1.0
 10
57.19145477026935
 20
147.6870476174623
 30
0.0
 10
57.11216954479939
 20
147.3210059013773
 30
0.0
 10
56.95361569094436
 20
146.5889990941446
 30
0.0
 10
56.69456519577905
 20
145.4533873445563
 30
0.0
 10
56.43896421205496
 20
144.3369489080419
 30
0.0
 10
56.22078230986551
 20
143.380463628626
 30
0.0
 10
56.10161777039192
 20
142.8403438094708
 30
0.0
 10
56.05510246217485
 20
142.6295106205613
 30
0.0
  0
SPLINE
  5
1F0
330
1F
100
AcDbEntity
  8
0
  6
Continuous
 62
     7
370
    25
100
AcDbSpline
210
0.0
220
0.0
230
1.0
 70
     8
 71
     3
 72
    15
 73
    11
 74
     0
 42
0.000000001
 43
0.00000001
 40
0.0
 40
0.0
 40
0.0
 40
0.0
 40
0.092163543455073
 40
0.2124093062655284
 40
0.3326635434345949
 40
0.4559900201962321
 40
0.5793167180430554
 40
0.7036808197192668
 40
0.8280365545853274
 40
1.0
 40
1.0
 40
1.0
 40
1.0
 10
57.41182804316517
 20
152.5420210230619
 30
0.0
 10
57.45969524972742
 20
152.563315863319
 30
0.0
 10
57.57001479428481
 20
152.6123940788093
 30
0.0
 10
57.69185863033977
 20
152.4681020328975
 30
0.0
 10
57.77661752727053
 20
152.1508959649547
 30
0.0
 10
57.79865348341808
 20
151.6446180775294
 30
0.0
 10
57.75916963933198
 20
150.9712332166565
 30
0.0
 10
57.65464061743238
 20
150.1420614228879
 30
0.0
 10
57.47668332515418
 20
149.0689134436067
 30
0.0
 10
57.29619741564199
 20
148.1944984506246
 30
0.0
 10
57.19145570159193
 20
147.6870476174623
 30
0.0
  0
SPLINE
  5
1F1
330
1F
100
AcDbEntity
  8
0
  6
Continuous
 62
     7
370
    25
100
AcDbSpline
210
0.0
220
0.0
230
1.0
 70
     8
 71
     3
 72
    10
 73
     6
 74
     0
 42
0.000000001
 43
0.00000001
 40
0.0
 40
0.0
 40
0.0
 40
0.0
 40
0.106667639610629
 40
0.6318063099146255
 40
1.0
 40
1.0
 40
1.0
 40
1.0
 10
55.24945348710056
 20
139.0308149996668
 30
0.0
 10
55.24810575768505
 20
138.9973623288571
 30
0.0
 10
55.24012298097897
 20
138.799217806505
 30
0.0
 10
55.22781602439236
 20
138.463705394747
 30
0.0
 10
55.22156792222543
 20
138.2142623198317
 30
0.0
 10
55.21899271965261
 20
138.1114524695546
 30
0.0
  0
SPLINE
  5
1F2
330
1F
100
AcDbEntity
  8
0
  6
Continuous
 62
     7
370
    25
100
AcDbSpline
210
0.0
220
0.0
230
1.0
 70
     8
 71
     3
 72
    14
 73
    10
 74
     0
 42
0.000000001
 43
0.00000001
 40
0.0
 40
0.0
 40
0.0
 40
0.0
 40
0.1531035750141623
 40
0.306170258880651
 40
0.459813322395527
 40
0.6133457823875678
 40
0.7553506337114567
 40
0.8972675138252064
 40
1.0
 40
1.0
 40
1.0
 40
1.0
 10
63.10572657943006
 20
163.1318646389514
 30
0.0
 10
63.27520596561974
 20
163.2767196806271
 30
0.0
 10
63.61412390100975
 20
163.5663948603602
 30
0.0
 10
64.27794409366638
 20
163.9033794279689
 30
0.0
 10
65.04236871132711
 20
164.1553317853989
 30
0.0
 10
65.8782721548676
 20
164.3079670639773
 30
0.0
 10
66.75334281170231
 20
164.3581552501174
 30
0.0
 10
67.55579652913336
 20
164.3252149653161
 30
0.0
 10
68.05821549372297
 20
164.2480614405191
 30
0.0
 10
68.26918987766142
 20
164.215663345483
 30
0.0
  0
LINE
  5
1F3
330
1F
100
AcDbEntity
  8
0
  6
Continuous
 62
     7
370
    25
100
AcDbLine
 10
68.2691898777
 20
164.2156633455
 30
0.0
 11
68.2067314277
 21
161.6881097573
 31
0.0
  0
ARC
  5
1F4
330
1F
100
AcDbEntity
  8
0
  6
Continuous
 62
     7
370
    25
100
AcDbCircle
 10
63.7579738226
 20
134.3186931059
 30
0.0
 40
2.256786633610562
100
AcDbArc
 50
167.1707037125
 51
201.7526746338
  0
LINE
  5
1F5
330
1F
100
AcDbEntity
  8
0
  6
Continuous
 62
     7
370
    25
100
AcDbLine
 10
63.4199827558
 20
142.9643546137
 30
0.0
 11
61.5575257337
 21
134.8198059853
 31
0.0
  0
LINE
  5
1F6
330
1F
100
AcDbEntity
  8
0
  6
Continuous
 62
     7
370
    25
100
AcDbLine
 10
62.4670451155
 20
137.035707375
 30
0.0
 11
62.5158454871
 21
139.0105494204
 31
0.0
  0
SPLINE
  5
1F7
330
1F
100
AcDbEntity
  8
0
  6
Continuous
 62
     7
370
    25
100
AcDbSpline
210
0.0
220
0.0
230
1.0
 70
     8
 71
     3
 72
    13
 73
     9
 74
     0
 42
0.000000001
 43
0.00000001
 40
0.0
 40
0.0
 40
0.0
 40
0.0
 40
0.0349080821005014
 40
0.1421066366968786
 40
0.2791073324555408
 40
0.5027386934997272
 40
0.9058623066724025
 40
1.0
 40
1.0
 40
1.0
 40
1.0
 10
62.68093824595447
 20
136.5610709320277
 30
0.0
 10
62.67452021717665
 20
136.5658124531204
 30
0.0
 10
62.64839318787689
 20
136.5851146196896
 30
0.0
 10
62.60289555101176
 20
136.6366813196892
 30
0.0
 10
62.54424764633791
 20
136.723186240085
 30
0.0
 10
62.48670724447037
 20
136.857197893109
 30
0.0
 10
62.46704529630396
 20
136.9632004187813
 30
0.0
 10
62.4670451443076
 20
137.0241658647555
 30
0.0
 10
62.46704511553283
 20
137.035707374987
 30
0.0
  0
SPLINE
  5
1F8
330
1F
100
AcDbEntity
  8
0
  6
Continuous
 62
     7
370
    25
100
AcDbSpline
210
0.0
220
0.0
230
1.0
 70
     8
 71
     3
 72
    11
 73
     7
 74
     0
 42
0.000000001
 43
0.00000001
 40
0.0
 40
0.0
 40
0.0
 40
0.0
 40
0.0151003446140092
 40
0.5714989605325554
 40
0.8657456469517026
 40
1.0
 40
1.0
 40
1.0
 40
1.0
 10
62.43052609473701
 20
135.5578954237968
 30
0.0
 10
62.4305629493545
 20
135.5592286191679
 30
0.0
 10
62.43195777683184
 20
135.609685730461
 30
0.0
 10
62.44878847683967
 20
135.6729398865072
 30
0.0
 10
62.49312111298284
 20
135.7197925565633
 30
0.0
 10
62.52993055227779
 20
135.7194683214325
 30
0.0
 10
62.54146337718006
 20
135.7193667347998
 30
0.0
  0
LINE
  5
1F9
330
1F
100
AcDbEntity
  8
0
  6
Continuous
 62
     7
370
    25
100
AcDbLine
 10
62.355888041
 20
132.5374356377
 30
0.0
 11
62.4305260947
 21
135.5578954238
 31
0.0
  0
SPLINE
  5
1FA
330
1F
100
AcDbEntity
  8
0
  6
Continuous
 62
     7
370
    25
100
AcDbSpline
210
0.0
220
0.0
230
1.0
 70
     8
 71
     3
 72
    10
 73
     6
 74
     0
 42
0.000000001
 43
0.00000001
 40
0.0
 40
0.0
 40
0.0
 40
0.0
 40
0.1480673522197928
 40
0.9078078434826273
 40
1.0
 40
1.0
 40
1.0
 40
1.0
 10
62.35588804096218
 20
132.5374356377393
 30
0.0
 10
62.31104532013281
 20
132.576510771457
 30
0.0
 10
62.03611250691166
 20
132.8160822390512
 30
0.0
 10
61.80246157607863
 20
133.1419521701663
 30
0.0
 10
61.67561465753089
 20
133.4490892505757
 30
0.0
 10
61.66188787877794
 20
133.4823261852831
 30
0.0
  0
SPLINE
  5
1FB
330
1F
100
AcDbEntity
  8
0
  6
Continuous
 62
     7
370
    25
100
AcDbSpline
210
0.0
220
0.0
230
1.0
 70
     8
 71
     3
 72
    14
 73
    10
 74
     0
 42
0.000000001
 43
0.00000001
 40
0.0
 40
0.0
 40
0.0
 40
0.0
 40
0.2331515883166462
 40
0.3470366208013806
 40
0.4619511736928532
 40
0.5617290763808389
 40
0.7193113341186667
 40
0.9602592128125501
 40
1.0
 40
1.0
 40
1.0
 40
1.0
 10
62.10156806022163
 20
137.1989118773014
 30
0.0
 10
62.20053351505746
 20
137.0042056215219
 30
0.0
 10
62.34783955431829
 20
136.7143933086724
 30
0.0
 10
62.47869140539767
 20
136.3907026671426
 30
0.0
 10
62.4939632346598
 20
136.211567743293
 30
0.0
 10
62.41396681269772
 20
136.0998802777377
 30
0.0
 10
62.22265841974244
 20
136.0909824711196
 30
0.0
 10
62.01092660123972
 20
136.1593140427119
 30
0.0
 10
61.91713177100795
 20
136.3125955332081
 30
0.0
 10
61.90385200292106
 20
136.3342976103991
 30
0.0
  0
SPLINE
  5
1FC
330
1F
100
AcDbEntity
  8
0
  6
Continuous
 62
     7
370
    25
100
AcDbSpline
210
0.0
220
0.0
230
1.0
 70
     8
 71
     3
 72
    12
 73
     8
 74
     0
 42
0.000000001
 43
0.00000001
 40
0.0
 40
0.0
 40
0.0
 40
0.0
 40
0.1711725839882458
 40
0.3484636137791056
 40
0.5597072363896767
 40
0.7770162125989948
 40
1.0
 40
1.0
 40
1.0
 40
1.0
 10
55.15951380342479
 20
132.9599007870525
 30
0.0
 10
55.18897708345577
 20
132.7068096205397
 30
0.0
 10
55.24895678811504
 20
132.1915807185522
 30
0.0
 10
55.5591649703877
 20
131.5406521326041
 30
0.0
 10
56.04170301738433
 20
131.0023860202965
 30
0.0
 10
56.69473843481433
 20
130.5925357786681
 30
0.0
 10
57.23891680779809
 20
130.487071469781
 30
0.0
 10
57.51451287627454
 20
130.4336596652389
 30
0.0
  0
ARC
  5
1FD
330
1F
100
AcDbEntity
  8
0
  6
Continuous
 62
     7
370
    25
100
AcDbCircle
 10
55.7184918302
 20
133.3660466218
 30
0.0
 40
6.688918045690937
100
AcDbArc
 50
327.0943374771
 51
352.8840233679
  0
LINE
  5
1FE
330
1F
100
AcDbEntity
  8
0
  6
Continuous
 62
     7
370
    25
100
AcDbLine
 10
64.9084574191
 20
147.1337172109
 30
0.0
 11
66.9521633184
 21
155.394757064
 31
0.0
  0
LINE
  5
1FF
330
1F
100
AcDbEntity
  8
0
  6
Continuous
 62
     7
370
    25
100
AcDbLine
 10
67.3400873432
 20
156.962819295
 30
0.0
 11
67.7937867234
 21
158.7967573571
 31
0.0
  0
LWPOLYLINE
  5
200
330
1F
100
AcDbEntity
  8
0
  6
Continuous
 62
     7
370
    25
100
AcDbPolyline
 90
        9
 70
   128
 43
0.0
 10
64.8935157454
 20
147.4076731968
 10
64.8728990576
 20
147.28407179
 10
64.857370185
 20
147.1700890827
 10
64.8484704664
 20
147.0770387817
 10
64.8470823301
 20
147.0141540188
 10
64.8533440775
 20
146.9876783806
 10
64.8666340506
 20
147.0002344716
 10
64.8856339625
 20
147.0505799073
 10
64.9084574191
 20
147.1337172109
  0
LINE
  5
201
330
1F
100
AcDbEntity
  8
0
  6
Continuous
 62
     7
370
    25
100
AcDbLine
 10
66.2060510016
 20
154.6576301474
 30
0.0
 11
64.8935157454
 21
147.4076731968
 31
0.0
  0
LINE
  5
202
330
1F
100
AcDbEntity
  8
0
  6
Continuous
 62
     7
370
    25
100
AcDbLine
 10
70.5313780866
 20
174.2392423469
 30
0.0
 11
68.0588022454
 21
164.2446274776
 31
0.0
  0
LWPOLYLINE
  5
203
330
1F
100
AcDbEntity
  8
0
  6
Continuous
 62
     7
370
    25
100
AcDbPolyline
 90
        9
 70
   128
 43
0.0
 10
70.5463195858
 20
173.9652844984
 10
70.5669362445
 20
174.0888859052
 10
70.582465168
 20
174.2028686124
 10
70.5913652722
 20
174.2959189135
 10
70.5927533102
 20
174.3588018137
 10
70.5864915338
 20
174.3852811772
 10
70.5732013569
 20
174.3727232236
 10
70.5542017034
 20
174.3223796505
 10
70.5313780866
 20
174.2392423469
  0
LINE
  5
204
330
1F
100
AcDbEntity
  8
0
  6
Continuous
 62
     7
370
    25
100
AcDbLine
 10
67.8401460985
 20
159.0173876751
 30
0.0
 11
70.5463195858
 21
173.9652844984
 31
0.0
  0
ARC
  5
205
330
1F
100
AcDbEntity
  8
0
  6
Continuous
 62
     7
370
    25
100
AcDbCircle
 10
64.2304033072
 20
159.6606898153
 30
0.0
 40
3.666617059822608
100
AcDbArc
 50
346.3717608682
 51
349.8952460414
  0
LWPOLYLINE
  5
206
330
1F
100
AcDbEntity
  8
0
  6
Continuous
 62
     7
370
    25
100
AcDbPolyline
 90
        9
 70
   128
 43
0.0
 10
70.5447870654
 20
173.9666181523
 10
70.5643728919
 20
174.0840393025
 10
70.5791253689
 20
174.1923223156
 10
70.5875804682
 20
174.2807197291
 10
70.5888991045
 20
174.3404622096
 10
70.5829504162
 20
174.3656153697
 10
70.5703247489
 20
174.3536832649
 10
70.5522750735
 20
174.305857988
 10
70.5305926397
 20
174.2268743831
  0
LINE
  5
207
330
1F
100
AcDbEntity
  8
0
  6
Continuous
 62
     7
370
    25
100
AcDbLine
 10
70.5305926397
 20
174.2268743831
 30
0.0
 11
68.0610008652
 21
164.244325729
 31
0.0
  0
LINE
  5
208
330
1F
100
AcDbEntity
  8
0
  6
Continuous
 62
     7
370
    25
100
AcDbLine
 10
66.208695492
 20
154.6624376345
 30
0.0
 11
64.8950482367
 21
147.4063395429
 31
0.0
  0
LWPOLYLINE
  5
209
330
1F
100
AcDbEntity
  8
0
  6
Continuous
 62
     7
370
    25
100
AcDbPolyline
 90
        9
 70
   128
 43
0.0
 10
64.8950482367
 20
147.4063395429
 10
64.875462523
 20
147.2889183927
 10
64.8607103734
 20
147.1806353796
 10
64.8522548957
 20
147.0922379661
 10
64.8509366086
 20
147.0324973482
 10
64.8568849659
 20
147.0073441881
 10
64.869510906
 20
147.0192744303
 10
64.8875604032
 20
147.0671015698
 10
64.9092429897
 20
147.1460833121
  0
LINE
  5
20A
330
1F
100
AcDbEntity
  8
0
  6
Continuous
 62
     7
370
    25
100
AcDbLine
 10
64.9092429897
 20
147.1460833121
 30
0.0
 11
66.9492263927
 21
155.3920767176
 31
0.0
  0
LINE
  5
20B
330
1F
100
AcDbEntity
  8
0
  6
Continuous
 62
     7
370
    25
100
AcDbLine
 10
67.3474231383
 20
157.0016610343
 30
0.0
 11
67.7945720612
 21
158.8091215956
 31
0.0
  0
ARC
  5
20C
330
1F
100
AcDbEntity
  8
0
  6
Continuous
 62
     7
370
    25
100
AcDbCircle
 10
64.409529785
 20
159.6298170573
 30
0.0
 40
3.483109566537824
100
AcDbArc
 50
346.3717397678
 51
349.8954183696
  0
LINE
  5
20D
330
1F
100
AcDbEntity
  8
0
  6
Continuous
 62
     7
370
    25
100
AcDbLine
 10
67.8386133744
 20
159.018721329
 30
0.0
 11
70.5447870654
 21
173.9666181523
 31
0.0
  0
ARC
  5
20E
330
1F
100
AcDbEntity
  8
0
  6
Continuous
 62
     7
370
    25
100
AcDbCircle
 10
74.2041982751
 20
173.4473254782
 30
0.0
 40
1.057064851929575
100
AcDbArc
 50
343.2036707421
 51
6.2524758928
  0
LINE
  5
20F
330
1F
100
AcDbEntity
  8
0
  6
Continuous
 62
     7
370
    25
100
AcDbLine
 10
72.5099928325
 20
158.193968134
 30
0.0
 11
75.2161666399
 21
173.1418649572
 31
0.0
  0
LINE
  5
210
330
1F
100
AcDbEntity
  8
0
  6
Continuous
 62
     7
370
    25
100
AcDbLine
 10
70.575797706
 20
174.1652953345
 30
0.0
 11
70.5305926397
 21
174.2268743831
 31
0.0
  0
ARC
  5
211
330
1F
100
AcDbEntity
  8
0
  6
Continuous
 62
     7
370
    25
100
AcDbCircle
 10
68.9000265293
 20
158.8373080647
 30
0.0
 40
3.666843734990687
100
AcDbArc
 50
346.371982042
 51
349.8952774552
  0
LINE
  5
212
330
1F
100
AcDbEntity
  8
0
  6
Continuous
 62
     7
370
    25
100
AcDbLine
 10
72.3552772191
 20
157.5353405345
 30
0.0
 11
72.4636335738
 21
157.9733359534
 31
0.0
  0
LWPOLYLINE
  5
213
330
1F
100
AcDbEntity
  8
0
  6
Continuous
 62
     7
370
    25
100
AcDbPolyline
 90
        9
 70
   128
 43
0.0
 10
68.9132421624
 20
165.9343856293
 10
68.9647837656
 20
166.243391009
 10
69.00360618
 20
166.5283496398
 10
69.0258564076
 20
166.7609716672
 10
69.0293265155
 20
166.9181826431
 10
69.0136720308
 20
166.9843773264
 10
68.9804466322
 20
166.9529843051
 10
68.9329474347
 20
166.8271179217
 10
68.8758884438
 20
166.6192765254
  0
LINE
  5
214
330
1F
100
AcDbEntity
  8
0
  6
Continuous
 62
     7
370
    25
100
AcDbLine
 10
68.2165692209
 20
162.0862240809
 30
0.0
 11
68.9132421624
 21
165.9343856293
 31
0.0
  0
LINE
  5
215
330
1F
100
AcDbEntity
  8
0
  6
Continuous
 62
     7
370
    25
100
AcDbLine
 10
66.5639470911
 20
154.7536830324
 30
0.0
 11
66.6555487199
 21
155.1239545363
 31
0.0
  0
LWPOLYLINE
  5
216
330
1F
100
AcDbEntity
  8
0
  6
Continuous
 62
     7
370
    25
100
AcDbPolyline
 90
        8
 70
   128
 43
0.0
 10
66.4464416562
 20
154.9270450044
 10
66.4362292385
 20
154.844609918
 10
66.4139790109
 20
154.6119841653
 10
66.410508903
 20
154.4547750521
 10
66.4261635041
 20
154.3885822314
 10
66.4593889026
 20
154.4199752528
 10
66.5068882166
 20
154.5458397734
 10
66.5639470911
 20
154.7536830324
  0
LINE
  5
217
330
1F
100
AcDbEntity
  8
0
  6
Continuous
 62
     7
370
    25
100
AcDbLine
 10
68.8758884438
 20
166.6192765254
 30
0.0
 11
68.2678506358
 21
164.1614752728
 31
0.0
  0
LINE
  5
218
330
1F
100
AcDbEntity
  8
0
  6
Continuous
 62
     7
370
    25
100
AcDbLine
 10
64.9688969946
 20
147.3872157651
 30
0.0
 11
64.8950482367
 21
147.4063395429
 31
0.0
  0
LINE
  5
219
330
1F
100
AcDbEntity
  8
0
  6
Continuous
 62
     7
370
    25
100
AcDbLine
 10
72.3552772191
 20
157.5353405345
 30
0.0
 11
72.4875558747
 21
158.0700351763
 31
0.0
  0
LINE
  5
21A
330
1F
100
AcDbEntity
  8
0
  6
Continuous
 62
     7
370
    25
100
AcDbLine
 10
72.4875558747
 20
158.0700351763
 30
0.0
 11
75.1597429274
 21
172.8302034456
 31
0.0
  0
LINE
  5
21B
330
1F
100
AcDbEntity
  8
0
  6
Continuous
 62
     7
370
    25
100
AcDbLine
 10
75.3130092865
 20
157.5718316156
 30
0.0
 11
77.9851968049
 21
172.3319980222
 31
0.0
  0
LINE
  5
21C
330
1F
100
AcDbEntity
  8
0
  6
Continuous
 62
     7
370
    25
100
AcDbLine
 10
75.3130092865
 20
157.5718316156
 30
0.0
 11
72.4875558747
 21
158.0700351763
 31
0.0
  0
LINE
  5
21D
330
1F
100
AcDbEntity
  8
0
  6
Continuous
 62
     7
370
    25
100
AcDbLine
 10
78.2565269268
 20
172.3000983614
 30
0.0
 11
75.601167476
 21
157.632881673
 31
0.0
  0
LINE
  5
21E
330
1F
100
AcDbEntity
  8
0
  6
Continuous
 62
     7
370
    25
100
AcDbLine
 10
75.601167476
 20
157.632881673
 30
0.0
 11
75.3130092865
 21
157.5718316156
 31
0.0
  0
ARC
  5
21F
330
1F
100
AcDbEntity
  8
0
  6
Continuous
 62
     7
370
    25
100
AcDbCircle
 10
76.7203555104
 20
172.7138123872
 30
0.0
 40
1.321213725913386
100
AcDbArc
 50
343.2026460277
 51
6.2535257675
  0
ARC
  5
220
330
1F
100
AcDbEntity
  8
0
  6
Continuous
 62
     7
370
    25
100
AcDbCircle
 10
77.5033858206
 20
172.4805250664
 30
0.0
 40
0.7744516264327902
100
AcDbArc
 50
346.527802494
 51
2.1345306628
  0
LINE
  5
221
330
1F
100
AcDbEntity
  8
0
  6
Continuous
 62
     7
370
    25
100
AcDbLine
 10
75.1807307473
 20
157.0371369738
 30
0.0
 11
75.3130092865
 21
157.5718316156
 31
0.0
  0
LINE
  5
222
330
1F
100
AcDbEntity
  8
0
  6
Continuous
 62
     7
370
    25
100
AcDbLine
 10
75.601167476
 20
157.632881673
 30
0.0
 11
75.4423723204
 21
156.9910011161
 31
0.0
  0
LINE
  5
223
330
1F
100
AcDbEntity
  8
0
  6
Continuous
 62
     7
370
    25
100
AcDbLine
 10
64.3656458354
 20
138.3439049962
 30
0.0
 11
102.620538289
 21
131.5985358227
 31
0.0
  0
LINE
  5
224
330
1F
100
AcDbEntity
  8
0
  6
Continuous
 62
     7
370
    25
100
AcDbLine
 10
67.9797483256
 20
158.3068630564
 30
0.0
 11
64.3656458354
 21
138.3439049962
 31
0.0
  0
LINE
  5
225
330
1F
100
AcDbEntity
  8
0
  6
Continuous
 62
     7
370
    25
100
AcDbLine
 10
67.9797483256
 20
158.3068630564
 30
0.0
 11
75.4750487043
 21
156.9852399546
 31
0.0
  0
LINE
  5
226
330
1F
100
AcDbEntity
  8
0
  6
Continuous
 62
     7
370
    25
100
AcDbLine
 10
75.4750487043
 20
156.9852399546
 30
0.0
 11
75.5680976084
 21
157.4992070812
 31
0.0
  0
LINE
  5
227
330
1F
100
AcDbEntity
  8
0
  6
Continuous
 62
     7
370
    25
100
AcDbLine
 10
83.4395307696
 20
171.2061035353
 30
0.0
 11
78.2249313428
 21
172.1255796868
 31
0.0
  0
ARC
  5
228
330
1F
100
AcDbEntity
  8
0
  6
Continuous
 62
     7
370
    25
100
AcDbCircle
 10
70.620536769
 20
141.8859164137
 30
0.0
 40
32.00000000000001
100
AcDbArc
 50
0.0
 51
66.384709287
  0
LINE
  5
229
330
1F
100
AcDbEntity
  8
0
  6
Continuous
 62
     7
370
    25
100
AcDbLine
 10
102.620538289
 20
141.8859166
 30
0.0
 11
102.620538289
 21
131.5985358227
 31
0.0
  0
ELLIPSE
  5
22A
330
1F
100
AcDbEntity
  8
0
  6
Continuous
 62
     7
370
    25
100
AcDbEllipse
 10
87.7964862047
 20
148.461740811
 30
0.0
 11
2.050857248096619
 21
3.051404383173775
 31
0.0
210
0.0
220
0.0
230
1.0
 40
0.8118275499
 41
0.0
 42
6.283185307179586
  0
LINE
  5
22B
330
1F
100
AcDbEntity
  8
0
  6
Continuous
 62
     7
370
    25
100
AcDbLine
 10
78.2436919047
 20
172.229206087
 30
0.0
 11
83.0157370886
 21
171.3877635914
 31
0.0
  0
ARC
  5
22C
330
1F
100
AcDbEntity
  8
0
  6
Continuous
 62
     7
370
    25
100
AcDbCircle
 10
70.620536769
 20
141.8859164137
 30
0.0
 40
32.00000000000001
100
AcDbArc
 50
66.384709287
 51
67.2102909913
  0
LWPOLYLINE
  5
22D
330
1F
100
AcDbEntity
  8
0
  6
Continuous
 62
     7
370
    25
100
AcDbPolyline
 90
        3
 70
   128
 43
0.0
 10
64.8218635118
 20
147.3731714207
 10
64.8675751521
 20
147.2861896175
 10
64.8706126606
 20
147.2688483912
  0
ARC
  5
22E
330
1F
100
AcDbEntity
  8
0
  6
Continuous
 62
     7
370
    25
100
AcDbCircle
 10
47.3580394047
 20
147.5024214912
 30
0.0
 40
17.53329535899914
100
AcDbArc
 50
339.1690168463
 51
358.2990756264
  0
LWPOLYLINE
  5
22F
330
1F
100
AcDbEntity
  8
0
  6
Continuous
 62
     7
370
    25
100
AcDbPolyline
 90
       13
 70
   128
 43
0.0
 10
62.4793627879
 20
137.5341954547
 10
62.5057983792
 20
137.6349189225
 10
62.6192288122
 20
138.0183434952
 10
62.7143494433
 20
138.2551751006
 10
62.7846791989
 20
138.3292739186
 10
62.8254240958
 20
138.2355893868
 10
62.8338078617
 20
137.9805075842
 10
62.8092586643
 20
137.5814107153
 10
62.7534500903
 20
137.0654971245
 10
62.6701851955
 20
136.4679251704
 10
62.565137597
 20
135.8294183295
 10
62.4454673028
 20
135.1934898551
 10
62.4182084224
 20
135.059407344
  0
LINE
  5
230
330
1F
100
AcDbEntity
  8
0
  6
Continuous
 62
     7
370
    25
100
AcDbLine
 10
65.112845937
 20
146.9415723253
 30
0.0
 11
64.9451901785
 21
146.01550241
 31
0.0
  0
LWPOLYLINE
  5
231
330
1F
100
AcDbEntity
  8
0
  6
Continuous
 62
     7
370
    25
100
AcDbPolyline
 90
       12
 70
   128
 43
0.0
 10
64.9451901785
 20
146.01550241
 10
64.8464541531
 20
145.428448813
 10
64.7687539107
 20
144.8776152823
 10
64.7183837949
 20
144.4076270703
 10
64.6994243956
 20
144.0565594378
 10
64.7134119293
 20
143.8528531137
 10
64.7592129765
 20
143.8130120653
 10
64.8331171481
 20
143.9402642566
 10
64.9291369712
 20
144.2242990154
 10
65.0394940397
 20
144.6421070862
 10
65.1552471912
 20
145.1598386187
 10
65.2670189387
 20
145.735552432
  0
LINE
  5
232
330
1F
100
AcDbEntity
  8
0
  6
Continuous
 62
     7
370
    25
100
AcDbLine
 10
65.2670189387
 20
145.735552432
 30
0.0
 11
66.351066774
 21
151.7234294582
 31
0.0
  0
LINE
  5
233
330
1F
100
AcDbEntity
  8
0
  6
Continuous
 62
     7
370
    25
100
AcDbLine
 10
64.3656458354
 20
138.3439049962
 30
0.0
 11
55.566774646
 21
101.7158198077
 31
0.0
  0
LINE
  5
234
330
1F
100
AcDbEntity
  8
0
  6
Continuous
 62
     7
370
    25
100
AcDbLine
 10
55.5540024024
 20
101.7227723014
 30
0.0
 11
55.5667750456
 21
101.7158195947
 31
0.0
  0
LINE
  5
235
330
1F
100
AcDbEntity
  8
0
  6
Continuous
 62
     7
370
    25
100
AcDbLine
 10
66.351066774
 20
151.7234294582
 30
0.0
 11
67.9797483256
 21
158.3068630564
 31
0.0
  0
SPLINE
  5
236
330
1F
100
AcDbEntity
  8
0
  6
Continuous
 62
     7
370
    25
100
AcDbSpline
210
0.0
220
0.0
230
1.0
 70
     8
 71
     3
 72
    12
 73
     8
 74
     0
 42
0.000000001
 43
0.00000001
 40
0.0
 40
0.0
 40
0.0
 40
0.0
 40
0.5
 40
0.5
 40
0.75
 40
0.75
 40
1.0
 40
1.0
 40
1.0
 40
1.0
 10
85.17469459099522
 20
101.449801972105
 30
0.0
 10
85.65700104054226
 20
101.7010740020766
 30
0.0
 10
86.16082209938759
 20
101.9199313105416
 30
0.0
 10
86.94146187038965
 20
102.2106896660509
 30
0.0
 10
87.20628091408369
 20
102.3007695858975
 30
0.0
 10
87.74296706481755
 20
102.4604993916415
 30
0.0
 10
88.01515960019715
 20
102.5308752729725
 30
0.0
 10
88.29469439370422
 20
102.5831522923069
 30
0.0
  0
ARC
  5
237
330
1F
100
AcDbEntity
  8
0
  6
Continuous
 62
     7
370
    25
100
AcDbCircle
 10
70.620536769
 20
129.3859164137
 30
0.0
 40
31.50000000000002
100
AcDbArc
 50
241.4518454962
 51
297.5186139499
  0
LINE
  5
238
330
1F
100
AcDbEntity
  8
0
  6
Continuous
 62
     7
370
    25
100
AcDbLine
 10
102.620538289
 20
131.5985358227
 30
0.0
 11
102.620538289
 21
129.3859164137
 31
0.0
  0
ARC
  5
239
330
1F
100
AcDbEntity
  8
0
  6
Continuous
 62
     7
370
    25
100
AcDbCircle
 10
70.620536769
 20
129.3859164137
 30
0.0
 40
32.00000000000004
100
AcDbArc
 50
303.1438539536
 51
0.0
  0
LINE
  5
23A
330
1F
100
AcDbEntity
  8
0
  6
Continuous
 62
     7
370
    25
100
AcDbLine
 10
88.1163123643
 20
102.5923005212
 30
0.0
 11
88.294694165
 21
102.5831530708
 31
0.0
  0
ARC
  5
23B
330
1F
100
AcDbEntity
  8
0
  6
Continuous
 62
     7
370
    25
100
AcDbCircle
 10
70.620536769
 20
129.3859164137
 30
0.0
 40
32.10551373655945
100
AcDbArc
 50
303.4014764033
 51
4.6464506928
  0
SPLINE
  5
23C
330
1F
100
AcDbEntity
  8
0
  6
Continuous
 62
     7
370
    25
100
AcDbSpline
210
0.0
220
0.0
230
1.0
 70
     8
 71
     3
 72
    18
 73
    14
 74
     0
 42
0.000000001
 43
0.00000001
 40
0.0
 40
0.0
 40
0.0
 40
0.0
 40
0.2499999999999997
 40
0.2499999999999997
 40
0.4999999999999993
 40
0.4999999999999993
 40
0.6249999999999994
 40
0.6249999999999994
 40
0.7499999999999997
 40
0.7499999999999997
 40
0.8749999999999998
 40
0.8749999999999998
 40
1.0
 40
1.0
 40
1.0
 40
1.0
 10
55.55400240236441
 20
101.7227723013905
 30
0.0
 10
55.50223384858339
 20
101.7509676754047
 30
0.0
 10
55.35942815802776
 20
101.8283691755689
 30
0.0
 10
54.89919587104995
 20
102.0883105445377
 30
0.0
 10
54.59309005664743
 20
102.2646812695721
 30
0.0
 10
54.03420810741174
 20
102.6054886259605
 30
0.0
 10
53.83432956808094
 20
102.7300467825685
 30
0.0
 10
53.41457638339095
 20
102.9990434426015
 30
0.0
 10
53.19403993077193
 20
103.1438776449485
 30
0.0
 10
52.73328150573782
 20
103.4557507771236
 30
0.0
 10
52.49547148211005
 20
103.6212182532434
 30
0.0
 10
52.01437412985027
 20
103.9664676628139
 30
0.0
 10
51.76994787283758
 20
104.1470116816177
 30
0.0
 10
51.52225413577361
 20
104.3358545283375
 30
0.0
  0
ARC
  5
23D
330
1F
100
AcDbEntity
  8
0
  6
Continuous
 62
     7
370
    25
100
AcDbCircle
 10
70.620536769
 20
129.3859164137
 30
0.0
 40
31.50000000000002
100
AcDbArc
 50
138.7774041374
 51
232.6779357837
  0
ARC
  5
23E
330
1F
100
AcDbEntity
  8
0
  6
Continuous
 62
     7
370
    25
100
AcDbCircle
 10
70.620536769
 20
129.3859164137
 30
0.0
 40
31.50000000000001
100
AcDbArc
 50
110.1529925522
 51
132.1946531315
  0
CIRCLE
  5
23F
330
1F
100
AcDbEntity
  8
VERMASSUNG
100
AcDbCircle
 10
70.620536769
 20
134.3859164137
 30
0.0
 40
39.99999999999999
  0
DIMENSION
  5
240
330
1F
100
AcDbEntity
  8
VERMASSUNG
100
AcDbDimension
  2
_D_5
 10
98.9048080165
 20
162.6701876612
 30
0.0
 11
108.6838848358
 21
172.4492644804
 31
0.0
 70
   163
  1
<>
 71
     1
 42
-1.0
  3
SLDDIMSTYLE3
100
AcDbDiametricDimension
 15
42.3362655216
 25
106.1016451662
 35
0.0
 40
0.0
  0
INSERT
  5
257
330
1F
100
AcDbEntity
  8
VERMASSUNG
100
AcDbBlockReference
  2
SW_CENTERMARKSYMBOL_0
 10
70.620536769
 20
129.3859164137
 30
0.0
  0
LINE
  5
258
330
1F
100
AcDbEntity
  8
0
  6
Continuous
 62
     7
370
    25
100
AcDbLine
 10
182.9620365915
 20
58.9285272809
 30
0.0
 11
182.9482565477
 21
59.037538746
 31
0.0
  0
LINE
  5
259
330
1F
100
AcDbEntity
  8
0
  6
Continuous
 62
     7
370
    25
100
AcDbLine
 10
181.5795521303
 20
59.3386604163
 30
0.0
 11
181.5212943197
 21
59.2454978503
 31
0.0
  0
LINE
  5
25A
330
1F
100
AcDbEntity
  8
0
  6
Continuous
 62
     7
370
    25
100
AcDbLine
 10
181.4941000535
 20
59.1796099452
 30
0.0
 11
180.9722519339
 21
56.8076239015
 31
0.0
  0
SPLINE
  5
25B
330
1F
100
AcDbEntity
  8
0
  6
Continuous
 62
     7
370
    25
100
AcDbSpline
210
0.0
220
0.0
230
1.0
 70
     8
 71
     3
 72
    21
 73
    17
 74
     0
 42
0.000000001
 43
0.00000001
 40
0.0
 40
0.0
 40
0.0
 40
0.0
 40
0.0519646385586173
 40
0.1151795464953256
 40
0.1805747236246926
 40
0.2503118295677871
 40
0.3255607696809037
 40
0.4045537064286087
 40
0.4836822375190722
 40
0.5629395492359338
 40
0.6436965743398451
 40
0.7277117274753273
 40
0.8044253096538788
 40
0.8757506727379557
 40
0.9429449472155961
 40
1.0
 40
1.0
 40
1.0
 40
1.0
 10
189.1063197420135
 20
59.92268744322455
 30
0.0
 10
189.0805903208912
 20
60.03378349170492
 30
0.0
 10
189.0235610960443
 20
60.28002772309618
 30
0.0
 10
188.8386895252015
 20
60.62979734140099
 30
0.0
 10
188.5788959668795
 20
60.9720491750294
 30
0.0
 10
188.2415707198188
 20
61.28323906595105
 30
0.0
 10
187.8279798986518
 20
61.55928143128824
 30
0.0
 10
187.3466363815048
 20
61.78741445010807
 30
0.0
 10
186.8192775219141
 20
61.95545760315127
 30
0.0
 10
186.26833871819
 20
62.05584262263039
 30
0.0
 10
185.7059758899497
 20
62.08300879372849
 30
0.0
 10
185.1669112141501
 20
62.02888395609625
 30
0.0
 10
184.6764019170352
 20
61.89548474584807
 30
0.0
 10
184.2566194536071
 20
61.69205837739531
 30
0.0
 10
183.9096046808227
 20
61.44092701073953
 30
0.0
 10
183.7387507518509
 20
61.22852812860816
 30
0.0
 10
183.6602949553431
 20
61.13099496928735
 30
0.0
  0
LINE
  5
25C
330
1F
100
AcDbEntity
  8
0
  6
Continuous
 62
     7
370
    25
100
AcDbLine
 10
183.4992623839
 20
60.8048778554
 30
0.0
 11
183.3153127928
 21
59.9687661984
 31
0.0
  0
LINE
  5
25D
330
1F
100
AcDbEntity
  8
0
  6
Continuous
 62
     7
370
    25
100
AcDbLine
 10
188.9310125598
 20
58.7332837782
 30
0.0
 11
189.1149624801
 21
59.5693956253
 31
0.0
  0
LINE
  5
25E
330
1F
100
AcDbEntity
  8
0
  6
Continuous
 62
     7
370
    25
100
AcDbLine
 10
189.0271482042
 20
56.261466453
 30
0.0
 11
189.4494405285
 21
58.1809351012
 31
0.0
  0
LINE
  5
25F
330
1F
100
AcDbEntity
  8
0
  6
Continuous
 62
     7
370
    25
100
AcDbLine
 10
188.4550942977
 20
55.4938001052
 30
0.0
 11
188.6773728255
 21
55.6929407552
 31
0.0
  0
LINE
  5
260
330
1F
100
AcDbEntity
  8
0
  6
Continuous
 62
     7
370
    25
100
AcDbLine
 10
177.3953476825
 20
55.5949683518
 30
0.0
 11
177.1264212368
 21
54.3726010692
 31
0.0
  0
LINE
  5
261
330
1F
100
AcDbEntity
  8
0
  6
Continuous
 62
     7
370
    25
100
AcDbLine
 10
195.5656364264
 20
53.7362469819
 30
0.0
 11
194.8316424741
 21
55.3295829801
 31
0.0
  0
LINE
  5
262
330
1F
100
AcDbEntity
  8
0
  6
Continuous
 62
     7
370
    25
100
AcDbLine
 10
187.1198064042
 20
51.9648608538
 30
0.0
 11
187.0854567227
 21
51.8087252926
 31
0.0
  0
LINE
  5
263
330
1F
100
AcDbEntity
  8
0
  6
Continuous
 62
     7
370
    25
100
AcDbLine
 10
200.2810679847
 20
51.9765274148
 30
0.0
 11
200.7188670565
 21
53.9664747832
 31
0.0
  0
LINE
  5
264
330
1F
100
AcDbEntity
  8
0
  6
Continuous
 62
     7
370
    25
100
AcDbLine
 10
199.9161632044
 20
50.7493749442
 30
0.0
 11
200.1704983618
 21
51.9054161034
 31
0.0
  0
LINE
  5
265
330
1F
100
AcDbEntity
  8
0
  6
Continuous
 62
     7
370
    25
100
AcDbLine
 10
199.7155692302
 20
50.6300768675
 30
0.0
 11
199.849900456
 21
50.6840961761
 31
0.0
  0
LINE
  5
266
330
1F
100
AcDbEntity
  8
0
  6
Continuous
 62
     7
370
    25
100
AcDbLine
 10
172.6724139852
 20
70.0224241505
 30
0.0
 11
169.9639754905
 21
71.5859724124
 31
0.0
  0
LINE
  5
267
330
1F
100
AcDbEntity
  8
0
  6
Continuous
 62
     7
370
    25
100
AcDbLine
 10
179.6415619982
 20
65.9992206388
 30
0.0
 11
175.3872650364
 21
68.4551739984
 31
0.0
  0
LINE
  5
268
330
1F
100
AcDbEntity
  8
0
  6
Continuous
 62
     7
370
    25
100
AcDbLine
 10
159.6385445471
 20
41.174634878
 30
0.0
 11
165.9754799543
 21
37.5163999352
 31
0.0
  0
LINE
  5
269
330
1F
100
AcDbEntity
  8
0
  6
Continuous
 62
     7
370
    25
100
AcDbLine
 10
154.2152550012
 20
44.305433292
 30
0.0
 11
156.9236934959
 21
42.7418850301
 31
0.0
  0
LINE
  5
26A
330
1F
100
AcDbEntity
  8
0
  6
Continuous
 62
     7
370
    25
100
AcDbLine
 10
167.402106654
 20
36.404158603
 30
0.0
 11
168.5152128257
 21
35.7615760879
 31
0.0
  0
SPLINE
  5
26B
330
1F
100
AcDbEntity
  8
0
  6
Continuous
 62
     7
370
    25
100
AcDbSpline
210
0.0
220
0.0
230
1.0
 70
     8
 71
     3
 72
    32
 73
    28
 74
     0
 42
0.000000001
 43
0.00000001
 40
0.0
 40
0.0
 40
0.0
 40
0.0
 40
0.0330064392544322
 40
0.0741727776827937
 40
0.1154326878247575
 40
0.156753571752065
 40
0.1981078269418993
 40
0.2394752845893164
 40
0.2808401764718764
 40
0.3221961123583697
 40
0.3635404811808929
 40
0.404872854315335
 40
0.4461941314013352
 40
0.4875059973065546
 40
0.5288105614242558
 40
0.5701101635273865
 40
0.6114072987330401
 40
0.652704423184986
 40
0.6940036025199217
 40
0.7353071051955189
 40
0.7766174898891076
 40
0.8179373433487008
 40
0.8592691240012502
 40
0.9006150351120785
 40
0.9419767704037465
 40
0.9833551123914389
 40
1.0
 40
1.0
 40
1.0
 40
1.0
 10
166.4757749308448
 20
72.31973600742845
 30
0.0
 10
166.2492051945117
 20
72.30090669920232
 30
0.0
 10
165.7400528272075
 20
72.25859307420902
 30
0.0
 10
164.9193346400108
 20
72.07845131148618
 30
0.0
 10
164.0253799162408
 20
71.8018993893592
 30
0.0
 10
163.1177459347263
 20
71.42969942303412
 30
0.0
 10
162.2036982270449
 20
70.9681249582697
 30
0.0
 10
161.2892040420576
 20
70.41947268092623
 30
0.0
 10
160.3804777036005
 20
69.78786713733992
 30
0.0
 10
159.4835191937827
 20
69.0776224428998
 30
0.0
 10
158.6042019392343
 20
68.29359672399823
 30
0.0
 10
157.7482539171235
 20
67.441076118853
 30
0.0
 10
156.9212493096347
 20
66.52576562831467
 30
0.0
 10
156.1285745195705
 20
65.55376103414825
 30
0.0
 10
155.3754040012675
 20
64.53150665340385
 30
0.0
 10
154.6666598035664
 20
63.46576764126981
 30
0.0
 10
154.0069913451003
 20
62.36357732228464
 30
0.0
 10
153.4007379420065
 20
61.23220567045574
 30
0.0
 10
152.851905371054
 20
60.07910634034864
 30
0.0
 10
152.3641338801298
 20
58.91186457877984
 30
0.0
 10
151.9406816484961
 20
57.73814726374188
 30
0.0
 10
151.5843763350712
 20
56.5656333534053
 30
0.0
 10
151.2977286241415
 20
55.40204304627418
 30
0.0
 10
151.0824512764187
 20
54.25480948094233
 30
0.0
 10
150.9411926846774
 20
53.13208284558975
 30
0.0
 10
150.8850281004405
 20
52.2567533035101
 30
0.0
 10
150.8807017412148
 20
51.76080963702975
 30
0.0
 10
150.8794606561604
 20
51.61854029686748
 30
0.0
  0
SPLINE
  5
26C
330
1F
100
AcDbEntity
  8
0
  6
Continuous
 62
     7
370
    25
100
AcDbSpline
210
0.0
220
0.0
230
1.0
 70
     8
 71
     3
 72
    13
 73
     9
 74
     0
 42
0.000000001
 43
0.00000001
 40
0.0
 40
0.0
 40
0.0
 40
0.0
 40
0.106633746808034
 40
0.3091572177296334
 40
0.5117524528561944
 40
0.7142817996238011
 40
0.9166310333548959
 40
1.0
 40
1.0
 40
1.0
 40
1.0
 10
150.8794606561604
 20
51.61854029686748
 30
0.0
 10
150.88154792702
 20
51.43429842933232
 30
0.0
 10
150.8875994338922
 20
50.90013635717873
 30
0.0
 10
150.9553235120437
 20
50.05004849791084
 30
0.0
 10
151.1057365840695
 20
49.08929573176191
 30
0.0
 10
151.3357878043554
 20
48.19179708549645
 30
0.0
 10
151.566374326118
 20
47.5085318574041
 30
0.0
 10
151.7451727070834
 20
47.15215398058217
 30
0.0
 10
151.7973438191766
 20
47.04816741169471
 30
0.0
  0
LINE
  5
26D
330
1F
100
AcDbEntity
  8
0
  6
Continuous
 62
     7
370
    25
100
AcDbLine
 10
142.728355036
 20
56.3057954089
 30
0.0
 11
150.8863276805
 21
51.2555072943
 31
0.0
  0
LINE
  5
26E
330
1F
100
AcDbEntity
  8
0
  6
Continuous
 62
     7
370
    25
100
AcDbLine
 10
161.2389209712
 20
70.3700309828
 30
0.0
 11
153.2246101404
 21
74.6734924074
 31
0.0
  0
LINE
  5
26F
330
1F
100
AcDbEntity
  8
0
  6
Continuous
 62
     7
370
    25
100
AcDbLine
 10
150.5352406457
 20
75.263749038
 30
0.0
 11
149.895690537
 21
75.176538043
 31
0.0
  0
LINE
  5
270
330
1F
100
AcDbEntity
  8
0
  6
Continuous
 62
     7
370
    25
100
AcDbLine
 10
141.5651046513
 20
58.0418376325
 30
0.0
 11
141.8094082001
 21
57.4443881216
 31
0.0
  0
LWPOLYLINE
  5
271
330
1F
100
AcDbEntity
  8
0
  6
Continuous
 62
     7
370
    25
100
AcDbPolyline
 90
        3
 70
   128
 43
0.0
 10
181.497574205
 20
59.0758850285
 10
181.5140045612
 20
59.2329566378
 10
181.5212943197
 20
59.2454978503
  0
LWPOLYLINE
  5
272
330
1F
100
AcDbEntity
  8
0
  6
Continuous
 62
     7
370
    25
100
AcDbPolyline
 90
        9
 70
   128
 43
0.0
 10
182.9620365915
 20
58.9285272809
 10
182.9635805491
 20
58.9104270735
 10
182.9098630736
 20
58.7616514633
 10
182.7437511484
 20
58.6551192896
 10
182.4925717363
 20
58.6083523141
 10
182.1976386272
 20
58.6290450645
 10
181.9074664655
 20
58.7137928021
 10
181.669786228
 20
58.8486549521
 10
181.5236943851
 20
59.011447895
  0
LINE
  5
273
330
1F
100
AcDbEntity
  8
0
  6
Continuous
 62
     7
370
    25
100
AcDbLine
 10
181.5818320114
 20
59.1163132344
 30
0.0
 11
181.5236943851
 21
59.011447895
 31
0.0
  0
LWPOLYLINE
  5
274
330
1F
100
AcDbEntity
  8
0
  6
Continuous
 62
     7
370
    25
100
AcDbPolyline
 90
       16
 70
   128
 43
0.0
 10
181.5570170665
 20
59.1775280644
 10
181.572626547
 20
59.3267460838
 10
181.6995880012
 20
59.4424450724
 10
181.9170163487
 20
59.5055946034
 10
182.1891483421
 20
59.5058063476
 10
182.4712207356
 20
59.4430454101
 10
182.7168344587
 20
59.3276348811
 10
182.8855884645
 20
59.178560859
 10
182.9497244434
 20
59.0203427601
 10
182.8986925124
 20
58.8790061205
 10
182.7408874676
 20
58.7777998142
 10
182.5022658408
 20
58.7333724041
 10
182.222079848
 20
58.7530297565
 10
181.9464164097
 20
58.8335396035
 10
181.7206192786
 20
58.9616590356
 10
181.5818320114
 20
59.1163132344
  0
LINE
  5
275
330
1F
100
AcDbEntity
  8
0
  6
Continuous
 62
     7
370
    25
100
AcDbLine
 10
181.5570170665
 20
59.1775280644
 30
0.0
 11
181.497574205
 21
59.0758850285
 31
0.0
  0
LINE
  5
276
330
1F
100
AcDbEntity
  8
0
  6
Continuous
 62
     7
370
    25
100
AcDbLine
 10
181.6872649871
 20
59.1173649337
 30
0.0
 11
181.5818320114
 21
59.1163132344
 31
0.0
  0
LWPOLYLINE
  5
277
330
1F
100
AcDbEntity
  8
0
  6
Continuous
 62
     7
370
    25
100
AcDbPolyline
 90
       16
 70
   128
 43
0.0
 10
181.6663687113
 20
59.1689145645
 10
181.6795139182
 20
59.2945716239
 10
181.7864276313
 20
59.3920025812
 10
181.9695257243
 20
59.4451811636
 10
182.1986903227
 20
59.445358344
 10
182.436224034
 20
59.3925079686
 10
182.6430564004
 20
59.295320695
 10
182.7851653661
 20
59.169783906
 10
182.8391739183
 20
59.0365479723
 10
182.7962002672
 20
58.9175276743
 10
182.6633109245
 20
58.8323022016
 10
182.4623669339
 20
58.794888355
 10
182.2264203149
 20
58.811442175
 10
181.9942837051
 20
58.8792394907
 10
181.8041398444
 20
58.9871292487
 10
181.6872649871
 20
59.1173649337
  0
LINE
  5
278
330
1F
100
AcDbEntity
  8
0
  6
Continuous
 62
     7
370
    25
100
AcDbLine
 10
181.6663687113
 20
59.1689145645
 30
0.0
 11
181.5570170665
 21
59.1775280644
 31
0.0
  0
LINE
  5
279
330
1F
100
AcDbEntity
  8
0
  6
Continuous
 62
     7
370
    25
100
AcDbLine
 10
181.5236943851
 20
59.011447895
 30
0.0
 11
180.9999256205
 21
56.6307369298
 31
0.0
  0
LINE
  5
27A
330
1F
100
AcDbEntity
  8
0
  6
Continuous
 62
     7
370
    25
100
AcDbLine
 10
181.497574205
 20
59.0758850285
 30
0.0
 11
180.9739483446
 21
56.6958269163
 31
0.0
  0
LINE
  5
27B
330
1F
100
AcDbEntity
  8
0
  6
Continuous
 62
     7
370
    25
100
AcDbLine
 10
181.6549577814
 20
59.1170424133
 30
0.0
 11
181.6663687113
 21
59.1689145645
 31
0.0
  0
LWPOLYLINE
  5
27C
330
1F
100
AcDbEntity
  8
0
  6
Continuous
 62
     7
370
    25
100
AcDbPolyline
 90
       17
 70
   128
 43
0.0
 10
183.5037256693
 20
60.4428103696
 10
183.6328376006
 20
60.1243073887
 10
183.8714348613
 20
59.8083772219
 10
184.2097492607
 20
59.5079529253
 10
184.6339293028
 20
59.2353348839
 10
185.1266104861
 20
59.0016828972
 10
185.667621263
 20
58.8165645258
 10
186.2348128061
 20
58.6875574166
 10
186.804963519
 20
58.6199434373
 10
187.3547335964
 20
58.6164894857
 10
187.86161267
 20
58.6773391172
 10
188.3048506609
 20
58.7999994036
 10
188.6663020337
 20
58.9794496374
 10
188.9311660007
 20
59.2083427975
 10
189.0886029191
 20
59.4773073834
 10
189.1321636627
 20
59.7753328889
 10
189.1155624142
 20
59.9079781686
  0
ARC
  5
27D
330
1F
100
AcDbEntity
  8
0
  6
Continuous
 62
     7
370
    25
100
AcDbCircle
 10
184.2841183418
 20
60.6319482544
 30
0.0
 40
0.8029855931620857
100
AcDbArc
 50
142.9020181417
 51
193.6236512148
  0
LWPOLYLINE
  5
27E
330
1F
100
AcDbEntity
  8
0
  6
Continuous
 62
     7
370
    25
100
AcDbPolyline
 90
       16
 70
   128
 43
0.0
 10
183.3197770661
 20
59.6066970018
 10
183.4488889974
 20
59.2881947813
 10
183.6874862581
 20
58.9722638541
 10
184.0258006574
 20
58.6718395574
 10
184.4499810288
 20
58.3992217062
 10
184.9426605658
 20
58.1655710502
 10
185.4836713427
 20
57.9804526787
 10
186.0508628858
 20
57.851444809
 10
186.6210149157
 20
57.7838300694
 10
187.1707836761
 20
57.7803776386
 10
187.6776627497
 20
57.8412265097
 10
188.1209020577
 20
57.9638867962
 10
188.4823521134
 20
58.1433377903
 10
188.7472173974
 20
58.3722301901
 10
188.9046529988
 20
58.6411955363
 10
188.9310125598
 20
58.7332837782
  0
LWPOLYLINE
  5
27F
330
1F
100
AcDbEntity
  8
0
  6
Continuous
 62
     7
370
    25
100
AcDbPolyline
 90
        3
 70
   128
 43
0.0
 10
183.3153127928
 20
59.9687661984
 10
183.3054362716
 20
59.9147324664
 10
183.3197770661
 20
59.6066970018
  0
LWPOLYLINE
  5
280
330
1F
100
AcDbEntity
  8
0
  6
Continuous
 62
     7
370
    25
100
AcDbPolyline
 90
       21
 70
   128
 43
0.0
 10
185.2721972254
 20
61.134411663
 10
185.3797263483
 20
60.9198819594
 10
185.5960407677
 20
60.7154701982
 10
185.8999659729
 20
60.5411859245
 10
186.2617505692
 20
60.4140903669
 10
186.6459829722
 20
60.3466224978
 10
187.0150504123
 20
60.3453879271
 10
187.3328257962
 20
60.4105073916
 10
187.5682027743
 20
60.5356060134
 10
187.6981428253
 20
60.7084385869
 10
187.7099248451
 20
60.9120877929
 10
187.6023957222
 20
61.1266174966
 10
187.3860822906
 20
61.3310283073
 10
187.0821574147
 20
61.5053120107
 10
186.7203715013
 20
61.6324083286
 10
186.3361404154
 20
61.6998761978
 10
185.9670729753
 20
61.7011107685
 10
185.6492962743
 20
61.6359920644
 10
185.4139186377
 20
61.5108930624
 10
185.2839792452
 20
61.338060869
 10
185.2721972254
 20
61.134411663
  0
SPLINE
  5
281
330
1F
100
AcDbEntity
  8
0
  6
Continuous
 62
     7
370
    25
100
AcDbSpline
210
0.0
220
0.0
230
1.0
 70
     8
 71
     3
 72
    11
 73
     7
 74
     0
 42
0.000000001
 43
0.00000001
 40
0.0
 40
0.0
 40
0.0
 40
0.0
 40
0.1208909983841156
 40
0.4766710759606757
 40
0.814366048559573
 40
1.0
 40
1.0
 40
1.0
 40
1.0
 10
187.3770674748369
 20
61.16715891796965
 30
0.0
 10
187.3786621771237
 20
61.12613633188228
 30
0.0
 10
187.3849500601343
 20
60.96438499795065
 30
0.0
 10
187.4102341002029
 20
60.72034649233267
 30
0.0
 10
187.4662476956257
 20
60.58158737865439
 30
0.0
 10
187.5060567776387
 20
60.55245285401842
 30
0.0
 10
187.5201777575002
 20
60.54211832694935
 30
0.0
  0
SPLINE
  5
282
330
1F
100
AcDbEntity
  8
0
  6
Continuous
 62
     7
370
    25
100
AcDbSpline
210
0.0
220
0.0
230
1.0
 70
     8
 71
     3
 72
    10
 73
     6
 74
     0
 42
0.000000001
 43
0.00000001
 40
0.0
 40
0.0
 40
0.0
 40
0.0
 40
0.4391216582076259
 40
0.7513707218140587
 40
1.0
 40
1.0
 40
1.0
 40
1.0
 10
186.3304209563312
 20
61.56860955998229
 30
0.0
 10
186.4676597028481
 20
61.45387253261526
 30
0.0
 10
186.7024856880935
 20
61.25754870877233
 30
0.0
 10
187.0847638059252
 20
61.1581546231871
 30
0.0
 10
187.2872903703119
 20
61.16439337104074
 30
0.0
 10
187.3770674748369
 20
61.16715891796965
 30
0.0
  0
SPLINE
  5
283
330
1F
100
AcDbEntity
  8
0
  6
Continuous
 62
     7
370
    25
100
AcDbSpline
210
0.0
220
0.0
230
1.0
 70
     8
 71
     3
 72
    10
 73
     6
 74
     0
 42
0.000000001
 43
0.00000001
 40
0.0
 40
0.0
 40
0.0
 40
0.0
 40
0.4391219902679659
 40
0.7513709563268614
 40
1.0
 40
1.0
 40
1.0
 40
1.0
 10
185.4268847204888
 20
61.34501885051174
 30
0.0
 10
185.5436363695578
 20
61.31976227586295
 30
0.0
 10
185.743407276408
 20
61.27654636532331
 30
0.0
 10
186.0747244873674
 20
61.39972044133028
 30
0.0
 10
186.2518872755169
 20
61.51673757210941
 30
0.0
 10
186.3304209563312
 20
61.56860955998229
 30
0.0
  0
SPLINE
  5
284
330
1F
100
AcDbEntity
  8
0
  6
Continuous
 62
     7
370
    25
100
AcDbSpline
210
0.0
220
0.0
230
1.0
 70
     8
 71
     3
 72
    11
 73
     7
 74
     0
 42
0.000000001
 43
0.00000001
 40
0.0
 40
0.0
 40
0.0
 40
0.0
 40
0.0629941704181661
 40
0.4515431210311482
 40
0.8609021277875608
 40
1.0
 40
1.0
 40
1.0
 40
1.0
 10
185.5407003092589
 20
60.74658059609011
 30
0.0
 10
185.5365828569029
 20
60.75002158292259
 30
0.0
 10
185.5070688991002
 20
60.77468662610757
 30
0.0
 10
185.4603496443514
 20
60.90065664741452
 30
0.0
 10
185.4347480988953
 20
61.14206663999695
 30
0.0
 10
185.4284755453691
 20
61.30395998124364
 30
0.0
 10
185.4268847204888
 20
61.34501885051174
 30
0.0
  0
LINE
  5
285
330
1F
100
AcDbEntity
  8
0
  6
Continuous
 62
     7
370
    25
100
AcDbLine
 10
187.5201777575
 20
60.5421183269
 30
0.0
 11
187.2570332503
 21
60.4022055244
 31
0.0
  0
LINE
  5
286
330
1F
100
AcDbEntity
  8
0
  6
Continuous
 62
     7
370
    25
100
AcDbLine
 10
187.2026104736
 20
60.3741943008
 30
0.0
 11
187.3770674748
 21
61.167158918
 31
0.0
  0
LINE
  5
287
330
1F
100
AcDbEntity
  8
0
  6
Continuous
 62
     7
370
    25
100
AcDbLine
 10
186.0879685761
 20
60.4665816209
 30
0.0
 11
186.3304209563
 21
61.56860956
 31
0.0
  0
LWPOLYLINE
  5
288
330
1F
100
AcDbEntity
  8
0
  6
Continuous
 62
     7
370
    25
100
AcDbPolyline
 90
        9
 70
   128
 43
0.0
 10
186.8929434189
 20
57.7058714131
 10
187.4501939034
 20
57.7312165607
 10
187.9531154538
 20
57.8228764793
 10
188.3811193346
 20
57.9770995143
 10
188.7166826642
 20
58.1875706737
 10
188.9460662287
 20
58.4456739209
 10
189.0598791833
 20
58.7408424812
 10
189.0534636427
 20
59.0609922172
 10
189.0261709241
 20
59.1658117044
  0
LWPOLYLINE
  5
289
330
1F
100
AcDbEntity
  8
0
  6
Continuous
 62
     7
370
    25
100
AcDbPolyline
 90
       13
 70
   128
 43
0.0
 10
183.4104711572
 20
60.4012941247
 10
183.4009861406
 20
60.3907604265
 10
183.2285018094
 20
60.1126983627
 10
183.1745258552
 20
59.8034531791
 10
183.241268024
 20
59.4756848377
 10
183.4259950268
 20
59.1428130027
 10
183.7211434801
 20
58.8184656094
 10
184.1146320554
 20
58.5159207757
 10
184.5903504492
 20
58.2475656256
 10
185.1288215493
 20
58.0243859011
 10
185.7080005781
 20
57.8555194386
 10
186.3041769699
 20
57.7478795919
 10
186.8929434189
 20
57.7058714131
  0
LWPOLYLINE
  5
28A
330
1F
100
AcDbEntity
  8
0
  6
Continuous
 62
     7
370
    25
100
AcDbPolyline
 90
       17
 70
   128
 43
0.0
 10
183.5978293746
 20
58.0195049231
 10
184.0929037086
 20
57.7211984261
 10
184.6556925524
 20
57.465226826
 10
185.2665373646
 20
57.2605330606
 10
185.904096364
 20
57.1142672606
 10
186.5460942827
 20
57.0315405744
 10
187.1701047167
 20
57.0152419075
 10
187.7543252329
 20
57.0659409593
 10
188.2783455616
 20
57.1818678642
 10
188.7238588237
 20
57.3589717163
 10
189.0753009786
 20
57.5910638744
 10
189.3203921467
 20
57.870037682
 10
189.4505719079
 20
58.1861471151
 10
189.4612903783
 20
58.5283466404
 10
189.3521748217
 20
58.8846824
 10
189.1270375522
 20
59.2427050683
 10
189.0606891931
 20
59.3227047306
  0
ARC
  5
28B
330
1F
100
AcDbEntity
  8
0
  6
Continuous
 62
     7
370
    25
100
AcDbCircle
 10
184.033542593
 20
59.1121710169
 30
0.0
 40
1.561203807198637
100
AcDbArc
 50
112.147173196
 51
148.4012680935
  0
SPLINE
  5
28C
330
1F
100
AcDbEntity
  8
0
  6
Continuous
 62
     7
370
    25
100
AcDbSpline
210
0.0
220
0.0
230
1.0
 70
     8
 71
     3
 72
    14
 73
    10
 74
     0
 42
0.000000001
 43
0.00000001
 40
0.0
 40
0.0
 40
0.0
 40
0.0
 40
0.2406878828036911
 40
0.3654958379559112
 40
0.4913834937937908
 40
0.5985918845409512
 40
0.7015339922782441
 40
0.8683340277330459
 40
1.0
 40
1.0
 40
1.0
 40
1.0
 10
183.5978293745829
 20
58.01950492310223
 30
0.0
 10
183.6334728820536
 20
58.13613013962296
 30
0.0
 10
183.6875992197774
 20
58.31323100046604
 30
0.0
 10
183.6598949234382
 20
58.53911058843661
 30
0.0
 10
183.5843572729411
 20
58.67278459158265
 30
0.0
 10
183.4646442597928
 20
58.74415934135143
 30
0.0
 10
183.3033368676601
 20
58.76614679209349
 30
0.0
 10
183.1163031570576
 20
58.73082731560541
 30
0.0
 10
182.9803802315054
 20
58.6693903060776
 30
0.0
 10
182.9204188835355
 20
58.64228784421134
 30
0.0
  0
ARC
  5
28D
330
1F
100
AcDbEntity
  8
0
  6
Continuous
 62
     7
370
    25
100
AcDbCircle
 10
184.7418091478
 20
60.0519773881
 30
0.0
 40
2.303190635841266
100
AcDbArc
 50
217.4282739723
 51
217.7385624679
  0
SPLINE
  5
28E
330
1F
100
AcDbEntity
  8
0
  6
Continuous
 62
     7
370
    25
100
AcDbSpline
210
0.0
220
0.0
230
1.0
 70
     8
 71
     3
 72
    14
 73
    10
 74
     0
 42
0.000000001
 43
0.00000001
 40
0.0
 40
0.0
 40
0.0
 40
0.0
 40
0.2603117374052133
 40
0.3952951242750328
 40
0.5314472696864577
 40
0.6473968412361655
 40
0.7587321386511064
 40
0.9391317418684196
 40
1.0
 40
1.0
 40
1.0
 40
1.0
 10
182.9128113773793
 20
58.65217230856106
 30
0.0
 10
182.9796696098748
 20
58.75702725254099
 30
0.0
 10
183.081196854042
 20
58.9162542183496
 30
0.0
 10
183.1347746609896
 20
59.13074206749477
 30
0.0
 10
183.1215785794645
 20
59.26407957062789
 30
0.0
 10
183.0546484242156
 20
59.34407933044998
 30
0.0
 10
182.9395704386434
 20
59.38145766932202
 30
0.0
 10
182.8157170826593
 20
59.37469828655595
 30
0.0
 10
182.7226455907102
 20
59.34471338542399
 30
0.0
 10
182.6991650510105
 20
59.33714864517244
 30
0.0
  0
SPLINE
  5
28F
330
1F
100
AcDbEntity
  8
0
  6
Continuous
 62
     7
370
    25
100
AcDbSpline
210
0.0
220
0.0
230
1.0
 70
     8
 71
     3
 72
    14
 73
    10
 74
     0
 42
0.000000001
 43
0.00000001
 40
0.0
 40
0.0
 40
0.0
 40
0.0
 40
0.2406877403694629
 40
0.3654954405654677
 40
0.4913835315603328
 40
0.5985917235550239
 40
0.7015343316553894
 40
0.8683340252466744
 40
1.0
 40
1.0
 40
1.0
 40
1.0
 10
182.6039161368262
 20
59.31870829929516
 30
0.0
 10
182.6957606942065
 20
59.40748899678125
 30
0.0
 10
182.8352308928619
 20
59.54230658280196
 30
0.0
 10
182.9661539534711
 20
59.73102897019269
 30
0.0
 10
183.0177418805058
 20
59.85176886390705
 30
0.0
 10
183.0110656404541
 20
59.92816362580778
 30
0.0
 10
182.9549591336942
 20
59.97056502891623
 30
0.0
 10
182.850219191495
 20
59.97056164875485
 30
0.0
 10
182.7486234038436
 20
59.94254827548873
 30
0.0
 10
182.7038051556137
 20
59.93019037812095
 30
0.0
  0
LWPOLYLINE
  5
290
330
1F
100
AcDbEntity
  8
0
  6
Continuous
 62
     7
370
    25
100
AcDbPolyline
 90
       13
 70
   128
 43
0.0
 10
183.1755370503
 20
56.1000362749
 10
183.6706100672
 20
55.8017297778
 10
184.2334002281
 20
55.5457585581
 10
184.844244711
 20
55.3410642223
 10
185.4818040397
 20
55.1947982322
 10
186.1238019584
 20
55.112071546
 10
186.7478120631
 20
55.095772689
 10
187.3320329087
 20
55.1464723112
 10
187.8560532373
 20
55.2623992161
 10
188.3015664995
 20
55.439502688
 10
188.6530073372
 20
55.6715959866
 10
188.8980998224
 20
55.9505694141
 10
189.0271482042
 20
56.261466453
  0
LINE
  5
291
330
1F
100
AcDbEntity
  8
0
  6
Continuous
 62
     7
370
    25
100
AcDbLine
 10
183.1755370503
 20
56.1000362749
 30
0.0
 11
183.5978293746
 21
58.0195049231
 31
0.0
  0
LINE
  5
292
330
1F
100
AcDbEntity
  8
0
  6
Continuous
 62
     7
370
    25
100
AcDbLine
 10
182.7038051556
 20
59.9301903781
 30
0.0
 11
182.5866504169
 21
59.397682337
 31
0.0
  0
SPLINE
  5
293
330
1F
100
AcDbEntity
  8
0
  6
Continuous
 62
     7
370
    25
100
AcDbSpline
210
0.0
220
0.0
230
1.0
 70
     8
 71
     3
 72
     9
 73
     5
 74
     0
 42
0.000000001
 43
0.00000001
 40
0.0
 40
0.0
 40
0.0
 40
0.0
 40
0.6655491292052604
 40
0.9999999999999999
 40
0.9999999999999999
 40
0.9999999999999999
 40
0.9999999999999999
 10
182.5305065341601
 20
56.58968212367636
 30
0.0
 10
182.5247876743671
 20
56.61555461938272
 30
0.0
 10
182.5161949806921
 20
56.65442852751518
 30
0.0
 10
182.4969541617431
 20
56.7130857134818
 30
0.0
 10
182.4905190530908
 20
56.73270366040671
 30
0.0
  0
ARC
  5
294
330
1F
100
AcDbEntity
  8
0
  6
Continuous
 62
     7
370
    25
100
AcDbCircle
 10
184.2706001198
 20
58.0947297061
 30
0.0
 40
2.241384293988118
100
AcDbArc
 50
217.4213492201
 51
217.740158029
  0
LINE
  5
295
330
1F
100
AcDbEntity
  8
0
  6
Continuous
 62
     7
370
    25
100
AcDbLine
 10
182.4981252422
 20
56.7228199564
 30
0.0
 11
182.6368726675
 21
56.4528308752
 31
0.0
  0
SPLINE
  5
296
330
1F
100
AcDbEntity
  8
0
  6
Continuous
 62
     7
370
    25
100
AcDbSpline
210
0.0
220
0.0
230
1.0
 70
     8
 71
     3
 72
     9
 73
     5
 74
     0
 42
0.000000001
 43
0.00000001
 40
0.0
 40
0.0
 40
0.0
 40
0.0
 40
0.5547230795254084
 40
1.0
 40
1.0
 40
1.0
 40
1.0
 10
183.1596420907775
 20
56.00538019967459
 30
0.0
 10
183.1659436296323
 20
56.01929505685149
 30
0.0
 10
183.1773034217292
 20
56.0443793875572
 30
0.0
 10
183.1760812535691
 20
56.08288888466618
 30
0.0
 10
183.1755370502945
 20
56.10003627494788
 30
0.0
  0
LINE
  5
297
330
1F
100
AcDbEntity
  8
0
  6
Continuous
 62
     7
370
    25
100
AcDbLine
 10
182.9204188835
 20
58.6422878442
 30
0.0
 11
182.4981252422
 21
56.7228199564
 31
0.0
  0
LINE
  5
298
330
1F
100
AcDbEntity
  8
0
  6
Continuous
 62
     7
370
    25
100
AcDbLine
 10
182.4905190531
 20
56.7327036604
 30
0.0
 11
182.9128113774
 21
58.6521723086
 31
0.0
  0
LINE
  5
299
330
1F
100
AcDbEntity
  8
0
  6
Continuous
 62
     7
370
    25
100
AcDbLine
 10
180.5361071259
 20
58.7797697542
 30
0.0
 11
179.5524079135
 21
58.537899926
 31
0.0
  0
SPLINE
  5
29A
330
1F
100
AcDbEntity
  8
0
  6
Continuous
 62
     7
370
    25
100
AcDbSpline
210
0.0
220
0.0
230
1.0
 70
     8
 71
     3
 72
    15
 73
    11
 74
     0
 42
0.000000001
 43
0.00000001
 40
0.0
 40
0.0
 40
0.0
 40
0.0
 40
0.0951468443230926
 40
0.1936945074381218
 40
0.3111148886450314
 40
0.4319067637992112
 40
0.5937993625819836
 40
0.7602652200966509
 40
0.9985542802297597
 40
1.0
 40
1.0
 40
1.0
 40
1.0
 10
179.5524079134745
 20
58.53789992598657
 30
0.0
 10
179.3922474631119
 20
58.46798270696659
 30
0.0
 10
179.066201972431
 20
58.32564922869028
 30
0.0
 10
178.6154250479299
 20
57.9686334539099
 30
0.0
 10
178.201371497061
 20
57.50263721601873
 30
0.0
 10
177.8104312081649
 20
56.86479416523093
 30
0.0
 10
177.4946023975106
 20
56.07478346877107
 30
0.0
 10
177.2612959171261
 20
55.01475200728871
 30
0.0
 10
177.2285163949954
 20
54.22230541993884
 30
0.0
 10
177.2540484842953
 20
53.75548518807289
 30
0.0
 10
177.2542024554724
 20
53.75267003026129
 30
0.0
  0
SPLINE
  5
29B
330
1F
100
AcDbEntity
  8
0
  6
Continuous
 62
     7
370
    25
100
AcDbSpline
210
0.0
220
0.0
230
1.0
 70
     8
 71
     3
 72
    15
 73
    11
 74
     0
 42
0.000000001
 43
0.00000001
 40
0.0
 40
0.0
 40
0.0
 40
0.0
 40
0.0967687777333647
 40
0.1936838954153244
 40
0.3127007873120822
 40
0.4318959383620476
 40
0.595975999952937
 40
0.7602600963058402
 40
0.9985540532707612
 40
1.0
 40
1.0
 40
1.0
 40
1.0
 10
181.3736046831305
 20
54.58448574949423
 30
0.0
 10
181.1807443373396
 20
54.5784472806052
 30
0.0
 10
180.7947319899806
 20
54.56636121106741
 30
0.0
 10
180.1998114118501
 20
54.51570287282026
 30
0.0
 10
179.6087738043642
 20
54.44148388273616
 30
0.0
 10
178.9713909913482
 20
54.33115581736302
 30
0.0
 10
178.3601610214144
 20
54.18923499247275
 30
0.0
 10
177.7301993678857
 20
53.99226393679224
 30
0.0
 10
177.4034139868879
 20
53.8424996173387
 30
0.0
 10
177.2550970018376
 20
53.75320857262352
 30
0.0
 10
177.2542024554724
 20
53.7526700302613
 30
0.0
  0
LINE
  5
29C
330
1F
100
AcDbEntity
  8
0
  6
Continuous
 62
     7
370
    25
100
AcDbLine
 10
182.430547545
 20
54.6673594154
 30
0.0
 11
181.3736046831
 21
54.5844857495
 31
0.0
  0
SPLINE
  5
29D
330
1F
100
AcDbEntity
  8
0
  6
Continuous
 62
     7
370
    25
100
AcDbSpline
210
0.0
220
0.0
230
1.0
 70
     8
 71
     3
 72
    10
 73
     6
 74
     0
 42
0.000000001
 43
0.00000001
 40
0.0
 40
0.0
 40
0.0
 40
0.0
 40
0.1480673522197928
 40
0.9078078434826273
 40
1.0
 40
1.0
 40
1.0
 40
1.0
 10
181.2664797419253
 20
51.53580904300278
 30
0.0
 10
181.2901328769526
 20
51.5564129627047
 30
0.0
 10
181.4351513511722
 20
51.68273655552563
 30
0.0
 10
181.6278510722096
 20
51.7999075624094
 30
0.0
 10
181.8000233156399
 20
51.87767708678683
 30
0.0
 10
181.8186549885258
 20
51.88609294006157
 30
0.0
  0
LWPOLYLINE
  5
29E
330
1F
100
AcDbEntity
  8
0
  6
Continuous
 62
     7
370
    25
100
AcDbPolyline
 90
       12
 70
   128
 43
0.0
 10
177.1264212368
 20
54.3726010692
 10
177.1213580173
 20
54.3481340599
 10
177.1145511367
 20
53.9946130571
 10
177.2266110458
 20
53.6272524691
 10
177.4539110783
 20
53.2579385584
 10
177.7890983174
 20
52.8986183963
 10
178.2213295394
 20
52.5609156181
 10
178.736621303
 20
52.2557558037
 10
179.3183042724
 20
51.9930109709
 10
179.9475593548
 20
51.7811810301
 10
180.6040303943
 20
51.6271190532
 10
181.2664797419
 20
51.535809043
  0
LWPOLYLINE
  5
29F
330
1F
100
AcDbEntity
  8
0
  6
Continuous
 62
     7
370
    25
100
AcDbPolyline
 90
        3
 70
   128
 43
0.0
 10
180.5361071259
 20
58.7797697542
 10
181.2124297014
 20
58.8671946522
 10
181.4308205117
 20
58.8919805945
  0
SPLINE
  5
2A0
330
1F
100
AcDbEntity
  8
0
  6
Continuous
 62
     7
370
    25
100
AcDbSpline
210
0.0
220
0.0
230
1.0
 70
     8
 71
     3
 72
    11
 73
     7
 74
     0
 42
0.000000001
 43
0.00000001
 40
0.0
 40
0.0
 40
0.0
 40
0.0
 40
0.1018856778820792
 40
0.4024891375473844
 40
0.7002978081541735
 40
1.0
 40
1.0
 40
1.0
 40
1.0
 10
189.4144948641471
 20
58.40553165574538
 30
0.0
 10
189.5663117982841
 20
58.36517852661219
 30
0.0
 10
190.1660493488021
 20
58.20576754285299
 30
0.0
 10
191.1868133080844
 20
57.81098733808015
 30
0.0
 10
192.4722954982535
 20
57.2364078290104
 30
0.0
 10
193.2937588554338
 20
56.77088100734382
 30
0.0
 10
193.7057921491172
 20
56.53737996563252
 30
0.0
  0
SPLINE
  5
2A1
330
1F
100
AcDbEntity
  8
0
  6
Continuous
 62
     7
370
    25
100
AcDbSpline
210
0.0
220
0.0
230
1.0
 70
     8
 71
     3
 72
    13
 73
     9
 74
     0
 42
0.000000001
 43
0.00000001
 40
0.0
 40
0.0
 40
0.0
 40
0.0
 40
0.1635391936210447
 40
0.32708495099689
 40
0.4958210609394287
 40
0.6645723318769935
 40
0.831754516020146
 40
1.0
 40
1.0
 40
1.0
 40
1.0
 10
187.7926166326359
 20
54.91092235663904
 30
0.0
 10
188.226741331143
 20
54.88656830423371
 30
0.0
 10
189.0950081520421
 20
54.83785922195686
 30
0.0
 10
190.3477308518194
 20
54.74952396533718
 30
0.0
 10
191.5542854378379
 20
54.65023685020693
 30
0.0
 10
192.6964493125998
 20
54.54057887509576
 30
0.0
 10
193.7672473073227
 20
54.42367817922339
 30
0.0
 10
194.4124990192863
 20
54.34178725188034
 30
0.0
 10
194.7361475935844
 20
54.30071199180568
 30
0.0
  0
ARC
  5
2A2
330
1F
100
AcDbEntity
  8
0
  6
Continuous
 62
     7
370
    25
100
AcDbCircle
 10
186.3698045257
 20
27.0892141285
 30
0.0
 40
27.85806603159156
100
AcDbArc
 50
87.0724237698
 51
98.1291290079
  0
SPLINE
  5
2A3
330
1F
100
AcDbEntity
  8
0
  6
Continuous
 62
     7
370
    25
100
AcDbSpline
210
0.0
220
0.0
230
1.0
 70
     8
 71
     3
 72
    11
 73
     7
 74
     0
 42
0.000000001
 43
0.00000001
 40
0.0
 40
0.0
 40
0.0
 40
0.0
 40
0.2856098050324847
 40
0.5658979558367869
 40
0.8351878400593846
 40
1.0
 40
1.0
 40
1.0
 40
1.0
 10
188.6283804068005
 20
55.57849257507274
 30
0.0
 10
188.4274068497382
 20
55.45758826992819
 30
0.0
 10
188.0292043961988
 20
55.21803242160784
 30
0.0
 10
187.0736713393845
 20
55.07893623695044
 30
0.0
 10
186.1298454308638
 20
55.07875473050523
 30
0.0
 10
185.5492235369239
 20
55.18980193984491
 30
0.0
 10
185.3287833207681
 20
55.23196237348656
 30
0.0
  0
SPLINE
  5
2A4
330
1F
100
AcDbEntity
  8
0
  6
Continuous
 62
     7
370
    25
100
AcDbSpline
210
0.0
220
0.0
230
1.0
 70
     8
 71
     3
 72
     9
 73
     5
 74
     0
 42
0.000000001
 43
0.00000001
 40
0.0
 40
0.0
 40
0.0
 40
0.0
 40
0.1367227567525186
 40
0.9999999999999999
 40
0.9999999999999999
 40
0.9999999999999999
 40
0.9999999999999999
 10
183.1748719203414
 20
56.06243355685923
 30
0.0
 10
183.1492966374089
 20
56.0765372808234
 30
0.0
 10
182.9622371928806
 20
56.17969292439848
 30
0.0
 10
182.8719426814418
 20
56.31717956565339
 30
0.0
 10
182.7939934845265
 20
56.43586865429929
 30
0.0
  0
SPLINE
  5
2A5
330
1F
100
AcDbEntity
  8
0
  6
Continuous
 62
     7
370
    25
100
AcDbSpline
210
0.0
220
0.0
230
1.0
 70
     8
 71
     3
 72
     9
 73
     5
 74
     0
 42
0.000000001
 43
0.00000001
 40
0.0
 40
0.0
 40
0.0
 40
0.0
 40
0.262489290812122
 40
0.9999999999999999
 40
0.9999999999999999
 40
0.9999999999999999
 40
0.9999999999999999
 10
188.9135183249559
 20
56.0512122980818
 30
0.0
 10
188.9121302248546
 20
56.00190186049835
 30
0.0
 10
188.9068420087258
 20
55.81404491048381
 30
0.0
 10
188.7465773263542
 20
55.67847583778864
 30
0.0
 10
188.6283804068005
 20
55.5784921948413
 30
0.0
  0
SPLINE
  5
2A6
330
1F
100
AcDbEntity
  8
0
  6
Continuous
 62
     7
370
    25
100
AcDbSpline
210
0.0
220
0.0
230
1.0
 70
     8
 71
     3
 72
    17
 73
    13
 74
     0
 42
0.000000001
 43
0.00000001
 40
0.0
 40
0.0
 40
0.0
 40
0.0
 40
0.0935531580251978
 40
0.1996575939696981
 40
0.3068116243051801
 40
0.4152859532544319
 40
0.5248701769796998
 40
0.634693212403193
 40
0.7434668505756752
 40
0.850250000182772
 40
0.9552188902067459
 40
1.0
 40
1.0
 40
1.0
 40
1.0
 10
182.4780162563345
 20
56.69039987808264
 30
0.0
 10
182.4644151656073
 20
56.65018813601528
 30
0.0
 10
182.4353882347449
 20
56.56436976451425
 30
0.0
 10
182.2932764587089
 20
56.4547982874156
 30
0.0
 10
182.089695071951
 20
56.37194012408565
 30
0.0
 10
181.8414101903473
 20
56.33006326275073
 30
0.0
 10
181.5782939475613
 20
56.3344321032396
 30
0.0
 10
181.3312951562772
 20
56.38609112222684
 30
0.0
 10
181.1295418084204
 20
56.48012242293255
 30
0.0
 10
181.0031258099899
 20
56.60496865087485
 30
0.0
 10
180.9528995231678
 20
56.72067846590224
 30
0.0
 10
180.9755173060908
 20
56.78704919932904
 30
0.0
 10
180.9822809082384
 20
56.80689664576825
 30
0.0
  0
LINE
  5
2A7
330
1F
100
AcDbEntity
  8
0
  6
Continuous
 62
     7
370
    25
100
AcDbLine
 10
187.1443763706
 20
51.9644437819
 30
0.0
 11
182.5680667848
 21
52.0420393732
 31
0.0
  0
ARC
  5
2A8
330
1F
100
AcDbEntity
  8
0
  6
Continuous
 62
     7
370
    25
100
AcDbCircle
 10
182.549775155
 20
50.251291765
 30
0.0
 40
1.790841025799479
100
AcDbArc
 50
89.4147713863
 51
114.0952764127
  0
SPLINE
  5
2A9
330
1F
100
AcDbEntity
  8
0
  6
Continuous
 62
     7
370
    25
100
AcDbSpline
210
0.0
220
0.0
230
1.0
 70
     8
 71
     3
 72
    11
 73
     7
 74
     0
 42
0.000000001
 43
0.00000001
 40
0.0
 40
0.0
 40
0.0
 40
0.0
 40
0.3062285685161949
 40
0.6132385430861804
 40
0.8968962304664649
 40
1.0
 40
1.0
 40
1.0
 40
1.0
 10
194.7361475935844
 20
54.30071199180568
 30
0.0
 10
194.9310170978632
 20
54.24978894857905
 30
0.0
 10
195.3212533565991
 20
54.14781292136145
 30
0.0
 10
195.6370876864852
 20
53.69141931515988
 30
0.0
 10
195.6958234296729
 20
53.17963722640588
 30
0.0
 10
195.6348081660913
 20
52.84929904997394
 30
0.0
 10
195.6185425750871
 20
52.76123672990011
 30
0.0
  0
ARC
  5
2AA
330
1F
100
AcDbEntity
  8
0
  6
Continuous
 62
     7
370
    25
100
AcDbCircle
 10
189.3169058312
 20
70.7156700539
 30
0.0
 40
19.02819754044968
100
AcDbArc
 50
281.8100439705
 51
289.3400239141
  0
SPLINE
  5
2AB
330
1F
100
AcDbEntity
  8
0
  6
Continuous
 62
     7
370
    25
100
AcDbSpline
210
0.0
220
0.0
230
1.0
 70
     8
 71
     3
 72
    10
 73
     6
 74
     0
 42
0.000000001
 43
0.00000001
 40
0.0
 40
0.0
 40
0.0
 40
0.0
 40
0.4116168118912636
 40
0.8227993245434041
 40
1.0
 40
1.0
 40
1.0
 40
1.0
 10
193.2113622008799
 20
52.09027042805378
 30
0.0
 10
193.1216197705801
 20
52.16551756870186
 30
0.0
 10
192.9422295977293
 20
52.31593245631196
 30
0.0
 10
192.6105757504533
 20
52.35972618719137
 30
0.0
 10
192.3980889760889
 20
52.33293562338036
 30
0.0
 10
192.3340953054608
 20
52.32486723172825
 30
0.0
  0
ARC
  5
2AC
330
1F
100
AcDbEntity
  8
0
  6
Continuous
 62
     7
370
    25
100
AcDbCircle
 10
187.761940955
 20
80.6156240243
 30
0.0
 40
28.65783514683342
100
AcDbArc
 50
268.7652038866
 51
279.18036596
  0
SPLINE
  5
2AD
330
1F
100
AcDbEntity
  8
0
  6
Continuous
 62
     7
370
    25
100
AcDbSpline
210
0.0
220
0.0
230
1.0
 70
     8
 71
     3
 72
     9
 73
     5
 74
     0
 42
0.000000001
 43
0.00000001
 40
0.0
 40
0.0
 40
0.0
 40
0.0
 40
0.5484759534665274
 40
1.0
 40
1.0
 40
1.0
 40
1.0
 10
193.7057921491172
 20
56.53737996563252
 30
0.0
 10
193.9683204269864
 20
56.35617511394517
 30
0.0
 10
194.4469709060272
 20
56.02579626954535
 30
0.0
 10
194.6973796666402
 20
55.53769140817636
 30
0.0
 10
194.8104452435196
 20
55.31730032603838
 30
0.0
  0
LINE
  5
2AE
330
1F
100
AcDbEntity
  8
0
  6
Continuous
 62
     7
370
    25
100
AcDbLine
 10
193.8147871921
 20
52.2274649482
 30
0.0
 11
194.9818492324
 21
52.1171232982
 31
0.0
  0
LINE
  5
2AF
330
1F
100
AcDbEntity
  8
0
  6
Continuous
 62
     7
370
    25
100
AcDbLine
 10
200.4999550082
 20
54.1175961089
 30
0.0
 11
195.1572663916
 21
54.6227286038
 31
0.0
  0
LWPOLYLINE
  5
2B0
330
1F
100
AcDbEntity
  8
0
  6
Continuous
 62
     7
370
    25
100
AcDbPolyline
 90
        9
 70
   128
 43
0.0
 10
200.6548025296
 20
53.9102736607
 10
200.6938160234
 20
53.9297890741
 10
200.7159286309
 20
53.957211941
 10
200.7189526673
 20
53.9898160631
 10
200.7025812508
 20
54.0243694407
 10
200.6684423035
 20
54.057442917
 10
200.6199220612
 20
54.085752835
 10
200.5618384356
 20
54.1064903439
 10
200.4999550082
 20
54.1175961089
  0
LINE
  5
2B1
330
1F
100
AcDbEntity
  8
0
  6
Continuous
 62
     7
370
    25
100
AcDbLine
 10
195.0895252107
 20
52.1260983088
 30
0.0
 11
200.6548025296
 21
53.9102736607
 31
0.0
  0
ARC
  5
2B2
330
1F
100
AcDbEntity
  8
0
  6
Continuous
 62
     7
370
    25
100
AcDbCircle
 10
195.013271949
 20
52.3905337629
 30
0.0
 40
0.2752102275184694
100
AcDbArc
 50
263.4438339831
 51
286.0855762411
  0
LWPOLYLINE
  5
2B3
330
1F
100
AcDbEntity
  8
0
  6
Continuous
 62
     7
370
    25
100
AcDbPolyline
 90
        9
 70
   128
 43
0.0
 10
200.6482407922
 20
53.9152317567
 10
200.6853010429
 20
53.9337728058
 10
200.7063099298
 20
53.9598231989
 10
200.7091798668
 20
53.9907986355
 10
200.6936289967
 20
54.0236247243
 10
200.6611969968
 20
54.0550436147
 10
200.6151028325
 20
54.0819371621
 10
200.5599247053
 20
54.1016374932
 10
200.5011324858
 20
54.1121883873
  0
LINE
  5
2B4
330
1F
100
AcDbEntity
  8
0
  6
Continuous
 62
     7
370
    25
100
AcDbLine
 10
200.5011324858
 20
54.1121883873
 30
0.0
 11
195.1598162759
 21
54.6171913545
 31
0.0
  0
LINE
  5
2B5
330
1F
100
AcDbEntity
  8
0
  6
Continuous
 62
     7
370
    25
100
AcDbLine
 10
193.8304585757
 20
52.2312784184
 30
0.0
 11
194.9806704378
 21
52.122530304
 31
0.0
  0
ARC
  5
2B6
330
1F
100
AcDbEntity
  8
0
  6
Continuous
 62
     7
370
    25
100
AcDbCircle
 10
195.010519281
 20
52.3823126025
 30
0.0
 40
0.2614914836484825
100
AcDbArc
 50
263.4454895429
 51
286.0837567144
  0
LINE
  5
2B7
330
1F
100
AcDbEntity
  8
0
  6
Continuous
 62
     7
370
    25
100
AcDbLine
 10
195.0829634733
 20
52.131056488
 30
0.0
 11
200.6482407922
 21
53.9152317567
 31
0.0
  0
LINE
  5
2B8
330
1F
100
AcDbEntity
  8
0
  6
Continuous
 62
     7
370
    25
100
AcDbLine
 10
194.2653225147
 20
50.1535283282
 30
0.0
 11
194.5440495021
 21
50.1271754768
 31
0.0
  0
LINE
  5
2B9
330
1F
100
AcDbEntity
  8
0
  6
Continuous
 62
     7
370
    25
100
AcDbLine
 10
194.938083023
 20
52.133554019
 30
0.0
 11
194.9806704378
 21
52.122530304
 31
0.0
  0
LINE
  5
2BA
330
1F
100
AcDbEntity
  8
0
  6
Continuous
 62
     7
370
    25
100
AcDbLine
 10
194.8490352931
 20
52.1481384083
 30
0.0
 11
194.938083023
 21
52.133554019
 31
0.0
  0
LINE
  5
2BB
330
1F
100
AcDbEntity
  8
0
  6
Continuous
 62
     7
370
    25
100
AcDbLine
 10
196.5646708355
 20
53.9547737796
 30
0.0
 11
195.4148916373
 21
54.0634810621
 31
0.0
  0
LWPOLYLINE
  5
2BC
330
1F
100
AcDbEntity
  8
0
  6
Continuous
 62
     7
370
    25
100
AcDbPolyline
 90
        9
 70
   128
 43
0.0
 10
196.9517935904
 20
53.4364669106
 10
197.0493266662
 20
53.4852566025
 10
197.1046141118
 20
53.5538110655
 10
197.1121663002
 20
53.6353244255
 10
197.0712390761
 20
53.7217086247
 10
196.985893025
 20
53.8043900524
 10
196.864594395
 20
53.8751644493
 10
196.7193826968
 20
53.9270067268
 10
196.5646708355
 20
53.9547737796
  0
LINE
  5
2BD
330
1F
100
AcDbEntity
  8
0
  6
Continuous
 62
     7
370
    25
100
AcDbLine
 10
195.6606472767
 20
53.0225365582
 30
0.0
 11
196.9517935904
 21
53.4364669106
 31
0.0
  0
ARC
  5
2BE
330
1F
100
AcDbEntity
  8
0
  6
Continuous
 62
     7
370
    25
100
AcDbCircle
 10
194.5754734567
 20
50.4006312724
 30
0.0
 40
0.275255403278063
100
AcDbArc
 50
263.4446553146
 51
286.0833097333
  0
LINE
  5
2BF
330
1F
100
AcDbEntity
  8
0
  6
Continuous
 62
     7
370
    25
100
AcDbLine
 10
194.938083023
 20
52.133554019
 30
0.0
 11
195.0829634733
 21
52.131056488
 31
0.0
  0
LINE
  5
2C0
330
1F
100
AcDbEntity
  8
0
  6
Continuous
 62
     7
370
    25
100
AcDbLine
 10
194.6517287731
 20
50.1361493944
 30
0.0
 11
200.2170034578
 21
51.9203261363
 31
0.0
  0
LINE
  5
2C1
330
1F
100
AcDbEntity
  8
0
  6
Continuous
 62
     7
370
    25
100
AcDbLine
 10
198.953049764
 20
53.5502403202
 30
0.0
 11
200.5033596833
 21
53.9177289818
 31
0.0
  0
LINE
  5
2C2
330
1F
100
AcDbEntity
  8
0
  6
Continuous
 62
     7
370
    25
100
AcDbLine
 10
200.5033596833
 20
53.9177289818
 30
0.0
 11
200.6482407922
 21
53.9152317567
 31
0.0
  0
LINE
  5
2C3
330
1F
100
AcDbEntity
  8
0
  6
Continuous
 62
     7
370
    25
100
AcDbLine
 10
197.9673666863
 20
53.2342396023
 30
0.0
 11
198.953049764
 21
53.5502403202
 31
0.0
  0
SPLINE
  5
2C4
330
1F
100
AcDbEntity
  8
0
  6
Continuous
 62
     7
370
    25
100
AcDbSpline
210
0.0
220
0.0
230
1.0
 70
     8
 71
     3
 72
    11
 73
     7
 74
     0
 42
0.000000001
 43
0.00000001
 40
0.0
 40
0.0
 40
0.0
 40
0.0
 40
0.3243039232612212
 40
0.6484497883649337
 40
0.9886678774899216
 40
0.9999999999999999
 40
0.9999999999999999
 40
0.9999999999999999
 40
0.9999999999999999
 10
194.8490352931428
 20
52.14813840834483
 30
0.0
 10
194.8313592068112
 20
52.15492081875746
 30
0.0
 10
194.7960156490597
 20
52.16848233399431
 30
0.0
 10
194.7465259474483
 20
52.23741439630365
 30
0.0
 10
194.7196629135528
 20
52.30321419530662
 30
0.0
 10
194.708532080706
 20
52.34098535285278
 30
0.0
 10
194.7081732814298
 20
52.3422028955266
 30
0.0
  0
LINE
  5
2C5
330
1F
100
AcDbEntity
  8
0
  6
Continuous
 62
     7
370
    25
100
AcDbLine
 10
200.5033596833
 20
53.9177289818
 30
0.0
 11
200.5011324858
 21
54.1121883873
 31
0.0
  0
LINE
  5
2C6
330
1F
100
AcDbEntity
  8
0
  6
Continuous
 62
     7
370
    25
100
AcDbLine
 10
198.953049764
 20
53.5502403202
 30
0.0
 11
197.6385185349
 21
53.6745232865
 31
0.0
  0
SPLINE
  5
2C7
330
1F
100
AcDbEntity
  8
0
  6
Continuous
 62
     7
370
    25
100
AcDbSpline
210
0.0
220
0.0
230
1.0
 70
     8
 71
     3
 72
    14
 73
    10
 74
     0
 42
0.000000001
 43
0.00000001
 40
0.0
 40
0.0
 40
0.0
 40
0.0
 40
0.2210573421973248
 40
0.3460836605176478
 40
0.4396024968410258
 40
0.5338897132522636
 40
0.6146539236345546
 40
0.7517264288364615
 40
1.0
 40
1.0
 40
1.0
 40
1.0
 10
197.6858744705048
 20
53.32471876049937
 30
0.0
 10
197.6939901899122
 20
53.30850111706247
 30
0.0
 10
197.7066960238479
 20
53.28311104700273
 30
0.0
 10
197.7373981422129
 20
53.25175137292918
 30
0.0
 10
197.7686184983622
 20
53.23203980443558
 30
0.0
 10
197.8028109854476
 20
53.22025356629938
 30
0.0
 10
197.8441655046399
 20
53.21433442183505
 30
0.0
 10
197.9027219638741
 20
53.21625120524048
 30
0.0
 10
197.942036701395
 20
53.22719114100992
 30
0.0
 10
197.967366686264
 20
53.23423960234991
 30
0.0
  0
ARC
  5
2C8
330
1F
100
AcDbEntity
  8
0
  6
Continuous
 62
     7
370
    25
100
AcDbCircle
 10
197.0360307709
 20
53.0151983215
 30
0.0
 40
0.7197914531438205
100
AcDbArc
 50
25.4684518898
 51
48.0437384173
  0
SPLINE
  5
2C9
330
1F
100
AcDbEntity
  8
0
  6
Continuous
 62
     7
370
    25
100
AcDbSpline
210
0.0
220
0.0
230
1.0
 70
     8
 71
     3
 72
    14
 73
    10
 74
     0
 42
0.000000001
 43
0.00000001
 40
0.0
 40
0.0
 40
0.0
 40
0.0
 40
0.2234976386500534
 40
0.3567614025751713
 40
0.453118893065493
 40
0.5344617439177743
 40
0.615728776544014
 40
0.7396162692647539
 40
1.0
 40
1.0
 40
1.0
 40
1.0
 10
197.6385185349358
 20
53.67452328646151
 30
0.0
 10
197.6095076602623
 20
53.67658491021785
 30
0.0
 10
197.5631986236167
 20
53.67987580755054
 30
0.0
 10
197.5091880477297
 20
53.67434944248699
 30
0.0
 10
197.4787955867873
 20
53.66417743746045
 30
0.0
 10
197.4630345065756
 20
53.6502019890593
 30
0.0
 10
197.4584025306586
 20
53.63070273646423
 30
0.0
 10
197.4715783111819
 20
53.5961441582218
 30
0.0
 10
197.4988067103372
 20
53.56892138809329
 30
0.0
 10
197.5172567834139
 20
53.55047512926793
 30
0.0
  0
ARC
  5
2CA
330
1F
100
AcDbEntity
  8
0
  6
Continuous
 62
     7
370
    25
100
AcDbCircle
 10
200.2036478987
 20
52.0001649112
 30
0.0
 40
0.0809481373595376
100
AcDbArc
 50
279.49660039
 51
343.021795039
  0
LINE
  5
2CB
330
1F
100
AcDbEntity
  8
0
  6
Continuous
 62
     7
370
    25
100
AcDbLine
 10
194.2653225147
 20
50.1535283282
 30
0.0
 11
194.6055858765
 21
50.1213575315
 31
0.0
  0
LINE
  5
2CC
330
1F
100
AcDbEntity
  8
0
  6
Continuous
 62
     7
370
    25
100
AcDbLine
 10
194.6055858765
 20
50.1213575315
 30
0.0
 11
200.1009692326
 21
51.8831259076
 31
0.0
  0
LINE
  5
2CD
330
1F
100
AcDbEntity
  8
0
  6
Continuous
 62
     7
370
    25
100
AcDbLine
 10
194.3406988605
 20
48.9173558254
 30
0.0
 11
194.6055858765
 21
50.1213575315
 31
0.0
  0
LINE
  5
2CE
330
1F
100
AcDbEntity
  8
0
  6
Continuous
 62
     7
370
    25
100
AcDbLine
 10
194.0004354987
 20
48.9495265745
 30
0.0
 11
194.3406988605
 21
48.9173558254
 31
0.0
  0
LINE
  5
2CF
330
1F
100
AcDbEntity
  8
0
  6
Continuous
 62
     7
370
    25
100
AcDbLine
 10
194.249266541
 20
48.877413
 30
0.0
 11
194.3406988605
 21
48.9173558254
 31
0.0
  0
LINE
  5
2D0
330
1F
100
AcDbEntity
  8
0
  6
Continuous
 62
     7
370
    25
100
AcDbLine
 10
194.249266541
 20
48.877413
 30
0.0
 11
193.9899639825
 21
48.901929606
 31
0.0
  0
LINE
  5
2D1
330
1F
100
AcDbEntity
  8
0
  6
Continuous
 62
     7
370
    25
100
AcDbLine
 10
194.3406988605
 20
48.9173558254
 30
0.0
 11
199.8360815581
 21
50.6791236311
 31
0.0
  0
LINE
  5
2D2
330
1F
100
AcDbEntity
  8
0
  6
Continuous
 62
     7
370
    25
100
AcDbLine
 10
199.7100427247
 20
50.628086671
 30
0.0
 11
194.249266541
 21
48.877413
 31
0.0
  0
ARC
  5
2D3
330
1F
100
AcDbEntity
  8
0
  6
Continuous
 62
     7
370
    25
100
AcDbCircle
 10
199.8193777081
 20
50.7789342971
 30
0.0
 40
0.1011987531850273
100
AcDbArc
 50
279.500710696
 51
343.016753419
  0
LINE
  5
2D4
330
1F
100
AcDbEntity
  8
0
  6
Continuous
 62
     7
370
    25
100
AcDbLine
 10
199.7155692302
 20
50.6300768675
 30
0.0
 11
199.7100427247
 21
50.628086671
 31
0.0
  0
SPLINE
  5
2D5
330
1F
100
AcDbEntity
  8
0
  6
Continuous
 62
     7
370
    25
100
AcDbSpline
210
0.0
220
0.0
230
1.0
 70
     8
 71
     3
 72
    12
 73
     8
 74
     0
 42
0.000000001
 43
0.00000001
 40
0.0
 40
0.0
 40
0.0
 40
0.0
 40
0.5
 40
0.5
 40
0.75
 40
0.75
 40
1.0
 40
1.0
 40
1.0
 40
1.0
 10
165.1996683456008
 20
38.80464027018471
 30
0.0
 10
165.3578369987155
 20
38.61899026213045
 30
0.0
 10
165.4966802038195
 20
38.42248099868126
 30
0.0
 10
165.6825712939799
 20
38.11514498035233
 30
0.0
 10
165.7404581584788
 20
38.01038081495314
 30
0.0
 10
165.8439677419251
 20
37.79671528627714
 30
0.0
 10
165.8900336947153
 20
37.68772154106939
 30
0.0
 10
165.9252490544997
 20
37.57460605429219
 30
0.0
  0
ELLIPSE
  5
2D6
330
1F
100
AcDbEntity
  8
0
  6
Continuous
 62
     7
370
    25
100
AcDbEllipse
 10
181.9063738596
 20
46.5057316111
 30
0.0
 11
18.94688736575165
 21
2.962113959420847
 31
0.0
210
0.0
220
0.0
230
1.0
 40
0.6803473855
 41
2.558667151013965
 42
3.537216861484878
  0
LINE
  5
2D7
330
1F
100
AcDbEntity
  8
0
  6
Continuous
 62
     7
370
    25
100
AcDbLine
 10
187.2430862654
 20
49.6352872491
 30
0.0
 11
164.9791139676
 21
51.1285906569
 31
0.0
  0
LINE
  5
2D8
330
1F
100
AcDbEntity
  8
0
  6
Continuous
 62
     7
370
    25
100
AcDbLine
 10
187.2430862654
 20
49.6352872491
 30
0.0
 11
183.65668679
 21
33.3338440703
 31
0.0
  0
LINE
  5
2D9
330
1F
100
AcDbEntity
  8
0
  6
Continuous
 62
     7
370
    25
100
AcDbLine
 10
183.65668679
 20
33.3338440703
 30
0.0
 11
182.3186172045
 21
33.203094983
 31
0.0
  0
ELLIPSE
  5
2DA
330
1F
100
AcDbEntity
  8
0
  6
Continuous
 62
     7
370
    25
100
AcDbEllipse
 10
181.9063738596
 20
46.5057316111
 30
0.0
 11
19.2476316096525
 21
3.009131641316415
 31
0.0
210
0.0
220
0.0
230
1.0
 40
0.6803473855
 41
3.63539582076376
 42
4.627722769268098
  0
LINE
  5
2DB
330
1F
100
AcDbEntity
  8
0
  6
Continuous
 62
     7
370
    25
100
AcDbLine
 10
165.9284829255
 20
37.6493016279
 30
0.0
 11
165.9252488135
 21
37.5746066046
 31
0.0
  0
ARC
  5
2DC
330
1F
100
AcDbEntity
  8
0
  6
Continuous
 62
     7
370
    25
100
AcDbCircle
 10
187.8204991252
 20
53.3915056569
 30
0.0
 40
1.747370565237586
100
AcDbArc
 50
234.4283023657
 51
284.455016931
  0
LINE
  5
2DD
330
1F
100
AcDbEntity
  8
0
  6
Continuous
 62
     7
370
    25
100
AcDbLine
 10
188.2566774716
 20
51.699450001
 30
0.0
 11
189.1762255586
 21
51.9942483615
 31
0.0
  0
LINE
  5
2DE
330
1F
100
AcDbEntity
  8
0
  6
Continuous
 62
     7
370
    25
100
AcDbLine
 10
191.9984964144
 20
52.2711628811
 30
0.0
 11
193.09700463
 21
52.1673027059
 31
0.0
  0
LINE
  5
2DF
330
1F
100
AcDbEntity
  8
0
  6
Continuous
 62
     7
370
    25
100
AcDbLine
 10
193.4236394132
 20
52.1364207983
 30
0.0
 11
194.6755272545
 21
52.0180597526
 31
0.0
  0
LINE
  5
2E0
330
1F
100
AcDbEntity
  8
0
  6
Continuous
 62
     7
370
    25
100
AcDbLine
 10
194.6755272545
 20
52.0180597526
 30
0.0
 11
187.2430862654
 21
49.6352872491
 31
0.0
  0
ELLIPSE
  5
2E1
330
1F
100
AcDbEntity
  8
0
  6
Continuous
 62
     7
370
    25
100
AcDbEllipse
 10
215.2549358484
 20
27.2540165592
 30
0.0
 11
125.7215204931067
 21
-87.00508042089913
 31
0.0
210
0.0
220
0.0
230
1.0
 40
0.0629243021
 41
4.344453508609618
 42
4.344915171175817
  0
ELLIPSE
  5
2E2
330
1F
100
AcDbEntity
  8
0
  6
Continuous
 62
     7
370
    25
100
AcDbEllipse
 10
161.0829942203
 20
58.526812801
 30
0.0
 11
-0.7461041289971605
 21
17.93477386060238
 31
0.0
210
0.0
220
0.0
230
1.0
 40
0.4444802122
 41
2.401404845694032
 42
2.866866793327966
  0
SPLINE
  5
2E3
330
1F
100
AcDbEntity
  8
0
  6
Continuous
 62
     7
370
    25
100
AcDbSpline
210
0.0
220
0.0
230
1.0
 70
     8
 71
     3
 72
    12
 73
     8
 74
     0
 42
0.000000001
 43
0.00000001
 40
0.0
 40
0.0
 40
0.0
 40
0.0
 40
0.5
 40
0.5
 40
0.75
 40
0.75
 40
1.0
 40
1.0
 40
1.0
 40
1.0
 10
156.2575800305286
 20
45.06115853627264
 30
0.0
 10
156.2335298351825
 20
45.10576879970019
 30
0.0
 10
156.2054403553842
 20
45.15307511006009
 30
0.0
 10
156.1534001927804
 20
45.22467259634862
 30
0.0
 10
156.1340573892058
 20
45.24904146345537
 30
0.0
 10
156.0911956157605
 20
45.29442315507126
 30
0.0
 10
156.0673380115759
 20
45.3153394326209
 30
0.0
 10
156.0451785175491
 20
45.32813183622855
 30
0.0
  0
LINE
  5
2E4
330
1F
100
AcDbEntity
  8
0
  6
Continuous
 62
     7
370
    25
100
AcDbLine
 10
156.0451783294
 20
45.328131555
 30
0.0
 11
155.0041452442
 21
45.929107163
 31
0.0
  0
SPLINE
  5
2E5
330
1F
100
AcDbEntity
  8
0
  6
Continuous
 62
     7
370
    25
100
AcDbSpline
210
0.0
220
0.0
230
1.0
 70
     8
 71
     3
 72
    12
 73
     8
 74
     0
 42
0.000000001
 43
0.00000001
 40
0.0
 40
0.0
 40
0.0
 40
0.0
 40
0.2499999999999982
 40
0.2499999999999982
 40
0.4999999999999964
 40
0.4999999999999964
 40
1.0
 40
1.0
 40
1.0
 40
1.0
 10
155.0041453768663
 20
45.92910747621858
 30
0.0
 10
154.9818432153782
 20
45.94198223999859
 30
0.0
 10
154.9637261864753
 20
45.94531270840709
 30
0.0
 10
154.9371575724299
 20
45.93989255067454
 30
0.0
 10
154.9285578026355
 20
45.93187003426404
 30
0.0
 10
154.9101940040445
 20
45.90074830663803
 30
0.0
 10
154.9080165661206
 20
45.87120664323585
 30
0.0
 10
154.9103606719978
 20
45.8388917174362
 30
0.0
  0
ELLIPSE
  5
2E6
330
1F
100
AcDbEntity
  8
0
  6
Continuous
 62
     7
370
    25
100
AcDbEllipse
 10
171.2279642383
 20
52.6702462701
 30
0.0
 11
15.90471575942232
 21
8.32220498109897
 31
0.0
210
0.0
220
0.0
230
1.0
 40
0.4445305117
 41
2.95090828102153
 42
3.578705763440489
  0
SPLINE
  5
2E7
330
1F
100
AcDbEntity
  8
0
  6
Continuous
 62
     7
370
    25
100
AcDbSpline
210
0.0
220
0.0
230
1.0
 70
     8
 71
     3
 72
    12
 73
     8
 74
     0
 42
0.000000001
 43
0.00000001
 40
0.0
 40
0.0
 40
0.0
 40
0.0
 40
0.5000000000000047
 40
0.5000000000000047
 40
0.7500000000000023
 40
0.7500000000000023
 40
1.0
 40
1.0
 40
1.0
 40
1.0
 10
168.9853606719977
 20
70.21750676241975
 30
0.0
 10
168.9564281402828
 20
70.20349271934586
 30
0.0
 10
168.9317074590983
 20
70.18668297667836
 30
0.0
 10
168.9139895334151
 20
70.15536906881387
 30
0.0
 10
168.9113235510307
 20
70.14370973370505
 30
0.0
 10
168.919916724008
 20
70.11811731510868
 30
0.0
 10
168.9319858828395
 20
70.1040085744991
 30
0.0
 10
168.9541453768662
 20
70.09121617089146
 30
0.0
  0
LINE
  5
2E8
330
1F
100
AcDbEntity
  8
0
  6
Continuous
 62
     7
370
    25
100
AcDbLine
 10
168.9541455819
 20
70.0912164424
 30
0.0
 11
169.995178667
 21
69.4902408345
 31
0.0
  0
SPLINE
  5
2E9
330
1F
100
AcDbEntity
  8
0
  6
Continuous
 62
     7
370
    25
100
AcDbSpline
210
0.0
220
0.0
230
1.0
 70
     8
 71
     3
 72
    12
 73
     8
 74
     0
 42
0.000000001
 43
0.00000001
 40
0.0
 40
0.0
 40
0.0
 40
0.0
 40
0.2499999999999982
 40
0.2499999999999982
 40
0.4999999999999964
 40
0.4999999999999964
 40
1.0
 40
1.0
 40
1.0
 40
1.0
 10
169.995178517549
 20
69.49024053090142
 30
0.0
 10
170.0174806790371
 20
69.4773657671214
 30
0.0
 10
170.0473605160168
 20
69.46724256666876
 30
0.0
 10
170.1083970578218
 20
69.4527583447786
 30
0.0
 10
170.1386460084807
 20
69.44827899227914
 30
0.0
 10
170.2270480774033
 20
69.43895534324892
 30
0.0
 10
170.2815356357677
 20
69.43828920006015
 30
0.0
 10
170.3325800305284
 20
69.43977358125618
 30
0.0
  0
ELLIPSE
  5
2EA
330
1F
100
AcDbEntity
  8
0
  6
Continuous
 62
     7
370
    25
100
AcDbEllipse
 10
161.0829942203
 20
58.526812801
 30
0.0
 11
15.90471575942229
 21
8.322204981099006
 31
0.0
210
0.0
220
0.0
230
1.0
 40
0.4445305117
 41
0.2747775750656691
 42
0.7400769945754174
  0
ELLIPSE
  5
2EB
330
1F
100
AcDbEntity
  8
0
  6
Continuous
 62
     7
370
    25
100
AcDbEllipse
 10
171.2279642383
 20
52.6702462701
 30
0.0
 11
-0.746104128997189
 21
17.93477386060239
 31
0.0
210
0.0
220
0.0
230
1.0
 40
0.4444802122
 41
5.846123912132794
 42
6.473758866427517
  0
SPLINE
  5
2EC
330
1F
100
AcDbEntity
  8
0
  6
Continuous
 62
     7
370
    25
100
AcDbSpline
210
0.0
220
0.0
230
1.0
 70
     8
 71
     3
 72
    12
 73
     8
 74
     0
 42
0.000000001
 43
0.00000001
 40
0.0
 40
0.0
 40
0.0
 40
0.0
 40
0.5000000000000018
 40
0.5000000000000018
 40
0.7500000000000009
 40
0.7500000000000009
 40
1.0
 40
1.0
 40
1.0
 40
1.0
 10
154.9103606719978
 20
53.93029618782441
 30
0.0
 10
154.9080023559925
 20
53.86963532080095
 30
0.0
 10
154.9101970062264
 20
53.80828431311847
 30
0.0
 10
154.9285766449871
 20
53.71679157310896
 30
0.0
 10
154.9373692812156
 20
53.68646365715469
 30
0.0
 10
154.9635099242705
 20
53.63221046267103
 30
0.0
 10
154.9818842032399
 20
53.60769796409033
 30
0.0
 10
155.0041453768663
 20
53.5948468620992
 30
0.0
  0
LINE
  5
2ED
330
1F
100
AcDbEntity
  8
0
  6
Continuous
 62
     7
370
    25
100
AcDbLine
 10
155.0041452442
 20
53.5948468729
 30
0.0
 11
156.0451783294
 21
52.993871265
 31
0.0
  0
SPLINE
  5
2EE
330
1F
100
AcDbEntity
  8
0
  6
Continuous
 62
     7
370
    25
100
AcDbSpline
210
0.0
220
0.0
230
1.0
 70
     8
 71
     3
 72
    12
 73
     8
 74
     0
 42
0.000000001
 43
0.00000001
 40
0.0
 40
0.0
 40
0.0
 40
0.0
 40
0.2499999999999991
 40
0.2499999999999991
 40
0.4999999999999981
 40
0.4999999999999981
 40
1.0
 40
1.0
 40
1.0
 40
1.0
 10
156.0451785175491
 20
52.99387122210922
 30
0.0
 10
156.0674725177537
 20
52.98100116973787
 30
0.0
 10
156.0911713715226
 20
52.98089322584023
 30
0.0
 10
156.1342194308037
 20
52.99581840230445
 30
0.0
 10
156.1532184582142
 20
53.00983634036112
 30
0.0
 10
156.2054819269634
 20
53.06050292257925
 30
0.0
 10
156.2331895336712
 20
53.10459764308248
 30
0.0
 10
156.2575800305286
 20
53.15256300666081
 30
0.0
  0
ELLIPSE
  5
2EF
330
1F
100
AcDbEntity
  8
0
  6
Continuous
 62
     7
370
    25
100
AcDbEllipse
 10
161.0829942203
 20
58.526812801
 30
0.0
 11
7.874888476696753
 21
13.63996451050157
 31
0.0
210
0.0
220
0.0
230
1.0
 40
0.1059897947
 41
1.105338485463656
 42
2.03609985260734
  0
SPLINE
  5
2F0
330
1F
100
AcDbEntity
  8
0
  6
Continuous
 62
     7
370
    25
100
AcDbSpline
210
0.0
220
0.0
230
1.0
 70
     8
 71
     3
 72
    12
 73
     8
 74
     0
 42
0.000000001
 43
0.00000001
 40
0.0
 40
0.0
 40
0.0
 40
0.0
 40
0.5000000000000009
 40
0.5000000000000009
 40
0.7500000000000004
 40
0.7500000000000004
 40
1.0
 40
1.0
 40
1.0
 40
1.0
 10
163.32559778659
 20
65.39472883302888
 30
0.0
 10
163.3549286352363
 20
65.43981372656134
 30
0.0
 10
163.3792644437436
 20
65.48584404754547
 30
0.0
 10
163.3970170926153
 20
65.55647128108502
 30
0.0
 10
163.3995847341323
 20
65.58023891635051
 30
0.0
 10
163.3911304008887
 20
65.62427870238483
 30
0.0
 10
163.3790742553479
 20
65.64514263447366
 30
0.0
 10
163.3568130817215
 20
65.65799373646477
 30
0.0
  0
LINE
  5
2F1
330
1F
100
AcDbEntity
  8
0
  6
Continuous
 62
     7
370
    25
100
AcDbLine
 10
163.3568129505
 20
65.657993878
 30
0.0
 11
162.3157798654
 21
66.2589694859
 31
0.0
  0
SPLINE
  5
2F2
330
1F
100
AcDbEntity
  8
0
  6
Continuous
 62
     7
370
    25
100
AcDbSpline
210
0.0
220
0.0
230
1.0
 70
     8
 71
     3
 72
    12
 73
     8
 74
     0
 42
0.000000001
 43
0.00000001
 40
0.0
 40
0.0
 40
0.0
 40
0.0
 40
0.2500000000000009
 40
0.2500000000000009
 40
0.5000000000000018
 40
0.5000000000000018
 40
1.0
 40
1.0
 40
1.0
 40
1.0
 10
162.3157799410387
 20
66.25896937645477
 30
0.0
 10
162.293485940834
 20
66.27183942882613
 30
0.0
 10
162.2636189867283
 20
66.2755092987993
 30
0.0
 10
162.2026073625775
 20
66.27095763875407
 30
0.0
 10
162.1723683820015
 20
66.26343049690391
 30
0.0
 10
162.0839926238712
 20
66.2336178726579
 30
0.0
 10
162.0297516355205
 20
66.20484552675687
 30
0.0
 10
161.9783784280592
 20
66.17246201419248
 30
0.0
  0
ELLIPSE
  5
2F3
330
1F
100
AcDbEntity
  8
0
  6
Continuous
 62
     7
370
    25
100
AcDbEllipse
 10
171.2279642383
 20
52.6702462701
 30
0.0
 11
14.30238360604704
 21
-8.263902107297795
 31
0.0
210
0.0
220
0.0
230
1.0
 40
0.9534948969
 41
2.676532761479948
 42
3.607294128623638
  0
LINE
  5
2F4
330
1F
100
AcDbEntity
  8
0
  6
Continuous
 62
     7
370
    25
100
AcDbLine
 10
183.4739360792
 20
61.7051695002
 30
0.0
 11
183.7451701472
 21
61.2281727584
 31
0.0
  0
ELLIPSE
  5
2F5
330
1F
100
AcDbEntity
  8
0
  6
Continuous
 62
     7
370
    25
100
AcDbEllipse
 10
174.2117982493
 20
50.9477155607
 30
0.0
 11
3.218010367823638
 21
15.89423835508741
 31
0.0
210
0.0
220
0.0
230
1.0
 40
0.662975265
 41
5.581105192735091
 42
7.76897788829356
  0
SPLINE
  5
2F6
330
1F
100
AcDbEntity
  8
0
  6
Continuous
 62
     7
370
    25
100
AcDbSpline
210
0.0
220
0.0
230
1.0
 70
     8
 71
     3
 72
    18
 73
    14
 74
     0
 42
0.000000001
 43
0.00000001
 40
0.0
 40
0.0
 40
0.0
 40
0.0
 40
0.2499999999999997
 40
0.2499999999999997
 40
0.4999999999999993
 40
0.4999999999999993
 40
0.6249999999999994
 40
0.6249999999999994
 40
0.7499999999999997
 40
0.7499999999999997
 40
0.8749999999999998
 40
0.8749999999999998
 40
1.0
 40
1.0
 40
1.0
 40
1.0
 10
164.9258608809538
 20
51.16738557472176
 30
0.0
 10
164.7100183796859
 20
51.32463383294728
 30
0.0
 10
164.5213896246984
 20
51.52342583890233
 30
0.0
 10
164.2006290433196
 20
52.00260532479838
 30
0.0
 10
164.0769502580219
 20
52.27097275820703
 30
0.0
 10
163.9492516687387
 20
52.71198549010168
 30
0.0
 10
163.9172982901673
 20
52.86288142002663
 30
0.0
 10
163.8745793419805
 20
53.1687208746494
 30
0.0
 10
163.8636722086781
 20
53.32417784454763
 30
0.0
 10
163.8630525917405
 20
53.63995744850586
 30
0.0
 10
163.8734534697181
 20
53.79858843921182
 30
0.0
 10
163.9144388110246
 20
54.11227812589274
 30
0.0
 10
163.94502124346
 20
54.26811407136204
 30
0.0
 10
163.9855721066619
 20
54.42291699486258
 30
0.0
  0
ARC
  5
2F7
330
1F
100
AcDbEntity
  8
0
  6
Continuous
 62
     7
370
    25
100
AcDbCircle
 10
167.1112993804
 20
66.4997770729
 30
0.0
 40
5.831564457405471
100
AcDbArc
 50
60.7133971849
 51
95.3613422559
  0
ARC
  5
2F8
330
1F
100
AcDbEntity
  8
0
  6
Continuous
 62
     7
370
    25
100
AcDbCircle
 10
157.2724708957
 20
49.3947005007
 30
0.0
 40
5.936936057141078
100
AcDbArc
 50
204.0768307534
 51
239.0059920426
  0
ARC
  5
2F9
330
1F
100
AcDbEntity
  8
0
  6
Continuous
 62
     7
370
    25
100
AcDbCircle
 10
170.1027357303
 20
41.0865612292
 30
0.0
 40
5.457583918307336
100
AcDbArc
 50
220.0532949705
 51
247.9327718846
  0
LINE
  5
2FA
330
1F
100
AcDbEntity
  8
0
  6
Continuous
 62
     7
370
    25
100
AcDbLine
 10
194.6755272545
 20
52.0180597526
 30
0.0
 11
193.9728438009
 21
48.8241090371
 31
0.0
  0
LINE
  5
2FB
330
1F
100
AcDbEntity
  8
0
  6
Continuous
 62
     7
370
    25
100
AcDbLine
 10
193.9728438009
 20
48.8241090371
 30
0.0
 11
194.1641997128
 21
48.8854559724
 31
0.0
  0
LINE
  5
2FC
330
1F
100
AcDbEntity
  8
0
  6
Continuous
 62
     7
370
    25
100
AcDbLine
 10
199.1206572438
 20
48.4056914587
 30
0.0
 11
199.6019742538
 21
50.5934410325
 31
0.0
  0
ELLIPSE
  5
2FD
330
1F
100
AcDbEntity
  8
0
  6
Continuous
 62
     7
370
    25
100
AcDbEllipse
 10
188.4089460604
 20
47.8544272815
 30
0.0
 11
9.678972728459938
 21
12.84264853194172
 31
0.0
210
0.0
220
0.0
230
1.0
 40
0.565819268
 41
3.996336910483316
 42
5.154968660521078
  0
LINE
  5
2FE
330
1F
100
AcDbEntity
  8
0
  6
Continuous
 62
     7
370
    25
100
AcDbLine
 10
187.5375169051
 20
35.2928390901
 30
0.0
 11
183.65668679
 21
33.3338440703
 31
0.0
  0
ELLIPSE
  5
2FF
330
1F
100
AcDbEntity
  8
0
  6
Continuous
 62
     7
370
    25
100
AcDbEllipse
 10
190.4218834464
 20
42.3642296048
 30
0.0
 11
1.071598078817374
 21
1.096160197412075
 31
0.0
210
0.0
220
0.0
230
1.0
 40
0.6673178347
 41
0.0
 42
6.283185307179586
  0
ARC
  5
300
330
1F
100
AcDbEntity
  8
0
  6
Continuous
 62
     7
370
    25
100
AcDbCircle
 10
170.1638822272
 20
41.1672998016
 30
0.0
 40
5.505898509320757
100
AcDbArc
 50
219.7136265867
 51
239.8938852141
  0
LWPOLYLINE
  5
301
330
1F
100
AcDbEntity
  8
0
  6
Continuous
 62
     7
370
    25
100
AcDbPolyline
 90
       12
 70
   128
 43
0.0
 10
141.5275287602
 20
59.0458526512
 10
141.5758896347
 20
60.2461040901
 10
141.7205336675
 20
61.4913218383
 10
141.9601510136
 20
62.7702289719
 10
142.2925717689
 20
64.0712436071
 10
142.714786385
 20
65.382584032
 10
143.2229693767
 20
66.6923736011
 10
143.812519823
 20
67.9887514263
 10
144.4780985741
 20
69.2599770317
 10
145.213677643
 20
70.4945373848
 10
146.0125958519
 20
71.6812535455
 10
146.8676179371
 20
72.8093775253
  0
LINE
  5
302
330
1F
100
AcDbEntity
  8
0
  6
Continuous
 62
     7
370
    25
100
AcDbLine
 10
155.0041452442
 20
45.929107163
 30
0.0
 11
156.0468128368
 21
45.3269923005
 31
0.0
  0
LWPOLYLINE
  5
303
330
1F
100
AcDbEntity
  8
0
  6
Continuous
 62
     7
370
    25
100
AcDbPolyline
 90
        9
 70
   128
 43
0.0
 10
151.1486620133
 20
75.2807716654
 10
150.6464246907
 20
75.276843282
 10
150.1161556802
 20
75.1785851016
 10
149.5669283669
 20
74.9876783929
 10
149.0081399752
 20
74.7073898644
 10
148.4493515835
 20
74.3425150485
 10
147.9001242702
 20
73.899297399
 10
147.3698552597
 20
73.3853200117
 10
146.8676179371
 20
72.8093775253
  0
ARC
  5
304
330
1F
100
AcDbEntity
  8
0
  6
Continuous
 62
     7
370
    25
100
AcDbCircle
 10
144.5984641965
 20
58.7585269915
 30
0.0
 40
3.084347660107967
100
AcDbArc
 50
174.6548011447
 51
232.6759370834
  0
ARC
  5
305
330
1F
100
AcDbEntity
  8
0
  6
Continuous
 62
     7
370
    25
100
AcDbCircle
 10
150.7176632928
 20
69.9555356951
 30
0.0
 40
5.342648971873356
100
AcDbArc
 50
62.0154839217
 51
85.3728438476
  0
LWPOLYLINE
  5
306
330
1F
100
AcDbEntity
  8
0
  6
Continuous
 62
     7
370
    25
100
AcDbPolyline
 90
       12
 70
   128
 43
0.0
 10
141.3033852344
 20
59.528763152
 10
141.3503592141
 20
60.6946047258
 10
141.4908570507
 20
61.9041241209
 10
141.7236051191
 20
63.1463668937
 10
142.0464954183
 20
64.4100830491
 10
142.4566053277
 20
65.6838288454
 10
142.9502199978
 20
66.9560688845
 10
143.52286857
 20
68.2152808619
 10
144.169365994
 20
69.4500623133
 10
144.8838571507
 20
70.6492296603
 10
145.6598715109
 20
71.8019242901
 10
146.4903812524
 20
72.8977058017
  0
ARC
  5
307
330
1F
100
AcDbEntity
  8
0
  6
Continuous
 62
     7
370
    25
100
AcDbCircle
 10
151.2697401845
 20
69.4395348361
 30
0.0
 40
5.899255735221884
100
AcDbArc
 50
103.4689956258
 51
144.1118634589
  0
ARC
  5
308
330
1F
100
AcDbEntity
  8
0
  6
Continuous
 62
     7
370
    25
100
AcDbCircle
 10
145.2144185086
 20
59.4506631212
 30
0.0
 40
3.911812992292541
100
AcDbArc
 50
178.8560037274
 51
201.1091891358
  0
LWPOLYLINE
  5
309
330
1F
100
AcDbEntity
  8
0
  6
Continuous
 62
     7
370
    18
100
AcDbPolyline
 90
       23
 70
   128
 43
0.0
 10
185.0666608746
 20
61.153156678
 10
185.1753668166
 20
60.9251216258
 10
185.3906611506
 20
60.7050353618
 10
185.6951033131
 20
60.5107297513
 10
186.0640291661
 20
60.3579455755
 10
186.4675509963
 20
60.2590593094
 10
186.8729773372
 20
60.2220849356
 10
187.24746394
 20
60.2500144775
 10
187.5606703422
 20
60.3405875488
 10
187.7872234824
 20
60.4864657805
 10
187.9087697251
 20
60.675831143
 10
187.9154605373
 20
60.8933416373
 10
187.806756571
 20
61.1213770698
 10
187.5914619078
 20
61.3414631437
 10
187.2870200744
 20
61.5357689444
 10
186.9180929044
 20
61.6885538804
 10
186.5145717327
 20
61.787439006
 10
186.1091447333
 20
61.8244145203
 10
185.7346594476
 20
61.7964842181
 10
185.4214530454
 20
61.7059111468
 10
185.1948999052
 20
61.5600329151
 10
185.0733536625
 20
61.3706675526
 10
185.0666608746
 20
61.153156678
  0
LINE
  5
30A
330
1F
100
AcDbEntity
  8
0
  6
Continuous
 62
     7
370
    18
100
AcDbLine
 10
182.430547545
 20
54.6673594154
 30
0.0
 11
181.8186549885
 21
51.8860929401
 31
0.0
  0
LINE
  5
30B
330
1F
100
AcDbEntity
  8
0
  6
Continuous
 62
     7
370
    18
100
AcDbLine
 10
179.5524079135
 20
58.537899926
 30
0.0
 11
181.3736046831
 21
54.5844857495
 31
0.0
  0
LINE
  5
30C
330
1F
100
AcDbEntity
  8
0
  6
Continuous
 62
     7
370
    18
100
AcDbLine
 10
193.7057921491
 20
56.5373799656
 30
0.0
 11
194.7361475936
 21
54.3007119918
 31
0.0
  0
LINE
  5
30D
330
1F
100
AcDbEntity
  8
0
  6
Continuous
 62
     7
370
    18
100
AcDbLine
 10
187.1443763706
 20
51.9644437819
 30
0.0
 11
187.7926166326
 21
54.9109223566
 31
0.0
  0
LINE
  5
30E
330
1F
100
AcDbEntity
  8
0
  6
Continuous
 62
     7
370
    18
100
AcDbLine
 10
194.5440495021
 20
50.1271754768
 30
0.0
 11
194.9818492324
 21
52.1171232982
 31
0.0
  0
LINE
  5
30F
330
1F
100
AcDbEntity
  8
0
  6
Continuous
 62
     7
370
    18
100
AcDbLine
 10
187.3189522391
 20
51.7238828842
 30
0.0
 11
187.3712024774
 21
51.9613759188
 31
0.0
  0
LINE
  5
310
330
1F
100
AcDbEntity
  8
0
  6
Continuous
 62
     7
370
    18
100
AcDbLine
 10
194.504764688
 20
52.1794936458
 30
0.0
 11
193.7821444579
 21
52.2478144201
 31
0.0
  0
LINE
  5
311
330
1F
100
AcDbEntity
  8
0
  6
Continuous
 62
     7
370
    18
100
AcDbLine
 10
194.8490352931
 20
52.1481384083
 30
0.0
 11
194.504764688
 21
52.1794936458
 31
0.0
  0
SPLINE
  5
312
330
1F
100
AcDbEntity
  8
0
  6
Continuous
 62
     7
370
    18
100
AcDbSpline
210
0.0
220
0.0
230
1.0
 70
     8
 71
     3
 72
    10
 73
     6
 74
     0
 42
0.000000001
 43
0.00000001
 40
0.0
 40
0.0
 40
0.0
 40
0.0
 40
0.2765313012583347
 40
0.56266929787769
 40
1.0
 40
1.0
 40
1.0
 40
1.0
 10
194.4634890938553
 20
52.36875443608809
 30
0.0
 10
194.4644674355547
 20
52.34030920124071
 30
0.0
 10
194.4664581065369
 20
52.28243054429766
 30
0.0
 10
194.4791404987876
 20
52.20559640532024
 30
0.0
 10
194.4951107851257
 20
52.18932784985842
 30
0.0
 10
194.5047646879822
 20
52.17949364584238
 30
0.0
  0
LINE
  5
313
330
1F
100
AcDbEntity
  8
0
  6
Continuous
 62
     7
370
    18
100
AcDbLine
 10
194.4634890939
 20
52.3687544361
 30
0.0
 11
194.4631703583
 21
52.3965867529
 31
0.0
  0
LINE
  5
314
330
1F
100
AcDbEntity
  8
0
  6
Continuous
 62
     7
370
    18
100
AcDbLine
 10
194.6517287731
 20
50.1361493944
 30
0.0
 11
195.0895252107
 21
52.1260983088
 31
0.0
  0
LINE
  5
315
330
1F
100
AcDbEntity
  8
0
  6
Continuous
 62
     7
370
    18
100
AcDbLine
 10
200.2170034578
 20
51.9203261363
 30
0.0
 11
200.6548025296
 21
53.9102736607
 31
0.0
  0
LINE
  5
316
330
1F
100
AcDbEntity
  8
0
  6
Continuous
 62
     7
370
    18
100
AcDbLine
 10
195.1373724205
 20
52.2322194569
 30
0.0
 11
194.8490352931
 21
52.1481384083
 31
0.0
  0
LWPOLYLINE
  5
317
330
1F
100
AcDbEntity
  8
0
  6
Continuous
 62
     7
370
    18
100
AcDbPolyline
 90
        3
 70
   128
 43
0.0
 10
197.3602926999
 20
52.9448675621
 10
196.1154591874
 20
52.5457841442
 10
195.1373724205
 20
52.2322194569
  0
SPLINE
  5
318
330
1F
100
AcDbEntity
  8
0
  6
Continuous
 62
     7
370
    18
100
AcDbSpline
210
0.0
220
0.0
230
1.0
 70
     8
 71
     3
 72
     9
 73
     5
 74
     0
 42
0.000000001
 43
0.00000001
 40
0.0
 40
0.0
 40
0.0
 40
0.0
 40
0.5831011153542756
 40
1.0
 40
1.0
 40
1.0
 40
1.0
 10
197.967366686264
 20
53.23423960234991
 30
0.0
 10
197.8971188243387
 20
53.18140255011779
 30
0.0
 10
197.7766459593836
 20
53.09078867399783
 30
0.0
 10
197.4827977081363
 20
52.98780241757157
 30
0.0
 10
197.3602926999362
 20
52.94486756213362
 30
0.0
  0
LINE
  5
319
330
1F
100
AcDbEntity
  8
0
  6
Continuous
 62
     7
370
    18
100
AcDbLine
 10
194.4634890939
 20
52.3687544361
 30
0.0
 11
194.7081732814
 21
52.3422028955
 31
0.0
  0
LINE
  5
31A
330
1F
100
AcDbEntity
  8
0
  6
Continuous
 62
     7
370
    18
100
AcDbLine
 10
194.7081732814
 20
52.3422028955
 30
0.0
 11
194.9076595838
 21
52.4057744538
 31
0.0
  0
SPLINE
  5
31B
330
1F
100
AcDbEntity
  8
0
  6
Continuous
 62
     7
370
    18
100
AcDbSpline
210
0.0
220
0.0
230
1.0
 70
     8
 71
     3
 72
    10
 73
     6
 74
     0
 42
0.000000001
 43
0.00000001
 40
0.0
 40
0.0
 40
0.0
 40
0.0
 40
0.2765296861149099
 40
0.5626675113305871
 40
1.0
 40
1.0
 40
1.0
 40
1.0
 10
195.137372420518
 20
52.23221945687166
 30
0.0
 10
195.1146994305614
 20
52.23544071643386
 30
0.0
 10
195.0685656681705
 20
52.2419951595632
 30
0.0
 10
194.9845530058912
 20
52.29461975429655
 30
0.0
 10
194.9366291827386
 20
52.36389691763829
 30
0.0
 10
194.907659583788
 20
52.40577445382841
 30
0.0
  0
LINE
  5
31C
330
1F
100
AcDbEntity
  8
0
  6
Continuous
 62
     7
370
    18
100
AcDbLine
 10
194.9076595838
 20
52.4057744538
 30
0.0
 11
194.849632593
 21
52.5090017017
 31
0.0
  0
LWPOLYLINE
  5
31D
330
1F
100
AcDbEntity
  8
0
  6
Continuous
 62
     7
370
    18
100
AcDbPolyline
 90
        3
 70
   128
 43
0.0
 10
194.9076595838
 20
52.4057744538
 10
196.1524970476
 20
52.8048572065
 10
197.1305831559
 20
53.1184214661
  0
ARC
  5
31E
330
1F
100
AcDbEntity
  8
0
  6
Continuous
 62
     7
370
    18
100
AcDbCircle
 10
197.4035036171
 20
53.2408544284
 30
0.0
 40
0.2991244028106582
100
AcDbArc
 50
204.1611516776
 51
261.694104762
  0
LINE
  5
31F
330
1F
100
AcDbEntity
  8
0
  6
Continuous
 62
     7
370
    18
100
AcDbLine
 10
197.1305831559
 20
53.1184214661
 30
0.0
 11
196.9517935904
 21
53.4364669106
 31
0.0
  0
SPLINE
  5
320
330
1F
100
AcDbEntity
  8
0
  6
Continuous
 62
     7
370
    18
100
AcDbSpline
210
0.0
220
0.0
230
1.0
 70
     8
 71
     3
 72
     9
 73
     5
 74
     0
 42
0.000000001
 43
0.00000001
 40
0.0
 40
0.0
 40
0.0
 40
0.0
 40
0.4168985977806405
 40
1.0
 40
1.0
 40
1.0
 40
1.0
 10
196.4505516577396
 20
54.16288848083065
 30
0.0
 10
196.6285480143536
 20
54.13152663290843
 30
0.0
 10
197.0555016130503
 20
54.0563000716075
 30
0.0
 10
197.4237767728526
 20
53.81514256608651
 30
0.0
 10
197.6385185349358
 20
53.67452328646151
 30
0.0
  0
LINE
  5
321
330
1F
100
AcDbEntity
  8
0
  6
Continuous
 62
     7
370
    18
100
AcDbLine
 10
195.319851811
 20
54.269791794
 30
0.0
 11
196.4505516577
 21
54.1628884808
 31
0.0
  0
LINE
  5
322
330
1F
100
AcDbEntity
  8
0
  6
Continuous
 62
     7
370
    18
100
AcDbLine
 10
196.4918279104
 20
53.9736280708
 30
0.0
 11
195.4091280557
 21
54.0759937714
 31
0.0
  0
LINE
  5
323
330
1F
100
AcDbEntity
  8
0
  6
Continuous
 62
     7
370
    18
100
AcDbLine
 10
196.4918279104
 20
53.9736280708
 30
0.0
 11
196.5646708355
 21
53.9547737796
 31
0.0
  0
ARC
  5
324
330
1F
100
AcDbEntity
  8
0
  6
Continuous
 62
     7
370
    18
100
AcDbCircle
 10
196.7019845614
 20
54.1185928573
 30
0.0
 40
0.2553049300443803
100
AcDbArc
 50
170.0085711049
 51
214.5976768494
  0
SPLINE
  5
325
330
1F
100
AcDbEntity
  8
0
  6
Continuous
 62
     7
370
    18
100
AcDbSpline
210
0.0
220
0.0
230
1.0
 70
     8
 71
     3
 72
     9
 73
     5
 74
     0
 42
0.000000001
 43
0.00000001
 40
0.0
 40
0.0
 40
0.0
 40
0.0
 40
0.4026803468438295
 40
1.0
 40
1.0
 40
1.0
 40
1.0
 10
197.1305831559287
 20
53.11842146611036
 30
0.0
 10
197.2341483147475
 20
53.1512075189999
 30
0.0
 10
197.4913378191037
 20
53.23262706963483
 30
0.0
 10
197.6131272499272
 20
53.29028095918822
 30
0.0
 10
197.6858744705048
 20
53.32471876049937
 30
0.0
  0
SPLINE
  5
326
330
1F
100
AcDbEntity
  8
0
  6
Continuous
 62
     7
370
    18
100
AcDbSpline
210
0.0
220
0.0
230
1.0
 70
     8
 71
     3
 72
     9
 73
     5
 74
     0
 42
0.000000001
 43
0.00000001
 40
0.0
 40
0.0
 40
0.0
 40
0.0
 40
0.5973213149993891
 40
1.0
 40
1.0
 40
1.0
 40
1.0
 10
197.5172567834139
 20
53.55047512926793
 30
0.0
 10
197.3262773725234
 20
53.67433421278764
 30
0.0
 10
197.0065509437241
 20
53.88169176124517
 30
0.0
 10
196.63959375045
 20
53.94723514654969
 30
0.0
 10
196.4918279104109
 20
53.97362807075459
 30
0.0
  0
LINE
  5
327
330
1F
100
AcDbEntity
  8
0
  6
Continuous
 62
     7
370
    18
100
AcDbLine
 10
199.8360815581
 20
50.6791236311
 30
0.0
 11
200.1009692326
 21
51.8831259076
 31
0.0
  0
LINE
  5
328
330
1F
100
AcDbEntity
  8
0
  6
Continuous
 62
     7
370
    18
100
AcDbLine
 10
199.7100427247
 20
50.628086671
 30
0.0
 11
199.8360815581
 21
50.6791236311
 31
0.0
  0
LINE
  5
329
330
1F
100
AcDbEntity
  8
0
  6
Continuous
 62
     7
370
    18
100
AcDbLine
 10
164.9258607659
 20
51.1673859165
 30
0.0
 11
177.4723921216
 21
55.8556711165
 31
0.0
  0
LINE
  5
32A
330
1F
100
AcDbEntity
  8
0
  6
Continuous
 62
     7
370
    18
100
AcDbLine
 10
165.1996690844
 20
38.8046400119
 30
0.0
 11
165.575876464
 21
38.2535014365
 31
0.0
  0
LWPOLYLINE
  5
32B
330
1F
100
AcDbEntity
  8
0
  6
Continuous
 62
     7
370
    18
100
AcDbPolyline
 90
       25
 70
   128
 43
0.0
 10
150.9526832631
 20
51.5164888682
 10
150.9939107834
 20
52.6458408348
 10
151.1172858043
 20
53.8144304917
 10
151.3218969
 20
55.0136070889
 10
151.6062287597
 20
56.2344917938
 10
151.968175358
 20
57.468045752
 10
152.4050577358
 20
58.7051360557
 10
152.9136411226
 20
59.9366036129
 10
153.4901599609
 20
61.1533312073
 10
154.1303462236
 20
62.3463107958
 10
154.829460366
 20
63.5067096666
 10
155.5823262282
 20
64.625937356
 10
156.3833698896
 20
65.6957068624
 10
157.2266601689
 20
66.7080975708
 10
158.1059543936
 20
67.6556143744
 10
159.0147421926
 20
68.5312433744
 10
159.9462950521
 20
69.3284994992
 10
160.8937165293
 20
70.0414821089
 10
161.8499919317
 20
70.6649112787
 10
162.8080414529
 20
71.1941729227
 10
163.7607720336
 20
71.6253472113
 10
164.7011297978
 20
71.9552411236
 10
165.6221530245
 20
72.1814144647
 10
166.5170224854
 20
72.302191434
 10
166.5664179333
 20
72.3058297965
  0
ARC
  5
32C
330
1F
100
AcDbEntity
  8
0
  6
Continuous
 62
     7
370
    18
100
AcDbCircle
 10
161.6466620732
 20
51.2722494922
 30
0.0
 40
10.69676753342661
100
AcDbArc
 50
178.6916513216
 51
203.700276042
  0
LINE
  5
32D
330
1F
100
AcDbEntity
  8
0
  6
Continuous
 62
     7
370
    18
100
AcDbLine
 10
163.9855718196
 20
54.4229165181
 30
0.0
 11
183.4739360792
 21
61.7051695002
 31
0.0
  0
LINE
  5
32E
330
1F
100
AcDbEntity
  8
0
  6
Continuous
 62
     7
370
    18
100
AcDbLine
 10
163.3568129505
 20
65.657993878
 30
0.0
 11
162.0033370456
 21
63.3137044705
 31
0.0
  0
LINE
  5
32F
330
1F
100
AcDbEntity
  8
0
  6
Continuous
 62
     7
370
    18
100
AcDbLine
 10
157.3987447842
 20
55.3383167491
 30
0.0
 11
156.0451783294
 21
52.993871265
 31
0.0
  0
LINE
  5
330
330
1F
100
AcDbEntity
  8
0
  6
Continuous
 62
     7
370
    18
100
AcDbLine
 10
162.3157798654
 20
66.2589694859
 30
0.0
 11
155.0041452442
 21
53.5948468729
 31
0.0
  0
LINE
  5
331
330
1F
100
AcDbEntity
  8
0
  6
Continuous
 62
     7
370
    18
100
AcDbLine
 10
161.978378538
 20
66.1724621564
 30
0.0
 11
154.9103606038
 21
53.9302960215
 31
0.0
  0
LINE
  5
332
330
1F
100
AcDbEntity
  8
0
  6
Continuous
 62
     7
370
    18
100
AcDbLine
 10
146.8676179371
 20
72.8093775253
 30
0.0
 11
157.2820353862
 21
66.909284149
 31
0.0
  0
LINE
  5
333
330
1F
100
AcDbEntity
  8
0
  6
Continuous
 62
     7
370
    18
100
AcDbLine
 10
141.5275287602
 20
59.0458526512
 30
0.0
 11
150.9750033326
 21
53.3108366259
 31
0.0
  0
LINE
  5
334
330
1F
100
AcDbEntity
  8
0
  6
Continuous
 62
     7
370
    18
100
AcDbLine
 10
154.9103606038
 20
45.838891771
 30
0.0
 11
156.2577782285
 21
45.0607916486
 31
0.0
  0
LINE
  5
335
330
1F
100
AcDbEntity
  8
0
  6
Continuous
 62
     7
370
    18
100
AcDbLine
 10
170.3321552332
 20
69.4397660496
 30
0.0
 11
168.9853605915
 21
70.2175067948
 31
0.0
  0
LINE
  5
336
330
1F
100
AcDbEntity
  8
0
  6
Continuous
 62
     7
370
    18
100
AcDbLine
 10
151.1486620133
 20
75.2807716654
 30
0.0
 11
160.8177781363
 21
70.0773264542
 31
0.0
  0
LINE
  5
337
330
1F
100
AcDbEntity
  8
0
  6
Continuous
 62
     7
370
    18
100
AcDbLine
 10
146.4903812524
 20
72.8977058017
 30
0.0
 11
146.8676179371
 21
72.8093775253
 31
0.0
  0
LINE
  5
338
330
1F
100
AcDbEntity
  8
0
  6
Continuous
 62
     7
370
    18
100
AcDbLine
 10
141.3033852344
 20
59.528763152
 30
0.0
 11
141.5275287602
 21
59.0458526512
 31
0.0
  0
OLE2FRAME
  5
339
330
1F
100
AcDbEntity
  8
0
100
AcDbOle2Frame
 70
     2
  3
Paintbrush-Bild
 10
13.8511154363
 20
38.264191557
 30
0.0
 11
51.6290888628
 21
31.9806341108
 31
0.0
 71
     2
 72
     0
 73
     1
 90
    12928
310
80552BED0767C5B32B40DDAF6807D121434000000000000000006FFBDDFB85D0
310
4940DDAF6807D121434000000000000000006FFBDDFB85D04940416F4BD60AFB
310
3F4000000000000000002BED0767C5B32B40416F4BD60AFB3F40000000000000
310
0000000000000100000000010000010000000100000000000100000000320000
310
D0CF11E0A1B11AE1000000000000000000000000000000003E000300FEFF0900
310
0600000000000000000000000100000001000000000000000010000002000000
310
01000000FEFFFFFF0000000000000000FFFFFFFFFFFFFFFFFFFFFFFFFFFFFFFF
310
FFFFFFFFFFFFFFFFFFFFFFFFFFFFFFFFFFFFFFFFFFFFFFFFFFFFFFFFFFFFFFFF
310
FFFFFFFFFFFFFFFFFFFFFFFFFFFFFFFFFFFFFFFFFFFFFFFFFFFFFFFFFFFFFFFF
310
FFFFFFFFFFFFFFFFFFFFFFFFFFFFFFFFFFFFFFFFFFFFFFFFFFFFFFFFFFFFFFFF
310
FFFFFFFFFFFFFFFFFFFFFFFFFFFFFFFFFFFFFFFFFFFFFFFFFFFFFFFFFFFFFFFF
310
FFFFFFFFFFFFFFFFFFFFFFFFFFFFFFFFFFFFFFFFFFFFFFFFFFFFFFFFFFFFFFFF
310
FFFFFFFFFFFFFFFFFFFFFFFFFFFFFFFFFFFFFFFFFFFFFFFFFFFFFFFFFFFFFFFF
310
FFFFFFFFFFFFFFFFFFFFFFFFFFFFFFFFFFFFFFFFFFFFFFFFFFFFFFFFFFFFFFFF
310
FFFFFFFFFFFFFFFFFFFFFFFFFFFFFFFFFFFFFFFFFFFFFFFFFFFFFFFFFFFFFFFF
310
FFFFFFFFFFFFFFFFFFFFFFFFFFFFFFFFFFFFFFFFFFFFFFFFFFFFFFFFFFFFFFFF
310
FFFFFFFFFFFFFFFFFFFFFFFFFFFFFFFFFFFFFFFFFFFFFFFFFFFFFFFFFFFFFFFF
310
FFFFFFFFFFFFFFFFFFFFFFFFFFFFFFFFFFFFFFFFFFFFFFFFFFFFFFFFFFFFFFFF
310
FFFFFFFFFFFFFFFFFFFFFFFFFFFFFFFFFFFFFFFFFFFFFFFFFFFFFFFFFFFFFFFF
310
FFFFFFFFFFFFFFFFFFFFFFFFFFFFFFFFFFFFFFFFFFFFFFFFFFFFFFFFFFFFFFFF
310
FDFFFFFFFEFFFFFFFEFFFFFFFEFFFFFF05000000060000000700000008000000
310
090000000A0000000B0000000C0000000D0000000E0000000F00000010000000
310
11000000120000001300000014000000150000001600000017000000FEFFFFFF
310
FFFFFFFFFFFFFFFFFFFFFFFFFFFFFFFFFFFFFFFFFFFFFFFFFFFFFFFFFFFFFFFF
310
FFFFFFFFFFFFFFFFFFFFFFFFFFFFFFFFFFFFFFFFFFFFFFFFFFFFFFFFFFFFFFFF
310
FFFFFFFFFFFFFFFFFFFFFFFFFFFFFFFFFFFFFFFFFFFFFFFFFFFFFFFFFFFFFFFF
310
FFFFFFFFFFFFFFFFFFFFFFFFFFFFFFFFFFFFFFFFFFFFFFFFFFFFFFFFFFFFFFFF
310
FFFFFFFFFFFFFFFFFFFFFFFFFFFFFFFFFFFFFFFFFFFFFFFFFFFFFFFFFFFFFFFF
310
FFFFFFFFFFFFFFFFFFFFFFFFFFFFFFFFFFFFFFFFFFFFFFFFFFFFFFFFFFFFFFFF
310
FFFFFFFFFFFFFFFFFFFFFFFFFFFFFFFFFFFFFFFFFFFFFFFFFFFFFFFFFFFFFFFF
310
FFFFFFFFFFFFFFFFFFFFFFFFFFFFFFFFFFFFFFFFFFFFFFFFFFFFFFFFFFFFFFFF
310
FFFFFFFFFFFFFFFFFFFFFFFFFFFFFFFFFFFFFFFFFFFFFFFFFFFFFFFFFFFFFFFF
310
FFFFFFFFFFFFFFFFFFFFFFFFFFFFFFFFFFFFFFFFFFFFFFFFFFFFFFFFFFFFFFFF
310
FFFFFFFFFFFFFFFFFFFFFFFFFFFFFFFFFFFFFFFFFFFFFFFFFFFFFFFFFFFFFFFF
310
FFFFFFFFFFFFFFFFFFFFFFFFFFFFFFFFFFFFFFFFFFFFFFFFFFFFFFFFFFFFFFFF
310
FFFFFFFFFFFFFFFFFFFFFFFFFFFFFFFFFFFFFFFFFFFFFFFFFFFFFFFFFFFFFFFF
310
52006F006F007400200045006E00740072007900000000000000000000000000
310
0000000000000000000000000000000000000000000000000000000000000000
310
16000500FFFFFFFFFFFFFFFF020000000A00030000000000C000000000000046
310
000000000000000000000000509DCD6325A0D30103000000C000000000000000
310
01004F006C006500000000000000000000000000000000000000000000000000
310
0000000000000000000000000000000000000000000000000000000000000000
310
0A000200FFFFFFFFFFFFFFFFFFFFFFFF00000000000000000000000000000000
310
0000000000000000000000000000000000000000000000001400000000000000
310
010043006F006D0070004F0062006A0000000000000000000000000000000000
310
0000000000000000000000000000000000000000000000000000000000000000
310
120002010100000003000000FFFFFFFF00000000000000000000000000000000
310
0000000000000000000000000000000000000000010000004D00000000000000
310
01004F006C006500310030004E00610074006900760065000000000000000000
310
0000000000000000000000000000000000000000000000000000000000000000
310
1A000200FFFFFFFFFFFFFFFFFFFFFFFF00000000000000000000000000000000
310
0000000000000000000000000000000000000000040000002426000000000000
310
FEFFFFFF02000000FEFFFFFFFFFFFFFFFFFFFFFFFFFFFFFFFFFFFFFFFFFFFFFF
310
FFFFFFFFFFFFFFFFFFFFFFFFFFFFFFFFFFFFFFFFFFFFFFFFFFFFFFFFFFFFFFFF
310
FFFFFFFFFFFFFFFFFFFFFFFFFFFFFFFFFFFFFFFFFFFFFFFFFFFFFFFFFFFFFFFF
310
FFFFFFFFFFFFFFFFFFFFFFFFFFFFFFFFFFFFFFFFFFFFFFFFFFFFFFFFFFFFFFFF
310
FFFFFFFFFFFFFFFFFFFFFFFFFFFFFFFFFFFFFFFFFFFFFFFFFFFFFFFFFFFFFFFF
310
FFFFFFFFFFFFFFFFFFFFFFFFFFFFFFFFFFFFFFFFFFFFFFFFFFFFFFFFFFFFFFFF
310
FFFFFFFFFFFFFFFFFFFFFFFFFFFFFFFFFFFFFFFFFFFFFFFFFFFFFFFFFFFFFFFF
310
FFFFFFFFFFFFFFFFFFFFFFFFFFFFFFFFFFFFFFFFFFFFFFFFFFFFFFFFFFFFFFFF
310
FFFFFFFFFFFFFFFFFFFFFFFFFFFFFFFFFFFFFFFFFFFFFFFFFFFFFFFFFFFFFFFF
310
FFFFFFFFFFFFFFFFFFFFFFFFFFFFFFFFFFFFFFFFFFFFFFFFFFFFFFFFFFFFFFFF
310
FFFFFFFFFFFFFFFFFFFFFFFFFFFFFFFFFFFFFFFFFFFFFFFFFFFFFFFFFFFFFFFF
310
FFFFFFFFFFFFFFFFFFFFFFFFFFFFFFFFFFFFFFFFFFFFFFFFFFFFFFFFFFFFFFFF
310
FFFFFFFFFFFFFFFFFFFFFFFFFFFFFFFFFFFFFFFFFFFFFFFFFFFFFFFFFFFFFFFF
310
FFFFFFFFFFFFFFFFFFFFFFFFFFFFFFFFFFFFFFFFFFFFFFFFFFFFFFFFFFFFFFFF
310
FFFFFFFFFFFFFFFFFFFFFFFFFFFFFFFFFFFFFFFFFFFFFFFFFFFFFFFFFFFFFFFF
310
FFFFFFFFFFFFFFFFFFFFFFFFFFFFFFFFFFFFFFFFFFFFFFFFFFFFFFFFFFFFFFFF
310
0100000200000000000000000000000000000000000000000000000000000000
310
0000000000000000000000000000000000000000000000000000000000000000
310
0100FEFF030A0000FFFFFFFF0A00030000000000C00000000000004607000000
310
5042727573680007000000504272757368000700000050427275736800F439B2
310
7100000000000000000000000000000000000000000000000000000000000000
310
0000000000000000000000000000000000000000000000000000000000000000
310
0000000000000000000000000000000000000000000000000000000000000000
310
0000000000000000000000000000000000000000000000000000000000000000
310
0000000000000000000000000000000000000000000000000000000000000000
310
0000000000000000000000000000000000000000000000000000000000000000
310
0000000000000000000000000000000000000000000000000000000000000000
310
0000000000000000000000000000000000000000000000000000000000000000
310
0000000000000000000000000000000000000000000000000000000000000000
310
0000000000000000000000000000000000000000000000000000000000000000
310
0000000000000000000000000000000000000000000000000000000000000000
310
0000000000000000000000000000000000000000000000000000000000000000
310
20260000424D0E260000000000003E00000028000000B40200006E0000000100
310
01000000000000000000130B0000130B00000200000002000000000000FFFFFF
310
FFFFFFFFFFFFFFFFFFFFFFFFFFFFFFFFFFFFFFFFFFFFFFFFFFFFFFFFFFFFFFFF
310
FFFFFFFFFFFFFFFFFFFFFFFFFFFFFFFFFFFFFFFFFFFFFFFFFFFFFFFFFFFFFFFF
310
FFFFFFFFFFFFFFFFFFFFFFFFFFFFFFFFFFFFFFFFFFFFFFFFF000FFFFFFFFFFFF
310
FFFFFFFFFFFFFFFFFFFFFFFFFFFFFFFFFFFFFFFFFFFFFFFFFFFFFFFFFFFFFFFF
310
FFFFFFFFFFFFFFFFFFFFFFFFFFFFFFFFFFFFFFFFFFFFFFFFFFFFFFFFFFFFFFFF
310
FFFFFFFFFFFFFFFFFFFFFFFFFFFFFFFFF000FFFFFFFFFFFFFFFFFFFFFFFFFFFF
310
FFFFFFFFFFFFFFFFFFFFFFFFFFFFFFFFFFFFFFFFFFFFFFFFFFFFFFFFFFFFFFFF
310
FFFFFFFFFFFFFFFFFFFFFFFFFFFFFFFFFFFFFFFFFFFFFFFFFFFFFFFFFFFFFFFF
310
FFFFFFFFFFFFFFFFF000FFFFFFFFFFFFFFFFFFFFFFFFFFFFFFFFFFFFFFFFFFFF
310
FFFFFFFFFFFFFFFFFFFFFFFFFFFFFFFFFFFFFFFFFFFFFFFFFFFFFFFFFFFFFFFF
310
FFFFFFFFFFFFFFFFFFFFFFFFFFFFFFFFFFFFFFFFFFFFFFFFFFFFFFFFFFFFFFFF
310
F000FFFFFFFFFFFFFFFFFFFFFFFFFFFFFFFFFFFFFFFFFFFFFFFFFFFFFFFFFFFF
310
FFFFFFFFFFFFFFFFFFFFFFFFFFFFFFFFFFFFFFFFFFFFFFFFFFFFFFFFFFFFFFFF
310
FFFFFFFFFFFFFFFFFFFFFFFFFFFFFFFFFFFFFFFFFFFFFFFFF000FFFFFFFFFFFF
310
FFFFFFFFFFFFFFFFFFFFFFFFFFFFFFFFFFFFFFFFFFFFFFFFFFFFFFFFFFFFFFFF
310
FFFFFFFFFFFFFFFFFFFFFFFFFFFFFFFFFFFFFFFFFFFFFFFFFFFFFFFFFFFFFFFF
310
FFFFFFFFFFFFFFFFFFFFFFFFFFFFFFFFF000FFFFFFFFFFFFFFFFFFFFFFFFFFFF
310
FFFFFFFFFFFFFFFFFFFFFFFFFFFFFFFFFFFFFFFFFFFFFFFFFFFFFFFFFFFFFFFF
310
FFFFFFFFFFFFFFFFFFFFFFFFFFFFFFFFFFFFFFFFFFFFFFFFFFFFFFFFFFFFFFFF
310
FFFFFFFFFFFFFFFFF000FFFFFFFFFFFFFFFFFFFFFFFFFFFFFFFFFFFFFFFFFFFF
310
FFFFFFFFFFFFFFFFFFFFFFFFFFFFFFFFFFFFFFFFFFFFFFFFFFFFFFFFFFFFFFFF
310
FFFFFFFFFFFFFFFFFFFFFFFFFFFFFFFFFFFFFFFFFFFFFFFFFFFFFFFFFFFFFFFF
310
F000FFFFFFFFFFFFFFFFFFFFFFFFFFFFFFFFFFFFFFFFFFFFFFFFFFFFFFFFFFFF
310
FFFFFFFFFFFFFFFFFFFFFFFFFFFFFFFFFFFFFFFFFFFFFFFFFFFFFFFFFFFFFFFF
310
FFFFFFFFFFFFFFFFFFFFFFFFFFFFFFFFFFFFFFFFFFFFFFFFF000FFFFFFFFFFFF
310
FFFFFFFFFFFFFFFFFFFFFFFFFFFFFFFFFFFFFFFFFFFFFFFFFFFFFFFFFFFFFFFF
310
FFFFFFFFFFFFFFFFFFFFFFFFFFFFFFFFFFFFFFFFFFFFFFFFFFFFFFFFFFFFFFFF
310
FFFFFFFFFFFFFFFFFFFFFFFFFFFFFFFFF000FFFFFFFFFFFFFFFFFFFFFFFFFFFF
310
FFFFFFFFFFFFFFFFFFFFFFFFFFFFFFFFFFFFFFFFFFFFFFFFFFFFFFFFFFFFFFFF
310
FFFFFFFFFFFFFFFFFFFFFFFFFFFFFFFFFFFFFFFFFFFFFFFFFFFFFFFFFFFFFFFF
310
FFFFFFFFFFFFFFFFF000FFFFFFFFFFFFFFFFFFFFFFFFFFFFFFFFFFFFFFFFFFFF
310
FFFFFFFFFFFFFFFFFFFFFFFFFFFFFFFFFFFFFFFFFFFFFFFFFFFFFFFFFFFFFFFF
310
FFFFFFFFFFFFFFFFFFFFFFFFFFFFFFFFFFFFFFFFFFFFFFFFFFFFFFFFFFFFFFFF
310
F000FFFFFFFFFFFFFFFFFFFFFFFFFFFFFFFFFFFFFFFFFFFFFFFFFFFFFFFFFFFF
310
FFFFFFFFFFFFFFFFFFFFFFFFFFFFFFFFFFFFFFFFFFFFFFFFFFFFFFFFFFFFFFFF
310
FFFFFFFFFFFFFFFFFFFFFFFFFFFFFFFFFFFFFFFFFFFFFFFFF000FFFFFFFFFFFF
310
FFFFFFFFFFFFFFFFFFFFFFFFFFFFFFFFFFFFFFFFFFFFFFFFFFFFFFFFFFFFFFFF
310
FFFFFFFFFFFFFFFFFFFFFFFFFFFFFFFFFFFFFFFFFFFFFFFFFFFFFFFFFFFFFFFF
310
FFFFFFFFFFFFFFFFFFFFFFFFFFFFFFFFF000FFFFFFFFFFFFFFFFFFFFFFFFFFFF
310
FFFFFFFFFFFFFFFFFFFFFFFFFFFFFFFFFFFFFFFFFFFFFFFFFFFFFFFFFFFFFFFF
310
FFFFFFFFFFFFFFFFFFFFFFFFFFFFFFFFFFFFFFFFFFFFFFFFFFFFFFFFFFFFFFFF
310
FFFFFFFFFFFFFFFFF000FFFFFFFFFFFFFFFFFFFFFFFFFFFFFFFFFFFFFFFFFFFF
310
FFFFFFFFFFFFFFFFFFFFFFFFFFFFFFFFFFFFFFFFFFFFFFFFFFFFFFFFFFFFFFFF
310
FFFFFFFFFFFFFFFFFFFFFFFFFFFFFFFFFFFFFFFFFFFFFFFFFFFFFFFFFFFFFFFF
310
F000FFFFFFFFFFFFFFFFFFFFFFFFFFFFFFFFFFFFFFFFFFFFFFFFFFFFFFFFFFFF
310
FFFFFFFFFFFFFFFFFFFFFFFFFFFFFFFFFFFFFFFFFFFFFFFFFFFFFFFFFFFFFFFF
310
FFFFFFFFFFFFFFFFFFFFFFFFFFFFFFFFFFFFFFFFFFFFFFFFF000FFFFFFFFFFFF
310
FFFFFFFFFFFFFFFFFFFFFFFFFFFFFFFFFFFFFFFFFFFFFFFFFFFFFFFFFFFFFFFF
310
FFFFFFFFFFFFFFFFFFFFFFFFFFFFFFFFFFFFFFFFFFFFFFFFFFFFFFFFFFFFFFFF
310
FFFFFFFFFFFFFFFFFFFFFFFFFFFFFFFFF000FFFFFFFFFFFFFFFFFFFFFFFFFFFF
310
FFFFFFFFFFFFFFFFFFFFFFFFFFFFFFFFFFFFFFFFFFFFFFFFFFFFFFFFFFFFFFFF
310
FFFFFFFFFFFFFFFFFFFFFFFFFFFFFFFFFFFFFFFFFFFFFFFFFFFFFFFFFFFFFFFF
310
FFFFFFFFFFFFFFFFF000FFFFF80003FFFFFFFFFFFFFFFFFFFFFFFFFFFFFFFFFF
310
FFFFF00007FFFFFFFFFF00007FFFFFF800000000000000007FFFFFFFFFFFFFFF
310
FFFFFFFC001FFFFFFFFFFFFFFC001FFFFFFFFFFFFFFFFFFFFFFFFFFE0007FFFF
310
F000FFFF8000007FFFFFFFF8000FFFFFC0007FFFFF80007FFFFF0000007FFFFF
310
FFF8000007FFFFF800000000000000007FFFFFF0001FFFFFFFFFFFC00001FFFF
310
FFFFFFFFC00001FFFFFFFF000000000003FFFFE000007FFFF000FFFE0000000F
310
FFFFFFF0000FFFFF80007FFFFF80007FFFFC0000001FFFFFFFC0000001FFFFF8
310
00000000000000007FFFFFF0001FFFFFFFFFFE0000003FFFFFFFFFFE0000003F
310
FFFFFF000000000003FFFF0000000FFFF000FFF800000003FFFFFFF00007FFFF
310
80007FFFFF80007FFFF000000007FFFFFF000000003FFFF80000000000000000
310
7FFFFFF0001FFFFFFFFFF80000000FFFFFFFFFF80000000FFFFFFF0000000000
310
03FFFC00000003FFF000FFE000000000FFFFFFF00007FFFF80003FFFFF80007F
310
FFC000000001FFFFFC000000001FFFF800000000000000007FFFFFF0001FFFFF
310
FFFFE000000003FFFFFFFFE000000003FFFFFF000000000003FFF000000000FF
310
F000FF80000000007FFFFFF00007FFFF80003FFFFF80007FFF8000000000FFFF
310
F80000000007FFF800000000000000007FFFFFF0001FFFFFFFFFC000000001FF
310
FFFFFFC000000001FFFFFF000000000003FFC0000000007FF000FF0000000000
310
3FFFFFE00007FFFF00003FFFFF80007FFE00000000003FFFF00000000003FFF8
310
00000000000000007FFFFFF0001FFFFFFFFF8000000000FFFFFFFF8000000000
310
FFFFFF000000000003FF80000000003FF000FE00000000001FFFFFE00003FFFF
310
00003FFFFF80007FFC00000000001FFFE00000000001FFF8000001FFFE000000
310
7FFFFFF0001FFFFFFFFE00000000003FFFFFFE00000000003FFFFF0000000000
310
03FF00000000001FF000FC00000000000FFFFFE00003FFFF00001FFFFF80007F
310
F800000000001FFFC00000000000FFF8000001FFFE0000007FFFFFF0001FFFFF
310
FFFC00000000001FFFFFFC00000000001FFFFF000000000003FE00000000000F
310
F000F8000000000007FFFFE00003FFFF00001FFFFF80007FF800000000000FFF
310
800000000000FFF8000001FFFE0000007FFFFFF0001FFFFFFFF800000000000F
310
FFFFF800000000000FFFFF000000000003FC000000000007F000F80000000000
310
03FFFFC00003FFFE00001FFFFF80007FF0000000000007FF0000000000007FF8
310
000001FFFE0000007FFFFFF0001FFFFFFFF0000000000007FFFFF00000000000
310
07FFFF000000000003F8000000000003F000F0000000000003FFFFC00001FFFE
310
00001FFFFF80007FE0000000000007FE0000000000003FF8000001FFFE000000
310
7FFFFFF0001FFFFFFFF0000000000007FFFFF0000000000007FFFF0000000000
310
03F800001F800003F000E00001FFF00001FFFFC00001FFFE00000FFFFF80007F
310
E00001FFE00003FE00001FFF00003FF8000001FFFE0000007FFFFFF0001FFFFF
310
FFE000003E000003FFFFE000003E000003FFFF000000000003F00001FFF80001
310
F000E00007FFFC0001FFFFC00001FFFE00000FFFFF80007FC0000FFFFC0003FC
310
0000FFFFC0001FF8000001FFFE0000007FFFFFF0001FFFFFFFC00003FFE00001
310
FFFFC00003FFE00001FFFF0001FFFFFFFFF00007FFFE0001F000E0000FFFFF00
310
00FFFF800001FFFC00000FFFFF80007FC0001FFFFE0001FC0001FFFFE0001FF8
310
000001FFFE0000007FFFFFF0001FFFFFFF80000FFFF80000FFFF80000FFFF800
310
00FFFF0003FFFFFFFFE0000FFFFF8000F000C0003FFFFF8000FFFF800000FFFC
310
000007FFFF80007F80003FFFFF0001FC0003FFFFF0001FF8000001FFFE000000
310
7FFFFFF0001FFFFFFF80003FFFFE0000FFFF80003FFFFE0000FFFF0003FFFFFF
310
FFE0003FFFFF8000F000C0003FFFFF8000FFFF800000FFFC000007FFFF80007F
310
80007FFFFF8001F80007FFFFF8000FF8000001FFFE0000007FFFFFF0001FFFFF
310
FF00007FFFFF00007FFF00007FFFFF00007FFF0003FFFFFFFFE0003FFFFFC000
310
F000C0007FFFFFC000FFFF000000FFFC000007FFFF80007F8000FFFFFF8000F8
310
000FFFFFF8000FF8000001FFFE0000007FFFFFF0001FFFFFFF0000FFFFFF8000
310
7FFF0000FFFFFF80007FFF0003FFFFFFFFC0007FFFFFC00070008000FFFFFFC0
310
00FFFF000000FFF8000007FFFF80007F8000FFFFFF8000F8000FFFFFF8000FF8
310
000001FFFE0000007FFFFFF0001FFFFFFE0001FFFFFFC0003FFE0001FFFFFFC0
310
003FFF0003FFFFFFFFC0007FFFFFE00070008000FFFFFFC0007FFF0000007FF8
310
000003FFFF80007F0001FFFFFF8000F8000FFFFFF8000FF8000001FFFE000000
310
7FFFFFF0001FFFFFFE0001FFFFFFC0003FFE0001FFFFFFC0003FFF0003FFFFFF
310
FFC000FFFFFFE00070008000FFFFFFC0007FFF0000007FF8000003FFFF80007F
310
0001FFFFFF8000F8001FFFFFF8000FF8000001FFFE0000007FFFFFF0001FFFFF
310
FE0003FFFFFFE0003FFE0003FFFFFFE0003FFF0003FFFFFFFFC000FFFFFFE000
310
70008000FFFFFFC0007FFE0000007FF8000003FFFF80007F0001FFFFFF8000F0
310
001FFFFFF8000FF8000001FFFE0000007FFFFFF0001FFFFFFC0003FFFFFFE000
310
1FFC0003FFFFFFE0001FFF0003FFFFFFFFC000FFFFFFC00070008000FFFFFF80
310
007FFE0000007FF0000003FFFF80007F0001FFFFFF0000F0001FFFFFF8000FF8
310
000001FFFE0000007FFFFFF0001FFFFFFC0007FFFFFFF0001FFC0007FFFFFFF0
310
001FFF0003FFFFFFFFC000FFFFFFC00070008001FFFFFF0000FFFE0000003FF0
310
000001FFFF80007F0001FFFFFF0000F8001FFFFFF0000FF8000001FFFE000000
310
7FFFFFF0001FFFFFFC0007FFFFFFF0001FFC0007FFFFFFF0001FFF0003FFFFFF
310
FFC001FFFFFF80007000FFFFFFFFFE0000FFFE0008003FF0008001FFFF80007F
310
FFFFFFFFFC0000FFFFFFFFFFE0000FF8000001FFFE0000007FFFFFF0001FFFFF
310
F8000FFFFFFFF8000FF8000FFFFFFFF8000FFF0003FFFFFFFFFFFFFFFFFF0000
310
7000FFFFFFFFFC0000FFFC0008003FF0008001FFFF80007FFFFFFFFFF80001FF
310
FFFFFFFF80000FF8000001FFFE0000007FFFFFF0001FFFFFF8000FFFFFFFF800
310
0FF8000FFFFFFFF8000FFF0003FFFFFFFFFFFFFFFFFE0000F000FFFFFFFFE000
310
00FFFC000C003FE000C001FFFF80007FFFFFFFFFC00001FFFFFFFFFE00001FF8
310
000001FFFE0000007FFFFFF0001FFFFFF8000FFFFFFFF8000FF8000FFFFFFFF8
310
000FFF0003FFFFFFFFFFFFFFFFF00000F000FFFFFFFE000001FFFC000C001FE0
310
00C000FFFF80007FFFFFFFFE000001FFFFFFFFE000001FF80FFFFFFFFFFFFFC0
310
7FFFFFF0001FFFFFF8000FFFFFFFF8000FF8000FFFFFFFF8000FFF0003FFFFFF
310
FFFFFFFFFF800000F000FFFFFFC0000001FFFC001C001FE001C000FFFF80007F
310
FFFFFF80000003FFFFFFF80000001FF80FFFFFFFFFFFFFC07FFFFFF0001FFFFF
310
F8001FFFFFFFFC000FF8001FFFFFFFFC000FFF0003FFFFFFFFFFFFFFF0000001
310
F000FFFFF800000001FFF8001C001FE001C000FFFF80007FFFFFF800000003FF
310
FFFF800000003FF80FFFFFFFFFFFFFC07FFFFFF0001FFFFFF8001FFFFFFFFC00
310
0FF8001FFFFFFFFC000FFF0003FFFFFFFFFFFFFE00000001F000FFFFC0000000
310
03FFF8001E001FC001E000FFFF80007FFFFF8000000007FFFFFC000000003FF8
310
0FFFFFFFFFFFFFC07FFFFFF0001FFFFFF8001FFFFFFFFC000FF8001FFFFFFFFC
310
000FFF0003FFFFFFFFFFFFE000000003F000FFFE0000000007FFF8001E000FC0
310
01E0007FFF80007FFFFE0000000007FFFFE0000000007FF80FFFFFFFFFFFFFC0
310
7FFFFFF0001FFFFFF0001FFFFFFFFC0007F0001FFFFFFFFC0007FF0003FFFFFF
310
FFFFFF0000000003F000FFF80000000007FFF8001E000FC003E0007FFF80007F
310
FFF0000000000FFFFF8000000000FFF80FFFFFFFFFFFFFC07FFFFFF0001FFFFF
310
F0001FFFFFFFFC0007F0001FFFFFFFFC0007FF0003FFFFFFFFFFFC0000000007
310
F000FFE0000000000FFFF0003E000FC003E0007FFF80007FFFC0000000001FFF
310
FE0000000001FFF80FFFFFFFFFFFFFC07FFFFFF0001FFFFFF0001FFFFFFFFC00
310
07F0001FFFFFFFFC0007FF0003FFFFFFFFFFF0000000000FF000FFC000000000
310
1FFFF0003F000F8003F0003FFF80007FFF80000000003FFFF80000000003FFF8
310
0FFFFFFFFFFFFFC07FFFFFF0001FFFFFF0001FFFFFFFFC0007F0001FFFFFFFFC
310
0007FF0003FFFFFFFFFFE0000000001FF000FF00000000007FFFF0003F000780
310
03F0003FFF80007FFF00000000007FFFF00000000007FFF80FFFFFFFFFFFFFC0
310
7FFFFFF0001FFFFFF0001FFFFFFFFC0007F0001FFFFFFFFC0007FF0003FFFFFF
310
FFFF80000000007FF000FE0000000000FFFFE0003F00078007F0003FFF80007F
310
FE0000000001FFFFE0000000001FFFF80FFFFFFFFFFFFFC07FFFFFF0001FFFFF
310
F0001FFFFFFFFC0007F0001FFFFFFFFC0007FF0003FFFFFFFFFF0000000000FF
310
F000FC0000000003FFFFE0007F00078007F0003FFF80007FFC0000000007FFFF
310
C0000000007FFFF80FFFFFFFFFFFFFC07FFFFFF0001FFFFFF8001FFFFFFFFC00
310
0FF8001FFFFFFFFC000FFF0003FFFFFFFFFE0000000003FFF000FC000000000F
310
FFFFE0007F80070007F8001FFF80007FF8000000001FFFFF8000000001FFFFF8
310
0FFFFFFFFFFFFFC07FFFFFF0001FFFFFF8001FFFFFFFFC000FF8001FFFFFFFFC
310
000FFF0003FFFFFFFFFC000000000FFFF000F8000000007FFFFFE0007F800700
310
07F8001FFF80007FF000000000FFFFFF800000000FFFFFF80FFFFFFFFFFFFFC0
310
7FFFFFF0001FFFFFF8000FFFFFFFF8000FF8000FFFFFFFF8000FFF0003FFFFFF
310
FFFC000000007FFFF000F800000007FFFFFFC0007F8003000FF8001FFF80007F
310
F000000007FFFFFF000000007FFFFFF80FFFFFFFFFFFFFC07FFFFFF0001FFFFF
310
F8000FFFFFFFF8000FF8000FFFFFFFF8000FFF0003FFFFFFFFF80000000FFFFF
310
F000F0000000FFFFFFFFC000FF8003000FF8001FFF80007FE0000000FFFFFFFF
310
0000000FFFFFFFF8000001FFFE0000007FFFFFF0001FFFFFF8000FFFFFFFF800
310
0FF8000FFFFFFFF8000FFF0003FFFFFFFFF8000000FFFFFFF000F000000FFFFF
310
FFFFC000FFC002000FF8000FFF80007FE000001FFFFFFFFE000001FFFFFFFFF8
310
000001FFFE0000007FFFFFF0001FFFFFF8000FFFFFFFF8000FF8000FFFFFFFF8
310
000FFF0003FFFFFFFFF000001FFFFFFFF000E00000FFFFFFFFFFC000FFC00200
310
0FFC000FFF80007FE00001FFFFFFFFFE00001FFFFFFFFFF8000001FFFE000000
310
7FFFFFF0001FFFFFFC000FFFFFFFF8001FFC000FFFFFFFF8001FFF0003FFFFFF
310
FFF00001FFFFFFFFF000E00007FFFFFFFFFF8000FFC000001FFC000FFF80007F
310
C0000FFFFFFFFFFE0000FFFFFFFFFFF8000001FFFE0000007FFFFFF0001FFFFF
310
FC0007FFFFFFF0001FFC0007FFFFFFF0001FFF0003FFFFFFFFF00007FFFFFFFF
310
F000E0001FFFFFFFFFFF8000FFC000001FFC000FFF80007FC0003FFFFFFFFFFE
310
0001FFFFFFFFFFF8000001FFFE0000007FFFFFF0001FFFFFFC0007FFFFFFF000
310
1FFC0007FFFFFFF0001FFF0003FFFFFFFFF0001FFFFFFFFFF000E0003FFFFF00
310
03FF8001FFE000001FFC0007FF80007FC0007FFFFF0007FC0003FFFFF0003FF8
310
000001FFFE0000007FFFFFF0001FFFFFFC0003FFFFFFE0001FFC0003FFFFFFE0
310
001FFF0003FFFFFFFFF0003FFFFFFFFFF000E0003FFFFF0001FF8001FFE00000
310
1FFE0007FF80007FC0007FFFFE0003FC0007FFFFE0003FF8000001FFFE000000
310
7FFFFFF0001FFFFFFE0003FFFFFFE0003FFE0003FFFFFFE0003FFF0003FFFFFF
310
FFF0003FFFFF8001F000E0003FFFFF0001FF0001FFE000001FFE0007FF80007F
310
C0007FFFFE0003FC0007FFFFE0003FF8000001FFFE0000007FFFFFF0001FFFFF
310
FE0001FFFFFFC0003FFE0001FFFFFFC0003FFF0003FFFFFFFFF0003FFFFF0001
310
F000E0003FFFFF0003FF0001FFE000003FFE0007FF80007FC0007FFFFE0003FC
310
0007FFFFE0003FF8000001FFFE0000007FFFFFF0001FFFFFFF0001FFFFFFC000
310
7FFF0001FFFFFFC0007FFF0003FFFFFFFFF0003FFFFF0001F000E0003FFFFE00
310
03FF0003FFF000003FFE0003FF80007FC0007FFFFC0003FE0007FFFFE0003FF8
310
000001FFFE0000007FFFFFF0001FFFFFFF0000FFFFFF80007FFF0000FFFFFF80
310
007FFF0003FFFFFFFFF0003FFFFF0001F000E0003FFFFE0003FF0003FFF00000
310
3FFF0003FF80007FC0007FFFFC0007FE0007FFFFC0003FF8000001FFFE000000
310
7FFFFFF0001FFFFFFF80007FFFFF0000FFFF80007FFFFF0000FFFF0003FFFFFF
310
FFF0003FFFFF0003F000E0003FFFFC0003FE0003FFF000003FFF0003FF80007F
310
E0003FFFF80007FE0003FFFFC0007FF8000001FFFE0000007FFFFFF0001FFFFF
310
FF80003FFFFE0000FFFF80003FFFFE0000FFFF0003FFFFFFFFF0001FFFFE0003
310
F000F0001FFFF80003FE0003FFF000007FFF0001FF80007FE0003FFFF00007FE
310
0001FFFF80007FF8000001FFFE0000007FFFFFF0001FFFFFFFC0000FFFF80001
310
FFFFC0000FFFF80001FFFF0003FFFFFFFFF0001FFFFC0003F000F0000FFFF000
310
07FE0007FFF800007FFF0001FF80007FE0001FFFE00007FF0000FFFE00007FF8
310
000001FFFE0000007FFFFFF0001FFFFFFFC00003FFE00001FFFFC00003FFE000
310
01FFFF0003FFFFFFFFF8000FFFF80003F000F00003FFC00007FC0007FFF80000
310
7FFF8001FF80007FF00007FF80000FFF00007FF80000FFF8000001FFFE000000
310
7F80000000000001FFE000003E000003FFFFE000003E000003FFFF0003FFFFFF
310
FFF80003FFE00007F000F800000000000FFC0007FFF800007FFF8001FF80007F
310
F000000000000FFF000000000000FFF8000001FFFE0000007F80000000000001
310
FFF0000000000007FFFFF0000000000007FFFF0003FFFFFFFFFC00007E000007
310
F000F800000000000FFC0007FFF80000FFFF8000FF80007FF800000000001FFF
310
800000000001FFF8000001FFFE0000007F80000000000001FFF800000000000F
310
FFFFF800000000000FFFFF0003FFFFFFFFFC00000000000FF000FC0000000000
310
1FFC0007FFFC0000FFFF8000FF80007FF800000000003FFFC00000000001FFF8
310
000001FFFE0000007F80000000000001FFF800000000000FFFFFF80000000000
310
0FFFFF0003FFFFFFFFFE00000000001FF000FE00000000003FF8000FFFFC0000
310
FFFF8000FF80007FFC00000000003FFFC00000000003FFF8000001FFFE000000
310
7F80000000000001FFFC00000000001FFFFFFC00000000001FFFFF0003FFFFFF
310
FFFF00000000001FF000FF00000000003FF8000FFFFC0000FFFFC000FF80007F
310
FE00000000007FFFE00000000007FFF8000001FFFE0000007F80000000000001
310
FFFE00000000003FFFFFFE00000000003FFFFF0003FFFFFFFFFF80000000003F
310
F000FF80000000007FF8000FFFFC0001FFFFC0007F80007FFF0000000000FFFF
310
F0000000000FFFF800000000000000007F80000000000001FFFF8000000000FF
310
FFFFFF8000000000FFFFFF0003FFFFFFFFFFC0000000007FF000FFC000000000
310
FFF8000FFFFE0001FFFFC0007F80007FFF8000000001FFFFF8000000001FFFF8
310
00000000000000007F80000000000001FFFFC000000001FFFFFFFFC000000001
310
FFFFFF0003FFFFFFFFFFE000000000FFF000FFE000000003FFF0001FFFFE0001
310
FFFFC0007F80007FFFC000000007FFFFFE000000003FFFF80000000000000000
310
7F80000000000001FFFFE000000003FFFFFFFFE000000003FFFFFF0003FFFFFF
310
FFFFF000000003FFF000FFF80000000FFFF0001FFFFE0001FFFFE0007F80007F
310
FFF00000000FFFFFFF00000000FFFFF800000000000000007F80000000000001
310
FFFFF80000000FFFFFFFFFF80000000FFFFFFF0003FFFFFFFFFFFC0000000FFF
310
F000FFFE0000003FFFF0001FFFFE0003FFFFE0003F80007FFFFC0000003FFFFF
310
FFC0000003FFFFF800000000000000007F80000000000001FFFFFE0000003FFF
310
FFFFFFFE0000003FFFFFFF0003FFFFFFFFFFFF0000003FFFF000FFFF800000FF
310
FFF0001FFFFF0003FFFFE0003F80007FFFFF000001FFFFFFFFF800001FFFFFF8
310
00000000000000007F80000000000001FFFFFFC00001FFFFFFFFFFFFC00001FF
310
FFFFFF0003FFFFFFFFFFFFC00000FFFFF000FFFFF8000FFFFFFFFFFFFFFFFFFF
310
FFFFFFFFFFFFFFFFFFFFF0001FFFFFFFFFFF0000FFFFFFF80000000000000000
310
7FFFFFFFFFFFFFFFFFFFFFFC001FFFFFFFFFFFFFFC001FFFFFFFFFFFFFFFFFFF
310
FFFFFFFC001FFFFFF000FFFFFFFFFFFFFFFFFFFFFFFFFFFFFFFFFFFFFFFFFFFF
310
FFFFFFFFFFFFFFFFFFFFFFFFFFFFFFFFFFFFFFFFFFFFFFFFFFFFFFFFFFFFFFFF
310
FFFFFFFFFFFFFFFFFFFFFFFFFFFFFFFFFFFFFFFFFFFFFFFFFFFFFFFFFFFFFFFF
310
F000FFFFFFFFFFFFFFFFFFFFFFFFFFFFFFFFFFFFFFFFFFFFFFFFFFFFFFFFFFFF
310
FFFFFFFFFFFFFFFFFFFFFFFFFFFFFFFFFFFFFFFFFFFFFFFFFFFFFFFFFFFFFFFF
310
FFFFFFFFFFFFFFFFFFFFFFFFFFFFFFFFFFFFFFFFFFFFFFFFF000FFFFFFFFFFFF
310
FFFFFFFFFFFFFFFFFFFFFFFFFFFFFFFFFFFFFFFFFFFFFFFFFFFFFFFFFFFFFFFF
310
FFFFFFFFFFFFFFFFFFFFFFFFFFFFFFFFFFFFFFFFFFFFFFFFFFFFFFFFFFFFFFFF
310
FFFFFFFFFFFFFFFFFFFFFFFFFFFFFFFFF000FFFFFFFFFFFFFFFFFFFFFFFFFFFF
310
FFFFFFFFFFFFFFFFFFFFFFFFFFFFFFFFFFFFFFFFFFFFFFFFFFFFFFFFFFFFFFFF
310
FFFFFFFFFFFFFFFFFFFFFFFFFFFFFFFFFFFFFFFFFFFFFFFFFFFFFFFFFFFFFFFF
310
FFFFFFFFFFFFFFFFF000FFFFFFFFFFFFFFFFFFFFFFFFFFFFFFFFFFFFFFFFFFFF
310
FFFFFFFFFFFFFFFFFFFFFFFFFFFFFFFFFFFFFFFFFFFFFFFFFFFFFFFFFFFFFFFF
310
FFFFFFFFFFFFFFFFFFFFFFFFFFFFFFFFFFFFFFFFFFFFFFFFFFFFFFFFFFFFFFFF
310
F000FFFFFFFFFFFFFFFFFFFFFFFFFFFFFFFFFFFFFFFFFFFFFFFFFFFFFFFFFFFF
310
FFFFFFFFFFFFFFFFFFFFFFFFFFFFFFFFFFFFFFFFFFFFFFFFFFFFFFFFFFFFFFFF
310
FFFFFFFFFFFFFFFFFFFFFFFFFFFFFFFFFFFFFFFFFFFFFFFFF000FFFFFFFFFFFF
310
FFFFFFFFFFFFFFFFFFFFFFFFFFFFFFFFFFFFFFFFFFFFFFFFFFFFFFFFFFFFFFFF
310
FFFFFFFFFFFFFFFFFFFFFFFFFFFFFFFFFFFFFFFFFFFFFFFFFFFFFFFFFFFFFFFF
310
FFFFFFFFFFFFFFFFFFFFFFFFFFFFFFFFF000FFFFFFFFFFFFFFFFFFFFFFFFFFFF
310
FFFFFFFFFFFFFFFFFFFFFFFFFFFFFFFFFFFFFFFFFFFFFFFFFFFFFFFFFFFFFFFF
310
FFFFFFFFFFFFFFFFFFFFFFFFFFFFFFFFFFFFFFFFFFFFFFFFFFFFFFFFFFFFFFFF
310
FFFFFFFFFFFFFFFFF000FFFFFFFFFFFFFFFFFFFFFFFFFFFFFFFFFFFFFFFFFFFF
310
FFFFFFFFFFFFFFFFFFFFFFFFFFFFFFFFFFFFFFFFFFFFFFFFFFFFFFFFFFFFFFFF
310
FFFFFFFFFFFFFFFFFFFFFFFFFFFFFFFFFFFFFFFFFFFFFFFFFFFFFFFFFFFFFFFF
310
F000FFFFFFFFFFFFFFFFFFFFFFFFFFFFFFFFFFFFFFFFFFFFFFFFFFFFFFFFFFFF
310
FFFFFFFFFFFFFFFFFFFFFFFFFFFFFFFFFFFFFFFFFFFFFFFFFFFFFFFFFFFFFFFF
310
FFFFFFFFFFFFFFFFFFFFFFFFFFFFFFFFFFFFFFFFFFFFFFFFF000FFFFFFFFFFFF
310
FFFFFFFFFFFFFFFFFFFFFFFFFFFFFFFFFFFFFFFFFFFFFFFFFFFFFFFFFFFFFFFF
310
FFFFFFFFFFFFFFFFFFFFFFFFFFFFFFFFFFFFFFFFFFFFFFFFFFFFFFFFFFFFFFFF
310
FFFFFFFFFFFFFFFFFFFFFFFFFFFFFFFFF000FFFFFFFFFFFFFFFFFFFFFFFFFFFF
310
FFFFFFFFFFFFFFFFFFFFFFFFFFFFFFFFFFFFFFFFFFFFFFFFFFFFFFFFFFFFFFFF
310
FFFFFFFFFFFFFFFFFFFFFFFFFFFFFFFFFFFFFFFFFFFFFFFFFFFFFFFFFFFFFFFF
310
FFFFFFFFFFFFFFFFF000FFFFFFFFFFFFFFFFFFFFFFFFFFFFFFFFFFFFFFFFFFFF
310
FFFFFFFFFFFFFFFFFFFFFFFFFFFFFFFFFFFFFFFFFFFFFFFFFFFFFFFFFFFFFFFF
310
FFFFFFFFFFFFFFFFFFFFFFFFFFFFFFFFFFFFFFFFFFFFFFFFFFFFFFFFFFFFFFFF
310
F000FFFFFFFFFFFFFFFFFFFFFFFFFFFFFFFFFFFFFFFFFFFFFFFFFFFFFFFFFFFF
310
FFFFFFFFFFFFFFFFFFFFFFFFFFFFFFFFFFFFFFFFFFFFFFFFFFFFFFFFFFFFFFFF
310
FFFFFFFFFFFFFFFFFFFFFFFFFFFFFFFFFFFFFFFFFFFFFFFFF000FFFFFFFFFFFF
310
FFFFFFFFFFFFFFFFFFFFFFFFFFFFFFFFFFFFFFFFFFFFFFFFFFFFFFFFFFFFFFFF
310
FFFFFFFFFFFFFFFFFFFFFFFFFFFFFFFFFFFFFFFFFFFFFFFFFFFFFFFFFFFFFFFF
310
FFFFFFFFFFFFFFFFFFFFFFFFFFFFFFFFF000FFFFFFFFFFFFFFFFFFFFFFFFFFFF
310
FFFFFFFFFFFFFFFFFFFFFFFFFFFFFFFFFFFFFFFFFFFFFFFFFFFFFFFFFFFFFFFF
310
FFFFFFFFFFFFFFFFFFFFFFFFFFFFFFFFFFFFFFFFFFFFFFFFFFFFFFFFFFFFFFFF
310
FFFFFFFFFFFFFFFFF000FFFFFFFFFFFFFFFFFFFFFFFFFFFFFFFFFFFFFFFFFFFF
310
FFFFFFFFFFFFFFFFFFFFFFFFFFFFFFFFFFFFFFFFFFFFFFFFFFFFFFFFFFFFFFFF
310
FFFFFFFFFFFFFFFFFFFFFFFFFFFFFFFFFFFFFFFFFFFFFFFFFFFFFFFFFFFFFFFF
310
F000FFFFFFFFFFFFFFFFFFFFFFFFFFFFFFFFFFFFFFFFFFFFFFFFFFFFFFFFFFFF
310
FFFFFFFFFFFFFFFFFFFFFFFFFFFFFFFFFFFFFFFFFFFFFFFFFFFFFFFFFFFFFFFF
310
FFFFFFFFFFFFFFFFFFFFFFFFFFFFFFFFFFFFFFFFFFFFFFFFF000FFFFFFFFFFFF
310
FFFFFFFFFFFFFFFFFFFFFFFFFFFFFFFFFFFFFFFFFFFFFFFFFFFFFFFFFFFFFFFF
310
FFFFFFFFFFFFFFFFFFFFFFFFFFFFFFFFFFFFFFFFFFFFFFFFFFFFFFFFFFFFFFFF
310
FFFFFFFFFFFFFFFFFFFFFFFFFFFFFFFFF000FFFFFFFFFFFFFFFFFFFFFFFFFFFF
310
FFFFFFFFFFFFFFFFFFFFFFFFFFFFFFFFFFFFFFFFFFFFFFFFFFFFFFFFFFFFFFFF
310
FFFFFFFFFFFFFFFFFFFFFFFFFFFFFFFFFFFFFFFFFFFFFFFFFFFFFFFFFFFFFFFF
310
FFFFFFFFFFFFFFFFF000FFFFFFFFFFFFFFFFFFFFFFFFFFFFFFFFFFFFFFFFFFFF
310
FFFFFFFFFFFFFFFFFFFFFFFFFFFFFFFFFFFFFFFFFFFFFFFFFFFFFFFFFFFFFFFF
310
FFFFFFFFFFFFFFFFFFFFFFFFFFFFFFFFFFFFFFFFFFFFFFFFFFFFFFFFFFFFFFFF
310
F000FFFFFFFFFFFFFFFFFFFFFFFFFFFFFFFFFFFFFFFFFFFFFFFFFFFFFFFFFFFF
310
FFFFFFFFFFFFFFFFFFFFFFFFFFFFFFFFFFFFFFFFFFFFFFFFFFFFFFFFFFFFFFFF
310
FFFFFFFFFFFFFFFFFFFFFFFFFFFFFFFFFFFFFFFFFFFFFFFFF000FFFFFFFFFFFF
310
FFFFFFFFFFFFFFFFFFFFFFFFFFFFFFFFFFFFFFFFFFFFFFFFFFFFFFFFFFFFFFFF
310
FFFFFFFFFFFFFFFFFFFFFFFFFFFFFFFFFFFFFFFFFFFFFFFFFFFFFFFFFFFFFFFF
310
FFFFFFFFFFFFFFFFFFFFFFFFFFFFFFFFF0000000000000000000000000000000
310
0000000000000000000000000000000000000000000000000000000000000000
310
0000000000000000000000000000000000000000000000000000000000000000
310
0000000000000000000000000000000000000000000000000000000000000000
310
0000000000000000000000000000000000000000000000000000000000000000
310
0000000000000000000000000000000000000000000000000000000000000000
310
0000000000000000000000000000000000000000000000000000000000000000
310
0000000000000000000000000000000000000000000000000000000000000000
310
0000000000000000000000000000000000000000000000000000000000000000
310
0000000000000000000000000000000000000000000000000000000000000000
310
0000000000000000000000000000000000000000000000000000000000000000
310
0000000000000000000000000000000000000000000000000000000000000000
310
0000000000000000000000000000000000000000000000000000000000000000
310
0000000000000000000000000000000000000000000000000000000000000000
310
0000000000000000000000000000000000000000000000000000000000000000
310
0000000000000000000000000000000000000000000000000000000000000000
  1
OLE
  0
ENDSEC
  0
SECTION
  2
OBJECTS
  0
DICTIONARY
  5
C
330
0
100
AcDbDictionary
281
     1
  3
ACAD_GROUP
350
D
  3
ACAD_LAYOUT
350
1A
  3
ACAD_MLINESTYLE
350
17
  3
ACAD_PLOTSETTINGS
350
19
  3
ACAD_PLOTSTYLENAME
350
E
  3
ACAD_SCALELIST
350
47
  0
DICTIONARY
  5
D
102
{ACAD_REACTORS
330
C
102
}
330
C
100
AcDbDictionary
281
     1
  0
DICTIONARY
  5
1A
102
{ACAD_REACTORS
330
C
102
}
330
C
100
AcDbDictionary
281
     1
  3
Layout1
350
1E
  3
Layout2
350
26
  3
Model
350
22
  0
DICTIONARY
  5
17
102
{ACAD_REACTORS
330
C
102
}
330
C
100
AcDbDictionary
281
     1
  3
Standard
350
18
  0
DICTIONARY
  5
19
102
{ACAD_REACTORS
330
C
102
}
330
C
100
AcDbDictionary
281
     1
  0
ACDBDICTIONARYWDFLT
  5
E
102
{ACAD_REACTORS
330
C
102
}
330
C
100
AcDbDictionary
281
     1
  3
Normal
350
F
100
AcDbDictionaryWithDefault
340
F
  0
DICTIONARY
  5
47
102
{ACAD_REACTORS
330
C
102
}
330
C
100
AcDbDictionary
281
     1
  3
A0
350
48
  3
A1
350
49
  3
A2
350
4A
  3
A3
350
4B
  3
A4
350
4C
  3
A5
350
4D
  3
A6
350
4E
  3
A7
350
4F
  3
A8
350
50
  3
A9
350
51
  3
B0
350
52
  3
B1
350
53
  3
B2
350
54
  3
B3
350
55
  3
B4
350
56
  3
B5
350
57
  3
B6
350
58
  3
B7
350
59
  3
B8
350
5A
  3
B9
350
5B
  3
C0
350
5C
  3
C1
350
5D
  3
C2
350
5E
  3
C3
350
5F
  3
C4
350
60
  3
C5
350
61
  3
C6
350
62
  3
C7
350
63
  3
C8
350
64
  3
C9
350
65
  3
D0
350
66
  3
D1
350
67
  3
D2
350
68
  0
LAYOUT
  5
1E
102
{ACAD_REACTORS
330
1A
102
}
330
1A
100
AcDbPlotSettings
  1

  2
none_device
  4

  6

 40
0.0
 41
0.0
 42
0.0
 43
0.0
 44
0.0
 45
0.0
 46
0.0
 47
0.0
 48
0.0
 49
0.0
140
0.0
141
0.0
142
1.0
143
1.0
 70
   688
 72
     1
 73
     0
 74
     5
  7

 75
    16
147
1.0
148
0.0
149
0.0
100
AcDbLayout
  1
Layout1
 70
     1
 71
     1
 10
0.0
 20
0.0
 11
420.0
 21
297.0
 12
0.0
 22
0.0
 32
0.0
 14
1.0000000000E+20
 24
1.0000000000E+20
 34
1.0000000000E+20
 15
-1.0000000000E+20
 25
-1.0000000000E+20
 35
-1.0000000000E+20
146
0.0
 13
0.0
 23
0.0
 33
0.0
 16
1.0
 26
0.0
 36
0.0
 17
0.0
 27
1.0
 37
0.0
 76
     0
330
1B
  0
LAYOUT
  5
26
102
{ACAD_REACTORS
330
1A
102
}
330
1A
100
AcDbPlotSettings
  1

  2
none_device
  4

  6

 40
0.0
 41
0.0
 42
0.0
 43
0.0
 44
0.0
 45
0.0
 46
0.0
 47
0.0
 48
0.0
 49
0.0
140
0.0
141
0.0
142
1.0
143
1.0
 70
   688
 72
     1
 73
     0
 74
     5
  7

 75
    16
147
1.0
148
0.0
149
0.0
100
AcDbLayout
  1
Layout2
 70
     1
 71
     2
 10
0.0
 20
0.0
 11
0.0
 21
0.0
 12
0.0
 22
0.0
 32
0.0
 14
0.0
 24
0.0
 34
0.0
 15
0.0
 25
0.0
 35
0.0
146
0.0
 13
0.0
 23
0.0
 33
0.0
 16
1.0
 26
0.0
 36
0.0
 17
0.0
 27
1.0
 37
0.0
 76
     0
330
23
  0
LAYOUT
  5
22
102
{ACAD_REACTORS
330
1A
102
}
330
1A
100
AcDbPlotSettings
  1

  2
none_device
  4
Letter_(8.50_x_11.00_Inches)
  6

 40
6.35
 41
6.35
 42
6.35000508
 43
6.35000508
 44
215.9
 45
279.4
 46
0.0
 47
0.0
 48
0.0
 49
0.0
140
0.0
141
0.0
142
1.0
143
1.0
 70
  1712
 72
     1
 73
     0
 74
     0
  7

 75
     0
147
1.0
148
0.0
149
0.0
100
AcDbLayout
  1
Model
 70
     1
 71
     0
 10
0.0
 20
0.0
 11
297.0
 21
210.0
 12
0.0
 22
0.0
 32
0.0
 14
0.0
 24
0.0
 34
0.0
 15
297.0
 25
210.0
 35
0.0
146
0.0
 13
0.0
 23
0.0
 33
0.0
 16
1.0
 26
0.0
 36
0.0
 17
0.0
 27
1.0
 37
0.0
 76
     0
330
1F
331
29
  0
MLINESTYLE
  5
18
102
{ACAD_REACTORS
330
17
102
}
330
17
100
AcDbMlineStyle
  2
Standard
 70
     0
  3

 62
   256
 51
90.0
 52
90.0
 71
     2
 49
0.5
 62
   256
  6
BYLAYER
 49
-0.5
 62
   256
  6
BYLAYER
  0
ACDBPLACEHOLDER
  5
F
102
{ACAD_REACTORS
330
E
102
}
330
E
  0
SCALE
  5
48
102
{ACAD_REACTORS
330
47
102
}
330
47
100
AcDbScale
 70
     0
300
1:1
140
1.0
141
1.0
290
     1
  0
SCALE
  5
49
102
{ACAD_REACTORS
330
47
102
}
330
47
100
AcDbScale
 70
     0
300
1:2
140
1.0
141
2.0
290
     0
  0
SCALE
  5
4A
102
{ACAD_REACTORS
330
47
102
}
330
47
100
AcDbScale
 70
     0
300
1:4
140
1.0
141
4.0
290
     0
  0
SCALE
  5
4B
102
{ACAD_REACTORS
330
47
102
}
330
47
100
AcDbScale
 70
     0
300
1:5
140
1.0
141
5.0
290
     0
  0
SCALE
  5
4C
102
{ACAD_REACTORS
330
47
102
}
330
47
100
AcDbScale
 70
     0
300
1:8
140
1.0
141
8.0
290
     0
  0
SCALE
  5
4D
102
{ACAD_REACTORS
330
47
102
}
330
47
100
AcDbScale
 70
     0
300
1:10
140
1.0
141
10.0
290
     0
  0
SCALE
  5
4E
102
{ACAD_REACTORS
330
47
102
}
330
47
100
AcDbScale
 70
     0
300
1:16
140
1.0
141
16.0
290
     0
  0
SCALE
  5
4F
102
{ACAD_REACTORS
330
47
102
}
330
47
100
AcDbScale
 70
     0
300
1:20
140
1.0
141
20.0
290
     0
  0
SCALE
  5
50
102
{ACAD_REACTORS
330
47
102
}
330
47
100
AcDbScale
 70
     0
300
1:30
140
1.0
141
30.0
290
     0
  0
SCALE
  5
51
102
{ACAD_REACTORS
330
47
102
}
330
47
100
AcDbScale
 70
     0
300
1:40
140
1.0
141
40.0
290
     0
  0
SCALE
  5
52
102
{ACAD_REACTORS
330
47
102
}
330
47
100
AcDbScale
 70
     0
300
1:50
140
1.0
141
50.0
290
     0
  0
SCALE
  5
53
102
{ACAD_REACTORS
330
47
102
}
330
47
100
AcDbScale
 70
     0
300
1:100
140
1.0
141
100.0
290
     0
  0
SCALE
  5
54
102
{ACAD_REACTORS
330
47
102
}
330
47
100
AcDbScale
 70
     0
300
2:1
140
2.0
141
1.0
290
     0
  0
SCALE
  5
55
102
{ACAD_REACTORS
330
47
102
}
330
47
100
AcDbScale
 70
     0
300
4:1
140
4.0
141
1.0
290
     0
  0
SCALE
  5
56
102
{ACAD_REACTORS
330
47
102
}
330
47
100
AcDbScale
 70
     0
300
8:1
140
8.0
141
1.0
290
     0
  0
SCALE
  5
57
102
{ACAD_REACTORS
330
47
102
}
330
47
100
AcDbScale
 70
     0
300
10:1
140
10.0
141
1.0
290
     0
  0
SCALE
  5
58
102
{ACAD_REACTORS
330
47
102
}
330
47
100
AcDbScale
 70
     0
300
100:1
140
100.0
141
1.0
290
     0
  0
SCALE
  5
59
102
{ACAD_REACTORS
330
47
102
}
330
47
100
AcDbScale
 70
     0
300
1/128" = 1'-0"
140
0.0078125
141
12.0
290
     0
  0
SCALE
  5
5A
102
{ACAD_REACTORS
330
47
102
}
330
47
100
AcDbScale
 70
     0
300
1/64" = 1'-0"
140
0.015625
141
12.0
290
     0
  0
SCALE
  5
5B
102
{ACAD_REACTORS
330
47
102
}
330
47
100
AcDbScale
 70
     0
300
1/32" = 1'-0"
140
0.03125
141
12.0
290
     0
  0
SCALE
  5
5C
102
{ACAD_REACTORS
330
47
102
}
330
47
100
AcDbScale
 70
     0
300
1/16" = 1'-0"
140
0.0625
141
12.0
290
     0
  0
SCALE
  5
5D
102
{ACAD_REACTORS
330
47
102
}
330
47
100
AcDbScale
 70
     0
300
3/32" = 1'-0"
140
0.09375
141
12.0
290
     0
  0
SCALE
  5
5E
102
{ACAD_REACTORS
330
47
102
}
330
47
100
AcDbScale
 70
     0
300
1/8" = 1'-0"
140
0.125
141
12.0
290
     0
  0
SCALE
  5
5F
102
{ACAD_REACTORS
330
47
102
}
330
47
100
AcDbScale
 70
     0
300
3/16" = 1'-0"
140
0.1875
141
12.0
290
     0
  0
SCALE
  5
60
102
{ACAD_REACTORS
330
47
102
}
330
47
100
AcDbScale
 70
     0
300
1/4" = 1'-0"
140
0.25
141
12.0
290
     0
  0
SCALE
  5
61
102
{ACAD_REACTORS
330
47
102
}
330
47
100
AcDbScale
 70
     0
300
3/8" = 1'-0"
140
0.375
141
12.0
290
     0
  0
SCALE
  5
62
102
{ACAD_REACTORS
330
47
102
}
330
47
100
AcDbScale
 70
     0
300
1/2" = 1'-0"
140
0.5
141
12.0
290
     0
  0
SCALE
  5
63
102
{ACAD_REACTORS
330
47
102
}
330
47
100
AcDbScale
 70
     0
300
3/4" = 1'-0"
140
0.75
141
12.0
290
     0
  0
SCALE
  5
64
102
{ACAD_REACTORS
330
47
102
}
330
47
100
AcDbScale
 70
     0
300
1" = 1'-0"
140
1.0
141
12.0
290
     0
  0
SCALE
  5
65
102
{ACAD_REACTORS
330
47
102
}
330
47
100
AcDbScale
 70
     0
300
1-1/2" = 1'-0"
140
1.5
141
12.0
290
     0
  0
SCALE
  5
66
102
{ACAD_REACTORS
330
47
102
}
330
47
100
AcDbScale
 70
     0
300
3" = 1'-0"
140
3.0
141
12.0
290
     0
  0
SCALE
  5
67
102
{ACAD_REACTORS
330
47
102
}
330
47
100
AcDbScale
 70
     0
300
6" = 1'-0"
140
6.0
141
12.0
290
     0
  0
SCALE
  5
68
102
{ACAD_REACTORS
330
47
102
}
330
47
100
AcDbScale
 70
     0
300
1'-0" = 1'-0"
140
12.0
141
12.0
290
     0
  0
ENDSEC
  0
EOF
