  0
SECTION
  2
HEADER
  9
$ACADVER
  1
AC1015
  9
$ACADMAINTVER
 70
     6
  9
$DWGCODEPAGE
  3
ANSI_1252
  9
$INSBASE
 10
0.0
 20
0.0
 30
0.0
  9
$EXTMIN
 10
0.0
 20
0.0
 30
0.0
  9
$EXTMAX
 10
297.0
 20
210.0
 30
0.0
  9
$LIMMIN
 10
0.0
 20
0.0
  9
$LIMMAX
 10
297.0
 20
210.0
  9
$ORTHOMODE
 70
     0
  9
$REGENMODE
 70
     1
  9
$FILLMODE
 70
     1
  9
$QTEXTMODE
 70
     0
  9
$MIRRTEXT
 70
     1
  9
$LTSCALE
 40
1.0
  9
$ATTMODE
 70
     1
  9
$TEXTSIZE
 40
2.0
  9
$TRACEWID
 40
1.0
  9
$TEXTSTYLE
  7
Standard
  9
$CLAYER
  8
0
  9
$CELTYPE
  6
ByLayer
  9
$CECOLOR
 62
   256
  9
$CELTSCALE
 40
1.0
  9
$DISPSILH
 70
     0
  9
$DIMSCALE
 40
1.0
  9
$DIMASZ
 40
3.0
  9
$DIMEXO
 40
0.0
  9
$DIMDLI
 40
3.75
  9
$DIMRND
 40
0.0
  9
$DIMDLE
 40
0.0
  9
$DIMEXE
 40
1.0
  9
$DIMTP
 40
0.0
  9
$DIMTM
 40
0.0
  9
$DIMTXT
 40
2.0
  9
$DIMCEN
 40
2.5
  9
$DIMTSZ
 40
0.0
  9
$DIMTOL
 70
     0
  9
$DIMLIM
 70
     0
  9
$DIMTIH
 70
     1
  9
$DIMTOH
 70
     1
  9
$DIMSE1
 70
     0
  9
$DIMSE2
 70
     0
  9
$DIMTAD
 70
     1
  9
$DIMZIN
 70
     0
  9
$DIMBLK
  1

  9
$DIMASO
 70
     1
  9
$DIMSHO
 70
     1
  9
$DIMPOST
  1

  9
$DIMAPOST
  1

  9
$DIMALT
 70
     0
  9
$DIMALTD
 70
     3
  9
$DIMALTF
 40
0.0393700787
  9
$DIMLFAC
 40
2.0
  9
$DIMTOFL
 70
     1
  9
$DIMTVP
 40
0.0
  9
$DIMTIX
 70
     0
  9
$DIMSOXD
 70
     0
  9
$DIMSAH
 70
     0
  9
$DIMBLK1
  1

  9
$DIMBLK2
  1

  9
$DIMSTYLE
  2
ISO-25
  9
$DIMCLRD
 70
     0
  9
$DIMCLRE
 70
     0
  9
$DIMCLRT
 70
     0
  9
$DIMTFAC
 40
1.0
  9
$DIMGAP
 40
1.524
  9
$DIMJUST
 70
     0
  9
$DIMSD1
 70
     0
  9
$DIMSD2
 70
     0
  9
$DIMTOLJ
 70
     0
  9
$DIMTZIN
 70
     0
  9
$DIMALTZ
 70
     0
  9
$DIMALTTZ
 70
     0
  9
$DIMUPT
 70
     0
  9
$DIMDEC
 70
     2
  9
$DIMTDEC
 70
     3
  9
$DIMALTU
 70
     2
  9
$DIMALTTD
 70
     3
  9
$DIMTXSTY
  7
Standard
  9
$DIMAUNIT
 70
     0
  9
$DIMADEC
 70
     2
  9
$DIMALTRND
 40
0.0
  9
$DIMAZIN
 70
     0
  9
$DIMDSEP
 70
    44
  9
$DIMATFIT
 70
     3
  9
$DIMFRAC
 70
     0
  9
$DIMLDRBLK
  1

  9
$DIMLUNIT
 70
     2
  9
$DIMLWD
 70
    -2
  9
$DIMLWE
 70
    -2
  9
$DIMTMOVE
 70
     0
  9
$LUNITS
 70
     2
  9
$LUPREC
 70
     2
  9
$SKETCHINC
 40
1.0
  9
$FILLETRAD
 40
10.0
  9
$AUNITS
 70
     0
  9
$AUPREC
 70
     2
  9
$MENU
  1
.
  9
$ELEVATION
 40
0.0
  9
$PELEVATION
 40
0.0
  9
$THICKNESS
 40
0.0
  9
$LIMCHECK
 70
     0
  9
$CHAMFERA
 40
0.0
  9
$CHAMFERB
 40
0.0
  9
$CHAMFERC
 40
0.0
  9
$CHAMFERD
 40
0.0
  9
$SKPOLY
 70
     0
  9
$TDCREATE
 40
2458157.621268403
  9
$TDUCREATE
 40
2458157.579601736
  9
$TDUPDATE
 40
2458157.621270139
  9
$TDUUPDATE
 40
2458157.579603472
  9
$TDINDWG
 40
0.0000000116
  9
$TDUSRTIMER
 40
0.0000000116
  9
$USRTIMER
 70
     1
  9
$ANGBASE
 50
0.0
  9
$ANGDIR
 70
     0
  9
$PDMODE
 70
     0
  9
$PDSIZE
 40
-1.0
  9
$PLINEWID
 40
0.0
  9
$SPLFRAME
 70
     0
  9
$SPLINETYPE
 70
     6
  9
$SPLINESEGS
 70
     8
  9
$HANDSEED
  5
23F
  9
$SURFTAB1
 70
     6
  9
$SURFTAB2
 70
     6
  9
$SURFTYPE
 70
     6
  9
$SURFU
 70
     6
  9
$SURFV
 70
     6
  9
$UCSBASE
  2

  9
$UCSNAME
  2

  9
$UCSORG
 10
0.0
 20
0.0
 30
0.0
  9
$UCSXDIR
 10
1.0
 20
0.0
 30
0.0
  9
$UCSYDIR
 10
0.0
 20
1.0
 30
0.0
  9
$UCSORTHOREF
  2

  9
$UCSORTHOVIEW
 70
     0
  9
$UCSORGTOP
 10
0.0
 20
0.0
 30
0.0
  9
$UCSORGBOTTOM
 10
0.0
 20
0.0
 30
0.0
  9
$UCSORGLEFT
 10
0.0
 20
0.0
 30
0.0
  9
$UCSORGRIGHT
 10
0.0
 20
0.0
 30
0.0
  9
$UCSORGFRONT
 10
0.0
 20
0.0
 30
0.0
  9
$UCSORGBACK
 10
0.0
 20
0.0
 30
0.0
  9
$PUCSBASE
  2

  9
$PUCSNAME
  2

  9
$PUCSORG
 10
0.0
 20
0.0
 30
0.0
  9
$PUCSXDIR
 10
1.0
 20
0.0
 30
0.0
  9
$PUCSYDIR
 10
0.0
 20
1.0
 30
0.0
  9
$PUCSORTHOREF
  2

  9
$PUCSORTHOVIEW
 70
     0
  9
$PUCSORGTOP
 10
0.0
 20
0.0
 30
0.0
  9
$PUCSORGBOTTOM
 10
0.0
 20
0.0
 30
0.0
  9
$PUCSORGLEFT
 10
0.0
 20
0.0
 30
0.0
  9
$PUCSORGRIGHT
 10
0.0
 20
0.0
 30
0.0
  9
$PUCSORGFRONT
 10
0.0
 20
0.0
 30
0.0
  9
$PUCSORGBACK
 10
0.0
 20
0.0
 30
0.0
  9
$USERI1
 70
     0
  9
$USERI2
 70
     0
  9
$USERI3
 70
     0
  9
$USERI4
 70
     0
  9
$USERI5
 70
     0
  9
$USERR1
 40
0.0
  9
$USERR2
 40
0.0
  9
$USERR3
 40
0.0
  9
$USERR4
 40
0.0
  9
$USERR5
 40
0.0
  9
$WORLDVIEW
 70
     1
  9
$SHADEDGE
 70
     3
  9
$SHADEDIF
 70
    70
  9
$TILEMODE
 70
     1
  9
$MAXACTVP
 70
    64
  9
$PINSBASE
 10
0.0
 20
0.0
 30
0.0
  9
$PLIMCHECK
 70
     0
  9
$PEXTMIN
 10
1.0000000000E+20
 20
1.0000000000E+20
 30
1.0000000000E+20
  9
$PEXTMAX
 10
-1.0000000000E+20
 20
-1.0000000000E+20
 30
-1.0000000000E+20
  9
$PLIMMIN
 10
0.0
 20
0.0
  9
$PLIMMAX
 10
420.0
 20
297.0
  9
$UNITMODE
 70
     0
  9
$VISRETAIN
 70
     1
  9
$PLINEGEN
 70
     0
  9
$PSLTSCALE
 70
     1
  9
$TREEDEPTH
 70
  3020
  9
$CMLSTYLE
  2
Standard
  9
$CMLJUST
 70
     0
  9
$CMLSCALE
 40
20.0
  9
$PROXYGRAPHICS
 70
     1
  9
$MEASUREMENT
 70
     1
  9
$CELWEIGHT
370
    -1
  9
$ENDCAPS
280
     0
  9
$JOINSTYLE
280
     0
  9
$LWDISPLAY
290
     1
  9
$INSUNITS
 70
     4
  9
$HYPERLINKBASE
  1

  9
$STYLESHEET
  1

  9
$XEDIT
290
     1
  9
$CEPSNTYPE
380
     0
  9
$PSTYLEMODE
290
     1
  9
$FINGERPRINTGUID
  2
{75C432A8-1FC1-47D4-B7D8-B2C16E61E88B}
  9
$VERSIONGUID
  2
{FAEB1C32-E019-11D5-929B-00C0DF256EC4}
  9
$EXTNAMES
290
     1
  9
$PSVPSCALE
 40
0.0
  9
$OLESTARTUP
290
     0
  0
ENDSEC
  0
SECTION
  2
CLASSES
  0
CLASS
  1
ACDBDICTIONARYWDFLT
  2
AcDbDictionaryWithDefault
  3
ObjectDBX Classes
 90
        0
280
     0
281
     0
  0
CLASS
  1
VISUALSTYLE
  2
AcDbVisualStyle
  3
ObjectDBX Classes
 90
     4095
280
     0
281
     0
  0
CLASS
  1
MATERIAL
  2
AcDbMaterial
  3
ObjectDBX Classes
 90
     1153
280
     0
281
     0
  0
CLASS
  1
SCALE
  2
AcDbScale
  3
ObjectDBX Classes
 90
     1153
280
     0
281
     0
  0
CLASS
  1
TABLESTYLE
  2
AcDbTableStyle
  3
ObjectDBX Classes
 90
     4095
280
     0
281
     0
  0
CLASS
  1
MLEADERSTYLE
  2
AcDbMLeaderStyle
  3
ACDB_MLEADERSTYLE_CLASS
 90
     4095
280
     0
281
     0
  0
CLASS
  1
SUN
  2
AcDbSun
  3
SCENEOE
 90
     1153
280
     0
281
     0
  0
CLASS
  1
ACDBPLACEHOLDER
  2
AcDbPlaceHolder
  3
ObjectDBX Classes
 90
        0
280
     0
281
     0
  0
CLASS
  1
LAYOUT
  2
AcDbLayout
  3
ObjectDBX Classes
 90
        0
280
     0
281
     0
  0
ENDSEC
  0
SECTION
  2
TABLES
  0
TABLE
  2
VPORT
  5
8
330
0
100
AcDbSymbolTable
 70
     1
  0
VPORT
  5
29
330
8
100
AcDbSymbolTableRecord
100
AcDbViewportTableRecord
  2
*Active
 70
     0
 10
0.0
 20
0.0
 11
1.0
 21
1.0
 12
148.5
 22
105.0
 13
0.0
 23
0.0
 14
10.0
 24
10.0
 15
10.0
 25
10.0
 16
0.0
 26
0.0
 36
1.0
 17
0.0
 27
0.0
 37
0.0
 40
210.0
 41
1.4142857143
 42
50.0
 43
0.0
 44
0.0
 50
0.0
 51
0.0
 71
     0
 72
  2000
 73
     1
 74
     3
 75
     0
 76
     0
 77
     0
 78
     0
281
     0
 65
     1
110
0.0
120
0.0
130
0.0
111
1.0
121
0.0
131
0.0
112
0.0
122
1.0
132
0.0
 79
     0
146
0.0
  0
ENDTAB
  0
TABLE
  2
LTYPE
  5
5
330
0
100
AcDbSymbolTable
 70
     6
  0
LTYPE
  5
14
330
5
100
AcDbSymbolTableRecord
100
AcDbLinetypeTableRecord
  2
ByBlock
 70
     0
  3

 72
    65
 73
     0
 40
0.0
  0
LTYPE
  5
15
330
5
100
AcDbSymbolTableRecord
100
AcDbLinetypeTableRecord
  2
ByLayer
 70
     0
  3

 72
    65
 73
     0
 40
0.0
  0
LTYPE
  5
16
330
5
100
AcDbSymbolTableRecord
100
AcDbLinetypeTableRecord
  2
Continuous
 70
     0
  3
Solid line
 72
    65
 73
     0
 40
0.0
  0
LTYPE
  5
6E
330
5
100
AcDbSymbolTableRecord
100
AcDbLinetypeTableRecord
  2
HIDDEN
 70
     0
  3
Hidden __ __ __ __ __ __ __ __ __ __ __ __ __ __
 72
    65
 73
     2
 40
1.905
 49
1.27
 74
     0
 49
-0.635
 74
     0
  0
LTYPE
  5
6F
330
5
100
AcDbSymbolTableRecord
100
AcDbLinetypeTableRecord
  2
PHANTOM
 70
     0
  3
Phantom ______  __  __  ______  __  __  ______
 72
    65
 73
     6
 40
12.7
 49
6.35
 74
     0
 49
-1.27
 74
     0
 49
1.27
 74
     0
 49
-1.27
 74
     0
 49
1.27
 74
     0
 49
-1.27
 74
     0
  0
LTYPE
  5
70
330
5
100
AcDbSymbolTableRecord
100
AcDbLinetypeTableRecord
  2
CENTER
 70
     0
  3
Center ____ _ ____ _ ____ _ ____ _ ____ _ ____
 72
    65
 73
     4
 40
10.16
 49
6.35
 74
     0
 49
-1.27
 74
     0
 49
1.27
 74
     0
 49
-1.27
 74
     0
  0
LTYPE
  5
71
330
5
100
AcDbSymbolTableRecord
100
AcDbLinetypeTableRecord
  2
CENTERX2
 70
     0
  3
Center (2x) ________  __  ________  __  _____
 72
    65
 73
     4
 40
20.32
 49
12.7
 74
     0
 49
-2.54
 74
     0
 49
2.54
 74
     0
 49
-2.54
 74
     0
  0
LTYPE
  5
72
330
5
100
AcDbSymbolTableRecord
100
AcDbLinetypeTableRecord
  2
DOT2
 70
     0
  3
Dot (.5x) ........................................
 72
    65
 73
     2
 40
0.635
 49
0.0
 74
     0
 49
-0.635
 74
     0
  0
ENDTAB
  0
TABLE
  2
LAYER
  5
2
330
0
100
AcDbSymbolTable
 70
     5
  0
LAYER
  5
10
330
2
100
AcDbSymbolTableRecord
100
AcDbLayerTableRecord
  2
0
 70
     0
 62
     7
  6
Continuous
370
    -3
390
F
  0
LAYER
  5
73
330
2
100
AcDbSymbolTableRecord
100
AcDbLayerTableRecord
  2
FORMAT
 70
     0
 62
     7
  6
Continuous
370
    -3
390
F
  0
LAYER
  5
74
330
2
100
AcDbSymbolTableRecord
100
AcDbLayerTableRecord
  2
VERMASSUNG
 70
     0
 62
     7
  6
Continuous
370
    -3
390
F
  0
LAYER
  5
75
330
2
100
AcDbSymbolTableRecord
100
AcDbLayerTableRecord
  2
KOPF_DÜNN
 70
     0
 62
     7
  6
Continuous
370
    -3
390
F
  0
LAYER
  5
76
330
2
100
AcDbSymbolTableRecord
100
AcDbLayerTableRecord
  2
KOPF_DICK
 70
     0
 62
     7
  6
Continuous
370
    25
390
F
  0
ENDTAB
  0
TABLE
  2
STYLE
  5
3
330
0
100
AcDbSymbolTable
 70
     3
  0
STYLE
  5
11
330
3
100
AcDbSymbolTableRecord
100
AcDbTextStyleTableRecord
  2
Standard
 70
     0
 40
0.0
 41
1.0
 50
0.0
 71
     0
 42
2.0
  3
txt
  4

  0
STYLE
  5
77
330
3
100
AcDbSymbolTableRecord
100
AcDbTextStyleTableRecord
  2
SLDTEXTSTYLE0
 70
     0
 40
0.0
 41
0.7
 50
0.0
 71
     0
 42
2.0
  3
TXT
  4

  0
STYLE
  5
7B
330
3
100
AcDbSymbolTableRecord
100
AcDbTextStyleTableRecord
  2
SLDTEXTSTYLE1
 70
     0
 40
0.0
 41
0.65
 50
0.0
 71
     0
 42
2.0
  3
TXT
  4

  0
ENDTAB
  0
TABLE
  2
VIEW
  5
6
330
0
100
AcDbSymbolTable
 70
     0
  0
ENDTAB
  0
TABLE
  2
UCS
  5
7
330
0
100
AcDbSymbolTable
 70
     0
  0
ENDTAB
  0
TABLE
  2
APPID
  5
9
330
0
100
AcDbSymbolTable
 70
     1
  0
APPID
  5
12
330
9
100
AcDbSymbolTableRecord
100
AcDbRegAppTableRecord
  2
ACAD
 70
     0
  0
ENDTAB
  0
TABLE
  2
DIMSTYLE
  5
A
330
0
100
AcDbSymbolTable
 70
     5
100
AcDbDimStyleTable
  0
DIMSTYLE
105
27
330
A
100
AcDbSymbolTableRecord
100
AcDbDimStyleTableRecord
  2
ISO-25
 70
     0
 41
2.5
 42
0.625
 43
3.75
 44
1.25
 73
     0
 74
     0
 77
     1
 78
     8
140
2.5
141
2.5
143
0.0393700787
147
0.625
171
     3
172
     1
178
     0
271
     2
272
     2
274
     3
278
    44
283
     0
284
     8
340
11
  0
DIMSTYLE
105
1C6
102
{ACAD_REACTORS
330
1C5
330
1DC
102
}
330
A
100
AcDbSymbolTableRecord
100
AcDbDimStyleTableRecord
  2
SLDDIMSTYLE0
 70
     0
 41
3.0
 44
0.0
 45
0.000000001
 47
0.1
 48
0.1
 71
     1
 73
     0
 74
     0
 77
     1
 78
    12
 79
     3
140
2.0
147
0.5
173
     1
178
     0
271
     2
272
     1
276
     2
284
     8
340
77
  0
DIMSTYLE
105
1D3
102
{ACAD_REACTORS
330
1D2
102
}
330
A
100
AcDbSymbolTableRecord
100
AcDbDimStyleTableRecord
  2
SLDDIMSTYLE1
 70
     0
 41
3.0
 44
0.0
 73
     0
 74
     0
 77
     1
 78
    12
 79
     3
140
2.0
147
0.5
173
     1
178
     0
179
     2
272
     3
276
     2
284
    12
340
77
  0
DIMSTYLE
105
1E9
102
{ACAD_REACTORS
330
1E8
330
1F3
102
}
330
A
100
AcDbSymbolTableRecord
100
AcDbDimStyleTableRecord
  2
SLDDIMSTYLE2
 70
     0
 41
3.0
 44
0.0
 45
0.000000001
 73
     0
 74
     0
 77
     1
 78
    12
 79
     3
140
2.0
147
0.5
173
     1
178
     0
271
     2
272
     3
276
     2
284
    12
340
77
  0
DIMSTYLE
105
226
102
{ACAD_REACTORS
330
225
102
}
330
A
100
AcDbSymbolTableRecord
100
AcDbDimStyleTableRecord
  2
SLDDIMSTYLE3
 70
     0
 41
3.0
 44
0.0
 45
0.000000001
 73
     0
 74
     0
 77
     1
 78
    12
 79
     3
140
2.0
141
0.0
147
0.5
172
     1
173
     1
178
     0
271
     2
272
     3
276
     2
284
    12
340
77
  0
ENDTAB
  0
TABLE
  2
BLOCK_RECORD
  5
1
330
0
100
AcDbSymbolTable
 70
     8
  0
BLOCK_RECORD
  5
1F
330
1
100
AcDbSymbolTableRecord
100
AcDbBlockTableRecord
  2
*Model_Space
340
22
  0
BLOCK_RECORD
  5
1B
330
1
100
AcDbSymbolTableRecord
100
AcDbBlockTableRecord
  2
*Paper_Space
340
1E
  0
BLOCK_RECORD
  5
23
330
1
100
AcDbSymbolTableRecord
100
AcDbBlockTableRecord
  2
*Paper_Space0
340
26
  0
BLOCK_RECORD
  5
1C7
330
1
100
AcDbSymbolTableRecord
100
AcDbBlockTableRecord
  2
_D
340
0
  0
BLOCK_RECORD
  5
1D4
330
1
100
AcDbSymbolTableRecord
100
AcDbBlockTableRecord
  2
_D_1
340
0
  0
BLOCK_RECORD
  5
1DD
330
1
100
AcDbSymbolTableRecord
100
AcDbBlockTableRecord
  2
_D_2
340
0
  0
BLOCK_RECORD
  5
1EA
330
1
100
AcDbSymbolTableRecord
100
AcDbBlockTableRecord
  2
_D_3
340
0
  0
BLOCK_RECORD
  5
1F4
330
1
100
AcDbSymbolTableRecord
100
AcDbBlockTableRecord
  2
_D_4
340
0
  0
BLOCK_RECORD
  5
227
330
1
100
AcDbSymbolTableRecord
100
AcDbBlockTableRecord
  2
_D_5
340
0
  0
BLOCK_RECORD
  5
232
330
1
100
AcDbSymbolTableRecord
100
AcDbBlockTableRecord
  2
SW_CENTERMARKSYMBOL_0
340
0
102
{BLKREFS
331
23D
102
}
  0
ENDTAB
  0
ENDSEC
  0
SECTION
  2
BLOCKS
  0
BLOCK
  5
20
330
1F
100
AcDbEntity
  8
0
100
AcDbBlockBegin
  2
*Model_Space
 70
     0
 10
0.0
 20
0.0
 30
0.0
  3
*Model_Space
  1

  0
ENDBLK
  5
21
330
1F
100
AcDbEntity
  8
0
100
AcDbBlockEnd
  0
BLOCK
  5
1C
330
1B
100
AcDbEntity
 67
     1
  8
0
100
AcDbBlockBegin
  2
*Paper_Space
 70
     0
 10
0.0
 20
0.0
 30
0.0
  3
*Paper_Space
  1

  0
ENDBLK
  5
1D
330
1B
100
AcDbEntity
 67
     1
  8
0
100
AcDbBlockEnd
  0
BLOCK
  5
24
330
23
100
AcDbEntity
  8
0
100
AcDbBlockBegin
  2
*Paper_Space0
 70
     0
 10
0.0
 20
0.0
 30
0.0
  3
*Paper_Space0
  1

  0
ENDBLK
  5
25
330
23
100
AcDbEntity
  8
0
100
AcDbBlockEnd
  0
BLOCK
  5
1C8
330
1C7
100
AcDbEntity
  8
0
100
AcDbBlockBegin
  2
_D
 70
     0
 10
0.0
 20
0.0
 30
0.0
  3
_D
  1

  0
SOLID
  5
1CA
330
1C7
100
AcDbEntity
  8
VERMASSUNG
100
AcDbTrace
 10
272.5355404079
 20
149.9881009667
 30
0.0
 11
272.0855404079
 21
146.9881009667
 31
0.0
 12
272.9855404079
 22
146.9881009667
 32
0.0
 13
272.9855404079
 23
146.9881009667
 33
0.0
  0
SOLID
  5
1CB
330
1C7
100
AcDbEntity
  8
VERMASSUNG
100
AcDbTrace
 10
272.5355404079
 20
104.9881009667
 30
0.0
 11
272.9855404079
 21
107.9881009667
 31
0.0
 12
272.0855404079
 22
107.9881009667
 32
0.0
 13
272.0855404079
 23
107.9881009667
 33
0.0
  0
LINE
  5
1CC
330
1C7
100
AcDbEntity
  8
VERMASSUNG
100
AcDbLine
 10
254.7369021607
 20
149.9881009667
 30
0.0
 11
273.5355404079
 21
149.9881009667
 31
0.0
  0
LINE
  5
1CD
330
1C7
100
AcDbEntity
  8
VERMASSUNG
100
AcDbLine
 10
255.893370594
 20
104.9881009667
 30
0.0
 11
273.5355404079
 21
104.9881009667
 31
0.0
  0
LINE
  5
1CE
330
1C7
100
AcDbEntity
  8
VERMASSUNG
100
AcDbLine
 10
272.5355404079
 20
149.9881009667
 30
0.0
 11
272.5355404079
 21
104.9881009667
 31
0.0
  0
MTEXT
  5
1CF
330
1C7
100
AcDbEntity
  8
VERMASSUNG
100
AcDbMText
 10
269.9574048119
 20
123.7381005849
 30
0.0
 40
2.0
 41
0.0
 71
     1
 72
     1
  1
45
  7
SLDTEXTSTYLE0
 11
-7.044195017643634E-15
 21
1.0
 31
0.0
 73
     1
 44
1.0
  0
MTEXT
  5
1D0
330
1C7
100
AcDbEntity
  8
VERMASSUNG
100
AcDbMText
 10
269.9574048119
 20
127.925600611
 30
0.0
 40
2.0
 41
0.0
 71
     1
 72
     1
  1

  7
SLDTEXTSTYLE0
 11
-7.044195017643634E-15
 21
1.0
 31
0.0
 73
     1
 44
1.0
  0
MTEXT
  5
1D1
330
1C7
100
AcDbEntity
  8
VERMASSUNG
100
AcDbMText
 10
270.4519386456
 20
127.9381004351
 30
0.0
 40
1.5
 41
0.0
 71
     1
 72
     1
  1
±0.1
  7
SLDTEXTSTYLE0
 11
-7.044195017643634E-15
 21
1.0
 31
0.0
 73
     1
 44
1.0
  0
ENDBLK
  5
1C9
330
1C7
100
AcDbEntity
  8
0
100
AcDbBlockEnd
  0
BLOCK
  5
1D5
330
1D4
100
AcDbEntity
  8
0
100
AcDbBlockBegin
  2
_D_1
 70
     0
 10
0.0
 20
0.0
 30
0.0
  3
_D_1
  1

  0
ARC
  5
1D7
330
1D4
100
AcDbEntity
  8
VERMASSUNG
100
AcDbCircle
 10
254.2264849556
 20
149.9881009667
 30
0.0
 40
11.05394399877682
100
AcDbArc
 50
267.0
 51
0.0
  0
SOLID
  5
1D8
330
1D4
100
AcDbEntity
  8
VERMASSUNG
100
AcDbTrace
 10
253.6479662262
 20
138.949306014
 30
0.0
 11
256.6743635258
 21
138.7409328285
 31
0.0
 12
256.6023088336
 22
139.6380438146
 32
0.0
 13
256.6023088336
 23
139.6380438146
 33
0.0
  0
SOLID
  5
1D9
330
1D4
100
AcDbEntity
  8
VERMASSUNG
100
AcDbTrace
 10
265.2804289544
 20
149.9881009667
 30
0.0
 11
264.4380166996
 21
147.0738529346
 31
0.0
 12
265.330127175
 22
146.9549458294
 32
0.0
 13
265.330127175
 23
146.9549458294
 33
0.0
  0
LINE
  5
1DA
330
1D4
100
AcDbEntity
  8
VERMASSUNG
100
AcDbLine
 10
254.7369021607
 20
149.9881009667
 30
0.0
 11
266.2804289544
 21
149.9881009667
 31
0.0
  0
MTEXT
  5
1DB
330
1D4
100
AcDbEntity
  8
VERMASSUNG
100
AcDbMText
 10
258.6100978103
 20
142.4632577212
 30
0.0
 40
2.0
 41
0.0
 71
     1
 72
     1
  1
93°
  7
SLDTEXTSTYLE0
 11
0.7253743710122894
 21
0.6883545756937521
 31
0.0
 73
     1
 44
1.0
  0
ENDBLK
  5
1D6
330
1D4
100
AcDbEntity
  8
0
100
AcDbBlockEnd
  0
BLOCK
  5
1DE
330
1DD
100
AcDbEntity
  8
0
100
AcDbBlockBegin
  2
_D_2
 70
     0
 10
0.0
 20
0.0
 30
0.0
  3
_D_2
  1

  0
SOLID
  5
1E0
330
1DD
100
AcDbEntity
  8
VERMASSUNG
100
AcDbTrace
 10
254.2049729055
 20
153.8048180284
 30
0.0
 11
251.2049729055
 21
154.2548180284
 31
0.0
 12
251.2049729055
 22
153.3548180284
 32
0.0
 13
251.2049729055
 23
153.3548180284
 33
0.0
  0
SOLID
  5
1E1
330
1DD
100
AcDbEntity
  8
VERMASSUNG
100
AcDbTrace
 10
189.2049729055
 20
153.8048180284
 30
0.0
 11
192.2049729055
 21
153.3548180284
 31
0.0
 12
192.2049729055
 22
154.2548180284
 32
0.0
 13
192.2049729055
 23
154.2548180284
 33
0.0
  0
LINE
  5
1E2
330
1DD
100
AcDbEntity
  8
VERMASSUNG
100
AcDbLine
 10
254.2049729055
 20
149.9881009667
 30
0.0
 11
254.2049729055
 21
154.8048180284
 31
0.0
  0
LINE
  5
1E3
330
1DD
100
AcDbEntity
  8
VERMASSUNG
100
AcDbLine
 10
189.2049729055
 20
135.9881009667
 30
0.0
 11
189.2049729055
 21
154.8048180284
 31
0.0
  0
LINE
  5
1E4
330
1DD
100
AcDbEntity
  8
VERMASSUNG
100
AcDbLine
 10
254.2049729055
 20
153.8048180284
 30
0.0
 11
189.2049729055
 21
153.8048180284
 31
0.0
  0
MTEXT
  5
1E5
330
1DD
100
AcDbEntity
  8
VERMASSUNG
100
AcDbMText
 10
218.0549728194
 20
156.3829536243
 30
0.0
 40
2.0
 41
0.0
 71
     1
 72
     1
  1
65
  7
SLDTEXTSTYLE0
 73
     1
 44
1.0
  0
MTEXT
  5
1E6
330
1DD
100
AcDbEntity
  8
VERMASSUNG
100
AcDbMText
 10
222.0424727196
 20
156.3829536243
 30
0.0
 40
2.0
 41
0.0
 71
     1
 72
     1
  1

  7
SLDTEXTSTYLE0
 73
     1
 44
1.0
  0
MTEXT
  5
1E7
330
1DD
100
AcDbEntity
  8
VERMASSUNG
100
AcDbMText
 10
222.0549725438
 20
155.8884197907
 30
0.0
 40
1.5
 41
0.0
 71
     1
 72
     1
  1
±0.1
  7
SLDTEXTSTYLE0
 73
     1
 44
1.0
  0
ENDBLK
  5
1DF
330
1DD
100
AcDbEntity
  8
0
100
AcDbBlockEnd
  0
BLOCK
  5
1EB
330
1EA
100
AcDbEntity
  8
0
100
AcDbBlockBegin
  2
_D_3
 70
     0
 10
0.0
 20
0.0
 30
0.0
  3
_D_3
  1

  0
SOLID
  5
1ED
330
1EA
100
AcDbEntity
  8
VERMASSUNG
100
AcDbTrace
 10
254.2049729055
 20
160.5572739384
 30
0.0
 11
251.2049729055
 21
161.0072739384
 31
0.0
 12
251.2049729055
 22
160.1072739384
 32
0.0
 13
251.2049729055
 23
160.1072739384
 33
0.0
  0
SOLID
  5
1EE
330
1EA
100
AcDbEntity
  8
VERMASSUNG
100
AcDbTrace
 10
151.2049729055
 20
160.5572739384
 30
0.0
 11
154.2049729055
 21
160.1072739384
 31
0.0
 12
154.2049729055
 22
161.0072739384
 32
0.0
 13
154.2049729055
 23
161.0072739384
 33
0.0
  0
LINE
  5
1EF
330
1EA
100
AcDbEntity
  8
VERMASSUNG
100
AcDbLine
 10
254.2049729055
 20
149.9881009667
 30
0.0
 11
254.2049729055
 21
161.5572739384
 31
0.0
  0
LINE
  5
1F0
330
1EA
100
AcDbEntity
  8
VERMASSUNG
100
AcDbLine
 10
151.2049729055
 20
125.2804389592
 30
0.0
 11
151.2049729055
 21
161.5572739384
 31
0.0
  0
LINE
  5
1F1
330
1EA
100
AcDbEntity
  8
VERMASSUNG
100
AcDbLine
 10
254.2049729055
 20
160.5572739384
 30
0.0
 11
151.2049729055
 21
160.5572739384
 31
0.0
  0
MTEXT
  5
1F2
330
1EA
100
AcDbEntity
  8
VERMASSUNG
100
AcDbMText
 10
200.8049728734
 20
163.1354095344
 30
0.0
 40
2.0
 41
0.0
 71
     1
 72
     1
  1
103
  7
SLDTEXTSTYLE0
 73
     1
 44
1.0
  0
ENDBLK
  5
1EC
330
1EA
100
AcDbEntity
  8
0
100
AcDbBlockEnd
  0
BLOCK
  5
1F5
330
1F4
100
AcDbEntity
  8
0
100
AcDbBlockBegin
  2
_D_4
 70
     0
 10
0.0
 20
0.0
 30
0.0
  3
_D_4
  1

  0
SOLID
  5
1F7
330
1F4
100
AcDbEntity
  8
VERMASSUNG
100
AcDbTrace
 10
144.4520072308
 20
136.4881009667
 30
0.0
 11
144.0020072308
 21
133.4881009667
 31
0.0
 12
144.9020072308
 22
133.4881009667
 32
0.0
 13
144.9020072308
 23
133.4881009667
 33
0.0
  0
SOLID
  5
1F8
330
1F4
100
AcDbEntity
  8
VERMASSUNG
100
AcDbTrace
 10
144.4520072308
 20
73.4881009667
 30
0.0
 11
144.9020072308
 21
76.4881009667
 31
0.0
 12
144.0020072308
 22
76.4881009667
 32
0.0
 13
144.0020072308
 23
76.4881009667
 33
0.0
  0
LINE
  5
1F9
330
1F4
100
AcDbEntity
  8
VERMASSUNG
100
AcDbLine
 10
189.7049729055
 20
136.4881009667
 30
0.0
 11
143.4520072308
 21
136.4881009667
 31
0.0
  0
LINE
  5
1FA
330
1F4
100
AcDbEntity
  8
VERMASSUNG
100
AcDbLine
 10
189.7049729055
 20
73.4881009667
 30
0.0
 11
143.4520072308
 21
73.4881009667
 31
0.0
  0
LINE
  5
1FB
330
1F4
100
AcDbEntity
  8
VERMASSUNG
100
AcDbLine
 10
144.4520072308
 20
136.4881009667
 30
0.0
 11
144.4520072308
 21
73.4881009667
 31
0.0
  0
MTEXT
  5
1FC
330
1F4
100
AcDbEntity
  8
VERMASSUNG
100
AcDbMText
 10
141.6738719746
 20
99.483101657
 30
0.0
 40
2.0
 41
0.0
 71
     1
 72
     1
  1
PSC
  7
SLDTEXTSTYLE0
 11
-7.044195017643634E-15
 21
1.0
 31
0.0
 73
     1
 44
1.0
  0
MTEXT
  5
1FD
330
1F4
100
AcDbEntity
  8
VERMASSUNG
100
AcDbMText
 10
141.8738719259
 20
104.0831012934
 30
0.0
 40
2.0
 41
0.0
 71
     1
 72
     1
  1
%%c
  7
SLDTEXTSTYLE0
 11
-7.044195017643634E-15
 21
1.0
 31
0.0
 73
     1
 44
1.0
  0
MTEXT
  5
1FE
330
1F4
100
AcDbEntity
  8
VERMASSUNG
100
AcDbMText
 10
141.6738719746
 20
107.6931013077
 30
0.0
 40
2.0
 41
0.0
 71
     1
 72
     1
  1
63
  7
SLDTEXTSTYLE0
 11
-7.044195017643634E-15
 21
1.0
 31
0.0
 73
     1
 44
1.0
  0
ENDBLK
  5
1F6
330
1F4
100
AcDbEntity
  8
0
100
AcDbBlockEnd
  0
BLOCK
  5
228
330
227
100
AcDbEntity
  8
0
100
AcDbBlockBegin
  2
_D_5
 70
     0
 10
0.0
 20
0.0
 30
0.0
  3
_D_5
  1

  0
SOLID
  5
22A
330
227
100
AcDbEntity
  8
VERMASSUNG
100
AcDbTrace
 10
46.2921951718
 20
81.7038297193
 30
0.0
 11
43.8526767767
 21
79.9007074272
 31
0.0
 12
44.4890728798
 22
79.2643113242
 32
0.0
 13
44.4890728798
 23
79.2643113242
 33
0.0
  0
SOLID
  5
22B
330
227
100
AcDbEntity
  8
VERMASSUNG
100
AcDbTrace
 10
102.8607376668
 20
138.2723722142
 30
0.0
 11
105.3002560619
 21
140.0754945062
 31
0.0
 12
104.6638599588
 22
140.7118906093
 32
0.0
 13
104.6638599588
 23
140.7118906093
 33
0.0
  0
LINE
  5
22C
330
227
100
AcDbEntity
  8
VERMASSUNG
100
AcDbLine
 10
102.8607376668
 20
138.2723722142
 30
0.0
 11
112.7112254183
 21
148.1228599658
 31
0.0
  0
LINE
  5
22D
330
227
100
AcDbEntity
  8
VERMASSUNG
100
AcDbLine
 10
46.2921951718
 20
81.7038297193
 30
0.0
 11
42.0495544847
 21
77.4611890322
 31
0.0
  0
LINE
  5
22E
330
227
100
AcDbEntity
  8
VERMASSUNG
100
AcDbLine
 10
102.8607376668
 20
138.2723722142
 30
0.0
 11
46.2921951718
 21
81.7038297193
 31
0.0
  0
MTEXT
  5
22F
330
227
100
AcDbEntity
  8
VERMASSUNG
100
AcDbMText
 10
103.6698312169
 20
142.7251337258
 30
0.0
 40
2.0
 41
0.0
 71
     1
 72
     1
  1
%%c
  7
SLDTEXTSTYLE0
 11
0.7071067811865458
 21
0.7071067811865493
 31
0.0
 73
     1
 44
1.0
  0
MTEXT
  5
230
330
227
100
AcDbEntity
  8
VERMASSUNG
100
AcDbMText
 10
106.0810653853
 20
145.4192105378
 30
0.0
 40
2.0
 41
0.0
 71
     1
 72
     1
  1
80
  7
SLDTEXTSTYLE0
 11
0.7071067811865458
 21
0.7071067811865493
 31
0.0
 73
     1
 44
1.0
  0
MTEXT
  5
231
330
227
100
AcDbEntity
  8
VERMASSUNG
100
AcDbMText
 10
108.060964302
 20
147.3991094545
 30
0.0
 40
2.0
 41
0.0
 71
     1
 72
     1
  1
min
  7
SLDTEXTSTYLE0
 11
0.7071067811865458
 21
0.7071067811865493
 31
0.0
 73
     1
 44
1.0
  0
ENDBLK
  5
229
330
227
100
AcDbEntity
  8
0
100
AcDbBlockEnd
  0
BLOCK
  5
233
330
232
100
AcDbEntity
  8
0
100
AcDbBlockBegin
  2
SW_CENTERMARKSYMBOL_0
 70
     0
 10
0.0
 20
0.0
 30
0.0
  3
SW_CENTERMARKSYMBOL_0
  1

  0
LINE
  5
235
330
232
100
AcDbEntity
  8
VERMASSUNG
 62
     0
100
AcDbLine
 10
0.0
 20
0.0
 30
0.0
 11
0.0
 21
2.5
 31
0.0
  0
LINE
  5
236
330
232
100
AcDbEntity
  8
VERMASSUNG
 62
     0
100
AcDbLine
 10
0.0
 20
0.0
 30
0.0
 11
-2.5
 21
0.0
 31
0.0
  0
LINE
  5
237
330
232
100
AcDbEntity
  8
VERMASSUNG
 62
     0
100
AcDbLine
 10
0.0
 20
0.0
 30
0.0
 11
0.0
 21
-2.5
 31
0.0
  0
LINE
  5
238
330
232
100
AcDbEntity
  8
VERMASSUNG
 62
     0
100
AcDbLine
 10
0.0
 20
0.0
 30
0.0
 11
2.5
 21
0.0
 31
0.0
  0
LINE
  5
239
330
232
100
AcDbEntity
  8
VERMASSUNG
 62
     0
100
AcDbLine
 10
0.0
 20
5.0
 30
0.0
 11
0.0
 21
41.9894924501
 31
0.0
  0
LINE
  5
23A
330
232
100
AcDbEntity
  8
VERMASSUNG
 62
     0
100
AcDbLine
 10
-5.0
 20
0.0
 30
0.0
 11
-34.0
 21
0.0
 31
0.0
  0
LINE
  5
23B
330
232
100
AcDbEntity
  8
VERMASSUNG
 62
     0
100
AcDbLine
 10
0.0
 20
-5.0
 30
0.0
 11
0.0
 21
-34.0
 31
0.0
  0
LINE
  5
23C
330
232
100
AcDbEntity
  8
VERMASSUNG
 62
     0
100
AcDbLine
 10
5.0
 20
0.0
 30
0.0
 11
34.0
 21
0.0
 31
0.0
  0
ENDBLK
  5
234
330
232
100
AcDbEntity
  8
0
100
AcDbBlockEnd
  0
ENDSEC
  0
SECTION
  2
ENTITIES
  0
MTEXT
  5
78
330
1F
100
AcDbEntity
  8
KOPF_DÜNN
100
AcDbMText
 10
13.8892156294
 20
23.8442973028
 30
0.0
 40
3.0
 41
0.0
 71
     1
 72
     1
  1
PS6.KVF.RUA.065
  7
SLDTEXTSTYLE0
 73
     1
 44
1.0
  0
MTEXT
  5
79
330
1F
100
AcDbEntity
  8
VERMASSUNG
100
AcDbMText
 10
13.9329988022
 20
28.8834360957
 30
0.0
 40
3.0
 41
0.0
 71
     1
 72
     1
  1
Klemmhalter rechts_Turning tool right 93°/35°
  7
SLDTEXTSTYLE0
 73
     1
 44
1.0
  0
MTEXT
  5
7A
330
1F
100
AcDbEntity
  8
VERMASSUNG
100
AcDbMText
 10
98.8601118557
 20
13.8365368761
 30
0.0
 40
2.0
 41
0.0
 71
     1
 72
     1
  1
Datum: 07.02.2018
  7
SLDTEXTSTYLE0
 73
     1
 44
1.0
  0
MTEXT
  5
7C
330
1F
100
AcDbEntity
  8
VERMASSUNG
100
AcDbMText
 10
13.933048693
 20
18.0482802738
 30
0.0
 40
2.0
 41
0.0
 71
     1
 72
     1
  1
PSC Ø63 / VB.. 16 04 ...
  7
SLDTEXTSTYLE1
 73
     1
 44
1.0
  0
MTEXT
  5
7D
330
1F
100
AcDbEntity
  8
VERMASSUNG
100
AcDbMText
 10
13.9808475933
 20
13.9090974274
 30
0.0
 40
2.0
 41
0.0
 71
     1
 72
     1
  1
Gewicht: 1281g
  7
SLDTEXTSTYLE0
 73
     1
 44
1.0
  0
ARC
  5
7E
330
1F
100
AcDbEntity
  8
0
  6
Continuous
 62
     7
370
    25
100
AcDbCircle
 10
210.2049729055
 20
118.6381009667
 30
0.0
 40
2.500000000000006
100
AcDbArc
 50
21.3713330905
 51
158.6286669095
  0
LINE
  5
7F
330
1F
100
AcDbEntity
  8
0
  6
Continuous
 62
     7
370
    25
100
AcDbLine
 10
226.4376475638
 20
136.4881014734
 30
0.0
 11
189.7049729292
 21
136.4881014734
 31
0.0
  0
LINE
  5
80
330
1F
100
AcDbEntity
  8
0
  6
Continuous
 62
     7
370
    25
100
AcDbLine
 10
189.7049729292
 20
73.4881004601
 30
0.0
 11
225.7245226925
 21
73.4881004601
 31
0.0
  0
ARC
  5
81
330
1F
100
AcDbEntity
  8
0
  6
Continuous
 62
     7
370
    25
100
AcDbCircle
 10
189.7049729055
 20
73.9881009667
 30
0.0
 40
0.5
100
AcDbArc
 50
180.0
 51
270.0
  0
ARC
  5
82
330
1F
100
AcDbEntity
  8
0
  6
Continuous
 62
     7
370
    25
100
AcDbCircle
 10
189.7049729055
 20
135.9881009667
 30
0.0
 40
0.5
100
AcDbArc
 50
90.0
 51
180.0
  0
LWPOLYLINE
  5
83
330
1F
100
AcDbEntity
  8
0
  6
Continuous
 62
     7
370
    25
100
AcDbPolyline
 90
        3
 70
   128
 43
0.0
 10
189.0049729105
 20
82.4482804447
 10
189.1304278457
 20
82.3799791097
 10
189.2049729055
 20
82.3272401749
  0
LWPOLYLINE
  5
84
330
1F
100
AcDbEntity
  8
0
  6
Continuous
 62
     7
370
    25
100
AcDbPolyline
 90
        3
 70
   128
 43
0.0
 10
189.2049729055
 20
127.6489617585
 10
189.1304278457
 20
127.5962228238
 10
189.0049729105
 20
127.5279214888
  0
LWPOLYLINE
  5
85
330
1F
100
AcDbEntity
  8
0
  6
Continuous
 62
     7
370
    25
100
AcDbPolyline
 90
        3
 70
   128
 43
0.0
 10
226.9493981427
 20
136.6289696007
 10
226.8905944353
 20
136.5965633004
 10
226.8768890923
 20
136.5897348433
  0
LWPOLYLINE
  5
86
330
1F
100
AcDbEntity
  8
0
  6
Continuous
 62
     7
370
    25
100
AcDbPolyline
 90
        3
 70
   128
 43
0.0
 10
212.9904243326
 20
121.2329557448
 10
213.1685025221
 20
120.6719847678
 10
213.2049731141
 20
120.2681009009
  0
ARC
  5
87
330
1F
100
AcDbEntity
  8
0
  6
Continuous
 62
     7
370
    25
100
AcDbCircle
 10
210.2335817087
 20
119.8115547308
 30
0.0
 40
3.101703095931682
100
AcDbArc
 50
27.2751878179
 51
165.9665016441
  0
ARC
  5
88
330
1F
100
AcDbEntity
  8
0
  6
Continuous
 62
     7
370
    25
100
AcDbCircle
 10
210.8905490844
 20
120.3385725066
 30
0.0
 40
2.173861195099312
100
AcDbArc
 50
338.6117990693
 51
25.0187340541
  0
LWPOLYLINE
  5
89
330
1F
100
AcDbEntity
  8
0
  6
Continuous
 62
     7
370
    25
100
AcDbPolyline
 90
       14
 70
   128
 43
0.0
 10
207.4351932084
 20
119.7208948716
 10
207.3463841503
 20
120.2602880358
 10
207.4027179902
 20
120.8333010136
 10
207.6101198023
 20
121.3796166985
 10
207.957411853
 20
121.8697848081
 10
208.4258708334
 20
122.2773781329
 10
208.9902411377
 20
122.5804267733
 10
209.6200983202
 20
122.7625897437
 10
210.2814863598
 20
122.8140471785
 10
210.9387486404
 20
122.7320255994
 10
211.5564539259
 20
122.5209487884
 10
212.1012999838
 20
122.1921919196
 10
212.5439147627
 20
121.7634817868
 10
212.8604359156
 20
121.2579300909
  0
LWPOLYLINE
  5
8A
330
1F
100
AcDbEntity
  8
0
  6
Continuous
 62
     7
370
    25
100
AcDbPolyline
 90
       27
 70
   128
 43
0.0
 10
212.5261823809
 20
121.1421462058
 10
212.680919764
 20
120.6377046465
 10
212.6917659467
 20
120.1158492177
 10
212.5580876296
 20
119.606911233
 10
212.2876557684
 20
119.1404676347
 10
211.8961836373
 20
118.7436254977
 10
211.4064271724
 20
118.4394480943
 10
210.8468457287
 20
118.2456147208
 10
210.249959228
 20
118.1733878612
 10
209.6504612988
 20
118.2269668489
 10
209.0831871307
 20
118.4032373413
 10
208.5811074054
 20
118.69195479
 10
208.1734023219
 20
119.0763404875
 10
207.8837628638
 20
119.5340547993
 10
207.7290254807
 20
120.0384972899
 10
207.718179298
 20
120.5603527188
 10
207.8518576151
 20
121.0692907035
 10
208.122291339
 20
121.5357343017
 10
208.5137616074
 20
121.9325764387
 10
209.0035180723
 20
122.2367538422
 10
209.5631013786
 20
122.430588147
 10
210.1599860167
 20
122.5028140753
 10
210.7594858086
 20
122.4492350876
 10
211.3267581141
 20
122.2729655265
 10
211.8288378393
 20
121.9842462151
 10
212.2365429228
 20
121.5998614489
 10
212.5261823809
 20
121.1421462058
  0
LINE
  5
8B
330
1F
100
AcDbEntity
  8
0
  6
Continuous
 62
     7
370
    25
100
AcDbLine
 10
253.5003095096
 20
149.8478530257
 30
0.0
 11
244.1242939955
 21
137.8471022754
 31
0.0
  0
LINE
  5
8C
330
1F
100
AcDbEntity
  8
0
  6
Continuous
 62
     7
370
    25
100
AcDbLine
 10
253.4082873886
 20
134.3759605943
 30
0.0
 11
254.2053206986
 21
149.5842589348
 31
0.0
  0
LINE
  5
8D
330
1F
100
AcDbEntity
  8
0
  6
Continuous
 62
     7
370
    25
100
AcDbLine
 10
243.9483485347
 20
122.1507387518
 30
0.0
 11
253.3243640488
 21
134.1514876395
 31
0.0
  0
LINE
  5
8E
330
1F
100
AcDbEntity
  8
0
  6
Continuous
 62
     7
370
    25
100
AcDbLine
 10
244.0403669303
 20
137.6226311832
 30
0.0
 11
243.2433336204
 21
122.4143328427
 31
0.0
  0
LINE
  5
8F
330
1F
100
AcDbEntity
  8
0
  6
Continuous
 62
     7
370
    25
100
AcDbLine
 10
253.3883421844
 20
134.3774861007
 30
0.0
 11
254.1844516223
 21
149.5682141095
 31
0.0
  0
ARC
  5
90
330
1F
100
AcDbEntity
  8
0
  6
Continuous
 62
     7
370
    25
100
AcDbCircle
 10
253.8049729055
 20
149.5881009667
 30
0.0
 40
0.3799999999999921
100
AcDbArc
 50
357.0
 51
142.0
  0
LINE
  5
91
330
1F
100
AcDbEntity
  8
0
  6
Continuous
 62
     7
370
    25
100
AcDbLine
 10
253.5055323666
 20
149.8220516651
 30
0.0
 11
244.1403499966
 21
137.8351701706
 31
0.0
  0
ARC
  5
92
330
1F
100
AcDbEntity
  8
0
  6
Continuous
 62
     7
370
    25
100
AcDbCircle
 10
244.4397932506
 20
137.6012176335
 30
0.0
 40
0.3799999999999785
100
AcDbArc
 50
142.0
 51
177.0
  0
LINE
  5
93
330
1F
100
AcDbEntity
  8
0
  6
Continuous
 62
     7
370
    25
100
AcDbLine
 10
244.0603158599
 20
137.6211038142
 30
0.0
 11
243.2642026966
 21
122.4303795307
 31
0.0
  0
ARC
  5
94
330
1F
100
AcDbEntity
  8
0
  6
Continuous
 62
     7
370
    25
100
AcDbCircle
 10
243.6436810164
 20
122.4104912743
 30
0.0
 40
0.3800000000000062
100
AcDbArc
 50
177.0
 51
322.0
  0
LINE
  5
95
330
1F
100
AcDbEntity
  8
0
  6
Continuous
 62
     7
370
    25
100
AcDbLine
 10
243.9431256777
 20
122.1765401124
 30
0.0
 11
253.3083080476
 21
134.1634234696
 31
0.0
  0
ARC
  5
96
330
1F
100
AcDbEntity
  8
0
  6
Continuous
 62
     7
370
    25
100
AcDbCircle
 10
253.0088606713
 20
134.3973746075
 30
0.0
 40
0.3800000000000054
100
AcDbArc
 50
322.0
 51
357.0
  0
SPLINE
  5
97
330
1F
100
AcDbEntity
  8
0
  6
Continuous
 62
     7
370
    25
100
AcDbSpline
210
0.0
220
0.0
230
1.0
 70
     8
 71
     3
 72
    10
 73
     6
 74
     0
 42
0.000000001
 43
0.00000001
 40
0.0
 40
0.0
 40
0.0
 40
0.0
 40
0.272460178085784
 40
0.5448241891060304
 40
1.0
 40
1.0
 40
1.0
 40
1.0
 10
244.1242939954625
 20
137.8471022754111
 30
0.0
 10
244.1115863587775
 20
137.8290374876491
 30
0.0
 10
244.0861755706727
 20
137.7929142882408
 30
0.0
 10
244.0530836815609
 20
137.7181003132661
 30
0.0
 10
244.0452610548277
 20
137.6593730994124
 30
0.0
 10
244.0403669303285
 20
137.622631183187
 30
0.0
  0
SPLINE
  5
98
330
1F
100
AcDbEntity
  8
0
  6
Continuous
 62
     7
370
    25
100
AcDbSpline
210
0.0
220
0.0
230
1.0
 70
     8
 71
     3
 72
    10
 73
     6
 74
     0
 42
0.000000001
 43
0.00000001
 40
0.0
 40
0.0
 40
0.0
 40
0.0
 40
0.2724516797839323
 40
0.5448105687083421
 40
1.0
 40
1.0
 40
1.0
 40
1.0
 10
253.3243640488015
 20
134.1514876394668
 30
0.0
 10
253.3370686110557
 20
134.1695534362292
 30
0.0
 10
253.3624734086783
 20
134.2056788769536
 30
0.0
 10
253.3955679726074
 20
134.2804903958421
 30
0.0
 10
253.4033921836472
 20
134.3392178546185
 30
0.0
 10
253.4082873886452
 20
134.375960594336
 30
0.0
  0
SPLINE
  5
99
330
1F
100
AcDbEntity
  8
0
  6
Continuous
 62
     7
370
    25
100
AcDbSpline
210
0.0
220
0.0
230
1.0
 70
     8
 71
     3
 72
    15
 73
    11
 74
     0
 42
0.000000001
 43
0.00000001
 40
0.0
 40
0.0
 40
0.0
 40
0.0
 40
0.1368990341609152
 40
0.2736143449419272
 40
0.4079024647456945
 40
0.5393397395806302
 40
0.669212766102622
 40
0.7996793489938984
 40
0.932494277855172
 40
1.0
 40
1.0
 40
1.0
 40
1.0
 10
243.243333620392
 20
122.4143328427472
 30
0.0
 10
243.2454111468091
 20
122.3683319593694
 30
0.0
 10
243.249563411529
 20
122.2763919274377
 30
0.0
 10
243.3131667103443
 20
122.1517807290488
 30
0.0
 10
243.4106266965769
 20
122.0565385342231
 30
0.0
 10
243.5331677019796
 20
122.0010002600125
 30
0.0
 10
243.6657436400143
 20
121.9895116386064
 30
0.0
 10
243.7946961238905
 20
122.0224918090106
 30
0.0
 10
243.8898791358021
 20
122.083117540747
 30
0.0
 10
243.9336113041714
 20
122.1336948041521
 30
0.0
 10
243.9483485346662
 20
122.1507387518087
 30
0.0
  0
SPLINE
  5
9A
330
1F
100
AcDbEntity
  8
0
  6
Continuous
 62
     7
370
    25
100
AcDbSpline
210
0.0
220
0.0
230
1.0
 70
     8
 71
     3
 72
    15
 73
    11
 74
     0
 42
0.000000001
 43
0.00000001
 40
0.0
 40
0.0
 40
0.0
 40
0.0
 40
0.1369019573747418
 40
0.2736145905818689
 40
0.4079033380614558
 40
0.5393412272470828
 40
0.669218412181141
 40
0.799681535532251
 40
0.9324939623268175
 40
1.0
 40
1.0
 40
1.0
 40
1.0
 10
254.2053206985818
 20
149.5842589347758
 30
0.0
 10
254.2032414840028
 20
149.6302603009684
 30
0.0
 10
254.199085930228
 20
149.7221994172406
 30
0.0
 10
254.1354879725888
 20
149.8468123814502
 30
0.0
 10
254.038027319937
 20
149.9420529017848
 30
0.0
 10
253.9154855936357
 20
149.9975928276261
 30
0.0
 10
253.7829095904499
 20
150.0090771482218
 30
0.0
 10
253.6539574737703
 20
149.9761009551721
 30
0.0
 10
253.5587783793714
 20
149.9154731359327
 30
0.0
 10
253.515046778571
 20
149.8648968946337
 30
0.0
 10
253.5003095095979
 20
149.8478530257144
 30
0.0
  0
LINE
  5
9B
330
1F
100
AcDbEntity
  8
0
  6
Continuous
 62
     7
370
    25
100
AcDbLine
 10
253.8049712008
 20
149.5880997091
 30
0.0
 11
253.5055323666
 21
149.8220516651
 31
0.0
  0
LINE
  5
9C
330
1F
100
AcDbEntity
  8
0
  6
Continuous
 62
     7
370
    25
100
AcDbLine
 10
253.8049712008
 20
149.5880997091
 30
0.0
 11
254.1844516223
 21
149.5682141095
 31
0.0
  0
LINE
  5
9D
330
1F
100
AcDbEntity
  8
0
  6
Continuous
 62
     7
370
    25
100
AcDbLine
 10
252.6337846344
 20
146.4556185811
 30
0.0
 11
253.8049712008
 21
149.5880997091
 31
0.0
  0
LINE
  5
9E
330
1F
100
AcDbEntity
  8
0
  6
Continuous
 62
     7
370
    25
100
AcDbLine
 10
253.0088617628
 20
134.3973754256
 30
0.0
 11
253.3883421844
 21
134.3774861007
 31
0.0
  0
LINE
  5
9F
330
1F
100
AcDbEntity
  8
0
  6
Continuous
 62
     7
370
    25
100
AcDbLine
 10
252.8808905905
 20
134.4452193289
 30
0.0
 11
253.0088617628
 21
134.3973754256
 31
0.0
  0
LINE
  5
A0
330
1F
100
AcDbEntity
  8
0
  6
Continuous
 62
     7
370
    25
100
AcDbLine
 10
252.5680556124
 20
145.2013841181
 30
0.0
 11
252.6337846344
 21
146.4556185811
 31
0.0
  0
LINE
  5
A1
330
1F
100
AcDbEntity
  8
0
  6
Continuous
 62
     7
370
    25
100
AcDbLine
 10
244.4397925561
 20
137.6012182146
 30
0.0
 11
244.1403499966
 21
137.8351701706
 31
0.0
  0
LINE
  5
A2
330
1F
100
AcDbEntity
  8
0
  6
Continuous
 62
     7
370
    25
100
AcDbLine
 10
252.6337846344
 20
146.4556185811
 30
0.0
 11
251.8605410283
 21
145.4659095316
 31
0.0
  0
LINE
  5
A3
330
1F
100
AcDbEntity
  8
0
  6
Continuous
 62
     7
370
    25
100
AcDbLine
 10
244.5677600032
 20
137.5533743112
 30
0.0
 11
244.4397925561
 21
137.6012182146
 31
0.0
  0
LINE
  5
A4
330
1F
100
AcDbEntity
  8
0
  6
Continuous
 62
     7
370
    25
100
AcDbLine
 10
253.0088617628
 20
134.3973754256
 30
0.0
 11
253.3083080476
 21
134.1634234696
 31
0.0
  0
LINE
  5
A5
330
1F
100
AcDbEntity
  8
0
  6
Continuous
 62
     7
370
    25
100
AcDbLine
 10
243.6436793929
 20
122.4104920684
 30
0.0
 11
243.9431256777
 21
122.1765401124
 31
0.0
  0
LINE
  5
A6
330
1F
100
AcDbEntity
  8
0
  6
Continuous
 62
     7
370
    25
100
AcDbLine
 10
244.8148696845
 20
125.5429731964
 30
0.0
 11
243.6436793929
 21
122.4104920684
 31
0.0
  0
LINE
  5
A7
330
1F
100
AcDbEntity
  8
0
  6
Continuous
 62
     7
370
    25
100
AcDbLine
 10
244.8148696845
 20
125.5429731964
 30
0.0
 11
245.5881132906
 21
126.5326822459
 31
0.0
  0
ARC
  5
A8
330
1F
100
AcDbEntity
  8
0
  6
Continuous
 62
     7
370
    25
100
AcDbCircle
 10
251.2195209864
 20
142.6729956925
 30
0.0
 40
1.000000000295363
100
AcDbArc
 50
357.0
 51
142.0
  0
ARC
  5
A9
330
1F
100
AcDbEntity
  8
0
  6
Continuous
 62
     7
370
    25
100
AcDbCircle
 10
251.2195209864
 20
142.6729956925
 30
0.0
 40
2.385640646055105
100
AcDbArc
 50
68.5810823052
 51
70.4189176948
  0
LINE
  5
AA
330
1F
100
AcDbEntity
  8
0
  6
Continuous
 62
     7
370
    25
100
AcDbLine
 10
251.8271624273
 20
135.1602291971
 30
0.0
 11
252.2181539958
 21
142.6206594615
 31
0.0
  0
ARC
  5
AB
330
1F
100
AcDbEntity
  8
0
  6
Continuous
 62
     7
370
    25
100
AcDbCircle
 10
250.8285363534
 20
135.2125644662
 30
0.0
 40
1.000000000000024
100
AcDbArc
 50
322.0
 51
357.0
  0
ARC
  5
AC
330
1F
100
AcDbEntity
  8
0
  6
Continuous
 62
     7
370
    25
100
AcDbCircle
 10
246.2291329355
 20
129.3255965484
 30
0.0
 40
1.000000000000026
100
AcDbArc
 50
177.0
 51
322.0
  0
LINE
  5
AD
330
1F
100
AcDbEntity
  8
0
  6
Continuous
 62
     7
370
    25
100
AcDbLine
 10
245.6214881664
 20
136.8383644431
 30
0.0
 11
245.2305040484
 21
129.377932316
 31
0.0
  0
ARC
  5
AE
330
1F
100
AcDbEntity
  8
0
  6
Continuous
 62
     7
370
    25
100
AcDbCircle
 10
246.6201175686
 20
136.7860277747
 30
0.0
 40
1.000000000000018
100
AcDbArc
 50
142.0
 51
177.0
  0
LINE
  5
AF
330
1F
100
AcDbEntity
  8
0
  6
Continuous
 62
     7
370
    25
100
AcDbLine
 10
250.431508494
 20
143.2886561661
 30
0.0
 11
245.8321086293
 21
137.4016879409
 31
0.0
  0
LINE
  5
B0
330
1F
100
AcDbEntity
  8
0
  6
Continuous
 62
     7
370
    25
100
AcDbLine
 10
247.0171420997
 20
128.7099356114
 30
0.0
 11
251.6165456897
 21
134.5969038366
 31
0.0
  0
CIRCLE
  5
B1
330
1F
100
AcDbEntity
  8
0
  6
Continuous
 62
     7
370
    25
100
AcDbCircle
 10
248.724326961
 20
135.9992961205
 30
0.0
 40
3.049999999999988
  0
ARC
  5
B2
330
1F
100
AcDbEntity
  8
0
  6
Continuous
 62
     7
370
    25
100
AcDbCircle
 10
246.2291329355
 20
129.3255965484
 30
0.0
 40
2.385640646055132
100
AcDbArc
 50
248.5810823052
 51
250.4189176948
  0
LINE
  5
B3
330
1F
100
AcDbEntity
  8
0
  6
Continuous
 62
     7
370
    25
100
AcDbLine
 10
243.6436793929
 20
122.4104920684
 30
0.0
 11
243.2642026966
 21
122.4303795307
 31
0.0
  0
LINE
  5
B4
330
1F
100
AcDbEntity
  8
0
  6
Continuous
 62
     7
370
    25
100
AcDbLine
 10
244.4397925561
 20
137.6012182146
 30
0.0
 11
244.0603158599
 21
137.6211038142
 31
0.0
  0
LINE
  5
B5
330
1F
100
AcDbEntity
  8
0
  6
Continuous
 62
     7
370
    25
100
AcDbLine
 10
244.8805987066
 20
126.797209522
 30
0.0
 11
244.8148696845
 21
125.5429731964
 31
0.0
  0
SPLINE
  5
B6
330
1F
100
AcDbEntity
  8
0
  6
Continuous
 62
     7
370
    25
100
AcDbSpline
210
0.0
220
0.0
230
1.0
 70
     8
 71
     3
 72
    14
 73
    10
 74
     0
 42
0.000000001
 43
0.00000001
 40
0.0
 40
0.0
 40
0.0
 40
0.0
 40
0.205513500210282
 40
0.3570142867770202
 40
0.4668493094037808
 40
0.5770838475792996
 40
0.7093662720635655
 40
0.924055218632713
 40
1.0
 40
1.0
 40
1.0
 40
1.0
 10
252.0907192653047
 20
144.8938725798526
 30
0.0
 10
252.1367124421749
 20
144.8778789374926
 30
0.0
 10
252.2166109462641
 20
144.850095075049
 30
0.0
 10
252.3287257655562
 20
144.8451024962383
 30
0.0
 10
252.4144070353277
 20
144.8703366968045
 30
0.0
 10
252.4817555515895
 20
144.9224046884382
 30
0.0
 10
252.5389351371053
 20
145.0161259971546
 30
0.0
 10
252.5618198165854
 20
145.11513711168
 30
0.0
 10
252.5667637304824
 20
145.1835161583747
 30
0.0
 10
252.5680556124078
 20
145.2013841181197
 30
0.0
  0
SPLINE
  5
B7
330
1F
100
AcDbEntity
  8
0
  6
Continuous
 62
     7
370
    25
100
AcDbSpline
210
0.0
220
0.0
230
1.0
 70
     8
 71
     3
 72
    14
 73
    10
 74
     0
 42
0.000000001
 43
0.00000001
 40
0.0
 40
0.0
 40
0.0
 40
0.0
 40
0.2086029390921106
 40
0.3652006344875777
 40
0.4768507409062329
 40
0.5890207957415597
 40
0.718572245813904
 40
0.9352561337568902
 40
0.9999999999999999
 40
0.9999999999999999
 40
0.9999999999999999
 40
0.9999999999999999
 10
251.8605410283433
 20
145.4659095316329
 30
0.0
 10
251.831927476474
 20
145.4255782715932
 30
0.0
 10
251.7818338040498
 20
145.3549704373015
 30
0.0
 10
251.7464312867907
 20
145.2458702827152
 30
0.0
 10
251.7474694037375
 20
145.1545058611126
 30
0.0
 10
251.7796051100406
 20
145.0752923571822
 30
0.0
 10
251.855359043108
 20
144.9953874013982
 30
0.0
 10
251.9425499014129
 20
144.9491995198618
 30
0.0
 10
252.0047379967496
 20
144.9260046817921
 30
0.0
 10
252.0190446799622
 20
144.9206685929694
 30
0.0
  0
SPLINE
  5
B8
330
1F
100
AcDbEntity
  8
0
  6
Continuous
 62
     7
370
    25
100
AcDbSpline
210
0.0
220
0.0
230
1.0
 70
     8
 71
     3
 72
    14
 73
    10
 74
     0
 42
0.000000001
 43
0.00000001
 40
0.0
 40
0.0
 40
0.0
 40
0.0
 40
0.2086061674552749
 40
0.3652030908022695
 40
0.4768537315256289
 40
0.5890218809039329
 40
0.7185669149541217
 40
0.9352577121327602
 40
1.0
 40
1.0
 40
1.0
 40
1.0
 10
245.5881132906304
 20
126.5326822458901
 30
0.0
 10
245.6167274441019
 20
126.5730139877881
 30
0.0
 10
245.6668217314181
 20
126.6436220478385
 30
0.0
 10
245.7022183379353
 20
126.7527238208533
 30
0.0
 10
245.7011819127083
 20
126.8440874608133
 30
0.0
 10
245.6690444410858
 20
126.9232973591725
 30
0.0
 10
245.5932992706604
 20
127.0032081082383
 30
0.0
 10
245.5061071445987
 20
127.0493965101082
 30
0.0
 10
245.4439163283816
 20
127.0725865646686
 30
0.0
 10
245.4296096390115
 20
127.0779213219085
 30
0.0
  0
SPLINE
  5
B9
330
1F
100
AcDbEntity
  8
0
  6
Continuous
 62
     7
370
    25
100
AcDbSpline
210
0.0
220
0.0
230
1.0
 70
     8
 71
     3
 72
    14
 73
    10
 74
     0
 42
0.000000001
 43
0.00000001
 40
0.0
 40
0.0
 40
0.0
 40
0.0
 40
0.2055191413518239
 40
0.3570145092978782
 40
0.4668486748842474
 40
0.5770789542588217
 40
0.7093669969369591
 40
0.9240583421053362
 40
1.0
 40
1.0
 40
1.0
 40
1.0
 10
245.3579350536691
 20
127.1047191976705
 30
0.0
 10
245.3119406071532
 20
127.1207141901044
 30
0.0
 10
245.2320420407945
 20
127.1484996525067
 30
0.0
 10
245.119928102051
 20
127.1534873627249
 30
0.0
 10
245.0342470098013
 20
127.1282587791041
 30
0.0
 10
244.9669029427835
 20
127.0761852953987
 30
0.0
 10
244.9097125501263
 20
126.9824709699328
 30
0.0
 10
244.8868283139841
 20
126.8834559983607
 30
0.0
 10
244.8818892668958
 20
126.8150768246646
 30
0.0
 10
244.880598706566
 20
126.7972095220485
 30
0.0
  0
SPLINE
  5
BA
330
1F
100
AcDbEntity
  8
0
  6
Continuous
 62
     7
370
    25
100
AcDbSpline
210
0.0
220
0.0
230
1.0
 70
     8
 71
     3
 72
    11
 73
     7
 74
     0
 42
0.000000001
 43
0.00000001
 40
0.0
 40
0.0
 40
0.0
 40
0.0
 40
0.3241841223419267
 40
0.6482204193253404
 40
0.9887984320214241
 40
1.0
 40
1.0
 40
1.0
 40
1.0
 10
252.8808905905114
 20
134.4452193289199
 30
0.0
 10
252.8125933935112
 20
134.470754906131
 30
0.0
 10
252.6760301424845
 20
134.5218144165348
 30
0.0
 10
252.4455905173246
 20
134.6079830893141
 30
0.0
 10
252.2981173314961
 20
134.663082537768
 30
0.0
 10
252.2288604265443
 20
134.6890057415598
 30
0.0
 10
252.2266551082956
 20
134.6898312031427
 30
0.0
  0
SPLINE
  5
BB
330
1F
100
AcDbEntity
  8
0
  6
Continuous
 62
     7
370
    25
100
AcDbSpline
210
0.0
220
0.0
230
1.0
 70
     8
 71
     3
 72
    11
 73
     7
 74
     0
 42
0.000000001
 43
0.00000001
 40
0.0
 40
0.0
 40
0.0
 40
0.0
 40
0.3241863878967373
 40
0.6482195671076798
 40
0.9887951488227166
 40
1.0
 40
1.0
 40
1.0
 40
1.0
 10
244.567760003172
 20
137.5533743112483
 30
0.0
 10
244.6360578148959
 20
137.5278371029113
 30
0.0
 10
244.7726211611773
 20
137.4767747549801
 30
0.0
 10
245.0030715744562
 20
137.3906205477954
 30
0.0
 10
245.1505203144936
 20
137.3354810432245
 30
0.0
 10
245.2197963668029
 20
137.3095853981127
 30
0.0
 10
245.2220029359685
 20
137.3087605743804
 30
0.0
  0
ARC
  5
BC
330
1F
100
AcDbEntity
  8
0
  6
Continuous
 62
     7
370
    25
100
AcDbCircle
 10
248.6488881086
 20
135.7975257446
 30
0.0
 40
1.675000000000003
100
AcDbArc
 50
77.160805032
 51
135.7607381592
  0
ARC
  5
BD
330
1F
100
AcDbEntity
  8
0
  6
Continuous
 62
     7
370
    25
100
AcDbCircle
 10
248.6488881086
 20
135.7975257446
 30
0.0
 40
1.674999999999999
100
AcDbArc
 50
135.7607381592
 51
195.8675798939
  0
ARC
  5
BE
330
1F
100
AcDbEntity
  8
0
  6
Continuous
 62
     7
370
    25
100
AcDbCircle
 10
248.6488881086
 20
135.7975257446
 30
0.0
 40
1.674999999999999
100
AcDbArc
 50
195.8675798939
 51
254.4675130212
  0
LINE
  5
BF
330
1F
100
AcDbEntity
  8
0
  6
Continuous
 62
     7
370
    25
100
AcDbLine
 10
248.2827610498
 20
134.1630304515
 30
0.0
 11
248.2003501778
 21
134.183698362
 31
0.0
  0
ARC
  5
C0
330
1F
100
AcDbEntity
  8
0
  6
Continuous
 62
     7
370
    25
100
AcDbCircle
 10
248.6488881086
 20
135.7975257446
 30
0.0
 40
1.675000000000023
100
AcDbArc
 50
257.374143793
 51
313.8178619593
  0
LINE
  5
C1
330
1F
100
AcDbEntity
  8
0
  6
Continuous
 62
     7
370
    25
100
AcDbLine
 10
249.8920305794
 20
134.6749281793
 30
0.0
 11
249.8086064285
 21
134.588939166
 31
0.0
  0
ARC
  5
C2
330
1F
100
AcDbEntity
  8
0
  6
Continuous
 62
     7
370
    25
100
AcDbCircle
 10
248.6488881086
 20
135.7975257446
 30
0.0
 40
1.675000000000016
100
AcDbArc
 50
317.9169538596
 51
13.7113641936
  0
LINE
  5
C3
330
1F
100
AcDbEntity
  8
0
  6
Continuous
 62
     7
370
    25
100
AcDbLine
 10
250.2436123019
 20
136.3098575085
 30
0.0
 11
250.2761527127
 21
136.1945523231
 31
0.0
  0
ARC
  5
C4
330
1F
100
AcDbEntity
  8
0
  6
Continuous
 62
     7
370
    25
100
AcDbCircle
 10
248.6488881086
 20
135.7975257446
 30
0.0
 40
1.674999999999992
100
AcDbArc
 50
17.8104560938
 51
74.2541742601
  0
LINE
  5
C5
330
1F
100
AcDbEntity
  8
0
  6
Continuous
 62
     7
370
    25
100
AcDbLine
 10
249.0210986858
 20
137.4306483477
 30
0.0
 11
249.103435052
 21
137.409671238
 31
0.0
  0
CIRCLE
  5
C6
330
1F
100
AcDbEntity
  8
0
  6
Continuous
 62
     7
370
    25
100
AcDbCircle
 10
248.6488881086
 20
135.7975257446
 30
0.0
 40
1.80000000000002
  0
SPLINE
  5
C7
330
1F
100
AcDbEntity
  8
0
  6
Continuous
 62
     7
370
    25
100
AcDbSpline
210
0.0
220
0.0
230
1.0
 70
     8
 71
     3
 72
    11
 73
     7
 74
     0
 42
0.000000001
 43
0.00000001
 40
0.0
 40
0.0
 40
0.0
 40
0.0
 40
0.2657556426304656
 40
0.5529965544846395
 40
0.8418192385260064
 40
1.0
 40
1.0
 40
1.0
 40
1.0
 10
250.2436123019086
 20
136.3098575084605
 30
0.0
 10
250.2255788409851
 20
136.3395946443024
 30
0.0
 10
250.188053986734
 20
136.401473043188
 30
0.0
 10
250.0972034266559
 20
136.4663143169829
 30
0.0
 10
250.0055206263793
 20
136.4966133028327
 30
0.0
 10
249.9480021119154
 20
136.4971502014243
 30
0.0
 10
249.9276480799543
 20
136.4973401933112
 30
0.0
  0
SPLINE
  5
C8
330
1F
100
AcDbEntity
  8
0
  6
Continuous
 62
     7
370
    25
100
AcDbSpline
210
0.0
220
0.0
230
1.0
 70
     8
 71
     3
 72
    12
 73
     8
 74
     0
 42
0.000000001
 43
0.00000001
 40
0.0
 40
0.0
 40
0.0
 40
0.0
 40
0.2057872285833045
 40
0.4120342266861864
 40
0.6141292078109535
 40
0.8132605010759177
 40
1.0
 40
1.0
 40
1.0
 40
1.0
 10
249.9276480799543
 20
136.4973401933112
 30
0.0
 10
249.8621843953848
 20
136.5007300037714
 30
0.0
 10
249.7311107673795
 20
136.5075171982012
 30
0.0
 10
249.551804310917
 20
136.5992182760051
 30
0.0
 10
249.4140264567807
 20
136.7390840370292
 30
0.0
 10
249.3281768464842
 20
136.9110425146794
 30
0.0
 10
249.3194239208966
 20
137.0334185485078
 30
0.0
 10
249.3151880031453
 20
137.0926415830054
 30
0.0
  0
SPLINE
  5
C9
330
1F
100
AcDbEntity
  8
0
  6
Continuous
 62
     7
370
    25
100
AcDbSpline
210
0.0
220
0.0
230
1.0
 70
     8
 71
     3
 72
    11
 73
     7
 74
     0
 42
0.000000001
 43
0.00000001
 40
0.0
 40
0.0
 40
0.0
 40
0.0
 40
0.2802334595978298
 40
0.5612849943456916
 40
0.8399961586685548
 40
1.0
 40
1.0
 40
1.0
 40
1.0
 10
249.3151880031453
 20
137.0926415830054
 30
0.0
 10
249.3121208295399
 20
137.1303992548718
 30
0.0
 10
249.3059775284427
 20
137.2060248231762
 30
0.0
 10
249.2493912965923
 20
137.3072934070285
 30
0.0
 10
249.1771619783802
 20
137.3754669142977
 30
0.0
 10
249.1231381087684
 20
137.4005303478868
 30
0.0
 10
249.1034350520002
 20
137.4096712379852
 30
0.0
  0
SPLINE
  5
CA
330
1F
100
AcDbEntity
  8
0
  6
Continuous
 62
     7
370
    25
100
AcDbSpline
210
0.0
220
0.0
230
1.0
 70
     8
 71
     3
 72
    11
 73
     7
 74
     0
 42
0.000000001
 43
0.00000001
 40
0.0
 40
0.0
 40
0.0
 40
0.0
 40
0.2669018199655585
 40
0.5546132230873161
 40
0.8439068741275547
 40
1.0
 40
1.0
 40
1.0
 40
1.0
 10
249.8920305794107
 20
134.6749281793037
 30
0.0
 10
249.9087488793689
 20
134.7055322852592
 30
0.0
 10
249.9434889580449
 20
134.7691266131132
 30
0.0
 10
249.9539242346694
 20
134.8803535109044
 30
0.0
 10
249.9341261384259
 20
134.974539855879
 30
0.0
 10
249.905945250168
 20
135.0243342053969
 30
0.0
 10
249.8960687940942
 20
135.0417854546704
 30
0.0
  0
SPLINE
  5
CB
330
1F
100
AcDbEntity
  8
0
  6
Continuous
 62
     7
370
    25
100
AcDbSpline
210
0.0
220
0.0
230
1.0
 70
     8
 71
     3
 72
    12
 73
     8
 74
     0
 42
0.000000001
 43
0.00000001
 40
0.0
 40
0.0
 40
0.0
 40
0.0
 40
0.2058406879200496
 40
0.4120615455588196
 40
0.6141378719868203
 40
0.8132782674463919
 40
1.0
 40
1.0
 40
1.0
 40
1.0
 10
249.8960687940942
 20
135.0417854546704
 30
0.0
 10
249.866262931322
 20
135.1001905705809
 30
0.0
 10
249.8065961569603
 20
135.2171086715347
 30
0.0
 10
249.7963849954206
 20
135.4182523829298
 30
0.0
 10
249.8486197196965
 20
135.607491258488
 30
0.0
 10
249.9546181542586
 20
135.7678008968299
 30
0.0
 10
250.0562171320013
 20
135.8365666775728
 30
0.0
 10
250.1053816800939
 20
135.8698429822126
 30
0.0
  0
SPLINE
  5
CC
330
1F
100
AcDbEntity
  8
0
  6
Continuous
 62
     7
370
    25
100
AcDbSpline
210
0.0
220
0.0
230
1.0
 70
     8
 71
     3
 72
    11
 73
     7
 74
     0
 42
0.000000001
 43
0.00000001
 40
0.0
 40
0.0
 40
0.0
 40
0.0
 40
0.2928999719708267
 40
0.5864346471288647
 40
0.8775161424099646
 40
0.9999999999999999
 40
0.9999999999999999
 40
0.9999999999999999
 40
0.9999999999999999
 10
250.1053816800938
 20
135.8698429822126
 30
0.0
 10
250.1365654826504
 20
135.8913955520573
 30
0.0
 10
250.1990006618869
 20
135.9345473953523
 30
0.0
 10
250.2584712423704
 20
136.0342473685291
 30
0.0
 10
250.2797924392014
 20
136.1250983844668
 30
0.0
 10
250.2769843671817
 20
136.1786825369964
 30
0.0
 10
250.2761527126656
 20
136.1945523231425
 30
0.0
  0
SPLINE
  5
CD
330
1F
100
AcDbEntity
  8
0
  6
Continuous
 62
     7
370
    25
100
AcDbSpline
210
0.0
220
0.0
230
1.0
 70
     8
 71
     3
 72
    11
 73
     7
 74
     0
 42
0.000000001
 43
0.00000001
 40
0.0
 40
0.0
 40
0.0
 40
0.0
 40
0.2431084249972647
 40
0.5182801685942633
 40
0.7947755196719312
 40
0.9999999999999999
 40
0.9999999999999999
 40
0.9999999999999999
 40
0.9999999999999999
 10
248.2827610498296
 20
134.1630304514566
 30
0.0
 10
248.3159017666316
 20
134.1619566937372
 30
0.0
 10
248.3865540950802
 20
134.159667561504
 30
0.0
 10
248.4892531420241
 20
134.1986912979403
 30
0.0
 10
248.5713438542224
 20
134.2626082319988
 30
0.0
 10
248.6052735673166
 20
134.3178316871073
 30
0.0
 10
248.6197284584867
 20
134.3413582353988
 30
0.0
  0
SPLINE
  5
CE
330
1F
100
AcDbEntity
  8
0
  6
Continuous
 62
     7
370
    25
100
AcDbSpline
210
0.0
220
0.0
230
1.0
 70
     8
 71
     3
 72
    12
 73
     8
 74
     0
 42
0.000000001
 43
0.00000001
 40
0.0
 40
0.0
 40
0.0
 40
0.0
 40
0.2058176376038982
 40
0.4120195958458891
 40
0.6140766235990756
 40
0.8132132104169848
 40
1.0
 40
1.0
 40
1.0
 40
1.0
 10
248.6197284584867
 20
134.3413582353988
 30
0.0
 10
248.6554033771959
 20
134.3963673439975
 30
0.0
 10
248.7268198299332
 20
134.5064882789986
 30
0.0
 10
248.8958885660238
 20
134.6159067931043
 30
0.0
 10
249.0858759542126
 20
134.6652935387008
 30
0.0
 10
249.2777172775511
 20
134.6536738545269
 30
0.0
 10
249.3880864855478
 20
134.6000635877189
 30
0.0
 10
249.4415051465856
 20
134.5741162358918
 30
0.0
  0
SPLINE
  5
CF
330
1F
100
AcDbEntity
  8
0
  6
Continuous
 62
     7
370
    25
100
AcDbSpline
210
0.0
220
0.0
230
1.0
 70
     8
 71
     3
 72
    11
 73
     7
 74
     0
 42
0.000000001
 43
0.00000001
 40
0.0
 40
0.0
 40
0.0
 40
0.0
 40
0.2908636554864447
 40
0.5839496334230009
 40
0.8745966553654172
 40
1.0
 40
1.0
 40
1.0
 40
1.0
 10
249.4415051465856
 20
134.5741162358918
 30
0.0
 10
249.4755669636634
 20
134.5579580958102
 30
0.0
 10
249.543950844637
 20
134.5255183605613
 30
0.0
 10
249.6598149607846
 20
134.5236584920495
 30
0.0
 10
249.7496155289515
 20
134.5505692893107
 30
0.0
 10
249.7949438457769
 20
134.5800525136882
 30
0.0
 10
249.8086064284669
 20
134.5889391659894
 30
0.0
  0
SPLINE
  5
D0
330
1F
100
AcDbEntity
  8
0
  6
Continuous
 62
     7
370
    25
100
AcDbSpline
210
0.0
220
0.0
230
1.0
 70
     8
 71
     3
 72
    12
 73
     8
 74
     0
 42
0.000000001
 43
0.00000001
 40
0.0
 40
0.0
 40
0.0
 40
0.0
 40
0.2058589337767661
 40
0.4121037601057532
 40
0.6141931714855574
 40
0.813320367944565
 40
0.9999999999999999
 40
0.9999999999999999
 40
0.9999999999999999
 40
0.9999999999999999
 10
248.6828944807874
 20
137.2524677126804
 30
0.0
 10
248.6472130942381
 20
137.1974504492823
 30
0.0
 10
248.5757834346506
 20
137.0873127899584
 30
0.0
 10
248.4066793994336
 20
136.977895074322
 30
0.0
 10
248.2166634572517
 20
136.9285199478748
 30
0.0
 10
248.0248426866785
 20
136.9401760812059
 30
0.0
 10
247.9145061347253
 20
136.9937761899663
 30
0.0
 10
247.8611177926885
 20
137.0197115748325
 30
0.0
  0
SPLINE
  5
D1
330
1F
100
AcDbEntity
  8
0
  6
Continuous
 62
     7
370
    25
100
AcDbSpline
210
0.0
220
0.0
230
1.0
 70
     8
 71
     3
 72
    11
 73
     7
 74
     0
 42
0.000000001
 43
0.00000001
 40
0.0
 40
0.0
 40
0.0
 40
0.0
 40
0.2524808247916645
 40
0.5068924220655724
 40
0.759178076336535
 40
1.0
 40
1.0
 40
1.0
 40
1.0
 10
247.8611177926885
 20
137.0197115748325
 30
0.0
 10
247.8270460043423
 20
137.0358772106349
 30
0.0
 10
247.7586418737192
 20
137.0683321041614
 30
0.0
 10
247.6429516265163
 20
137.07006734684
 30
0.0
 10
247.5332781574336
 20
137.0378642634227
 30
0.0
 10
247.4765613813247
 20
136.9896483961987
 30
0.0
 10
247.4488622670995
 20
136.9661009221473
 30
0.0
  0
SPLINE
  5
D2
330
1F
100
AcDbEntity
  8
0
  6
Continuous
 62
     7
370
    25
100
AcDbSpline
210
0.0
220
0.0
230
1.0
 70
     8
 71
     3
 72
    11
 73
     7
 74
     0
 42
0.000000001
 43
0.00000001
 40
0.0
 40
0.0
 40
0.0
 40
0.0
 40
0.2423631224915198
 40
0.5166877550747736
 40
0.7923306546894451
 40
0.9999999999999999
 40
0.9999999999999999
 40
0.9999999999999999
 40
0.9999999999999999
 10
249.0210986858235
 20
137.4306483476558
 30
0.0
 10
248.9879614401509
 20
137.4318458437024
 30
0.0
 10
248.9173169918539
 20
137.434398754961
 30
0.0
 10
248.8144798644962
 20
137.3957504536449
 30
0.0
 10
248.7317989929946
 20
137.3318884477539
 30
0.0
 10
248.6975923659066
 20
137.2763370201841
 30
0.0
 10
248.6828944807874
 20
137.2524677126804
 30
0.0
  0
SPLINE
  5
D3
330
1F
100
AcDbEntity
  8
0
  6
Continuous
 62
     7
370
    25
100
AcDbSpline
210
0.0
220
0.0
230
1.0
 70
     8
 71
     3
 72
    12
 73
     8
 74
     0
 42
0.000000001
 43
0.00000001
 40
0.0
 40
0.0
 40
0.0
 40
0.0
 40
0.0091707640257126
 40
0.257676733137033
 40
0.5061873712092742
 40
0.7560349200859684
 40
1.0
 40
1.0
 40
1.0
 40
1.0
 10
247.0377131527291
 20
135.3395553588071
 30
0.0
 10
247.0380927693932
 20
135.3382377860912
 30
0.0
 10
247.0487590979086
 20
135.3012171156042
 30
0.0
 10
247.0829558639207
 20
135.2316685273921
 30
0.0
 10
247.1635373642259
 20
135.152473570708
 30
0.0
 10
247.2650749436696
 20
135.1018960784821
 30
0.0
 10
247.3386311463244
 20
135.0982760634739
 30
0.0
 10
247.3749711340295
 20
135.0964876174131
 30
0.0
  0
SPLINE
  5
D4
330
1F
100
AcDbEntity
  8
0
  6
Continuous
 62
     7
370
    25
100
AcDbSpline
210
0.0
220
0.0
230
1.0
 70
     8
 71
     3
 72
    12
 73
     8
 74
     0
 42
0.000000001
 43
0.00000001
 40
0.0
 40
0.0
 40
0.0
 40
0.0
 40
0.2057536293749481
 40
0.4119594460974882
 40
0.614015031100414
 40
0.813141192180594
 40
1.0
 40
1.0
 40
1.0
 40
1.0
 10
247.3749711340295
 20
135.0964876174131
 30
0.0
 10
247.4404269997966
 20
135.0930995564546
 30
0.0
 10
247.5714825845129
 20
135.0863159885533
 30
0.0
 10
247.7507685398477
 20
134.994636852623
 30
0.0
 10
247.888543866859
 20
134.8548093383761
 30
0.0
 10
247.9744330905731
 20
134.6828530329714
 30
0.0
 10
247.9831937983897
 20
134.5604450414294
 30
0.0
 10
247.9874349361287
 20
134.5011862277188
 30
0.0
  0
SPLINE
  5
D5
330
1F
100
AcDbEntity
  8
0
  6
Continuous
 62
     7
370
    25
100
AcDbSpline
210
0.0
220
0.0
230
1.0
 70
     8
 71
     3
 72
    11
 73
     7
 74
     0
 42
0.000000001
 43
0.00000001
 40
0.0
 40
0.0
 40
0.0
 40
0.0
 40
0.2794084560544143
 40
0.5596247038025347
 40
0.8375003669149558
 40
1.0
 40
1.0
 40
1.0
 40
1.0
 10
247.9874349361287
 20
134.5011862277188
 30
0.0
 10
247.9905029480063
 20
134.4634243888117
 30
0.0
 10
247.9966478416237
 20
134.3877915385685
 30
0.0
 10
248.0532416421616
 20
134.2865210163555
 30
0.0
 10
248.1257789055109
 20
134.2180512559894
 30
0.0
 10
248.180250147468
 20
134.1929578823612
 30
0.0
 10
248.200350177847
 20
134.1836983620324
 30
0.0
  0
SPLINE
  5
D6
330
1F
100
AcDbEntity
  8
0
  6
Continuous
 62
     7
370
    25
100
AcDbSpline
210
0.0
220
0.0
230
1.0
 70
     8
 71
     3
 72
    12
 73
     8
 74
     0
 42
0.000000001
 43
0.00000001
 40
0.0
 40
0.0
 40
0.0
 40
0.0
 40
0.0091672071356282
 40
0.257327264405536
 40
0.5054964172526938
 40
0.754990513926562
 40
1.0
 40
1.0
 40
1.0
 40
1.0
 10
247.4488622670995
 20
136.9661009221473
 30
0.0
 10
247.4479090786521
 20
136.9651133524281
 30
0.0
 10
247.4211526879662
 20
136.9373918653391
 30
0.0
 10
247.3778683930059
 20
136.8731109307155
 30
0.0
 10
247.3493870999107
 20
136.7637699500587
 30
0.0
 10
247.3561494643555
 20
136.6503227106553
 30
0.0
 10
247.3898544741866
 20
136.5846038078892
 30
0.0
 10
247.4065541451799
 20
136.5520423560538
 30
0.0
  0
SPLINE
  5
D7
330
1F
100
AcDbEntity
  8
0
  6
Continuous
 62
     7
370
    25
100
AcDbSpline
210
0.0
220
0.0
230
1.0
 70
     8
 71
     3
 72
    12
 73
     8
 74
     0
 42
0.000000001
 43
0.00000001
 40
0.0
 40
0.0
 40
0.0
 40
0.0
 40
0.205842063983789
 40
0.4120686517671946
 40
0.6141405929091768
 40
0.8132608104497073
 40
1.0
 40
1.0
 40
1.0
 40
1.0
 10
247.4065541451799
 20
136.5520423560538
 30
0.0
 10
247.4363578031696
 20
136.4936365761488
 30
0.0
 10
247.4960207939494
 20
136.3767159112706
 30
0.0
 10
247.5062417785204
 20
136.175571160857
 30
0.0
 10
247.4539978748786
 20
135.9863382589601
 30
0.0
 10
247.3480087595043
 20
135.8260272932321
 30
0.0
 10
247.246410434561
 20
135.7572622562844
 30
0.0
 10
247.1972412591802
 20
135.7239829658666
 30
0.0
  0
SPLINE
  5
D8
330
1F
100
AcDbEntity
  8
0
  6
Continuous
 62
     7
370
    25
100
AcDbSpline
210
0.0
220
0.0
230
1.0
 70
     8
 71
     3
 72
    11
 73
     7
 74
     0
 42
0.000000001
 43
0.00000001
 40
0.0
 40
0.0
 40
0.0
 40
0.0
 40
0.2535104784274592
 40
0.5075687635404642
 40
0.7595063564772045
 40
1.0
 40
1.0
 40
1.0
 40
1.0
 10
247.1972412591802
 20
135.7239829658666
 30
0.0
 10
247.1660427098033
 20
135.7024243734453
 30
0.0
 10
247.1035781946096
 20
135.6592606029897
 30
0.0
 10
247.0443063950584
 20
135.5596399631391
 30
0.0
 10
247.0175643112038
 20
135.4485081683154
 30
0.0
 10
247.0311017407775
 20
135.3753058959308
 30
0.0
 10
247.0377131527291
 20
135.3395553588071
 30
0.0
  0
CIRCLE
  5
D9
330
1F
100
AcDbEntity
  8
0
  6
Continuous
 62
     7
370
    25
100
AcDbCircle
 10
248.6488881086
 20
135.7975257446
 30
0.0
 40
2.625000000000016
  0
SPLINE
  5
DA
330
1F
100
AcDbEntity
  8
0
  6
Continuous
 62
     7
370
    25
100
AcDbSpline
210
0.0
220
0.0
230
1.0
 70
    11
 71
     3
 72
    68
 73
    64
 74
     0
 42
0.000000001
 43
0.00000001
 40
0.0
 40
0.0
 40
0.0
 40
0.0
 40
0.03125
 40
0.03125
 40
0.0624999999999999
 40
0.0624999999999999
 40
0.0937499999999999
 40
0.0937499999999999
 40
0.1249999999999998
 40
0.1249999999999998
 40
0.1562499999999998
 40
0.1562499999999998
 40
0.1874999999999997
 40
0.1874999999999997
 40
0.2187499999999997
 40
0.2187499999999997
 40
0.2499999999999996
 40
0.2499999999999996
 40
0.2812499999999996
 40
0.2812499999999996
 40
0.3124999999999995
 40
0.3124999999999995
 40
0.3437499999999994
 40
0.3437499999999994
 40
0.3749999999999994
 40
0.3749999999999994
 40
0.4062499999999994
 40
0.4062499999999994
 40
0.4374999999999993
 40
0.4374999999999993
 40
0.4687499999999993
 40
0.4687499999999993
 40
0.4999999999999992
 40
0.4999999999999992
 40
0.5312499999999992
 40
0.5312499999999992
 40
0.5624999999999991
 40
0.5624999999999991
 40
0.5937499999999991
 40
0.5937499999999991
 40
0.624999999999999
 40
0.624999999999999
 40
0.656249999999999
 40
0.656249999999999
 40
0.6874999999999989
 40
0.6874999999999989
 40
0.7187499999999989
 40
0.7187499999999989
 40
0.7499999999999989
 40
0.7499999999999989
 40
0.781249999999999
 40
0.781249999999999
 40
0.8124999999999992
 40
0.8124999999999992
 40
0.8437499999999993
 40
0.8437499999999993
 40
0.8749999999999996
 40
0.8749999999999996
 40
0.9062499999999997
 40
0.9062499999999997
 40
0.9374999999999999
 40
0.9374999999999999
 40
1.0
 40
1.0
 40
1.0
 40
1.0
 10
210.2049729054796
 20
123.2645858983599
 30
0.0
 10
210.4032877156644
 20
123.2645858983599
 30
0.0
 10
210.5982659619141
 20
123.2486638447628
 30
0.0
 10
210.9818291870597
 20
123.1861908233146
 30
0.0
 10
211.1724099625219
 20
123.1388733501843
 30
0.0
 10
211.5356592493087
 20
123.0150853576086
 30
0.0
 10
211.7079259883046
 20
122.9392178169891
 30
0.0
 10
212.0339477050126
 20
122.7593328690985
 30
0.0
 10
212.1882230717892
 20
122.6543994200859
 30
0.0
 10
212.4647859930403
 20
122.4241756588374
 30
0.0
 10
212.5889288833557
 20
122.2980848790412
 30
0.0
 10
212.8082436557266
 20
122.0228176093235
 30
0.0
 10
212.9013741111299
 20
121.8757117702563
 30
0.0
 10
213.0510284416561
 20
121.5697221077818
 30
0.0
 10
213.1086754116479
 20
121.4085752142981
 30
0.0
 10
213.1857819734703
 20
121.0767696188694
 30
0.0
 10
213.2048657548137
 20
120.9090531930373
 30
0.0
 10
213.2050791648911
 20
120.5699808857016
 30
0.0
 10
213.1855838743917
 20
120.396820561359
 30
0.0
 10
213.1090139999146
 20
120.0599623570118
 30
0.0
 10
213.0523607587054
 20
119.8953440712266
 30
0.0
 10
212.9020848078961
 20
119.574060369631
 30
0.0
 10
212.8082011454837
 20
119.418032963968
 30
0.0
 10
212.5911359453872
 20
119.1279827446964
 30
0.0
 10
212.4672046891125
 20
118.9921263445071
 30
0.0
 10
212.1872478439602
 20
118.7400109686335
 30
0.0
 10
212.0357886930584
 20
118.6278836580907
 30
0.0
 10
211.7110556841107
 20
118.4310629619697
 30
0.0
 10
211.5356912452943
 20
118.3456435386272
 30
0.0
 10
211.1723742263945
 20
118.208528004659
 30
0.0
 10
210.985382773404
 20
118.156699561619
 30
0.0
 10
210.6008112750472
 20
118.0865103811945
 30
0.0
 10
210.4019034219278
 20
118.068499208775
 30
0.0
 10
210.0102400222313
 20
118.0683681103298
 30
0.0
 10
209.8155322858444
 20
118.085666289079
 30
0.0
 10
209.4284152221894
 20
118.1556813675733
 30
0.0
 10
209.2389442194625
 20
118.2081811294013
 30
0.0
 10
208.8778117214449
 20
118.3441322360793
 30
0.0
 10
208.7033924720846
 20
118.428571620681
 30
0.0
 10
208.3751944342807
 20
118.6270213872889
 30
0.0
 10
208.2241161968302
 20
118.7390803734163
 30
0.0
 10
207.9472801038026
 20
118.9876995514962
 30
0.0
 10
207.82051628729
 20
119.1259327294766
 30
0.0
 10
207.6025117491331
 20
119.4167803917523
 30
0.0
 10
207.510230569603
 20
119.5698091921984
 30
0.0
 10
207.3593508824377
 20
119.8907760224552
 30
0.0
 10
207.3014044479676
 20
120.0585552538916
 30
0.0
 10
207.2247922655529
 20
120.3942630865108
 30
0.0
 10
207.2051642455376
 20
120.5639888429386
 30
0.0
 10
207.2047843222925
 20
120.907231811513
 30
0.0
 10
207.224096662797
 20
121.0754923732219
 30
0.0
 10
207.3000172794738
 20
121.4041539689466
 30
0.0
 10
207.3575230484399
 20
121.5664660986948
 30
0.0
 10
207.507883195029
 20
121.8747035775153
 30
0.0
 10
207.5999024829204
 20
122.0200467860353
 30
0.0
 10
207.8172464979104
 20
122.2938515930641
 30
0.0
 10
207.943765918042
 20
122.4228528302891
 30
0.0
 10
208.2201995375018
 20
122.6532922134339
 30
0.0
 10
208.3710291275781
 20
122.7562500856286
 30
0.0
 10
208.6985407198183
 20
122.9376306259163
 30
0.0
 10
208.8730892529064
 20
123.0145232639975
 30
0.0
 10
209.414294121278
 20
123.199414056733
 30
0.0
 10
209.8083432851097
 20
123.2645858983599
 30
0.0
 10
210.2049729054795
 20
123.2645858983599
 30
0.0
  0
SPLINE
  5
DB
330
1F
100
AcDbEntity
  8
0
  6
Continuous
 62
     7
370
    25
100
AcDbSpline
210
0.0
220
0.0
230
1.0
 70
     8
 71
     3
 72
    14
 73
    10
 74
     0
 42
0.000000001
 43
0.00000001
 40
0.0
 40
0.0
 40
0.0
 40
0.0
 40
0.2500000000000001
 40
0.2500000000000001
 40
0.5000000000000001
 40
0.5000000000000001
 40
0.75
 40
0.75
 40
1.0
 40
1.0
 40
1.0
 40
1.0
 10
223.0133798756189
 20
136.2139184893063
 30
0.0
 10
223.1304410171092
 20
136.2719400622333
 30
0.0
 10
223.2943956301172
 20
136.3179866336817
 30
0.0
 10
223.7137896130202
 20
136.3912781167025
 30
0.0
 10
223.9728009447836
 20
136.4185078240024
 30
0.0
 10
224.5604238142687
 20
136.4570426500594
 30
0.0
 10
224.8915225061388
 20
136.4688877285546
 30
0.0
 10
225.6258254933397
 20
136.4836610875346
 30
0.0
 10
226.0187928681711
 20
136.4864589302209
 30
0.0
 10
226.4376459175005
 20
136.487537151305
 30
0.0
  0
ELLIPSE
  5
DC
330
1F
100
AcDbEntity
  8
0
  6
Continuous
 62
     7
370
    25
100
AcDbEllipse
 10
224.1245881478
 20
104.9881009667
 30
0.0
 11
0.0
 21
31.5
 31
0.0
210
0.0
220
0.0
230
1.0
 40
0.2679491924
 41
0.1320368298873527
 42
3.009555823702441
  0
SPLINE
  5
DD
330
1F
100
AcDbEntity
  8
0
  6
Continuous
 62
     7
370
    25
100
AcDbSpline
210
0.0
220
0.0
230
1.0
 70
     8
 71
     3
 72
    16
 73
    12
 74
     0
 42
0.000000001
 43
0.00000001
 40
0.0
 40
0.0
 40
0.0
 40
0.0
 40
0.2500000000000002
 40
0.2500000000000002
 40
0.5000000000000004
 40
0.5000000000000004
 40
0.6250000000000008
 40
0.6250000000000008
 40
0.7500000000000011
 40
0.7500000000000011
 40
1.0
 40
1.0
 40
1.0
 40
1.0
 10
225.782942673722
 20
73.492375857644
 30
0.0
 10
225.4468866493709
 20
73.49560976370142
 30
0.0
 10
225.1312490450638
 20
73.50114210182379
 30
0.0
 10
224.5420867212863
 20
73.52103600474678
 30
0.0
 10
224.2752392080167
 20
73.53527298798137
 30
0.0
 10
223.9219049128002
 20
73.56559871007961
 30
0.0
 10
223.8115939562506
 20
73.57721981520294
 30
0.0
 10
223.6061335919649
 20
73.60403475785316
 30
0.0
 10
223.5106012903858
 20
73.619317154772
 30
0.0
 10
223.2515758537111
 20
73.67063772010378
 30
0.0
 10
223.1146239146739
 20
73.71210164752762
 30
0.0
 10
223.0133798756189
 20
73.76228344415686
 30
0.0
  0
ELLIPSE
  5
DE
330
1F
100
AcDbEntity
  8
0
  6
Continuous
 62
     7
370
    25
100
AcDbEllipse
 10
247.7810618651
 20
104.9881009667
 30
0.0
 11
22.19801352592566
 21
31.46000549521671
 31
0.0
210
0.0
220
0.0
230
1.0
 40
0.0714855773
 41
3.191989788134751
 42
3.208464853676298
  0
SPLINE
  5
DF
330
1F
100
AcDbEntity
  8
0
  6
Continuous
 62
     7
370
    25
100
AcDbSpline
210
0.0
220
0.0
230
1.0
 70
     8
 71
     3
 72
    12
 73
     8
 74
     0
 42
0.000000001
 43
0.00000001
 40
0.0
 40
0.0
 40
0.0
 40
0.0
 40
0.4999999999999953
 40
0.4999999999999953
 40
0.7499999999999977
 40
0.7499999999999977
 40
1.0
 40
1.0
 40
1.0
 40
1.0
 10
199.2997170171537
 20
75.0873585066143
 30
0.0
 10
199.3308622151158
 20
75.0495429836941
 30
0.0
 10
199.3731364814503
 20
75.0134761256105
 30
0.0
 10
199.4730820152756
 20
74.96551606059921
 30
0.0
 10
199.5128123199796
 20
74.95065508670156
 30
0.0
 10
199.6097003699858
 20
74.92770394057042
 30
0.0
 10
199.6697656117324
 20
74.91960900785838
 30
0.0
 10
199.7327297190459
 20
74.91960900785838
 30
0.0
  0
LINE
  5
E0
330
1F
100
AcDbEntity
  8
0
  6
Continuous
 62
     7
370
    25
100
AcDbLine
 10
199.7327299019
 20
74.9196084499
 30
0.0
 11
202.6772161176
 21
74.9196084499
 31
0.0
  0
SPLINE
  5
E1
330
1F
100
AcDbEntity
  8
0
  6
Continuous
 62
     7
370
    25
100
AcDbSpline
210
0.0
220
0.0
230
1.0
 70
     8
 71
     3
 72
    12
 73
     8
 74
     0
 42
0.000000001
 43
0.00000001
 40
0.0
 40
0.0
 40
0.0
 40
0.0
 40
0.2499999999999977
 40
0.2499999999999977
 40
0.4999999999999953
 40
0.4999999999999953
 40
1.0
 40
1.0
 40
1.0
 40
1.0
 10
202.6772160919131
 20
74.91960900785844
 30
0.0
 10
202.7402730468109
 20
74.91960900785844
 30
0.0
 10
202.7994031965565
 20
74.927509338938
 30
0.0
 10
202.8978507470897
 20
74.95082008694304
 30
0.0
 10
202.9368829852778
 20
74.96552521322667
 30
0.0
 10
203.0367728697348
 20
75.01345874141332
 30
0.0
 10
203.0790718433441
 20
75.04952871417807
 30
0.0
 10
203.1102287938054
 20
75.0873585066143
 30
0.0
  0
ELLIPSE
  5
E2
330
1F
100
AcDbEntity
  8
0
  6
Continuous
 62
     7
370
    25
100
AcDbEllipse
 10
186.8578187161
 20
104.9881009667
 30
0.0
 11
-14.75368316065618
 21
31.09325491558116
 31
0.0
210
0.0
220
0.0
230
1.0
 40
0.3419987131
 41
3.300734856217124
 42
4.231496223360773
  0
SPLINE
  5
E3
330
1F
100
AcDbEntity
  8
0
  6
Continuous
 62
     7
370
    25
100
AcDbSpline
210
0.0
220
0.0
230
1.0
 70
     8
 71
     3
 72
    12
 73
     8
 74
     0
 42
0.000000001
 43
0.00000001
 40
0.0
 40
0.0
 40
0.0
 40
0.0
 40
0.5000000000000019
 40
0.5000000000000019
 40
0.7500000000000009
 40
0.7500000000000009
 40
1.0
 40
1.0
 40
1.0
 40
1.0
 10
203.1102287938053
 20
95.07873164604615
 30
0.0
 10
203.0790835958432
 20
95.19283701191146
 30
0.0
 10
203.0368093295088
 20
95.30394333913023
 30
0.0
 10
202.9368637956835
 20
95.45410094656052
 30
0.0
 10
202.8971334909794
 20
95.50109363817788
 30
0.0
 10
202.8002454409732
 20
95.57406922271639
 30
0.0
 10
202.7401801992266
 20
95.6000345353954
 30
0.0
 10
202.6772160919131
 20
95.6000345353954
 30
0.0
  0
LINE
  5
E4
330
1F
100
AcDbEntity
  8
0
  6
Continuous
 62
     7
370
    25
100
AcDbLine
 10
202.6772161176
 20
95.6000341385
 30
0.0
 11
199.7327299019
 21
95.6000341385
 31
0.0
  0
SPLINE
  5
E5
330
1F
100
AcDbEntity
  8
0
  6
Continuous
 62
     7
370
    25
100
AcDbSpline
210
0.0
220
0.0
230
1.0
 70
     8
 71
     3
 72
    12
 73
     8
 74
     0
 42
0.000000001
 43
0.00000001
 40
0.0
 40
0.0
 40
0.0
 40
0.0
 40
0.2499999999999995
 40
0.2499999999999995
 40
0.499999999999999
 40
0.499999999999999
 40
1.0
 40
1.0
 40
1.0
 40
1.0
 10
199.7327297190459
 20
95.60003453539528
 30
0.0
 10
199.6696727641481
 20
95.60003453539528
 30
0.0
 10
199.6105426144026
 20
95.5746881820146
 30
0.0
 10
199.5120950638693
 20
95.50056879987511
 30
0.0
 10
199.4730628256812
 20
95.4540722851771
 30
0.0
 10
199.3731729412243
 20
95.30399777816852
 30
0.0
 10
199.3308739676149
 20
95.19288006905366
 30
0.0
 10
199.2997170171537
 20
95.07873164604617
 30
0.0
  0
ELLIPSE
  5
E6
330
1F
100
AcDbEntity
  8
0
  6
Continuous
 62
     7
370
    25
100
AcDbEllipse
 10
215.5521270948
 20
104.9881009667
 30
0.0
 11
14.75368316065618
 21
31.09325491558119
 31
0.0
210
0.0
220
0.0
230
1.0
 40
0.3419987131
 41
2.051689083818825
 42
2.982450450962501
  0
SPLINE
  5
E7
330
1F
100
AcDbEntity
  8
0
  6
Continuous
 62
     7
370
    25
100
AcDbSpline
210
0.0
220
0.0
230
1.0
 70
     8
 71
     3
 72
    12
 73
     8
 74
     0
 42
0.000000001
 43
0.00000001
 40
0.0
 40
0.0
 40
0.0
 40
0.0
 40
0.5000000000000028
 40
0.5000000000000028
 40
0.7500000000000013
 40
0.7500000000000013
 40
1.0
 40
1.0
 40
1.0
 40
1.0
 10
199.2997170171537
 20
114.8974702874166
 30
0.0
 10
199.3304392590728
 20
114.7849144880074
 30
0.0
 10
199.373276473608
 20
114.6721566282678
 30
0.0
 10
199.4727034978078
 20
114.5226157424714
 30
0.0
 10
199.5124556926245
 20
114.4753230107646
 30
0.0
 10
199.6104971494827
 20
114.4015867174432
 30
0.0
 10
199.6700532050701
 20
114.3761673980675
 30
0.0
 10
199.7327297190459
 20
114.3761673980675
 30
0.0
  0
LINE
  5
E8
330
1F
100
AcDbEntity
  8
0
  6
Continuous
 62
     7
370
    25
100
AcDbLine
 10
199.7327299019
 20
114.376167795
 30
0.0
 11
202.6772161176
 21
114.376167795
 31
0.0
  0
SPLINE
  5
E9
330
1F
100
AcDbEntity
  8
0
  6
Continuous
 62
     7
370
    25
100
AcDbSpline
210
0.0
220
0.0
230
1.0
 70
     8
 71
     3
 72
    12
 73
     8
 74
     0
 42
0.000000001
 43
0.00000001
 40
0.0
 40
0.0
 40
0.0
 40
0.0
 40
0.2500000000000009
 40
0.2500000000000009
 40
0.5000000000000019
 40
0.5000000000000019
 40
1.0
 40
1.0
 40
1.0
 40
1.0
 10
202.6772160919131
 20
114.3761673980674
 30
0.0
 10
202.7402961304064
 20
114.3761673980675
 30
0.0
 10
202.7994447525878
 20
114.4015317172824
 30
0.0
 10
202.8979173026569
 20
114.4756965776553
 30
0.0
 10
202.9369539146416
 20
114.5222169182094
 30
0.0
 10
203.0368503814207
 20
114.6723592610547
 30
0.0
 10
203.0792712624873
 20
114.7840524680268
 30
0.0
 10
203.1102287938053
 20
114.8974702874166
 30
0.0
  0
ELLIPSE
  5
EA
330
1F
100
AcDbEntity
  8
0
  6
Continuous
 62
     7
370
    25
100
AcDbEllipse
 10
186.8578187161
 20
104.9881009667
 30
0.0
 11
14.75368316065601
 21
31.09325491558118
 31
0.0
210
0.0
220
0.0
230
1.0
 40
0.3419987131
 41
5.193281737408619
 42
6.124043104552319
  0
SPLINE
  5
EB
330
1F
100
AcDbEntity
  8
0
  6
Continuous
 62
     7
370
    25
100
AcDbSpline
210
0.0
220
0.0
230
1.0
 70
     8
 71
     3
 72
    12
 73
     8
 74
     0
 42
0.000000001
 43
0.00000001
 40
0.0
 40
0.0
 40
0.0
 40
0.0
 40
0.5
 40
0.5
 40
0.75
 40
0.75
 40
1.0
 40
1.0
 40
1.0
 40
1.0
 10
203.1102287938053
 20
134.8888434268487
 30
0.0
 10
203.0795065518862
 20
134.9261454098017
 30
0.0
 10
203.036669337351
 20
134.9627572418482
 30
0.0
 10
202.9372423131512
 20
135.0105220251334
 30
0.0
 10
202.8974901183346
 20
135.0254795406157
 30
0.0
 10
202.7994486614764
 20
135.0486694863849
 30
0.0
 10
202.7398926058889
 20
135.0565929256046
 30
0.0
 10
202.6772160919131
 20
135.0565929256046
 30
0.0
  0
LINE
  5
EC
330
1F
100
AcDbEntity
  8
0
  6
Continuous
 62
     7
370
    25
100
AcDbLine
 10
202.6772161176
 20
135.0565934836
 30
0.0
 11
199.7327299019
 21
135.0565934836
 31
0.0
  0
SPLINE
  5
ED
330
1F
100
AcDbEntity
  8
0
  6
Continuous
 62
     7
370
    25
100
AcDbSpline
210
0.0
220
0.0
230
1.0
 70
     8
 71
     3
 72
    12
 73
     8
 74
     0
 42
0.000000001
 43
0.00000001
 40
0.0
 40
0.0
 40
0.0
 40
0.0
 40
0.2499999999999996
 40
0.2499999999999996
 40
0.4999999999999991
 40
0.4999999999999991
 40
1.0
 40
1.0
 40
1.0
 40
1.0
 10
199.7327297190459
 20
135.0565929256046
 30
0.0
 10
199.6696496805526
 20
135.0565929256046
 30
0.0
 10
199.6105010583712
 20
135.0486869993921
 30
0.0
 10
199.5120285083021
 20
135.0253618379559
 30
0.0
 10
199.4729918963174
 20
135.0106490481242
 30
0.0
 10
199.3730954295384
 20
134.9626932473933
 30
0.0
 10
199.3306745484717
 20
134.9264310908132
 30
0.0
 10
199.2997170171537
 20
134.8888434268487
 30
0.0
  0
ELLIPSE
  5
EE
330
1F
100
AcDbEntity
  8
0
  6
Continuous
 62
     7
370
    25
100
AcDbEllipse
 10
215.5521270948
 20
104.9881009667
 30
0.0
 11
-14.75368316065604
 21
31.09325491558116
 31
0.0
210
0.0
220
0.0
230
1.0
 40
0.3419987131
 41
0.1591422026273045
 42
1.08990356977098
  0
LINE
  5
EF
330
1F
100
AcDbEntity
  8
0
  6
Continuous
 62
     7
370
    25
100
AcDbLine
 10
189.2049729055
 20
73.9881014734
 30
0.0
 11
189.2049729055
 21
135.9881004601
 31
0.0
  0
ELLIPSE
  5
F0
330
1F
100
AcDbEntity
  8
0
  6
Continuous
 62
     7
370
    25
100
AcDbEllipse
 10
220.8516124016
 20
122.5529599264
 30
0.0
 11
0.3267812967788473
 21
3.437685688267663
 31
0.0
210
0.0
220
0.0
230
1.0
 40
0.2095444568
 41
0.0
 42
6.283185307179586
  0
SPLINE
  5
F1
330
1F
100
AcDbEntity
  8
0
  6
Continuous
 62
     7
370
    25
100
AcDbSpline
210
0.0
220
0.0
230
1.0
 70
     8
 71
     3
 72
    12
 73
     8
 74
     0
 42
0.000000001
 43
0.00000001
 40
0.0
 40
0.0
 40
0.0
 40
0.0
 40
0.5000000000000006
 40
0.5000000000000006
 40
0.7500000000000004
 40
0.7500000000000004
 40
1.0
 40
1.0
 40
1.0
 40
1.0
 10
188.388460619023
 20
83.1333072642557
 30
0.0
 10
188.4448971199302
 20
83.13188938291395
 30
0.0
 10
188.5139817506189
 20
83.13032504666563
 30
0.0
 10
188.6327840223369
 20
83.12738085469121
 30
0.0
 10
188.6729692978069
 20
83.12634265159382
 30
0.0
 10
188.7463503452108
 20
83.1244087563792
 30
0.0
 10
188.7797599089534
 20
83.12351386909036
 30
0.0
 10
188.8099960166099
 20
83.12273007881804
 30
0.0
  0
SPLINE
  5
F2
330
1F
100
AcDbEntity
  8
0
  6
Continuous
 62
     7
370
    25
100
AcDbSpline
210
0.0
220
0.0
230
1.0
 70
     8
 71
     3
 72
    16
 73
    12
 74
     0
 42
0.000000001
 43
0.00000001
 40
0.0
 40
0.0
 40
0.0
 40
0.0
 40
0.0625000000000014
 40
0.0625000000000014
 40
0.1250000000000029
 40
0.1250000000000029
 40
0.2500000000000003
 40
0.2500000000000003
 40
0.5000000000000002
 40
0.5000000000000002
 40
1.0
 40
1.0
 40
1.0
 40
1.0
 10
188.8099960165727
 20
83.12273007884228
 30
0.0
 10
188.8215764241606
 20
83.12242988773095
 30
0.0
 10
188.8348859509219
 20
83.12110213947194
 30
0.0
 10
188.864187381008
 20
83.11440346469695
 30
0.0
 10
188.8790014808923
 20
83.10904528159125
 30
0.0
 10
188.9148298825952
 20
83.0919996324239
 30
0.0
 10
188.9289495069582
 20
83.08053709464816
 30
0.0
 10
188.9634536510467
 20
83.04897376927593
 30
0.0
 10
188.9745582017513
 20
83.03107647023067
 30
0.0
 10
189.0007343789675
 20
82.98091505261641
 30
0.0
 10
189.0049729054795
 20
82.95317064041984
 30
0.0
 10
189.0049729054795
 20
82.92850647849029
 30
0.0
  0
LINE
  5
F3
330
1F
100
AcDbEntity
  8
0
  6
Continuous
 62
     7
370
    25
100
AcDbLine
 10
189.0049729105
 20
97.9662137388
 30
0.0
 11
189.0049729105
 21
82.4482804447
 31
0.0
  0
SPLINE
  5
F4
330
1F
100
AcDbEntity
  8
0
  6
Continuous
 62
     7
370
    25
100
AcDbSpline
210
0.0
220
0.0
230
1.0
 70
     8
 71
     3
 72
    16
 73
    12
 74
     0
 42
0.000000001
 43
0.00000001
 40
0.0
 40
0.0
 40
0.0
 40
0.0
 40
0.5000000000000008
 40
0.5000000000000008
 40
0.7499999999999994
 40
0.7499999999999994
 40
0.8749999999999988
 40
0.8749999999999988
 40
0.9374999999999994
 40
0.9374999999999994
 40
1.0
 40
1.0
 40
1.0
 40
1.0
 10
189.0049729054795
 20
97.96621364098147
 30
0.0
 10
189.0049729054795
 20
98.07990618510934
 30
0.0
 10
189.0008266304015
 20
98.19422634645886
 30
0.0
 10
188.974861035008
 20
98.36727463695595
 30
0.0
 10
188.9634001296307
 20
98.42645014411767
 30
0.0
 10
188.9290883918563
 20
98.5095732635858
 30
0.0
 10
188.9150636559267
 20
98.53769457968647
 30
0.0
 10
188.8790406928928
 20
98.56631039366391
 30
0.0
 10
188.8642861838032
 20
98.5721034415657
 30
0.0
 10
188.8349340226563
 20
98.57051001562866
 30
0.0
 10
188.8215941481522
 20
98.56401361230485
 30
0.0
 10
188.8099960166039
 20
98.5554978661017
 30
0.0
  0
SPLINE
  5
F5
330
1F
100
AcDbEntity
  8
0
  6
Continuous
 62
     7
370
    25
100
AcDbSpline
210
0.0
220
0.0
230
1.0
 70
     8
 71
     3
 72
    12
 73
     8
 74
     0
 42
0.000000001
 43
0.00000001
 40
0.0
 40
0.0
 40
0.0
 40
0.0
 40
0.2499999999999998
 40
0.2499999999999998
 40
0.4999999999999999
 40
0.4999999999999999
 40
1.0
 40
1.0
 40
1.0
 40
1.0
 10
188.8099960166109
 20
98.55549786609254
 30
0.0
 10
188.7797975751703
 20
98.53332513404749
 30
0.0
 10
188.7464302198343
 20
98.51424547817025
 30
0.0
 10
188.6732749440044
 20
98.48907243372757
 30
0.0
 10
188.6330222449804
 20
98.48351589731077
 30
0.0
 10
188.5152935017056
 20
98.49442770829752
 30
0.0
 10
188.4448350536466
 20
98.53636346370837
 30
0.0
 10
188.3884606190284
 20
98.5855752460899
 30
0.0
  0
SPLINE
  5
F6
330
1F
100
AcDbEntity
  8
0
  6
Continuous
 62
     7
370
    25
100
AcDbSpline
210
0.0
220
0.0
230
1.0
 70
     8
 71
     3
 72
    12
 73
     8
 74
     0
 42
0.000000001
 43
0.00000001
 40
0.0
 40
0.0
 40
0.0
 40
0.0
 40
0.5
 40
0.5
 40
0.75
 40
0.75
 40
1.0
 40
1.0
 40
1.0
 40
1.0
 10
187.8836525619199
 20
99.80192663797047
 30
0.0
 10
187.9274029138043
 20
99.58147965299594
 30
0.0
 10
187.9802930649288
 20
99.36593466319039
 30
0.0
 10
188.0919046080705
 20
99.05352058661846
 30
0.0
 10
188.134463951974
 20
98.95144111100257
 30
0.0
 10
188.2394411873115
 20
98.7570010983608
 30
0.0
 10
188.301008430406
 20
98.66191619929714
 30
0.0
 10
188.3884606190284
 20
98.58557524608996
 30
0.0
  0
SPLINE
  5
F7
330
1F
100
AcDbEntity
  8
0
  6
Continuous
 62
     7
370
    25
100
AcDbSpline
210
0.0
220
0.0
230
1.0
 70
     8
 71
     3
 72
    12
 73
     8
 74
     0
 42
0.000000001
 43
0.00000001
 40
0.0
 40
0.0
 40
0.0
 40
0.0
 40
0.2499999999999999
 40
0.2499999999999999
 40
0.4999999999999999
 40
0.4999999999999999
 40
1.0
 40
1.0
 40
1.0
 40
1.0
 10
188.3884606190283
 20
111.3906266873731
 30
0.0
 10
188.2999672114604
 20
111.3133768072648
 30
0.0
 10
188.2399091706945
 20
111.2200574833756
 30
0.0
 10
188.134060897712
 20
111.0240244304062
 30
0.0
 10
188.0915273764345
 20
110.9216980721944
 30
0.0
 10
187.9803760696109
 20
110.6103536664185
 30
0.0
 10
187.9274452125631
 20
110.3949354132405
 30
0.0
 10
187.8836525619199
 20
110.1742752954927
 30
0.0
  0
SPLINE
  5
F8
330
1F
100
AcDbEntity
  8
0
  6
Continuous
 62
     7
370
    25
100
AcDbSpline
210
0.0
220
0.0
230
1.0
 70
     8
 71
     3
 72
    12
 73
     8
 74
     0
 42
0.000000001
 43
0.00000001
 40
0.0
 40
0.0
 40
0.0
 40
0.0
 40
0.5
 40
0.5
 40
0.75
 40
0.75
 40
1.0
 40
1.0
 40
1.0
 40
1.0
 10
188.3884606190283
 20
111.3906266873732
 30
0.0
 10
188.4447691673239
 20
111.439780954617
 30
0.0
 10
188.515043828042
 20
111.4817382732207
 30
0.0
 10
188.6330817423656
 20
111.4926979507532
 30
0.0
 10
188.6732579832195
 20
111.4871891925058
 30
0.0
 10
188.7472150778975
 20
111.4616319637169
 30
0.0
 10
188.7798314656089
 20
111.4428519158776
 30
0.0
 10
188.8099960166047
 20
111.4207040673609
 30
0.0
  0
SPLINE
  5
F9
330
1F
100
AcDbEntity
  8
0
  6
Continuous
 62
     7
370
    25
100
AcDbSpline
210
0.0
220
0.0
230
1.0
 70
     8
 71
     3
 72
    16
 73
    12
 74
     0
 42
0.000000001
 43
0.00000001
 40
0.0
 40
0.0
 40
0.0
 40
0.0
 40
0.0625000000000005
 40
0.0625000000000005
 40
0.1250000000000009
 40
0.1250000000000009
 40
0.2499999999999999
 40
0.2499999999999999
 40
0.5000000000000011
 40
0.5000000000000011
 40
1.0
 40
1.0
 40
1.0
 40
1.0
 10
188.8099960165729
 20
111.4207040673063
 30
0.0
 10
188.8216089164123
 20
111.4121774777111
 30
0.0
 10
188.8349601008448
 20
111.4056772161783
 30
0.0
 10
188.8643599404639
 20
111.4041078190608
 30
0.0
 10
188.8792006650192
 20
111.4099912096914
 30
0.0
 10
188.9150338729878
 20
111.4385388457419
 30
0.0
 10
188.9291470808094
 20
111.4667058650477
 30
0.0
 10
188.9636384520283
 20
111.5504601234696
 30
0.0
 10
188.9747225231387
 20
111.6081735370911
 30
0.0
 10
189.0008453409346
 20
111.7817640737369
 30
0.0
 10
189.0049729054795
 20
111.8967921263789
 30
0.0
 10
189.0049729054795
 20
112.0099882924817
 30
0.0
  0
LINE
  5
FA
330
1F
100
AcDbEntity
  8
0
  6
Continuous
 62
     7
370
    25
100
AcDbLine
 10
189.0049729105
 20
127.5279214888
 30
0.0
 11
189.0049729105
 21
112.0099881946
 31
0.0
  0
SPLINE
  5
FB
330
1F
100
AcDbEntity
  8
0
  6
Continuous
 62
     7
370
    25
100
AcDbSpline
210
0.0
220
0.0
230
1.0
 70
     8
 71
     3
 72
    16
 73
    12
 74
     0
 42
0.000000001
 43
0.00000001
 40
0.0
 40
0.0
 40
0.0
 40
0.0
 40
0.5000000000000009
 40
0.5000000000000009
 40
0.7499999999999993
 40
0.7499999999999993
 40
0.874999999999997
 40
0.874999999999997
 40
0.9374999999999986
 40
0.9374999999999986
 40
1.0
 40
1.0
 40
1.0
 40
1.0
 10
189.0049729054795
 20
127.0476954549729
 30
0.0
 10
189.0049729054795
 20
127.0230242989299
 30
0.0
 10
189.0008072070195
 20
126.9954424675387
 30
0.0
 10
188.9745488786946
 20
126.9450995967154
 30
0.0
 10
188.963045096957
 20
126.9268100986534
 30
0.0
 10
188.9289143376105
 20
126.8956550676164
 30
0.0
 10
188.9144924509398
 20
126.8840156924047
 30
0.0
 10
188.8789254825019
 20
126.8671336664736
 30
0.0
 10
188.8639737142073
 20
126.8617445626659
 30
0.0
 10
188.8349698958475
 20
126.8551240667214
 30
0.0
 10
188.8215545418383
 20
126.853771478515
 30
0.0
 10
188.8099960166017
 20
126.8534718546434
 30
0.0
  0
SPLINE
  5
FC
330
1F
100
AcDbEntity
  8
0
  6
Continuous
 62
     7
370
    25
100
AcDbSpline
210
0.0
220
0.0
230
1.0
 70
     8
 71
     3
 72
    12
 73
     8
 74
     0
 42
0.000000001
 43
0.00000001
 40
0.0
 40
0.0
 40
0.0
 40
0.0
 40
0.2500000000000003
 40
0.2500000000000003
 40
0.5000000000000006
 40
0.5000000000000006
 40
1.0
 40
1.0
 40
1.0
 40
1.0
 10
188.8099960166109
 20
126.8534718546452
 30
0.0
 10
188.7798082400613
 20
126.8526893172276
 30
0.0
 10
188.7464544359696
 20
126.8517959854091
 30
0.0
 10
188.6733282327736
 20
126.8498686766054
 30
0.0
 10
188.6330930297495
 20
126.8488291453928
 30
0.0
 10
188.5154013996164
 20
126.8459112620455
 30
0.0
 10
188.4450207264563
 20
126.8443156559753
 30
0.0
 10
188.3884606190257
 20
126.8428946692075
 30
0.0
  0
SPLINE
  5
FD
330
1F
100
AcDbEntity
  8
0
  6
Continuous
 62
     7
370
    25
100
AcDbSpline
210
0.0
220
0.0
230
1.0
 70
     8
 71
     3
 72
    16
 73
    12
 74
     0
 42
0.000000001
 43
0.00000001
 40
0.0
 40
0.0
 40
0.0
 40
0.0
 40
0.2499999999999998
 40
0.2499999999999998
 40
0.3749999999999998
 40
0.3749999999999998
 40
0.4999999999999999
 40
0.4999999999999999
 40
0.7499999999999999
 40
0.7499999999999999
 40
1.0
 40
1.0
 40
1.0
 40
1.0
 10
187.8836525619199
 20
110.1742752954927
 30
0.0
 10
187.7224200844354
 20
109.3618655202458
 30
0.0
 10
187.6019402447958
 20
108.5217872258611
 30
0.0
 10
187.4795597274825
 20
107.2204921764983
 30
0.0
 10
187.448582067085
 20
106.7798111409136
 30
0.0
 10
187.406968329457
 20
105.8839714999824
 30
0.0
 10
187.3967324165242
 20
105.4373133687799
 30
0.0
 10
187.3965440194681
 20
104.10200341164
 30
0.0
 10
187.4366887221057
 20
103.2175080383325
 30
0.0
 10
187.6008424770453
 20
101.4602581503065
 30
0.0
 10
187.7223941274549
 20
100.6144672038933
 30
0.0
 10
187.8836525619199
 20
99.80192663797047
 30
0.0
  0
LINE
  5
FE
330
1F
100
AcDbEntity
  8
0
  6
Continuous
 62
     7
370
    25
100
AcDbLine
 10
187.0049729174
 20
111.4732791021
 30
0.0
 11
187.0049729174
 21
98.5029228314
 31
0.0
  0
LINE
  5
FF
330
1F
100
AcDbEntity
  8
0
  6
Continuous
 62
     7
370
    25
100
AcDbLine
 10
152.7049734419
 20
111.0424115605
 30
0.0
 11
152.7049734419
 21
98.933790373
 31
0.0
  0
LINE
  5
100
330
1F
100
AcDbEntity
  8
0
  6
Continuous
 62
     7
370
    25
100
AcDbLine
 10
151.2049741274
 20
110.6093987174
 30
0.0
 11
151.2049741274
 21
99.3668032161
 31
0.0
  0
LINE
  5
101
330
1F
100
AcDbEntity
  8
0
  6
Continuous
 62
     7
370
    25
100
AcDbLine
 10
187.0049729174
 20
82.9680012821
 30
0.0
 11
187.0049729174
 21
98.5029228314
 31
0.0
  0
ARC
  5
102
330
1F
100
AcDbEntity
  8
0
  6
Continuous
 62
     7
370
    25
100
AcDbCircle
 10
187.2049098164
 20
82.962979071
 30
0.0
 40
0.2000000000000055
100
AcDbArc
 50
88.5608333333
 51
178.5608333333
  0
LINE
  5
103
330
1F
100
AcDbEntity
  8
0
  6
Continuous
 62
     7
370
    25
100
AcDbLine
 10
152.7049734419
 20
83.8297372966
 30
0.0
 11
152.7049734419
 21
98.933790373
 31
0.0
  0
LINE
  5
104
330
1F
100
AcDbEntity
  8
0
  6
Continuous
 62
     7
370
    25
100
AcDbLine
 10
152.7049734419
 20
83.8297372966
 30
0.0
 11
187.0049729174
 21
82.9680012821
 31
0.0
  0
LINE
  5
105
330
1F
100
AcDbEntity
  8
0
  6
Continuous
 62
     7
370
    25
100
AcDbLine
 10
187.0049729174
 20
111.4732791021
 30
0.0
 11
187.0049729174
 21
127.0082006513
 31
0.0
  0
ARC
  5
106
330
1F
100
AcDbEntity
  8
0
  6
Continuous
 62
     7
370
    25
100
AcDbCircle
 10
187.2049098164
 20
127.0132228624
 30
0.0
 40
0.2000000000000055
100
AcDbArc
 50
181.4391666667
 51
271.4391666667
  0
LINE
  5
107
330
1F
100
AcDbEntity
  8
0
  6
Continuous
 62
     7
370
    25
100
AcDbLine
 10
152.7049734419
 20
111.0424115605
 30
0.0
 11
152.7049734419
 21
126.1464646368
 31
0.0
  0
LINE
  5
108
330
1F
100
AcDbEntity
  8
0
  6
Continuous
 62
     7
370
    25
100
AcDbLine
 10
152.7049734419
 20
126.1464646368
 30
0.0
 11
187.0049729174
 21
127.0082006513
 31
0.0
  0
LINE
  5
109
330
1F
100
AcDbEntity
  8
0
  6
Continuous
 62
     7
370
    25
100
AcDbLine
 10
187.2099330345
 20
126.8132860123
 30
0.0
 11
188.3884606346
 21
126.8428946196
 31
0.0
  0
LINE
  5
10A
330
1F
100
AcDbEntity
  8
0
  6
Continuous
 62
     7
370
    25
100
AcDbLine
 10
187.2099330345
 20
83.1629159211
 30
0.0
 11
188.3884606346
 21
83.1333073138
 31
0.0
  0
LINE
  5
10B
330
1F
100
AcDbEntity
  8
0
  6
Continuous
 62
     7
370
    25
100
AcDbLine
 10
151.2049741274
 20
125.2804389506
 30
0.0
 11
152.7049734419
 21
126.1464646368
 31
0.0
  0
LINE
  5
10C
330
1F
100
AcDbEntity
  8
0
  6
Continuous
 62
     7
370
    25
100
AcDbLine
 10
151.2049741274
 20
110.6093987174
 30
0.0
 11
151.2049741274
 21
125.2804389506
 31
0.0
  0
LINE
  5
10D
330
1F
100
AcDbEntity
  8
0
  6
Continuous
 62
     7
370
    25
100
AcDbLine
 10
151.2049741274
 20
84.6957629829
 30
0.0
 11
152.7049734419
 21
83.8297372966
 31
0.0
  0
LINE
  5
10E
330
1F
100
AcDbEntity
  8
0
  6
Continuous
 62
     7
370
    25
100
AcDbLine
 10
151.2049741274
 20
84.6957629829
 30
0.0
 11
151.2049741274
 21
99.3668032161
 31
0.0
  0
ELLIPSE
  5
10F
330
1F
100
AcDbEntity
  8
0
  6
Continuous
 62
     7
370
    25
100
AcDbEllipse
 10
228.8089348334
 20
77.0236641312
 30
0.0
 11
5.984573931208103
 21
8.612441559279757
 31
0.0
210
0.0
220
0.0
230
1.0
 40
0.0499243758
 41
1.499073054357168
 42
2.027681288554226
  0
SPLINE
  5
110
330
1F
100
AcDbEntity
  8
0
  6
Continuous
 62
     7
370
    25
100
AcDbSpline
210
0.0
220
0.0
230
1.0
 70
     8
 71
     3
 72
    12
 73
     8
 74
     0
 42
0.000000001
 43
0.00000001
 40
0.0
 40
0.0
 40
0.0
 40
0.0
 40
0.2500000000000019
 40
0.2500000000000019
 40
0.5000000000000038
 40
0.5000000000000038
 40
1.0
 40
1.0
 40
1.0
 40
1.0
 10
226.4376459175005
 20
136.487537151305
 30
0.0
 10
226.519344284189
 20
136.4877474611061
 30
0.0
 10
226.6002880503953
 20
136.4977540908705
 30
0.0
 10
226.7604116296204
 20
136.5379886070114
 30
0.0
 10
226.8399982868994
 20
136.568753597622
 30
0.0
 10
227.0618798175576
 20
136.6889657263416
 30
0.0
 10
227.1930078877681
 20
136.8096293873731
 30
0.0
 10
227.2859089651931
 20
136.9583583793961
 30
0.0
  0
ELLIPSE
  5
111
330
1F
100
AcDbEntity
  8
0
  6
Continuous
 62
     7
370
    25
100
AcDbEllipse
 10
228.8089348334
 20
137.267398115
 30
0.0
 11
5.999999970218937
 21
-0.01112492796571019
 31
0.0
210
0.0
220
0.0
230
1.0
 40
0.0537357554
 41
4.455842816700423
 42
4.712488614786237
  0
LINE
  5
112
330
1F
100
AcDbEntity
  8
0
  6
Continuous
 62
     7
370
    25
100
AcDbLine
 10
244.1163405007
 20
138.5707734435
 30
0.0
 11
244.0738163119
 21
137.7594201177
 31
0.0
  0
LINE
  5
113
330
1F
100
AcDbEntity
  8
0
  6
Continuous
 62
     7
370
    25
100
AcDbLine
 10
243.5308776027
 20
127.9010298013
 30
0.0
 11
239.9437173432
 21
123.3096728384
 31
0.0
  0
ARC
  5
114
330
1F
100
AcDbEntity
  8
0
  6
Continuous
 62
     7
370
    25
100
AcDbCircle
 10
241.4578632561
 20
122.1266932326
 30
0.0
 40
1.921477780510784
100
AcDbArc
 50
142.0
 51
322.0
  0
LINE
  5
115
330
1F
100
AcDbEntity
  8
0
  6
Continuous
 62
     7
370
    25
100
AcDbLine
 10
242.9720095521
 20
120.9437130301
 30
0.0
 11
243.8491291529
 21
122.0663776904
 31
0.0
  0
LINE
  5
116
330
1F
100
AcDbEntity
  8
0
  6
Continuous
 62
     7
370
    25
100
AcDbLine
 10
253.158864302
 20
133.9396639078
 30
0.0
 11
251.9564896053
 21
110.9969904929
 31
0.0
  0
ELLIPSE
  5
117
330
1F
100
AcDbEntity
  8
0
  6
Continuous
 62
     7
370
    25
100
AcDbEllipse
 10
238.2879009847
 20
147.9433466135
 30
0.0
 11
8.701229093346996
 21
-6.798145223574096
 31
6.300125351965669E-14
210
-4.496068047220588E-15
220
3.512713341089576E-15
230
1.0
 40
0.9961946981
 41
5.375614096142549
 42
5.930719640413142
  0
LINE
  5
118
330
1F
100
AcDbEntity
  8
0
  6
Continuous
 62
     7
370
    25
100
AcDbLine
 10
238.3082850998
 20
136.927421233
 30
0.0
 11
228.8089363998
 21
136.9449822514
 31
0.0
  0
LINE
  5
119
330
1F
100
AcDbEntity
  8
0
  6
Continuous
 62
     7
370
    25
100
AcDbLine
 10
251.9564896053
 20
110.9969904929
 30
0.0
 11
228.8089363998
 21
77.9388556539
 31
0.0
  0
LINE
  5
11A
330
1F
100
AcDbEntity
  8
0
  6
Continuous
 62
     7
370
    25
100
AcDbLine
 10
242.8368820971
 20
121.0492858946
 30
0.0
 11
243.5827932483
 21
122.0040107428
 31
0.0
  0
LINE
  5
11B
330
1F
100
AcDbEntity
  8
0
  6
Continuous
 62
     7
370
    25
100
AcDbLine
 10
240.0788447982
 20
123.204099974
 30
0.0
 11
243.5152313834
 21
127.6024775862
 31
0.0
  0
LINE
  5
11C
330
1F
100
AcDbEntity
  8
0
  6
Continuous
 62
     7
370
    25
100
AcDbLine
 10
244.2835650569
 20
138.4851290195
 30
0.0
 11
244.2591755813
 21
138.0197434037
 31
0.0
  0
ELLIPSE
  5
11D
330
1F
100
AcDbEntity
  8
0
  6
Continuous
 62
     7
370
    25
100
AcDbEllipse
 10
210.7890295437
 20
169.4278196155
 30
0.0
 11
58.83318793296039
 21
-38.91120113156476
 31
0.0
210
0.0
220
0.0
230
1.0
 40
0.1349886662
 41
5.400928712565466
 42
5.40436179740548
  0
ARC
  5
11E
330
1F
100
AcDbEntity
  8
0
  6
Continuous
 62
     7
370
    25
100
AcDbCircle
 10
241.4578632561
 20
122.1266932326
 30
0.0
 40
1.750000000000027
100
AcDbArc
 50
142.0
 51
322.0
  0
ELLIPSE
  5
11F
330
1F
100
AcDbEntity
  8
0
  6
Continuous
 62
     7
370
    25
100
AcDbEllipse
 10
238.5953823389
 20
147.703115851
 30
0.0
 11
8.701229093346969
 21
-6.798145223574125
 31
6.306066779870890E-14
210
-7.284104970732868E-15
220
-4.707141155436555E-17
230
1.0
 40
0.9961946981
 41
5.914429850832384
 42
5.947253393072453
  0
ELLIPSE
  5
120
330
1F
100
AcDbEntity
  8
0
  6
HIDDEN
 62
     7
370
    18
100
AcDbEllipse
 10
247.7810618651
 20
104.9881009667
 30
0.0
 11
22.19801352592566
 21
31.46000549521671
 31
0.0
210
0.0
220
0.0
230
1.0
 40
0.0714855773
 41
2.74494493115828
 42
3.191989788134751
  0
SPLINE
  5
121
330
1F
100
AcDbEntity
  8
0
  6
HIDDEN
 62
     7
370
    18
100
AcDbSpline
210
0.0
220
0.0
230
1.0
 70
     8
 71
     3
 72
    12
 73
     8
 74
     0
 42
0.000000001
 43
0.00000001
 40
0.0
 40
0.0
 40
0.0
 40
0.0
 40
0.4999999999999972
 40
0.4999999999999972
 40
0.7499999999999986
 40
0.7499999999999986
 40
1.0
 40
1.0
 40
1.0
 40
1.0
 10
199.2997170171537
 20
134.8888434268489
 30
0.0
 10
199.3304392590728
 20
134.926145409802
 30
0.0
 10
199.373276473608
 20
134.9627572418483
 30
0.0
 10
199.4727034978078
 20
135.0105220251336
 30
0.0
 10
199.5124556926244
 20
135.0254795406159
 30
0.0
 10
199.6104971494827
 20
135.0486694863851
 30
0.0
 10
199.6700532050701
 20
135.0565929256048
 30
0.0
 10
199.7327297190459
 20
135.0565929256048
 30
0.0
  0
LINE
  5
122
330
1F
100
AcDbEntity
  8
0
  6
HIDDEN
 62
     7
370
    18
100
AcDbLine
 10
199.7327299019
 20
135.0565934836
 30
0.0
 11
202.6772161176
 21
135.0565934836
 31
0.0
  0
SPLINE
  5
123
330
1F
100
AcDbEntity
  8
0
  6
HIDDEN
 62
     7
370
    18
100
AcDbSpline
210
0.0
220
0.0
230
1.0
 70
     8
 71
     3
 72
    12
 73
     8
 74
     0
 42
0.000000001
 43
0.00000001
 40
0.0
 40
0.0
 40
0.0
 40
0.0
 40
0.25
 40
0.25
 40
0.5
 40
0.5
 40
1.0
 40
1.0
 40
1.0
 40
1.0
 10
202.6772160919131
 20
135.0565929256048
 30
0.0
 10
202.7402961304064
 20
135.0565929256048
 30
0.0
 10
202.7994447525878
 20
135.0486869993923
 30
0.0
 10
202.8979173026569
 20
135.0253618379561
 30
0.0
 10
202.9369539146416
 20
135.0106490481244
 30
0.0
 10
203.0368503814207
 20
134.9626932473935
 30
0.0
 10
203.0792712624873
 20
134.9264310908134
 30
0.0
 10
203.1102287938053
 20
134.8888434268489
 30
0.0
  0
ELLIPSE
  5
124
330
1F
100
AcDbEntity
  8
0
  6
HIDDEN
 62
     7
370
    18
100
AcDbEllipse
 10
186.8578187161
 20
104.9881009667
 30
0.0
 11
14.75368316065624
 21
31.09325491558118
 31
0.0
210
0.0
220
0.0
230
1.0
 40
0.3419987131
 41
5.193281737408636
 42
6.12404310455234
  0
SPLINE
  5
125
330
1F
100
AcDbEntity
  8
0
  6
HIDDEN
 62
     7
370
    18
100
AcDbSpline
210
0.0
220
0.0
230
1.0
 70
     8
 71
     3
 72
    12
 73
     8
 74
     0
 42
0.000000001
 43
0.00000001
 40
0.0
 40
0.0
 40
0.0
 40
0.0
 40
0.4999999999999981
 40
0.4999999999999981
 40
0.749999999999999
 40
0.749999999999999
 40
1.0
 40
1.0
 40
1.0
 40
1.0
 10
203.1102287938053
 20
114.8974702874172
 30
0.0
 10
203.0795065518862
 20
114.784914488008
 30
0.0
 10
203.036669337351
 20
114.6721566282684
 30
0.0
 10
202.9372423131512
 20
114.5226157424721
 30
0.0
 10
202.8974901183346
 20
114.4753230107652
 30
0.0
 10
202.7994486614764
 20
114.4015867174438
 30
0.0
 10
202.7398926058889
 20
114.376167398068
 30
0.0
 10
202.6772160919131
 20
114.376167398068
 30
0.0
  0
LINE
  5
126
330
1F
100
AcDbEntity
  8
0
  6
HIDDEN
 62
     7
370
    18
100
AcDbLine
 10
202.6772161176
 20
114.376167795
 30
0.0
 11
199.7327299019
 21
114.376167795
 31
0.0
  0
SPLINE
  5
127
330
1F
100
AcDbEntity
  8
0
  6
HIDDEN
 62
     7
370
    18
100
AcDbSpline
210
0.0
220
0.0
230
1.0
 70
     8
 71
     3
 72
    12
 73
     8
 74
     0
 42
0.000000001
 43
0.00000001
 40
0.0
 40
0.0
 40
0.0
 40
0.0
 40
0.2499999999999994
 40
0.2499999999999994
 40
0.4999999999999989
 40
0.4999999999999989
 40
1.0
 40
1.0
 40
1.0
 40
1.0
 10
199.7327297190459
 20
114.3761673980681
 30
0.0
 10
199.6696496805526
 20
114.3761673980681
 30
0.0
 10
199.6105010583712
 20
114.401531717283
 30
0.0
 10
199.5120285083021
 20
114.4756965776559
 30
0.0
 10
199.4729918963174
 20
114.52221691821
 30
0.0
 10
199.3730954295384
 20
114.6723592610553
 30
0.0
 10
199.3306745484717
 20
114.7840524680274
 30
0.0
 10
199.2997170171537
 20
114.8974702874172
 30
0.0
  0
ELLIPSE
  5
128
330
1F
100
AcDbEntity
  8
0
  6
HIDDEN
 62
     7
370
    18
100
AcDbEllipse
 10
215.5521270948
 20
104.9881009667
 30
0.0
 11
-14.75368316065624
 21
31.09325491558118
 31
0.0
210
0.0
220
0.0
230
1.0
 40
0.3419987131
 41
0.1591422026272869
 42
1.089903569770961
  0
SPLINE
  5
129
330
1F
100
AcDbEntity
  8
0
  6
HIDDEN
 62
     7
370
    18
100
AcDbSpline
210
0.0
220
0.0
230
1.0
 70
     8
 71
     3
 72
    12
 73
     8
 74
     0
 42
0.000000001
 43
0.00000001
 40
0.0
 40
0.0
 40
0.0
 40
0.0
 40
0.4999999999999963
 40
0.4999999999999963
 40
0.7499999999999981
 40
0.7499999999999981
 40
1.0
 40
1.0
 40
1.0
 40
1.0
 10
199.2997170171537
 20
95.07873164604636
 30
0.0
 10
199.3304392590728
 20
95.19128744545554
 30
0.0
 10
199.373276473608
 20
95.30404530519513
 30
0.0
 10
199.4727034978078
 20
95.45358619099147
 30
0.0
 10
199.5124556926244
 20
95.50087892269835
 30
0.0
 10
199.6104971494827
 20
95.5746152160198
 30
0.0
 10
199.6700532050701
 20
95.60003453539551
 30
0.0
 10
199.7327297190459
 20
95.6000345353955
 30
0.0
  0
LINE
  5
12A
330
1F
100
AcDbEntity
  8
0
  6
HIDDEN
 62
     7
370
    18
100
AcDbLine
 10
199.7327299019
 20
95.6000341385
 30
0.0
 11
202.6772161176
 21
95.6000341385
 31
0.0
  0
SPLINE
  5
12B
330
1F
100
AcDbEntity
  8
0
  6
HIDDEN
 62
     7
370
    18
100
AcDbSpline
210
0.0
220
0.0
230
1.0
 70
     8
 71
     3
 72
    12
 73
     8
 74
     0
 42
0.000000001
 43
0.00000001
 40
0.0
 40
0.0
 40
0.0
 40
0.0
 40
0.2500000000000009
 40
0.2500000000000009
 40
0.5000000000000018
 40
0.5000000000000018
 40
1.0
 40
1.0
 40
1.0
 40
1.0
 10
202.6772160919131
 20
95.60003453539551
 30
0.0
 10
202.7402961304064
 20
95.60003453539551
 30
0.0
 10
202.7994447525878
 20
95.57467021618058
 30
0.0
 10
202.8979173026569
 20
95.50050535580765
 30
0.0
 10
202.9369539146416
 20
95.45398501525351
 30
0.0
 10
203.0368503814207
 20
95.30384267240827
 30
0.0
 10
203.0792712624873
 20
95.19214946543612
 30
0.0
 10
203.1102287938053
 20
95.07873164604635
 30
0.0
  0
ELLIPSE
  5
12C
330
1F
100
AcDbEntity
  8
0
  6
HIDDEN
 62
     7
370
    18
100
AcDbEllipse
 10
186.8578187161
 20
104.9881009667
 30
0.0
 11
-14.75368316065612
 21
31.09325491558118
 31
0.0
210
0.0
220
0.0
230
1.0
 40
0.3419987131
 41
3.30073485621713
 42
4.231496223360779
  0
SPLINE
  5
12D
330
1F
100
AcDbEntity
  8
0
  6
HIDDEN
 62
     7
370
    18
100
AcDbSpline
210
0.0
220
0.0
230
1.0
 70
     8
 71
     3
 72
    12
 73
     8
 74
     0
 42
0.000000001
 43
0.00000001
 40
0.0
 40
0.0
 40
0.0
 40
0.0
 40
0.5000000000000028
 40
0.5000000000000028
 40
0.7500000000000013
 40
0.7500000000000013
 40
1.0
 40
1.0
 40
1.0
 40
1.0
 10
203.1102287938053
 20
75.08735850661435
 30
0.0
 10
203.0795065518862
 20
75.05005652366131
 30
0.0
 10
203.036669337351
 20
75.01344469161494
 30
0.0
 10
202.9372423131512
 20
74.96567990832972
 30
0.0
 10
202.8974901183346
 20
74.95072239284737
 30
0.0
 10
202.7994486614764
 20
74.9275324470782
 30
0.0
 10
202.7398926058889
 20
74.9196090078585
 30
0.0
 10
202.6772160919131
 20
74.9196090078585
 30
0.0
  0
LINE
  5
12E
330
1F
100
AcDbEntity
  8
0
  6
HIDDEN
 62
     7
370
    18
100
AcDbLine
 10
202.6772161176
 20
74.9196084499
 30
0.0
 11
199.7327299019
 21
74.9196084499
 31
0.0
  0
SPLINE
  5
12F
330
1F
100
AcDbEntity
  8
0
  6
HIDDEN
 62
     7
370
    18
100
AcDbSpline
210
0.0
220
0.0
230
1.0
 70
     8
 71
     3
 72
    12
 73
     8
 74
     0
 42
0.000000001
 43
0.00000001
 40
0.0
 40
0.0
 40
0.0
 40
0.0
 40
0.2500000000000013
 40
0.2500000000000013
 40
0.5000000000000027
 40
0.5000000000000027
 40
1.0
 40
1.0
 40
1.0
 40
1.0
 10
199.7327297190459
 20
74.91960900785851
 30
0.0
 10
199.6696496805526
 20
74.91960900785851
 30
0.0
 10
199.6105010583712
 20
74.92751493407093
 30
0.0
 10
199.5120285083021
 20
74.95084009550716
 30
0.0
 10
199.4729918963174
 20
74.96555288533887
 30
0.0
 10
199.3730954295384
 20
75.0135086860698
 30
0.0
 10
199.3306745484717
 20
75.04977084264985
 30
0.0
 10
199.2997170171537
 20
75.08735850661435
 30
0.0
  0
ELLIPSE
  5
130
330
1F
100
AcDbEntity
  8
0
  6
HIDDEN
 62
     7
370
    18
100
AcDbEllipse
 10
215.5521270948
 20
104.9881009667
 30
0.0
 11
14.75368316065612
 21
31.09325491558116
 31
0.0
210
0.0
220
0.0
230
1.0
 40
0.3419987131
 41
2.05168908381882
 42
2.982450450962498
  0
SPLINE
  5
131
330
1F
100
AcDbEntity
  8
0
  6
HIDDEN
 62
     7
370
    18
100
AcDbSpline
210
0.0
220
0.0
230
1.0
 70
    11
 71
     3
 72
    60
 73
    56
 74
     0
 42
0.000000001
 43
0.00000001
 40
0.0
 40
0.0
 40
0.0
 40
0.0
 40
0.0312500000000002
 40
0.0312500000000002
 40
0.0625000000000005
 40
0.0625000000000005
 40
0.0937500000000007
 40
0.0937500000000007
 40
0.1250000000000009
 40
0.1250000000000009
 40
0.1875000000000011
 40
0.1875000000000011
 40
0.2500000000000012
 40
0.2500000000000012
 40
0.2812500000000011
 40
0.2812500000000011
 40
0.3125000000000009
 40
0.3125000000000009
 40
0.3437500000000008
 40
0.3437500000000008
 40
0.3750000000000007
 40
0.3750000000000007
 40
0.4062500000000007
 40
0.4062500000000007
 40
0.4375000000000006
 40
0.4375000000000006
 40
0.4687500000000004
 40
0.4687500000000004
 40
0.5000000000000003
 40
0.5000000000000003
 40
0.5625000000000001
 40
0.5625000000000001
 40
0.6249999999999999
 40
0.6249999999999999
 40
0.6562499999999999
 40
0.6562499999999999
 40
0.6874999999999999
 40
0.6874999999999999
 40
0.7187499999999999
 40
0.7187499999999999
 40
0.7499999999999999
 40
0.7499999999999999
 40
0.78125
 40
0.78125
 40
0.8125
 40
0.8125
 40
0.84375
 40
0.84375
 40
0.875
 40
0.875
 40
0.90625
 40
0.90625
 40
0.9375
 40
0.9375
 40
1.0
 40
1.0
 40
1.0
 40
1.0
 10
203.2049729054796
 20
104.9881009667316
 30
0.0
 10
203.2049729054795
 20
105.1202662292749
 30
0.0
 10
203.1920010469907
 20
105.2502162902791
 30
0.0
 10
203.1411808772983
 20
105.5058692236392
 30
0.0
 10
203.1027135538314
 20
105.6328987301885
 30
0.0
 10
203.0023153177593
 20
105.875086861313
 30
0.0
 10
202.9408822867861
 20
105.9899483538659
 30
0.0
 10
202.7957474552412
 20
106.20732854969
 30
0.0
 10
202.7112923378333
 20
106.3102261168886
 30
0.0
 10
202.434572887475
 20
106.5868931558964
 30
0.0
 10
202.211495995557
 20
106.7358912463764
 30
0.0
 10
201.7302126333367
 20
106.9354023868411
 30
0.0
 10
201.4669822143456
 20
106.9879604898378
 30
0.0
 10
201.0755800126577
 20
106.9881707722159
 30
0.0
 10
200.9430569845488
 20
106.9751850014887
 30
0.0
 10
200.6865265313078
 20
106.9241578532749
 30
0.0
 10
200.5618396970112
 20
106.8864026541245
 30
0.0
 10
200.3196604347756
 20
106.7862643212158
 30
0.0
 10
200.2025669026256
 20
106.7236586538042
 30
0.0
 10
199.9858518992702
 20
106.5789253605393
 30
0.0
 10
199.8848330724074
 20
106.4962980132597
 30
0.0
 10
199.6980481849553
 20
106.3096929600081
 30
0.0
 10
199.6151913037591
 20
106.208577896132
 30
0.0
 10
199.4703070386853
 20
105.9920450921421
 30
0.0
 10
199.4076695308643
 20
105.875174884541
 30
0.0
 10
199.3072207074646
 20
105.6328770138908
 30
0.0
 10
199.2693696064473
 20
105.5082130154299
 30
0.0
 10
199.218148041191
 20
105.251925971366
 30
0.0
 10
199.2050199145738
 20
105.1193539756204
 30
0.0
 10
199.2048792742335
 20
104.7277497828464
 30
0.0
 10
199.2572040236053
 20
104.4645844515225
 30
0.0
 10
199.4563150856626
 20
103.9830790823493
 30
0.0
 10
199.6051774221199
 20
103.7598275428652
 30
0.0
 10
199.8814983814454
 20
103.4829712439764
 30
0.0
 10
199.984262029819
 20
103.3984577971327
 30
0.0
 10
200.2016455871984
 20
103.2530405236924
 30
0.0
 10
200.3164443551548
 20
103.191529324634
 30
0.0
 10
200.5583210785788
 20
103.0909994763792
 30
0.0
 10
200.6854746865791
 20
103.0523544531612
 30
0.0
 10
200.9411406960117
 20
103.0012981256102
 30
0.0
 10
201.0710067337677
 20
102.9882332670646
 30
0.0
 10
201.3349592604993
 20
102.9879706462666
 30
0.0
 10
201.4653635839234
 20
103.0008476465107
 30
0.0
 10
201.7210143473027
 20
103.0514336503165
 30
0.0
 10
201.8478798964171
 20
103.0897100149383
 30
0.0
 10
202.090400354363
 20
103.1899808824184
 30
0.0
 10
202.2053269930233
 20
103.2513369065592
 30
0.0
 10
202.4226984618553
 20
103.396183201732
 30
0.0
 10
202.5257122745175
 20
103.4805607162267
 30
0.0
 10
202.7104128200995
 20
103.6649680364149
 30
0.0
 10
202.7932425543561
 20
103.7655410996844
 30
0.0
 10
202.9394949929536
 20
103.9837672402634
 30
0.0
 10
203.001863473746
 20
104.1003223501846
 30
0.0
 10
203.1518196253127
 20
104.4611719442184
 30
0.0
 10
203.2049729054795
 20
104.7237704416449
 30
0.0
 10
203.2049729054795
 20
104.9881009667316
 30
0.0
  0
LINE
  5
132
330
1F
100
AcDbEntity
  8
0
  6
HIDDEN
 62
     7
370
    18
100
AcDbLine
 10
189.2049729055
 20
73.9881014734
 30
0.0
 11
189.2049729055
 21
135.9881004601
 31
0.0
  0
LWPOLYLINE
  5
133
330
1F
100
AcDbEntity
  8
0
  6
HIDDEN
 62
     7
370
    18
100
AcDbPolyline
 90
       29
 70
   128
 43
0.0
 10
210.2049726224
 20
119.8361767738
 10
210.8725353306
 20
119.7710382103
 10
211.5066244429
 20
119.5788868054
 10
212.0754427439
 20
119.2693589538
 10
212.5504675483
 20
118.8579751461
 10
212.9078793501
 20
118.3653641774
 10
213.1297557777
 20
117.8162275165
 10
213.2049731141
 20
117.2381006464
 10
213.1297557777
 20
116.6599747076
 10
212.9078793501
 20
116.1108380466
 10
212.5504675483
 20
115.6182270779
 10
212.0754427439
 20
115.2068432703
 10
211.5066244429
 20
114.8973154186
 10
210.8725353306
 20
114.7051640137
 10
210.2049726224
 20
114.6400245189
 10
209.5374099141
 20
114.7051640137
 10
208.9033208018
 20
114.8973154186
 10
208.3345043635
 20
115.2068432703
 10
207.8594776964
 20
115.6182270779
 10
207.5020658946
 20
116.1108380466
 10
207.280189467
 20
116.6599747076
 10
207.2049721306
 20
117.2381006464
 10
207.280189467
 20
117.8162275165
 10
207.5020658946
 20
118.3653641774
 10
207.8594776964
 20
118.8579751461
 10
208.3345043635
 20
119.2693589538
 10
208.9033208018
 20
119.5788868054
 10
209.5374099141
 20
119.7710382103
 10
210.2049726224
 20
119.8361767738
  0
LINE
  5
134
330
1F
100
AcDbEntity
  8
0
  6
HIDDEN
 62
     7
370
    18
100
AcDbLine
 10
189.2049729055
 20
80.7381002515
 30
0.0
 11
189.2049729055
 21
129.2198645233
 31
0.0
  0
SPLINE
  5
135
330
1F
100
AcDbEntity
  8
0
  6
HIDDEN
 62
     7
370
    18
100
AcDbSpline
210
0.0
220
0.0
230
1.0
 70
     8
 71
     3
 72
    12
 73
     8
 74
     0
 42
0.000000001
 43
0.00000001
 40
0.0
 40
0.0
 40
0.0
 40
0.0
 40
0.5000000000000004
 40
0.5000000000000004
 40
0.7500000000000002
 40
0.7500000000000002
 40
1.0
 40
1.0
 40
1.0
 40
1.0
 10
188.3884606190325
 20
120.4403689485625
 30
0.0
 10
188.4448667977127
 20
120.3925465749026
 30
0.0
 10
188.5150296991845
 20
120.3522757279641
 30
0.0
 10
188.6330404125737
 20
120.3442298594871
 30
0.0
 10
188.6732461961691
 20
120.350792457826
 30
0.0
 10
188.7469668929022
 20
120.3781745522796
 30
0.0
 10
188.7798276146887
 20
120.3979360428099
 30
0.0
 10
188.809996016618
 20
120.420868753998
 30
0.0
  0
SPLINE
  5
136
330
1F
100
AcDbEntity
  8
0
  6
HIDDEN
 62
     7
370
    18
100
AcDbSpline
210
0.0
220
0.0
230
1.0
 70
     8
 71
     3
 72
    16
 73
    12
 74
     0
 42
0.000000001
 43
0.00000001
 40
0.0
 40
0.0
 40
0.0
 40
0.0
 40
0.0625000000000012
 40
0.0625000000000012
 40
0.1250000000000024
 40
0.1250000000000024
 40
0.2500000000000066
 40
0.2500000000000066
 40
0.5000000000000043
 40
0.5000000000000043
 40
1.0
 40
1.0
 40
1.0
 40
1.0
 10
188.8099960165729
 20
120.4208687540461
 30
0.0
 10
188.8216089164122
 20
120.4296963770275
 30
0.0
 10
188.8349601008447
 20
120.4375307589094
 30
0.0
 10
188.8643599404639
 20
120.4458408849818
 30
0.0
 10
188.8792006650191
 20
120.4453450657467
 30
0.0
 10
188.9150338729877
 20
120.4338940947774
 30
0.0
 10
188.9291470808093
 20
120.4172135939187
 30
0.0
 10
188.9636384520282
 20
120.3650929081617
 30
0.0
 10
188.9747225231386
 20
120.3253034141367
 30
0.0
 10
189.0008453409346
 20
120.2019667820396
 30
0.0
 10
189.0049729054795
 20
120.114545371541
 30
0.0
 10
189.0049729054795
 20
120.0258081292227
 30
0.0
  0
LINE
  5
137
330
1F
100
AcDbEntity
  8
0
  6
HIDDEN
 62
     7
370
    18
100
AcDbLine
 10
189.0049729105
 20
89.9503939136
 30
0.0
 11
189.0049729105
 21
120.0258080199
 31
0.0
  0
SPLINE
  5
138
330
1F
100
AcDbEntity
  8
0
  6
HIDDEN
 62
     7
370
    18
100
AcDbSpline
210
0.0
220
0.0
230
1.0
 70
     8
 71
     3
 72
    16
 73
    12
 74
     0
 42
0.000000001
 43
0.00000001
 40
0.0
 40
0.0
 40
0.0
 40
0.0
 40
0.4999999999999977
 40
0.4999999999999977
 40
0.7499999999999938
 40
0.7499999999999938
 40
0.874999999999997
 40
0.874999999999997
 40
0.9374999999999986
 40
0.9374999999999986
 40
1.0
 40
1.0
 40
1.0
 40
1.0
 10
189.0049729054795
 20
89.95039380424039
 30
0.0
 10
189.0049729054795
 20
89.86126743905166
 30
0.0
 10
189.0008266304016
 20
89.77440607143825
 30
0.0
 10
188.974861035008
 20
89.6514238249442
 30
0.0
 10
188.9634001296306
 20
89.61065252971294
 30
0.0
 10
188.9290883918562
 20
89.5589482097132
 30
0.0
 10
188.9150636559266
 20
89.54227784312278
 30
0.0
 10
188.8790406928928
 20
89.53082562266606
 30
0.0
 10
188.8642861838031
 20
89.53037257639104
 30
0.0
 10
188.8349340226563
 20
89.5386878976072
 30
0.0
 10
188.8215941481522
 20
89.54651678268549
 30
0.0
 10
188.8099960166039
 20
89.55533317944811
 30
0.0
  0
SPLINE
  5
139
330
1F
100
AcDbEntity
  8
0
  6
HIDDEN
 62
     7
370
    18
100
AcDbSpline
210
0.0
220
0.0
230
1.0
 70
     8
 71
     3
 72
    12
 73
     8
 74
     0
 42
0.000000001
 43
0.00000001
 40
0.0
 40
0.0
 40
0.0
 40
0.0
 40
0.2500000000000002
 40
0.2500000000000002
 40
0.5000000000000001
 40
0.5000000000000001
 40
1.0
 40
1.0
 40
1.0
 40
1.0
 10
188.8099960166109
 20
89.55533317945701
 30
0.0
 10
188.7798041748937
 20
89.57828370855482
 30
0.0
 10
188.7464452054791
 20
89.59825318257901
 30
0.0
 10
188.6733079208985
 20
89.62535431620451
 30
0.0
 10
188.6330660482445
 20
89.63195505684993
 30
0.0
 10
188.515360271276
 20
89.62398618234322
 30
0.0
 10
188.4449497934966
 20
89.58372572417535
 30
0.0
 10
188.3884606190283
 20
89.5358329848972
 30
0.0
  0
SPLINE
  5
13A
330
1F
100
AcDbEntity
  8
0
  6
HIDDEN
 62
     7
370
    18
100
AcDbSpline
210
0.0
220
0.0
230
1.0
 70
     8
 71
     3
 72
    12
 73
     8
 74
     0
 42
0.000000001
 43
0.00000001
 40
0.0
 40
0.0
 40
0.0
 40
0.0
 40
0.2500000000000005
 40
0.2500000000000005
 40
0.4999999999999984
 40
0.4999999999999984
 40
1.0
 40
1.0
 40
1.0
 40
1.0
 10
188.388460619028
 20
89.5358329848974
 30
0.0
 10
188.3003066812902
 20
89.46109417704331
 30
0.0
 10
188.2399532566615
 20
89.37011367656092
 30
0.0
 10
188.1336912985947
 20
89.18119985380832
 30
0.0
 10
188.0914591320326
 20
89.08469539426775
 30
0.0
 10
187.9803884367154
 20
88.7939276401006
 30
0.0
 10
187.9274516602887
 20
88.59826082555688
 30
0.0
 10
187.8836525619199
 20
88.40419434049056
 30
0.0
  0
SPLINE
  5
13B
330
1F
100
AcDbEntity
  8
0
  6
HIDDEN
 62
     7
370
    18
100
AcDbSpline
210
0.0
220
0.0
230
1.0
 70
     8
 71
     3
 72
    12
 73
     8
 74
     0
 42
0.000000001
 43
0.00000001
 40
0.0
 40
0.0
 40
0.0
 40
0.0
 40
0.4999999999999992
 40
0.4999999999999992
 40
0.7499999999999997
 40
0.7499999999999997
 40
1.0
 40
1.0
 40
1.0
 40
1.0
 10
187.8836525619199
 20
83.21802001172945
 30
0.0
 10
187.9273991027565
 20
83.19142584108828
 30
0.0
 10
187.980283457988
 20
83.17166561576256
 30
0.0
 10
188.0918505453241
 20
83.15121462553347
 30
0.0
 10
188.1344341418671
 20
83.14595440087703
 30
0.0
 10
188.2393508689489
 20
83.13807160695438
 30
0.0
 10
188.3008844767937
 20
83.13550748177522
 30
0.0
 10
188.3884606190198
 20
83.13330726425559
 30
0.0
  0
LINE
  5
13C
330
1F
100
AcDbEntity
  8
0
  6
HIDDEN
 62
     7
370
    18
100
AcDbLine
 10
189.0049729105
 20
82.4482804447
 30
0.0
 11
189.0049729105
 21
82.9285057544
 31
0.0
  0
LINE
  5
13D
330
1F
100
AcDbEntity
  8
0
  6
HIDDEN
 62
     7
370
    18
100
AcDbLine
 10
189.0049729105
 20
127.0476961791
 30
0.0
 11
189.0049729105
 21
127.5279214888
 31
0.0
  0
SPLINE
  5
13E
330
1F
100
AcDbEntity
  8
0
  6
HIDDEN
 62
     7
370
    18
100
AcDbSpline
210
0.0
220
0.0
230
1.0
 70
     8
 71
     3
 72
    12
 73
     8
 74
     0
 42
0.000000001
 43
0.00000001
 40
0.0
 40
0.0
 40
0.0
 40
0.0
 40
0.2500000000000004
 40
0.2500000000000004
 40
0.5000000000000008
 40
0.5000000000000008
 40
1.0
 40
1.0
 40
1.0
 40
1.0
 10
188.3884606190278
 20
126.8428946692075
 30
0.0
 10
188.2997759591714
 20
126.8406666018665
 30
0.0
 10
188.239857543448
 20
126.8381648178362
 30
0.0
 10
188.1341983161273
 20
126.8302333820001
 30
0.0
 10
188.0915570780124
 20
126.8249412271033
 30
0.0
 10
187.9803677359098
 20
126.8045362866162
 30
0.0
 10
187.9274410537889
 20
126.7848015950293
 30
0.0
 10
187.8836525619199
 20
126.7581819217337
 30
0.0
  0
SPLINE
  5
13F
330
1F
100
AcDbEntity
  8
0
  6
HIDDEN
 62
     7
370
    18
100
AcDbSpline
210
0.0
220
0.0
230
1.0
 70
     8
 71
     3
 72
    12
 73
     8
 74
     0
 42
0.000000001
 43
0.00000001
 40
0.0
 40
0.0
 40
0.0
 40
0.0
 40
0.5
 40
0.5
 40
0.75
 40
0.75
 40
1.0
 40
1.0
 40
1.0
 40
1.0
 10
187.8836525619183
 20
121.5720075929728
 30
0.0
 10
187.9274140382171
 20
121.3781078050107
 30
0.0
 10
187.9803203538701
 20
121.1822514410739
 30
0.0
 10
188.0920315515174
 20
120.8901092945749
 30
0.0
 10
188.1345509951038
 20
120.793391357877
 30
0.0
 10
188.2396743376712
 20
120.6066669214525
 30
0.0
 10
188.3012403013889
 20
120.5143162131828
 30
0.0
 10
188.3884606190316
 20
120.4403689485631
 30
0.0
  0
LWPOLYLINE
  5
140
330
1F
100
AcDbEntity
  8
0
  6
HIDDEN
 62
     7
370
    18
100
AcDbPolyline
 90
       27
 70
   128
 43
0.0
 10
210.2049726224
 20
119.25294905
 10
210.8032616949
 20
119.1900363474
 10
211.3667807704
 20
119.0049546122
 10
211.8627789592
 20
118.7084587573
 10
212.2624318277
 20
118.3177819758
 10
212.5425140535
 20
117.8556280493
 10
212.6867442554
 20
117.3488553896
 10
212.6867442554
 20
116.8269161417
 10
212.5425140535
 20
116.320143482
 10
212.2624318277
 20
115.8579895555
 10
211.8627789592
 20
115.467312774
 10
211.3667807704
 20
115.1708169191
 10
210.8032616949
 20
114.9857351839
 10
210.2049726224
 20
114.9228224813
 10
209.6066835498
 20
114.9857351839
 10
209.0431644743
 20
115.1708169191
 10
208.5471662855
 20
115.467312774
 10
208.147513417
 20
115.8579895555
 10
207.8674330538
 20
116.320143482
 10
207.7232009893
 20
116.8269161417
 10
207.7232009893
 20
117.3488553896
 10
207.8674330538
 20
117.8556280493
 10
208.147513417
 20
118.3177819758
 10
208.5471662855
 20
118.7084587573
 10
209.0431644743
 20
119.0049546122
 10
209.6066835498
 20
119.1900363474
 10
210.2049726224
 20
119.25294905
  0
SPLINE
  5
141
330
1F
100
AcDbEntity
  8
0
  6
HIDDEN
 62
     7
370
    18
100
AcDbSpline
210
0.0
220
0.0
230
1.0
 70
     8
 71
     3
 72
    12
 73
     8
 74
     0
 42
0.000000001
 43
0.00000001
 40
0.0
 40
0.0
 40
0.0
 40
0.0
 40
0.5000000000000017
 40
0.5000000000000017
 40
0.7500000000000008
 40
0.7500000000000008
 40
1.0
 40
1.0
 40
1.0
 40
1.0
 10
212.0998349225964
 20
113.4084376241636
 30
0.0
 10
212.0404900015755
 20
113.1377527344031
 30
0.0
 10
212.005786376387
 20
112.8940005913935
 30
0.0
 10
212.037837676985
 20
112.5949205032184
 30
0.0
 10
212.0619147196153
 20
112.5083108146644
 30
0.0
 10
212.1276193109114
 20
112.3614279405862
 30
0.0
 10
212.1690241415774
 20
112.3003411088577
 30
0.0
 10
212.2136826227263
 20
112.2492091976692
 30
0.0
  0
SPLINE
  5
142
330
1F
100
AcDbEntity
  8
0
  6
HIDDEN
 62
     7
370
    18
100
AcDbSpline
210
0.0
220
0.0
230
1.0
 70
     8
 71
     3
 72
    62
 73
    58
 74
     0
 42
0.000000001
 43
0.00000001
 40
0.0
 40
0.0
 40
0.0
 40
0.0
 40
0.0312499999999999
 40
0.0312499999999999
 40
0.0624999999999998
 40
0.0624999999999998
 40
0.0937499999999997
 40
0.0937499999999997
 40
0.1249999999999996
 40
0.1249999999999996
 40
0.1562499999999995
 40
0.1562499999999995
 40
0.1874999999999994
 40
0.1874999999999994
 40
0.2187499999999993
 40
0.2187499999999993
 40
0.2499999999999992
 40
0.2499999999999992
 40
0.312499999999999
 40
0.312499999999999
 40
0.3437499999999991
 40
0.3437499999999991
 40
0.3749999999999992
 40
0.3749999999999992
 40
0.4374999999999995
 40
0.4374999999999995
 40
0.4687499999999996
 40
0.4687499999999996
 40
0.4843749999999995
 40
0.4843749999999995
 40
0.4999999999999993
 40
0.4999999999999993
 40
0.5312499999999992
 40
0.5312499999999992
 40
0.5624999999999991
 40
0.5624999999999991
 40
0.6249999999999996
 40
0.6249999999999996
 40
0.6562499999999997
 40
0.6562499999999997
 40
0.6874999999999997
 40
0.6874999999999997
 40
0.7187499999999997
 40
0.7187499999999997
 40
0.7499999999999997
 40
0.7499999999999997
 40
0.7812499999999997
 40
0.7812499999999997
 40
0.8124999999999997
 40
0.8124999999999997
 40
0.8749999999999997
 40
0.8749999999999997
 40
0.9374999999999998
 40
0.9374999999999998
 40
0.9687499999999999
 40
0.9687499999999999
 40
1.0
 40
1.0
 40
1.0
 40
1.0
 10
212.2136826227265
 20
112.2492091976693
 30
0.0
 10
212.3068077464293
 20
112.3377834532026
 30
0.0
 10
212.3830407293927
 20
112.4192524602043
 30
0.0
 10
212.5114539234044
 20
112.5818985108188
 30
0.0
 10
212.5636168930047
 20
112.6632957027452
 30
0.0
 10
212.6443620144335
 20
112.8312771156794
 30
0.0
 10
212.6725628157508
 20
112.9167994921987
 30
0.0
 10
212.7051221001628
 20
113.0959242947897
 30
0.0
 10
212.7093385047706
 20
113.1903753556705
 30
0.0
 10
212.6911372834178
 20
113.3867983623488
 30
0.0
 10
212.669022323609
 20
113.4884307334102
 30
0.0
 10
212.5958197658956
 20
113.7016243817769
 30
0.0
 10
212.5442024581913
 20
113.813406595762
 30
0.0
 10
212.413623886167
 20
114.0383953491982
 30
0.0
 10
212.3328310775757
 20
114.1546360786092
 30
0.0
 10
212.1478416763829
 20
114.3832689383554
 30
0.0
 10
212.0444965774474
 20
114.4951827887527
 30
0.0
 10
211.7034166617097
 20
114.8254418547893
 30
0.0
 10
211.445602503564
 20
115.0262612214831
 30
0.0
 10
211.0640246230164
 20
115.2861085693112
 30
0.0
 10
210.936427427308
 20
115.3668546127184
 30
0.0
 10
210.6883187852863
 20
115.5164549661925
 30
0.0
 10
210.5687742395393
 20
115.5847640506198
 30
0.0
 10
210.2258895904908
 20
115.7779885208624
 30
0.0
 10
210.013424770923
 20
115.8896638148602
 30
0.0
 10
209.7838360813527
 20
116.0713788282586
 30
0.0
 10
209.722799801498
 20
116.1357430769714
 30
0.0
 10
209.6736441505802
 20
116.2437581456098
 30
0.0
 10
209.6642081173608
 20
116.2823312718952
 30
0.0
 10
209.6611507810248
 20
116.3615124858597
 30
0.0
 10
209.6672597161549
 20
116.4022933391029
 30
0.0
 10
209.7062871502299
 20
116.5274537361893
 30
0.0
 10
209.7598030440321
 20
116.6134266360644
 30
0.0
 10
209.8959889392428
 20
116.7746467599233
 30
0.0
 10
209.9800331099547
 20
116.8518214594488
 30
0.0
 10
210.2552804546933
 20
117.0590224007629
 30
0.0
 10
210.4706297188536
 20
117.1681901249895
 30
0.0
 10
210.8221095702027
 20
117.2652584747471
 30
0.0
 10
210.9421158815462
 20
117.2857255693584
 30
0.0
 10
211.1867627311307
 20
117.2984932535534
 30
0.0
 10
211.3129104908765
 20
117.2904925652686
 30
0.0
 10
211.5612072408065
 20
117.2397102064344
 30
0.0
 10
211.6830594182716
 20
117.1974680757223
 30
0.0
 10
211.9200754363411
 20
117.0724229405552
 30
0.0
 10
212.0310940397386
 20
116.9914328323827
 30
0.0
 10
212.2322828651369
 20
116.7943320246147
 30
0.0
 10
212.3237182525892
 20
116.6759710968758
 30
0.0
 10
212.4750639194236
 20
116.4177067404386
 30
0.0
 10
212.5371901148554
 20
116.2747672684433
 30
0.0
 10
212.6783095594245
 20
115.828424909145
 30
0.0
 10
212.7138248355774
 20
115.5056353239127
 30
0.0
 10
212.6924160894052
 20
114.8726992206411
 30
0.0
 10
212.6361200331792
 20
114.5538360931373
 30
0.0
 10
212.489791793739
 20
114.1016810755298
 30
0.0
 10
212.4305335066247
 20
113.9543541048877
 30
0.0
 10
212.2850342468984
 20
113.6679997596927
 30
0.0
 10
212.2006881070046
 20
113.5324809266554
 30
0.0
 10
212.0998349225963
 20
113.4084376241637
 30
0.0
  0
SPLINE
  5
143
330
1F
100
AcDbEntity
  8
0
  6
HIDDEN
 62
     7
370
    18
100
AcDbSpline
210
0.0
220
0.0
230
1.0
 70
    11
 71
     3
 72
    62
 73
    58
 74
     0
 42
0.000000001
 43
0.00000001
 40
0.0
 40
0.0
 40
0.0
 40
0.0
 40
0.0312500000000005
 40
0.0312500000000005
 40
0.0625000000000009
 40
0.0625000000000009
 40
0.0937500000000014
 40
0.0937500000000014
 40
0.1250000000000019
 40
0.1250000000000019
 40
0.1875000000000024
 40
0.1875000000000024
 40
0.2187500000000027
 40
0.2187500000000027
 40
0.250000000000003
 40
0.250000000000003
 40
0.2812500000000033
 40
0.2812500000000033
 40
0.3125000000000036
 40
0.3125000000000036
 40
0.3750000000000042
 40
0.3750000000000042
 40
0.4062500000000044
 40
0.4062500000000044
 40
0.4375000000000047
 40
0.4375000000000047
 40
0.4687500000000049
 40
0.4687500000000049
 40
0.5000000000000052
 40
0.5000000000000052
 40
0.562500000000005
 40
0.562500000000005
 40
0.5937500000000047
 40
0.5937500000000047
 40
0.6250000000000042
 40
0.6250000000000042
 40
0.6562500000000038
 40
0.6562500000000038
 40
0.6875000000000033
 40
0.6875000000000033
 40
0.718750000000003
 40
0.718750000000003
 40
0.7500000000000026
 40
0.7500000000000026
 40
0.7812500000000021
 40
0.7812500000000021
 40
0.8125000000000017
 40
0.8125000000000017
 40
0.8750000000000008
 40
0.8750000000000008
 40
0.9062500000000006
 40
0.9062500000000006
 40
0.9375000000000003
 40
0.9375000000000003
 40
0.9687500000000002
 40
0.9687500000000002
 40
1.0
 40
1.0
 40
1.0
 40
1.0
 10
210.2049729054797
 20
111.4760685926403
 30
0.0
 10
210.0389290865435
 20
111.4760685926403
 30
0.0
 10
209.8758323559664
 20
111.4642774519683
 30
0.0
 10
209.555236051058
 20
111.4179088082326
 30
0.0
 10
209.3960338477515
 20
111.382724145532
 30
0.0
 10
209.0937233460374
 20
111.2905122950942
 30
0.0
 10
208.950471771793
 20
111.2338248429706
 30
0.0
 10
208.6793609307258
 20
111.0982770536438
 30
0.0
 10
208.551678935597
 20
111.0190640998189
 30
0.0
 10
208.2076788473818
 20
110.755544788219
 30
0.0
 10
208.0216772187975
 20
110.5380237085499
 30
0.0
 10
207.8341907056158
 20
110.1718412052579
 30
0.0
 10
207.7857187608637
 20
110.0411740066419
 30
0.0
 10
207.72115678145
 20
109.770170866072
 30
0.0
 10
207.70507828123
 20
109.6314678711255
 30
0.0
 10
207.7048685523164
 20
109.3475032889076
 30
0.0
 10
207.7213000997273
 20
109.2009336799558
 30
0.0
 10
207.7854687898796
 20
108.9139185005345
 30
0.0
 10
207.8329377526711
 20
108.7721706371641
 30
0.0
 10
208.0220612366253
 20
108.3531796346334
 30
0.0
 10
208.2062011289914
 20
108.0926677278173
 30
0.0
 10
208.5529367127954
 20
107.7577113162281
 30
0.0
 10
208.6782536689471
 20
107.6571591201019
 30
0.0
 10
208.9483131717471
 20
107.4789770604134
 30
0.0
 10
209.0946865476282
 20
107.4008866153391
 30
0.0
 10
209.3961044506818
 20
107.2757572543552
 30
0.0
 10
209.5519566121208
 20
107.2278294889182
 30
0.0
 10
209.8742996734371
 20
107.1626599451511
 30
0.0
 10
210.0402511405067
 20
107.1460133389599
 30
0.0
 10
210.5311725080578
 20
107.1457987522112
 30
0.0
 10
210.8616554951606
 20
107.2128227273233
 30
0.0
 10
211.3135649927591
 20
107.4000626060809
 30
0.0
 10
211.4598622101384
 20
107.4779308987267
 30
0.0
 10
211.7307457726948
 20
107.6564139875926
 30
0.0
 10
211.8561022948527
 20
107.7569666427434
 30
0.0
 10
212.0868799363418
 20
107.9796429859975
 30
0.0
 10
212.1916678164119
 20
108.1016925034733
 30
0.0
 10
212.372331440594
 20
108.3563512980958
 30
0.0
 10
212.4495199377893
 20
108.4901298346556
 30
0.0
 10
212.5763833420805
 20
108.770392005417
 30
0.0
 10
212.6240446960129
 20
108.9125801567366
 30
0.0
 10
212.6882750630755
 20
109.1986878785883
 30
0.0
 10
212.7049082769546
 20
109.3444925208398
 30
0.0
 10
212.705037151966
 20
109.6300166424932
 30
0.0
 10
212.6889561728372
 20
109.7687762241463
 30
0.0
 10
212.6249887603687
 20
110.0386597573551
 30
0.0
 10
212.5764247101251
 20
110.170308670692
 30
0.0
 10
212.3886938680825
 20
110.5376393855976
 30
0.0
 10
212.2027480305869
 20
110.7550421391074
 30
0.0
 10
211.8589728084825
 20
111.0185901124699
 30
0.0
 10
211.731797504115
 20
111.0976000689111
 30
0.0
 10
211.4601550948403
 20
111.23355455011
 30
0.0
 10
211.3169959238932
 20
111.2901971898923
 30
0.0
 10
211.0158689813554
 20
111.3822056760145
 30
0.0
 10
210.8563527526638
 20
111.4176207522345
 30
0.0
 10
210.5344868604321
 20
111.4642735563602
 30
0.0
 10
210.3710167244158
 20
111.4760685926403
 30
0.0
 10
210.2049729054797
 20
111.4760685926403
 30
0.0
  0
LINE
  5
144
330
1F
100
AcDbEntity
  8
0
  6
HIDDEN
 62
     7
370
    18
100
AcDbLine
 10
189.0049729105
 20
82.9285057544
 30
0.0
 11
189.0049729105
 21
97.9662137388
 31
0.0
  0
LINE
  5
145
330
1F
100
AcDbEntity
  8
0
  6
HIDDEN
 62
     7
370
    18
100
AcDbLine
 10
189.0049729105
 20
112.0099881946
 30
0.0
 11
189.0049729105
 21
127.0476961791
 31
0.0
  0
LWPOLYLINE
  5
146
330
1F
100
AcDbEntity
  8
0
  6
HIDDEN
 62
     7
370
    18
100
AcDbPolyline
 90
        9
 70
   128
 43
0.0
 10
212.0998340821
 20
113.4084379583
 10
212.215698061
 20
113.1731039195
 10
212.3044139868
 20
112.9569011091
 10
212.3643706715
 20
112.7637676246
 10
212.3944728797
 20
112.5972201399
 10
212.3941748565
 20
112.460292904
 10
212.3634803271
 20
112.3554790675
 10
212.302948085
 20
112.2846878416
 10
212.2136826789
 20
112.2492091081
  0
CIRCLE
  5
147
330
1F
100
AcDbEntity
  8
0
  6
HIDDEN
 62
     7
370
    18
100
AcDbCircle
 10
173.7049729055
 20
104.9881009667
 30
0.0
 40
4.049999999999997
  0
LINE
  5
148
330
1F
100
AcDbEntity
  8
0
  6
HIDDEN
 62
     7
370
    18
100
AcDbLine
 10
152.7352004474
 20
120.3010520249
 30
0.0
 11
152.7352004474
 21
89.6751499086
 31
0.0
  0
LINE
  5
149
330
1F
100
AcDbEntity
  8
0
  6
HIDDEN
 62
     7
370
    18
100
AcDbLine
 10
151.2049741274
 20
88.7916712373
 30
0.0
 11
151.2049741274
 21
121.1845306962
 31
0.0
  0
LINE
  5
14A
330
1F
100
AcDbEntity
  8
0
  6
HIDDEN
 62
     7
370
    18
100
AcDbLine
 10
159.2352005815
 20
119.3345114871
 30
0.0
 11
159.2352005815
 21
90.6416904464
 31
0.0
  0
LINE
  5
14B
330
1F
100
AcDbEntity
  8
0
  6
HIDDEN
 62
     7
370
    18
100
AcDbLine
 10
165.0352019047
 20
118.9881013989
 30
0.0
 11
165.0352019047
 21
90.9881005346
 31
0.0
  0
LINE
  5
14C
330
1F
100
AcDbEntity
  8
0
  6
HIDDEN
 62
     7
370
    18
100
AcDbLine
 10
157.6352014368
 20
118.9881013989
 30
0.0
 11
157.6352014368
 21
90.9881005346
 31
0.0
  0
LINE
  5
14D
330
1F
100
AcDbEntity
  8
0
  6
HIDDEN
 62
     7
370
    18
100
AcDbLine
 10
158.6352016008
 20
118.9881013989
 30
0.0
 11
158.6352016008
 21
90.9881005346
 31
0.0
  0
SPLINE
  5
14E
330
1F
100
AcDbEntity
  8
0
  6
HIDDEN
 62
     7
370
    18
100
AcDbSpline
210
0.0
220
0.0
230
1.0
 70
     8
 71
     3
 72
    10
 73
     6
 74
     0
 42
0.000000001
 43
0.00000001
 40
0.0
 40
0.0
 40
0.0
 40
0.0
 40
0.5
 40
0.5
 40
1.0
 40
1.0
 40
1.0
 40
1.0
 10
177.7049729054795
 20
105.6225298437541
 30
0.0
 10
177.738120323556
 20
105.4135392427461
 30
0.0
 10
177.7549791689176
 20
105.2019767767245
 30
0.0
 10
177.7549666385699
 20
104.7739880107569
 30
0.0
 10
177.7380516808296
 20
104.5622299063411
 30
0.0
 10
177.7049729054795
 20
104.3536720897091
 30
0.0
  0
LINE
  5
14F
330
1F
100
AcDbEntity
  8
0
  6
HIDDEN
 62
     7
370
    18
100
AcDbLine
 10
178.2049729651
 20
118.4881013169
 30
0.0
 11
178.2049729651
 21
91.4881006166
 31
0.0
  0
SPLINE
  5
150
330
1F
100
AcDbEntity
  8
0
  6
HIDDEN
 62
     7
370
    18
100
AcDbSpline
210
0.0
220
0.0
230
1.0
 70
     8
 71
     3
 72
    10
 73
     6
 74
     0
 42
0.000000001
 43
0.00000001
 40
0.0
 40
0.0
 40
0.0
 40
0.0
 40
0.5
 40
0.5
 40
1.0
 40
1.0
 40
1.0
 40
1.0
 10
177.7049729054795
 20
104.3536720897091
 30
0.0
 10
177.7381618679532
 20
104.5629246232916
 30
0.0
 10
177.7548626442079
 20
104.7737413841905
 30
0.0
 10
177.7550820846525
 20
105.1982736653938
 30
0.0
 10
177.7382023692591
 20
105.4130219541664
 30
0.0
 10
177.7049729054795
 20
105.6225298437541
 30
0.0
  0
SPLINE
  5
151
330
1F
100
AcDbEntity
  8
0
  6
HIDDEN
 62
     7
370
    18
100
AcDbSpline
210
0.0
220
0.0
230
1.0
 70
     8
 71
     3
 72
    68
 73
    64
 74
     0
 42
0.000000001
 43
0.00000001
 40
0.0
 40
0.0
 40
0.0
 40
0.0
 40
0.0312499999999999
 40
0.0312499999999999
 40
0.0624999999999998
 40
0.0624999999999998
 40
0.0937499999999997
 40
0.0937499999999997
 40
0.1249999999999996
 40
0.1249999999999996
 40
0.1562499999999994
 40
0.1562499999999994
 40
0.1874999999999993
 40
0.1874999999999993
 40
0.2187499999999992
 40
0.2187499999999992
 40
0.2499999999999991
 40
0.2499999999999991
 40
0.281249999999999
 40
0.281249999999999
 40
0.3124999999999989
 40
0.3124999999999989
 40
0.3437499999999988
 40
0.3437499999999988
 40
0.3749999999999987
 40
0.3749999999999987
 40
0.4062499999999986
 40
0.4062499999999986
 40
0.4374999999999984
 40
0.4374999999999984
 40
0.4687499999999983
 40
0.4687499999999983
 40
0.4999999999999982
 40
0.4999999999999982
 40
0.562499999999998
 40
0.562499999999998
 40
0.5937499999999979
 40
0.5937499999999979
 40
0.6249999999999978
 40
0.6249999999999978
 40
0.6562499999999977
 40
0.6562499999999977
 40
0.6874999999999976
 40
0.6874999999999976
 40
0.7187499999999974
 40
0.7187499999999974
 40
0.7499999999999973
 40
0.7499999999999973
 40
0.7812499999999977
 40
0.7812499999999977
 40
0.812499999999998
 40
0.812499999999998
 40
0.8437499999999983
 40
0.8437499999999983
 40
0.8749999999999987
 40
0.8749999999999987
 40
0.906249999999999
 40
0.906249999999999
 40
0.9374999999999993
 40
0.9374999999999993
 40
0.9687499999999997
 40
0.9687499999999997
 40
1.0
 40
1.0
 40
1.0
 40
1.0
 10
177.7049729054795
 20
104.3536720897091
 30
0.0
 10
177.6649579531298
 20
104.1013824868935
 30
0.0
 10
177.6020161517185
 20
103.8573836365177
 30
0.0
 10
177.4326294896465
 20
103.3849652474551
 30
0.0
 10
177.324935927061
 20
103.1545518612952
 30
0.0
 10
177.0696511585231
 20
102.7198472654981
 30
0.0
 10
176.9236119280509
 20
102.5172052988468
 30
0.0
 10
176.5953904914916
 20
102.140216008089
 30
0.0
 10
176.4111432037166
 20
101.9645580545116
 30
0.0
 10
176.0181830364083
 20
101.6543000855654
 30
0.0
 10
175.8088884394492
 20
101.5183548779154
 30
0.0
 10
175.3640030125118
 20
101.2849647825096
 30
0.0
 10
175.1272054200128
 20
101.1877181760952
 30
0.0
 10
174.6464703510935
 20
101.0410467182238
 30
0.0
 10
174.4002272579107
 20
100.9901543732814
 30
0.0
 10
173.8955104779313
 20
100.9346270230459
 30
0.0
 10
173.6393157769948
 20
100.930802135976
 30
0.0
 10
173.1369370277947
 20
100.9702259186204
 30
0.0
 10
172.8876873286111
 20
101.0132533678317
 30
0.0
 10
172.3961595311324
 20
101.1469583372829
 30
0.0
 10
172.1608639299065
 20
101.2356281831881
 30
0.0
 10
171.7099500352444
 20
101.4546595469655
 30
0.0
 10
171.492337684781
 20
101.5866611126491
 30
0.0
 10
171.0891305152327
 20
101.886018393652
 30
0.0
 10
170.9035190227983
 20
102.0526373210898
 30
0.0
 10
170.5635309523958
 20
102.4197487465173
 30
0.0
 10
170.4084580215729
 20
102.622052492058
 30
0.0
 10
170.1421149449095
 20
103.0461331716521
 30
0.0
 10
170.0291308441927
 20
103.2692927771183
 30
0.0
 10
169.8442755872619
 20
103.7386480187124
 30
0.0
 10
169.7731348257585
 20
103.9848585220479
 30
0.0
 10
169.6791744144703
 20
104.4793843484191
 30
0.0
 10
169.6551650845139
 20
104.7303153435111
 30
0.0
 10
169.6545919638413
 20
105.4945607230673
 30
0.0
 10
169.74999107516
 20
105.9967850251183
 30
0.0
 10
170.027854867361
 20
106.7043495313907
 30
0.0
 10
170.1410168234416
 20
106.9280557951315
 30
0.0
 10
170.4071480054855
 20
107.3523257064521
 30
0.0
 10
170.5619757796852
 20
107.5545776685081
 30
0.0
 10
170.9021568854731
 20
107.9222884098763
 30
0.0
 10
171.0876593424228
 20
108.0889052851256
 30
0.0
 10
171.4899531434821
 20
108.3879546639211
 30
0.0
 10
171.7079611917341
 20
108.5204113719495
 30
0.0
 10
172.1585595588844
 20
108.7396177726542
 30
0.0
 10
172.3931085577651
 20
108.8281029026578
 30
0.0
 10
172.8815685513175
 20
108.9615891325964
 30
0.0
 10
173.1338339470313
 20
109.0055308450902
 30
0.0
 10
173.6360145851916
 20
109.0453398415637
 30
0.0
 10
173.8884967025433
 20
109.0419956287502
 30
0.0
 10
174.3963617456128
 20
108.9868163087597
 30
0.0
 10
174.6439072187966
 20
108.9357703802903
 30
0.0
 10
175.1248747562674
 20
108.7893599920547
 30
0.0
 10
175.3608346213726
 20
108.6927137872811
 30
0.0
 10
175.8074050708942
 20
108.458808842968
 30
0.0
 10
176.0170499334677
 20
108.3226838291415
 30
0.0
 10
176.4100366402221
 20
108.0126295648124
 30
0.0
 10
176.5944325440372
 20
107.8369723172373
 30
0.0
 10
176.9229829618975
 20
107.4598323945729
 30
0.0
 10
177.0689250584207
 20
107.257366189303
 30
0.0
 10
177.3238104136229
 20
106.8237898911697
 30
0.0
 10
177.4321217264312
 20
106.5924980475881
 30
0.0
 10
177.6019567038481
 20
106.1191383674549
 30
0.0
 10
177.6649520649852
 20
105.8748565706341
 30
0.0
 10
177.7049729054795
 20
105.6225298437541
 30
0.0
  0
SPLINE
  5
152
330
1F
100
AcDbEntity
  8
0
  6
HIDDEN
 62
     7
370
    18
100
AcDbSpline
210
0.0
220
0.0
230
1.0
 70
     8
 71
     3
 72
    68
 73
    64
 74
     0
 42
0.000000001
 43
0.00000001
 40
0.0
 40
0.0
 40
0.0
 40
0.0
 40
0.0312499999999999
 40
0.0312499999999999
 40
0.0624999999999998
 40
0.0624999999999998
 40
0.0937499999999997
 40
0.0937499999999997
 40
0.1249999999999996
 40
0.1249999999999996
 40
0.1562499999999994
 40
0.1562499999999994
 40
0.1874999999999993
 40
0.1874999999999993
 40
0.2187499999999992
 40
0.2187499999999992
 40
0.2499999999999991
 40
0.2499999999999991
 40
0.281249999999999
 40
0.281249999999999
 40
0.3124999999999989
 40
0.3124999999999989
 40
0.3437499999999988
 40
0.3437499999999988
 40
0.3749999999999987
 40
0.3749999999999987
 40
0.4062499999999986
 40
0.4062499999999986
 40
0.4374999999999984
 40
0.4374999999999984
 40
0.4687499999999983
 40
0.4687499999999983
 40
0.4999999999999982
 40
0.4999999999999982
 40
0.562499999999998
 40
0.562499999999998
 40
0.5937499999999979
 40
0.5937499999999979
 40
0.6249999999999978
 40
0.6249999999999978
 40
0.6562499999999977
 40
0.6562499999999977
 40
0.6874999999999976
 40
0.6874999999999976
 40
0.7187499999999974
 40
0.7187499999999974
 40
0.7499999999999973
 40
0.7499999999999973
 40
0.7812499999999977
 40
0.7812499999999977
 40
0.812499999999998
 40
0.812499999999998
 40
0.8437499999999983
 40
0.8437499999999983
 40
0.8749999999999987
 40
0.8749999999999987
 40
0.906249999999999
 40
0.906249999999999
 40
0.9374999999999993
 40
0.9374999999999993
 40
0.9687499999999997
 40
0.9687499999999997
 40
1.0
 40
1.0
 40
1.0
 40
1.0
 10
177.7049729054795
 20
105.6225298437541
 30
0.0
 10
177.6649579531298
 20
105.8748194465697
 30
0.0
 10
177.6020161517185
 20
106.1188182969455
 30
0.0
 10
177.4326294896465
 20
106.591236686008
 30
0.0
 10
177.324935927061
 20
106.8216500721679
 30
0.0
 10
177.0696511585231
 20
107.256354667965
 30
0.0
 10
176.9236119280509
 20
107.4589966346163
 30
0.0
 10
176.5953904914917
 20
107.8359859253742
 30
0.0
 10
176.4111432037166
 20
108.0116438789515
 30
0.0
 10
176.0181830364083
 20
108.3219018478978
 30
0.0
 10
175.8088884394492
 20
108.4578470555477
 30
0.0
 10
175.3640030125118
 20
108.6912371509535
 30
0.0
 10
175.1272054200128
 20
108.7884837573679
 30
0.0
 10
174.6464703510935
 20
108.9351552152393
 30
0.0
 10
174.4002272579107
 20
108.9860475601817
 30
0.0
 10
173.8955104779313
 20
109.0415749104172
 30
0.0
 10
173.6393157769948
 20
109.0453997974871
 30
0.0
 10
173.1369370277947
 20
109.0059760148427
 30
0.0
 10
172.8876873286111
 20
108.9629485656315
 30
0.0
 10
172.3961595311324
 20
108.8292435961802
 30
0.0
 10
172.1608639299065
 20
108.740573750275
 30
0.0
 10
171.7099500352444
 20
108.5215423864976
 30
0.0
 10
171.492337684781
 20
108.389540820814
 30
0.0
 10
171.0891305152327
 20
108.0901835398112
 30
0.0
 10
170.9035190227983
 20
107.9235646123733
 30
0.0
 10
170.5635309523958
 20
107.5564531869458
 30
0.0
 10
170.4084580215729
 20
107.3541494414051
 30
0.0
 10
170.1421149449095
 20
106.9300687618111
 30
0.0
 10
170.0291308441927
 20
106.7069091563449
 30
0.0
 10
169.8442755872619
 20
106.2375539147507
 30
0.0
 10
169.7731348257585
 20
105.9913434114152
 30
0.0
 10
169.6791744144703
 20
105.4968175850441
 30
0.0
 10
169.6551650845139
 20
105.245886589952
 30
0.0
 10
169.6545919638413
 20
104.4816412103958
 30
0.0
 10
169.74999107516
 20
103.9794169083449
 30
0.0
 10
170.027854867361
 20
103.2718524020725
 30
0.0
 10
170.1410168234416
 20
103.0481461383317
 30
0.0
 10
170.4071480054855
 20
102.6238762270111
 30
0.0
 10
170.5619757796852
 20
102.421624264955
 30
0.0
 10
170.9021568854731
 20
102.0539135235869
 30
0.0
 10
171.0876593424228
 20
101.8872966483375
 30
0.0
 10
171.4899531434821
 20
101.5882472695421
 30
0.0
 10
171.7079611917341
 20
101.4557905615137
 30
0.0
 10
172.1585595588844
 20
101.236584160809
 30
0.0
 10
172.3931085577651
 20
101.1480990308054
 30
0.0
 10
172.8815685513175
 20
101.0146128008667
 30
0.0
 10
173.1338339470313
 20
100.970671088373
 30
0.0
 10
173.6360145851916
 20
100.9308620918995
 30
0.0
 10
173.8884967025433
 20
100.934206304713
 30
0.0
 10
174.3963617456128
 20
100.9893856247035
 30
0.0
 10
174.6439072187966
 20
101.0404315531729
 30
0.0
 10
175.1248747562673
 20
101.1868419414085
 30
0.0
 10
175.3608346213726
 20
101.2834881461821
 30
0.0
 10
175.8074050708942
 20
101.5173930904951
 30
0.0
 10
176.0170499334677
 20
101.6535181043216
 30
0.0
 10
176.4100366402221
 20
101.9635723686507
 30
0.0
 10
176.5944325440372
 20
102.1392296162258
 30
0.0
 10
176.9229829618975
 20
102.5163695388903
 30
0.0
 10
177.0689250584207
 20
102.7188357441601
 30
0.0
 10
177.3238104136229
 20
103.1524120422935
 30
0.0
 10
177.4321217264312
 20
103.383703885875
 30
0.0
 10
177.6019567038481
 20
103.8570635660082
 30
0.0
 10
177.6649520649852
 20
104.101345362829
 30
0.0
 10
177.7049729054795
 20
104.3536720897091
 30
0.0
  0
LINE
  5
153
330
1F
100
AcDbEntity
  8
0
  6
HIDDEN
 62
     7
370
    18
100
AcDbLine
 10
179.4549727043
 20
113.9881005793
 30
0.0
 11
179.4549727043
 21
95.9881013542
 31
0.0
  0
LINE
  5
154
330
1F
100
AcDbEntity
  8
0
  6
HIDDEN
 62
     7
370
    18
100
AcDbLine
 10
178.2049729651
 20
94.7381006836
 30
0.0
 11
178.2049729651
 21
115.2200987845
 31
0.0
  0
LINE
  5
155
330
1F
100
AcDbEntity
  8
0
  6
HIDDEN
 62
     7
370
    18
100
AcDbLine
 10
216.2049736058
 20
95.9881013542
 30
0.0
 11
216.2049736058
 21
113.9881005793
 31
0.0
  0
LINE
  5
156
330
1F
100
AcDbEntity
  8
0
  6
HIDDEN
 62
     7
370
    18
100
AcDbLine
 10
227.3565462952
 20
107.5888723417
 30
0.0
 11
227.3565462952
 21
78.6106353908
 31
0.0
  0
SPLINE
  5
157
330
1F
100
AcDbEntity
  8
0
  6
HIDDEN
 62
     7
370
    18
100
AcDbSpline
210
0.0
220
0.0
230
1.0
 70
     8
 71
     3
 72
     9
 73
     5
 74
     0
 42
0.000000001
 43
0.00000001
 40
0.0
 40
0.0
 40
0.0
 40
0.0
 40
0.5
 40
1.0
 40
1.0
 40
1.0
 40
1.0
 10
227.4035717437896
 20
108.9243109924345
 30
0.0
 10
227.3962905295997
 20
108.7017320716912
 30
0.0
 10
227.3804946969272
 20
108.2565871598209
 30
0.0
 10
227.3642880944462
 20
107.8114465539969
 30
0.0
 10
227.3565477555424
 20
107.5888724461981
 30
0.0
  0
SPLINE
  5
158
330
1F
100
AcDbEntity
  8
0
  6
HIDDEN
 62
     7
370
    18
100
AcDbSpline
210
0.0
220
0.0
230
1.0
 70
     8
 71
     3
 72
    12
 73
     8
 74
     0
 42
0.000000001
 43
0.00000001
 40
0.0
 40
0.0
 40
0.0
 40
0.0
 40
0.25
 40
0.25
 40
0.5
 40
0.5
 40
1.0
 40
1.0
 40
1.0
 40
1.0
 10
227.2859089651935
 20
136.9583583793968
 30
0.0
 10
227.2699706046325
 20
136.931190240679
 30
0.0
 10
227.260246067243
 20
136.9040041452925
 30
0.0
 10
227.2582397010759
 20
136.8495815486853
 30
0.0
 10
227.2659758653701
 20
136.8223551124523
 30
0.0
 10
227.3093909602822
 20
136.740655592174
 30
0.0
 10
227.3659054705128
 20
136.6861540348525
 30
0.0
 10
227.4035717437905
 20
136.6316765482043
 30
0.0
  0
SPLINE
  5
159
330
1F
100
AcDbEntity
  8
0
  6
HIDDEN
 62
     7
370
    18
100
AcDbSpline
210
0.0
220
0.0
230
1.0
 70
     8
 71
     3
 72
    12
 73
     8
 74
     0
 42
0.000000001
 43
0.00000001
 40
0.0
 40
0.0
 40
0.0
 40
0.0
 40
0.4999999999999987
 40
0.4999999999999987
 40
0.7499999999999993
 40
0.7499999999999993
 40
1.0
 40
1.0
 40
1.0
 40
1.0
 10
226.4376459175005
 20
76.58365151243946
 30
0.0
 10
226.6125430191529
 20
76.94998334318286
 30
0.0
 10
226.781704003243
 20
77.30890497175865
 30
0.0
 10
227.0201822540982
 20
77.82721308565918
 30
0.0
 10
227.0969038570695
 20
77.99633876884313
 30
0.0
 10
227.2388883286895
 20
78.31952343201934
 30
0.0
 10
227.3048576244313
 20
78.47472077775998
 30
0.0
 10
227.3565477555426
 20
78.61063477225251
 30
0.0
  0
LINE
  5
15A
330
1F
100
AcDbEntity
  8
0
  6
HIDDEN
 62
     7
370
    18
100
AcDbLine
 10
244.0738163119
 20
137.7594201177
 30
0.0
 11
243.5590519732
 21
127.9370887487
 31
0.0
  0
LINE
  5
15B
330
1F
100
AcDbEntity
  8
0
  6
HIDDEN
 62
     7
370
    18
100
AcDbLine
 10
243.5590519732
 20
127.9370887487
 30
0.0
 11
243.5308776027
 21
127.9010298013
 31
0.0
  0
LINE
  5
15C
330
1F
100
AcDbEntity
  8
0
  6
HIDDEN
 62
     7
370
    18
100
AcDbLine
 10
243.8491291529
 20
122.0663776904
 30
0.0
 11
253.161263389
 21
133.9853601813
 31
0.0
  0
LINE
  5
15D
330
1F
100
AcDbEntity
  8
0
  6
HIDDEN
 62
     7
370
    18
100
AcDbLine
 10
253.161263389
 20
133.9853601813
 30
0.0
 11
253.158864302
 21
133.9396639078
 31
0.0
  0
LINE
  5
15E
330
1F
100
AcDbEntity
  8
0
  6
HIDDEN
 62
     7
370
    18
100
AcDbLine
 10
251.9564896053
 20
110.9969904929
 30
0.0
 11
249.2285228496
 21
111.9363056778
 31
0.0
  0
LINE
  5
15F
330
1F
100
AcDbEntity
  8
0
  6
HIDDEN
 62
     7
370
    18
100
AcDbLine
 10
243.5827932483
 20
122.0040107428
 30
0.0
 11
252.9928430146
 21
134.0483269005
 31
0.0
  0
LINE
  5
160
330
1F
100
AcDbEntity
  8
0
  6
HIDDEN
 62
     7
370
    18
100
AcDbLine
 10
253.161263389
 20
133.9853601813
 30
0.0
 11
252.9928430146
 21
134.0483269005
 31
0.0
  0
LINE
  5
161
330
1F
100
AcDbEntity
  8
0
  6
HIDDEN
 62
     7
370
    18
100
AcDbLine
 10
243.5590519732
 20
127.9370887487
 30
0.0
 11
243.727464897
 21
127.8741220295
 31
0.0
  0
LINE
  5
162
330
1F
100
AcDbEntity
  8
0
  6
HIDDEN
 62
     7
370
    18
100
AcDbLine
 10
243.5152313834
 20
127.6024775862
 30
0.0
 11
243.727464897
 21
127.8741220295
 31
0.0
  0
LINE
  5
163
330
1F
100
AcDbEntity
  8
0
  6
HIDDEN
 62
     7
370
    18
100
AcDbLine
 10
244.2591755813
 20
138.0197434037
 30
0.0
 11
243.727464897
 21
127.8741220295
 31
0.0
  0
LINE
  5
164
330
1F
100
AcDbEntity
  8
0
  6
HIDDEN
 62
     7
370
    18
100
AcDbLine
 10
244.2835650569
 20
138.4851290195
 30
0.0
 11
244.2705861455
 21
138.2374977975
 31
0.0
  0
LINE
  5
165
330
1F
100
AcDbEntity
  8
0
  6
HIDDEN
 62
     7
370
    18
100
AcDbLine
 10
252.9928430146
 20
134.0483269005
 30
0.0
 11
252.75807522
 21
133.7478356718
 31
0.0
  0
LINE
  5
166
330
1F
100
AcDbEntity
  8
0
  6
HIDDEN
 62
     7
370
    18
100
AcDbLine
 10
247.2966096526
 20
140.904969564
 30
0.0
 11
253.2334520644
 21
148.5037794619
 31
0.0
  0
LINE
  5
167
330
1F
100
AcDbEntity
  8
0
  6
HIDDEN
 62
     7
370
    18
100
AcDbLine
 10
253.5256787365
 20
148.3945204227
 30
0.0
 11
253.2334520644
 21
148.5037794619
 31
0.0
  0
CIRCLE
  5
168
330
1F
100
AcDbEntity
  8
0
  6
HIDDEN
 62
     7
370
    18
100
AcDbCircle
 10
248.6488881086
 20
135.7975257446
 30
0.0
 40
2.399999999999977
  0
LINE
  5
169
330
1F
100
AcDbEntity
  8
0
  6
HIDDEN
 62
     7
370
    18
100
AcDbLine
 10
242.8368820971
 20
121.0492858946
 30
0.0
 11
252.75807522
 21
133.7478356718
 31
0.0
  0
ARC
  5
16A
330
1F
100
AcDbEntity
  8
0
  6
HIDDEN
 62
     7
370
    18
100
AcDbCircle
 10
241.4578632561
 20
122.1266932326
 30
0.0
 40
1.750000000000005
100
AcDbArc
 50
142.0
 51
322.0
  0
LINE
  5
16B
330
1F
100
AcDbEntity
  8
0
  6
HIDDEN
 62
     7
370
    18
100
AcDbLine
 10
243.727464897
 20
127.8741220295
 30
0.0
 11
240.0788447982
 21
123.204099974
 31
0.0
  0
LINE
  5
16C
330
1F
100
AcDbEntity
  8
0
  6
HIDDEN
 62
     7
370
    18
100
AcDbLine
 10
244.2705861455
 20
138.2374977975
 30
0.0
 11
243.727464897
 21
127.8741220295
 31
0.0
  0
ELLIPSE
  5
16D
330
1F
100
AcDbEntity
  8
0
  6
HIDDEN
 62
     7
370
    18
100
AcDbEllipse
 10
238.5953823389
 20
147.703115851
 30
0.0
 11
8.701229093346969
 21
-6.798145223574125
 31
6.306066779870890E-14
210
-7.284104970732868E-15
220
-4.707141155436555E-17
230
1.0
 40
0.9961946981
 41
5.947253393072453
 42
6.283185307179586
  0
LINE
  5
16E
330
1F
100
AcDbEntity
  8
0
  6
HIDDEN
 62
     7
370
    18
100
AcDbLine
 10
252.75807522
 20
133.7478356718
 30
0.0
 11
253.5256787365
 21
148.3945204227
 31
0.0
  0
LINE
  5
16F
330
1F
100
AcDbEntity
  8
0
  6
HIDDEN
 62
     7
370
    18
100
AcDbLine
 10
252.425607962
 20
145.4522488921
 30
0.0
 11
253.5256787365
 21
148.3945204227
 31
0.0
  0
LINE
  5
170
330
1F
100
AcDbEntity
  8
0
  6
HIDDEN
 62
     7
370
    18
100
AcDbLine
 10
253.2334520644
 20
148.5037794619
 30
0.0
 11
252.1739273494
 21
145.6699623077
 31
0.0
  0
CIRCLE
  5
171
330
1F
100
AcDbEntity
  8
0
  6
HIDDEN
 62
     7
370
    18
100
AcDbCircle
 10
248.6488881086
 20
135.7975257446
 30
0.0
 40
1.649999999999977
  0
SPLINE
  5
172
330
1F
100
AcDbEntity
  8
0
  6
HIDDEN
 62
     7
370
    18
100
AcDbSpline
210
0.0
220
0.0
230
1.0
 70
     8
 71
     3
 72
    16
 73
    12
 74
     0
 42
0.000000001
 43
0.00000001
 40
0.0
 40
0.0
 40
0.0
 40
0.0
 40
0.2500000000000002
 40
0.2500000000000002
 40
0.3750000000000003
 40
0.3750000000000003
 40
0.5000000000000004
 40
0.5000000000000004
 40
0.7500000000000002
 40
0.7500000000000002
 40
1.0
 40
1.0
 40
1.0
 40
1.0
 10
187.8836525619199
 20
126.7581819217337
 30
0.0
 10
187.7224200844354
 20
126.660166308679
 30
0.0
 10
187.6019402447958
 20
126.4734302770029
 30
0.0
 10
187.4795597274825
 20
126.060390469444
 30
0.0
 10
187.448582067085
 20
125.9003899702111
 30
0.0
 10
187.406968329457
 20
125.5335843191199
 30
0.0
 10
187.3967324165242
 20
125.3302471664959
 30
0.0
 10
187.3965440194681
 20
124.6629598998693
 30
0.0
 10
187.4366887221057
 20
124.1421454359812
 30
0.0
 10
187.6008424770453
 20
122.9447864205035
 30
0.0
 10
187.7223941274549
 20
122.2865167662075
 30
0.0
 10
187.8836525619199
 20
121.5720075929726
 30
0.0
  0
LINE
  5
173
330
1F
100
AcDbEntity
  8
0
  6
HIDDEN
 62
     7
370
    18
100
AcDbLine
 10
152.7049734419
 20
126.1464646368
 30
0.0
 11
152.7049734419
 21
120.0921535774
 31
0.0
  0
LINE
  5
174
330
1F
100
AcDbEntity
  8
0
  6
HIDDEN
 62
     7
370
    18
100
AcDbLine
 10
187.0049729174
 20
127.0082006513
 30
0.0
 11
187.0049729174
 21
120.5230215847
 31
0.0
  0
LINE
  5
175
330
1F
100
AcDbEntity
  8
0
  6
HIDDEN
 62
     7
370
    18
100
AcDbLine
 10
151.2049741274
 20
125.2804389506
 30
0.0
 11
151.2049741274
 21
119.6591407343
 31
0.0
  0
LINE
  5
176
330
1F
100
AcDbEntity
  8
0
  6
HIDDEN
 62
     7
370
    18
100
AcDbLine
 10
152.7049734419
 20
89.884048356
 30
0.0
 11
152.7049734419
 21
83.8297372966
 31
0.0
  0
LINE
  5
177
330
1F
100
AcDbEntity
  8
0
  6
HIDDEN
 62
     7
370
    18
100
AcDbLine
 10
151.2049741274
 20
90.3170611992
 30
0.0
 11
151.2049741274
 21
84.6957629829
 31
0.0
  0
LINE
  5
178
330
1F
100
AcDbEntity
  8
0
  6
HIDDEN
 62
     7
370
    18
100
AcDbLine
 10
187.0049729174
 20
89.4531803488
 30
0.0
 11
187.0049729174
 21
82.9680012821
 31
0.0
  0
SPLINE
  5
179
330
1F
100
AcDbEntity
  8
0
  6
HIDDEN
 62
     7
370
    18
100
AcDbSpline
210
0.0
220
0.0
230
1.0
 70
     8
 71
     3
 72
    16
 73
    12
 74
     0
 42
0.000000001
 43
0.00000001
 40
0.0
 40
0.0
 40
0.0
 40
0.0
 40
0.2499999999999997
 40
0.2499999999999997
 40
0.3749999999999999
 40
0.3749999999999999
 40
0.5000000000000001
 40
0.5000000000000001
 40
0.75
 40
0.75
 40
1.0
 40
1.0
 40
1.0
 40
1.0
 10
187.8836525619199
 20
88.40419434049056
 30
0.0
 10
187.7224200844354
 20
87.68980017829843
 30
0.0
 10
187.6019402447958
 20
87.03645791558975
 30
0.0
 10
187.4795597274825
 20
86.14820267378587
 30
0.0
 10
187.448582067085
 20
85.86752213743401
 30
0.0
 10
187.406968329457
 20
85.33848814759403
 30
0.0
 10
187.3967324165242
 20
85.09516716901558
 30
0.0
 10
187.3965440194681
 20
84.42714447850234
 30
0.0
 10
187.4366887221057
 20
84.06346356908288
 30
0.0
 10
187.6008424770453
 20
83.50357269653455
 30
0.0
 10
187.7223941274549
 20
83.31605140441742
 30
0.0
 10
187.8836525619199
 20
83.21802001172945
 30
0.0
  0
SPLINE
  5
17A
330
1F
100
AcDbEntity
  8
0
  6
HIDDEN
 62
     7
370
    18
100
AcDbSpline
210
0.0
220
0.0
230
1.0
 70
     8
 71
     3
 72
     8
 73
     4
 74
     0
 42
0.000000001
 43
0.00000001
 40
0.0
 40
0.0
 40
0.0
 40
0.0
 40
1.0
 40
1.0
 40
1.0
 40
1.0
 10
227.4035717437905
 20
136.6316765482043
 30
0.0
 10
227.6567547368641
 20
136.2654929063336
 30
0.0
 10
228.486341092367
 20
135.9020258997338
 30
0.0
 10
229.5876759780716
 20
135.5398396657492
 30
0.0
  0
CIRCLE
  5
17B
330
1F
100
AcDbEntity
  8
0
  6
HIDDEN
 62
     7
370
    18
100
AcDbCircle
 10
248.6488881086
 20
135.7975257446
 30
0.0
 40
1.649999999999977
  0
LINE
  5
17C
330
1F
100
AcDbEntity
  8
0
  6
HIDDEN
 62
     7
370
    18
100
AcDbLine
 10
151.2049741274
 20
119.6591407343
 30
0.0
 11
151.2049741274
 21
107.8900883722
 31
0.0
  0
LINE
  5
17D
330
1F
100
AcDbEntity
  8
0
  6
HIDDEN
 62
     7
370
    18
100
AcDbLine
 10
151.2049741274
 20
102.0861135612
 30
0.0
 11
151.2049741274
 21
90.3170611992
 31
0.0
  0
SPLINE
  5
17E
330
1F
100
AcDbEntity
  8
0
  6
HIDDEN
 62
     7
370
    18
100
AcDbSpline
210
0.0
220
0.0
230
1.0
 70
     8
 71
     3
 72
    18
 73
    14
 74
     0
 42
0.000000001
 43
0.00000001
 40
0.0
 40
0.0
 40
0.0
 40
0.0
 40
0.2499999999999996
 40
0.2499999999999996
 40
0.3749999999999998
 40
0.3749999999999998
 40
0.5000000000000001
 40
0.5000000000000001
 40
0.7499999999999997
 40
0.7499999999999997
 40
0.8749999999999999
 40
0.8749999999999999
 40
1.0
 40
1.0
 40
1.0
 40
1.0
 10
229.5876759780716
 20
135.5398396657493
 30
0.0
 10
229.4786026574831
 20
134.2244470675485
 30
0.0
 10
229.3626910902405
 20
132.8462853738257
 30
0.0
 10
229.1773845213943
 20
130.6835045204681
 30
0.0
 10
229.1134259800438
 20
129.9434532876355
 30
0.0
 10
228.9828601840016
 20
128.4473609434639
 30
0.0
 10
228.9163643045152
 20
127.6925322104967
 30
0.0
 10
228.7130661825653
 20
125.4082363171949
 30
0.0
 10
228.5724742510467
 20
123.8590661221943
 30
0.0
 10
228.3529673939652
 20
121.4959744819484
 30
0.0
 10
228.278357056648
 20
120.7016944940874
 30
0.0
 10
228.1260126594102
 20
119.0996533515667
 30
0.0
 10
228.048414853531
 20
118.2933806321536
 30
0.0
 10
227.9699053567779
 20
117.4881009667316
 30
0.0
  0
ELLIPSE
  5
17F
330
1F
100
AcDbEntity
  8
0
  6
HIDDEN
 62
     7
370
    18
100
AcDbEllipse
 10
228.4728701403
 20
117.4881009667
 30
0.0
 11
25.1566022386111
 21
31.95323930598707
 31
0.0
210
0.0
220
0.0
230
1.0
 40
0.0687416203
 41
5.543811831603039
 42
5.84375852377616
  0
ELLIPSE
  5
180
330
1F
100
AcDbEntity
  8
0
  6
HIDDEN
 62
     7
370
    18
100
AcDbEllipse
 10
340.1431516239
 20
117.4881009667
 30
0.0
 11
89.57393808388082
 21
-30.85317563705779
 31
0.0
210
0.0
220
0.0
230
1.0
 40
0.0947829889
 41
3.366555778055432
 42
3.380731849136464
  0
SPLINE
  5
181
330
1F
100
AcDbEntity
  8
0
  6
HIDDEN
 62
     7
370
    18
100
AcDbSpline
210
0.0
220
0.0
230
1.0
 70
     8
 71
     3
 72
    22
 73
    18
 74
     0
 42
0.000000001
 43
0.00000001
 40
0.0
 40
0.0
 40
0.0
 40
0.0
 40
0.2499999999999987
 40
0.2499999999999987
 40
0.3749999999999986
 40
0.3749999999999986
 40
0.4999999999999986
 40
0.4999999999999986
 40
0.6249999999999993
 40
0.6249999999999993
 40
0.6874999999999988
 40
0.6874999999999988
 40
0.7499999999999982
 40
0.7499999999999982
 40
0.8749999999999991
 40
0.8749999999999991
 40
1.0
 40
1.0
 40
1.0
 40
1.0
 10
248.5409225046642
 20
139.9328082716493
 30
0.0
 10
248.1502801187886
 20
139.3515233364355
 30
0.0
 10
247.6821583200518
 20
138.7866345337613
 30
0.0
 10
246.8368687276904
 20
137.9898382188077
 30
0.0
 10
246.5283799319051
 20
137.7309989786462
 30
0.0
 10
245.8758314427109
 20
137.250010554706
 30
0.0
 10
245.5310316973089
 20
137.0266243972494
 30
0.0
 10
244.8030292102292
 20
136.6180345249064
 30
0.0
 10
244.4198515523136
 20
136.4328002228771
 30
0.0
 10
243.8140016556983
 20
136.1877026158928
 30
0.0
 10
243.6067899087771
 20
136.1115546427723
 30
0.0
 10
243.1898239967298
 20
135.9735519474428
 30
0.0
 10
242.9790934977513
 20
135.9112771350777
 30
0.0
 10
242.3402587394783
 20
135.7446371142057
 30
0.0
 10
241.9055431422395
 20
135.6603786800648
 30
0.0
 10
241.0182424410831
 20
135.5473157087715
 30
0.0
 10
240.5638301061786
 20
135.5187742394385
 30
0.0
 10
240.110156074195
 20
135.5196449042103
 30
0.0
  0
ELLIPSE
  5
182
330
1F
100
AcDbEntity
  8
0
  6
HIDDEN
 62
     7
370
    18
100
AcDbEllipse
 10
252.3229576597
 20
117.4881009667
 30
0.0
 11
1.689966264280571
 21
31.99965937820386
 31
0.0
210
0.0
220
0.0
230
1.0
 40
0.0873669176
 41
0.512283982208982
 42
1.575410316394821
  0
ELLIPSE
  5
183
330
1F
100
AcDbEntity
  8
0
  6
HIDDEN
 62
     7
370
    18
100
AcDbEllipse
 10
10761.5840799184
 20
117.4881009667
 30
0.0
 11
17333.48929125574
 21
-31.95389930951146
 31
0.0
210
0.0
220
0.0
230
1.0
 40
0.0000990607
 41
4.059341596271524
 42
4.060105706133298
  0
LINE
  5
184
330
1F
100
AcDbEntity
  8
0
  6
HIDDEN
 62
     7
370
    18
100
AcDbLine
 10
152.7049734419
 20
101.0228898659
 30
0.0
 11
152.7049734419
 21
89.884048356
 31
0.0
  0
LINE
  5
185
330
1F
100
AcDbEntity
  8
0
  6
HIDDEN
 62
     7
370
    18
100
AcDbLine
 10
152.7049734419
 20
120.0921535774
 30
0.0
 11
152.7049734419
 21
108.9533120676
 31
0.0
  0
LINE
  5
186
330
1F
100
AcDbEntity
  8
0
  6
HIDDEN
 62
     7
370
    18
100
AcDbLine
 10
189.0049729105
 20
120.0258080199
 30
0.0
 11
189.0049729105
 21
89.9503939136
 31
0.0
  0
LINE
  5
187
330
1F
100
AcDbEntity
  8
0
  6
HIDDEN
 62
     7
370
    18
100
AcDbLine
 10
187.0049729174
 20
120.5230215847
 30
0.0
 11
187.0049729174
 21
89.4531803488
 31
0.0
  0
SPLINE
  5
188
330
1F
100
AcDbEntity
  8
0
  6
HIDDEN
 62
     7
370
    18
100
AcDbSpline
210
0.0
220
0.0
230
1.0
 70
     8
 71
     3
 72
    24
 73
    20
 74
     0
 42
0.000000001
 43
0.00000001
 40
0.0
 40
0.0
 40
0.0
 40
0.0
 40
0.1250000000000001
 40
0.1250000000000001
 40
0.2500000000000002
 40
0.2500000000000002
 40
0.3750000000000003
 40
0.3750000000000003
 40
0.4375000000000003
 40
0.4375000000000003
 40
0.5000000000000002
 40
0.5000000000000002
 40
0.6250000000000002
 40
0.6250000000000002
 40
0.7500000000000002
 40
0.7500000000000002
 40
0.8750000000000001
 40
0.8750000000000001
 40
1.0
 40
1.0
 40
1.0
 40
1.0
 10
157.6549729054795
 20
100.9021399136323
 30
0.0
 10
157.8927765377546
 20
101.2011470159625
 30
0.0
 10
158.1228621989659
 20
101.5054848672812
 30
0.0
 10
158.5576155975757
 20
102.1312184046772
 30
0.0
 10
158.7625483898619
 20
102.4524431320047
 30
0.0
 10
159.1276503403606
 20
103.1243689027374
 30
0.0
 10
159.2894507261521
 20
103.4796841346163
 30
0.0
 10
159.4613109307318
 20
104.0299153559688
 30
0.0
 10
159.5068961223919
 20
104.2163191409492
 30
0.0
 10
159.5693708619668
 20
104.5964536430455
 30
0.0
 10
159.5860420077153
 20
104.7921234353314
 30
0.0
 10
159.5865630508918
 20
105.3706038140058
 30
0.0
 10
159.5221207500051
 20
105.7485156529746
 30
0.0
 10
159.2922716566317
 20
106.490483678073
 30
0.0
 10
159.1337509789686
 20
106.839199138234
 30
0.0
 10
158.7695166490684
 20
107.5122915359671
 30
0.0
 10
158.5627804090049
 20
107.8372440232088
 30
0.0
 10
158.1248424632645
 20
108.4681678336705
 30
0.0
 10
157.8935697359849
 20
108.7740575740112
 30
0.0
 10
157.6549729054796
 20
109.0740620198307
 30
0.0
  0
LINE
  5
189
330
1F
100
AcDbEntity
  8
0
  6
HIDDEN
 62
     7
370
    18
100
AcDbLine
 10
157.6549715525
 20
100.9021397031
 30
0.0
 11
157.6549715525
 21
109.0740622304
 31
0.0
  0
SPLINE
  5
18A
330
1F
100
AcDbEntity
  8
0
  6
HIDDEN
 62
     7
370
    18
100
AcDbSpline
210
0.0
220
0.0
230
1.0
 70
     8
 71
     3
 72
     8
 73
     4
 74
     0
 42
0.000000001
 43
0.00000001
 40
0.0000249638557296
 40
0.0000249638557296
 40
0.0000249638557296
 40
0.0000249638557296
 40
0.0049776420541172
 40
0.0049776420541172
 40
0.0049776420541172
 40
0.0049776420541172
 10
152.7049729054795
 20
101.022890069895
 30
0.0
 10
154.3549491399891
 20
100.9816108321268
 30
0.0
 10
156.0049504597341
 20
100.9413891508873
 30
0.0
 10
157.6549729054795
 20
100.9021399136323
 30
0.0
  0
SPLINE
  5
18B
330
1F
100
AcDbEntity
  8
0
  6
HIDDEN
 62
     7
370
    18
100
AcDbSpline
210
0.0
220
0.0
230
1.0
 70
     8
 71
     3
 72
     8
 73
     4
 74
     0
 42
0.000000001
 43
0.00000001
 40
0.0000249631533153
 40
0.0000249631533153
 40
0.0000249631533153
 40
0.0000249631533153
 40
0.0049776413517029
 40
0.0049776413517029
 40
0.0049776413517029
 40
0.0049776413517029
 10
157.6549729054795
 20
109.0740620198308
 30
0.0
 10
156.0049504597341
 20
109.0348127825758
 30
0.0
 10
154.354949139989
 20
108.9945911013363
 30
0.0
 10
152.7049729054795
 20
108.9533118635681
 30
0.0
  0
SPLINE
  5
18C
330
1F
100
AcDbEntity
  8
0
  6
HIDDEN
 62
     7
370
    18
100
AcDbSpline
210
0.0
220
0.0
230
1.0
 70
     8
 71
     3
 72
     8
 73
     4
 74
     0
 42
0.000000001
 43
0.00000001
 40
0.0
 40
0.0
 40
0.0
 40
0.0
 40
1.0
 40
1.0
 40
1.0
 40
1.0
 10
151.2049729054795
 20
102.0861136337492
 30
0.0
 10
151.6717335168567
 20
101.6707503881271
 30
0.0
 10
152.177481063636
 20
101.3261599588231
 30
0.0
 10
152.7049729054795
 20
101.022890069895
 30
0.0
  0
SPLINE
  5
18D
330
1F
100
AcDbEntity
  8
0
  6
HIDDEN
 62
     7
370
    18
100
AcDbSpline
210
0.0
220
0.0
230
1.0
 70
     8
 71
     3
 72
     8
 73
     4
 74
     0
 42
0.000000001
 43
0.00000001
 40
0.0
 40
0.0
 40
0.0
 40
0.0
 40
1.0
 40
1.0
 40
1.0
 40
1.0
 10
152.7049729054795
 20
108.9533118635681
 30
0.0
 10
152.177481063636
 20
108.65004197464
 30
0.0
 10
151.6717335168567
 20
108.3054515453361
 30
0.0
 10
151.2049729054795
 20
107.8900882997139
 30
0.0
  0
LINE
  5
18E
330
1F
100
AcDbEntity
  8
0
  6
HIDDEN
 62
     7
370
    18
100
AcDbLine
 10
151.2049741274
 20
102.0861135612
 30
0.0
 11
151.2049741274
 21
107.8900883722
 31
0.0
  0
ELLIPSE
  5
18F
330
1F
100
AcDbEntity
  8
0
  6
HIDDEN
 62
     7
370
    18
100
AcDbEllipse
 10
247.7810618651
 20
104.9881009667
 30
0.0
 11
22.55036294697215
 21
31.95937066180756
 31
0.0
210
0.0
220
0.0
230
1.0
 40
0.0714855773
 41
1.62119346133966
 42
2.592164964538849
  0
LINE
  5
190
330
1F
100
AcDbEntity
  8
0
  6
HIDDEN
 62
     7
370
    18
100
AcDbLine
 10
227.3565462952
 20
104.9881009667
 30
0.0
 11
227.3565462952
 21
78.5741964637
 31
0.0
  0
LINE
  5
191
330
1F
100
AcDbEntity
  8
0
  6
HIDDEN
 62
     7
370
    18
100
AcDbLine
 10
227.3565462952
 20
78.5741964637
 30
0.0
 11
227.3565462952
 21
78.6106353908
 31
0.0
  0
SPLINE
  5
192
330
1F
100
AcDbEntity
  8
0
  6
HIDDEN
 62
     7
370
    18
100
AcDbSpline
210
0.0
220
0.0
230
1.0
 70
    11
 71
     3
 72
    72
 73
    68
 74
     0
 42
0.000000001
 43
0.00000001
 40
0.0
 40
0.0
 40
0.0
 40
0.0
 40
0.0312499999999999
 40
0.0312499999999999
 40
0.0624999999999998
 40
0.0624999999999998
 40
0.0937499999999997
 40
0.0937499999999997
 40
0.1249999999999996
 40
0.1249999999999996
 40
0.1562499999999996
 40
0.1562499999999996
 40
0.1874999999999997
 40
0.1874999999999997
 40
0.2187499999999998
 40
0.2187499999999998
 40
0.2499999999999998
 40
0.2499999999999998
 40
0.2812499999999999
 40
0.2812499999999999
 40
0.3124999999999999
 40
0.3124999999999999
 40
0.34375
 40
0.34375
 40
0.3750000000000001
 40
0.3750000000000001
 40
0.3906250000000002
 40
0.3906250000000002
 40
0.4062500000000002
 40
0.4062500000000002
 40
0.4375000000000003
 40
0.4375000000000003
 40
0.4687500000000004
 40
0.4687500000000004
 40
0.5000000000000006
 40
0.5000000000000006
 40
0.5312500000000007
 40
0.5312500000000007
 40
0.5625000000000008
 40
0.5625000000000008
 40
0.5937500000000009
 40
0.5937500000000009
 40
0.625000000000001
 40
0.625000000000001
 40
0.6562500000000011
 40
0.6562500000000011
 40
0.687500000000001
 40
0.687500000000001
 40
0.7187500000000009
 40
0.7187500000000009
 40
0.7500000000000008
 40
0.7500000000000008
 40
0.7812500000000008
 40
0.7812500000000008
 40
0.8125000000000007
 40
0.8125000000000007
 40
0.8437500000000006
 40
0.8437500000000006
 40
0.8750000000000004
 40
0.8750000000000004
 40
0.9062500000000003
 40
0.9062500000000003
 40
0.9375000000000002
 40
0.9375000000000002
 40
0.9687500000000001
 40
0.9687500000000001
 40
1.0
 40
1.0
 40
1.0
 40
1.0
 10
170.5161343342417
 20
107.634112516789
 30
0.0
 10
170.7033494441786
 20
107.8392904170316
 30
0.0
 10
170.9082020454442
 20
108.0229394996901
 30
0.0
 10
171.3510702422912
 20
108.3498944031854
 30
0.0
 10
171.5910256596095
 20
108.4936726113652
 30
0.0
 10
172.086636642384
 20
108.7311899668111
 30
0.0
 10
172.3439029335385
 20
108.8265095317088
 30
0.0
 10
172.8772567013756
 20
108.9705950643433
 30
0.0
 10
173.1515368412739
 20
109.0183310713129
 30
0.0
 10
173.6979653758534
 20
109.0639132118467
 30
0.0
 10
173.9725416943212
 20
109.0624794517745
 30
0.0
 10
174.5245088685919
 20
109.0095661436836
 30
0.0
 10
174.7951258311636
 20
108.9585964174795
 30
0.0
 10
175.3214110022428
 20
108.8099897905359
 30
0.0
 10
175.5790425656504
 20
108.7117044197788
 30
0.0
 10
176.0749687303239
 20
108.467451060593
 30
0.0
 10
176.3079524081156
 20
108.3243709295708
 30
0.0
 10
176.7442856834406
 20
107.996512379102
 30
0.0
 10
176.9495669372988
 20
107.8095187414018
 30
0.0
 10
177.3176012351591
 20
107.4000881215788
 30
0.0
 10
177.4791162251442
 20
107.1799826805943
 30
0.0
 10
177.7562739082913
 20
106.7082325991563
 30
0.0
 10
177.8726680877251
 20
106.4532160727151
 30
0.0
 10
178.0459421243717
 20
105.9319782493181
 30
0.0
 10
178.1043886788375
 20
105.6644941315371
 30
0.0
 10
178.1482534043134
 20
105.2525784722047
 30
0.0
 10
178.1554336209427
 20
105.1128711691292
 30
0.0
 10
178.1544655936472
 20
104.8367481136667
 30
0.0
 10
178.1464628042336
 20
104.699571547336
 30
0.0
 10
178.1003900723212
 20
104.2906381060727
 30
0.0
 10
178.0394552398692
 20
104.0187118570685
 30
0.0
 10
177.8613350834606
 20
103.4955313406134
 30
0.0
 10
177.7457671721183
 20
103.24681934025
 30
0.0
 10
177.463920388179
 20
102.773934815258
 30
0.0
 10
177.2970504427643
 20
102.5503255980259
 30
0.0
 10
176.9277248879656
 20
102.1456682098383
 30
0.0
 10
176.722939731668
 20
101.9612546216687
 30
0.0
 10
176.2782867841518
 20
101.6322285867743
 30
0.0
 10
176.0434376546411
 20
101.4910605107861
 30
0.0
 10
175.550027892164
 20
101.2526509820056
 30
0.0
 10
175.2887409384594
 20
101.1548684256008
 30
0.0
 10
174.7580026579467
 20
101.0095403974106
 30
0.0
 10
174.4883629570494
 20
100.9612510072157
 30
0.0
 10
173.9406116173042
 20
100.912835783429
 30
0.0
 10
173.6607075754456
 20
100.913293969065
 30
0.0
 10
173.1136296676106
 20
100.9634458246671
 30
0.0
 10
172.8440245629232
 20
101.0126193916992
 30
0.0
 10
172.3128698062671
 20
101.1602939150062
 30
0.0
 10
172.0515749898236
 20
101.2594490793718
 30
0.0
 10
171.5592610116482
 20
101.5004618498485
 30
0.0
 10
171.3253041360695
 20
101.6429499744733
 30
0.0
 10
170.8831355155391
 20
101.9744374034582
 30
0.0
 10
170.6779419844274
 20
102.1618710314466
 30
0.0
 10
170.3122477680694
 20
102.568774750497
 30
0.0
 10
170.1494771456811
 20
102.789953825166
 30
0.0
 10
169.8685247149155
 20
103.2697011543812
 30
0.0
 10
169.755320862642
 20
103.5197131211915
 30
0.0
 10
169.5827121385031
 20
104.0397883312119
 30
0.0
 10
169.5231058558267
 20
104.3135197958417
 30
0.0
 10
169.4652140857568
 20
104.8621374457402
 30
0.0
 10
169.4660036246168
 20
105.1364773096318
 30
0.0
 10
169.5271941002332
 20
105.6852192607708
 30
0.0
 10
169.5883228239672
 20
105.9582845746279
 30
0.0
 10
169.7644025095971
 20
106.4784498233963
 30
0.0
 10
169.880733104587
 20
106.7307689569552
 30
0.0
 10
170.1639343343277
 20
107.2071732983622
 30
0.0
 10
170.3289192243047
 20
107.4289346165464
 30
0.0
 10
170.5161343342417
 20
107.634112516789
 30
0.0
  0
CIRCLE
  5
193
330
1F
100
AcDbEntity
  8
0
  6
HIDDEN
 62
     7
370
    18
100
AcDbCircle
 10
173.7049729055
 20
104.9881009667
 30
0.0
 40
4.050000000000011
  0
CIRCLE
  5
194
330
1F
100
AcDbEntity
  8
0
  6
HIDDEN
 62
     7
370
    18
100
AcDbCircle
 10
201.2049729055
 20
104.9881009667
 30
0.0
 40
2.0
  0
LINE
  5
195
330
1F
100
AcDbEntity
  8
0
  6
HIDDEN
 62
     7
370
    18
100
AcDbLine
 10
227.3565462952
 20
104.9881009667
 30
0.0
 11
227.3565462952
 21
107.5888723417
 31
0.0
  0
SPLINE
  5
196
330
1F
100
AcDbEntity
  8
0
  6
HIDDEN
 62
     7
370
    18
100
AcDbSpline
210
0.0
220
0.0
230
1.0
 70
     8
 71
     3
 72
     8
 73
     4
 74
     0
 42
0.000000001
 43
0.00000001
 40
0.0
 40
0.0
 40
0.0
 40
0.0
 40
1.0
 40
1.0
 40
1.0
 40
1.0
 10
227.9699053567779
 20
117.4881009667316
 30
0.0
 10
227.6929180233798
 20
114.6470145200004
 30
0.0
 10
227.4974296164127
 20
111.7934456514025
 30
0.0
 10
227.4035717437896
 20
108.9243109924345
 30
0.0
  0
LINE
  5
197
330
1F
100
AcDbEntity
  8
0
  6
HIDDEN
 62
     7
370
    18
100
AcDbLine
 10
249.5194791978
 20
117.488101153
 30
0.0
 11
249.2285228496
 21
111.9363056778
 31
0.0
  0
LINE
  5
198
330
1F
100
AcDbEntity
  8
0
  6
HIDDEN
 62
     7
370
    18
100
AcDbLine
 10
249.2285228496
 20
111.9363056778
 30
0.0
 11
244.363334698
 21
104.9881009667
 31
0.0
  0
LINE
  5
199
330
1F
100
AcDbEntity
  8
0
  6
HIDDEN
 62
     7
370
    18
100
AcDbLine
 10
213.2049731141
 20
117.2381006464
 30
0.0
 11
213.2049731141
 21
120.7363093554
 31
0.0
  0
LINE
  5
19A
330
1F
100
AcDbEntity
  8
0
  6
HIDDEN
 62
     7
370
    18
100
AcDbLine
 10
207.2049721306
 20
120.7380192637
 30
0.0
 11
207.2049721306
 21
117.2381006464
 31
0.0
  0
LINE
  5
19B
330
1F
100
AcDbEntity
  8
0
  6
HIDDEN
 62
     7
370
    18
100
AcDbLine
 10
189.2049729055
 20
80.7381002515
 30
0.0
 11
189.2978661259
 21
80.8309940904
 31
0.0
  0
LINE
  5
19C
330
1F
100
AcDbEntity
  8
0
  6
HIDDEN
 62
     7
370
    18
100
AcDbLine
 10
189.2978661259
 20
129.1452078431
 30
0.0
 11
189.2049729055
 21
129.238101682
 31
0.0
  0
ARC
  5
19D
330
1F
100
AcDbEntity
  8
0
  6
HIDDEN
 62
     7
370
    18
100
AcDbCircle
 10
188.5907593431
 20
81.5381009667
 30
0.0
 40
1.0
100
AcDbArc
 50
315.0
 51
0.0
  0
ARC
  5
19E
330
1F
100
AcDbEntity
  8
0
  6
HIDDEN
 62
     7
370
    18
100
AcDbCircle
 10
188.5907593431
 20
81.5381009667
 30
0.0
 40
1.00000000000001
100
AcDbArc
 50
0.0
 51
52.1052014664
  0
ARC
  5
19F
330
1F
100
AcDbEntity
  8
0
  6
HIDDEN
 62
     7
370
    18
100
AcDbCircle
 10
188.5907593431
 20
128.4381009667
 30
0.0
 40
1.000000000000008
100
AcDbArc
 50
351.8087250651
 51
45.0
  0
ARC
  5
1A0
330
1F
100
AcDbEntity
  8
0
  6
HIDDEN
 62
     7
370
    18
100
AcDbCircle
 10
188.5907593431
 20
128.4381009667
 30
0.0
 40
1.000000000000002
100
AcDbArc
 50
307.8947985336
 51
351.8087250651
  0
LINE
  5
1A1
330
1F
100
AcDbEntity
  8
0
  6
HIDDEN
 62
     7
370
    18
100
AcDbLine
 10
189.5907593413
 20
81.5381007551
 30
0.0
 11
189.5907593413
 21
128.4381011783
 31
0.0
  0
LINE
  5
1A2
330
1F
100
AcDbEntity
  8
0
  6
HIDDEN
 62
     7
370
    18
100
AcDbLine
 10
189.5907593413
 20
81.5381007551
 30
0.0
 11
189.5907593413
 21
128.4381011783
 31
0.0
  0
LINE
  5
1A3
330
1F
100
AcDbEntity
  8
0
  6
HIDDEN
 62
     7
370
    18
100
AcDbLine
 10
212.7049721008
 20
115.2894310936
 30
0.0
 11
212.7049721008
 21
117.0878857657
 31
0.0
  0
LINE
  5
1A4
330
1F
100
AcDbEntity
  8
0
  6
HIDDEN
 62
     7
370
    18
100
AcDbLine
 10
212.7049721008
 20
109.4857752605
 30
0.0
 11
212.7049721008
 21
113.1878756269
 31
0.0
  0
LINE
  5
1A5
330
1F
100
AcDbEntity
  8
0
  6
HIDDEN
 62
     7
370
    18
100
AcDbLine
 10
207.7049731439
 20
117.0878857657
 30
0.0
 11
207.7049731439
 21
109.4841356672
 31
0.0
  0
LINE
  5
1A6
330
1F
100
AcDbEntity
  8
0
  6
HIDDEN
 62
     7
370
    18
100
AcDbLine
 10
221.0244170552
 20
125.9321952521
 30
0.0
 11
210.0146717554
 21
116.8760210558
 31
0.0
  0
LINE
  5
1A7
330
1F
100
AcDbEntity
  8
0
  6
HIDDEN
 62
     7
370
    18
100
AcDbLine
 10
212.3134645795
 20
112.2927260867
 30
0.0
 11
220.6788106984
 21
119.1737242325
 31
0.0
  0
LINE
  5
1A8
330
1F
100
AcDbEntity
  8
0
  6
HIDDEN
 62
     7
370
    18
100
AcDbLine
 10
151.2049741274
 20
88.7916712373
 30
0.0
 11
152.7352004474
 21
89.6751499086
 31
0.0
  0
LINE
  5
1A9
330
1F
100
AcDbEntity
  8
0
  6
HIDDEN
 62
     7
370
    18
100
AcDbLine
 10
152.7352004474
 20
120.3010520249
 30
0.0
 11
151.2049741274
 21
121.1845306962
 31
0.0
  0
ARC
  5
1AA
330
1F
100
AcDbEntity
  8
0
  6
HIDDEN
 62
     7
370
    18
100
AcDbCircle
 10
162.2067742204
 20
90.9881009667
 30
0.0
 40
2.000000000000016
100
AcDbArc
 50
270.0
 51
315.0
  0
ARC
  5
1AB
330
1F
100
AcDbEntity
  8
0
  6
HIDDEN
 62
     7
370
    18
100
AcDbCircle
 10
162.2067742204
 20
118.9881009667
 30
0.0
 40
2.000000000000026
100
AcDbArc
 50
45.0
 51
90.0
  0
LINE
  5
1AC
330
1F
100
AcDbEntity
  8
0
  6
HIDDEN
 62
     7
370
    18
100
AcDbLine
 10
161.2049720412
 20
88.9881002068
 30
0.0
 11
162.206773383
 21
88.9881002068
 31
0.0
  0
LINE
  5
1AD
330
1F
100
AcDbEntity
  8
0
  6
HIDDEN
 62
     7
370
    18
100
AcDbLine
 10
162.206773383
 20
120.9881017267
 30
0.0
 11
161.2049720412
 21
120.9881017267
 31
0.0
  0
ARC
  5
1AE
330
1F
100
AcDbEntity
  8
0
  6
HIDDEN
 62
     7
370
    18
100
AcDbCircle
 10
161.2049729055
 20
90.9881009667
 30
0.0
 40
2.000000000000029
100
AcDbArc
 50
189.9742217944
 51
270.0
  0
ARC
  5
1AF
330
1F
100
AcDbEntity
  8
0
  6
HIDDEN
 62
     7
370
    18
100
AcDbCircle
 10
161.2049729055
 20
118.9881009667
 30
0.0
 40
2.000000000000032
100
AcDbArc
 50
90.0
 51
170.0257782056
  0
LINE
  5
1B0
330
1F
100
AcDbEntity
  8
0
  6
HIDDEN
 62
     7
370
    18
100
AcDbLine
 10
163.6209885752
 20
89.573887205
 30
0.0
 11
165.0352019047
 21
90.9881005346
 31
0.0
  0
LINE
  5
1B1
330
1F
100
AcDbEntity
  8
0
  6
HIDDEN
 62
     7
370
    18
100
AcDbLine
 10
165.0352019047
 20
118.9881013989
 30
0.0
 11
163.6209885752
 21
120.4023147284
 31
0.0
  0
LINE
  5
1B2
330
1F
100
AcDbEntity
  8
0
  6
HIDDEN
 62
     7
370
    18
100
AcDbLine
 10
152.7352004474
 20
89.6751499086
 30
0.0
 11
157.6352014368
 21
90.9881005346
 31
0.0
  0
LINE
  5
1B3
330
1F
100
AcDbEntity
  8
0
  6
HIDDEN
 62
     7
370
    18
100
AcDbLine
 10
157.6352014368
 20
118.9881013989
 30
0.0
 11
152.7352004474
 21
120.3010520249
 31
0.0
  0
LINE
  5
1B4
330
1F
100
AcDbEntity
  8
0
  6
HIDDEN
 62
     7
370
    18
100
AcDbLine
 10
159.2352005815
 20
119.3345114871
 30
0.0
 11
158.6352016008
 21
118.9881013989
 31
0.0
  0
LINE
  5
1B5
330
1F
100
AcDbEntity
  8
0
  6
HIDDEN
 62
     7
370
    18
100
AcDbLine
 10
158.6352016008
 20
90.9881005346
 30
0.0
 11
159.2352005815
 21
90.6416904464
 31
0.0
  0
ARC
  5
1B6
330
1F
100
AcDbEntity
  8
0
  6
HIDDEN
 62
     7
370
    18
100
AcDbCircle
 10
177.7049729055
 20
91.4881009667
 30
0.0
 40
0.5000000000000142
100
AcDbArc
 50
270.0
 51
0.0
  0
ARC
  5
1B7
330
1F
100
AcDbEntity
  8
0
  6
HIDDEN
 62
     7
370
    18
100
AcDbCircle
 10
177.7049729055
 20
118.4881009667
 30
0.0
 40
0.5
100
AcDbArc
 50
0.0
 51
90.0
  0
LINE
  5
1B8
330
1F
100
AcDbEntity
  8
0
  6
HIDDEN
 62
     7
370
    18
100
AcDbLine
 10
157.6352014368
 20
90.9881005346
 30
0.0
 11
158.6352016008
 21
90.9881005346
 31
0.0
  0
LINE
  5
1B9
330
1F
100
AcDbEntity
  8
0
  6
HIDDEN
 62
     7
370
    18
100
AcDbLine
 10
158.6352016008
 20
118.9881013989
 30
0.0
 11
157.6352014368
 21
118.9881013989
 31
0.0
  0
LINE
  5
1BA
330
1F
100
AcDbEntity
  8
0
  6
HIDDEN
 62
     7
370
    18
100
AcDbLine
 10
165.0352019047
 20
90.9881005346
 30
0.0
 11
177.7049728831
 21
90.9881005346
 31
0.0
  0
LINE
  5
1BB
330
1F
100
AcDbEntity
  8
0
  6
HIDDEN
 62
     7
370
    18
100
AcDbLine
 10
177.7049728831
 20
118.9881013989
 30
0.0
 11
165.0352019047
 21
118.9881013989
 31
0.0
  0
LINE
  5
1BC
330
1F
100
AcDbEntity
  8
0
  6
HIDDEN
 62
     7
370
    18
100
AcDbLine
 10
178.2049729651
 20
94.7381006836
 30
0.0
 11
179.4549727043
 21
95.9881013542
 31
0.0
  0
LINE
  5
1BD
330
1F
100
AcDbEntity
  8
0
  6
HIDDEN
 62
     7
370
    18
100
AcDbLine
 10
179.4549727043
 20
113.9881005793
 30
0.0
 11
178.2049729651
 21
115.2381012499
 31
0.0
  0
LINE
  5
1BE
330
1F
100
AcDbEntity
  8
0
  6
HIDDEN
 62
     7
370
    18
100
AcDbLine
 10
216.2049736058
 20
113.9881005793
 30
0.0
 11
179.4549727043
 21
113.9881005793
 31
0.0
  0
LINE
  5
1BF
330
1F
100
AcDbEntity
  8
0
  6
HIDDEN
 62
     7
370
    18
100
AcDbLine
 10
179.4549727043
 20
95.9881013542
 30
0.0
 11
216.2049736058
 21
95.9881013542
 31
0.0
  0
LINE
  5
1C0
330
1F
100
AcDbEntity
  8
0
  6
HIDDEN
 62
     7
370
    18
100
AcDbLine
 10
216.2049736058
 20
95.9881013542
 30
0.0
 11
221.6127186244
 21
104.9881009667
 31
0.0
  0
LINE
  5
1C1
330
1F
100
AcDbEntity
  8
0
  6
HIDDEN
 62
     7
370
    18
100
AcDbLine
 10
221.6127186244
 20
104.9881009667
 30
0.0
 11
216.2049736058
 21
113.9881005793
 31
0.0
  0
ARC
  5
1C2
330
1F
100
AcDbEntity
  8
0
  6
HIDDEN
 62
     7
370
    18
100
AcDbCircle
 10
226.4376459175
 20
137.4881009667
 30
0.0
 40
1.000000000000008
100
AcDbArc
 50
270.0
 51
296.0556324729
  0
LINE
  5
1C3
330
1F
100
AcDbEntity
  8
VERMASSUNG
100
AcDbLine
 10
254.2049729055
 20
149.9881009667
 30
0.0
 11
254.7369021607
 21
149.9881009667
 31
0.0
  0
LINE
  5
1C4
330
1F
100
AcDbEntity
  8
VERMASSUNG
100
AcDbLine
 10
254.2049729055
 20
149.9881009667
 30
0.0
 11
254.2049729055
 21
148.4557465243
 31
0.0
  0
DIMENSION
  5
1C5
330
1F
100
AcDbEntity
  8
VERMASSUNG
100
AcDbDimension
  2
_D
 10
272.5355404079
 20
104.9881009667
 30
0.0
 11
272.5355404079
 21
127.4881009667
 31
0.0
 70
   160
  1
<>
 71
     2
 42
-1.0
  3
SLDDIMSTYLE0
100
AcDbAlignedDimension
 13
254.7369021607
 23
149.9881009667
 33
0.0
 14
255.893370594
 24
104.9881009667
 34
0.0
 50
90.0
100
AcDbRotatedDimension
  0
DIMENSION
  5
1D2
330
1F
100
AcDbEntity
  8
VERMASSUNG
100
AcDbDimension
  2
_D_1
 10
254.7369021607
 20
149.9881009667
 30
0.0
 11
261.8355178866
 21
141.9698532914
 31
0.0
 70
   162
  1
<>
 71
     1
 42
-1.0
  3
SLDDIMSTYLE1
100
AcDb2LineAngularDimension
 13
254.2053204821
 23
149.5842587554
 33
0.0
 14
253.4082873603
 24
134.3759608127
 34
0.0
 15
254.2049729055
 25
149.9881009667
 35
0.0
 16
261.8355178866
 26
141.9698532914
 36
0.0
  0
DIMENSION
  5
1DC
330
1F
100
AcDbEntity
  8
VERMASSUNG
100
AcDbDimension
  2
_D_2
 10
189.2049729055
 20
153.8048180284
 30
0.0
 11
221.7049729055
 21
153.8048180284
 31
0.0
 70
   160
  1
<>
 71
     2
 42
-1.0
  3
SLDDIMSTYLE0
100
AcDbAlignedDimension
 13
254.2049729055
 23
149.9881009667
 33
0.0
 14
189.2049729055
 24
135.9881009667
 34
0.0
100
AcDbRotatedDimension
  0
DIMENSION
  5
1E8
330
1F
100
AcDbEntity
  8
VERMASSUNG
100
AcDbDimension
  2
_D_3
 10
151.2049729055
 20
160.5572739384
 30
0.0
 11
202.7049729055
 21
160.5572739384
 31
0.0
 70
   160
  1
<>
 71
     2
 42
-1.0
  3
SLDDIMSTYLE2
100
AcDbAlignedDimension
 13
254.2049729055
 23
149.9881009667
 33
0.0
 14
151.2049729055
 24
125.2804389592
 34
0.0
100
AcDbRotatedDimension
  0
DIMENSION
  5
1F3
330
1F
100
AcDbEntity
  8
VERMASSUNG
100
AcDbDimension
  2
_D_4
 10
144.4520072308
 20
73.4881009667
 30
0.0
 11
144.4520072308
 21
104.9881009667
 31
0.0
 70
   160
  1
PSC%%c<>
 71
     2
 42
-1.0
  3
SLDDIMSTYLE2
100
AcDbAlignedDimension
 13
189.7049729055
 23
136.4881009667
 33
0.0
 14
189.7049729055
 24
73.4881009667
 34
0.0
 50
90.0
100
AcDbRotatedDimension
  0
LINE
  5
1FF
330
1F
100
AcDbEntity
  8
VERMASSUNG
  6
CENTERX2
370
    18
100
AcDbLine
 10
152.0662299422
 20
104.9881009667
 30
0.0
 11
255.893370594
 21
104.9881009667
 31
0.0
  0
LINE
  5
200
330
1F
100
AcDbEntity
  8
0
  6
CENTERX2
 62
     7
100
AcDbLine
 10
74.5764664193
 20
149.9881009667
 30
0.0
 11
74.5764664193
 21
104.9881009667
 31
0.0
  0
LINE
  5
201
330
1F
100
AcDbEntity
  8
0
  6
CENTERX2
 62
     7
100
AcDbLine
 10
74.5764664193
 20
149.9881009667
 30
0.0
 11
74.5764664193
 21
104.9881009667
 31
0.0
  0
POINT
  5
202
330
1F
100
AcDbEntity
  8
0
  6
Continuous
 62
     7
100
AcDbPoint
 10
74.5764664193
 20
149.9881009667
 30
0.0
  0
SPLINE
  5
203
330
1F
100
AcDbEntity
  8
0
  6
Continuous
 62
     7
370
    25
100
AcDbSpline
210
0.0
220
0.0
230
1.0
 70
     8
 71
     3
 72
    11
 73
     7
 74
     0
 42
0.000000001
 43
0.00000001
 40
0.0
 40
0.0
 40
0.0
 40
0.0
 40
0.2011965784071602
 40
0.4362264134838524
 40
0.7042437990812598
 40
1.0
 40
1.0
 40
1.0
 40
1.0
 10
79.38151860659204
 20
149.3155537455478
 30
0.0
 10
79.06272966977183
 20
149.3924175721604
 30
0.0
 10
78.37154418506651
 20
149.5590706617672
 30
0.0
 10
77.22447390455511
 20
149.6752515807411
 30
0.0
 10
75.92224486410639
 20
149.7626210076054
 30
0.0
 10
75.01617773675989
 20
149.9257832756987
 30
0.0
 10
74.54085399373511
 20
150.0113783686557
 30
0.0
  0
LINE
  5
204
330
1F
100
AcDbEntity
  8
0
  6
Continuous
 62
     7
370
    25
100
AcDbLine
 10
74.5408539937
 20
121.9872134089
 30
0.0
 11
74.8764664335
 21
122.0409414082
 31
0.0
  0
SPLINE
  5
205
330
1F
100
AcDbEntity
  8
0
  6
Continuous
 62
     7
370
    25
100
AcDbSpline
210
0.0
220
0.0
230
1.0
 70
    24
 71
     3
 72
    12
 73
     8
 74
     0
 42
0.000000001
 43
0.00000001
 40
0.0
 40
0.0
 40
0.0
 40
0.0
 40
0.213629490647301
 40
0.4269635492476807
 40
0.6365152406468066
 40
0.8416182929108528
 40
1.0
 40
1.0
 40
1.0
 40
1.0
 10
74.5764664192978
 20
149.5842589347759
 30
0.0
 10
74.57646641929782
 20
149.6302398526935
 30
0.0
 10
74.57646641929782
 20
149.7221381006942
 30
0.0
 10
74.57646641929774
 20
149.8470554432656
 30
0.0
 10
74.57646641929806
 20
149.9411674000835
 30
0.0
 10
74.57646641929723
 20
149.9965279622417
 30
0.0
 10
74.57646641929757
 20
149.9984360404084
 30
0.0
 10
74.57646641929773
 20
149.9992674498954
 30
0.0
  0
LINE
  5
206
330
1F
100
AcDbEntity
  8
0
  6
Continuous
 62
     7
370
    25
100
AcDbLine
 10
79.3364663427
 20
134.4347810655
 30
0.0
 11
79.3364663427
 21
149.2213523298
 31
0.0
  0
LINE
  5
207
330
1F
100
AcDbEntity
  8
0
  6
Continuous
 62
     7
370
    25
100
AcDbLine
 10
74.5764664193
 20
134.3759605943
 30
0.0
 11
74.5764664193
 21
149.5842589348
 31
0.0
  0
SPLINE
  5
208
330
1F
100
AcDbEntity
  8
0
  6
Continuous
 62
     7
370
    25
100
AcDbSpline
210
0.0
220
0.0
230
1.0
 70
    24
 71
     3
 72
    10
 73
     6
 74
     0
 42
0.000000001
 43
0.00000001
 40
0.0
 40
0.0
 40
0.0
 40
0.0
 40
0.4149094859303938
 40
0.7027667837561282
 40
0.9999999999999999
 40
0.9999999999999999
 40
0.9999999999999999
 40
0.9999999999999999
 10
79.3364663427063
 20
134.4347810655036
 30
0.0
 10
79.3364663427063
 20
134.426409586112
 30
0.0
 10
79.3364663427063
 20
134.4122301136082
 30
0.0
 10
79.3364663427063
 20
134.3933401342197
 30
0.0
 10
79.3364663427063
 20
134.3836063251672
 30
0.0
 10
79.3364663427063
 20
134.3786614298024
 30
0.0
  0
SPLINE
  5
209
330
1F
100
AcDbEntity
  8
0
  6
Continuous
 62
     7
370
    25
100
AcDbSpline
210
0.0
220
0.0
230
1.0
 70
    24
 71
     3
 72
    10
 73
     6
 74
     0
 42
0.000000001
 43
0.00000001
 40
0.0
 40
0.0
 40
0.0
 40
0.0
 40
0.2724516797839323
 40
0.5448105687083421
 40
1.0
 40
1.0
 40
1.0
 40
1.0
 10
74.57646641929782
 20
134.1514876394668
 30
0.0
 10
74.57646641929782
 20
134.1695534362292
 30
0.0
 10
74.57646641929782
 20
134.2056788769536
 30
0.0
 10
74.5764664192978
 20
134.2804903958421
 30
0.0
 10
74.57646641929782
 20
134.3392178546185
 30
0.0
 10
74.57646641929782
 20
134.375960594336
 30
0.0
  0
LINE
  5
20A
330
1F
100
AcDbEntity
  8
0
  6
Continuous
 62
     7
370
    25
100
AcDbLine
 10
79.3364663427
 20
134.1286422967
 30
0.0
 11
79.3364663427
 21
134.3786614298
 31
0.0
  0
LINE
  5
20B
330
1F
100
AcDbEntity
  8
0
  6
Continuous
 62
     7
370
    25
100
AcDbLine
 10
74.5764664193
 20
122.1507387518
 30
0.0
 11
74.5764664193
 21
134.1514876395
 31
0.0
  0
SPLINE
  5
20C
330
1F
100
AcDbEntity
  8
0
  6
Continuous
 62
     7
370
    25
100
AcDbSpline
210
0.0
220
0.0
230
1.0
 70
    24
 71
     3
 72
    11
 73
     7
 74
     0
 42
0.000000001
 43
0.00000001
 40
0.0
 40
0.0
 40
0.0
 40
0.0
 40
0.0789974632275397
 40
0.4422522732489504
 40
0.8120455236149418
 40
0.9999999999999999
 40
0.9999999999999999
 40
0.9999999999999999
 40
0.9999999999999999
 10
74.5764664192978
 20
121.9993243276277
 30
0.0
 10
74.57646641929783
 20
121.998251100641
 30
0.0
 10
74.57646641929799
 20
121.9922428434745
 30
0.0
 10
74.57646641929784
 20
122.0248963408292
 30
0.0
 10
74.57646641929789
 20
122.0828430534802
 30
0.0
 10
74.57646641929789
 20
122.1336256195496
 30
0.0
 10
74.57646641929789
 20
122.1507387518087
 30
0.0
  0
LINE
  5
20D
330
1F
100
AcDbEntity
  8
0
  6
Continuous
 62
     7
370
    25
100
AcDbLine
 10
74.8764664335
 20
110.9969904929
 30
0.0
 11
106.5764679392
 21
111.9363056778
 31
0.0
  0
LINE
  5
20E
330
1F
100
AcDbEntity
  8
0
  6
Continuous
 62
     7
370
    25
100
AcDbLine
 10
74.8764664335
 20
133.9853601813
 30
0.0
 11
74.8764664335
 21
110.9969904929
 31
0.0
  0
LINE
  5
20F
330
1F
100
AcDbEntity
  8
0
  6
Continuous
 62
     7
370
    25
100
AcDbLine
 10
74.8764664335
 20
133.9853601813
 30
0.0
 11
76.8364663986
 21
134.0483269005
 31
0.0
  0
LINE
  5
210
330
1F
100
AcDbEntity
  8
0
  6
Continuous
 62
     7
370
    25
100
AcDbLine
 10
76.8364663986
 20
134.0483269005
 30
0.0
 11
79.3364663427
 21
133.7478356718
 31
0.0
  0
LINE
  5
211
330
1F
100
AcDbEntity
  8
0
  6
Continuous
 62
     7
370
    25
100
AcDbLine
 10
79.3364663427
 20
133.7478356718
 30
0.0
 11
79.3364663427
 21
134.1286422967
 31
0.0
  0
LINE
  5
212
330
1F
100
AcDbEntity
  8
0
  6
Continuous
 62
     7
370
    25
100
AcDbLine
 10
90.1330235233
 20
145.4522488921
 30
0.0
 11
79.3364663427
 21
148.3945204227
 31
0.0
  0
ARC
  5
213
330
1F
100
AcDbEntity
  8
0
  6
Continuous
 62
     7
370
    25
100
AcDbCircle
 10
74.5764664193
 20
117.4881009667
 30
0.0
 40
32.0
100
AcDbArc
 50
0.0
 51
60.9126520381
  0
LINE
  5
214
330
1F
100
AcDbEntity
  8
0
  6
Continuous
 62
     7
370
    25
100
AcDbLine
 10
106.5764679392
 20
117.488101153
 30
0.0
 11
106.5764679392
 21
111.9363056778
 31
0.0
  0
LINE
  5
215
330
1F
100
AcDbEntity
  8
0
  6
Continuous
 62
     7
370
    25
100
AcDbLine
 10
79.3364663427
 20
148.5037794619
 30
0.0
 11
89.7350526234
 21
145.6699623077
 31
0.0
  0
ARC
  5
216
330
1F
100
AcDbEntity
  8
0
  6
Continuous
 62
     7
370
    25
100
AcDbCircle
 10
74.5764664193
 20
117.4881009667
 30
0.0
 40
32.0
100
AcDbArc
 50
60.9126520381
 51
61.7248810811
  0
SPLINE
  5
217
330
1F
100
AcDbEntity
  8
0
  6
Continuous
 62
     7
370
    25
100
AcDbSpline
210
0.0
220
0.0
230
1.0
 70
     8
 71
     3
 72
    12
 73
     8
 74
     0
 42
0.000000001
 43
0.00000001
 40
0.0
 40
0.0
 40
0.0
 40
0.0
 40
0.4999999999999987
 40
0.4999999999999987
 40
0.7499999999999993
 40
0.7499999999999993
 40
1.0
 40
1.0
 40
1.0
 40
1.0
 10
88.19400111536436
 20
76.58365151243946
 30
0.0
 10
88.95812283064484
 20
76.94998334318286
 30
0.0
 10
89.7273701822922
 20
77.30890497175865
 30
0.0
 10
90.89254256106699
 20
77.82721308565918
 30
0.0
 10
91.28299141883163
 20
77.99633876884313
 30
0.0
 10
92.0723992623137
 20
78.31952343201934
 30
0.0
 10
92.47220714169086
 20
78.47472077775998
 30
0.0
 10
92.87928831777208
 20
78.61063477225251
 30
0.0
  0
ARC
  5
218
330
1F
100
AcDbEntity
  8
0
  6
Continuous
 62
     7
370
    25
100
AcDbCircle
 10
74.5764664193
 20
104.9881009667
 30
0.0
 40
31.49999999999999
100
AcDbArc
 50
269.0560482773
 51
295.6137835578
  0
ELLIPSE
  5
219
330
1F
100
AcDbEntity
  8
0
  6
Continuous
 62
     7
370
    25
100
AcDbEllipse
 10
68.8764664193
 20
77.0236641312
 30
0.0
 11
1.206643027822736
 21
8.577870657123853
 31
0.0
210
0.0
220
0.0
230
1.0
 40
0.6851835035
 41
4.386268799552234
 42
4.914877033749289
  0
LINE
  5
21A
330
1F
100
AcDbEntity
  8
0
  6
Continuous
 62
     7
370
    25
100
AcDbLine
 10
106.5764679392
 20
111.9363056778
 30
0.0
 11
106.5764679392
 21
104.9881009667
 31
0.0
  0
ARC
  5
21B
330
1F
100
AcDbEntity
  8
0
  6
Continuous
 62
     7
370
    25
100
AcDbCircle
 10
74.5764664193
 20
104.9881009667
 30
0.0
 40
32.00000000000001
100
AcDbArc
 50
304.3674308392
 51
0.0
  0
LINE
  5
21C
330
1F
100
AcDbEntity
  8
0
  6
Continuous
 62
     7
370
    25
100
AcDbLine
 10
92.6403990765
 20
78.5741964637
 30
0.0
 11
92.8792889049
 21
78.6106353908
 31
0.0
  0
LINE
  5
21D
330
1F
100
AcDbEntity
  8
0
  6
Continuous
 62
     7
370
    25
100
AcDbLine
 10
74.8764664335
 20
110.9969904929
 30
0.0
 11
74.8764664335
 21
77.9388556539
 31
0.0
  0
SPLINE
  5
21E
330
1F
100
AcDbEntity
  8
0
  6
Continuous
 62
     7
370
    25
100
AcDbSpline
210
0.0
220
0.0
230
1.0
 70
     8
 71
     3
 72
    16
 73
    12
 74
     0
 42
0.000000001
 43
0.00000001
 40
0.0
 40
0.0
 40
0.0
 40
0.0
 40
0.2500000000000002
 40
0.2500000000000002
 40
0.5000000000000004
 40
0.5000000000000004
 40
0.6250000000000008
 40
0.6250000000000008
 40
0.7500000000000011
 40
0.7500000000000011
 40
1.0
 40
1.0
 40
1.0
 40
1.0
 10
74.05752533132116
 20
73.492375857644
 30
0.0
 10
73.86125215393582
 20
73.49560976370142
 30
0.0
 10
73.63347386860583
 20
73.50114210182379
 30
0.0
 10
73.1130334043351
 20
73.52103600474678
 30
0.0
 10
72.82568307074011
 20
73.53527298798137
 30
0.0
 10
72.36281344755376
 20
73.56559871007961
 30
0.0
 10
72.20281840206432
 20
73.57721981520294
 30
0.0
 10
71.87127736455342
 20
73.60403475785316
 30
0.0
 10
71.69887183797994
 20
73.619317154772
 30
0.0
 10
71.17189750977724
 20
73.67063772010378
 30
0.0
 10
70.80722858763048
 20
73.71210164752762
 30
0.0
 10
70.42938068991357
 20
73.76228344415686
 30
0.0
  0
SPLINE
  5
21F
330
1F
100
AcDbEntity
  8
0
  6
Continuous
 62
     7
370
    25
100
AcDbSpline
210
0.0
220
0.0
230
1.0
 70
     8
 71
     3
 72
    14
 73
    10
 74
     0
 42
0.000000001
 43
0.00000001
 40
0.0
 40
0.0
 40
0.0
 40
0.0
 40
0.2500000000000001
 40
0.2500000000000001
 40
0.5000000000000001
 40
0.5000000000000001
 40
0.75
 40
0.75
 40
1.0
 40
1.0
 40
1.0
 40
1.0
 10
70.42938068991357
 20
136.2139184893063
 30
0.0
 10
70.86625881754769
 20
136.2719400622333
 30
0.0
 10
71.28297722613974
 20
136.3179866336817
 30
0.0
 10
72.07661205210766
 20
136.3912781167025
 30
0.0
 10
72.45613643257786
 20
136.4185078240024
 30
0.0
 10
73.13702771012171
 20
136.4570426500594
 30
0.0
 10
73.44388409106853
 20
136.4688877285546
 30
0.0
 10
73.98285834112822
 20
136.4836610875346
 30
0.0
 10
74.20779088636975
 20
136.4864589302209
 30
0.0
 10
74.38799877224297
 20
136.487537151305
 30
0.0
  0
SPLINE
  5
220
330
1F
100
AcDbEntity
  8
0
  6
Continuous
 62
     7
370
    25
100
AcDbSpline
210
0.0
220
0.0
230
1.0
 70
     8
 71
     3
 72
     9
 73
     5
 74
     0
 42
0.000000001
 43
0.00000001
 40
0.0
 40
0.0
 40
0.0
 40
0.0
 40
0.6518675607516206
 40
1.0
 40
1.0
 40
1.0
 40
1.0
 10
74.38799877351343
 20
136.487538954536
 30
0.0
 10
74.43630843865965
 20
136.4946577014863
 30
0.0
 10
74.51041807082255
 20
136.505578243294
 30
0.0
 10
74.55941054842764
 20
136.6078771977524
 30
0.0
 10
74.57646641916111
 20
136.6434907823005
 30
0.0
  0
ARC
  5
221
330
1F
100
AcDbEntity
  8
0
  6
Continuous
 62
     7
370
    25
100
AcDbCircle
 10
74.5764664193
 20
104.9881009667
 30
0.0
 40
32.10551373655944
100
AcDbArc
 50
304.7560448842
 51
4.6464506928
  0
ELLIPSE
  5
222
330
1F
100
AcDbEntity
  8
0
  6
Continuous
 62
     7
370
    25
100
AcDbEllipse
 10
62.3615546427
 20
122.5529599264
 30
0.0
 11
2.156649216541936
 21
3.149035452977217
 31
0.0
210
0.0
220
0.0
230
1.0
 40
0.6401414518
 41
0.0
 42
6.283185307179586
  0
ARC
  5
223
330
1F
100
AcDbEntity
  8
0
  6
Continuous
 62
     7
370
    25
100
AcDbCircle
 10
74.5764664193
 20
104.9881009667
 30
0.0
 40
31.50000000000001
100
AcDbArc
 50
97.5651530928
 51
262.4348469072
  0
CIRCLE
  5
224
330
1F
100
AcDbEntity
  8
VERMASSUNG
  6
CENTERX2
100
AcDbCircle
 10
74.5764664193
 20
109.9881009667
 30
0.0
 40
39.99999999999999
  0
DIMENSION
  5
225
330
1F
100
AcDbEntity
  8
VERMASSUNG
100
AcDbDimension
  2
_D_5
 10
102.8607376668
 20
138.2723722142
 30
0.0
 11
109.1303593042
 21
144.5419938516
 31
0.0
 70
   163
  1
<>min
 71
     1
 42
-1.0
  3
SLDDIMSTYLE3
100
AcDbDiametricDimension
 15
46.2921951718
 25
81.7038297193
 35
0.0
 40
0.0
  0
INSERT
  5
23D
330
1F
100
AcDbEntity
  8
VERMASSUNG
100
AcDbBlockReference
  2
SW_CENTERMARKSYMBOL_0
 10
74.5764664193
 20
104.9881009667
 30
0.0
  0
OLE2FRAME
  5
23E
330
1F
100
AcDbEntity
  8
0
100
AcDbOle2Frame
 70
     2
  3
Paintbrush-Bild
 10
13.8511154363
 20
38.264191557
 30
0.0
 11
51.6290888628
 21
31.9806341108
 31
0.0
 71
     2
 72
     0
 73
     1
 90
    12928
310
80552BED0767C5B32B40DDAF6807D121434000000000000000006FFBDDFB85D0
310
4940DDAF6807D121434000000000000000006FFBDDFB85D04940416F4BD60AFB
310
3F4000000000000000002BED0767C5B32B40416F4BD60AFB3F40000000000000
310
0000000000000100000000010000010000000100000000000100000000320000
310
D0CF11E0A1B11AE1000000000000000000000000000000003E000300FEFF0900
310
0600000000000000000000000100000001000000000000000010000002000000
310
01000000FEFFFFFF0000000000000000FFFFFFFFFFFFFFFFFFFFFFFFFFFFFFFF
310
FFFFFFFFFFFFFFFFFFFFFFFFFFFFFFFFFFFFFFFFFFFFFFFFFFFFFFFFFFFFFFFF
310
FFFFFFFFFFFFFFFFFFFFFFFFFFFFFFFFFFFFFFFFFFFFFFFFFFFFFFFFFFFFFFFF
310
FFFFFFFFFFFFFFFFFFFFFFFFFFFFFFFFFFFFFFFFFFFFFFFFFFFFFFFFFFFFFFFF
310
FFFFFFFFFFFFFFFFFFFFFFFFFFFFFFFFFFFFFFFFFFFFFFFFFFFFFFFFFFFFFFFF
310
FFFFFFFFFFFFFFFFFFFFFFFFFFFFFFFFFFFFFFFFFFFFFFFFFFFFFFFFFFFFFFFF
310
FFFFFFFFFFFFFFFFFFFFFFFFFFFFFFFFFFFFFFFFFFFFFFFFFFFFFFFFFFFFFFFF
310
FFFFFFFFFFFFFFFFFFFFFFFFFFFFFFFFFFFFFFFFFFFFFFFFFFFFFFFFFFFFFFFF
310
FFFFFFFFFFFFFFFFFFFFFFFFFFFFFFFFFFFFFFFFFFFFFFFFFFFFFFFFFFFFFFFF
310
FFFFFFFFFFFFFFFFFFFFFFFFFFFFFFFFFFFFFFFFFFFFFFFFFFFFFFFFFFFFFFFF
310
FFFFFFFFFFFFFFFFFFFFFFFFFFFFFFFFFFFFFFFFFFFFFFFFFFFFFFFFFFFFFFFF
310
FFFFFFFFFFFFFFFFFFFFFFFFFFFFFFFFFFFFFFFFFFFFFFFFFFFFFFFFFFFFFFFF
310
FFFFFFFFFFFFFFFFFFFFFFFFFFFFFFFFFFFFFFFFFFFFFFFFFFFFFFFFFFFFFFFF
310
FFFFFFFFFFFFFFFFFFFFFFFFFFFFFFFFFFFFFFFFFFFFFFFFFFFFFFFFFFFFFFFF
310
FDFFFFFFFEFFFFFFFEFFFFFFFEFFFFFF05000000060000000700000008000000
310
090000000A0000000B0000000C0000000D0000000E0000000F00000010000000
310
11000000120000001300000014000000150000001600000017000000FEFFFFFF
310
FFFFFFFFFFFFFFFFFFFFFFFFFFFFFFFFFFFFFFFFFFFFFFFFFFFFFFFFFFFFFFFF
310
FFFFFFFFFFFFFFFFFFFFFFFFFFFFFFFFFFFFFFFFFFFFFFFFFFFFFFFFFFFFFFFF
310
FFFFFFFFFFFFFFFFFFFFFFFFFFFFFFFFFFFFFFFFFFFFFFFFFFFFFFFFFFFFFFFF
310
FFFFFFFFFFFFFFFFFFFFFFFFFFFFFFFFFFFFFFFFFFFFFFFFFFFFFFFFFFFFFFFF
310
FFFFFFFFFFFFFFFFFFFFFFFFFFFFFFFFFFFFFFFFFFFFFFFFFFFFFFFFFFFFFFFF
310
FFFFFFFFFFFFFFFFFFFFFFFFFFFFFFFFFFFFFFFFFFFFFFFFFFFFFFFFFFFFFFFF
310
FFFFFFFFFFFFFFFFFFFFFFFFFFFFFFFFFFFFFFFFFFFFFFFFFFFFFFFFFFFFFFFF
310
FFFFFFFFFFFFFFFFFFFFFFFFFFFFFFFFFFFFFFFFFFFFFFFFFFFFFFFFFFFFFFFF
310
FFFFFFFFFFFFFFFFFFFFFFFFFFFFFFFFFFFFFFFFFFFFFFFFFFFFFFFFFFFFFFFF
310
FFFFFFFFFFFFFFFFFFFFFFFFFFFFFFFFFFFFFFFFFFFFFFFFFFFFFFFFFFFFFFFF
310
FFFFFFFFFFFFFFFFFFFFFFFFFFFFFFFFFFFFFFFFFFFFFFFFFFFFFFFFFFFFFFFF
310
FFFFFFFFFFFFFFFFFFFFFFFFFFFFFFFFFFFFFFFFFFFFFFFFFFFFFFFFFFFFFFFF
310
FFFFFFFFFFFFFFFFFFFFFFFFFFFFFFFFFFFFFFFFFFFFFFFFFFFFFFFFFFFFFFFF
310
52006F006F007400200045006E00740072007900000000000000000000000000
310
0000000000000000000000000000000000000000000000000000000000000000
310
16000500FFFFFFFFFFFFFFFF020000000A00030000000000C000000000000046
310
000000000000000000000000A0A868311BA0D30103000000C000000000000000
310
01004F006C006500000000000000000000000000000000000000000000000000
310
0000000000000000000000000000000000000000000000000000000000000000
310
0A000200FFFFFFFFFFFFFFFFFFFFFFFF00000000000000000000000000000000
310
0000000000000000000000000000000000000000000000001400000000000000
310
010043006F006D0070004F0062006A0000000000000000000000000000000000
310
0000000000000000000000000000000000000000000000000000000000000000
310
120002010100000003000000FFFFFFFF00000000000000000000000000000000
310
0000000000000000000000000000000000000000010000004D00000000000000
310
01004F006C006500310030004E00610074006900760065000000000000000000
310
0000000000000000000000000000000000000000000000000000000000000000
310
1A000200FFFFFFFFFFFFFFFFFFFFFFFF00000000000000000000000000000000
310
0000000000000000000000000000000000000000040000002426000000000000
310
FEFFFFFF02000000FEFFFFFFFFFFFFFFFFFFFFFFFFFFFFFFFFFFFFFFFFFFFFFF
310
FFFFFFFFFFFFFFFFFFFFFFFFFFFFFFFFFFFFFFFFFFFFFFFFFFFFFFFFFFFFFFFF
310
FFFFFFFFFFFFFFFFFFFFFFFFFFFFFFFFFFFFFFFFFFFFFFFFFFFFFFFFFFFFFFFF
310
FFFFFFFFFFFFFFFFFFFFFFFFFFFFFFFFFFFFFFFFFFFFFFFFFFFFFFFFFFFFFFFF
310
FFFFFFFFFFFFFFFFFFFFFFFFFFFFFFFFFFFFFFFFFFFFFFFFFFFFFFFFFFFFFFFF
310
FFFFFFFFFFFFFFFFFFFFFFFFFFFFFFFFFFFFFFFFFFFFFFFFFFFFFFFFFFFFFFFF
310
FFFFFFFFFFFFFFFFFFFFFFFFFFFFFFFFFFFFFFFFFFFFFFFFFFFFFFFFFFFFFFFF
310
FFFFFFFFFFFFFFFFFFFFFFFFFFFFFFFFFFFFFFFFFFFFFFFFFFFFFFFFFFFFFFFF
310
FFFFFFFFFFFFFFFFFFFFFFFFFFFFFFFFFFFFFFFFFFFFFFFFFFFFFFFFFFFFFFFF
310
FFFFFFFFFFFFFFFFFFFFFFFFFFFFFFFFFFFFFFFFFFFFFFFFFFFFFFFFFFFFFFFF
310
FFFFFFFFFFFFFFFFFFFFFFFFFFFFFFFFFFFFFFFFFFFFFFFFFFFFFFFFFFFFFFFF
310
FFFFFFFFFFFFFFFFFFFFFFFFFFFFFFFFFFFFFFFFFFFFFFFFFFFFFFFFFFFFFFFF
310
FFFFFFFFFFFFFFFFFFFFFFFFFFFFFFFFFFFFFFFFFFFFFFFFFFFFFFFFFFFFFFFF
310
FFFFFFFFFFFFFFFFFFFFFFFFFFFFFFFFFFFFFFFFFFFFFFFFFFFFFFFFFFFFFFFF
310
FFFFFFFFFFFFFFFFFFFFFFFFFFFFFFFFFFFFFFFFFFFFFFFFFFFFFFFFFFFFFFFF
310
FFFFFFFFFFFFFFFFFFFFFFFFFFFFFFFFFFFFFFFFFFFFFFFFFFFFFFFFFFFFFFFF
310
0100000200000000000000000000000000000000000000000000000000000000
310
0000000000000000000000000000000000000000000000000000000000000000
310
0100FEFF030A0000FFFFFFFF0A00030000000000C00000000000004607000000
310
5042727573680007000000504272757368000700000050427275736800F439B2
310
7100000000000000000000000000000000000000000000000000000000000000
310
0000000000000000000000000000000000000000000000000000000000000000
310
0000000000000000000000000000000000000000000000000000000000000000
310
0000000000000000000000000000000000000000000000000000000000000000
310
0000000000000000000000000000000000000000000000000000000000000000
310
0000000000000000000000000000000000000000000000000000000000000000
310
0000000000000000000000000000000000000000000000000000000000000000
310
0000000000000000000000000000000000000000000000000000000000000000
310
0000000000000000000000000000000000000000000000000000000000000000
310
0000000000000000000000000000000000000000000000000000000000000000
310
0000000000000000000000000000000000000000000000000000000000000000
310
0000000000000000000000000000000000000000000000000000000000000000
310
20260000424D0E260000000000003E00000028000000B40200006E0000000100
310
01000000000000000000130B0000130B00000200000002000000000000FFFFFF
310
FFFFFFFFFFFFFFFFFFFFFFFFFFFFFFFFFFFFFFFFFFFFFFFFFFFFFFFFFFFFFFFF
310
FFFFFFFFFFFFFFFFFFFFFFFFFFFFFFFFFFFFFFFFFFFFFFFFFFFFFFFFFFFFFFFF
310
FFFFFFFFFFFFFFFFFFFFFFFFFFFFFFFFFFFFFFFFFFFFFFFFF000FFFFFFFFFFFF
310
FFFFFFFFFFFFFFFFFFFFFFFFFFFFFFFFFFFFFFFFFFFFFFFFFFFFFFFFFFFFFFFF
310
FFFFFFFFFFFFFFFFFFFFFFFFFFFFFFFFFFFFFFFFFFFFFFFFFFFFFFFFFFFFFFFF
310
FFFFFFFFFFFFFFFFFFFFFFFFFFFFFFFFF000FFFFFFFFFFFFFFFFFFFFFFFFFFFF
310
FFFFFFFFFFFFFFFFFFFFFFFFFFFFFFFFFFFFFFFFFFFFFFFFFFFFFFFFFFFFFFFF
310
FFFFFFFFFFFFFFFFFFFFFFFFFFFFFFFFFFFFFFFFFFFFFFFFFFFFFFFFFFFFFFFF
310
FFFFFFFFFFFFFFFFF000FFFFFFFFFFFFFFFFFFFFFFFFFFFFFFFFFFFFFFFFFFFF
310
FFFFFFFFFFFFFFFFFFFFFFFFFFFFFFFFFFFFFFFFFFFFFFFFFFFFFFFFFFFFFFFF
310
FFFFFFFFFFFFFFFFFFFFFFFFFFFFFFFFFFFFFFFFFFFFFFFFFFFFFFFFFFFFFFFF
310
F000FFFFFFFFFFFFFFFFFFFFFFFFFFFFFFFFFFFFFFFFFFFFFFFFFFFFFFFFFFFF
310
FFFFFFFFFFFFFFFFFFFFFFFFFFFFFFFFFFFFFFFFFFFFFFFFFFFFFFFFFFFFFFFF
310
FFFFFFFFFFFFFFFFFFFFFFFFFFFFFFFFFFFFFFFFFFFFFFFFF000FFFFFFFFFFFF
310
FFFFFFFFFFFFFFFFFFFFFFFFFFFFFFFFFFFFFFFFFFFFFFFFFFFFFFFFFFFFFFFF
310
FFFFFFFFFFFFFFFFFFFFFFFFFFFFFFFFFFFFFFFFFFFFFFFFFFFFFFFFFFFFFFFF
310
FFFFFFFFFFFFFFFFFFFFFFFFFFFFFFFFF000FFFFFFFFFFFFFFFFFFFFFFFFFFFF
310
FFFFFFFFFFFFFFFFFFFFFFFFFFFFFFFFFFFFFFFFFFFFFFFFFFFFFFFFFFFFFFFF
310
FFFFFFFFFFFFFFFFFFFFFFFFFFFFFFFFFFFFFFFFFFFFFFFFFFFFFFFFFFFFFFFF
310
FFFFFFFFFFFFFFFFF000FFFFFFFFFFFFFFFFFFFFFFFFFFFFFFFFFFFFFFFFFFFF
310
FFFFFFFFFFFFFFFFFFFFFFFFFFFFFFFFFFFFFFFFFFFFFFFFFFFFFFFFFFFFFFFF
310
FFFFFFFFFFFFFFFFFFFFFFFFFFFFFFFFFFFFFFFFFFFFFFFFFFFFFFFFFFFFFFFF
310
F000FFFFFFFFFFFFFFFFFFFFFFFFFFFFFFFFFFFFFFFFFFFFFFFFFFFFFFFFFFFF
310
FFFFFFFFFFFFFFFFFFFFFFFFFFFFFFFFFFFFFFFFFFFFFFFFFFFFFFFFFFFFFFFF
310
FFFFFFFFFFFFFFFFFFFFFFFFFFFFFFFFFFFFFFFFFFFFFFFFF000FFFFFFFFFFFF
310
FFFFFFFFFFFFFFFFFFFFFFFFFFFFFFFFFFFFFFFFFFFFFFFFFFFFFFFFFFFFFFFF
310
FFFFFFFFFFFFFFFFFFFFFFFFFFFFFFFFFFFFFFFFFFFFFFFFFFFFFFFFFFFFFFFF
310
FFFFFFFFFFFFFFFFFFFFFFFFFFFFFFFFF000FFFFFFFFFFFFFFFFFFFFFFFFFFFF
310
FFFFFFFFFFFFFFFFFFFFFFFFFFFFFFFFFFFFFFFFFFFFFFFFFFFFFFFFFFFFFFFF
310
FFFFFFFFFFFFFFFFFFFFFFFFFFFFFFFFFFFFFFFFFFFFFFFFFFFFFFFFFFFFFFFF
310
FFFFFFFFFFFFFFFFF000FFFFFFFFFFFFFFFFFFFFFFFFFFFFFFFFFFFFFFFFFFFF
310
FFFFFFFFFFFFFFFFFFFFFFFFFFFFFFFFFFFFFFFFFFFFFFFFFFFFFFFFFFFFFFFF
310
FFFFFFFFFFFFFFFFFFFFFFFFFFFFFFFFFFFFFFFFFFFFFFFFFFFFFFFFFFFFFFFF
310
F000FFFFFFFFFFFFFFFFFFFFFFFFFFFFFFFFFFFFFFFFFFFFFFFFFFFFFFFFFFFF
310
FFFFFFFFFFFFFFFFFFFFFFFFFFFFFFFFFFFFFFFFFFFFFFFFFFFFFFFFFFFFFFFF
310
FFFFFFFFFFFFFFFFFFFFFFFFFFFFFFFFFFFFFFFFFFFFFFFFF000FFFFFFFFFFFF
310
FFFFFFFFFFFFFFFFFFFFFFFFFFFFFFFFFFFFFFFFFFFFFFFFFFFFFFFFFFFFFFFF
310
FFFFFFFFFFFFFFFFFFFFFFFFFFFFFFFFFFFFFFFFFFFFFFFFFFFFFFFFFFFFFFFF
310
FFFFFFFFFFFFFFFFFFFFFFFFFFFFFFFFF000FFFFFFFFFFFFFFFFFFFFFFFFFFFF
310
FFFFFFFFFFFFFFFFFFFFFFFFFFFFFFFFFFFFFFFFFFFFFFFFFFFFFFFFFFFFFFFF
310
FFFFFFFFFFFFFFFFFFFFFFFFFFFFFFFFFFFFFFFFFFFFFFFFFFFFFFFFFFFFFFFF
310
FFFFFFFFFFFFFFFFF000FFFFFFFFFFFFFFFFFFFFFFFFFFFFFFFFFFFFFFFFFFFF
310
FFFFFFFFFFFFFFFFFFFFFFFFFFFFFFFFFFFFFFFFFFFFFFFFFFFFFFFFFFFFFFFF
310
FFFFFFFFFFFFFFFFFFFFFFFFFFFFFFFFFFFFFFFFFFFFFFFFFFFFFFFFFFFFFFFF
310
F000FFFFFFFFFFFFFFFFFFFFFFFFFFFFFFFFFFFFFFFFFFFFFFFFFFFFFFFFFFFF
310
FFFFFFFFFFFFFFFFFFFFFFFFFFFFFFFFFFFFFFFFFFFFFFFFFFFFFFFFFFFFFFFF
310
FFFFFFFFFFFFFFFFFFFFFFFFFFFFFFFFFFFFFFFFFFFFFFFFF000FFFFFFFFFFFF
310
FFFFFFFFFFFFFFFFFFFFFFFFFFFFFFFFFFFFFFFFFFFFFFFFFFFFFFFFFFFFFFFF
310
FFFFFFFFFFFFFFFFFFFFFFFFFFFFFFFFFFFFFFFFFFFFFFFFFFFFFFFFFFFFFFFF
310
FFFFFFFFFFFFFFFFFFFFFFFFFFFFFFFFF000FFFFFFFFFFFFFFFFFFFFFFFFFFFF
310
FFFFFFFFFFFFFFFFFFFFFFFFFFFFFFFFFFFFFFFFFFFFFFFFFFFFFFFFFFFFFFFF
310
FFFFFFFFFFFFFFFFFFFFFFFFFFFFFFFFFFFFFFFFFFFFFFFFFFFFFFFFFFFFFFFF
310
FFFFFFFFFFFFFFFFF000FFFFF80003FFFFFFFFFFFFFFFFFFFFFFFFFFFFFFFFFF
310
FFFFF00007FFFFFFFFFF00007FFFFFF800000000000000007FFFFFFFFFFFFFFF
310
FFFFFFFC001FFFFFFFFFFFFFFC001FFFFFFFFFFFFFFFFFFFFFFFFFFE0007FFFF
310
F000FFFF8000007FFFFFFFF8000FFFFFC0007FFFFF80007FFFFF0000007FFFFF
310
FFF8000007FFFFF800000000000000007FFFFFF0001FFFFFFFFFFFC00001FFFF
310
FFFFFFFFC00001FFFFFFFF000000000003FFFFE000007FFFF000FFFE0000000F
310
FFFFFFF0000FFFFF80007FFFFF80007FFFFC0000001FFFFFFFC0000001FFFFF8
310
00000000000000007FFFFFF0001FFFFFFFFFFE0000003FFFFFFFFFFE0000003F
310
FFFFFF000000000003FFFF0000000FFFF000FFF800000003FFFFFFF00007FFFF
310
80007FFFFF80007FFFF000000007FFFFFF000000003FFFF80000000000000000
310
7FFFFFF0001FFFFFFFFFF80000000FFFFFFFFFF80000000FFFFFFF0000000000
310
03FFFC00000003FFF000FFE000000000FFFFFFF00007FFFF80003FFFFF80007F
310
FFC000000001FFFFFC000000001FFFF800000000000000007FFFFFF0001FFFFF
310
FFFFE000000003FFFFFFFFE000000003FFFFFF000000000003FFF000000000FF
310
F000FF80000000007FFFFFF00007FFFF80003FFFFF80007FFF8000000000FFFF
310
F80000000007FFF800000000000000007FFFFFF0001FFFFFFFFFC000000001FF
310
FFFFFFC000000001FFFFFF000000000003FFC0000000007FF000FF0000000000
310
3FFFFFE00007FFFF00003FFFFF80007FFE00000000003FFFF00000000003FFF8
310
00000000000000007FFFFFF0001FFFFFFFFF8000000000FFFFFFFF8000000000
310
FFFFFF000000000003FF80000000003FF000FE00000000001FFFFFE00003FFFF
310
00003FFFFF80007FFC00000000001FFFE00000000001FFF8000001FFFE000000
310
7FFFFFF0001FFFFFFFFE00000000003FFFFFFE00000000003FFFFF0000000000
310
03FF00000000001FF000FC00000000000FFFFFE00003FFFF00001FFFFF80007F
310
F800000000001FFFC00000000000FFF8000001FFFE0000007FFFFFF0001FFFFF
310
FFFC00000000001FFFFFFC00000000001FFFFF000000000003FE00000000000F
310
F000F8000000000007FFFFE00003FFFF00001FFFFF80007FF800000000000FFF
310
800000000000FFF8000001FFFE0000007FFFFFF0001FFFFFFFF800000000000F
310
FFFFF800000000000FFFFF000000000003FC000000000007F000F80000000000
310
03FFFFC00003FFFE00001FFFFF80007FF0000000000007FF0000000000007FF8
310
000001FFFE0000007FFFFFF0001FFFFFFFF0000000000007FFFFF00000000000
310
07FFFF000000000003F8000000000003F000F0000000000003FFFFC00001FFFE
310
00001FFFFF80007FE0000000000007FE0000000000003FF8000001FFFE000000
310
7FFFFFF0001FFFFFFFF0000000000007FFFFF0000000000007FFFF0000000000
310
03F800001F800003F000E00001FFF00001FFFFC00001FFFE00000FFFFF80007F
310
E00001FFE00003FE00001FFF00003FF8000001FFFE0000007FFFFFF0001FFFFF
310
FFE000003E000003FFFFE000003E000003FFFF000000000003F00001FFF80001
310
F000E00007FFFC0001FFFFC00001FFFE00000FFFFF80007FC0000FFFFC0003FC
310
0000FFFFC0001FF8000001FFFE0000007FFFFFF0001FFFFFFFC00003FFE00001
310
FFFFC00003FFE00001FFFF0001FFFFFFFFF00007FFFE0001F000E0000FFFFF00
310
00FFFF800001FFFC00000FFFFF80007FC0001FFFFE0001FC0001FFFFE0001FF8
310
000001FFFE0000007FFFFFF0001FFFFFFF80000FFFF80000FFFF80000FFFF800
310
00FFFF0003FFFFFFFFE0000FFFFF8000F000C0003FFFFF8000FFFF800000FFFC
310
000007FFFF80007F80003FFFFF0001FC0003FFFFF0001FF8000001FFFE000000
310
7FFFFFF0001FFFFFFF80003FFFFE0000FFFF80003FFFFE0000FFFF0003FFFFFF
310
FFE0003FFFFF8000F000C0003FFFFF8000FFFF800000FFFC000007FFFF80007F
310
80007FFFFF8001F80007FFFFF8000FF8000001FFFE0000007FFFFFF0001FFFFF
310
FF00007FFFFF00007FFF00007FFFFF00007FFF0003FFFFFFFFE0003FFFFFC000
310
F000C0007FFFFFC000FFFF000000FFFC000007FFFF80007F8000FFFFFF8000F8
310
000FFFFFF8000FF8000001FFFE0000007FFFFFF0001FFFFFFF0000FFFFFF8000
310
7FFF0000FFFFFF80007FFF0003FFFFFFFFC0007FFFFFC00070008000FFFFFFC0
310
00FFFF000000FFF8000007FFFF80007F8000FFFFFF8000F8000FFFFFF8000FF8
310
000001FFFE0000007FFFFFF0001FFFFFFE0001FFFFFFC0003FFE0001FFFFFFC0
310
003FFF0003FFFFFFFFC0007FFFFFE00070008000FFFFFFC0007FFF0000007FF8
310
000003FFFF80007F0001FFFFFF8000F8000FFFFFF8000FF8000001FFFE000000
310
7FFFFFF0001FFFFFFE0001FFFFFFC0003FFE0001FFFFFFC0003FFF0003FFFFFF
310
FFC000FFFFFFE00070008000FFFFFFC0007FFF0000007FF8000003FFFF80007F
310
0001FFFFFF8000F8001FFFFFF8000FF8000001FFFE0000007FFFFFF0001FFFFF
310
FE0003FFFFFFE0003FFE0003FFFFFFE0003FFF0003FFFFFFFFC000FFFFFFE000
310
70008000FFFFFFC0007FFE0000007FF8000003FFFF80007F0001FFFFFF8000F0
310
001FFFFFF8000FF8000001FFFE0000007FFFFFF0001FFFFFFC0003FFFFFFE000
310
1FFC0003FFFFFFE0001FFF0003FFFFFFFFC000FFFFFFC00070008000FFFFFF80
310
007FFE0000007FF0000003FFFF80007F0001FFFFFF0000F0001FFFFFF8000FF8
310
000001FFFE0000007FFFFFF0001FFFFFFC0007FFFFFFF0001FFC0007FFFFFFF0
310
001FFF0003FFFFFFFFC000FFFFFFC00070008001FFFFFF0000FFFE0000003FF0
310
000001FFFF80007F0001FFFFFF0000F8001FFFFFF0000FF8000001FFFE000000
310
7FFFFFF0001FFFFFFC0007FFFFFFF0001FFC0007FFFFFFF0001FFF0003FFFFFF
310
FFC001FFFFFF80007000FFFFFFFFFE0000FFFE0008003FF0008001FFFF80007F
310
FFFFFFFFFC0000FFFFFFFFFFE0000FF8000001FFFE0000007FFFFFF0001FFFFF
310
F8000FFFFFFFF8000FF8000FFFFFFFF8000FFF0003FFFFFFFFFFFFFFFFFF0000
310
7000FFFFFFFFFC0000FFFC0008003FF0008001FFFF80007FFFFFFFFFF80001FF
310
FFFFFFFF80000FF8000001FFFE0000007FFFFFF0001FFFFFF8000FFFFFFFF800
310
0FF8000FFFFFFFF8000FFF0003FFFFFFFFFFFFFFFFFE0000F000FFFFFFFFE000
310
00FFFC000C003FE000C001FFFF80007FFFFFFFFFC00001FFFFFFFFFE00001FF8
310
000001FFFE0000007FFFFFF0001FFFFFF8000FFFFFFFF8000FF8000FFFFFFFF8
310
000FFF0003FFFFFFFFFFFFFFFFF00000F000FFFFFFFE000001FFFC000C001FE0
310
00C000FFFF80007FFFFFFFFE000001FFFFFFFFE000001FF80FFFFFFFFFFFFFC0
310
7FFFFFF0001FFFFFF8000FFFFFFFF8000FF8000FFFFFFFF8000FFF0003FFFFFF
310
FFFFFFFFFF800000F000FFFFFFC0000001FFFC001C001FE001C000FFFF80007F
310
FFFFFF80000003FFFFFFF80000001FF80FFFFFFFFFFFFFC07FFFFFF0001FFFFF
310
F8001FFFFFFFFC000FF8001FFFFFFFFC000FFF0003FFFFFFFFFFFFFFF0000001
310
F000FFFFF800000001FFF8001C001FE001C000FFFF80007FFFFFF800000003FF
310
FFFF800000003FF80FFFFFFFFFFFFFC07FFFFFF0001FFFFFF8001FFFFFFFFC00
310
0FF8001FFFFFFFFC000FFF0003FFFFFFFFFFFFFE00000001F000FFFFC0000000
310
03FFF8001E001FC001E000FFFF80007FFFFF8000000007FFFFFC000000003FF8
310
0FFFFFFFFFFFFFC07FFFFFF0001FFFFFF8001FFFFFFFFC000FF8001FFFFFFFFC
310
000FFF0003FFFFFFFFFFFFE000000003F000FFFE0000000007FFF8001E000FC0
310
01E0007FFF80007FFFFE0000000007FFFFE0000000007FF80FFFFFFFFFFFFFC0
310
7FFFFFF0001FFFFFF0001FFFFFFFFC0007F0001FFFFFFFFC0007FF0003FFFFFF
310
FFFFFF0000000003F000FFF80000000007FFF8001E000FC003E0007FFF80007F
310
FFF0000000000FFFFF8000000000FFF80FFFFFFFFFFFFFC07FFFFFF0001FFFFF
310
F0001FFFFFFFFC0007F0001FFFFFFFFC0007FF0003FFFFFFFFFFFC0000000007
310
F000FFE0000000000FFFF0003E000FC003E0007FFF80007FFFC0000000001FFF
310
FE0000000001FFF80FFFFFFFFFFFFFC07FFFFFF0001FFFFFF0001FFFFFFFFC00
310
07F0001FFFFFFFFC0007FF0003FFFFFFFFFFF0000000000FF000FFC000000000
310
1FFFF0003F000F8003F0003FFF80007FFF80000000003FFFF80000000003FFF8
310
0FFFFFFFFFFFFFC07FFFFFF0001FFFFFF0001FFFFFFFFC0007F0001FFFFFFFFC
310
0007FF0003FFFFFFFFFFE0000000001FF000FF00000000007FFFF0003F000780
310
03F0003FFF80007FFF00000000007FFFF00000000007FFF80FFFFFFFFFFFFFC0
310
7FFFFFF0001FFFFFF0001FFFFFFFFC0007F0001FFFFFFFFC0007FF0003FFFFFF
310
FFFF80000000007FF000FE0000000000FFFFE0003F00078007F0003FFF80007F
310
FE0000000001FFFFE0000000001FFFF80FFFFFFFFFFFFFC07FFFFFF0001FFFFF
310
F0001FFFFFFFFC0007F0001FFFFFFFFC0007FF0003FFFFFFFFFF0000000000FF
310
F000FC0000000003FFFFE0007F00078007F0003FFF80007FFC0000000007FFFF
310
C0000000007FFFF80FFFFFFFFFFFFFC07FFFFFF0001FFFFFF8001FFFFFFFFC00
310
0FF8001FFFFFFFFC000FFF0003FFFFFFFFFE0000000003FFF000FC000000000F
310
FFFFE0007F80070007F8001FFF80007FF8000000001FFFFF8000000001FFFFF8
310
0FFFFFFFFFFFFFC07FFFFFF0001FFFFFF8001FFFFFFFFC000FF8001FFFFFFFFC
310
000FFF0003FFFFFFFFFC000000000FFFF000F8000000007FFFFFE0007F800700
310
07F8001FFF80007FF000000000FFFFFF800000000FFFFFF80FFFFFFFFFFFFFC0
310
7FFFFFF0001FFFFFF8000FFFFFFFF8000FF8000FFFFFFFF8000FFF0003FFFFFF
310
FFFC000000007FFFF000F800000007FFFFFFC0007F8003000FF8001FFF80007F
310
F000000007FFFFFF000000007FFFFFF80FFFFFFFFFFFFFC07FFFFFF0001FFFFF
310
F8000FFFFFFFF8000FF8000FFFFFFFF8000FFF0003FFFFFFFFF80000000FFFFF
310
F000F0000000FFFFFFFFC000FF8003000FF8001FFF80007FE0000000FFFFFFFF
310
0000000FFFFFFFF8000001FFFE0000007FFFFFF0001FFFFFF8000FFFFFFFF800
310
0FF8000FFFFFFFF8000FFF0003FFFFFFFFF8000000FFFFFFF000F000000FFFFF
310
FFFFC000FFC002000FF8000FFF80007FE000001FFFFFFFFE000001FFFFFFFFF8
310
000001FFFE0000007FFFFFF0001FFFFFF8000FFFFFFFF8000FF8000FFFFFFFF8
310
000FFF0003FFFFFFFFF000001FFFFFFFF000E00000FFFFFFFFFFC000FFC00200
310
0FFC000FFF80007FE00001FFFFFFFFFE00001FFFFFFFFFF8000001FFFE000000
310
7FFFFFF0001FFFFFFC000FFFFFFFF8001FFC000FFFFFFFF8001FFF0003FFFFFF
310
FFF00001FFFFFFFFF000E00007FFFFFFFFFF8000FFC000001FFC000FFF80007F
310
C0000FFFFFFFFFFE0000FFFFFFFFFFF8000001FFFE0000007FFFFFF0001FFFFF
310
FC0007FFFFFFF0001FFC0007FFFFFFF0001FFF0003FFFFFFFFF00007FFFFFFFF
310
F000E0001FFFFFFFFFFF8000FFC000001FFC000FFF80007FC0003FFFFFFFFFFE
310
0001FFFFFFFFFFF8000001FFFE0000007FFFFFF0001FFFFFFC0007FFFFFFF000
310
1FFC0007FFFFFFF0001FFF0003FFFFFFFFF0001FFFFFFFFFF000E0003FFFFF00
310
03FF8001FFE000001FFC0007FF80007FC0007FFFFF0007FC0003FFFFF0003FF8
310
000001FFFE0000007FFFFFF0001FFFFFFC0003FFFFFFE0001FFC0003FFFFFFE0
310
001FFF0003FFFFFFFFF0003FFFFFFFFFF000E0003FFFFF0001FF8001FFE00000
310
1FFE0007FF80007FC0007FFFFE0003FC0007FFFFE0003FF8000001FFFE000000
310
7FFFFFF0001FFFFFFE0003FFFFFFE0003FFE0003FFFFFFE0003FFF0003FFFFFF
310
FFF0003FFFFF8001F000E0003FFFFF0001FF0001FFE000001FFE0007FF80007F
310
C0007FFFFE0003FC0007FFFFE0003FF8000001FFFE0000007FFFFFF0001FFFFF
310
FE0001FFFFFFC0003FFE0001FFFFFFC0003FFF0003FFFFFFFFF0003FFFFF0001
310
F000E0003FFFFF0003FF0001FFE000003FFE0007FF80007FC0007FFFFE0003FC
310
0007FFFFE0003FF8000001FFFE0000007FFFFFF0001FFFFFFF0001FFFFFFC000
310
7FFF0001FFFFFFC0007FFF0003FFFFFFFFF0003FFFFF0001F000E0003FFFFE00
310
03FF0003FFF000003FFE0003FF80007FC0007FFFFC0003FE0007FFFFE0003FF8
310
000001FFFE0000007FFFFFF0001FFFFFFF0000FFFFFF80007FFF0000FFFFFF80
310
007FFF0003FFFFFFFFF0003FFFFF0001F000E0003FFFFE0003FF0003FFF00000
310
3FFF0003FF80007FC0007FFFFC0007FE0007FFFFC0003FF8000001FFFE000000
310
7FFFFFF0001FFFFFFF80007FFFFF0000FFFF80007FFFFF0000FFFF0003FFFFFF
310
FFF0003FFFFF0003F000E0003FFFFC0003FE0003FFF000003FFF0003FF80007F
310
E0003FFFF80007FE0003FFFFC0007FF8000001FFFE0000007FFFFFF0001FFFFF
310
FF80003FFFFE0000FFFF80003FFFFE0000FFFF0003FFFFFFFFF0001FFFFE0003
310
F000F0001FFFF80003FE0003FFF000007FFF0001FF80007FE0003FFFF00007FE
310
0001FFFF80007FF8000001FFFE0000007FFFFFF0001FFFFFFFC0000FFFF80001
310
FFFFC0000FFFF80001FFFF0003FFFFFFFFF0001FFFFC0003F000F0000FFFF000
310
07FE0007FFF800007FFF0001FF80007FE0001FFFE00007FF0000FFFE00007FF8
310
000001FFFE0000007FFFFFF0001FFFFFFFC00003FFE00001FFFFC00003FFE000
310
01FFFF0003FFFFFFFFF8000FFFF80003F000F00003FFC00007FC0007FFF80000
310
7FFF8001FF80007FF00007FF80000FFF00007FF80000FFF8000001FFFE000000
310
7F80000000000001FFE000003E000003FFFFE000003E000003FFFF0003FFFFFF
310
FFF80003FFE00007F000F800000000000FFC0007FFF800007FFF8001FF80007F
310
F000000000000FFF000000000000FFF8000001FFFE0000007F80000000000001
310
FFF0000000000007FFFFF0000000000007FFFF0003FFFFFFFFFC00007E000007
310
F000F800000000000FFC0007FFF80000FFFF8000FF80007FF800000000001FFF
310
800000000001FFF8000001FFFE0000007F80000000000001FFF800000000000F
310
FFFFF800000000000FFFFF0003FFFFFFFFFC00000000000FF000FC0000000000
310
1FFC0007FFFC0000FFFF8000FF80007FF800000000003FFFC00000000001FFF8
310
000001FFFE0000007F80000000000001FFF800000000000FFFFFF80000000000
310
0FFFFF0003FFFFFFFFFE00000000001FF000FE00000000003FF8000FFFFC0000
310
FFFF8000FF80007FFC00000000003FFFC00000000003FFF8000001FFFE000000
310
7F80000000000001FFFC00000000001FFFFFFC00000000001FFFFF0003FFFFFF
310
FFFF00000000001FF000FF00000000003FF8000FFFFC0000FFFFC000FF80007F
310
FE00000000007FFFE00000000007FFF8000001FFFE0000007F80000000000001
310
FFFE00000000003FFFFFFE00000000003FFFFF0003FFFFFFFFFF80000000003F
310
F000FF80000000007FF8000FFFFC0001FFFFC0007F80007FFF0000000000FFFF
310
F0000000000FFFF800000000000000007F80000000000001FFFF8000000000FF
310
FFFFFF8000000000FFFFFF0003FFFFFFFFFFC0000000007FF000FFC000000000
310
FFF8000FFFFE0001FFFFC0007F80007FFF8000000001FFFFF8000000001FFFF8
310
00000000000000007F80000000000001FFFFC000000001FFFFFFFFC000000001
310
FFFFFF0003FFFFFFFFFFE000000000FFF000FFE000000003FFF0001FFFFE0001
310
FFFFC0007F80007FFFC000000007FFFFFE000000003FFFF80000000000000000
310
7F80000000000001FFFFE000000003FFFFFFFFE000000003FFFFFF0003FFFFFF
310
FFFFF000000003FFF000FFF80000000FFFF0001FFFFE0001FFFFE0007F80007F
310
FFF00000000FFFFFFF00000000FFFFF800000000000000007F80000000000001
310
FFFFF80000000FFFFFFFFFF80000000FFFFFFF0003FFFFFFFFFFFC0000000FFF
310
F000FFFE0000003FFFF0001FFFFE0003FFFFE0003F80007FFFFC0000003FFFFF
310
FFC0000003FFFFF800000000000000007F80000000000001FFFFFE0000003FFF
310
FFFFFFFE0000003FFFFFFF0003FFFFFFFFFFFF0000003FFFF000FFFF800000FF
310
FFF0001FFFFF0003FFFFE0003F80007FFFFF000001FFFFFFFFF800001FFFFFF8
310
00000000000000007F80000000000001FFFFFFC00001FFFFFFFFFFFFC00001FF
310
FFFFFF0003FFFFFFFFFFFFC00000FFFFF000FFFFF8000FFFFFFFFFFFFFFFFFFF
310
FFFFFFFFFFFFFFFFFFFFF0001FFFFFFFFFFF0000FFFFFFF80000000000000000
310
7FFFFFFFFFFFFFFFFFFFFFFC001FFFFFFFFFFFFFFC001FFFFFFFFFFFFFFFFFFF
310
FFFFFFFC001FFFFFF000FFFFFFFFFFFFFFFFFFFFFFFFFFFFFFFFFFFFFFFFFFFF
310
FFFFFFFFFFFFFFFFFFFFFFFFFFFFFFFFFFFFFFFFFFFFFFFFFFFFFFFFFFFFFFFF
310
FFFFFFFFFFFFFFFFFFFFFFFFFFFFFFFFFFFFFFFFFFFFFFFFFFFFFFFFFFFFFFFF
310
F000FFFFFFFFFFFFFFFFFFFFFFFFFFFFFFFFFFFFFFFFFFFFFFFFFFFFFFFFFFFF
310
FFFFFFFFFFFFFFFFFFFFFFFFFFFFFFFFFFFFFFFFFFFFFFFFFFFFFFFFFFFFFFFF
310
FFFFFFFFFFFFFFFFFFFFFFFFFFFFFFFFFFFFFFFFFFFFFFFFF000FFFFFFFFFFFF
310
FFFFFFFFFFFFFFFFFFFFFFFFFFFFFFFFFFFFFFFFFFFFFFFFFFFFFFFFFFFFFFFF
310
FFFFFFFFFFFFFFFFFFFFFFFFFFFFFFFFFFFFFFFFFFFFFFFFFFFFFFFFFFFFFFFF
310
FFFFFFFFFFFFFFFFFFFFFFFFFFFFFFFFF000FFFFFFFFFFFFFFFFFFFFFFFFFFFF
310
FFFFFFFFFFFFFFFFFFFFFFFFFFFFFFFFFFFFFFFFFFFFFFFFFFFFFFFFFFFFFFFF
310
FFFFFFFFFFFFFFFFFFFFFFFFFFFFFFFFFFFFFFFFFFFFFFFFFFFFFFFFFFFFFFFF
310
FFFFFFFFFFFFFFFFF000FFFFFFFFFFFFFFFFFFFFFFFFFFFFFFFFFFFFFFFFFFFF
310
FFFFFFFFFFFFFFFFFFFFFFFFFFFFFFFFFFFFFFFFFFFFFFFFFFFFFFFFFFFFFFFF
310
FFFFFFFFFFFFFFFFFFFFFFFFFFFFFFFFFFFFFFFFFFFFFFFFFFFFFFFFFFFFFFFF
310
F000FFFFFFFFFFFFFFFFFFFFFFFFFFFFFFFFFFFFFFFFFFFFFFFFFFFFFFFFFFFF
310
FFFFFFFFFFFFFFFFFFFFFFFFFFFFFFFFFFFFFFFFFFFFFFFFFFFFFFFFFFFFFFFF
310
FFFFFFFFFFFFFFFFFFFFFFFFFFFFFFFFFFFFFFFFFFFFFFFFF000FFFFFFFFFFFF
310
FFFFFFFFFFFFFFFFFFFFFFFFFFFFFFFFFFFFFFFFFFFFFFFFFFFFFFFFFFFFFFFF
310
FFFFFFFFFFFFFFFFFFFFFFFFFFFFFFFFFFFFFFFFFFFFFFFFFFFFFFFFFFFFFFFF
310
FFFFFFFFFFFFFFFFFFFFFFFFFFFFFFFFF000FFFFFFFFFFFFFFFFFFFFFFFFFFFF
310
FFFFFFFFFFFFFFFFFFFFFFFFFFFFFFFFFFFFFFFFFFFFFFFFFFFFFFFFFFFFFFFF
310
FFFFFFFFFFFFFFFFFFFFFFFFFFFFFFFFFFFFFFFFFFFFFFFFFFFFFFFFFFFFFFFF
310
FFFFFFFFFFFFFFFFF000FFFFFFFFFFFFFFFFFFFFFFFFFFFFFFFFFFFFFFFFFFFF
310
FFFFFFFFFFFFFFFFFFFFFFFFFFFFFFFFFFFFFFFFFFFFFFFFFFFFFFFFFFFFFFFF
310
FFFFFFFFFFFFFFFFFFFFFFFFFFFFFFFFFFFFFFFFFFFFFFFFFFFFFFFFFFFFFFFF
310
F000FFFFFFFFFFFFFFFFFFFFFFFFFFFFFFFFFFFFFFFFFFFFFFFFFFFFFFFFFFFF
310
FFFFFFFFFFFFFFFFFFFFFFFFFFFFFFFFFFFFFFFFFFFFFFFFFFFFFFFFFFFFFFFF
310
FFFFFFFFFFFFFFFFFFFFFFFFFFFFFFFFFFFFFFFFFFFFFFFFF000FFFFFFFFFFFF
310
FFFFFFFFFFFFFFFFFFFFFFFFFFFFFFFFFFFFFFFFFFFFFFFFFFFFFFFFFFFFFFFF
310
FFFFFFFFFFFFFFFFFFFFFFFFFFFFFFFFFFFFFFFFFFFFFFFFFFFFFFFFFFFFFFFF
310
FFFFFFFFFFFFFFFFFFFFFFFFFFFFFFFFF000FFFFFFFFFFFFFFFFFFFFFFFFFFFF
310
FFFFFFFFFFFFFFFFFFFFFFFFFFFFFFFFFFFFFFFFFFFFFFFFFFFFFFFFFFFFFFFF
310
FFFFFFFFFFFFFFFFFFFFFFFFFFFFFFFFFFFFFFFFFFFFFFFFFFFFFFFFFFFFFFFF
310
FFFFFFFFFFFFFFFFF000FFFFFFFFFFFFFFFFFFFFFFFFFFFFFFFFFFFFFFFFFFFF
310
FFFFFFFFFFFFFFFFFFFFFFFFFFFFFFFFFFFFFFFFFFFFFFFFFFFFFFFFFFFFFFFF
310
FFFFFFFFFFFFFFFFFFFFFFFFFFFFFFFFFFFFFFFFFFFFFFFFFFFFFFFFFFFFFFFF
310
F000FFFFFFFFFFFFFFFFFFFFFFFFFFFFFFFFFFFFFFFFFFFFFFFFFFFFFFFFFFFF
310
FFFFFFFFFFFFFFFFFFFFFFFFFFFFFFFFFFFFFFFFFFFFFFFFFFFFFFFFFFFFFFFF
310
FFFFFFFFFFFFFFFFFFFFFFFFFFFFFFFFFFFFFFFFFFFFFFFFF000FFFFFFFFFFFF
310
FFFFFFFFFFFFFFFFFFFFFFFFFFFFFFFFFFFFFFFFFFFFFFFFFFFFFFFFFFFFFFFF
310
FFFFFFFFFFFFFFFFFFFFFFFFFFFFFFFFFFFFFFFFFFFFFFFFFFFFFFFFFFFFFFFF
310
FFFFFFFFFFFFFFFFFFFFFFFFFFFFFFFFF000FFFFFFFFFFFFFFFFFFFFFFFFFFFF
310
FFFFFFFFFFFFFFFFFFFFFFFFFFFFFFFFFFFFFFFFFFFFFFFFFFFFFFFFFFFFFFFF
310
FFFFFFFFFFFFFFFFFFFFFFFFFFFFFFFFFFFFFFFFFFFFFFFFFFFFFFFFFFFFFFFF
310
FFFFFFFFFFFFFFFFF000FFFFFFFFFFFFFFFFFFFFFFFFFFFFFFFFFFFFFFFFFFFF
310
FFFFFFFFFFFFFFFFFFFFFFFFFFFFFFFFFFFFFFFFFFFFFFFFFFFFFFFFFFFFFFFF
310
FFFFFFFFFFFFFFFFFFFFFFFFFFFFFFFFFFFFFFFFFFFFFFFFFFFFFFFFFFFFFFFF
310
F000FFFFFFFFFFFFFFFFFFFFFFFFFFFFFFFFFFFFFFFFFFFFFFFFFFFFFFFFFFFF
310
FFFFFFFFFFFFFFFFFFFFFFFFFFFFFFFFFFFFFFFFFFFFFFFFFFFFFFFFFFFFFFFF
310
FFFFFFFFFFFFFFFFFFFFFFFFFFFFFFFFFFFFFFFFFFFFFFFFF000FFFFFFFFFFFF
310
FFFFFFFFFFFFFFFFFFFFFFFFFFFFFFFFFFFFFFFFFFFFFFFFFFFFFFFFFFFFFFFF
310
FFFFFFFFFFFFFFFFFFFFFFFFFFFFFFFFFFFFFFFFFFFFFFFFFFFFFFFFFFFFFFFF
310
FFFFFFFFFFFFFFFFFFFFFFFFFFFFFFFFF000FFFFFFFFFFFFFFFFFFFFFFFFFFFF
310
FFFFFFFFFFFFFFFFFFFFFFFFFFFFFFFFFFFFFFFFFFFFFFFFFFFFFFFFFFFFFFFF
310
FFFFFFFFFFFFFFFFFFFFFFFFFFFFFFFFFFFFFFFFFFFFFFFFFFFFFFFFFFFFFFFF
310
FFFFFFFFFFFFFFFFF000FFFFFFFFFFFFFFFFFFFFFFFFFFFFFFFFFFFFFFFFFFFF
310
FFFFFFFFFFFFFFFFFFFFFFFFFFFFFFFFFFFFFFFFFFFFFFFFFFFFFFFFFFFFFFFF
310
FFFFFFFFFFFFFFFFFFFFFFFFFFFFFFFFFFFFFFFFFFFFFFFFFFFFFFFFFFFFFFFF
310
F000FFFFFFFFFFFFFFFFFFFFFFFFFFFFFFFFFFFFFFFFFFFFFFFFFFFFFFFFFFFF
310
FFFFFFFFFFFFFFFFFFFFFFFFFFFFFFFFFFFFFFFFFFFFFFFFFFFFFFFFFFFFFFFF
310
FFFFFFFFFFFFFFFFFFFFFFFFFFFFFFFFFFFFFFFFFFFFFFFFF000FFFFFFFFFFFF
310
FFFFFFFFFFFFFFFFFFFFFFFFFFFFFFFFFFFFFFFFFFFFFFFFFFFFFFFFFFFFFFFF
310
FFFFFFFFFFFFFFFFFFFFFFFFFFFFFFFFFFFFFFFFFFFFFFFFFFFFFFFFFFFFFFFF
310
FFFFFFFFFFFFFFFFFFFFFFFFFFFFFFFFF0000000000000000000000000000000
310
0000000000000000000000000000000000000000000000000000000000000000
310
0000000000000000000000000000000000000000000000000000000000000000
310
0000000000000000000000000000000000000000000000000000000000000000
310
0000000000000000000000000000000000000000000000000000000000000000
310
0000000000000000000000000000000000000000000000000000000000000000
310
0000000000000000000000000000000000000000000000000000000000000000
310
0000000000000000000000000000000000000000000000000000000000000000
310
0000000000000000000000000000000000000000000000000000000000000000
310
0000000000000000000000000000000000000000000000000000000000000000
310
0000000000000000000000000000000000000000000000000000000000000000
310
0000000000000000000000000000000000000000000000000000000000000000
310
0000000000000000000000000000000000000000000000000000000000000000
310
0000000000000000000000000000000000000000000000000000000000000000
310
0000000000000000000000000000000000000000000000000000000000000000
310
0000000000000000000000000000000000000000000000000000000000000000
  1
OLE
  0
ENDSEC
  0
SECTION
  2
OBJECTS
  0
DICTIONARY
  5
C
330
0
100
AcDbDictionary
281
     1
  3
ACAD_GROUP
350
D
  3
ACAD_LAYOUT
350
1A
  3
ACAD_MLINESTYLE
350
17
  3
ACAD_PLOTSETTINGS
350
19
  3
ACAD_PLOTSTYLENAME
350
E
  3
ACAD_SCALELIST
350
47
  0
DICTIONARY
  5
D
102
{ACAD_REACTORS
330
C
102
}
330
C
100
AcDbDictionary
281
     1
  0
DICTIONARY
  5
1A
102
{ACAD_REACTORS
330
C
102
}
330
C
100
AcDbDictionary
281
     1
  3
Layout1
350
1E
  3
Layout2
350
26
  3
Model
350
22
  0
DICTIONARY
  5
17
102
{ACAD_REACTORS
330
C
102
}
330
C
100
AcDbDictionary
281
     1
  3
Standard
350
18
  0
DICTIONARY
  5
19
102
{ACAD_REACTORS
330
C
102
}
330
C
100
AcDbDictionary
281
     1
  0
ACDBDICTIONARYWDFLT
  5
E
102
{ACAD_REACTORS
330
C
102
}
330
C
100
AcDbDictionary
281
     1
  3
Normal
350
F
100
AcDbDictionaryWithDefault
340
F
  0
DICTIONARY
  5
47
102
{ACAD_REACTORS
330
C
102
}
330
C
100
AcDbDictionary
281
     1
  3
A0
350
48
  3
A1
350
49
  3
A2
350
4A
  3
A3
350
4B
  3
A4
350
4C
  3
A5
350
4D
  3
A6
350
4E
  3
A7
350
4F
  3
A8
350
50
  3
A9
350
51
  3
B0
350
52
  3
B1
350
53
  3
B2
350
54
  3
B3
350
55
  3
B4
350
56
  3
B5
350
57
  3
B6
350
58
  3
B7
350
59
  3
B8
350
5A
  3
B9
350
5B
  3
C0
350
5C
  3
C1
350
5D
  3
C2
350
5E
  3
C3
350
5F
  3
C4
350
60
  3
C5
350
61
  3
C6
350
62
  3
C7
350
63
  3
C8
350
64
  3
C9
350
65
  3
D0
350
66
  3
D1
350
67
  3
D2
350
68
  0
LAYOUT
  5
1E
102
{ACAD_REACTORS
330
1A
102
}
330
1A
100
AcDbPlotSettings
  1

  2
none_device
  4

  6

 40
0.0
 41
0.0
 42
0.0
 43
0.0
 44
0.0
 45
0.0
 46
0.0
 47
0.0
 48
0.0
 49
0.0
140
0.0
141
0.0
142
1.0
143
1.0
 70
   688
 72
     1
 73
     0
 74
     5
  7

 75
    16
147
1.0
148
0.0
149
0.0
100
AcDbLayout
  1
Layout1
 70
     1
 71
     1
 10
0.0
 20
0.0
 11
420.0
 21
297.0
 12
0.0
 22
0.0
 32
0.0
 14
1.0000000000E+20
 24
1.0000000000E+20
 34
1.0000000000E+20
 15
-1.0000000000E+20
 25
-1.0000000000E+20
 35
-1.0000000000E+20
146
0.0
 13
0.0
 23
0.0
 33
0.0
 16
1.0
 26
0.0
 36
0.0
 17
0.0
 27
1.0
 37
0.0
 76
     0
330
1B
  0
LAYOUT
  5
26
102
{ACAD_REACTORS
330
1A
102
}
330
1A
100
AcDbPlotSettings
  1

  2
none_device
  4

  6

 40
0.0
 41
0.0
 42
0.0
 43
0.0
 44
0.0
 45
0.0
 46
0.0
 47
0.0
 48
0.0
 49
0.0
140
0.0
141
0.0
142
1.0
143
1.0
 70
   688
 72
     1
 73
     0
 74
     5
  7

 75
    16
147
1.0
148
0.0
149
0.0
100
AcDbLayout
  1
Layout2
 70
     1
 71
     2
 10
0.0
 20
0.0
 11
0.0
 21
0.0
 12
0.0
 22
0.0
 32
0.0
 14
0.0
 24
0.0
 34
0.0
 15
0.0
 25
0.0
 35
0.0
146
0.0
 13
0.0
 23
0.0
 33
0.0
 16
1.0
 26
0.0
 36
0.0
 17
0.0
 27
1.0
 37
0.0
 76
     0
330
23
  0
LAYOUT
  5
22
102
{ACAD_REACTORS
330
1A
102
}
330
1A
100
AcDbPlotSettings
  1

  2
none_device
  4
Letter_(8.50_x_11.00_Inches)
  6

 40
6.35
 41
6.35
 42
6.35000508
 43
6.35000508
 44
215.9
 45
279.4
 46
0.0
 47
0.0
 48
0.0
 49
0.0
140
0.0
141
0.0
142
1.0
143
1.0
 70
  1712
 72
     1
 73
     0
 74
     0
  7

 75
     0
147
1.0
148
0.0
149
0.0
100
AcDbLayout
  1
Model
 70
     1
 71
     0
 10
0.0
 20
0.0
 11
297.0
 21
210.0
 12
0.0
 22
0.0
 32
0.0
 14
0.0
 24
0.0
 34
0.0
 15
297.0
 25
210.0
 35
0.0
146
0.0
 13
0.0
 23
0.0
 33
0.0
 16
1.0
 26
0.0
 36
0.0
 17
0.0
 27
1.0
 37
0.0
 76
     0
330
1F
331
29
  0
MLINESTYLE
  5
18
102
{ACAD_REACTORS
330
17
102
}
330
17
100
AcDbMlineStyle
  2
Standard
 70
     0
  3

 62
   256
 51
90.0
 52
90.0
 71
     2
 49
0.5
 62
   256
  6
BYLAYER
 49
-0.5
 62
   256
  6
BYLAYER
  0
ACDBPLACEHOLDER
  5
F
102
{ACAD_REACTORS
330
E
102
}
330
E
  0
SCALE
  5
48
102
{ACAD_REACTORS
330
47
102
}
330
47
100
AcDbScale
 70
     0
300
1:1
140
1.0
141
1.0
290
     1
  0
SCALE
  5
49
102
{ACAD_REACTORS
330
47
102
}
330
47
100
AcDbScale
 70
     0
300
1:2
140
1.0
141
2.0
290
     0
  0
SCALE
  5
4A
102
{ACAD_REACTORS
330
47
102
}
330
47
100
AcDbScale
 70
     0
300
1:4
140
1.0
141
4.0
290
     0
  0
SCALE
  5
4B
102
{ACAD_REACTORS
330
47
102
}
330
47
100
AcDbScale
 70
     0
300
1:5
140
1.0
141
5.0
290
     0
  0
SCALE
  5
4C
102
{ACAD_REACTORS
330
47
102
}
330
47
100
AcDbScale
 70
     0
300
1:8
140
1.0
141
8.0
290
     0
  0
SCALE
  5
4D
102
{ACAD_REACTORS
330
47
102
}
330
47
100
AcDbScale
 70
     0
300
1:10
140
1.0
141
10.0
290
     0
  0
SCALE
  5
4E
102
{ACAD_REACTORS
330
47
102
}
330
47
100
AcDbScale
 70
     0
300
1:16
140
1.0
141
16.0
290
     0
  0
SCALE
  5
4F
102
{ACAD_REACTORS
330
47
102
}
330
47
100
AcDbScale
 70
     0
300
1:20
140
1.0
141
20.0
290
     0
  0
SCALE
  5
50
102
{ACAD_REACTORS
330
47
102
}
330
47
100
AcDbScale
 70
     0
300
1:30
140
1.0
141
30.0
290
     0
  0
SCALE
  5
51
102
{ACAD_REACTORS
330
47
102
}
330
47
100
AcDbScale
 70
     0
300
1:40
140
1.0
141
40.0
290
     0
  0
SCALE
  5
52
102
{ACAD_REACTORS
330
47
102
}
330
47
100
AcDbScale
 70
     0
300
1:50
140
1.0
141
50.0
290
     0
  0
SCALE
  5
53
102
{ACAD_REACTORS
330
47
102
}
330
47
100
AcDbScale
 70
     0
300
1:100
140
1.0
141
100.0
290
     0
  0
SCALE
  5
54
102
{ACAD_REACTORS
330
47
102
}
330
47
100
AcDbScale
 70
     0
300
2:1
140
2.0
141
1.0
290
     0
  0
SCALE
  5
55
102
{ACAD_REACTORS
330
47
102
}
330
47
100
AcDbScale
 70
     0
300
4:1
140
4.0
141
1.0
290
     0
  0
SCALE
  5
56
102
{ACAD_REACTORS
330
47
102
}
330
47
100
AcDbScale
 70
     0
300
8:1
140
8.0
141
1.0
290
     0
  0
SCALE
  5
57
102
{ACAD_REACTORS
330
47
102
}
330
47
100
AcDbScale
 70
     0
300
10:1
140
10.0
141
1.0
290
     0
  0
SCALE
  5
58
102
{ACAD_REACTORS
330
47
102
}
330
47
100
AcDbScale
 70
     0
300
100:1
140
100.0
141
1.0
290
     0
  0
SCALE
  5
59
102
{ACAD_REACTORS
330
47
102
}
330
47
100
AcDbScale
 70
     0
300
1/128" = 1'-0"
140
0.0078125
141
12.0
290
     0
  0
SCALE
  5
5A
102
{ACAD_REACTORS
330
47
102
}
330
47
100
AcDbScale
 70
     0
300
1/64" = 1'-0"
140
0.015625
141
12.0
290
     0
  0
SCALE
  5
5B
102
{ACAD_REACTORS
330
47
102
}
330
47
100
AcDbScale
 70
     0
300
1/32" = 1'-0"
140
0.03125
141
12.0
290
     0
  0
SCALE
  5
5C
102
{ACAD_REACTORS
330
47
102
}
330
47
100
AcDbScale
 70
     0
300
1/16" = 1'-0"
140
0.0625
141
12.0
290
     0
  0
SCALE
  5
5D
102
{ACAD_REACTORS
330
47
102
}
330
47
100
AcDbScale
 70
     0
300
3/32" = 1'-0"
140
0.09375
141
12.0
290
     0
  0
SCALE
  5
5E
102
{ACAD_REACTORS
330
47
102
}
330
47
100
AcDbScale
 70
     0
300
1/8" = 1'-0"
140
0.125
141
12.0
290
     0
  0
SCALE
  5
5F
102
{ACAD_REACTORS
330
47
102
}
330
47
100
AcDbScale
 70
     0
300
3/16" = 1'-0"
140
0.1875
141
12.0
290
     0
  0
SCALE
  5
60
102
{ACAD_REACTORS
330
47
102
}
330
47
100
AcDbScale
 70
     0
300
1/4" = 1'-0"
140
0.25
141
12.0
290
     0
  0
SCALE
  5
61
102
{ACAD_REACTORS
330
47
102
}
330
47
100
AcDbScale
 70
     0
300
3/8" = 1'-0"
140
0.375
141
12.0
290
     0
  0
SCALE
  5
62
102
{ACAD_REACTORS
330
47
102
}
330
47
100
AcDbScale
 70
     0
300
1/2" = 1'-0"
140
0.5
141
12.0
290
     0
  0
SCALE
  5
63
102
{ACAD_REACTORS
330
47
102
}
330
47
100
AcDbScale
 70
     0
300
3/4" = 1'-0"
140
0.75
141
12.0
290
     0
  0
SCALE
  5
64
102
{ACAD_REACTORS
330
47
102
}
330
47
100
AcDbScale
 70
     0
300
1" = 1'-0"
140
1.0
141
12.0
290
     0
  0
SCALE
  5
65
102
{ACAD_REACTORS
330
47
102
}
330
47
100
AcDbScale
 70
     0
300
1-1/2" = 1'-0"
140
1.5
141
12.0
290
     0
  0
SCALE
  5
66
102
{ACAD_REACTORS
330
47
102
}
330
47
100
AcDbScale
 70
     0
300
3" = 1'-0"
140
3.0
141
12.0
290
     0
  0
SCALE
  5
67
102
{ACAD_REACTORS
330
47
102
}
330
47
100
AcDbScale
 70
     0
300
6" = 1'-0"
140
6.0
141
12.0
290
     0
  0
SCALE
  5
68
102
{ACAD_REACTORS
330
47
102
}
330
47
100
AcDbScale
 70
     0
300
1'-0" = 1'-0"
140
12.0
141
12.0
290
     0
  0
ENDSEC
  0
EOF
