  0
SECTION
  2
HEADER
  9
$ACADVER
  1
AC1015
  9
$ACADMAINTVER
 70
     6
  9
$DWGCODEPAGE
  3
ANSI_1252
  9
$INSBASE
 10
0.0
 20
0.0
 30
0.0
  9
$EXTMIN
 10
0.0
 20
0.0
 30
0.0
  9
$EXTMAX
 10
297.0
 20
210.0
 30
0.0
  9
$LIMMIN
 10
0.0
 20
0.0
  9
$LIMMAX
 10
297.0
 20
210.0
  9
$ORTHOMODE
 70
     0
  9
$REGENMODE
 70
     1
  9
$FILLMODE
 70
     1
  9
$QTEXTMODE
 70
     0
  9
$MIRRTEXT
 70
     1
  9
$LTSCALE
 40
1.0
  9
$ATTMODE
 70
     1
  9
$TEXTSIZE
 40
2.0
  9
$TRACEWID
 40
1.0
  9
$TEXTSTYLE
  7
Standard
  9
$CLAYER
  8
0
  9
$CELTYPE
  6
ByLayer
  9
$CECOLOR
 62
   256
  9
$CELTSCALE
 40
1.0
  9
$DISPSILH
 70
     0
  9
$DIMSCALE
 40
1.0
  9
$DIMASZ
 40
3.0
  9
$DIMEXO
 40
0.0
  9
$DIMDLI
 40
3.75
  9
$DIMRND
 40
0.0
  9
$DIMDLE
 40
0.0
  9
$DIMEXE
 40
1.0
  9
$DIMTP
 40
0.0
  9
$DIMTM
 40
0.0
  9
$DIMTXT
 40
2.0
  9
$DIMCEN
 40
2.5
  9
$DIMTSZ
 40
0.0
  9
$DIMTOL
 70
     0
  9
$DIMLIM
 70
     0
  9
$DIMTIH
 70
     1
  9
$DIMTOH
 70
     1
  9
$DIMSE1
 70
     0
  9
$DIMSE2
 70
     0
  9
$DIMTAD
 70
     1
  9
$DIMZIN
 70
     0
  9
$DIMBLK
  1

  9
$DIMASO
 70
     1
  9
$DIMSHO
 70
     1
  9
$DIMPOST
  1

  9
$DIMAPOST
  1

  9
$DIMALT
 70
     0
  9
$DIMALTD
 70
     3
  9
$DIMALTF
 40
0.0393700787
  9
$DIMLFAC
 40
1.0
  9
$DIMTOFL
 70
     1
  9
$DIMTVP
 40
0.0
  9
$DIMTIX
 70
     0
  9
$DIMSOXD
 70
     0
  9
$DIMSAH
 70
     0
  9
$DIMBLK1
  1

  9
$DIMBLK2
  1

  9
$DIMSTYLE
  2
ISO-25
  9
$DIMCLRD
 70
     0
  9
$DIMCLRE
 70
     0
  9
$DIMCLRT
 70
     0
  9
$DIMTFAC
 40
1.0
  9
$DIMGAP
 40
1.524
  9
$DIMJUST
 70
     0
  9
$DIMSD1
 70
     0
  9
$DIMSD2
 70
     0
  9
$DIMTOLJ
 70
     0
  9
$DIMTZIN
 70
     0
  9
$DIMALTZ
 70
     0
  9
$DIMALTTZ
 70
     0
  9
$DIMUPT
 70
     0
  9
$DIMDEC
 70
     2
  9
$DIMTDEC
 70
     3
  9
$DIMALTU
 70
     2
  9
$DIMALTTD
 70
     3
  9
$DIMTXSTY
  7
Standard
  9
$DIMAUNIT
 70
     0
  9
$DIMADEC
 70
     2
  9
$DIMALTRND
 40
0.0
  9
$DIMAZIN
 70
     0
  9
$DIMDSEP
 70
    44
  9
$DIMATFIT
 70
     3
  9
$DIMFRAC
 70
     0
  9
$DIMLDRBLK
  1

  9
$DIMLUNIT
 70
     2
  9
$DIMLWD
 70
    -2
  9
$DIMLWE
 70
    -2
  9
$DIMTMOVE
 70
     0
  9
$LUNITS
 70
     2
  9
$LUPREC
 70
     2
  9
$SKETCHINC
 40
1.0
  9
$FILLETRAD
 40
10.0
  9
$AUNITS
 70
     0
  9
$AUPREC
 70
     2
  9
$MENU
  1
.
  9
$ELEVATION
 40
0.0
  9
$PELEVATION
 40
0.0
  9
$THICKNESS
 40
0.0
  9
$LIMCHECK
 70
     0
  9
$CHAMFERA
 40
10.0
  9
$CHAMFERB
 40
10.0
  9
$CHAMFERC
 40
20.0
  9
$CHAMFERD
 40
0.0
  9
$SKPOLY
 70
     0
  9
$TDCREATE
 40
2456072.666029699
  9
$TDUCREATE
 40
2456072.582696366
  9
$TDUPDATE
 40
2456072.666031134
  9
$TDUUPDATE
 40
2456072.582697801
  9
$TDINDWG
 40
0.0000000116
  9
$TDUSRTIMER
 40
0.0000000116
  9
$USRTIMER
 70
     1
  9
$ANGBASE
 50
0.0
  9
$ANGDIR
 70
     0
  9
$PDMODE
 70
     0
  9
$PDSIZE
 40
-1.0
  9
$PLINEWID
 40
0.0
  9
$SPLFRAME
 70
     0
  9
$SPLINETYPE
 70
     6
  9
$SPLINESEGS
 70
     8
  9
$HANDSEED
  5
3E5
  9
$SURFTAB1
 70
     6
  9
$SURFTAB2
 70
     6
  9
$SURFTYPE
 70
     6
  9
$SURFU
 70
     6
  9
$SURFV
 70
     6
  9
$UCSBASE
  2

  9
$UCSNAME
  2

  9
$UCSORG
 10
0.0
 20
0.0
 30
0.0
  9
$UCSXDIR
 10
1.0
 20
0.0
 30
0.0
  9
$UCSYDIR
 10
0.0
 20
1.0
 30
0.0
  9
$UCSORTHOREF
  2

  9
$UCSORTHOVIEW
 70
     0
  9
$UCSORGTOP
 10
0.0
 20
0.0
 30
0.0
  9
$UCSORGBOTTOM
 10
0.0
 20
0.0
 30
0.0
  9
$UCSORGLEFT
 10
0.0
 20
0.0
 30
0.0
  9
$UCSORGRIGHT
 10
0.0
 20
0.0
 30
0.0
  9
$UCSORGFRONT
 10
0.0
 20
0.0
 30
0.0
  9
$UCSORGBACK
 10
0.0
 20
0.0
 30
0.0
  9
$PUCSBASE
  2

  9
$PUCSNAME
  2

  9
$PUCSORG
 10
0.0
 20
0.0
 30
0.0
  9
$PUCSXDIR
 10
1.0
 20
0.0
 30
0.0
  9
$PUCSYDIR
 10
0.0
 20
1.0
 30
0.0
  9
$PUCSORTHOREF
  2

  9
$PUCSORTHOVIEW
 70
     0
  9
$PUCSORGTOP
 10
0.0
 20
0.0
 30
0.0
  9
$PUCSORGBOTTOM
 10
0.0
 20
0.0
 30
0.0
  9
$PUCSORGLEFT
 10
0.0
 20
0.0
 30
0.0
  9
$PUCSORGRIGHT
 10
0.0
 20
0.0
 30
0.0
  9
$PUCSORGFRONT
 10
0.0
 20
0.0
 30
0.0
  9
$PUCSORGBACK
 10
0.0
 20
0.0
 30
0.0
  9
$USERI1
 70
     0
  9
$USERI2
 70
     0
  9
$USERI3
 70
     0
  9
$USERI4
 70
     0
  9
$USERI5
 70
     0
  9
$USERR1
 40
0.0
  9
$USERR2
 40
0.0
  9
$USERR3
 40
0.0
  9
$USERR4
 40
0.0
  9
$USERR5
 40
0.0
  9
$WORLDVIEW
 70
     1
  9
$SHADEDGE
 70
     3
  9
$SHADEDIF
 70
    70
  9
$TILEMODE
 70
     1
  9
$MAXACTVP
 70
    64
  9
$PINSBASE
 10
0.0
 20
0.0
 30
0.0
  9
$PLIMCHECK
 70
     0
  9
$PEXTMIN
 10
1.0000000000E+20
 20
1.0000000000E+20
 30
1.0000000000E+20
  9
$PEXTMAX
 10
-1.0000000000E+20
 20
-1.0000000000E+20
 30
-1.0000000000E+20
  9
$PLIMMIN
 10
0.0
 20
0.0
  9
$PLIMMAX
 10
420.0
 20
297.0
  9
$UNITMODE
 70
     0
  9
$VISRETAIN
 70
     1
  9
$PLINEGEN
 70
     0
  9
$PSLTSCALE
 70
     1
  9
$TREEDEPTH
 70
  3020
  9
$CMLSTYLE
  2
Standard
  9
$CMLJUST
 70
     0
  9
$CMLSCALE
 40
20.0
  9
$PROXYGRAPHICS
 70
     1
  9
$MEASUREMENT
 70
     1
  9
$CELWEIGHT
370
    -1
  9
$ENDCAPS
280
     0
  9
$JOINSTYLE
280
     0
  9
$LWDISPLAY
290
     1
  9
$INSUNITS
 70
     4
  9
$HYPERLINKBASE
  1

  9
$STYLESHEET
  1

  9
$XEDIT
290
     1
  9
$CEPSNTYPE
380
     0
  9
$PSTYLEMODE
290
     1
  9
$FINGERPRINTGUID
  2
{2DF84FDB-8F24-4A5B-91F1-00832D09D893}
  9
$VERSIONGUID
  2
{FAEB1C32-E019-11D5-929B-00C0DF256EC4}
  9
$EXTNAMES
290
     1
  9
$PSVPSCALE
 40
0.0
  9
$OLESTARTUP
290
     0
  0
ENDSEC
  0
SECTION
  2
CLASSES
  0
CLASS
  1
ACDBDICTIONARYWDFLT
  2
AcDbDictionaryWithDefault
  3
ObjectDBX Classes
 90
        0
280
     0
281
     0
  0
CLASS
  1
VISUALSTYLE
  2
AcDbVisualStyle
  3
ObjectDBX Classes
 90
     4095
280
     0
281
     0
  0
CLASS
  1
MATERIAL
  2
AcDbMaterial
  3
ObjectDBX Classes
 90
     1153
280
     0
281
     0
  0
CLASS
  1
ACDBPLACEHOLDER
  2
AcDbPlaceHolder
  3
ObjectDBX Classes
 90
        0
280
     0
281
     0
  0
CLASS
  1
LAYOUT
  2
AcDbLayout
  3
ObjectDBX Classes
 90
        0
280
     0
281
     0
  0
ENDSEC
  0
SECTION
  2
TABLES
  0
TABLE
  2
VPORT
  5
8
330
0
100
AcDbSymbolTable
 70
     1
  0
VPORT
  5
29
330
8
100
AcDbSymbolTableRecord
100
AcDbViewportTableRecord
  2
*Active
 70
     0
 10
0.0
 20
0.0
 11
1.0
 21
1.0
 12
148.5
 22
105.0
 13
0.0
 23
0.0
 14
10.0
 24
10.0
 15
10.0
 25
10.0
 16
0.0
 26
0.0
 36
1.0
 17
0.0
 27
0.0
 37
0.0
 40
210.0
 41
1.4142857143
 42
50.0
 43
0.0
 44
0.0
 50
0.0
 51
0.0
 71
     0
 72
  2000
 73
     1
 74
     3
 75
     0
 76
     0
 77
     0
 78
     0
281
     0
 65
     1
110
0.0
120
0.0
130
0.0
111
1.0
121
0.0
131
0.0
112
0.0
122
1.0
132
0.0
 79
     0
146
0.0
  0
ENDTAB
  0
TABLE
  2
LTYPE
  5
5
330
0
100
AcDbSymbolTable
 70
     6
  0
LTYPE
  5
14
330
5
100
AcDbSymbolTableRecord
100
AcDbLinetypeTableRecord
  2
ByBlock
 70
     0
  3

 72
    65
 73
     0
 40
0.0
  0
LTYPE
  5
15
330
5
100
AcDbSymbolTableRecord
100
AcDbLinetypeTableRecord
  2
ByLayer
 70
     0
  3

 72
    65
 73
     0
 40
0.0
  0
LTYPE
  5
16
330
5
100
AcDbSymbolTableRecord
100
AcDbLinetypeTableRecord
  2
Continuous
 70
     0
  3
Solid line
 72
    65
 73
     0
 40
0.0
  0
LTYPE
  5
3F
330
5
100
AcDbSymbolTableRecord
100
AcDbLinetypeTableRecord
  2
HIDDEN
 70
     0
  3
Hidden __ __ __ __ __ __ __ __ __ __ __ __ __ __
 72
    65
 73
     2
 40
1.905
 49
1.27
 74
     0
 49
-0.635
 74
     0
  0
LTYPE
  5
40
330
5
100
AcDbSymbolTableRecord
100
AcDbLinetypeTableRecord
  2
PHANTOM
 70
     0
  3
Phantom ______  __  __  ______  __  __  ______
 72
    65
 73
     6
 40
12.7
 49
6.35
 74
     0
 49
-1.27
 74
     0
 49
1.27
 74
     0
 49
-1.27
 74
     0
 49
1.27
 74
     0
 49
-1.27
 74
     0
  0
LTYPE
  5
41
330
5
100
AcDbSymbolTableRecord
100
AcDbLinetypeTableRecord
  2
CENTER
 70
     0
  3
Center ____ _ ____ _ ____ _ ____ _ ____ _ ____
 72
    65
 73
     4
 40
10.16
 49
6.35
 74
     0
 49
-1.27
 74
     0
 49
1.27
 74
     0
 49
-1.27
 74
     0
  0
LTYPE
  5
42
330
5
100
AcDbSymbolTableRecord
100
AcDbLinetypeTableRecord
  2
CENTERX2
 70
     0
  3
Center (2x) ________  __  ________  __  _____
 72
    65
 73
     4
 40
20.32
 49
12.7
 74
     0
 49
-2.54
 74
     0
 49
2.54
 74
     0
 49
-2.54
 74
     0
  0
LTYPE
  5
43
330
5
100
AcDbSymbolTableRecord
100
AcDbLinetypeTableRecord
  2
DOT2
 70
     0
  3
Dot (.5x) ........................................
 72
    65
 73
     2
 40
0.635
 49
0.0
 74
     0
 49
-0.635
 74
     0
  0
ENDTAB
  0
TABLE
  2
LAYER
  5
2
330
0
100
AcDbSymbolTable
 70
     5
  0
LAYER
  5
10
330
2
100
AcDbSymbolTableRecord
100
AcDbLayerTableRecord
  2
0
 70
     0
 62
     7
  6
Continuous
370
    -3
390
F
  0
LAYER
  5
44
330
2
100
AcDbSymbolTableRecord
100
AcDbLayerTableRecord
  2
FORMAT
 70
     0
 62
     7
  6
Continuous
370
    -3
390
F
  0
LAYER
  5
45
330
2
100
AcDbSymbolTableRecord
100
AcDbLayerTableRecord
  2
VERMASSUNG
 70
     0
 62
     7
  6
Continuous
370
    -3
390
F
  0
LAYER
  5
46
330
2
100
AcDbSymbolTableRecord
100
AcDbLayerTableRecord
  2
KOPF_DÜNN
 70
     0
 62
     7
  6
Continuous
370
    -3
390
F
  0
LAYER
  5
47
330
2
100
AcDbSymbolTableRecord
100
AcDbLayerTableRecord
  2
KOPF_DICK
 70
     0
 62
     7
  6
Continuous
370
    15
390
F
  0
ENDTAB
  0
TABLE
  2
STYLE
  5
3
330
0
100
AcDbSymbolTable
 70
     3
  0
STYLE
  5
11
330
3
100
AcDbSymbolTableRecord
100
AcDbTextStyleTableRecord
  2
Standard
 70
     0
 40
0.0
 41
1.0
 50
0.0
 71
     0
 42
2.0
  3
txt
  4

  0
STYLE
  5
48
330
3
100
AcDbSymbolTableRecord
100
AcDbTextStyleTableRecord
  2
SLDTEXTSTYLE0
 70
     0
 40
0.0
 41
0.7
 50
0.0
 71
     0
 42
0.2
  3
TXT
  4

  0
STYLE
  5
4C
330
3
100
AcDbSymbolTableRecord
100
AcDbTextStyleTableRecord
  2
SLDTEXTSTYLE1
 70
     0
 40
0.0
 41
0.645
 50
0.0
 71
     0
 42
0.2
  3
TXT
  4

  0
ENDTAB
  0
TABLE
  2
VIEW
  5
6
330
0
100
AcDbSymbolTable
 70
     0
  0
ENDTAB
  0
TABLE
  2
UCS
  5
7
330
0
100
AcDbSymbolTable
 70
     0
  0
ENDTAB
  0
TABLE
  2
APPID
  5
9
330
0
100
AcDbSymbolTable
 70
     1
  0
APPID
  5
12
330
9
100
AcDbSymbolTableRecord
100
AcDbRegAppTableRecord
  2
ACAD
 70
     0
  0
ENDTAB
  0
TABLE
  2
DIMSTYLE
  5
A
330
0
100
AcDbSymbolTable
 70
     3
100
AcDbDimStyleTable
  0
DIMSTYLE
105
27
330
A
100
AcDbSymbolTableRecord
100
AcDbDimStyleTableRecord
  2
ISO-25
 70
     0
 41
2.5
 42
0.625
 43
3.75
 44
1.25
 73
     0
 74
     0
 77
     1
 78
     8
140
2.5
141
2.5
143
0.0393700787
147
0.625
171
     3
172
     1
178
     0
271
     2
272
     2
274
     3
278
    44
283
     0
284
     8
340
11
  0
DIMSTYLE
105
1FE
102
{ACAD_REACTORS
330
1FD
102
}
330
A
100
AcDbSymbolTableRecord
100
AcDbDimStyleTableRecord
  2
SLDDIMSTYLE0
 70
     0
 41
3.0
 44
0.0
 45
0.000000001
 47
0.1
 48
0.1
 71
     1
 73
     0
 74
     0
 77
     1
 78
    12
 79
     3
140
2.0
147
0.5
173
     1
178
     0
271
     2
272
     1
276
     2
284
     8
340
48
  0
DIMSTYLE
105
20B
102
{ACAD_REACTORS
330
20A
330
3D7
102
}
330
A
100
AcDbSymbolTableRecord
100
AcDbDimStyleTableRecord
  2
SLDDIMSTYLE1
 70
     0
 41
3.0
 44
0.0
 45
0.000000001
 73
     0
 74
     0
 77
     1
 78
    12
 79
     3
140
2.0
147
0.5
173
     1
178
     0
271
     2
272
     3
276
     2
284
    12
340
48
  0
ENDTAB
  0
TABLE
  2
BLOCK_RECORD
  5
1
330
0
100
AcDbSymbolTable
 70
     4
  0
BLOCK_RECORD
  5
1F
330
1
100
AcDbSymbolTableRecord
100
AcDbBlockTableRecord
  2
*Model_Space
340
22
  0
BLOCK_RECORD
  5
1B
330
1
100
AcDbSymbolTableRecord
100
AcDbBlockTableRecord
  2
*Paper_Space
340
1E
  0
BLOCK_RECORD
  5
23
330
1
100
AcDbSymbolTableRecord
100
AcDbBlockTableRecord
  2
*Paper_Space0
340
26
  0
BLOCK_RECORD
  5
1FF
330
1
100
AcDbSymbolTableRecord
100
AcDbBlockTableRecord
  2
_D
340
0
  0
BLOCK_RECORD
  5
20C
330
1
100
AcDbSymbolTableRecord
100
AcDbBlockTableRecord
  2
_D_1
340
0
  0
BLOCK_RECORD
  5
3D8
330
1
100
AcDbSymbolTableRecord
100
AcDbBlockTableRecord
  2
_D_2
340
0
  0
ENDTAB
  0
ENDSEC
  0
SECTION
  2
BLOCKS
  0
BLOCK
  5
20
330
1F
100
AcDbEntity
  8
0
100
AcDbBlockBegin
  2
*Model_Space
 70
     0
 10
0.0
 20
0.0
 30
0.0
  3
*Model_Space
  1

  0
ENDBLK
  5
21
330
1F
100
AcDbEntity
  8
0
100
AcDbBlockEnd
  0
BLOCK
  5
1C
330
1B
100
AcDbEntity
 67
     1
  8
0
100
AcDbBlockBegin
  2
*Paper_Space
 70
     0
 10
0.0
 20
0.0
 30
0.0
  3
*Paper_Space
  1

  0
ENDBLK
  5
1D
330
1B
100
AcDbEntity
 67
     1
  8
0
100
AcDbBlockEnd
  0
BLOCK
  5
24
330
23
100
AcDbEntity
  8
0
100
AcDbBlockBegin
  2
*Paper_Space0
 70
     0
 10
0.0
 20
0.0
 30
0.0
  3
*Paper_Space0
  1

  0
ENDBLK
  5
25
330
23
100
AcDbEntity
  8
0
100
AcDbBlockEnd
  0
BLOCK
  5
200
330
1FF
100
AcDbEntity
  8
0
100
AcDbBlockBegin
  2
_D
 70
     0
 10
0.0
 20
0.0
 30
0.0
  3
_D
  1

  0
SOLID
  5
202
330
1FF
100
AcDbEntity
  8
VERMASSUNG
100
AcDbTrace
 10
142.9576489793
 20
186.9153707011
 30
0.0
 11
145.9576489793
 21
186.4653707011
 31
0.0
 12
145.9576489793
 22
187.3653707011
 32
0.0
 13
145.9576489793
 23
187.3653707011
 33
0.0
  0
SOLID
  5
203
330
1FF
100
AcDbEntity
  8
VERMASSUNG
100
AcDbTrace
 10
242.9576489793
 20
186.9153707011
 30
0.0
 11
239.9576489793
 21
187.3653707011
 31
0.0
 12
239.9576489793
 22
186.4653707011
 32
0.0
 13
239.9576489793
 23
186.4653707011
 33
0.0
  0
LINE
  5
204
330
1FF
100
AcDbEntity
  8
VERMASSUNG
100
AcDbLine
 10
142.9576489793
 20
178.8876783411
 30
0.0
 11
142.9576489793
 21
187.9153707011
 31
0.0
  0
LINE
  5
205
330
1FF
100
AcDbEntity
  8
VERMASSUNG
100
AcDbLine
 10
242.9576489793
 20
161.9461736738
 30
0.0
 11
242.9576489793
 21
187.9153707011
 31
0.0
  0
LINE
  5
206
330
1FF
100
AcDbEntity
  8
VERMASSUNG
100
AcDbLine
 10
142.9576489793
 20
186.9153707011
 30
0.0
 11
242.9576489793
 21
186.9153707011
 31
0.0
  0
MTEXT
  5
207
330
1FF
100
AcDbEntity
  8
VERMASSUNG
100
AcDbMText
 10
187.9076487104
 20
189.4935060642
 30
0.1
 40
2.0
 41
0.0
 71
     1
 72
     1
  1
100
  7
SLDTEXTSTYLE0
 73
     1
 44
1.0
  0
MTEXT
  5
208
330
1FF
100
AcDbEntity
  8
VERMASSUNG
100
AcDbMText
 10
194.6951489764
 20
189.4935060642
 30
0.1
 40
2.0
 41
0.0
 71
     1
 72
     1
  1

  7
SLDTEXTSTYLE0
 73
     1
 44
1.0
  0
MTEXT
  5
209
330
1FF
100
AcDbEntity
  8
VERMASSUNG
100
AcDbMText
 10
194.7076492662
 20
188.9989722014
 30
0.1
 40
1.5
 41
0.0
 71
     1
 72
     1
  1
±0.1
  7
SLDTEXTSTYLE0
 73
     1
 44
1.0
  0
ENDBLK
  5
201
330
1FF
100
AcDbEntity
  8
0
100
AcDbBlockEnd
  0
BLOCK
  5
20D
330
20C
100
AcDbEntity
  8
0
100
AcDbBlockBegin
  2
_D_1
 70
     0
 10
0.0
 20
0.0
 30
0.0
  3
_D_1
  1

  0
SOLID
  5
20F
330
20C
100
AcDbEntity
  8
VERMASSUNG
100
AcDbTrace
 10
104.9576489793
 20
192.4559433762
 30
0.0
 11
107.9576489793
 21
192.0059433762
 31
0.0
 12
107.9576489793
 22
192.9059433762
 32
0.0
 13
107.9576489793
 23
192.9059433762
 33
0.0
  0
SOLID
  5
210
330
20C
100
AcDbEntity
  8
VERMASSUNG
100
AcDbTrace
 10
242.9576489793
 20
192.4559433762
 30
0.0
 11
239.9576489793
 21
192.9059433762
 31
0.0
 12
239.9576489793
 22
192.0059433762
 32
0.0
 13
239.9576489793
 23
192.0059433762
 33
0.0
  0
LINE
  5
211
330
20C
100
AcDbEntity
  8
VERMASSUNG
100
AcDbLine
 10
104.9576489793
 20
168.07379411
 30
0.0
 11
104.9576489793
 21
193.4559433762
 31
0.0
  0
LINE
  5
212
330
20C
100
AcDbEntity
  8
VERMASSUNG
100
AcDbLine
 10
242.9576489793
 20
161.9461736738
 30
0.0
 11
242.9576489793
 21
193.4559433762
 31
0.0
  0
LINE
  5
213
330
20C
100
AcDbEntity
  8
VERMASSUNG
100
AcDbLine
 10
104.9576489793
 20
192.4559433762
 30
0.0
 11
242.9576489793
 21
192.4559433762
 31
0.0
  0
MTEXT
  5
214
330
20C
100
AcDbEntity
  8
VERMASSUNG
100
AcDbMText
 10
171.1576488464
 20
195.0340787394
 30
0.1
 40
2.0
 41
0.0
 71
     1
 72
     1
  1
138
  7
SLDTEXTSTYLE0
 73
     1
 44
1.0
  0
ENDBLK
  5
20E
330
20C
100
AcDbEntity
  8
0
100
AcDbBlockEnd
  0
BLOCK
  5
3D9
330
3D8
100
AcDbEntity
  8
0
100
AcDbBlockBegin
  2
_D_2
 70
     0
 10
0.0
 20
0.0
 30
0.0
  3
_D_2
  1

  0
SOLID
  5
3DB
330
3D8
100
AcDbEntity
  8
VERMASSUNG
100
AcDbTrace
 10
94.9576489793
 20
100.4194963578
 30
0.0
 11
94.5076489793
 21
97.4194963578
 31
0.0
 12
95.4076489793
 22
97.4194963578
 32
0.0
 13
95.4076489793
 23
97.4194963578
 33
0.0
  0
SOLID
  5
3DC
330
3D8
100
AcDbEntity
  8
VERMASSUNG
100
AcDbTrace
 10
94.9576489793
 20
37.4194963578
 30
0.0
 11
95.4076489793
 21
40.4194963578
 31
0.0
 12
94.5076489793
 22
40.4194963578
 32
0.0
 13
94.5076489793
 23
40.4194963578
 33
0.0
  0
LINE
  5
3DD
330
3D8
100
AcDbEntity
  8
VERMASSUNG
100
AcDbLine
 10
143.4576489793
 20
100.4194963578
 30
0.0
 11
93.9576489793
 21
100.4194963578
 31
0.0
  0
LINE
  5
3DE
330
3D8
100
AcDbEntity
  8
VERMASSUNG
100
AcDbLine
 10
143.4576489793
 20
37.4194963578
 30
0.0
 11
93.9576489793
 21
37.4194963578
 31
0.0
  0
LINE
  5
3DF
330
3D8
100
AcDbEntity
  8
VERMASSUNG
100
AcDbLine
 10
94.9576489793
 20
100.4194963578
 30
0.0
 11
94.9576489793
 21
37.4194963578
 31
0.0
  0
MTEXT
  5
3E0
330
3D8
100
AcDbEntity
  8
VERMASSUNG
100
AcDbMText
 10
92.1795134903
 20
62.5144962486
 30
0.1
 40
2.0
 41
0.0
 71
     1
 72
     1
  1
PSC
  7
SLDTEXTSTYLE0
 11
-7.044195017643634E-15
 21
1.0
 31
0.0
 73
     1
 44
1.0
  0
MTEXT
  5
3E1
330
3D8
100
AcDbEntity
  8
VERMASSUNG
100
AcDbMText
 10
92.3795134998
 20
67.1144963506
 30
0.1
 40
2.0
 41
0.0
 71
     1
 72
     1
  1
%%c
  7
SLDTEXTSTYLE0
 11
-7.044195017643634E-15
 21
1.0
 31
0.0
 73
     1
 44
1.0
  0
MTEXT
  5
3E2
330
3D8
100
AcDbEntity
  8
VERMASSUNG
100
AcDbMText
 10
92.1795134903
 20
70.7244968306
 30
0.1
 40
2.0
 41
0.0
 71
     1
 72
     1
  1
63
  7
SLDTEXTSTYLE0
 11
-7.044195017643634E-15
 21
1.0
 31
0.0
 73
     1
 44
1.0
  0
ENDBLK
  5
3DA
330
3D8
100
AcDbEntity
  8
0
100
AcDbBlockEnd
  0
ENDSEC
  0
SECTION
  2
ENTITIES
  0
MTEXT
  5
49
330
1F
100
AcDbEntity
  8
KOPF_DÜNN
100
AcDbMText
 10
13.8892156294
 20
23.8442973028
 30
0.0
 40
3.0
 41
0.0
 71
     1
 72
     1
  1
PS6.PCD.NMA.100
  7
SLDTEXTSTYLE0
 73
     1
 44
1.0
  0
MTEXT
  5
4A
330
1F
100
AcDbEntity
  8
VERMASSUNG
100
AcDbMText
 10
13.9329988022
 20
28.8834360957
 30
0.0
 40
3.0
 41
0.0
 71
     1
 72
     1
  1
Klemmhalter_Turning tool neutral
  7
SLDTEXTSTYLE0
 73
     1
 44
1.0
  0
MTEXT
  5
4B
330
1F
100
AcDbEntity
  8
VERMASSUNG
100
AcDbMText
 10
98.8601118557
 20
13.8365368179
 30
0.0
 40
2.0
 41
0.0
 71
     1
 72
     1
  1
Datum: 24.05.2012
  7
SLDTEXTSTYLE0
 73
     1
 44
1.0
  0
MTEXT
  5
4D
330
1F
100
AcDbEntity
  8
VERMASSUNG
100
AcDbMText
 10
13.933048693
 20
18.0482802738
 30
0.0
 40
2.0
 41
0.0
 71
     1
 72
     1
  1
PSC ø63 / CN.. 12 04.. / 50° / 80° / 50°
  7
SLDTEXTSTYLE1
 73
     1
 44
1.0
  0
MTEXT
  5
4E
330
1F
100
AcDbEntity
  8
VERMASSUNG
100
AcDbMText
 10
13.9808475933
 20
13.9090973692
 30
0.0
 40
2.0
 41
0.0
 71
     1
 72
     1
  1
Gewicht: 1830g
  7
SLDTEXTSTYLE0
 73
     1
 44
1.0
  0
LINE
  5
4F
330
1F
100
AcDbEntity
  8
0
  6
Continuous
 62
     7
370
    15
100
AcDbLine
 10
223.7884912359
 20
150.241354703
 30
0.0
 11
223.7519312369
 21
149.9435908525
 31
0.0
  0
LINE
  5
50
330
1F
100
AcDbEntity
  8
0
  6
Continuous
 62
     7
370
    15
100
AcDbLine
 10
242.3775482642
 20
143.1631585481
 30
0.0
 11
242.9576504695
 21
147.8876783411
 31
0.0
  0
LINE
  5
51
330
1F
100
AcDbEntity
  8
0
  6
Continuous
 62
     7
370
    15
100
AcDbLine
 10
240.8000219332
 20
140.4552264037
 30
0.0
 11
241.1510113346
 21
143.3137589964
 31
0.0
  0
LINE
  5
52
330
1F
100
AcDbEntity
  8
0
  6
Continuous
 62
     7
370
    15
100
AcDbLine
 10
240.4656994807
 20
140.1940230178
 30
0.0
 11
240.8000219332
 21
140.4552264037
 31
0.0
  0
LINE
  5
53
330
1F
100
AcDbEntity
  8
0
  6
Continuous
 62
     7
370
    15
100
AcDbLine
 10
176.9576508271
 20
179.3876788477
 30
0.0
 11
143.4576490031
 21
179.3876788477
 31
0.0
  0
LINE
  5
54
330
1F
100
AcDbEntity
  8
0
  6
Continuous
 62
     7
370
    15
100
AcDbLine
 10
188.0154635476
 20
179.3876788477
 30
0.0
 11
182.9203616547
 21
179.3876788477
 31
0.0
  0
LINE
  5
55
330
1F
100
AcDbEntity
  8
0
  6
Continuous
 62
     7
370
    15
100
AcDbLine
 10
156.9576494115
 20
116.3876778344
 30
0.0
 11
237.5968906747
 21
116.3876778344
 31
0.0
  0
LINE
  5
56
330
1F
100
AcDbEntity
  8
0
  6
Continuous
 62
     7
370
    15
100
AcDbLine
 10
143.4576490031
 20
116.3876778344
 30
0.0
 11
152.9822673368
 21
116.3876778344
 31
0.0
  0
ARC
  5
57
330
1F
100
AcDbEntity
  8
0
  6
Continuous
 62
     7
370
    15
100
AcDbCircle
 10
143.4576489793
 20
116.8876783411
 30
0.0
 40
0.5
100
AcDbArc
 50
180.0
 51
270.0
  0
ARC
  5
58
330
1F
100
AcDbEntity
  8
0
  6
Continuous
 62
     7
370
    15
100
AcDbCircle
 10
143.4576489793
 20
178.8876783411
 30
0.0
 40
0.5
100
AcDbArc
 50
90.0
 51
180.0
  0
LWPOLYLINE
  5
59
330
1F
100
AcDbEntity
  8
0
  6
Continuous
 62
     7
370
    15
100
AcDbPolyline
 90
        3
 70
   128
 43
0.0
 10
142.7576489844
 20
125.347857819
 10
142.8831039196
 20
125.279556484
 10
142.9576489793
 20
125.2268175493
  0
ARC
  5
5A
330
1F
100
AcDbEntity
  8
0
  6
Continuous
 62
     7
370
    15
100
AcDbCircle
 10
142.343435417
 20
171.3376783411
 30
0.0
 40
0.9999999999999889
100
AcDbArc
 50
225.0
 51
307.8947985337
  0
ARC
  5
5B
330
1F
100
AcDbEntity
  8
0
  6
Continuous
 62
     7
370
    15
100
AcDbCircle
 10
140.9575858903
 20
127.2625564454
 30
0.0
 40
0.2000000000000208
100
AcDbArc
 50
88.5608333333
 51
178.5608333334
  0
LINE
  5
5C
330
1F
100
AcDbEntity
  8
0
  6
Continuous
 62
     7
370
    15
100
AcDbLine
 10
131.8779902252
 20
127.4906671504
 30
0.0
 11
140.7576489913
 21
127.2675800035
 31
0.0
  0
LINE
  5
5D
330
1F
100
AcDbEntity
  8
0
  6
Continuous
 62
     7
370
    15
100
AcDbLine
 10
113.2996555137
 20
127.9574199478
 30
0.0
 11
123.2823326903
 21
127.7066203664
 31
0.0
  0
ARC
  5
5E
330
1F
100
AcDbEntity
  8
0
  6
Continuous
 62
     7
370
    15
100
AcDbCircle
 10
142.5576489793
 20
127.2223572912
 30
0.0
 40
0.1999999999999886
100
AcDbArc
 50
0.0
 51
88.5608333333
  0
LINE
  5
5F
330
1F
100
AcDbEntity
  8
0
  6
Continuous
 62
     7
370
    15
100
AcDbLine
 10
140.9626091084
 20
127.4624927799
 30
0.0
 11
142.5626720778
 21
127.4222950349
 31
0.0
  0
ARC
  5
60
330
1F
100
AcDbEntity
  8
0
  6
Continuous
 62
     7
370
    15
100
AcDbCircle
 10
140.9575858903
 20
171.3128002367
 30
0.0
 40
0.2000000000000002
100
AcDbArc
 50
181.4391666666
 51
271.4391666667
  0
LINE
  5
61
330
1F
100
AcDbEntity
  8
0
  6
Continuous
 62
     7
370
    15
100
AcDbLine
 10
140.7576489913
 20
171.3077775101
 30
0.0
 11
106.4576495158
 21
170.4460414956
 31
0.0
  0
LINE
  5
62
330
1F
100
AcDbEntity
  8
0
  6
Continuous
 62
     7
370
    15
100
AcDbLine
 10
141.1633881692
 20
171.1179069141
 30
0.0
 11
140.9626091084
 21
171.1128628711
 31
0.0
  0
LINE
  5
63
330
1F
100
AcDbEntity
  8
0
  6
Continuous
 62
     7
370
    15
100
AcDbLine
 10
106.4576495158
 20
170.4460414956
 30
0.0
 11
104.9576502012
 21
169.5800158093
 31
0.0
  0
LINE
  5
64
330
1F
100
AcDbEntity
  8
0
  6
Continuous
 62
     7
370
    15
100
AcDbLine
 10
141.6363286738
 20
170.6305718879
 30
0.0
 11
141.1735835903
 21
171.0933162729
 31
0.0
  0
LINE
  5
65
330
1F
100
AcDbEntity
  8
0
  6
Continuous
 62
     7
370
    15
100
AcDbLine
 10
232.1753192412
 20
144.4158349084
 30
0.0
 11
232.5377750861
 21
144.3713314264
 31
0.0
  0
LINE
  5
66
330
1F
100
AcDbEntity
  8
0
  6
Continuous
 62
     7
370
    15
100
AcDbLine
 10
223.9303130375
 20
150.223941532
 30
0.0
 11
233.1178698408
 21
149.0958509865
 31
0.0
  0
LWPOLYLINE
  5
67
330
1F
100
AcDbEntity
  8
0
  6
Continuous
 62
     7
370
    15
100
AcDbPolyline
 90
        9
 70
   128
 43
0.0
 10
232.5377750861
 20
144.3713314264
 10
232.5944665538
 20
144.3643707214
 10
232.6571855413
 20
144.3566696151
 10
232.7240321504
 20
144.3484618692
 10
232.7929723727
 20
144.3399968455
 10
232.8619125949
 20
144.3315318218
 10
232.9287592041
 20
144.3233240759
 10
232.9914781915
 20
144.3156229696
 10
233.0481696593
 20
144.3086624975
  0
LWPOLYLINE
  5
68
330
1F
100
AcDbEntity
  8
0
  6
Continuous
 62
     7
370
    15
100
AcDbPolyline
 90
        9
 70
   128
 43
0.0
 10
233.1178698408
 20
149.0958509865
 10
233.1745613085
 20
149.088890398
 10
233.237280296
 20
149.0811892916
 10
233.3041269051
 20
149.0729815457
 10
233.3730671274
 20
149.064516522
 10
233.4420148002
 20
149.0560516147
 10
233.5088614093
 20
149.0478438689
 10
233.5715803968
 20
149.0401427625
 10
233.6282718646
 20
149.033182174
  0
LINE
  5
69
330
1F
100
AcDbEntity
  8
0
  6
Continuous
 62
     7
370
    15
100
AcDbLine
 10
233.0481696593
 20
144.3086624975
 30
0.0
 11
242.2357339131
 21
143.180571952
 31
0.0
  0
LINE
  5
6A
330
1F
100
AcDbEntity
  8
0
  6
Continuous
 62
     7
370
    15
100
AcDbLine
 10
233.6282718646
 20
149.033182174
 30
0.0
 11
242.8158286678
 21
147.9050916376
 31
0.0
  0
LWPOLYLINE
  5
6B
330
1F
100
AcDbEntity
  8
0
  6
Continuous
 62
     7
370
    15
100
AcDbPolyline
 90
        5
 70
   128
 43
0.0
 10
223.7884912359
 20
150.241354703
 10
223.7979013192
 20
150.2401993974
 10
223.8256919848
 20
150.2367874971
 10
223.8705370294
 20
150.2312812852
 10
223.9303130375
 20
150.223941532
  0
LWPOLYLINE
  5
6C
330
1F
100
AcDbEntity
  8
0
  6
Continuous
 62
     7
370
    15
100
AcDbPolyline
 90
        5
 70
   128
 43
0.0
 10
242.2357339131
 20
143.180571952
 10
242.2955099212
 20
143.1732321987
 10
242.3403549658
 20
143.167725754
 10
242.3681381809
 20
143.1643143194
 10
242.3775482642
 20
143.1631585481
  0
LWPOLYLINE
  5
6D
330
1F
100
AcDbEntity
  8
0
  6
Continuous
 62
     7
370
    15
100
AcDbPolyline
 90
        5
 70
   128
 43
0.0
 10
242.8158286678
 20
147.9050916376
 10
242.8756046759
 20
147.897751898
 10
242.9204497205
 20
147.8922456243
 10
242.9482403862
 20
147.888833857
 10
242.9576504695
 20
147.8876783411
  0
LINE
  5
6E
330
1F
100
AcDbEntity
  8
0
  6
Continuous
 62
     7
370
    15
100
AcDbLine
 10
233.0182183253
 20
141.4107116769
 30
0.0
 11
240.4454711544
 21
140.4987596805
 31
0.0
  0
LWPOLYLINE
  5
6F
330
1F
100
AcDbEntity
  8
0
  6
Continuous
 62
     7
370
    15
100
AcDbPolyline
 90
        6
 70
   128
 43
0.0
 10
232.2103667723
 20
141.509903119
 10
232.3802251088
 20
141.4890475469
 10
232.5525793897
 20
141.4678855697
 10
232.7196959125
 20
141.4473662051
 10
232.8764933812
 20
141.4281129735
 10
233.0182183253
 20
141.4107116769
  0
LWPOLYLINE
  5
70
330
1F
100
AcDbEntity
  8
0
  6
Continuous
 62
     7
370
    15
100
AcDbPolyline
 90
        5
 70
   128
 43
0.0
 10
240.4454711544
 20
140.4987596805
 10
240.5949149
 20
140.4804102974
 10
240.7070312368
 20
140.4666444185
 10
240.7765004503
 20
140.4581149007
 10
240.8000219332
 20
140.4552264037
  0
LINE
  5
71
330
1F
100
AcDbEntity
  8
0
  6
Continuous
 62
     7
370
    15
100
AcDbLine
 10
232.7188614475
 20
148.8425907344
 30
0.0
 11
205.0042848753
 21
152.245512222
 31
0.0
  0
LINE
  5
72
330
1F
100
AcDbEntity
  8
0
  6
Continuous
 62
     7
370
    15
100
AcDbLine
 10
232.7188614475
 20
148.8425907344
 30
0.0
 11
232.1460757124
 21
144.1776237814
 31
0.0
  0
LINE
  5
73
330
1F
100
AcDbEntity
  8
0
  6
Continuous
 62
     7
370
    15
100
AcDbLine
 10
232.1460757124
 20
144.1776237814
 30
0.0
 11
232.5321051942
 21
144.1302250503
 31
0.0
  0
LINE
  5
74
330
1F
100
AcDbEntity
  8
0
  6
Continuous
 62
     7
370
    15
100
AcDbLine
 10
232.5321051942
 20
144.1302250503
 30
0.0
 11
232.1738067733
 21
141.2121392685
 31
0.0
  0
LINE
  5
75
330
1F
100
AcDbEntity
  8
0
  6
Continuous
 62
     7
370
    15
100
AcDbLine
 10
240.5191350447
 20
140.1874618503
 30
0.0
 11
232.1738067733
 21
141.2121392685
 31
0.0
  0
LINE
  5
76
330
1F
100
AcDbEntity
  8
0
  6
Continuous
 62
     7
370
    15
100
AcDbLine
 10
237.5971812474
 20
116.3900396685
 30
0.0
 11
240.5191350447
 21
140.1874618503
 31
0.0
  0
ELLIPSE
  5
77
330
1F
100
AcDbEntity
  8
0
  6
Continuous
 62
     7
370
    15
100
AcDbEllipse
 10
241.9276822327
 20
147.8876783411
 30
0.0
 11
37.25794262914854
 21
9.380561164522305
 31
0.0
210
0.0
220
0.0
230
1.0
 40
0.8070986244
 41
2.70042093418888
 42
4.397762456850346
  0
ARC
  5
78
330
1F
100
AcDbEntity
  8
0
  6
Continuous
 62
     7
370
    15
100
AcDbCircle
 10
154.9576929734
 20
84.9249430805
 30
0.0
 40
31.52623516927189
100
AcDbArc
 50
86.3628368575
 51
93.5924919873
  0
SPLINE
  5
79
330
1F
100
AcDbEntity
  8
0
  6
Continuous
 62
     7
370
    15
100
AcDbSpline
210
0.0
220
0.0
230
1.0
 70
     8
 71
     3
 72
    12
 73
     8
 74
     0
 42
0.00000001
 43
0.00000001
 12
1.0
 22
0.0
 32
0.0
 13
1.0
 23
0.0
 33
0.0
 40
0.0
 40
0.0
 40
0.0
 40
0.0
 40
0.4999999999999953
 40
0.4999999999999953
 40
0.7499999999999977
 40
0.7499999999999977
 40
1.0
 40
1.0
 40
1.0
 40
1.0
 10
153.0523930910144
 20
117.9869358809397
 30
0.0
 10
153.0831153329335
 20
117.9496338979866
 30
0.0
 10
153.1259525474686
 20
117.9130220659403
 30
0.0
 10
153.2253795716684
 20
117.8652572826551
 30
0.0
 10
153.2651317664851
 20
117.8502997671727
 30
0.0
 10
153.3631732233433
 20
117.8271098214035
 30
0.0
 10
153.4227292789307
 20
117.8191863821838
 30
0.0
 10
153.4854057929066
 20
117.8191863821838
 30
0.0
  0
LINE
  5
7A
330
1F
100
AcDbEntity
  8
0
  6
Continuous
 62
     7
370
    15
100
AcDbLine
 10
153.4854059758
 20
117.8191858242
 30
0.0
 11
156.4298921915
 21
117.8191858242
 31
0.0
  0
SPLINE
  5
7B
330
1F
100
AcDbEntity
  8
0
  6
Continuous
 62
     7
370
    15
100
AcDbSpline
210
0.0
220
0.0
230
1.0
 70
     8
 71
     3
 72
    12
 73
     8
 74
     0
 42
0.00000001
 43
0.00000001
 12
1.0
 22
0.0
 32
0.0
 13
1.0
 23
0.0
 33
0.0
 40
0.0
 40
0.0
 40
0.0
 40
0.0
 40
0.2500000000000009
 40
0.2500000000000009
 40
0.5000000000000018
 40
0.5000000000000018
 40
1.0
 40
1.0
 40
1.0
 40
1.0
 10
156.4298921657737
 20
117.8191863821838
 30
0.0
 10
156.4929722042671
 20
117.8191863821838
 30
0.0
 10
156.5521208264485
 20
117.8270923083963
 30
0.0
 10
156.6505933765175
 20
117.8504174698325
 30
0.0
 10
156.6896299885022
 20
117.8651302596642
 30
0.0
 10
156.7895264552813
 20
117.9130860603951
 30
0.0
 10
156.831947336348
 20
117.9493482169752
 30
0.0
 10
156.8629048676659
 20
117.9869358809397
 30
0.0
  0
ELLIPSE
  5
7C
330
1F
100
AcDbEntity
  8
0
  6
Continuous
 62
     7
370
    15
100
AcDbEllipse
 10
140.61049479
 20
147.8876783411
 30
0.0
 11
-14.75368316065622
 21
31.09325491558116
 31
0.0
210
0.0
220
0.0
230
1.0
 40
0.3419987131
 41
3.300734856217122
 42
4.231496223360772
  0
SPLINE
  5
7D
330
1F
100
AcDbEntity
  8
0
  6
Continuous
 62
     7
370
    15
100
AcDbSpline
210
0.0
220
0.0
230
1.0
 70
     8
 71
     3
 72
    12
 73
     8
 74
     0
 42
0.00000001
 43
0.00000001
 12
1.0
 22
0.0
 32
0.0
 13
1.0
 23
0.0
 33
0.0
 40
0.0
 40
0.0
 40
0.0
 40
0.0
 40
0.5000000000000019
 40
0.5000000000000019
 40
0.7500000000000009
 40
0.7500000000000009
 40
1.0
 40
1.0
 40
1.0
 40
1.0
 10
156.8629048676659
 20
137.9783090203715
 30
0.0
 10
156.8321826257468
 20
138.0908648197807
 30
0.0
 10
156.7893454112117
 20
138.2036226795202
 30
0.0
 10
156.6899183870119
 20
138.3531635653166
 30
0.0
 10
156.6501661921952
 20
138.4004562970235
 30
0.0
 10
156.552124735337
 20
138.4741925903449
 30
0.0
 10
156.4925686797495
 20
138.4996119097206
 30
0.0
 10
156.4298921657737
 20
138.4996119097206
 30
0.0
  0
LINE
  5
7E
330
1F
100
AcDbEntity
  8
0
  6
Continuous
 62
     7
370
    15
100
AcDbLine
 10
156.4298921915
 20
138.4996115128
 30
0.0
 11
153.4854059758
 21
138.4996115128
 31
0.0
  0
SPLINE
  5
7F
330
1F
100
AcDbEntity
  8
0
  6
Continuous
 62
     7
370
    15
100
AcDbSpline
210
0.0
220
0.0
230
1.0
 70
     8
 71
     3
 72
    12
 73
     8
 74
     0
 42
0.00000001
 43
0.00000001
 12
1.0
 22
0.0
 32
0.0
 13
1.0
 23
0.0
 33
0.0
 40
0.0
 40
0.0
 40
0.0
 40
0.0
 40
0.2499999999999991
 40
0.2499999999999991
 40
0.4999999999999981
 40
0.4999999999999981
 40
1.0
 40
1.0
 40
1.0
 40
1.0
 10
153.4854057929066
 20
138.4996119097206
 30
0.0
 10
153.4223257544132
 20
138.4996119097206
 30
0.0
 10
153.3631771322318
 20
138.4742475905056
 30
0.0
 10
153.2647045821628
 20
138.4000827301327
 30
0.0
 10
153.225667970178
 20
138.3535623895786
 30
0.0
 10
153.125771503399
 20
138.2034200467334
 30
0.0
 10
153.0833506223323
 20
138.0917268397612
 30
0.0
 10
153.0523930910144
 20
137.9783090203715
 30
0.0
  0
ELLIPSE
  5
80
330
1F
100
AcDbEntity
  8
0
  6
Continuous
 62
     7
370
    15
100
AcDbEllipse
 10
169.3048031687
 20
147.8876783411
 30
0.0
 11
14.75368316065621
 21
31.09325491558119
 31
0.0
210
0.0
220
0.0
230
1.0
 40
0.3419987131
 41
2.051689083818829
 42
2.982450450962506
  0
SPLINE
  5
81
330
1F
100
AcDbEntity
  8
0
  6
Continuous
 62
     7
370
    15
100
AcDbSpline
210
0.0
220
0.0
230
1.0
 70
     8
 71
     3
 72
    12
 73
     8
 74
     0
 42
0.00000001
 43
0.00000001
 12
1.0
 22
0.0
 32
0.0
 13
1.0
 23
0.0
 33
0.0
 40
0.0
 40
0.0
 40
0.0
 40
0.0
 40
0.4999999999999981
 40
0.4999999999999981
 40
0.749999999999999
 40
0.749999999999999
 40
1.0
 40
1.0
 40
1.0
 40
1.0
 10
153.0523930910144
 20
157.7970476617423
 30
0.0
 10
153.0835382889765
 20
157.682942295877
 30
0.0
 10
153.1258125553109
 20
157.5718359686582
 30
0.0
 10
153.2257580891361
 20
157.4216783612279
 30
0.0
 10
153.2654883938403
 20
157.3746856696106
 30
0.0
 10
153.3623764438464
 20
157.301710085072
 30
0.0
 10
153.422441685593
 20
157.2757447723931
 30
0.0
 10
153.4854057929065
 20
157.2757447723931
 30
0.0
  0
LINE
  5
82
330
1F
100
AcDbEntity
  8
0
  6
Continuous
 62
     7
370
    15
100
AcDbLine
 10
153.4854059758
 20
157.2757451693
 30
0.0
 11
156.4298921915
 21
157.2757451693
 31
0.0
  0
SPLINE
  5
83
330
1F
100
AcDbEntity
  8
0
  6
Continuous
 62
     7
370
    15
100
AcDbSpline
210
0.0
220
0.0
230
1.0
 70
     8
 71
     3
 72
    12
 73
     8
 74
     0
 42
0.00000001
 43
0.00000001
 12
1.0
 22
0.0
 32
0.0
 13
1.0
 23
0.0
 33
0.0
 40
0.0
 40
0.0
 40
0.0
 40
0.0
 40
0.2500000000000023
 40
0.2500000000000023
 40
0.5000000000000047
 40
0.5000000000000047
 40
1.0
 40
1.0
 40
1.0
 40
1.0
 10
156.4298921657737
 20
157.2757447723932
 30
0.0
 10
156.4929491206715
 20
157.2757447723932
 30
0.0
 10
156.5520792704171
 20
157.3010911257739
 30
0.0
 10
156.6505268209503
 20
157.3752105079134
 30
0.0
 10
156.6895590591384
 20
157.4217070226113
 30
0.0
 10
156.7894489435954
 20
157.57178152962
 30
0.0
 10
156.8317479172047
 20
157.6828992387348
 30
0.0
 10
156.862904867666
 20
157.7970476617423
 30
0.0
  0
ELLIPSE
  5
84
330
1F
100
AcDbEntity
  8
0
  6
Continuous
 62
     7
370
    15
100
AcDbEllipse
 10
140.61049479
 20
147.8876783411
 30
0.0
 11
14.75368316065612
 21
31.09325491558116
 31
0.0
210
0.0
220
0.0
230
1.0
 40
0.3419987131
 41
5.193281737408628
 42
6.124043104552332
  0
SPLINE
  5
85
330
1F
100
AcDbEntity
  8
0
  6
Continuous
 62
     7
370
    15
100
AcDbSpline
210
0.0
220
0.0
230
1.0
 70
     8
 71
     3
 72
    12
 73
     8
 74
     0
 42
0.00000001
 43
0.00000001
 12
1.0
 22
0.0
 32
0.0
 13
1.0
 23
0.0
 33
0.0
 40
0.0
 40
0.0
 40
0.0
 40
0.0
 40
0.4999999999999964
 40
0.4999999999999964
 40
0.7499999999999982
 40
0.7499999999999982
 40
1.0
 40
1.0
 40
1.0
 40
1.0
 10
156.8629048676659
 20
177.7884208011743
 30
0.0
 10
156.8317596697038
 20
177.8262363240945
 30
0.0
 10
156.7894854033694
 20
177.862303182178
 30
0.0
 10
156.689539869544
 20
177.9102632471893
 30
0.0
 10
156.64980956484
 20
177.9251242210869
 30
0.0
 10
156.5529215148338
 20
177.9480753672181
 30
0.0
 10
156.4928562730872
 20
177.9561702999302
 30
0.0
 10
156.4298921657737
 20
177.9561702999302
 30
0.0
  0
LINE
  5
86
330
1F
100
AcDbEntity
  8
0
  6
Continuous
 62
     7
370
    15
100
AcDbLine
 10
156.4298921915
 20
177.9561708579
 30
0.0
 11
153.4854059758
 21
177.9561708579
 31
0.0
  0
SPLINE
  5
87
330
1F
100
AcDbEntity
  8
0
  6
Continuous
 62
     7
370
    15
100
AcDbSpline
210
0.0
220
0.0
230
1.0
 70
     8
 71
     3
 72
    12
 73
     8
 74
     0
 42
0.00000001
 43
0.00000001
 12
1.0
 22
0.0
 32
0.0
 13
1.0
 23
0.0
 33
0.0
 40
0.0
 40
0.0
 40
0.0
 40
0.0
 40
0.2499999999999986
 40
0.2499999999999986
 40
0.4999999999999972
 40
0.4999999999999972
 40
1.0
 40
1.0
 40
1.0
 40
1.0
 10
153.4854057929066
 20
177.9561702999301
 30
0.0
 10
153.4223488380088
 20
177.9561702999301
 30
0.0
 10
153.3632186882632
 20
177.9482699688505
 30
0.0
 10
153.2647711377299
 20
177.9249592208455
 30
0.0
 10
153.2257388995418
 20
177.9102540945619
 30
0.0
 10
153.1258490150848
 20
177.8623205663752
 30
0.0
 10
153.0835500414755
 20
177.8262505936105
 30
0.0
 10
153.0523930910143
 20
177.7884208011743
 30
0.0
  0
ELLIPSE
  5
88
330
1F
100
AcDbEntity
  8
0
  6
Continuous
 62
     7
370
    15
100
AcDbEllipse
 10
169.3048031687
 20
147.8876783411
 30
0.0
 11
-14.75368316065615
 21
31.09325491558116
 31
0.0
210
0.0
220
0.0
230
1.0
 40
0.3419987131
 41
0.1591422026272924
 42
1.08990356977097
  0
SPLINE
  5
89
330
1F
100
AcDbEntity
  8
0
  6
Continuous
 62
     7
370
    15
100
AcDbSpline
210
0.0
220
0.0
230
1.0
 70
     8
 71
     3
 72
    68
 73
    64
 74
     0
 42
0.00000001
 43
0.00000001
 12
1.0
 22
0.0
 32
0.0
 13
1.0
 23
0.0
 33
0.0
 40
-0.0625
 40
-0.0625
 40
0.0
 40
0.0
 40
0.0312500000000001
 40
0.0312500000000001
 40
0.0625000000000002
 40
0.0625000000000002
 40
0.0937500000000002
 40
0.0937500000000002
 40
0.1250000000000002
 40
0.1250000000000002
 40
0.1562500000000002
 40
0.1562500000000002
 40
0.1875000000000002
 40
0.1875000000000002
 40
0.2187500000000002
 40
0.2187500000000002
 40
0.2500000000000002
 40
0.2500000000000002
 40
0.2812500000000002
 40
0.2812500000000002
 40
0.3125000000000003
 40
0.3125000000000003
 40
0.3437500000000003
 40
0.3437500000000003
 40
0.3750000000000003
 40
0.3750000000000003
 40
0.4062500000000003
 40
0.4062500000000003
 40
0.4375000000000004
 40
0.4375000000000004
 40
0.4687500000000004
 40
0.4687500000000004
 40
0.5000000000000004
 40
0.5000000000000004
 40
0.5312500000000004
 40
0.5312500000000004
 40
0.5625000000000003
 40
0.5625000000000003
 40
0.5937500000000003
 40
0.5937500000000003
 40
0.6250000000000003
 40
0.6250000000000003
 40
0.6562500000000003
 40
0.6562500000000003
 40
0.6875000000000002
 40
0.6875000000000002
 40
0.7187500000000002
 40
0.7187500000000002
 40
0.7500000000000002
 40
0.7500000000000002
 40
0.7812500000000002
 40
0.7812500000000002
 40
0.8125000000000001
 40
0.8125000000000001
 40
0.8437500000000001
 40
0.8437500000000001
 40
0.8750000000000001
 40
0.8750000000000001
 40
0.9062500000000001
 40
0.9062500000000001
 40
0.9375
 40
0.9375
 40
1.0
 40
1.0
 40
1.03125
 40
1.03125
 10
213.424373035059
 20
116.7591444465003
 30
0.0
 10
213.4421460012749
 20
116.9038936404154
 30
0.0
 10
213.4756947545767
 20
116.954905640031
 30
0.0
 10
213.5942248939261
 20
117.061785467616
 30
0.0
 10
213.6804081476908
 20
117.1182310813731
 30
0.0
 10
213.9004828762444
 20
117.2321982175861
 30
0.0
 10
214.033101761266
 20
117.2893246664278
 30
0.0
 10
214.3421849759382
 20
117.4023066104732
 30
0.0
 10
214.5205193880332
 20
117.4585711999138
 30
0.0
 10
214.9087358834445
 20
117.5637106944711
 30
0.0
 10
215.1194940829812
 20
117.6130512041441
 30
0.0
 10
215.5751478438869
 20
117.7031162354046
 30
0.0
 10
215.8203502577691
 20
117.7436640524267
 30
0.0
 10
216.3252027480259
 20
117.8104929724179
 30
0.0
 10
216.5872765329425
 20
117.8373169882541
 30
0.0
 10
217.1320164962837
 20
117.8755866853797
 30
0.0
 10
217.4102780760708
 20
117.886549671381
 30
0.0
 10
217.9633611774373
 20
117.8910257192206
 30
0.0
 10
218.2422781370298
 20
117.8846130696402
 30
0.0
 10
218.7935636461371
 20
117.8541133804127
 30
0.0
 10
219.0596273673879
 20
117.8304999823207
 30
0.0
 10
219.5731577580496
 20
117.768202245114
 30
0.0
 10
219.8228524679993
 20
117.7289566174975
 30
0.0
 10
220.2828460652235
 20
117.6402376308207
 30
0.0
 10
220.4953098546155
 20
117.5906659080757
 30
0.0
 10
220.8853719818785
 20
117.483336761201
 30
0.0
 10
221.0598392406759
 20
117.426307371477
 30
0.0
 10
221.3605325472446
 20
117.3109095096215
 30
0.0
 10
221.4892422897912
 20
117.2515779701708
 30
0.0
 10
221.695689819207
 20
117.134854960544
 30
0.0
 10
221.7727215754306
 20
117.078131649817
 30
0.0
 10
221.875856543838
 20
116.9690201551803
 30
0.0
 10
221.9015702841991
 20
116.9162338121599
 30
0.0
 10
221.8988781093474
 20
116.8195839789223
 30
0.0
 10
221.8713101933551
 20
116.7752513786986
 30
0.0
 10
221.7629178055282
 20
116.6942523865516
 30
0.0
 10
221.681671406116
 20
116.6578795395129
 30
0.0
 10
221.4719529330669
 20
116.594856394521
 30
0.0
 10
221.3430100787634
 20
116.5677579687409
 30
0.0
 10
221.0346428392731
 20
116.5209877720264
 30
0.0
 10
220.8599742944449
 20
116.5020341291238
 30
0.0
 10
220.4721877682002
 20
116.470726614472
 30
0.0
 10
220.2564236793168
 20
116.4582668928879
 30
0.0
 10
219.7959565064155
 20
116.438685192001
 30
0.0
 10
219.5531638365167
 20
116.4315471382454
 30
0.0
 10
219.0427547995897
 20
116.4207149906799
 30
0.0
 10
218.7727795859226
 20
116.4170284251801
 30
0.0
 10
218.229633308275
 20
116.4122457417013
 30
0.0
 10
217.9542667485739
 20
116.4110809607128
 30
0.0
 10
217.3958007168936
 20
116.4107693836
 30
0.0
 10
217.1153314052216
 20
116.411646846357
 30
0.0
 10
216.5704354800687
 20
116.4157234381092
 30
0.0
 10
216.3022269553825
 20
116.4189328204714
 30
0.0
 10
215.7812050693264
 20
116.4288976661262
 30
0.0
 10
215.5350696318113
 20
116.4355246509343
 30
0.0
 10
215.0708332365997
 20
116.4537382460654
 30
0.0
 10
214.8504994191818
 20
116.4655165961416
 30
0.0
 10
214.4547176116561
 20
116.4955642005891
 30
0.0
 10
214.2784668255274
 20
116.5137610913409
 30
0.0
 10
213.9695789445812
 20
116.5587061387909
 30
0.0
 10
213.8376038434
 20
116.5856141103456
 30
0.0
 10
213.5266168798931
 20
116.6784461347557
 30
0.0
 10
213.424373035059
 20
116.7591444465003
 30
0.0
 10
213.4421460012749
 20
116.9038936404154
 30
0.0
  0
ARC
  5
8A
330
1F
100
AcDbEntity
  8
0
  6
Continuous
 62
     7
370
    15
100
AcDbCircle
 10
179.9575377059
 20
210.8070206835
 30
0.0
 40
31.56223000168318
100
AcDbArc
 50
264.5459903563
 51
275.3864261023
  0
LWPOLYLINE
  5
8B
330
1F
100
AcDbEntity
  8
0
  6
Continuous
 62
     7
370
    15
100
AcDbPolyline
 90
       19
 70
   128
 43
0.0
 10
193.9101952778
 20
157.3882358978
 10
193.3359008001
 20
159.5315332423
 10
192.777885841
 20
161.6140711019
 10
192.2390635776
 20
163.624982805
 10
191.7222466039
 20
165.5537742088
 10
191.2301283049
 20
167.3903795789
 10
190.7652791309
 20
169.1252174685
 10
190.3301242458
 20
170.7492354224
 10
189.9269360768
 20
172.2539565424
 10
189.5578156876
 20
173.6315316419
 10
189.2246927785
 20
174.8747690479
 10
188.9292996096
 20
175.9771848927
 10
188.6731859016
 20
176.9330236028
 10
188.4576778578
 20
177.7373007397
 10
188.2839116918
 20
178.3858160386
 10
188.1527851986
 20
178.875186936
 10
188.0649838316
 20
179.2028597454
 10
188.0209695267
 20
179.3671264211
 10
188.0154635476
 20
179.3876788477
  0
SPLINE
  5
8C
330
1F
100
AcDbEntity
  8
0
  6
Continuous
 62
     7
370
    15
100
AcDbSpline
210
0.0
220
0.0
230
1.0
 70
     8
 71
     3
 72
    20
 73
    16
 74
     0
 42
0.00000001
 43
0.00000001
 12
1.0
 22
0.0
 32
0.0
 13
1.0
 23
0.0
 33
0.0
 40
0.0
 40
0.0
 40
0.0
 40
0.0
 40
0.2500000000000002
 40
0.2500000000000002
 40
0.3750000000000001
 40
0.3750000000000001
 40
0.5000000000000001
 40
0.5000000000000001
 40
0.6250000000000001
 40
0.6250000000000001
 40
0.75
 40
0.75
 40
0.875
 40
0.875
 40
1.0
 40
1.0
 40
1.0
 40
1.0
 10
198.9745339751877
 20
152.9858728563462
 30
0.0
 10
198.3721891654921
 20
153.0598314993168
 30
0.0
 10
197.7965205430785
 20
153.2212207013055
 30
0.0
 10
196.9724260760176
 20
153.5914183175598
 30
0.0
 10
196.7065607853131
 20
153.7359973144152
 30
0.0
 10
196.2057001999311
 20
154.0586914352801
 30
0.0
 10
195.9685768316194
 20
154.2377194237684
 30
0.0
 10
195.5211119911791
 20
154.630984458486
 30
0.0
 10
195.310196722049
 20
154.8464634118653
 30
0.0
 10
194.929066540084
 20
155.2982607950275
 30
0.0
 10
194.756920020868
 20
155.5360203134369
 30
0.0
 10
194.4487297244558
 20
156.0343366395979
 30
0.0
 10
194.3120134748201
 20
156.2967132541385
 30
0.0
 10
194.0805095837739
 20
156.8335187708543
 30
0.0
 10
193.9852854439284
 20
157.1079944343429
 30
0.0
 10
193.9101950778841
 20
157.388235495579
 30
0.0
  0
LINE
  5
8D
330
1F
100
AcDbEntity
  8
0
  6
Continuous
 62
     7
370
    15
100
AcDbLine
 10
205.0042848753
 20
152.245512222
 30
0.0
 11
198.9745337235
 21
152.9858726906
 31
0.0
  0
LINE
  5
8E
330
1F
100
AcDbEntity
  8
0
  6
Continuous
 62
     7
370
    15
100
AcDbLine
 10
237.5968906747
 20
116.3876778344
 30
0.0
 11
237.5971812474
 21
116.3900396685
 31
0.0
  0
LINE
  5
8F
330
1F
100
AcDbEntity
  8
0
  6
Continuous
 62
     7
370
    15
100
AcDbLine
 10
142.9576489793
 20
147.8876783411
 30
0.0
 11
142.9576489793
 21
178.8876778344
 31
0.0
  0
LINE
  5
90
330
1F
100
AcDbEntity
  8
0
  6
Continuous
 62
     7
370
    15
100
AcDbLine
 10
142.9576489793
 20
116.8876788477
 30
0.0
 11
142.9576489793
 21
147.8876783411
 31
0.0
  0
LINE
  5
91
330
1F
100
AcDbEntity
  8
0
  6
Continuous
 62
     7
370
    15
100
AcDbLine
 10
142.7576489844
 20
131.0974764536
 30
0.0
 11
142.7576489844
 21
125.347857819
 31
0.0
  0
SPLINE
  5
92
330
1F
100
AcDbEntity
  8
0
  6
Continuous
 62
     7
370
    15
100
AcDbSpline
210
0.0
220
0.0
230
1.0
 70
     8
 71
     3
 72
    16
 73
    12
 74
     0
 42
0.00000001
 43
0.00000001
 12
1.0
 22
0.0
 32
0.0
 13
1.0
 23
0.0
 33
0.0
 40
0.0
 40
0.0
 40
0.0
 40
0.0
 40
0.4999999999999948
 40
0.4999999999999948
 40
0.7499999999999922
 40
0.7499999999999922
 40
0.8749999999999961
 40
0.8749999999999961
 40
0.937499999999998
 40
0.937499999999998
 40
1.0
 40
1.0
 40
1.0
 40
1.0
 10
142.7576489793401
 20
131.0974769873158
 30
0.0
 10
142.7576489793401
 20
131.1773006982964
 30
0.0
 10
142.7535027042622
 20
131.2591568161804
 30
0.0
 10
142.7275371088687
 20
131.3879719372644
 30
0.0
 10
142.7160762034912
 20
131.4327626089659
 30
0.0
 10
142.6817644657169
 20
131.4988934166973
 30
0.0
 10
142.6677397297872
 20
131.5217404749003
 30
0.0
 10
142.6317167667535
 20
131.5481712281426
 30
0.0
 10
142.6169622576637
 20
131.5545988972848
 30
0.0
 10
142.5876100965169
 20
131.55755982044
 30
0.0
 10
142.5742702220128
 20
131.5545784289319
 30
0.0
 10
142.5626720904645
 20
131.5498354412506
 30
0.0
  0
SPLINE
  5
93
330
1F
100
AcDbEntity
  8
0
  6
Continuous
 62
     7
370
    15
100
AcDbSpline
210
0.0
220
0.0
230
1.0
 70
     8
 71
     3
 72
    12
 73
     8
 74
     0
 42
0.00000001
 43
0.00000001
 12
1.0
 22
0.0
 32
0.0
 13
1.0
 23
0.0
 33
0.0
 40
0.0
 40
0.0
 40
0.0
 40
0.0
 40
0.2499999999999996
 40
0.2499999999999996
 40
0.4999999999999992
 40
0.4999999999999992
 40
1.0
 40
1.0
 40
1.0
 40
1.0
 10
142.5626720904715
 20
131.5498354412452
 30
0.0
 10
142.5324802487543
 20
131.5374886651506
 30
0.0
 10
142.4991212793397
 20
131.5269909786808
 30
0.0
 10
142.4259839947591
 20
131.5135699241016
 30
0.0
 10
142.3857421221051
 20
131.5109595128547
 30
0.0
 10
142.2680363451367
 20
131.5189299655968
 30
0.0
 10
142.1976258673572
 20
131.5440177232146
 30
0.0
 10
142.1411366928889
 20
131.5733073655429
 30
0.0
  0
SPLINE
  5
94
330
1F
100
AcDbEntity
  8
0
  6
Continuous
 62
     7
370
    15
100
AcDbSpline
210
0.0
220
0.0
230
1.0
 70
     8
 71
     3
 72
    12
 73
     8
 74
     0
 42
0.00000001
 43
0.00000001
 12
1.0
 22
0.0
 32
0.0
 13
1.0
 23
0.0
 33
0.0
 40
0.0
 40
0.0
 40
0.0
 40
0.0
 40
0.2500000000000005
 40
0.2500000000000005
 40
0.500000000000001
 40
0.500000000000001
 40
1.0
 40
1.0
 40
1.0
 40
1.0
 10
142.1411366928886
 20
131.5733073655428
 30
0.0
 10
142.0529827551508
 20
131.6190151906344
 30
0.0
 10
141.9926293305221
 20
131.6744324289537
 30
0.0
 10
141.8863673724553
 20
131.792725156009
 30
0.0
 10
141.8441352058932
 20
131.8545202714179
 30
0.0
 10
141.733064510576
 20
132.0459408979328
 30
0.0
 10
141.6801277341492
 20
132.1816875628183
 30
0.0
 10
141.6363286357804
 20
132.3244770966321
 30
0.0
  0
SPLINE
  5
95
330
1F
100
AcDbEntity
  8
0
  6
Continuous
 62
     7
370
    15
100
AcDbSpline
210
0.0
220
0.0
230
1.0
 70
     8
 71
     3
 72
    12
 73
     8
 74
     0
 42
0.00000001
 43
0.00000001
 12
1.0
 22
0.0
 32
0.0
 13
1.0
 23
0.0
 33
0.0
 40
0.0
 40
0.0
 40
0.0
 40
0.0
 40
0.5
 40
0.5
 40
0.75
 40
0.75
 40
1.0
 40
1.0
 40
1.0
 40
1.0
 10
141.6363286357804
 20
141.3071945309557
 30
0.0
 10
141.680075176617
 20
141.5463684580023
 30
0.0
 10
141.7329595318485
 20
141.7838113129181
 30
0.0
 10
141.8445266191847
 20
142.1326493493337
 30
0.0
 10
141.8871102157277
 20
142.2475582569442
 30
0.0
 10
141.9920269428095
 20
142.4674407018544
 30
0.0
 10
142.0535605506543
 20
142.5758016228687
 30
0.0
 10
142.1411366928804
 20
142.6628072104679
 30
0.0
  0
SPLINE
  5
96
330
1F
100
AcDbEntity
  8
0
  6
Continuous
 62
     7
370
    15
100
AcDbSpline
210
0.0
220
0.0
230
1.0
 70
     8
 71
     3
 72
    12
 73
     8
 74
     0
 42
0.00000001
 43
0.00000001
 12
1.0
 22
0.0
 32
0.0
 13
1.0
 23
0.0
 33
0.0
 40
0.0
 40
0.0
 40
0.0
 40
0.0
 40
0.4999999999999996
 40
0.4999999999999996
 40
0.7499999999999997
 40
0.7499999999999997
 40
1.0
 40
1.0
 40
1.0
 40
1.0
 10
142.1411366928836
 20
142.6628072104679
 30
0.0
 10
142.1975731937908
 20
142.7188760301098
 30
0.0
 10
142.2666578244796
 20
142.7659887088641
 30
0.0
 10
142.3854600961975
 20
142.77730915536
 30
0.0
 10
142.4256453716676
 20
142.7703082648685
 30
0.0
 10
142.4990264190714
 20
142.7400969682096
 30
0.0
 10
142.532435982814
 20
142.7175181578281
 30
0.0
 10
142.5626720904705
 20
142.6914308364739
 30
0.0
  0
SPLINE
  5
97
330
1F
100
AcDbEntity
  8
0
  6
Continuous
 62
     7
370
    15
100
AcDbSpline
210
0.0
220
0.0
230
1.0
 70
     8
 71
     3
 72
    16
 73
    12
 74
     0
 42
0.00000001
 43
0.00000001
 12
1.0
 22
0.0
 32
0.0
 13
1.0
 23
0.0
 33
0.0
 40
0.0
 40
0.0
 40
0.0
 40
0.0
 40
0.0624999999999996
 40
0.0624999999999996
 40
0.1249999999999992
 40
0.1249999999999992
 40
0.2499999999999999
 40
0.2499999999999999
 40
0.5000000000000013
 40
0.5000000000000013
 40
1.0
 40
1.0
 40
1.0
 40
1.0
 10
142.5626720904333
 20
142.691430836417
 30
0.0
 10
142.5742524980213
 20
142.6814394110072
 30
0.0
 10
142.5875620247825
 20
142.6731820046255
 30
0.0
 10
142.6168634548686
 20
142.6674327198133
 30
0.0
 10
142.631677554753
 20
142.6710430185214
 30
0.0
 10
142.6675059564558
 20
142.6939634778041
 30
0.0
 10
142.6816255808188
 20
142.7197589860497
 30
0.0
 10
142.7161297249073
 20
142.7979140104687
 30
0.0
 10
142.7272342756119
 20
142.8540568532046
 30
0.0
 10
142.7534104528281
 20
143.0249629087384
 30
0.0
 10
142.7576489793401
 20
143.1421780013172
 30
0.0
 10
142.7576489793401
 20
143.259742600539
 30
0.0
  0
LINE
  5
98
330
1F
100
AcDbEntity
  8
0
  6
Continuous
 62
     7
370
    15
100
AcDbLine
 10
142.7576489844
 20
169.3058158169
 30
0.0
 11
142.7576489844
 21
143.2597427527
 31
0.0
  0
SPLINE
  5
99
330
1F
100
AcDbEntity
  8
0
  6
Continuous
 62
     7
370
    15
100
AcDbSpline
210
0.0
220
0.0
230
1.0
 70
     8
 71
     3
 72
    16
 73
    12
 74
     0
 42
0.00000001
 43
0.00000001
 12
1.0
 22
0.0
 32
0.0
 13
1.0
 23
0.0
 33
0.0
 40
0.0
 40
0.0
 40
0.0
 40
0.0
 40
0.4999999999999968
 40
0.4999999999999968
 40
0.7499999999999969
 40
0.7499999999999969
 40
0.8749999999999979
 40
0.8749999999999979
 40
0.937499999999999
 40
0.937499999999999
 40
1.0
 40
1.0
 40
1.0
 40
1.0
 10
142.7576489793402
 20
169.3058154353162
 30
0.0
 10
142.7576489793402
 20
169.3430892762264
 30
0.0
 10
142.7535027042622
 20
169.377385368245
 30
0.0
 10
142.7275371088687
 20
169.4194835573813
 30
0.0
 10
142.7160762034913
 20
169.432397198946
 30
0.0
 10
142.6817644657169
 20
169.4441090496855
 30
0.0
 10
142.6677397297874
 20
169.4471224815417
 30
0.0
 10
142.6317167667535
 20
169.4438250187658
 30
0.0
 10
142.6169622576639
 20
169.441003533778
 30
0.0
 10
142.5876100965169
 20
169.4323217927866
 30
0.0
 10
142.5742702220128
 20
169.4270324751795
 30
0.0
 10
142.5626720904645
 20
169.4217687454539
 30
0.0
  0
SPLINE
  5
9A
330
1F
100
AcDbEntity
  8
0
  6
Continuous
 62
     7
370
    15
100
AcDbSpline
210
0.0
220
0.0
230
1.0
 70
     8
 71
     3
 72
    12
 73
     8
 74
     0
 42
0.00000001
 43
0.00000001
 12
1.0
 22
0.0
 32
0.0
 13
1.0
 23
0.0
 33
0.0
 40
0.0
 40
0.0
 40
0.0
 40
0.0
 40
0.2500000000000004
 40
0.2500000000000004
 40
0.5000000000000009
 40
0.5000000000000009
 40
1.0
 40
1.0
 40
1.0
 40
1.0
 10
142.5626720904716
 20
169.4217687454489
 30
0.0
 10
142.5324736490309
 20
169.4080633970295
 30
0.0
 10
142.499106293695
 20
169.3960157915791
 30
0.0
 10
142.425951017865
 20
169.3792558033494
 30
0.0
 10
142.3856983188411
 20
169.3748469138085
 30
0.0
 10
142.2679695755662
 20
169.3777766789061
 30
0.0
 10
142.1975111275073
 20
169.4001434391618
 30
0.0
 10
142.141136692889
 20
169.4269204471674
 30
0.0
  0
SPLINE
  5
9B
330
1F
100
AcDbEntity
  8
0
  6
Continuous
 62
     7
370
    15
100
AcDbSpline
210
0.0
220
0.0
230
1.0
 70
     8
 71
     3
 72
    12
 73
     8
 74
     0
 42
0.00000001
 43
0.00000001
 12
1.0
 22
0.0
 32
0.0
 13
1.0
 23
0.0
 33
0.0
 40
0.0
 40
0.0
 40
0.0
 40
0.0
 40
0.5000000000000009
 40
0.5000000000000009
 40
0.7500000000000006
 40
0.7500000000000006
 40
1.0
 40
1.0
 40
1.0
 40
1.0
 10
141.6363286357804
 20
170.0313633955833
 30
0.0
 10
141.6800789876649
 20
169.9347992478249
 30
0.0
 10
141.7329691387894
 20
169.8331749846392
 30
0.0
 10
141.8445806819311
 20
169.6764205204561
 30
0.0
 10
141.8871400258346
 20
169.6235539507826
 30
0.0
 10
141.992117261172
 20
169.5203978364682
 30
0.0
 10
142.0536845042666
 20
169.4684589206033
 30
0.0
 10
142.141136692889
 20
169.4269204471675
 30
0.0
  0
SPLINE
  5
9C
330
1F
100
AcDbEntity
  8
0
  6
Continuous
 62
     7
370
    15
100
AcDbSpline
210
0.0
220
0.0
230
1.0
 70
     8
 71
     3
 72
    16
 73
    12
 74
     0
 42
0.00000001
 43
0.00000001
 12
1.0
 22
0.0
 32
0.0
 13
1.0
 23
0.0
 33
0.0
 40
0.0
 40
0.0
 40
0.0
 40
0.0
 40
0.2499999999999995
 40
0.2499999999999995
 40
0.3749999999999996
 40
0.3749999999999996
 40
0.4999999999999997
 40
0.4999999999999997
 40
0.7499999999999998
 40
0.7499999999999998
 40
1.0
 40
1.0
 40
1.0
 40
1.0
 10
141.6363286357805
 20
132.3244770966321
 30
0.0
 10
141.475096158296
 20
132.850111439645
 30
0.0
 10
141.3546163186564
 20
133.442942967204
 30
0.0
 10
141.2322358013431
 20
134.4327146583289
 30
0.0
 10
141.2012581409456
 20
134.7795183041531
 30
0.0
 10
141.1596444033177
 20
135.5085069033932
 30
0.0
 10
141.1494084903848
 20
135.8837818554824
 30
0.0
 10
141.1492200933287
 20
137.0399819017024
 30
0.0
 10
141.1893647959663
 20
137.8513379145021
 30
0.0
 10
141.3535185509059
 20
139.5571821602901
 30
0.0
 10
141.4750702013155
 20
140.425551952987
 30
0.0
 10
141.6363286357805
 20
141.3071945309557
 30
0.0
  0
LINE
  5
9D
330
1F
100
AcDbEntity
  8
0
  6
Continuous
 62
     7
370
    15
100
AcDbLine
 10
140.7576489913
 20
142.6628073575
 30
0.0
 11
140.7576489913
 21
169.5700785975
 31
0.0
  0
LINE
  5
9E
330
1F
100
AcDbEntity
  8
0
  6
Continuous
 62
     7
370
    15
100
AcDbLine
 10
140.7576489913
 20
131.4301486025
 30
0.0
 11
140.7576489913
 21
142.6628073575
 31
0.0
  0
LINE
  5
9F
330
1F
100
AcDbEntity
  8
0
  6
Continuous
 62
     7
370
    15
100
AcDbLine
 10
106.4576495158
 20
142.6628073575
 30
0.0
 11
106.4576495158
 21
168.8237949173
 31
0.0
  0
LINE
  5
A0
330
1F
100
AcDbEntity
  8
0
  6
Continuous
 62
     7
370
    15
100
AcDbLine
 10
106.4576495158
 20
132.1764341454
 30
0.0
 11
106.4576495158
 21
142.6628073575
 31
0.0
  0
LINE
  5
A1
330
1F
100
AcDbEntity
  8
0
  6
Continuous
 62
     7
370
    15
100
AcDbLine
 10
104.9576502012
 20
142.6628073575
 30
0.0
 11
104.9576502012
 21
168.0737933973
 31
0.0
  0
LINE
  5
A2
330
1F
100
AcDbEntity
  8
0
  6
Continuous
 62
     7
370
    15
100
AcDbLine
 10
104.9576502012
 20
132.9264338026
 30
0.0
 11
104.9576502012
 21
142.6628073575
 31
0.0
  0
LINE
  5
A3
330
1F
100
AcDbEntity
  8
0
  6
Continuous
 62
     7
370
    15
100
AcDbLine
 10
140.7576489913
 20
127.2675800035
 30
0.0
 11
140.7576489913
 21
131.4301486025
 31
0.0
  0
SPLINE
  5
A4
330
1F
100
AcDbEntity
  8
0
  6
Continuous
 62
     7
370
    15
100
AcDbSpline
210
0.0
220
0.0
230
1.0
 70
     8
 71
     3
 72
     8
 73
     4
 74
     0
 42
0.00000001
 43
0.00000001
 12
1.0
 22
0.0
 32
0.0
 13
1.0
 23
0.0
 33
0.0
 40
0.0000249638557297
 40
0.0000249638557297
 40
0.0000249638557297
 40
0.0000249638557297
 40
0.0049776420541172
 40
0.0049776420541172
 40
0.0049776420541172
 40
0.0049776420541172
 10
106.4576489793401
 20
128.3906887278548
 30
0.0
 10
108.1076252138497
 20
128.3543395149168
 30
0.0
 10
109.7576265335947
 20
128.3179149287847
 30
0.0
 10
111.4076489793401
 20
128.2814150505739
 30
0.0
  0
LINE
  5
A5
330
1F
100
AcDbEntity
  8
0
  6
Continuous
 62
     7
370
    15
100
AcDbLine
 10
106.4576495158
 20
128.3906879733
 30
0.0
 11
106.4576495158
 21
132.1764341454
 31
0.0
  0
SPLINE
  5
A6
330
1F
100
AcDbEntity
  8
0
  6
Continuous
 62
     7
370
    15
100
AcDbSpline
210
0.0
220
0.0
230
1.0
 70
     8
 71
     3
 72
    11
 73
     7
 74
     0
 42
0.00000001
 43
0.00000001
 12
1.0
 22
0.0
 32
0.0
 13
1.0
 23
0.0
 33
0.0
 40
0.0
 40
0.0
 40
0.0
 40
0.0
 40
0.3219025833169185
 40
0.6486447978197779
 40
0.945700110112147
 40
1.0
 40
1.0
 40
1.0
 40
1.0
 10
111.4076476263147
 20
128.2814158956072
 30
0.0
 10
111.7093712424547
 20
128.224709405112
 30
0.0
 10
112.3173547260661
 20
128.1104438727161
 30
0.0
 10
113.0019534182105
 20
128.0038909458153
 30
0.0
 10
113.3919995989209
 20
127.948845457068
 30
0.0
 10
113.3121164679795
 20
127.9602425616758
 30
0.0
 10
113.2997709976774
 20
127.9620039174816
 30
0.0
  0
SPLINE
  5
A7
330
1F
100
AcDbEntity
  8
0
  6
Continuous
 62
     7
370
    15
100
AcDbSpline
210
0.0
220
0.0
230
1.0
 70
     8
 71
     3
 72
    17
 73
    13
 74
     0
 42
0.00000001
 43
0.00000001
 12
1.0
 22
0.0
 32
0.0
 13
1.0
 23
0.0
 33
0.0
 40
0.0
 40
0.0
 40
0.0
 40
0.0
 40
0.0814963198894112
 40
0.1776426501979228
 40
0.2779756612776855
 40
0.3853005089454375
 40
0.4989008095969844
 40
0.6154924751236023
 40
0.7315308020053202
 40
0.84389575367252
 40
0.949895873886425
 40
1.0
 40
1.0
 40
1.0
 40
1.0
 10
131.8780796321374
 20
127.494247154381
 30
0.0
 10
131.8599996224952
 20
127.4970046696476
 30
0.0
 10
131.8205894892179
 20
127.5030153989738
 30
0.0
 10
131.2495924656634
 20
127.584056181008
 30
0.0
 10
130.3221034720569
 20
127.6956769774371
 30
0.0
 10
129.0570792679181
 20
127.8088142996242
 30
0.0
 10
127.5729019591327
 20
127.8808513020165
 30
0.0
 10
126.0461595048022
 20
127.8855233850526
 30
0.0
 10
124.6860994590098
 20
127.8294552671396
 30
0.0
 10
123.7230155196808
 20
127.7566292179806
 30
0.0
 10
123.2390184836681
 20
127.7093870488532
 30
0.0
 10
123.2719422410528
 20
127.7126000872318
 30
0.0
 10
123.2825096415621
 20
127.7136313627026
 30
0.0
  0
SPLINE
  5
A8
330
1F
100
AcDbEntity
  8
0
  6
Continuous
 62
     7
370
    15
100
AcDbSpline
210
0.0
220
0.0
230
1.0
 70
     8
 71
     3
 72
     8
 73
     4
 74
     0
 42
0.00000001
 43
0.00000001
 12
1.0
 22
0.0
 32
0.0
 13
1.0
 23
0.0
 33
0.0
 40
0.0
 40
0.0
 40
0.0
 40
0.0
 40
1.0
 40
1.0
 40
1.0
 40
1.0
 10
104.9576489793379
 20
129.1391990274127
 30
0.0
 10
105.4244095907157
 20
128.9096695350286
 30
0.0
 10
105.9301571374958
 20
128.6577387599372
 30
0.0
 10
106.4576489793402
 20
128.3906887278548
 30
0.0
  0
LINE
  5
A9
330
1F
100
AcDbEntity
  8
0
  6
Continuous
 62
     7
370
    15
100
AcDbLine
 10
104.9576502012
 20
129.1391993771
 30
0.0
 11
104.9576502012
 21
132.9264338026
 31
0.0
  0
LINE
  5
AA
330
1F
100
AcDbEntity
  8
0
  6
Continuous
 62
     7
370
    15
100
AcDbLine
 10
140.7576489913
 20
171.3077775101
 30
0.0
 11
140.7576489913
 21
169.5700785975
 31
0.0
  0
LINE
  5
AB
330
1F
100
AcDbEntity
  8
0
  6
Continuous
 62
     7
370
    15
100
AcDbLine
 10
106.4576495158
 20
170.4460414956
 30
0.0
 11
106.4576495158
 21
168.8237949173
 31
0.0
  0
SPLINE
  5
AC
330
1F
100
AcDbEntity
  8
0
  6
Continuous
 62
     7
370
    15
100
AcDbSpline
210
0.0
220
0.0
230
1.0
 70
     8
 71
     3
 72
    10
 73
     6
 74
     0
 42
0.00000001
 43
0.00000001
 12
1.0
 22
0.0
 32
0.0
 13
1.0
 23
0.0
 33
0.0
 40
0.0
 40
0.0
 40
0.0
 40
0.0
 40
0.1209913211536928
 40
0.5024127976154565
 40
1.0
 40
1.0
 40
1.0
 40
1.0
 10
141.1642399801206
 20
171.0840030471346
 30
0.0
 10
141.160212680019
 20
171.0930864286887
 30
0.0
 10
141.1434894382893
 20
171.1308048955577
 30
0.0
 10
141.2618806288071
 20
170.8628609470932
 30
0.0
 10
141.5009799068013
 20
170.3319177609669
 30
0.0
 10
141.6363286737617
 20
170.0313626686594
 30
0.0
  0
LINE
  5
AD
330
1F
100
AcDbEntity
  8
0
  6
Continuous
 62
     7
370
    15
100
AcDbLine
 10
104.9576502012
 20
169.5800158093
 30
0.0
 11
104.9576502012
 21
168.0737933973
 31
0.0
  0
LWPOLYLINE
  5
AE
330
1F
100
AcDbEntity
  8
0
  6
HIDDEN
 62
     7
370
     0
100
AcDbPolyline
 90
       17
 70
   128
 43
0.0
 10
225.0547025072
 20
144.1953801448
 10
225.0329542624
 20
144.1980504795
 10
224.8603839146
 20
144.2192389993
 10
224.5227981078
 20
144.260689606
 10
224.0349340903
 20
144.3205911099
 10
223.418130325
 20
144.3963253303
 10
222.6993355619
 20
144.4845825797
 10
221.9099614488
 20
144.5815050873
 10
221.0845116245
 20
144.6828574306
 10
220.2590692507
 20
144.7842097739
 10
219.4696951377
 20
144.8811322814
 10
218.7509003746
 20
144.9693895309
 10
218.1340966093
 20
145.0451237513
 10
217.6462325918
 20
145.1050252552
 10
217.3086467849
 20
145.1464758618
 10
217.1360764371
 20
145.1676643817
 10
217.1143281924
 20
145.1703347164
  0
LWPOLYLINE
  5
AF
330
1F
100
AcDbEntity
  8
0
  6
HIDDEN
 62
     7
370
     0
100
AcDbPolyline
 90
       17
 70
   128
 43
0.0
 10
225.6697255837
 20
149.2043606602
 10
225.6479773389
 20
149.2070311113
 10
225.4754069912
 20
149.2282193983
 10
225.1378211843
 20
149.2696702378
 10
224.6499646174
 20
149.3295717417
 10
224.0331534015
 20
149.4053059621
 10
223.3143586384
 20
149.4935630952
 10
222.5249919759
 20
149.5904857191
 10
221.6995421516
 20
149.691837946
 10
220.8740923273
 20
149.7931901729
 10
220.0847182142
 20
149.8901129133
 10
219.3659234511
 20
149.9783699299
 10
218.7491196858
 20
150.0541043832
 10
218.2612631189
 20
150.114005887
 10
217.9236698615
 20
150.1554564937
 10
217.7511069643
 20
150.1766450136
 10
217.7293587195
 20
150.1793153482
  0
LWPOLYLINE
  5
B0
330
1F
100
AcDbEntity
  8
0
  6
HIDDEN
 62
     7
370
     0
100
AcDbPolyline
 90
       16
 70
   128
 43
0.0
 10
222.9771677124
 20
132.6088006506
 10
222.8938031661
 20
132.6190358857
 10
222.6478818523
 20
132.6492312262
 10
222.2517493831
 20
132.697870479
 10
221.7252541052
 20
132.7625154416
 10
221.0948083269
 20
132.83992418
 10
220.3920248615
 20
132.9262158731
 10
219.6521375047
 20
133.017062665
 10
218.912250148
 20
133.1079094569
 10
218.209459232
 20
133.19420115
 10
217.5790134536
 20
133.2716098885
 10
217.0525256263
 20
133.336254851
 10
216.6563857066
 20
133.3848941038
 10
216.4104718434
 20
133.415088513
 10
216.3271072971
 20
133.4253246794
 10
216.3271072971
 20
133.4253246794
  0
LWPOLYLINE
  5
B1
330
1F
100
AcDbEntity
  8
0
  6
HIDDEN
 62
     7
370
     0
100
AcDbPolyline
 90
       17
 70
   128
 43
0.0
 10
223.6458126175
 20
133.1312064911
 10
223.6243400442
 20
133.1338430653
 10
223.4539303648
 20
133.1547670896
 10
223.1205615865
 20
133.195699648
 10
222.6387995946
 20
133.2548526014
 10
222.0296997296
 20
133.3296396668
 10
221.3198903667
 20
133.4167937646
 10
220.5403882729
 20
133.5125048543
 10
219.7252575027
 20
133.6125903661
 10
218.9101267325
 20
133.7126758779
 10
218.1306246387
 20
133.8083869676
 10
217.4208078252
 20
133.8955410654
 10
216.8117154109
 20
133.9703281308
 10
216.3299534189
 20
134.0294810841
 10
215.9965846407
 20
134.0704136426
 10
215.8261749612
 20
134.0913367356
 10
215.804702388
 20
134.0939742411
  0
LWPOLYLINE
  5
B2
330
1F
100
AcDbEntity
  8
0
  6
HIDDEN
 62
     7
370
     0
100
AcDbPolyline
 90
       17
 70
   128
 43
0.0
 10
223.8655376898
 20
134.920727917
 10
223.8440651166
 20
134.9233644913
 10
223.6736554371
 20
134.9442885155
 10
223.3402866589
 20
134.985221074
 10
222.8585246669
 20
135.044373096
 10
222.2494322526
 20
135.1191610927
 10
221.5396154391
 20
135.2063151906
 10
220.7601133453
 20
135.3020262803
 10
219.9449825751
 20
135.4021117921
 10
219.1298518049
 20
135.5021963725
 10
218.3503497111
 20
135.5979074622
 10
217.6405403482
 20
135.6850615601
 10
217.0314404832
 20
135.7598495568
 10
216.5496784913
 20
135.8190025101
 10
216.216309713
 20
135.8599350686
 10
216.0459000336
 20
135.8808581615
 10
216.0244274603
 20
135.8834956671
  0
LWPOLYLINE
  5
B3
330
1F
100
AcDbEntity
  8
0
  6
HIDDEN
 62
     7
370
     0
100
AcDbPolyline
 90
       12
 70
   128
 43
0.0
 10
221.8597892391
 20
136.4321703921
 10
221.7735636698
 20
136.4427576671
 10
221.5233210193
 20
136.4734829301
 10
221.1335587966
 20
136.521339872
 10
220.6424388754
 20
136.5816420774
 10
220.0980175006
 20
136.6484877551
 10
219.5536035763
 20
136.7153343643
 10
219.0624762045
 20
136.7756365696
 10
218.6727139818
 20
136.8234935115
 10
218.4224787819
 20
136.8542187745
 10
218.336245762
 20
136.8648060496
 10
218.336245762
 20
136.8648060496
  0
LWPOLYLINE
  5
B4
330
1F
100
AcDbEntity
  8
0
  6
HIDDEN
 62
     7
370
     0
100
AcDbPolyline
 90
       17
 70
   128
 43
0.0
 10
224.4741681682
 20
139.8775824244
 10
224.4526881444
 20
139.8802189986
 10
224.2822784649
 20
139.9011430229
 10
223.9489096867
 20
139.9420755813
 10
223.4671476947
 20
140.0012285347
 10
222.8580552804
 20
140.0760156001
 10
222.1482459175
 20
140.1631696979
 10
221.3687363731
 20
140.2588807876
 10
220.5536056029
 20
140.3589662994
 10
219.7384748327
 20
140.4590513455
 10
218.9589727389
 20
140.5547624352
 10
218.249163376
 20
140.641916533
 10
217.640063511
 20
140.7167040641
 10
217.1583089697
 20
140.7758570174
 10
216.8249401914
 20
140.8167895759
 10
216.654530512
 20
140.8377131345
 10
216.6330504881
 20
140.8403501744
  0
LWPOLYLINE
  5
B5
330
1F
100
AcDbEntity
  8
0
  6
HIDDEN
 62
     7
370
     0
100
AcDbPolyline
 90
       17
 70
   128
 43
0.0
 10
224.7060749399
 20
141.7663581567
 10
224.6846023666
 20
141.7689951966
 10
224.5141926872
 20
141.7899187552
 10
224.180823909
 20
141.8308513137
 10
223.699061917
 20
141.8900038014
 10
223.0899695026
 20
141.9647913324
 10
222.3801526891
 20
142.0519454303
 10
221.6006505953
 20
142.1476565199
 10
220.7855198251
 20
142.2477420317
 10
219.9703890549
 20
142.3478270779
 10
219.1908869611
 20
142.4435381676
 10
218.4810775982
 20
142.5306922654
 10
217.8719777333
 20
142.6054797965
 10
217.3902157413
 20
142.6646327498
 10
217.0568469631
 20
142.7055653083
 10
216.8864372837
 20
142.7264888669
 10
216.8649647104
 20
142.7291259068
  0
LWPOLYLINE
  5
B6
330
1F
100
AcDbEntity
  8
0
  6
HIDDEN
 62
     7
370
     0
100
AcDbPolyline
 90
       12
 70
   128
 43
0.0
 10
222.162342416
 20
138.8962711106
 10
222.0761168467
 20
138.9068583856
 10
221.8258741962
 20
138.93758458
 10
221.4361119734
 20
138.9854405905
 10
220.9449920522
 20
139.0457437272
 10
220.4005706774
 20
139.112589405
 10
219.8561567532
 20
139.1794350828
 10
219.3650293814
 20
139.2397382195
 10
218.9752671587
 20
139.28759423
 10
218.7250319587
 20
139.3183204243
 10
218.6388063895
 20
139.3289076994
 10
218.6388063895
 20
139.3289076994
  0
SPLINE
  5
B7
330
1F
100
AcDbEntity
  8
0
  6
HIDDEN
 62
     7
370
     0
100
AcDbSpline
210
0.0
220
0.0
230
1.0
 70
     8
 71
     3
 72
    11
 73
     7
 74
     0
 42
0.00000001
 43
0.00000001
 12
1.0
 22
0.0
 32
0.0
 13
1.0
 23
0.0
 33
0.0
 40
0.0
 40
0.0
 40
0.0
 40
0.0
 40
0.108111475195761
 40
0.4711565901386976
 40
0.8135824210335822
 40
0.9999999999999999
 40
0.9999999999999999
 40
0.9999999999999999
 40
0.9999999999999999
 10
220.8682510720831
 20
150.0277011553308
 30
0.0
 10
220.9229586332217
 20
149.9928041391188
 30
0.0
 10
221.161377616167
 20
149.8407207535698
 30
0.0
 10
221.6280105006508
 20
149.6549138924593
 30
0.0
 10
222.1784148638054
 20
149.6845405244779
 30
0.0
 10
222.480799755674
 20
149.7821941666216
 30
0.0
 10
222.5873905884367
 20
149.8166171266249
 30
0.0
  0
SPLINE
  5
B8
330
1F
100
AcDbEntity
  8
0
  6
HIDDEN
 62
     7
370
     0
100
AcDbSpline
210
0.0
220
0.0
230
1.0
 70
     8
 71
     3
 72
    10
 73
     6
 74
     0
 42
0.00000001
 43
0.00000001
 12
1.0
 22
0.0
 32
0.0
 13
1.0
 23
0.0
 33
0.0
 40
0.0
 40
0.0
 40
0.0
 40
0.0
 40
0.4391155296112649
 40
0.7513671517363706
 40
0.9999999999999999
 40
0.9999999999999999
 40
0.9999999999999999
 40
0.9999999999999999
 10
222.5873905884367
 20
149.8166171266249
 30
0.0
 10
222.6979229478349
 20
149.6995393138057
 30
0.0
 10
222.8870540043688
 20
149.4992083830656
 30
0.0
 10
223.2026644834087
 20
149.5391804525735
 30
0.0
 10
223.3719305906951
 20
149.6582799557486
 30
0.0
 10
223.4469640719038
 20
149.7110752286872
 30
0.0
  0
SPLINE
  5
B9
330
1F
100
AcDbEntity
  8
0
  6
HIDDEN
 62
     7
370
     0
100
AcDbSpline
210
0.0
220
0.0
230
1.0
 70
     8
 71
     3
 72
    10
 73
     6
 74
     0
 42
0.00000001
 43
0.00000001
 12
1.0
 22
0.0
 32
0.0
 13
1.0
 23
0.0
 33
0.0
 40
0.0
 40
0.0
 40
0.0
 40
0.0
 40
0.4391174747523768
 40
0.7513670735800417
 40
1.0
 40
1.0
 40
1.0
 40
1.0
 10
220.008677588616
 20
150.1332430532685
 30
0.0
 10
220.1192140346039
 20
150.0161650469121
 30
0.0
 10
220.3083512261782
 20
149.8158346932496
 30
0.0
 10
220.6239505841704
 20
149.8558065637687
 30
0.0
 10
220.7932171179931
 20
149.9749058007174
 30
0.0
 10
220.8682510720831
 20
150.0277011553308
 30
0.0
  0
LINE
  5
BA
330
1F
100
AcDbEntity
  8
0
  6
HIDDEN
 62
     7
370
     0
100
AcDbLine
 10
222.1325698959
 20
146.1123844972
 30
0.0
 11
222.5623566376
 21
146.0596135483
 31
0.0
  0
LINE
  5
BB
330
1F
100
AcDbEntity
  8
0
  6
HIDDEN
 62
     7
370
     0
100
AcDbLine
 10
221.2729964124
 20
146.2179263952
 30
0.0
 11
222.1325698959
 21
146.1123844972
 31
0.0
  0
LINE
  5
BC
330
1F
100
AcDbEntity
  8
0
  6
HIDDEN
 62
     7
370
     0
100
AcDbLine
 10
222.1325698959
 20
146.1123844972
 30
0.0
 11
222.5873905884
 21
149.8166171266
 31
0.0
  0
LINE
  5
BD
330
1F
100
AcDbEntity
  8
0
  6
HIDDEN
 62
     7
370
     0
100
AcDbLine
 10
220.4134303795
 20
146.3234684095
 30
0.0
 11
221.2729964124
 21
146.2179263952
 31
0.0
  0
LINE
  5
BE
330
1F
100
AcDbEntity
  8
0
  6
HIDDEN
 62
     7
370
     0
100
AcDbLine
 10
219.9836436378
 20
146.3762393585
 30
0.0
 11
220.4134303795
 21
146.3234684095
 31
0.0
  0
LINE
  5
BF
330
1F
100
AcDbEntity
  8
0
  6
HIDDEN
 62
     7
370
     0
100
AcDbLine
 10
220.4134303795
 20
146.3234684095
 30
0.0
 11
220.8682510721
 21
150.0277011553
 31
0.0
  0
LINE
  5
C0
330
1F
100
AcDbEntity
  8
0
  6
HIDDEN
 62
     7
370
     0
100
AcDbLine
 10
219.5538568961
 20
146.4290103075
 30
0.0
 11
219.9836436378
 21
146.3762393585
 31
0.0
  0
LINE
  5
C1
330
1F
100
AcDbEntity
  8
0
  6
HIDDEN
 62
     7
370
     0
100
AcDbLine
 10
222.5623566376
 20
146.0596135483
 30
0.0
 11
222.9921359288
 21
146.0068425993
 31
0.0
  0
LINE
  5
C2
330
1F
100
AcDbEntity
  8
0
  6
HIDDEN
 62
     7
370
     0
100
AcDbLine
 10
222.9921359288
 20
146.0068425993
 30
0.0
 11
223.4469640719
 21
149.7110752287
 31
0.0
  0
LINE
  5
C3
330
1F
100
AcDbEntity
  8
0
  6
HIDDEN
 62
     7
370
     0
100
AcDbLine
 10
219.5538568961
 20
146.4290103075
 30
0.0
 11
220.0086775886
 21
150.1332430533
 31
0.0
  0
LINE
  5
C4
330
1F
100
AcDbEntity
  8
0
  6
HIDDEN
 62
     7
370
     0
100
AcDbLine
 10
225.49207394
 20
140.7564799199
 30
0.0
 11
228.8276467191
 21
140.541332298
 31
0.0
  0
SPLINE
  5
C5
330
1F
100
AcDbEntity
  8
0
  6
HIDDEN
 62
     7
370
     0
100
AcDbSpline
210
0.0
220
0.0
230
1.0
 70
     8
 71
     3
 72
    15
 73
    11
 74
     0
 42
0.00000001
 43
0.00000001
 12
1.0
 22
0.0
 32
0.0
 13
1.0
 23
0.0
 33
0.0
 40
0.0
 40
0.0
 40
0.0
 40
0.0
 40
0.049146876413164
 40
0.2834465503922914
 40
0.4456390159217428
 40
0.6081060818845531
 40
0.7648533661132475
 40
0.9204282362921135
 40
0.9778209150932844
 40
0.9999999999999999
 40
0.9999999999999999
 40
0.9999999999999999
 40
0.9999999999999999
 10
228.827646719132
 20
140.5413322980067
 30
0.0
 10
228.9051619663101
 20
140.5383290706575
 30
0.0
 10
229.3522184431189
 20
140.5210084494032
 30
0.0
 10
230.0610250381045
 20
140.6736676428646
 30
0.0
 10
230.8775041028256
 20
141.073817339559
 30
0.0
 10
231.5207049678262
 20
141.5417158707134
 30
0.0
 10
232.1123751980094
 20
142.0676179187126
 30
0.0
 10
232.5105356434151
 20
142.5509788992357
 30
0.0
 10
232.6990335015404
 20
142.9188229058048
 30
0.0
 10
232.7171847131091
 20
143.056683970783
 30
0.0
 10
232.7222440110784
 20
143.0951100672147
 30
0.0
  0
LINE
  5
C6
330
1F
100
AcDbEntity
  8
0
  6
HIDDEN
 62
     7
370
     0
100
AcDbLine
 10
232.7222440111
 20
143.0951100672
 30
0.0
 11
233.1156123149
 21
148.3505709519
 31
0.0
  0
LINE
  5
C7
330
1F
100
AcDbEntity
  8
0
  6
HIDDEN
 62
     7
370
     0
100
AcDbLine
 10
233.1156123149
 20
148.3505709519
 30
0.0
 11
233.9654180872
 21
148.2462285392
 31
0.0
  0
LINE
  5
C8
330
1F
100
AcDbEntity
  8
0
  6
HIDDEN
 62
     7
370
     0
100
AcDbLine
 10
233.9654180872
 20
148.2462285392
 30
0.0
 11
233.6824226843
 21
144.4654413397
 31
0.0
  0
LINE
  5
C9
330
1F
100
AcDbEntity
  8
0
  6
HIDDEN
 62
     7
370
     0
100
AcDbLine
 10
231.4146075117
 20
135.6633030707
 30
0.0
 11
231.5730366575
 21
136.9536123137
 31
0.0
  0
SPLINE
  5
CA
330
1F
100
AcDbEntity
  8
0
  6
HIDDEN
 62
     7
370
     0
100
AcDbSpline
210
0.0
220
0.0
230
1.0
 70
     8
 71
     3
 72
     9
 73
     5
 74
     0
 42
0.00000001
 43
0.00000001
 12
1.0
 22
0.0
 32
0.0
 13
1.0
 23
0.0
 33
0.0
 40
0.0
 40
0.0
 40
0.0
 40
0.0
 40
0.6678765626552058
 40
1.0
 40
1.0
 40
1.0
 40
1.0
 10
224.0013915764433
 20
136.5735311890504
 30
0.0
 10
223.8046400184709
 20
136.7087721900269
 30
0.0
 10
223.5100473212963
 20
136.9112661964626
 30
0.0
 10
223.2071304764339
 20
137.0986193277418
 30
0.0
 10
223.1065246926885
 20
137.1608436936995
 30
0.0
  0
LINE
  5
CB
330
1F
100
AcDbEntity
  8
0
  6
HIDDEN
 62
     7
370
     0
100
AcDbLine
 10
223.4541240799
 20
139.9918277646
 30
0.0
 11
223.1065246927
 21
137.1608436937
 31
0.0
  0
LINE
  5
CC
330
1F
100
AcDbEntity
  8
0
  6
HIDDEN
 62
     7
370
     0
100
AcDbLine
 10
223.4541240799
 20
139.9918277646
 30
0.0
 11
225.49207394
 21
140.7564799199
 31
0.0
  0
LINE
  5
CD
330
1F
100
AcDbEntity
  8
0
  6
HIDDEN
 62
     7
370
     0
100
AcDbLine
 10
224.0013915764
 20
136.5735311891
 30
0.0
 11
230.4936561452
 21
135.7763814638
 31
0.0
  0
SPLINE
  5
CE
330
1F
100
AcDbEntity
  8
0
  6
HIDDEN
 62
     7
370
     0
100
AcDbSpline
210
0.0
220
0.0
230
1.0
 70
     8
 71
     3
 72
     9
 73
     5
 74
     0
 42
0.00000001
 43
0.00000001
 12
1.0
 22
0.0
 32
0.0
 13
1.0
 23
0.0
 33
0.0
 40
0.0
 40
0.0
 40
0.0
 40
0.0
 40
0.332128420604014
 40
1.0
 40
1.0
 40
1.0
 40
1.0
 10
221.260859416638
 20
137.3874624157807
 30
0.0
 10
221.361467938706
 20
137.325238304904
 30
0.0
 10
221.6643884833708
 20
137.1378887526931
 30
0.0
 10
221.9589782006438
 20
136.9353918424191
 30
0.0
 10
222.1557263003927
 20
136.8001499111316
 30
0.0
  0
SPLINE
  5
CF
330
1F
100
AcDbEntity
  8
0
  6
HIDDEN
 62
     7
370
     0
100
AcDbSpline
210
0.0
220
0.0
230
1.0
 70
     8
 71
     3
 72
    12
 73
     8
 74
     0
 42
0.00000001
 43
0.00000001
 12
1.0
 22
0.0
 32
0.0
 13
1.0
 23
0.0
 33
0.0
 40
0.0
 40
0.0
 40
0.0
 40
0.0
 40
0.144727401051047
 40
0.3454844933630062
 40
0.5531051636499572
 40
0.8837153840529717
 40
1.0
 40
1.0
 40
1.0
 40
1.0
 10
223.1065246926885
 20
137.1608436936995
 30
0.0
 10
223.030625455314
 20
137.2507325009199
 30
0.0
 10
222.8494433890259
 20
137.4653096217417
 30
0.0
 10
222.5368173306295
 20
137.7306531184871
 30
0.0
 10
222.0723832763171
 20
137.8626729323454
 30
0.0
 10
221.6315475383807
 20
137.6570422991076
 30
0.0
 10
221.3373986541708
 20
137.4431249458532
 30
0.0
 10
221.260859416638
 20
137.3874624157807
 30
0.0
  0
LWPOLYLINE
  5
D0
330
1F
100
AcDbEntity
  8
0
  6
HIDDEN
 62
     7
370
     0
100
AcDbPolyline
 90
        7
 70
   128
 43
0.0
 10
222.1557263004
 20
136.8001499111
 10
222.6285252439
 20
136.7420977811
 10
223.0467337834
 20
136.6907474483
 10
223.401165353
 20
136.6472295383
 10
223.6840117442
 20
136.6125005195
 10
223.8890517222
 20
136.5873240764
 10
224.0013915764
 20
136.5735311891
  0
LINE
  5
D1
330
1F
100
AcDbEntity
  8
0
  6
HIDDEN
 62
     7
370
     0
100
AcDbLine
 10
221.6084662544
 20
140.218446021
 30
0.0
 11
221.2608594166
 21
137.3874624158
 31
0.0
  0
SPLINE
  5
D2
330
1F
100
AcDbEntity
  8
0
  6
HIDDEN
 62
     7
370
     0
100
AcDbSpline
210
0.0
220
0.0
230
1.0
 70
     8
 71
     3
 72
    12
 73
     8
 74
     0
 42
0.00000001
 43
0.00000001
 12
1.0
 22
0.0
 32
0.0
 13
1.0
 23
0.0
 33
0.0
 40
0.0
 40
0.0
 40
0.0
 40
0.0
 40
0.126699618797566
 40
0.454195585563366
 40
0.6533083205584513
 40
0.8533227811502673
 40
1.0
 40
1.0
 40
1.0
 40
1.0
 10
221.6084662543875
 20
140.2184460210165
 30
0.0
 10
221.6747458900566
 20
140.1396195909476
 30
0.0
 10
221.9123465886175
 20
139.857040867327
 30
0.0
 10
222.2914708474667
 20
139.5572867131319
 30
0.0
 10
222.7664388318073
 20
139.5835685712756
 30
0.0
 10
223.1289296719411
 20
139.7563924712414
 30
0.0
 10
223.3574446752499
 20
139.9218334983022
 30
0.0
 10
223.4541240798574
 20
139.9918277645966
 30
0.0
  0
SPLINE
  5
D3
330
1F
100
AcDbEntity
  8
0
  6
HIDDEN
 62
     7
370
     0
100
AcDbSpline
210
0.0
220
0.0
230
1.0
 70
     8
 71
     3
 72
     9
 73
     5
 74
     0
 42
0.00000001
 43
0.00000001
 12
1.0
 22
0.0
 32
0.0
 13
1.0
 23
0.0
 33
0.0
 40
0.0
 40
0.0
 40
0.0
 40
0.0
 40
0.562741937085148
 40
1.0
 40
1.0
 40
1.0
 40
1.0
 10
223.6464161144834
 20
140.9830986420176
 30
0.0
 10
223.267839197435
 20
140.8268055533377
 30
0.0
 10
222.5951029179792
 20
140.549070630134
 30
0.0
 10
221.9086314421533
 20
140.3190321856483
 30
0.0
 10
221.6084662543875
 20
140.2184460210165
 30
0.0
  0
ELLIPSE
  5
D4
330
1F
100
AcDbEntity
  8
0
  6
HIDDEN
 62
     7
370
     0
100
AcDbEllipse
 10
221.0174549252
 20
141.0988832093
 30
0.0
 11
4.489359628895897
 21
-0.3356109403475216
 31
0.0
210
0.0
220
0.0
230
1.0
 40
0.0220396627
 41
6.203760002021716
 42
7.230012613687244
  0
LINE
  5
D5
330
1F
100
AcDbEntity
  8
0
  6
HIDDEN
 62
     7
370
     0
100
AcDbLine
 10
226.9819814431
 20
140.7679505544
 30
0.0
 11
223.6464161145
 21
140.983098642
 31
0.0
  0
SPLINE
  5
D6
330
1F
100
AcDbEntity
  8
0
  6
HIDDEN
 62
     7
370
     0
100
AcDbSpline
210
0.0
220
0.0
230
1.0
 70
     8
 71
     3
 72
    13
 73
     9
 74
     0
 42
0.00000001
 43
0.00000001
 12
1.0
 22
0.0
 32
0.0
 13
1.0
 23
0.0
 33
0.0
 40
0.0
 40
0.0
 40
0.0
 40
0.0
 40
0.0554780648298228
 40
0.1809063440280059
 40
0.4215260442918194
 40
0.6681526786638751
 40
0.9084790338096749
 40
0.9999999999999999
 40
0.9999999999999999
 40
0.9999999999999999
 40
0.9999999999999999
 10
230.8765787350279
 20
143.3217287892959
 30
0.0
 10
230.8640499443463
 20
143.2535274172964
 30
0.0
 10
230.8231952799986
 20
143.031132117389
 30
0.0
 10
230.5167764251725
 20
142.6023709280614
 30
0.0
 10
230.0239323745992
 20
142.0655135338664
 30
0.0
 10
229.3562145659068
 20
141.521871135563
 30
0.0
 10
228.7831946068448
 20
141.1479514632609
 30
0.0
 10
228.4207271389918
 20
141.035234429447
 30
0.0
 10
228.3207613693815
 20
141.0041479291877
 30
0.0
  0
SPLINE
  5
D7
330
1F
100
AcDbEntity
  8
0
  6
HIDDEN
 62
     7
370
     0
100
AcDbSpline
210
0.0
220
0.0
230
1.0
 70
     8
 71
     3
 72
     9
 73
     5
 74
     0
 42
0.00000001
 43
0.00000001
 12
1.0
 22
0.0
 32
0.0
 13
1.0
 23
0.0
 33
0.0
 40
0.0
 40
0.0
 40
0.0
 40
0.0
 40
0.7063977735419334
 40
1.0
 40
1.0
 40
1.0
 40
1.0
 10
227.7732256518942
 20
140.8262597295007
 30
0.0
 10
227.5871757808661
 20
140.7958687256945
 30
0.0
 10
227.3237974436224
 20
140.7528462177753
 30
0.0
 10
227.0595616580387
 20
140.7645224010273
 30
0.0
 10
226.9819814430815
 20
140.7679505544266
 30
0.0
  0
LINE
  5
D8
330
1F
100
AcDbEntity
  8
0
  6
HIDDEN
 62
     7
370
     0
100
AcDbLine
 10
231.2699544894
 20
148.5771894702
 30
0.0
 11
230.876578735
 21
143.3217287893
 31
0.0
  0
LWPOLYLINE
  5
D9
330
1F
100
AcDbEntity
  8
0
  6
HIDDEN
 62
     7
370
     0
100
AcDbPolyline
 90
       11
 70
   128
 43
0.0
 10
230.3819421398
 20
148.6862241771
 10
230.4119009244
 20
148.6825456857
 10
230.5138025152
 20
148.6700328431
 10
230.6846592294
 20
148.6490542782
 10
230.9188682305
 20
148.6202974818
 10
231.2087479698
 20
148.5847048359
 10
231.544798957
 20
148.5434428221
 10
231.9160092341
 20
148.4978636625
 10
232.3102194535
 20
148.4494610238
 10
232.7145028578
 20
148.3998211814
 10
233.1156123149
 20
148.3505709519
  0
LINE
  5
DA
330
1F
100
AcDbEntity
  8
0
  6
HIDDEN
 62
     7
370
     0
100
AcDbLine
 10
231.8666640388
 20
136.9175598855
 30
0.0
 11
231.708234893
 21
135.6272497112
 31
0.0
  0
LINE
  5
DB
330
1F
100
AcDbEntity
  8
0
  6
HIDDEN
 62
     7
370
     0
100
AcDbLine
 10
233.0360848176
 20
136.7739732275
 30
0.0
 11
231.8666640388
 21
136.9175598855
 31
0.0
  0
LINE
  5
DC
330
1F
100
AcDbEntity
  8
0
  6
HIDDEN
 62
     7
370
     0
100
AcDbLine
 10
231.8666640388
 20
136.9175598855
 30
0.0
 11
231.5730366575
 21
136.9536123137
 31
0.0
  0
LWPOLYLINE
  5
DD
330
1F
100
AcDbEntity
  8
0
  6
HIDDEN
 62
     7
370
     0
100
AcDbPolyline
 90
        6
 70
   128
 43
0.0
 10
234.6980113255
 20
136.5699139322
 10
234.657569574
 20
136.5748797441
 10
234.4600472318
 20
136.5991323153
 10
234.1090652811
 20
136.6422274048
 10
233.6250383126
 20
136.7016588236
 10
233.0360848176
 20
136.7739732275
  0
LINE
  5
DE
330
1F
100
AcDbEntity
  8
0
  6
HIDDEN
 62
     7
370
     0
100
AcDbLine
 10
229.727378832
 20
137.1802310357
 30
0.0
 11
230.8967921602
 21
137.0366443778
 31
0.0
  0
SPLINE
  5
DF
330
1F
100
AcDbEntity
  8
0
  6
HIDDEN
 62
     7
370
     0
100
AcDbSpline
210
0.0
220
0.0
230
1.0
 70
     8
 71
     3
 72
    13
 73
     9
 74
     0
 42
0.00000001
 43
0.00000001
 12
1.0
 22
0.0
 32
0.0
 13
1.0
 23
0.0
 33
0.0
 40
0.0
 40
0.0
 40
0.0
 40
0.0
 40
0.0727000711081305
 40
0.1452067674755337
 40
0.2735866810494412
 40
0.5492867345564465
 40
0.8261439619033579
 40
1.0
 40
1.0
 40
1.0
 40
1.0
 10
232.7055994140249
 20
136.8145509521028
 30
0.0
 10
232.5531967536401
 20
136.9330646827793
 30
0.0
 10
232.2487968083329
 20
137.169776909751
 30
0.0
 10
231.8620048376149
 20
137.8366807725471
 30
0.0
 10
231.6008481405478
 20
139.1275838962454
 30
0.0
 10
231.5758865714683
 20
140.9994145123404
 30
0.0
 10
231.7177993019784
 20
142.9845005947749
 30
0.0
 10
231.8036494299315
 20
144.2167412747923
 30
0.0
 10
231.8367648588758
 20
144.6920600617787
 30
0.0
  0
SPLINE
  5
E0
330
1F
100
AcDbEntity
  8
0
  6
HIDDEN
 62
     7
370
     0
100
AcDbSpline
210
0.0
220
0.0
230
1.0
 70
     8
 71
     3
 72
    14
 73
    10
 74
     0
 42
0.00000001
 43
0.00000001
 12
1.0
 22
0.0
 32
0.0
 13
1.0
 23
0.0
 33
0.0
 40
0.0
 40
0.0
 40
0.0
 40
0.0
 40
0.1738404149101889
 40
0.4413684935049314
 40
0.7099531304208389
 40
0.8160052485098396
 40
0.9042492516149837
 40
0.9725095356964454
 40
1.0
 40
1.0
 40
1.0
 40
1.0
 10
233.6824226843458
 20
144.4654413396975
 30
0.0
 10
233.6477439515949
 20
143.9901893474863
 30
0.0
 10
233.5596971067986
 20
142.7835582200477
 30
0.0
 10
233.4500932315358
 20
140.8430826810565
 30
0.0
 10
233.4136309936152
 20
139.0796964077003
 30
0.0
 10
233.5349354896683
 20
137.8343247728327
 30
0.0
 10
233.69458076674
 20
137.1792367735326
 30
0.0
 10
233.8449279378558
 20
136.8266871682315
 30
0.0
 10
233.9016850282532
 20
136.7016025599359
 30
0.0
 10
233.9179802404981
 20
136.6656902144215
 30
0.0
  0
LINE
  5
E1
330
1F
100
AcDbEntity
  8
0
  6
HIDDEN
 62
     7
370
     0
100
AcDbLine
 10
231.8367648589
 20
144.6920600618
 30
0.0
 11
232.1197528111
 21
148.4728470576
 31
0.0
  0
LWPOLYLINE
  5
E2
330
1F
100
AcDbEntity
  8
0
  6
HIDDEN
 62
     7
370
     0
100
AcDbPolyline
 90
        7
 70
   128
 43
0.0
 10
233.9654180872
 20
148.2462285392
 10
234.2649388777
 20
148.2094516003
 10
234.5104802119
 20
148.1793030005
 10
234.693988012
 20
148.1567707859
 10
234.8094571101
 20
148.1425933496
 10
234.8530951606
 20
148.1372353344
 10
234.8534304368
 20
148.1371938615
  0
LWPOLYLINE
  5
E3
330
1F
100
AcDbEntity
  8
0
  6
HIDDEN
 62
     7
370
     0
100
AcDbPolyline
 90
        5
 70
   128
 43
0.0
 10
230.8967921602
 20
137.0366443778
 10
231.1129409539
 20
137.0101054097
 10
231.337128924
 20
136.9825783084
 10
231.5668154227
 20
136.9543769295
 10
231.5730366575
 20
136.9536123137
  0
LINE
  5
E4
330
1F
100
AcDbEntity
  8
0
  6
HIDDEN
 62
     7
370
     0
100
AcDbLine
 10
229.4337514507
 20
137.2162843952
 30
0.0
 11
229.2753223049
 21
135.925974221
 31
0.0
  0
LINE
  5
E5
330
1F
100
AcDbEntity
  8
0
  6
HIDDEN
 62
     7
370
     0
100
AcDbLine
 10
229.727378832
 20
137.1802310357
 30
0.0
 11
229.5689496862
 21
135.8899208615
 31
0.0
  0
LINE
  5
E6
330
1F
100
AcDbEntity
  8
0
  6
HIDDEN
 62
     7
370
     0
100
AcDbLine
 10
229.727378832
 20
137.1802310357
 30
0.0
 11
229.4337514507
 21
137.2162843952
 31
0.0
  0
LWPOLYLINE
  5
E7
330
1F
100
AcDbEntity
  8
0
  6
HIDDEN
 62
     7
370
     0
100
AcDbPolyline
 90
        8
 70
   128
 43
0.0
 10
236.2536180483
 20
143.9352328787
 10
236.1653659212
 20
143.9460692825
 10
235.9050351845
 20
143.9780341359
 10
235.4856718051
 20
144.0295250984
 10
234.9283162223
 20
144.0979600782
 10
234.2609081136
 20
144.1799076172
 10
233.516915487
 20
144.2712582546
 10
232.7336433994
 20
144.3674315131
  0
LINE
  5
E8
330
1F
100
AcDbEntity
  8
0
  6
HIDDEN
 62
     7
370
     0
100
AcDbLine
 10
232.6746646034
 20
143.8870644095
 30
0.0
 11
232.7336433994
 21
144.3674315131
 31
0.0
  0
LWPOLYLINE
  5
E9
330
1F
100
AcDbEntity
  8
0
  6
HIDDEN
 62
     7
370
     0
100
AcDbPolyline
 90
        8
 70
   128
 43
0.0
 10
235.9341669547
 20
144.1759590423
 10
235.9110105502
 20
144.1788023701
 10
235.727770971
 20
144.2013014937
 10
235.3719386922
 20
144.2449919312
 10
234.8641965257
 20
144.30733513
 10
234.2340487706
 20
144.384707314
 10
233.518122481
 20
144.4726120579
 10
232.7580216991
 20
144.5659408244
  0
LINE
  5
EA
330
1F
100
AcDbEntity
  8
0
  6
HIDDEN
 62
     7
370
     0
100
AcDbLine
 10
232.7580216991
 20
144.5659408244
 30
0.0
 11
232.7336433994
 21
144.3674315131
 31
0.0
  0
LWPOLYLINE
  5
EB
330
1F
100
AcDbEntity
  8
0
  6
HIDDEN
 62
     7
370
     0
100
AcDbPolyline
 90
        9
 70
   128
 43
0.0
 10
232.6441991793
 20
143.638927945
 10
232.6481777894
 20
143.6713859337
 10
232.6521489488
 20
143.7037046897
 10
232.6560828554
 20
143.7357459115
 10
232.6599646079
 20
143.7673726948
 10
232.6637793051
 20
143.7984495322
 10
232.667512046
 20
143.8288432444
 10
232.6711479293
 20
143.858423912
 10
232.6746646034
 20
143.8870644095
  0
LWPOLYLINE
  5
EC
330
1F
100
AcDbEntity
  8
0
  6
HIDDEN
 62
     7
370
     0
100
AcDbPolyline
 90
        8
 70
   128
 43
0.0
 10
235.2029520737
 20
138.2206822644
 10
235.1797956692
 20
138.2235255922
 10
234.99655609
 20
138.2460244829
 10
234.6407238113
 20
138.2897146876
 10
234.1329816448
 20
138.352058352
 10
233.5028338896
 20
138.4294307689
 10
232.7869076001
 20
138.5173355127
 10
232.0267993676
 20
138.6106642792
  0
LINE
  5
ED
330
1F
100
AcDbEntity
  8
0
  6
HIDDEN
 62
     7
370
     0
100
AcDbLine
 10
232.0267993676
 20
138.6106642792
 30
0.0
 11
232.6441991793
 21
143.638927945
 31
0.0
  0
LINE
  5
EE
330
1F
100
AcDbEntity
  8
0
  6
HIDDEN
 62
     7
370
     0
100
AcDbLine
 10
223.3502108323
 20
145.4994217391
 30
0.0
 11
232.1753192412
 21
144.4158349084
 31
0.0
  0
LINE
  5
EF
330
1F
100
AcDbEntity
  8
0
  6
HIDDEN
 62
     7
370
     0
100
AcDbLine
 10
233.3025995361
 20
148.4906033627
 30
0.0
 11
233.3463344442
 21
148.8467588104
 31
0.0
  0
LINE
  5
F0
330
1F
100
AcDbEntity
  8
0
  6
HIDDEN
 62
     7
370
     0
100
AcDbLine
 10
232.0399123894
 20
148.7556251712
 30
0.0
 11
232.0501643883
 21
148.7545518801
 31
0.0
  0
SPLINE
  5
F1
330
1F
100
AcDbEntity
  8
0
  6
HIDDEN
 62
     7
370
     0
100
AcDbSpline
210
0.0
220
0.0
230
1.0
 70
     8
 71
     3
 72
     9
 73
     5
 74
     0
 42
0.00000001
 43
0.00000001
 12
1.0
 22
0.0
 32
0.0
 13
1.0
 23
0.0
 33
0.0
 40
0.0
 40
0.0
 40
0.0
 40
0.0
 40
0.2568061648444462
 40
0.9999999999999999
 40
0.9999999999999999
 40
0.9999999999999999
 40
0.9999999999999999
 10
233.2963708507162
 20
148.4398536165728
 30
0.0
 10
233.2959379552559
 20
148.4363330851065
 30
0.0
 10
233.2942522657377
 20
148.4226241795263
 30
0.0
 10
233.2990407580953
 20
148.4616210953178
 30
0.0
 10
233.3025995360952
 20
148.490603362724
 30
0.0
  0
LINE
  5
F2
330
1F
100
AcDbEntity
  8
0
  6
HIDDEN
 62
     7
370
     0
100
AcDbLine
 10
234.580418812
 20
148.4439243693
 30
0.0
 11
234.5919001567
 21
148.4422807596
 31
0.0
  0
SPLINE
  5
F3
330
1F
100
AcDbEntity
  8
0
  6
HIDDEN
 62
     7
370
     0
100
AcDbSpline
210
0.0
220
0.0
230
1.0
 70
     8
 71
     3
 72
    11
 73
     7
 74
     0
 42
0.00000001
 43
0.00000001
 12
1.0
 22
0.0
 32
0.0
 13
1.0
 23
0.0
 33
0.0
 40
0.0
 40
0.0
 40
0.0
 40
0.0
 40
0.3367850077556835
 40
0.6790112022691929
 40
0.9923745010075404
 40
1.0
 40
1.0
 40
1.0
 40
1.0
 10
225.3899711834532
 20
149.3377329214028
 30
0.0
 10
225.4653877518711
 20
149.3080256236138
 30
0.0
 10
225.6174393385311
 20
149.2481310691552
 30
0.0
 10
225.8597259493879
 20
149.2551002238644
 30
0.0
 10
226.0132339361047
 20
149.2977569543506
 30
0.0
 10
226.083769956002
 20
149.3275536291554
 30
0.0
 10
226.085445629273
 20
149.3282614872342
 30
0.0
  0
SPLINE
  5
F4
330
1F
100
AcDbEntity
  8
0
  6
HIDDEN
 62
     7
370
     0
100
AcDbSpline
210
0.0
220
0.0
230
1.0
 70
     8
 71
     3
 72
    11
 73
     7
 74
     0
 42
0.00000001
 43
0.00000001
 12
1.0
 22
0.0
 32
0.0
 13
1.0
 23
0.0
 33
0.0
 40
0.0
 40
0.0
 40
0.0
 40
0.0
 40
0.0076328680116014
 40
0.3209923942982749
 40
0.6632236440453385
 40
1.0
 40
1.0
 40
1.0
 40
1.0
 10
240.5080262290579
 20
147.5573911928123
 30
0.0
 10
240.5094829635115
 20
147.5562988234017
 30
0.0
 10
240.5707444289817
 20
147.5103603541355
 30
0.0
 10
240.7093334360823
 20
147.4317769225723
 30
0.0
 10
240.9427531966086
 20
147.3664242104824
 30
0.0
 10
241.1047749354088
 20
147.3877518295454
 30
0.0
 10
241.1851349937063
 20
147.3983299700095
 30
0.0
  0
LINE
  5
F5
330
1F
100
AcDbEntity
  8
0
  6
HIDDEN
 62
     7
370
     0
100
AcDbLine
 10
241.1851349937
 20
147.39832997
 30
0.0
 11
242.5338912474
 21
147.718668294
 31
0.0
  0
LINE
  5
F6
330
1F
100
AcDbEntity
  8
0
  6
HIDDEN
 62
     7
370
     0
100
AcDbLine
 10
225.3899711835
 20
149.3377329214
 30
0.0
 11
224.1587701904
 21
149.9748492977
 31
0.0
  0
LINE
  5
F7
330
1F
100
AcDbEntity
  8
0
  6
HIDDEN
 62
     7
370
     0
100
AcDbLine
 10
226.8979686963
 20
149.386976719
 30
0.0
 11
226.9122961628
 21
149.3855781053
 31
0.0
  0
LINE
  5
F8
330
1F
100
AcDbEntity
  8
0
  6
HIDDEN
 62
     7
370
     0
100
AcDbLine
 10
239.7178325521
 20
147.8133520184
 30
0.0
 11
239.7338438498
 21
147.8109292846
 31
0.0
  0
LWPOLYLINE
  5
F9
330
1F
100
AcDbEntity
  8
0
  6
HIDDEN
 62
     7
370
     0
100
AcDbPolyline
 90
        5
 70
   128
 43
0.0
 10
223.2083964812
 20
145.5168351429
 10
223.2178065645
 20
145.5156796044
 10
223.2455897795
 20
145.512267937
 10
223.2904348241
 20
145.5067614923
 10
223.3502108323
 20
145.4994217391
  0
LWPOLYLINE
  5
FA
330
1F
100
AcDbEntity
  8
0
  6
HIDDEN
 62
     7
370
     0
100
AcDbPolyline
 90
        5
 70
   128
 43
0.0
 10
231.7422244417
 20
141.5673838826
 10
231.8839493858
 20
141.549982586
 10
232.040754305
 20
141.5307293544
 10
232.2078708278
 20
141.5102099898
 10
232.2103667723
 20
141.509903119
  0
LINE
  5
FB
330
1F
100
AcDbEntity
  8
0
  6
HIDDEN
 62
     7
370
     0
100
AcDbLine
 10
224.3149716126
 20
142.479335879
 30
0.0
 11
231.7422244417
 21
141.5673838826
 31
0.0
  0
LINE
  5
FC
330
1F
100
AcDbEntity
  8
0
  6
HIDDEN
 62
     7
370
     0
100
AcDbLine
 10
228.6743137704
 20
141.6418235647
 30
0.0
 11
224.7773918974
 21
142.1203049729
 31
0.0
  0
LWPOLYLINE
  5
FD
330
1F
100
AcDbEntity
  8
0
  6
HIDDEN
 62
     7
370
     0
100
AcDbPolyline
 90
       11
 70
   128
 43
0.0
 10
230.5207539069
 20
143.2229438695
 10
231.1368871199
 20
143.1472920711
 10
231.8298730718
 20
143.062204578
 10
232.5623396503
 20
142.9722686196
 10
233.2948136794
 20
142.8823321956
 10
233.9877921807
 20
142.7972447025
 10
234.6039253937
 20
142.7215929041
 10
235.1099986302
 20
142.6594550619
 10
235.4787278639
 20
142.6141806776
 10
235.6902349459
 20
142.5882112133
 10
235.7384849059
 20
142.5822866047
  0
LWPOLYLINE
  5
FE
330
1F
100
AcDbEntity
  8
0
  6
HIDDEN
 62
     7
370
     0
100
AcDbPolyline
 90
        5
 70
   128
 43
0.0
 10
229.3861943947
 20
143.3622501689
 10
229.4344443547
 20
143.3563255603
 10
229.6459514367
 20
143.330356096
 10
230.0146806704
 20
143.2850817116
 10
230.5207539069
 20
143.2229438695
  0
LWPOLYLINE
  5
FF
330
1F
100
AcDbEntity
  8
0
  6
HIDDEN
 62
     7
370
     0
100
AcDbPolyline
 90
       11
 70
   128
 43
0.0
 10
230.4287243353
 20
142.4734438668
 10
231.0448575484
 20
142.3977916027
 10
231.7378435003
 20
142.3127041096
 10
232.4703100788
 20
142.2227681512
 10
233.2027841078
 20
142.1328321929
 10
233.8957626092
 20
142.0477446998
 10
234.5119032728
 20
141.9720924357
 10
235.0179765092
 20
141.9099545936
 10
235.386705743
 20
141.8646806749
 10
235.5982053744
 20
141.8387107449
 10
235.6464627849
 20
141.8327861364
  0
LWPOLYLINE
  5
100
330
1F
100
AcDbEntity
  8
0
  6
HIDDEN
 62
     7
370
     0
100
AcDbPolyline
 90
        5
 70
   128
 43
0.0
 10
229.2941648232
 20
142.6127501661
 10
229.3424147832
 20
142.6068255576
 10
229.5539218651
 20
142.5808556276
 10
229.9226510989
 20
142.5355817089
 10
230.4287243353
 20
142.4734438668
  0
LWPOLYLINE
  5
101
330
1F
100
AcDbEntity
  8
0
  6
HIDDEN
 62
     7
370
     0
100
AcDbPolyline
 90
        5
 70
   128
 43
0.0
 10
223.9604208337
 20
142.5228691558
 10
223.9839497673
 20
142.5199806588
 10
224.0534189808
 20
142.511451141
 10
224.165527867
 20
142.4976852621
 10
224.3149716126
 20
142.479335879
  0
LINE
  5
102
330
1F
100
AcDbEntity
  8
0
  6
HIDDEN
 62
     7
370
     0
100
AcDbLine
 10
182.757648425
 20
176.6974157552
 30
0.0
 11
177.1576504873
 21
176.6974157552
 31
0.0
  0
LINE
  5
103
330
1F
100
AcDbEntity
  8
0
  6
HIDDEN
 62
     7
370
     0
100
AcDbLine
 10
182.9576480853
 20
177.2076780806
 30
0.0
 11
176.9576508271
 21
177.2076780806
 31
0.0
  0
LINE
  5
104
330
1F
100
AcDbEntity
  8
0
  6
HIDDEN
 62
     7
370
     0
100
AcDbLine
 10
182.757648425
 20
177.3874158869
 30
0.0
 11
177.1576504873
 21
177.3874158869
 31
0.0
  0
LINE
  5
105
330
1F
100
AcDbEntity
  8
0
  6
HIDDEN
 62
     7
370
     0
100
AcDbLine
 10
182.9576480853
 20
178.4476782093
 30
0.0
 11
176.9576508271
 21
178.4476782093
 31
0.0
  0
LINE
  5
106
330
1F
100
AcDbEntity
  8
0
  6
HIDDEN
 62
     7
370
     0
100
AcDbLine
 10
182.8176479506
 20
178.587678344
 30
0.0
 11
177.0976472365
 21
178.587678344
 31
0.0
  0
LINE
  5
107
330
1F
100
AcDbEntity
  8
0
  6
HIDDEN
 62
     7
370
     0
100
AcDbLine
 10
182.757648425
 20
175.3174154917
 30
0.0
 11
177.1576504873
 21
175.3174154917
 31
0.0
  0
LINE
  5
108
330
1F
100
AcDbEntity
  8
0
  6
HIDDEN
 62
     7
370
     0
100
AcDbLine
 10
182.9576480853
 20
175.8276778171
 30
0.0
 11
176.9576508271
 21
175.8276778171
 31
0.0
  0
LINE
  5
109
330
1F
100
AcDbEntity
  8
0
  6
HIDDEN
 62
     7
370
     0
100
AcDbLine
 10
182.9576480853
 20
177.8976782123
 30
0.0
 11
176.9576508271
 21
177.8976782123
 31
0.0
  0
LINE
  5
10A
330
1F
100
AcDbEntity
  8
0
  6
HIDDEN
 62
     7
370
     0
100
AcDbLine
 10
182.757648425
 20
176.0074156235
 30
0.0
 11
177.1576504873
 21
176.0074156235
 31
0.0
  0
LINE
  5
10B
330
1F
100
AcDbEntity
  8
0
  6
HIDDEN
 62
     7
370
     0
100
AcDbLine
 10
182.9576480853
 20
176.5176779489
 30
0.0
 11
176.9576508271
 21
176.5176779489
 31
0.0
  0
LINE
  5
10C
330
1F
100
AcDbEntity
  8
0
  6
HIDDEN
 62
     7
370
     0
100
AcDbLine
 10
182.9576480853
 20
175.1376776854
 30
0.0
 11
176.9576508271
 21
175.1376776854
 31
0.0
  0
LINE
  5
10D
330
1F
100
AcDbEntity
  8
0
  6
HIDDEN
 62
     7
370
     0
100
AcDbLine
 10
182.9576480853
 20
172.3876777003
 30
0.0
 11
176.9576508271
 21
172.3876777003
 31
0.0
  0
LINE
  5
10E
330
1F
100
AcDbEntity
  8
0
  6
HIDDEN
 62
     7
370
     0
100
AcDbLine
 10
182.4380334186
 20
172.0876782099
 30
0.0
 11
177.4772654938
 21
172.0876782099
 31
0.0
  0
LINE
  5
10F
330
1F
100
AcDbEntity
  8
0
  6
HIDDEN
 62
     7
370
     0
100
AcDbLine
 10
182.4576507973
 20
173.7310546348
 30
0.0
 11
177.4576481151
 21
173.7310546348
 31
0.0
  0
LINE
  5
110
330
1F
100
AcDbEntity
  8
0
  6
HIDDEN
 62
     7
370
     0
100
AcDbLine
 10
106.4878765213
 20
147.8876783411
 30
0.0
 11
106.4878765213
 21
163.2006293992
 31
0.0
  0
LINE
  5
111
330
1F
100
AcDbEntity
  8
0
  6
HIDDEN
 62
     7
370
     0
100
AcDbLine
 10
106.4878765213
 20
132.5747272829
 30
0.0
 11
106.4878765213
 21
147.8876783411
 31
0.0
  0
LINE
  5
112
330
1F
100
AcDbEntity
  8
0
  6
HIDDEN
 62
     7
370
     0
100
AcDbLine
 10
112.9878766554
 20
147.8876783411
 30
0.0
 11
112.9878766554
 21
162.2340888614
 31
0.0
  0
LINE
  5
113
330
1F
100
AcDbEntity
  8
0
  6
HIDDEN
 62
     7
370
     0
100
AcDbLine
 10
112.9878766554
 20
133.5412678207
 30
0.0
 11
112.9878766554
 21
147.8876783411
 31
0.0
  0
SPLINE
  5
114
330
1F
100
AcDbEntity
  8
0
  6
HIDDEN
 62
     7
370
     0
100
AcDbSpline
210
0.0
220
0.0
230
1.0
 70
     8
 71
     3
 72
     9
 73
     5
 74
     0
 42
0.00000001
 43
0.00000001
 12
1.0
 22
0.0
 32
0.0
 13
1.0
 23
0.0
 33
0.0
 40
0.0
 40
0.0
 40
0.0
 40
0.0
 40
0.7129655948950856
 40
1.0
 40
1.0
 40
1.0
 40
1.0
 10
123.8270986544233
 20
127.7618831852934
 30
0.0
 10
123.956988591636
 20
127.7734985632616
 30
0.0
 10
124.1391712076595
 20
127.7897902020888
 30
0.0
 10
124.4237334084609
 20
127.80512590982
 30
0.0
 10
124.5054125504833
 20
127.8095277855656
 30
0.0
  0
LINE
  5
115
330
1F
100
AcDbEntity
  8
0
  6
HIDDEN
 62
     7
370
     0
100
AcDbLine
 10
118.7878779786
 20
147.8876783411
 30
0.0
 11
118.7878779786
 21
161.8876787732
 31
0.0
  0
LINE
  5
116
330
1F
100
AcDbEntity
  8
0
  6
HIDDEN
 62
     7
370
     0
100
AcDbLine
 10
118.7878779786
 20
133.8876779089
 30
0.0
 11
118.7878779786
 21
147.8876783411
 31
0.0
  0
LINE
  5
117
330
1F
100
AcDbEntity
  8
0
  6
HIDDEN
 62
     7
370
     0
100
AcDbLine
 10
111.3878775107
 20
147.8876783411
 30
0.0
 11
111.3878775107
 21
161.8876787732
 31
0.0
  0
LINE
  5
118
330
1F
100
AcDbEntity
  8
0
  6
HIDDEN
 62
     7
370
     0
100
AcDbLine
 10
111.3878775107
 20
133.8876779089
 30
0.0
 11
111.3878775107
 21
147.8876783411
 31
0.0
  0
LINE
  5
119
330
1F
100
AcDbEntity
  8
0
  6
HIDDEN
 62
     7
370
     0
100
AcDbLine
 10
112.3878776746
 20
147.8876783411
 30
0.0
 11
112.3878776746
 21
161.8876787732
 31
0.0
  0
LINE
  5
11A
330
1F
100
AcDbEntity
  8
0
  6
HIDDEN
 62
     7
370
     0
100
AcDbLine
 10
112.3878776746
 20
133.8876779089
 30
0.0
 11
112.3878776746
 21
147.8876783411
 31
0.0
  0
SPLINE
  5
11B
330
1F
100
AcDbEntity
  8
0
  6
HIDDEN
 62
     7
370
     0
100
AcDbSpline
210
0.0
220
0.0
230
1.0
 70
     8
 71
     3
 72
    16
 73
    12
 74
     0
 42
0.00000001
 43
0.00000001
 12
1.0
 22
0.0
 32
0.0
 13
1.0
 23
0.0
 33
0.0
 40
0.0
 40
0.0
 40
0.0
 40
0.0
 40
0.1115950502839062
 40
0.2230707121913973
 40
0.3372302739780454
 40
0.451012868573656
 40
0.5604247537013775
 40
0.6684585728451424
 40
0.7800745255247917
 40
0.8947791219986609
 40
1.0
 40
1.0
 40
1.0
 40
1.0
 10
131.4576489569884
 20
133.9020603234431
 30
0.0
 10
131.3434233629293
 20
133.9347288950927
 30
0.0
 10
131.1150943774375
 20
134.0000310883854
 30
0.0
 10
130.2529400052402
 20
134.2099462002635
 30
0.0
 10
129.1051109771336
 20
134.4052605644025
 30
0.0
 10
127.7575317977554
 20
134.5067538634232
 30
0.0
 10
126.403423074479
 20
134.4656350983683
 30
0.0
 10
125.1776330589624
 20
134.3084179652243
 30
0.0
 10
124.1912036623698
 20
134.1022243956808
 30
0.0
 10
123.5261567059096
 20
133.9227733240746
 30
0.0
 10
123.4554639434129
 20
133.9017149149477
 30
0.0
 10
123.421641783629
 20
133.8916397551558
 30
0.0
  0
SPLINE
  5
11C
330
1F
100
AcDbEntity
  8
0
  6
HIDDEN
 62
     7
370
     0
100
AcDbSpline
210
0.0
220
0.0
230
1.0
 70
     8
 71
     3
 72
    17
 73
    13
 74
     0
 42
0.00000001
 43
0.00000001
 12
1.0
 22
0.0
 32
0.0
 13
1.0
 23
0.0
 33
0.0
 40
0.0
 40
0.0
 40
0.0
 40
0.0
 40
0.0073596207503444
 40
0.1160642001897806
 40
0.22491358199131
 40
0.3375344193582969
 40
0.4522014860987212
 40
0.5636297188511957
 40
0.6715324960471063
 40
0.7811142669040608
 40
0.8948856908422181
 40
1.0
 40
1.0
 40
1.0
 40
1.0
 10
123.421641783629
 20
161.8837169269583
 30
0.0
 10
123.4170134099225
 20
161.8850265449766
 30
0.0
 10
123.3440220818841
 20
161.9056797515765
 30
0.0
 10
123.6132922063482
 20
161.8273961677476
 30
0.0
 10
124.2316209518066
 20
161.6644949435418
 30
0.0
 10
125.2571996278034
 20
161.4518493242746
 30
0.0
 10
126.5333521084667
 20
161.2980156982813
 30
0.0
 10
127.9065463021794
 20
161.2737838252659
 30
0.0
 10
129.2042131302561
 20
161.3849310732901
 30
0.0
 10
130.3090432142061
 20
161.5774699948252
 30
0.0
 10
131.133106369706
 20
161.7805640920101
 30
0.0
 10
131.3523586316626
 20
161.8432115226354
 30
0.0
 10
131.4576489569884
 20
161.8732963586709
 30
0.0
  0
LINE
  5
11D
330
1F
100
AcDbEntity
  8
0
  6
HIDDEN
 62
     7
370
     0
100
AcDbLine
 10
131.457648957
 20
161.8732963587
 30
0.0
 11
131.4855104031
 21
161.8801788325
 31
0.0
  0
SPLINE
  5
11E
330
1F
100
AcDbEntity
  8
0
  6
HIDDEN
 62
     7
370
     0
100
AcDbSpline
210
0.0
220
0.0
230
1.0
 70
     8
 71
     3
 72
     9
 73
     5
 74
     0
 42
0.00000001
 43
0.00000001
 12
1.0
 22
0.0
 32
0.0
 13
1.0
 23
0.0
 33
0.0
 40
0.0
 40
0.0
 40
0.0
 40
0.0
 40
0.0268272729770699
 40
1.0
 40
1.0
 40
1.0
 40
1.0
 10
131.5063077675443
 20
133.8905016789696
 30
0.0
 10
131.5067550022344
 20
133.8903954525943
 30
0.0
 10
131.5234258986942
 20
133.8864358113998
 30
0.0
 10
131.4900902759152
 20
133.8943542829199
 30
0.0
 10
131.4576489569884
 20
133.9020603234431
 30
0.0
  0
LINE
  5
11F
330
1F
100
AcDbEntity
  8
0
  6
HIDDEN
 62
     7
370
     0
100
AcDbLine
 10
131.9576490389
 20
147.8876783411
 30
0.0
 11
131.9576490389
 21
161.3876786912
 31
0.0
  0
LINE
  5
120
330
1F
100
AcDbEntity
  8
0
  6
HIDDEN
 62
     7
370
     0
100
AcDbLine
 10
131.9576490389
 20
134.3876779909
 30
0.0
 11
131.9576490389
 21
147.8876783411
 31
0.0
  0
LINE
  5
121
330
1F
100
AcDbEntity
  8
0
  6
HIDDEN
 62
     7
370
     0
100
AcDbLine
 10
133.2076487782
 20
147.8876783411
 30
0.0
 11
133.2076487782
 21
156.8876779536
 31
0.0
  0
LINE
  5
122
330
1F
100
AcDbEntity
  8
0
  6
HIDDEN
 62
     7
370
     0
100
AcDbLine
 10
133.2076487782
 20
138.8876787285
 30
0.0
 11
133.2076487782
 21
147.8876783411
 31
0.0
  0
ELLIPSE
  5
123
330
1F
100
AcDbEntity
  8
0
  6
HIDDEN
 62
     7
370
     0
100
AcDbEllipse
 10
220.3287901753
 20
138.5279715175
 30
0.0
 11
3.836318985757203
 21
-2.981814344700752
 31
0.0
210
0.0
220
0.0
230
1.0
 40
0.1973179358
 41
5.326638272409095
 42
6.60176211364756
  0
LINE
  5
124
330
1F
100
AcDbEntity
  8
0
  6
HIDDEN
 62
     7
370
     0
100
AcDbLine
 10
224.1563562023
 20
135.9332916225
 30
0.0
 11
224.5033744442
 21
138.7595073218
 31
0.0
  0
SPLINE
  5
125
330
1F
100
AcDbEntity
  8
0
  6
HIDDEN
 62
     7
370
     0
100
AcDbSpline
210
0.0
220
0.0
230
1.0
 70
     8
 71
     3
 72
    22
 73
    18
 74
     0
 42
0.00000001
 43
0.00000001
 12
1.0
 22
0.0
 32
0.0
 13
1.0
 23
0.0
 33
0.0
 40
0.0
 40
0.0
 40
0.0
 40
0.0
 40
0.1249999999999993
 40
0.1249999999999993
 40
0.2499999999999986
 40
0.2499999999999986
 40
0.4999999999999984
 40
0.4999999999999984
 40
0.6249999999999988
 40
0.6249999999999988
 40
0.7499999999999992
 40
0.7499999999999992
 40
0.8749999999999996
 40
0.8749999999999996
 40
0.9374999999999998
 40
0.9374999999999998
 40
1.0
 40
1.0
 40
1.0
 40
1.0
 10
224.5033745322982
 20
138.7595073608901
 30
0.0
 10
224.5375799349664
 20
139.0380880099278
 30
0.0
 10
224.5750369217425
 20
139.3159508703394
 30
0.0
 10
224.6540237020859
 20
139.8706976560281
 30
0.0
 10
224.6956628367148
 20
140.1483099289958
 30
0.0
 10
224.821294158118
 20
140.9701899466382
 30
0.0
 10
224.9066627829135
 20
141.5068031243996
 30
0.0
 10
225.0203860576298
 20
142.2967925516738
 30
0.0
 10
225.0558956647336
 20
142.5575582091146
 30
0.0
 10
225.1172901124848
 20
143.0729380745765
 30
0.0
 10
225.1432914452193
 20
143.3276821302704
 30
0.0
 10
225.1753605075353
 20
143.8171535575042
 30
0.0
 10
225.1821150867352
 20
144.0543110542047
 30
0.0
 10
225.158946250943
 20
144.3686906009409
 30
0.0
 10
225.1453948821479
 20
144.4679796003586
 30
0.0
 10
225.0987560062911
 20
144.6383471091114
 30
0.0
 10
225.0657626280855
 20
144.7086475579437
 30
0.0
 10
225.0184711270867
 20
144.7505303416733
 30
0.0
  0
LWPOLYLINE
  5
126
330
1F
100
AcDbEntity
  8
0
  6
HIDDEN
 62
     7
370
     0
100
AcDbPolyline
 90
       18
 70
   128
 43
0.0
 10
216.9824380147
 20
145.737231466
 10
217.0217845308
 20
145.7323997645
 10
217.2165427076
 20
145.7084868933
 10
217.5669286119
 20
145.6654644469
 10
218.0590916144
 20
145.6050344175
 10
218.673563348
 20
145.5295870444
 10
219.3860325681
 20
145.4421067508
 10
220.1683211791
 20
145.346053633
 10
220.9894869196
 20
145.245227254
 10
221.8170452582
 20
145.143616003
 10
222.6182657944
 20
145.0452387697
 10
223.3614463078
 20
144.9539870853
 10
224.0172017085
 20
144.8734705234
 10
224.5595890748
 20
144.8068739744
 10
224.9671507346
 20
144.7568314514
 10
225.2237710821
 20
144.7253224804
 10
225.3192949759
 20
144.7135934039
 10
225.3198239671
 20
144.7135291426
  0
SPLINE
  5
127
330
1F
100
AcDbEntity
  8
0
  6
HIDDEN
 62
     7
370
     0
100
AcDbSpline
210
0.0
220
0.0
230
1.0
 70
     8
 71
     3
 72
    22
 73
    18
 74
     0
 42
0.00000001
 43
0.00000001
 12
1.0
 22
0.0
 32
0.0
 13
1.0
 23
0.0
 33
0.0
 40
0.0
 40
0.0
 40
0.0
 40
0.0
 40
0.0624999999999999
 40
0.0624999999999999
 40
0.1249999999999998
 40
0.1249999999999998
 40
0.1874999999999997
 40
0.1874999999999997
 40
0.2499999999999996
 40
0.2499999999999996
 40
0.3749999999999996
 40
0.3749999999999996
 40
0.4999999999999997
 40
0.4999999999999997
 40
0.7499999999999998
 40
0.7499999999999998
 40
1.0
 40
1.0
 40
1.0
 40
1.0
 10
224.8291050102872
 20
144.7737815771744
 30
0.0
 10
224.7592551522598
 20
144.7460998274392
 30
0.0
 10
224.6865816032646
 20
144.6897354604554
 30
0.0
 10
224.5380718187483
 20
144.5419888800856
 30
0.0
 10
224.4655040276187
 20
144.453757588722
 30
0.0
 10
224.3231245278979
 20
144.2613074393113
 30
0.0
 10
224.252869625774
 20
144.156071797895
 30
0.0
 10
224.1175366625897
 20
143.9391450847385
 30
0.0
 10
224.0520717222051
 20
143.8269223778069
 30
0.0
 10
223.8607463905504
 20
143.4822065464792
 30
0.0
 10
223.7398739755421
 20
143.2418082126978
 30
0.0
 10
223.5086246568416
 20
142.7470285905792
 30
0.0
 10
223.3983187527309
 20
142.4922903749998
 30
0.0
 10
223.0879199344103
 20
141.7231472996203
 30
0.0
 10
222.9052839165802
 20
141.1994267336065
 30
0.0
 10
222.5996630407531
 20
140.1291010375021
 30
0.0
 10
222.475335626816
 20
139.5814457983331
 30
0.0
 10
222.4060338857753
 20
139.0170284112372
 30
0.0
  0
LINE
  5
128
330
1F
100
AcDbEntity
  8
0
  6
HIDDEN
 62
     7
370
     0
100
AcDbLine
 10
222.4060360061
 20
139.0170282582
 30
0.0
 11
222.0590177642
 21
136.1908125589
 31
0.0
  0
LWPOLYLINE
  5
129
330
1F
100
AcDbEntity
  8
0
  6
HIDDEN
 62
     7
370
     0
100
AcDbPolyline
 90
       15
 70
   128
 43
0.0
 10
217.7284721004
 20
146.0693903398
 10
217.8155768382
 20
146.0586959627
 10
218.0725026595
 20
146.0271492731
 10
218.4863749611
 20
145.9763321225
 10
219.0364364254
 20
145.9087927258
 10
219.6951124536
 20
145.8279176048
 10
220.4293671714
 20
145.7377623199
 10
221.2023872601
 20
145.642847511
 10
221.9754073488
 20
145.547932935
 10
222.7096620666
 20
145.4577776501
 10
223.3683380949
 20
145.3769025291
 10
223.9183995592
 20
145.309363016
 10
224.3322718608
 20
145.2585458654
 10
224.5891976821
 20
145.2269991758
 10
224.6762949692
 20
145.2163050315
  0
LINE
  5
12A
330
1F
100
AcDbEntity
  8
0
  6
HIDDEN
 62
     7
370
     0
100
AcDbLine
 10
169.9576496797
 20
156.8876779536
 30
0.0
 11
169.9576496797
 21
138.8876787285
 31
0.0
  0
LINE
  5
12B
330
1F
100
AcDbEntity
  8
0
  6
HIDDEN
 62
     7
370
     0
100
AcDbLine
 10
172.8117361384
 20
152.137678572
 30
0.0
 11
172.8117361384
 21
143.6376781101
 31
0.0
  0
LINE
  5
12C
330
1F
100
AcDbEntity
  8
0
  6
HIDDEN
 62
     7
370
     0
100
AcDbLine
 10
228.5238790976
 20
144.6223731516
 30
0.0
 11
232.1460757124
 21
144.1776237814
 31
0.0
  0
LINE
  5
12D
330
1F
100
AcDbEntity
  8
0
  6
HIDDEN
 62
     7
370
     0
100
AcDbLine
 10
228.6743137704
 20
141.6418235647
 30
0.0
 11
232.1738067733
 21
141.2121392685
 31
0.0
  0
LWPOLYLINE
  5
12E
330
1F
100
AcDbEntity
  8
0
  6
HIDDEN
 62
     7
370
     0
100
AcDbPolyline
 90
        4
 70
   128
 43
0.0
 10
225.0740814673
 20
145.0459551896
 10
225.1377839314
 20
145.0381334769
 10
225.2118799554
 20
145.0290353867
 10
225.2960789668
 20
145.0186974733
  0
ELLIPSE
  5
12F
330
1F
100
AcDbEntity
  8
0
  6
HIDDEN
 62
     7
370
     0
100
AcDbEllipse
 10
226.7542915034
 20
143.3435135165
 30
0.0
 11
1.517954615992466
 21
4.913260734810536
 31
0.0
210
0.0
220
0.0
230
1.0
 40
0.3769781733
 41
1.341246676997779
 42
1.929198895064457
  0
LWPOLYLINE
  5
130
330
1F
100
AcDbEntity
  8
0
  6
HIDDEN
 62
     7
370
     0
100
AcDbPolyline
 90
        4
 70
   128
 43
0.0
 10
224.7104335295
 20
142.1285266886
 10
224.6351230609
 20
142.1377733248
 10
224.5607364642
 20
142.1469072709
 10
224.4873258936
 20
142.1559210765
  0
ELLIPSE
  5
131
330
1F
100
AcDbEntity
  8
0
  6
HIDDEN
 62
     7
370
     0
100
AcDbEllipse
 10
226.1504215819
 20
142.5281422021
 30
0.0
 11
1.517954615992494
 21
4.913260734810535
 31
0.0
210
0.0
220
0.0
230
1.0
 40
0.3769781733
 41
5.265505762188874
 42
7.435890454151048
  0
LINE
  5
132
330
1F
100
AcDbEntity
  8
0
  6
HIDDEN
 62
     7
370
     0
100
AcDbLine
 10
227.2924098837
 20
133.1504476155
 30
0.0
 11
224.1563562023
 21
135.9332916225
 31
0.0
  0
LINE
  5
133
330
1F
100
AcDbEntity
  8
0
  6
HIDDEN
 62
     7
370
     0
100
AcDbLine
 10
228.6743137704
 20
141.6418235647
 30
0.0
 11
229.0326047408
 21
144.5599093466
 31
0.0
  0
SPLINE
  5
134
330
1F
100
AcDbEntity
  8
0
  6
HIDDEN
 62
     7
370
     0
100
AcDbSpline
210
0.0
220
0.0
230
1.0
 70
     8
 71
     3
 72
    10
 73
     6
 74
     0
 42
0.00000001
 43
0.00000001
 12
1.0
 22
0.0
 32
0.0
 13
1.0
 23
0.0
 33
0.0
 40
0.0
 40
0.0
 40
0.0
 40
0.0
 40
0.5
 40
0.5
 40
1.0
 40
1.0
 40
1.0
 40
1.0
 10
228.64523013952
 20
136.00333936705
 30
0.0
 10
228.7403091307129
 20
136.4520314190212
 30
0.0
 10
228.836863224171
 20
136.9044199004063
 30
0.0
 10
229.0156879369606
 20
137.8216906216826
 30
0.0
 10
229.0988084943593
 20
138.2883895214133
 30
0.0
 10
229.1562966509892
 20
138.7565929845129
 30
0.0
  0
SPLINE
  5
135
330
1F
100
AcDbEntity
  8
0
  6
HIDDEN
 62
     7
370
     0
100
AcDbSpline
210
0.0
220
0.0
230
1.0
 70
     8
 71
     3
 72
    10
 73
     6
 74
     0
 42
0.00000001
 43
0.00000001
 12
1.0
 22
0.0
 32
0.0
 13
1.0
 23
0.0
 33
0.0
 40
0.0
 40
0.0
 40
0.0
 40
0.0
 40
0.5
 40
0.5
 40
1.0
 40
1.0
 40
1.0
 40
1.0
 10
231.2536372975094
 20
138.4990719341658
 30
0.0
 10
231.1960466367508
 20
138.0300336419319
 30
0.0
 10
231.0847537310596
 20
137.5717227680313
 30
0.0
 10
230.8165156526838
 20
136.6643941911599
 30
0.0
 10
230.6581022712992
 20
136.2171341152072
 30
0.0
 10
230.4854948895698
 20
135.77738326777
 30
0.0
  0
LWPOLYLINE
  5
136
330
1F
100
AcDbEntity
  8
0
  6
HIDDEN
 62
     7
370
     0
100
AcDbPolyline
 90
       13
 70
   128
 43
0.0
 10
227.2924098837
 20
133.1504476155
 10
227.7084950077
 20
132.7538997764
 10
228.0247647034
 20
132.3931510458
 10
228.2196569907
 20
132.092786477
 10
228.2798949348
 20
131.8732737462
 10
228.2013732659
 20
131.7495736192
 10
227.9894415008
 20
131.7301145653
 10
227.6585463153
 20
131.8162246505
 10
227.2312257158
 20
132.00203468
 10
226.7366189229
 20
132.2748814608
 10
226.208417462
 20
132.6161711375
 10
225.6826225387
 20
133.0026457916
 10
225.195063995
 20
133.4079685519
  0
LINE
  5
137
330
1F
100
AcDbEntity
  8
0
  6
HIDDEN
 62
     7
370
     0
100
AcDbLine
 10
131.5076488721
 20
127.8899232755
 30
0.0
 11
123.4076495933
 21
127.8899232755
 31
0.0
  0
LINE
  5
138
330
1F
100
AcDbEntity
  8
0
  6
HIDDEN
 62
     7
370
     0
100
AcDbLine
 10
183.9576501118
 20
152.137678572
 30
0.0
 11
183.9576501118
 21
143.6376781101
 31
0.0
  0
SPLINE
  5
139
330
1F
100
AcDbEntity
  8
0
  6
HIDDEN
 62
     7
370
     0
100
AcDbSpline
210
0.0
220
0.0
230
1.0
 70
     8
 71
     3
 72
    18
 73
    14
 74
     0
 42
0.00000001
 43
0.00000001
 12
1.0
 22
0.0
 32
0.0
 13
1.0
 23
0.0
 33
0.0
 40
0.0
 40
0.0
 40
0.0
 40
0.0
 40
0.0957078458173952
 40
0.1911360560631107
 40
0.2937712075777651
 40
0.4082276607753093
 40
0.4959302229118206
 40
0.5837549264803121
 40
0.6709355465844611
 40
0.7728858768506977
 40
0.8877908232752122
 40
0.9949493382763698
 40
1.0
 40
1.0
 40
1.0
 40
1.0
 10
177.4576481150728
 20
152.137678572025
 30
0.0
 10
177.4810165710576
 20
152.12371748652
 30
0.0
 10
177.5276852059545
 20
152.0958361064827
 30
0.0
 10
177.8863741298468
 20
151.8946897279964
 30
0.0
 10
178.438541275353
 20
151.629590189656
 30
0.0
 10
179.1491212938001
 20
151.390632555196
 30
0.0
 10
179.924089109952
 20
151.2992865874425
 30
0.0
 10
180.631823007546
 20
151.3690648559034
 30
0.0
 10
181.2959876237287
 20
151.5602167590383
 30
0.0
 10
181.9005838989908
 20
151.8265212993733
 30
0.0
 10
182.3177702071356
 20
152.0544406364843
 30
0.0
 10
182.4956064219641
 20
152.1597302926281
 30
0.0
 10
182.4538243124634
 20
152.1354565820969
 30
0.0
 10
182.4519436525446
 20
152.134363994982
 30
0.0
  0
LINE
  5
13A
330
1F
100
AcDbEntity
  8
0
  6
HIDDEN
 62
     7
370
     0
100
AcDbLine
 10
111.4076476263
 20
128.2814158956
 30
0.0
 11
111.4076476263
 21
129.8876791159
 31
0.0
  0
LINE
  5
13B
330
1F
100
AcDbEntity
  8
0
  6
HIDDEN
 62
     7
370
     0
100
AcDbLine
 10
131.5076488721
 20
165.3876784156
 30
0.0
 11
123.4076495933
 21
165.3876784156
 31
0.0
  0
LWPOLYLINE
  5
13C
330
1F
100
AcDbEntity
  8
0
  6
HIDDEN
 62
     7
370
     0
100
AcDbPolyline
 90
       10
 70
   128
 43
0.0
 10
230.4854977595
 20
135.7773835669
 10
231.1805326211
 20
135.6920436854
 10
231.900288509
 20
135.6036686237
 10
232.607750939
 20
135.5168032358
 10
233.2665312754
 20
135.4359150762
 10
233.8427517282
 20
135.3651643629
 10
234.3067738878
 20
135.3081888417
 10
234.6347409951
 20
135.2679203162
 10
234.809777485
 20
135.2464281852
 10
234.8373446333
 20
135.243043759
  0
LINE
  5
13D
330
1F
100
AcDbEntity
  8
0
  6
HIDDEN
 62
     7
370
     0
100
AcDbLine
 10
229.4981393682
 20
141.5406702916
 30
0.0
 11
229.1562992798
 21
138.7565932135
 31
0.0
  0
LINE
  5
13E
330
1F
100
AcDbEntity
  8
0
  6
HIDDEN
 62
     7
370
     0
100
AcDbLine
 10
231.2536377179
 20
138.499072277
 30
0.0
 11
231.5954778062
 21
141.2831493551
 31
0.0
  0
LINE
  5
13F
330
1F
100
AcDbEntity
  8
0
  6
HIDDEN
 62
     7
370
     0
100
AcDbLine
 10
177.4576481151
 20
172.0872479389
 30
0.0
 11
182.4576507973
 21
172.0872479389
 31
0.0
  0
LWPOLYLINE
  5
140
330
1F
100
AcDbEntity
  8
0
  6
HIDDEN
 62
     7
370
     0
100
AcDbPolyline
 90
        9
 70
   128
 43
0.0
 10
180.2908990251
 20
168.5997391949
 10
180.728233205
 20
168.9174803803
 10
181.1407644021
 20
169.2172041992
 10
181.5152231323
 20
169.4892621497
 10
181.8395543563
 20
169.7249016623
 10
182.1033198105
 20
169.9165380458
 10
182.2980295586
 20
170.0580040822
 10
182.4174213873
 20
170.1447474668
 10
182.4576507973
 20
170.1739760945
  0
LWPOLYLINE
  5
141
330
1F
100
AcDbEntity
  8
0
  6
HIDDEN
 62
     7
370
     0
100
AcDbPolyline
 90
       10
 70
   128
 43
0.0
 10
182.4576507973
 20
164.9166638861
 10
182.447920339
 20
164.9300563047
 10
182.3705311584
 20
165.0365735302
 10
182.2181556093
 20
165.2462980608
 10
181.9955359863
 20
165.5527106384
 10
181.709582703
 20
165.9462912838
 10
181.369184302
 20
166.4148061434
 10
180.984924333
 20
166.9436986456
 10
180.5687349009
 20
167.5165290842
 10
180.1335613894
 20
168.1154998849
  0
LWPOLYLINE
  5
142
330
1F
100
AcDbEntity
  8
0
  6
HIDDEN
 62
     7
370
     0
100
AcDbPolyline
 90
        9
 70
   128
 43
0.0
 10
180.2908990251
 20
168.5997391949
 10
180.2713300752
 20
168.5395180146
 10
180.2517089712
 20
168.4791310588
 10
180.232046889
 20
168.4186155806
 10
180.2123550045
 20
168.3580106954
 10
180.1926482188
 20
168.2973573814
 10
180.1729377078
 20
168.2366947541
 10
180.1532383727
 20
168.1760619293
 10
180.1335613894
 20
168.1154998849
  0
SPLINE
  5
143
330
1F
100
AcDbEntity
  8
0
  6
HIDDEN
 62
     7
370
     0
100
AcDbSpline
210
0.0
220
0.0
230
1.0
 70
     8
 71
     3
 72
     8
 73
     4
 74
     0
 42
0.00000001
 43
0.00000001
 12
1.0
 22
0.0
 32
0.0
 13
1.0
 23
0.0
 33
0.0
 40
0.0
 40
0.0
 40
0.0
 40
0.0
 40
1.0
 40
1.0
 40
1.0
 40
1.0
 10
180.1335595484994
 20
168.1154990767188
 30
0.0
 10
180.1771755562191
 20
168.278795212579
 30
0.0
 10
180.2304577486855
 20
168.4418234748584
 30
0.0
 10
180.2908987447402
 20
168.5997393307416
 30
0.0
  0
LINE
  5
144
330
1F
100
AcDbEntity
  8
0
  6
HIDDEN
 62
     7
370
     0
100
AcDbLine
 10
154.9576490836
 20
116.8876788477
 30
0.0
 11
156.9576494115
 21
116.8876788477
 31
0.0
  0
LINE
  5
145
330
1F
100
AcDbEntity
  8
0
  6
HIDDEN
 62
     7
370
     0
100
AcDbLine
 10
152.9576487558
 20
116.8876788477
 30
0.0
 11
154.9576490836
 21
116.8876788477
 31
0.0
  0
LINE
  5
146
330
1F
100
AcDbEntity
  8
0
  6
HIDDEN
 62
     7
370
     0
100
AcDbLine
 10
222.5935224163
 20
145.3505291036
 30
0.0
 11
225.0740814673
 21
145.0459551896
 31
0.0
  0
LINE
  5
147
330
1F
100
AcDbEntity
  8
0
  6
HIDDEN
 62
     7
370
     0
100
AcDbLine
 10
222.0590177642
 20
136.1908125589
 30
0.0
 11
225.195063995
 21
133.4079685519
 31
0.0
  0
LINE
  5
148
330
1F
100
AcDbEntity
  8
0
  6
HIDDEN
 62
     7
370
     0
100
AcDbLine
 10
224.7773918974
 20
142.1203049729
 30
0.0
 11
224.7104335295
 21
142.1285266886
 31
0.0
  0
LINE
  5
149
330
1F
100
AcDbEntity
  8
0
  6
HIDDEN
 62
     7
370
     0
100
AcDbLine
 10
222.5542280542
 20
142.3932751539
 30
0.0
 11
224.4873258936
 21
142.1559210765
 31
0.0
  0
LWPOLYLINE
  5
14A
330
1F
100
AcDbEntity
  8
0
  6
HIDDEN
 62
     7
370
     0
100
AcDbPolyline
 90
        5
 70
   128
 43
0.0
 10
221.7603314387
 20
145.4528323273
 10
221.7606294619
 20
145.4527962385
 10
221.8655261861
 20
145.439916513
 10
222.1508610713
 20
145.4048813219
 10
222.5935224163
 20
145.3505291036
  0
LINE
  5
14B
330
1F
100
AcDbEntity
  8
0
  6
HIDDEN
 62
     7
370
     0
100
AcDbLine
 10
225.2960789668
 20
145.0186974733
 30
0.0
 11
225.592105435
 21
144.9823493502
 31
0.0
  0
LWPOLYLINE
  5
14C
330
1F
100
AcDbEntity
  8
0
  6
HIDDEN
 62
     7
370
     0
100
AcDbPolyline
 90
        5
 70
   128
 43
0.0
 10
222.5542280542
 20
142.3932751539
 10
222.1586543786
 20
142.4418454888
 10
221.9036731588
 20
142.4731532941
 10
221.8099374043
 20
142.4846630442
 10
221.809676634
 20
142.4846951748
  0
LINE
  5
14D
330
1F
100
AcDbEntity
  8
0
  6
HIDDEN
 62
     7
370
     0
100
AcDbLine
 10
226.5872124302
 20
144.860165882
 30
0.0
 11
227.1599981653
 21
149.5251329514
 31
0.0
  0
LINE
  5
14E
330
1F
100
AcDbEntity
  8
0
  6
HIDDEN
 62
     7
370
     0
100
AcDbLine
 10
226.5872124302
 20
144.860165882
 30
0.0
 11
226.973241912
 21
144.8127671509
 31
0.0
  0
LINE
  5
14F
330
1F
100
AcDbEntity
  8
0
  6
HIDDEN
 62
     7
370
     0
100
AcDbLine
 10
226.6149509417
 20
141.894681369
 30
0.0
 11
226.973241912
 21
144.8127671509
 31
0.0
  0
LINE
  5
150
330
1F
100
AcDbEntity
  8
0
  6
HIDDEN
 62
     7
370
     0
100
AcDbLine
 10
226.973241912
 20
144.8127671509
 30
0.0
 11
228.5238790976
 21
144.6223731516
 31
0.0
  0
LINE
  5
151
330
1F
100
AcDbEntity
  8
0
  6
HIDDEN
 62
     7
370
     0
100
AcDbLine
 10
225.0547025072
 20
144.1953801448
 30
0.0
 11
225.6697255837
 21
149.2043606602
 31
0.0
  0
LINE
  5
152
330
1F
100
AcDbEntity
  8
0
  6
HIDDEN
 62
     7
370
     0
100
AcDbLine
 10
217.7293587195
 20
150.1793153482
 30
0.0
 11
217.1143281924
 21
145.1703347164
 31
0.0
  0
LINE
  5
153
330
1F
100
AcDbEntity
  8
0
  6
HIDDEN
 62
     7
370
     0
100
AcDbLine
 10
225.6697255837
 20
149.2043606602
 30
0.0
 11
225.2343881594
 21
149.7615683955
 31
0.0
  0
LINE
  5
154
330
1F
100
AcDbEntity
  8
0
  6
HIDDEN
 62
     7
370
     0
100
AcDbLine
 10
218.2865652906
 20
150.6146537038
 30
0.0
 11
217.7293587195
 21
150.1793153482
 31
0.0
  0
LINE
  5
155
330
1F
100
AcDbEntity
  8
0
  6
HIDDEN
 62
     7
370
     0
100
AcDbLine
 10
217.1143281924
 20
145.1703347164
 30
0.0
 11
217.6732409464
 21
144.3096937044
 31
0.0
  0
LINE
  5
156
330
1F
100
AcDbEntity
  8
0
  6
HIDDEN
 62
     7
370
     0
100
AcDbLine
 10
224.3041831719
 20
143.4955154444
 30
0.0
 11
225.0547025072
 21
144.1953801448
 31
0.0
  0
LINE
  5
157
330
1F
100
AcDbEntity
  8
0
  6
HIDDEN
 62
     7
370
     0
100
AcDbLine
 10
215.804702388
 20
134.0939742411
 30
0.0
 11
216.3271072971
 21
133.4253246794
 31
0.0
  0
LINE
  5
158
330
1F
100
AcDbEntity
  8
0
  6
HIDDEN
 62
     7
370
     0
100
AcDbLine
 10
222.9771677124
 20
132.6088006506
 30
0.0
 11
223.6458126175
 21
133.1312064911
 31
0.0
  0
LINE
  5
159
330
1F
100
AcDbEntity
  8
0
  6
HIDDEN
 62
     7
370
     0
100
AcDbLine
 10
223.6458126175
 20
133.1312064911
 30
0.0
 11
223.8655376898
 21
134.920727917
 31
0.0
  0
LINE
  5
15A
330
1F
100
AcDbEntity
  8
0
  6
HIDDEN
 62
     7
370
     0
100
AcDbLine
 10
216.0244274603
 20
135.8834956671
 30
0.0
 11
215.804702388
 21
134.0939742411
 31
0.0
  0
LINE
  5
15B
330
1F
100
AcDbEntity
  8
0
  6
HIDDEN
 62
     7
370
     0
100
AcDbLine
 10
223.8655376898
 20
134.920727917
 30
0.0
 11
221.8597892391
 21
136.4321703921
 31
0.0
  0
LINE
  5
15C
330
1F
100
AcDbEntity
  8
0
  6
HIDDEN
 62
     7
370
     0
100
AcDbLine
 10
218.336245762
 20
136.8648060496
 30
0.0
 11
216.0244274603
 21
135.8834956671
 31
0.0
  0
LINE
  5
15D
330
1F
100
AcDbEntity
  8
0
  6
HIDDEN
 62
     7
370
     0
100
AcDbLine
 10
224.4741681682
 20
139.8775824244
 30
0.0
 11
224.7060749399
 21
141.7663581567
 31
0.0
  0
LINE
  5
15E
330
1F
100
AcDbEntity
  8
0
  6
HIDDEN
 62
     7
370
     0
100
AcDbLine
 10
216.8649647104
 20
142.7291259068
 30
0.0
 11
216.6330504881
 21
140.8403501744
 31
0.0
  0
LINE
  5
15F
330
1F
100
AcDbEntity
  8
0
  6
HIDDEN
 62
     7
370
     0
100
AcDbLine
 10
216.6330504881
 20
140.8403501744
 30
0.0
 11
218.6388063895
 21
139.3289076994
 31
0.0
  0
LINE
  5
160
330
1F
100
AcDbEntity
  8
0
  6
HIDDEN
 62
     7
370
     0
100
AcDbLine
 10
222.162342416
 20
138.8962711106
 30
0.0
 11
224.4741681682
 21
139.8775824244
 31
0.0
  0
ARC
  5
161
330
1F
100
AcDbEntity
  8
0
  6
HIDDEN
 62
     7
370
     0
100
AcDbCircle
 10
224.6303175238
 20
142.3801660303
 30
0.0
 40
0.600000000000002
100
AcDbArc
 50
173.0
 51
263.0
  0
ARC
  5
162
330
1F
100
AcDbEntity
  8
0
  6
HIDDEN
 62
     7
370
     0
100
AcDbCircle
 10
217.0869667713
 20
143.3063730402
 30
0.0
 40
0.6000000000000303
100
AcDbArc
 50
263.0
 51
353.0
  0
ARC
  5
163
330
1F
100
AcDbEntity
  8
0
  6
HIDDEN
 62
     7
370
     0
100
AcDbCircle
 10
224.7133858448
 20
143.0567032136
 30
0.0
 40
0.6000000000000307
100
AcDbArc
 50
133.0
 51
173.0
  0
ARC
  5
164
330
1F
100
AcDbEntity
  8
0
  6
HIDDEN
 62
     7
370
     0
100
AcDbCircle
 10
217.1700350923
 20
143.9829102235
 30
0.0
 40
0.6000000000000214
100
AcDbArc
 50
353.0
 51
33.0
  0
LINE
  5
165
330
1F
100
AcDbEntity
  8
0
  6
HIDDEN
 62
     7
370
     0
100
AcDbLine
 10
224.0347925293
 20
142.4532877179
 30
0.0
 11
224.1178590523
 21
143.1298246505
 31
0.0
  0
LINE
  5
166
330
1F
100
AcDbEntity
  8
0
  6
HIDDEN
 62
     7
370
     0
100
AcDbLine
 10
217.7655610906
 20
143.9097886803
 30
0.0
 11
217.6824945675
 21
143.2332512821
 31
0.0
  0
LINE
  5
167
330
1F
100
AcDbEntity
  8
0
  6
HIDDEN
 62
     7
370
     0
100
AcDbLine
 10
219.775385009
 20
150.4318497507
 30
0.0
 11
220.0086775886
 21
150.1332430533
 31
0.0
  0
LINE
  5
168
330
1F
100
AcDbEntity
  8
0
  6
HIDDEN
 62
     7
370
     0
100
AcDbLine
 10
223.4469640719
 20
149.7110752287
 30
0.0
 11
223.7455684411
 21
149.944372465
 31
0.0
  0
LINE
  5
169
330
1F
100
AcDbEntity
  8
0
  6
HIDDEN
 62
     7
370
     0
100
AcDbLine
 10
221.8597892391
 20
136.4321703921
 30
0.0
 11
222.162342416
 21
138.8962711106
 31
0.0
  0
LINE
  5
16A
330
1F
100
AcDbEntity
  8
0
  6
HIDDEN
 62
     7
370
     0
100
AcDbLine
 10
218.6388063895
 20
139.3289076994
 30
0.0
 11
218.336245762
 21
136.8648060496
 31
0.0
  0
LINE
  5
16B
330
1F
100
AcDbEntity
  8
0
  6
HIDDEN
 62
     7
370
     0
100
AcDbLine
 10
219.7841766941
 20
146.4007304647
 30
0.0
 11
221.1631599533
 21
145.3233535765
 31
0.0
  0
LINE
  5
16C
330
1F
100
AcDbEntity
  8
0
  6
HIDDEN
 62
     7
370
     0
100
AcDbLine
 10
221.1631599533
 20
145.3233535765
 30
0.0
 11
222.7618161308
 21
146.0351224421
 31
0.0
  0
LINE
  5
16D
330
1F
100
AcDbEntity
  8
0
  6
HIDDEN
 62
     7
370
     0
100
AcDbLine
 10
224.0496638881
 20
136.5676033209
 30
0.0
 11
222.6621273624
 21
137.6131879995
 31
0.0
  0
LINE
  5
16E
330
1F
100
AcDbEntity
  8
0
  6
HIDDEN
 62
     7
370
     0
100
AcDbLine
 10
222.9135025012
 20
139.6604287336
 30
0.0
 11
225.5024004447
 21
140.7593530501
 31
0.0
  0
SPLINE
  5
16F
330
1F
100
AcDbEntity
  8
0
  6
HIDDEN
 62
     7
370
     0
100
AcDbSpline
210
0.0
220
0.0
230
1.0
 70
     8
 71
     3
 72
    16
 73
    12
 74
     0
 42
0.00000001
 43
0.00000001
 12
1.0
 22
0.0
 32
0.0
 13
1.0
 23
0.0
 33
0.0
 40
0.0
 40
0.0
 40
0.0
 40
0.0
 40
0.0030592085729219
 40
0.1743574891545893
 40
0.3296147721274842
 40
0.4720294382902855
 40
0.6032453900086051
 40
0.7235173900165726
 40
0.831976467827867
 40
0.9258569432726466
 40
1.0
 40
1.0
 40
1.0
 40
1.0
 10
229.9808475839239
 20
143.3441657471022
 30
0.0
 10
229.9809661795612
 20
143.3403495806755
 30
0.0
 10
229.9877254563629
 20
143.1228497991186
 30
0.0
 10
229.8745497264167
 20
142.715865767294
 30
0.0
 10
229.6490649728794
 20
142.1763538537245
 30
0.0
 10
229.3362633210445
 20
141.7364345676886
 30
0.0
 10
228.9841166823244
 20
141.3918070244898
 30
0.0
 10
228.6138754386404
 20
141.1358516731396
 30
0.0
 10
228.2554606346586
 20
140.9618607014787
 30
0.0
 10
227.9315831731787
 20
140.8545384734685
 30
0.0
 10
227.7531776016752
 20
140.8202079791905
 30
0.0
 10
227.6744533049207
 20
140.8050591024122
 30
0.0
  0
LINE
  5
170
330
1F
100
AcDbEntity
  8
0
  6
HIDDEN
 62
     7
370
     0
100
AcDbLine
 10
230.3819421398
 20
148.6862241771
 30
0.0
 11
229.9824345576
 21
143.3488377268
 31
0.0
  0
LINE
  5
171
330
1F
100
AcDbEntity
  8
0
  6
HIDDEN
 62
     7
370
     0
100
AcDbLine
 10
234.5395821797
 20
135.2796046893
 30
0.0
 11
234.6980113255
 21
136.5699139322
 31
0.0
  0
LINE
  5
172
330
1F
100
AcDbEntity
  8
0
  6
HIDDEN
 62
     7
370
     0
100
AcDbLine
 10
233.9940879213
 20
136.6563453237
 30
0.0
 11
234.8534304368
 21
148.1371938615
 31
0.0
  0
LINE
  5
173
330
1F
100
AcDbEntity
  8
0
  6
HIDDEN
 62
     7
370
     0
100
AcDbLine
 10
235.9172988402
 20
143.4889188866
 30
0.0
 11
236.2536180483
 21
143.9352328787
 31
0.0
  0
LINE
  5
174
330
1F
100
AcDbEntity
  8
0
  6
HIDDEN
 62
     7
370
     0
100
AcDbLine
 10
236.2536180483
 20
143.9352328787
 30
0.0
 11
235.9341669547
 21
144.1759590423
 31
0.0
  0
ARC
  5
175
330
1F
100
AcDbEntity
  8
0
  6
HIDDEN
 62
     7
370
     0
100
AcDbCircle
 10
236.3166166827
 20
143.1880113855
 30
0.0
 40
0.4999999999999917
100
AcDbArc
 50
143.0
 51
173.0
  0
LINE
  5
176
330
1F
100
AcDbEntity
  8
0
  6
HIDDEN
 62
     7
370
     0
100
AcDbLine
 10
235.5978477465
 20
143.7296448173
 30
0.0
 11
235.9341669547
 21
144.1759590423
 31
0.0
  0
LINE
  5
177
330
1F
100
AcDbEntity
  8
0
  6
HIDDEN
 62
     7
370
     0
100
AcDbLine
 10
235.2029520737
 20
138.2206822644
 30
0.0
 11
235.8203444349
 21
143.2489459301
 31
0.0
  0
ARC
  5
178
330
1F
100
AcDbEntity
  8
0
  6
HIDDEN
 62
     7
370
     0
100
AcDbCircle
 10
236.3166166827
 20
143.1880113855
 30
0.0
 40
0.8999999999999829
100
AcDbArc
 50
143.0
 51
173.0
  0
LINE
  5
179
330
1F
100
AcDbEntity
  8
0
  6
HIDDEN
 62
     7
370
     0
100
AcDbLine
 10
234.8059329855
 20
138.2694295506
 30
0.0
 11
235.4233253466
 21
143.297693682
 31
0.0
  0
SPLINE
  5
17A
330
1F
100
AcDbEntity
  8
0
  6
HIDDEN
 62
     7
370
     0
100
AcDbSpline
210
0.0
220
0.0
230
1.0
 70
     8
 71
     3
 72
    10
 73
     6
 74
     0
 42
0.00000001
 43
0.00000001
 12
1.0
 22
0.0
 32
0.0
 13
1.0
 23
0.0
 33
0.0
 40
0.0
 40
0.0
 40
0.0
 40
0.0
 40
0.3259509093935148
 40
0.7625855723841176
 40
1.0
 40
1.0
 40
1.0
 40
1.0
 10
232.0487636791807
 20
148.7425822313427
 30
0.0
 10
232.1694734993954
 20
148.724024173412
 30
0.0
 10
232.4518827968939
 20
148.6806062634706
 30
0.0
 10
232.8812433364897
 20
148.5682747264198
 30
0.0
 10
233.1838431843053
 20
148.459332556435
 30
0.0
 10
233.2904252873998
 20
148.4209608068241
 30
0.0
  0
SPLINE
  5
17B
330
1F
100
AcDbEntity
  8
0
  6
HIDDEN
 62
     7
370
     0
100
AcDbSpline
210
0.0
220
0.0
230
1.0
 70
     8
 71
     3
 72
    10
 73
     6
 74
     0
 42
0.00000001
 43
0.00000001
 12
1.0
 22
0.0
 32
0.0
 13
1.0
 23
0.0
 33
0.0
 40
0.0
 40
0.0
 40
0.0
 40
0.0
 40
0.2160936595181956
 40
0.6599734110616565
 40
1.0
 40
1.0
 40
1.0
 40
1.0
 10
233.297853516255
 20
148.4190394883527
 30
0.0
 10
233.4008399414576
 20
148.4301938091452
 30
0.0
 10
233.7153716240882
 20
148.4642603114108
 30
0.0
 10
234.1596463662524
 20
148.4694847249081
 30
0.0
 10
234.4531317340744
 20
148.443277883267
 30
0.0
 10
234.5804337131124
 20
148.4319104245415
 30
0.0
  0
LINE
  5
17C
330
1F
100
AcDbEntity
  8
0
  6
HIDDEN
 62
     7
370
     0
100
AcDbLine
 10
226.8510449397
 20
149.3927382296
 30
0.0
 11
232.0399123894
 21
148.7556251712
 31
0.0
  0
LINE
  5
17D
330
1F
100
AcDbEntity
  8
0
  6
HIDDEN
 62
     7
370
     0
100
AcDbLine
 10
234.5919001567
 20
148.4422807596
 30
0.0
 11
239.7338438498
 21
147.8109292846
 31
0.0
  0
LINE
  5
17E
330
1F
100
AcDbEntity
  8
0
  6
HIDDEN
 62
     7
370
     0
100
AcDbLine
 10
230.8123025762
 20
149.3789395215
 30
0.0
 11
230.2322003709
 21
144.6544197286
 31
0.0
  0
LINE
  5
17F
330
1F
100
AcDbEntity
  8
0
  6
HIDDEN
 62
     7
370
     0
100
AcDbLine
 10
235.3537443744
 20
144.0255739624
 30
0.0
 11
235.9338391291
 21
148.7500936972
 31
0.0
  0
SPLINE
  5
180
330
1F
100
AcDbEntity
  8
0
  6
HIDDEN
 62
     7
370
     0
100
AcDbSpline
210
0.0
220
0.0
230
1.0
 70
     8
 71
     3
 72
    10
 73
     6
 74
     0
 42
0.00000001
 43
0.00000001
 12
1.0
 22
0.0
 32
0.0
 13
1.0
 23
0.0
 33
0.0
 40
0.0
 40
0.0
 40
0.0
 40
0.0
 40
0.2393488388168359
 40
0.7013942526390582
 40
1.0
 40
1.0
 40
1.0
 40
1.0
 10
226.1482987271887
 20
149.3345753886288
 30
0.0
 10
226.1824041353347
 20
149.3463930039406
 30
0.0
 10
226.282347537508
 20
149.3810236606029
 30
0.0
 10
226.5467416388918
 20
149.4092893564723
 30
0.0
 10
226.8144891680267
 20
149.380386694801
 30
0.0
 10
226.9195977317434
 20
149.3690404939017
 30
0.0
  0
SPLINE
  5
181
330
1F
100
AcDbEntity
  8
0
  6
HIDDEN
 62
     7
370
     0
100
AcDbSpline
210
0.0
220
0.0
230
1.0
 70
     8
 71
     3
 72
    11
 73
     7
 74
     0
 42
0.00000001
 43
0.00000001
 12
1.0
 22
0.0
 32
0.0
 13
1.0
 23
0.0
 33
0.0
 40
0.0
 40
0.0
 40
0.0
 40
0.0
 40
0.0543032681182133
 40
0.4248401511937982
 40
0.8114559487588223
 40
1.0
 40
1.0
 40
1.0
 40
1.0
 10
239.7185552584272
 20
147.8038699686195
 30
0.0
 10
239.740976058686
 20
147.8012881047549
 30
0.0
 10
239.9163845838428
 20
147.7810889625551
 30
0.0
 10
240.1758091235459
 20
147.7126483751406
 30
0.0
 10
240.4147514092412
 20
147.6151877407878
 30
0.0
 10
240.4790954857353
 20
147.5644600337707
 30
0.0
 10
240.5001882182699
 20
147.5478309046494
 30
0.0
  0
LINE
  5
182
330
1F
100
AcDbEntity
  8
0
  6
HIDDEN
 62
     7
370
     0
100
AcDbLine
 10
227.2385794388
 20
149.8177373913
 30
0.0
 11
226.0854456293
 21
149.3282614872
 31
0.0
  0
LINE
  5
183
330
1F
100
AcDbEntity
  8
0
  6
HIDDEN
 62
     7
370
     0
100
AcDbLine
 10
240.5080262291
 20
147.5573911928
 30
0.0
 11
239.5075622665
 21
148.3112957401
 31
0.0
  0
SPLINE
  5
184
330
1F
100
AcDbEntity
  8
0
  6
HIDDEN
 62
     7
370
     0
100
AcDbSpline
210
0.0
220
0.0
230
1.0
 70
     8
 71
     3
 72
     9
 73
     5
 74
     0
 42
0.00000001
 43
0.00000001
 12
1.0
 22
0.0
 32
0.0
 13
1.0
 23
0.0
 33
0.0
 40
0.0
 40
0.0
 40
0.0
 40
0.0
 40
0.903720875782563
 40
1.0
 40
1.0
 40
1.0
 40
1.0
 10
226.089327381764
 20
149.3166778134665
 30
0.0
 10
226.1195854122054
 20
149.3341257027901
 30
0.0
 10
226.1530670227914
 20
149.3534324265708
 30
0.0
 10
226.2324676126323
 20
149.3613911765234
 30
0.0
 10
226.2401122318846
 20
149.3621574379987
 30
0.0
  0
LINE
  5
185
330
1F
100
AcDbEntity
  8
0
  6
HIDDEN
 62
     7
370
     0
100
AcDbLine
 10
226.7002228366
 20
149.3879327216
 30
0.0
 11
226.9127208459
 21
149.3758129552
 31
0.0
  0
LINE
  5
186
330
1F
100
AcDbEntity
  8
0
  6
HIDDEN
 62
     7
370
     0
100
AcDbLine
 10
239.7168714272
 20
147.8030901679
 30
0.0
 11
239.9666968452
 21
147.7544141715
 31
0.0
  0
LINE
  5
187
330
1F
100
AcDbEntity
  8
0
  6
HIDDEN
 62
     7
370
     0
100
AcDbLine
 10
223.7519312369
 20
149.9435908525
 30
0.0
 11
223.2083964812
 21
145.5168351429
 31
0.0
  0
LINE
  5
188
330
1F
100
AcDbEntity
  8
0
  6
HIDDEN
 62
     7
370
     0
100
AcDbLine
 10
223.8083470332
 20
150.2389174318
 30
0.0
 11
224.1587701904
 21
149.9748492977
 31
0.0
  0
LINE
  5
189
330
1F
100
AcDbEntity
  8
0
  6
HIDDEN
 62
     7
370
     0
100
AcDbLine
 10
242.5338912474
 20
147.718668294
 30
0.0
 11
242.9377946722
 21
147.8901157282
 31
0.0
  0
LINE
  5
18A
330
1F
100
AcDbEntity
  8
0
  6
HIDDEN
 62
     7
370
     0
100
AcDbLine
 10
234.5449764001
 20
148.4480422703
 30
0.0
 11
234.5919001567
 21
148.4422807596
 31
0.0
  0
LINE
  5
18B
330
1F
100
AcDbEntity
  8
0
  6
HIDDEN
 62
     7
370
     0
100
AcDbLine
 10
228.7610236274
 20
144.8350581239
 30
0.0
 11
229.3861943947
 21
143.3622501689
 31
0.0
  0
LINE
  5
18C
330
1F
100
AcDbEntity
  8
0
  6
HIDDEN
 62
     7
370
     0
100
AcDbLine
 10
235.7384849059
 20
142.5822866047
 30
0.0
 11
236.7013904916
 21
143.8601035523
 31
0.0
  0
LINE
  5
18D
330
1F
100
AcDbEntity
  8
0
  6
HIDDEN
 62
     7
370
     0
100
AcDbLine
 10
236.1153352725
 20
140.7281802865
 30
0.0
 11
235.6464627849
 21
141.8327861364
 31
0.0
  0
LINE
  5
18E
330
1F
100
AcDbEntity
  8
0
  6
HIDDEN
 62
     7
370
     0
100
AcDbLine
 10
229.2941648232
 20
142.6127501661
 30
0.0
 11
228.5719874965
 21
141.6543875719
 31
0.0
  0
LINE
  5
18F
330
1F
100
AcDbEntity
  8
0
  6
HIDDEN
 62
     7
370
     0
100
AcDbLine
 10
229.3861943947
 20
143.3622501689
 30
0.0
 11
229.2941648232
 21
142.6127501661
 31
0.0
  0
LINE
  5
190
330
1F
100
AcDbEntity
  8
0
  6
HIDDEN
 62
     7
370
     0
100
AcDbLine
 10
235.6464627849
 20
141.8327861364
 30
0.0
 11
235.7384849059
 21
142.5822866047
 31
0.0
  0
LINE
  5
191
330
1F
100
AcDbEntity
  8
0
  6
HIDDEN
 62
     7
370
     0
100
AcDbLine
 10
223.9604208337
 20
142.5228691558
 30
0.0
 11
224.2216232883
 21
142.1885448406
 31
0.0
  0
LINE
  5
192
330
1F
100
AcDbEntity
  8
0
  6
HIDDEN
 62
     7
370
     0
100
AcDbLine
 10
224.3114102351
 20
145.3814022141
 30
0.0
 11
223.9604208337
 21
142.5228691558
 31
0.0
  0
LINE
  5
193
330
1F
100
AcDbEntity
  8
0
  6
HIDDEN
 62
     7
370
     0
100
AcDbLine
 10
176.9576508271
 20
177.2076780806
 30
0.0
 11
177.1576504873
 21
176.6974157552
 31
0.0
  0
LINE
  5
194
330
1F
100
AcDbEntity
  8
0
  6
HIDDEN
 62
     7
370
     0
100
AcDbLine
 10
182.757648425
 20
176.6974157552
 30
0.0
 11
182.9576480853
 21
177.2076780806
 31
0.0
  0
LINE
  5
195
330
1F
100
AcDbEntity
  8
0
  6
HIDDEN
 62
     7
370
     0
100
AcDbLine
 10
182.9576480853
 20
177.2076780806
 30
0.0
 11
182.757648425
 21
177.3874158869
 31
0.0
  0
LINE
  5
196
330
1F
100
AcDbEntity
  8
0
  6
HIDDEN
 62
     7
370
     0
100
AcDbLine
 10
177.1576504873
 20
177.3874158869
 30
0.0
 11
176.9576508271
 21
177.2076780806
 31
0.0
  0
LINE
  5
197
330
1F
100
AcDbEntity
  8
0
  6
HIDDEN
 62
     7
370
     0
100
AcDbLine
 10
182.9576480853
 20
178.4476782093
 30
0.0
 11
182.8176479506
 21
178.587678344
 31
0.0
  0
LINE
  5
198
330
1F
100
AcDbEntity
  8
0
  6
HIDDEN
 62
     7
370
     0
100
AcDbLine
 10
177.0976472365
 20
178.587678344
 30
0.0
 11
176.9576508271
 21
178.4476782093
 31
0.0
  0
LINE
  5
199
330
1F
100
AcDbEntity
  8
0
  6
HIDDEN
 62
     7
370
     0
100
AcDbLine
 10
176.9576508271
 20
175.8276778171
 30
0.0
 11
177.1576504873
 21
175.3174154917
 31
0.0
  0
LINE
  5
19A
330
1F
100
AcDbEntity
  8
0
  6
HIDDEN
 62
     7
370
     0
100
AcDbLine
 10
182.757648425
 20
175.3174154917
 30
0.0
 11
182.9576480853
 21
175.8276778171
 31
0.0
  0
LINE
  5
19B
330
1F
100
AcDbEntity
  8
0
  6
HIDDEN
 62
     7
370
     0
100
AcDbLine
 10
182.9576480853
 20
177.8976782123
 30
0.0
 11
182.9576480853
 21
178.4476782093
 31
0.0
  0
LINE
  5
19C
330
1F
100
AcDbEntity
  8
0
  6
HIDDEN
 62
     7
370
     0
100
AcDbLine
 10
176.9576508271
 20
178.4476782093
 30
0.0
 11
176.9576508271
 21
177.8976782123
 31
0.0
  0
LINE
  5
19D
330
1F
100
AcDbEntity
  8
0
  6
HIDDEN
 62
     7
370
     0
100
AcDbLine
 10
176.9576508271
 20
176.5176779489
 30
0.0
 11
177.1576504873
 21
176.0074156235
 31
0.0
  0
LINE
  5
19E
330
1F
100
AcDbEntity
  8
0
  6
HIDDEN
 62
     7
370
     0
100
AcDbLine
 10
182.757648425
 20
176.0074156235
 30
0.0
 11
182.9576480853
 21
176.5176779489
 31
0.0
  0
LINE
  5
19F
330
1F
100
AcDbEntity
  8
0
  6
HIDDEN
 62
     7
370
     0
100
AcDbLine
 10
182.9576480853
 20
176.5176779489
 30
0.0
 11
182.757648425
 21
176.6974157552
 31
0.0
  0
LINE
  5
1A0
330
1F
100
AcDbEntity
  8
0
  6
HIDDEN
 62
     7
370
     0
100
AcDbLine
 10
177.1576504873
 20
176.6974157552
 30
0.0
 11
176.9576508271
 21
176.5176779489
 31
0.0
  0
LINE
  5
1A1
330
1F
100
AcDbEntity
  8
0
  6
HIDDEN
 62
     7
370
     0
100
AcDbLine
 10
176.9576508271
 20
177.8976782123
 30
0.0
 11
177.1576504873
 21
177.3874158869
 31
0.0
  0
LINE
  5
1A2
330
1F
100
AcDbEntity
  8
0
  6
HIDDEN
 62
     7
370
     0
100
AcDbLine
 10
182.757648425
 20
177.3874158869
 30
0.0
 11
182.9576480853
 21
177.8976782123
 31
0.0
  0
LINE
  5
1A3
330
1F
100
AcDbEntity
  8
0
  6
HIDDEN
 62
     7
370
     0
100
AcDbLine
 10
182.9576480853
 20
175.8276778171
 30
0.0
 11
182.757648425
 21
176.0074156235
 31
0.0
  0
LINE
  5
1A4
330
1F
100
AcDbEntity
  8
0
  6
HIDDEN
 62
     7
370
     0
100
AcDbLine
 10
177.1576504873
 20
176.0074156235
 30
0.0
 11
176.9576508271
 21
175.8276778171
 31
0.0
  0
LINE
  5
1A5
330
1F
100
AcDbEntity
  8
0
  6
HIDDEN
 62
     7
370
     0
100
AcDbLine
 10
182.9576480853
 20
175.1376776854
 30
0.0
 11
182.757648425
 21
175.3174154917
 31
0.0
  0
LINE
  5
1A6
330
1F
100
AcDbEntity
  8
0
  6
HIDDEN
 62
     7
370
     0
100
AcDbLine
 10
177.1576504873
 20
175.3174154917
 30
0.0
 11
176.9576508271
 21
175.1376776854
 31
0.0
  0
LINE
  5
1A7
330
1F
100
AcDbEntity
  8
0
  6
HIDDEN
 62
     7
370
     0
100
AcDbLine
 10
182.9576480853
 20
172.3876777003
 30
0.0
 11
182.9576480853
 21
175.1376776854
 31
0.0
  0
LINE
  5
1A8
330
1F
100
AcDbEntity
  8
0
  6
HIDDEN
 62
     7
370
     0
100
AcDbLine
 10
176.9576508271
 20
175.1376776854
 30
0.0
 11
176.9576508271
 21
172.3876777003
 31
0.0
  0
LINE
  5
1A9
330
1F
100
AcDbEntity
  8
0
  6
HIDDEN
 62
     7
370
     0
100
AcDbLine
 10
176.9576508271
 20
172.3876777003
 30
0.0
 11
177.4772654938
 21
172.0876782099
 31
0.0
  0
LINE
  5
1AA
330
1F
100
AcDbEntity
  8
0
  6
HIDDEN
 62
     7
370
     0
100
AcDbLine
 10
182.4380334186
 20
172.0876782099
 30
0.0
 11
182.9576480853
 21
172.3876777003
 31
0.0
  0
LINE
  5
1AB
330
1F
100
AcDbEntity
  8
0
  6
HIDDEN
 62
     7
370
     0
100
AcDbLine
 10
177.4576481151
 20
173.7310546348
 30
0.0
 11
179.9576494562
 21
172.2876778702
 31
0.0
  0
LINE
  5
1AC
330
1F
100
AcDbEntity
  8
0
  6
HIDDEN
 62
     7
370
     0
100
AcDbLine
 10
179.9576494562
 20
172.2876778702
 30
0.0
 11
182.4576507973
 21
173.7310546348
 31
0.0
  0
LINE
  5
1AD
330
1F
100
AcDbEntity
  8
0
  6
HIDDEN
 62
     7
370
     0
100
AcDbLine
 10
182.4576507973
 20
173.7310546348
 30
0.0
 11
182.4576507973
 21
178.587678344
 31
0.0
  0
LINE
  5
1AE
330
1F
100
AcDbEntity
  8
0
  6
HIDDEN
 62
     7
370
     0
100
AcDbLine
 10
177.4576481151
 20
178.587678344
 30
0.0
 11
177.4576481151
 21
173.7310546348
 31
0.0
  0
CIRCLE
  5
1AF
330
1F
100
AcDbEntity
  8
0
  6
HIDDEN
 62
     7
370
     0
100
AcDbCircle
 10
179.9576489793
 20
175.1876783411
 30
0.0
 40
2.500000000000028
  0
LINE
  5
1B0
330
1F
100
AcDbEntity
  8
0
  6
HIDDEN
 62
     7
370
     0
100
AcDbLine
 10
142.9576489793
 20
123.6376776258
 30
0.0
 11
143.0505421998
 21
123.7305714647
 31
0.0
  0
LINE
  5
1B1
330
1F
100
AcDbEntity
  8
0
  6
HIDDEN
 62
     7
370
     0
100
AcDbLine
 10
143.0505421998
 20
172.0447852174
 30
0.0
 11
142.9576489793
 21
172.1376790563
 31
0.0
  0
ARC
  5
1B2
330
1F
100
AcDbEntity
  8
0
  6
HIDDEN
 62
     7
370
     0
100
AcDbCircle
 10
142.343435417
 20
124.4376783411
 30
0.0
 40
1.000000000000018
100
AcDbArc
 50
315.0
 51
0.0
  0
ARC
  5
1B3
330
1F
100
AcDbEntity
  8
0
  6
HIDDEN
 62
     7
370
     0
100
AcDbCircle
 10
142.343435417
 20
124.4376783411
 30
0.0
 40
1.000000000000005
100
AcDbArc
 50
0.0
 51
52.1052014664
  0
ARC
  5
1B4
330
1F
100
AcDbEntity
  8
0
  6
HIDDEN
 62
     7
370
     0
100
AcDbCircle
 10
142.343435417
 20
171.3376783411
 30
0.0
 40
1.000000000000028
100
AcDbArc
 50
343.125
 51
45.0
  0
ARC
  5
1B5
330
1F
100
AcDbEntity
  8
0
  6
HIDDEN
 62
     7
370
     0
100
AcDbCircle
 10
142.343435417
 20
171.3376783411
 30
0.0
 40
0.9999999999999998
100
AcDbArc
 50
307.8947985337
 51
343.125
  0
LINE
  5
1B6
330
1F
100
AcDbEntity
  8
0
  6
HIDDEN
 62
     7
370
     0
100
AcDbLine
 10
143.3434354151
 20
124.4376781295
 30
0.0
 11
143.3434354151
 21
171.3376785527
 31
0.0
  0
LINE
  5
1B7
330
1F
100
AcDbEntity
  8
0
  6
HIDDEN
 62
     7
370
     0
100
AcDbLine
 10
104.9576502012
 20
131.6912486116
 30
0.0
 11
106.4878765213
 21
132.5747272829
 31
0.0
  0
LINE
  5
1B8
330
1F
100
AcDbEntity
  8
0
  6
HIDDEN
 62
     7
370
     0
100
AcDbLine
 10
106.4878765213
 20
163.2006293992
 30
0.0
 11
104.9576502012
 21
164.0841080705
 31
0.0
  0
ARC
  5
1B9
330
1F
100
AcDbEntity
  8
0
  6
HIDDEN
 62
     7
370
     0
100
AcDbCircle
 10
114.9576489793
 20
133.8876783411
 30
0.0
 40
2.000000000000028
100
AcDbArc
 50
189.9742217944
 51
270.0
  0
ARC
  5
1BA
330
1F
100
AcDbEntity
  8
0
  6
HIDDEN
 62
     7
370
     0
100
AcDbCircle
 10
114.9576489793
 20
161.8876783411
 30
0.0
 40
2.000000000000022
100
AcDbArc
 50
90.0
 51
170.0257782056
  0
LINE
  5
1BB
330
1F
100
AcDbEntity
  8
0
  6
HIDDEN
 62
     7
370
     0
100
AcDbLine
 10
114.9576481151
 20
131.8876775811
 30
0.0
 11
115.9594494568
 21
131.8876775811
 31
0.0
  0
LINE
  5
1BC
330
1F
100
AcDbEntity
  8
0
  6
HIDDEN
 62
     7
370
     0
100
AcDbLine
 10
115.9594494568
 20
163.887679101
 30
0.0
 11
114.9576481151
 21
163.887679101
 31
0.0
  0
ARC
  5
1BD
330
1F
100
AcDbEntity
  8
0
  6
HIDDEN
 62
     7
370
     0
100
AcDbCircle
 10
115.9594502942
 20
133.8876783411
 30
0.0
 40
2.000000000000057
100
AcDbArc
 50
270.0
 51
315.0
  0
ARC
  5
1BE
330
1F
100
AcDbEntity
  8
0
  6
HIDDEN
 62
     7
370
     0
100
AcDbCircle
 10
115.9594502942
 20
161.8876783411
 30
0.0
 40
2.000000000000026
100
AcDbArc
 50
45.0
 51
90.0
  0
LINE
  5
1BF
330
1F
100
AcDbEntity
  8
0
  6
HIDDEN
 62
     7
370
     0
100
AcDbLine
 10
117.373664649
 20
132.4734645794
 30
0.0
 11
118.7878779786
 21
133.8876779089
 31
0.0
  0
LINE
  5
1C0
330
1F
100
AcDbEntity
  8
0
  6
HIDDEN
 62
     7
370
     0
100
AcDbLine
 10
118.7878779786
 20
161.8876787732
 30
0.0
 11
117.373664649
 21
163.3018921027
 31
0.0
  0
LINE
  5
1C1
330
1F
100
AcDbEntity
  8
0
  6
HIDDEN
 62
     7
370
     0
100
AcDbLine
 10
106.4878765213
 20
132.5747272829
 30
0.0
 11
111.3878775107
 21
133.8876779089
 31
0.0
  0
LINE
  5
1C2
330
1F
100
AcDbEntity
  8
0
  6
HIDDEN
 62
     7
370
     0
100
AcDbLine
 10
111.3878775107
 20
161.8876787732
 30
0.0
 11
106.4878765213
 21
163.2006293992
 31
0.0
  0
LINE
  5
1C3
330
1F
100
AcDbEntity
  8
0
  6
HIDDEN
 62
     7
370
     0
100
AcDbLine
 10
112.9878766554
 20
162.2340888614
 30
0.0
 11
112.3878776746
 21
161.8876787732
 31
0.0
  0
LINE
  5
1C4
330
1F
100
AcDbEntity
  8
0
  6
HIDDEN
 62
     7
370
     0
100
AcDbLine
 10
112.3878776746
 20
133.8876779089
 30
0.0
 11
112.9878766554
 21
133.5412678207
 31
0.0
  0
LINE
  5
1C5
330
1F
100
AcDbEntity
  8
0
  6
HIDDEN
 62
     7
370
     0
100
AcDbLine
 10
118.7878779786
 20
133.8876779089
 30
0.0
 11
123.4216417836
 21
133.8876779089
 31
0.0
  0
LINE
  5
1C6
330
1F
100
AcDbEntity
  8
0
  6
HIDDEN
 62
     7
370
     0
100
AcDbLine
 10
123.4216417836
 20
161.8876787732
 30
0.0
 11
118.7878779786
 21
161.8876787732
 31
0.0
  0
ARC
  5
1C7
330
1F
100
AcDbEntity
  8
0
  6
HIDDEN
 62
     7
370
     0
100
AcDbCircle
 10
131.4576489793
 20
134.3876783411
 30
0.0
 40
0.5000000000000289
100
AcDbArc
 50
275.5682401931
 51
0.0
  0
ARC
  5
1C8
330
1F
100
AcDbEntity
  8
0
  6
HIDDEN
 62
     7
370
     0
100
AcDbCircle
 10
131.4576489793
 20
161.3876783411
 30
0.0
 40
0.5000000000000117
100
AcDbArc
 50
0.0
 51
86.7052363418
  0
LINE
  5
1C9
330
1F
100
AcDbEntity
  8
0
  6
HIDDEN
 62
     7
370
     0
100
AcDbLine
 10
111.3878775107
 20
133.8876779089
 30
0.0
 11
112.3878776746
 21
133.8876779089
 31
0.0
  0
LINE
  5
1CA
330
1F
100
AcDbEntity
  8
0
  6
HIDDEN
 62
     7
370
     0
100
AcDbLine
 10
112.3878776746
 20
161.8876787732
 30
0.0
 11
111.3878775107
 21
161.8876787732
 31
0.0
  0
LINE
  5
1CB
330
1F
100
AcDbEntity
  8
0
  6
HIDDEN
 62
     7
370
     0
100
AcDbLine
 10
131.9576490389
 20
137.6376780579
 30
0.0
 11
133.2076487782
 21
138.8876787285
 31
0.0
  0
LINE
  5
1CC
330
1F
100
AcDbEntity
  8
0
  6
HIDDEN
 62
     7
370
     0
100
AcDbLine
 10
133.2076487782
 20
156.8876779536
 30
0.0
 11
131.9576490389
 21
158.1376786242
 31
0.0
  0
LINE
  5
1CD
330
1F
100
AcDbEntity
  8
0
  6
HIDDEN
 62
     7
370
     0
100
AcDbLine
 10
216.9824380147
 20
145.737231466
 30
0.0
 11
213.4362224208
 21
116.8556432138
 31
0.0
  0
LINE
  5
1CE
330
1F
100
AcDbEntity
  8
0
  6
HIDDEN
 62
     7
370
     0
100
AcDbLine
 10
225.068649994
 20
142.6678872565
 30
0.0
 11
225.3198239671
 21
144.7135291426
 31
0.0
  0
LINE
  5
1CF
330
1F
100
AcDbEntity
  8
0
  6
HIDDEN
 62
     7
370
     0
100
AcDbLine
 10
221.8994784819
 20
116.8570532362
 30
0.0
 11
224.2076087462
 21
135.65528904
 31
0.0
  0
LINE
  5
1D0
330
1F
100
AcDbEntity
  8
0
  6
HIDDEN
 62
     7
370
     0
100
AcDbLine
 10
225.3198239671
 20
144.7135291426
 30
0.0
 11
224.6762949692
 21
145.2163050315
 31
0.0
  0
LINE
  5
1D1
330
1F
100
AcDbEntity
  8
0
  6
HIDDEN
 62
     7
370
     0
100
AcDbLine
 10
217.7284721004
 20
146.0693903398
 30
0.0
 11
216.9824380147
 21
145.737231466
 31
0.0
  0
LINE
  5
1D2
330
1F
100
AcDbEntity
  8
0
  6
HIDDEN
 62
     7
370
     0
100
AcDbLine
 10
217.7902895676
 20
150.67558851
 30
0.0
 11
218.2256269919
 21
150.1183807748
 31
0.0
  0
LINE
  5
1D3
330
1F
100
AcDbEntity
  8
0
  6
HIDDEN
 62
     7
370
     0
100
AcDbLine
 10
225.1734498607
 20
149.2652952336
 30
0.0
 11
225.7306564318
 21
149.7006337056
 31
0.0
  0
LINE
  5
1D4
330
1F
100
AcDbEntity
  8
0
  6
HIDDEN
 62
     7
370
     0
100
AcDbLine
 10
169.9576496797
 20
138.8876787285
 30
0.0
 11
172.8117361384
 21
143.6376781101
 31
0.0
  0
LINE
  5
1D5
330
1F
100
AcDbEntity
  8
0
  6
HIDDEN
 62
     7
370
     0
100
AcDbLine
 10
172.8117361384
 20
152.137678572
 30
0.0
 11
169.9576496797
 21
156.8876779536
 31
0.0
  0
LINE
  5
1D6
330
1F
100
AcDbEntity
  8
0
  6
HIDDEN
 62
     7
370
     0
100
AcDbLine
 10
169.9576496797
 20
156.8876779536
 30
0.0
 11
133.2076487782
 21
156.8876779536
 31
0.0
  0
LINE
  5
1D7
330
1F
100
AcDbEntity
  8
0
  6
HIDDEN
 62
     7
370
     0
100
AcDbLine
 10
133.2076487782
 20
138.8876787285
 30
0.0
 11
169.9576496797
 21
138.8876787285
 31
0.0
  0
LINE
  5
1D8
330
1F
100
AcDbEntity
  8
0
  6
HIDDEN
 62
     7
370
     0
100
AcDbLine
 10
218.2256269919
 20
150.1183807748
 30
0.0
 11
217.7284721004
 21
146.0693903398
 31
0.0
  0
LINE
  5
1D9
330
1F
100
AcDbEntity
  8
0
  6
HIDDEN
 62
     7
370
     0
100
AcDbLine
 10
224.6762949692
 20
145.2163050315
 30
0.0
 11
225.1734498607
 21
149.2652952336
 31
0.0
  0
LINE
  5
1DA
330
1F
100
AcDbEntity
  8
0
  6
HIDDEN
 62
     7
370
     0
100
AcDbLine
 10
225.830188738
 20
146.2963122074
 30
0.0
 11
224.3805814253
 21
144.3389875247
 31
0.0
  0
LINE
  5
1DB
330
1F
100
AcDbEntity
  8
0
  6
HIDDEN
 62
     7
370
     0
100
AcDbLine
 10
228.2527599203
 20
131.7913117717
 30
0.0
 11
231.1449039446
 21
135.6964171762
 31
0.0
  0
LINE
  5
1DC
330
1F
100
AcDbEntity
  8
0
  6
HIDDEN
 62
     7
370
     0
100
AcDbLine
 10
131.8907800781
 20
127.5067920695
 30
0.0
 11
131.5076488721
 21
127.8899232755
 31
0.0
  0
LINE
  5
1DD
330
1F
100
AcDbEntity
  8
0
  6
HIDDEN
 62
     7
370
     0
100
AcDbLine
 10
123.4076495933
 20
127.8899232755
 30
0.0
 11
123.256933661
 21
127.7392073432
 31
0.0
  0
LINE
  5
1DE
330
1F
100
AcDbEntity
  8
0
  6
HIDDEN
 62
     7
370
     0
100
AcDbLine
 10
183.9576501118
 20
143.6376781101
 30
0.0
 11
186.5113068091
 21
147.8876783411
 31
0.0
  0
LINE
  5
1DF
330
1F
100
AcDbEntity
  8
0
  6
HIDDEN
 62
     7
370
     0
100
AcDbLine
 10
186.5113068091
 20
147.8876783411
 30
0.0
 11
183.9576501118
 21
152.137678572
 31
0.0
  0
LINE
  5
1E0
330
1F
100
AcDbEntity
  8
0
  6
HIDDEN
 62
     7
370
     0
100
AcDbLine
 10
177.4576481151
 20
152.137678572
 30
0.0
 11
172.8117361384
 21
152.137678572
 31
0.0
  0
LINE
  5
1E1
330
1F
100
AcDbEntity
  8
0
  6
HIDDEN
 62
     7
370
     0
100
AcDbLine
 10
183.9576501118
 20
152.137678572
 30
0.0
 11
182.4519436525
 21
152.137678572
 31
0.0
  0
LINE
  5
1E2
330
1F
100
AcDbEntity
  8
0
  6
HIDDEN
 62
     7
370
     0
100
AcDbLine
 10
172.8117361384
 20
143.6376781101
 30
0.0
 11
183.9576501118
 21
143.6376781101
 31
0.0
  0
LINE
  5
1E3
330
1F
100
AcDbEntity
  8
0
  6
HIDDEN
 62
     7
370
     0
100
AcDbLine
 10
113.3166651892
 20
127.9786634157
 30
0.0
 11
111.4076476263
 21
129.8876791159
 31
0.0
  0
LINE
  5
1E4
330
1F
100
AcDbEntity
  8
0
  6
HIDDEN
 62
     7
370
     0
100
AcDbLine
 10
111.4076476263
 20
129.8876791159
 30
0.0
 11
104.9576502012
 21
129.8876791159
 31
0.0
  0
LINE
  5
1E5
330
1F
100
AcDbEntity
  8
0
  6
HIDDEN
 62
     7
370
     0
100
AcDbLine
 10
131.5076488721
 20
127.8899232755
 30
0.0
 11
131.5076488721
 21
133.890496091
 31
0.0
  0
LINE
  5
1E6
330
1F
100
AcDbEntity
  8
0
  6
HIDDEN
 62
     7
370
     0
100
AcDbLine
 10
123.4076495933
 20
133.8915624554
 30
0.0
 11
123.4076495933
 21
127.8899232755
 31
0.0
  0
LINE
  5
1E7
330
1F
100
AcDbEntity
  8
0
  6
HIDDEN
 62
     7
370
     0
100
AcDbLine
 10
131.5076488721
 20
161.880189077
 30
0.0
 11
131.5076488721
 21
165.3876784156
 31
0.0
  0
LINE
  5
1E8
330
1F
100
AcDbEntity
  8
0
  6
HIDDEN
 62
     7
370
     0
100
AcDbLine
 10
123.4076495933
 20
165.3876784156
 30
0.0
 11
123.4076495933
 21
161.8837942267
 31
0.0
  0
LINE
  5
1E9
330
1F
100
AcDbEntity
  8
0
  6
HIDDEN
 62
     7
370
     0
100
AcDbLine
 10
131.5076488721
 20
165.3876784156
 30
0.0
 11
127.4576492327
 21
167.8211646984
 31
0.0
  0
LINE
  5
1EA
330
1F
100
AcDbEntity
  8
0
  6
HIDDEN
 62
     7
370
     0
100
AcDbLine
 10
127.4576492327
 20
167.8211646984
 30
0.0
 11
123.4076495933
 21
165.3876784156
 31
0.0
  0
LINE
  5
1EB
330
1F
100
AcDbEntity
  8
0
  6
HIDDEN
 62
     7
370
     0
100
AcDbLine
 10
234.8373446333
 20
135.243043759
 30
0.0
 11
235.5198103654
 21
140.8013021471
 31
0.0
  0
LINE
  5
1EC
330
1F
100
AcDbEntity
  8
0
  6
HIDDEN
 62
     7
370
     0
100
AcDbLine
 10
176.9576508271
 20
172.3876777003
 30
0.0
 11
177.4576481151
 21
172.0872479389
 31
0.0
  0
LINE
  5
1ED
330
1F
100
AcDbEntity
  8
0
  6
HIDDEN
 62
     7
370
     0
100
AcDbLine
 10
182.4576507973
 20
172.0872479389
 30
0.0
 11
182.9576480853
 21
172.3876777003
 31
0.0
  0
LINE
  5
1EE
330
1F
100
AcDbEntity
  8
0
  6
HIDDEN
 62
     7
370
     0
100
AcDbLine
 10
176.9576508271
 20
179.3876788477
 30
0.0
 11
176.9576508271
 21
172.3876777003
 31
0.0
  0
LINE
  5
1EF
330
1F
100
AcDbEntity
  8
0
  6
HIDDEN
 62
     7
370
     0
100
AcDbLine
 10
182.9576480853
 20
172.3876777003
 30
0.0
 11
182.9576480853
 21
179.3876788477
 31
0.0
  0
LINE
  5
1F0
330
1F
100
AcDbEntity
  8
0
  6
HIDDEN
 62
     7
370
     0
100
AcDbLine
 10
191.2497233318
 20
167.3172577182
 30
0.0
 11
182.4576507973
 21
170.1739760945
 31
0.0
  0
LINE
  5
1F1
330
1F
100
AcDbEntity
  8
0
  6
HIDDEN
 62
     7
370
     0
100
AcDbLine
 10
182.4576507973
 20
164.9166638861
 30
0.0
 11
192.7927534746
 21
161.5585856969
 31
0.0
  0
LINE
  5
1F2
330
1F
100
AcDbEntity
  8
0
  6
HIDDEN
 62
     7
370
     0
100
AcDbLine
 10
177.4576481151
 20
172.0872479389
 30
0.0
 11
177.4576481151
 21
152.137678572
 31
0.0
  0
LINE
  5
1F3
330
1F
100
AcDbEntity
  8
0
  6
HIDDEN
 62
     7
370
     0
100
AcDbLine
 10
182.4576507973
 20
170.1739760945
 30
0.0
 11
182.4576507973
 21
172.0872479389
 31
0.0
  0
LINE
  5
1F4
330
1F
100
AcDbEntity
  8
0
  6
HIDDEN
 62
     7
370
     0
100
AcDbLine
 10
182.4576507973
 20
152.1344026449
 30
0.0
 11
182.4576507973
 21
164.9166638861
 31
0.0
  0
LINE
  5
1F5
330
1F
100
AcDbEntity
  8
0
  6
HIDDEN
 62
     7
370
     0
100
AcDbLine
 10
152.9576487558
 20
116.8876788477
 30
0.0
 11
152.9576487558
 21
116.3876778344
 31
0.0
  0
LINE
  5
1F6
330
1F
100
AcDbEntity
  8
0
  6
HIDDEN
 62
     7
370
     0
100
AcDbLine
 10
156.9576494115
 20
116.3876778344
 30
0.0
 11
156.9576494115
 21
116.8876788477
 31
0.0
  0
LINE
  5
1F7
330
1F
100
AcDbEntity
  8
0
  6
HIDDEN
 62
     7
370
     0
100
AcDbLine
 10
156.9576494115
 20
116.8876788477
 30
0.0
 11
154.9576490836
 21
118.089399756
 31
0.0
  0
LINE
  5
1F8
330
1F
100
AcDbEntity
  8
0
  6
HIDDEN
 62
     7
370
     0
100
AcDbLine
 10
154.9576490836
 20
118.089399756
 30
0.0
 11
152.9576487558
 21
116.8876788477
 31
0.0
  0
LINE
  5
1F9
330
1F
100
AcDbEntity
  8
0
  6
HIDDEN
 62
     7
370
     0
100
AcDbLine
 10
222.3331171738
 20
150.1177991638
 30
0.0
 11
221.7603314387
 21
145.4528323273
 31
0.0
  0
LINE
  5
1FA
330
1F
100
AcDbEntity
  8
0
  6
HIDDEN
 62
     7
370
     0
100
AcDbLine
 10
222.1679676043
 20
145.4027809566
 30
0.0
 11
221.809676634
 21
142.4846951748
 31
0.0
  0
LINE
  5
1FB
330
1F
100
AcDbEntity
  8
VERMASSUNG
  6
CENTERX2
100
AcDbLine
 10
242.9576489793
 20
147.8876783411
 30
0.0
 11
100.1907863309
 21
147.8876783411
 31
0.0
  0
LINE
  5
1FC
330
1F
100
AcDbEntity
  8
VERMASSUNG
100
AcDbLine
 10
242.9576489793
 20
147.8876783411
 30
0.0
 11
242.9576489793
 21
161.9461736738
 31
0.0
  0
DIMENSION
  5
1FD
330
1F
100
AcDbEntity
  8
VERMASSUNG
100
AcDbDimension
  2
_D
 10
242.9576489793
 20
186.9153707011
 30
0.0
 11
192.9576489793
 21
186.9153707011
 31
0.0
 70
   160
  1
<>
 71
     2
 42
-1.0
  3
SLDDIMSTYLE0
100
AcDbAlignedDimension
 13
142.9576489793
 23
178.8876783411
 33
0.0
 14
242.9576489793
 24
161.9461736738
 34
0.0
100
AcDbRotatedDimension
  0
DIMENSION
  5
20A
330
1F
100
AcDbEntity
  8
VERMASSUNG
100
AcDbDimension
  2
_D_1
 10
242.9576489793
 20
192.4559433762
 30
0.0
 11
173.9576489793
 21
192.4559433762
 31
0.0
 70
   160
  1
<>
 71
     2
 42
-1.0
  3
SLDDIMSTYLE1
100
AcDbAlignedDimension
 13
104.9576489793
 23
168.07379411
 33
0.0
 14
242.9576489793
 24
161.9461736738
 34
0.0
 50
0.0
100
AcDbRotatedDimension
  0
LINE
  5
215
330
1F
100
AcDbEntity
  8
0
  6
Continuous
 62
     7
370
    15
100
AcDbLine
 10
233.2512575852
 20
70.7949583683
 30
0.0
 11
232.4090290534
 21
71.0445919338
 31
0.0
  0
LINE
  5
216
330
1F
100
AcDbEntity
  8
0
  6
Continuous
 62
     7
370
    15
100
AcDbLine
 10
233.3730671274
 20
77.0866700712
 30
0.0
 11
232.7929723727
 21
77.0866700712
 31
0.0
  0
LINE
  5
217
330
1F
100
AcDbEntity
  8
0
  6
Continuous
 62
     7
370
    15
100
AcDbLine
 10
232.7929723727
 20
60.7523226443
 30
0.0
 11
233.3730671274
 21
60.7523226443
 31
0.0
  0
LINE
  5
218
330
1F
100
AcDbEntity
  8
0
  6
Continuous
 62
     7
370
    15
100
AcDbLine
 10
204.1055250632
 20
100.4194968644
 30
0.0
 11
143.4576490031
 21
100.4194968644
 31
0.0
  0
LINE
  5
219
330
1F
100
AcDbEntity
  8
0
  6
Continuous
 62
     7
370
    15
100
AcDbLine
 10
143.4576490031
 20
37.4194958512
 30
0.0
 11
204.1055250632
 21
37.4194958512
 31
0.0
  0
ARC
  5
21A
330
1F
100
AcDbEntity
  8
0
  6
Continuous
 62
     7
370
    15
100
AcDbCircle
 10
143.4576489793
 20
37.9194963578
 30
0.0
 40
0.5
100
AcDbArc
 50
180.0
 51
270.0
  0
ARC
  5
21B
330
1F
100
AcDbEntity
  8
0
  6
Continuous
 62
     7
370
    15
100
AcDbCircle
 10
143.4576489793
 20
99.9194963578
 30
0.0
 40
0.5000000000000284
100
AcDbArc
 50
90.0
 51
180.0
  0
LWPOLYLINE
  5
21C
330
1F
100
AcDbEntity
  8
0
  6
Continuous
 62
     7
370
    15
100
AcDbPolyline
 90
        3
 70
   128
 43
0.0
 10
142.7576489844
 20
46.3796758357
 10
142.8831039196
 20
46.3113745007
 10
142.9576489793
 20
46.258635566
  0
LWPOLYLINE
  5
21D
330
1F
100
AcDbEntity
  8
0
  6
Continuous
 62
     7
370
    15
100
AcDbPolyline
 90
        3
 70
   128
 43
0.0
 10
142.9576489793
 20
91.5803571496
 10
142.8831039196
 20
91.5276182148
 10
142.7576489844
 20
91.4593168799
  0
CIRCLE
  5
21E
330
1F
100
AcDbEntity
  8
0
  6
Continuous
 62
     7
370
    15
100
AcDbCircle
 10
221.764362829
 20
63.5270927931
 30
0.0
 40
3.482892011900522
  0
CIRCLE
  5
21F
330
1F
100
AcDbEntity
  8
0
  6
Continuous
 62
     7
370
    15
100
AcDbCircle
 10
221.7633117283
 20
63.5203337951
 30
0.0
 40
1.9896508497296
  0
SPLINE
  5
220
330
1F
100
AcDbEntity
  8
0
  6
Continuous
 62
     7
370
    15
100
AcDbSpline
210
0.0
220
0.0
230
1.0
 70
    24
 71
     3
 72
    11
 73
     7
 74
     0
 42
0.00000001
 43
0.00000001
 12
1.0
 22
0.0
 32
0.0
 13
1.0
 23
0.0
 33
0.0
 40
0.0
 40
0.0
 40
0.0
 40
0.0
 40
0.108111475195761
 40
0.4711565901386976
 40
0.8135824210335822
 40
0.9999999999999999
 40
0.9999999999999999
 40
0.9999999999999999
 40
0.9999999999999999
 10
220.8682510720831
 20
62.00998251175569
 30
0.0
 10
220.9229586332218
 20
62.00998251175569
 30
0.0
 10
221.161377616167
 20
62.00998251175569
 30
0.0
 10
221.6280105006508
 20
62.00998251175569
 30
0.0
 10
222.1784148638055
 20
62.00998251175569
 30
0.0
 10
222.480799755674
 20
62.00998251175569
 30
0.0
 10
222.5873905884367
 20
62.00998251175569
 30
0.0
  0
SPLINE
  5
221
330
1F
100
AcDbEntity
  8
0
  6
Continuous
 62
     7
370
    15
100
AcDbSpline
210
0.0
220
0.0
230
1.0
 70
     8
 71
     3
 72
    10
 73
     6
 74
     0
 42
0.00000001
 43
0.00000001
 12
1.0
 22
0.0
 32
0.0
 13
1.0
 23
0.0
 33
0.0
 40
0.0
 40
0.0
 40
0.0
 40
0.0
 40
0.4391155296112649
 40
0.7513671517363706
 40
0.9999999999999999
 40
0.9999999999999999
 40
0.9999999999999999
 40
0.9999999999999999
 10
222.5873905884367
 20
62.00998251175569
 30
0.0
 10
222.697922947835
 20
62.22471957422299
 30
0.0
 10
222.8870540043688
 20
62.59215448398609
 30
0.0
 10
223.2026644834087
 20
63.12628012485597
 30
0.0
 10
223.3719305906952
 20
63.3921334216398
 30
0.0
 10
223.4469640719038
 20
63.50998275762485
 30
0.0
  0
SPLINE
  5
222
330
1F
100
AcDbEntity
  8
0
  6
Continuous
 62
     7
370
    15
100
AcDbSpline
210
0.0
220
0.0
230
1.0
 70
     8
 71
     3
 72
    10
 73
     6
 74
     0
 42
0.00000001
 43
0.00000001
 12
1.0
 22
0.0
 32
0.0
 13
1.0
 23
0.0
 33
0.0
 40
0.0
 40
0.0
 40
0.0
 40
0.0
 40
0.4391168419057362
 40
0.7513662460825011
 40
1.0
 40
1.0
 40
1.0
 40
1.0
 10
223.4469640719038
 20
63.50998275762485
 30
0.0
 10
223.3113884153991
 20
63.72471897926133
 30
0.0
 10
223.0794069417528
 20
64.09215090933424
 30
0.0
 10
222.7828534341457
 20
64.62628267926999
 30
0.0
 10
222.6474247401127
 20
64.89213356544377
 30
0.0
 10
222.5873905884367
 20
65.00998253783271
 30
0.0
  0
SPLINE
  5
223
330
1F
100
AcDbEntity
  8
0
  6
Continuous
 62
     7
370
    15
100
AcDbSpline
210
0.0
220
0.0
230
1.0
 70
    24
 71
     3
 72
    11
 73
     7
 74
     0
 42
0.00000001
 43
0.00000001
 12
1.0
 22
0.0
 32
0.0
 13
1.0
 23
0.0
 33
0.0
 40
0.0
 40
0.0
 40
0.0
 40
0.0
 40
0.1864175789664176
 40
0.5288434098613023
 40
0.8918885248042389
 40
0.9999999999999999
 40
0.9999999999999999
 40
0.9999999999999999
 40
0.9999999999999999
 10
222.5873905884367
 20
65.00998253783271
 30
0.0
 10
222.480799755674
 20
65.00998253783271
 30
0.0
 10
222.1784148638055
 20
65.00998253783271
 30
0.0
 10
221.6280105006508
 20
65.00998253783271
 30
0.0
 10
221.1613776161671
 20
65.00998253783273
 30
0.0
 10
220.9229586332218
 20
65.00998253783271
 30
0.0
 10
220.8682510720831
 20
65.00998253783271
 30
0.0
  0
SPLINE
  5
224
330
1F
100
AcDbEntity
  8
0
  6
Continuous
 62
     7
370
    15
100
AcDbSpline
210
0.0
220
0.0
230
1.0
 70
     8
 71
     3
 72
    10
 73
     6
 74
     0
 42
0.00000001
 43
0.00000001
 12
1.0
 22
0.0
 32
0.0
 13
1.0
 23
0.0
 33
0.0
 40
0.0
 40
0.0
 40
0.0
 40
0.0
 40
0.4391168415535193
 40
0.751366235529823
 40
0.9999999999999999
 40
0.9999999999999999
 40
0.9999999999999999
 40
0.9999999999999999
 10
220.8682510720831
 20
65.00998253783271
 30
0.0
 10
220.7326754175265
 20
64.79524631985065
 30
0.0
 10
220.5006939502856
 20
64.4278144008965
 30
0.0
 10
220.2041404239424
 20
63.89368259673203
 30
0.0
 10
220.0687117388424
 20
63.62783172745255
 30
0.0
 10
220.008677588616
 20
63.50998275762485
 30
0.0
  0
SPLINE
  5
225
330
1F
100
AcDbEntity
  8
0
  6
Continuous
 62
     7
370
    15
100
AcDbSpline
210
0.0
220
0.0
230
1.0
 70
     8
 71
     3
 72
    10
 73
     6
 74
     0
 42
0.00000001
 43
0.00000001
 12
1.0
 22
0.0
 32
0.0
 13
1.0
 23
0.0
 33
0.0
 40
0.0
 40
0.0
 40
0.0
 40
0.0
 40
0.4391174747523768
 40
0.7513670735800417
 40
1.0
 40
1.0
 40
1.0
 40
1.0
 10
220.008677588616
 20
63.50998275762485
 30
0.0
 10
220.1192140346039
 20
63.29524661266077
 30
0.0
 10
220.3083512261782
 20
62.92781493865485
 30
0.0
 10
220.6239505841704
 20
62.39368323214086
 30
0.0
 10
220.7932171179931
 20
62.12783156921628
 30
0.0
 10
220.8682510720831
 20
62.00998251175569
 30
0.0
  0
LINE
  5
226
330
1F
100
AcDbEntity
  8
0
  6
Continuous
 62
     7
370
    15
100
AcDbLine
 10
222.9921359288
 20
63.5099827576
 30
0.0
 11
223.4469640719
 21
63.5099827576
 31
0.0
  0
LINE
  5
227
330
1F
100
AcDbEntity
  8
0
  6
Continuous
 62
     7
370
    15
100
AcDbLine
 10
222.9921359288
 20
63.5099827576
 30
0.0
 11
222.5623566376
 21
64.2599824149
 31
0.0
  0
LINE
  5
228
330
1F
100
AcDbEntity
  8
0
  6
Continuous
 62
     7
370
    15
100
AcDbLine
 10
222.5623566376
 20
64.2599824149
 30
0.0
 11
222.1325698959
 21
65.0099825378
 31
0.0
  0
LINE
  5
229
330
1F
100
AcDbEntity
  8
0
  6
Continuous
 62
     7
370
    15
100
AcDbLine
 10
222.1325698959
 20
62.0099825118
 30
0.0
 11
222.5623566376
 21
62.7599826347
 31
0.0
  0
LINE
  5
22A
330
1F
100
AcDbEntity
  8
0
  6
Continuous
 62
     7
370
    15
100
AcDbLine
 10
222.5623566376
 20
62.7599826347
 30
0.0
 11
222.9921359288
 21
63.5099827576
 31
0.0
  0
ARC
  5
22B
330
1F
100
AcDbEntity
  8
0
  6
Continuous
 62
     7
370
    15
100
AcDbCircle
 10
221.252269737
 20
63.5099825248
 30
0.0
 40
1.509578590988287
100
AcDbArc
 50
330.2096815769
 51
29.7903184231
  0
ARC
  5
22C
330
1F
100
AcDbEntity
  8
0
  6
Continuous
 62
     7
370
    15
100
AcDbCircle
 10
221.2708707046
 20
63.4969366554
 30
0.0
 40
1.486955663024545
100
AcDbArc
 50
270.0819083796
 51
330.2898434187
  0
ARC
  5
22D
330
1F
100
AcDbEntity
  8
0
  6
Continuous
 62
     7
370
    15
100
AcDbCircle
 10
221.2730835883
 20
63.4887916211
 30
0.0
 40
1.478809111897855
100
AcDbArc
 50
251.502644883
 51
269.9966224121
  0
LWPOLYLINE
  5
22E
330
1F
100
AcDbEntity
  8
0
  6
Continuous
 62
     7
370
    15
100
AcDbPolyline
 90
        3
 70
   128
 43
0.0
 10
220.9434050786
 20
64.9727645594
 10
221.0786703693
 20
64.9971498441
 10
221.2729964124
 20
65.0099825378
  0
ARC
  5
22F
330
1F
100
AcDbEntity
  8
0
  6
Continuous
 62
     7
370
    15
100
AcDbCircle
 10
221.270871953
 20
63.5230305405
 30
0.0
 40
1.486953514976789
100
AcDbArc
 50
29.710108594
 51
89.9181396078
  0
LINE
  5
230
330
1F
100
AcDbEntity
  8
0
  6
Continuous
 62
     7
370
    15
100
AcDbLine
 10
231.8367648589
 20
70.9133734725
 30
0.0
 11
232.1197528111
 21
70.829495069
 31
0.0
  0
LINE
  5
231
330
1F
100
AcDbEntity
  8
0
  6
Continuous
 62
     7
370
    15
100
AcDbLine
 10
232.1197528111
 20
70.829495069
 30
0.0
 11
231.3113126623
 21
70.4496805355
 31
0.0
  0
ELLIPSE
  5
232
330
1F
100
AcDbEntity
  8
0
  6
Continuous
 62
     7
370
    15
100
AcDbEllipse
 10
232.6176850017
 20
68.6359957551
 30
0.0
 11
0.1774412266988747
 21
2.243639031128481
 31
0.0
210
0.0
220
0.0
230
1.0
 40
0.993338952
 41
3.868059894364419
 42
6.587230787235839
  0
ELLIPSE
  5
233
330
1F
100
AcDbEntity
  8
0
  6
Continuous
 62
     7
370
    15
100
AcDbEllipse
 10
232.6176850017
 20
68.6359957551
 30
0.0
 11
0.1774412266988747
 21
2.243639031128481
 31
0.0
210
0.0
220
0.0
230
1.0
 40
0.993338952
 41
3.319479629073268
 42
3.445638133646071
  0
LINE
  5
234
330
1F
100
AcDbEntity
  8
0
  6
Continuous
 62
     7
370
    15
100
AcDbLine
 10
233.1156123149
 20
66.442496356
 30
0.0
 11
233.9654180872
 21
66.8417408395
 31
0.0
  0
SPLINE
  5
235
330
1F
100
AcDbEntity
  8
0
  6
Continuous
 62
     7
370
    15
100
AcDbSpline
210
0.0
220
0.0
230
1.0
 70
     8
 71
     3
 72
     9
 73
     5
 74
     0
 42
0.00000001
 43
0.00000001
 12
1.0
 22
0.0
 32
0.0
 13
1.0
 23
0.0
 33
0.0
 40
0.0
 40
0.0
 40
0.0
 40
0.0
 40
0.3573561022860448
 40
1.0
 40
1.0
 40
1.0
 40
1.0
 10
232.4054080711942
 20
71.03401676600859
 30
0.0
 10
232.3591298893016
 20
71.05124674710461
 30
0.0
 10
232.2296283036379
 20
71.09946190555803
 30
0.0
 10
232.1522885768707
 20
71.10061330863635
 30
0.0
 10
232.1025866734129
 20
71.10135325079844
 30
0.0
  0
ARC
  5
236
330
1F
100
AcDbEntity
  8
0
  6
Continuous
 62
     7
370
    15
100
AcDbCircle
 10
231.7977845436
 20
68.9271656443
 30
0.0
 40
2.898937005383049
100
AcDbArc
 50
15.2264875571
 51
59.2862385495
  0
LWPOLYLINE
  5
237
330
1F
100
AcDbEntity
  8
0
  6
Continuous
 62
     7
370
    15
100
AcDbPolyline
 90
        3
 70
   128
 43
0.0
 10
233.6826834547
 20
66.7089095603
 10
233.6250383126
 20
66.6608807895
 10
233.2784149515
 20
66.4195250518
  0
ARC
  5
238
330
1F
100
AcDbEntity
  8
0
  6
Continuous
 62
     7
370
    15
100
AcDbCircle
 10
232.0067598226
 20
68.9259973417
 30
0.0
 40
2.798739587394977
100
AcDbArc
 50
4.3674752251
 51
66.271210505
  0
LWPOLYLINE
  5
239
330
1F
100
AcDbEntity
  8
0
  6
Continuous
 62
     7
370
    15
100
AcDbPolyline
 90
        3
 70
   128
 43
0.0
 10
233.8014755117
 20
66.7647190656
 10
233.4163699018
 20
66.4946252744
 10
233.1329945194
 20
66.3508598026
  0
LINE
  5
23A
330
1F
100
AcDbEntity
  8
0
  6
Continuous
 62
     7
370
    15
100
AcDbLine
 10
223.9303130375
 20
68.6130785706
 30
0.0
 11
233.1178698408
 21
60.8459056619
 31
0.0
  0
ARC
  5
23B
330
1F
100
AcDbEntity
  8
0
  6
Continuous
 62
     7
370
    15
100
AcDbCircle
 10
224.1902424008
 20
68.9194963578
 30
0.0
 40
0.401814800877358
100
AcDbArc
 50
130.3074148506
 51
229.6925851494
  0
LINE
  5
23C
330
1F
100
AcDbEntity
  8
0
  6
Continuous
 62
     7
370
    15
100
AcDbLine
 10
233.1178698408
 20
76.9930870537
 30
0.0
 11
223.9303130375
 21
69.225914145
 31
0.0
  0
ARC
  5
23D
330
1F
100
AcDbEntity
  8
0
  6
Continuous
 62
     7
370
    15
100
AcDbCircle
 10
233.3730708527
 20
76.6917937643
 30
0.0
 40
0.3948483286728633
100
AcDbArc
 50
49.7347811153
 51
130.2652188847
  0
LINE
  5
23E
330
1F
100
AcDbEntity
  8
0
  6
Continuous
 62
     7
370
    15
100
AcDbLine
 10
242.8158286678
 20
69.225914145
 30
0.0
 11
233.6282718646
 21
76.9930870537
 31
0.0
  0
ARC
  5
23F
330
1F
100
AcDbEntity
  8
0
  6
Continuous
 62
     7
370
    15
100
AcDbCircle
 10
242.5558993045
 20
68.9194963578
 30
0.0
 40
0.401814800877358
100
AcDbArc
 50
310.3074148506
 51
49.6925851494
  0
LINE
  5
240
330
1F
100
AcDbEntity
  8
0
  6
Continuous
 62
     7
370
    15
100
AcDbLine
 10
233.6282718646
 20
60.8459056619
 30
0.0
 11
242.8158286678
 21
68.6130785706
 31
0.0
  0
ARC
  5
241
330
1F
100
AcDbEntity
  8
0
  6
Continuous
 62
     7
370
    15
100
AcDbCircle
 10
233.3730708527
 20
61.1471989512
 30
0.0
 40
0.3948483286728525
100
AcDbArc
 50
229.7347811153
 51
310.2652188847
  0
ARC
  5
242
330
1F
100
AcDbEntity
  8
0
  6
Continuous
 62
     7
370
    15
100
AcDbCircle
 10
242.5561502218
 20
68.9194963578
 30
0.0
 40
0.3817128684119477
100
AcDbArc
 50
310.3054360275
 51
49.6945639725
  0
LINE
  5
243
330
1F
100
AcDbEntity
  8
0
  6
Continuous
 62
     7
370
    15
100
AcDbLine
 10
242.8030658232
 20
69.2105932484
 30
0.0
 11
233.61550902
 21
76.9777667973
 31
0.0
  0
ARC
  5
244
330
1F
100
AcDbEntity
  8
0
  6
Continuous
 62
     7
370
    15
100
AcDbCircle
 10
233.3730708527
 20
76.691536485
 30
0.0
 40
0.3751053940594148
100
AcDbArc
 50
49.7352733551
 51
130.2647266449
  0
LINE
  5
245
330
1F
100
AcDbEntity
  8
0
  6
Continuous
 62
     7
370
    15
100
AcDbLine
 10
233.1306326853
 20
76.9777667973
 30
0.0
 11
223.9430758821
 21
69.2105932484
 31
0.0
  0
ARC
  5
246
330
1F
100
AcDbEntity
  8
0
  6
Continuous
 62
     7
370
    15
100
AcDbCircle
 10
224.1899914835
 20
68.9194963578
 30
0.0
 40
0.3817128684119844
100
AcDbArc
 50
130.3054360275
 51
229.6945639725
  0
LINE
  5
247
330
1F
100
AcDbEntity
  8
0
  6
Continuous
 62
     7
370
    15
100
AcDbLine
 10
223.9430758821
 20
68.6283994672
 30
0.0
 11
233.1306326853
 21
60.8612259183
 31
0.0
  0
ARC
  5
248
330
1F
100
AcDbEntity
  8
0
  6
Continuous
 62
     7
370
    15
100
AcDbCircle
 10
233.3730708527
 20
61.1474562306
 30
0.0
 40
0.3751053940594148
100
AcDbArc
 50
229.7352733551
 51
310.2647266449
  0
LINE
  5
249
330
1F
100
AcDbEntity
  8
0
  6
Continuous
 62
     7
370
    15
100
AcDbLine
 10
233.61550902
 20
60.8612259183
 30
0.0
 11
242.8030658232
 21
68.6283994672
 31
0.0
  0
LWPOLYLINE
  5
24A
330
1F
100
AcDbEntity
  8
0
  6
Continuous
 62
     7
370
    15
100
AcDbPolyline
 90
        3
 70
   128
 43
0.0
 10
223.3502108323
 20
69.225914145
 10
223.2904348241
 20
69.1630009331
 10
223.2728514539
 20
69.1379856961
  0
LINE
  5
24B
330
1F
100
AcDbEntity
  8
0
  6
Continuous
 62
     7
370
    15
100
AcDbLine
 10
225.3899711835
 20
68.9194963578
 30
0.0
 11
224.1587701904
 21
68.9194963578
 31
0.0
  0
LINE
  5
24C
330
1F
100
AcDbEntity
  8
0
  6
Continuous
 62
     7
370
    15
100
AcDbLine
 10
233.3025995361
 20
61.9636492137
 30
0.0
 11
233.3463344442
 21
61.1523228962
 31
0.0
  0
LINE
  5
24D
330
1F
100
AcDbEntity
  8
0
  6
Continuous
 62
     7
370
    15
100
AcDbLine
 10
232.5377750861
 20
76.9930870537
 30
0.0
 11
232.4470866191
 21
76.9164233733
 31
0.0
  0
LINE
  5
24E
330
1F
100
AcDbEntity
  8
0
  6
Continuous
 62
     7
370
    15
100
AcDbLine
 10
226.6164634096
 20
71.987203535
 30
0.0
 11
223.3502108323
 21
69.225914145
 31
0.0
  0
LINE
  5
24F
330
1F
100
AcDbEntity
  8
0
  6
Continuous
 62
     7
370
    15
100
AcDbLine
 10
232.4470866191
 20
60.9225693423
 30
0.0
 11
232.5377750861
 21
60.8459056619
 31
0.0
  0
LINE
  5
250
330
1F
100
AcDbEntity
  8
0
  6
Continuous
 62
     7
370
    15
100
AcDbLine
 10
233.3025995361
 20
75.8753435019
 30
0.0
 11
233.3463344442
 21
76.6866698194
 31
0.0
  0
ARC
  5
251
330
1F
100
AcDbEntity
  8
0
  6
Continuous
 62
     7
370
    15
100
AcDbCircle
 10
228.2429397098
 20
68.9194963578
 30
0.0
 40
1.004527966851047
100
AcDbArc
 50
130.3068111715
 51
229.6931888285
  0
SPLINE
  5
252
330
1F
100
AcDbEntity
  8
0
  6
Continuous
 62
     7
370
    15
100
AcDbSpline
210
0.0
220
0.0
230
1.0
 70
    24
 71
     3
 72
    11
 73
     7
 74
     0
 42
0.00000001
 43
0.00000001
 12
1.0
 22
0.0
 32
0.0
 13
1.0
 23
0.0
 33
0.0
 40
0.0
 40
0.0
 40
0.0
 40
0.0
 40
0.3367850077556835
 40
0.6790112022691929
 40
0.9923745010075404
 40
1.0
 40
1.0
 40
1.0
 40
1.0
 10
225.3899711834532
 20
68.91949635779577
 30
0.0
 10
225.4653877518712
 20
68.91949635779561
 30
0.0
 10
225.6174393385311
 20
68.91949635779534
 30
0.0
 10
225.8597259493879
 20
68.91949635779551
 30
0.0
 10
226.0132339361047
 20
68.91949635779532
 30
0.0
 10
226.083769956002
 20
68.91949635779542
 30
0.0
 10
226.085445629273
 20
68.91949635779542
 30
0.0
  0
LINE
  5
253
330
1F
100
AcDbEntity
  8
0
  6
Continuous
 62
     7
370
    15
100
AcDbLine
 10
227.5931302177
 20
68.1534519334
 30
0.0
 11
232.7350739109
 21
63.8064455505
 31
0.0
  0
LINE
  5
254
330
1F
100
AcDbEntity
  8
0
  6
Continuous
 62
     7
370
    15
100
AcDbLine
 10
232.7350739109
 20
74.0325471651
 30
0.0
 11
227.5931302177
 21
69.6855407822
 31
0.0
  0
ARC
  5
255
330
1F
100
AcDbEntity
  8
0
  6
Continuous
 62
     7
370
    15
100
AcDbCircle
 10
233.3730708527
 20
73.2793161772
 30
0.0
 40
0.987115504265471
100
AcDbArc
 50
49.7349447461
 51
130.2650552539
  0
LINE
  5
256
330
1F
100
AcDbEntity
  8
0
  6
Continuous
 62
     7
370
    15
100
AcDbLine
 10
239.1530114876
 20
69.6855407822
 30
0.0
 11
234.0110677945
 21
74.0325471651
 31
0.0
  0
ARC
  5
257
330
1F
100
AcDbEntity
  8
0
  6
Continuous
 62
     7
370
    15
100
AcDbCircle
 10
238.5032019955
 20
68.9194963578
 30
0.0
 40
1.004527966851047
100
AcDbArc
 50
310.3068111715
 51
49.6931888285
  0
LINE
  5
258
330
1F
100
AcDbEntity
  8
0
  6
Continuous
 62
     7
370
    15
100
AcDbLine
 10
234.0110677945
 20
63.8064455505
 30
0.0
 11
239.1530114876
 21
68.1534519334
 31
0.0
  0
ARC
  5
259
330
1F
100
AcDbEntity
  8
0
  6
Continuous
 62
     7
370
    15
100
AcDbCircle
 10
233.3730708527
 20
64.5596765383
 30
0.0
 40
0.9871155042654766
100
AcDbArc
 50
229.7349447461
 51
310.2650552539
  0
CIRCLE
  5
25A
330
1F
100
AcDbEntity
  8
0
  6
Continuous
 62
     7
370
    15
100
AcDbCircle
 10
233.3617460037
 20
68.9050908253
 30
0.0
 40
2.568312352724612
  0
ARC
  5
25B
330
1F
100
AcDbEntity
  8
0
  6
Continuous
 62
     7
370
    15
100
AcDbCircle
 10
232.7729985935
 20
68.9178882774
 30
0.0
 40
2.583672765457984
100
AcDbArc
 50
310.1523065457
 51
83.1082514708
  0
ARC
  5
25C
330
1F
100
AcDbEntity
  8
0
  6
Continuous
 62
     7
370
    15
100
AcDbCircle
 10
232.7913893728
 20
68.889450061
 30
0.0
 40
2.550081316968797
100
AcDbArc
 50
276.5668660797
 51
310.2484907331
  0
LINE
  5
25D
330
1F
100
AcDbEntity
  8
0
  6
Continuous
 62
     7
370
    15
100
AcDbLine
 10
241.1851349937
 20
68.9194963578
 30
0.0
 11
242.5338912474
 21
68.9194963578
 31
0.0
  0
ARC
  5
25E
330
1F
100
AcDbEntity
  8
0
  6
Continuous
 62
     7
370
    15
100
AcDbCircle
 10
232.7931618895
 20
76.6914051688
 30
0.0
 40
0.3952649478630024
100
AcDbArc
 50
90.0274714841
 51
130.2493622998
  0
ARC
  5
25F
330
1F
100
AcDbEntity
  8
0
  6
Continuous
 62
     7
370
    15
100
AcDbCircle
 10
232.7931618895
 20
61.1475875468
 30
0.0
 40
0.3952649478630024
100
AcDbArc
 50
229.7506377002
 51
269.9725285159
  0
SPLINE
  5
260
330
1F
100
AcDbEntity
  8
0
  6
Continuous
 62
     7
370
    15
100
AcDbSpline
210
0.0
220
0.0
230
1.0
 70
     8
 71
     3
 72
    11
 73
     7
 74
     0
 42
0.00000001
 43
0.00000001
 12
1.0
 22
0.0
 32
0.0
 13
1.0
 23
0.0
 33
0.0
 40
0.0
 40
0.0
 40
0.0
 40
0.0
 40
0.0081159064738739
 40
0.3263681062428563
 40
0.6627688404116027
 40
1.0
 40
1.0
 40
1.0
 40
1.0
 10
233.3086941110235
 20
62.65754134243415
 30
0.0
 10
233.3085771530031
 20
62.65585479172888
 30
0.0
 10
233.3038738746013
 20
62.58803287170897
 30
0.0
 10
233.2966109019131
 20
62.4388659936453
 30
0.0
 10
233.2934358223787
 20
62.19639481229806
 30
0.0
 10
233.2995424555218
 20
62.04129481349058
 30
0.0
 10
233.3025995360952
 20
61.96364921366857
 30
0.0
  0
SPLINE
  5
261
330
1F
100
AcDbEntity
  8
0
  6
Continuous
 62
     7
370
    15
100
AcDbSpline
210
0.0
220
0.0
230
1.0
 70
     8
 71
     3
 72
    11
 73
     7
 74
     0
 42
0.00000001
 43
0.00000001
 12
1.0
 22
0.0
 32
0.0
 13
1.0
 23
0.0
 33
0.0
 40
0.0
 40
0.0
 40
0.0
 40
0.0
 40
0.3372311595883973
 40
0.6736318937571437
 40
0.991884093526126
 40
1.0
 40
1.0
 40
1.0
 40
1.0
 10
233.3025995360952
 20
75.87534350192234
 30
0.0
 10
233.2995424555218
 20
75.79769790210035
 30
0.0
 10
233.2934358223786
 20
75.64259790329287
 30
0.0
 10
233.2966109019131
 20
75.40012672194563
 30
0.0
 10
233.3038738746013
 20
75.25095984388197
 30
0.0
 10
233.3085771530031
 20
75.18313792386203
 30
0.0
 10
233.3086941110235
 20
75.18145137315676
 30
0.0
  0
SPLINE
  5
262
330
1F
100
AcDbEntity
  8
0
  6
Continuous
 62
     7
370
    15
100
AcDbSpline
210
0.0
220
0.0
230
1.0
 70
    24
 71
     3
 72
    11
 73
     7
 74
     0
 42
0.00000001
 43
0.00000001
 12
1.0
 22
0.0
 32
0.0
 13
1.0
 23
0.0
 33
0.0
 40
0.0
 40
0.0
 40
0.0
 40
0.0
 40
0.0076328680116014
 40
0.3209923942982749
 40
0.6632236440453385
 40
1.0
 40
1.0
 40
1.0
 40
1.0
 10
240.5080262290579
 20
68.9194963577954
 30
0.0
 10
240.5094829635115
 20
68.9194963577954
 30
0.0
 10
240.5707444289818
 20
68.91949635779523
 30
0.0
 10
240.7093334360823
 20
68.9194963577955
 30
0.0
 10
240.9427531966086
 20
68.91949635779537
 30
0.0
 10
241.1047749354089
 20
68.91949635779538
 30
0.0
 10
241.1851349937063
 20
68.9194963577954
 30
0.0
  0
LWPOLYLINE
  5
263
330
1F
100
AcDbEntity
  8
0
  6
Continuous
 62
     7
370
    15
100
AcDbPolyline
 90
        3
 70
   128
 43
0.0
 10
176.9583921599
 20
68.9863446113
 10
176.9616480636
 20
69.07431561
 10
176.9869316088
 20
69.3376352227
  0
CIRCLE
  5
264
330
1F
100
AcDbEntity
  8
0
  6
Continuous
 62
     7
370
    15
100
AcDbCircle
 10
179.9576489793
 20
68.9194963578
 30
0.0
 40
2.859999999999995
  0
CIRCLE
  5
265
330
1F
100
AcDbEntity
  8
0
  6
Continuous
 62
     7
370
    15
100
AcDbCircle
 10
179.9576489793
 20
68.9194963578
 30
0.0
 40
2.499999999999975
  0
SPLINE
  5
266
330
1F
100
AcDbEntity
  8
0
  6
Continuous
 62
     7
370
    15
100
AcDbSpline
210
0.0
220
0.0
230
1.0
 70
     8
 71
     3
 72
    12
 73
     8
 74
     0
 42
0.00000001
 43
0.00000001
 12
1.0
 22
0.0
 32
0.0
 13
1.0
 23
0.0
 33
0.0
 40
0.0
 40
0.0
 40
0.0
 40
0.0
 40
0.5000000000000001
 40
0.5000000000000001
 40
0.75
 40
0.75
 40
1.0
 40
1.0
 40
1.0
 40
1.0
 10
153.0523930910144
 20
78.8288656784805
 30
0.0
 10
153.0831153329335
 20
78.71630987907132
 30
0.0
 10
153.1259525474686
 20
78.60355201933173
 30
0.0
 10
153.2253795716684
 20
78.45401113353537
 30
0.0
 10
153.2651317664851
 20
78.40671840182853
 30
0.0
 10
153.3631732233433
 20
78.3329821085071
 30
0.0
 10
153.4227292789308
 20
78.30756278913134
 30
0.0
 10
153.4854057929066
 20
78.30756278913134
 30
0.0
  0
LINE
  5
267
330
1F
100
AcDbEntity
  8
0
  6
Continuous
 62
     7
370
    15
100
AcDbLine
 10
153.4854059758
 20
78.307563186
 30
0.0
 11
156.4298921915
 21
78.307563186
 31
0.0
  0
SPLINE
  5
268
330
1F
100
AcDbEntity
  8
0
  6
Continuous
 62
     7
370
    15
100
AcDbSpline
210
0.0
220
0.0
230
1.0
 70
     8
 71
     3
 72
    12
 73
     8
 74
     0
 42
0.00000001
 43
0.00000001
 12
1.0
 22
0.0
 32
0.0
 13
1.0
 23
0.0
 33
0.0
 40
0.0
 40
0.0
 40
0.0
 40
0.0
 40
0.2500000000000005
 40
0.2500000000000005
 40
0.500000000000001
 40
0.500000000000001
 40
1.0
 40
1.0
 40
1.0
 40
1.0
 10
156.4298921657737
 20
78.30756278913134
 30
0.0
 10
156.4929722042671
 20
78.30756278913134
 30
0.0
 10
156.5521208264485
 20
78.3329271083463
 30
0.0
 10
156.6505933765175
 20
78.40709196871921
 30
0.0
 10
156.6896299885023
 20
78.45361230927334
 30
0.0
 10
156.7895264552813
 20
78.60375465211858
 30
0.0
 10
156.831947336348
 20
78.71544785909072
 30
0.0
 10
156.8629048676659
 20
78.8288656784805
 30
0.0
  0
ELLIPSE
  5
269
330
1F
100
AcDbEntity
  8
0
  6
Continuous
 62
     7
370
    15
100
AcDbEllipse
 10
140.61049479
 20
68.9194963578
 30
0.0
 11
14.75368316065606
 21
31.09325491558114
 31
0.0
210
0.0
220
0.0
230
1.0
 40
0.3419987131
 41
5.193281737408618
 42
6.124043104552322
  0
SPLINE
  5
26A
330
1F
100
AcDbEntity
  8
0
  6
Continuous
 62
     7
370
    15
100
AcDbSpline
210
0.0
220
0.0
230
1.0
 70
     8
 71
     3
 72
    12
 73
     8
 74
     0
 42
0.00000001
 43
0.00000001
 12
1.0
 22
0.0
 32
0.0
 13
1.0
 23
0.0
 33
0.0
 40
0.0
 40
0.0
 40
0.0
 40
0.0
 40
0.4999999999999982
 40
0.4999999999999982
 40
0.7499999999999991
 40
0.7499999999999991
 40
1.0
 40
1.0
 40
1.0
 40
1.0
 10
156.8629048676659
 20
98.82023881791261
 30
0.0
 10
156.8321826257468
 20
98.85754080086565
 30
0.0
 10
156.7893454112117
 20
98.89415263291205
 30
0.0
 10
156.6899183870119
 20
98.94191741619723
 30
0.0
 10
156.6501661921952
 20
98.95687493167962
 30
0.0
 10
156.552124735337
 20
98.98006487744875
 30
0.0
 10
156.4925686797495
 20
98.98798831666846
 30
0.0
 10
156.4298921657737
 20
98.98798831666846
 30
0.0
  0
LINE
  5
26B
330
1F
100
AcDbEntity
  8
0
  6
Continuous
 62
     7
370
    15
100
AcDbLine
 10
156.4298921915
 20
98.9879888747
 30
0.0
 11
153.4854059758
 21
98.9879888747
 31
0.0
  0
SPLINE
  5
26C
330
1F
100
AcDbEntity
  8
0
  6
Continuous
 62
     7
370
    15
100
AcDbSpline
210
0.0
220
0.0
230
1.0
 70
     8
 71
     3
 72
    12
 73
     8
 74
     0
 42
0.00000001
 43
0.00000001
 12
1.0
 22
0.0
 32
0.0
 13
1.0
 23
0.0
 33
0.0
 40
0.0
 40
0.0
 40
0.0
 40
0.0
 40
0.2500000000000006
 40
0.2500000000000006
 40
0.5000000000000011
 40
0.5000000000000011
 40
1.0
 40
1.0
 40
1.0
 40
1.0
 10
153.4854057929066
 20
98.98798831666845
 30
0.0
 10
153.4223257544132
 20
98.98798831666846
 30
0.0
 10
153.3631771322318
 20
98.980082390456
 30
0.0
 10
153.2647045821628
 20
98.95675722901979
 30
0.0
 10
153.225667970178
 20
98.94204443918808
 30
0.0
 10
153.125771503399
 20
98.89408863845715
 30
0.0
 10
153.0833506223323
 20
98.8578264818771
 30
0.0
 10
153.0523930910144
 20
98.82023881791261
 30
0.0
  0
ELLIPSE
  5
26D
330
1F
100
AcDbEntity
  8
0
  6
Continuous
 62
     7
370
    15
100
AcDbEllipse
 10
169.3048031687
 20
68.9194963578
 30
0.0
 11
-14.75368316065606
 21
31.09325491558114
 31
0.0
210
0.0
220
0.0
230
1.0
 40
0.3419987131
 41
0.1591422026273008
 42
1.089903569770976
  0
SPLINE
  5
26E
330
1F
100
AcDbEntity
  8
0
  6
Continuous
 62
     7
370
    15
100
AcDbSpline
210
0.0
220
0.0
230
1.0
 70
     8
 71
     3
 72
    12
 73
     8
 74
     0
 42
0.00000001
 43
0.00000001
 12
1.0
 22
0.0
 32
0.0
 13
1.0
 23
0.0
 33
0.0
 40
0.0
 40
0.0
 40
0.0
 40
0.0
 40
0.4999999999999981
 40
0.4999999999999981
 40
0.749999999999999
 40
0.749999999999999
 40
1.0
 40
1.0
 40
1.0
 40
1.0
 10
153.0523930910144
 20
39.01875389767819
 30
0.0
 10
153.0835382889765
 20
38.980938374758
 30
0.0
 10
153.1258125553109
 20
38.94487151667438
 30
0.0
 10
153.2257580891362
 20
38.89691145166313
 30
0.0
 10
153.2654883938403
 20
38.88205047776547
 30
0.0
 10
153.3623764438464
 20
38.85909933163433
 30
0.0
 10
153.422441685593
 20
38.85100439892229
 30
0.0
 10
153.4854057929066
 20
38.85100439892229
 30
0.0
  0
LINE
  5
26F
330
1F
100
AcDbEntity
  8
0
  6
Continuous
 62
     7
370
    15
100
AcDbLine
 10
153.4854059758
 20
38.8510038409
 30
0.0
 11
156.4298921915
 21
38.8510038409
 31
0.0
  0
SPLINE
  5
270
330
1F
100
AcDbEntity
  8
0
  6
Continuous
 62
     7
370
    15
100
AcDbSpline
210
0.0
220
0.0
230
1.0
 70
     8
 71
     3
 72
    12
 73
     8
 74
     0
 42
0.00000001
 43
0.00000001
 12
1.0
 22
0.0
 32
0.0
 13
1.0
 23
0.0
 33
0.0
 40
0.0
 40
0.0
 40
0.0
 40
0.0
 40
0.2500000000000023
 40
0.2500000000000023
 40
0.5000000000000047
 40
0.5000000000000047
 40
1.0
 40
1.0
 40
1.0
 40
1.0
 10
156.4298921657737
 20
38.85100439892233
 30
0.0
 10
156.4929491206715
 20
38.85100439892233
 30
0.0
 10
156.5520792704171
 20
38.85890473000189
 30
0.0
 10
156.6505268209504
 20
38.88221547800694
 30
0.0
 10
156.6895590591385
 20
38.89692060429058
 30
0.0
 10
156.7894489435954
 20
38.94485413247721
 30
0.0
 10
156.8317479172048
 20
38.98092410524196
 30
0.0
 10
156.862904867666
 20
39.01875389767818
 30
0.0
  0
ELLIPSE
  5
271
330
1F
100
AcDbEntity
  8
0
  6
Continuous
 62
     7
370
    15
100
AcDbEllipse
 10
140.61049479
 20
68.9194963578
 30
0.0
 11
-14.75368316065614
 21
31.09325491558114
 31
0.0
210
0.0
220
0.0
230
1.0
 40
0.3419987131
 41
3.300734856217129
 42
4.231496223360774
  0
SPLINE
  5
272
330
1F
100
AcDbEntity
  8
0
  6
Continuous
 62
     7
370
    15
100
AcDbSpline
210
0.0
220
0.0
230
1.0
 70
     8
 71
     3
 72
    12
 73
     8
 74
     0
 42
0.00000001
 43
0.00000001
 12
1.0
 22
0.0
 32
0.0
 13
1.0
 23
0.0
 33
0.0
 40
0.0
 40
0.0
 40
0.0
 40
0.0
 40
0.4999999999999964
 40
0.4999999999999964
 40
0.7499999999999982
 40
0.7499999999999982
 40
1.0
 40
1.0
 40
1.0
 40
1.0
 10
156.8629048676659
 20
59.01012703711005
 30
0.0
 10
156.8317596697038
 20
59.12423240297534
 30
0.0
 10
156.7894854033694
 20
59.23533873019412
 30
0.0
 10
156.6895398695441
 20
59.3854963376244
 30
0.0
 10
156.64980956484
 20
59.43248902924174
 30
0.0
 10
156.5529215148338
 20
59.50546461378021
 30
0.0
 10
156.4928562730873
 20
59.53142992645926
 30
0.0
 10
156.4298921657737
 20
59.53142992645926
 30
0.0
  0
LINE
  5
273
330
1F
100
AcDbEntity
  8
0
  6
Continuous
 62
     7
370
    15
100
AcDbLine
 10
156.4298921915
 20
59.5314295295
 30
0.0
 11
153.4854059758
 21
59.5314295295
 31
0.0
  0
SPLINE
  5
274
330
1F
100
AcDbEntity
  8
0
  6
Continuous
 62
     7
370
    15
100
AcDbSpline
210
0.0
220
0.0
230
1.0
 70
     8
 71
     3
 72
    12
 73
     8
 74
     0
 42
0.00000001
 43
0.00000001
 12
1.0
 22
0.0
 32
0.0
 13
1.0
 23
0.0
 33
0.0
 40
0.0
 40
0.0
 40
0.0
 40
0.0
 40
0.2499999999999986
 40
0.2499999999999986
 40
0.4999999999999972
 40
0.4999999999999972
 40
1.0
 40
1.0
 40
1.0
 40
1.0
 10
153.4854057929066
 20
59.53142992645917
 30
0.0
 10
153.4223488380088
 20
59.53142992645917
 30
0.0
 10
153.3632186882632
 20
59.50608357307848
 30
0.0
 10
153.2647711377299
 20
59.43196419093899
 30
0.0
 10
153.2257388995418
 20
59.38546767624098
 30
0.0
 10
153.1258490150849
 20
59.2353931692324
 30
0.0
 10
153.0835500414756
 20
59.12427546011754
 30
0.0
 10
153.0523930910143
 20
59.01012703711005
 30
0.0
  0
ELLIPSE
  5
275
330
1F
100
AcDbEntity
  8
0
  6
Continuous
 62
     7
370
    15
100
AcDbEllipse
 10
169.3048031687
 20
68.9194963578
 30
0.0
 11
14.75368316065621
 21
31.09325491558116
 31
0.0
210
0.0
220
0.0
230
1.0
 40
0.3419987131
 41
2.051689083818826
 42
2.982450450962501
  0
SPLINE
  5
276
330
1F
100
AcDbEntity
  8
0
  6
Continuous
 62
     7
370
    15
100
AcDbSpline
210
0.0
220
0.0
230
1.0
 70
     8
 71
     3
 72
    68
 73
    64
 74
     0
 42
0.00000001
 43
0.00000001
 12
1.0
 22
0.0
 32
0.0
 13
1.0
 23
0.0
 33
0.0
 40
-0.0624999999999999
 40
-0.0624999999999999
 40
0.0
 40
0.0
 40
0.0312499999999999
 40
0.0312499999999999
 40
0.0624999999999999
 40
0.0624999999999999
 40
0.0937499999999998
 40
0.0937499999999998
 40
0.1249999999999998
 40
0.1249999999999998
 40
0.1562499999999998
 40
0.1562499999999998
 40
0.1874999999999997
 40
0.1874999999999997
 40
0.2187499999999997
 40
0.2187499999999997
 40
0.2499999999999997
 40
0.2499999999999997
 40
0.2812499999999997
 40
0.2812499999999997
 40
0.3124999999999997
 40
0.3124999999999997
 40
0.3437499999999997
 40
0.3437499999999997
 40
0.3749999999999997
 40
0.3749999999999997
 40
0.4062499999999997
 40
0.4062499999999997
 40
0.4374999999999997
 40
0.4374999999999997
 40
0.4687499999999997
 40
0.4687499999999997
 40
0.4999999999999997
 40
0.4999999999999997
 40
0.5312499999999996
 40
0.5312499999999996
 40
0.5624999999999996
 40
0.5624999999999996
 40
0.5937499999999996
 40
0.5937499999999996
 40
0.6249999999999997
 40
0.6249999999999997
 40
0.6562499999999997
 40
0.6562499999999997
 40
0.6874999999999998
 40
0.6874999999999998
 40
0.7187499999999998
 40
0.7187499999999998
 40
0.7499999999999998
 40
0.7499999999999998
 40
0.7812499999999999
 40
0.7812499999999999
 40
0.8124999999999999
 40
0.8124999999999999
 40
0.84375
 40
0.84375
 40
0.875
 40
0.875
 40
0.9062500000000001
 40
0.9062500000000001
 40
0.9375000000000001
 40
0.9375000000000001
 40
1.0
 40
1.0
 40
1.03125
 40
1.03125
 10
176.9576489793401
 20
68.5228669048655
 30
0.0
 10
176.9576489793402
 20
69.11781108426047
 30
0.0
 10
176.9771196524405
 20
69.31278946506312
 30
0.0
 10
177.0533886785607
 20
69.696353257134
 30
0.0
 10
177.1111207855751
 20
69.88693447068702
 30
0.0
 10
177.2617396965537
 20
70.25018505135226
 30
0.0
 10
177.3538931608638
 20
70.42245232218943
 30
0.0
 10
177.5715936691236
 20
70.7484745013894
 30
0.0
 10
177.698234070259
 20
70.90275011798626
 30
0.0
 10
177.9748527764481
 20
71.17931281637917
 30
0.0
 10
178.1258076934555
 20
71.30345519663751
 30
0.0
 10
178.4536957216841
 20
71.52276869098505
 30
0.0
 10
178.6281446908979
 20
71.6158986459698
 30
0.0
 10
178.9890762936461
 20
71.76555220847474
 30
0.0
 10
179.1782280316555
 20
71.82319893074023
 30
0.0
 10
179.5655227169132
 20
71.90030541577468
 30
0.0
 10
179.7602442614624
 20
71.91938917864934
 30
0.0
 10
180.1517824989773
 20
71.91960264521336
 30
0.0
 10
180.3506488955546
 20
71.90010741835802
 30
0.0
 10
180.7354891067807
 20
71.8235376737267
 30
0.0
 10
180.9225483581272
 20
71.76688458230007
 30
0.0
 10
181.2858930752824
 20
71.61660928346721
 30
0.0
 10
181.4614362983025
 20
71.52272630148227
 30
0.0
 10
181.7864177245416
 20
71.30566217704478
 30
0.0
 10
181.9379306230941
 20
71.18173134793406
 30
0.0
 10
182.2181347212044
 20
70.90177452950208
 30
0.0
 10
182.3422388211809
 20
70.75031584422388
 30
0.0
 10
182.5595471399404
 20
70.42558223435131
 30
0.0
 10
182.6535451408248
 20
70.2502170352806
 30
0.0
 10
182.8041918118968
 20
69.88689882699569
 30
0.0
 10
182.860993842016
 20
69.69990675372733
 30
0.0
 10
182.9378778446589
 20
69.31533431457329
 30
0.0
 10
182.957577066964
 20
69.11642661429133
 30
0.0
 10
182.9577204894352
 20
68.72476322976136
 30
0.0
 10
182.9388016304388
 20
68.53005528313037
 30
0.0
 10
182.862109628701
 20
68.14293739924638
 30
0.0
 10
182.8045714610477
 20
67.9534662686266
 30
0.0
 10
182.6552069726966
 20
67.5923329833346
 30
0.0
 10
182.5622945871614
 20
67.417913472546
 30
0.0
 10
182.3431944593097
 20
67.0897142214159
 30
0.0
 10
182.2191611001435
 20
66.93863586438205
 30
0.0
 10
181.9428577549537
 20
66.66180030116303
 30
0.0
 10
181.788709413456
 20
66.53503710057545
 30
0.0
 10
181.4628451748274
 20
66.31703354810591
 30
0.0
 10
181.2906841048364
 20
66.22475290607359
 30
0.0
 10
180.9277306281897
 20
66.07387401620302
 30
0.0
 10
180.7370889449705
 20
66.015927764774
 30
0.0
 10
180.3535794396641
 20
65.93931577518134
 30
0.0
 10
180.1586863877721
 20
65.91968775026172
 30
0.0
 10
179.7623648752724
 20
65.91930772370576
 30
0.0
 10
179.5670020358635
 20
65.93862007884047
 30
0.0
 10
179.1834009587549
 20
66.01454051862957
 30
0.0
 10
178.9929086667191
 20
66.07204606334741
 30
0.0
 10
178.6293426433183
 20
66.22240545687416
 30
0.0
 10
178.4569832906226
 20
66.31442424955529
 30
0.0
 10
178.1308625419543
 20
66.53176741367135
 30
0.0
 10
177.9764380587536
 20
66.65828622610822
 30
0.0
 10
177.6995685288787
 20
66.93471912829591
 30
0.0
 10
177.5753187829074
 20
67.0855487319825
 30
0.0
 10
177.3558199149516
 20
67.41306130152407
 30
0.0
 10
177.2624221452456
 20
67.58761034862619
 30
0.0
 10
177.0374609105452
 20
68.12881705653236
 30
0.0
 10
176.9576489793401
 20
68.5228669048655
 30
0.0
 10
176.9576489793402
 20
69.11781108426047
 30
0.0
  0
ELLIPSE
  5
277
330
1F
100
AcDbEntity
  8
0
  6
Continuous
 62
     7
370
    15
100
AcDbEllipse
 10
240.4959962649
 20
68.9194963578
 30
0.0
 11
256.546912481199
 21
-5.684341886080801E-14
 31
0.0
210
0.0
220
0.0
230
1.0
 40
0.1227845609
 41
1.709585402095603
 42
1.733358820962247
  0
SPLINE
  5
278
330
1F
100
AcDbEntity
  8
0
  6
Continuous
 62
     7
370
    15
100
AcDbSpline
210
0.0
220
0.0
230
1.0
 70
     8
 71
     3
 72
    20
 73
    16
 74
     0
 42
0.00000001
 43
0.00000001
 12
1.0
 22
0.0
 32
0.0
 13
1.0
 23
0.0
 33
0.0
 40
0.0
 40
0.0
 40
0.0
 40
0.0
 40
0.25
 40
0.25
 40
0.375
 40
0.375
 40
0.5
 40
0.5
 40
0.625
 40
0.625
 40
0.75
 40
0.75
 40
0.875
 40
0.875
 40
1.0
 40
1.0
 40
1.0
 40
1.0
 10
193.9101950778841
 20
98.95263495091723
 30
0.0
 10
194.0603892532161
 20
99.12995138667097
 30
0.0
 10
194.28850895856
 20
99.28115367458047
 30
0.0
 10
194.7520063632927
 20
99.47620747057358
 30
0.0
 10
194.9269950635273
 20
99.53560262919233
 30
0.0
 10
195.3070730558128
 20
99.64134027793298
 30
0.0
 10
195.5134021064564
 20
99.68825414199713
 30
0.0
 10
195.9591649170305
 20
99.77191367646476
 30
0.0
 10
196.200801053695
 20
99.80887118747577
 30
0.0
 10
196.7035603864118
 20
99.8719615745079
 30
0.0
 10
196.9654452633549
 20
99.89837016919272
 30
0.0
 10
197.5100026788228
 20
99.94263998816122
 30
0.0
 10
197.7943232872532
 20
99.96057122859888
 30
0.0
 10
198.3769876183979
 20
99.9883330391083
 30
0.0
 10
198.6732693830659
 20
99.9981269345762
 30
0.0
 10
198.9745339751877
 20
100.0041937615707
 30
0.0
  0
ELLIPSE
  5
279
330
1F
100
AcDbEntity
  8
0
  6
Continuous
 62
     7
370
    15
100
AcDbEllipse
 10
196.4558616951
 20
68.9194963578
 30
0.0
 11
0.0
 21
31.49999999999998
 31
0.0
210
0.0
220
0.0
230
1.0
 40
0.2679491924
 41
0.3063755858277245
 42
2.835217067762068
  0
SPLINE
  5
27A
330
1F
100
AcDbEntity
  8
0
  6
Continuous
 62
     7
370
    15
100
AcDbSpline
210
0.0
220
0.0
230
1.0
 70
     8
 71
     3
 72
    20
 73
    16
 74
     0
 42
0.00000001
 43
0.00000001
 12
1.0
 22
0.0
 32
0.0
 13
1.0
 23
0.0
 33
0.0
 40
0.0
 40
0.0
 40
0.0
 40
0.0
 40
0.2500000000000002
 40
0.2500000000000002
 40
0.3750000000000001
 40
0.3750000000000001
 40
0.5000000000000001
 40
0.5000000000000001
 40
0.6250000000000001
 40
0.6250000000000001
 40
0.75
 40
0.75
 40
0.875
 40
0.875
 40
1.0
 40
1.0
 40
1.0
 40
1.0
 10
198.9745339751877
 20
37.83479895402016
 30
0.0
 10
198.3721891654921
 20
37.84692889509866
 30
0.0
 10
197.7965205430785
 20
37.87330160177169
 30
0.0
 10
196.9724260760176
 20
37.93993743558315
 30
0.0
 10
196.7065607853131
 20
37.96672295377576
 30
0.0
 10
196.2057001999311
 20
38.02943948498186
 30
0.0
 10
195.9685768316195
 20
38.06552760104126
 30
0.0
 10
195.5211119911792
 20
38.14908471931504
 30
0.0
 10
195.310196722049
 20
38.19688024228486
 30
0.0
 10
194.9290665400841
 20
38.30271830497546
 30
0.0
 10
194.756920020868
 20
38.36104239185754
 30
0.0
 10
194.4487297244558
 20
38.49009934961224
 30
0.0
 10
194.3120134748201
 20
38.56136585494419
 30
0.0
 10
194.0805095837739
 20
38.71519377021406
 30
0.0
 10
193.9852854439284
 20
38.79770748221778
 30
0.0
 10
193.9101950778841
 20
38.88635776467369
 30
0.0
  0
ELLIPSE
  5
27B
330
1F
100
AcDbEntity
  8
0
  6
Continuous
 62
     7
370
    15
100
AcDbEllipse
 10
240.4959962649
 20
68.9194963578
 30
0.0
 11
256.546912481199
 21
-5.684341886080801E-14
 31
0.0
210
0.0
220
0.0
230
1.0
 40
0.1227845609
 41
4.549826486217345
 42
4.573599905083987
  0
ELLIPSE
  5
27C
330
1F
100
AcDbEntity
  8
0
  6
Continuous
 62
     7
370
    15
100
AcDbEllipse
 10
241.9276822327
 20
68.9194963578
 30
0.0
 11
37.98674877545637
 21
31.44244822584267
 31
0.0
210
0.0
220
0.0
230
1.0
 40
0.0501036136
 41
3.202050855131292
 42
3.340839930431973
  0
ELLIPSE
  5
27D
330
1F
100
AcDbEntity
  8
0
  6
Continuous
 62
     7
370
    15
100
AcDbEllipse
 10
241.9276822327
 20
68.9194963578
 30
0.0
 11
37.98674877545665
 21
-31.4424482258429
 31
0.0
210
0.0
220
0.0
230
1.0
 40
0.0501036136
 41
2.942345376747872
 42
3.081134452048581
  0
LINE
  5
27E
330
1F
100
AcDbEntity
  8
0
  6
Continuous
 62
     7
370
    15
100
AcDbLine
 10
142.9576489793
 20
37.9194968644
 30
0.0
 11
142.9576489793
 21
99.9194958512
 31
0.0
  0
ELLIPSE
  5
27F
330
1F
100
AcDbEntity
  8
0
  6
Continuous
 62
     7
370
    15
100
AcDbEllipse
 10
192.0212373425
 20
68.9194963578
 30
0.0
 11
0.0
 21
2.5
 31
0.0
210
0.0
220
0.0
230
1.0
 40
0.3086063289
 41
0.0
 42
6.283185307179586
  0
SPLINE
  5
280
330
1F
100
AcDbEntity
  8
0
  6
Continuous
 62
     7
370
    15
100
AcDbSpline
210
0.0
220
0.0
230
1.0
 70
     8
 71
     3
 72
    12
 73
     8
 74
     0
 42
0.00000001
 43
0.00000001
 12
1.0
 22
0.0
 32
0.0
 13
1.0
 23
0.0
 33
0.0
 40
0.0
 40
0.0
 40
0.0
 40
0.0
 40
0.4999999999999996
 40
0.4999999999999996
 40
0.7499999999999997
 40
0.7499999999999997
 40
1.0
 40
1.0
 40
1.0
 40
1.0
 10
142.1411366928836
 20
47.06470265531961
 30
0.0
 10
142.1975731937908
 20
47.06328477397785
 30
0.0
 10
142.2666578244796
 20
47.06172043772956
 30
0.0
 10
142.3854600961975
 20
47.05877624575511
 30
0.0
 10
142.4256453716676
 20
47.05773804265772
 30
0.0
 10
142.4990264190714
 20
47.05580414744309
 30
0.0
 10
142.5324359828141
 20
47.05490926015428
 30
0.0
 10
142.5626720904705
 20
47.05412546988194
 30
0.0
  0
SPLINE
  5
281
330
1F
100
AcDbEntity
  8
0
  6
Continuous
 62
     7
370
    15
100
AcDbSpline
210
0.0
220
0.0
230
1.0
 70
     8
 71
     3
 72
    16
 73
    12
 74
     0
 42
0.00000001
 43
0.00000001
 12
1.0
 22
0.0
 32
0.0
 13
1.0
 23
0.0
 33
0.0
 40
0.0
 40
0.0
 40
0.0
 40
0.0
 40
0.0624999999999996
 40
0.0624999999999996
 40
0.1249999999999992
 40
0.1249999999999992
 40
0.2499999999999999
 40
0.2499999999999999
 40
0.5000000000000013
 40
0.5000000000000013
 40
1.0
 40
1.0
 40
1.0
 40
1.0
 10
142.5626720904333
 20
47.05412546990618
 30
0.0
 10
142.5742524980213
 20
47.05382527879483
 30
0.0
 10
142.5875620247825
 20
47.05249753053584
 30
0.0
 10
142.6168634548687
 20
47.04579885576082
 30
0.0
 10
142.631677554753
 20
47.04044067265513
 30
0.0
 10
142.6675059564558
 20
47.02339502348778
 30
0.0
 10
142.6816255808189
 20
47.01193248571203
 30
0.0
 10
142.7161297249073
 20
46.9803691603398
 30
0.0
 10
142.7272342756119
 20
46.96247186129452
 30
0.0
 10
142.7534104528281
 20
46.91231044368028
 30
0.0
 10
142.7576489793402
 20
46.88456603148371
 30
0.0
 10
142.7576489793402
 20
46.85990186955416
 30
0.0
  0
LINE
  5
282
330
1F
100
AcDbEntity
  8
0
  6
Continuous
 62
     7
370
    15
100
AcDbLine
 10
142.7576489844
 20
61.8976091299
 30
0.0
 11
142.7576489844
 21
46.3796758357
 31
0.0
  0
SPLINE
  5
283
330
1F
100
AcDbEntity
  8
0
  6
Continuous
 62
     7
370
    15
100
AcDbSpline
210
0.0
220
0.0
230
1.0
 70
     8
 71
     3
 72
    16
 73
    12
 74
     0
 42
0.00000001
 43
0.00000001
 12
1.0
 22
0.0
 32
0.0
 13
1.0
 23
0.0
 33
0.0
 40
0.0
 40
0.0
 40
0.0
 40
0.0
 40
0.4999999999999968
 40
0.4999999999999968
 40
0.7499999999999969
 40
0.7499999999999969
 40
0.8749999999999979
 40
0.8749999999999979
 40
0.937499999999999
 40
0.937499999999999
 40
1.0
 40
1.0
 40
1.0
 40
1.0
 10
142.7576489793402
 20
61.89760903204538
 30
0.0
 10
142.7576489793402
 20
62.01130157617326
 30
0.0
 10
142.7535027042622
 20
62.12562173752276
 30
0.0
 10
142.7275371088687
 20
62.29867002801983
 30
0.0
 10
142.7160762034913
 20
62.35784553518155
 30
0.0
 10
142.681764465717
 20
62.44096865464969
 30
0.0
 10
142.6677397297874
 20
62.46908997075036
 30
0.0
 10
142.6317167667535
 20
62.49770578472783
 30
0.0
 10
142.6169622576639
 20
62.50349883262964
 30
0.0
 10
142.587610096517
 20
62.50190540669261
 30
0.0
 10
142.5742702220129
 20
62.49540900336879
 30
0.0
 10
142.5626720904645
 20
62.48689325716566
 30
0.0
  0
SPLINE
  5
284
330
1F
100
AcDbEntity
  8
0
  6
Continuous
 62
     7
370
    15
100
AcDbSpline
210
0.0
220
0.0
230
1.0
 70
     8
 71
     3
 72
    12
 73
     8
 74
     0
 42
0.00000001
 43
0.00000001
 12
1.0
 22
0.0
 32
0.0
 13
1.0
 23
0.0
 33
0.0
 40
0.0
 40
0.0
 40
0.0
 40
0.0
 40
0.2500000000000004
 40
0.2500000000000004
 40
0.5000000000000009
 40
0.5000000000000009
 40
1.0
 40
1.0
 40
1.0
 40
1.0
 10
142.5626720904716
 20
62.48689325715654
 30
0.0
 10
142.5324736490309
 20
62.46472052511148
 30
0.0
 10
142.499106293695
 20
62.44564086923425
 30
0.0
 10
142.4259510178651
 20
62.42046782479153
 30
0.0
 10
142.3856983188411
 20
62.41491128837475
 30
0.0
 10
142.2679695755663
 20
62.42582309936149
 30
0.0
 10
142.1975111275073
 20
62.46775885477229
 30
0.0
 10
142.141136692889
 20
62.51697063715383
 30
0.0
  0
SPLINE
  5
285
330
1F
100
AcDbEntity
  8
0
  6
Continuous
 62
     7
370
    15
100
AcDbSpline
210
0.0
220
0.0
230
1.0
 70
     8
 71
     3
 72
    12
 73
     8
 74
     0
 42
0.00000001
 43
0.00000001
 12
1.0
 22
0.0
 32
0.0
 13
1.0
 23
0.0
 33
0.0
 40
0.0
 40
0.0
 40
0.0
 40
0.0
 40
0.5000000000000009
 40
0.5000000000000009
 40
0.7500000000000006
 40
0.7500000000000006
 40
1.0
 40
1.0
 40
1.0
 40
1.0
 10
141.6363286357805
 20
63.73332202903441
 30
0.0
 10
141.6800789876649
 20
63.51287504405988
 30
0.0
 10
141.7329691387894
 20
63.29733005425431
 30
0.0
 10
141.8445806819311
 20
62.9849159776824
 30
0.0
 10
141.8871400258346
 20
62.88283650206648
 30
0.0
 10
141.9921172611721
 20
62.68839648942472
 30
0.0
 10
142.0536845042666
 20
62.59331159036105
 30
0.0
 10
142.141136692889
 20
62.51697063715386
 30
0.0
  0
SPLINE
  5
286
330
1F
100
AcDbEntity
  8
0
  6
Continuous
 62
     7
370
    15
100
AcDbSpline
210
0.0
220
0.0
230
1.0
 70
     8
 71
     3
 72
    12
 73
     8
 74
     0
 42
0.00000001
 43
0.00000001
 12
1.0
 22
0.0
 32
0.0
 13
1.0
 23
0.0
 33
0.0
 40
0.0
 40
0.0
 40
0.0
 40
0.0
 40
0.2499999999999992
 40
0.2499999999999992
 40
0.4999999999999984
 40
0.4999999999999984
 40
1.0
 40
1.0
 40
1.0
 40
1.0
 10
142.1411366928889
 20
75.32202207843702
 30
0.0
 10
142.052643285321
 20
75.24477219832872
 30
0.0
 10
141.9925852445552
 20
75.15145287443949
 30
0.0
 10
141.8867369715726
 20
74.95541982147004
 30
0.0
 10
141.8442034502951
 20
74.8530934632583
 30
0.0
 10
141.7330521434715
 20
74.54174905748242
 30
0.0
 10
141.6801212864237
 20
74.3263308043044
 30
0.0
 10
141.6363286357805
 20
74.10567068655654
 30
0.0
  0
SPLINE
  5
287
330
1F
100
AcDbEntity
  8
0
  6
Continuous
 62
     7
370
    15
100
AcDbSpline
210
0.0
220
0.0
230
1.0
 70
     8
 71
     3
 72
    12
 73
     8
 74
     0
 42
0.00000001
 43
0.00000001
 12
1.0
 22
0.0
 32
0.0
 13
1.0
 23
0.0
 33
0.0
 40
0.0
 40
0.0
 40
0.0
 40
0.0
 40
0.4999999999999998
 40
0.4999999999999998
 40
0.7499999999999997
 40
0.7499999999999997
 40
1.0
 40
1.0
 40
1.0
 40
1.0
 10
142.1411366928889
 20
75.322022078437
 30
0.0
 10
142.1974452411845
 20
75.37117634568084
 30
0.0
 10
142.2677199019027
 20
75.41313366428457
 30
0.0
 10
142.3857578162263
 20
75.424093341817
 30
0.0
 10
142.4259340570802
 20
75.41858458356967
 30
0.0
 10
142.4998911517581
 20
75.39302735478071
 30
0.0
 10
142.5325075394695
 20
75.3742473069414
 30
0.0
 10
142.5626720904653
 20
75.35209945842468
 30
0.0
  0
SPLINE
  5
288
330
1F
100
AcDbEntity
  8
0
  6
Continuous
 62
     7
370
    15
100
AcDbSpline
210
0.0
220
0.0
230
1.0
 70
     8
 71
     3
 72
    16
 73
    12
 74
     0
 42
0.00000001
 43
0.00000001
 12
1.0
 22
0.0
 32
0.0
 13
1.0
 23
0.0
 33
0.0
 40
0.0
 40
0.0
 40
0.0
 40
0.0
 40
0.0625000000000007
 40
0.0625000000000007
 40
0.1250000000000013
 40
0.1250000000000013
 40
0.2500000000000038
 40
0.2500000000000038
 40
0.5000000000000037
 40
0.5000000000000037
 40
1.0
 40
1.0
 40
1.0
 40
1.0
 10
142.5626720904336
 20
75.35209945837019
 30
0.0
 10
142.5742849902729
 20
75.34357286877493
 30
0.0
 10
142.5876361747054
 20
75.33707260724213
 30
0.0
 10
142.6170360143246
 20
75.33550321012461
 30
0.0
 10
142.6318767388799
 20
75.34138660075526
 30
0.0
 10
142.6677099468485
 20
75.36993423680579
 30
0.0
 10
142.6818231546701
 20
75.39810125611162
 30
0.0
 10
142.7163145258889
 20
75.48185551453354
 30
0.0
 10
142.7273985969993
 20
75.53956892815498
 30
0.0
 10
142.7535214147953
 20
75.71315946480081
 30
0.0
 10
142.7576489793402
 20
75.82818751744274
 30
0.0
 10
142.7576489793402
 20
75.94138368354557
 30
0.0
  0
LINE
  5
289
330
1F
100
AcDbEntity
  8
0
  6
Continuous
 62
     7
370
    15
100
AcDbLine
 10
142.7576489844
 20
91.4593168799
 30
0.0
 11
142.7576489844
 21
75.9413835857
 31
0.0
  0
SPLINE
  5
28A
330
1F
100
AcDbEntity
  8
0
  6
Continuous
 62
     7
370
    15
100
AcDbSpline
210
0.0
220
0.0
230
1.0
 70
     8
 71
     3
 72
    16
 73
    12
 74
     0
 42
0.00000001
 43
0.00000001
 12
1.0
 22
0.0
 32
0.0
 13
1.0
 23
0.0
 33
0.0
 40
0.0
 40
0.0
 40
0.0
 40
0.0
 40
0.5000000000000033
 40
0.5000000000000033
 40
0.7500000000000033
 40
0.7500000000000033
 40
0.8750000000000017
 40
0.8750000000000017
 40
0.9375000000000009
 40
0.9375000000000009
 40
1.0
 40
1.0
 40
1.0
 40
1.0
 10
142.7576489793402
 20
90.97909084603678
 30
0.0
 10
142.7576489793402
 20
90.95441968999383
 30
0.0
 10
142.7534832808802
 20
90.92683785860258
 30
0.0
 10
142.7272249525553
 20
90.87649498777928
 30
0.0
 10
142.7157211708177
 20
90.85820548971738
 30
0.0
 10
142.6815904114712
 20
90.82705045868033
 30
0.0
 10
142.6671685248005
 20
90.81541108346858
 30
0.0
 10
142.6316015563626
 20
90.79852905753752
 30
0.0
 10
142.6166497880679
 20
90.79313995372982
 30
0.0
 10
142.5876459697081
 20
90.78651945778535
 30
0.0
 10
142.5742306156989
 20
90.78516686957892
 30
0.0
 10
142.5626720904623
 20
90.7848672457073
 30
0.0
  0
SPLINE
  5
28B
330
1F
100
AcDbEntity
  8
0
  6
Continuous
 62
     7
370
    15
100
AcDbSpline
210
0.0
220
0.0
230
1.0
 70
     8
 71
     3
 72
    12
 73
     8
 74
     0
 42
0.00000001
 43
0.00000001
 12
1.0
 22
0.0
 32
0.0
 13
1.0
 23
0.0
 33
0.0
 40
0.0
 40
0.0
 40
0.0
 40
0.0
 40
0.2499999999999996
 40
0.2499999999999996
 40
0.4999999999999996
 40
0.4999999999999996
 40
1.0
 40
1.0
 40
1.0
 40
1.0
 10
142.5626720904716
 20
90.78486724570904
 30
0.0
 10
142.5324843139219
 20
90.78408470829146
 30
0.0
 10
142.4991305098302
 20
90.78319137647294
 30
0.0
 10
142.4260043066342
 20
90.78126406766934
 30
0.0
 10
142.3857691036101
 20
90.78022453645667
 30
0.0
 10
142.268077473477
 20
90.7773066531094
 30
0.0
 10
142.197696800317
 20
90.77571104703921
 30
0.0
 10
142.1411366928864
 20
90.77429006027135
 30
0.0
  0
SPLINE
  5
28C
330
1F
100
AcDbEntity
  8
0
  6
Continuous
 62
     7
370
    15
100
AcDbSpline
210
0.0
220
0.0
230
1.0
 70
     8
 71
     3
 72
    16
 73
    12
 74
     0
 42
0.00000001
 43
0.00000001
 12
1.0
 22
0.0
 32
0.0
 13
1.0
 23
0.0
 33
0.0
 40
0.0
 40
0.0
 40
0.0
 40
0.0
 40
0.2499999999999999
 40
0.2499999999999999
 40
0.3749999999999999
 40
0.3749999999999999
 40
0.5
 40
0.5
 40
0.75
 40
0.75
 40
1.0
 40
1.0
 40
1.0
 40
1.0
 10
141.6363286357805
 20
74.10567068655654
 30
0.0
 10
141.4750961582961
 20
73.2932609113097
 30
0.0
 10
141.3546163186564
 20
72.45318261692496
 30
0.0
 10
141.2322358013431
 20
71.15188756756218
 30
0.0
 10
141.2012581409456
 20
70.71120653197742
 30
0.0
 10
141.1596444033177
 20
69.81536689104627
 30
0.0
 10
141.1494084903849
 20
69.36870875984383
 30
0.0
 10
141.1492200933288
 20
68.03339880270394
 30
0.0
 10
141.1893647959664
 20
67.14890342939641
 30
0.0
 10
141.3535185509059
 20
65.3916535413704
 30
0.0
 10
141.4750702013155
 20
64.54586259495728
 30
0.0
 10
141.6363286357805
 20
63.73332202903443
 30
0.0
  0
LINE
  5
28D
330
1F
100
AcDbEntity
  8
0
  6
Continuous
 62
     7
370
    15
100
AcDbLine
 10
140.7576489913
 20
75.4046744931
 30
0.0
 11
140.7576489913
 21
62.4343182225
 31
0.0
  0
LINE
  5
28E
330
1F
100
AcDbEntity
  8
0
  6
Continuous
 62
     7
370
    15
100
AcDbLine
 10
106.4576495158
 20
74.9738069515
 30
0.0
 11
106.4576495158
 21
62.865185764
 31
0.0
  0
LINE
  5
28F
330
1F
100
AcDbEntity
  8
0
  6
Continuous
 62
     7
370
    15
100
AcDbLine
 10
104.9576502012
 20
74.5407941084
 30
0.0
 11
104.9576502012
 21
63.2981986072
 31
0.0
  0
LINE
  5
290
330
1F
100
AcDbEntity
  8
0
  6
Continuous
 62
     7
370
    15
100
AcDbLine
 10
106.4576495158
 20
74.9738069515
 30
0.0
 11
106.4576495158
 21
90.0778600279
 31
0.0
  0
LINE
  5
291
330
1F
100
AcDbEntity
  8
0
  6
Continuous
 62
     7
370
    15
100
AcDbLine
 10
106.4576495158
 20
90.0778600279
 30
0.0
 11
140.7576489913
 21
90.9395960424
 31
0.0
  0
LINE
  5
292
330
1F
100
AcDbEntity
  8
0
  6
Continuous
 62
     7
370
    15
100
AcDbLine
 10
140.7576489913
 20
75.4046744931
 30
0.0
 11
140.7576489913
 21
90.9395960424
 31
0.0
  0
ARC
  5
293
330
1F
100
AcDbEntity
  8
0
  6
Continuous
 62
     7
370
    15
100
AcDbCircle
 10
140.9575858903
 20
90.9446182535
 30
0.0
 40
0.2000000000000059
100
AcDbArc
 50
181.4391666667
 51
271.4391666667
  0
LINE
  5
294
330
1F
100
AcDbEntity
  8
0
  6
Continuous
 62
     7
370
    15
100
AcDbLine
 10
140.7576489913
 20
46.8993966732
 30
0.0
 11
140.7576489913
 21
62.4343182225
 31
0.0
  0
ARC
  5
295
330
1F
100
AcDbEntity
  8
0
  6
Continuous
 62
     7
370
    15
100
AcDbCircle
 10
140.9575858903
 20
46.8943744621
 30
0.0
 40
0.1999999999999995
100
AcDbArc
 50
88.5608333333
 51
178.5608333333
  0
LINE
  5
296
330
1F
100
AcDbEntity
  8
0
  6
Continuous
 62
     7
370
    15
100
AcDbLine
 10
106.4576495158
 20
47.7611326877
 30
0.0
 11
106.4576495158
 21
62.865185764
 31
0.0
  0
LINE
  5
297
330
1F
100
AcDbEntity
  8
0
  6
Continuous
 62
     7
370
    15
100
AcDbLine
 10
106.4576495158
 20
47.7611326877
 30
0.0
 11
140.7576489913
 21
46.8993966732
 31
0.0
  0
LINE
  5
298
330
1F
100
AcDbEntity
  8
0
  6
Continuous
 62
     7
370
    15
100
AcDbLine
 10
140.9626091084
 20
90.7446814034
 30
0.0
 11
142.1411367085
 21
90.7742900107
 31
0.0
  0
LINE
  5
299
330
1F
100
AcDbEntity
  8
0
  6
Continuous
 62
     7
370
    15
100
AcDbLine
 10
140.9626091084
 20
47.0943113122
 30
0.0
 11
142.1411367085
 21
47.0647027049
 31
0.0
  0
LINE
  5
29A
330
1F
100
AcDbEntity
  8
0
  6
Continuous
 62
     7
370
    15
100
AcDbLine
 10
104.9576502012
 20
89.2118343416
 30
0.0
 11
106.4576495158
 21
90.0778600279
 31
0.0
  0
LINE
  5
29B
330
1F
100
AcDbEntity
  8
0
  6
Continuous
 62
     7
370
    15
100
AcDbLine
 10
104.9576502012
 20
74.5407941084
 30
0.0
 11
104.9576502012
 21
89.2118343416
 31
0.0
  0
LINE
  5
29C
330
1F
100
AcDbEntity
  8
0
  6
Continuous
 62
     7
370
    15
100
AcDbLine
 10
104.9576502012
 20
48.6271583739
 30
0.0
 11
106.4576495158
 21
47.7611326877
 31
0.0
  0
LINE
  5
29D
330
1F
100
AcDbEntity
  8
0
  6
Continuous
 62
     7
370
    15
100
AcDbLine
 10
104.9576502012
 20
48.6271583739
 30
0.0
 11
104.9576502012
 21
63.2981986072
 31
0.0
  0
LINE
  5
29E
330
1F
100
AcDbEntity
  8
0
  6
Continuous
 62
     7
370
    15
100
AcDbLine
 10
227.1599981653
 20
71.987203535
 30
0.0
 11
226.1648986208
 21
72.8284658197
 31
0.0
  0
ARC
  5
29F
330
1F
100
AcDbEntity
  8
0
  6
Continuous
 62
     7
370
    15
100
AcDbCircle
 10
224.6688405467
 20
71.0255683581
 30
0.0
 40
2.342782324058977
100
AcDbArc
 50
50.3138535196
 51
230.1080302396
  0
LINE
  5
2A0
330
1F
100
AcDbEntity
  8
0
  6
Continuous
 62
     7
370
    15
100
AcDbLine
 10
223.166315602
 20
69.2280567981
 30
0.0
 11
232.7188614475
 21
61.1523228962
 31
0.0
  0
LINE
  5
2A1
330
1F
100
AcDbEntity
  8
0
  6
Continuous
 62
     7
370
    15
100
AcDbLine
 10
232.7188614475
 20
61.1523228962
 30
0.0
 11
205.0042848753
 21
37.7223917547
 31
0.0
  0
LINE
  5
2A2
330
1F
100
AcDbEntity
  8
0
  6
Continuous
 62
     7
370
    15
100
AcDbLine
 10
232.7188614475
 20
76.6866698194
 30
0.0
 11
205.0042848753
 21
100.1166009608
 31
0.0
  0
LINE
  5
2A3
330
1F
100
AcDbEntity
  8
0
  6
Continuous
 62
     7
370
    15
100
AcDbLine
 10
232.7188614475
 20
76.6866698194
 30
0.0
 11
227.1599981653
 21
71.987203535
 31
0.0
  0
CIRCLE
  5
2A4
330
1F
100
AcDbEntity
  8
0
  6
Continuous
 62
     7
370
    15
100
AcDbCircle
 10
221.7822717407
 20
63.5138662078
 30
0.0
 40
3.991984062047866
  0
ARC
  5
2A5
330
1F
100
AcDbEntity
  8
0
  6
Continuous
 62
     7
370
    15
100
AcDbCircle
 10
224.0914789142
 20
71.0559068578
 30
0.0
 40
2.322465334200593
100
AcDbArc
 50
49.7491603469
 51
82.8833066308
  0
LINE
  5
2A6
330
1F
100
AcDbEntity
  8
0
  6
Continuous
 62
     7
370
    15
100
AcDbLine
 10
226.5872124302
 20
71.987203535
 30
0.0
 11
227.1599981653
 21
71.987203535
 31
0.0
  0
LINE
  5
2A7
330
1F
100
AcDbEntity
  8
0
  6
Continuous
 62
     7
370
    15
100
AcDbLine
 10
226.5872124302
 20
71.987203535
 30
0.0
 11
226.6018379199
 21
71.974839995
 31
0.0
  0
LINE
  5
2A8
330
1F
100
AcDbEntity
  8
0
  6
Continuous
 62
     7
370
    15
100
AcDbLine
 10
225.2338144647
 20
72.8284658197
 30
0.0
 11
226.4226887094
 21
71.823388318
 31
0.0
  0
LINE
  5
2A9
330
1F
100
AcDbEntity
  8
0
  6
Continuous
 62
     7
370
    15
100
AcDbLine
 10
222.9125264751
 20
69.6110790394
 30
0.0
 11
222.5952285992
 21
69.9459305996
 31
0.0
  0
ARC
  5
2AA
330
1F
100
AcDbEntity
  8
0
  6
Continuous
 62
     7
370
    15
100
AcDbCircle
 10
224.251786216
 20
71.2457112414
 30
0.0
 40
2.074022098250298
100
AcDbArc
 50
49.7411747513
 51
93.2596478073
  0
LINE
  5
2AB
330
1F
100
AcDbEntity
  8
0
  6
Continuous
 62
     7
370
    15
100
AcDbLine
 10
223.3591664301
 20
69.2334847498
 30
0.0
 11
222.9125264751
 21
69.6110790394
 31
0.0
  0
ARC
  5
2AC
330
1F
100
AcDbEntity
  8
0
  6
Continuous
 62
     7
370
    15
100
AcDbCircle
 10
223.8929780085
 20
71.24474995
 30
0.0
 40
2.075089963877577
100
AcDbArc
 50
49.7474288503
 51
85.0183910361
  0
CIRCLE
  5
2AD
330
1F
100
AcDbEntity
  8
0
  6
HIDDEN
 62
     7
370
     0
100
AcDbCircle
 10
221.7034715754
 20
63.5316169178
 30
0.0
 40
3.978367621152751
  0
LINE
  5
2AE
330
1F
100
AcDbEntity
  8
0
  6
HIDDEN
 62
     7
370
     0
100
AcDbLine
 10
219.5538568961
 20
63.5099827576
 30
0.0
 11
220.0086775886
 21
63.5099827576
 31
0.0
  0
CIRCLE
  5
2AF
330
1F
100
AcDbEntity
  8
0
  6
HIDDEN
 62
     7
370
     0
100
AcDbCircle
 10
221.0884488629
 20
63.5316138154
 30
0.0
 40
3.978370731203402
  0
LINE
  5
2B0
330
1F
100
AcDbEntity
  8
0
  6
HIDDEN
 62
     7
370
     0
100
AcDbLine
 10
220.4134303795
 20
65.0099825378
 30
0.0
 11
220.8682510721
 21
65.0099825378
 31
0.0
  0
LINE
  5
2B1
330
1F
100
AcDbEntity
  8
0
  6
HIDDEN
 62
     7
370
     0
100
AcDbLine
 10
220.4134303795
 20
62.0099825118
 30
0.0
 11
220.8682510721
 21
62.0099825118
 31
0.0
  0
ARC
  5
2B2
330
1F
100
AcDbEntity
  8
0
  6
HIDDEN
 62
     7
370
     0
100
AcDbCircle
 10
221.2936630269
 20
63.5099825248
 30
0.0
 40
1.509520001517252
100
AcDbArc
 50
150.2084084632
 51
209.7915915368
  0
LINE
  5
2B3
330
1F
100
AcDbEntity
  8
0
  6
HIDDEN
 62
     7
370
     0
100
AcDbLine
 10
219.9836436378
 20
64.2599824149
 30
0.0
 11
219.5538568961
 21
63.5099827576
 31
0.0
  0
LINE
  5
2B4
330
1F
100
AcDbEntity
  8
0
  6
HIDDEN
 62
     7
370
     0
100
AcDbLine
 10
219.5538568961
 20
63.5099827576
 30
0.0
 11
219.9836436378
 21
62.7599826347
 31
0.0
  0
ARC
  5
2B5
330
1F
100
AcDbEntity
  8
0
  6
HIDDEN
 62
     7
370
     0
100
AcDbCircle
 10
221.2780311632
 20
63.4999690216
 30
0.0
 40
1.490979181169861
100
AcDbArc
 50
209.7561043952
 51
251.4586128652
  0
ARC
  5
2B6
330
1F
100
AcDbEntity
  8
0
  6
HIDDEN
 62
     7
370
     0
100
AcDbCircle
 10
221.276477081
 20
63.521732323
 30
0.0
 40
1.488768454095901
100
AcDbArc
 50
102.9278075046
 51
150.2722228459
  0
LINE
  5
2B7
330
1F
100
AcDbEntity
  8
0
  6
HIDDEN
 62
     7
370
     0
100
AcDbLine
 10
219.9836436378
 20
62.7599826347
 30
0.0
 11
220.4134303795
 21
62.0099825118
 31
0.0
  0
LINE
  5
2B8
330
1F
100
AcDbEntity
  8
0
  6
HIDDEN
 62
     7
370
     0
100
AcDbLine
 10
220.4134303795
 20
65.0099825378
 30
0.0
 11
219.9836436378
 21
64.2599824149
 31
0.0
  0
CIRCLE
  5
2B9
330
1F
100
AcDbEntity
  8
0
  6
HIDDEN
 62
     7
370
     0
100
AcDbCircle
 10
220.9452896865
 20
63.5264738489
 30
0.0
 40
3.183510836158566
  0
CIRCLE
  5
2BA
330
1F
100
AcDbEntity
  8
0
  6
HIDDEN
 62
     7
370
     0
100
AcDbCircle
 10
220.8622233728
 20
63.5264723801
 30
0.0
 40
3.183512313588319
  0
CIRCLE
  5
2BB
330
1F
100
AcDbEntity
  8
0
  6
HIDDEN
 62
     7
370
     0
100
AcDbCircle
 10
220.5574864926
 20
63.5313473854
 30
0.0
 40
3.928637098382129
  0
CIRCLE
  5
2BC
330
1F
100
AcDbEntity
  8
0
  6
HIDDEN
 62
     7
370
     0
100
AcDbCircle
 10
220.7894010433
 20
63.5313442835
 30
0.0
 40
3.928640200623498
  0
CIRCLE
  5
2BD
330
1F
100
AcDbEntity
  8
0
  6
HIDDEN
 62
     7
370
     0
100
AcDbCircle
 10
220.1007565196
 20
63.5185531218
 30
0.0
 40
1.766431538073297
  0
CIRCLE
  5
2BE
330
1F
100
AcDbEntity
  8
0
  6
HIDDEN
 62
     7
370
     0
100
AcDbCircle
 10
220.4033092284
 20
63.5185560547
 30
0.0
 40
1.76642860448532
  0
CIRCLE
  5
2BF
330
1F
100
AcDbEntity
  8
0
  6
HIDDEN
 62
     7
370
     0
100
AcDbCircle
 10
219.9488637933
 20
63.5313442835
 30
0.0
 40
3.928640200623498
  0
CIRCLE
  5
2C0
330
1F
100
AcDbEntity
  8
0
  6
HIDDEN
 62
     7
370
     0
100
AcDbCircle
 10
219.7291387209
 20
63.5313442835
 30
0.0
 40
3.928640200623498
  0
CIRCLE
  5
2C1
330
1F
100
AcDbEntity
  8
0
  6
HIDDEN
 62
     7
370
     0
100
AcDbCircle
 10
219.6558573891
 20
63.5263591415
 30
0.0
 40
3.333625588732666
  0
LINE
  5
2C2
330
1F
100
AcDbEntity
  8
0
  6
HIDDEN
 62
     7
370
     0
100
AcDbLine
 10
221.6084662544
 20
66.4336199205
 30
0.0
 11
221.2608594166
 21
66.4336199205
 31
0.0
  0
SPLINE
  5
2C3
330
1F
100
AcDbEntity
  8
0
  6
HIDDEN
 62
     7
370
     0
100
AcDbSpline
210
0.0
220
0.0
230
1.0
 70
     8
 71
     3
 72
     9
 73
     5
 74
     0
 42
0.00000001
 43
0.00000001
 12
1.0
 22
0.0
 32
0.0
 13
1.0
 23
0.0
 33
0.0
 40
0.0
 40
0.0
 40
0.0
 40
0.0
 40
0.332128420604014
 40
1.0
 40
1.0
 40
1.0
 40
1.0
 10
221.260859416638
 20
66.43361992051885
 30
0.0
 10
221.361467938706
 20
66.48371982205916
 30
0.0
 10
221.6643884833709
 20
66.63456479175244
 30
0.0
 10
221.9589782006438
 20
66.78242033272421
 30
0.0
 10
222.1557263003927
 20
66.88116884639547
 30
0.0
  0
LINE
  5
2C4
330
1F
100
AcDbEntity
  8
0
  6
HIDDEN
 62
     7
370
     0
100
AcDbLine
 10
229.5689496862
 20
70.3639697548
 30
0.0
 11
222.1557263004
 21
66.8811688464
 31
0.0
  0
LINE
  5
2C5
330
1F
100
AcDbEntity
  8
0
  6
HIDDEN
 62
     7
370
     0
100
AcDbLine
 10
229.727378832
 20
70.3639697548
 30
0.0
 11
229.5689496862
 21
70.3639697548
 31
0.0
  0
LINE
  5
2C6
330
1F
100
AcDbEntity
  8
0
  6
HIDDEN
 62
     7
370
     0
100
AcDbLine
 10
229.727378832
 20
70.3639697548
 30
0.0
 11
230.8967921602
 21
70.9133734725
 31
0.0
  0
LINE
  5
2C7
330
1F
100
AcDbEntity
  8
0
  6
HIDDEN
 62
     7
370
     0
100
AcDbLine
 10
231.3113126623
 20
70.4496805355
 30
0.0
 11
231.2699544894
 21
70.4302507018
 31
0.0
  0
LINE
  5
2C8
330
1F
100
AcDbEntity
  8
0
  6
HIDDEN
 62
     7
370
     0
100
AcDbLine
 10
231.2699544894
 20
70.4302507018
 30
0.0
 11
230.876578735
 21
70.5468453033
 31
0.0
  0
SPLINE
  5
2C9
330
1F
100
AcDbEntity
  8
0
  6
HIDDEN
 62
     7
370
     0
100
AcDbSpline
210
0.0
220
0.0
230
1.0
 70
     8
 71
     3
 72
    15
 73
    11
 74
     0
 42
0.00000001
 43
0.00000001
 12
1.0
 22
0.0
 32
0.0
 13
1.0
 23
0.0
 33
0.0
 40
0.0
 40
0.0
 40
0.0
 40
0.0
 40
0.0395380994005248
 40
0.1289283076889127
 40
0.3024673173307351
 40
0.4763358436555333
 40
0.6508903022733863
 40
0.8250281042189147
 40
0.9508640253983385
 40
1.0
 40
1.0
 40
1.0
 40
1.0
 10
230.8765787350279
 20
70.54684530327157
 30
0.0
 10
230.8640609542439
 20
70.54492753339227
 30
0.0
 10
230.8232421916586
 20
70.53867394941064
 30
0.0
 10
230.5139883527115
 20
70.42003639130661
 30
0.0
 10
230.0265247378623
 20
70.22522103615442
 30
0.0
 10
229.3501662023467
 20
69.9432780222144
 30
0.0
 10
228.614486179224
 20
69.62771793815318
 30
0.0
 10
227.888595947912
 20
69.30594734584467
 30
0.0
 10
227.3355786206753
 20
69.05386996226554
 30
0.0
 10
227.0595081355078
 20
68.92548350349453
 30
0.0
 10
226.9819814430815
 20
68.88942974898035
 30
0.0
  0
LINE
  5
2CA
330
1F
100
AcDbEntity
  8
0
  6
HIDDEN
 62
     7
370
     0
100
AcDbLine
 10
226.9819814431
 20
68.889429749
 30
0.0
 11
223.6464161145
 21
67.3333951071
 31
0.0
  0
SPLINE
  5
2CB
330
1F
100
AcDbEntity
  8
0
  6
HIDDEN
 62
     7
370
     0
100
AcDbSpline
210
0.0
220
0.0
230
1.0
 70
     8
 71
     3
 72
     9
 73
     5
 74
     0
 42
0.00000001
 43
0.00000001
 12
1.0
 22
0.0
 32
0.0
 13
1.0
 23
0.0
 33
0.0
 40
0.0
 40
0.0
 40
0.0
 40
0.0
 40
0.562741937085148
 40
1.0
 40
1.0
 40
1.0
 40
1.0
 10
223.6464161144834
 20
67.33339510707245
 30
0.0
 10
223.267839197435
 20
67.16705973645526
 30
0.0
 10
222.5951029179793
 20
66.87147954302097
 30
0.0
 10
221.9086314421534
 20
66.56683027104953
 30
0.0
 10
221.6084662543875
 20
66.43361992051885
 30
0.0
  0
ELLIPSE
  5
2CC
330
1F
100
AcDbEntity
  8
0
  6
HIDDEN
 62
     7
370
     0
100
AcDbEllipse
 10
232.6176850017
 20
68.6359957551
 30
0.0
 11
0.1774412266988747
 21
2.243639031128481
 31
0.0
210
0.0
220
0.0
230
1.0
 40
0.993338952
 41
0.7264672407746132
 42
3.319479629073268
  0
LINE
  5
2CD
330
1F
100
AcDbEntity
  8
0
  6
HIDDEN
 62
     7
370
     0
100
AcDbLine
 10
232.7222440111
 20
66.5590911902
 30
0.0
 11
233.1156123149
 21
66.442496356
 31
0.0
  0
LINE
  5
2CE
330
1F
100
AcDbEntity
  8
0
  6
HIDDEN
 62
     7
370
     0
100
AcDbLine
 10
232.705599414
 20
70.9302699923
 30
0.0
 11
232.4054080712
 21
71.034016766
 31
0.0
  0
SPLINE
  5
2CF
330
1F
100
AcDbEntity
  8
0
  6
HIDDEN
 62
     7
370
     0
100
AcDbSpline
210
0.0
220
0.0
230
1.0
 70
     8
 71
     3
 72
    12
 73
     8
 74
     0
 42
0.00000001
 43
0.00000001
 12
1.0
 22
0.0
 32
0.0
 13
1.0
 23
0.0
 33
0.0
 40
0.0
 40
0.0
 40
0.0
 40
0.0
 40
0.036680576140226
 40
0.1813963883011218
 40
0.4909062869448322
 40
0.8040213842506839
 40
0.9999999999999999
 40
0.9999999999999999
 40
0.9999999999999999
 40
0.9999999999999999
 10
232.1025866734129
 20
71.10135325079844
 30
0.0
 10
232.053971780851
 20
71.10807726444598
 30
0.0
 10
231.813556638661
 20
71.14132951724292
 30
0.0
 10
231.6205085280974
 20
71.06327178094583
 30
0.0
 10
231.6036347315262
 20
71.01001857898012
 30
0.0
 10
231.7135762041266
 20
70.95167642192466
 30
0.0
 10
231.8025239150074
 20
70.92401998167742
 30
0.0
 10
231.8367648588758
 20
70.91337347252355
 30
0.0
  0
ELLIPSE
  5
2D0
330
1F
100
AcDbEntity
  8
0
  6
HIDDEN
 62
     7
370
     0
100
AcDbEllipse
 10
231.7583382478
 20
68.8907033278
 30
0.0
 11
0.1774412266989316
 21
2.243639031128467
 31
0.0
210
0.0
220
0.0
230
1.0
 40
0.993338952
 41
4.530171685854153
 42
5.925118995746138
  0
SPLINE
  5
2D1
330
1F
100
AcDbEntity
  8
0
  6
HIDDEN
 62
     7
370
     0
100
AcDbSpline
210
0.0
220
0.0
230
1.0
 70
     8
 71
     3
 72
    14
 73
    10
 74
     0
 42
0.00000001
 43
0.00000001
 12
1.0
 22
0.0
 32
0.0
 13
1.0
 23
0.0
 33
0.0
 40
0.0
 40
0.0
 40
0.0
 40
0.0
 40
0.1738122908237945
 40
0.4423464958322378
 40
0.7100000545105144
 40
0.8160350153755579
 40
0.9042647422724428
 40
0.9725139831328685
 40
1.0
 40
1.0
 40
1.0
 40
1.0
 10
233.6824226843458
 20
66.92561924306736
 30
0.0
 10
233.6484720837258
 20
66.93778959712814
 30
0.0
 10
233.5620689349929
 20
66.96876274319456
 30
0.0
 10
233.4327819105901
 20
67.0129539406658
 30
0.0
 10
233.4155198269605
 20
67.14948451266154
 30
0.0
 10
233.5347147245724
 20
67.38948656505552
 30
0.0
 10
233.6946228002376
 20
67.67458479641328
 30
0.0
 10
233.844924730969
 20
68.0224098443012
 30
0.0
 10
233.9016843129178
 20
68.24646401932193
 30
0.0
 10
233.9179802404981
 20
68.31079096615375
 30
0.0
  0
LINE
  5
2D2
330
1F
100
AcDbEntity
  8
0
  6
HIDDEN
 62
     7
370
     0
100
AcDbLine
 10
233.9654180872
 20
66.8417408395
 30
0.0
 11
233.6824226843
 21
66.9256192431
 31
0.0
  0
ARC
  5
2D3
330
1F
100
AcDbEntity
  8
0
  6
HIDDEN
 62
     7
370
     0
100
AcDbCircle
 10
231.8196108455
 20
68.9504517999
 30
0.0
 40
2.169021857553521
100
AcDbArc
 50
65.8910036214
 51
115.179393586
  0
SPLINE
  5
2D4
330
1F
100
AcDbEntity
  8
0
  6
HIDDEN
 62
     7
370
     0
100
AcDbSpline
210
0.0
220
0.0
230
1.0
 70
     8
 71
     3
 72
    15
 73
    11
 74
     0
 42
0.00000001
 43
0.00000001
 12
1.0
 22
0.0
 32
0.0
 13
1.0
 23
0.0
 33
0.0
 40
0.0
 40
0.0
 40
0.0
 40
0.0
 40
0.049146876413164
 40
0.2834465503922914
 40
0.4456390159217428
 40
0.6081060818845531
 40
0.7648533661132475
 40
0.9204282362921135
 40
0.9778209150932844
 40
0.9999999999999999
 40
0.9999999999999999
 40
0.9999999999999999
 40
0.9999999999999999
 10
228.827646719132
 20
64.90167531034038
 30
0.0
 10
228.9051619663101
 20
64.93772315948856
 30
0.0
 10
229.3522184431189
 20
65.14562321816592
 30
0.0
 10
230.0610250381046
 20
65.46499867988507
 30
0.0
 10
230.8775041028256
 20
65.82015835544385
 30
0.0
 10
231.5207049678262
 20
66.09126076838292
 30
0.0
 10
232.1123751980095
 20
66.33521296058805
 30
0.0
 10
232.5105356434151
 20
66.49203501561998
 30
0.0
 10
232.6990335015404
 20
66.55836609973524
 30
0.0
 10
232.7171847131092
 20
66.5589331390313
 30
0.0
 10
232.7222440110784
 20
66.5590911902307
 30
0.0
  0
ELLIPSE
  5
2D5
330
1F
100
AcDbEntity
  8
0
  6
HIDDEN
 62
     7
370
     0
100
AcDbEllipse
 10
221.0174549252
 20
63.6826172696
 30
0.0
 11
3.440432314412362
 21
2.90127913218906
 31
0.0
210
0.0
220
0.0
230
1.0
 40
0.9940666589
 41
5.504458571134521
 42
6.530711182800575
  0
SPLINE
  5
2D6
330
1F
100
AcDbEntity
  8
0
  6
HIDDEN
 62
     7
370
     0
100
AcDbSpline
210
0.0
220
0.0
230
1.0
 70
     8
 71
     3
 72
    12
 73
     8
 74
     0
 42
0.00000001
 43
0.00000001
 12
1.0
 22
0.0
 32
0.0
 13
1.0
 23
0.0
 33
0.0
 40
0.0
 40
0.0
 40
0.0
 40
0.0
 40
0.126699618797566
 40
0.454195585563366
 40
0.6533083205584513
 40
0.8533227811502673
 40
1.0
 40
1.0
 40
1.0
 40
1.0
 10
221.6084662543875
 20
66.43361992051885
 30
0.0
 10
221.6747458900566
 20
66.27193653999853
 30
0.0
 10
221.9123465886175
 20
65.6923303944692
 30
0.0
 10
222.2914708474667
 20
64.80703309109856
 30
0.0
 10
222.7664388318074
 20
63.80292706018388
 30
0.0
 10
223.1289296719411
 20
63.07650390774467
 30
0.0
 10
223.3574446752499
 20
62.63335270137814
 30
0.0
 10
223.4541240798574
 20
62.44586569106268
 30
0.0
  0
LINE
  5
2D7
330
1F
100
AcDbEntity
  8
0
  6
HIDDEN
 62
     7
370
     0
100
AcDbLine
 10
223.4541240799
 20
62.4458656911
 30
0.0
 11
225.49207394
 21
63.3456406448
 31
0.0
  0
LINE
  5
2D8
330
1F
100
AcDbEntity
  8
0
  6
HIDDEN
 62
     7
370
     0
100
AcDbLine
 10
225.49207394
 20
63.3456406448
 30
0.0
 11
228.8276467191
 21
64.9016753103
 31
0.0
  0
SPLINE
  5
2D9
330
1F
100
AcDbEntity
  8
0
  6
HIDDEN
 62
     7
370
     0
100
AcDbSpline
210
0.0
220
0.0
230
1.0
 70
     8
 71
     3
 72
    12
 73
     8
 74
     0
 42
0.00000001
 43
0.00000001
 12
1.0
 22
0.0
 32
0.0
 13
1.0
 23
0.0
 33
0.0
 40
0.0
 40
0.0
 40
0.0
 40
0.0
 40
0.144744980124295
 40
0.3493836144061135
 40
0.5530508823113489
 40
0.8837012597353476
 40
1.0
 40
1.0
 40
1.0
 40
1.0
 10
223.1065246926885
 20
62.44586569106268
 30
0.0
 10
223.0306819273989
 20
62.63085615542686
 30
0.0
 10
222.8476136134532
 20
63.0773838140353
 30
0.0
 10
222.5334576840474
 20
63.81362580613141
 30
0.0
 10
222.0701007155016
 20
64.83561827664967
 30
0.0
 10
221.6315119881034
 20
65.71509954558
 30
0.0
 10
221.3373913137923
 20
66.28526069770082
 30
0.0
 10
221.260859416638
 20
66.43361992051885
 30
0.0
  0
LINE
  5
2DA
330
1F
100
AcDbEntity
  8
0
  6
HIDDEN
 62
     7
370
     0
100
AcDbLine
 10
223.4541240799
 20
62.4458656911
 30
0.0
 11
223.1065246927
 21
62.4458656911
 31
0.0
  0
SPLINE
  5
2DB
330
1F
100
AcDbEntity
  8
0
  6
HIDDEN
 62
     7
370
     0
100
AcDbSpline
210
0.0
220
0.0
230
1.0
 70
     8
 71
     3
 72
     9
 73
     5
 74
     0
 42
0.00000001
 43
0.00000001
 12
1.0
 22
0.0
 32
0.0
 13
1.0
 23
0.0
 33
0.0
 40
0.0
 40
0.0
 40
0.0
 40
0.0
 40
0.6678765626552058
 40
1.0
 40
1.0
 40
1.0
 40
1.0
 10
224.0013915764433
 20
62.89341461693929
 30
0.0
 10
223.8046400184709
 20
62.79466686073336
 30
0.0
 10
223.5100473212963
 20
62.6468135571029
 30
0.0
 10
223.2071304764339
 20
62.49596577497788
 30
0.0
 10
223.1065246926885
 20
62.44586569106268
 30
0.0
  0
LINE
  5
2DC
330
1F
100
AcDbEntity
  8
0
  6
HIDDEN
 62
     7
370
     0
100
AcDbLine
 10
231.8666640388
 20
65.7417999845
 30
0.0
 11
231.5730366575
 21
66.3762155253
 31
0.0
  0
LINE
  5
2DD
330
1F
100
AcDbEntity
  8
0
  6
HIDDEN
 62
     7
370
     0
100
AcDbLine
 10
229.727378832
 20
70.3639697548
 30
0.0
 11
229.4337514507
 21
70.9983852956
 31
0.0
  0
LINE
  5
2DE
330
1F
100
AcDbEntity
  8
0
  6
HIDDEN
 62
     7
370
     0
100
AcDbLine
 10
229.4337514507
 20
70.9983852956
 30
0.0
 11
230.6031647789
 21
71.5477890134
 31
0.0
  0
ARC
  5
2DF
330
1F
100
AcDbEntity
  8
0
  6
HIDDEN
 62
     7
370
     0
100
AcDbCircle
 10
231.8196099199
 20
68.9572625364
 30
0.0
 40
2.861916527283136
100
AcDbArc
 50
59.3541456992
 51
115.1535522901
  0
ARC
  5
2E0
330
1F
100
AcDbEntity
  8
0
  6
HIDDEN
 62
     7
370
     0
100
AcDbCircle
 10
231.7861365574
 20
68.919041125
 30
0.0
 40
2.912313799456375
100
AcDbArc
 50
310.6333862108
 51
15.3205302482
  0
LINE
  5
2E1
330
1F
100
AcDbEntity
  8
0
  6
HIDDEN
 62
     7
370
     0
100
AcDbLine
 10
233.2784149515
 20
66.4195250518
 30
0.0
 11
233.0360848176
 21
66.2912037022
 31
0.0
  0
LINE
  5
2E2
330
1F
100
AcDbEntity
  8
0
  6
HIDDEN
 62
     7
370
     0
100
AcDbLine
 10
233.0360848176
 20
66.2912037022
 30
0.0
 11
231.8666640388
 21
65.7417999845
 31
0.0
  0
ARC
  5
2E3
330
1F
100
AcDbEntity
  8
0
  6
HIDDEN
 62
     7
370
     0
100
AcDbCircle
 10
231.8063151502
 20
68.9114624727
 30
0.0
 40
2.195435198836719
100
AcDbArc
 50
295.2395625793
 51
344.1213874977
  0
LINE
  5
2E4
330
1F
100
AcDbEntity
  8
0
  6
HIDDEN
 62
     7
370
     0
100
AcDbLine
 10
232.7424574362
 20
66.9256192431
 30
0.0
 11
231.5730366575
 21
66.3762155253
 31
0.0
  0
LINE
  5
2E5
330
1F
100
AcDbEntity
  8
0
  6
HIDDEN
 62
     7
370
     0
100
AcDbLine
 10
229.4337514507
 20
70.9983852956
 30
0.0
 11
229.2753223049
 21
70.9983852956
 31
0.0
  0
LINE
  5
2E6
330
1F
100
AcDbEntity
  8
0
  6
HIDDEN
 62
     7
370
     0
100
AcDbLine
 10
229.2753223049
 20
70.9983852956
 30
0.0
 11
230.444735633
 21
71.5477890134
 31
0.0
  0
LINE
  5
2E7
330
1F
100
AcDbEntity
  8
0
  6
HIDDEN
 62
     7
370
     0
100
AcDbLine
 10
229.5689496862
 20
70.3639697548
 30
0.0
 11
229.2753223049
 21
70.9983852956
 31
0.0
  0
ARC
  5
2E8
330
1F
100
AcDbEntity
  8
0
  6
HIDDEN
 62
     7
370
     0
100
AcDbCircle
 10
231.6508200449
 20
68.9146941864
 30
0.0
 40
2.89617471435907
100
AcDbArc
 50
295.0624299272
 51
114.610063689
  0
LINE
  5
2E9
330
1F
100
AcDbEntity
  8
0
  6
HIDDEN
 62
     7
370
     0
100
AcDbLine
 10
231.8666640388
 20
65.7417999845
 30
0.0
 11
231.708234893
 21
65.7417999845
 31
0.0
  0
LINE
  5
2EA
330
1F
100
AcDbEntity
  8
0
  6
HIDDEN
 62
     7
370
     0
100
AcDbLine
 10
231.708234893
 20
65.7417999845
 30
0.0
 11
231.4146075117
 21
66.3762155253
 31
0.0
  0
LINE
  5
2EB
330
1F
100
AcDbEntity
  8
0
  6
HIDDEN
 62
     7
370
     0
100
AcDbLine
 10
231.4146075117
 20
66.3762155253
 30
0.0
 11
231.5730366575
 21
66.3762155253
 31
0.0
  0
LINE
  5
2EC
330
1F
100
AcDbEntity
  8
0
  6
HIDDEN
 62
     7
370
     0
100
AcDbLine
 10
232.8776556717
 20
66.2912037022
 30
0.0
 11
231.708234893
 21
65.7417999845
 31
0.0
  0
ARC
  5
2ED
330
1F
100
AcDbEntity
  8
0
  6
HIDDEN
 62
     7
370
     0
100
AcDbCircle
 10
220.1081720188
 20
63.5124978806
 30
0.0
 40
3.942134271149456
100
AcDbArc
 50
350.9647167286
 51
58.7078210322
  0
LINE
  5
2EE
330
1F
100
AcDbEntity
  8
0
  6
HIDDEN
 62
     7
370
     0
100
AcDbLine
 10
224.0013915764
 20
62.8934146169
 30
0.0
 11
231.4146075117
 21
66.3762155253
 31
0.0
  0
LINE
  5
2EF
330
1F
100
AcDbEntity
  8
0
  6
HIDDEN
 62
     7
370
     0
100
AcDbLine
 10
232.7580216991
 20
72.119496277
 30
0.0
 11
232.7336433994
 21
72.465906598
 31
0.0
  0
LINE
  5
2F0
330
1F
100
AcDbEntity
  8
0
  6
HIDDEN
 62
     7
370
     0
100
AcDbLine
 10
232.6990354525
 20
71.8400734275
 30
0.0
 11
232.7580216991
 21
72.119496277
 31
0.0
  0
ARC
  5
2F1
330
1F
100
AcDbEntity
  8
0
  6
HIDDEN
 62
     7
370
     0
100
AcDbCircle
 10
232.5454787092
 20
71.837150355
 30
0.0
 40
0.1535845622884316
100
AcDbArc
 50
309.9991314336
 51
1.0905382025
  0
LINE
  5
2F2
330
1F
100
AcDbEntity
  8
0
  6
HIDDEN
 62
     7
370
     0
100
AcDbLine
 10
232.0267993676
 20
71.719496258
 30
0.0
 11
232.6441991793
 21
71.719496258
 31
0.0
  0
LINE
  5
2F3
330
1F
100
AcDbEntity
  8
0
  6
HIDDEN
 62
     7
370
     0
100
AcDbLine
 10
232.0267993676
 20
72.119496277
 30
0.0
 11
232.0267993676
 21
71.719496258
 31
0.0
  0
LINE
  5
2F4
330
1F
100
AcDbEntity
  8
0
  6
HIDDEN
 62
     7
370
     0
100
AcDbLine
 10
232.0267993676
 20
72.119496277
 30
0.0
 11
232.6441991793
 21
72.119496277
 31
0.0
  0
ARC
  5
2F5
330
1F
100
AcDbEntity
  8
0
  6
HIDDEN
 62
     7
370
     0
100
AcDbCircle
 10
232.5893127699
 20
72.1848796888
 30
0.0
 40
0.0853669051056269
100
AcDbArc
 50
310.0119347032
 51
1.076661556
  0
LINE
  5
2F6
330
1F
100
AcDbEntity
  8
0
  6
HIDDEN
 62
     7
370
     0
100
AcDbLine
 10
232.6746646034
 20
72.1864837486
 30
0.0
 11
232.7336433994
 21
72.465906598
 31
0.0
  0
ARC
  5
2F7
330
1F
100
AcDbEntity
  8
0
  6
HIDDEN
 62
     7
370
     0
100
AcDbCircle
 10
232.713771991
 20
68.9194963578
 30
0.0
 40
3.54646591198917
100
AcDbArc
 50
270.3210389781
 51
89.6789610219
  0
LINE
  5
2F8
330
1F
100
AcDbEntity
  8
0
  6
HIDDEN
 62
     7
370
     0
100
AcDbLine
 10
232.7580216991
 20
65.7194964386
 30
0.0
 11
232.7336433994
 21
65.3730861176
 31
0.0
  0
ARC
  5
2F9
330
1F
100
AcDbEntity
  8
0
  6
HIDDEN
 62
     7
370
     0
100
AcDbCircle
 10
232.7395142003
 20
68.9194963578
 30
0.0
 40
3.200053438638886
100
AcDbArc
 50
270.3313718049
 51
89.6686281951
  0
LINE
  5
2FA
330
1F
100
AcDbEntity
  8
0
  6
HIDDEN
 62
     7
370
     0
100
AcDbLine
 10
232.6990354525
 20
65.9989192881
 30
0.0
 11
232.7580216991
 21
65.7194964386
 31
0.0
  0
ARC
  5
2FB
330
1F
100
AcDbEntity
  8
0
  6
HIDDEN
 62
     7
370
     0
100
AcDbCircle
 10
232.5893127699
 20
65.6541130268
 30
0.0
 40
0.0853669051056269
100
AcDbArc
 50
358.923338444
 51
49.9880652968
  0
LINE
  5
2FC
330
1F
100
AcDbEntity
  8
0
  6
HIDDEN
 62
     7
370
     0
100
AcDbLine
 10
232.0267993676
 20
65.7194964386
 30
0.0
 11
232.6441991793
 21
65.7194964386
 31
0.0
  0
LINE
  5
2FD
330
1F
100
AcDbEntity
  8
0
  6
HIDDEN
 62
     7
370
     0
100
AcDbLine
 10
232.0267993676
 20
65.7194964386
 30
0.0
 11
232.0267993676
 21
66.1194964576
 31
0.0
  0
LINE
  5
2FE
330
1F
100
AcDbEntity
  8
0
  6
HIDDEN
 62
     7
370
     0
100
AcDbLine
 10
232.0267993676
 20
66.1194964576
 30
0.0
 11
232.6441991793
 21
66.1194964576
 31
0.0
  0
ARC
  5
2FF
330
1F
100
AcDbEntity
  8
0
  6
HIDDEN
 62
     7
370
     0
100
AcDbCircle
 10
232.5454787092
 20
66.0018423606
 30
0.0
 40
0.1535845622884316
100
AcDbArc
 50
358.9094617975
 51
50.0008685664
  0
LINE
  5
300
330
1F
100
AcDbEntity
  8
0
  6
HIDDEN
 62
     7
370
     0
100
AcDbLine
 10
232.6746646034
 20
65.652508967
 30
0.0
 11
232.7336433994
 21
65.3730861176
 31
0.0
  0
ARC
  5
301
330
1F
100
AcDbEntity
  8
0
  6
HIDDEN
 62
     7
370
     0
100
AcDbCircle
 10
232.6273357642
 20
68.9194963578
 30
0.0
 40
2.800050680912191
100
AcDbArc
 50
270.3450681662
 51
89.6549318339
  0
ARC
  5
302
330
1F
100
AcDbEntity
  8
0
  6
HIDDEN
 62
     7
370
     0
100
AcDbCircle
 10
232.6256916805
 20
68.9194963578
 30
0.0
 40
3.200053438638886
100
AcDbArc
 50
270.3313718049
 51
89.6686281951
  0
ARC
  5
303
330
1F
100
AcDbEntity
  8
0
  6
HIDDEN
 62
     7
370
     0
100
AcDbCircle
 10
232.0082993755
 20
68.9194963578
 30
0.0
 40
3.200053395232519
100
AcDbArc
 50
270.3312374019
 51
89.6687625981
  0
LWPOLYLINE
  5
304
330
1F
100
AcDbEntity
  8
0
  6
HIDDEN
 62
     7
370
     0
100
AcDbPolyline
 90
        3
 70
   128
 43
0.0
 10
232.0267993676
 20
71.719496258
 10
232.7460933196
 20
71.6240887794
 10
233.1329945194
 20
71.488132913
  0
ARC
  5
305
330
1F
100
AcDbEntity
  8
0
  6
HIDDEN
 62
     7
370
     0
100
AcDbCircle
 10
231.997391369
 20
68.9174636691
 30
0.0
 40
2.808741519207461
100
AcDbArc
 50
309.9643235036
 51
4.5264956599
  0
LWPOLYLINE
  5
306
330
1F
100
AcDbEntity
  8
0
  6
HIDDEN
 62
     7
370
     0
100
AcDbPolyline
 90
        3
 70
   128
 43
0.0
 10
233.1329945194
 20
66.3508598026
 10
232.7460933196
 20
66.2149039361
 10
232.0267993676
 20
66.1194964576
  0
ARC
  5
307
330
1F
100
AcDbEntity
  8
0
  6
HIDDEN
 62
     7
370
     0
100
AcDbCircle
 10
223.6102331586
 20
68.9195540205
 30
0.0
 40
0.4019189116808017
100
AcDbArc
 50
147.0796926665
 51
229.6877965791
  0
LINE
  5
308
330
1F
100
AcDbEntity
  8
0
  6
HIDDEN
 62
     7
370
     0
100
AcDbLine
 10
232.4470866191
 20
76.9164233733
 30
0.0
 11
226.6164634096
 21
71.987203535
 31
0.0
  0
LINE
  5
309
330
1F
100
AcDbEntity
  8
0
  6
HIDDEN
 62
     7
370
     0
100
AcDbLine
 10
223.3502108323
 20
68.6130785706
 30
0.0
 11
232.4470866191
 21
60.9225693423
 31
0.0
  0
ARC
  5
30A
330
1F
100
AcDbEntity
  8
0
  6
HIDDEN
 62
     7
370
     0
100
AcDbCircle
 10
232.8036046328
 20
68.9194963578
 30
0.0
 40
2.578580527979916
100
AcDbArc
 50
83.7791284231
 51
276.2208715769
  0
ARC
  5
30B
330
1F
100
AcDbEntity
  8
0
  6
HIDDEN
 62
     7
370
     0
100
AcDbCircle
 10
232.7927828559
 20
76.6914051688
 30
0.0
 40
0.3952649478630024
100
AcDbArc
 50
49.7506377002
 51
89.9725285159
  0
ARC
  5
30C
330
1F
100
AcDbEntity
  8
0
  6
HIDDEN
 62
     7
370
     0
100
AcDbCircle
 10
232.7927828559
 20
61.1475875468
 30
0.0
 40
0.3952649478630251
100
AcDbArc
 50
270.0274714841
 51
310.2493622998
  0
ARC
  5
30D
330
1F
100
AcDbEntity
  8
0
  6
HIDDEN
 62
     7
370
     0
100
AcDbCircle
 10
241.9757975111
 20
68.9194963578
 30
0.0
 40
0.4018193542109994
100
AcDbArc
 50
310.3081802295
 51
49.6918197705
  0
LINE
  5
30E
330
1F
100
AcDbEntity
  8
0
  6
HIDDEN
 62
     7
370
     0
100
AcDbLine
 10
233.0481696593
 20
60.8459056619
 30
0.0
 11
242.2357339131
 21
68.6130785706
 31
0.0
  0
LINE
  5
30F
330
1F
100
AcDbEntity
  8
0
  6
HIDDEN
 62
     7
370
     0
100
AcDbLine
 10
242.2357339131
 20
69.225914145
 30
0.0
 11
233.0481696593
 21
76.9930870537
 31
0.0
  0
ARC
  5
310
330
1F
100
AcDbEntity
  8
0
  6
HIDDEN
 62
     7
370
     0
100
AcDbCircle
 10
225.3157873971
 20
68.9194963578
 30
0.0
 40
1.004543713141961
100
AcDbArc
 50
130.3078699259
 51
229.6921300741
  0
ARC
  5
311
330
1F
100
AcDbEntity
  8
0
  6
HIDDEN
 62
     7
370
     0
100
AcDbCircle
 10
224.9647984077
 20
68.9194963578
 30
0.0
 40
1.004539159855702
100
AcDbArc
 50
130.3075637763
 51
229.6924362237
  0
ARC
  5
312
330
1F
100
AcDbEntity
  8
0
  6
HIDDEN
 62
     7
370
     0
100
AcDbCircle
 10
240.1466337607
 20
68.9194963578
 30
0.0
 40
1.004539159855702
100
AcDbArc
 50
310.3075637763
 51
49.6924362237
  0
LINE
  5
313
330
1F
100
AcDbEntity
  8
0
  6
HIDDEN
 62
     7
370
     0
100
AcDbLine
 10
233.3692002761
 20
61.8744429465
 30
0.0
 11
240.7964605557
 21
68.1534519334
 31
0.0
  0
ARC
  5
314
330
1F
100
AcDbEntity
  8
0
  6
HIDDEN
 62
     7
370
     0
100
AcDbCircle
 10
232.7312070595
 20
62.6276597662
 30
0.0
 40
0.987102285330999
100
AcDbArc
 50
229.7345782182
 51
310.2654217818
  0
LINE
  5
315
330
1F
100
AcDbEntity
  8
0
  6
HIDDEN
 62
     7
370
     0
100
AcDbLine
 10
224.6659535634
 20
68.1534519334
 30
0.0
 11
232.093213843
 21
61.8744429465
 31
0.0
  0
LINE
  5
316
330
1F
100
AcDbEntity
  8
0
  6
HIDDEN
 62
     7
370
     0
100
AcDbLine
 10
232.093213843
 20
75.9645497691
 30
0.0
 11
224.6659535634
 21
69.6855407822
 31
0.0
  0
ARC
  5
317
330
1F
100
AcDbEntity
  8
0
  6
HIDDEN
 62
     7
370
     0
100
AcDbCircle
 10
232.7312070595
 20
75.2113329494
 30
0.0
 40
0.987102285330999
100
AcDbArc
 50
49.7345782182
 51
130.2654217818
  0
LINE
  5
318
330
1F
100
AcDbEntity
  8
0
  6
HIDDEN
 62
     7
370
     0
100
AcDbLine
 10
240.7964605557
 20
69.6855407822
 30
0.0
 11
233.3692002761
 21
75.9645497691
 31
0.0
  0
CIRCLE
  5
319
330
1F
100
AcDbEntity
  8
0
  6
HIDDEN
 62
     7
370
     0
100
AcDbCircle
 10
232.7530077946
 20
68.8993550981
 30
0.0
 40
3.986294656562861
  0
LINE
  5
31A
330
1F
100
AcDbEntity
  8
0
  6
HIDDEN
 62
     7
370
     0
100
AcDbLine
 10
231.7422244417
 20
75.9645497691
 30
0.0
 11
224.3149716126
 21
69.6855407822
 31
0.0
  0
LINE
  5
31B
330
1F
100
AcDbEntity
  8
0
  6
HIDDEN
 62
     7
370
     0
100
AcDbLine
 10
224.3149716126
 20
68.1534519334
 30
0.0
 11
231.7422244417
 21
61.8744429465
 31
0.0
  0
CIRCLE
  5
31C
330
1F
100
AcDbEntity
  8
0
  6
HIDDEN
 62
     7
370
     0
100
AcDbCircle
 10
232.5805290095
 20
68.9041313647
 30
0.0
 40
3.190087600998515
  0
ARC
  5
31D
330
1F
100
AcDbEntity
  8
0
  6
HIDDEN
 62
     7
370
     0
100
AcDbCircle
 10
232.3802213835
 20
75.2113204386
 30
0.0
 40
0.9871142396408082
100
AcDbArc
 50
49.7348825723
 51
130.2651174277
  0
ARC
  5
31E
330
1F
100
AcDbEntity
  8
0
  6
HIDDEN
 62
     7
370
     0
100
AcDbCircle
 10
232.3802213835
 20
62.627672277
 30
0.0
 40
0.9871142396408245
100
AcDbArc
 50
229.7348825723
 51
310.2651174277
  0
CIRCLE
  5
31F
330
1F
100
AcDbEntity
  8
0
  6
HIDDEN
 62
     7
370
     0
100
AcDbCircle
 10
232.4885011787
 20
68.9041329948
 30
0.0
 40
3.190089969669886
  0
LINE
  5
320
330
1F
100
AcDbEntity
  8
0
  6
HIDDEN
 62
     7
370
     0
100
AcDbLine
 10
231.8970624076
 20
62.104256105
 30
0.0
 11
224.4698095786
 21
68.3832652665
 31
0.0
  0
LINE
  5
321
330
1F
100
AcDbEntity
  8
0
  6
HIDDEN
 62
     7
370
     0
100
AcDbLine
 10
224.4698095786
 20
69.455727449
 30
0.0
 11
231.8970624076
 21
75.7347366106
 31
0.0
  0
ARC
  5
322
330
1F
100
AcDbEntity
  8
0
  6
HIDDEN
 62
     7
370
     0
100
AcDbCircle
 10
224.9246789673
 20
68.9194963578
 30
0.0
 40
0.7031713475577371
100
AcDbArc
 50
130.3069819986
 51
229.6930180014
  0
CIRCLE
  5
323
330
1F
100
AcDbEntity
  8
0
  6
HIDDEN
 62
     7
370
     0
100
AcDbCircle
 10
232.364370027
 20
68.9003661561
 30
0.0
 40
3.7869797495747
  0
ARC
  5
324
330
1F
100
AcDbEntity
  8
0
  6
HIDDEN
 62
     7
370
     0
100
AcDbCircle
 10
232.3436613845
 20
75.2074697324
 30
0.0
 40
0.6909855331020432
100
AcDbArc
 50
49.7351520029
 51
130.2648479971
  0
ARC
  5
325
330
1F
100
AcDbEntity
  8
0
  6
HIDDEN
 62
     7
370
     0
100
AcDbCircle
 10
232.3436613845
 20
62.6315229832
 30
0.0
 40
0.6909855331020432
100
AcDbArc
 50
229.7351520029
 51
310.2648479971
  0
LINE
  5
326
330
1F
100
AcDbEntity
  8
0
  6
HIDDEN
 62
     7
370
     0
100
AcDbLine
 10
240.2175131904
 20
68.3832652665
 30
0.0
 11
232.7902603613
 21
62.104256105
 31
0.0
  0
LINE
  5
327
330
1F
100
AcDbEntity
  8
0
  6
HIDDEN
 62
     7
370
     0
100
AcDbLine
 10
233.0182183253
 20
61.8744429465
 30
0.0
 11
240.4454711544
 21
68.1534519334
 31
0.0
  0
LINE
  5
328
330
1F
100
AcDbEntity
  8
0
  6
HIDDEN
 62
     7
370
     0
100
AcDbLine
 10
232.7902603613
 20
75.7347366106
 30
0.0
 11
240.2175131904
 21
69.455727449
 31
0.0
  0
LINE
  5
329
330
1F
100
AcDbEntity
  8
0
  6
HIDDEN
 62
     7
370
     0
100
AcDbLine
 10
240.4454711544
 20
69.6855407822
 30
0.0
 11
233.0182183253
 21
75.9645497691
 31
0.0
  0
ARC
  5
32A
330
1F
100
AcDbEntity
  8
0
  6
HIDDEN
 62
     7
370
     0
100
AcDbCircle
 10
239.7626438017
 20
68.9194963578
 30
0.0
 40
0.7031713475577371
100
AcDbArc
 50
310.3069819986
 51
49.6930180014
  0
ARC
  5
32B
330
1F
100
AcDbEntity
  8
0
  6
HIDDEN
 62
     7
370
     0
100
AcDbCircle
 10
239.7956616622
 20
68.9194963578
 30
0.0
 40
1.004527966851047
100
AcDbArc
 50
310.3068111715
 51
49.6931888285
  0
CIRCLE
  5
32C
330
1F
100
AcDbEntity
  8
0
  6
HIDDEN
 62
     7
370
     0
100
AcDbCircle
 10
179.9576489793
 20
68.9194963578
 30
0.0
 40
2.799999999999978
  0
CIRCLE
  5
32D
330
1F
100
AcDbEntity
  8
0
  6
HIDDEN
 62
     7
370
     0
100
AcDbCircle
 10
179.9576489793
 20
68.9194963578
 30
0.0
 40
2.480384757729329
  0
SPLINE
  5
32E
330
1F
100
AcDbEntity
  8
0
  6
HIDDEN
 62
     7
370
     0
100
AcDbSpline
210
0.0
220
0.0
230
1.0
 70
     8
 71
     3
 72
     9
 73
     5
 74
     0
 42
0.00000001
 43
0.00000001
 12
1.0
 22
0.0
 32
0.0
 13
1.0
 23
0.0
 33
0.0
 40
0.0
 40
0.0
 40
0.0
 40
0.0
 40
0.861694103761069
 40
0.9999999999999999
 40
0.9999999999999999
 40
0.9999999999999999
 40
0.9999999999999999
 10
156.9576494114738
 20
68.91949635779545
 30
0.0
 10
156.950627379035
 20
69.15061905624009
 30
0.0
 10
156.9424782778536
 20
69.41883801867218
 30
0.0
 10
156.8112174399477
 20
69.64381008090616
 30
0.0
 10
156.7930632921201
 20
69.67492504360214
 30
0.0
  0
LINE
  5
32F
330
1F
100
AcDbEntity
  8
0
  6
HIDDEN
 62
     7
370
     0
100
AcDbLine
 10
154.3722234385
 20
67.0171625478
 30
0.0
 11
154.9645604285
 21
66.9208997659
 31
0.0
  0
SPLINE
  5
330
330
1F
100
AcDbEntity
  8
0
  6
HIDDEN
 62
     7
370
     0
100
AcDbSpline
210
0.0
220
0.0
230
1.0
 70
     8
 71
     3
 72
     9
 73
     5
 74
     0
 42
0.00000001
 43
0.00000001
 12
1.0
 22
0.0
 32
0.0
 13
1.0
 23
0.0
 33
0.0
 40
0.0
 40
0.0
 40
0.0
 40
0.0
 40
0.2924551856239669
 40
1.0
 40
1.0
 40
1.0
 40
1.0
 10
156.845323527072
 20
68.32873784320489
 30
0.0
 10
156.869744318145
 20
68.38294126243031
 30
0.0
 10
156.953246995729
 20
68.56828049349829
 30
0.0
 10
156.9558252096112
 20
68.77396520604009
 30
0.0
 10
156.9576494114738
 20
68.91949635779545
 30
0.0
  0
SPLINE
  5
331
330
1F
100
AcDbEntity
  8
0
  6
HIDDEN
 62
     7
370
     0
100
AcDbSpline
210
0.0
220
0.0
230
1.0
 70
     8
 71
     3
 72
    17
 73
    13
 74
     0
 42
0.00000001
 43
0.00000001
 12
1.0
 22
0.0
 32
0.0
 13
1.0
 23
0.0
 33
0.0
 40
0.0
 40
0.0
 40
0.0
 40
0.0
 40
0.1098504714033943
 40
0.219548091228718
 40
0.3329250042233133
 40
0.4470368830660751
 40
0.5561743300341383
 40
0.6593003674438459
 40
0.7604887306376167
 40
0.8639357269274905
 40
0.9709165507987383
 40
1.0
 40
1.0
 40
1.0
 40
1.0
 10
213.4362224208456
 20
63.50998275762485
 30
0.0
 10
213.4959764629316
 20
63.03091953886711
 30
0.0
 10
213.6154014022657
 20
62.0734596944763
 30
0.0
 10
214.3951820736249
 20
60.81372067390053
 30
0.0
 10
215.5287898132035
 20
59.84732644368753
 30
0.0
 10
216.943832000736
 20
59.30767781520144
 30
0.0
 10
218.420428497131
 20
59.2746173325767
 30
0.0
 10
219.7574356485723
 20
59.71398371628737
 30
0.0
 10
220.8519722100991
 20
60.54142197307434
 30
0.0
 10
221.5865508696594
 20
61.68263119861291
 30
0.0
 10
221.9345627187919
 20
62.7080785865491
 30
0.0
 10
221.8673405529276
 20
63.30136149131703
 30
0.0
 10
221.8529719578367
 20
63.42817445134805
 30
0.0
  0
ARC
  5
332
330
1F
100
AcDbEntity
  8
0
  6
HIDDEN
 62
     7
370
     0
100
AcDbCircle
 10
217.6397950607
 20
63.5373634567
 30
0.0
 40
4.203661813398901
100
AcDbArc
 50
0.1027406324
 51
180.3732007138
  0
ELLIPSE
  5
333
330
1F
100
AcDbEntity
  8
0
  6
HIDDEN
 62
     7
370
     0
100
AcDbEllipse
 10
241.9276822327
 20
68.9194963578
 30
0.0
 11
37.98674877545637
 21
31.44244822584267
 31
0.0
210
0.0
220
0.0
230
1.0
 40
0.0501036136
 41
1.643498407770232
 42
3.202050855131292
  0
ELLIPSE
  5
334
330
1F
100
AcDbEntity
  8
0
  6
HIDDEN
 62
     7
370
     0
100
AcDbEllipse
 10
241.4646038507
 20
68.9194963578
 30
0.0
 11
5.684341886080800E-14
 21
31.49999999999997
 31
0.0
210
0.0
220
0.0
230
1.0
 40
0.1227845609
 41
1.558552447360752
 42
1.583040206229042
  0
ELLIPSE
  5
335
330
1F
100
AcDbEntity
  8
0
  6
HIDDEN
 62
     7
370
     0
100
AcDbEllipse
 10
241.9276822327
 20
68.9194963578
 30
0.0
 11
37.98674877545665
 21
-31.4424482258429
 31
0.0
210
0.0
220
0.0
230
1.0
 40
0.0501036136
 41
3.081134452048581
 42
4.639686899409356
  0
SPLINE
  5
336
330
1F
100
AcDbEntity
  8
0
  6
HIDDEN
 62
     7
370
     0
100
AcDbSpline
210
0.0
220
0.0
230
1.0
 70
     8
 71
     3
 72
    12
 73
     8
 74
     0
 42
0.00000001
 43
0.00000001
 12
1.0
 22
0.0
 32
0.0
 13
1.0
 23
0.0
 33
0.0
 40
0.0
 40
0.0
 40
0.0
 40
0.0
 40
0.5000000000000003
 40
0.5000000000000003
 40
0.7500000000000001
 40
0.7500000000000001
 40
1.0
 40
1.0
 40
1.0
 40
1.0
 10
142.1411366928931
 20
84.37176433962635
 30
0.0
 10
142.1975428715734
 20
84.32394196596653
 30
0.0
 10
142.2677057730452
 20
84.283671119028
 30
0.0
 10
142.3857164864343
 20
84.27562525055106
 30
0.0
 10
142.4259222700298
 20
84.2821878488899
 30
0.0
 10
142.4996429667628
 20
84.30956994334353
 30
0.0
 10
142.5325036885494
 20
84.32933143387388
 30
0.0
 10
142.5626720904786
 20
84.35226414506192
 30
0.0
  0
SPLINE
  5
337
330
1F
100
AcDbEntity
  8
0
  6
HIDDEN
 62
     7
370
     0
100
AcDbSpline
210
0.0
220
0.0
230
1.0
 70
     8
 71
     3
 72
    15
 73
    11
 74
     0
 42
0.00000001
 43
0.00000001
 12
1.0
 22
0.0
 32
0.0
 13
1.0
 23
0.0
 33
0.0
 40
0.0
 40
0.0
 40
0.0
 40
0.0
 40
0.0595523247995303
 40
0.1082795015760455
 40
0.1573398835707347
 40
0.2001543639933419
 40
0.2729730938210174
 40
0.4170799970668755
 40
0.914129428998993
 40
0.9999999999999999
 40
0.9999999999999999
 40
0.9999999999999999
 40
0.9999999999999999
 10
142.5626720777512
 20
84.35226392781423
 30
0.0
 10
142.5696172103611
 20
84.35711614988801
 30
0.0
 10
142.5822450212806
 20
84.36593857939775
 30
0.0
 10
142.6042617473977
 20
84.37454348369509
 30
0.0
 10
142.6245541491799
 20
84.37697520101928
 30
0.0
 10
142.6456309030141
 20
84.37354421865764
 30
0.0
 10
142.671950317537
 20
84.35972983433112
 30
0.0
 10
142.7176557510987
 20
84.30264602465292
 30
0.0
 10
142.7391558822847
 20
84.23144143459974
 30
0.0
 10
142.7428466311806
 20
84.16921978720518
 30
0.0
 10
142.7433903193599
 20
84.16005384957478
 30
0.0
  0
SPLINE
  5
338
330
1F
100
AcDbEntity
  8
0
  6
HIDDEN
 62
     7
370
     0
100
AcDbSpline
210
0.0
220
0.0
230
1.0
 70
     8
 71
     3
 72
    15
 73
    11
 74
     0
 42
0.00000001
 43
0.00000001
 12
1.0
 22
0.0
 32
0.0
 13
1.0
 23
0.0
 33
0.0
 40
0.0
 40
0.0
 40
0.0
 40
0.0
 40
0.4306019074436232
 40
0.5870919746734342
 40
0.744495503997483
 40
0.8130618660485531
 40
0.8567143072020288
 40
0.9006883830095967
 40
0.9394124879505321
 40
1.0
 40
1.0
 40
1.0
 40
1.0
 10
142.7383587036314
 20
53.71629607712912
 30
0.0
 10
142.7368414510868
 20
53.66453710368265
 30
0.0
 10
142.7347727960783
 20
53.59396779731763
 30
0.0
 10
142.7018217742895
 20
53.518275051537
 30
0.0
 10
142.6768927848105
 20
53.48295948076411
 30
0.0
 10
142.6478154281356
 20
53.46611143311868
 30
0.0
 10
142.6259516412495
 20
53.46195311837393
 30
0.0
 10
142.605802167273
 20
53.46418168042123
 30
0.0
 10
142.583484776822
 20
53.47232656905492
 30
0.0
 10
142.570558234876
 20
53.48127163109557
 30
0.0
 10
142.5626720777512
 20
53.4867287877767
 30
0.0
  0
SPLINE
  5
339
330
1F
100
AcDbEntity
  8
0
  6
HIDDEN
 62
     7
370
     0
100
AcDbSpline
210
0.0
220
0.0
230
1.0
 70
     8
 71
     3
 72
    12
 73
     8
 74
     0
 42
0.00000001
 43
0.00000001
 12
1.0
 22
0.0
 32
0.0
 13
1.0
 23
0.0
 33
0.0
 40
0.0
 40
0.0
 40
0.0
 40
0.0
 40
0.2499999999999996
 40
0.2499999999999996
 40
0.4999999999999992
 40
0.4999999999999992
 40
1.0
 40
1.0
 40
1.0
 40
1.0
 10
142.5626720904716
 20
53.48672857052082
 30
0.0
 10
142.5324802487544
 20
53.50967909961864
 30
0.0
 10
142.4991212793398
 20
53.52964857364282
 30
0.0
 10
142.4259839947592
 20
53.55674970726834
 30
0.0
 10
142.3857421221052
 20
53.56335044791376
 30
0.0
 10
142.2680363451367
 20
53.55538157340708
 30
0.0
 10
142.1976258673573
 20
53.51512111523924
 30
0.0
 10
142.141136692889
 20
53.46722837596109
 30
0.0
  0
SPLINE
  5
33A
330
1F
100
AcDbEntity
  8
0
  6
HIDDEN
 62
     7
370
     0
100
AcDbSpline
210
0.0
220
0.0
230
1.0
 70
     8
 71
     3
 72
    12
 73
     8
 74
     0
 42
0.00000001
 43
0.00000001
 12
1.0
 22
0.0
 32
0.0
 13
1.0
 23
0.0
 33
0.0
 40
0.0
 40
0.0
 40
0.0
 40
0.0
 40
0.2500000000000005
 40
0.2500000000000005
 40
0.500000000000001
 40
0.500000000000001
 40
1.0
 40
1.0
 40
1.0
 40
1.0
 10
142.1411366928886
 20
53.46722837596131
 30
0.0
 10
142.0529827551509
 20
53.39248956810722
 30
0.0
 10
141.9926293305221
 20
53.30150906762483
 30
0.0
 10
141.8863673724553
 20
53.11259524487222
 30
0.0
 10
141.8441352058932
 20
53.01609078533163
 30
0.0
 10
141.733064510576
 20
52.72532303116448
 30
0.0
 10
141.6801277341492
 20
52.52965621662074
 30
0.0
 10
141.6363286357805
 20
52.33558973155441
 30
0.0
  0
SPLINE
  5
33B
330
1F
100
AcDbEntity
  8
0
  6
HIDDEN
 62
     7
370
     0
100
AcDbSpline
210
0.0
220
0.0
230
1.0
 70
     8
 71
     3
 72
    12
 73
     8
 74
     0
 42
0.00000001
 43
0.00000001
 12
1.0
 22
0.0
 32
0.0
 13
1.0
 23
0.0
 33
0.0
 40
0.0
 40
0.0
 40
0.0
 40
0.0
 40
0.5
 40
0.5
 40
0.75
 40
0.75
 40
1.0
 40
1.0
 40
1.0
 40
1.0
 10
141.6363286357805
 20
47.14941540279335
 30
0.0
 10
141.680075176617
 20
47.12282123215218
 30
0.0
 10
141.7329595318486
 20
47.10306100682646
 30
0.0
 10
141.8445266191847
 20
47.08261001659737
 30
0.0
 10
141.8871102157277
 20
47.07734979194093
 30
0.0
 10
141.9920269428095
 20
47.06946699801829
 30
0.0
 10
142.0535605506543
 20
47.06690287283914
 30
0.0
 10
142.1411366928804
 20
47.06470265531949
 30
0.0
  0
SPLINE
  5
33C
330
1F
100
AcDbEntity
  8
0
  6
HIDDEN
 62
     7
370
     0
100
AcDbSpline
210
0.0
220
0.0
230
1.0
 70
     8
 71
     3
 72
    12
 73
     8
 74
     0
 42
0.00000001
 43
0.00000001
 12
1.0
 22
0.0
 32
0.0
 13
1.0
 23
0.0
 33
0.0
 40
0.0
 40
0.0
 40
0.0
 40
0.0
 40
0.25
 40
0.25
 40
0.5
 40
0.5
 40
1.0
 40
1.0
 40
1.0
 40
1.0
 10
142.1411366928884
 20
90.77429006027138
 30
0.0
 10
142.0524520330321
 20
90.77206199293039
 30
0.0
 10
141.9925336173087
 20
90.76956020890005
 30
0.0
 10
141.8868743899879
 20
90.76162877306405
 30
0.0
 10
141.844233151873
 20
90.75633661816721
 30
0.0
 10
141.7330438097704
 20
90.73593167768007
 30
0.0
 10
141.6801171276495
 20
90.71619698609321
 30
0.0
 10
141.6363286357805
 20
90.68957731279757
 30
0.0
  0
SPLINE
  5
33D
330
1F
100
AcDbEntity
  8
0
  6
HIDDEN
 62
     7
370
     0
100
AcDbSpline
210
0.0
220
0.0
230
1.0
 70
     8
 71
     3
 72
    12
 73
     8
 74
     0
 42
0.00000001
 43
0.00000001
 12
1.0
 22
0.0
 32
0.0
 13
1.0
 23
0.0
 33
0.0
 40
0.0
 40
0.0
 40
0.0
 40
0.0
 40
0.4999999999999973
 40
0.4999999999999973
 40
0.7499999999999987
 40
0.7499999999999987
 40
1.0
 40
1.0
 40
1.0
 40
1.0
 10
141.6363286357789
 20
85.50340298403668
 30
0.0
 10
141.6800901120777
 20
85.30950319607462
 30
0.0
 10
141.7329964277307
 20
85.11364683213775
 30
0.0
 10
141.8447076253781
 20
84.8215046856388
 30
0.0
 10
141.8872270689644
 20
84.72478674894087
 30
0.0
 10
141.9923504115318
 20
84.5380623125164
 30
0.0
 10
142.0539163752495
 20
84.44571160424671
 30
0.0
 10
142.1411366928923
 20
84.37176433962702
 30
0.0
  0
ARC
  5
33E
330
1F
100
AcDbEntity
  8
0
  6
HIDDEN
 62
     7
370
     0
100
AcDbCircle
 10
180.1881901874
 20
71.170514851
 30
0.0
 40
0.2488550006877777
100
AcDbArc
 50
65.6238298003
 51
102.6808768581
  0
ARC
  5
33F
330
1F
100
AcDbEntity
  8
0
  6
HIDDEN
 62
     7
370
     0
100
AcDbCircle
 10
180.1881901874
 20
66.6684778646
 30
0.0
 40
0.2488550006877777
100
AcDbArc
 50
257.3191231419
 51
294.3761701997
  0
CIRCLE
  5
340
330
1F
100
AcDbEntity
  8
0
  6
HIDDEN
 62
     7
370
     0
100
AcDbCircle
 10
127.4576489793
 20
68.9194963578
 30
0.0
 40
4.049999999999997
  0
LINE
  5
341
330
1F
100
AcDbEntity
  8
0
  6
HIDDEN
 62
     7
370
     0
100
AcDbLine
 10
106.4878765213
 20
53.6065452996
 30
0.0
 11
106.4878765213
 21
84.2324474159
 31
0.0
  0
LINE
  5
342
330
1F
100
AcDbEntity
  8
0
  6
HIDDEN
 62
     7
370
     0
100
AcDbLine
 10
112.9878766554
 20
54.5730858374
 30
0.0
 11
112.9878766554
 21
83.2659068782
 31
0.0
  0
LINE
  5
343
330
1F
100
AcDbEntity
  8
0
  6
HIDDEN
 62
     7
370
     0
100
AcDbLine
 10
118.7878779786
 20
54.9194959257
 30
0.0
 11
118.7878779786
 21
82.9194967899
 31
0.0
  0
LINE
  5
344
330
1F
100
AcDbEntity
  8
0
  6
HIDDEN
 62
     7
370
     0
100
AcDbLine
 10
111.3878775107
 20
54.9194959257
 30
0.0
 11
111.3878775107
 21
82.9194967899
 31
0.0
  0
LINE
  5
345
330
1F
100
AcDbEntity
  8
0
  6
HIDDEN
 62
     7
370
     0
100
AcDbLine
 10
112.3878776746
 20
54.9194959257
 30
0.0
 11
112.3878776746
 21
82.9194967899
 31
0.0
  0
LINE
  5
346
330
1F
100
AcDbEntity
  8
0
  6
HIDDEN
 62
     7
370
     0
100
AcDbLine
 10
131.9576490389
 20
55.4194960076
 30
0.0
 11
131.9576490389
 21
82.419496708
 31
0.0
  0
LINE
  5
347
330
1F
100
AcDbEntity
  8
0
  6
HIDDEN
 62
     7
370
     0
100
AcDbLine
 10
131.457648957
 20
69.5539252282
 30
0.0
 11
131.2917673679
 21
70.0477071604
 31
0.0
  0
LINE
  5
348
330
1F
100
AcDbEntity
  8
0
  6
HIDDEN
 62
     7
370
     0
100
AcDbLine
 10
127.5782266351
 20
72.9450119924
 30
0.0
 11
126.5895038562
 21
72.8501912471
 31
0.0
  0
LINE
  5
349
330
1F
100
AcDbEntity
  8
0
  6
HIDDEN
 62
     7
370
     0
100
AcDbLine
 10
131.1953345033
 20
67.4784374222
 30
0.0
 11
131.457648957
 21
68.2850674874
 31
0.0
  0
LINE
  5
34A
330
1F
100
AcDbEntity
  8
0
  6
HIDDEN
 62
     7
370
     0
100
AcDbLine
 10
133.2076487782
 20
59.9194967452
 30
0.0
 11
133.2076487782
 21
77.9194959704
 31
0.0
  0
LINE
  5
34B
330
1F
100
AcDbEntity
  8
0
  6
HIDDEN
 62
     7
370
     0
100
AcDbLine
 10
169.9576496797
 20
77.9194959704
 30
0.0
 11
169.9576496797
 21
59.9194967452
 31
0.0
  0
LINE
  5
34C
330
1F
100
AcDbEntity
  8
0
  6
HIDDEN
 62
     7
370
     0
100
AcDbLine
 10
172.8117361384
 20
73.1694965888
 30
0.0
 11
172.8117361384
 21
64.6694961268
 31
0.0
  0
LINE
  5
34D
330
1F
100
AcDbEntity
  8
0
  6
HIDDEN
 62
     7
370
     0
100
AcDbLine
 10
183.9576501118
 20
73.1694965888
 30
0.0
 11
183.9576501118
 21
64.6694961268
 31
0.0
  0
CIRCLE
  5
34E
330
1F
100
AcDbEntity
  8
0
  6
HIDDEN
 62
     7
370
     0
100
AcDbCircle
 10
221.7167770676
 20
63.5138424592
 30
0.0
 40
3.491152209319476
  0
CIRCLE
  5
34F
330
1F
100
AcDbEntity
  8
0
  6
HIDDEN
 62
     7
370
     0
100
AcDbCircle
 10
221.2196246598
 20
63.5138096167
 30
0.0
 40
3.491154656844754
  0
ARC
  5
350
330
1F
100
AcDbEntity
  8
0
  6
HIDDEN
 62
     7
370
     0
100
AcDbCircle
 10
224.1070916193
 20
71.0260426432
 30
0.0
 40
2.350243568567247
100
AcDbArc
 50
83.3511947539
 51
229.9088663626
  0
LINE
  5
351
330
1F
100
AcDbEntity
  8
0
  6
HIDDEN
 62
     7
370
     0
100
AcDbLine
 10
232.7188614475
 20
61.1523228962
 30
0.0
 11
232.1460757124
 21
61.1523228962
 31
0.0
  0
LINE
  5
352
330
1F
100
AcDbEntity
  8
0
  6
HIDDEN
 62
     7
370
     0
100
AcDbLine
 10
226.6018379199
 20
71.974839995
 30
0.0
 11
226.973241912
 21
71.6608515739
 31
0.0
  0
LINE
  5
353
330
1F
100
AcDbEntity
  8
0
  6
HIDDEN
 62
     7
370
     0
100
AcDbLine
 10
226.6149509417
 20
71.6608515739
 30
0.0
 11
226.973241912
 21
71.6608515739
 31
0.0
  0
LINE
  5
354
330
1F
100
AcDbEntity
  8
0
  6
HIDDEN
 62
     7
370
     0
100
AcDbLine
 10
226.4226887094
 20
71.823388318
 30
0.0
 11
226.6149509417
 21
71.6608515739
 31
0.0
  0
LINE
  5
355
330
1F
100
AcDbEntity
  8
0
  6
HIDDEN
 62
     7
370
     0
100
AcDbLine
 10
232.7188614475
 20
76.6866698194
 30
0.0
 11
232.1460757124
 21
76.6866698194
 31
0.0
  0
ELLIPSE
  5
356
330
1F
100
AcDbEntity
  8
0
  6
HIDDEN
 62
     7
370
     0
100
AcDbEllipse
 10
227.769980257
 20
66.6024057069
 30
0.0
 11
2.6327180784414
 21
1.286044576750768
 31
0.0
210
0.0
220
0.0
230
1.0
 40
0.8520481147
 41
2.226612082780257
 42
2.415153612806567
  0
ELLIPSE
  5
357
330
1F
100
AcDbEntity
  8
0
  6
HIDDEN
 62
     7
370
     0
100
AcDbEllipse
 10
226.7542915034
 20
66.2102488639
 30
0.0
 11
2.386057361094459
 21
-1.751217057252703
 31
0.0
210
0.0
220
0.0
230
1.0
 40
0.1163726509
 41
2.310700992709386
 42
2.898653210776094
  0
ELLIPSE
  5
358
330
1F
100
AcDbEntity
  8
0
  6
HIDDEN
 62
     7
370
     0
100
AcDbEllipse
 10
225.7591025476
 20
65.826006981
 30
0.0
 11
2.6327180784414
 21
1.286044576750768
 31
0.0
210
0.0
220
0.0
230
1.0
 40
0.8520481147
 41
1.552970669284829
 42
1.63865986471356
  0
SPLINE
  5
359
330
1F
100
AcDbEntity
  8
0
  6
HIDDEN
 62
     7
370
     0
100
AcDbSpline
210
0.0
220
0.0
230
1.0
 70
     8
 71
     3
 72
    22
 73
    18
 74
     0
 42
0.00000001
 43
0.00000001
 12
1.0
 22
0.0
 32
0.0
 13
1.0
 23
0.0
 33
0.0
 40
0.0
 40
0.0
 40
0.0
 40
0.0
 40
0.0624999999999999
 40
0.0624999999999999
 40
0.1249999999999998
 40
0.1249999999999998
 40
0.1874999999999997
 40
0.1874999999999997
 40
0.2499999999999996
 40
0.2499999999999996
 40
0.3749999999999996
 40
0.3749999999999996
 40
0.4999999999999997
 40
0.4999999999999997
 40
0.7499999999999998
 40
0.7499999999999998
 40
1.0
 40
1.0
 40
1.0
 40
1.0
 10
224.8291050102873
 20
65.48698739041151
 30
0.0
 10
224.7592551522598
 20
65.61061131452801
 30
0.0
 10
224.6865816032646
 20
65.71853164164673
 30
0.0
 10
224.5380718187483
 20
65.91538763334385
 30
0.0
 10
224.4655040276187
 20
65.99992721241887
 30
0.0
 10
224.3231245278979
 20
66.15262708266567
 30
0.0
 10
224.2528696257741
 20
66.22096054529287
 30
0.0
 10
224.1175366625897
 20
66.34373807268861
 30
0.0
 10
224.0520717222052
 20
66.39857974828239
 30
0.0
 10
223.8607463905504
 20
66.54956477842468
 30
0.0
 10
223.7398739755421
 20
66.63241889276094
 30
0.0
 10
223.5086246568416
 20
66.7768509103163
 30
0.0
 10
223.3983187527309
 20
66.83808192470676
 30
0.0
 10
223.0879199344103
 20
66.99608617913054
 30
0.0
 10
222.9052839165802
 20
67.06941175299805
 30
0.0
 10
222.5996630407531
 20
67.17213804488844
 30
0.0
 10
222.475335626816
 20
67.20204957662516
 30
0.0
 10
222.4060338857753
 20
67.20204957662523
 30
0.0
  0
SPLINE
  5
35A
330
1F
100
AcDbEntity
  8
0
  6
HIDDEN
 62
     7
370
     0
100
AcDbSpline
210
0.0
220
0.0
230
1.0
 70
     8
 71
     3
 72
     8
 73
     4
 74
     0
 42
0.00000001
 43
0.00000001
 12
1.0
 22
0.0
 32
0.0
 13
1.0
 23
0.0
 33
0.0
 40
0.0
 40
0.0
 40
0.0
 40
0.0
 40
1.0
 40
1.0
 40
1.0
 40
1.0
 10
225.0184711270866
 20
65.07784072522652
 30
0.0
 10
224.9482172780039
 20
65.2099852589704
 30
0.0
 10
224.885070772387
 20
65.34635294271052
 30
0.0
 10
224.8291050102872
 20
65.48698739041149
 30
0.0
  0
SPLINE
  5
35B
330
1F
100
AcDbEntity
  8
0
  6
HIDDEN
 62
     7
370
     0
100
AcDbSpline
210
0.0
220
0.0
230
1.0
 70
     8
 71
     3
 72
    14
 73
    10
 74
     0
 42
0.00000001
 43
0.00000001
 12
1.0
 22
0.0
 32
0.0
 13
1.0
 23
0.0
 33
0.0
 40
0.0
 40
0.0
 40
0.0
 40
0.0
 40
0.1370196435720621
 40
0.3860476689700137
 40
0.6400076390064398
 40
0.7803611487026673
 40
0.9218484305114836
 40
0.9857536762005115
 40
0.9999999999999999
 40
0.9999999999999999
 40
0.9999999999999999
 40
0.9999999999999999
 10
224.5602223741155
 20
62.70230070537017
 30
0.0
 10
224.5987724082554
 20
62.71829819799496
 30
0.0
 10
224.7073856729702
 20
62.76337052905756
 30
0.0
 10
224.9189932431067
 20
63.07519190625149
 30
0.0
 10
225.1021353049342
 20
63.52384325831043
 30
0.0
 10
225.185861168742
 20
64.05805478733582
 30
0.0
 10
225.1731045539873
 20
64.51693770548057
 30
0.0
 10
225.0802542196498
 20
64.90329096927736
 30
0.0
 10
225.0279964518376
 20
65.05092791676951
 30
0.0
 10
225.0184703337293
 20
65.07784079609499
 30
0.0
  0
ELLIPSE
  5
35C
330
1F
100
AcDbEntity
  8
0
  6
HIDDEN
 62
     7
370
     0
100
AcDbEllipse
 10
227.769980257
 20
66.6024057069
 30
0.0
 11
2.6327180784414
 21
1.286044576750768
 31
0.0
210
0.0
220
0.0
230
1.0
 40
0.8520481147
 41
4.58553830476877
 42
4.694563322874665
  0
ELLIPSE
  5
35D
330
1F
100
AcDbEntity
  8
0
  6
HIDDEN
 62
     7
370
     0
100
AcDbEllipse
 10
226.1504215819
 20
65.9770950348
 30
0.0
 11
2.386057361094487
 21
-1.751217057252688
 31
0.0
210
0.0
220
0.0
230
1.0
 40
0.1163726509
 41
6.234960077900365
 42
8.405344769862559
  0
ELLIPSE
  5
35E
330
1F
100
AcDbEntity
  8
0
  6
HIDDEN
 62
     7
370
     0
100
AcDbEllipse
 10
220.3287901753
 20
63.5099826075
 30
0.0
 11
-0.8683615577165541
 21
4.123771890140369
 31
0.0
210
0.0
220
0.0
230
1.0
 40
0.9173119931
 41
4.320346803636744
 42
5.595470644875136
  0
LINE
  5
35F
330
1F
100
AcDbEntity
  8
0
  6
HIDDEN
 62
     7
370
     0
100
AcDbLine
 10
224.1563562023
 20
62.6705104749
 30
0.0
 11
224.5033744442
 21
62.6705104749
 31
0.0
  0
LINE
  5
360
330
1F
100
AcDbEntity
  8
0
  6
HIDDEN
 62
     7
370
     0
100
AcDbLine
 10
222.4060360061
 20
67.2020495202
 30
0.0
 11
222.0590177642
 21
67.2020495202
 31
0.0
  0
ARC
  5
361
330
1F
100
AcDbEntity
  8
0
  6
HIDDEN
 62
     7
370
     0
100
AcDbCircle
 10
221.1277848636
 20
63.5255221617
 30
0.0
 40
4.188929048153605
100
AcDbArc
 50
21.7511754626
 51
27.9207468621
  0
ARC
  5
362
330
1F
100
AcDbEntity
  8
0
  6
HIDDEN
 62
     7
370
     0
100
AcDbCircle
 10
224.2664224898
 20
71.2194410304
 30
0.0
 40
2.101122994312684
100
AcDbArc
 50
93.6173895444
 51
217.3087169311
  0
LINE
  5
363
330
1F
100
AcDbEntity
  8
0
  6
HIDDEN
 62
     7
370
     0
100
AcDbLine
 10
225.2960789668
 20
67.5960198076
 30
0.0
 11
223.3591664301
 21
69.2334847498
 31
0.0
  0
LINE
  5
364
330
1F
100
AcDbEntity
  8
0
  6
HIDDEN
 62
     7
370
     0
100
AcDbLine
 10
222.5935224163
 20
69.2280567981
 30
0.0
 11
225.0740814673
 21
67.1309920525
 31
0.0
  0
ARC
  5
365
330
1F
100
AcDbEntity
  8
0
  6
HIDDEN
 62
     7
370
     0
100
AcDbCircle
 10
223.9062935603
 20
71.2183261543
 30
0.0
 40
2.100315314687663
100
AcDbArc
 50
85.4428598979
 51
229.9284254773
  0
LINE
  5
366
330
1F
100
AcDbEntity
  8
0
  6
HIDDEN
 62
     7
370
     0
100
AcDbLine
 10
226.973241912
 20
71.6608515739
 30
0.0
 11
232.5321051942
 21
76.3603180911
 31
0.0
  0
LINE
  5
367
330
1F
100
AcDbEntity
  8
0
  6
HIDDEN
 62
     7
370
     0
100
AcDbLine
 10
232.1460757124
 20
76.6866698194
 30
0.0
 11
226.5872124302
 21
71.987203535
 31
0.0
  0
LINE
  5
368
330
1F
100
AcDbEntity
  8
0
  6
HIDDEN
 62
     7
370
     0
100
AcDbLine
 10
232.1460757124
 20
76.6866698194
 30
0.0
 11
232.5321051942
 21
76.3603180911
 31
0.0
  0
LINE
  5
369
330
1F
100
AcDbEntity
  8
0
  6
HIDDEN
 62
     7
370
     0
100
AcDbLine
 10
232.5321051942
 20
76.3603180911
 30
0.0
 11
232.1738067733
 21
76.3603180911
 31
0.0
  0
LINE
  5
36A
330
1F
100
AcDbEntity
  8
0
  6
HIDDEN
 62
     7
370
     0
100
AcDbLine
 10
229.0326047408
 20
64.4371548932
 30
0.0
 11
228.8186538684
 21
64.3366363164
 31
0.0
  0
LINE
  5
36B
330
1F
100
AcDbEntity
  8
0
  6
HIDDEN
 62
     7
370
     0
100
AcDbLine
 10
232.5321051942
 20
61.4786746245
 30
0.0
 11
229.0326047408
 21
64.4371548932
 31
0.0
  0
LINE
  5
36C
330
1F
100
AcDbEntity
  8
0
  6
HIDDEN
 62
     7
370
     0
100
AcDbLine
 10
228.5238790976
 20
64.2145282853
 30
0.0
 11
232.1460757124
 21
61.1523228962
 31
0.0
  0
LINE
  5
36D
330
1F
100
AcDbEntity
  8
0
  6
HIDDEN
 62
     7
370
     0
100
AcDbLine
 10
232.1460757124
 20
61.1523228962
 30
0.0
 11
232.5321051942
 21
61.4786746245
 31
0.0
  0
LINE
  5
36E
330
1F
100
AcDbEntity
  8
0
  6
HIDDEN
 62
     7
370
     0
100
AcDbLine
 10
227.2924098837
 20
64.2801190059
 30
0.0
 11
224.1563562023
 21
62.6705104749
 31
0.0
  0
LINE
  5
36F
330
1F
100
AcDbEntity
  8
0
  6
HIDDEN
 62
     7
370
     0
100
AcDbLine
 10
231.2536377179
 20
65.8095476482
 30
0.0
 11
231.5954778062
 21
65.8095476482
 31
0.0
  0
LINE
  5
370
330
1F
100
AcDbEntity
  8
0
  6
HIDDEN
 62
     7
370
     0
100
AcDbLine
 10
228.6743137704
 20
64.4371548932
 30
0.0
 11
231.5954778062
 21
65.8095476482
 31
0.0
  0
LINE
  5
371
330
1F
100
AcDbEntity
  8
0
  6
HIDDEN
 62
     7
370
     0
100
AcDbLine
 10
228.6743137704
 20
64.4371548932
 30
0.0
 11
229.0326047408
 21
64.4371548932
 31
0.0
  0
LINE
  5
372
330
1F
100
AcDbEntity
  8
0
  6
HIDDEN
 62
     7
370
     0
100
AcDbLine
 10
232.5321051942
 20
61.4786746245
 30
0.0
 11
232.1738067733
 21
61.4786746245
 31
0.0
  0
SPLINE
  5
373
330
1F
100
AcDbEntity
  8
0
  6
HIDDEN
 62
     7
370
     0
100
AcDbSpline
210
0.0
220
0.0
230
1.0
 70
     8
 71
     3
 72
    16
 73
    12
 74
     0
 42
0.00000001
 43
0.00000001
 12
1.0
 22
0.0
 32
0.0
 13
1.0
 23
0.0
 33
0.0
 40
0.0
 40
0.0
 40
0.0
 40
0.0
 40
0.2500000000000003
 40
0.2500000000000003
 40
0.3750000000000003
 40
0.3750000000000003
 40
0.5000000000000002
 40
0.5000000000000002
 40
0.7500000000000001
 40
0.7500000000000001
 40
1.0
 40
1.0
 40
1.0
 40
1.0
 10
141.6363286357805
 20
90.68957731279757
 30
0.0
 10
141.4750961582961
 20
90.59156169974285
 30
0.0
 10
141.3546163186564
 20
90.40482566806679
 30
0.0
 10
141.2322358013431
 20
89.99178586050789
 30
0.0
 10
141.2012581409457
 20
89.83178536127497
 30
0.0
 10
141.1596444033177
 20
89.4649797101838
 30
0.0
 10
141.1494084903849
 20
89.26164255755982
 30
0.0
 10
141.1492200933288
 20
88.59435529093314
 30
0.0
 10
141.1893647959664
 20
88.07354082704508
 30
0.0
 10
141.353518550906
 20
86.87618181156739
 30
0.0
 10
141.4750702013155
 20
86.2179121572714
 30
0.0
 10
141.6363286357805
 20
85.50340298403648
 30
0.0
  0
SPLINE
  5
374
330
1F
100
AcDbEntity
  8
0
  6
HIDDEN
 62
     7
370
     0
100
AcDbSpline
210
0.0
220
0.0
230
1.0
 70
     8
 71
     3
 72
    16
 73
    12
 74
     0
 42
0.00000001
 43
0.00000001
 12
1.0
 22
0.0
 32
0.0
 13
1.0
 23
0.0
 33
0.0
 40
0.0
 40
0.0
 40
0.0
 40
0.0
 40
0.2499999999999995
 40
0.2499999999999995
 40
0.3749999999999996
 40
0.3749999999999996
 40
0.4999999999999997
 40
0.4999999999999997
 40
0.7499999999999998
 40
0.7499999999999998
 40
1.0
 40
1.0
 40
1.0
 40
1.0
 10
141.6363286357805
 20
52.33558973155441
 30
0.0
 10
141.475096158296
 20
51.6211955693623
 30
0.0
 10
141.3546163186564
 20
50.96785330665362
 30
0.0
 10
141.2322358013431
 20
50.07959806484973
 30
0.0
 10
141.2012581409456
 20
49.79891752849789
 30
0.0
 10
141.1596444033177
 20
49.26988353865791
 30
0.0
 10
141.1494084903849
 20
49.02656256007945
 30
0.0
 10
141.1492200933288
 20
48.35853986956623
 30
0.0
 10
141.1893647959664
 20
47.99485896014677
 30
0.0
 10
141.3535185509059
 20
47.43496808759845
 30
0.0
 10
141.4750702013155
 20
47.2474467954813
 30
0.0
 10
141.6363286357805
 20
47.14941540279335
 30
0.0
  0
ARC
  5
375
330
1F
100
AcDbEntity
  8
0
  6
HIDDEN
 62
     7
370
     0
100
AcDbCircle
 10
232.3502359463
 20
68.909999858
 30
0.0
 40
3.190997297895757
100
AcDbArc
 50
256.3183279594
 51
153.3540342903
  0
LINE
  5
376
330
1F
100
AcDbEntity
  8
0
  6
HIDDEN
 62
     7
370
     0
100
AcDbLine
 10
229.4981393682
 20
70.3410864606
 30
0.0
 11
224.7104335295
 21
68.0917764347
 31
0.0
  0
LINE
  5
377
330
1F
100
AcDbEntity
  8
0
  6
HIDDEN
 62
     7
370
     0
100
AcDbLine
 10
240.5191350447
 20
68.5338238053
 30
0.0
 11
240.5191350447
 21
69.3051689103
 31
0.0
  0
LINE
  5
378
330
1F
100
AcDbEntity
  8
0
  6
HIDDEN
 62
     7
370
     0
100
AcDbLine
 10
228.6743137704
 20
64.4371548932
 30
0.0
 11
232.1738067733
 21
61.4786746245
 31
0.0
  0
LINE
  5
379
330
1F
100
AcDbEntity
  8
0
  6
HIDDEN
 62
     7
370
     0
100
AcDbLine
 10
232.1738067733
 20
76.3603180911
 30
0.0
 11
226.6149509417
 21
71.6608515739
 31
0.0
  0
LINE
  5
37A
330
1F
100
AcDbEntity
  8
0
  6
HIDDEN
 62
     7
370
     0
100
AcDbLine
 10
222.5542280542
 20
69.6110790394
 30
0.0
 11
224.4873258936
 21
67.9768373756
 31
0.0
  0
LINE
  5
37B
330
1F
100
AcDbEntity
  8
0
  6
HIDDEN
 62
     7
370
     0
100
AcDbLine
 10
240.5191350447
 20
68.5338238053
 30
0.0
 11
232.1738067733
 21
61.4786746245
 31
0.0
  0
LINE
  5
37C
330
1F
100
AcDbEntity
  8
0
  6
HIDDEN
 62
     7
370
     0
100
AcDbLine
 10
240.5191350447
 20
69.3051689103
 30
0.0
 11
232.1738067733
 21
76.3603180911
 31
0.0
  0
ARC
  5
37D
330
1F
100
AcDbEntity
  8
0
  6
HIDDEN
 62
     7
370
     0
100
AcDbCircle
 10
231.6700680592
 20
68.9089826585
 30
0.0
 40
3.190250819591505
100
AcDbArc
 50
248.2036024238
 51
161.4689534864
  0
SPLINE
  5
37E
330
1F
100
AcDbEntity
  8
0
  6
HIDDEN
 62
     7
370
     0
100
AcDbSpline
210
0.0
220
0.0
230
1.0
 70
     8
 71
     3
 72
    10
 73
     6
 74
     0
 42
0.00000001
 43
0.00000001
 12
1.0
 22
0.0
 32
0.0
 13
1.0
 23
0.0
 33
0.0
 40
0.0
 40
0.0
 40
0.0
 40
0.0
 40
0.5
 40
0.5
 40
1.0
 40
1.0
 40
1.0
 40
1.0
 10
228.64523013952
 20
69.92290324751794
 30
0.0
 10
228.7130991719387
 20
70.00869588437713
 30
0.0
 10
228.7816301160491
 20
70.08359161609256
 30
0.0
 10
228.9141920132433
 20
70.20971790988699
 30
0.0
 10
228.9783387413113
 20
70.26115223553683
 30
0.0
 10
229.0358508832367
 20
70.2960141466385
 30
0.0
  0
LINE
  5
37F
330
1F
100
AcDbEntity
  8
0
  6
HIDDEN
 62
     7
370
     0
100
AcDbLine
 10
229.0935281383
 20
70.3175974576
 30
0.0
 11
229.1562992798
 21
70.3410864606
 31
0.0
  0
SPLINE
  5
380
330
1F
100
AcDbEntity
  8
0
  6
HIDDEN
 62
     7
370
     0
100
AcDbSpline
210
0.0
220
0.0
230
1.0
 70
     8
 71
     3
 72
    10
 73
     6
 74
     0
 42
0.00000001
 43
0.00000001
 12
1.0
 22
0.0
 32
0.0
 13
1.0
 23
0.0
 33
0.0
 40
0.0
 40
0.0
 40
0.0
 40
0.0
 40
0.5
 40
0.5
 40
1.0
 40
1.0
 40
1.0
 40
1.0
 10
231.2536372975094
 20
65.80954757354453
 30
0.0
 10
231.1960466367509
 20
65.80954757354453
 30
0.0
 10
231.0847537310597
 20
65.82223450582528
 30
0.0
 10
230.8165156526838
 20
65.86710056655488
 30
0.0
 10
230.6581022712993
 20
65.8998941531647
 30
0.0
 10
230.4854948895698
 20
65.9468055259909
 30
0.0
  0
LINE
  5
381
330
1F
100
AcDbEntity
  8
0
  6
HIDDEN
 62
     7
370
     0
100
AcDbLine
 10
229.4981393682
 20
70.3410864606
 30
0.0
 11
229.1562992798
 21
70.3410864606
 31
0.0
  0
LINE
  5
382
330
1F
100
AcDbEntity
  8
0
  6
HIDDEN
 62
     7
370
     0
100
AcDbLine
 10
237.5971812474
 20
68.5338238053
 30
0.0
 11
240.5191350447
 21
68.5338238053
 31
0.0
  0
LINE
  5
383
330
1F
100
AcDbEntity
  8
0
  6
HIDDEN
 62
     7
370
     0
100
AcDbLine
 10
240.5191350447
 20
69.3051689103
 30
0.0
 11
237.5971812474
 21
69.3051689103
 31
0.0
  0
LWPOLYLINE
  5
384
330
1F
100
AcDbEntity
  8
0
  6
HIDDEN
 62
     7
370
     0
100
AcDbPolyline
 90
       13
 70
   128
 43
0.0
 10
227.2924098837
 20
64.2801190059
 10
227.7084950077
 20
64.5892254341
 10
228.0247647034
 20
65.0316751361
 10
228.2196569907
 20
65.5773160778
 10
228.2798949348
 20
66.1889635756
 10
228.2013732659
 20
66.8249351237
 10
227.9894415008
 20
67.4418898796
 10
227.6585463153
 20
67.9977836352
 10
227.2312257158
 20
68.4547331274
 10
226.7366189229
 20
68.781598029
 10
226.208417462
 20
68.9561029993
 10
225.6826225387
 20
68.9663558204
 10
225.195063995
 20
68.811657782
  0
ELLIPSE
  5
385
330
1F
100
AcDbEntity
  8
0
  6
HIDDEN
 62
     7
370
     0
100
AcDbEllipse
 10
228.2932552048
 20
67.3372062275
 30
0.0
 11
2.632718078441399
 21
1.286044576750754
 31
0.0
210
0.0
220
0.0
230
1.0
 40
0.8520481147
 41
5.19488627232617
 42
7.335833027012872
  0
LINE
  5
386
330
1F
100
AcDbEntity
  8
0
  6
HIDDEN
 62
     7
370
     0
100
AcDbLine
 10
222.0590177642
 20
67.2020495202
 30
0.0
 11
225.195063995
 21
68.811657782
 31
0.0
  0
LINE
  5
387
330
1F
100
AcDbEntity
  8
0
  6
HIDDEN
 62
     7
370
     0
100
AcDbLine
 10
142.7576489844
 20
75.9413835857
 30
0.0
 11
142.7576489844
 21
61.8976091299
 31
0.0
  0
SPLINE
  5
388
330
1F
100
AcDbEntity
  8
0
  6
HIDDEN
 62
     7
370
     0
100
AcDbSpline
210
0.0
220
0.0
230
1.0
 70
     8
 71
     3
 72
    24
 73
    20
 74
     0
 42
0.00000001
 43
0.00000001
 12
1.0
 22
0.0
 32
0.0
 13
1.0
 23
0.0
 33
0.0
 40
0.0
 40
0.0
 40
0.0
 40
0.0
 40
0.125
 40
0.125
 40
0.25
 40
0.25
 40
0.375
 40
0.375
 40
0.4375
 40
0.4375
 40
0.5
 40
0.5
 40
0.625
 40
0.625
 40
0.75
 40
0.75
 40
0.875
 40
0.875
 40
1.0
 40
1.0
 40
1.0
 40
1.0
 10
111.4076489793401
 20
64.83353530469623
 30
0.0
 10
111.6454526116152
 20
65.13254240702636
 30
0.0
 10
111.8755382728265
 20
65.43688025834508
 30
0.0
 10
112.3102916714363
 20
66.06261379574107
 30
0.0
 10
112.5152244637225
 20
66.38383852306859
 30
0.0
 10
112.8803264142212
 20
67.05576429380133
 30
0.0
 10
113.0421268000127
 20
67.41107952568021
 30
0.0
 10
113.2139870045924
 20
67.96131074703266
 30
0.0
 10
113.2595721962526
 20
68.14771453201314
 30
0.0
 10
113.3220469358274
 20
68.5278490341094
 30
0.0
 10
113.3387180815759
 20
68.72351882639528
 30
0.0
 10
113.3392391247524
 20
69.3019992050697
 30
0.0
 10
113.2747968238657
 20
69.6799110440385
 30
0.0
 10
113.0449477304923
 20
70.42187906913693
 30
0.0
 10
112.8864270528292
 20
70.7705945292979
 30
0.0
 10
112.5221927229291
 20
71.44368692703104
 30
0.0
 10
112.3154564828655
 20
71.76863941427268
 30
0.0
 10
111.8775185371251
 20
72.39956322473448
 30
0.0
 10
111.6462458098456
 20
72.70545296507511
 30
0.0
 10
111.4076489793402
 20
73.00545741089462
 30
0.0
  0
LINE
  5
389
330
1F
100
AcDbEntity
  8
0
  6
HIDDEN
 62
     7
370
     0
100
AcDbLine
 10
111.4076476263
 20
64.8335350942
 30
0.0
 11
111.4076476263
 21
73.0054576214
 31
0.0
  0
SPLINE
  5
38A
330
1F
100
AcDbEntity
  8
0
  6
HIDDEN
 62
     7
370
     0
100
AcDbSpline
210
0.0
220
0.0
230
1.0
 70
     8
 71
     3
 72
     8
 73
     4
 74
     0
 42
0.00000001
 43
0.00000001
 12
1.0
 22
0.0
 32
0.0
 13
1.0
 23
0.0
 33
0.0
 40
0.0000249638557297
 40
0.0000249638557297
 40
0.0000249638557297
 40
0.0000249638557297
 40
0.0049776420541172
 40
0.0049776420541172
 40
0.0049776420541172
 40
0.0049776420541172
 10
106.4576489793402
 20
64.95428546095897
 30
0.0
 10
108.1076252138497
 20
64.91300622319079
 30
0.0
 10
109.7576265335947
 20
64.87278454195123
 30
0.0
 10
111.4076489793401
 20
64.83353530469627
 30
0.0
  0
SPLINE
  5
38B
330
1F
100
AcDbEntity
  8
0
  6
HIDDEN
 62
     7
370
     0
100
AcDbSpline
210
0.0
220
0.0
230
1.0
 70
     8
 71
     3
 72
     8
 73
     4
 74
     0
 42
0.00000001
 43
0.00000001
 12
1.0
 22
0.0
 32
0.0
 13
1.0
 23
0.0
 33
0.0
 40
0.0000249631533153
 40
0.0000249631533153
 40
0.0000249631533153
 40
0.0000249631533153
 40
0.0049776413517028
 40
0.0049776413517028
 40
0.0049776413517028
 40
0.0049776413517028
 10
111.4076489793401
 20
73.00545741089472
 30
0.0
 10
109.7576265335947
 20
72.96620817363973
 30
0.0
 10
108.1076252138497
 20
72.92598649240018
 30
0.0
 10
106.4576489793401
 20
72.88470725463202
 30
0.0
  0
SPLINE
  5
38C
330
1F
100
AcDbEntity
  8
0
  6
HIDDEN
 62
     7
370
     0
100
AcDbSpline
210
0.0
220
0.0
230
1.0
 70
     8
 71
     3
 72
     8
 73
     4
 74
     0
 42
0.00000001
 43
0.00000001
 12
1.0
 22
0.0
 32
0.0
 13
1.0
 23
0.0
 33
0.0
 40
0.0
 40
0.0
 40
0.0
 40
0.0
 40
1.0
 40
1.0
 40
1.0
 40
1.0
 10
104.9576489793379
 20
66.0175090248152
 30
0.0
 10
105.4244095907157
 20
65.60214577919216
 30
0.0
 10
105.9301571374958
 20
65.25755534988753
 30
0.0
 10
106.4576489793402
 20
64.95428546095897
 30
0.0
  0
SPLINE
  5
38D
330
1F
100
AcDbEntity
  8
0
  6
HIDDEN
 62
     7
370
     0
100
AcDbSpline
210
0.0
220
0.0
230
1.0
 70
     8
 71
     3
 72
     8
 73
     4
 74
     0
 42
0.00000001
 43
0.00000001
 12
1.0
 22
0.0
 32
0.0
 13
1.0
 23
0.0
 33
0.0
 40
0.0
 40
0.0
 40
0.0
 40
0.0
 40
1.0
 40
1.0
 40
1.0
 40
1.0
 10
106.4576489793402
 20
72.884707254632
 30
0.0
 10
105.9301571374966
 20
72.58143736570392
 30
0.0
 10
105.4244095907174
 20
72.23684693639993
 30
0.0
 10
104.9576489793402
 20
71.8214836907778
 30
0.0
  0
SPLINE
  5
38E
330
1F
100
AcDbEntity
  8
0
  6
HIDDEN
 62
     7
370
     0
100
AcDbSpline
210
0.0
220
0.0
230
1.0
 70
     8
 71
     3
 72
     9
 73
     5
 74
     0
 42
0.00000001
 43
0.00000001
 12
1.0
 22
0.0
 32
0.0
 13
1.0
 23
0.0
 33
0.0
 40
0.0
 40
0.0
 40
0.0
 40
0.0
 40
0.5334121397644359
 40
1.0
 40
1.0
 40
1.0
 40
1.0
 10
124.2688100504023
 20
71.5655078910111
 30
0.0
 10
124.5680079728289
 20
71.85263627070802
 30
0.0
 10
125.1289211956864
 20
72.39092244436678
 30
0.0
 10
125.8677664084827
 20
72.62973085352313
 30
0.0
 10
126.2125026153665
 20
72.74115595815765
 30
0.0
  0
SPLINE
  5
38F
330
1F
100
AcDbEntity
  8
0
  6
HIDDEN
 62
     7
370
     0
100
AcDbSpline
210
0.0
220
0.0
230
1.0
 70
     8
 71
     3
 72
    17
 73
    13
 74
     0
 42
0.00000001
 43
0.00000001
 12
1.0
 22
0.0
 32
0.0
 13
1.0
 23
0.0
 33
0.0
 40
0.0
 40
0.0
 40
0.0
 40
0.0
 40
0.0207454896333732
 40
0.1433563655426323
 40
0.2656473094020145
 40
0.3832837169072165
 40
0.4926771654167745
 40
0.5951587173733993
 40
0.6963638949184273
 40
0.8019760401492655
 40
0.9149479053089112
 40
1.0
 40
1.0
 40
1.0
 40
1.0
 10
127.7835832627755
 20
72.94809932669685
 30
0.0
 10
127.8699598654262
 20
72.95499450442547
 30
0.0
 10
128.4668431418756
 20
73.0026418550743
 30
0.0
 10
129.5535750374046
 20
72.60312081089337
 30
0.0
 10
130.8102802782873
 20
71.75558145427914
 30
0.0
 10
131.6500394879156
 20
70.5224137942106
 30
0.0
 10
131.9793064211536
 20
69.16042826209188
 30
0.0
 10
131.8251906589072
 20
67.83899636415597
 30
0.0
 10
131.2576695131386
 20
66.65655690860203
 30
0.0
 10
130.31862555677
 20
65.69650243877837
 30
0.0
 10
129.1908982485414
 20
65.05281084696477
 30
0.0
 10
128.3651644211516
 20
64.96185125186572
 30
0.0
 10
128.0105083899837
 20
64.92278373649404
 30
0.0
  0
SPLINE
  5
390
330
1F
100
AcDbEntity
  8
0
  6
HIDDEN
 62
     7
370
     0
100
AcDbSpline
210
0.0
220
0.0
230
1.0
 70
     8
 71
     3
 72
    13
 73
     9
 74
     0
 42
0.00000001
 43
0.00000001
 12
1.0
 22
0.0
 32
0.0
 13
1.0
 23
0.0
 33
0.0
 40
0.0
 40
0.0
 40
0.0
 40
0.0
 40
0.0766864887232983
 40
0.2889130501105494
 40
0.4891181913565547
 40
0.6772675226877667
 40
0.860341721946493
 40
1.0
 40
1.0
 40
1.0
 40
1.0
 10
125.2019878195864
 20
65.57770886307642
 30
0.0
 10
125.041931076034
 20
65.65767491289547
 30
0.0
 10
124.4389241742923
 20
65.95894356847143
 30
0.0
 10
123.7165699093337
 20
66.90025495423987
 30
0.0
 10
123.2044081807348
 20
68.21459692507425
 30
0.0
 10
123.2102155500076
 20
69.57069873565312
 30
0.0
 10
123.5988241687049
 20
70.72109870855577
 30
0.0
 10
124.0664507396414
 20
71.31046660606802
 30
0.0
 10
124.2688100504023
 20
71.5655078910111
 30
0.0
  0
CIRCLE
  5
391
330
1F
100
AcDbEntity
  8
0
  6
HIDDEN
 62
     7
370
     0
100
AcDbCircle
 10
154.9576489793
 20
68.9194963578
 30
0.0
 40
2.0
  0
LINE
  5
392
330
1F
100
AcDbEntity
  8
0
  6
HIDDEN
 62
     7
370
     0
100
AcDbLine
 10
221.0845116245
 20
59.5099830333
 30
0.0
 11
221.6995421516
 21
59.5099830333
 31
0.0
  0
LINE
  5
393
330
1F
100
AcDbEntity
  8
0
  6
HIDDEN
 62
     7
370
     0
100
AcDbLine
 10
221.6995421516
 20
67.5099825984
 30
0.0
 11
221.0845116245
 21
67.5099825984
 31
0.0
  0
LINE
  5
394
330
1F
100
AcDbEntity
  8
0
  6
HIDDEN
 62
     7
370
     0
100
AcDbLine
 10
220.8586398231
 20
60.3099826056
 30
0.0
 11
220.9417137968
 21
60.3099826056
 31
0.0
  0
LINE
  5
395
330
1F
100
AcDbEntity
  8
0
  6
HIDDEN
 62
     7
370
     0
100
AcDbLine
 10
220.9417137968
 20
66.7099826768
 30
0.0
 11
220.8586398231
 21
66.7099826768
 31
0.0
  0
LINE
  5
396
330
1F
100
AcDbEntity
  8
0
  6
HIDDEN
 62
     7
370
     0
100
AcDbLine
 10
220.5536056029
 20
59.5599829484
 30
0.0
 11
220.7855198251
 21
59.5599829484
 31
0.0
  0
LINE
  5
397
330
1F
100
AcDbEntity
  8
0
  6
HIDDEN
 62
     7
370
     0
100
AcDbLine
 10
220.7855198251
 20
67.4599825669
 30
0.0
 11
220.5536056029
 21
67.4599825669
 31
0.0
  0
LINE
  5
398
330
1F
100
AcDbEntity
  8
0
  6
HIDDEN
 62
     7
370
     0
100
AcDbLine
 10
220.0980175006
 20
61.7349825132
 30
0.0
 11
220.4005706774
 21
61.7349825132
 31
0.0
  0
LINE
  5
399
330
1F
100
AcDbEntity
  8
0
  6
HIDDEN
 62
     7
370
     0
100
AcDbLine
 10
220.4005706774
 20
65.2849825363
 30
0.0
 11
220.0980175006
 21
65.2849825363
 31
0.0
  0
LINE
  5
39A
330
1F
100
AcDbEntity
  8
0
  6
HIDDEN
 62
     7
370
     0
100
AcDbLine
 10
219.7252575027
 20
59.5599829484
 30
0.0
 11
219.9449825751
 21
59.5599829484
 31
0.0
  0
LINE
  5
39B
330
1F
100
AcDbEntity
  8
0
  6
HIDDEN
 62
     7
370
     0
100
AcDbLine
 10
219.9449825751
 20
67.4599825669
 30
0.0
 11
219.7252575027
 21
67.4599825669
 31
0.0
  0
LINE
  5
39C
330
1F
100
AcDbEntity
  8
0
  6
HIDDEN
 62
     7
370
     0
100
AcDbLine
 10
231.5867606269
 20
66.5948069453
 30
0.0
 11
231.9841075408
 21
66.4770330567
 31
0.0
  0
LINE
  5
39D
330
1F
100
AcDbEntity
  8
0
  6
HIDDEN
 62
     7
370
     0
100
AcDbLine
 10
231.9313350784
 20
71.1194963459
 30
0.0
 11
231.8196285235
 21
71.1194963459
 31
0.0
  0
SPLINE
  5
39E
330
1F
100
AcDbEntity
  8
0
  6
HIDDEN
 62
     7
370
     0
100
AcDbSpline
210
0.0
220
0.0
230
1.0
 70
     8
 71
     3
 72
    10
 73
     6
 74
     0
 42
0.00000001
 43
0.00000001
 12
1.0
 22
0.0
 32
0.0
 13
1.0
 23
0.0
 33
0.0
 40
0.0
 40
0.0
 40
0.0
 40
0.0
 40
0.1860651236804529
 40
0.7173874760201387
 40
1.0
 40
1.0
 40
1.0
 40
1.0
 10
232.7501687871557
 20
66.56788916176245
 30
0.0
 10
232.6848570361469
 20
66.5539608054637
 30
0.0
 10
232.4330428794479
 20
66.50025902528787
 30
0.0
 10
232.0658141842383
 20
66.48012980591167
 30
0.0
 10
231.7843998329236
 20
66.55928212759521
 30
0.0
 10
231.686687813912
 20
66.58676520770476
 30
0.0
  0
LINE
  5
39F
330
1F
100
AcDbEntity
  8
0
  6
HIDDEN
 62
     7
370
     0
100
AcDbLine
 10
231.8196285235
 20
71.8194963209
 30
0.0
 11
231.6611919271
 21
71.8194963209
 31
0.0
  0
LINE
  5
3A0
330
1F
100
AcDbEntity
  8
0
  6
HIDDEN
 62
     7
370
     0
100
AcDbLine
 10
233.3730671274
 20
71.4994964454
 30
0.0
 11
232.7929723727
 21
71.4994964454
 31
0.0
  0
LINE
  5
3A1
330
1F
100
AcDbEntity
  8
0
  6
HIDDEN
 62
     7
370
     0
100
AcDbLine
 10
232.7929723727
 20
66.3394962702
 30
0.0
 11
233.3730671274
 21
66.3394962702
 31
0.0
  0
LINE
  5
3A2
330
1F
100
AcDbEntity
  8
0
  6
HIDDEN
 62
     7
370
     0
100
AcDbLine
 10
232.7312070595
 20
76.1985054504
 30
0.0
 11
232.3802251088
 21
76.1985054504
 31
0.0
  0
LINE
  5
3A3
330
1F
100
AcDbEntity
  8
0
  6
HIDDEN
 62
     7
370
     0
100
AcDbLine
 10
232.3802251088
 20
61.6404872652
 30
0.0
 11
232.7312070595
 21
61.6404872652
 31
0.0
  0
LINE
  5
3A4
330
1F
100
AcDbEntity
  8
0
  6
HIDDEN
 62
     7
370
     0
100
AcDbLine
 10
232.5623396503
 20
72.119496277
 30
0.0
 11
232.4703100788
 21
72.119496277
 31
0.0
  0
LINE
  5
3A5
330
1F
100
AcDbEntity
  8
0
  6
HIDDEN
 62
     7
370
     0
100
AcDbLine
 10
232.4703100788
 20
65.7194964386
 30
0.0
 11
232.5623396503
 21
65.7194964386
 31
0.0
  0
LINE
  5
3A6
330
1F
100
AcDbEntity
  8
0
  6
HIDDEN
 62
     7
370
     0
100
AcDbLine
 10
142.9576489793
 20
44.6694956425
 30
0.0
 11
143.0505421998
 21
44.7623894814
 31
0.0
  0
LINE
  5
3A7
330
1F
100
AcDbEntity
  8
0
  6
HIDDEN
 62
     7
370
     0
100
AcDbLine
 10
143.0505421998
 20
93.0766032342
 30
0.0
 11
142.9576489793
 21
93.1694970731
 31
0.0
  0
ARC
  5
3A8
330
1F
100
AcDbEntity
  8
0
  6
HIDDEN
 62
     7
370
     0
100
AcDbCircle
 10
142.343435417
 20
45.4694963578
 30
0.0
 40
1.000000000000013
100
AcDbArc
 50
315.0
 51
0.0
  0
ARC
  5
3A9
330
1F
100
AcDbEntity
  8
0
  6
HIDDEN
 62
     7
370
     0
100
AcDbCircle
 10
142.343435417
 20
45.4694963578
 30
0.0
 40
1.0
100
AcDbArc
 50
0.0
 51
52.1052014664
  0
ARC
  5
3AA
330
1F
100
AcDbEntity
  8
0
  6
HIDDEN
 62
     7
370
     0
100
AcDbCircle
 10
142.343435417
 20
92.3694963578
 30
0.0
 40
1.00000000000003
100
AcDbArc
 50
351.8087250651
 51
45.0
  0
ARC
  5
3AB
330
1F
100
AcDbEntity
  8
0
  6
HIDDEN
 62
     7
370
     0
100
AcDbCircle
 10
142.343435417
 20
92.3694963578
 30
0.0
 40
1.00000000000003
100
AcDbArc
 50
307.8947985337
 51
351.8087250651
  0
LINE
  5
3AC
330
1F
100
AcDbEntity
  8
0
  6
HIDDEN
 62
     7
370
     0
100
AcDbLine
 10
143.3434354151
 20
45.4694961462
 30
0.0
 11
143.3434354151
 21
92.3694965694
 31
0.0
  0
LINE
  5
3AD
330
1F
100
AcDbEntity
  8
0
  6
HIDDEN
 62
     7
370
     0
100
AcDbLine
 10
192.0212384032
 20
71.4194963019
 30
0.0
 11
180.1879171001
 21
71.4194963019
 31
0.0
  0
LINE
  5
3AE
330
1F
100
AcDbEntity
  8
0
  6
HIDDEN
 62
     7
370
     0
100
AcDbLine
 10
180.1879171001
 20
66.4194964137
 30
0.0
 11
192.0212384032
 21
66.4194964137
 31
0.0
  0
LINE
  5
3AF
330
1F
100
AcDbEntity
  8
0
  6
HIDDEN
 62
     7
370
     0
100
AcDbLine
 10
104.9576502012
 20
52.7230666283
 30
0.0
 11
106.4878765213
 21
53.6065452996
 31
0.0
  0
LINE
  5
3B0
330
1F
100
AcDbEntity
  8
0
  6
HIDDEN
 62
     7
370
     0
100
AcDbLine
 10
106.4878765213
 20
84.2324474159
 30
0.0
 11
104.9576502012
 21
85.1159260873
 31
0.0
  0
ARC
  5
3B1
330
1F
100
AcDbEntity
  8
0
  6
HIDDEN
 62
     7
370
     0
100
AcDbCircle
 10
114.9576489793
 20
54.9194963578
 30
0.0
 40
2.00000000000002
100
AcDbArc
 50
189.9742217944
 51
270.0
  0
ARC
  5
3B2
330
1F
100
AcDbEntity
  8
0
  6
HIDDEN
 62
     7
370
     0
100
AcDbCircle
 10
114.9576489793
 20
82.9194963578
 30
0.0
 40
2.000000000000022
100
AcDbArc
 50
90.0
 51
170.0257782056
  0
LINE
  5
3B3
330
1F
100
AcDbEntity
  8
0
  6
HIDDEN
 62
     7
370
     0
100
AcDbLine
 10
114.9576481151
 20
52.9194955978
 30
0.0
 11
115.9594494568
 21
52.9194955978
 31
0.0
  0
LINE
  5
3B4
330
1F
100
AcDbEntity
  8
0
  6
HIDDEN
 62
     7
370
     0
100
AcDbLine
 10
115.9594494568
 20
84.9194971178
 30
0.0
 11
114.9576481151
 21
84.9194971178
 31
0.0
  0
ARC
  5
3B5
330
1F
100
AcDbEntity
  8
0
  6
HIDDEN
 62
     7
370
     0
100
AcDbCircle
 10
115.9594502942
 20
54.9194963578
 30
0.0
 40
2.000000000000016
100
AcDbArc
 50
270.0
 51
315.0
  0
ARC
  5
3B6
330
1F
100
AcDbEntity
  8
0
  6
HIDDEN
 62
     7
370
     0
100
AcDbCircle
 10
115.9594502942
 20
82.9194963578
 30
0.0
 40
2.000000000000006
100
AcDbArc
 50
45.0
 51
90.0
  0
LINE
  5
3B7
330
1F
100
AcDbEntity
  8
0
  6
HIDDEN
 62
     7
370
     0
100
AcDbLine
 10
117.373664649
 20
53.5052825961
 30
0.0
 11
118.7878779786
 21
54.9194959257
 31
0.0
  0
LINE
  5
3B8
330
1F
100
AcDbEntity
  8
0
  6
HIDDEN
 62
     7
370
     0
100
AcDbLine
 10
118.7878779786
 20
82.9194967899
 30
0.0
 11
117.373664649
 21
84.3337101195
 31
0.0
  0
LINE
  5
3B9
330
1F
100
AcDbEntity
  8
0
  6
HIDDEN
 62
     7
370
     0
100
AcDbLine
 10
106.4878765213
 20
53.6065452996
 30
0.0
 11
111.3878775107
 21
54.9194959257
 31
0.0
  0
LINE
  5
3BA
330
1F
100
AcDbEntity
  8
0
  6
HIDDEN
 62
     7
370
     0
100
AcDbLine
 10
111.3878775107
 20
82.9194967899
 30
0.0
 11
106.4878765213
 21
84.2324474159
 31
0.0
  0
LINE
  5
3BB
330
1F
100
AcDbEntity
  8
0
  6
HIDDEN
 62
     7
370
     0
100
AcDbLine
 10
112.9878766554
 20
83.2659068782
 30
0.0
 11
112.3878776746
 21
82.9194967899
 31
0.0
  0
LINE
  5
3BC
330
1F
100
AcDbEntity
  8
0
  6
HIDDEN
 62
     7
370
     0
100
AcDbLine
 10
112.3878776746
 20
54.9194959257
 30
0.0
 11
112.9878766554
 21
54.5730858374
 31
0.0
  0
ARC
  5
3BD
330
1F
100
AcDbEntity
  8
0
  6
HIDDEN
 62
     7
370
     0
100
AcDbCircle
 10
131.4576489793
 20
55.4194963578
 30
0.0
 40
0.5000000000000284
100
AcDbArc
 50
270.0
 51
0.0
  0
ARC
  5
3BE
330
1F
100
AcDbEntity
  8
0
  6
HIDDEN
 62
     7
370
     0
100
AcDbCircle
 10
131.4576489793
 20
82.4194963578
 30
0.0
 40
0.5
100
AcDbArc
 50
360.0
 51
90.0
  0
LINE
  5
3BF
330
1F
100
AcDbEntity
  8
0
  6
HIDDEN
 62
     7
370
     0
100
AcDbLine
 10
111.3878775107
 20
54.9194959257
 30
0.0
 11
112.3878776746
 21
54.9194959257
 31
0.0
  0
LINE
  5
3C0
330
1F
100
AcDbEntity
  8
0
  6
HIDDEN
 62
     7
370
     0
100
AcDbLine
 10
112.3878776746
 20
82.9194967899
 30
0.0
 11
111.3878775107
 21
82.9194967899
 31
0.0
  0
LINE
  5
3C1
330
1F
100
AcDbEntity
  8
0
  6
HIDDEN
 62
     7
370
     0
100
AcDbLine
 10
118.7878779786
 20
54.9194959257
 30
0.0
 11
131.457648957
 21
54.9194959257
 31
0.0
  0
LINE
  5
3C2
330
1F
100
AcDbEntity
  8
0
  6
HIDDEN
 62
     7
370
     0
100
AcDbLine
 10
131.457648957
 20
82.9194967899
 30
0.0
 11
118.7878779786
 21
82.9194967899
 31
0.0
  0
LINE
  5
3C3
330
1F
100
AcDbEntity
  8
0
  6
HIDDEN
 62
     7
370
     0
100
AcDbLine
 10
131.9576490389
 20
58.6694960747
 30
0.0
 11
133.2076487782
 21
59.9194967452
 31
0.0
  0
LINE
  5
3C4
330
1F
100
AcDbEntity
  8
0
  6
HIDDEN
 62
     7
370
     0
100
AcDbLine
 10
133.2076487782
 20
77.9194959704
 30
0.0
 11
131.9576490389
 21
79.1694966409
 31
0.0
  0
LINE
  5
3C5
330
1F
100
AcDbEntity
  8
0
  6
HIDDEN
 62
     7
370
     0
100
AcDbLine
 10
169.9576496797
 20
77.9194959704
 30
0.0
 11
133.2076487782
 21
77.9194959704
 31
0.0
  0
LINE
  5
3C6
330
1F
100
AcDbEntity
  8
0
  6
HIDDEN
 62
     7
370
     0
100
AcDbLine
 10
133.2076487782
 20
59.9194967452
 30
0.0
 11
169.9576496797
 21
59.9194967452
 31
0.0
  0
LINE
  5
3C7
330
1F
100
AcDbEntity
  8
0
  6
HIDDEN
 62
     7
370
     0
100
AcDbLine
 10
169.9576496797
 20
59.9194967452
 30
0.0
 11
172.8117361384
 21
64.6694961268
 31
0.0
  0
LINE
  5
3C8
330
1F
100
AcDbEntity
  8
0
  6
HIDDEN
 62
     7
370
     0
100
AcDbLine
 10
172.8117361384
 20
73.1694965888
 30
0.0
 11
169.9576496797
 21
77.9194959704
 31
0.0
  0
LINE
  5
3C9
330
1F
100
AcDbEntity
  8
0
  6
HIDDEN
 62
     7
370
     0
100
AcDbLine
 10
183.9576501118
 20
73.1694965888
 30
0.0
 11
172.8117361384
 21
73.1694965888
 31
0.0
  0
LINE
  5
3CA
330
1F
100
AcDbEntity
  8
0
  6
HIDDEN
 62
     7
370
     0
100
AcDbLine
 10
172.8117361384
 20
64.6694961268
 30
0.0
 11
183.9576501118
 21
64.6694961268
 31
0.0
  0
LINE
  5
3CB
330
1F
100
AcDbEntity
  8
0
  6
HIDDEN
 62
     7
370
     0
100
AcDbLine
 10
183.9576501118
 20
64.6694961268
 30
0.0
 11
186.5113068091
 21
68.9194963578
 31
0.0
  0
LINE
  5
3CC
330
1F
100
AcDbEntity
  8
0
  6
HIDDEN
 62
     7
370
     0
100
AcDbLine
 10
186.5113068091
 20
68.9194963578
 30
0.0
 11
183.9576501118
 21
73.1694965888
 31
0.0
  0
LINE
  5
3CD
330
1F
100
AcDbEntity
  8
0
  6
HIDDEN
 62
     7
370
     0
100
AcDbLine
 10
221.6995421516
 20
67.0099826328
 30
0.0
 11
221.2023872601
 21
67.0099826328
 31
0.0
  0
LINE
  5
3CE
330
1F
100
AcDbEntity
  8
0
  6
HIDDEN
 62
     7
370
     0
100
AcDbLine
 10
221.2023872601
 20
60.0099821839
 30
0.0
 11
221.6995421516
 21
60.0099821839
 31
0.0
  0
LINE
  5
3CF
330
1F
100
AcDbEntity
  8
0
  6
HIDDEN
 62
     7
370
     0
100
AcDbLine
 10
224.6656033861
 20
73.3782613914
 30
0.0
 11
224.0928176509
 21
73.3782613914
 31
0.0
  0
LINE
  5
3D0
330
1F
100
AcDbEntity
  8
0
  6
HIDDEN
 62
     7
370
     0
100
AcDbLine
 10
224.5660487281
 20
62.6854991805
 30
0.0
 11
228.5953823196
 21
64.2412232499
 31
0.0
  0
LINE
  5
3D1
330
1F
100
AcDbEntity
  8
0
  6
HIDDEN
 62
     7
370
     0
100
AcDbLine
 10
221.1511272656
 20
67.7099826079
 30
0.0
 11
217.6103058921
 21
67.7099826079
 31
0.0
  0
LINE
  5
3D2
330
1F
100
AcDbEntity
  8
0
  6
HIDDEN
 62
     7
370
     0
100
AcDbLine
 10
217.7922937738
 20
59.3099824417
 30
0.0
 11
221.1511272656
 21
59.3099824417
 31
0.0
  0
LINE
  5
3D3
330
1F
100
AcDbEntity
  8
0
  6
HIDDEN
 62
     7
370
     0
100
AcDbLine
 10
224.2523196804
 20
73.3197724711
 30
0.0
 11
223.8940212595
 21
73.3197724711
 31
0.0
  0
LINE
  5
3D4
330
1F
100
AcDbEntity
  8
0
  6
HIDDEN
 62
     7
370
     0
100
AcDbLine
 10
232.3436651098
 20
72.119496277
 30
0.0
 11
231.6611919271
 21
72.119496277
 31
0.0
  0
LINE
  5
3D5
330
1F
100
AcDbEntity
  8
0
  6
HIDDEN
 62
     7
370
     0
100
AcDbLine
 10
231.6611919271
 20
65.7194964386
 30
0.0
 11
232.3436651098
 21
65.7194964386
 31
0.0
  0
LINE
  5
3D6
330
1F
100
AcDbEntity
  8
0
  6
HIDDEN
 62
     7
370
     0
100
AcDbLine
 10
229.0906671154
 20
70.3249557208
 30
0.0
 11
225.3432783949
 21
68.878090742
 31
0.0
  0
DIMENSION
  5
3D7
330
1F
100
AcDbEntity
  8
VERMASSUNG
100
AcDbDimension
  2
_D_2
 10
94.9576489793
 20
37.4194963578
 30
0.0
 11
94.9576489793
 21
68.9194963578
 31
0.0
 70
   160
  1
PSC%%c<>
 71
     2
 42
-1.0
  3
SLDDIMSTYLE1
100
AcDbAlignedDimension
 13
143.4576489793
 23
100.4194963578
 33
0.0
 14
143.4576489793
 24
37.4194963578
 34
0.0
 50
90.0
100
AcDbRotatedDimension
  0
LINE
  5
3E3
330
1F
100
AcDbEntity
  8
VERMASSUNG
  6
CENTERX2
370
     0
100
AcDbLine
 10
248.5156793199
 20
68.9194963578
 30
0.0
 11
101.3612550228
 21
68.9194963578
 31
0.0
  0
OLE2FRAME
  5
3E4
330
1F
100
AcDbEntity
  8
0
100
AcDbOle2Frame
 70
     2
  3
Paintbrush-Bild
 10
13.8511154363
 20
38.264191557
 30
0.0
 11
51.6290888628
 21
31.9806341108
 31
0.0
 71
     2
 72
     0
 73
     1
 90
    12928
310
80552BED0767C5B32B40DDAF6807D121434000000000000000006FFBDDFB85D0
310
4940DDAF6807D121434000000000000000006FFBDDFB85D04940416F4BD60AFB
310
3F4000000000000000002BED0767C5B32B40416F4BD60AFB3F40000000000000
310
0000000000000100000000010000010000000100000000000100000000320000
310
D0CF11E0A1B11AE1000000000000000000000000000000003E000300FEFF0900
310
0600000000000000000000000100000001000000000000000010000002000000
310
01000000FEFFFFFF0000000000000000FFFFFFFFFFFFFFFFFFFFFFFFFFFFFFFF
310
FFFFFFFFFFFFFFFFFFFFFFFFFFFFFFFFFFFFFFFFFFFFFFFFFFFFFFFFFFFFFFFF
310
FFFFFFFFFFFFFFFFFFFFFFFFFFFFFFFFFFFFFFFFFFFFFFFFFFFFFFFFFFFFFFFF
310
FFFFFFFFFFFFFFFFFFFFFFFFFFFFFFFFFFFFFFFFFFFFFFFFFFFFFFFFFFFFFFFF
310
FFFFFFFFFFFFFFFFFFFFFFFFFFFFFFFFFFFFFFFFFFFFFFFFFFFFFFFFFFFFFFFF
310
FFFFFFFFFFFFFFFFFFFFFFFFFFFFFFFFFFFFFFFFFFFFFFFFFFFFFFFFFFFFFFFF
310
FFFFFFFFFFFFFFFFFFFFFFFFFFFFFFFFFFFFFFFFFFFFFFFFFFFFFFFFFFFFFFFF
310
FFFFFFFFFFFFFFFFFFFFFFFFFFFFFFFFFFFFFFFFFFFFFFFFFFFFFFFFFFFFFFFF
310
FFFFFFFFFFFFFFFFFFFFFFFFFFFFFFFFFFFFFFFFFFFFFFFFFFFFFFFFFFFFFFFF
310
FFFFFFFFFFFFFFFFFFFFFFFFFFFFFFFFFFFFFFFFFFFFFFFFFFFFFFFFFFFFFFFF
310
FFFFFFFFFFFFFFFFFFFFFFFFFFFFFFFFFFFFFFFFFFFFFFFFFFFFFFFFFFFFFFFF
310
FFFFFFFFFFFFFFFFFFFFFFFFFFFFFFFFFFFFFFFFFFFFFFFFFFFFFFFFFFFFFFFF
310
FFFFFFFFFFFFFFFFFFFFFFFFFFFFFFFFFFFFFFFFFFFFFFFFFFFFFFFFFFFFFFFF
310
FFFFFFFFFFFFFFFFFFFFFFFFFFFFFFFFFFFFFFFFFFFFFFFFFFFFFFFFFFFFFFFF
310
FDFFFFFFFEFFFFFFFEFFFFFFFEFFFFFF05000000060000000700000008000000
310
090000000A0000000B0000000C0000000D0000000E0000000F00000010000000
310
11000000120000001300000014000000150000001600000017000000FEFFFFFF
310
FFFFFFFFFFFFFFFFFFFFFFFFFFFFFFFFFFFFFFFFFFFFFFFFFFFFFFFFFFFFFFFF
310
FFFFFFFFFFFFFFFFFFFFFFFFFFFFFFFFFFFFFFFFFFFFFFFFFFFFFFFFFFFFFFFF
310
FFFFFFFFFFFFFFFFFFFFFFFFFFFFFFFFFFFFFFFFFFFFFFFFFFFFFFFFFFFFFFFF
310
FFFFFFFFFFFFFFFFFFFFFFFFFFFFFFFFFFFFFFFFFFFFFFFFFFFFFFFFFFFFFFFF
310
FFFFFFFFFFFFFFFFFFFFFFFFFFFFFFFFFFFFFFFFFFFFFFFFFFFFFFFFFFFFFFFF
310
FFFFFFFFFFFFFFFFFFFFFFFFFFFFFFFFFFFFFFFFFFFFFFFFFFFFFFFFFFFFFFFF
310
FFFFFFFFFFFFFFFFFFFFFFFFFFFFFFFFFFFFFFFFFFFFFFFFFFFFFFFFFFFFFFFF
310
FFFFFFFFFFFFFFFFFFFFFFFFFFFFFFFFFFFFFFFFFFFFFFFFFFFFFFFFFFFFFFFF
310
FFFFFFFFFFFFFFFFFFFFFFFFFFFFFFFFFFFFFFFFFFFFFFFFFFFFFFFFFFFFFFFF
310
FFFFFFFFFFFFFFFFFFFFFFFFFFFFFFFFFFFFFFFFFFFFFFFFFFFFFFFFFFFFFFFF
310
FFFFFFFFFFFFFFFFFFFFFFFFFFFFFFFFFFFFFFFFFFFFFFFFFFFFFFFFFFFFFFFF
310
FFFFFFFFFFFFFFFFFFFFFFFFFFFFFFFFFFFFFFFFFFFFFFFFFFFFFFFFFFFFFFFF
310
FFFFFFFFFFFFFFFFFFFFFFFFFFFFFFFFFFFFFFFFFFFFFFFFFFFFFFFFFFFFFFFF
310
52006F006F007400200045006E00740072007900000000000000000000000000
310
0000000000000000000000000000000000000000000000000000000000000000
310
16000500FFFFFFFFFFFFFFFF020000000A00030000000000C000000000000046
310
00000000000000000000000020967A61B539CD0103000000C000000000000000
310
01004F006C006500000000000000000000000000000000000000000000000000
310
0000000000000000000000000000000000000000000000000000000000000000
310
0A000200FFFFFFFFFFFFFFFFFFFFFFFF00000000000000000000000000000000
310
0000000000000000000000000000000000000000000000001400000000000000
310
010043006F006D0070004F0062006A0000000000000000000000000000000000
310
0000000000000000000000000000000000000000000000000000000000000000
310
120002010100000003000000FFFFFFFF00000000000000000000000000000000
310
0000000000000000000000000000000000000000010000004D00000000000000
310
01004F006C006500310030004E00610074006900760065000000000000000000
310
0000000000000000000000000000000000000000000000000000000000000000
310
1A000200FFFFFFFFFFFFFFFFFFFFFFFF00000000000000000000000000000000
310
0000000000000000000000000000000000000000040000002426000000000000
310
FEFFFFFF02000000FEFFFFFFFFFFFFFFFFFFFFFFFFFFFFFFFFFFFFFFFFFFFFFF
310
FFFFFFFFFFFFFFFFFFFFFFFFFFFFFFFFFFFFFFFFFFFFFFFFFFFFFFFFFFFFFFFF
310
FFFFFFFFFFFFFFFFFFFFFFFFFFFFFFFFFFFFFFFFFFFFFFFFFFFFFFFFFFFFFFFF
310
FFFFFFFFFFFFFFFFFFFFFFFFFFFFFFFFFFFFFFFFFFFFFFFFFFFFFFFFFFFFFFFF
310
FFFFFFFFFFFFFFFFFFFFFFFFFFFFFFFFFFFFFFFFFFFFFFFFFFFFFFFFFFFFFFFF
310
FFFFFFFFFFFFFFFFFFFFFFFFFFFFFFFFFFFFFFFFFFFFFFFFFFFFFFFFFFFFFFFF
310
FFFFFFFFFFFFFFFFFFFFFFFFFFFFFFFFFFFFFFFFFFFFFFFFFFFFFFFFFFFFFFFF
310
FFFFFFFFFFFFFFFFFFFFFFFFFFFFFFFFFFFFFFFFFFFFFFFFFFFFFFFFFFFFFFFF
310
FFFFFFFFFFFFFFFFFFFFFFFFFFFFFFFFFFFFFFFFFFFFFFFFFFFFFFFFFFFFFFFF
310
FFFFFFFFFFFFFFFFFFFFFFFFFFFFFFFFFFFFFFFFFFFFFFFFFFFFFFFFFFFFFFFF
310
FFFFFFFFFFFFFFFFFFFFFFFFFFFFFFFFFFFFFFFFFFFFFFFFFFFFFFFFFFFFFFFF
310
FFFFFFFFFFFFFFFFFFFFFFFFFFFFFFFFFFFFFFFFFFFFFFFFFFFFFFFFFFFFFFFF
310
FFFFFFFFFFFFFFFFFFFFFFFFFFFFFFFFFFFFFFFFFFFFFFFFFFFFFFFFFFFFFFFF
310
FFFFFFFFFFFFFFFFFFFFFFFFFFFFFFFFFFFFFFFFFFFFFFFFFFFFFFFFFFFFFFFF
310
FFFFFFFFFFFFFFFFFFFFFFFFFFFFFFFFFFFFFFFFFFFFFFFFFFFFFFFFFFFFFFFF
310
FFFFFFFFFFFFFFFFFFFFFFFFFFFFFFFFFFFFFFFFFFFFFFFFFFFFFFFFFFFFFFFF
310
0100000200000000000000000000000000000000000000000000000000000000
310
0000000000000000000000000000000000000000000000000000000000000000
310
0100FEFF030A0000FFFFFFFF0A00030000000000C00000000000004607000000
310
5042727573680007000000504272757368000700000050427275736800F439B2
310
7100000000000000000000000000000000000000000000000000000000000000
310
0000000000000000000000000000000000000000000000000000000000000000
310
0000000000000000000000000000000000000000000000000000000000000000
310
0000000000000000000000000000000000000000000000000000000000000000
310
0000000000000000000000000000000000000000000000000000000000000000
310
0000000000000000000000000000000000000000000000000000000000000000
310
0000000000000000000000000000000000000000000000000000000000000000
310
0000000000000000000000000000000000000000000000000000000000000000
310
0000000000000000000000000000000000000000000000000000000000000000
310
0000000000000000000000000000000000000000000000000000000000000000
310
0000000000000000000000000000000000000000000000000000000000000000
310
0000000000000000000000000000000000000000000000000000000000000000
310
20260000424D0E260000000000003E00000028000000B40200006E0000000100
310
01000000000000000000130B0000130B00000200000002000000000000FFFFFF
310
FFFFFFFFFFFFFFFFFFFFFFFFFFFFFFFFFFFFFFFFFFFFFFFFFFFFFFFFFFFFFFFF
310
FFFFFFFFFFFFFFFFFFFFFFFFFFFFFFFFFFFFFFFFFFFFFFFFFFFFFFFFFFFFFFFF
310
FFFFFFFFFFFFFFFFFFFFFFFFFFFFFFFFFFFFFFFFFFFFFFFFF000FFFFFFFFFFFF
310
FFFFFFFFFFFFFFFFFFFFFFFFFFFFFFFFFFFFFFFFFFFFFFFFFFFFFFFFFFFFFFFF
310
FFFFFFFFFFFFFFFFFFFFFFFFFFFFFFFFFFFFFFFFFFFFFFFFFFFFFFFFFFFFFFFF
310
FFFFFFFFFFFFFFFFFFFFFFFFFFFFFFFFF000FFFFFFFFFFFFFFFFFFFFFFFFFFFF
310
FFFFFFFFFFFFFFFFFFFFFFFFFFFFFFFFFFFFFFFFFFFFFFFFFFFFFFFFFFFFFFFF
310
FFFFFFFFFFFFFFFFFFFFFFFFFFFFFFFFFFFFFFFFFFFFFFFFFFFFFFFFFFFFFFFF
310
FFFFFFFFFFFFFFFFF000FFFFFFFFFFFFFFFFFFFFFFFFFFFFFFFFFFFFFFFFFFFF
310
FFFFFFFFFFFFFFFFFFFFFFFFFFFFFFFFFFFFFFFFFFFFFFFFFFFFFFFFFFFFFFFF
310
FFFFFFFFFFFFFFFFFFFFFFFFFFFFFFFFFFFFFFFFFFFFFFFFFFFFFFFFFFFFFFFF
310
F000FFFFFFFFFFFFFFFFFFFFFFFFFFFFFFFFFFFFFFFFFFFFFFFFFFFFFFFFFFFF
310
FFFFFFFFFFFFFFFFFFFFFFFFFFFFFFFFFFFFFFFFFFFFFFFFFFFFFFFFFFFFFFFF
310
FFFFFFFFFFFFFFFFFFFFFFFFFFFFFFFFFFFFFFFFFFFFFFFFF000FFFFFFFFFFFF
310
FFFFFFFFFFFFFFFFFFFFFFFFFFFFFFFFFFFFFFFFFFFFFFFFFFFFFFFFFFFFFFFF
310
FFFFFFFFFFFFFFFFFFFFFFFFFFFFFFFFFFFFFFFFFFFFFFFFFFFFFFFFFFFFFFFF
310
FFFFFFFFFFFFFFFFFFFFFFFFFFFFFFFFF000FFFFFFFFFFFFFFFFFFFFFFFFFFFF
310
FFFFFFFFFFFFFFFFFFFFFFFFFFFFFFFFFFFFFFFFFFFFFFFFFFFFFFFFFFFFFFFF
310
FFFFFFFFFFFFFFFFFFFFFFFFFFFFFFFFFFFFFFFFFFFFFFFFFFFFFFFFFFFFFFFF
310
FFFFFFFFFFFFFFFFF000FFFFFFFFFFFFFFFFFFFFFFFFFFFFFFFFFFFFFFFFFFFF
310
FFFFFFFFFFFFFFFFFFFFFFFFFFFFFFFFFFFFFFFFFFFFFFFFFFFFFFFFFFFFFFFF
310
FFFFFFFFFFFFFFFFFFFFFFFFFFFFFFFFFFFFFFFFFFFFFFFFFFFFFFFFFFFFFFFF
310
F000FFFFFFFFFFFFFFFFFFFFFFFFFFFFFFFFFFFFFFFFFFFFFFFFFFFFFFFFFFFF
310
FFFFFFFFFFFFFFFFFFFFFFFFFFFFFFFFFFFFFFFFFFFFFFFFFFFFFFFFFFFFFFFF
310
FFFFFFFFFFFFFFFFFFFFFFFFFFFFFFFFFFFFFFFFFFFFFFFFF000FFFFFFFFFFFF
310
FFFFFFFFFFFFFFFFFFFFFFFFFFFFFFFFFFFFFFFFFFFFFFFFFFFFFFFFFFFFFFFF
310
FFFFFFFFFFFFFFFFFFFFFFFFFFFFFFFFFFFFFFFFFFFFFFFFFFFFFFFFFFFFFFFF
310
FFFFFFFFFFFFFFFFFFFFFFFFFFFFFFFFF000FFFFFFFFFFFFFFFFFFFFFFFFFFFF
310
FFFFFFFFFFFFFFFFFFFFFFFFFFFFFFFFFFFFFFFFFFFFFFFFFFFFFFFFFFFFFFFF
310
FFFFFFFFFFFFFFFFFFFFFFFFFFFFFFFFFFFFFFFFFFFFFFFFFFFFFFFFFFFFFFFF
310
FFFFFFFFFFFFFFFFF000FFFFFFFFFFFFFFFFFFFFFFFFFFFFFFFFFFFFFFFFFFFF
310
FFFFFFFFFFFFFFFFFFFFFFFFFFFFFFFFFFFFFFFFFFFFFFFFFFFFFFFFFFFFFFFF
310
FFFFFFFFFFFFFFFFFFFFFFFFFFFFFFFFFFFFFFFFFFFFFFFFFFFFFFFFFFFFFFFF
310
F000FFFFFFFFFFFFFFFFFFFFFFFFFFFFFFFFFFFFFFFFFFFFFFFFFFFFFFFFFFFF
310
FFFFFFFFFFFFFFFFFFFFFFFFFFFFFFFFFFFFFFFFFFFFFFFFFFFFFFFFFFFFFFFF
310
FFFFFFFFFFFFFFFFFFFFFFFFFFFFFFFFFFFFFFFFFFFFFFFFF000FFFFFFFFFFFF
310
FFFFFFFFFFFFFFFFFFFFFFFFFFFFFFFFFFFFFFFFFFFFFFFFFFFFFFFFFFFFFFFF
310
FFFFFFFFFFFFFFFFFFFFFFFFFFFFFFFFFFFFFFFFFFFFFFFFFFFFFFFFFFFFFFFF
310
FFFFFFFFFFFFFFFFFFFFFFFFFFFFFFFFF000FFFFFFFFFFFFFFFFFFFFFFFFFFFF
310
FFFFFFFFFFFFFFFFFFFFFFFFFFFFFFFFFFFFFFFFFFFFFFFFFFFFFFFFFFFFFFFF
310
FFFFFFFFFFFFFFFFFFFFFFFFFFFFFFFFFFFFFFFFFFFFFFFFFFFFFFFFFFFFFFFF
310
FFFFFFFFFFFFFFFFF000FFFFFFFFFFFFFFFFFFFFFFFFFFFFFFFFFFFFFFFFFFFF
310
FFFFFFFFFFFFFFFFFFFFFFFFFFFFFFFFFFFFFFFFFFFFFFFFFFFFFFFFFFFFFFFF
310
FFFFFFFFFFFFFFFFFFFFFFFFFFFFFFFFFFFFFFFFFFFFFFFFFFFFFFFFFFFFFFFF
310
F000FFFFFFFFFFFFFFFFFFFFFFFFFFFFFFFFFFFFFFFFFFFFFFFFFFFFFFFFFFFF
310
FFFFFFFFFFFFFFFFFFFFFFFFFFFFFFFFFFFFFFFFFFFFFFFFFFFFFFFFFFFFFFFF
310
FFFFFFFFFFFFFFFFFFFFFFFFFFFFFFFFFFFFFFFFFFFFFFFFF000FFFFFFFFFFFF
310
FFFFFFFFFFFFFFFFFFFFFFFFFFFFFFFFFFFFFFFFFFFFFFFFFFFFFFFFFFFFFFFF
310
FFFFFFFFFFFFFFFFFFFFFFFFFFFFFFFFFFFFFFFFFFFFFFFFFFFFFFFFFFFFFFFF
310
FFFFFFFFFFFFFFFFFFFFFFFFFFFFFFFFF000FFFFFFFFFFFFFFFFFFFFFFFFFFFF
310
FFFFFFFFFFFFFFFFFFFFFFFFFFFFFFFFFFFFFFFFFFFFFFFFFFFFFFFFFFFFFFFF
310
FFFFFFFFFFFFFFFFFFFFFFFFFFFFFFFFFFFFFFFFFFFFFFFFFFFFFFFFFFFFFFFF
310
FFFFFFFFFFFFFFFFF000FFFFF80003FFFFFFFFFFFFFFFFFFFFFFFFFFFFFFFFFF
310
FFFFF00007FFFFFFFFFF00007FFFFFF800000000000000007FFFFFFFFFFFFFFF
310
FFFFFFFC001FFFFFFFFFFFFFFC001FFFFFFFFFFFFFFFFFFFFFFFFFFE0007FFFF
310
F000FFFF8000007FFFFFFFF8000FFFFFC0007FFFFF80007FFFFF0000007FFFFF
310
FFF8000007FFFFF800000000000000007FFFFFF0001FFFFFFFFFFFC00001FFFF
310
FFFFFFFFC00001FFFFFFFF000000000003FFFFE000007FFFF000FFFE0000000F
310
FFFFFFF0000FFFFF80007FFFFF80007FFFFC0000001FFFFFFFC0000001FFFFF8
310
00000000000000007FFFFFF0001FFFFFFFFFFE0000003FFFFFFFFFFE0000003F
310
FFFFFF000000000003FFFF0000000FFFF000FFF800000003FFFFFFF00007FFFF
310
80007FFFFF80007FFFF000000007FFFFFF000000003FFFF80000000000000000
310
7FFFFFF0001FFFFFFFFFF80000000FFFFFFFFFF80000000FFFFFFF0000000000
310
03FFFC00000003FFF000FFE000000000FFFFFFF00007FFFF80003FFFFF80007F
310
FFC000000001FFFFFC000000001FFFF800000000000000007FFFFFF0001FFFFF
310
FFFFE000000003FFFFFFFFE000000003FFFFFF000000000003FFF000000000FF
310
F000FF80000000007FFFFFF00007FFFF80003FFFFF80007FFF8000000000FFFF
310
F80000000007FFF800000000000000007FFFFFF0001FFFFFFFFFC000000001FF
310
FFFFFFC000000001FFFFFF000000000003FFC0000000007FF000FF0000000000
310
3FFFFFE00007FFFF00003FFFFF80007FFE00000000003FFFF00000000003FFF8
310
00000000000000007FFFFFF0001FFFFFFFFF8000000000FFFFFFFF8000000000
310
FFFFFF000000000003FF80000000003FF000FE00000000001FFFFFE00003FFFF
310
00003FFFFF80007FFC00000000001FFFE00000000001FFF8000001FFFE000000
310
7FFFFFF0001FFFFFFFFE00000000003FFFFFFE00000000003FFFFF0000000000
310
03FF00000000001FF000FC00000000000FFFFFE00003FFFF00001FFFFF80007F
310
F800000000001FFFC00000000000FFF8000001FFFE0000007FFFFFF0001FFFFF
310
FFFC00000000001FFFFFFC00000000001FFFFF000000000003FE00000000000F
310
F000F8000000000007FFFFE00003FFFF00001FFFFF80007FF800000000000FFF
310
800000000000FFF8000001FFFE0000007FFFFFF0001FFFFFFFF800000000000F
310
FFFFF800000000000FFFFF000000000003FC000000000007F000F80000000000
310
03FFFFC00003FFFE00001FFFFF80007FF0000000000007FF0000000000007FF8
310
000001FFFE0000007FFFFFF0001FFFFFFFF0000000000007FFFFF00000000000
310
07FFFF000000000003F8000000000003F000F0000000000003FFFFC00001FFFE
310
00001FFFFF80007FE0000000000007FE0000000000003FF8000001FFFE000000
310
7FFFFFF0001FFFFFFFF0000000000007FFFFF0000000000007FFFF0000000000
310
03F800001F800003F000E00001FFF00001FFFFC00001FFFE00000FFFFF80007F
310
E00001FFE00003FE00001FFF00003FF8000001FFFE0000007FFFFFF0001FFFFF
310
FFE000003E000003FFFFE000003E000003FFFF000000000003F00001FFF80001
310
F000E00007FFFC0001FFFFC00001FFFE00000FFFFF80007FC0000FFFFC0003FC
310
0000FFFFC0001FF8000001FFFE0000007FFFFFF0001FFFFFFFC00003FFE00001
310
FFFFC00003FFE00001FFFF0001FFFFFFFFF00007FFFE0001F000E0000FFFFF00
310
00FFFF800001FFFC00000FFFFF80007FC0001FFFFE0001FC0001FFFFE0001FF8
310
000001FFFE0000007FFFFFF0001FFFFFFF80000FFFF80000FFFF80000FFFF800
310
00FFFF0003FFFFFFFFE0000FFFFF8000F000C0003FFFFF8000FFFF800000FFFC
310
000007FFFF80007F80003FFFFF0001FC0003FFFFF0001FF8000001FFFE000000
310
7FFFFFF0001FFFFFFF80003FFFFE0000FFFF80003FFFFE0000FFFF0003FFFFFF
310
FFE0003FFFFF8000F000C0003FFFFF8000FFFF800000FFFC000007FFFF80007F
310
80007FFFFF8001F80007FFFFF8000FF8000001FFFE0000007FFFFFF0001FFFFF
310
FF00007FFFFF00007FFF00007FFFFF00007FFF0003FFFFFFFFE0003FFFFFC000
310
F000C0007FFFFFC000FFFF000000FFFC000007FFFF80007F8000FFFFFF8000F8
310
000FFFFFF8000FF8000001FFFE0000007FFFFFF0001FFFFFFF0000FFFFFF8000
310
7FFF0000FFFFFF80007FFF0003FFFFFFFFC0007FFFFFC00070008000FFFFFFC0
310
00FFFF000000FFF8000007FFFF80007F8000FFFFFF8000F8000FFFFFF8000FF8
310
000001FFFE0000007FFFFFF0001FFFFFFE0001FFFFFFC0003FFE0001FFFFFFC0
310
003FFF0003FFFFFFFFC0007FFFFFE00070008000FFFFFFC0007FFF0000007FF8
310
000003FFFF80007F0001FFFFFF8000F8000FFFFFF8000FF8000001FFFE000000
310
7FFFFFF0001FFFFFFE0001FFFFFFC0003FFE0001FFFFFFC0003FFF0003FFFFFF
310
FFC000FFFFFFE00070008000FFFFFFC0007FFF0000007FF8000003FFFF80007F
310
0001FFFFFF8000F8001FFFFFF8000FF8000001FFFE0000007FFFFFF0001FFFFF
310
FE0003FFFFFFE0003FFE0003FFFFFFE0003FFF0003FFFFFFFFC000FFFFFFE000
310
70008000FFFFFFC0007FFE0000007FF8000003FFFF80007F0001FFFFFF8000F0
310
001FFFFFF8000FF8000001FFFE0000007FFFFFF0001FFFFFFC0003FFFFFFE000
310
1FFC0003FFFFFFE0001FFF0003FFFFFFFFC000FFFFFFC00070008000FFFFFF80
310
007FFE0000007FF0000003FFFF80007F0001FFFFFF0000F0001FFFFFF8000FF8
310
000001FFFE0000007FFFFFF0001FFFFFFC0007FFFFFFF0001FFC0007FFFFFFF0
310
001FFF0003FFFFFFFFC000FFFFFFC00070008001FFFFFF0000FFFE0000003FF0
310
000001FFFF80007F0001FFFFFF0000F8001FFFFFF0000FF8000001FFFE000000
310
7FFFFFF0001FFFFFFC0007FFFFFFF0001FFC0007FFFFFFF0001FFF0003FFFFFF
310
FFC001FFFFFF80007000FFFFFFFFFE0000FFFE0008003FF0008001FFFF80007F
310
FFFFFFFFFC0000FFFFFFFFFFE0000FF8000001FFFE0000007FFFFFF0001FFFFF
310
F8000FFFFFFFF8000FF8000FFFFFFFF8000FFF0003FFFFFFFFFFFFFFFFFF0000
310
7000FFFFFFFFFC0000FFFC0008003FF0008001FFFF80007FFFFFFFFFF80001FF
310
FFFFFFFF80000FF8000001FFFE0000007FFFFFF0001FFFFFF8000FFFFFFFF800
310
0FF8000FFFFFFFF8000FFF0003FFFFFFFFFFFFFFFFFE0000F000FFFFFFFFE000
310
00FFFC000C003FE000C001FFFF80007FFFFFFFFFC00001FFFFFFFFFE00001FF8
310
000001FFFE0000007FFFFFF0001FFFFFF8000FFFFFFFF8000FF8000FFFFFFFF8
310
000FFF0003FFFFFFFFFFFFFFFFF00000F000FFFFFFFE000001FFFC000C001FE0
310
00C000FFFF80007FFFFFFFFE000001FFFFFFFFE000001FF80FFFFFFFFFFFFFC0
310
7FFFFFF0001FFFFFF8000FFFFFFFF8000FF8000FFFFFFFF8000FFF0003FFFFFF
310
FFFFFFFFFF800000F000FFFFFFC0000001FFFC001C001FE001C000FFFF80007F
310
FFFFFF80000003FFFFFFF80000001FF80FFFFFFFFFFFFFC07FFFFFF0001FFFFF
310
F8001FFFFFFFFC000FF8001FFFFFFFFC000FFF0003FFFFFFFFFFFFFFF0000001
310
F000FFFFF800000001FFF8001C001FE001C000FFFF80007FFFFFF800000003FF
310
FFFF800000003FF80FFFFFFFFFFFFFC07FFFFFF0001FFFFFF8001FFFFFFFFC00
310
0FF8001FFFFFFFFC000FFF0003FFFFFFFFFFFFFE00000001F000FFFFC0000000
310
03FFF8001E001FC001E000FFFF80007FFFFF8000000007FFFFFC000000003FF8
310
0FFFFFFFFFFFFFC07FFFFFF0001FFFFFF8001FFFFFFFFC000FF8001FFFFFFFFC
310
000FFF0003FFFFFFFFFFFFE000000003F000FFFE0000000007FFF8001E000FC0
310
01E0007FFF80007FFFFE0000000007FFFFE0000000007FF80FFFFFFFFFFFFFC0
310
7FFFFFF0001FFFFFF0001FFFFFFFFC0007F0001FFFFFFFFC0007FF0003FFFFFF
310
FFFFFF0000000003F000FFF80000000007FFF8001E000FC003E0007FFF80007F
310
FFF0000000000FFFFF8000000000FFF80FFFFFFFFFFFFFC07FFFFFF0001FFFFF
310
F0001FFFFFFFFC0007F0001FFFFFFFFC0007FF0003FFFFFFFFFFFC0000000007
310
F000FFE0000000000FFFF0003E000FC003E0007FFF80007FFFC0000000001FFF
310
FE0000000001FFF80FFFFFFFFFFFFFC07FFFFFF0001FFFFFF0001FFFFFFFFC00
310
07F0001FFFFFFFFC0007FF0003FFFFFFFFFFF0000000000FF000FFC000000000
310
1FFFF0003F000F8003F0003FFF80007FFF80000000003FFFF80000000003FFF8
310
0FFFFFFFFFFFFFC07FFFFFF0001FFFFFF0001FFFFFFFFC0007F0001FFFFFFFFC
310
0007FF0003FFFFFFFFFFE0000000001FF000FF00000000007FFFF0003F000780
310
03F0003FFF80007FFF00000000007FFFF00000000007FFF80FFFFFFFFFFFFFC0
310
7FFFFFF0001FFFFFF0001FFFFFFFFC0007F0001FFFFFFFFC0007FF0003FFFFFF
310
FFFF80000000007FF000FE0000000000FFFFE0003F00078007F0003FFF80007F
310
FE0000000001FFFFE0000000001FFFF80FFFFFFFFFFFFFC07FFFFFF0001FFFFF
310
F0001FFFFFFFFC0007F0001FFFFFFFFC0007FF0003FFFFFFFFFF0000000000FF
310
F000FC0000000003FFFFE0007F00078007F0003FFF80007FFC0000000007FFFF
310
C0000000007FFFF80FFFFFFFFFFFFFC07FFFFFF0001FFFFFF8001FFFFFFFFC00
310
0FF8001FFFFFFFFC000FFF0003FFFFFFFFFE0000000003FFF000FC000000000F
310
FFFFE0007F80070007F8001FFF80007FF8000000001FFFFF8000000001FFFFF8
310
0FFFFFFFFFFFFFC07FFFFFF0001FFFFFF8001FFFFFFFFC000FF8001FFFFFFFFC
310
000FFF0003FFFFFFFFFC000000000FFFF000F8000000007FFFFFE0007F800700
310
07F8001FFF80007FF000000000FFFFFF800000000FFFFFF80FFFFFFFFFFFFFC0
310
7FFFFFF0001FFFFFF8000FFFFFFFF8000FF8000FFFFFFFF8000FFF0003FFFFFF
310
FFFC000000007FFFF000F800000007FFFFFFC0007F8003000FF8001FFF80007F
310
F000000007FFFFFF000000007FFFFFF80FFFFFFFFFFFFFC07FFFFFF0001FFFFF
310
F8000FFFFFFFF8000FF8000FFFFFFFF8000FFF0003FFFFFFFFF80000000FFFFF
310
F000F0000000FFFFFFFFC000FF8003000FF8001FFF80007FE0000000FFFFFFFF
310
0000000FFFFFFFF8000001FFFE0000007FFFFFF0001FFFFFF8000FFFFFFFF800
310
0FF8000FFFFFFFF8000FFF0003FFFFFFFFF8000000FFFFFFF000F000000FFFFF
310
FFFFC000FFC002000FF8000FFF80007FE000001FFFFFFFFE000001FFFFFFFFF8
310
000001FFFE0000007FFFFFF0001FFFFFF8000FFFFFFFF8000FF8000FFFFFFFF8
310
000FFF0003FFFFFFFFF000001FFFFFFFF000E00000FFFFFFFFFFC000FFC00200
310
0FFC000FFF80007FE00001FFFFFFFFFE00001FFFFFFFFFF8000001FFFE000000
310
7FFFFFF0001FFFFFFC000FFFFFFFF8001FFC000FFFFFFFF8001FFF0003FFFFFF
310
FFF00001FFFFFFFFF000E00007FFFFFFFFFF8000FFC000001FFC000FFF80007F
310
C0000FFFFFFFFFFE0000FFFFFFFFFFF8000001FFFE0000007FFFFFF0001FFFFF
310
FC0007FFFFFFF0001FFC0007FFFFFFF0001FFF0003FFFFFFFFF00007FFFFFFFF
310
F000E0001FFFFFFFFFFF8000FFC000001FFC000FFF80007FC0003FFFFFFFFFFE
310
0001FFFFFFFFFFF8000001FFFE0000007FFFFFF0001FFFFFFC0007FFFFFFF000
310
1FFC0007FFFFFFF0001FFF0003FFFFFFFFF0001FFFFFFFFFF000E0003FFFFF00
310
03FF8001FFE000001FFC0007FF80007FC0007FFFFF0007FC0003FFFFF0003FF8
310
000001FFFE0000007FFFFFF0001FFFFFFC0003FFFFFFE0001FFC0003FFFFFFE0
310
001FFF0003FFFFFFFFF0003FFFFFFFFFF000E0003FFFFF0001FF8001FFE00000
310
1FFE0007FF80007FC0007FFFFE0003FC0007FFFFE0003FF8000001FFFE000000
310
7FFFFFF0001FFFFFFE0003FFFFFFE0003FFE0003FFFFFFE0003FFF0003FFFFFF
310
FFF0003FFFFF8001F000E0003FFFFF0001FF0001FFE000001FFE0007FF80007F
310
C0007FFFFE0003FC0007FFFFE0003FF8000001FFFE0000007FFFFFF0001FFFFF
310
FE0001FFFFFFC0003FFE0001FFFFFFC0003FFF0003FFFFFFFFF0003FFFFF0001
310
F000E0003FFFFF0003FF0001FFE000003FFE0007FF80007FC0007FFFFE0003FC
310
0007FFFFE0003FF8000001FFFE0000007FFFFFF0001FFFFFFF0001FFFFFFC000
310
7FFF0001FFFFFFC0007FFF0003FFFFFFFFF0003FFFFF0001F000E0003FFFFE00
310
03FF0003FFF000003FFE0003FF80007FC0007FFFFC0003FE0007FFFFE0003FF8
310
000001FFFE0000007FFFFFF0001FFFFFFF0000FFFFFF80007FFF0000FFFFFF80
310
007FFF0003FFFFFFFFF0003FFFFF0001F000E0003FFFFE0003FF0003FFF00000
310
3FFF0003FF80007FC0007FFFFC0007FE0007FFFFC0003FF8000001FFFE000000
310
7FFFFFF0001FFFFFFF80007FFFFF0000FFFF80007FFFFF0000FFFF0003FFFFFF
310
FFF0003FFFFF0003F000E0003FFFFC0003FE0003FFF000003FFF0003FF80007F
310
E0003FFFF80007FE0003FFFFC0007FF8000001FFFE0000007FFFFFF0001FFFFF
310
FF80003FFFFE0000FFFF80003FFFFE0000FFFF0003FFFFFFFFF0001FFFFE0003
310
F000F0001FFFF80003FE0003FFF000007FFF0001FF80007FE0003FFFF00007FE
310
0001FFFF80007FF8000001FFFE0000007FFFFFF0001FFFFFFFC0000FFFF80001
310
FFFFC0000FFFF80001FFFF0003FFFFFFFFF0001FFFFC0003F000F0000FFFF000
310
07FE0007FFF800007FFF0001FF80007FE0001FFFE00007FF0000FFFE00007FF8
310
000001FFFE0000007FFFFFF0001FFFFFFFC00003FFE00001FFFFC00003FFE000
310
01FFFF0003FFFFFFFFF8000FFFF80003F000F00003FFC00007FC0007FFF80000
310
7FFF8001FF80007FF00007FF80000FFF00007FF80000FFF8000001FFFE000000
310
7F80000000000001FFE000003E000003FFFFE000003E000003FFFF0003FFFFFF
310
FFF80003FFE00007F000F800000000000FFC0007FFF800007FFF8001FF80007F
310
F000000000000FFF000000000000FFF8000001FFFE0000007F80000000000001
310
FFF0000000000007FFFFF0000000000007FFFF0003FFFFFFFFFC00007E000007
310
F000F800000000000FFC0007FFF80000FFFF8000FF80007FF800000000001FFF
310
800000000001FFF8000001FFFE0000007F80000000000001FFF800000000000F
310
FFFFF800000000000FFFFF0003FFFFFFFFFC00000000000FF000FC0000000000
310
1FFC0007FFFC0000FFFF8000FF80007FF800000000003FFFC00000000001FFF8
310
000001FFFE0000007F80000000000001FFF800000000000FFFFFF80000000000
310
0FFFFF0003FFFFFFFFFE00000000001FF000FE00000000003FF8000FFFFC0000
310
FFFF8000FF80007FFC00000000003FFFC00000000003FFF8000001FFFE000000
310
7F80000000000001FFFC00000000001FFFFFFC00000000001FFFFF0003FFFFFF
310
FFFF00000000001FF000FF00000000003FF8000FFFFC0000FFFFC000FF80007F
310
FE00000000007FFFE00000000007FFF8000001FFFE0000007F80000000000001
310
FFFE00000000003FFFFFFE00000000003FFFFF0003FFFFFFFFFF80000000003F
310
F000FF80000000007FF8000FFFFC0001FFFFC0007F80007FFF0000000000FFFF
310
F0000000000FFFF800000000000000007F80000000000001FFFF8000000000FF
310
FFFFFF8000000000FFFFFF0003FFFFFFFFFFC0000000007FF000FFC000000000
310
FFF8000FFFFE0001FFFFC0007F80007FFF8000000001FFFFF8000000001FFFF8
310
00000000000000007F80000000000001FFFFC000000001FFFFFFFFC000000001
310
FFFFFF0003FFFFFFFFFFE000000000FFF000FFE000000003FFF0001FFFFE0001
310
FFFFC0007F80007FFFC000000007FFFFFE000000003FFFF80000000000000000
310
7F80000000000001FFFFE000000003FFFFFFFFE000000003FFFFFF0003FFFFFF
310
FFFFF000000003FFF000FFF80000000FFFF0001FFFFE0001FFFFE0007F80007F
310
FFF00000000FFFFFFF00000000FFFFF800000000000000007F80000000000001
310
FFFFF80000000FFFFFFFFFF80000000FFFFFFF0003FFFFFFFFFFFC0000000FFF
310
F000FFFE0000003FFFF0001FFFFE0003FFFFE0003F80007FFFFC0000003FFFFF
310
FFC0000003FFFFF800000000000000007F80000000000001FFFFFE0000003FFF
310
FFFFFFFE0000003FFFFFFF0003FFFFFFFFFFFF0000003FFFF000FFFF800000FF
310
FFF0001FFFFF0003FFFFE0003F80007FFFFF000001FFFFFFFFF800001FFFFFF8
310
00000000000000007F80000000000001FFFFFFC00001FFFFFFFFFFFFC00001FF
310
FFFFFF0003FFFFFFFFFFFFC00000FFFFF000FFFFF8000FFFFFFFFFFFFFFFFFFF
310
FFFFFFFFFFFFFFFFFFFFF0001FFFFFFFFFFF0000FFFFFFF80000000000000000
310
7FFFFFFFFFFFFFFFFFFFFFFC001FFFFFFFFFFFFFFC001FFFFFFFFFFFFFFFFFFF
310
FFFFFFFC001FFFFFF000FFFFFFFFFFFFFFFFFFFFFFFFFFFFFFFFFFFFFFFFFFFF
310
FFFFFFFFFFFFFFFFFFFFFFFFFFFFFFFFFFFFFFFFFFFFFFFFFFFFFFFFFFFFFFFF
310
FFFFFFFFFFFFFFFFFFFFFFFFFFFFFFFFFFFFFFFFFFFFFFFFFFFFFFFFFFFFFFFF
310
F000FFFFFFFFFFFFFFFFFFFFFFFFFFFFFFFFFFFFFFFFFFFFFFFFFFFFFFFFFFFF
310
FFFFFFFFFFFFFFFFFFFFFFFFFFFFFFFFFFFFFFFFFFFFFFFFFFFFFFFFFFFFFFFF
310
FFFFFFFFFFFFFFFFFFFFFFFFFFFFFFFFFFFFFFFFFFFFFFFFF000FFFFFFFFFFFF
310
FFFFFFFFFFFFFFFFFFFFFFFFFFFFFFFFFFFFFFFFFFFFFFFFFFFFFFFFFFFFFFFF
310
FFFFFFFFFFFFFFFFFFFFFFFFFFFFFFFFFFFFFFFFFFFFFFFFFFFFFFFFFFFFFFFF
310
FFFFFFFFFFFFFFFFFFFFFFFFFFFFFFFFF000FFFFFFFFFFFFFFFFFFFFFFFFFFFF
310
FFFFFFFFFFFFFFFFFFFFFFFFFFFFFFFFFFFFFFFFFFFFFFFFFFFFFFFFFFFFFFFF
310
FFFFFFFFFFFFFFFFFFFFFFFFFFFFFFFFFFFFFFFFFFFFFFFFFFFFFFFFFFFFFFFF
310
FFFFFFFFFFFFFFFFF000FFFFFFFFFFFFFFFFFFFFFFFFFFFFFFFFFFFFFFFFFFFF
310
FFFFFFFFFFFFFFFFFFFFFFFFFFFFFFFFFFFFFFFFFFFFFFFFFFFFFFFFFFFFFFFF
310
FFFFFFFFFFFFFFFFFFFFFFFFFFFFFFFFFFFFFFFFFFFFFFFFFFFFFFFFFFFFFFFF
310
F000FFFFFFFFFFFFFFFFFFFFFFFFFFFFFFFFFFFFFFFFFFFFFFFFFFFFFFFFFFFF
310
FFFFFFFFFFFFFFFFFFFFFFFFFFFFFFFFFFFFFFFFFFFFFFFFFFFFFFFFFFFFFFFF
310
FFFFFFFFFFFFFFFFFFFFFFFFFFFFFFFFFFFFFFFFFFFFFFFFF000FFFFFFFFFFFF
310
FFFFFFFFFFFFFFFFFFFFFFFFFFFFFFFFFFFFFFFFFFFFFFFFFFFFFFFFFFFFFFFF
310
FFFFFFFFFFFFFFFFFFFFFFFFFFFFFFFFFFFFFFFFFFFFFFFFFFFFFFFFFFFFFFFF
310
FFFFFFFFFFFFFFFFFFFFFFFFFFFFFFFFF000FFFFFFFFFFFFFFFFFFFFFFFFFFFF
310
FFFFFFFFFFFFFFFFFFFFFFFFFFFFFFFFFFFFFFFFFFFFFFFFFFFFFFFFFFFFFFFF
310
FFFFFFFFFFFFFFFFFFFFFFFFFFFFFFFFFFFFFFFFFFFFFFFFFFFFFFFFFFFFFFFF
310
FFFFFFFFFFFFFFFFF000FFFFFFFFFFFFFFFFFFFFFFFFFFFFFFFFFFFFFFFFFFFF
310
FFFFFFFFFFFFFFFFFFFFFFFFFFFFFFFFFFFFFFFFFFFFFFFFFFFFFFFFFFFFFFFF
310
FFFFFFFFFFFFFFFFFFFFFFFFFFFFFFFFFFFFFFFFFFFFFFFFFFFFFFFFFFFFFFFF
310
F000FFFFFFFFFFFFFFFFFFFFFFFFFFFFFFFFFFFFFFFFFFFFFFFFFFFFFFFFFFFF
310
FFFFFFFFFFFFFFFFFFFFFFFFFFFFFFFFFFFFFFFFFFFFFFFFFFFFFFFFFFFFFFFF
310
FFFFFFFFFFFFFFFFFFFFFFFFFFFFFFFFFFFFFFFFFFFFFFFFF000FFFFFFFFFFFF
310
FFFFFFFFFFFFFFFFFFFFFFFFFFFFFFFFFFFFFFFFFFFFFFFFFFFFFFFFFFFFFFFF
310
FFFFFFFFFFFFFFFFFFFFFFFFFFFFFFFFFFFFFFFFFFFFFFFFFFFFFFFFFFFFFFFF
310
FFFFFFFFFFFFFFFFFFFFFFFFFFFFFFFFF000FFFFFFFFFFFFFFFFFFFFFFFFFFFF
310
FFFFFFFFFFFFFFFFFFFFFFFFFFFFFFFFFFFFFFFFFFFFFFFFFFFFFFFFFFFFFFFF
310
FFFFFFFFFFFFFFFFFFFFFFFFFFFFFFFFFFFFFFFFFFFFFFFFFFFFFFFFFFFFFFFF
310
FFFFFFFFFFFFFFFFF000FFFFFFFFFFFFFFFFFFFFFFFFFFFFFFFFFFFFFFFFFFFF
310
FFFFFFFFFFFFFFFFFFFFFFFFFFFFFFFFFFFFFFFFFFFFFFFFFFFFFFFFFFFFFFFF
310
FFFFFFFFFFFFFFFFFFFFFFFFFFFFFFFFFFFFFFFFFFFFFFFFFFFFFFFFFFFFFFFF
310
F000FFFFFFFFFFFFFFFFFFFFFFFFFFFFFFFFFFFFFFFFFFFFFFFFFFFFFFFFFFFF
310
FFFFFFFFFFFFFFFFFFFFFFFFFFFFFFFFFFFFFFFFFFFFFFFFFFFFFFFFFFFFFFFF
310
FFFFFFFFFFFFFFFFFFFFFFFFFFFFFFFFFFFFFFFFFFFFFFFFF000FFFFFFFFFFFF
310
FFFFFFFFFFFFFFFFFFFFFFFFFFFFFFFFFFFFFFFFFFFFFFFFFFFFFFFFFFFFFFFF
310
FFFFFFFFFFFFFFFFFFFFFFFFFFFFFFFFFFFFFFFFFFFFFFFFFFFFFFFFFFFFFFFF
310
FFFFFFFFFFFFFFFFFFFFFFFFFFFFFFFFF000FFFFFFFFFFFFFFFFFFFFFFFFFFFF
310
FFFFFFFFFFFFFFFFFFFFFFFFFFFFFFFFFFFFFFFFFFFFFFFFFFFFFFFFFFFFFFFF
310
FFFFFFFFFFFFFFFFFFFFFFFFFFFFFFFFFFFFFFFFFFFFFFFFFFFFFFFFFFFFFFFF
310
FFFFFFFFFFFFFFFFF000FFFFFFFFFFFFFFFFFFFFFFFFFFFFFFFFFFFFFFFFFFFF
310
FFFFFFFFFFFFFFFFFFFFFFFFFFFFFFFFFFFFFFFFFFFFFFFFFFFFFFFFFFFFFFFF
310
FFFFFFFFFFFFFFFFFFFFFFFFFFFFFFFFFFFFFFFFFFFFFFFFFFFFFFFFFFFFFFFF
310
F000FFFFFFFFFFFFFFFFFFFFFFFFFFFFFFFFFFFFFFFFFFFFFFFFFFFFFFFFFFFF
310
FFFFFFFFFFFFFFFFFFFFFFFFFFFFFFFFFFFFFFFFFFFFFFFFFFFFFFFFFFFFFFFF
310
FFFFFFFFFFFFFFFFFFFFFFFFFFFFFFFFFFFFFFFFFFFFFFFFF000FFFFFFFFFFFF
310
FFFFFFFFFFFFFFFFFFFFFFFFFFFFFFFFFFFFFFFFFFFFFFFFFFFFFFFFFFFFFFFF
310
FFFFFFFFFFFFFFFFFFFFFFFFFFFFFFFFFFFFFFFFFFFFFFFFFFFFFFFFFFFFFFFF
310
FFFFFFFFFFFFFFFFFFFFFFFFFFFFFFFFF000FFFFFFFFFFFFFFFFFFFFFFFFFFFF
310
FFFFFFFFFFFFFFFFFFFFFFFFFFFFFFFFFFFFFFFFFFFFFFFFFFFFFFFFFFFFFFFF
310
FFFFFFFFFFFFFFFFFFFFFFFFFFFFFFFFFFFFFFFFFFFFFFFFFFFFFFFFFFFFFFFF
310
FFFFFFFFFFFFFFFFF000FFFFFFFFFFFFFFFFFFFFFFFFFFFFFFFFFFFFFFFFFFFF
310
FFFFFFFFFFFFFFFFFFFFFFFFFFFFFFFFFFFFFFFFFFFFFFFFFFFFFFFFFFFFFFFF
310
FFFFFFFFFFFFFFFFFFFFFFFFFFFFFFFFFFFFFFFFFFFFFFFFFFFFFFFFFFFFFFFF
310
F000FFFFFFFFFFFFFFFFFFFFFFFFFFFFFFFFFFFFFFFFFFFFFFFFFFFFFFFFFFFF
310
FFFFFFFFFFFFFFFFFFFFFFFFFFFFFFFFFFFFFFFFFFFFFFFFFFFFFFFFFFFFFFFF
310
FFFFFFFFFFFFFFFFFFFFFFFFFFFFFFFFFFFFFFFFFFFFFFFFF000FFFFFFFFFFFF
310
FFFFFFFFFFFFFFFFFFFFFFFFFFFFFFFFFFFFFFFFFFFFFFFFFFFFFFFFFFFFFFFF
310
FFFFFFFFFFFFFFFFFFFFFFFFFFFFFFFFFFFFFFFFFFFFFFFFFFFFFFFFFFFFFFFF
310
FFFFFFFFFFFFFFFFFFFFFFFFFFFFFFFFF0000000000000000000000000000000
310
0000000000000000000000000000000000000000000000000000000000000000
310
0000000000000000000000000000000000000000000000000000000000000000
310
0000000000000000000000000000000000000000000000000000000000000000
310
0000000000000000000000000000000000000000000000000000000000000000
310
0000000000000000000000000000000000000000000000000000000000000000
310
0000000000000000000000000000000000000000000000000000000000000000
310
0000000000000000000000000000000000000000000000000000000000000000
310
0000000000000000000000000000000000000000000000000000000000000000
310
0000000000000000000000000000000000000000000000000000000000000000
310
0000000000000000000000000000000000000000000000000000000000000000
310
0000000000000000000000000000000000000000000000000000000000000000
310
0000000000000000000000000000000000000000000000000000000000000000
310
0000000000000000000000000000000000000000000000000000000000000000
310
0000000000000000000000000000000000000000000000000000000000000000
310
0000000000000000000000000000000000000000000000000000000000000000
  1
OLE
  0
ENDSEC
  0
SECTION
  2
OBJECTS
  0
DICTIONARY
  5
C
330
0
100
AcDbDictionary
281
     1
  3
ACAD_GROUP
350
D
  3
ACAD_LAYOUT
350
1A
  3
ACAD_MLINESTYLE
350
17
  3
ACAD_PLOTSETTINGS
350
19
  3
ACAD_PLOTSTYLENAME
350
E
  0
DICTIONARY
  5
D
102
{ACAD_REACTORS
330
C
102
}
330
C
100
AcDbDictionary
281
     1
  0
DICTIONARY
  5
1A
102
{ACAD_REACTORS
330
C
102
}
330
C
100
AcDbDictionary
281
     1
  3
Layout1
350
1E
  3
Layout2
350
26
  3
Model
350
22
  0
DICTIONARY
  5
17
102
{ACAD_REACTORS
330
C
102
}
330
C
100
AcDbDictionary
281
     1
  3
Standard
350
18
  0
DICTIONARY
  5
19
102
{ACAD_REACTORS
330
C
102
}
330
C
100
AcDbDictionary
281
     1
  0
ACDBDICTIONARYWDFLT
  5
E
102
{ACAD_REACTORS
330
C
102
}
330
C
100
AcDbDictionary
281
     1
  3
Normal
350
F
100
AcDbDictionaryWithDefault
340
F
  0
LAYOUT
  5
1E
102
{ACAD_REACTORS
330
1A
102
}
330
1A
100
AcDbPlotSettings
  1

  2
none_device
  4

  6

 40
0.0
 41
0.0
 42
0.0
 43
0.0
 44
0.0
 45
0.0
 46
0.0
 47
0.0
 48
0.0
 49
0.0
140
0.0
141
0.0
142
1.0
143
1.0
 70
   688
 72
     0
 73
     0
 74
     5
  7

 75
    16
147
1.0
148
0.0
149
0.0
100
AcDbLayout
  1
Layout1
 70
     1
 71
     1
 10
0.0
 20
0.0
 11
420.0
 21
297.0
 12
0.0
 22
0.0
 32
0.0
 14
1.0000000000E+20
 24
1.0000000000E+20
 34
1.0000000000E+20
 15
-1.0000000000E+20
 25
-1.0000000000E+20
 35
-1.0000000000E+20
146
0.0
 13
0.0
 23
0.0
 33
0.0
 16
1.0
 26
0.0
 36
0.0
 17
0.0
 27
1.0
 37
0.0
 76
     0
330
1B
  0
LAYOUT
  5
26
102
{ACAD_REACTORS
330
1A
102
}
330
1A
100
AcDbPlotSettings
  1

  2
none_device
  4

  6

 40
0.0
 41
0.0
 42
0.0
 43
0.0
 44
0.0
 45
0.0
 46
0.0
 47
0.0
 48
0.0
 49
0.0
140
0.0
141
0.0
142
1.0
143
1.0
 70
   688
 72
     0
 73
     0
 74
     5
  7

 75
    16
147
1.0
148
0.0
149
0.0
100
AcDbLayout
  1
Layout2
 70
     1
 71
     2
 10
0.0
 20
0.0
 11
0.0
 21
0.0
 12
0.0
 22
0.0
 32
0.0
 14
0.0
 24
0.0
 34
0.0
 15
0.0
 25
0.0
 35
0.0
146
0.0
 13
0.0
 23
0.0
 33
0.0
 16
1.0
 26
0.0
 36
0.0
 17
0.0
 27
1.0
 37
0.0
 76
     0
330
23
  0
LAYOUT
  5
22
102
{ACAD_REACTORS
330
1A
102
}
330
1A
100
AcDbPlotSettings
  1

  2
none_device
  4

  6

 40
0.0
 41
0.0
 42
0.0
 43
0.0
 44
0.0
 45
0.0
 46
0.0
 47
0.0
 48
0.0
 49
0.0
140
0.0
141
0.0
142
1.0
143
1.0
 70
  1712
 72
     0
 73
     0
 74
     0
  7

 75
     0
147
1.0
148
0.0
149
0.0
100
AcDbLayout
  1
Model
 70
     1
 71
     0
 10
0.0
 20
0.0
 11
297.0
 21
210.0
 12
0.0
 22
0.0
 32
0.0
 14
0.0
 24
0.0
 34
0.0
 15
297.0
 25
210.0
 35
0.0
146
0.0
 13
0.0
 23
0.0
 33
0.0
 16
1.0
 26
0.0
 36
0.0
 17
0.0
 27
1.0
 37
0.0
 76
     0
330
1F
331
29
  0
MLINESTYLE
  5
18
102
{ACAD_REACTORS
330
17
102
}
330
17
100
AcDbMlineStyle
  2
Standard
 70
     0
  3

 62
   256
 51
90.0
 52
90.0
 71
     2
 49
0.5
 62
   256
  6
BYLAYER
 49
-0.5
 62
   256
  6
BYLAYER
  0
ACDBPLACEHOLDER
  5
F
102
{ACAD_REACTORS
330
E
102
}
330
E
  0
ENDSEC
  0
EOF
