  0
SECTION
  2
HEADER
  9
$ACADVER
  1
AC1015
  9
$ACADMAINTVER
 70
     6
  9
$DWGCODEPAGE
  3
ANSI_1252
  9
$INSBASE
 10
0.0
 20
0.0
 30
0.0
  9
$EXTMIN
 10
0.0
 20
0.0
 30
0.0
  9
$EXTMAX
 10
297.0
 20
210.0
 30
0.0
  9
$LIMMIN
 10
0.0
 20
0.0
  9
$LIMMAX
 10
297.0
 20
210.0
  9
$ORTHOMODE
 70
     0
  9
$REGENMODE
 70
     1
  9
$FILLMODE
 70
     1
  9
$QTEXTMODE
 70
     0
  9
$MIRRTEXT
 70
     1
  9
$LTSCALE
 40
1.0
  9
$ATTMODE
 70
     1
  9
$TEXTSIZE
 40
2.0
  9
$TRACEWID
 40
1.0
  9
$TEXTSTYLE
  7
Standard
  9
$CLAYER
  8
0
  9
$CELTYPE
  6
ByLayer
  9
$CECOLOR
 62
   256
  9
$CELTSCALE
 40
1.0
  9
$DISPSILH
 70
     0
  9
$DIMSCALE
 40
1.0
  9
$DIMASZ
 40
3.0
  9
$DIMEXO
 40
0.0
  9
$DIMDLI
 40
3.75
  9
$DIMRND
 40
0.0
  9
$DIMDLE
 40
0.0
  9
$DIMEXE
 40
1.0
  9
$DIMTP
 40
0.0
  9
$DIMTM
 40
0.0
  9
$DIMTXT
 40
2.0
  9
$DIMCEN
 40
2.5
  9
$DIMTSZ
 40
0.0
  9
$DIMTOL
 70
     0
  9
$DIMLIM
 70
     0
  9
$DIMTIH
 70
     1
  9
$DIMTOH
 70
     1
  9
$DIMSE1
 70
     0
  9
$DIMSE2
 70
     0
  9
$DIMTAD
 70
     1
  9
$DIMZIN
 70
     0
  9
$DIMBLK
  1

  9
$DIMASO
 70
     1
  9
$DIMSHO
 70
     1
  9
$DIMPOST
  1

  9
$DIMAPOST
  1

  9
$DIMALT
 70
     0
  9
$DIMALTD
 70
     3
  9
$DIMALTF
 40
0.0393700787
  9
$DIMLFAC
 40
1.0
  9
$DIMTOFL
 70
     1
  9
$DIMTVP
 40
0.0
  9
$DIMTIX
 70
     0
  9
$DIMSOXD
 70
     0
  9
$DIMSAH
 70
     0
  9
$DIMBLK1
  1

  9
$DIMBLK2
  1

  9
$DIMSTYLE
  2
ISO-25
  9
$DIMCLRD
 70
     0
  9
$DIMCLRE
 70
     0
  9
$DIMCLRT
 70
     0
  9
$DIMTFAC
 40
1.0
  9
$DIMGAP
 40
1.524
  9
$DIMJUST
 70
     0
  9
$DIMSD1
 70
     0
  9
$DIMSD2
 70
     0
  9
$DIMTOLJ
 70
     0
  9
$DIMTZIN
 70
     0
  9
$DIMALTZ
 70
     0
  9
$DIMALTTZ
 70
     0
  9
$DIMUPT
 70
     0
  9
$DIMDEC
 70
     2
  9
$DIMTDEC
 70
     3
  9
$DIMALTU
 70
     2
  9
$DIMALTTD
 70
     3
  9
$DIMTXSTY
  7
Standard
  9
$DIMAUNIT
 70
     0
  9
$DIMADEC
 70
     2
  9
$DIMALTRND
 40
0.0
  9
$DIMAZIN
 70
     0
  9
$DIMDSEP
 70
    44
  9
$DIMATFIT
 70
     3
  9
$DIMFRAC
 70
     0
  9
$DIMLDRBLK
  1

  9
$DIMLUNIT
 70
     2
  9
$DIMLWD
 70
    -2
  9
$DIMLWE
 70
    -2
  9
$DIMTMOVE
 70
     0
  9
$LUNITS
 70
     2
  9
$LUPREC
 70
     2
  9
$SKETCHINC
 40
1.0
  9
$FILLETRAD
 40
10.0
  9
$AUNITS
 70
     0
  9
$AUPREC
 70
     2
  9
$MENU
  1
.
  9
$ELEVATION
 40
0.0
  9
$PELEVATION
 40
0.0
  9
$THICKNESS
 40
0.0
  9
$LIMCHECK
 70
     0
  9
$CHAMFERA
 40
10.0
  9
$CHAMFERB
 40
10.0
  9
$CHAMFERC
 40
20.0
  9
$CHAMFERD
 40
0.0
  9
$SKPOLY
 70
     0
  9
$TDCREATE
 40
2456072.670951551
  9
$TDUCREATE
 40
2456072.587618218
  9
$TDUPDATE
 40
2456072.670952812
  9
$TDUUPDATE
 40
2456072.587619479
  9
$TDINDWG
 40
0.0000000116
  9
$TDUSRTIMER
 40
0.0000000116
  9
$USRTIMER
 70
     1
  9
$ANGBASE
 50
0.0
  9
$ANGDIR
 70
     0
  9
$PDMODE
 70
     0
  9
$PDSIZE
 40
-1.0
  9
$PLINEWID
 40
0.0
  9
$SPLFRAME
 70
     0
  9
$SPLINETYPE
 70
     6
  9
$SPLINESEGS
 70
     8
  9
$HANDSEED
  5
3F5
  9
$SURFTAB1
 70
     6
  9
$SURFTAB2
 70
     6
  9
$SURFTYPE
 70
     6
  9
$SURFU
 70
     6
  9
$SURFV
 70
     6
  9
$UCSBASE
  2

  9
$UCSNAME
  2

  9
$UCSORG
 10
0.0
 20
0.0
 30
0.0
  9
$UCSXDIR
 10
1.0
 20
0.0
 30
0.0
  9
$UCSYDIR
 10
0.0
 20
1.0
 30
0.0
  9
$UCSORTHOREF
  2

  9
$UCSORTHOVIEW
 70
     0
  9
$UCSORGTOP
 10
0.0
 20
0.0
 30
0.0
  9
$UCSORGBOTTOM
 10
0.0
 20
0.0
 30
0.0
  9
$UCSORGLEFT
 10
0.0
 20
0.0
 30
0.0
  9
$UCSORGRIGHT
 10
0.0
 20
0.0
 30
0.0
  9
$UCSORGFRONT
 10
0.0
 20
0.0
 30
0.0
  9
$UCSORGBACK
 10
0.0
 20
0.0
 30
0.0
  9
$PUCSBASE
  2

  9
$PUCSNAME
  2

  9
$PUCSORG
 10
0.0
 20
0.0
 30
0.0
  9
$PUCSXDIR
 10
1.0
 20
0.0
 30
0.0
  9
$PUCSYDIR
 10
0.0
 20
1.0
 30
0.0
  9
$PUCSORTHOREF
  2

  9
$PUCSORTHOVIEW
 70
     0
  9
$PUCSORGTOP
 10
0.0
 20
0.0
 30
0.0
  9
$PUCSORGBOTTOM
 10
0.0
 20
0.0
 30
0.0
  9
$PUCSORGLEFT
 10
0.0
 20
0.0
 30
0.0
  9
$PUCSORGRIGHT
 10
0.0
 20
0.0
 30
0.0
  9
$PUCSORGFRONT
 10
0.0
 20
0.0
 30
0.0
  9
$PUCSORGBACK
 10
0.0
 20
0.0
 30
0.0
  9
$USERI1
 70
     0
  9
$USERI2
 70
     0
  9
$USERI3
 70
     0
  9
$USERI4
 70
     0
  9
$USERI5
 70
     0
  9
$USERR1
 40
0.0
  9
$USERR2
 40
0.0
  9
$USERR3
 40
0.0
  9
$USERR4
 40
0.0
  9
$USERR5
 40
0.0
  9
$WORLDVIEW
 70
     1
  9
$SHADEDGE
 70
     3
  9
$SHADEDIF
 70
    70
  9
$TILEMODE
 70
     1
  9
$MAXACTVP
 70
    64
  9
$PINSBASE
 10
0.0
 20
0.0
 30
0.0
  9
$PLIMCHECK
 70
     0
  9
$PEXTMIN
 10
1.0000000000E+20
 20
1.0000000000E+20
 30
1.0000000000E+20
  9
$PEXTMAX
 10
-1.0000000000E+20
 20
-1.0000000000E+20
 30
-1.0000000000E+20
  9
$PLIMMIN
 10
0.0
 20
0.0
  9
$PLIMMAX
 10
420.0
 20
297.0
  9
$UNITMODE
 70
     0
  9
$VISRETAIN
 70
     1
  9
$PLINEGEN
 70
     0
  9
$PSLTSCALE
 70
     1
  9
$TREEDEPTH
 70
  3020
  9
$CMLSTYLE
  2
Standard
  9
$CMLJUST
 70
     0
  9
$CMLSCALE
 40
20.0
  9
$PROXYGRAPHICS
 70
     1
  9
$MEASUREMENT
 70
     1
  9
$CELWEIGHT
370
    -1
  9
$ENDCAPS
280
     0
  9
$JOINSTYLE
280
     0
  9
$LWDISPLAY
290
     1
  9
$INSUNITS
 70
     4
  9
$HYPERLINKBASE
  1

  9
$STYLESHEET
  1

  9
$XEDIT
290
     1
  9
$CEPSNTYPE
380
     0
  9
$PSTYLEMODE
290
     1
  9
$FINGERPRINTGUID
  2
{994A9D8E-DB4F-4EC2-A5F3-6FEE4EAC91A0}
  9
$VERSIONGUID
  2
{FAEB1C32-E019-11D5-929B-00C0DF256EC4}
  9
$EXTNAMES
290
     1
  9
$PSVPSCALE
 40
0.0
  9
$OLESTARTUP
290
     0
  0
ENDSEC
  0
SECTION
  2
CLASSES
  0
CLASS
  1
ACDBDICTIONARYWDFLT
  2
AcDbDictionaryWithDefault
  3
ObjectDBX Classes
 90
        0
280
     0
281
     0
  0
CLASS
  1
VISUALSTYLE
  2
AcDbVisualStyle
  3
ObjectDBX Classes
 90
     4095
280
     0
281
     0
  0
CLASS
  1
MATERIAL
  2
AcDbMaterial
  3
ObjectDBX Classes
 90
     1153
280
     0
281
     0
  0
CLASS
  1
ACDBPLACEHOLDER
  2
AcDbPlaceHolder
  3
ObjectDBX Classes
 90
        0
280
     0
281
     0
  0
CLASS
  1
LAYOUT
  2
AcDbLayout
  3
ObjectDBX Classes
 90
        0
280
     0
281
     0
  0
ENDSEC
  0
SECTION
  2
TABLES
  0
TABLE
  2
VPORT
  5
8
330
0
100
AcDbSymbolTable
 70
     1
  0
VPORT
  5
29
330
8
100
AcDbSymbolTableRecord
100
AcDbViewportTableRecord
  2
*Active
 70
     0
 10
0.0
 20
0.0
 11
1.0
 21
1.0
 12
148.5
 22
105.0
 13
0.0
 23
0.0
 14
10.0
 24
10.0
 15
10.0
 25
10.0
 16
0.0
 26
0.0
 36
1.0
 17
0.0
 27
0.0
 37
0.0
 40
210.0
 41
1.4142857143
 42
50.0
 43
0.0
 44
0.0
 50
0.0
 51
0.0
 71
     0
 72
  2000
 73
     1
 74
     3
 75
     0
 76
     0
 77
     0
 78
     0
281
     0
 65
     1
110
0.0
120
0.0
130
0.0
111
1.0
121
0.0
131
0.0
112
0.0
122
1.0
132
0.0
 79
     0
146
0.0
  0
ENDTAB
  0
TABLE
  2
LTYPE
  5
5
330
0
100
AcDbSymbolTable
 70
     6
  0
LTYPE
  5
14
330
5
100
AcDbSymbolTableRecord
100
AcDbLinetypeTableRecord
  2
ByBlock
 70
     0
  3

 72
    65
 73
     0
 40
0.0
  0
LTYPE
  5
15
330
5
100
AcDbSymbolTableRecord
100
AcDbLinetypeTableRecord
  2
ByLayer
 70
     0
  3

 72
    65
 73
     0
 40
0.0
  0
LTYPE
  5
16
330
5
100
AcDbSymbolTableRecord
100
AcDbLinetypeTableRecord
  2
Continuous
 70
     0
  3
Solid line
 72
    65
 73
     0
 40
0.0
  0
LTYPE
  5
3F
330
5
100
AcDbSymbolTableRecord
100
AcDbLinetypeTableRecord
  2
HIDDEN
 70
     0
  3
Hidden __ __ __ __ __ __ __ __ __ __ __ __ __ __
 72
    65
 73
     2
 40
1.905
 49
1.27
 74
     0
 49
-0.635
 74
     0
  0
LTYPE
  5
40
330
5
100
AcDbSymbolTableRecord
100
AcDbLinetypeTableRecord
  2
PHANTOM
 70
     0
  3
Phantom ______  __  __  ______  __  __  ______
 72
    65
 73
     6
 40
12.7
 49
6.35
 74
     0
 49
-1.27
 74
     0
 49
1.27
 74
     0
 49
-1.27
 74
     0
 49
1.27
 74
     0
 49
-1.27
 74
     0
  0
LTYPE
  5
41
330
5
100
AcDbSymbolTableRecord
100
AcDbLinetypeTableRecord
  2
CENTER
 70
     0
  3
Center ____ _ ____ _ ____ _ ____ _ ____ _ ____
 72
    65
 73
     4
 40
10.16
 49
6.35
 74
     0
 49
-1.27
 74
     0
 49
1.27
 74
     0
 49
-1.27
 74
     0
  0
LTYPE
  5
42
330
5
100
AcDbSymbolTableRecord
100
AcDbLinetypeTableRecord
  2
CENTERX2
 70
     0
  3
Center (2x) ________  __  ________  __  _____
 72
    65
 73
     4
 40
20.32
 49
12.7
 74
     0
 49
-2.54
 74
     0
 49
2.54
 74
     0
 49
-2.54
 74
     0
  0
LTYPE
  5
43
330
5
100
AcDbSymbolTableRecord
100
AcDbLinetypeTableRecord
  2
DOT2
 70
     0
  3
Dot (.5x) ........................................
 72
    65
 73
     2
 40
0.635
 49
0.0
 74
     0
 49
-0.635
 74
     0
  0
ENDTAB
  0
TABLE
  2
LAYER
  5
2
330
0
100
AcDbSymbolTable
 70
     5
  0
LAYER
  5
10
330
2
100
AcDbSymbolTableRecord
100
AcDbLayerTableRecord
  2
0
 70
     0
 62
     7
  6
Continuous
370
    -3
390
F
  0
LAYER
  5
44
330
2
100
AcDbSymbolTableRecord
100
AcDbLayerTableRecord
  2
FORMAT
 70
     0
 62
     7
  6
Continuous
370
    -3
390
F
  0
LAYER
  5
45
330
2
100
AcDbSymbolTableRecord
100
AcDbLayerTableRecord
  2
VERMASSUNG
 70
     0
 62
     7
  6
Continuous
370
    -3
390
F
  0
LAYER
  5
46
330
2
100
AcDbSymbolTableRecord
100
AcDbLayerTableRecord
  2
KOPF_DÜNN
 70
     0
 62
     7
  6
Continuous
370
    -3
390
F
  0
LAYER
  5
47
330
2
100
AcDbSymbolTableRecord
100
AcDbLayerTableRecord
  2
KOPF_DICK
 70
     0
 62
     7
  6
Continuous
370
    15
390
F
  0
ENDTAB
  0
TABLE
  2
STYLE
  5
3
330
0
100
AcDbSymbolTable
 70
     3
  0
STYLE
  5
11
330
3
100
AcDbSymbolTableRecord
100
AcDbTextStyleTableRecord
  2
Standard
 70
     0
 40
0.0
 41
1.0
 50
0.0
 71
     0
 42
2.0
  3
txt
  4

  0
STYLE
  5
48
330
3
100
AcDbSymbolTableRecord
100
AcDbTextStyleTableRecord
  2
SLDTEXTSTYLE0
 70
     0
 40
0.0
 41
0.7
 50
0.0
 71
     0
 42
0.2
  3
TXT
  4

  0
STYLE
  5
4C
330
3
100
AcDbSymbolTableRecord
100
AcDbTextStyleTableRecord
  2
SLDTEXTSTYLE1
 70
     0
 40
0.0
 41
0.645
 50
0.0
 71
     0
 42
0.2
  3
TXT
  4

  0
ENDTAB
  0
TABLE
  2
VIEW
  5
6
330
0
100
AcDbSymbolTable
 70
     0
  0
ENDTAB
  0
TABLE
  2
UCS
  5
7
330
0
100
AcDbSymbolTable
 70
     0
  0
ENDTAB
  0
TABLE
  2
APPID
  5
9
330
0
100
AcDbSymbolTable
 70
     1
  0
APPID
  5
12
330
9
100
AcDbSymbolTableRecord
100
AcDbRegAppTableRecord
  2
ACAD
 70
     0
  0
ENDTAB
  0
TABLE
  2
DIMSTYLE
  5
A
330
0
100
AcDbSymbolTable
 70
     3
100
AcDbDimStyleTable
  0
DIMSTYLE
105
27
330
A
100
AcDbSymbolTableRecord
100
AcDbDimStyleTableRecord
  2
ISO-25
 70
     0
 41
2.5
 42
0.625
 43
3.75
 44
1.25
 73
     0
 74
     0
 77
     1
 78
     8
140
2.5
141
2.5
143
0.0393700787
147
0.625
171
     3
172
     1
178
     0
271
     2
272
     2
274
     3
278
    44
283
     0
284
     8
340
11
  0
DIMSTYLE
105
208
102
{ACAD_REACTORS
330
207
102
}
330
A
100
AcDbSymbolTableRecord
100
AcDbDimStyleTableRecord
  2
SLDDIMSTYLE0
 70
     0
 41
3.0
 44
0.0
 45
0.000000001
 47
0.1
 48
0.1
 71
     1
 73
     0
 74
     0
 77
     1
 78
    12
 79
     3
140
2.0
147
0.5
173
     1
178
     0
271
     2
272
     1
276
     2
284
     8
340
48
  0
DIMSTYLE
105
215
102
{ACAD_REACTORS
330
214
330
3E7
102
}
330
A
100
AcDbSymbolTableRecord
100
AcDbDimStyleTableRecord
  2
SLDDIMSTYLE1
 70
     0
 41
3.0
 44
0.0
 45
0.000000001
 73
     0
 74
     0
 77
     1
 78
    12
 79
     3
140
2.0
147
0.5
173
     1
178
     0
271
     2
272
     3
276
     2
284
    12
340
48
  0
ENDTAB
  0
TABLE
  2
BLOCK_RECORD
  5
1
330
0
100
AcDbSymbolTable
 70
     4
  0
BLOCK_RECORD
  5
1F
330
1
100
AcDbSymbolTableRecord
100
AcDbBlockTableRecord
  2
*Model_Space
340
22
  0
BLOCK_RECORD
  5
1B
330
1
100
AcDbSymbolTableRecord
100
AcDbBlockTableRecord
  2
*Paper_Space
340
1E
  0
BLOCK_RECORD
  5
23
330
1
100
AcDbSymbolTableRecord
100
AcDbBlockTableRecord
  2
*Paper_Space0
340
26
  0
BLOCK_RECORD
  5
209
330
1
100
AcDbSymbolTableRecord
100
AcDbBlockTableRecord
  2
_D
340
0
  0
BLOCK_RECORD
  5
216
330
1
100
AcDbSymbolTableRecord
100
AcDbBlockTableRecord
  2
_D_1
340
0
  0
BLOCK_RECORD
  5
3E8
330
1
100
AcDbSymbolTableRecord
100
AcDbBlockTableRecord
  2
_D_2
340
0
  0
ENDTAB
  0
ENDSEC
  0
SECTION
  2
BLOCKS
  0
BLOCK
  5
20
330
1F
100
AcDbEntity
  8
0
100
AcDbBlockBegin
  2
*Model_Space
 70
     0
 10
0.0
 20
0.0
 30
0.0
  3
*Model_Space
  1

  0
ENDBLK
  5
21
330
1F
100
AcDbEntity
  8
0
100
AcDbBlockEnd
  0
BLOCK
  5
1C
330
1B
100
AcDbEntity
 67
     1
  8
0
100
AcDbBlockBegin
  2
*Paper_Space
 70
     0
 10
0.0
 20
0.0
 30
0.0
  3
*Paper_Space
  1

  0
ENDBLK
  5
1D
330
1B
100
AcDbEntity
 67
     1
  8
0
100
AcDbBlockEnd
  0
BLOCK
  5
24
330
23
100
AcDbEntity
  8
0
100
AcDbBlockBegin
  2
*Paper_Space0
 70
     0
 10
0.0
 20
0.0
 30
0.0
  3
*Paper_Space0
  1

  0
ENDBLK
  5
25
330
23
100
AcDbEntity
  8
0
100
AcDbBlockEnd
  0
BLOCK
  5
20A
330
209
100
AcDbEntity
  8
0
100
AcDbBlockBegin
  2
_D
 70
     0
 10
0.0
 20
0.0
 30
0.0
  3
_D
  1

  0
SOLID
  5
20C
330
209
100
AcDbEntity
  8
VERMASSUNG
100
AcDbTrace
 10
135.6664460388
 20
184.2517348892
 30
0.0
 11
138.6664460388
 21
183.8017348892
 31
0.0
 12
138.6664460388
 22
184.7017348892
 32
0.0
 13
138.6664460388
 23
184.7017348892
 33
0.0
  0
SOLID
  5
20D
330
209
100
AcDbEntity
  8
VERMASSUNG
100
AcDbTrace
 10
265.6664460388
 20
184.2517348892
 30
0.0
 11
262.6664460388
 21
184.7017348892
 31
0.0
 12
262.6664460388
 22
183.8017348892
 32
0.0
 13
262.6664460388
 23
183.8017348892
 33
0.0
  0
LINE
  5
20E
330
209
100
AcDbEntity
  8
VERMASSUNG
100
AcDbLine
 10
135.6664460388
 20
173.7517348892
 30
0.0
 11
135.6664460388
 21
185.2517348892
 31
0.0
  0
LINE
  5
20F
330
209
100
AcDbEntity
  8
VERMASSUNG
100
AcDbLine
 10
265.6664460388
 20
154.1370230121
 30
0.0
 11
265.6664460388
 21
185.2517348892
 31
0.0
  0
LINE
  5
210
330
209
100
AcDbEntity
  8
VERMASSUNG
100
AcDbLine
 10
135.6664460388
 20
184.2517348892
 30
0.0
 11
265.6664460388
 21
184.2517348892
 31
0.0
  0
MTEXT
  5
211
330
209
100
AcDbEntity
  8
VERMASSUNG
100
AcDbMText
 10
195.6164457698
 20
186.8298702523
 30
0.1
 40
2.0
 41
0.0
 71
     1
 72
     1
  1
130
  7
SLDTEXTSTYLE0
 73
     1
 44
1.0
  0
MTEXT
  5
212
330
209
100
AcDbEntity
  8
VERMASSUNG
100
AcDbMText
 10
202.4039460358
 20
186.8298702523
 30
0.1
 40
2.0
 41
0.0
 71
     1
 72
     1
  1

  7
SLDTEXTSTYLE0
 73
     1
 44
1.0
  0
MTEXT
  5
213
330
209
100
AcDbEntity
  8
VERMASSUNG
100
AcDbMText
 10
202.4164463256
 20
186.3353363895
 30
0.1
 40
1.5
 41
0.0
 71
     1
 72
     1
  1
±0.1
  7
SLDTEXTSTYLE0
 73
     1
 44
1.0
  0
ENDBLK
  5
20B
330
209
100
AcDbEntity
  8
0
100
AcDbBlockEnd
  0
BLOCK
  5
217
330
216
100
AcDbEntity
  8
0
100
AcDbBlockBegin
  2
_D_1
 70
     0
 10
0.0
 20
0.0
 30
0.0
  3
_D_1
  1

  0
SOLID
  5
219
330
216
100
AcDbEntity
  8
VERMASSUNG
100
AcDbTrace
 10
265.6664460388
 20
190.2517348892
 30
0.0
 11
262.6664460388
 21
190.7017348892
 31
0.0
 12
262.6664460388
 22
189.8017348892
 32
0.0
 13
262.6664460388
 23
189.8017348892
 33
0.0
  0
SOLID
  5
21A
330
216
100
AcDbEntity
  8
VERMASSUNG
100
AcDbTrace
 10
97.6664460388
 20
190.2517348892
 30
0.0
 11
100.6664460388
 21
189.8017348892
 31
0.0
 12
100.6664460388
 22
190.7017348892
 32
0.0
 13
100.6664460388
 23
190.7017348892
 33
0.0
  0
LINE
  5
21B
330
216
100
AcDbEntity
  8
VERMASSUNG
100
AcDbLine
 10
265.6664460388
 20
154.1370230121
 30
0.0
 11
265.6664460388
 21
191.2517348892
 31
0.0
  0
LINE
  5
21C
330
216
100
AcDbEntity
  8
VERMASSUNG
100
AcDbLine
 10
97.6664460388
 20
162.9378506581
 30
0.0
 11
97.6664460388
 21
191.2517348892
 31
0.0
  0
LINE
  5
21D
330
216
100
AcDbEntity
  8
VERMASSUNG
100
AcDbLine
 10
265.6664460388
 20
190.2517348892
 30
0.0
 11
97.6664460388
 21
190.2517348892
 31
0.0
  0
MTEXT
  5
21E
330
216
100
AcDbEntity
  8
VERMASSUNG
100
AcDbMText
 10
178.8664459058
 20
192.8298702523
 30
0.1
 40
2.0
 41
0.0
 71
     1
 72
     1
  1
168
  7
SLDTEXTSTYLE0
 73
     1
 44
1.0
  0
ENDBLK
  5
218
330
216
100
AcDbEntity
  8
0
100
AcDbBlockEnd
  0
BLOCK
  5
3E9
330
3E8
100
AcDbEntity
  8
0
100
AcDbBlockBegin
  2
_D_2
 70
     0
 10
0.0
 20
0.0
 30
0.0
  3
_D_2
  1

  0
SOLID
  5
3EB
330
3E8
100
AcDbEntity
  8
VERMASSUNG
100
AcDbTrace
 10
87.6664460388
 20
92.2554151462
 30
0.0
 11
87.2164460388
 21
89.2554151462
 31
0.0
 12
88.1164460388
 22
89.2554151462
 32
0.0
 13
88.1164460388
 23
89.2554151462
 33
0.0
  0
SOLID
  5
3EC
330
3E8
100
AcDbEntity
  8
VERMASSUNG
100
AcDbTrace
 10
87.6664460388
 20
29.2554151462
 30
0.0
 11
88.1164460388
 21
32.2554151462
 31
0.0
 12
87.2164460388
 22
32.2554151462
 32
0.0
 13
87.2164460388
 23
32.2554151462
 33
0.0
  0
LINE
  5
3ED
330
3E8
100
AcDbEntity
  8
VERMASSUNG
100
AcDbLine
 10
136.1664460388
 20
92.2554151462
 30
0.0
 11
86.6664460388
 21
92.2554151462
 31
0.0
  0
LINE
  5
3EE
330
3E8
100
AcDbEntity
  8
VERMASSUNG
100
AcDbLine
 10
136.1664460388
 20
29.2554151462
 30
0.0
 11
86.6664460388
 21
29.2554151462
 31
0.0
  0
LINE
  5
3EF
330
3E8
100
AcDbEntity
  8
VERMASSUNG
100
AcDbLine
 10
87.6664460388
 20
92.2554151462
 30
0.0
 11
87.6664460388
 21
29.2554151462
 31
0.0
  0
MTEXT
  5
3F0
330
3E8
100
AcDbEntity
  8
VERMASSUNG
100
AcDbMText
 10
84.8883105497
 20
54.3504150369
 30
0.1
 40
2.0
 41
0.0
 71
     1
 72
     1
  1
PSC
  7
SLDTEXTSTYLE0
 11
-7.044195017643634E-15
 21
1.0
 31
0.0
 73
     1
 44
1.0
  0
MTEXT
  5
3F1
330
3E8
100
AcDbEntity
  8
VERMASSUNG
100
AcDbMText
 10
85.0883105592
 20
58.950415139
 30
0.1
 40
2.0
 41
0.0
 71
     1
 72
     1
  1
%%c
  7
SLDTEXTSTYLE0
 11
-7.044195017643634E-15
 21
1.0
 31
0.0
 73
     1
 44
1.0
  0
MTEXT
  5
3F2
330
3E8
100
AcDbEntity
  8
VERMASSUNG
100
AcDbMText
 10
84.8883105497
 20
62.560415619
 30
0.1
 40
2.0
 41
0.0
 71
     1
 72
     1
  1
63
  7
SLDTEXTSTYLE0
 11
-7.044195017643634E-15
 21
1.0
 31
0.0
 73
     1
 44
1.0
  0
ENDBLK
  5
3EA
330
3E8
100
AcDbEntity
  8
0
100
AcDbBlockEnd
  0
ENDSEC
  0
SECTION
  2
ENTITIES
  0
MTEXT
  5
49
330
1F
100
AcDbEntity
  8
KOPF_DÜNN
100
AcDbMText
 10
13.8892156294
 20
23.8442973028
 30
0.0
 40
3.0
 41
0.0
 71
     1
 72
     1
  1
PS6.PCD.NMA.130
  7
SLDTEXTSTYLE0
 73
     1
 44
1.0
  0
MTEXT
  5
4A
330
1F
100
AcDbEntity
  8
VERMASSUNG
100
AcDbMText
 10
13.9329988022
 20
28.8834360957
 30
0.0
 40
3.0
 41
0.0
 71
     1
 72
     1
  1
Klemmhalter_Turning tool neutral
  7
SLDTEXTSTYLE0
 73
     1
 44
1.0
  0
MTEXT
  5
4B
330
1F
100
AcDbEntity
  8
VERMASSUNG
100
AcDbMText
 10
98.8601118557
 20
13.8365368179
 30
0.0
 40
2.0
 41
0.0
 71
     1
 72
     1
  1
Datum: 24.05.2012
  7
SLDTEXTSTYLE0
 73
     1
 44
1.0
  0
MTEXT
  5
4D
330
1F
100
AcDbEntity
  8
VERMASSUNG
100
AcDbMText
 10
13.933048693
 20
18.0482802738
 30
0.0
 40
2.0
 41
0.0
 71
     1
 72
     1
  1
PSC ø63 / CN.. 12 04.. / 50° / 80° / 50°
  7
SLDTEXTSTYLE1
 73
     1
 44
1.0
  0
MTEXT
  5
4E
330
1F
100
AcDbEntity
  8
VERMASSUNG
100
AcDbMText
 10
13.9808475933
 20
13.9090973692
 30
0.0
 40
2.0
 41
0.0
 71
     1
 72
     1
  1
Gewicht: 2551g
  7
SLDTEXTSTYLE0
 73
     1
 44
1.0
  0
LINE
  5
4F
330
1F
100
AcDbEntity
  8
0
  6
Continuous
 62
     7
370
    15
100
AcDbLine
 10
199.7045157185
 20
174.2517348892
 30
0.0
 11
136.1664460388
 21
174.2517348892
 31
0.0
  0
LINE
  5
50
330
1F
100
AcDbEntity
  8
0
  6
Continuous
 62
     7
370
    15
100
AcDbLine
 10
210.724259193
 20
174.2517348892
 30
0.0
 11
205.6646142458
 21
174.2517348892
 31
0.0
  0
LINE
  5
51
330
1F
100
AcDbEntity
  8
0
  6
Continuous
 62
     7
370
    15
100
AcDbLine
 10
149.6664460388
 20
111.2517348892
 30
0.0
 11
260.3056872417
 21
111.2517348892
 31
0.0
  0
LINE
  5
52
330
1F
100
AcDbEntity
  8
0
  6
Continuous
 62
     7
370
    15
100
AcDbLine
 10
136.1664460388
 20
111.2517348892
 30
0.0
 11
145.6727543966
 21
111.2517348892
 31
0.0
  0
ARC
  5
53
330
1F
100
AcDbEntity
  8
0
  6
Continuous
 62
     7
370
    15
100
AcDbCircle
 10
136.1664460388
 20
111.7517348892
 30
0.0
 40
0.5
100
AcDbArc
 50
180.0
 51
270.0
  0
ARC
  5
54
330
1F
100
AcDbEntity
  8
0
  6
Continuous
 62
     7
370
    15
100
AcDbCircle
 10
136.1664460388
 20
173.7517348892
 30
0.0
 40
0.5
100
AcDbArc
 50
90.0
 51
180.0
  0
LWPOLYLINE
  5
55
330
1F
100
AcDbEntity
  8
0
  6
Continuous
 62
     7
370
    15
100
AcDbPolyline
 90
        3
 70
   128
 43
0.0
 10
135.4664460388
 20
120.2119146103
 10
135.5919009823
 20
120.1436124953
 10
135.6664460388
 20
120.0908747372
  0
ARC
  5
56
330
1F
100
AcDbEntity
  8
0
  6
Continuous
 62
     7
370
    15
100
AcDbCircle
 10
135.0522324764
 20
166.2017348892
 30
0.0
 40
1.000000000000011
100
AcDbArc
 50
225.0
 51
307.8947985337
  0
ARC
  5
57
330
1F
100
AcDbEntity
  8
0
  6
Continuous
 62
     7
370
    15
100
AcDbCircle
 10
133.6663829497
 20
122.1266129935
 30
0.0
 40
0.2000000000000013
100
AcDbArc
 50
88.5608333333
 51
178.5608333334
  0
LINE
  5
58
330
1F
100
AcDbEntity
  8
0
  6
Continuous
 62
     7
370
    15
100
AcDbLine
 10
124.6047357446
 20
122.3542731122
 30
0.0
 11
133.4664460388
 21
122.1316361046
 31
0.0
  0
LINE
  5
59
330
1F
100
AcDbEntity
  8
0
  6
Continuous
 62
     7
370
    15
100
AcDbLine
 10
106.0323534442
 20
122.8208760006
 30
0.0
 11
115.9357595094
 21
122.5720679694
 31
0.0
  0
ARC
  5
5A
330
1F
100
AcDbEntity
  8
0
  6
Continuous
 62
     7
370
    15
100
AcDbCircle
 10
135.2664460388
 20
122.0864138393
 30
0.0
 40
0.2000000000000052
100
AcDbArc
 50
0.0
 51
88.5608333333
  0
LINE
  5
5B
330
1F
100
AcDbEntity
  8
0
  6
Continuous
 62
     7
370
    15
100
AcDbLine
 10
133.6714060608
 20
122.3265499044
 30
0.0
 11
135.2714691499
 21
122.2863507502
 31
0.0
  0
ARC
  5
5C
330
1F
100
AcDbEntity
  8
0
  6
Continuous
 62
     7
370
    15
100
AcDbCircle
 10
133.6663829497
 20
166.1768567848
 30
0.0
 40
0.2000000000000073
100
AcDbArc
 50
181.4391666667
 51
271.4391666667
  0
LINE
  5
5D
330
1F
100
AcDbEntity
  8
0
  6
Continuous
 62
     7
370
    15
100
AcDbLine
 10
133.4664460388
 20
166.1718336737
 30
0.0
 11
99.1664460388
 21
165.3100982854
 31
0.0
  0
LINE
  5
5E
330
1F
100
AcDbEntity
  8
0
  6
Continuous
 62
     7
370
    15
100
AcDbLine
 10
133.8721851879
 20
165.9819641444
 30
0.0
 11
133.6714060608
 21
165.9769198739
 31
0.0
  0
LINE
  5
5F
330
1F
100
AcDbEntity
  8
0
  6
Continuous
 62
     7
370
    15
100
AcDbLine
 10
99.1664460388
 20
165.3100982854
 30
0.0
 11
97.6664460388
 21
164.4440728817
 31
0.0
  0
LINE
  5
60
330
1F
100
AcDbEntity
  8
0
  6
Continuous
 62
     7
370
    15
100
AcDbLine
 10
134.3451256952
 20
165.494628108
 30
0.0
 11
133.8823805991
 21
165.9573732041
 31
0.0
  0
LINE
  5
61
330
1F
100
AcDbEntity
  8
0
  6
Continuous
 62
     7
370
    15
100
AcDbLine
 10
246.4972895188
 20
145.1054113553
 30
0.0
 11
246.4607287158
 21
144.8076475098
 31
0.0
  0
LINE
  5
62
330
1F
100
AcDbEntity
  8
0
  6
Continuous
 62
     7
370
    15
100
AcDbLine
 10
265.0863479642
 20
138.0272152073
 30
0.0
 11
265.6664460388
 21
142.7517348892
 31
0.0
  0
LINE
  5
63
330
1F
100
AcDbEntity
  8
0
  6
Continuous
 62
     7
370
    15
100
AcDbLine
 10
263.5088212633
 20
135.3192828333
 30
0.0
 11
263.8598049723
 21
138.17781575
 31
0.0
  0
LINE
  5
64
330
1F
100
AcDbEntity
  8
0
  6
Continuous
 62
     7
370
    15
100
AcDbLine
 10
263.1744966147
 20
135.0580797908
 30
0.0
 11
263.5088212633
 21
135.3192828333
 31
0.0
  0
SPLINE
  5
65
330
1F
100
AcDbEntity
  8
0
  6
Continuous
 62
     7
370
    15
100
AcDbSpline
210
0.0
220
0.0
230
1.0
 70
     8
 71
     3
 72
    27
 73
    23
 74
     0
 42
0.00000001
 43
0.00000001
 12
1.0
 22
0.0
 32
0.0
 13
1.0
 23
0.0
 33
0.0
 40
0.0
 40
0.0
 40
0.0
 40
0.0
 40
0.0187422485375181
 40
0.0731286462660262
 40
0.1259398386843786
 40
0.180278567167661
 40
0.2331631402420474
 40
0.2875769571498324
 40
0.3405342090022107
 40
0.3950292790404528
 40
0.4479449620878947
 40
0.5024005523578571
 40
0.5552250006529105
 40
0.609581635649527
 40
0.662407694297059
 40
0.7167605133027565
 40
0.76967835024066
 40
0.8241282288353137
 40
0.8770849500220488
 40
0.9315814921379237
 40
0.9655922495182645
 40
1.0
 40
1.0
 40
1.0
 40
1.0
 10
145.6727543966068
 20
111.2521345575488
 30
0.0
 10
145.6710653241211
 20
111.2520275707367
 30
0.0
 10
145.6644748883964
 20
111.2516101287891
 30
0.0
 10
145.7113494224863
 20
111.2545855218901
 30
0.0
 10
145.8128478193397
 20
111.2607754605022
 30
0.0
 10
145.9693157967329
 20
111.2696876207441
 30
0.0
 10
146.1744862457327
 20
111.2801753725286
 30
0.0
 10
146.4203478395544
 20
111.2909781589905
 30
0.0
 10
146.70403726054
 20
111.3010301429674
 30
0.0
 10
147.0125186564753
 20
111.3090357665516
 30
0.0
 10
147.3424426500695
 20
111.3142143488819
 30
0.0
 10
147.6783057223888
 20
111.3158972107247
 30
0.0
 10
148.0166840679302
 20
111.3139291043373
 30
0.0
 10
148.3419041508074
 20
111.3085721807676
 30
0.0
 10
148.6508314126008
 20
111.3003434524021
 30
0.0
 10
148.9293749773768
 20
111.2902972478856
 30
0.0
 10
149.1746845657912
 20
111.2793956406823
 30
0.0
 10
149.3753406275836
 20
111.2690423884626
 30
0.0
 10
149.5293845600098
 20
111.2602231387003
 30
0.0
 10
149.616836574553
 20
111.254862582561
 30
0.0
 10
149.6597100481824
 20
111.2521639560239
 30
0.0
 10
149.6641920397822
 20
111.2518784636242
 30
0.0
 10
149.6664460387869
 20
111.2517348891505
 30
0.0
  0
SPLINE
  5
66
330
1F
100
AcDbEntity
  8
0
  6
Continuous
 62
     7
370
    15
100
AcDbSpline
210
0.0
220
0.0
230
1.0
 70
     8
 71
     3
 72
    12
 73
     8
 74
     0
 42
0.00000001
 43
0.00000001
 12
1.0
 22
0.0
 32
0.0
 13
1.0
 23
0.0
 33
0.0
 40
0.0
 40
0.0
 40
0.0
 40
0.0
 40
0.5000000000000028
 40
0.5000000000000028
 40
0.7500000000000013
 40
0.7500000000000013
 40
1.0
 40
1.0
 40
1.0
 40
1.0
 10
145.7611901504611
 20
112.8509924290332
 30
0.0
 10
145.7919123923802
 20
112.8136904460802
 30
0.0
 10
145.8347496069154
 20
112.7770786140338
 30
0.0
 10
145.9341766311152
 20
112.7293138307486
 30
0.0
 10
145.9739288259318
 20
112.7143563152662
 30
0.0
 10
146.07197028279
 20
112.6911663694971
 30
0.0
 10
146.1315263383775
 20
112.6832429302774
 30
0.0
 10
146.1942028523534
 20
112.6832429302774
 30
0.0
  0
LINE
  5
67
330
1F
100
AcDbEntity
  8
0
  6
Continuous
 62
     7
370
    15
100
AcDbLine
 10
146.1942028524
 20
112.6832429303
 30
0.0
 11
149.1386892252
 21
112.6832429303
 31
0.0
  0
SPLINE
  5
68
330
1F
100
AcDbEntity
  8
0
  6
Continuous
 62
     7
370
    15
100
AcDbSpline
210
0.0
220
0.0
230
1.0
 70
     8
 71
     3
 72
    12
 73
     8
 74
     0
 42
0.00000001
 43
0.00000001
 12
1.0
 22
0.0
 32
0.0
 13
1.0
 23
0.0
 33
0.0
 40
0.0
 40
0.0
 40
0.0
 40
0.0
 40
0.2499999999999977
 40
0.2499999999999977
 40
0.4999999999999953
 40
0.4999999999999953
 40
1.0
 40
1.0
 40
1.0
 40
1.0
 10
149.1386892252205
 20
112.6832429302774
 30
0.0
 10
149.2017692637138
 20
112.6832429302774
 30
0.0
 10
149.2609178858953
 20
112.6911488564898
 30
0.0
 10
149.3593904359643
 20
112.7144740179261
 30
0.0
 10
149.398427047949
 20
112.7291868077577
 30
0.0
 10
149.4983235147281
 20
112.7771426084887
 30
0.0
 10
149.5407443957947
 20
112.8134047650687
 30
0.0
 10
149.5717019271127
 20
112.8509924290332
 30
0.0
  0
ELLIPSE
  5
69
330
1F
100
AcDbEntity
  8
0
  6
Continuous
 62
     7
370
    15
100
AcDbEllipse
 10
133.3192918494
 20
142.7517348892
 30
0.0
 11
-14.75368316065623
 21
31.09325491558113
 31
0.0
210
0.0
220
0.0
230
1.0
 40
0.3419987131
 41
3.300734856217118
 42
4.231496223360768
  0
SPLINE
  5
6A
330
1F
100
AcDbEntity
  8
0
  6
Continuous
 62
     7
370
    15
100
AcDbSpline
210
0.0
220
0.0
230
1.0
 70
     8
 71
     3
 72
    12
 73
     8
 74
     0
 42
0.00000001
 43
0.00000001
 12
1.0
 22
0.0
 32
0.0
 13
1.0
 23
0.0
 33
0.0
 40
0.0
 40
0.0
 40
0.0
 40
0.0
 40
0.5000000000000028
 40
0.5000000000000028
 40
0.7500000000000013
 40
0.7500000000000013
 40
1.0
 40
1.0
 40
1.0
 40
1.0
 10
149.5717019271127
 20
132.8423655684651
 30
0.0
 10
149.5409796851936
 20
132.9549213678742
 30
0.0
 10
149.4981424706584
 20
133.0676792276138
 30
0.0
 10
149.3987154464586
 20
133.2172201134102
 30
0.0
 10
149.358963251642
 20
133.2645128451171
 30
0.0
 10
149.2609217947838
 20
133.3382491384385
 30
0.0
 10
149.2013657391963
 20
133.3636684578142
 30
0.0
 10
149.1386892252204
 20
133.3636684578142
 30
0.0
  0
LINE
  5
6B
330
1F
100
AcDbEntity
  8
0
  6
Continuous
 62
     7
370
    15
100
AcDbLine
 10
149.1386892252
 20
133.3636684578
 30
0.0
 11
146.1942028524
 21
133.3636684578
 31
0.0
  0
SPLINE
  5
6C
330
1F
100
AcDbEntity
  8
0
  6
Continuous
 62
     7
370
    15
100
AcDbSpline
210
0.0
220
0.0
230
1.0
 70
     8
 71
     3
 72
    12
 73
     8
 74
     0
 42
0.00000001
 43
0.00000001
 12
1.0
 22
0.0
 32
0.0
 13
1.0
 23
0.0
 33
0.0
 40
0.0
 40
0.0
 40
0.0
 40
0.0
 40
0.2500000000000023
 40
0.2500000000000023
 40
0.5000000000000046
 40
0.5000000000000046
 40
1.0
 40
1.0
 40
1.0
 40
1.0
 10
146.1942028523534
 20
133.3636684578142
 30
0.0
 10
146.13112281386
 20
133.3636684578142
 30
0.0
 10
146.0719741916785
 20
133.3383041385992
 30
0.0
 10
145.9735016416095
 20
133.2641392782263
 30
0.0
 10
145.9344650296248
 20
133.2176189376722
 30
0.0
 10
145.8345685628457
 20
133.0674765948269
 30
0.0
 10
145.7921476817791
 20
132.9557833878548
 30
0.0
 10
145.7611901504611
 20
132.842365568465
 30
0.0
  0
ELLIPSE
  5
6D
330
1F
100
AcDbEntity
  8
0
  6
Continuous
 62
     7
370
    15
100
AcDbEllipse
 10
162.0136002281
 20
142.7517348892
 30
0.0
 11
14.75368316065618
 21
31.09325491558119
 31
0.0
210
0.0
220
0.0
230
1.0
 40
0.3419987131
 41
2.051689083818828
 42
2.982450450962502
  0
SPLINE
  5
6E
330
1F
100
AcDbEntity
  8
0
  6
Continuous
 62
     7
370
    15
100
AcDbSpline
210
0.0
220
0.0
230
1.0
 70
     8
 71
     3
 72
    12
 73
     8
 74
     0
 42
0.00000001
 43
0.00000001
 12
1.0
 22
0.0
 32
0.0
 13
1.0
 23
0.0
 33
0.0
 40
0.0
 40
0.0
 40
0.0
 40
0.0
 40
0.499999999999999
 40
0.499999999999999
 40
0.7499999999999994
 40
0.7499999999999994
 40
1.0
 40
1.0
 40
1.0
 40
1.0
 10
145.7611901504611
 20
152.6611042098359
 30
0.0
 10
145.7923353484232
 20
152.5469988439706
 30
0.0
 10
145.8346096147577
 20
152.4358925167518
 30
0.0
 10
145.934555148583
 20
152.2857349093215
 30
0.0
 10
145.9742854532871
 20
152.2387422177042
 30
0.0
 10
146.0711735032932
 20
152.1657666331657
 30
0.0
 10
146.1312387450398
 20
152.1398013204867
 30
0.0
 10
146.1942028523533
 20
152.1398013204866
 30
0.0
  0
LINE
  5
6F
330
1F
100
AcDbEntity
  8
0
  6
Continuous
 62
     7
370
    15
100
AcDbLine
 10
146.1942028524
 20
152.1398013205
 30
0.0
 11
149.1386892252
 21
152.1398013205
 31
0.0
  0
SPLINE
  5
70
330
1F
100
AcDbEntity
  8
0
  6
Continuous
 62
     7
370
    15
100
AcDbSpline
210
0.0
220
0.0
230
1.0
 70
     8
 71
     3
 72
    12
 73
     8
 74
     0
 42
0.00000001
 43
0.00000001
 12
1.0
 22
0.0
 32
0.0
 13
1.0
 23
0.0
 33
0.0
 40
0.0
 40
0.0
 40
0.0
 40
0.0
 40
0.2500000000000009
 40
0.2500000000000009
 40
0.5000000000000019
 40
0.5000000000000019
 40
1.0
 40
1.0
 40
1.0
 40
1.0
 10
149.1386892252204
 20
152.1398013204868
 30
0.0
 10
149.2017461801182
 20
152.1398013204868
 30
0.0
 10
149.2608763298638
 20
152.1651476738674
 30
0.0
 10
149.3593238803971
 20
152.2392670560069
 30
0.0
 10
149.3983561185852
 20
152.2857635707049
 30
0.0
 10
149.4982460030422
 20
152.4358380777135
 30
0.0
 10
149.5405449766515
 20
152.5469557868284
 30
0.0
 10
149.5717019271127
 20
152.6611042098359
 30
0.0
  0
ELLIPSE
  5
71
330
1F
100
AcDbEntity
  8
0
  6
Continuous
 62
     7
370
    15
100
AcDbEllipse
 10
133.3192918494
 20
142.7517348892
 30
0.0
 11
14.75368316065615
 21
31.09325491558116
 31
0.0
210
0.0
220
0.0
230
1.0
 40
0.3419987131
 41
5.19328173740863
 42
6.124043104552335
  0
SPLINE
  5
72
330
1F
100
AcDbEntity
  8
0
  6
Continuous
 62
     7
370
    15
100
AcDbSpline
210
0.0
220
0.0
230
1.0
 70
     8
 71
     3
 72
    12
 73
     8
 74
     0
 42
0.00000001
 43
0.00000001
 12
1.0
 22
0.0
 32
0.0
 13
1.0
 23
0.0
 33
0.0
 40
0.0
 40
0.0
 40
0.0
 40
0.0
 40
0.4999999999999964
 40
0.4999999999999964
 40
0.7499999999999982
 40
0.7499999999999982
 40
1.0
 40
1.0
 40
1.0
 40
1.0
 10
149.5717019271127
 20
172.6524773492678
 30
0.0
 10
149.5405567291506
 20
172.690292872188
 30
0.0
 10
149.4982824628161
 20
172.7263597302716
 30
0.0
 10
149.3983369289908
 20
172.7743197952828
 30
0.0
 10
149.3586066242868
 20
172.7891807691805
 30
0.0
 10
149.2617185742805
 20
172.8121319153116
 30
0.0
 10
149.201653332534
 20
172.8202268480237
 30
0.0
 10
149.1386892252205
 20
172.8202268480237
 30
0.0
  0
LINE
  5
73
330
1F
100
AcDbEntity
  8
0
  6
Continuous
 62
     7
370
    15
100
AcDbLine
 10
149.1386892252
 20
172.820226848
 30
0.0
 11
146.1942028524
 21
172.820226848
 31
0.0
  0
SPLINE
  5
74
330
1F
100
AcDbEntity
  8
0
  6
Continuous
 62
     7
370
    15
100
AcDbSpline
210
0.0
220
0.0
230
1.0
 70
     8
 71
     3
 72
    12
 73
     8
 74
     0
 42
0.00000001
 43
0.00000001
 12
1.0
 22
0.0
 32
0.0
 13
1.0
 23
0.0
 33
0.0
 40
0.0
 40
0.0
 40
0.0
 40
0.0
 40
0.25
 40
0.25
 40
0.5
 40
0.5
 40
1.0
 40
1.0
 40
1.0
 40
1.0
 10
146.1942028523533
 20
172.8202268480237
 30
0.0
 10
146.1311458974555
 20
172.8202268480237
 30
0.0
 10
146.07201574771
 20
172.812326516944
 30
0.0
 10
145.9735681971767
 20
172.789015768939
 30
0.0
 10
145.9345359589886
 20
172.7743106426554
 30
0.0
 10
145.8346460745317
 20
172.7263771144688
 30
0.0
 10
145.7923471009223
 20
172.6903071417041
 30
0.0
 10
145.7611901504611
 20
172.6524773492679
 30
0.0
  0
ELLIPSE
  5
75
330
1F
100
AcDbEntity
  8
0
  6
Continuous
 62
     7
370
    15
100
AcDbEllipse
 10
162.0136002281
 20
142.7517348892
 30
0.0
 11
-14.75368316065615
 21
31.09325491558118
 31
0.0
210
0.0
220
0.0
230
1.0
 40
0.3419987131
 41
0.1591422026272962
 42
1.089903569770968
  0
SPLINE
  5
76
330
1F
100
AcDbEntity
  8
0
  6
Continuous
 62
     7
370
    15
100
AcDbSpline
210
0.0
220
0.0
230
1.0
 70
     8
 71
     3
 72
    68
 73
    64
 74
     0
 42
0.00000001
 43
0.00000001
 12
1.0
 22
0.0
 32
0.0
 13
1.0
 23
0.0
 33
0.0
 40
-0.0625
 40
-0.0625
 40
0.0
 40
0.0
 40
0.03125
 40
0.03125
 40
0.0625
 40
0.0625
 40
0.0937499999999999
 40
0.0937499999999999
 40
0.125
 40
0.125
 40
0.1562500000000001
 40
0.1562500000000001
 40
0.1875000000000001
 40
0.1875000000000001
 40
0.2187500000000002
 40
0.2187500000000002
 40
0.2500000000000002
 40
0.2500000000000002
 40
0.2812500000000003
 40
0.2812500000000003
 40
0.3125000000000003
 40
0.3125000000000003
 40
0.3437500000000003
 40
0.3437500000000003
 40
0.3750000000000003
 40
0.3750000000000003
 40
0.4062500000000004
 40
0.4062500000000004
 40
0.4375000000000004
 40
0.4375000000000004
 40
0.4687500000000003
 40
0.4687500000000003
 40
0.5000000000000003
 40
0.5000000000000003
 40
0.5312500000000003
 40
0.5312500000000003
 40
0.5625000000000003
 40
0.5625000000000003
 40
0.5937500000000002
 40
0.5937500000000002
 40
0.6250000000000002
 40
0.6250000000000002
 40
0.6562500000000002
 40
0.6562500000000002
 40
0.6875000000000002
 40
0.6875000000000002
 40
0.7187500000000002
 40
0.7187500000000002
 40
0.7500000000000001
 40
0.7500000000000001
 40
0.7812500000000001
 40
0.7812500000000001
 40
0.8125000000000001
 40
0.8125000000000001
 40
0.8437500000000001
 40
0.8437500000000001
 40
0.8750000000000001
 40
0.8750000000000001
 40
0.9062500000000001
 40
0.9062500000000001
 40
0.9375
 40
0.9375
 40
1.0
 40
1.0
 40
1.03125
 40
1.03125
 10
236.1331700945056
 20
111.6232009945938
 30
0.0
 10
236.1509430607216
 20
111.7679501885089
 30
0.0
 10
236.1844918140233
 20
111.8189621881245
 30
0.0
 10
236.3030219533727
 20
111.9258420157095
 30
0.0
 10
236.3892052071375
 20
111.9822876294666
 30
0.0
 10
236.6092799356911
 20
112.0962547656796
 30
0.0
 10
236.7418988207127
 20
112.1533812145213
 30
0.0
 10
237.0509820353848
 20
112.2663631585668
 30
0.0
 10
237.2293164474798
 20
112.3226277480073
 30
0.0
 10
237.6175329428912
 20
112.4277672425646
 30
0.0
 10
237.8282911424279
 20
112.4771077522376
 30
0.0
 10
238.2839449033336
 20
112.5671727834981
 30
0.0
 10
238.5291473172157
 20
112.6077206005202
 30
0.0
 10
239.0339998074725
 20
112.6745495205114
 30
0.0
 10
239.2960735923892
 20
112.7013735363476
 30
0.0
 10
239.8408135557304
 20
112.7396432334733
 30
0.0
 10
240.1190751355174
 20
112.7506062194745
 30
0.0
 10
240.6721582368839
 20
112.7550822673142
 30
0.0
 10
240.9510751964765
 20
112.7486696177337
 30
0.0
 10
241.5023607055838
 20
112.7181699285063
 30
0.0
 10
241.7684244268345
 20
112.6945565304143
 30
0.0
 10
242.2819548174963
 20
112.6322587932076
 30
0.0
 10
242.5316495274459
 20
112.5930131655911
 30
0.0
 10
242.9916431246702
 20
112.5042941789143
 30
0.0
 10
243.2041069140622
 20
112.4547224561693
 30
0.0
 10
243.5941690413252
 20
112.3473933092945
 30
0.0
 10
243.7686363001226
 20
112.2903639195706
 30
0.0
 10
244.0693296066912
 20
112.174966057715
 30
0.0
 10
244.1980393492379
 20
112.1156345182644
 30
0.0
 10
244.4044868786537
 20
111.9989115086375
 30
0.0
 10
244.4815186348772
 20
111.9421881979105
 30
0.0
 10
244.5846536032846
 20
111.8330767032739
 30
0.0
 10
244.6103673436458
 20
111.7802903602535
 30
0.0
 10
244.6076751687942
 20
111.6836405270159
 30
0.0
 10
244.5801072528017
 20
111.6393079267921
 30
0.0
 10
244.4717148649749
 20
111.5583089346452
 30
0.0
 10
244.3904684655627
 20
111.5219360876065
 30
0.0
 10
244.1807499925137
 20
111.4589129426146
 30
0.0
 10
244.05180713821
 20
111.4318145168344
 30
0.0
 10
243.7434398987198
 20
111.3850443201199
 30
0.0
 10
243.5687713538916
 20
111.3660906772174
 30
0.0
 10
243.1809848276468
 20
111.3347831625655
 30
0.0
 10
242.9652207387634
 20
111.3223234409814
 30
0.0
 10
242.5047535658622
 20
111.3027417400945
 30
0.0
 10
242.2619608959634
 20
111.295603686339
 30
0.0
 10
241.7515518590364
 20
111.2847715387734
 30
0.0
 10
241.4815766453694
 20
111.2810849732736
 30
0.0
 10
240.9384303677218
 20
111.2763022897948
 30
0.0
 10
240.6630638080205
 20
111.2751375088063
 30
0.0
 10
240.1045977763403
 20
111.2748259316936
 30
0.0
 10
239.8241284646682
 20
111.2757033944505
 30
0.0
 10
239.2792325395154
 20
111.2797799862027
 30
0.0
 10
239.0110240148293
 20
111.282989368565
 30
0.0
 10
238.4900021287731
 20
111.2929542142197
 30
0.0
 10
238.2438666912581
 20
111.2995811990278
 30
0.0
 10
237.7796302960465
 20
111.317794794159
 30
0.0
 10
237.5592964786286
 20
111.3295731442352
 30
0.0
 10
237.1635146711028
 20
111.3596207486826
 30
0.0
 10
236.9872638849741
 20
111.3778176394345
 30
0.0
 10
236.6783760040279
 20
111.4227626868845
 30
0.0
 10
236.5464009028466
 20
111.4496706584391
 30
0.0
 10
236.2354139393397
 20
111.5425026828492
 30
0.0
 10
236.1331700945056
 20
111.6232009945938
 30
0.0
 10
236.1509430607216
 20
111.7679501885089
 30
0.0
  0
SPLINE
  5
77
330
1F
100
AcDbEntity
  8
0
  6
Continuous
 62
     7
370
    15
100
AcDbSpline
210
0.0
220
0.0
230
1.0
 70
     8
 71
     3
 72
    12
 73
     8
 74
     0
 42
0.00000001
 43
0.00000001
 12
1.0
 22
0.0
 32
0.0
 13
1.0
 23
0.0
 33
0.0
 40
0.0
 40
0.0
 40
0.0
 40
0.0
 40
0.2141747890913922
 40
0.428325998981826
 40
0.6430886615499612
 40
0.8582535777417943
 40
1.0
 40
1.0
 40
1.0
 40
1.0
 10
202.6664460387869
 20
174.1085523297008
 30
0.0
 10
202.3301396609816
 20
174.1117845554222
 30
0.0
 10
201.6575639304367
 20
174.1182486510186
 30
0.0
 10
200.7585883854843
 20
174.163636486199
 30
0.0
 10
200.0857935025504
 20
174.2128481615006
 30
0.0
 10
199.7026159457414
 20
174.2482509521579
 30
0.0
 10
199.7039756968339
 20
174.2481734444234
 30
0.0
 10
199.7045157184913
 20
174.2481426624255
 30
0.0
  0
LINE
  5
78
330
1F
100
AcDbEntity
  8
0
  6
Continuous
 62
     7
370
    15
100
AcDbLine
 10
202.5006725574
 20
174.111169807
 30
0.0
 11
203.3318669273
 21
174.115759546
 31
0.0
  0
SPLINE
  5
79
330
1F
100
AcDbEntity
  8
0
  6
Continuous
 62
     7
370
    15
100
AcDbSpline
210
0.0
220
0.0
230
1.0
 70
     8
 71
     3
 72
    13
 73
     9
 74
     0
 42
0.00000001
 43
0.00000001
 12
1.0
 22
0.0
 32
0.0
 13
1.0
 23
0.0
 33
0.0
 40
0.0
 40
0.0
 40
0.0
 40
0.0
 40
0.0023487427557759
 40
0.2161447202157633
 40
0.4299226567237537
 40
0.6445342926370066
 40
0.8595427887072575
 40
0.9999999999999999
 40
0.9999999999999999
 40
0.9999999999999999
 40
0.9999999999999999
 10
205.6646142457737
 20
174.2515651560154
 30
0.0
 10
205.6652244026966
 20
174.2516216875379
 30
0.0
 10
205.7213745268735
 20
174.2568240410503
 30
0.0
 10
205.5231125121176
 20
174.2378659926489
 30
0.0
 10
205.0579742408808
 20
174.1975433958214
 30
0.0
 10
204.2836479941886
 20
174.1464203998678
 30
0.0
 10
203.4439851541692
 20
174.1134892375128
 30
0.0
 10
202.8866636809028
 20
174.1099505798675
 30
0.0
 10
202.6664460387869
 20
174.1085523297008
 30
0.0
  0
LINE
  5
7A
330
1F
100
AcDbEntity
  8
0
  6
Continuous
 62
     7
370
    15
100
AcDbLine
 10
216.6189921373
 20
152.2522920437
 30
0.0
 11
210.724259193
 21
174.2517348892
 31
0.0
  0
SPLINE
  5
7B
330
1F
100
AcDbEntity
  8
0
  6
Continuous
 62
     7
370
    15
100
AcDbSpline
210
0.0
220
0.0
230
1.0
 70
     8
 71
     3
 72
    20
 73
    16
 74
     0
 42
0.00000001
 43
0.00000001
 12
1.0
 22
0.0
 32
0.0
 13
1.0
 23
0.0
 33
0.0
 40
0.0
 40
0.0
 40
0.0
 40
0.0
 40
0.2500000000000038
 40
0.2500000000000038
 40
0.3750000000000031
 40
0.3750000000000031
 40
0.5000000000000023
 40
0.5000000000000023
 40
0.6250000000000016
 40
0.6250000000000016
 40
0.7500000000000008
 40
0.7500000000000008
 40
0.8750000000000004
 40
0.8750000000000004
 40
1.0
 40
1.0
 40
1.0
 40
1.0
 10
221.6833310346345
 20
147.8499294044397
 30
0.0
 10
221.0809862249389
 20
147.9238880474103
 30
0.0
 10
220.5053176025253
 20
148.085277249399
 30
0.0
 10
219.6812231354644
 20
148.4554748656533
 30
0.0
 10
219.41535784476
 20
148.6000538625087
 30
0.0
 10
218.9144972593779
 20
148.9227479833736
 30
0.0
 10
218.6773738910662
 20
149.1017759718619
 30
0.0
 10
218.2299090506259
 20
149.4950410065795
 30
0.0
 10
218.0189937814957
 20
149.7105199599588
 30
0.0
 10
217.6378635995308
 20
150.1623173431211
 30
0.0
 10
217.4657170803148
 20
150.4000768615305
 30
0.0
 10
217.1575267839025
 20
150.8983931876915
 30
0.0
 10
217.0208105342669
 20
151.1607698022321
 30
0.0
 10
216.7893066432207
 20
151.6975753189479
 30
0.0
 10
216.6940825033752
 20
151.9720509824364
 30
0.0
 10
216.6189921373309
 20
152.2522920436726
 30
0.0
  0
LINE
  5
7C
330
1F
100
AcDbEntity
  8
0
  6
Continuous
 62
     7
370
    15
100
AcDbLine
 10
227.7130837803
 20
147.1095688612
 30
0.0
 11
221.6833310346
 21
147.8499294044
 31
0.0
  0
ELLIPSE
  5
7D
330
1F
100
AcDbEntity
  8
0
  6
Continuous
 62
     7
370
    15
100
AcDbEllipse
 10
264.6364792921
 20
142.7517348892
 30
0.0
 11
37.25794262914866
 21
9.38056116452222
 31
0.0
210
0.0
220
0.0
230
1.0
 40
0.8070986244
 41
2.700420934188885
 42
4.397762456850354
  0
LINE
  5
7E
330
1F
100
AcDbEntity
  8
0
  6
Continuous
 62
     7
370
    15
100
AcDbLine
 10
260.3056872417
 20
111.2517348892
 30
0.0
 11
260.3059771476
 21
111.2540959828
 31
0.0
  0
LINE
  5
7F
330
1F
100
AcDbEntity
  8
0
  6
Continuous
 62
     7
370
    15
100
AcDbLine
 10
135.6664460388
 20
142.7517348892
 30
0.0
 11
135.6664460388
 21
173.7517348892
 31
0.0
  0
LINE
  5
80
330
1F
100
AcDbEntity
  8
0
  6
Continuous
 62
     7
370
    15
100
AcDbLine
 10
135.6664460388
 20
111.7517348892
 30
0.0
 11
135.6664460388
 21
142.7517348892
 31
0.0
  0
LINE
  5
81
330
1F
100
AcDbEntity
  8
0
  6
Continuous
 62
     7
370
    15
100
AcDbLine
 10
255.4276558968
 20
143.7066472933
 30
0.0
 11
227.7130837803
 21
147.1095688612
 31
0.0
  0
LINE
  5
82
330
1F
100
AcDbEntity
  8
0
  6
Continuous
 62
     7
370
    15
100
AcDbLine
 10
255.4276558968
 20
143.7066472933
 30
0.0
 11
254.8548699828
 21
139.0416803804
 31
0.0
  0
LINE
  5
83
330
1F
100
AcDbEntity
  8
0
  6
Continuous
 62
     7
370
    15
100
AcDbLine
 10
254.8548699828
 20
139.0416803804
 30
0.0
 11
255.2409019072
 21
138.9942816201
 31
0.0
  0
LINE
  5
84
330
1F
100
AcDbEntity
  8
0
  6
Continuous
 62
     7
370
    15
100
AcDbLine
 10
255.2409019072
 20
138.9942816201
 30
0.0
 11
254.8826060376
 21
136.0761959344
 31
0.0
  0
LINE
  5
85
330
1F
100
AcDbEntity
  8
0
  6
Continuous
 62
     7
370
    15
100
AcDbLine
 10
263.2279332341
 20
135.051518599
 30
0.0
 11
254.8826060376
 21
136.0761959344
 31
0.0
  0
LINE
  5
86
330
1F
100
AcDbEntity
  8
0
  6
Continuous
 62
     7
370
    15
100
AcDbLine
 10
260.3059771476
 20
111.2540959828
 30
0.0
 11
263.2279332341
 21
135.051518599
 31
0.0
  0
LINE
  5
87
330
1F
100
AcDbEntity
  8
0
  6
Continuous
 62
     7
370
    15
100
AcDbLine
 10
135.4664460388
 20
125.9615335354
 30
0.0
 11
135.4664460388
 21
120.2119146103
 31
0.0
  0
SPLINE
  5
88
330
1F
100
AcDbEntity
  8
0
  6
Continuous
 62
     7
370
    15
100
AcDbSpline
210
0.0
220
0.0
230
1.0
 70
     8
 71
     3
 72
    16
 73
    12
 74
     0
 42
0.00000001
 43
0.00000001
 12
1.0
 22
0.0
 32
0.0
 13
1.0
 23
0.0
 33
0.0
 40
0.0
 40
0.0
 40
0.0
 40
0.0
 40
0.4999999999999901
 40
0.4999999999999901
 40
0.7499999999999878
 40
0.7499999999999878
 40
0.8749999999999939
 40
0.8749999999999939
 40
0.937499999999997
 40
0.937499999999997
 40
1.0
 40
1.0
 40
1.0
 40
1.0
 10
135.4664460387869
 20
125.9615335354094
 30
0.0
 10
135.4664460387869
 20
126.0413572463899
 30
0.0
 10
135.4622997637089
 20
126.123213364274
 30
0.0
 10
135.4363341683154
 20
126.2520284853579
 30
0.0
 10
135.424873262938
 20
126.2968191570595
 30
0.0
 10
135.3905615251637
 20
126.3629499647909
 30
0.0
 10
135.376536789234
 20
126.3857970229939
 30
0.0
 10
135.3405138262002
 20
126.4122277762362
 30
0.0
 10
135.3257593171105
 20
126.4186554453784
 30
0.0
 10
135.2964071559636
 20
126.4216163685336
 30
0.0
 10
135.2830672814596
 20
126.4186349770254
 30
0.0
 10
135.2714691499112
 20
126.4138919893442
 30
0.0
  0
SPLINE
  5
89
330
1F
100
AcDbEntity
  8
0
  6
Continuous
 62
     7
370
    15
100
AcDbSpline
210
0.0
220
0.0
230
1.0
 70
     8
 71
     3
 72
    12
 73
     8
 74
     0
 42
0.00000001
 43
0.00000001
 12
1.0
 22
0.0
 32
0.0
 13
1.0
 23
0.0
 33
0.0
 40
0.0
 40
0.0
 40
0.0
 40
0.0
 40
0.2499999999999994
 40
0.2499999999999994
 40
0.4999999999999989
 40
0.4999999999999989
 40
1.0
 40
1.0
 40
1.0
 40
1.0
 10
135.2714691499183
 20
126.4138919893388
 30
0.0
 10
135.2412773082011
 20
126.4015452132442
 30
0.0
 10
135.2079183387865
 20
126.3910475267744
 30
0.0
 10
135.1347810542059
 20
126.3776264721952
 30
0.0
 10
135.0945391815519
 20
126.3750160609482
 30
0.0
 10
134.9768334045834
 20
126.3829865136904
 30
0.0
 10
134.9064229268041
 20
126.4080742713082
 30
0.0
 10
134.8499337523357
 20
126.4373639136365
 30
0.0
  0
SPLINE
  5
8A
330
1F
100
AcDbEntity
  8
0
  6
Continuous
 62
     7
370
    15
100
AcDbSpline
210
0.0
220
0.0
230
1.0
 70
     8
 71
     3
 72
    12
 73
     8
 74
     0
 42
0.00000001
 43
0.00000001
 12
1.0
 22
0.0
 32
0.0
 13
1.0
 23
0.0
 33
0.0
 40
0.0
 40
0.0
 40
0.0
 40
0.0
 40
0.2500000000000005
 40
0.2500000000000005
 40
0.5000000000000009
 40
0.5000000000000009
 40
1.0
 40
1.0
 40
1.0
 40
1.0
 10
134.8499337523353
 20
126.4373639136363
 30
0.0
 10
134.7617798145976
 20
126.483071738728
 30
0.0
 10
134.7014263899688
 20
126.5384889770473
 30
0.0
 10
134.595164431902
 20
126.6567817041026
 30
0.0
 10
134.5529322653399
 20
126.7185768195114
 30
0.0
 10
134.4418615700228
 20
126.9099974460264
 30
0.0
 10
134.388924793596
 20
127.0457441109119
 30
0.0
 10
134.3451256952272
 20
127.1885336447256
 30
0.0
  0
SPLINE
  5
8B
330
1F
100
AcDbEntity
  8
0
  6
Continuous
 62
     7
370
    15
100
AcDbSpline
210
0.0
220
0.0
230
1.0
 70
     8
 71
     3
 72
    12
 73
     8
 74
     0
 42
0.00000001
 43
0.00000001
 12
1.0
 22
0.0
 32
0.0
 13
1.0
 23
0.0
 33
0.0
 40
0.0
 40
0.0
 40
0.0
 40
0.0
 40
0.5
 40
0.5
 40
0.75
 40
0.75
 40
1.0
 40
1.0
 40
1.0
 40
1.0
 10
134.3451256952272
 20
136.1712510790492
 30
0.0
 10
134.3888722360638
 20
136.4104250060958
 30
0.0
 10
134.4417565912953
 20
136.6478678610117
 30
0.0
 10
134.5533236786315
 20
136.9967058974273
 30
0.0
 10
134.5959072751744
 20
137.1116148050378
 30
0.0
 10
134.7008240022562
 20
137.3314972499479
 30
0.0
 10
134.762357610101
 20
137.4398581709623
 30
0.0
 10
134.8499337523272
 20
137.5268637585614
 30
0.0
  0
SPLINE
  5
8C
330
1F
100
AcDbEntity
  8
0
  6
Continuous
 62
     7
370
    15
100
AcDbSpline
210
0.0
220
0.0
230
1.0
 70
     8
 71
     3
 72
    12
 73
     8
 74
     0
 42
0.00000001
 43
0.00000001
 12
1.0
 22
0.0
 32
0.0
 13
1.0
 23
0.0
 33
0.0
 40
0.0
 40
0.0
 40
0.0
 40
0.0
 40
0.5000000000000006
 40
0.5000000000000006
 40
0.7500000000000002
 40
0.7500000000000002
 40
1.0
 40
1.0
 40
1.0
 40
1.0
 10
134.8499337523304
 20
137.5268637585615
 30
0.0
 10
134.9063702532376
 20
137.5829325782034
 30
0.0
 10
134.9754548839263
 20
137.6300452569577
 30
0.0
 10
135.0942571556443
 20
137.6413657034535
 30
0.0
 10
135.1344424311143
 20
137.634364812962
 30
0.0
 10
135.2078234785182
 20
137.6041535163032
 30
0.0
 10
135.2412330422608
 20
137.5815747059216
 30
0.0
 10
135.2714691499172
 20
137.5554873845675
 30
0.0
  0
SPLINE
  5
8D
330
1F
100
AcDbEntity
  8
0
  6
Continuous
 62
     7
370
    15
100
AcDbSpline
210
0.0
220
0.0
230
1.0
 70
     8
 71
     3
 72
    16
 73
    12
 74
     0
 42
0.00000001
 43
0.00000001
 12
1.0
 22
0.0
 32
0.0
 13
1.0
 23
0.0
 33
0.0
 40
0.0
 40
0.0
 40
0.0
 40
0.0
 40
0.0625000000000023
 40
0.0625000000000023
 40
0.1250000000000046
 40
0.1250000000000046
 40
0.250000000000004
 40
0.250000000000004
 40
0.5000000000000027
 40
0.5000000000000027
 40
1.0
 40
1.0
 40
1.0
 40
1.0
 10
135.2714691498801
 20
137.5554873845105
 30
0.0
 10
135.283049557468
 20
137.5454959591007
 30
0.0
 10
135.2963590842293
 20
137.537238552719
 30
0.0
 10
135.3256605143154
 20
137.5314892679068
 30
0.0
 10
135.3404746141997
 20
137.535099566615
 30
0.0
 10
135.3763030159026
 20
137.5580200258977
 30
0.0
 10
135.3904226402656
 20
137.5838155341432
 30
0.0
 10
135.4249267843541
 20
137.6619705585622
 30
0.0
 10
135.4360313350587
 20
137.7181134012982
 30
0.0
 10
135.4622075122749
 20
137.889019456832
 30
0.0
 10
135.4664460387869
 20
138.0062345494108
 30
0.0
 10
135.4664460387869
 20
138.1237991486325
 30
0.0
  0
LINE
  5
8E
330
1F
100
AcDbEntity
  8
0
  6
Continuous
 62
     7
370
    15
100
AcDbLine
 10
135.4664460388
 20
164.1698719834
 30
0.0
 11
135.4664460388
 21
138.1237991486
 31
0.0
  0
SPLINE
  5
8F
330
1F
100
AcDbEntity
  8
0
  6
Continuous
 62
     7
370
    15
100
AcDbSpline
210
0.0
220
0.0
230
1.0
 70
     8
 71
     3
 72
    16
 73
    12
 74
     0
 42
0.00000001
 43
0.00000001
 12
1.0
 22
0.0
 32
0.0
 13
1.0
 23
0.0
 33
0.0
 40
0.0
 40
0.0
 40
0.0
 40
0.0
 40
0.500000000000004
 40
0.500000000000004
 40
0.7500000000000026
 40
0.7500000000000026
 40
0.8750000000000018
 40
0.8750000000000018
 40
0.9375000000000009
 40
0.9375000000000009
 40
1.0
 40
1.0
 40
1.0
 40
1.0
 10
135.4664460387869
 20
164.1698719834097
 30
0.0
 10
135.4664460387869
 20
164.2071458243199
 30
0.0
 10
135.4622997637089
 20
164.2414419163385
 30
0.0
 10
135.4363341683154
 20
164.2835401054748
 30
0.0
 10
135.424873262938
 20
164.2964537470395
 30
0.0
 10
135.3905615251637
 20
164.3081655977791
 30
0.0
 10
135.3765367892341
 20
164.3111790296353
 30
0.0
 10
135.3405138262002
 20
164.3078815668594
 30
0.0
 10
135.3257593171106
 20
164.3050600818716
 30
0.0
 10
135.2964071559637
 20
164.2963783408802
 30
0.0
 10
135.2830672814596
 20
164.2910890232731
 30
0.0
 10
135.2714691499113
 20
164.2858252935474
 30
0.0
  0
SPLINE
  5
90
330
1F
100
AcDbEntity
  8
0
  6
Continuous
 62
     7
370
    15
100
AcDbSpline
210
0.0
220
0.0
230
1.0
 70
     8
 71
     3
 72
    12
 73
     8
 74
     0
 42
0.00000001
 43
0.00000001
 12
1.0
 22
0.0
 32
0.0
 13
1.0
 23
0.0
 33
0.0
 40
0.0
 40
0.0
 40
0.0
 40
0.0
 40
0.2499999999999999
 40
0.2499999999999999
 40
0.4999999999999998
 40
0.4999999999999998
 40
1.0
 40
1.0
 40
1.0
 40
1.0
 10
135.2714691499183
 20
164.2858252935425
 30
0.0
 10
135.2412707084777
 20
164.2721199451231
 30
0.0
 10
135.2079033531417
 20
164.2600723396727
 30
0.0
 10
135.1347480773118
 20
164.243312351443
 30
0.0
 10
135.0944953782878
 20
164.2389034619021
 30
0.0
 10
134.976766635013
 20
164.2418332269997
 30
0.0
 10
134.906308186954
 20
164.2641999872554
 30
0.0
 10
134.8499337523357
 20
164.290976995261
 30
0.0
  0
SPLINE
  5
91
330
1F
100
AcDbEntity
  8
0
  6
Continuous
 62
     7
370
    15
100
AcDbSpline
210
0.0
220
0.0
230
1.0
 70
     8
 71
     3
 72
    12
 73
     8
 74
     0
 42
0.00000001
 43
0.00000001
 12
1.0
 22
0.0
 32
0.0
 13
1.0
 23
0.0
 33
0.0
 40
0.0
 40
0.0
 40
0.0
 40
0.0
 40
0.4999999999999984
 40
0.4999999999999984
 40
0.7499999999999992
 40
0.7499999999999992
 40
1.0
 40
1.0
 40
1.0
 40
1.0
 10
134.3451256952272
 20
164.8954199436769
 30
0.0
 10
134.3888760471117
 20
164.7988557959184
 30
0.0
 10
134.4417661982361
 20
164.6972315327328
 30
0.0
 10
134.5533777413778
 20
164.5404770685497
 30
0.0
 10
134.5959370852813
 20
164.4876104988761
 30
0.0
 10
134.7009143206188
 20
164.3844543845618
 30
0.0
 10
134.7624815637134
 20
164.3325154686969
 30
0.0
 10
134.8499337523357
 20
164.290976995261
 30
0.0
  0
SPLINE
  5
92
330
1F
100
AcDbEntity
  8
0
  6
Continuous
 62
     7
370
    15
100
AcDbSpline
210
0.0
220
0.0
230
1.0
 70
     8
 71
     3
 72
    16
 73
    12
 74
     0
 42
0.00000001
 43
0.00000001
 12
1.0
 22
0.0
 32
0.0
 13
1.0
 23
0.0
 33
0.0
 40
0.0
 40
0.0
 40
0.0
 40
0.0
 40
0.2500000000000002
 40
0.2500000000000002
 40
0.375
 40
0.375
 40
0.4999999999999998
 40
0.4999999999999998
 40
0.7499999999999999
 40
0.7499999999999999
 40
1.0
 40
1.0
 40
1.0
 40
1.0
 10
134.3451256952272
 20
127.1885336447256
 30
0.0
 10
134.1838932177428
 20
127.7141679877386
 30
0.0
 10
134.0634133781031
 20
128.3069995152975
 30
0.0
 10
133.9410328607898
 20
129.2967712064224
 30
0.0
 10
133.9100552003924
 20
129.6435748522467
 30
0.0
 10
133.8684414627644
 20
130.3725634514868
 30
0.0
 10
133.8582055498316
 20
130.747838403576
 30
0.0
 10
133.8580171527755
 20
131.904038449796
 30
0.0
 10
133.8981618554131
 20
132.7153944625957
 30
0.0
 10
134.0623156103527
 20
134.4212387083836
 30
0.0
 10
134.1838672607622
 20
135.2896085010805
 30
0.0
 10
134.3451256952272
 20
136.1712510790492
 30
0.0
  0
LINE
  5
93
330
1F
100
AcDbEntity
  8
0
  6
Continuous
 62
     7
370
    15
100
AcDbLine
 10
99.1664460388
 20
137.5268637586
 30
0.0
 11
99.1664460388
 21
163.6878506581
 31
0.0
  0
LINE
  5
94
330
1F
100
AcDbEntity
  8
0
  6
Continuous
 62
     7
370
    15
100
AcDbLine
 10
133.4664460388
 20
137.5268637586
 30
0.0
 11
133.4664460388
 21
164.4341353957
 31
0.0
  0
LINE
  5
95
330
1F
100
AcDbEntity
  8
0
  6
Continuous
 62
     7
370
    15
100
AcDbLine
 10
99.1664460388
 20
127.0404902508
 30
0.0
 11
99.1664460388
 21
137.5268637586
 31
0.0
  0
LINE
  5
96
330
1F
100
AcDbEntity
  8
0
  6
Continuous
 62
     7
370
    15
100
AcDbLine
 10
133.4664460388
 20
126.2942055132
 30
0.0
 11
133.4664460388
 21
137.5268637586
 31
0.0
  0
LINE
  5
97
330
1F
100
AcDbEntity
  8
0
  6
Continuous
 62
     7
370
    15
100
AcDbLine
 10
97.6664460388
 20
137.5268637586
 30
0.0
 11
97.6664460388
 21
162.9378506581
 31
0.0
  0
LINE
  5
98
330
1F
100
AcDbEntity
  8
0
  6
Continuous
 62
     7
370
    15
100
AcDbLine
 10
97.6664460388
 20
127.7904902508
 30
0.0
 11
97.6664460388
 21
137.5268637586
 31
0.0
  0
LINE
  5
99
330
1F
100
AcDbEntity
  8
0
  6
Continuous
 62
     7
370
    15
100
AcDbLine
 10
133.4664460388
 20
122.1316361046
 30
0.0
 11
133.4664460388
 21
126.2942055132
 31
0.0
  0
SPLINE
  5
9A
330
1F
100
AcDbEntity
  8
0
  6
Continuous
 62
     7
370
    15
100
AcDbSpline
210
0.0
220
0.0
230
1.0
 70
     8
 71
     3
 72
     8
 73
     4
 74
     0
 42
0.00000001
 43
0.00000001
 12
1.0
 22
0.0
 32
0.0
 13
1.0
 23
0.0
 33
0.0
 40
0.0000249638557297
 40
0.0000249638557297
 40
0.0000249638557297
 40
0.0000249638557297
 40
0.0049776420541173
 40
0.0049776420541173
 40
0.0049776420541173
 40
0.0049776420541173
 10
99.1664460387869
 20
123.2547452759484
 30
0.0
 10
100.8164222732964
 20
123.2183960630104
 30
0.0
 10
102.4664235930415
 20
123.1819714768783
 30
0.0
 10
104.1164460387869
 20
123.1454715986674
 30
0.0
  0
LINE
  5
9B
330
1F
100
AcDbEntity
  8
0
  6
Continuous
 62
     7
370
    15
100
AcDbLine
 10
99.1664460388
 20
123.2547452759
 30
0.0
 11
99.1664460388
 21
127.0404902508
 31
0.0
  0
SPLINE
  5
9C
330
1F
100
AcDbEntity
  8
0
  6
Continuous
 62
     7
370
    15
100
AcDbSpline
210
0.0
220
0.0
230
1.0
 70
     8
 71
     3
 72
    12
 73
     8
 74
     0
 42
0.00000001
 43
0.00000001
 12
1.0
 22
0.0
 32
0.0
 13
1.0
 23
0.0
 33
0.0
 40
0.0
 40
0.0
 40
0.0
 40
0.0
 40
0.3217007750382268
 40
0.648238529390248
 40
0.7953300047197308
 40
0.946109472457425
 40
1.0
 40
1.0
 40
1.0
 40
1.0
 10
104.1164460387869
 20
123.1454715986674
 30
0.0
 10
104.4151383923779
 20
123.0891931330496
 30
0.0
 10
105.0170141323694
 20
122.9757900186677
 30
0.0
 10
105.6309190373685
 20
122.880790531519
 30
0.0
 10
105.9391546010322
 20
122.8357058134406
 30
0.0
 10
106.0517046957405
 20
122.8199267726732
 30
0.0
 10
106.0364218155268
 20
122.8220745790401
 30
0.0
 10
106.0323977646347
 20
122.8226401060877
 30
0.0
  0
SPLINE
  5
9D
330
1F
100
AcDbEntity
  8
0
  6
Continuous
 62
     7
370
    15
100
AcDbSpline
210
0.0
220
0.0
230
1.0
 70
     8
 71
     3
 72
    27
 73
    23
 74
     0
 42
0.00000001
 43
0.00000001
 12
1.0
 22
0.0
 32
0.0
 13
1.0
 23
0.0
 33
0.0
 40
0.0
 40
0.0
 40
0.0
 40
0.0
 40
0.0322524045785705
 40
0.0816430999251066
 40
0.1290586612648756
 40
0.1777432041577055
 40
0.2272475226158267
 40
0.2780116234121234
 40
0.3309569209659083
 40
0.385274875478122
 40
0.4412837295085757
 40
0.4988337213646149
 40
0.5562818536597496
 40
0.6154087749742476
 40
0.6725513772536972
 40
0.7314550518215068
 40
0.7867561477595286
 40
0.843851541693066
 40
0.8960134612747825
 40
0.9498846523531248
 40
0.9989419924478988
 40
1.0
 40
1.0
 40
1.0
 40
1.0
 10
124.6047716981133
 20
122.3557041826302
 30
0.0
 10
124.6047294479419
 20
122.3557125210035
 30
0.0
 10
124.6046224966925
 20
122.3557336285969
 30
0.0
 10
124.4810192572864
 20
122.3739251439914
 30
0.0
 10
124.2550980836858
 20
122.4060217252119
 30
0.0
 10
123.931885116331
 20
122.4495513654019
 30
0.0
 10
123.5166544325304
 20
122.5012076298086
 30
0.0
 10
123.0126406973619
 20
122.5574747437976
 30
0.0
 10
122.4262530232796
 20
122.613929544977
 30
0.0
 10
121.7660487913479
 20
122.6657410136631
 30
0.0
 10
121.0479089003331
 20
122.7078597432045
 30
0.0
 10
120.2947929890164
 20
122.7358576010049
 30
0.0
 10
119.5268615063447
 20
122.7473579106251
 30
0.0
 10
118.780951501048
 20
122.7418983156493
 30
0.0
 10
118.0718774565783
 20
122.7216362999537
 30
0.0
 10
117.4414471376448
 20
122.6912278368451
 30
0.0
 10
116.894895071772
 20
122.6555728494617
 30
0.0
 10
116.4688326356303
 20
122.6217726631736
 30
0.0
 10
116.1542133358696
 20
122.5934976621619
 30
0.0
 10
115.9850962974606
 20
122.5771381140082
 30
0.0
 10
115.9164834824953
 20
122.570316218321
 30
0.0
 10
115.9353646214035
 20
122.5721767679474
 30
0.0
 10
115.9357632295843
 20
122.5722160468439
 30
0.0
  0
SPLINE
  5
9E
330
1F
100
AcDbEntity
  8
0
  6
Continuous
 62
     7
370
    15
100
AcDbSpline
210
0.0
220
0.0
230
1.0
 70
     8
 71
     3
 72
     8
 73
     4
 74
     0
 42
0.00000001
 43
0.00000001
 12
1.0
 22
0.0
 32
0.0
 13
1.0
 23
0.0
 33
0.0
 40
0.0
 40
0.0
 40
0.0
 40
0.0
 40
1.0
 40
1.0
 40
1.0
 40
1.0
 10
97.66644603878463
 20
124.0032555755062
 30
0.0
 10
98.13320665016242
 20
123.7737260831222
 30
0.0
 10
98.63895419694252
 20
123.5217953080308
 30
0.0
 10
99.16644603878692
 20
123.2547452759484
 30
0.0
  0
LINE
  5
9F
330
1F
100
AcDbEntity
  8
0
  6
Continuous
 62
     7
370
    15
100
AcDbLine
 10
97.6664460388
 20
124.0032555755
 30
0.0
 11
97.6664460388
 21
127.7904902508
 31
0.0
  0
LINE
  5
A0
330
1F
100
AcDbEntity
  8
0
  6
Continuous
 62
     7
370
    15
100
AcDbLine
 10
133.4664460388
 20
166.1718336737
 30
0.0
 11
133.4664460388
 21
164.4341353957
 31
0.0
  0
LINE
  5
A1
330
1F
100
AcDbEntity
  8
0
  6
Continuous
 62
     7
370
    15
100
AcDbLine
 10
99.1664460388
 20
165.3100982854
 30
0.0
 11
99.1664460388
 21
163.6878506581
 31
0.0
  0
SPLINE
  5
A2
330
1F
100
AcDbEntity
  8
0
  6
Continuous
 62
     7
370
    15
100
AcDbSpline
210
0.0
220
0.0
230
1.0
 70
     8
 71
     3
 72
    11
 73
     7
 74
     0
 42
0.00000001
 43
0.00000001
 12
1.0
 22
0.0
 32
0.0
 13
1.0
 23
0.0
 33
0.0
 40
0.0
 40
0.0
 40
0.0
 40
0.0
 40
0.120899420587586
 40
0.5020312010339368
 40
0.7494858902525247
 40
1.0
 40
1.0
 40
1.0
 40
1.0
 10
133.8730369930807
 20
165.9480593990452
 30
0.0
 10
133.8688716296569
 20
165.9574399049702
 30
0.0
 10
133.8515750835507
 20
165.9963921731692
 30
0.0
 10
133.9501833806837
 20
165.7743033246803
 30
0.0
 10
134.1213039311334
 20
165.3910358881338
 30
0.0
 10
134.2702134837106
 20
165.0613005344784
 30
0.0
 10
134.3451256952272
 20
164.8954199436769
 30
0.0
  0
LINE
  5
A3
330
1F
100
AcDbEntity
  8
0
  6
Continuous
 62
     7
370
    15
100
AcDbLine
 10
97.6664460388
 20
164.4440728817
 30
0.0
 11
97.6664460388
 21
162.9378506581
 31
0.0
  0
LINE
  5
A4
330
1F
100
AcDbEntity
  8
0
  6
Continuous
 62
     7
370
    15
100
AcDbLine
 10
246.6391094321
 20
145.0879980595
 30
0.0
 11
255.8266692315
 21
143.9599075638
 31
0.0
  0
LINE
  5
A5
330
1F
100
AcDbEntity
  8
0
  6
Continuous
 62
     7
370
    15
100
AcDbLine
 10
254.8841186252
 20
139.2798914569
 30
0.0
 11
255.2465711569
 21
139.235387882
 31
0.0
  0
LINE
  5
A6
330
1F
100
AcDbEntity
  8
0
  6
Continuous
 62
     7
370
    15
100
AcDbLine
 10
255.8266692315
 20
143.9599075638
 30
0.0
 11
256.3370663261
 21
143.8972386807
 31
0.0
  0
LINE
  5
A7
330
1F
100
AcDbEntity
  8
0
  6
Continuous
 62
     7
370
    15
100
AcDbLine
 10
255.2465711569
 20
139.235387882
 30
0.0
 11
255.7569682515
 21
139.1727189989
 31
0.0
  0
LINE
  5
A8
330
1F
100
AcDbEntity
  8
0
  6
Continuous
 62
     7
370
    15
100
AcDbLine
 10
256.3370663261
 20
143.8972386807
 30
0.0
 11
265.5246261255
 21
142.7691481849
 31
0.0
  0
LINE
  5
A9
330
1F
100
AcDbEntity
  8
0
  6
Continuous
 62
     7
370
    15
100
AcDbLine
 10
255.7569682515
 20
139.1727189989
 30
0.0
 11
264.9445280508
 21
138.0446285031
 31
0.0
  0
LINE
  5
AA
330
1F
100
AcDbEntity
  8
0
  6
Continuous
 62
     7
370
    15
100
AcDbLine
 10
246.4972895188
 20
145.1054113553
 30
0.0
 11
246.6391094321
 21
145.0879980595
 31
0.0
  0
LINE
  5
AB
330
1F
100
AcDbEntity
  8
0
  6
Continuous
 62
     7
370
    15
100
AcDbLine
 10
265.5246261255
 20
142.7691481849
 30
0.0
 11
265.6664460388
 21
142.7517348892
 31
0.0
  0
LINE
  5
AC
330
1F
100
AcDbEntity
  8
0
  6
Continuous
 62
     7
370
    15
100
AcDbLine
 10
264.9445280508
 20
138.0446285031
 30
0.0
 11
265.0863479642
 21
138.0272152073
 31
0.0
  0
LINE
  5
AD
330
1F
100
AcDbEntity
  8
0
  6
Continuous
 62
     7
370
    15
100
AcDbLine
 10
255.7270172556
 20
136.2747682214
 30
0.0
 11
263.1542714799
 21
135.3628160728
 31
0.0
  0
LINE
  5
AE
330
1F
100
AcDbEntity
  8
0
  6
Continuous
 62
     7
370
    15
100
AcDbLine
 10
254.9191668406
 20
136.3739597799
 30
0.0
 11
255.7270172556
 21
136.2747682214
 31
0.0
  0
LINE
  5
AF
330
1F
100
AcDbEntity
  8
0
  6
Continuous
 62
     7
370
    15
100
AcDbLine
 10
263.1542714799
 20
135.3628160728
 30
0.0
 11
263.5088212633
 21
135.3192828333
 31
0.0
  0
SPLINE
  5
B0
330
1F
100
AcDbEntity
  8
0
  6
HIDDEN
 62
     7
370
     0
100
AcDbSpline
210
0.0
220
0.0
230
1.0
 70
     8
 71
     3
 72
     9
 73
     5
 74
     0
 42
0.00000001
 43
0.00000001
 12
1.0
 22
0.0
 32
0.0
 13
1.0
 23
0.0
 33
0.0
 40
0.0
 40
0.0
 40
0.0
 40
0.0
 40
0.1932274618106956
 40
1.0
 40
1.0
 40
1.0
 40
1.0
 10
135.4337326357392
 20
164.2751964274475
 30
0.0
 10
135.4396500320128
 20
164.27027349511
 30
0.0
 10
135.4702740241629
 20
164.2447961002752
 30
0.0
 10
135.4681553372252
 20
164.2033276169538
 30
0.0
 10
135.4664460387869
 20
164.1698719834097
 30
0.0
  0
LINE
  5
B1
330
1F
100
AcDbEntity
  8
0
  6
HIDDEN
 62
     7
370
     0
100
AcDbLine
 10
99.1966744784
 20
142.7517348892
 30
0.0
 11
99.1966744784
 21
158.0646859321
 31
0.0
  0
LINE
  5
B2
330
1F
100
AcDbEntity
  8
0
  6
HIDDEN
 62
     7
370
     0
100
AcDbLine
 10
99.1966744784
 20
127.4387838462
 30
0.0
 11
99.1966744784
 21
142.7517348892
 31
0.0
  0
LINE
  5
B3
330
1F
100
AcDbEntity
  8
0
  6
HIDDEN
 62
     7
370
     0
100
AcDbLine
 10
105.6966744784
 20
142.7517348892
 30
0.0
 11
105.6966744784
 21
157.0981450507
 31
0.0
  0
LINE
  5
B4
330
1F
100
AcDbEntity
  8
0
  6
HIDDEN
 62
     7
370
     0
100
AcDbLine
 10
105.6966744784
 20
128.4053247276
 30
0.0
 11
105.6966744784
 21
142.7517348892
 31
0.0
  0
SPLINE
  5
B5
330
1F
100
AcDbEntity
  8
0
  6
HIDDEN
 62
     7
370
     0
100
AcDbSpline
210
0.0
220
0.0
230
1.0
 70
     8
 71
     3
 72
     9
 73
     5
 74
     0
 42
0.00000001
 43
0.00000001
 12
1.0
 22
0.0
 32
0.0
 13
1.0
 23
0.0
 33
0.0
 40
0.0
 40
0.0
 40
0.0
 40
0.0
 40
0.9756764596028096
 40
1.0
 40
1.0
 40
1.0
 40
1.0
 10
116.977607467549
 20
122.6603007654059
 30
0.0
 10
117.1156121735502
 20
122.670152433632
 30
0.0
 10
117.2570573264417
 20
122.6802497032024
 30
0.0
 10
117.4269523165546
 20
122.6886870235593
 30
0.0
 10
117.4310847642099
 20
122.6888922490618
 30
0.0
  0
LINE
  5
B6
330
1F
100
AcDbEntity
  8
0
  6
HIDDEN
 62
     7
370
     0
100
AcDbLine
 10
111.4966744784
 20
142.7517348892
 30
0.0
 11
111.4966744784
 21
156.7517348892
 31
0.0
  0
LINE
  5
B7
330
1F
100
AcDbEntity
  8
0
  6
HIDDEN
 62
     7
370
     0
100
AcDbLine
 10
111.4966744784
 20
128.7517348892
 30
0.0
 11
111.4966744784
 21
142.7517348892
 31
0.0
  0
LINE
  5
B8
330
1F
100
AcDbEntity
  8
0
  6
HIDDEN
 62
     7
370
     0
100
AcDbLine
 10
104.0966744784
 20
142.7517348892
 30
0.0
 11
104.0966744784
 21
156.7517348892
 31
0.0
  0
LINE
  5
B9
330
1F
100
AcDbEntity
  8
0
  6
HIDDEN
 62
     7
370
     0
100
AcDbLine
 10
104.0966744784
 20
128.7517348892
 30
0.0
 11
104.0966744784
 21
142.7517348892
 31
0.0
  0
LINE
  5
BA
330
1F
100
AcDbEntity
  8
0
  6
HIDDEN
 62
     7
370
     0
100
AcDbLine
 10
105.0966744784
 20
142.7517348892
 30
0.0
 11
105.0966744784
 21
156.7517348892
 31
0.0
  0
LINE
  5
BB
330
1F
100
AcDbEntity
  8
0
  6
HIDDEN
 62
     7
370
     0
100
AcDbLine
 10
105.0966744784
 20
128.7517348892
 30
0.0
 11
105.0966744784
 21
142.7517348892
 31
0.0
  0
SPLINE
  5
BC
330
1F
100
AcDbEntity
  8
0
  6
HIDDEN
 62
     7
370
     0
100
AcDbSpline
210
0.0
220
0.0
230
1.0
 70
     8
 71
     3
 72
    10
 73
     6
 74
     0
 42
0.00000001
 43
0.00000001
 12
1.0
 22
0.0
 32
0.0
 13
1.0
 23
0.0
 33
0.0
 40
0.0
 40
0.0
 40
0.0
 40
0.0
 40
0.3573854676162794
 40
0.7160348463500759
 40
1.0
 40
1.0
 40
1.0
 40
1.0
 10
124.1664460387869
 20
156.7373525015408
 30
0.0
 10
124.1770360947255
 20
156.7401593577445
 30
0.0
 10
124.1982536588514
 20
156.7457829967357
 30
0.0
 10
124.2141384785442
 20
156.7487716591879
 30
0.0
 10
124.2149650663793
 20
156.7489399983706
 30
0.0
 10
124.215330327558
 20
156.7490143858292
 30
0.0
  0
SPLINE
  5
BD
330
1F
100
AcDbEntity
  8
0
  6
HIDDEN
 62
     7
370
     0
100
AcDbSpline
210
0.0
220
0.0
230
1.0
 70
     8
 71
     3
 72
    10
 73
     6
 74
     0
 42
0.00000001
 43
0.00000001
 12
1.0
 22
0.0
 32
0.0
 13
1.0
 23
0.0
 33
0.0
 40
0.0
 40
0.0
 40
0.0
 40
0.0
 40
0.02659883831525
 40
0.511777106263351
 40
1.0
 40
1.0
 40
1.0
 40
1.0
 10
124.2157950126216
 20
128.7543713359149
 30
0.0
 10
124.2160102653908
 20
128.7543283974736
 30
0.0
 10
124.2201518537565
 20
128.7535022369095
 30
0.0
 10
124.2066917591211
 20
128.7557017095965
 30
0.0
 10
124.1798892234206
 20
128.7626381890142
 30
0.0
 10
124.1664460387869
 20
128.7661172767603
 30
0.0
  0
LINE
  5
BE
330
1F
100
AcDbEntity
  8
0
  6
HIDDEN
 62
     7
370
     0
100
AcDbLine
 10
124.6664460388
 20
142.7517348892
 30
0.0
 11
124.6664460388
 21
156.2517348892
 31
0.0
  0
LINE
  5
BF
330
1F
100
AcDbEntity
  8
0
  6
HIDDEN
 62
     7
370
     0
100
AcDbLine
 10
124.6664460388
 20
129.2517348892
 30
0.0
 11
124.6664460388
 21
142.7517348892
 31
0.0
  0
SPLINE
  5
C0
330
1F
100
AcDbEntity
  8
0
  6
HIDDEN
 62
     7
370
     0
100
AcDbSpline
210
0.0
220
0.0
230
1.0
 70
     8
 71
     3
 72
    35
 73
    31
 74
     0
 42
0.00000001
 43
0.00000001
 12
1.0
 22
0.0
 32
0.0
 13
1.0
 23
0.0
 33
0.0
 40
0.0
 40
0.0
 40
0.0
 40
0.0
 40
0.027398750853534
 40
0.0831597112586279
 40
0.1115832357547439
 40
0.1389802325165685
 40
0.1946673376866801
 40
0.2230156836972871
 40
0.2510568050700751
 40
0.3080900397346539
 40
0.3371567334586859
 40
0.3650778244635079
 40
0.4219356749181357
 40
0.4509560163852443
 40
0.4778200579268624
 40
0.532488607654473
 40
0.5603580307272974
 40
0.5869136865482297
 40
0.640879868277635
 40
0.6683423664908523
 40
0.6957778042408154
 40
0.7515323888964811
 40
0.77991237545996
 40
0.8080762459650295
 40
0.8364390628639483
 40
0.86543977251457
 40
0.8946662732917781
 40
0.9222951128559093
 40
0.9785532013223897
 40
1.0
 40
1.0
 40
1.0
 40
1.0
 10
124.1664460387869
 20
128.7661172767603
 30
0.0
 10
124.1463764917747
 20
128.7718394241416
 30
0.0
 10
124.0854621185777
 20
128.7892070817605
 30
0.0
 10
123.9386632056392
 20
128.8300421399175
 30
0.0
 10
123.744269415041
 20
128.8812444660525
 30
0.0
 10
123.5169115594799
 20
128.9386934966972
 30
0.0
 10
123.243321575746
 20
129.0030746492107
 30
0.0
 10
122.927269934675
 20
129.0696314097258
 30
0.0
 10
122.5815441641528
 20
129.1364161336451
 30
0.0
 10
122.1966491695554
 20
129.200078514949
 30
0.0
 10
121.7838571521143
 20
129.2542978708927
 30
0.0
 10
121.3554796652691
 20
129.3006941227201
 30
0.0
 10
120.9063992925694
 20
129.3333643912035
 30
0.0
 10
120.4524993777434
 20
129.3487065524427
 30
0.0
 10
120.0046456612547
 20
129.3525518426588
 30
0.0
 10
119.5612756457151
 20
129.339804030036
 30
0.0
 10
119.1304684698159
 20
129.3116018219478
 30
0.0
 10
118.7122411010156
 20
129.2743895366568
 30
0.0
 10
118.3134158687485
 20
129.2251297123624
 30
0.0
 10
117.938515948295
 20
129.1673139755682
 30
0.0
 10
117.5777871849321
 20
129.104556758879
 30
0.0
 10
117.2479375513369
 20
129.0375914598291
 30
0.0
 10
116.9579039396204
 20
128.9720889221329
 30
0.0
 10
116.7609618982496
 20
128.9248001919879
 30
0.0
 10
116.5865711372305
 20
128.8807296930527
 30
0.0
 10
116.4360468142901
 20
128.841037674567
 30
0.0
 10
116.3139569007534
 20
128.8077140345673
 30
0.0
 10
116.1909041688789
 20
128.7732620312008
 30
0.0
 10
116.1221360467968
 20
128.7533783989231
 30
0.0
 10
116.1199005777326
 20
128.7527332174683
 30
0.0
 10
116.1192835810837
 20
128.7525551453125
 30
0.0
  0
SPLINE
  5
C1
330
1F
100
AcDbEntity
  8
0
  6
HIDDEN
 62
     7
370
     0
100
AcDbSpline
210
0.0
220
0.0
230
1.0
 70
     8
 71
     3
 72
    36
 73
    32
 74
     0
 42
0.00000001
 43
0.00000001
 12
1.0
 22
0.0
 32
0.0
 13
1.0
 23
0.0
 33
0.0
 40
0.0
 40
0.0
 40
0.0
 40
0.0
 40
0.0072608271413498
 40
0.0339691556498984
 40
0.0882971088653577
 40
0.1159770860563219
 40
0.1427431203793683
 40
0.1971329733815459
 40
0.2248099183853775
 40
0.2524954338319771
 40
0.3087720925039057
 40
0.3374283766033668
 40
0.3655845582880887
 40
0.3939428457375658
 40
0.4229517956775037
 40
0.4521919729728542
 40
0.4795469938032813
 40
0.5352456355268931
 40
0.5636643357258528
 40
0.5901846104660861
 40
0.6441079384602473
 40
0.6715662761009139
 40
0.6985154310944126
 40
0.7532694909612188
 40
0.7811286795862386
 40
0.8090875017342849
 40
0.8659430010723367
 40
0.8949114908456521
 40
0.920774226581025
 40
0.9732876644712262
 40
1.0
 40
1.0
 40
1.0
 40
1.0
 10
116.1192835810837
 20
156.7509146329886
 30
0.0
 10
116.1184298113471
 20
156.7511613777451
 30
0.0
 10
116.1144355230232
 20
156.7523157518783
 30
0.0
 10
116.1429624309686
 20
156.7440684890489
 30
0.0
 10
116.2202237318398
 20
156.7218681011764
 30
0.0
 10
116.3532818833067
 20
156.6849246305911
 30
0.0
 10
116.5189545600054
 20
156.6401915953159
 30
0.0
 10
116.7331017066639
 20
156.5850295751077
 30
0.0
 10
116.9928783776977
 20
156.5232813809306
 30
0.0
 10
117.2856450700409
 20
156.4578669794206
 30
0.0
 10
117.6225798515371
 20
156.3903677089348
 30
0.0
 10
117.9953871337696
 20
156.3268533005813
 30
0.0
 10
118.2920935672274
 20
156.2824697390423
 30
0.0
 10
118.6039214949007
 20
156.242669618655
 30
0.0
 10
118.9318409269547
 20
156.2084935509678
 30
0.0
 10
119.2657883528097
 20
156.1819802036051
 30
0.0
 10
119.7127814136975
 20
156.1575891318189
 30
0.0
 10
120.1660849939227
 20
156.1497504199093
 30
0.0
 10
120.6133605440986
 20
156.1592222566777
 30
0.0
 10
121.0490290461075
 20
156.1791827437547
 30
0.0
 10
121.4707654721132
 20
156.2137637164194
 30
0.0
 10
121.8738228423215
 20
156.2603843361534
 30
0.0
 10
122.2642912752544
 20
156.3140033079206
 30
0.0
 10
122.6295290353539
 20
156.3758033235412
 30
0.0
 10
122.9629138985886
 20
156.4411065859138
 30
0.0
 10
123.2768683696032
 20
156.5079450927275
 30
0.0
 10
123.5516381528535
 20
156.5732296357976
 30
0.0
 10
123.7728554214468
 20
156.6296577164039
 30
0.0
 10
123.9538412191371
 20
156.6776346440728
 30
0.0
 10
124.0891270279154
 20
156.7153056588162
 30
0.0
 10
124.1469500200108
 20
156.7317933815409
 30
0.0
 10
124.1664460387869
 20
156.7373525015408
 30
0.0
  0
LINE
  5
C2
330
1F
100
AcDbEntity
  8
0
  6
HIDDEN
 62
     7
370
     0
100
AcDbLine
 10
125.9164460388
 20
142.7517348892
 30
0.0
 11
125.9164460388
 21
151.7517348892
 31
0.0
  0
LINE
  5
C3
330
1F
100
AcDbEntity
  8
0
  6
HIDDEN
 62
     7
370
     0
100
AcDbLine
 10
125.9164460388
 20
133.7517348892
 30
0.0
 11
125.9164460388
 21
142.7517348892
 31
0.0
  0
ELLIPSE
  5
C4
330
1F
100
AcDbEntity
  8
0
  6
HIDDEN
 62
     7
370
     0
100
AcDbEllipse
 10
243.0375872347
 20
133.3920280655
 30
0.0
 11
3.83631898575726
 21
-2.981814344700695
 31
0.0
210
0.0
220
0.0
230
1.0
 40
0.1973179358
 41
5.326638272409059
 42
6.60176211364739
  0
LINE
  5
C5
330
1F
100
AcDbEntity
  8
0
  6
HIDDEN
 62
     7
370
     0
100
AcDbLine
 10
246.8651559402
 20
130.7973482269
 30
0.0
 11
247.2121715917
 21
133.623563909
 31
0.0
  0
SPLINE
  5
C6
330
1F
100
AcDbEntity
  8
0
  6
HIDDEN
 62
     7
370
     0
100
AcDbSpline
210
0.0
220
0.0
230
1.0
 70
     8
 71
     3
 72
    22
 73
    18
 74
     0
 42
0.00000001
 43
0.00000001
 12
1.0
 22
0.0
 32
0.0
 13
1.0
 23
0.0
 33
0.0
 40
0.0
 40
0.0
 40
0.0
 40
0.0
 40
0.1250000000000003
 40
0.1250000000000003
 40
0.2500000000000006
 40
0.2500000000000006
 40
0.5000000000000002
 40
0.5000000000000002
 40
0.6250000000000002
 40
0.6250000000000002
 40
0.75
 40
0.75
 40
0.8749999999999999
 40
0.8749999999999999
 40
0.9375
 40
0.9375
 40
1.0
 40
1.0
 40
1.0
 40
1.0
 10
247.2121715917449
 20
133.6235639089832
 30
0.0
 10
247.2463769944131
 20
133.9021445580209
 30
0.0
 10
247.2838339811891
 20
134.1800074184325
 30
0.0
 10
247.3628207615324
 20
134.7347542041211
 30
0.0
 10
247.4044598961614
 20
135.0123664770888
 30
0.0
 10
247.5300912175645
 20
135.8342464947312
 30
0.0
 10
247.6154598423601
 20
136.3708596724926
 30
0.0
 10
247.7291831170764
 20
137.1608490997669
 30
0.0
 10
247.7646927241802
 20
137.4216147572077
 30
0.0
 10
247.8260871719314
 20
137.9369946226696
 30
0.0
 10
247.852088504666
 20
138.1917386783635
 30
0.0
 10
247.884157566982
 20
138.6812101055973
 30
0.0
 10
247.8909121461819
 20
138.9183676022978
 30
0.0
 10
247.8677433103899
 20
139.2327471490342
 30
0.0
 10
247.8541919415948
 20
139.3320361484519
 30
0.0
 10
247.8075530657381
 20
139.5024036572048
 30
0.0
 10
247.7745596875324
 20
139.5727041060371
 30
0.0
 10
247.7272681865336
 20
139.6145868897669
 30
0.0
  0
LINE
  5
C7
330
1F
100
AcDbEntity
  8
0
  6
HIDDEN
 62
     7
370
     0
100
AcDbLine
 10
239.6912317943
 20
140.6012880896
 30
0.0
 11
248.0286194681
 21
139.577585605
 31
0.0
  0
SPLINE
  5
C8
330
1F
100
AcDbEntity
  8
0
  6
HIDDEN
 62
     7
370
     0
100
AcDbSpline
210
0.0
220
0.0
230
1.0
 70
     8
 71
     3
 72
    22
 73
    18
 74
     0
 42
0.00000001
 43
0.00000001
 12
1.0
 22
0.0
 32
0.0
 13
1.0
 23
0.0
 33
0.0
 40
0.0
 40
0.0
 40
0.0
 40
0.0
 40
0.0624999999999993
 40
0.0624999999999993
 40
0.1249999999999987
 40
0.1249999999999987
 40
0.1874999999999981
 40
0.1874999999999981
 40
0.2499999999999972
 40
0.2499999999999972
 40
0.3749999999999983
 40
0.3749999999999983
 40
0.4999999999999994
 40
0.4999999999999994
 40
0.7499999999999997
 40
0.7499999999999997
 40
1.0
 40
1.0
 40
1.0
 40
1.0
 10
247.5379020697334
 20
139.637838125268
 30
0.0
 10
247.468052211706
 20
139.6101563755327
 30
0.0
 10
247.3953786627106
 20
139.553792008549
 30
0.0
 10
247.2468688781944
 20
139.406045428179
 30
0.0
 10
247.1743010870648
 20
139.3178141368153
 30
0.0
 10
247.031921587344
 20
139.1253639874045
 30
0.0
 10
246.9616666852202
 20
139.0201283459881
 30
0.0
 10
246.8263337220359
 20
138.8032016328317
 30
0.0
 10
246.7608687816513
 20
138.6909789259001
 30
0.0
 10
246.5695434499965
 20
138.3462630945723
 30
0.0
 10
246.4486710349883
 20
138.1058647607909
 30
0.0
 10
246.2174217162879
 20
137.6110851386723
 30
0.0
 10
246.1071158121771
 20
137.356346923093
 30
0.0
 10
245.7967169938566
 20
136.5872038477135
 30
0.0
 10
245.6140809760265
 20
136.0634832816996
 30
0.0
 10
245.3084601001995
 20
134.9931575855953
 30
0.0
 10
245.1841326862624
 20
134.4455023464267
 30
0.0
 10
245.1148309452217
 20
133.8810849593307
 30
0.0
  0
LINE
  5
C9
330
1F
100
AcDbEntity
  8
0
  6
HIDDEN
 62
     7
370
     0
100
AcDbLine
 10
245.1148309452
 20
133.8810849593
 30
0.0
 11
244.7678152937
 21
131.0548692772
 31
0.0
  0
LINE
  5
CA
330
1F
100
AcDbEntity
  8
0
  6
HIDDEN
 62
     7
370
     0
100
AcDbLine
 10
240.4372726428
 20
140.9334468758
 30
0.0
 11
247.3850957043
 21
140.0803614719
 31
0.0
  0
LINE
  5
CB
330
1F
100
AcDbEntity
  8
0
  6
HIDDEN
 62
     7
370
     0
100
AcDbLine
 10
162.6664460388
 20
151.7517348892
 30
0.0
 11
162.6664460388
 21
133.7517348892
 31
0.0
  0
LINE
  5
CC
330
1F
100
AcDbEntity
  8
0
  6
HIDDEN
 62
     7
370
     0
100
AcDbLine
 10
165.5205339792
 20
147.0017348892
 30
0.0
 11
165.5205339792
 21
138.5017348892
 31
0.0
  0
LINE
  5
CD
330
1F
100
AcDbEntity
  8
0
  6
HIDDEN
 62
     7
370
     0
100
AcDbLine
 10
251.2326777535
 20
139.4864296628
 30
0.0
 11
254.8548699828
 21
139.0416803804
 31
0.0
  0
LINE
  5
CE
330
1F
100
AcDbEntity
  8
0
  6
HIDDEN
 62
     7
370
     0
100
AcDbLine
 10
251.3831075897
 20
136.5058803147
 30
0.0
 11
254.8826060376
 21
136.0761959344
 31
0.0
  0
LINE
  5
CF
330
1F
100
AcDbEntity
  8
0
  6
HIDDEN
 62
     7
370
     0
100
AcDbLine
 10
247.7828790616
 20
139.9100116804
 30
0.0
 11
248.0048753088
 21
139.8827539687
 31
0.0
  0
ELLIPSE
  5
D0
330
1F
100
AcDbEntity
  8
0
  6
HIDDEN
 62
     7
370
     0
100
AcDbEllipse
 10
249.4630885629
 20
138.2075700646
 30
0.0
 11
1.517954615992608
 21
4.913260734810763
 31
0.0
210
0.0
220
0.0
230
1.0
 40
0.3769781733
 41
1.341246676997796
 42
1.929198895064479
  0
LINE
  5
D1
330
1F
100
AcDbEntity
  8
0
  6
HIDDEN
 62
     7
370
     0
100
AcDbLine
 10
247.4192292838
 20
136.992583372
 30
0.0
 11
247.1961215931
 21
137.0199775518
 31
0.0
  0
ELLIPSE
  5
D2
330
1F
100
AcDbEntity
  8
0
  6
HIDDEN
 62
     7
370
     0
100
AcDbEllipse
 10
248.8592186413
 20
137.3921987502
 30
0.0
 11
1.517954615992551
 21
4.913260734810763
 31
0.0
210
0.0
220
0.0
230
1.0
 40
0.3769781733
 41
5.265505762188824
 42
7.43589045415112
  0
LINE
  5
D3
330
1F
100
AcDbEntity
  8
0
  6
HIDDEN
 62
     7
370
     0
100
AcDbLine
 10
251.3831075897
 20
136.5058803147
 30
0.0
 11
251.7414034593
 21
139.4239660004
 31
0.0
  0
LINE
  5
D4
330
1F
100
AcDbEntity
  8
0
  6
HIDDEN
 62
     7
370
     0
100
AcDbLine
 10
250.0012040903
 20
128.0145038628
 30
0.0
 11
246.8651559402
 21
130.7973482269
 31
0.0
  0
SPLINE
  5
D5
330
1F
100
AcDbEntity
  8
0
  6
HIDDEN
 62
     7
370
     0
100
AcDbSpline
210
0.0
220
0.0
230
1.0
 70
     8
 71
     3
 72
    10
 73
     6
 74
     0
 42
0.00000001
 43
0.00000001
 12
1.0
 22
0.0
 32
0.0
 13
1.0
 23
0.0
 33
0.0
 40
0.0
 40
0.0
 40
0.0
 40
0.0
 40
0.5
 40
0.5
 40
1.0
 40
1.0
 40
1.0
 40
1.0
 10
251.3540271989668
 20
130.8673959151435
 30
0.0
 10
251.4491061901597
 20
131.3160879671148
 30
0.0
 10
251.5456602836177
 20
131.7684764484999
 30
0.0
 10
251.7244849964074
 20
132.6857471697762
 30
0.0
 10
251.807605553806
 20
133.1524460695069
 30
0.0
 10
251.8650937104359
 20
133.6206495326066
 30
0.0
  0
SPLINE
  5
D6
330
1F
100
AcDbEntity
  8
0
  6
HIDDEN
 62
     7
370
     0
100
AcDbSpline
210
0.0
220
0.0
230
1.0
 70
     8
 71
     3
 72
    10
 73
     6
 74
     0
 42
0.00000001
 43
0.00000001
 12
1.0
 22
0.0
 32
0.0
 13
1.0
 23
0.0
 33
0.0
 40
0.0
 40
0.0
 40
0.0
 40
0.0
 40
0.5
 40
0.5
 40
1.0
 40
1.0
 40
1.0
 40
1.0
 10
253.9624343569558
 20
133.3631284822582
 30
0.0
 10
253.9048436961971
 20
132.8940901900246
 30
0.0
 10
253.7935507905059
 20
132.4357793161242
 30
0.0
 10
253.5253127121302
 20
131.5284507392532
 30
0.0
 10
253.3668993307458
 20
131.0811906633006
 30
0.0
 10
253.1942919490163
 20
130.6414398158636
 30
0.0
  0
LWPOLYLINE
  5
D7
330
1F
100
AcDbEntity
  8
0
  6
HIDDEN
 62
     7
370
     0
100
AcDbPolyline
 90
       12
 70
   128
 43
0.0
 10
250.0012040903
 20
128.0145038628
 10
250.4505480056
 20
127.5832896364
 10
250.7785317163
 20
127.197441234
 10
250.9585839328
 20
126.8882177985
 10
250.9761178953
 20
126.6806707737
 10
250.8297131064
 20
126.5916143851
 10
250.5312304115
 20
126.6282634517
 10
250.1048511033
 20
126.7876488842
 10
249.5851178977
 20
127.0568582226
 10
249.0141364879
 20
127.4140817274
 10
248.438164392
 20
127.8303792747
 10
247.9038634438
 20
128.2720249132
  0
LINE
  5
D8
330
1F
100
AcDbEntity
  8
0
  6
HIDDEN
 62
     7
370
     0
100
AcDbLine
 10
124.2164460388
 20
122.7539789088
 30
0.0
 11
116.1164460388
 21
122.7539789088
 31
0.0
  0
LINE
  5
D9
330
1F
100
AcDbEntity
  8
0
  6
HIDDEN
 62
     7
370
     0
100
AcDbLine
 10
206.6664460388
 20
147.0017348892
 30
0.0
 11
206.6664460388
 21
138.5017348892
 31
0.0
  0
SPLINE
  5
DA
330
1F
100
AcDbEntity
  8
0
  6
HIDDEN
 62
     7
370
     0
100
AcDbSpline
210
0.0
220
0.0
230
1.0
 70
     8
 71
     3
 72
    18
 73
    14
 74
     0
 42
0.00000001
 43
0.00000001
 12
1.0
 22
0.0
 32
0.0
 13
1.0
 23
0.0
 33
0.0
 40
0.0
 40
0.0
 40
0.0
 40
0.0
 40
0.092565342904911
 40
0.1882646780264245
 40
0.2807287275327795
 40
0.375370728828433
 40
0.4786960397564962
 40
0.5844758461318078
 40
0.6977545289403636
 40
0.756153617005675
 40
0.815121015131141
 40
0.9176961591758628
 40
1.0
 40
1.0
 40
1.0
 40
1.0
 10
202.6664460387869
 20
146.1886666603675
 30
0.0
 10
202.7907787264191
 20
146.1926270264404
 30
0.0
 10
203.0436536434306
 20
146.2006818450173
 30
0.0
 10
203.4080094813662
 20
146.2625189792344
 30
0.0
 10
203.7524619404458
 20
146.3514913190548
 30
0.0
 10
204.077572505042
 20
146.4632711142703
 30
0.0
 10
204.3818742438282
 20
146.5899977225032
 30
0.0
 10
204.6602710349261
 20
146.7230405348319
 30
0.0
 10
204.8546453124517
 20
146.8254489882213
 30
0.0
 10
204.9823366266362
 20
146.8959007417872
 30
0.0
 10
205.0792613025927
 20
146.9507808510454
 30
0.0
 10
205.1546861039769
 20
146.994794692283
 30
0.0
 10
205.1583747210159
 20
146.9969860752618
 30
0.0
 10
205.1600168078646
 20
146.9979616281944
 30
0.0
  0
LINE
  5
DB
330
1F
100
AcDbEntity
  8
0
  6
HIDDEN
 62
     7
370
     0
100
AcDbLine
 10
202.7825573586
 20
146.1949142733
 30
0.0
 11
202.6579088061
 21
146.1891568154
 31
0.0
  0
SPLINE
  5
DC
330
1F
100
AcDbEntity
  8
0
  6
HIDDEN
 62
     7
370
     0
100
AcDbSpline
210
0.0
220
0.0
230
1.0
 70
     8
 71
     3
 72
    19
 73
    15
 74
     0
 42
0.00000001
 43
0.00000001
 12
1.0
 22
0.0
 32
0.0
 13
1.0
 23
0.0
 33
0.0
 40
0.0
 40
0.0
 40
0.0
 40
0.0
 40
0.0033768371758344
 40
0.0947532522784634
 40
0.1888431571178663
 40
0.279742559259379
 40
0.3728013245480387
 40
0.4737575178505416
 40
0.5770642739630214
 40
0.6894673047095748
 40
0.747258362515092
 40
0.8055708549004669
 40
0.9011425865336765
 40
1.0
 40
1.0
 40
1.0
 40
1.0
 10
200.1670043090574
 20
147.0014068354324
 30
0.0
 10
200.1668225058304
 20
147.0015136707446
 30
0.0
 10
200.1617211502924
 20
147.0045114443306
 30
0.0
 10
200.1892889946338
 20
146.9882621015331
 30
0.0
 10
200.2699765188796
 20
146.9413665168269
 30
0.0
 10
200.405285145174
 20
146.8650946080961
 30
0.0
 10
200.5891582104609
 20
146.7663430965848
 30
0.0
 10
200.8266744208649
 20
146.6477624296521
 30
0.0
 10
201.1244944972338
 20
146.514834101042
 30
0.0
 10
201.4189064888256
 20
146.4044908005728
 30
0.0
 10
201.6858855481906
 20
146.3238704580966
 30
0.0
 10
201.9454074817549
 20
146.2599742153608
 30
0.0
 10
202.2723983539029
 20
146.2020098571746
 30
0.0
 10
202.5336253084387
 20
146.1931642204676
 30
0.0
 10
202.6664460387869
 20
146.1886666603675
 30
0.0
  0
LINE
  5
DD
330
1F
100
AcDbEntity
  8
0
  6
HIDDEN
 62
     7
370
     0
100
AcDbLine
 10
104.1164460388
 20
123.1454715987
 30
0.0
 11
104.1164460388
 21
124.7517348892
 31
0.0
  0
LINE
  5
DE
330
1F
100
AcDbEntity
  8
0
  6
HIDDEN
 62
     7
370
     0
100
AcDbLine
 10
124.2164460388
 20
160.2517348892
 30
0.0
 11
116.1164460388
 21
160.2517348892
 31
0.0
  0
LINE
  5
DF
330
1F
100
AcDbEntity
  8
0
  6
HIDDEN
 62
     7
370
     0
100
AcDbLine
 10
253.194291949
 20
130.6414398159
 30
0.0
 11
257.5461394464
 21
130.1071001318
 31
0.0
  0
LINE
  5
E0
330
1F
100
AcDbEntity
  8
0
  6
HIDDEN
 62
     7
370
     0
100
AcDbLine
 10
252.2069354366
 20
136.4047269743
 30
0.0
 11
251.8650937104
 21
133.6206495326
 31
0.0
  0
LINE
  5
E1
330
1F
100
AcDbEntity
  8
0
  6
HIDDEN
 62
     7
370
     0
100
AcDbLine
 10
253.962434357
 20
133.3631284823
 30
0.0
 11
254.3042760831
 21
136.1472059239
 31
0.0
  0
LINE
  5
E2
330
1F
100
AcDbEntity
  8
0
  6
HIDDEN
 62
     7
370
     0
100
AcDbLine
 10
202.6664460388
 20
166.9513045796
 30
0.0
 11
205.1664460388
 21
166.9513045796
 31
0.0
  0
LINE
  5
E3
330
1F
100
AcDbEntity
  8
0
  6
HIDDEN
 62
     7
370
     0
100
AcDbLine
 10
200.1664460388
 20
166.9513045796
 30
0.0
 11
202.6664460388
 21
166.9513045796
 31
0.0
  0
LINE
  5
E4
330
1F
100
AcDbEntity
  8
0
  6
HIDDEN
 62
     7
370
     0
100
AcDbLine
 10
202.6664460388
 20
167.2517348892
 30
0.0
 11
205.6664460388
 21
167.2517348892
 31
0.0
  0
LINE
  5
E5
330
1F
100
AcDbEntity
  8
0
  6
HIDDEN
 62
     7
370
     0
100
AcDbLine
 10
199.6664460388
 20
167.2517348892
 30
0.0
 11
202.6664460388
 21
167.2517348892
 31
0.0
  0
LINE
  5
E6
330
1F
100
AcDbEntity
  8
0
  6
HIDDEN
 62
     7
370
     0
100
AcDbLine
 10
202.9996958042
 20
163.4637958788
 30
0.0
 11
205.1664460388
 21
165.0380320718
 31
0.0
  0
LINE
  5
E7
330
1F
100
AcDbEntity
  8
0
  6
HIDDEN
 62
     7
370
     0
100
AcDbLine
 10
205.1664460388
 20
159.7807209506
 30
0.0
 11
202.8423566079
 21
162.9795556248
 31
0.0
  0
LINE
  5
E8
330
1F
100
AcDbEntity
  8
0
  6
HIDDEN
 62
     7
370
     0
100
AcDbLine
 10
202.9996958042
 20
163.4637958788
 30
0.0
 11
202.8423566079
 21
162.9795556248
 31
0.0
  0
SPLINE
  5
E9
330
1F
100
AcDbEntity
  8
0
  6
HIDDEN
 62
     7
370
     0
100
AcDbSpline
210
0.0
220
0.0
230
1.0
 70
     8
 71
     3
 72
     8
 73
     4
 74
     0
 42
0.00000001
 43
0.00000001
 12
1.0
 22
0.0
 32
0.0
 13
1.0
 23
0.0
 33
0.0
 40
0.0
 40
0.0
 40
0.0
 40
0.0
 40
1.0
 40
1.0
 40
1.0
 40
1.0
 10
202.8423566079463
 20
162.9795556248126
 30
0.0
 10
202.8859726156659
 20
163.1428517606727
 30
0.0
 10
202.9392548081322
 20
163.3058800229518
 30
0.0
 10
202.9996958041869
 20
163.4637958788348
 30
0.0
  0
LINE
  5
EA
330
1F
100
AcDbEntity
  8
0
  6
HIDDEN
 62
     7
370
     0
100
AcDbLine
 10
147.6664460388
 20
111.7517348892
 30
0.0
 11
149.6664460388
 21
111.7517348892
 31
0.0
  0
LINE
  5
EB
330
1F
100
AcDbEntity
  8
0
  6
HIDDEN
 62
     7
370
     0
100
AcDbLine
 10
145.6664460388
 20
111.7517348892
 30
0.0
 11
147.6664460388
 21
111.7517348892
 31
0.0
  0
LINE
  5
EC
330
1F
100
AcDbEntity
  8
0
  6
HIDDEN
 62
     7
370
     0
100
AcDbLine
 10
245.3023231577
 20
140.2145856479
 30
0.0
 11
247.7828790616
 21
139.9100116804
 31
0.0
  0
LINE
  5
ED
330
1F
100
AcDbEntity
  8
0
  6
HIDDEN
 62
     7
370
     0
100
AcDbLine
 10
244.7678152937
 20
131.0548692772
 30
0.0
 11
247.9038634438
 21
128.2720249132
 31
0.0
  0
LINE
  5
EE
330
1F
100
AcDbEntity
  8
0
  6
HIDDEN
 62
     7
370
     0
100
AcDbLine
 10
247.4861901422
 20
136.9843616124
 30
0.0
 11
247.4192292838
 21
136.992583372
 31
0.0
  0
LINE
  5
EF
330
1F
100
AcDbEntity
  8
0
  6
HIDDEN
 62
     7
370
     0
100
AcDbLine
 10
245.2630254723
 20
137.2573319102
 30
0.0
 11
247.1961215931
 21
137.0199775518
 31
0.0
  0
LINE
  5
F0
330
1F
100
AcDbEntity
  8
0
  6
HIDDEN
 62
     7
370
     0
100
AcDbLine
 10
244.4691311669
 20
140.3168887606
 30
0.0
 11
245.3023231577
 21
140.2145856479
 31
0.0
  0
LINE
  5
F1
330
1F
100
AcDbEntity
  8
0
  6
HIDDEN
 62
     7
370
     0
100
AcDbLine
 10
248.0048753088
 20
139.8827539687
 30
0.0
 11
248.3009060888
 21
139.8464059593
 31
0.0
  0
LINE
  5
F2
330
1F
100
AcDbEntity
  8
0
  6
HIDDEN
 62
     7
370
     0
100
AcDbLine
 10
245.2630254723
 20
137.2573319102
 30
0.0
 11
244.5184709273
 21
137.3487517131
 31
0.0
  0
LINE
  5
F3
330
1F
100
AcDbEntity
  8
0
  6
HIDDEN
 62
     7
370
     0
100
AcDbLine
 10
249.2960102723
 20
139.7242225291
 30
0.0
 11
249.8687961863
 21
144.3891894419
 31
0.0
  0
LINE
  5
F4
330
1F
100
AcDbEntity
  8
0
  6
HIDDEN
 62
     7
370
     0
100
AcDbLine
 10
249.2960102723
 20
139.7242225291
 30
0.0
 11
249.6820421966
 21
139.6768237688
 31
0.0
  0
LINE
  5
F5
330
1F
100
AcDbEntity
  8
0
  6
HIDDEN
 62
     7
370
     0
100
AcDbLine
 10
249.323746327
 20
136.7587380831
 30
0.0
 11
249.6820421966
 21
139.6768237688
 31
0.0
  0
LINE
  5
F6
330
1F
100
AcDbEntity
  8
0
  6
HIDDEN
 62
     7
370
     0
100
AcDbLine
 10
249.6820421966
 20
139.6768237688
 30
0.0
 11
251.2326777535
 21
139.4864296628
 31
0.0
  0
LINE
  5
F7
330
1F
100
AcDbEntity
  8
0
  6
HIDDEN
 62
     7
370
     0
100
AcDbLine
 10
247.7634968049
 20
139.0594365998
 30
0.0
 11
239.8231275918
 21
140.0343913471
 31
0.0
  0
LINE
  5
F8
330
1F
100
AcDbEntity
  8
0
  6
HIDDEN
 62
     7
370
     0
100
AcDbLine
 10
248.3785222831
 20
144.0684171561
 30
0.0
 11
240.4381530699
 21
145.0433719033
 31
0.0
  0
LINE
  5
F9
330
1F
100
AcDbEntity
  8
0
  6
HIDDEN
 62
     7
370
     0
100
AcDbLine
 10
245.6859623153
 20
127.4728568817
 30
0.0
 11
239.0359030993
 21
128.2893814825
 31
0.0
  0
LINE
  5
FA
330
1F
100
AcDbEntity
  8
0
  6
HIDDEN
 62
     7
370
     0
100
AcDbLine
 10
246.3546116123
 20
127.9952629666
 30
0.0
 11
238.5134970143
 21
128.9580307795
 31
0.0
  0
LINE
  5
FB
330
1F
100
AcDbEntity
  8
0
  6
HIDDEN
 62
     7
370
     0
100
AcDbLine
 10
246.5743371741
 20
129.7847840613
 30
0.0
 11
238.7332225762
 21
130.7475518742
 31
0.0
  0
LINE
  5
FC
330
1F
100
AcDbEntity
  8
0
  6
HIDDEN
 62
     7
370
     0
100
AcDbLine
 10
247.1829624038
 20
134.7416387761
 30
0.0
 11
239.3418478058
 21
135.704406589
 31
0.0
  0
LINE
  5
FD
330
1F
100
AcDbEntity
  8
0
  6
HIDDEN
 62
     7
370
     0
100
AcDbLine
 10
247.4148748999
 20
136.6304144859
 30
0.0
 11
239.573760302
 21
137.5931822988
 31
0.0
  0
LINE
  5
FE
330
1F
100
AcDbEntity
  8
0
  6
HIDDEN
 62
     7
370
     0
100
AcDbLine
 10
244.568585118
 20
131.2962266468
 30
0.0
 11
241.0450462796
 21
131.7288628158
 31
0.0
  0
LINE
  5
FF
330
1F
100
AcDbEntity
  8
0
  6
HIDDEN
 62
     7
370
     0
100
AcDbLine
 10
244.8711387003
 20
133.7603278344
 30
0.0
 11
241.347599862
 21
134.1929640035
 31
0.0
  0
SPLINE
  5
100
330
1F
100
AcDbEntity
  8
0
  6
HIDDEN
 62
     7
370
     0
100
AcDbSpline
210
0.0
220
0.0
230
1.0
 70
     8
 71
     3
 72
    11
 73
     7
 74
     0
 42
0.00000001
 43
0.00000001
 12
1.0
 22
0.0
 32
0.0
 13
1.0
 23
0.0
 33
0.0
 40
0.0
 40
0.0
 40
0.0
 40
0.0
 40
0.1081100880371193
 40
0.4711580666043542
 40
0.8135808430835991
 40
1.0
 40
1.0
 40
1.0
 40
1.0
 10
243.5770473742928
 20
144.8917576130439
 30
0.0
 10
243.6317539711042
 20
144.8568605616575
 30
0.0
 10
243.8701725576775
 20
144.7047745948441
 30
0.0
 10
244.3368069240167
 20
144.5189719533249
 30
0.0
 10
244.8872113954415
 20
144.5485979601359
 30
0.0
 10
245.1895958569081
 20
144.6462506918323
 30
0.0
 10
245.2961877377925
 20
144.6806737183811
 30
0.0
  0
SPLINE
  5
101
330
1F
100
AcDbEntity
  8
0
  6
HIDDEN
 62
     7
370
     0
100
AcDbSpline
210
0.0
220
0.0
230
1.0
 70
     8
 71
     3
 72
    10
 73
     6
 74
     0
 42
0.00000001
 43
0.00000001
 12
1.0
 22
0.0
 32
0.0
 13
1.0
 23
0.0
 33
0.0
 40
0.0
 40
0.0
 40
0.0
 40
0.0
 40
0.4391165375904113
 40
0.7513669429073346
 40
0.9999999999999999
 40
0.9999999999999999
 40
0.9999999999999999
 40
0.9999999999999999
 10
245.2961877377925
 20
144.6806737183811
 30
0.0
 10
245.4067216450289
 20
144.5635958029935
 30
0.0
 10
245.5958548633392
 20
144.3632652122819
 30
0.0
 10
245.9114581621699
 20
144.403237219509
 30
0.0
 10
246.0807242493712
 20
144.5223364706234
 30
0.0
 10
246.1557579195424
 20
144.5751317710497
 30
0.0
  0
SPLINE
  5
102
330
1F
100
AcDbEntity
  8
0
  6
HIDDEN
 62
     7
370
     0
100
AcDbSpline
210
0.0
220
0.0
230
1.0
 70
     8
 71
     3
 72
    10
 73
     6
 74
     0
 42
0.00000001
 43
0.00000001
 12
1.0
 22
0.0
 32
0.0
 13
1.0
 23
0.0
 33
0.0
 40
0.0
 40
0.0
 40
0.0
 40
0.0
 40
0.4391165375904283
 40
0.7513669429073769
 40
1.0
 40
1.0
 40
1.0
 40
1.0
 10
242.717477192543
 20
144.9972995603753
 30
0.0
 10
242.8280110997793
 20
144.8802216449877
 30
0.0
 10
243.0171443180896
 20
144.679891054276
 30
0.0
 10
243.3327476169202
 20
144.7198630615031
 30
0.0
 10
243.5020137041215
 20
144.8389623126176
 30
0.0
 10
243.5770473742928
 20
144.8917576130439
 30
0.0
  0
LINE
  5
103
330
1F
100
AcDbEntity
  8
0
  6
HIDDEN
 62
     7
370
     0
100
AcDbLine
 10
244.8413651563
 20
140.9764410516
 30
0.0
 11
245.2711502472
 21
140.9236700779
 31
0.0
  0
LINE
  5
104
330
1F
100
AcDbEntity
  8
0
  6
HIDDEN
 62
     7
370
     0
100
AcDbLine
 10
243.9817949746
 20
141.0819829989
 30
0.0
 11
244.8413651563
 21
140.9764410516
 31
0.0
  0
LINE
  5
105
330
1F
100
AcDbEntity
  8
0
  6
HIDDEN
 62
     7
370
     0
100
AcDbLine
 10
244.8413651563
 20
140.9764410516
 30
0.0
 11
245.2961877378
 21
144.6806737184
 31
0.0
  0
LINE
  5
106
330
1F
100
AcDbEntity
  8
0
  6
HIDDEN
 62
     7
370
     0
100
AcDbLine
 10
243.1222247928
 20
141.1875249463
 30
0.0
 11
243.9817949746
 21
141.0819829989
 31
0.0
  0
LINE
  5
107
330
1F
100
AcDbEntity
  8
0
  6
HIDDEN
 62
     7
370
     0
100
AcDbLine
 10
242.6924397019
 20
141.2402959199
 30
0.0
 11
243.1222247928
 21
141.1875249463
 31
0.0
  0
LINE
  5
108
330
1F
100
AcDbEntity
  8
0
  6
HIDDEN
 62
     7
370
     0
100
AcDbLine
 10
243.1222247928
 20
141.1875249463
 30
0.0
 11
243.5770473743
 21
144.891757613
 31
0.0
  0
LINE
  5
109
330
1F
100
AcDbEntity
  8
0
  6
HIDDEN
 62
     7
370
     0
100
AcDbLine
 10
242.2626546111
 20
141.2930668936
 30
0.0
 11
242.6924397019
 21
141.2402959199
 31
0.0
  0
LINE
  5
10A
330
1F
100
AcDbEntity
  8
0
  6
HIDDEN
 62
     7
370
     0
100
AcDbLine
 10
245.2711502472
 20
140.9236700779
 30
0.0
 11
245.7009353381
 21
140.8708991043
 31
0.0
  0
LINE
  5
10B
330
1F
100
AcDbEntity
  8
0
  6
HIDDEN
 62
     7
370
     0
100
AcDbLine
 10
245.7009353381
 20
140.8708991043
 30
0.0
 11
246.1557579195
 21
144.575131771
 31
0.0
  0
LINE
  5
10C
330
1F
100
AcDbEntity
  8
0
  6
HIDDEN
 62
     7
370
     0
100
AcDbLine
 10
242.2626546111
 20
141.2930668936
 30
0.0
 11
242.7174771925
 21
144.9972995604
 31
0.0
  0
LINE
  5
10D
330
1F
100
AcDbEntity
  8
0
  6
HIDDEN
 62
     7
370
     0
100
AcDbLine
 10
248.200871893
 20
135.620536446
 30
0.0
 11
251.536441851
 21
135.4053888097
 31
0.0
  0
SPLINE
  5
10E
330
1F
100
AcDbEntity
  8
0
  6
HIDDEN
 62
     7
370
     0
100
AcDbSpline
210
0.0
220
0.0
230
1.0
 70
     8
 71
     3
 72
    17
 73
    13
 74
     0
 42
0.00000001
 43
0.00000001
 12
1.0
 22
0.0
 32
0.0
 13
1.0
 23
0.0
 33
0.0
 40
0.0
 40
0.0
 40
0.0
 40
0.0
 40
0.0491197050360457
 40
0.165068540412422
 40
0.2840074046614855
 40
0.44398514990828
 40
0.6084969652014588
 40
0.7627708846043688
 40
0.9203022708780785
 40
0.9487711912193264
 40
0.9778333692371555
 40
0.9999999999999999
 40
0.9999999999999999
 40
0.9999999999999999
 40
0.9999999999999999
 10
251.536441850967
 20
135.4053888096746
 30
0.0
 10
251.61396525006
 20
135.4023329587711
 30
0.0
 10
251.8744854288091
 20
135.3920636615922
 30
0.0
 10
252.3245049582695
 20
135.4443024694461
 30
0.0
 10
252.9339231432311
 20
135.6180089280633
 30
0.0
 10
253.582867955516
 20
135.9368621157281
 30
0.0
 10
254.2271911705386
 20
136.3973886139766
 30
0.0
 10
254.805058035349
 20
136.9415003519375
 30
0.0
 10
255.1902635886292
 20
137.3762016018425
 30
0.0
 10
255.3650792959541
 20
137.7017491207499
 30
0.0
 10
255.4145723240274
 20
137.8320579837543
 30
0.0
 10
255.4260651095243
 20
137.9207777913417
 30
0.0
 10
255.4310380210288
 20
137.9591667225495
 30
0.0
  0
LINE
  5
10F
330
1F
100
AcDbEntity
  8
0
  6
HIDDEN
 62
     7
370
     0
100
AcDbLine
 10
255.431038021
 20
137.9591667225
 30
0.0
 11
255.8244116604
 21
143.2146274879
 31
0.0
  0
LINE
  5
110
330
1F
100
AcDbEntity
  8
0
  6
HIDDEN
 62
     7
370
     0
100
AcDbLine
 10
255.8244116604
 20
143.2146274879
 30
0.0
 11
256.6742122309
 21
143.1102850979
 31
0.0
  0
LINE
  5
111
330
1F
100
AcDbEntity
  8
0
  6
HIDDEN
 62
     7
370
     0
100
AcDbLine
 10
256.6742122309
 20
143.1102850979
 30
0.0
 11
256.391218588
 21
139.3294979826
 31
0.0
  0
LINE
  5
112
330
1F
100
AcDbEntity
  8
0
  6
HIDDEN
 62
     7
370
     0
100
AcDbLine
 10
254.1234036476
 20
130.5273592439
 30
0.0
 11
254.281833794
 21
131.8176692411
 31
0.0
  0
SPLINE
  5
113
330
1F
100
AcDbEntity
  8
0
  6
HIDDEN
 62
     7
370
     0
100
AcDbSpline
210
0.0
220
0.0
230
1.0
 70
     8
 71
     3
 72
     9
 73
     5
 74
     0
 42
0.00000001
 43
0.00000001
 12
1.0
 22
0.0
 32
0.0
 13
1.0
 23
0.0
 33
0.0
 40
0.0
 40
0.0
 40
0.0
 40
0.0
 40
0.667874865732571
 40
1.0
 40
1.0
 40
1.0
 40
1.0
 10
246.7101851637082
 20
131.4375880203453
 30
0.0
 10
246.5134346232321
 20
131.5728291169312
 30
0.0
 10
246.2188427010458
 20
131.7753237810141
 30
0.0
 10
245.915924997322
 20
131.962676237556
 30
0.0
 10
245.8153184143007
 20
132.0249006973403
 30
0.0
  0
LINE
  5
114
330
1F
100
AcDbEntity
  8
0
  6
HIDDEN
 62
     7
370
     0
100
AcDbLine
 10
246.16291949
 20
134.8558842764
 30
0.0
 11
245.8153184143
 21
132.0249006973
 31
0.0
  0
LINE
  5
115
330
1F
100
AcDbEntity
  8
0
  6
HIDDEN
 62
     7
370
     0
100
AcDbLine
 10
246.16291949
 20
134.8558842764
 30
0.0
 11
248.200871893
 21
135.620536446
 31
0.0
  0
LINE
  5
116
330
1F
100
AcDbEntity
  8
0
  6
HIDDEN
 62
     7
370
     0
100
AcDbLine
 10
246.7101851637
 20
131.4375880203
 30
0.0
 11
253.202450985
 21
130.6404380122
 31
0.0
  0
SPLINE
  5
117
330
1F
100
AcDbEntity
  8
0
  6
HIDDEN
 62
     7
370
     0
100
AcDbSpline
210
0.0
220
0.0
230
1.0
 70
     8
 71
     3
 72
     9
 73
     5
 74
     0
 42
0.00000001
 43
0.00000001
 12
1.0
 22
0.0
 32
0.0
 13
1.0
 23
0.0
 33
0.0
 40
0.0
 40
0.0
 40
0.0
 40
0.0
 40
0.3321251342674232
 40
1.0
 40
1.0
 40
1.0
 40
1.0
 10
243.9696586453627
 20
132.2515192216455
 30
0.0
 10
244.0702652283839
 20
132.1892947618612
 30
0.0
 10
244.3731829321077
 20
132.0019423053193
 30
0.0
 10
244.6677748542941
 20
131.7994476412364
 30
0.0
 10
244.8645253947702
 20
131.6642065446505
 30
0.0
  0
SPLINE
  5
118
330
1F
100
AcDbEntity
  8
0
  6
HIDDEN
 62
     7
370
     0
100
AcDbSpline
210
0.0
220
0.0
230
1.0
 70
     8
 71
     3
 72
    15
 73
    11
 74
     0
 42
0.00000001
 43
0.00000001
 12
1.0
 22
0.0
 32
0.0
 13
1.0
 23
0.0
 33
0.0
 40
0.0
 40
0.0
 40
0.0
 40
0.0
 40
0.0722806258799303
 40
0.1446252986257248
 40
0.3452165277704203
 40
0.5526658455201696
 40
0.7163995882290977
 40
0.8838037654203745
 40
0.941884495784516
 40
1.0
 40
1.0
 40
1.0
 40
1.0
 10
245.8153184143007
 20
132.0249006973403
 30
0.0
 10
245.7775947958358
 20
132.0705639637378
 30
0.0
 10
245.7021141325277
 20
132.1619309581235
 30
0.0
 10
245.5168542153851
 20
132.3622341948143
 30
0.0
 10
245.2457793713987
 20
132.5952305692677
 30
0.0
 10
244.8860397109042
 20
132.6974341173504
 30
0.0
 10
244.5301420003844
 20
132.6080757113395
 30
0.0
 10
244.2719234191773
 20
132.4635910984537
 30
0.0
 10
244.0845490858645
 20
132.3366823407075
 30
0.0
 10
244.0079630987831
 20
132.2799125911286
 30
0.0
 10
243.9696586453627
 20
132.2515192216455
 30
0.0
  0
LINE
  5
119
330
1F
100
AcDbEntity
  8
0
  6
HIDDEN
 62
     7
370
     0
100
AcDbLine
 10
244.8645253948
 20
131.6642065447
 30
0.0
 11
246.7101851637
 21
131.4375880203
 31
0.0
  0
LINE
  5
11A
330
1F
100
AcDbEntity
  8
0
  6
HIDDEN
 62
     7
370
     0
100
AcDbLine
 10
244.317259721
 20
135.0825028007
 30
0.0
 11
243.9696586454
 21
132.2515192216
 31
0.0
  0
SPLINE
  5
11B
330
1F
100
AcDbEntity
  8
0
  6
HIDDEN
 62
     7
370
     0
100
AcDbSpline
210
0.0
220
0.0
230
1.0
 70
     8
 71
     3
 72
    15
 73
    11
 74
     0
 42
0.00000001
 43
0.00000001
 12
1.0
 22
0.0
 32
0.0
 13
1.0
 23
0.0
 33
0.0
 40
0.0
 40
0.0
 40
0.0
 40
0.0
 40
0.0632741509532634
 40
0.1265890375815333
 40
0.2891881726087548
 40
0.4545791208374364
 40
0.649847397545526
 40
0.8534461320970856
 40
0.9266836039188078
 40
1.0
 40
1.0
 40
1.0
 40
1.0
 10
244.3172597210448
 20
135.0825028007372
 30
0.0
 10
244.3502617038544
 20
135.0424579694438
 30
0.0
 10
244.4162869160337
 20
134.9623425261359
 30
0.0
 10
244.5707823494808
 20
134.7919398235802
 30
0.0
 10
244.7883056810477
 20
134.5912088912738
 30
0.0
 10
245.1039493447115
 20
134.4286945580342
 30
0.0
 10
245.4724557436189
 20
134.4415127435803
 30
0.0
 10
245.7864668240822
 20
134.5975490672824
 30
0.0
 10
246.0179616660918
 20
134.7488945104185
 30
0.0
 10
246.1145828707471
 20
134.8202082194722
 30
0.0
 10
246.1629194899828
 20
134.8558842764321
 30
0.0
  0
SPLINE
  5
11C
330
1F
100
AcDbEntity
  8
0
  6
HIDDEN
 62
     7
370
     0
100
AcDbSpline
210
0.0
220
0.0
230
1.0
 70
     8
 71
     3
 72
     9
 73
     5
 74
     0
 42
0.00000001
 43
0.00000001
 12
1.0
 22
0.0
 32
0.0
 13
1.0
 23
0.0
 33
0.0
 40
0.0
 40
0.0
 40
0.0
 40
0.0
 40
0.5627412962132939
 40
1.0
 40
1.0
 40
1.0
 40
1.0
 10
246.3552121240683
 20
135.8471549702715
 30
0.0
 10
245.976635387042
 20
135.6908618407077
 30
0.0
 10
245.3038986613499
 20
135.4131265285573
 30
0.0
 10
244.6174259075543
 20
135.1830887998248
 30
0.0
 10
244.3172597210448
 20
135.0825028007372
 30
0.0
  0
ELLIPSE
  5
11D
330
1F
100
AcDbEntity
  8
0
  6
HIDDEN
 62
     7
370
     0
100
AcDbEllipse
 10
243.7262519847
 20
135.9629397574
 30
0.0
 11
4.489359628895841
 21
-0.3356109403474932
 31
0.0
210
0.0
220
0.0
230
1.0
 40
0.0220396627
 41
6.203760002021735
 42
7.230012613687457
  0
LINE
  5
11E
330
1F
100
AcDbEntity
  8
0
  6
HIDDEN
 62
     7
370
     0
100
AcDbLine
 10
249.690782082
 20
135.632007334
 30
0.0
 11
246.3552121241
 21
135.8471549703
 31
0.0
  0
SPLINE
  5
11F
330
1F
100
AcDbEntity
  8
0
  6
HIDDEN
 62
     7
370
     0
100
AcDbSpline
210
0.0
220
0.0
230
1.0
 70
     8
 71
     3
 72
    15
 73
    11
 74
     0
 42
0.00000001
 43
0.00000001
 12
1.0
 22
0.0
 32
0.0
 13
1.0
 23
0.0
 33
0.0
 40
0.0
 40
0.0
 40
0.0
 40
0.0
 40
0.0273328737567766
 40
0.0554017046814197
 40
0.117141813597497
 40
0.1805937488144758
 40
0.4201233568760557
 40
0.6656320959510543
 40
0.9048702050321069
 40
1.0
 40
1.0
 40
1.0
 40
1.0
 10
253.5853782520908
 20
138.1857852468547
 30
0.0
 10
253.5812455518431
 20
138.1518936521997
 30
0.0
 10
253.5728688754388
 20
138.0831979074724
 30
0.0
 10
253.5280739467186
 20
137.9439524679873
 30
0.0
 10
253.4400114941336
 20
137.775992697517
 30
0.0
 10
253.1841518266813
 20
137.4127776502369
 30
0.0
 10
252.7294291704624
 20
136.9294622130913
 30
0.0
 10
252.0659642937381
 20
136.3857729838131
 30
0.0
 10
251.487737437803
 20
136.009922298513
 30
0.0
 10
251.1208186214908
 20
135.896120618891
 30
0.0
 10
251.0164278849908
 20
135.8637433173667
 30
0.0
  0
SPLINE
  5
120
330
1F
100
AcDbEntity
  8
0
  6
HIDDEN
 62
     7
370
     0
100
AcDbSpline
210
0.0
220
0.0
230
1.0
 70
     8
 71
     3
 72
    10
 73
     6
 74
     0
 42
0.00000001
 43
0.00000001
 12
1.0
 22
0.0
 32
0.0
 13
1.0
 23
0.0
 33
0.0
 40
0.0
 40
0.0
 40
0.0
 40
0.0
 40
0.3362160583982302
 40
0.7097079204479569
 40
1.0
 40
1.0
 40
1.0
 40
1.0
 10
250.4905798570534
 20
135.6899514981352
 30
0.0
 10
250.4015182942883
 20
135.6737515482709
 30
0.0
 10
250.2135210379914
 20
135.6395555827826
 30
0.0
 10
249.9455372944249
 20
135.6220070100714
 30
0.0
 10
249.7682952138376
 20
135.6289645839691
 30
0.0
 10
249.690782082029
 20
135.6320073339798
 30
0.0
  0
LINE
  5
121
330
1F
100
AcDbEntity
  8
0
  6
HIDDEN
 62
     7
370
     0
100
AcDbLine
 10
253.9787518914
 20
143.4412460122
 30
0.0
 11
253.5853782521
 21
138.1857852469
 31
0.0
  0
LINE
  5
122
330
1F
100
AcDbEntity
  8
0
  6
HIDDEN
 62
     7
370
     0
100
AcDbLine
 10
253.0907355348
 20
143.5502807106
 30
0.0
 11
255.8244116604
 21
143.2146274879
 31
0.0
  0
LINE
  5
123
330
1F
100
AcDbEntity
  8
0
  6
HIDDEN
 62
     7
370
     0
100
AcDbLine
 10
254.5754614845
 20
131.781616294
 30
0.0
 11
254.4170313381
 21
130.4913062969
 31
0.0
  0
LINE
  5
124
330
1F
100
AcDbEntity
  8
0
  6
HIDDEN
 62
     7
370
     0
100
AcDbLine
 10
254.5754614845
 20
131.781616294
 30
0.0
 11
254.281833794
 21
131.8176692411
 31
0.0
  0
LINE
  5
125
330
1F
100
AcDbEntity
  8
0
  6
HIDDEN
 62
     7
370
     0
100
AcDbLine
 10
255.7448794826
 20
131.6380298186
 30
0.0
 11
254.5754614845
 21
131.781616294
 31
0.0
  0
LINE
  5
126
330
1F
100
AcDbEntity
  8
0
  6
HIDDEN
 62
     7
370
     0
100
AcDbLine
 10
257.4068057474
 20
131.4339709319
 30
0.0
 11
255.7448794826
 21
131.6380298186
 31
0.0
  0
LINE
  5
127
330
1F
100
AcDbEntity
  8
0
  6
HIDDEN
 62
     7
370
     0
100
AcDbLine
 10
252.4361740251
 20
132.0442877654
 30
0.0
 11
253.6055920232
 21
131.90070129
 31
0.0
  0
SPLINE
  5
128
330
1F
100
AcDbEntity
  8
0
  6
HIDDEN
 62
     7
370
     0
100
AcDbSpline
210
0.0
220
0.0
230
1.0
 70
     8
 71
     3
 72
    13
 73
     9
 74
     0
 42
0.00000001
 43
0.00000001
 12
1.0
 22
0.0
 32
0.0
 13
1.0
 23
0.0
 33
0.0
 40
0.0
 40
0.0
 40
0.0
 40
0.0
 40
0.0727159300600081
 40
0.1452385356749279
 40
0.273645897309767
 40
0.5482767899782082
 40
0.8261064785622123
 40
1.0
 40
1.0
 40
1.0
 40
1.0
 10
255.4143992272395
 20
131.678607691642
 30
0.0
 10
255.2619706859099
 20
131.7971210567189
 30
0.0
 10
254.9575188536979
 20
132.0338327041868
 30
0.0
 10
254.5711971645017
 20
132.7007407827458
 30
0.0
 10
254.3059853029615
 20
133.9885228673982
 30
0.0
 10
254.3206903094887
 20
135.8602815684197
 30
0.0
 10
254.4211740984803
 20
137.8462486169344
 30
0.0
 10
254.5109854197691
 20
139.0808495684732
 30
0.0
 10
254.5455588190929
 20
139.5561165068782
 30
0.0
  0
SPLINE
  5
129
330
1F
100
AcDbEntity
  8
0
  6
HIDDEN
 62
     7
370
     0
100
AcDbSpline
210
0.0
220
0.0
230
1.0
 70
     8
 71
     3
 72
    23
 73
    19
 74
     0
 42
0.00000001
 43
0.00000001
 12
1.0
 22
0.0
 32
0.0
 13
1.0
 23
0.0
 33
0.0
 40
0.0
 40
0.0
 40
0.0
 40
0.0
 40
0.1736794559376711
 40
0.307306320967942
 40
0.4409707706576639
 40
0.5749775181642972
 40
0.709454678463053
 40
0.762295430970756
 40
0.7888783365107666
 40
0.8155379940651947
 40
0.8373602721004929
 40
0.8592757645231835
 40
0.8815726949432864
 40
0.9040536237226072
 40
0.9377850778617055
 40
0.9550924781722563
 40
0.9725349177649308
 40
1.0
 40
1.0
 40
1.0
 40
1.0
 10
256.3912185880308
 20
139.3294979825714
 30
0.0
 10
256.3565352477796
 20
138.8543071211255
 30
0.0
 10
256.2951669665749
 20
138.0135101794255
 30
0.0
 10
256.2210330318924
 20
136.8063634138397
 30
0.0
 10
256.1678430369319
 20
135.707327873015
 30
0.0
 10
256.139799049808
 20
134.6063170132253
 30
0.0
 10
256.1541453371131
 20
133.7275786755959
 30
0.0
 10
256.2009251539022
 20
133.1510460329174
 30
0.0
 10
256.2351362422031
 20
132.8695802531868
 30
0.0
 10
256.2653028075158
 20
132.6735617505198
 30
0.0
 10
256.2992568438638
 20
132.4938253535777
 30
0.0
 10
256.3361197344406
 20
132.3300252261869
 30
0.0
 10
256.3783831449023
 20
132.1712681295969
 30
0.0
 10
256.4332750400318
 20
131.9950772420002
 30
0.0
 10
256.4889589172508
 20
131.8457346045676
 30
0.0
 10
256.5397148561053
 20
131.7242677951532
 30
0.0
 10
256.584110845882
 20
131.6240746872794
 30
0.0
 10
256.6105857308199
 20
131.5655435359126
 30
0.0
 10
256.626777559324
 20
131.529746350493
 30
0.0
  0
LINE
  5
12A
330
1F
100
AcDbEntity
  8
0
  6
HIDDEN
 62
     7
370
     0
100
AcDbLine
 10
254.5455588191
 20
139.5561165069
 30
0.0
 11
254.828552462
 21
143.3369036222
 31
0.0
  0
LINE
  5
12B
330
1F
100
AcDbEntity
  8
0
  6
HIDDEN
 62
     7
370
     0
100
AcDbLine
 10
256.6742122309
 20
143.1102850979
 30
0.0
 11
257.5622285876
 21
143.0012503995
 31
0.0
  0
LINE
  5
12C
330
1F
100
AcDbEntity
  8
0
  6
HIDDEN
 62
     7
370
     0
100
AcDbLine
 10
253.6055920232
 20
131.90070129
 30
0.0
 11
254.281833794
 21
131.8176692411
 31
0.0
  0
LINE
  5
12D
330
1F
100
AcDbEntity
  8
0
  6
HIDDEN
 62
     7
370
     0
100
AcDbLine
 10
252.1425463345
 20
132.0803407124
 30
0.0
 11
251.9841161881
 21
130.7900307153
 31
0.0
  0
LINE
  5
12E
330
1F
100
AcDbEntity
  8
0
  6
HIDDEN
 62
     7
370
     0
100
AcDbLine
 10
252.4361740251
 20
132.0442877654
 30
0.0
 11
252.2777438786
 21
130.7539777682
 31
0.0
  0
LINE
  5
12F
330
1F
100
AcDbEntity
  8
0
  6
HIDDEN
 62
     7
370
     0
100
AcDbLine
 10
252.4361740251
 20
132.0442877654
 30
0.0
 11
252.1425463345
 21
132.0803407124
 31
0.0
  0
LINE
  5
130
330
1F
100
AcDbEntity
  8
0
  6
HIDDEN
 62
     7
370
     0
100
AcDbLine
 10
258.9624177411
 20
138.7992894873
 30
0.0
 11
255.4424419832
 21
139.2314881651
 31
0.0
  0
LINE
  5
131
330
1F
100
AcDbEntity
  8
0
  6
HIDDEN
 62
     7
370
     0
100
AcDbLine
 10
258.6429635371
 20
139.0400154965
 30
0.0
 11
255.4668158518
 21
139.4299973954
 31
0.0
  0
LINE
  5
132
330
1F
100
AcDbEntity
  8
0
  6
HIDDEN
 62
     7
370
     0
100
AcDbLine
 10
255.4668158518
 20
139.4299973954
 30
0.0
 11
255.4424419832
 21
139.2314881651
 31
0.0
  0
LINE
  5
133
330
1F
100
AcDbEntity
  8
0
  6
HIDDEN
 62
     7
370
     0
100
AcDbLine
 10
255.3834603169
 20
138.7511210421
 30
0.0
 11
255.4424419832
 21
139.2314881651
 31
0.0
  0
LINE
  5
134
330
1F
100
AcDbEntity
  8
0
  6
HIDDEN
 62
     7
370
     0
100
AcDbLine
 10
255.352992981
 20
138.5029845042
 30
0.0
 11
255.3834603169
 21
138.7511210421
 31
0.0
  0
LINE
  5
135
330
1F
100
AcDbEntity
  8
0
  6
HIDDEN
 62
     7
370
     0
100
AcDbLine
 10
257.9117474767
 20
133.0847385867
 30
0.0
 11
254.7355997914
 21
133.4747204856
 31
0.0
  0
LINE
  5
136
330
1F
100
AcDbEntity
  8
0
  6
HIDDEN
 62
     7
370
     0
100
AcDbLine
 10
254.7355997914
 20
133.4747204856
 30
0.0
 11
255.352992981
 21
138.5029845042
 31
0.0
  0
LINE
  5
137
330
1F
100
AcDbEntity
  8
0
  6
HIDDEN
 62
     7
370
     0
100
AcDbLine
 10
246.0590113575
 20
140.3634783777
 30
0.0
 11
254.8841186252
 21
139.2798914569
 31
0.0
  0
LINE
  5
138
330
1F
100
AcDbEntity
  8
0
  6
HIDDEN
 62
     7
370
     0
100
AcDbLine
 10
256.0551304855
 20
143.710815343
 30
0.0
 11
255.8394291589
 21
143.9583408419
 31
0.0
  0
LINE
  5
139
330
1F
100
AcDbEntity
  8
0
  6
HIDDEN
 62
     7
370
     0
100
AcDbLine
 10
256.0551304855
 20
143.710815343
 30
0.0
 11
256.3243063988
 21
143.8988054029
 31
0.0
  0
LINE
  5
13A
330
1F
100
AcDbEntity
  8
0
  6
HIDDEN
 62
     7
370
     0
100
AcDbLine
 10
256.011400094
 20
143.3546598853
 30
0.0
 11
256.0551304855
 21
143.710815343
 31
0.0
  0
SPLINE
  5
13B
330
1F
100
AcDbEntity
  8
0
  6
HIDDEN
 62
     7
370
     0
100
AcDbSpline
210
0.0
220
0.0
230
1.0
 70
    24
 71
     3
 72
     9
 73
     5
 74
     0
 42
0.00000001
 43
0.00000001
 12
1.0
 22
0.0
 32
0.0
 13
1.0
 23
0.0
 33
0.0
 40
0.0
 40
0.0
 40
0.0
 40
0.0
 40
0.2509286385896405
 40
1.0
 40
1.0
 40
1.0
 40
1.0
 10
256.0051422288093
 20
143.3036936632688
 30
0.0
 10
256.0047263272476
 20
143.3003064168708
 30
0.0
 10
256.0030688776876
 20
143.2868075734663
 30
0.0
 10
256.0078321003293
 20
143.3256009087742
 30
0.0
 10
256.0114000939982
 20
143.3546598852669
 30
0.0
  0
LINE
  5
13C
330
1F
100
AcDbEntity
  8
0
  6
HIDDEN
 62
     7
370
     0
100
AcDbLine
 10
257.2836493086
 20
143.3089482224
 30
0.0
 11
257.3006964944
 21
143.3063373235
 31
0.0
  0
SPLINE
  5
13D
330
1F
100
AcDbEntity
  8
0
  6
HIDDEN
 62
     7
370
     0
100
AcDbSpline
210
0.0
220
0.0
230
1.0
 70
     8
 71
     3
 72
    11
 73
     7
 74
     0
 42
0.00000001
 43
0.00000001
 12
1.0
 22
0.0
 32
0.0
 13
1.0
 23
0.0
 33
0.0
 40
0.0
 40
0.0
 40
0.0
 40
0.0
 40
0.3367831131412778
 40
0.6790111347687259
 40
0.992371733991861
 40
0.9999999999999999
 40
0.9999999999999999
 40
0.9999999999999999
 40
0.9999999999999999
 10
248.0987656190953
 20
144.20178942994
 30
0.0
 10
248.1741818939325
 20
144.1720826331006
 30
0.0
 10
248.3262337289535
 20
144.1121887576503
 30
0.0
 10
248.5685236806236
 20
144.1191510631581
 30
0.0
 10
248.722025832793
 20
144.1618246544626
 30
0.0
 10
248.7925669384921
 20
144.1916101625059
 30
0.0
 10
248.7942433403149
 20
144.1923180119149
 30
0.0
  0
SPLINE
  5
13E
330
1F
100
AcDbEntity
  8
0
  6
HIDDEN
 62
     7
370
     0
100
AcDbSpline
210
0.0
220
0.0
230
1.0
 70
     8
 71
     3
 72
    11
 73
     7
 74
     0
 42
0.00000001
 43
0.00000001
 12
1.0
 22
0.0
 32
0.0
 13
1.0
 23
0.0
 33
0.0
 40
0.0
 40
0.0
 40
0.0
 40
0.0
 40
0.0076282660081236
 40
0.3209888652310209
 40
0.6632168868585472
 40
1.0
 40
1.0
 40
1.0
 40
1.0
 10
263.2168242898243
 20
142.4214477429427
 30
0.0
 10
263.2182796510777
 20
142.4203553613796
 30
0.0
 10
263.2795196178964
 20
142.3743891722119
 30
0.0
 10
263.418138424021
 20
142.2958476373128
 30
0.0
 10
263.6515469944995
 20
142.2304768976408
 30
0.0
 10
263.8135718800767
 20
142.2518070008625
 30
0.0
 10
263.8939346938465
 20
142.2623865307094
 30
0.0
  0
LINE
  5
13F
330
1F
100
AcDbEntity
  8
0
  6
HIDDEN
 62
     7
370
     0
100
AcDbLine
 10
263.8939346938
 20
142.2623865307
 30
0.0
 11
265.2426902848
 21
142.5827248473
 31
0.0
  0
LINE
  5
140
330
1F
100
AcDbEntity
  8
0
  6
HIDDEN
 62
     7
370
     0
100
AcDbLine
 10
248.0987656191
 20
144.2017894299
 30
0.0
 11
246.8675706862
 21
144.8389058388
 31
0.0
  0
LINE
  5
141
330
1F
100
AcDbEntity
  8
0
  6
HIDDEN
 62
     7
370
     0
100
AcDbLine
 10
249.6067657889
 20
144.2510332268
 30
0.0
 11
249.6285357619
 21
144.2491908986
 31
0.0
  0
LINE
  5
142
330
1F
100
AcDbEntity
  8
0
  6
HIDDEN
 62
     7
370
     0
100
AcDbLine
 10
262.4269125397
 20
142.6773576624
 30
0.0
 11
262.4426417266
 21
142.674985836
 31
0.0
  0
LINE
  5
143
330
1F
100
AcDbEntity
  8
0
  6
HIDDEN
 62
     7
370
     0
100
AcDbLine
 10
245.9171914442
 20
140.3808916735
 30
0.0
 11
246.0590113575
 21
140.3634783777
 31
0.0
  0
LINE
  5
144
330
1F
100
AcDbEntity
  8
0
  6
HIDDEN
 62
     7
370
     0
100
AcDbLine
 10
246.8675706862
 20
144.8389058388
 30
0.0
 11
246.6518693595
 21
145.0864313376
 31
0.0
  0
LINE
  5
145
330
1F
100
AcDbEntity
  8
0
  6
HIDDEN
 62
     7
370
     0
100
AcDbLine
 10
265.2426902848
 20
142.5827248473
 30
0.0
 11
265.5118661981
 21
142.7707149072
 31
0.0
  0
LINE
  5
146
330
1F
100
AcDbEntity
  8
0
  6
HIDDEN
 62
     7
370
     0
100
AcDbLine
 10
254.451024519
 20
136.4314404293
 30
0.0
 11
254.9191668406
 21
136.3739597799
 31
0.0
  0
LINE
  5
147
330
1F
100
AcDbEntity
  8
0
  6
HIDDEN
 62
     7
370
     0
100
AcDbLine
 10
247.0237702946
 20
137.3433925779
 30
0.0
 11
254.451024519
 21
136.4314404293
 31
0.0
  0
LINE
  5
148
330
1F
100
AcDbEntity
  8
0
  6
HIDDEN
 62
     7
370
     0
100
AcDbLine
 10
251.3831075897
 20
136.5058803147
 30
0.0
 11
247.4861901422
 21
136.9843616124
 31
0.0
  0
LINE
  5
149
330
1F
100
AcDbEntity
  8
0
  6
HIDDEN
 62
     7
370
     0
100
AcDbLine
 10
253.2295491019
 20
138.0870004839
 30
0.0
 11
258.4472851658
 21
137.4463430524
 31
0.0
  0
LINE
  5
14A
330
1F
100
AcDbEntity
  8
0
  6
HIDDEN
 62
     7
370
     0
100
AcDbLine
 10
252.0949897953
 20
138.2263068502
 30
0.0
 11
253.2295491019
 21
138.0870004839
 31
0.0
  0
LINE
  5
14B
330
1F
100
AcDbEntity
  8
0
  6
HIDDEN
 62
     7
370
     0
100
AcDbLine
 10
253.1375220424
 20
137.3375002306
 30
0.0
 11
258.3552581063
 21
136.6968427991
 31
0.0
  0
LINE
  5
14C
330
1F
100
AcDbEntity
  8
0
  6
HIDDEN
 62
     7
370
     0
100
AcDbLine
 10
252.0029627358
 20
137.4768065969
 30
0.0
 11
253.1375220424
 21
137.3375002306
 31
0.0
  0
LINE
  5
14D
330
1F
100
AcDbEntity
  8
0
  6
HIDDEN
 62
     7
370
     0
100
AcDbLine
 10
246.6692205113
 20
137.3869258174
 30
0.0
 11
247.0237702946
 21
137.3433925779
 31
0.0
  0
LINE
  5
14E
330
1F
100
AcDbEntity
  8
0
  6
HIDDEN
 62
     7
370
     0
100
AcDbLine
 10
205.4664460388
 20
171.5614728655
 30
0.0
 11
199.8664460388
 21
171.5614728655
 31
0.0
  0
LINE
  5
14F
330
1F
100
AcDbEntity
  8
0
  6
HIDDEN
 62
     7
370
     0
100
AcDbLine
 10
205.6664460388
 20
172.0717348892
 30
0.0
 11
199.6664460388
 21
172.0717348892
 31
0.0
  0
LINE
  5
150
330
1F
100
AcDbEntity
  8
0
  6
HIDDEN
 62
     7
370
     0
100
AcDbLine
 10
205.4664460388
 20
172.2514728655
 30
0.0
 11
199.8664460388
 21
172.2514728655
 31
0.0
  0
LINE
  5
151
330
1F
100
AcDbEntity
  8
0
  6
HIDDEN
 62
     7
370
     0
100
AcDbLine
 10
205.6664460388
 20
172.7617348892
 30
0.0
 11
199.6664460388
 21
172.7617348892
 31
0.0
  0
LINE
  5
152
330
1F
100
AcDbEntity
  8
0
  6
HIDDEN
 62
     7
370
     0
100
AcDbLine
 10
205.6664460388
 20
173.3117348892
 30
0.0
 11
199.6664460388
 21
173.3117348892
 31
0.0
  0
LINE
  5
153
330
1F
100
AcDbEntity
  8
0
  6
HIDDEN
 62
     7
370
     0
100
AcDbLine
 10
205.4664460388
 20
170.8714728655
 30
0.0
 11
199.8664460388
 21
170.8714728655
 31
0.0
  0
LINE
  5
154
330
1F
100
AcDbEntity
  8
0
  6
HIDDEN
 62
     7
370
     0
100
AcDbLine
 10
205.6664460388
 20
171.3817348892
 30
0.0
 11
199.6664460388
 21
171.3817348892
 31
0.0
  0
LINE
  5
155
330
1F
100
AcDbEntity
  8
0
  6
HIDDEN
 62
     7
370
     0
100
AcDbLine
 10
205.4664460388
 20
170.1814728655
 30
0.0
 11
199.8664460388
 21
170.1814728655
 31
0.0
  0
LINE
  5
156
330
1F
100
AcDbEntity
  8
0
  6
HIDDEN
 62
     7
370
     0
100
AcDbLine
 10
205.6664460388
 20
170.6917348892
 30
0.0
 11
199.6664460388
 21
170.6917348892
 31
0.0
  0
LINE
  5
157
330
1F
100
AcDbEntity
  8
0
  6
HIDDEN
 62
     7
370
     0
100
AcDbLine
 10
205.5264460388
 20
173.4517348892
 30
0.0
 11
199.8064460388
 21
173.4517348892
 31
0.0
  0
LINE
  5
158
330
1F
100
AcDbEntity
  8
0
  6
HIDDEN
 62
     7
370
     0
100
AcDbLine
 10
205.6664460388
 20
167.2517348892
 30
0.0
 11
199.6664460388
 21
167.2517348892
 31
0.0
  0
LINE
  5
159
330
1F
100
AcDbEntity
  8
0
  6
HIDDEN
 62
     7
370
     0
100
AcDbLine
 10
205.6664460388
 20
170.0017348892
 30
0.0
 11
199.6664460388
 21
170.0017348892
 31
0.0
  0
LINE
  5
15A
330
1F
100
AcDbEntity
  8
0
  6
HIDDEN
 62
     7
370
     0
100
AcDbLine
 10
205.1468307965
 20
166.9517348892
 30
0.0
 11
200.1860612811
 21
166.9517348892
 31
0.0
  0
LINE
  5
15B
330
1F
100
AcDbEntity
  8
0
  6
HIDDEN
 62
     7
370
     0
100
AcDbLine
 10
205.1664460388
 20
168.5951105621
 30
0.0
 11
200.1664460388
 21
168.5951105621
 31
0.0
  0
LINE
  5
15C
330
1F
100
AcDbEntity
  8
0
  6
HIDDEN
 62
     7
370
     0
100
AcDbLine
 10
135.6664460388
 20
118.5017348892
 30
0.0
 11
135.7593392576
 21
118.594628108
 31
0.0
  0
LINE
  5
15D
330
1F
100
AcDbEntity
  8
0
  6
HIDDEN
 62
     7
370
     0
100
AcDbLine
 10
135.7593392576
 20
166.9088416703
 30
0.0
 11
135.6664460388
 21
167.0017348892
 31
0.0
  0
ARC
  5
15E
330
1F
100
AcDbEntity
  8
0
  6
HIDDEN
 62
     7
370
     0
100
AcDbCircle
 10
135.0522324764
 20
119.3017348892
 30
0.0
 40
1.000000000000018
100
AcDbArc
 50
315.0
 51
0.0
  0
ARC
  5
15F
330
1F
100
AcDbEntity
  8
0
  6
HIDDEN
 62
     7
370
     0
100
AcDbCircle
 10
135.0522324764
 20
119.3017348892
 30
0.0
 40
1.000000000000011
100
AcDbArc
 50
0.0
 51
52.1052014663
  0
ARC
  5
160
330
1F
100
AcDbEntity
  8
0
  6
HIDDEN
 62
     7
370
     0
100
AcDbCircle
 10
135.0522324764
 20
166.2017348892
 30
0.0
 40
1.000000000000028
100
AcDbArc
 50
343.125
 51
45.0
  0
ARC
  5
161
330
1F
100
AcDbEntity
  8
0
  6
HIDDEN
 62
     7
370
     0
100
AcDbCircle
 10
135.0522324764
 20
166.2017348892
 30
0.0
 40
1.000000000000011
100
AcDbArc
 50
307.8947985337
 51
343.125
  0
LINE
  5
162
330
1F
100
AcDbEntity
  8
0
  6
HIDDEN
 62
     7
370
     0
100
AcDbLine
 10
136.0522324764
 20
119.3017348892
 30
0.0
 11
136.0522324764
 21
166.2017348892
 31
0.0
  0
LINE
  5
163
330
1F
100
AcDbEntity
  8
0
  6
HIDDEN
 62
     7
370
     0
100
AcDbLine
 10
97.6664460388
 20
126.5553060447
 30
0.0
 11
99.1966744784
 21
127.4387838462
 31
0.0
  0
LINE
  5
164
330
1F
100
AcDbEntity
  8
0
  6
HIDDEN
 62
     7
370
     0
100
AcDbLine
 10
99.1966744784
 20
158.0646859321
 30
0.0
 11
97.6664460388
 21
158.9481637336
 31
0.0
  0
ARC
  5
165
330
1F
100
AcDbEntity
  8
0
  6
HIDDEN
 62
     7
370
     0
100
AcDbCircle
 10
107.6664460388
 20
128.7517348892
 30
0.0
 40
2.000000000000003
100
AcDbArc
 50
189.9742217944
 51
270.0
  0
ARC
  5
166
330
1F
100
AcDbEntity
  8
0
  6
HIDDEN
 62
     7
370
     0
100
AcDbCircle
 10
107.6664460388
 20
156.7517348892
 30
0.0
 40
2.000000000000008
100
AcDbArc
 50
90.0
 51
170.0257782056
  0
LINE
  5
167
330
1F
100
AcDbEntity
  8
0
  6
HIDDEN
 62
     7
370
     0
100
AcDbLine
 10
107.6664460388
 20
126.7517348892
 30
0.0
 11
108.6682473537
 21
126.7517348892
 31
0.0
  0
LINE
  5
168
330
1F
100
AcDbEntity
  8
0
  6
HIDDEN
 62
     7
370
     0
100
AcDbLine
 10
108.6682473537
 20
158.7517348892
 30
0.0
 11
107.6664460388
 21
158.7517348892
 31
0.0
  0
ARC
  5
169
330
1F
100
AcDbEntity
  8
0
  6
HIDDEN
 62
     7
370
     0
100
AcDbCircle
 10
108.6682473537
 20
128.7517348892
 30
0.0
 40
2.000000000000016
100
AcDbArc
 50
270.0
 51
315.0
  0
ARC
  5
16A
330
1F
100
AcDbEntity
  8
0
  6
HIDDEN
 62
     7
370
     0
100
AcDbCircle
 10
108.6682473537
 20
156.7517348892
 30
0.0
 40
2.000000000000016
100
AcDbArc
 50
45.0
 51
90.0
  0
LINE
  5
16B
330
1F
100
AcDbEntity
  8
0
  6
HIDDEN
 62
     7
370
     0
100
AcDbLine
 10
110.0824609161
 20
127.3375213268
 30
0.0
 11
111.4966744784
 21
128.7517348892
 31
0.0
  0
LINE
  5
16C
330
1F
100
AcDbEntity
  8
0
  6
HIDDEN
 62
     7
370
     0
100
AcDbLine
 10
111.4966744784
 20
156.7517348892
 30
0.0
 11
110.0824609161
 21
158.1659484515
 31
0.0
  0
LINE
  5
16D
330
1F
100
AcDbEntity
  8
0
  6
HIDDEN
 62
     7
370
     0
100
AcDbLine
 10
99.1966744784
 20
127.4387838462
 30
0.0
 11
104.0966744784
 21
128.7517348892
 31
0.0
  0
LINE
  5
16E
330
1F
100
AcDbEntity
  8
0
  6
HIDDEN
 62
     7
370
     0
100
AcDbLine
 10
104.0966744784
 20
156.7517348892
 30
0.0
 11
99.1966744784
 21
158.0646859321
 31
0.0
  0
LINE
  5
16F
330
1F
100
AcDbEntity
  8
0
  6
HIDDEN
 62
     7
370
     0
100
AcDbLine
 10
105.6966744784
 20
157.0981450507
 30
0.0
 11
105.0966744784
 21
156.7517348892
 31
0.0
  0
LINE
  5
170
330
1F
100
AcDbEntity
  8
0
  6
HIDDEN
 62
     7
370
     0
100
AcDbLine
 10
105.0966744784
 20
128.7517348892
 30
0.0
 11
105.6966744784
 21
128.4053247276
 31
0.0
  0
ARC
  5
171
330
1F
100
AcDbEntity
  8
0
  6
HIDDEN
 62
     7
370
     0
100
AcDbCircle
 10
124.1664460388
 20
129.2517348892
 30
0.0
 40
0.5000000000000142
100
AcDbArc
 50
275.6408087552
 51
0.0
  0
ARC
  5
172
330
1F
100
AcDbEntity
  8
0
  6
HIDDEN
 62
     7
370
     0
100
AcDbCircle
 10
124.1664460388
 20
156.2517348892
 30
0.0
 40
0.5000000000000161
100
AcDbArc
 50
0.0
 51
84.4068078678
  0
LINE
  5
173
330
1F
100
AcDbEntity
  8
0
  6
HIDDEN
 62
     7
370
     0
100
AcDbLine
 10
104.0966744784
 20
128.7517348892
 30
0.0
 11
105.0966744784
 21
128.7517348892
 31
0.0
  0
LINE
  5
174
330
1F
100
AcDbEntity
  8
0
  6
HIDDEN
 62
     7
370
     0
100
AcDbLine
 10
105.0966744784
 20
156.7517348892
 30
0.0
 11
104.0966744784
 21
156.7517348892
 31
0.0
  0
LINE
  5
175
330
1F
100
AcDbEntity
  8
0
  6
HIDDEN
 62
     7
370
     0
100
AcDbLine
 10
111.4966744784
 20
128.7517348892
 30
0.0
 11
116.1192835811
 21
128.7517348892
 31
0.0
  0
LINE
  5
176
330
1F
100
AcDbEntity
  8
0
  6
HIDDEN
 62
     7
370
     0
100
AcDbLine
 10
116.1192835811
 20
156.7517348892
 30
0.0
 11
111.4966744784
 21
156.7517348892
 31
0.0
  0
LINE
  5
177
330
1F
100
AcDbEntity
  8
0
  6
HIDDEN
 62
     7
370
     0
100
AcDbLine
 10
124.6664460388
 20
132.5017348892
 30
0.0
 11
125.9164460388
 21
133.7517348892
 31
0.0
  0
LINE
  5
178
330
1F
100
AcDbEntity
  8
0
  6
HIDDEN
 62
     7
370
     0
100
AcDbLine
 10
125.9164460388
 20
151.7517348892
 30
0.0
 11
124.6664460388
 21
153.0017348892
 31
0.0
  0
LINE
  5
179
330
1F
100
AcDbEntity
  8
0
  6
HIDDEN
 62
     7
370
     0
100
AcDbLine
 10
239.6912317943
 20
140.6012880896
 30
0.0
 11
236.1450187386
 21
111.7197004572
 31
0.0
  0
LINE
  5
17A
330
1F
100
AcDbEntity
  8
0
  6
HIDDEN
 62
     7
370
     0
100
AcDbLine
 10
247.782539241
 20
137.5734229865
 30
0.0
 11
248.0286194681
 21
139.577585605
 31
0.0
  0
LINE
  5
17B
330
1F
100
AcDbEntity
  8
0
  6
HIDDEN
 62
     7
370
     0
100
AcDbLine
 10
244.6081225902
 20
111.7198740755
 30
0.0
 11
246.9164074494
 21
130.5193456235
 31
0.0
  0
LINE
  5
17C
330
1F
100
AcDbEntity
  8
0
  6
HIDDEN
 62
     7
370
     0
100
AcDbLine
 10
248.0286194681
 20
139.577585605
 30
0.0
 11
247.3850957043
 21
140.0803614719
 31
0.0
  0
LINE
  5
17D
330
1F
100
AcDbEntity
  8
0
  6
HIDDEN
 62
     7
370
     0
100
AcDbLine
 10
240.4372726428
 20
140.9334468758
 30
0.0
 11
239.6912317943
 21
140.6012880896
 31
0.0
  0
LINE
  5
17E
330
1F
100
AcDbEntity
  8
0
  6
HIDDEN
 62
     7
370
     0
100
AcDbLine
 10
240.4990877416
 20
145.5396449791
 30
0.0
 11
240.9344261457
 21
144.9824372316
 31
0.0
  0
LINE
  5
17F
330
1F
100
AcDbEntity
  8
0
  6
HIDDEN
 62
     7
370
     0
100
AcDbLine
 10
247.8822492072
 20
144.1293518278
 30
0.0
 11
248.4394569548
 21
144.5646902319
 31
0.0
  0
LINE
  5
180
330
1F
100
AcDbEntity
  8
0
  6
HIDDEN
 62
     7
370
     0
100
AcDbLine
 10
162.6664460388
 20
151.7517348892
 30
0.0
 11
125.9164460388
 21
151.7517348892
 31
0.0
  0
LINE
  5
181
330
1F
100
AcDbEntity
  8
0
  6
HIDDEN
 62
     7
370
     0
100
AcDbLine
 10
125.9164460388
 20
133.7517348892
 30
0.0
 11
162.6664460388
 21
133.7517348892
 31
0.0
  0
LINE
  5
182
330
1F
100
AcDbEntity
  8
0
  6
HIDDEN
 62
     7
370
     0
100
AcDbLine
 10
162.6664460388
 20
133.7517348892
 30
0.0
 11
165.5205339792
 21
138.5017348892
 31
0.0
  0
LINE
  5
183
330
1F
100
AcDbEntity
  8
0
  6
HIDDEN
 62
     7
370
     0
100
AcDbLine
 10
165.5205339792
 20
147.0017348892
 30
0.0
 11
162.6664460388
 21
151.7517348892
 31
0.0
  0
LINE
  5
184
330
1F
100
AcDbEntity
  8
0
  6
HIDDEN
 62
     7
370
     0
100
AcDbLine
 10
240.9344261457
 20
144.9824372316
 30
0.0
 11
240.4372726428
 21
140.9334468758
 31
0.0
  0
LINE
  5
185
330
1F
100
AcDbEntity
  8
0
  6
HIDDEN
 62
     7
370
     0
100
AcDbLine
 10
247.3850957043
 20
140.0803614719
 30
0.0
 11
247.8822492072
 21
144.1293518278
 31
0.0
  0
LINE
  5
186
330
1F
100
AcDbEntity
  8
0
  6
HIDDEN
 62
     7
370
     0
100
AcDbLine
 10
248.5389851095
 20
141.1603687494
 30
0.0
 11
247.1011376202
 21
139.2189248134
 31
0.0
  0
LINE
  5
187
330
1F
100
AcDbEntity
  8
0
  6
HIDDEN
 62
     7
370
     0
100
AcDbLine
 10
250.9615549988
 20
126.6553686623
 30
0.0
 11
253.8537044947
 21
130.560474136
 31
0.0
  0
LINE
  5
188
330
1F
100
AcDbEntity
  8
0
  6
HIDDEN
 62
     7
370
     0
100
AcDbLine
 10
124.6097481803
 20
122.3606767673
 30
0.0
 11
124.2164460388
 21
122.7539789088
 31
0.0
  0
LINE
  5
189
330
1F
100
AcDbEntity
  8
0
  6
HIDDEN
 62
     7
370
     0
100
AcDbLine
 10
116.1164460388
 20
122.7539789088
 30
0.0
 11
115.9352213841
 21
122.5727542541
 31
0.0
  0
LINE
  5
18A
330
1F
100
AcDbEntity
  8
0
  6
HIDDEN
 62
     7
370
     0
100
AcDbLine
 10
206.6664460388
 20
138.5017348892
 30
0.0
 11
209.2201036697
 21
142.7517348892
 31
0.0
  0
LINE
  5
18B
330
1F
100
AcDbEntity
  8
0
  6
HIDDEN
 62
     7
370
     0
100
AcDbLine
 10
209.2201036697
 20
142.7517348892
 30
0.0
 11
206.6664460388
 21
147.0017348892
 31
0.0
  0
LINE
  5
18C
330
1F
100
AcDbEntity
  8
0
  6
HIDDEN
 62
     7
370
     0
100
AcDbLine
 10
200.1670043091
 20
147.0017348892
 30
0.0
 11
165.5205339792
 21
147.0017348892
 31
0.0
  0
LINE
  5
18D
330
1F
100
AcDbEntity
  8
0
  6
HIDDEN
 62
     7
370
     0
100
AcDbLine
 10
206.6664460388
 20
147.0017348892
 30
0.0
 11
205.1600168079
 21
147.0017348892
 31
0.0
  0
LINE
  5
18E
330
1F
100
AcDbEntity
  8
0
  6
HIDDEN
 62
     7
370
     0
100
AcDbLine
 10
165.5205339792
 20
138.5017348892
 30
0.0
 11
206.6664460388
 21
138.5017348892
 31
0.0
  0
LINE
  5
18F
330
1F
100
AcDbEntity
  8
0
  6
HIDDEN
 62
     7
370
     0
100
AcDbLine
 10
104.1164460388
 20
124.7517348892
 30
0.0
 11
97.6664460388
 21
124.7517348892
 31
0.0
  0
LINE
  5
190
330
1F
100
AcDbEntity
  8
0
  6
HIDDEN
 62
     7
370
     0
100
AcDbLine
 10
106.0389713981
 20
122.8292095299
 30
0.0
 11
104.1164460388
 21
124.7517348892
 31
0.0
  0
LINE
  5
191
330
1F
100
AcDbEntity
  8
0
  6
HIDDEN
 62
     7
370
     0
100
AcDbLine
 10
124.2164460388
 20
122.7539789088
 30
0.0
 11
124.2164460388
 21
128.7543705582
 31
0.0
  0
LINE
  5
192
330
1F
100
AcDbEntity
  8
0
  6
HIDDEN
 62
     7
370
     0
100
AcDbLine
 10
116.1164460388
 20
128.7525548048
 30
0.0
 11
116.1164460388
 21
122.7539789088
 31
0.0
  0
LINE
  5
193
330
1F
100
AcDbEntity
  8
0
  6
HIDDEN
 62
     7
370
     0
100
AcDbLine
 10
124.2164460388
 20
160.2517348892
 30
0.0
 11
120.1664460388
 21
162.6852203962
 31
0.0
  0
LINE
  5
194
330
1F
100
AcDbEntity
  8
0
  6
HIDDEN
 62
     7
370
     0
100
AcDbLine
 10
120.1664460388
 20
162.6852203962
 30
0.0
 11
116.1164460388
 21
160.2517348892
 31
0.0
  0
LINE
  5
195
330
1F
100
AcDbEntity
  8
0
  6
HIDDEN
 62
     7
370
     0
100
AcDbLine
 10
124.2164460388
 20
156.749014595
 30
0.0
 11
124.2164460388
 21
160.2517348892
 31
0.0
  0
LINE
  5
196
330
1F
100
AcDbEntity
  8
0
  6
HIDDEN
 62
     7
370
     0
100
AcDbLine
 10
116.1164460388
 20
160.2517348892
 30
0.0
 11
116.1164460388
 21
156.7509149735
 31
0.0
  0
LINE
  5
197
330
1F
100
AcDbEntity
  8
0
  6
HIDDEN
 62
     7
370
     0
100
AcDbLine
 10
257.5461394464
 20
130.1071001318
 30
0.0
 11
258.2286077695
 21
135.665358581
 31
0.0
  0
LINE
  5
198
330
1F
100
AcDbEntity
  8
0
  6
HIDDEN
 62
     7
370
     0
100
AcDbLine
 10
199.6664460388
 20
167.2517348892
 30
0.0
 11
200.1664460388
 21
166.9513045796
 31
0.0
  0
LINE
  5
199
330
1F
100
AcDbEntity
  8
0
  6
HIDDEN
 62
     7
370
     0
100
AcDbLine
 10
205.1664460388
 20
166.9513045796
 30
0.0
 11
205.6664460388
 21
167.2517348892
 31
0.0
  0
LINE
  5
19A
330
1F
100
AcDbEntity
  8
0
  6
HIDDEN
 62
     7
370
     0
100
AcDbLine
 10
199.6664460388
 20
174.2517348892
 30
0.0
 11
199.6664460388
 21
167.2517348892
 31
0.0
  0
LINE
  5
19B
330
1F
100
AcDbEntity
  8
0
  6
HIDDEN
 62
     7
370
     0
100
AcDbLine
 10
205.6664460388
 20
167.2517348892
 30
0.0
 11
205.6664460388
 21
174.2517348892
 31
0.0
  0
LINE
  5
19C
330
1F
100
AcDbEntity
  8
0
  6
HIDDEN
 62
     7
370
     0
100
AcDbLine
 10
213.9585185798
 20
162.1813145326
 30
0.0
 11
205.1664460388
 21
165.0380320718
 31
0.0
  0
LINE
  5
19D
330
1F
100
AcDbEntity
  8
0
  6
HIDDEN
 62
     7
370
     0
100
AcDbLine
 10
205.1664460388
 20
159.7807209506
 30
0.0
 11
215.5015502241
 21
156.4226420382
 31
0.0
  0
LINE
  5
19E
330
1F
100
AcDbEntity
  8
0
  6
HIDDEN
 62
     7
370
     0
100
AcDbLine
 10
200.1664460388
 20
166.9513045796
 30
0.0
 11
200.1664460388
 21
147.0014071517
 31
0.0
  0
LINE
  5
19F
330
1F
100
AcDbEntity
  8
0
  6
HIDDEN
 62
     7
370
     0
100
AcDbLine
 10
205.1664460388
 20
165.0380320718
 30
0.0
 11
205.1664460388
 21
166.9513045796
 31
0.0
  0
LINE
  5
1A0
330
1F
100
AcDbEntity
  8
0
  6
HIDDEN
 62
     7
370
     0
100
AcDbLine
 10
205.1664460388
 20
146.9979670674
 30
0.0
 11
205.1664460388
 21
159.7807209506
 31
0.0
  0
LINE
  5
1A1
330
1F
100
AcDbEntity
  8
0
  6
HIDDEN
 62
     7
370
     0
100
AcDbLine
 10
145.6664460388
 20
111.7517348892
 30
0.0
 11
145.6664460388
 21
111.2517348892
 31
0.0
  0
LINE
  5
1A2
330
1F
100
AcDbEntity
  8
0
  6
HIDDEN
 62
     7
370
     0
100
AcDbLine
 10
149.6664460388
 20
111.2517348892
 30
0.0
 11
149.6664460388
 21
111.7517348892
 31
0.0
  0
LINE
  5
1A3
330
1F
100
AcDbEntity
  8
0
  6
HIDDEN
 62
     7
370
     0
100
AcDbLine
 10
149.6664460388
 20
111.7517348892
 30
0.0
 11
147.6664460388
 21
112.9534561272
 31
0.0
  0
LINE
  5
1A4
330
1F
100
AcDbEntity
  8
0
  6
HIDDEN
 62
     7
370
     0
100
AcDbLine
 10
147.6664460388
 20
112.9534561272
 30
0.0
 11
145.6664460388
 21
111.7517348892
 31
0.0
  0
LINE
  5
1A5
330
1F
100
AcDbEntity
  8
0
  6
HIDDEN
 62
     7
370
     0
100
AcDbLine
 10
245.041917081
 20
144.9818556734
 30
0.0
 11
244.4691311669
 21
140.3168887606
 31
0.0
  0
LINE
  5
1A6
330
1F
100
AcDbEntity
  8
0
  6
HIDDEN
 62
     7
370
     0
100
AcDbLine
 10
244.8767667969
 20
140.2668373988
 30
0.0
 11
244.5184709273
 21
137.3487517131
 31
0.0
  0
LINE
  5
1A7
330
1F
100
AcDbEntity
  8
0
  6
HIDDEN
 62
     7
370
     0
100
AcDbLine
 10
247.7634968049
 20
139.0594365998
 30
0.0
 11
248.3785222831
 21
144.0684171561
 31
0.0
  0
LINE
  5
1A8
330
1F
100
AcDbEntity
  8
0
  6
HIDDEN
 62
     7
370
     0
100
AcDbLine
 10
240.4381530699
 20
145.0433719033
 30
0.0
 11
239.8231275918
 21
140.0343913471
 31
0.0
  0
LINE
  5
1A9
330
1F
100
AcDbEntity
  8
0
  6
HIDDEN
 62
     7
370
     0
100
AcDbLine
 10
248.3785222831
 20
144.0684171561
 30
0.0
 11
247.9431838789
 21
144.6256249036
 31
0.0
  0
LINE
  5
1AA
330
1F
100
AcDbEntity
  8
0
  6
HIDDEN
 62
     7
370
     0
100
AcDbLine
 10
240.9953608174
 20
145.4787103074
 30
0.0
 11
240.4381530699
 21
145.0433719033
 31
0.0
  0
LINE
  5
1AB
330
1F
100
AcDbEntity
  8
0
  6
HIDDEN
 62
     7
370
     0
100
AcDbLine
 10
239.8231275918
 20
140.0343913471
 30
0.0
 11
240.3820344925
 21
139.1737501926
 31
0.0
  0
LINE
  5
1AC
330
1F
100
AcDbEntity
  8
0
  6
HIDDEN
 62
     7
370
     0
100
AcDbLine
 10
247.0129838882
 20
138.3595719827
 30
0.0
 11
247.7634968049
 21
139.0594365998
 31
0.0
  0
LINE
  5
1AD
330
1F
100
AcDbEntity
  8
0
  6
HIDDEN
 62
     7
370
     0
100
AcDbLine
 10
238.5134970143
 20
128.9580307795
 30
0.0
 11
239.0359030993
 21
128.2893814825
 31
0.0
  0
LINE
  5
1AE
330
1F
100
AcDbEntity
  8
0
  6
HIDDEN
 62
     7
370
     0
100
AcDbLine
 10
245.6859623153
 20
127.4728568817
 30
0.0
 11
246.3546116123
 21
127.9952629666
 31
0.0
  0
LINE
  5
1AF
330
1F
100
AcDbEntity
  8
0
  6
HIDDEN
 62
     7
370
     0
100
AcDbLine
 10
246.3546116123
 20
127.9952629666
 30
0.0
 11
246.5743371741
 21
129.7847840613
 31
0.0
  0
LINE
  5
1B0
330
1F
100
AcDbEntity
  8
0
  6
HIDDEN
 62
     7
370
     0
100
AcDbLine
 10
238.7332225762
 20
130.7475518742
 30
0.0
 11
238.5134970143
 21
128.9580307795
 31
0.0
  0
LINE
  5
1B1
330
1F
100
AcDbEntity
  8
0
  6
HIDDEN
 62
     7
370
     0
100
AcDbLine
 10
247.1829624038
 20
134.7416387761
 30
0.0
 11
247.4148748999
 21
136.6304144859
 31
0.0
  0
LINE
  5
1B2
330
1F
100
AcDbEntity
  8
0
  6
HIDDEN
 62
     7
370
     0
100
AcDbLine
 10
239.573760302
 20
137.5931822988
 30
0.0
 11
239.3418478058
 21
135.704406589
 31
0.0
  0
LINE
  5
1B3
330
1F
100
AcDbEntity
  8
0
  6
HIDDEN
 62
     7
370
     0
100
AcDbLine
 10
246.5743371741
 20
129.7847840613
 30
0.0
 11
244.568585118
 21
131.2962266468
 31
0.0
  0
LINE
  5
1B4
330
1F
100
AcDbEntity
  8
0
  6
HIDDEN
 62
     7
370
     0
100
AcDbLine
 10
241.0450462796
 20
131.7288628158
 30
0.0
 11
238.7332225762
 21
130.7475518742
 31
0.0
  0
LINE
  5
1B5
330
1F
100
AcDbEntity
  8
0
  6
HIDDEN
 62
     7
370
     0
100
AcDbLine
 10
239.3418478058
 20
135.704406589
 30
0.0
 11
241.347599862
 21
134.1929640035
 31
0.0
  0
LINE
  5
1B6
330
1F
100
AcDbEntity
  8
0
  6
HIDDEN
 62
     7
370
     0
100
AcDbLine
 10
244.8711387003
 20
133.7603278344
 30
0.0
 11
247.1829624038
 21
134.7416387761
 31
0.0
  0
ARC
  5
1B7
330
1F
100
AcDbEntity
  8
0
  6
HIDDEN
 62
     7
370
     0
100
AcDbCircle
 10
247.3391145832
 20
137.2442225784
 30
0.0
 40
0.6000000000000303
100
AcDbArc
 50
173.0
 51
263.0
  0
ARC
  5
1B8
330
1F
100
AcDbEntity
  8
0
  6
HIDDEN
 62
     7
370
     0
100
AcDbCircle
 10
239.7957638308
 20
138.1704295883
 30
0.0
 40
0.600000000000002
100
AcDbArc
 50
263.0
 51
353.0
  0
ARC
  5
1B9
330
1F
100
AcDbEntity
  8
0
  6
HIDDEN
 62
     7
370
     0
100
AcDbCircle
 10
247.4221829042
 20
137.9207597617
 30
0.0
 40
0.600000000000002
100
AcDbArc
 50
133.0
 51
173.0
  0
ARC
  5
1BA
330
1F
100
AcDbEntity
  8
0
  6
HIDDEN
 62
     7
370
     0
100
AcDbCircle
 10
239.8788321517
 20
138.8469667716
 30
0.0
 40
0.6000000000000303
100
AcDbArc
 50
353.0
 51
33.0
  0
LINE
  5
1BB
330
1F
100
AcDbEntity
  8
0
  6
HIDDEN
 62
     7
370
     0
100
AcDbLine
 10
246.7435868922
 20
137.3173441845
 30
0.0
 11
246.8266552132
 21
137.9938813677
 31
0.0
  0
LINE
  5
1BC
330
1F
100
AcDbEntity
  8
0
  6
HIDDEN
 62
     7
370
     0
100
AcDbLine
 10
240.4743598427
 20
138.7738451655
 30
0.0
 11
240.3912915217
 21
138.0973079822
 31
0.0
  0
LINE
  5
1BD
330
1F
100
AcDbEntity
  8
0
  6
HIDDEN
 62
     7
370
     0
100
AcDbLine
 10
242.4841800449
 20
145.2959062923
 30
0.0
 11
242.7174771925
 21
144.9972995604
 31
0.0
  0
LINE
  5
1BE
330
1F
100
AcDbEntity
  8
0
  6
HIDDEN
 62
     7
370
     0
100
AcDbLine
 10
246.1557579195
 20
144.575131771
 30
0.0
 11
246.4543646515
 21
144.8084289187
 31
0.0
  0
LINE
  5
1BF
330
1F
100
AcDbEntity
  8
0
  6
HIDDEN
 62
     7
370
     0
100
AcDbLine
 10
244.568585118
 20
131.2962266468
 30
0.0
 11
244.8711387003
 21
133.7603278344
 31
0.0
  0
LINE
  5
1C0
330
1F
100
AcDbEntity
  8
0
  6
HIDDEN
 62
     7
370
     0
100
AcDbLine
 10
241.347599862
 20
134.1929640035
 30
0.0
 11
241.0450462796
 21
131.7288628158
 31
0.0
  0
LINE
  5
1C1
330
1F
100
AcDbEntity
  8
0
  6
HIDDEN
 62
     7
370
     0
100
AcDbLine
 10
242.4929757471
 20
141.264787014
 30
0.0
 11
243.8719552409
 21
140.1874101563
 31
0.0
  0
LINE
  5
1C2
330
1F
100
AcDbEntity
  8
0
  6
HIDDEN
 62
     7
370
     0
100
AcDbLine
 10
243.8719552409
 20
140.1874101563
 30
0.0
 11
245.470614202
 21
140.8991789838
 31
0.0
  0
LINE
  5
1C3
330
1F
100
AcDbEntity
  8
0
  6
HIDDEN
 62
     7
370
     0
100
AcDbLine
 10
246.7584641386
 20
131.4316601076
 30
0.0
 11
245.3709269308
 21
132.4772443902
 31
0.0
  0
LINE
  5
1C4
330
1F
100
AcDbEntity
  8
0
  6
HIDDEN
 62
     7
370
     0
100
AcDbLine
 10
245.6222964891
 20
134.5244851545
 30
0.0
 11
248.2111997567
 21
135.6234093932
 31
0.0
  0
SPLINE
  5
1C5
330
1F
100
AcDbEntity
  8
0
  6
HIDDEN
 62
     7
370
     0
100
AcDbSpline
210
0.0
220
0.0
230
1.0
 70
     8
 71
     3
 72
    16
 73
    12
 74
     0
 42
0.00000001
 43
0.00000001
 12
1.0
 22
0.0
 32
0.0
 13
1.0
 23
0.0
 33
0.0
 40
0.0
 40
0.0
 40
0.0
 40
0.0
 40
0.0233327789671778
 40
0.2054420354621926
 40
0.3683974603397387
 40
0.51645714948225
 40
0.6514815222588373
 40
0.7735779321203387
 40
0.8812557195026205
 40
0.9704614253569762
 40
1.0
 40
1.0
 40
1.0
 40
1.0
 10
252.6820199983167
 20
138.2090038796715
 30
0.0
 10
252.6826697973409
 20
138.1798988230277
 30
0.0
 10
252.6883911918802
 20
137.9236326454099
 30
0.0
 10
252.5508369468684
 20
137.4725151626172
 30
0.0
 10
252.2862845580783
 20
136.9174691914898
 30
0.0
 10
251.9368213998152
 20
136.4787296781596
 30
0.0
 10
251.5542980754848
 20
136.147667732281
 30
0.0
 10
251.1630911618275
 20
135.9132488217521
 30
0.0
 10
250.8037089026878
 20
135.7670764539872
 30
0.0
 10
250.5326984713061
 20
135.6939369578788
 30
0.0
 10
250.4202733731294
 20
135.6767636969386
 30
0.0
 10
250.3923067448394
 20
135.6724917130752
 30
0.0
  0
LINE
  5
1C6
330
1F
100
AcDbEntity
  8
0
  6
HIDDEN
 62
     7
370
     0
100
AcDbLine
 10
253.0907355348
 20
143.5502807106
 30
0.0
 11
252.6912297177
 21
138.2128942238
 31
0.0
  0
LINE
  5
1C7
330
1F
100
AcDbEntity
  8
0
  6
HIDDEN
 62
     7
370
     0
100
AcDbLine
 10
257.248375601
 20
130.1436609348
 30
0.0
 11
257.4068057474
 21
131.4339709319
 31
0.0
  0
LINE
  5
1C8
330
1F
100
AcDbEntity
  8
0
  6
HIDDEN
 62
     7
370
     0
100
AcDbLine
 10
256.7028818337
 20
131.5204019206
 30
0.0
 11
257.5622285876
 21
143.0012503995
 31
0.0
  0
LINE
  5
1C9
330
1F
100
AcDbEntity
  8
0
  6
HIDDEN
 62
     7
370
     0
100
AcDbLine
 10
258.9624177411
 20
138.7992894873
 30
0.0
 11
258.6429635371
 21
139.0400154965
 31
0.0
  0
LINE
  5
1CA
330
1F
100
AcDbEntity
  8
0
  6
HIDDEN
 62
     7
370
     0
100
AcDbLine
 10
258.6260959871
 20
138.3529754452
 30
0.0
 11
258.9624177411
 21
138.7992894873
 31
0.0
  0
ARC
  5
1CB
330
1F
100
AcDbEntity
  8
0
  6
HIDDEN
 62
     7
370
     0
100
AcDbCircle
 10
259.0254137421
 20
138.0520679336
 30
0.0
 40
0.5000000000000328
100
AcDbArc
 50
143.0
 51
173.0
  0
LINE
  5
1CC
330
1F
100
AcDbEntity
  8
0
  6
HIDDEN
 62
     7
370
     0
100
AcDbLine
 10
258.3066417831
 20
138.5937014545
 30
0.0
 11
258.6429635371
 21
139.0400154965
 31
0.0
  0
LINE
  5
1CD
330
1F
100
AcDbEntity
  8
0
  6
HIDDEN
 62
     7
370
     0
100
AcDbLine
 10
257.9117474767
 20
133.0847385867
 30
0.0
 11
258.5291406663
 21
138.1130026053
 31
0.0
  0
ARC
  5
1CE
330
1F
100
AcDbEntity
  8
0
  6
HIDDEN
 62
     7
370
     0
100
AcDbCircle
 10
259.0254137421
 20
138.0520679336
 30
0.0
 40
0.9000000000000014
100
AcDbArc
 50
143.0
 51
173.0
  0
LINE
  5
1CF
330
1F
100
AcDbEntity
  8
0
  6
HIDDEN
 62
     7
370
     0
100
AcDbLine
 10
257.514729016
 20
133.1334863241
 30
0.0
 11
258.1321222056
 21
138.1617503427
 31
0.0
  0
SPLINE
  5
1D0
330
1F
100
AcDbEntity
  8
0
  6
HIDDEN
 62
     7
370
     0
100
AcDbSpline
210
0.0
220
0.0
230
1.0
 70
     8
 71
     3
 72
    10
 73
     6
 74
     0
 42
0.00000001
 43
0.00000001
 12
1.0
 22
0.0
 32
0.0
 13
1.0
 23
0.0
 33
0.0
 40
0.0
 40
0.0
 40
0.0
 40
0.0
 40
0.4040370060335201
 40
0.8809003965711028
 40
1.0
 40
1.0
 40
1.0
 40
1.0
 10
254.7545654649789
 20
143.6090561613969
 30
0.0
 10
254.9074240545089
 20
143.5831637126831
 30
0.0
 10
255.2406935078647
 20
143.5267117837767
 30
0.0
 10
255.6759303430727
 20
143.4085459451529
 30
0.0
 10
255.9452964099135
 20
143.3065166349247
 30
0.0
 10
255.9991275908135
 20
143.286126693755
 30
0.0
  0
SPLINE
  5
1D1
330
1F
100
AcDbEntity
  8
0
  6
HIDDEN
 62
     7
370
     0
100
AcDbSpline
210
0.0
220
0.0
230
1.0
 70
     8
 71
     3
 72
    10
 73
     6
 74
     0
 42
0.00000001
 43
0.00000001
 12
1.0
 22
0.0
 32
0.0
 13
1.0
 23
0.0
 33
0.0
 40
0.0
 40
0.0
 40
0.0
 40
0.0
 40
0.2755704530387006
 40
0.7451457003180572
 40
1.0
 40
1.0
 40
1.0
 40
1.0
 10
256.0066348727946
 20
143.2816942167817
 30
0.0
 10
256.1374143567224
 20
143.2953112720812
 30
0.0
 10
256.4910435976809
 20
143.3321319475039
 30
0.0
 10
256.9327357149481
 20
143.3332914622248
 30
0.0
 10
257.1919664077143
 20
143.3036814677441
 30
0.0
 10
257.2831637600838
 20
143.2932646722964
 30
0.0
  0
LINE
  5
1D2
330
1F
100
AcDbEntity
  8
0
  6
HIDDEN
 62
     7
370
     0
100
AcDbLine
 10
249.5598421707
 20
144.2567947227
 30
0.0
 11
254.7487110211
 21
143.6196817393
 31
0.0
  0
LINE
  5
1D3
330
1F
100
AcDbEntity
  8
0
  6
HIDDEN
 62
     7
370
     0
100
AcDbLine
 10
257.3006964944
 20
143.3063373235
 30
0.0
 11
262.4426417266
 21
142.674985836
 31
0.0
  0
LINE
  5
1D4
330
1F
100
AcDbEntity
  8
0
  6
HIDDEN
 62
     7
370
     0
100
AcDbLine
 10
253.5210987076
 20
144.2429960282
 30
0.0
 11
252.941000633
 21
139.5184763464
 31
0.0
  0
LINE
  5
1D5
330
1F
100
AcDbEntity
  8
0
  6
HIDDEN
 62
     7
370
     0
100
AcDbLine
 10
258.0625387754
 20
138.8896305344
 30
0.0
 11
258.64263685
 21
143.6141502163
 31
0.0
  0
SPLINE
  5
1D6
330
1F
100
AcDbEntity
  8
0
  6
HIDDEN
 62
     7
370
     0
100
AcDbSpline
210
0.0
220
0.0
230
1.0
 70
     8
 71
     3
 72
    10
 73
     6
 74
     0
 42
0.00000001
 43
0.00000001
 12
1.0
 22
0.0
 32
0.0
 13
1.0
 23
0.0
 33
0.0
 40
0.0
 40
0.0
 40
0.0
 40
0.0
 40
0.3754765590889299
 40
0.813828732040882
 40
1.0
 40
1.0
 40
1.0
 40
1.0
 10
248.7959679239505
 20
144.1802211268222
 30
0.0
 10
248.8576229569685
 20
144.2010483372698
 30
0.0
 10
248.9912574972091
 20
144.2461903890446
 30
0.0
 10
249.294211933076
 20
144.276562549155
 30
0.0
 10
249.5536357936985
 20
144.2410306589653
 30
0.0
 10
249.6309703914207
 20
144.2304385552647
 30
0.0
  0
SPLINE
  5
1D7
330
1F
100
AcDbEntity
  8
0
  6
HIDDEN
 62
     7
370
     0
100
AcDbSpline
210
0.0
220
0.0
230
1.0
 70
     8
 71
     3
 72
    11
 73
     7
 74
     0
 42
0.00000001
 43
0.00000001
 12
1.0
 22
0.0
 32
0.0
 13
1.0
 23
0.0
 33
0.0
 40
0.0
 40
0.0
 40
0.0
 40
0.0
 40
0.0688290389063629
 40
0.4680004831704127
 40
0.8859157783247835
 40
1.0
 40
1.0
 40
1.0
 40
1.0
 10
262.4266322534137
 20
142.6675782801697
 30
0.0
 10
262.4549990270387
 20
142.664269410055
 30
0.0
 10
262.647877846406
 20
142.6417708711095
 30
0.0
 10
262.9211628628842
 20
142.5657884712443
 30
0.0
 10
263.1520178140564
 20
142.4641330946841
 30
0.0
 10
263.1990594722503
 20
142.4220347967094
 30
0.0
 10
263.2091472839712
 20
142.4130070600172
 30
0.0
  0
LINE
  5
1D8
330
1F
100
AcDbEntity
  8
0
  6
HIDDEN
 62
     7
370
     0
100
AcDbLine
 10
249.9473763949
 20
144.6817939533
 30
0.0
 11
248.7942433403
 21
144.1923180119
 31
0.0
  0
LINE
  5
1D9
330
1F
100
AcDbEntity
  8
0
  6
HIDDEN
 62
     7
370
     0
100
AcDbLine
 10
263.2168242898
 20
142.4214477429
 30
0.0
 11
262.2163591627
 21
143.1753522915
 31
0.0
  0
LINE
  5
1DA
330
1F
100
AcDbEntity
  8
0
  6
HIDDEN
 62
     7
370
     0
100
AcDbLine
 10
249.5148149251
 20
144.2442956988
 30
0.0
 11
249.6282173126
 21
144.2339060816
 31
0.0
  0
LINE
  5
1DB
330
1F
100
AcDbEntity
  8
0
  6
HIDDEN
 62
     7
370
     0
100
AcDbLine
 10
263.162015122
 20
142.4466540683
 30
0.0
 11
263.2083558588
 21
142.4128168968
 31
0.0
  0
LINE
  5
1DC
330
1F
100
AcDbEntity
  8
0
  6
HIDDEN
 62
     7
370
     0
100
AcDbLine
 10
246.4607287158
 20
144.8076475098
 30
0.0
 11
245.9171914442
 21
140.3808916735
 31
0.0
  0
LINE
  5
1DD
330
1F
100
AcDbEntity
  8
0
  6
HIDDEN
 62
     7
370
     0
100
AcDbLine
 10
246.5171404419
 20
145.1029739686
 30
0.0
 11
246.8675706862
 21
144.8389058388
 31
0.0
  0
LINE
  5
1DE
330
1F
100
AcDbEntity
  8
0
  6
HIDDEN
 62
     7
370
     0
100
AcDbLine
 10
265.2426902848
 20
142.5827248473
 30
0.0
 11
265.6465951158
 21
142.7541722762
 31
0.0
  0
LINE
  5
1DF
330
1F
100
AcDbEntity
  8
0
  6
HIDDEN
 62
     7
370
     0
100
AcDbLine
 10
257.2537728762
 20
143.3120988194
 30
0.0
 11
257.3006964944
 21
143.3063373235
 31
0.0
  0
LINE
  5
1E0
330
1F
100
AcDbEntity
  8
0
  6
HIDDEN
 62
     7
370
     0
100
AcDbLine
 10
251.4698199897
 20
139.6991146157
 30
0.0
 11
252.0949897953
 21
138.2263068502
 31
0.0
  0
LINE
  5
1E1
330
1F
100
AcDbEntity
  8
0
  6
HIDDEN
 62
     7
370
     0
100
AcDbLine
 10
258.4472851658
 20
137.4463430524
 30
0.0
 11
259.4101892029
 21
138.7241598685
 31
0.0
  0
LINE
  5
1E2
330
1F
100
AcDbEntity
  8
0
  6
HIDDEN
 62
     7
370
     0
100
AcDbLine
 10
258.8241354605
 20
135.5922369749
 30
0.0
 11
258.3552581063
 21
136.6968427991
 31
0.0
  0
LINE
  5
1E3
330
1F
100
AcDbEntity
  8
0
  6
HIDDEN
 62
     7
370
     0
100
AcDbLine
 10
252.0029627358
 20
137.4768065969
 30
0.0
 11
251.280784708
 21
136.5184439848
 31
0.0
  0
LINE
  5
1E4
330
1F
100
AcDbEntity
  8
0
  6
HIDDEN
 62
     7
370
     0
100
AcDbLine
 10
252.0949897953
 20
138.2263068502
 30
0.0
 11
252.0029627358
 21
137.4768065969
 31
0.0
  0
LINE
  5
1E5
330
1F
100
AcDbEntity
  8
0
  6
HIDDEN
 62
     7
370
     0
100
AcDbLine
 10
258.3552581063
 20
136.6968427991
 30
0.0
 11
258.4472851658
 21
137.4463430524
 31
0.0
  0
LINE
  5
1E6
330
1F
100
AcDbEntity
  8
0
  6
HIDDEN
 62
     7
370
     0
100
AcDbLine
 10
246.6692205113
 20
137.3869258174
 30
0.0
 11
246.9304235538
 21
137.0526011689
 31
0.0
  0
LINE
  5
1E7
330
1F
100
AcDbEntity
  8
0
  6
HIDDEN
 62
     7
370
     0
100
AcDbLine
 10
247.0202042203
 20
140.2454587341
 30
0.0
 11
246.6692205113
 21
137.3869258174
 31
0.0
  0
LINE
  5
1E8
330
1F
100
AcDbEntity
  8
0
  6
HIDDEN
 62
     7
370
     0
100
AcDbLine
 10
199.6664460388
 20
172.0717348892
 30
0.0
 11
199.8664460388
 21
171.5614728655
 31
0.0
  0
LINE
  5
1E9
330
1F
100
AcDbEntity
  8
0
  6
HIDDEN
 62
     7
370
     0
100
AcDbLine
 10
205.4664460388
 20
171.5614728655
 30
0.0
 11
205.6664460388
 21
172.0717348892
 31
0.0
  0
LINE
  5
1EA
330
1F
100
AcDbEntity
  8
0
  6
HIDDEN
 62
     7
370
     0
100
AcDbLine
 10
205.6664460388
 20
172.0717348892
 30
0.0
 11
205.4664460388
 21
172.2514728655
 31
0.0
  0
LINE
  5
1EB
330
1F
100
AcDbEntity
  8
0
  6
HIDDEN
 62
     7
370
     0
100
AcDbLine
 10
199.8664460388
 20
172.2514728655
 30
0.0
 11
199.6664460388
 21
172.0717348892
 31
0.0
  0
LINE
  5
1EC
330
1F
100
AcDbEntity
  8
0
  6
HIDDEN
 62
     7
370
     0
100
AcDbLine
 10
205.6664460388
 20
172.7617348892
 30
0.0
 11
205.6664460388
 21
173.3117348892
 31
0.0
  0
LINE
  5
1ED
330
1F
100
AcDbEntity
  8
0
  6
HIDDEN
 62
     7
370
     0
100
AcDbLine
 10
199.6664460388
 20
173.3117348892
 30
0.0
 11
199.6664460388
 21
172.7617348892
 31
0.0
  0
LINE
  5
1EE
330
1F
100
AcDbEntity
  8
0
  6
HIDDEN
 62
     7
370
     0
100
AcDbLine
 10
199.6664460388
 20
171.3817348892
 30
0.0
 11
199.8664460388
 21
170.8714728655
 31
0.0
  0
LINE
  5
1EF
330
1F
100
AcDbEntity
  8
0
  6
HIDDEN
 62
     7
370
     0
100
AcDbLine
 10
205.4664460388
 20
170.8714728655
 30
0.0
 11
205.6664460388
 21
171.3817348892
 31
0.0
  0
LINE
  5
1F0
330
1F
100
AcDbEntity
  8
0
  6
HIDDEN
 62
     7
370
     0
100
AcDbLine
 10
199.6664460388
 20
170.6917348892
 30
0.0
 11
199.8664460388
 21
170.1814728655
 31
0.0
  0
LINE
  5
1F1
330
1F
100
AcDbEntity
  8
0
  6
HIDDEN
 62
     7
370
     0
100
AcDbLine
 10
205.4664460388
 20
170.1814728655
 30
0.0
 11
205.6664460388
 21
170.6917348892
 31
0.0
  0
LINE
  5
1F2
330
1F
100
AcDbEntity
  8
0
  6
HIDDEN
 62
     7
370
     0
100
AcDbLine
 10
199.6664460388
 20
172.7617348892
 30
0.0
 11
199.8664460388
 21
172.2514728655
 31
0.0
  0
LINE
  5
1F3
330
1F
100
AcDbEntity
  8
0
  6
HIDDEN
 62
     7
370
     0
100
AcDbLine
 10
205.4664460388
 20
172.2514728655
 30
0.0
 11
205.6664460388
 21
172.7617348892
 31
0.0
  0
LINE
  5
1F4
330
1F
100
AcDbEntity
  8
0
  6
HIDDEN
 62
     7
370
     0
100
AcDbLine
 10
205.6664460388
 20
171.3817348892
 30
0.0
 11
205.4664460388
 21
171.5614728655
 31
0.0
  0
LINE
  5
1F5
330
1F
100
AcDbEntity
  8
0
  6
HIDDEN
 62
     7
370
     0
100
AcDbLine
 10
199.8664460388
 20
171.5614728655
 30
0.0
 11
199.6664460388
 21
171.3817348892
 31
0.0
  0
LINE
  5
1F6
330
1F
100
AcDbEntity
  8
0
  6
HIDDEN
 62
     7
370
     0
100
AcDbLine
 10
205.6664460388
 20
170.6917348892
 30
0.0
 11
205.4664460388
 21
170.8714728655
 31
0.0
  0
LINE
  5
1F7
330
1F
100
AcDbEntity
  8
0
  6
HIDDEN
 62
     7
370
     0
100
AcDbLine
 10
199.8664460388
 20
170.8714728655
 30
0.0
 11
199.6664460388
 21
170.6917348892
 31
0.0
  0
LINE
  5
1F8
330
1F
100
AcDbEntity
  8
0
  6
HIDDEN
 62
     7
370
     0
100
AcDbLine
 10
205.6664460388
 20
173.3117348892
 30
0.0
 11
205.5264460388
 21
173.4517348892
 31
0.0
  0
LINE
  5
1F9
330
1F
100
AcDbEntity
  8
0
  6
HIDDEN
 62
     7
370
     0
100
AcDbLine
 10
199.8064460388
 20
173.4517348892
 30
0.0
 11
199.6664460388
 21
173.3117348892
 31
0.0
  0
LINE
  5
1FA
330
1F
100
AcDbEntity
  8
0
  6
HIDDEN
 62
     7
370
     0
100
AcDbLine
 10
205.6664460388
 20
167.2517348892
 30
0.0
 11
205.6664460388
 21
170.0017348892
 31
0.0
  0
LINE
  5
1FB
330
1F
100
AcDbEntity
  8
0
  6
HIDDEN
 62
     7
370
     0
100
AcDbLine
 10
199.6664460388
 20
170.0017348892
 30
0.0
 11
199.6664460388
 21
167.2517348892
 31
0.0
  0
LINE
  5
1FC
330
1F
100
AcDbEntity
  8
0
  6
HIDDEN
 62
     7
370
     0
100
AcDbLine
 10
205.6664460388
 20
170.0017348892
 30
0.0
 11
205.4664460388
 21
170.1814728655
 31
0.0
  0
LINE
  5
1FD
330
1F
100
AcDbEntity
  8
0
  6
HIDDEN
 62
     7
370
     0
100
AcDbLine
 10
199.8664460388
 20
170.1814728655
 30
0.0
 11
199.6664460388
 21
170.0017348892
 31
0.0
  0
LINE
  5
1FE
330
1F
100
AcDbEntity
  8
0
  6
HIDDEN
 62
     7
370
     0
100
AcDbLine
 10
199.6664460388
 20
167.2517348892
 30
0.0
 11
200.1860612811
 21
166.9517348892
 31
0.0
  0
LINE
  5
1FF
330
1F
100
AcDbEntity
  8
0
  6
HIDDEN
 62
     7
370
     0
100
AcDbLine
 10
205.1468307965
 20
166.9517348892
 30
0.0
 11
205.6664460388
 21
167.2517348892
 31
0.0
  0
LINE
  5
200
330
1F
100
AcDbEntity
  8
0
  6
HIDDEN
 62
     7
370
     0
100
AcDbLine
 10
205.1664460388
 20
168.5951105621
 30
0.0
 11
205.1664460388
 21
173.4517348892
 31
0.0
  0
LINE
  5
201
330
1F
100
AcDbEntity
  8
0
  6
HIDDEN
 62
     7
370
     0
100
AcDbLine
 10
200.1664460388
 20
173.4517348892
 30
0.0
 11
200.1664460388
 21
168.5951105621
 31
0.0
  0
LINE
  5
202
330
1F
100
AcDbEntity
  8
0
  6
HIDDEN
 62
     7
370
     0
100
AcDbLine
 10
200.1664460388
 20
168.5951105621
 30
0.0
 11
202.6664460388
 21
167.1517348892
 31
0.0
  0
LINE
  5
203
330
1F
100
AcDbEntity
  8
0
  6
HIDDEN
 62
     7
370
     0
100
AcDbLine
 10
202.6664460388
 20
167.1517348892
 30
0.0
 11
205.1664460388
 21
168.5951105621
 31
0.0
  0
CIRCLE
  5
204
330
1F
100
AcDbEntity
  8
0
  6
HIDDEN
 62
     7
370
     0
100
AcDbCircle
 10
202.6664460388
 20
170.0517348892
 30
0.0
 40
2.5
  0
LINE
  5
205
330
1F
100
AcDbEntity
  8
VERMASSUNG
100
AcDbLine
 10
265.6664460388
 20
142.7517348892
 30
0.0
 11
265.6664460388
 21
154.1370230121
 31
0.0
  0
LINE
  5
206
330
1F
100
AcDbEntity
  8
VERMASSUNG
  6
CENTERX2
100
AcDbLine
 10
265.6664460388
 20
142.7517348892
 30
0.0
 11
92.8995833904
 21
142.7517348892
 31
0.0
  0
DIMENSION
  5
207
330
1F
100
AcDbEntity
  8
VERMASSUNG
100
AcDbDimension
  2
_D
 10
265.6664460388
 20
184.2517348892
 30
0.0
 11
200.6664460388
 21
184.2517348892
 31
0.0
 70
   160
  1
<>
 71
     2
 42
-1.0
  3
SLDDIMSTYLE0
100
AcDbAlignedDimension
 13
135.6664460388
 23
173.7517348892
 33
0.0
 14
265.6664460388
 24
154.1370230121
 34
0.0
100
AcDbRotatedDimension
  0
DIMENSION
  5
214
330
1F
100
AcDbEntity
  8
VERMASSUNG
100
AcDbDimension
  2
_D_1
 10
97.6664460388
 20
190.2517348892
 30
0.0
 11
181.6664460388
 21
190.2517348892
 31
0.0
 70
   160
  1
<>
 71
     2
 42
-1.0
  3
SLDDIMSTYLE1
100
AcDbAlignedDimension
 13
265.6664460388
 23
154.1370230121
 33
0.0
 14
97.6664460388
 24
162.9378506581
 34
0.0
100
AcDbRotatedDimension
  0
LINE
  5
21F
330
1F
100
AcDbEntity
  8
0
  6
Continuous
 62
     7
370
    15
100
AcDbLine
 10
226.8143204891
 20
92.2554151462
 30
0.0
 11
136.1664460388
 21
92.2554151462
 31
0.0
  0
LINE
  5
220
330
1F
100
AcDbEntity
  8
0
  6
Continuous
 62
     7
370
    15
100
AcDbLine
 10
136.1664460388
 20
29.2554151462
 30
0.0
 11
226.8143204891
 21
29.2554151462
 31
0.0
  0
ARC
  5
221
330
1F
100
AcDbEntity
  8
0
  6
Continuous
 62
     7
370
    15
100
AcDbCircle
 10
136.1664460388
 20
29.7554151462
 30
0.0
 40
0.4999999999999858
100
AcDbArc
 50
180.0
 51
270.0
  0
ARC
  5
222
330
1F
100
AcDbEntity
  8
0
  6
Continuous
 62
     7
370
    15
100
AcDbCircle
 10
136.1664460388
 20
91.7554151462
 30
0.0
 40
0.5000000000000284
100
AcDbArc
 50
90.0
 51
180.0
  0
LWPOLYLINE
  5
223
330
1F
100
AcDbEntity
  8
0
  6
Continuous
 62
     7
370
    15
100
AcDbPolyline
 90
        3
 70
   128
 43
0.0
 10
135.4664460388
 20
38.2155948673
 10
135.5919009823
 20
38.1472927523
 10
135.6664460388
 20
38.0945549942
  0
LWPOLYLINE
  5
224
330
1F
100
AcDbEntity
  8
0
  6
Continuous
 62
     7
370
    15
100
AcDbPolyline
 90
        3
 70
   128
 43
0.0
 10
135.6664460388
 20
83.4162752981
 10
135.5919009823
 20
83.36353754
 10
135.4664460388
 20
83.295235425
  0
LINE
  5
225
330
1F
100
AcDbEntity
  8
0
  6
Continuous
 62
     7
370
    15
100
AcDbLine
 10
255.9600571259
 20
62.6308771467
 30
0.0
 11
255.1178290612
 21
62.8805107957
 31
0.0
  0
LINE
  5
226
330
1F
100
AcDbEntity
  8
0
  6
Continuous
 62
     7
370
    15
100
AcDbLine
 10
256.0818677788
 20
68.9225885177
 30
0.0
 11
255.5017697042
 21
68.9225885177
 31
0.0
  0
LINE
  5
227
330
1F
100
AcDbEntity
  8
0
  6
Continuous
 62
     7
370
    15
100
AcDbLine
 10
255.5017697042
 20
52.5882417746
 30
0.0
 11
256.0818677788
 21
52.5882417746
 31
0.0
  0
SPLINE
  5
228
330
1F
100
AcDbEntity
  8
0
  6
Continuous
 62
     7
370
    15
100
AcDbSpline
210
0.0
220
0.0
230
1.0
 70
     8
 71
     3
 72
    12
 73
     8
 74
     0
 42
0.00000001
 43
0.00000001
 12
1.0
 22
0.0
 32
0.0
 13
1.0
 23
0.0
 33
0.0
 40
0.0
 40
0.0
 40
0.0
 40
0.0
 40
0.5000000000000037
 40
0.5000000000000037
 40
0.7500000000000018
 40
0.7500000000000018
 40
1.0
 40
1.0
 40
1.0
 40
1.0
 10
145.7611901504611
 20
70.66478446684724
 30
0.0
 10
145.7919123923802
 20
70.55222866743806
 30
0.0
 10
145.8347496069153
 20
70.43947080769847
 30
0.0
 10
145.9341766311152
 20
70.28992992190213
 30
0.0
 10
145.9739288259318
 20
70.24263719019528
 30
0.0
 10
146.07197028279
 20
70.16890089687386
 30
0.0
 10
146.1315263383775
 20
70.1434815774981
 30
0.0
 10
146.1942028523533
 20
70.1434815774981
 30
0.0
  0
LINE
  5
229
330
1F
100
AcDbEntity
  8
0
  6
Continuous
 62
     7
370
    15
100
AcDbLine
 10
146.1942028524
 20
70.1434815775
 30
0.0
 11
149.1386892252
 21
70.1434815775
 31
0.0
  0
SPLINE
  5
22A
330
1F
100
AcDbEntity
  8
0
  6
Continuous
 62
     7
370
    15
100
AcDbSpline
210
0.0
220
0.0
230
1.0
 70
     8
 71
     3
 72
    12
 73
     8
 74
     0
 42
0.00000001
 43
0.00000001
 12
1.0
 22
0.0
 32
0.0
 13
1.0
 23
0.0
 33
0.0
 40
0.0
 40
0.0
 40
0.0
 40
0.0
 40
0.2500000000000009
 40
0.2500000000000009
 40
0.5000000000000019
 40
0.5000000000000019
 40
1.0
 40
1.0
 40
1.0
 40
1.0
 10
149.1386892252204
 20
70.14348157749808
 30
0.0
 10
149.2017692637137
 20
70.14348157749808
 30
0.0
 10
149.2609178858952
 20
70.16884589671305
 30
0.0
 10
149.3593904359643
 20
70.24301075708595
 30
0.0
 10
149.398427047949
 20
70.28953109764008
 30
0.0
 10
149.498323514728
 20
70.43967344048531
 30
0.0
 10
149.5407443957946
 20
70.55136664745746
 30
0.0
 10
149.5717019271126
 20
70.66478446684722
 30
0.0
  0
ELLIPSE
  5
22B
330
1F
100
AcDbEntity
  8
0
  6
Continuous
 62
     7
370
    15
100
AcDbEllipse
 10
133.3192918494
 20
60.7554151462
 30
0.0
 11
14.75368316065607
 21
31.09325491558113
 31
0.0
210
0.0
220
0.0
230
1.0
 40
0.3419987131
 41
5.193281737408619
 42
6.124043104552327
  0
SPLINE
  5
22C
330
1F
100
AcDbEntity
  8
0
  6
Continuous
 62
     7
370
    15
100
AcDbSpline
210
0.0
220
0.0
230
1.0
 70
     8
 71
     3
 72
    12
 73
     8
 74
     0
 42
0.00000001
 43
0.00000001
 12
1.0
 22
0.0
 32
0.0
 13
1.0
 23
0.0
 33
0.0
 40
0.0
 40
0.0
 40
0.0
 40
0.0
 40
0.500000000000001
 40
0.500000000000001
 40
0.7500000000000004
 40
0.7500000000000004
 40
1.0
 40
1.0
 40
1.0
 40
1.0
 10
149.5717019271126
 20
90.65615760627934
 30
0.0
 10
149.5409796851935
 20
90.69345958923239
 30
0.0
 10
149.4981424706584
 20
90.73007142127877
 30
0.0
 10
149.3987154464586
 20
90.77783620456398
 30
0.0
 10
149.3589632516419
 20
90.79279372004633
 30
0.0
 10
149.2609217947837
 20
90.81598366581547
 30
0.0
 10
149.2013657391962
 20
90.82390710503522
 30
0.0
 10
149.1386892252204
 20
90.82390710503522
 30
0.0
  0
LINE
  5
22D
330
1F
100
AcDbEntity
  8
0
  6
Continuous
 62
     7
370
    15
100
AcDbLine
 10
149.1386892252
 20
90.823907105
 30
0.0
 11
146.1942028524
 21
90.823907105
 31
0.0
  0
SPLINE
  5
22E
330
1F
100
AcDbEntity
  8
0
  6
Continuous
 62
     7
370
    15
100
AcDbSpline
210
0.0
220
0.0
230
1.0
 70
     8
 71
     3
 72
    12
 73
     8
 74
     0
 42
0.00000001
 43
0.00000001
 12
1.0
 22
0.0
 32
0.0
 13
1.0
 23
0.0
 33
0.0
 40
0.0
 40
0.0
 40
0.0
 40
0.0
 40
0.2499999999999999
 40
0.2499999999999999
 40
0.4999999999999999
 40
0.4999999999999999
 40
1.0
 40
1.0
 40
1.0
 40
1.0
 10
146.1942028523533
 20
90.82390710503522
 30
0.0
 10
146.1311228138599
 20
90.82390710503523
 30
0.0
 10
146.0719741916785
 20
90.81600117882275
 30
0.0
 10
145.9735016416095
 20
90.79267601738651
 30
0.0
 10
145.9344650296248
 20
90.77796322755482
 30
0.0
 10
145.8345685628457
 20
90.73000742682389
 30
0.0
 10
145.7921476817791
 20
90.69374527024382
 30
0.0
 10
145.7611901504611
 20
90.65615760627932
 30
0.0
  0
ELLIPSE
  5
22F
330
1F
100
AcDbEntity
  8
0
  6
Continuous
 62
     7
370
    15
100
AcDbEllipse
 10
162.0136002281
 20
60.7554151462
 30
0.0
 11
-14.75368316065606
 21
31.09325491558114
 31
0.0
210
0.0
220
0.0
230
1.0
 40
0.3419987131
 41
0.1591422026273019
 42
1.089903569770977
  0
SPLINE
  5
230
330
1F
100
AcDbEntity
  8
0
  6
Continuous
 62
     7
370
    15
100
AcDbSpline
210
0.0
220
0.0
230
1.0
 70
     8
 71
     3
 72
    12
 73
     8
 74
     0
 42
0.00000001
 43
0.00000001
 12
1.0
 22
0.0
 32
0.0
 13
1.0
 23
0.0
 33
0.0
 40
0.0
 40
0.0
 40
0.0
 40
0.0
 40
0.499999999999999
 40
0.499999999999999
 40
0.7499999999999994
 40
0.7499999999999994
 40
1.0
 40
1.0
 40
1.0
 40
1.0
 10
145.7611901504611
 20
30.85467268604493
 30
0.0
 10
145.7923353484232
 20
30.81685716312474
 30
0.0
 10
145.8346096147577
 20
30.78079030504114
 30
0.0
 10
145.934555148583
 20
30.73283024002988
 30
0.0
 10
145.9742854532871
 20
30.71796926613221
 30
0.0
 10
146.0711735032932
 20
30.69501812000109
 30
0.0
 10
146.1312387450398
 20
30.68692318728905
 30
0.0
 10
146.1942028523533
 20
30.68692318728904
 30
0.0
  0
LINE
  5
231
330
1F
100
AcDbEntity
  8
0
  6
Continuous
 62
     7
370
    15
100
AcDbLine
 10
146.1942028524
 20
30.6869231873
 30
0.0
 11
149.1386892252
 21
30.6869231873
 31
0.0
  0
SPLINE
  5
232
330
1F
100
AcDbEntity
  8
0
  6
Continuous
 62
     7
370
    15
100
AcDbSpline
210
0.0
220
0.0
230
1.0
 70
     8
 71
     3
 72
    12
 73
     8
 74
     0
 42
0.00000001
 43
0.00000001
 12
1.0
 22
0.0
 32
0.0
 13
1.0
 23
0.0
 33
0.0
 40
0.0
 40
0.0
 40
0.0
 40
0.0
 40
0.2500000000000009
 40
0.2500000000000009
 40
0.5000000000000019
 40
0.5000000000000019
 40
1.0
 40
1.0
 40
1.0
 40
1.0
 10
149.1386892252204
 20
30.68692318728909
 30
0.0
 10
149.2017461801182
 20
30.68692318728908
 30
0.0
 10
149.2608763298638
 20
30.69482351836864
 30
0.0
 10
149.3593238803971
 20
30.71813426637368
 30
0.0
 10
149.3983561185852
 20
30.73283939265733
 30
0.0
 10
149.4982460030421
 20
30.78077292084397
 30
0.0
 10
149.5405449766515
 20
30.81684289360872
 30
0.0
 10
149.5717019271127
 20
30.85467268604493
 30
0.0
  0
ELLIPSE
  5
233
330
1F
100
AcDbEntity
  8
0
  6
Continuous
 62
     7
370
    15
100
AcDbEllipse
 10
133.3192918494
 20
60.7554151462
 30
0.0
 11
-14.75368316065615
 21
31.09325491558115
 31
0.0
210
0.0
220
0.0
230
1.0
 40
0.3419987131
 41
3.300734856217125
 42
4.231496223360773
  0
SPLINE
  5
234
330
1F
100
AcDbEntity
  8
0
  6
Continuous
 62
     7
370
    15
100
AcDbSpline
210
0.0
220
0.0
230
1.0
 70
     8
 71
     3
 72
    12
 73
     8
 74
     0
 42
0.00000001
 43
0.00000001
 12
1.0
 22
0.0
 32
0.0
 13
1.0
 23
0.0
 33
0.0
 40
0.0
 40
0.0
 40
0.0
 40
0.0
 40
0.4999999999999964
 40
0.4999999999999964
 40
0.7499999999999982
 40
0.7499999999999982
 40
1.0
 40
1.0
 40
1.0
 40
1.0
 10
149.5717019271127
 20
50.84604582547681
 30
0.0
 10
149.5405567291505
 20
50.96015119134211
 30
0.0
 10
149.4982824628161
 20
51.07125751856088
 30
0.0
 10
149.3983369289907
 20
51.22141512599114
 30
0.0
 10
149.3586066242867
 20
51.26840781760848
 30
0.0
 10
149.2617185742805
 20
51.34138340214695
 30
0.0
 10
149.201653332534
 20
51.36734871482601
 30
0.0
 10
149.1386892252204
 20
51.36734871482602
 30
0.0
  0
LINE
  5
235
330
1F
100
AcDbEntity
  8
0
  6
Continuous
 62
     7
370
    15
100
AcDbLine
 10
149.1386892252
 20
51.3673487148
 30
0.0
 11
146.1942028524
 21
51.3673487148
 31
0.0
  0
SPLINE
  5
236
330
1F
100
AcDbEntity
  8
0
  6
Continuous
 62
     7
370
    15
100
AcDbSpline
210
0.0
220
0.0
230
1.0
 70
     8
 71
     3
 72
    12
 73
     8
 74
     0
 42
0.00000001
 43
0.00000001
 12
1.0
 22
0.0
 32
0.0
 13
1.0
 23
0.0
 33
0.0
 40
0.0
 40
0.0
 40
0.0
 40
0.0
 40
0.25
 40
0.25
 40
0.5
 40
0.5
 40
1.0
 40
1.0
 40
1.0
 40
1.0
 10
146.1942028523533
 20
51.36734871482592
 30
0.0
 10
146.1311458974555
 20
51.36734871482592
 30
0.0
 10
146.07201574771
 20
51.34200236144516
 30
0.0
 10
145.9735681971767
 20
51.26788297930568
 30
0.0
 10
145.9345359589886
 20
51.2213864646077
 30
0.0
 10
145.8346460745316
 20
51.07131195759914
 30
0.0
 10
145.7923471009223
 20
50.9601942484843
 30
0.0
 10
145.761190150461
 20
50.84604582547681
 30
0.0
  0
ELLIPSE
  5
237
330
1F
100
AcDbEntity
  8
0
  6
Continuous
 62
     7
370
    15
100
AcDbEllipse
 10
162.0136002281
 20
60.7554151462
 30
0.0
 11
14.75368316065618
 21
31.09325491558114
 31
0.0
210
0.0
220
0.0
230
1.0
 40
0.3419987131
 41
2.051689083818825
 42
2.9824504509625
  0
SPLINE
  5
238
330
1F
100
AcDbEntity
  8
0
  6
Continuous
 62
     7
370
    15
100
AcDbSpline
210
0.0
220
0.0
230
1.0
 70
     8
 71
     3
 72
    68
 73
    64
 74
     0
 42
0.00000001
 43
0.00000001
 12
1.0
 22
0.0
 32
0.0
 13
1.0
 23
0.0
 33
0.0
 40
-0.0625
 40
-0.0625
 40
0.0
 40
0.0
 40
0.03125
 40
0.03125
 40
0.0625
 40
0.0625
 40
0.09375
 40
0.09375
 40
0.1250000000000001
 40
0.1250000000000001
 40
0.1562500000000001
 40
0.1562500000000001
 40
0.1875000000000001
 40
0.1875000000000001
 40
0.2187500000000001
 40
0.2187500000000001
 40
0.2500000000000001
 40
0.2500000000000001
 40
0.2812500000000001
 40
0.2812500000000001
 40
0.3125000000000001
 40
0.3125000000000001
 40
0.3437500000000001
 40
0.3437500000000001
 40
0.375
 40
0.375
 40
0.4062499999999999
 40
0.4062499999999999
 40
0.4374999999999999
 40
0.4374999999999999
 40
0.4687499999999999
 40
0.4687499999999999
 40
0.4999999999999998
 40
0.4999999999999998
 40
0.5312499999999998
 40
0.5312499999999998
 40
0.5624999999999998
 40
0.5624999999999998
 40
0.5937499999999998
 40
0.5937499999999998
 40
0.6249999999999998
 40
0.6249999999999998
 40
0.6562499999999999
 40
0.6562499999999999
 40
0.6874999999999999
 40
0.6874999999999999
 40
0.7187499999999999
 40
0.7187499999999999
 40
0.7499999999999999
 40
0.7499999999999999
 40
0.7812499999999999
 40
0.7812499999999999
 40
0.8124999999999999
 40
0.8124999999999999
 40
0.8437499999999999
 40
0.8437499999999999
 40
0.8749999999999999
 40
0.8749999999999999
 40
0.90625
 40
0.90625
 40
0.9375
 40
0.9375
 40
1.0
 40
1.0
 40
1.03125
 40
1.03125
 10
203.0630756591567
 20
57.7554151461622
 30
0.0
 10
202.468131228602
 20
57.75541514616221
 30
0.0
 10
202.2731529823523
 20
57.77488583180522
 30
0.0
 10
201.8895897572067
 20
57.85115469989531
 30
0.0
 10
201.6990089817445
 20
57.90888664538571
 30
0.0
 10
201.3357596949577
 20
58.05950475829353
 30
0.0
 10
201.1634929559617
 20
58.15165769759732
 30
0.0
 10
200.8374712392538
 20
58.36935730889095
 30
0.0
 10
200.6831958724772
 20
58.49599709663244
 30
0.0
 10
200.4066329512261
 20
58.77261511741567
 30
0.0
 10
200.2824900609107
 20
58.92357005556482
 30
0.0
 10
200.0631752885398
 20
59.25145904929462
 30
0.0
 10
199.9700448331365
 20
59.4259085569895
 30
0.0
 10
199.8203905026104
 20
59.78684139187943
 30
0.0
 10
199.7627435326185
 20
59.97599391206582
 30
0.0
 10
199.6856369707961
 20
60.36328888502589
 30
0.0
 10
199.6665531894527
 20
60.55801062665185
 30
0.0
 10
199.6663397793753
 20
60.94954933699122
 30
0.0
 10
199.6858350698748
 20
61.14841579190796
 30
0.0
 10
199.7624049443518
 20
61.53325611794766
 30
0.0
 10
199.819058185561
 20
61.72031573546912
 30
0.0
 10
199.9693341363703
 20
62.08366140336985
 30
0.0
 10
200.0632177987828
 20
62.2592054890789
 30
0.0
 10
200.2802829988792
 20
62.58418757923935
 30
0.0
 10
200.404214255154
 20
62.7357004247466
 30
0.0
 10
200.6841711003062
 20
63.01590369860581
 30
0.0
 10
200.835630251208
 20
63.14000778364874
 30
0.0
 10
201.1603632601557
 20
63.3573150594397
 30
0.0
 10
201.3357276989722
 20
63.45131241083941
 30
0.0
 10
201.6990447178719
 20
63.60195832094549
 30
0.0
 10
201.8860361708625
 20
63.65876011831369
 30
0.0
 10
202.2706076692192
 20
63.73564392503961
 30
0.0
 10
202.4695155223387
 20
63.75534321721685
 30
0.0
 10
202.8611789220352
 20
63.75548667264152
 30
0.0
 10
203.0558866584221
 20
63.73656782826983
 30
0.0
 10
203.4430037220771
 20
63.65987610730154
 30
0.0
 10
203.632474724804
 20
63.60233807116035
 30
0.0
 10
203.9936072228215
 20
63.45297418252815
 30
0.0
 10
204.1680264721818
 20
63.36006209999432
 30
0.0
 10
204.4962245099857
 20
63.14096336374209
 30
0.0
 10
204.6473027474363
 20
63.01693058642338
 30
0.0
 10
204.9241388404639
 20
62.74062762849174
 30
0.0
 10
205.0509026569765
 20
62.58647907142372
 30
0.0
 10
205.2689071951332
 20
62.26061426658783
 30
0.0
 10
205.3611883746634
 20
62.0884526370516
 30
0.0
 10
205.5120680618287
 20
61.72549788019108
 30
0.0
 10
205.5700144962988
 20
61.53485572372497
 30
0.0
 10
205.6466266787135
 20
61.15134538599771
 30
0.0
 10
205.6662546987288
 20
60.95645198827418
 30
0.0
 10
205.666634621974
 20
60.56013003801768
 30
0.0
 10
205.6473222814694
 20
60.36476780377522
 30
0.0
 10
205.5714016647926
 20
59.98116626418646
 30
0.0
 10
205.5138958958265
 20
59.7906734104822
 30
0.0
 10
205.3635357492374
 20
59.42710629702363
 30
0.0
 10
205.271516461346
 20
59.2547464797462
 30
0.0
 10
205.0541724463559
 20
58.92862535107012
 30
0.0
 10
204.9276530262244
 20
58.77420061881547
 30
0.0
 10
204.6512194067646
 20
58.49733128563526
 30
0.0
 10
204.5003898166883
 20
58.37308205097603
 30
0.0
 10
204.1728782244482
 20
58.15358447778149
 30
0.0
 10
203.99832969136
 20
58.06018719936031
 30
0.0
 10
203.4571248229884
 20
57.83522712874497
 30
0.0
 10
203.0630756591567
 20
57.7554151461622
 30
0.0
 10
202.468131228602
 20
57.75541514616221
 30
0.0
  0
ELLIPSE
  5
239
330
1F
100
AcDbEntity
  8
0
  6
Continuous
 62
     7
370
    15
100
AcDbEllipse
 10
263.2047933243
 20
60.7554151462
 30
0.0
 11
256.5469124811991
 21
-4.973799150320701E-14
 31
0.0
210
0.0
220
0.0
230
1.0
 40
0.1227845609
 41
1.709585402095603
 42
1.733358820962246
  0
SPLINE
  5
23A
330
1F
100
AcDbEntity
  8
0
  6
Continuous
 62
     7
370
    15
100
AcDbSpline
210
0.0
220
0.0
230
1.0
 70
     8
 71
     3
 72
    20
 73
    16
 74
     0
 42
0.00000001
 43
0.00000001
 12
1.0
 22
0.0
 32
0.0
 13
1.0
 23
0.0
 33
0.0
 40
0.0
 40
0.0
 40
0.0
 40
0.0
 40
0.2500000000000022
 40
0.2500000000000022
 40
0.3750000000000018
 40
0.3750000000000018
 40
0.5000000000000014
 40
0.5000000000000014
 40
0.6250000000000011
 40
0.6250000000000011
 40
0.7500000000000007
 40
0.7500000000000007
 40
0.8750000000000003
 40
0.8750000000000003
 40
1.0
 40
1.0
 40
1.0
 40
1.0
 10
216.6189921373309
 20
90.78855373928397
 30
0.0
 10
216.7691863126628
 20
90.96587017503771
 30
0.0
 10
216.9973060180068
 20
91.1170724629472
 30
0.0
 10
217.4608034227394
 20
91.3121262589403
 30
0.0
 10
217.6357921229741
 20
91.37152141755905
 30
0.0
 10
218.0158701152595
 20
91.4772590662997
 30
0.0
 10
218.2221991659032
 20
91.52417293036387
 30
0.0
 10
218.6679619764772
 20
91.60783246483147
 30
0.0
 10
218.9095981131417
 20
91.64478997584251
 30
0.0
 10
219.4123574458586
 20
91.70788036287463
 30
0.0
 10
219.6742423228016
 20
91.73428895755944
 30
0.0
 10
220.2187997382696
 20
91.77855877652796
 30
0.0
 10
220.5031203466999
 20
91.79649001696559
 30
0.0
 10
221.0857846778447
 20
91.82425182747502
 30
0.0
 10
221.3820664425126
 20
91.83404572294292
 30
0.0
 10
221.6833310346344
 20
91.84011254993746
 30
0.0
  0
ELLIPSE
  5
23B
330
1F
100
AcDbEntity
  8
0
  6
Continuous
 62
     7
370
    15
100
AcDbEllipse
 10
219.1646587545
 20
60.7554151462
 30
0.0
 11
2.842170943040401E-14
 21
31.5
 31
0.0
210
0.0
220
0.0
230
1.0
 40
0.2679491924
 41
0.3063755858277287
 42
2.835217067762065
  0
SPLINE
  5
23C
330
1F
100
AcDbEntity
  8
0
  6
Continuous
 62
     7
370
    15
100
AcDbSpline
210
0.0
220
0.0
230
1.0
 70
     8
 71
     3
 72
    20
 73
    16
 74
     0
 42
0.00000001
 43
0.00000001
 12
1.0
 22
0.0
 32
0.0
 13
1.0
 23
0.0
 33
0.0
 40
0.0
 40
0.0
 40
0.0
 40
0.0
 40
0.2500000000000038
 40
0.2500000000000038
 40
0.3750000000000031
 40
0.3750000000000031
 40
0.5000000000000023
 40
0.5000000000000023
 40
0.6250000000000016
 40
0.6250000000000016
 40
0.7500000000000008
 40
0.7500000000000008
 40
0.8750000000000004
 40
0.8750000000000004
 40
1.0
 40
1.0
 40
1.0
 40
1.0
 10
221.6833310346344
 20
29.67071774238683
 30
0.0
 10
221.0809862249389
 20
29.68284768346534
 30
0.0
 10
220.5053176025253
 20
29.70922039013841
 30
0.0
 10
219.6812231354644
 20
29.77585622394988
 30
0.0
 10
219.4153578447599
 20
29.80264174214246
 30
0.0
 10
218.9144972593779
 20
29.86535827334858
 30
0.0
 10
218.6773738910662
 20
29.901446389408
 30
0.0
 10
218.2299090506259
 20
29.98500350768176
 30
0.0
 10
218.0189937814957
 20
30.03279903065159
 30
0.0
 10
217.6378635995308
 20
30.13863709334218
 30
0.0
 10
217.4657170803148
 20
30.19696118022428
 30
0.0
 10
217.1575267839025
 20
30.32601813797898
 30
0.0
 10
217.0208105342669
 20
30.39728464331092
 30
0.0
 10
216.7893066432207
 20
30.55111255858078
 30
0.0
 10
216.6940825033752
 20
30.63362627058448
 30
0.0
 10
216.6189921373309
 20
30.7222765530404
 30
0.0
  0
ELLIPSE
  5
23D
330
1F
100
AcDbEntity
  8
0
  6
Continuous
 62
     7
370
    15
100
AcDbEllipse
 10
263.2047933243
 20
60.7554151462
 30
0.0
 11
256.5469124811991
 21
-4.973799150320701E-14
 31
0.0
210
0.0
220
0.0
230
1.0
 40
0.1227845609
 41
4.549826486217345
 42
4.573599905083987
  0
ELLIPSE
  5
23E
330
1F
100
AcDbEntity
  8
0
  6
Continuous
 62
     7
370
    15
100
AcDbEllipse
 10
264.6364792921
 20
60.7554151462
 30
0.0
 11
37.98674877545658
 21
31.44244822584282
 31
0.0
210
0.0
220
0.0
230
1.0
 40
0.0501036136
 41
3.202050855131283
 42
3.340839930431965
  0
ELLIPSE
  5
23F
330
1F
100
AcDbEntity
  8
0
  6
Continuous
 62
     7
370
    15
100
AcDbEllipse
 10
264.6364792921
 20
60.7554151462
 30
0.0
 11
37.98674877545591
 21
-31.44244822584223
 31
0.0
210
0.0
220
0.0
230
1.0
 40
0.0501036136
 41
2.942345376747876
 42
3.081134452048582
  0
LINE
  5
240
330
1F
100
AcDbEntity
  8
0
  6
Continuous
 62
     7
370
    15
100
AcDbLine
 10
135.6664460388
 20
29.7554151462
 30
0.0
 11
135.6664460388
 21
91.7554151439
 31
0.0
  0
ELLIPSE
  5
241
330
1F
100
AcDbEntity
  8
0
  6
Continuous
 62
     7
370
    15
100
AcDbEllipse
 10
214.730034402
 20
60.7554151462
 30
0.0
 11
0.0
 21
2.500000000000007
 31
0.0
210
0.0
220
0.0
230
1.0
 40
0.3086063289
 41
0.0
 42
6.283185307179586
  0
SPLINE
  5
242
330
1F
100
AcDbEntity
  8
0
  6
Continuous
 62
     7
370
    15
100
AcDbSpline
210
0.0
220
0.0
230
1.0
 70
     8
 71
     3
 72
    12
 73
     8
 74
     0
 42
0.00000001
 43
0.00000001
 12
1.0
 22
0.0
 32
0.0
 13
1.0
 23
0.0
 33
0.0
 40
0.0
 40
0.0
 40
0.0
 40
0.0
 40
0.5000000000000006
 40
0.5000000000000006
 40
0.7500000000000002
 40
0.7500000000000002
 40
1.0
 40
1.0
 40
1.0
 40
1.0
 10
134.8499337523304
 20
38.90062144368636
 30
0.0
 10
134.9063702532375
 20
38.89920356234461
 30
0.0
 10
134.9754548839263
 20
38.89763922609631
 30
0.0
 10
135.0942571556442
 20
38.89469503412185
 30
0.0
 10
135.1344424311143
 20
38.89365683102449
 30
0.0
 10
135.2078234785181
 20
38.89172293580985
 30
0.0
 10
135.2412330422608
 20
38.89082804852104
 30
0.0
 10
135.2714691499172
 20
38.8900442582487
 30
0.0
  0
SPLINE
  5
243
330
1F
100
AcDbEntity
  8
0
  6
Continuous
 62
     7
370
    15
100
AcDbSpline
210
0.0
220
0.0
230
1.0
 70
     8
 71
     3
 72
    16
 73
    12
 74
     0
 42
0.00000001
 43
0.00000001
 12
1.0
 22
0.0
 32
0.0
 13
1.0
 23
0.0
 33
0.0
 40
0.0
 40
0.0
 40
0.0
 40
0.0
 40
0.0625000000000023
 40
0.0625000000000023
 40
0.1250000000000046
 40
0.1250000000000046
 40
0.250000000000004
 40
0.250000000000004
 40
0.5000000000000027
 40
0.5000000000000027
 40
1.0
 40
1.0
 40
1.0
 40
1.0
 10
135.27146914988
 20
38.89004425827294
 30
0.0
 10
135.283049557468
 20
38.88974406716159
 30
0.0
 10
135.2963590842292
 20
38.88841631890259
 30
0.0
 10
135.3256605143154
 20
38.88171764412758
 30
0.0
 10
135.3404746141997
 20
38.87635946102188
 30
0.0
 10
135.3763030159025
 20
38.85931381185453
 30
0.0
 10
135.3904226402656
 20
38.84785127407881
 30
0.0
 10
135.4249267843541
 20
38.81628794870656
 30
0.0
 10
135.4360313350587
 20
38.79839064966129
 30
0.0
 10
135.4622075122748
 20
38.74822923204704
 30
0.0
 10
135.4664460387868
 20
38.72048481985047
 30
0.0
 10
135.4664460387868
 20
38.69582065792093
 30
0.0
  0
LINE
  5
244
330
1F
100
AcDbEntity
  8
0
  6
Continuous
 62
     7
370
    15
100
AcDbLine
 10
135.4664460388
 20
53.7335278204
 30
0.0
 11
135.4664460388
 21
38.2155948673
 31
0.0
  0
SPLINE
  5
245
330
1F
100
AcDbEntity
  8
0
  6
Continuous
 62
     7
370
    15
100
AcDbSpline
210
0.0
220
0.0
230
1.0
 70
     8
 71
     3
 72
    16
 73
    12
 74
     0
 42
0.00000001
 43
0.00000001
 12
1.0
 22
0.0
 32
0.0
 13
1.0
 23
0.0
 33
0.0
 40
0.0
 40
0.0
 40
0.0
 40
0.0
 40
0.500000000000004
 40
0.500000000000004
 40
0.7500000000000026
 40
0.7500000000000026
 40
0.8750000000000018
 40
0.8750000000000018
 40
0.9375000000000009
 40
0.9375000000000009
 40
1.0
 40
1.0
 40
1.0
 40
1.0
 10
135.4664460387869
 20
53.73352782041214
 30
0.0
 10
135.4664460387869
 20
53.84722036454002
 30
0.0
 10
135.4622997637089
 20
53.96154052588953
 30
0.0
 10
135.4363341683154
 20
54.13458881638662
 30
0.0
 10
135.424873262938
 20
54.19376432354833
 30
0.0
 10
135.3905615251636
 20
54.27688744301648
 30
0.0
 10
135.3765367892341
 20
54.30500875911716
 30
0.0
 10
135.3405138262002
 20
54.33362457309461
 30
0.0
 10
135.3257593171105
 20
54.33941762099639
 30
0.0
 10
135.2964071559637
 20
54.33782419505936
 30
0.0
 10
135.2830672814596
 20
54.33132779173555
 30
0.0
 10
135.2714691499112
 20
54.32281204553242
 30
0.0
  0
SPLINE
  5
246
330
1F
100
AcDbEntity
  8
0
  6
Continuous
 62
     7
370
    15
100
AcDbSpline
210
0.0
220
0.0
230
1.0
 70
     8
 71
     3
 72
    12
 73
     8
 74
     0
 42
0.00000001
 43
0.00000001
 12
1.0
 22
0.0
 32
0.0
 13
1.0
 23
0.0
 33
0.0
 40
0.0
 40
0.0
 40
0.0
 40
0.0
 40
0.2499999999999999
 40
0.2499999999999999
 40
0.4999999999999998
 40
0.4999999999999998
 40
1.0
 40
1.0
 40
1.0
 40
1.0
 10
135.2714691499183
 20
54.32281204552329
 30
0.0
 10
135.2412707084777
 20
54.30063931347823
 30
0.0
 10
135.2079033531417
 20
54.28155965760099
 30
0.0
 10
135.1347480773118
 20
54.25638661315828
 30
0.0
 10
135.0944953782878
 20
54.25083007674149
 30
0.0
 10
134.976766635013
 20
54.26174188772823
 30
0.0
 10
134.906308186954
 20
54.30367764313904
 30
0.0
 10
134.8499337523357
 20
54.35288942552059
 30
0.0
  0
SPLINE
  5
247
330
1F
100
AcDbEntity
  8
0
  6
Continuous
 62
     7
370
    15
100
AcDbSpline
210
0.0
220
0.0
230
1.0
 70
     8
 71
     3
 72
    12
 73
     8
 74
     0
 42
0.00000001
 43
0.00000001
 12
1.0
 22
0.0
 32
0.0
 13
1.0
 23
0.0
 33
0.0
 40
0.0
 40
0.0
 40
0.0
 40
0.0
 40
0.4999999999999984
 40
0.4999999999999984
 40
0.7499999999999992
 40
0.7499999999999992
 40
1.0
 40
1.0
 40
1.0
 40
1.0
 10
134.3451256952272
 20
55.56924081740117
 30
0.0
 10
134.3888760471116
 20
55.34879383242664
 30
0.0
 10
134.4417661982361
 20
55.13324884262106
 30
0.0
 10
134.5533777413778
 20
54.82083476604914
 30
0.0
 10
134.5959370852813
 20
54.71875529043323
 30
0.0
 10
134.7009143206188
 20
54.52431527779146
 30
0.0
 10
134.7624815637134
 20
54.42923037872779
 30
0.0
 10
134.8499337523357
 20
54.35288942552061
 30
0.0
  0
SPLINE
  5
248
330
1F
100
AcDbEntity
  8
0
  6
Continuous
 62
     7
370
    15
100
AcDbSpline
210
0.0
220
0.0
230
1.0
 70
     8
 71
     3
 72
    12
 73
     8
 74
     0
 42
0.00000001
 43
0.00000001
 12
1.0
 22
0.0
 32
0.0
 13
1.0
 23
0.0
 33
0.0
 40
0.0
 40
0.0
 40
0.0
 40
0.0
 40
0.2500000000000008
 40
0.2500000000000008
 40
0.5000000000000016
 40
0.5000000000000016
 40
1.0
 40
1.0
 40
1.0
 40
1.0
 10
134.8499337523356
 20
67.15794086680377
 30
0.0
 10
134.7614403447677
 20
67.08069098669547
 30
0.0
 10
134.7013823040019
 20
66.98737166280625
 30
0.0
 10
134.5955340310193
 20
66.79133860983681
 30
0.0
 10
134.5530005097418
 20
66.68901225162506
 30
0.0
 10
134.4418492029181
 20
66.37766784584917
 30
0.0
 10
134.3889183458704
 20
66.16224959267117
 30
0.0
 10
134.3451256952272
 20
65.9415894749233
 30
0.0
  0
SPLINE
  5
249
330
1F
100
AcDbEntity
  8
0
  6
Continuous
 62
     7
370
    15
100
AcDbSpline
210
0.0
220
0.0
230
1.0
 70
     8
 71
     3
 72
    12
 73
     8
 74
     0
 42
0.00000001
 43
0.00000001
 12
1.0
 22
0.0
 32
0.0
 13
1.0
 23
0.0
 33
0.0
 40
0.0
 40
0.0
 40
0.0
 40
0.0
 40
0.5000000000000003
 40
0.5000000000000003
 40
0.7500000000000002
 40
0.7500000000000002
 40
1.0
 40
1.0
 40
1.0
 40
1.0
 10
134.8499337523356
 20
67.15794086680377
 30
0.0
 10
134.9062423006312
 20
67.2070951340476
 30
0.0
 10
134.9765169613493
 20
67.24905245265136
 30
0.0
 10
135.0945548756729
 20
67.26001213018378
 30
0.0
 10
135.1347311165269
 20
67.25450337193644
 30
0.0
 10
135.2086882112048
 20
67.22894614314748
 30
0.0
 10
135.2413045989162
 20
67.21016609530817
 30
0.0
 10
135.271469149912
 20
67.18801824679144
 30
0.0
  0
SPLINE
  5
24A
330
1F
100
AcDbEntity
  8
0
  6
Continuous
 62
     7
370
    15
100
AcDbSpline
210
0.0
220
0.0
230
1.0
 70
     8
 71
     3
 72
    16
 73
    12
 74
     0
 42
0.00000001
 43
0.00000001
 12
1.0
 22
0.0
 32
0.0
 13
1.0
 23
0.0
 33
0.0
 40
0.0
 40
0.0
 40
0.0
 40
0.0
 40
0.0625000000000001
 40
0.0625000000000001
 40
0.1250000000000001
 40
0.1250000000000001
 40
0.2500000000000002
 40
0.2500000000000002
 40
0.499999999999999
 40
0.499999999999999
 40
1.0
 40
1.0
 40
1.0
 40
1.0
 10
135.2714691498803
 20
67.18801824673696
 30
0.0
 10
135.2830820497196
 20
67.1794916571417
 30
0.0
 10
135.2964332341521
 20
67.17299139560889
 30
0.0
 10
135.3258330737713
 20
67.17142199849137
 30
0.0
 10
135.3406737983266
 20
67.17730538912201
 30
0.0
 10
135.3765070062952
 20
67.20585302517254
 30
0.0
 10
135.3906202141168
 20
67.23402004447836
 30
0.0
 10
135.4251115853357
 20
67.3177743029003
 30
0.0
 10
135.436195656446
 20
67.37548771652172
 30
0.0
 10
135.462318474242
 20
67.54907825316754
 30
0.0
 10
135.4664460387869
 20
67.6641063058095
 30
0.0
 10
135.4664460387869
 20
67.77730247191231
 30
0.0
  0
LINE
  5
24B
330
1F
100
AcDbEntity
  8
0
  6
Continuous
 62
     7
370
    15
100
AcDbLine
 10
135.4664460388
 20
83.295235425
 30
0.0
 11
135.4664460388
 21
67.7773024719
 31
0.0
  0
SPLINE
  5
24C
330
1F
100
AcDbEntity
  8
0
  6
Continuous
 62
     7
370
    15
100
AcDbSpline
210
0.0
220
0.0
230
1.0
 70
     8
 71
     3
 72
    16
 73
    12
 74
     0
 42
0.00000001
 43
0.00000001
 12
1.0
 22
0.0
 32
0.0
 13
1.0
 23
0.0
 33
0.0
 40
0.0
 40
0.0
 40
0.0
 40
0.0
 40
0.4999999999999973
 40
0.4999999999999973
 40
0.7499999999999977
 40
0.7499999999999977
 40
0.8749999999999988
 40
0.8749999999999988
 40
0.9374999999999994
 40
0.9374999999999994
 40
1.0
 40
1.0
 40
1.0
 40
1.0
 10
135.4664460387869
 20
82.81500963440352
 30
0.0
 10
135.4664460387869
 20
82.79033847836058
 30
0.0
 10
135.4622803403269
 20
82.76275664696935
 30
0.0
 10
135.436022012002
 20
82.71241377614602
 30
0.0
 10
135.4245182302644
 20
82.69412427808412
 30
0.0
 10
135.3903874709179
 20
82.66296924704709
 30
0.0
 10
135.3759655842472
 20
82.65132987183534
 30
0.0
 10
135.3403986158093
 20
82.63444784590429
 30
0.0
 10
135.3254468475146
 20
82.6290587420966
 30
0.0
 10
135.2964430291549
 20
82.6224382461521
 30
0.0
 10
135.2830276751456
 20
82.62108565794566
 30
0.0
 10
135.271469149909
 20
82.62078603407404
 30
0.0
  0
SPLINE
  5
24D
330
1F
100
AcDbEntity
  8
0
  6
Continuous
 62
     7
370
    15
100
AcDbSpline
210
0.0
220
0.0
230
1.0
 70
     8
 71
     3
 72
    12
 73
     8
 74
     0
 42
0.00000001
 43
0.00000001
 12
1.0
 22
0.0
 32
0.0
 13
1.0
 23
0.0
 33
0.0
 40
0.0
 40
0.0
 40
0.0
 40
0.0
 40
0.2500000000000002
 40
0.2500000000000002
 40
0.5000000000000001
 40
0.5000000000000001
 40
1.0
 40
1.0
 40
1.0
 40
1.0
 10
135.2714691499183
 20
82.6207860340758
 30
0.0
 10
135.2412813733686
 20
82.62000349665821
 30
0.0
 10
135.2079275692769
 20
82.6191101648397
 30
0.0
 10
135.134801366081
 20
82.61718285603608
 30
0.0
 10
135.0945661630568
 20
82.61614332482343
 30
0.0
 10
134.9768745329237
 20
82.61322544147617
 30
0.0
 10
134.9064938597637
 20
82.61162983540596
 30
0.0
 10
134.8499337523331
 20
82.6102088486381
 30
0.0
  0
SPLINE
  5
24E
330
1F
100
AcDbEntity
  8
0
  6
Continuous
 62
     7
370
    15
100
AcDbSpline
210
0.0
220
0.0
230
1.0
 70
     8
 71
     3
 72
    16
 73
    12
 74
     0
 42
0.00000001
 43
0.00000001
 12
1.0
 22
0.0
 32
0.0
 13
1.0
 23
0.0
 33
0.0
 40
0.0
 40
0.0
 40
0.0
 40
0.0
 40
0.2499999999999999
 40
0.2499999999999999
 40
0.3749999999999999
 40
0.3749999999999999
 40
0.4999999999999999
 40
0.4999999999999999
 40
0.7499999999999999
 40
0.7499999999999999
 40
1.0
 40
1.0
 40
1.0
 40
1.0
 10
134.3451256952272
 20
65.94158947492329
 30
0.0
 10
134.1838932177427
 20
65.12917969967647
 30
0.0
 10
134.0634133781031
 20
64.28910140529172
 30
0.0
 10
133.9410328607898
 20
62.98780635592895
 30
0.0
 10
133.9100552003923
 20
62.54712532034418
 30
0.0
 10
133.8684414627644
 20
61.65128567941304
 30
0.0
 10
133.8582055498316
 20
61.20462754821059
 30
0.0
 10
133.8580171527755
 20
59.8693175910707
 30
0.0
 10
133.8981618554131
 20
58.98482221776317
 30
0.0
 10
134.0623156103526
 20
57.22757232973716
 30
0.0
 10
134.1838672607622
 20
56.38178138332405
 30
0.0
 10
134.3451256952272
 20
55.56924081740117
 30
0.0
  0
LINE
  5
24F
330
1F
100
AcDbEntity
  8
0
  6
Continuous
 62
     7
370
    15
100
AcDbLine
 10
133.4664460388
 20
67.2405934078
 30
0.0
 11
133.4664460388
 21
54.2702368845
 31
0.0
  0
LINE
  5
250
330
1F
100
AcDbEntity
  8
0
  6
Continuous
 62
     7
370
    15
100
AcDbLine
 10
99.1664460388
 20
66.8097257137
 30
0.0
 11
99.1664460388
 21
54.7011045786
 31
0.0
  0
LINE
  5
251
330
1F
100
AcDbEntity
  8
0
  6
Continuous
 62
     7
370
    15
100
AcDbLine
 10
97.6664460388
 20
66.3767130118
 30
0.0
 11
97.6664460388
 21
55.1341172805
 31
0.0
  0
LINE
  5
252
330
1F
100
AcDbEntity
  8
0
  6
Continuous
 62
     7
370
    15
100
AcDbLine
 10
99.1664460388
 20
66.8097257137
 30
0.0
 11
99.1664460388
 21
81.9137785424
 31
0.0
  0
LINE
  5
253
330
1F
100
AcDbEntity
  8
0
  6
Continuous
 62
     7
370
    15
100
AcDbLine
 10
99.1664460388
 20
81.9137785424
 30
0.0
 11
133.4664460388
 21
82.7755139307
 31
0.0
  0
LINE
  5
254
330
1F
100
AcDbEntity
  8
0
  6
Continuous
 62
     7
370
    15
100
AcDbLine
 10
133.4664460388
 20
67.2405934078
 30
0.0
 11
133.4664460388
 21
82.7755139307
 31
0.0
  0
ARC
  5
255
330
1F
100
AcDbEntity
  8
0
  6
Continuous
 62
     7
370
    15
100
AcDbCircle
 10
133.6663829497
 20
82.7805370419
 30
0.0
 40
0.2000000000000208
100
AcDbArc
 50
181.4391666667
 51
271.4391666667
  0
LINE
  5
256
330
1F
100
AcDbEntity
  8
0
  6
Continuous
 62
     7
370
    15
100
AcDbLine
 10
133.4664460388
 20
38.7353163616
 30
0.0
 11
133.4664460388
 21
54.2702368845
 31
0.0
  0
ARC
  5
257
330
1F
100
AcDbEntity
  8
0
  6
Continuous
 62
     7
370
    15
100
AcDbCircle
 10
133.6663829497
 20
38.7302932505
 30
0.0
 40
0.1999999999999995
100
AcDbArc
 50
88.5608333333
 51
178.5608333333
  0
LINE
  5
258
330
1F
100
AcDbEntity
  8
0
  6
Continuous
 62
     7
370
    15
100
AcDbLine
 10
99.1664460388
 20
39.5970517499
 30
0.0
 11
99.1664460388
 21
54.7011045786
 31
0.0
  0
LINE
  5
259
330
1F
100
AcDbEntity
  8
0
  6
Continuous
 62
     7
370
    15
100
AcDbLine
 10
99.1664460388
 20
39.5970517499
 30
0.0
 11
133.4664460388
 21
38.7353163616
 31
0.0
  0
LINE
  5
25A
330
1F
100
AcDbEntity
  8
0
  6
Continuous
 62
     7
370
    15
100
AcDbLine
 10
133.6714060608
 20
82.5806001309
 30
0.0
 11
134.8499337523
 21
82.6102088486
 31
0.0
  0
LINE
  5
25B
330
1F
100
AcDbEntity
  8
0
  6
Continuous
 62
     7
370
    15
100
AcDbLine
 10
133.6714060608
 20
38.9302301614
 30
0.0
 11
134.8499337523
 21
38.9006214437
 31
0.0
  0
LINE
  5
25C
330
1F
100
AcDbEntity
  8
0
  6
Continuous
 62
     7
370
    15
100
AcDbLine
 10
97.6664460388
 20
81.0477531387
 30
0.0
 11
99.1664460388
 21
81.9137785424
 31
0.0
  0
LINE
  5
25D
330
1F
100
AcDbEntity
  8
0
  6
Continuous
 62
     7
370
    15
100
AcDbLine
 10
97.6664460388
 20
66.3767130118
 30
0.0
 11
97.6664460388
 21
81.0477531387
 31
0.0
  0
LINE
  5
25E
330
1F
100
AcDbEntity
  8
0
  6
Continuous
 62
     7
370
    15
100
AcDbLine
 10
97.6664460388
 20
40.4630771537
 30
0.0
 11
99.1664460388
 21
39.5970517499
 31
0.0
  0
LINE
  5
25F
330
1F
100
AcDbEntity
  8
0
  6
Continuous
 62
     7
370
    15
100
AcDbLine
 10
97.6664460388
 20
40.4630771537
 30
0.0
 11
97.6664460388
 21
55.1341172805
 31
0.0
  0
LINE
  5
260
330
1F
100
AcDbEntity
  8
0
  6
Continuous
 62
     7
370
    15
100
AcDbLine
 10
249.8687961863
 20
63.8231222761
 30
0.0
 11
248.8736920029
 21
64.6643844702
 31
0.0
  0
ARC
  5
261
330
1F
100
AcDbEntity
  8
0
  6
Continuous
 62
     7
370
    15
100
AcDbCircle
 10
247.3776362471
 20
62.8614851838
 30
0.0
 40
2.342782247936829
100
AcDbArc
 50
50.3139256515
 51
230.107957581
  0
LINE
  5
262
330
1F
100
AcDbEntity
  8
0
  6
Continuous
 62
     7
370
    15
100
AcDbLine
 10
245.8751090718
 20
61.0639755876
 30
0.0
 11
255.4276558968
 21
52.9882417746
 31
0.0
  0
LINE
  5
263
330
1F
100
AcDbEntity
  8
0
  6
Continuous
 62
     7
370
    15
100
AcDbLine
 10
255.4276558968
 20
52.9882417746
 30
0.0
 11
227.7130837803
 21
29.5583113852
 31
0.0
  0
LINE
  5
264
330
1F
100
AcDbEntity
  8
0
  6
Continuous
 62
     7
370
    15
100
AcDbLine
 10
255.4276558968
 20
68.5225885177
 30
0.0
 11
227.7130837803
 21
91.9525189071
 31
0.0
  0
LINE
  5
265
330
1F
100
AcDbEntity
  8
0
  6
Continuous
 62
     7
370
    15
100
AcDbLine
 10
255.4276558968
 20
68.5225885177
 30
0.0
 11
249.8687961863
 21
63.8231222761
 31
0.0
  0
CIRCLE
  5
266
330
1F
100
AcDbEntity
  8
0
  6
Continuous
 62
     7
370
    15
100
AcDbCircle
 10
244.4889737996
 20
55.3503079444
 30
0.0
 40
3.98988849131997
  0
ARC
  5
267
330
1F
100
AcDbEntity
  8
0
  6
Continuous
 62
     7
370
    15
100
AcDbCircle
 10
246.8002845873
 20
62.8918354346
 30
0.0
 40
2.32245451505912
100
AcDbArc
 50
49.7490966261
 51
82.8834873994
  0
LINE
  5
268
330
1F
100
AcDbEntity
  8
0
  6
Continuous
 62
     7
370
    15
100
AcDbLine
 10
249.2960102723
 20
63.8231222761
 30
0.0
 11
249.8687961863
 21
63.8231222761
 31
0.0
  0
LINE
  5
269
330
1F
100
AcDbEntity
  8
0
  6
Continuous
 62
     7
370
    15
100
AcDbLine
 10
249.2960102723
 20
63.8231222761
 30
0.0
 11
249.3106345935
 21
63.8107588585
 31
0.0
  0
LINE
  5
26A
330
1F
100
AcDbEntity
  8
0
  6
Continuous
 62
     7
370
    15
100
AcDbLine
 10
247.9426102192
 20
64.6643844702
 30
0.0
 11
249.1314866587
 21
63.6593069933
 31
0.0
  0
LINE
  5
26B
330
1F
100
AcDbEntity
  8
0
  6
Continuous
 62
     7
370
    15
100
AcDbLine
 10
245.6213213419
 20
61.4469978091
 30
0.0
 11
245.3040291397
 21
61.7818493339
 31
0.0
  0
ARC
  5
26C
330
1F
100
AcDbEntity
  8
0
  6
Continuous
 62
     7
370
    15
100
AcDbCircle
 10
246.9606864383
 20
63.0819299097
 30
0.0
 40
2.073728802859477
100
AcDbArc
 50
49.7379172526
 51
93.2630571026
  0
LINE
  5
26D
330
1F
100
AcDbEntity
  8
0
  6
Continuous
 62
     7
370
    15
100
AcDbLine
 10
246.067966429
 20
61.0694035509
 30
0.0
 11
245.6213213419
 21
61.4469978091
 31
0.0
  0
LWPOLYLINE
  5
26E
330
1F
100
AcDbEntity
  8
0
  6
Continuous
 62
     7
370
    15
100
AcDbPolyline
 90
        3
 70
   128
 43
0.0
 10
246.8126903271
 20
65.1450186619
 10
247.3836279444
 20
65.0027772343
 10
247.9426102192
 20
64.6643844702
  0
CIRCLE
  5
26F
330
1F
100
AcDbEntity
  8
0
  6
Continuous
 62
     7
370
    15
100
AcDbCircle
 10
244.473198436
 20
55.3650353892
 30
0.0
 40
3.480868220803241
  0
CIRCLE
  5
270
330
1F
100
AcDbEntity
  8
0
  6
Continuous
 62
     7
370
    15
100
AcDbCircle
 10
244.4723550345
 20
55.3555605153
 30
0.0
 40
1.99034326779828
  0
SPLINE
  5
271
330
1F
100
AcDbEntity
  8
0
  6
Continuous
 62
     7
370
    15
100
AcDbSpline
210
0.0
220
0.0
230
1.0
 70
    24
 71
     3
 72
    11
 73
     7
 74
     0
 42
0.00000001
 43
0.00000001
 12
1.0
 22
0.0
 32
0.0
 13
1.0
 23
0.0
 33
0.0
 40
0.0
 40
0.0
 40
0.0
 40
0.0
 40
0.1081100880371253
 40
0.4711580666043579
 40
0.8135808430835937
 40
1.0
 40
1.0
 40
1.0
 40
1.0
 10
243.5770473742928
 20
53.84590139588129
 30
0.0
 10
243.6317539711042
 20
53.84590139588128
 30
0.0
 10
243.8701725576775
 20
53.84590139588125
 30
0.0
 10
244.3368069240166
 20
53.84590139588114
 30
0.0
 10
244.8872113954416
 20
53.84590139588133
 30
0.0
 10
245.1895958569081
 20
53.84590139588128
 30
0.0
 10
245.2961877377925
 20
53.84590139588126
 30
0.0
  0
SPLINE
  5
272
330
1F
100
AcDbEntity
  8
0
  6
Continuous
 62
     7
370
    15
100
AcDbSpline
210
0.0
220
0.0
230
1.0
 70
     8
 71
     3
 72
    10
 73
     6
 74
     0
 42
0.00000001
 43
0.00000001
 12
1.0
 22
0.0
 32
0.0
 13
1.0
 23
0.0
 33
0.0
 40
0.0
 40
0.0
 40
0.0
 40
0.0
 40
0.4391165375904078
 40
0.7513669429073273
 40
1.0
 40
1.0
 40
1.0
 40
1.0
 10
245.2961877377925
 20
53.84590139588126
 30
0.0
 10
245.4067216450289
 20
54.0606379597056
 30
0.0
 10
245.5958548633392
 20
54.42807107068903
 30
0.0
 10
245.9114581621698
 20
54.96219999359943
 30
0.0
 10
246.0807242493711
 20
55.22805222250216
 30
0.0
 10
246.1557579195424
 20
55.34590139588128
 30
0.0
  0
SPLINE
  5
273
330
1F
100
AcDbEntity
  8
0
  6
Continuous
 62
     7
370
    15
100
AcDbSpline
210
0.0
220
0.0
230
1.0
 70
     8
 71
     3
 72
    10
 73
     6
 74
     0
 42
0.00000001
 43
0.00000001
 12
1.0
 22
0.0
 32
0.0
 13
1.0
 23
0.0
 33
0.0
 40
0.0
 40
0.0
 40
0.0
 40
0.0
 40
0.4391165375903787
 40
0.7513669429073186
 40
1.0
 40
1.0
 40
1.0
 40
1.0
 10
246.1557579195424
 20
55.34590139588128
 30
0.0
 10
246.020183630519
 20
55.56063795970559
 30
0.0
 10
245.788204120844
 20
55.92807107068899
 30
0.0
 10
245.4916456925494
 20
56.46219999359942
 30
0.0
 10
245.3562202481286
 20
56.72805222250217
 30
0.0
 10
245.2961877377925
 20
56.84590139588129
 30
0.0
  0
SPLINE
  5
274
330
1F
100
AcDbEntity
  8
0
  6
Continuous
 62
     7
370
    15
100
AcDbSpline
210
0.0
220
0.0
230
1.0
 70
    24
 71
     3
 72
    11
 73
     7
 74
     0
 42
0.00000001
 43
0.00000001
 12
1.0
 22
0.0
 32
0.0
 13
1.0
 23
0.0
 33
0.0
 40
0.0
 40
0.0
 40
0.0
 40
0.0
 40
0.1864191569163774
 40
0.5288419333956473
 40
0.8918899119628759
 40
1.0
 40
1.0
 40
1.0
 40
1.0
 10
245.2961877377925
 20
56.84590139588129
 30
0.0
 10
245.1895958569081
 20
56.84590139588128
 30
0.0
 10
244.8872113954415
 20
56.84590139588126
 30
0.0
 10
244.3368069240167
 20
56.84590139588124
 30
0.0
 10
243.8701725576775
 20
56.84590139588123
 30
0.0
 10
243.6317539711042
 20
56.84590139588124
 30
0.0
 10
243.5770473742928
 20
56.84590139588125
 30
0.0
  0
SPLINE
  5
275
330
1F
100
AcDbEntity
  8
0
  6
Continuous
 62
     7
370
    15
100
AcDbSpline
210
0.0
220
0.0
230
1.0
 70
     8
 71
     3
 72
    10
 73
     6
 74
     0
 42
0.00000001
 43
0.00000001
 12
1.0
 22
0.0
 32
0.0
 13
1.0
 23
0.0
 33
0.0
 40
0.0
 40
0.0
 40
0.0
 40
0.0
 40
0.4391165375904151
 40
0.7513669429073513
 40
1.0
 40
1.0
 40
1.0
 40
1.0
 10
243.5770473742928
 20
56.84590139588125
 30
0.0
 10
243.4414730852694
 20
56.63116483205692
 30
0.0
 10
243.2094935755945
 20
56.26373172107349
 30
0.0
 10
242.9129351472998
 20
55.72960279816311
 30
0.0
 10
242.777509702879
 20
55.46375056926041
 30
0.0
 10
242.7174771925429
 20
55.3459013958813
 30
0.0
  0
SPLINE
  5
276
330
1F
100
AcDbEntity
  8
0
  6
Continuous
 62
     7
370
    15
100
AcDbSpline
210
0.0
220
0.0
230
1.0
 70
     8
 71
     3
 72
    10
 73
     6
 74
     0
 42
0.00000001
 43
0.00000001
 12
1.0
 22
0.0
 32
0.0
 13
1.0
 23
0.0
 33
0.0
 40
0.0
 40
0.0
 40
0.0
 40
0.0
 40
0.4391165375904285
 40
0.7513669429073775
 40
1.0
 40
1.0
 40
1.0
 40
1.0
 10
242.7174771925429
 20
55.3459013958813
 30
0.0
 10
242.8280110997792
 20
55.13116483205695
 30
0.0
 10
243.0171443180895
 20
54.7637317210735
 30
0.0
 10
243.3327476169202
 20
54.22960279816306
 30
0.0
 10
243.5020137041215
 20
53.96375056926037
 30
0.0
 10
243.5770473742928
 20
53.84590139588129
 30
0.0
  0
LINE
  5
277
330
1F
100
AcDbEntity
  8
0
  6
Continuous
 62
     7
370
    15
100
AcDbLine
 10
245.7009353381
 20
55.3459013959
 30
0.0
 11
246.1557579195
 21
55.3459013959
 31
0.0
  0
LINE
  5
278
330
1F
100
AcDbEntity
  8
0
  6
Continuous
 62
     7
370
    15
100
AcDbLine
 10
245.7009353381
 20
55.3459013959
 30
0.0
 11
245.2711502472
 21
56.0959013959
 31
0.0
  0
LINE
  5
279
330
1F
100
AcDbEntity
  8
0
  6
Continuous
 62
     7
370
    15
100
AcDbLine
 10
245.2711502472
 20
56.0959013959
 30
0.0
 11
244.8413651563
 21
56.8459013959
 31
0.0
  0
LINE
  5
27A
330
1F
100
AcDbEntity
  8
0
  6
Continuous
 62
     7
370
    15
100
AcDbLine
 10
244.8413651563
 20
53.8459013959
 30
0.0
 11
245.2711502472
 21
54.5959013959
 31
0.0
  0
LINE
  5
27B
330
1F
100
AcDbEntity
  8
0
  6
Continuous
 62
     7
370
    15
100
AcDbLine
 10
245.2711502472
 20
54.5959013959
 30
0.0
 11
245.7009353381
 21
55.3459013959
 31
0.0
  0
ARC
  5
27C
330
1F
100
AcDbEntity
  8
0
  6
Continuous
 62
     7
370
    15
100
AcDbCircle
 10
243.9611079654
 20
55.3459013959
 30
0.0
 40
1.50953992334135
100
AcDbArc
 50
330.2088365589
 51
29.7911634411
  0
ARC
  5
27D
330
1F
100
AcDbEntity
  8
0
  6
Continuous
 62
     7
370
    15
100
AcDbCircle
 10
243.9796773334
 20
55.3328332643
 30
0.0
 40
1.48693337631751
100
AcDbArc
 50
270.081598774
 51
330.2903361656
  0
ARC
  5
27E
330
1F
100
AcDbEntity
  8
0
  6
Continuous
 62
     7
370
    15
100
AcDbCircle
 10
243.9818882953
 20
55.3247635153
 30
0.0
 40
1.47886212240884
100
AcDbArc
 50
251.5030112499
 51
269.9963844622
  0
LWPOLYLINE
  5
27F
330
1F
100
AcDbEntity
  8
0
  6
Continuous
 62
     7
370
    15
100
AcDbPolyline
 90
        3
 70
   128
 43
0.0
 10
243.6603217102
 20
56.81051633
 10
243.7874650699
 20
56.8330686879
 10
243.9817949746
 20
56.8459013959
  0
ARC
  5
280
330
1F
100
AcDbEntity
  8
0
  6
Continuous
 62
     7
370
    15
100
AcDbCircle
 10
243.9796773334
 20
55.3589695275
 30
0.0
 40
1.486933376317318
100
AcDbArc
 50
29.7096638344
 51
89.918401226
  0
LINE
  5
281
330
1F
100
AcDbEntity
  8
0
  6
Continuous
 62
     7
370
    15
100
AcDbLine
 10
254.5455588191
 20
62.7492922776
 30
0.0
 11
254.828552462
 21
62.6654138857
 31
0.0
  0
LINE
  5
282
330
1F
100
AcDbEntity
  8
0
  6
Continuous
 62
     7
370
    15
100
AcDbLine
 10
254.828552462
 20
62.6654138857
 30
0.0
 11
254.0201087125
 21
62.2855992937
 31
0.0
  0
ELLIPSE
  5
283
330
1F
100
AcDbEntity
  8
0
  6
Continuous
 62
     7
370
    15
100
AcDbEllipse
 10
255.3264820612
 20
60.4719145435
 30
0.0
 11
0.1774412266989032
 21
2.243639031128474
 31
0.0
210
0.0
220
0.0
230
1.0
 40
0.993338952
 41
3.868059894364433
 42
6.587230787235835
  0
ELLIPSE
  5
284
330
1F
100
AcDbEntity
  8
0
  6
Continuous
 62
     7
370
    15
100
AcDbEllipse
 10
255.3264820612
 20
60.4719145435
 30
0.0
 11
0.1774412266989032
 21
2.243639031128474
 31
0.0
210
0.0
220
0.0
230
1.0
 40
0.993338952
 41
3.319479629073036
 42
3.445638133646091
  0
LINE
  5
285
330
1F
100
AcDbEntity
  8
0
  6
Continuous
 62
     7
370
    15
100
AcDbLine
 10
255.8244116604
 20
58.2784152014
 30
0.0
 11
256.6742122309
 21
58.6776596227
 31
0.0
  0
SPLINE
  5
286
330
1F
100
AcDbEntity
  8
0
  6
Continuous
 62
     7
370
    15
100
AcDbSpline
210
0.0
220
0.0
230
1.0
 70
     8
 71
     3
 72
     9
 73
     5
 74
     0
 42
0.00000001
 43
0.00000001
 12
1.0
 22
0.0
 32
0.0
 13
1.0
 23
0.0
 33
0.0
 40
0.0
 40
0.0
 40
0.0
 40
0.0
 40
0.3573579943702915
 40
1.0
 40
1.0
 40
1.0
 40
1.0
 10
255.1142067834346
 20
62.86993565134421
 30
0.0
 10
255.0679281023658
 20
62.88716561430685
 30
0.0
 10
254.9384258055154
 20
62.93538046673518
 30
0.0
 10
254.8610877698443
 20
62.93653206518994
 30
0.0
 10
254.811387099489
 20
62.9372721307306
 30
0.0
  0
ARC
  5
287
330
1F
100
AcDbEntity
  8
0
  6
Continuous
 62
     7
370
    15
100
AcDbCircle
 10
254.5088100381
 20
60.7647742914
 30
0.0
 40
2.896344830977912
100
AcDbArc
 50
15.2058001818
 51
59.3071112162
  0
LWPOLYLINE
  5
288
330
1F
100
AcDbEntity
  8
0
  6
Continuous
 62
     7
370
    15
100
AcDbPolyline
 90
        3
 70
   128
 43
0.0
 10
256.391477719
 20
58.5448282497
 10
256.3786113757
 20
58.5338862611
 10
255.9872092706
 20
58.2554438092
  0
ARC
  5
289
330
1F
100
AcDbEntity
  8
0
  6
Continuous
 62
     7
370
    15
100
AcDbCircle
 10
254.7155667401
 20
60.7619267042
 30
0.0
 40
2.798725584349753
100
AcDbArc
 50
4.3672802368
 51
66.2713271858
  0
LWPOLYLINE
  5
28A
330
1F
100
AcDbEntity
  8
0
  6
Continuous
 62
     7
370
    15
100
AcDbPolyline
 90
        3
 70
   128
 43
0.0
 10
256.5102698503
 20
58.6006379271
 10
256.1251644037
 20
58.3305440156
 10
255.8796262775
 20
58.2036565529
  0
LINE
  5
28B
330
1F
100
AcDbEntity
  8
0
  6
Continuous
 62
     7
370
    15
100
AcDbLine
 10
246.6391094321
 20
60.4489973689
 30
0.0
 11
255.8266692315
 21
52.6818239974
 31
0.0
  0
ARC
  5
28C
330
1F
100
AcDbEntity
  8
0
  6
Continuous
 62
     7
370
    15
100
AcDbCircle
 10
246.8990374764
 20
60.7554151462
 30
0.0
 40
0.4018139400520222
100
AcDbArc
 50
130.3072723465
 51
229.6927276535
  0
LINE
  5
28D
330
1F
100
AcDbEntity
  8
0
  6
Continuous
 62
     7
370
    15
100
AcDbLine
 10
255.8266692315
 20
68.8290062949
 30
0.0
 11
246.6391094321
 21
61.0618329234
 31
0.0
  0
ARC
  5
28E
330
1F
100
AcDbEntity
  8
0
  6
Continuous
 62
     7
370
    15
100
AcDbCircle
 10
256.0818677788
 20
68.5277149987
 30
0.0
 40
0.3948452149584518
100
AcDbArc
 50
49.7348670886
 51
130.2651329114
  0
LINE
  5
28F
330
1F
100
AcDbEntity
  8
0
  6
Continuous
 62
     7
370
    15
100
AcDbLine
 10
265.5246261255
 20
61.0618329234
 30
0.0
 11
256.3370663261
 21
68.8290062949
 31
0.0
  0
ARC
  5
290
330
1F
100
AcDbEntity
  8
0
  6
Continuous
 62
     7
370
    15
100
AcDbCircle
 10
265.2646980812
 20
60.7554151462
 30
0.0
 40
0.4018139400519801
100
AcDbArc
 50
310.3072723465
 51
49.6927276535
  0
LINE
  5
291
330
1F
100
AcDbEntity
  8
0
  6
Continuous
 62
     7
370
    15
100
AcDbLine
 10
256.3370663261
 20
52.6818239974
 30
0.0
 11
265.5246261255
 21
60.4489973689
 31
0.0
  0
ARC
  5
292
330
1F
100
AcDbEntity
  8
0
  6
Continuous
 62
     7
370
    15
100
AcDbCircle
 10
256.0818677788
 20
52.9831152937
 30
0.0
 40
0.3948452149585168
100
AcDbArc
 50
229.7348670886
 51
310.2651329114
  0
ARC
  5
293
330
1F
100
AcDbEntity
  8
0
  6
Continuous
 62
     7
370
    15
100
AcDbCircle
 10
265.264934556
 20
60.7554151462
 30
0.0
 40
0.3817232430494825
100
AcDbArc
 50
310.3072723465
 51
49.6927276535
  0
LINE
  5
294
330
1F
100
AcDbEntity
  8
0
  6
Continuous
 62
     7
370
    15
100
AcDbLine
 10
265.5118661981
 20
61.0465120345
 30
0.0
 11
256.3243063986
 21
68.8136854058
 31
0.0
  0
ARC
  5
295
330
1F
100
AcDbEntity
  8
0
  6
Continuous
 62
     7
370
    15
100
AcDbCircle
 10
256.0818677786
 20
68.5274586739
 30
0.0
 40
0.3751029546211011
100
AcDbArc
 50
49.734867136
 51
130.2651328106
  0
LINE
  5
296
330
1F
100
AcDbEntity
  8
0
  6
Continuous
 62
     7
370
    15
100
AcDbLine
 10
255.8394291589
 20
68.8136854061
 30
0.0
 11
246.6518693595
 21
61.0465120345
 31
0.0
  0
ARC
  5
297
330
1F
100
AcDbEntity
  8
0
  6
Continuous
 62
     7
370
    15
100
AcDbCircle
 10
246.8988010016
 20
60.7554151462
 30
0.0
 40
0.3817232430494695
100
AcDbArc
 50
130.3072723465
 51
229.6927276535
  0
LINE
  5
298
330
1F
100
AcDbEntity
  8
0
  6
Continuous
 62
     7
370
    15
100
AcDbLine
 10
246.6518693595
 20
60.4643182578
 30
0.0
 11
255.8394291589
 21
52.6971448862
 31
0.0
  0
ARC
  5
299
330
1F
100
AcDbEntity
  8
0
  6
Continuous
 62
     7
370
    15
100
AcDbCircle
 10
256.0818677788
 20
52.9833716177
 30
0.0
 40
0.3751029542104
100
AcDbArc
 50
229.7348670886
 51
310.2651329114
  0
LINE
  5
29A
330
1F
100
AcDbEntity
  8
0
  6
Continuous
 62
     7
370
    15
100
AcDbLine
 10
256.3243063988
 20
52.6971448862
 30
0.0
 11
265.5118661981
 21
60.4643182578
 31
0.0
  0
LWPOLYLINE
  5
29B
330
1F
100
AcDbEntity
  8
0
  6
Continuous
 62
     7
370
    15
100
AcDbPolyline
 90
        3
 70
   128
 43
0.0
 10
246.0590113575
 20
61.0618329234
 10
245.9992339829
 20
60.9989197178
 10
245.9816515258
 20
60.9739044773
  0
LINE
  5
29C
330
1F
100
AcDbEntity
  8
0
  6
Continuous
 62
     7
370
    15
100
AcDbLine
 10
246.8675706862
 20
60.7554151462
 30
0.0
 11
246.6518693595
 21
60.4643182578
 31
0.0
  0
LINE
  5
29D
330
1F
100
AcDbEntity
  8
0
  6
Continuous
 62
     7
370
    15
100
AcDbLine
 10
246.8675706862
 20
60.7554151462
 30
0.0
 11
246.6518693595
 21
61.0465120345
 31
0.0
  0
LINE
  5
29E
330
1F
100
AcDbEntity
  8
0
  6
Continuous
 62
     7
370
    15
100
AcDbLine
 10
256.0551304855
 20
52.9882417746
 30
0.0
 11
255.8394291589
 21
52.6971448862
 31
0.0
  0
LINE
  5
29F
330
1F
100
AcDbEntity
  8
0
  6
Continuous
 62
     7
370
    15
100
AcDbLine
 10
248.0987656191
 20
60.7554151462
 30
0.0
 11
246.8675706862
 21
60.7554151462
 31
0.0
  0
LINE
  5
2A0
330
1F
100
AcDbEntity
  8
0
  6
Continuous
 62
     7
370
    15
100
AcDbLine
 10
256.011400094
 20
53.7995680757
 30
0.0
 11
256.0551304855
 21
52.9882417746
 31
0.0
  0
LINE
  5
2A1
330
1F
100
AcDbEntity
  8
0
  6
Continuous
 62
     7
370
    15
100
AcDbLine
 10
255.2465711569
 20
68.8290062949
 30
0.0
 11
255.155887261
 21
68.7523420276
 31
0.0
  0
LINE
  5
2A2
330
1F
100
AcDbEntity
  8
0
  6
Continuous
 62
     7
370
    15
100
AcDbLine
 10
249.3252589147
 20
63.8231222761
 30
0.0
 11
246.0590113575
 21
61.0618329234
 31
0.0
  0
LINE
  5
2A3
330
1F
100
AcDbEntity
  8
0
  6
Continuous
 62
     7
370
    15
100
AcDbLine
 10
255.155887261
 20
52.7584882648
 30
0.0
 11
255.2465711569
 21
52.6818239974
 31
0.0
  0
LINE
  5
2A4
330
1F
100
AcDbEntity
  8
0
  6
Continuous
 62
     7
370
    15
100
AcDbLine
 10
256.0551304855
 20
68.5225885177
 30
0.0
 11
255.8394291589
 21
68.8136854061
 31
0.0
  0
LINE
  5
2A5
330
1F
100
AcDbEntity
  8
0
  6
Continuous
 62
     7
370
    15
100
AcDbLine
 10
256.011400094
 20
67.7112622166
 30
0.0
 11
256.0551304855
 21
68.5225885177
 31
0.0
  0
ARC
  5
2A6
330
1F
100
AcDbEntity
  8
0
  6
Continuous
 62
     7
370
    15
100
AcDbCircle
 10
250.951746289
 20
60.7554151462
 30
0.0
 40
1.004534850130084
100
AcDbArc
 50
130.3072723465
 51
229.6927276535
  0
SPLINE
  5
2A7
330
1F
100
AcDbEntity
  8
0
  6
Continuous
 62
     7
370
    15
100
AcDbSpline
210
0.0
220
0.0
230
1.0
 70
    24
 71
     3
 72
    11
 73
     7
 74
     0
 42
0.00000001
 43
0.00000001
 12
1.0
 22
0.0
 32
0.0
 13
1.0
 23
0.0
 33
0.0
 40
0.0
 40
0.0
 40
0.0
 40
0.0
 40
0.3367831131412779
 40
0.6790111347687267
 40
0.9923717339918443
 40
1.0
 40
1.0
 40
1.0
 40
1.0
 10
248.0987656190953
 20
60.75541514616253
 30
0.0
 10
248.1741818939325
 20
60.75541514616238
 30
0.0
 10
248.3262337289536
 20
60.75541514616209
 30
0.0
 10
248.568523680623
 20
60.75541514616229
 30
0.0
 10
248.7220258327939
 20
60.75541514616209
 30
0.0
 10
248.792566938492
 20
60.7554151461622
 30
0.0
 10
248.7942433403148
 20
60.7554151461622
 30
0.0
  0
LINE
  5
2A8
330
1F
100
AcDbEntity
  8
0
  6
Continuous
 62
     7
370
    15
100
AcDbLine
 10
250.3019261783
 20
59.989370703
 30
0.0
 11
255.4438714105
 21
55.6423644296
 31
0.0
  0
LINE
  5
2A9
330
1F
100
AcDbEntity
  8
0
  6
Continuous
 62
     7
370
    15
100
AcDbLine
 10
255.4438714105
 20
65.8684658628
 30
0.0
 11
250.3019261783
 21
61.5214595893
 31
0.0
  0
ARC
  5
2AA
330
1F
100
AcDbEntity
  8
0
  6
Continuous
 62
     7
370
    15
100
AcDbCircle
 10
256.0818677788
 20
65.115237622
 30
0.0
 40
0.9871130373961089
100
AcDbArc
 50
49.7348670886
 51
130.2651329114
  0
LINE
  5
2AB
330
1F
100
AcDbEntity
  8
0
  6
Continuous
 62
     7
370
    15
100
AcDbLine
 10
261.8618093794
 20
61.5214595893
 30
0.0
 11
256.7198641471
 21
65.8684658628
 31
0.0
  0
ARC
  5
2AC
330
1F
100
AcDbEntity
  8
0
  6
Continuous
 62
     7
370
    15
100
AcDbCircle
 10
261.2119892691
 20
60.755415146
 30
0.0
 40
1.004534849950248
100
AcDbArc
 50
310.3072723307
 51
49.6927276818
  0
LINE
  5
2AD
330
1F
100
AcDbEntity
  8
0
  6
Continuous
 62
     7
370
    15
100
AcDbLine
 10
256.7198641471
 20
55.6423644296
 30
0.0
 11
261.8618093795
 21
59.9893707028
 31
0.0
  0
ARC
  5
2AE
330
1F
100
AcDbEntity
  8
0
  6
Continuous
 62
     7
370
    15
100
AcDbCircle
 10
256.0818677788
 20
56.3955926703
 30
0.0
 40
0.9871130373961198
100
AcDbArc
 50
229.7348670886
 51
310.2651329114
  0
CIRCLE
  5
2AF
330
1F
100
AcDbEntity
  8
0
  6
Continuous
 62
     7
370
    15
100
AcDbCircle
 10
256.0711710101
 20
60.7401596862
 30
0.0
 40
2.567257807253259
  0
ARC
  5
2B0
330
1F
100
AcDbEntity
  8
0
  6
Continuous
 62
     7
370
    15
100
AcDbCircle
 10
255.4825007494
 20
60.7540188572
 30
0.0
 40
2.583377883010525
100
AcDbArc
 50
310.1372638667
 51
83.1232527001
  0
ARC
  5
2B1
330
1F
100
AcDbEntity
  8
0
  6
Continuous
 62
     7
370
    15
100
AcDbCircle
 10
255.5002748924
 20
60.7251553762
 30
0.0
 40
2.549859036303151
100
AcDbArc
 50
276.5653996565
 51
310.2500110114
  0
LINE
  5
2B2
330
1F
100
AcDbEntity
  8
0
  6
Continuous
 62
     7
370
    15
100
AcDbLine
 10
265.2426902848
 20
60.7554151462
 30
0.0
 11
265.5118661981
 21
60.4643182578
 31
0.0
  0
LINE
  5
2B3
330
1F
100
AcDbEntity
  8
0
  6
Continuous
 62
     7
370
    15
100
AcDbLine
 10
256.0551304855
 20
52.9882417746
 30
0.0
 11
256.3243063988
 21
52.6971448862
 31
0.0
  0
LINE
  5
2B4
330
1F
100
AcDbEntity
  8
0
  6
Continuous
 62
     7
370
    15
100
AcDbLine
 10
263.8939346938
 20
60.7554151462
 30
0.0
 11
265.2426902848
 21
60.7554151462
 31
0.0
  0
LINE
  5
2B5
330
1F
100
AcDbEntity
  8
0
  6
Continuous
 62
     7
370
    15
100
AcDbLine
 10
256.0551304855
 20
68.5225885177
 30
0.0
 11
256.3243063986
 21
68.8136854058
 31
0.0
  0
LINE
  5
2B6
330
1F
100
AcDbEntity
  8
0
  6
Continuous
 62
     7
370
    15
100
AcDbLine
 10
265.2426902848
 20
60.7554151462
 30
0.0
 11
265.5118661981
 21
61.0465120345
 31
0.0
  0
ARC
  5
2B7
330
1F
100
AcDbEntity
  8
0
  6
Continuous
 62
     7
370
    15
100
AcDbCircle
 10
255.5019553878
 20
68.5273280657
 30
0.0
 40
0.3952604956133131
100
AcDbArc
 50
90.0269161362
 51
130.2494200618
  0
ARC
  5
2B8
330
1F
100
AcDbEntity
  8
0
  6
Continuous
 62
     7
370
    15
100
AcDbCircle
 10
255.5019553878
 20
52.9835022266
 30
0.0
 40
0.3952604956129169
100
AcDbArc
 50
229.7505799382
 51
269.9730838638
  0
SPLINE
  5
2B9
330
1F
100
AcDbEntity
  8
0
  6
Continuous
 62
     7
370
    15
100
AcDbSpline
210
0.0
220
0.0
230
1.0
 70
     8
 71
     3
 72
    11
 73
     7
 74
     0
 42
0.00000001
 43
0.00000001
 12
1.0
 22
0.0
 32
0.0
 13
1.0
 23
0.0
 33
0.0
 40
0.0
 40
0.0
 40
0.0
 40
0.0
 40
0.008116439103141
 40
0.3263678516910907
 40
0.6627685813469925
 40
1.0
 40
1.0
 40
1.0
 40
1.0
 10
256.0174908030929
 20
54.49346020982211
 30
0.0
 10
256.0173727434793
 20
54.4917735871103
 30
0.0
 10
256.0126254815387
 20
54.42395327526273
 30
0.0
 10
256.005435076165
 20
54.27478394610204
 30
0.0
 10
256.0022289859652
 20
54.03231396332901
 30
0.0
 10
256.008340545832
 20
53.87721379212735
 30
0.0
 10
256.0114000939982
 20
53.79956807569448
 30
0.0
  0
SPLINE
  5
2BA
330
1F
100
AcDbEntity
  8
0
  6
Continuous
 62
     7
370
    15
100
AcDbSpline
210
0.0
220
0.0
230
1.0
 70
     8
 71
     3
 72
    11
 73
     7
 74
     0
 42
0.00000001
 43
0.00000001
 12
1.0
 22
0.0
 32
0.0
 13
1.0
 23
0.0
 33
0.0
 40
0.0
 40
0.0
 40
0.0
 40
0.0
 40
0.3372314186521276
 40
0.6736321483071546
 40
0.9918835608968742
 40
1.0
 40
1.0
 40
1.0
 40
1.0
 10
256.0114000939983
 20
67.7112622166313
 30
0.0
 10
256.0083405458321
 20
67.63361650019851
 30
0.0
 10
256.0022289859653
 20
67.47851632899705
 30
0.0
 10
256.0054350761653
 20
67.23604634622345
 30
0.0
 10
256.012625481538
 20
67.08687701706215
 30
0.0
 10
256.0173727434793
 20
67.01905670521407
 30
0.0
 10
256.0174908030929
 20
67.01737008250227
 30
0.0
  0
SPLINE
  5
2BB
330
1F
100
AcDbEntity
  8
0
  6
Continuous
 62
     7
370
    15
100
AcDbSpline
210
0.0
220
0.0
230
1.0
 70
    24
 71
     3
 72
    11
 73
     7
 74
     0
 42
0.00000001
 43
0.00000001
 12
1.0
 22
0.0
 32
0.0
 13
1.0
 23
0.0
 33
0.0
 40
0.0
 40
0.0
 40
0.0
 40
0.0
 40
0.0076282660081223
 40
0.32098886523102
 40
0.6632168868585465
 40
1.0
 40
1.0
 40
1.0
 40
1.0
 10
263.2168242898243
 20
60.75541514616217
 30
0.0
 10
263.2182796510776
 20
60.75541514616216
 30
0.0
 10
263.2795196178959
 20
60.75541514616199
 30
0.0
 10
263.4181384240212
 20
60.75541514616226
 30
0.0
 10
263.6515469944994
 20
60.75541514616214
 30
0.0
 10
263.8135718800767
 20
60.75541514616216
 30
0.0
 10
263.8939346938465
 20
60.75541514616216
 30
0.0
  0
CIRCLE
  5
2BC
330
1F
100
AcDbEntity
  8
0
  6
Continuous
 62
     7
370
    15
100
AcDbCircle
 10
202.6664460388
 20
60.7554151462
 30
0.0
 40
2.859999999999966
  0
CIRCLE
  5
2BD
330
1F
100
AcDbEntity
  8
0
  6
Continuous
 62
     7
370
    15
100
AcDbCircle
 10
202.6664460388
 20
60.7554151462
 30
0.0
 40
2.499999999999974
  0
LINE
  5
2BE
330
1F
100
AcDbEntity
  8
0
  6
Continuous
 62
     7
370
    15
100
AcDbLine
 10
199.670443536
 20
60.9102344056
 30
0.0
 11
199.6760532107
 21
60.9953124862
 31
0.0
  0
ARC
  5
2BF
330
1F
100
AcDbEntity
  8
0
  6
Continuous
 62
     7
370
    15
100
AcDbCircle
 10
202.6664460388
 20
60.7554151462
 30
0.0
 40
3.00000000000001
100
AcDbArc
 50
257.0684672441
 51
283.6383251048
  0
LWPOLYLINE
  5
2C0
330
1F
100
AcDbEntity
  8
0
  6
Continuous
 62
     7
370
    15
100
AcDbPolyline
 90
        3
 70
   128
 43
0.0
 10
199.7402582797
 20
60.0940338655
 10
199.7324596728
 20
60.1295365604
 10
199.670443536
 20
60.9102344056
  0
SPLINE
  5
2C1
330
1F
100
AcDbEntity
  8
0
  6
HIDDEN
 62
     7
370
     0
100
AcDbSpline
210
0.0
220
0.0
230
1.0
 70
     8
 71
     3
 72
    10
 73
     6
 74
     0
 42
0.00000001
 43
0.00000001
 12
1.0
 22
0.0
 32
0.0
 13
1.0
 23
0.0
 33
0.0
 40
0.0
 40
0.0
 40
0.0
 40
0.0
 40
0.4003162699204536
 40
0.8122559819636256
 40
0.9999999999999999
 40
0.9999999999999999
 40
0.9999999999999999
 40
0.9999999999999999
 10
149.6664460387869
 20
60.75541514616221
 30
0.0
 10
149.6605980688474
 20
60.86589411035074
 30
0.0
 10
149.6487323293744
 20
61.0900598669939
 30
0.0
 10
149.5835690760305
 20
61.36194057602465
 30
0.0
 10
149.5127211536448
 20
61.51179434446672
 30
0.0
 10
149.4905406725828
 20
61.55870932180231
 30
0.0
  0
SPLINE
  5
2C2
330
1F
100
AcDbEntity
  8
0
  6
HIDDEN
 62
     7
370
     0
100
AcDbSpline
210
0.0
220
0.0
230
1.0
 70
     8
 71
     3
 72
    10
 73
     6
 74
     0
 42
0.00000001
 43
0.00000001
 12
1.0
 22
0.0
 32
0.0
 13
1.0
 23
0.0
 33
0.0
 40
0.0
 40
0.0
 40
0.0
 40
0.0
 40
0.4010189381426944
 40
0.6987716984237996
 40
1.0
 40
1.0
 40
1.0
 40
1.0
 10
149.5353657138653
 20
60.05437552269287
 30
0.0
 10
149.5668863810515
 20
60.14507654709633
 30
0.0
 10
149.6218108448366
 20
60.30312222235727
 30
0.0
 10
149.6592797667157
 20
60.54028515139285
 30
0.0
 10
149.664048058881
 20
60.68342828891014
 30
0.0
 10
149.6664460387869
 20
60.75541514616221
 30
0.0
  0
SPLINE
  5
2C3
330
1F
100
AcDbEntity
  8
0
  6
HIDDEN
 62
     7
370
     0
100
AcDbSpline
210
0.0
220
0.0
230
1.0
 70
     8
 71
     3
 72
    68
 73
    64
 74
     0
 42
0.00000001
 43
0.00000001
 12
1.0
 22
0.0
 32
0.0
 13
1.0
 23
0.0
 33
0.0
 40
-0.0625
 40
-0.0625
 40
0.0
 40
0.0
 40
0.03125
 40
0.03125
 40
0.0625
 40
0.0625
 40
0.0937499999999999
 40
0.0937499999999999
 40
0.125
 40
0.125
 40
0.1562500000000001
 40
0.1562500000000001
 40
0.1875000000000001
 40
0.1875000000000001
 40
0.2187500000000002
 40
0.2187500000000002
 40
0.2500000000000002
 40
0.2500000000000002
 40
0.2812500000000003
 40
0.2812500000000003
 40
0.3125000000000003
 40
0.3125000000000003
 40
0.3437500000000003
 40
0.3437500000000003
 40
0.3750000000000003
 40
0.3750000000000003
 40
0.4062500000000004
 40
0.4062500000000004
 40
0.4375000000000004
 40
0.4375000000000004
 40
0.4687500000000003
 40
0.4687500000000003
 40
0.5000000000000003
 40
0.5000000000000003
 40
0.5312500000000003
 40
0.5312500000000003
 40
0.5625000000000003
 40
0.5625000000000003
 40
0.5937500000000002
 40
0.5937500000000002
 40
0.6250000000000002
 40
0.6250000000000002
 40
0.6562500000000002
 40
0.6562500000000002
 40
0.6875000000000002
 40
0.6875000000000002
 40
0.7187500000000002
 40
0.7187500000000002
 40
0.7500000000000001
 40
0.7500000000000001
 40
0.7812500000000001
 40
0.7812500000000001
 40
0.8125000000000001
 40
0.8125000000000001
 40
0.8437500000000001
 40
0.8437500000000001
 40
0.8750000000000001
 40
0.8750000000000001
 40
0.9062500000000001
 40
0.9062500000000001
 40
0.9375
 40
0.9375
 40
1.0
 40
1.0
 40
1.03125
 40
1.03125
 10
236.1331700945056
 20
55.89947696378202
 30
0.0
 10
236.1509430607215
 20
55.06911361193056
 30
0.0
 10
236.1844918140233
 20
54.79833840915283
 30
0.0
 10
236.3030219533727
 20
54.26792574123077
 30
0.0
 10
236.3892052071374
 20
54.00583168211993
 30
0.0
 10
236.6092799356911
 20
53.50577377544427
 30
0.0
 10
236.7418988207127
 20
53.26915971160854
 30
0.0
 10
237.0509820353848
 20
52.82160279161261
 30
0.0
 10
237.2293164474798
 20
52.6093188372897
 30
0.0
 10
237.6175329428912
 20
52.22626321590491
 30
0.0
 10
237.8282911424279
 20
52.05354117525101
 30
0.0
 10
238.2839449033336
 20
51.74609389677058
 30
0.0
 10
238.5291473172157
 20
51.61203804903246
 30
0.0
 10
239.0339998074725
 20
51.39454646457157
 30
0.0
 10
239.2960735923892
 20
51.30926235695514
 30
0.0
 10
239.8408135557303
 20
51.1883688725048
 30
0.0
 10
240.1190751355174
 20
51.1542520717573
 30
0.0
 10
240.6721582368839
 20
51.14027680494993
 30
0.0
 10
240.9510751964764
 20
51.16017643630512
 30
0.0
 10
241.5023607055838
 20
51.25607267761228
 30
0.0
 10
241.7684244268345
 20
51.33060202796714
 30
0.0
 10
242.2819548174963
 20
51.531628889548
 30
0.0
 10
242.5316495274459
 20
51.66003702608676
 30
0.0
 10
242.9916431246701
 20
51.95957922073784
 30
0.0
 10
243.2041069140622
 20
52.13095944494481
 30
0.0
 10
243.5941690413251
 20
52.51732000214242
 30
0.0
 10
243.7686363001225
 20
52.72988227655927
 30
0.0
 10
244.0693296066912
 20
53.18141309860501
 30
0.0
 10
244.1980393492378
 20
53.4241933858292
 30
0.0
 10
244.4044868786536
 20
53.9303647755668
 30
0.0
 10
244.4815186348771
 20
54.19063773196728
 30
0.0
 10
244.5846536032846
 20
54.7254030564112
 30
0.0
 10
244.6103673436458
 20
55.00243311370166
 30
0.0
 10
244.6076751687941
 20
55.54958272686003
 30
0.0
 10
244.5801072528017
 20
55.82168100294464
 30
0.0
 10
244.4717148649748
 20
56.36280529496567
 30
0.0
 10
244.3904684655627
 20
56.63043781202883
 30
0.0
 10
244.1807499925136
 20
57.13946909921502
 30
0.0
 10
244.05180713821
 20
57.38381429202781
 30
0.0
 10
243.7434398987198
 20
57.85096559512699
 30
0.0
 10
243.5687713538916
 20
58.06645622119646
 30
0.0
 10
243.1809848276468
 20
58.46100739956761
 30
0.0
 10
242.9652207387634
 20
58.64189833799639
 30
0.0
 10
242.5047535658622
 20
58.95661354861659
 30
0.0
 10
242.2619608959634
 20
59.08993261641631
 30
0.0
 10
241.7515518590364
 20
59.30895746914386
 30
0.0
 10
241.4815766453694
 20
59.39470349108504
 30
0.0
 10
240.9384303677217
 20
59.51023041313525
 30
0.0
 10
240.6630638080205
 20
59.54139957581879
 30
0.0
 10
240.1045977763403
 20
59.54950514400923
 30
0.0
 10
239.8241284646681
 20
59.52579793550016
 30
0.0
 10
239.2792325395154
 20
59.42553856282053
 30
0.0
 10
239.0110240148293
 20
59.34869864939785
 30
0.0
 10
238.4900021287731
 20
59.14113066434314
 30
0.0
 10
238.243866691258
 20
59.01329466212728
 30
0.0
 10
237.7796302960464
 20
58.71082089974651
 30
0.0
 10
237.5592964786285
 20
58.53368374102725
 30
0.0
 10
237.1635146711027
 20
58.1432304375277
 30
0.0
 10
236.9872638849741
 20
57.93035140248366
 30
0.0
 10
236.6783760040279
 20
57.46920616048963
 30
0.0
 10
236.5464009028466
 20
57.22031879980931
 30
0.0
 10
236.2354139393397
 20
56.45444430000677
 30
0.0
 10
236.1331700945056
 20
55.89947696378202
 30
0.0
 10
236.1509430607215
 20
55.06911361193056
 30
0.0
  0
ELLIPSE
  5
2C4
330
1F
100
AcDbEntity
  8
0
  6
HIDDEN
 62
     7
370
     0
100
AcDbEllipse
 10
264.6364792921
 20
60.7554151462
 30
0.0
 11
37.98674877545658
 21
31.44244822584282
 31
0.0
210
0.0
220
0.0
230
1.0
 40
0.0501036136
 41
1.643498407770233
 42
3.202050855131283
  0
ELLIPSE
  5
2C5
330
1F
100
AcDbEntity
  8
0
  6
HIDDEN
 62
     7
370
     0
100
AcDbEllipse
 10
264.1734009102
 20
60.7554151462
 30
0.0
 11
0.0
 21
31.49999999999998
 31
0.0
210
0.0
220
0.0
230
1.0
 40
0.1227845609
 41
1.55855244736075
 42
1.583040206229044
  0
ELLIPSE
  5
2C6
330
1F
100
AcDbEntity
  8
0
  6
HIDDEN
 62
     7
370
     0
100
AcDbEllipse
 10
264.6364792921
 20
60.7554151462
 30
0.0
 11
37.98674877545591
 21
-31.44244822584223
 31
0.0
210
0.0
220
0.0
230
1.0
 40
0.0501036136
 41
3.081134452048582
 42
4.639686899409354
  0
SPLINE
  5
2C7
330
1F
100
AcDbEntity
  8
0
  6
HIDDEN
 62
     7
370
     0
100
AcDbSpline
210
0.0
220
0.0
230
1.0
 70
     8
 71
     3
 72
    12
 73
     8
 74
     0
 42
0.00000001
 43
0.00000001
 12
1.0
 22
0.0
 32
0.0
 13
1.0
 23
0.0
 33
0.0
 40
0.0
 40
0.0
 40
0.0
 40
0.0
 40
0.4999999999999993
 40
0.4999999999999993
 40
0.7499999999999997
 40
0.7499999999999997
 40
1.0
 40
1.0
 40
1.0
 40
1.0
 10
134.8499337523398
 20
76.20768312799312
 30
0.0
 10
134.9063399310201
 20
76.15986075433328
 30
0.0
 10
134.9765028324919
 20
76.11958990739477
 30
0.0
 10
135.094513545881
 20
76.11154403891783
 30
0.0
 10
135.1347193294765
 20
76.11810663725672
 30
0.0
 10
135.2084400262095
 20
76.14548873171033
 30
0.0
 10
135.241300747996
 20
76.16525022224064
 30
0.0
 10
135.2714691499253
 20
76.18818293342869
 30
0.0
  0
SPLINE
  5
2C8
330
1F
100
AcDbEntity
  8
0
  6
HIDDEN
 62
     7
370
     0
100
AcDbSpline
210
0.0
220
0.0
230
1.0
 70
     8
 71
     3
 72
    16
 73
    12
 74
     0
 42
0.00000001
 43
0.00000001
 12
1.0
 22
0.0
 32
0.0
 13
1.0
 23
0.0
 33
0.0
 40
0.0
 40
0.0
 40
0.0
 40
0.0
 40
0.0624999999999993
 40
0.0624999999999993
 40
0.1249999999999986
 40
0.1249999999999986
 40
0.2499999999999971
 40
0.2499999999999971
 40
0.499999999999998
 40
0.499999999999998
 40
1.0
 40
1.0
 40
1.0
 40
1.0
 10
135.2714691498802
 20
76.18818293347678
 30
0.0
 10
135.2830820497195
 20
76.19701055645818
 30
0.0
 10
135.296433234152
 20
76.20484493834012
 30
0.0
 10
135.3258330737712
 20
76.21315506441252
 30
0.0
 10
135.3406737983265
 20
76.21265924517749
 30
0.0
 10
135.3765070062952
 20
76.20120827420813
 30
0.0
 10
135.3906202141168
 20
76.18452777334944
 30
0.0
 10
135.4251115853356
 20
76.1324070875924
 30
0.0
 10
135.436195656446
 20
76.0926175935674
 30
0.0
 10
135.462318474242
 20
75.96928096147028
 30
0.0
 10
135.4664460387869
 20
75.88185955097164
 30
0.0
 10
135.4664460387869
 20
75.79312230865341
 30
0.0
  0
SPLINE
  5
2C9
330
1F
100
AcDbEntity
  8
0
  6
HIDDEN
 62
     7
370
     0
100
AcDbSpline
210
0.0
220
0.0
230
1.0
 70
     8
 71
     3
 72
    15
 73
    11
 74
     0
 42
0.00000001
 43
0.00000001
 12
1.0
 22
0.0
 32
0.0
 13
1.0
 23
0.0
 33
0.0
 40
0.0
 40
0.0
 40
0.0
 40
0.0
 40
0.4064178000514264
 40
0.5695545175758406
 40
0.7336437149637031
 40
0.8051224248497502
 40
0.8506289932933556
 40
0.8964706161828343
 40
0.9368393651493904
 40
1.0
 40
1.0
 40
1.0
 40
1.0
 10
135.4550001944611
 20
45.53383377737433
 30
0.0
 10
135.4491927616414
 20
45.48895459134368
 30
0.0
 10
135.4410542165346
 20
45.42606083239502
 30
0.0
 10
135.4107395639945
 20
45.3541395584378
 30
0.0
 10
135.3856766800199
 20
45.3188846381828
 30
0.0
 10
135.3566138116354
 20
45.3020291590606
 30
0.0
 10
135.3347484919677
 20
45.29787196371933
 30
0.0
 10
135.314599275687
 20
45.30010061548857
 30
0.0
 10
135.2922818452825
 20
45.30824486579007
 30
0.0
 10
135.2793553032823
 20
45.31719009986504
 30
0.0
 10
135.2714691499116
 20
45.32264735887915
 30
0.0
  0
SPLINE
  5
2CA
330
1F
100
AcDbEntity
  8
0
  6
HIDDEN
 62
     7
370
     0
100
AcDbSpline
210
0.0
220
0.0
230
1.0
 70
     8
 71
     3
 72
    12
 73
     8
 74
     0
 42
0.00000001
 43
0.00000001
 12
1.0
 22
0.0
 32
0.0
 13
1.0
 23
0.0
 33
0.0
 40
0.0
 40
0.0
 40
0.0
 40
0.0
 40
0.2499999999999994
 40
0.2499999999999994
 40
0.4999999999999989
 40
0.4999999999999989
 40
1.0
 40
1.0
 40
1.0
 40
1.0
 10
135.2714691499183
 20
45.32264735888756
 30
0.0
 10
135.241277308201
 20
45.34559788798539
 30
0.0
 10
135.2079183387864
 20
45.36556736200958
 30
0.0
 10
135.1347810542058
 20
45.39266849563507
 30
0.0
 10
135.0945391815519
 20
45.39926923628049
 30
0.0
 10
134.9768334045834
 20
45.3913003617738
 30
0.0
 10
134.906422926804
 20
45.35103990360599
 30
0.0
 10
134.8499337523357
 20
45.30314716432784
 30
0.0
  0
SPLINE
  5
2CB
330
1F
100
AcDbEntity
  8
0
  6
HIDDEN
 62
     7
370
     0
100
AcDbSpline
210
0.0
220
0.0
230
1.0
 70
     8
 71
     3
 72
    12
 73
     8
 74
     0
 42
0.00000001
 43
0.00000001
 12
1.0
 22
0.0
 32
0.0
 13
1.0
 23
0.0
 33
0.0
 40
0.0
 40
0.0
 40
0.0
 40
0.0
 40
0.2500000000000005
 40
0.2500000000000005
 40
0.5000000000000009
 40
0.5000000000000009
 40
1.0
 40
1.0
 40
1.0
 40
1.0
 10
134.8499337523353
 20
45.30314716432806
 30
0.0
 10
134.7617798145976
 20
45.22840835647397
 30
0.0
 10
134.7014263899688
 20
45.13742785599158
 30
0.0
 10
134.595164431902
 20
44.94851403323898
 30
0.0
 10
134.5529322653399
 20
44.85200957369839
 30
0.0
 10
134.4418615700228
 20
44.56124181953123
 30
0.0
 10
134.3889247935959
 20
44.36557500498748
 30
0.0
 10
134.3451256952272
 20
44.17150851992118
 30
0.0
  0
SPLINE
  5
2CC
330
1F
100
AcDbEntity
  8
0
  6
HIDDEN
 62
     7
370
     0
100
AcDbSpline
210
0.0
220
0.0
230
1.0
 70
     8
 71
     3
 72
    12
 73
     8
 74
     0
 42
0.00000001
 43
0.00000001
 12
1.0
 22
0.0
 32
0.0
 13
1.0
 23
0.0
 33
0.0
 40
0.0
 40
0.0
 40
0.0
 40
0.0
 40
0.5
 40
0.5
 40
0.75
 40
0.75
 40
1.0
 40
1.0
 40
1.0
 40
1.0
 10
134.3451256952272
 20
38.98533419116011
 30
0.0
 10
134.3888722360637
 20
38.95874002051894
 30
0.0
 10
134.4417565912952
 20
38.93897979519321
 30
0.0
 10
134.5533236786314
 20
38.91852880496413
 30
0.0
 10
134.5959072751744
 20
38.91326858030768
 30
0.0
 10
134.7008240022562
 20
38.90538578638504
 30
0.0
 10
134.762357610101
 20
38.90282166120588
 30
0.0
 10
134.8499337523272
 20
38.90062144368624
 30
0.0
  0
SPLINE
  5
2CD
330
1F
100
AcDbEntity
  8
0
  6
HIDDEN
 62
     7
370
     0
100
AcDbSpline
210
0.0
220
0.0
230
1.0
 70
     8
 71
     3
 72
    12
 73
     8
 74
     0
 42
0.00000001
 43
0.00000001
 12
1.0
 22
0.0
 32
0.0
 13
1.0
 23
0.0
 33
0.0
 40
0.0
 40
0.0
 40
0.0
 40
0.0
 40
0.2500000000000001
 40
0.2500000000000001
 40
0.5000000000000001
 40
0.5000000000000001
 40
1.0
 40
1.0
 40
1.0
 40
1.0
 10
134.8499337523351
 20
82.61020884863812
 30
0.0
 10
134.7612490924788
 20
82.60798078129713
 30
0.0
 10
134.7013306767554
 20
82.6054789972668
 30
0.0
 10
134.5956714494346
 20
82.5975475614308
 30
0.0
 10
134.5530302113197
 20
82.59225540653397
 30
0.0
 10
134.4418408692171
 20
82.57185046604681
 30
0.0
 10
134.3889141870962
 20
82.55211577445995
 30
0.0
 10
134.3451256952272
 20
82.52549610116434
 30
0.0
  0
SPLINE
  5
2CE
330
1F
100
AcDbEntity
  8
0
  6
HIDDEN
 62
     7
370
     0
100
AcDbSpline
210
0.0
220
0.0
230
1.0
 70
     8
 71
     3
 72
    12
 73
     8
 74
     0
 42
0.00000001
 43
0.00000001
 12
1.0
 22
0.0
 32
0.0
 13
1.0
 23
0.0
 33
0.0
 40
0.0
 40
0.0
 40
0.0
 40
0.0
 40
0.5000000000000028
 40
0.5000000000000028
 40
0.7500000000000013
 40
0.7500000000000013
 40
1.0
 40
1.0
 40
1.0
 40
1.0
 10
134.3451256952256
 20
77.33932177240344
 30
0.0
 10
134.3888871715244
 20
77.14542198444137
 30
0.0
 10
134.4417934871774
 20
76.9495656205045
 30
0.0
 10
134.5535046848248
 20
76.65742347400555
 30
0.0
 10
134.5960241284112
 20
76.56070553730764
 30
0.0
 10
134.7011474709786
 20
76.37398110088317
 30
0.0
 10
134.7627134346963
 20
76.28163039261347
 30
0.0
 10
134.849933752339
 20
76.20768312799377
 30
0.0
  0
ARC
  5
2CF
330
1F
100
AcDbEntity
  8
0
  6
HIDDEN
 62
     7
370
     0
100
AcDbCircle
 10
202.8969863598
 20
63.0064340563
 30
0.0
 40
0.2488548281379468
100
AcDbArc
 50
65.6236584357
 51
102.6811108784
  0
ARC
  5
2D0
330
1F
100
AcDbEntity
  8
0
  6
HIDDEN
 62
     7
370
     0
100
AcDbCircle
 10
202.8969863598
 20
58.504396236
 30
0.0
 40
0.248854828137623
100
AcDbArc
 50
257.3188891216
 51
294.3763415643
  0
CIRCLE
  5
2D1
330
1F
100
AcDbEntity
  8
0
  6
HIDDEN
 62
     7
370
     0
100
AcDbCircle
 10
120.1664460388
 20
60.7554151462
 30
0.0
 40
4.050000000000011
  0
LINE
  5
2D2
330
1F
100
AcDbEntity
  8
0
  6
HIDDEN
 62
     7
370
     0
100
AcDbLine
 10
99.1966744784
 20
45.4424641032
 30
0.0
 11
99.1966744784
 21
76.0683661891
 31
0.0
  0
LINE
  5
2D3
330
1F
100
AcDbEntity
  8
0
  6
HIDDEN
 62
     7
370
     0
100
AcDbLine
 10
105.6966744784
 20
46.4090049846
 30
0.0
 11
105.6966744784
 21
75.1018253077
 31
0.0
  0
LINE
  5
2D4
330
1F
100
AcDbEntity
  8
0
  6
HIDDEN
 62
     7
370
     0
100
AcDbLine
 10
111.4966744784
 20
46.7554151462
 30
0.0
 11
111.4966744784
 21
74.7554151462
 31
0.0
  0
LINE
  5
2D5
330
1F
100
AcDbEntity
  8
0
  6
HIDDEN
 62
     7
370
     0
100
AcDbLine
 10
104.0966744784
 20
46.7554151462
 30
0.0
 11
104.0966744784
 21
74.7554151462
 31
0.0
  0
LINE
  5
2D6
330
1F
100
AcDbEntity
  8
0
  6
HIDDEN
 62
     7
370
     0
100
AcDbLine
 10
105.0966744784
 20
46.7554151462
 30
0.0
 11
105.0966744784
 21
74.7554151462
 31
0.0
  0
LINE
  5
2D7
330
1F
100
AcDbEntity
  8
0
  6
HIDDEN
 62
     7
370
     0
100
AcDbLine
 10
124.6664460388
 20
47.2554151462
 30
0.0
 11
124.6664460388
 21
74.2554150682
 31
0.0
  0
SPLINE
  5
2D8
330
1F
100
AcDbEntity
  8
0
  6
HIDDEN
 62
     7
370
     0
100
AcDbSpline
210
0.0
220
0.0
230
1.0
 70
     8
 71
     3
 72
     9
 73
     5
 74
     0
 42
0.00000001
 43
0.00000001
 12
1.0
 22
0.0
 32
0.0
 13
1.0
 23
0.0
 33
0.0
 40
0.0
 40
0.0
 40
0.0
 40
0.0
 40
0.4184609711558486
 40
1.0
 40
1.0
 40
1.0
 40
1.0
 10
124.1664460387869
 20
61.38984402318477
 30
0.0
 10
124.1473903086268
 20
61.49922693586721
 30
0.0
 10
124.1018526564355
 20
61.76062028010264
 30
0.0
 10
124.0088865930864
 20
62.00846016563873
 30
0.0
 10
123.9548231988909
 20
62.15258873198223
 30
0.0
  0
SPLINE
  5
2D9
330
1F
100
AcDbEntity
  8
0
  6
HIDDEN
 62
     7
370
     0
100
AcDbSpline
210
0.0
220
0.0
230
1.0
 70
     8
 71
     3
 72
    10
 73
     6
 74
     0
 42
0.00000001
 43
0.00000001
 12
1.0
 22
0.0
 32
0.0
 13
1.0
 23
0.0
 33
0.0
 40
0.0
 40
0.0
 40
0.0
 40
0.0
 40
0.1274035824194054
 40
0.7057890723975401
 40
0.9999999999999999
 40
0.9999999999999999
 40
0.9999999999999999
 40
0.9999999999999999
 10
123.8469104557173
 20
59.07238861609902
 30
0.0
 10
123.8667834061417
 20
59.114477314035
 30
0.0
 10
123.9768753751389
 20
59.34763985554707
 30
0.0
 10
124.0883242339614
 20
59.69986544977594
 30
0.0
 10
124.1467475952019
 20
60.0148004901341
 30
0.0
 10
124.1664460387869
 20
60.1209862691397
 30
0.0
  0
LINE
  5
2DA
330
1F
100
AcDbEntity
  8
0
  6
HIDDEN
 62
     7
370
     0
100
AcDbLine
 10
125.9164460388
 20
51.7554151462
 30
0.0
 11
125.9164460388
 21
69.7554151462
 31
0.0
  0
LINE
  5
2DB
330
1F
100
AcDbEntity
  8
0
  6
HIDDEN
 62
     7
370
     0
100
AcDbLine
 10
162.6664460388
 20
69.7554151462
 30
0.0
 11
162.6664460388
 21
51.7554151462
 31
0.0
  0
LINE
  5
2DC
330
1F
100
AcDbEntity
  8
0
  6
HIDDEN
 62
     7
370
     0
100
AcDbLine
 10
165.5205339792
 20
65.0054151462
 30
0.0
 11
165.5205339792
 21
56.5054151462
 31
0.0
  0
LINE
  5
2DD
330
1F
100
AcDbEntity
  8
0
  6
HIDDEN
 62
     7
370
     0
100
AcDbLine
 10
206.6664460388
 20
65.0054151462
 30
0.0
 11
206.6664460388
 21
56.5054151462
 31
0.0
  0
CIRCLE
  5
2DE
330
1F
100
AcDbEntity
  8
0
  6
HIDDEN
 62
     7
370
     0
100
AcDbCircle
 10
244.4276153628
 20
55.3497982192
 30
0.0
 40
3.493191390566579
  0
CIRCLE
  5
2DF
330
1F
100
AcDbEntity
  8
0
  6
HIDDEN
 62
     7
370
     0
100
AcDbCircle
 10
243.9304618598
 20
55.3497982192
 30
0.0
 40
3.493191390566493
  0
ARC
  5
2E0
330
1F
100
AcDbEntity
  8
0
  6
HIDDEN
 62
     7
370
     0
100
AcDbCircle
 10
246.8158856739
 20
62.8619640569
 30
0.0
 40
2.350241269805359
100
AcDbArc
 50
83.3511144145
 51
229.909032274
  0
LINE
  5
2E1
330
1F
100
AcDbEntity
  8
0
  6
HIDDEN
 62
     7
370
     0
100
AcDbLine
 10
255.4276558968
 20
52.9882417746
 30
0.0
 11
254.8548699828
 21
52.9882417746
 31
0.0
  0
LINE
  5
2E2
330
1F
100
AcDbEntity
  8
0
  6
HIDDEN
 62
     7
370
     0
100
AcDbLine
 10
249.3106345935
 20
63.8107588585
 30
0.0
 11
249.6820421966
 21
63.4967704538
 31
0.0
  0
LINE
  5
2E3
330
1F
100
AcDbEntity
  8
0
  6
HIDDEN
 62
     7
370
     0
100
AcDbLine
 10
249.323746327
 20
63.4967704538
 30
0.0
 11
249.6820421966
 21
63.4967704538
 31
0.0
  0
LINE
  5
2E4
330
1F
100
AcDbEntity
  8
0
  6
HIDDEN
 62
     7
370
     0
100
AcDbLine
 10
249.1314866587
 20
63.6593069933
 30
0.0
 11
249.323746327
 21
63.4967704538
 31
0.0
  0
LINE
  5
2E5
330
1F
100
AcDbEntity
  8
0
  6
HIDDEN
 62
     7
370
     0
100
AcDbLine
 10
255.4276558968
 20
68.5225885177
 30
0.0
 11
254.8548699828
 21
68.5225885177
 31
0.0
  0
ELLIPSE
  5
2E6
330
1F
100
AcDbEntity
  8
0
  6
HIDDEN
 62
     7
370
     0
100
AcDbEllipse
 10
250.4787773164
 20
58.4383244953
 30
0.0
 11
2.63271807844157
 21
1.286044576750832
 31
0.0
210
0.0
220
0.0
230
1.0
 40
0.8520481147
 41
2.22661208278022
 42
2.415153612806519
  0
ELLIPSE
  5
2E7
330
1F
100
AcDbEntity
  8
0
  6
HIDDEN
 62
     7
370
     0
100
AcDbEllipse
 10
249.4630885629
 20
58.0461676523
 30
0.0
 11
2.386057361094601
 21
-1.751217057252788
 31
0.0
210
0.0
220
0.0
230
1.0
 40
0.1163726509
 41
2.310700992709259
 42
2.898653210775894
  0
ELLIPSE
  5
2E8
330
1F
100
AcDbEntity
  8
0
  6
HIDDEN
 62
     7
370
     0
100
AcDbEllipse
 10
248.4678996071
 20
57.6619257693
 30
0.0
 11
2.632718078441513
 21
1.286044576750825
 31
0.0
210
0.0
220
0.0
230
1.0
 40
0.8520481147
 41
1.552970669284794
 42
1.638659864713547
  0
SPLINE
  5
2E9
330
1F
100
AcDbEntity
  8
0
  6
HIDDEN
 62
     7
370
     0
100
AcDbSpline
210
0.0
220
0.0
230
1.0
 70
     8
 71
     3
 72
    22
 73
    18
 74
     0
 42
0.00000001
 43
0.00000001
 12
1.0
 22
0.0
 32
0.0
 13
1.0
 23
0.0
 33
0.0
 40
0.0
 40
0.0
 40
0.0
 40
0.0
 40
0.0624999999999993
 40
0.0624999999999993
 40
0.1249999999999987
 40
0.1249999999999987
 40
0.1874999999999981
 40
0.1874999999999981
 40
0.2499999999999972
 40
0.2499999999999972
 40
0.3749999999999983
 40
0.3749999999999983
 40
0.4999999999999994
 40
0.4999999999999994
 40
0.7499999999999997
 40
0.7499999999999997
 40
1.0
 40
1.0
 40
1.0
 40
1.0
 10
247.5379020697334
 20
57.32290617877921
 30
0.0
 10
247.4680522117059
 20
57.44653010289564
 30
0.0
 10
247.3953786627106
 20
57.55445043001439
 30
0.0
 10
247.2468688781944
 20
57.75130642171135
 30
0.0
 10
247.1743010870648
 20
57.83584600078637
 30
0.0
 10
247.031921587344
 20
57.98854587103305
 30
0.0
 10
246.9616666852201
 20
58.05687933366021
 30
0.0
 10
246.8263337220358
 20
58.17965686105588
 30
0.0
 10
246.7608687816513
 20
58.23449853664965
 30
0.0
 10
246.5695434499965
 20
58.38548356679185
 30
0.0
 10
246.4486710349883
 20
58.46833768112806
 30
0.0
 10
246.2174217162879
 20
58.61276969868334
 30
0.0
 10
246.1071158121771
 20
58.6740007130738
 30
0.0
 10
245.7967169938565
 20
58.83200496749752
 30
0.0
 10
245.6140809760265
 20
58.905330541365
 30
0.0
 10
245.3084601001995
 20
59.00805683325534
 30
0.0
 10
245.1841326862624
 20
59.03796836499202
 30
0.0
 10
245.1148309452217
 20
59.0379683649921
 30
0.0
  0
SPLINE
  5
2EA
330
1F
100
AcDbEntity
  8
0
  6
HIDDEN
 62
     7
370
     0
100
AcDbSpline
210
0.0
220
0.0
230
1.0
 70
     8
 71
     3
 72
     8
 73
     4
 74
     0
 42
0.00000001
 43
0.00000001
 12
1.0
 22
0.0
 32
0.0
 13
1.0
 23
0.0
 33
0.0
 40
0.0
 40
0.0
 40
0.0
 40
0.0
 40
1.0
 40
1.0
 40
1.0
 40
1.0
 10
247.7272681865336
 20
56.91375951359224
 30
0.0
 10
247.6570143374505
 20
57.04590404733676
 30
0.0
 10
247.5938678318332
 20
57.18227173107755
 30
0.0
 10
247.5379020697333
 20
57.32290617877921
 30
0.0
  0
SPLINE
  5
2EB
330
1F
100
AcDbEntity
  8
0
  6
HIDDEN
 62
     7
370
     0
100
AcDbSpline
210
0.0
220
0.0
230
1.0
 70
     8
 71
     3
 72
    22
 73
    18
 74
     0
 42
0.00000001
 43
0.00000001
 12
1.0
 22
0.0
 32
0.0
 13
1.0
 23
0.0
 33
0.0
 40
0.0
 40
0.0
 40
0.0
 40
0.0
 40
0.0376921076272451
 40
0.1391434029881295
 40
0.2629525166358942
 40
0.3873244456587023
 40
0.5135186422078799
 40
0.6404877931737413
 40
0.7102453602603236
 40
0.7803932514571855
 40
0.8152676362378299
 40
0.8502793136866983
 40
0.8859302788323219
 40
0.9219544717778088
 40
0.9535063025780774
 40
0.9858098475686603
 40
1.0
 40
1.0
 40
1.0
 40
1.0
 10
247.2634832807974
 20
54.51808037358614
 30
0.0
 10
247.274076738728
 20
54.52242411073626
 30
0.0
 10
247.3131833283743
 20
54.53845936073422
 30
0.0
 10
247.393321969863
 20
54.6041031174837
 30
0.0
 10
247.5041415546391
 20
54.73505387943224
 30
0.0
 10
247.6223917173237
 20
54.92726663793245
 30
0.0
 10
247.7335300071943
 20
55.171788076887
 30
0.0
 10
247.8136786694593
 20
55.43001117228711
 30
0.0
 10
247.8616399548778
 20
55.68328374809381
 30
0.0
 10
247.8808046181698
 20
55.87200065428106
 30
0.0
 10
247.8851337415988
 20
56.04063932769269
 30
0.0
 10
247.8814511839311
 20
56.17790958405876
 30
0.0
 10
247.8687349045002
 20
56.32869866490018
 30
0.0
 10
247.8450954335357
 20
56.48831060494095
 30
0.0
 10
247.8084825515491
 20
56.65671712535547
 30
0.0
 10
247.7680503483469
 20
56.79866903257293
 30
0.0
 10
247.7368045803848
 20
56.88684705709835
 30
0.0
 10
247.7272681865336
 20
56.9137595135923
 30
0.0
  0
ELLIPSE
  5
2EC
330
1F
100
AcDbEntity
  8
0
  6
HIDDEN
 62
     7
370
     0
100
AcDbEllipse
 10
250.4787773164
 20
58.4383244953
 30
0.0
 11
2.63271807844157
 21
1.286044576750832
 31
0.0
210
0.0
220
0.0
230
1.0
 40
0.8520481147
 41
4.585538304768837
 42
4.694563322874814
  0
ELLIPSE
  5
2ED
330
1F
100
AcDbEntity
  8
0
  6
HIDDEN
 62
     7
370
     0
100
AcDbEllipse
 10
248.8592186413
 20
57.8130138232
 30
0.0
 11
2.386057361094601
 21
-1.751217057252781
 31
0.0
210
0.0
220
0.0
230
1.0
 40
0.1163726509
 41
6.234960077900368
 42
8.405344769862715
  0
ELLIPSE
  5
2EE
330
1F
100
AcDbEntity
  8
0
  6
HIDDEN
 62
     7
370
     0
100
AcDbEllipse
 10
243.0375872347
 20
55.3459013959
 30
0.0
 11
-0.8683615577166108
 21
4.123771890140375
 31
0.0
210
0.0
220
0.0
230
1.0
 40
0.9173119931
 41
4.320346803636705
 42
5.595470644875117
  0
LINE
  5
2EF
330
1F
100
AcDbEntity
  8
0
  6
HIDDEN
 62
     7
370
     0
100
AcDbLine
 10
246.8651559402
 20
54.5064294298
 30
0.0
 11
247.2121715917
 21
54.5064294298
 31
0.0
  0
LINE
  5
2F0
330
1F
100
AcDbEntity
  8
0
  6
HIDDEN
 62
     7
370
     0
100
AcDbLine
 10
245.1148309452
 20
59.037968365
 30
0.0
 11
244.7678152937
 21
59.037968365
 31
0.0
  0
ARC
  5
2F1
330
1F
100
AcDbEntity
  8
0
  6
HIDDEN
 62
     7
370
     0
100
AcDbCircle
 10
243.8379174003
 20
55.3620396797
 30
0.0
 40
4.18746749021592
100
AcDbArc
 50
27.9220739673
 51
21.7503330939
  0
ARC
  5
2F2
330
1F
100
AcDbEntity
  8
0
  6
HIDDEN
 62
     7
370
     0
100
AcDbCircle
 10
246.9763491443
 20
63.0548460169
 30
0.0
 40
2.101707580187878
100
AcDbArc
 50
93.6473301309
 51
217.2789698551
  0
LINE
  5
2F3
330
1F
100
AcDbEntity
  8
0
  6
HIDDEN
 62
     7
370
     0
100
AcDbLine
 10
248.0048753088
 20
59.4319386089
 30
0.0
 11
246.067966429
 21
61.0694035509
 31
0.0
  0
LINE
  5
2F4
330
1F
100
AcDbEntity
  8
0
  6
HIDDEN
 62
     7
370
     0
100
AcDbLine
 10
245.3023231577
 20
61.0639755876
 30
0.0
 11
247.7828790616
 21
58.9669108409
 31
0.0
  0
ARC
  5
2F5
330
1F
100
AcDbEntity
  8
0
  6
HIDDEN
 62
     7
370
     0
100
AcDbCircle
 10
246.6132966207
 20
63.0548692053
 30
0.0
 40
2.099638683416833
100
AcDbArc
 50
84.5506530122
 51
229.9768622065
  0
LINE
  5
2F6
330
1F
100
AcDbEntity
  8
0
  6
HIDDEN
 62
     7
370
     0
100
AcDbLine
 10
249.6820421966
 20
63.4967704538
 30
0.0
 11
255.2409019072
 21
68.1962366954
 31
0.0
  0
LINE
  5
2F7
330
1F
100
AcDbEntity
  8
0
  6
HIDDEN
 62
     7
370
     0
100
AcDbLine
 10
254.8548699828
 20
68.5225885177
 30
0.0
 11
249.2960102723
 21
63.8231222761
 31
0.0
  0
LINE
  5
2F8
330
1F
100
AcDbEntity
  8
0
  6
HIDDEN
 62
     7
370
     0
100
AcDbLine
 10
254.8548699828
 20
68.5225885177
 30
0.0
 11
255.2409019072
 21
68.1962366954
 31
0.0
  0
LINE
  5
2F9
330
1F
100
AcDbEntity
  8
0
  6
HIDDEN
 62
     7
370
     0
100
AcDbLine
 10
255.2409019072
 20
68.1962366954
 30
0.0
 11
254.8826060376
 21
68.1962366954
 31
0.0
  0
LINE
  5
2FA
330
1F
100
AcDbEntity
  8
0
  6
HIDDEN
 62
     7
370
     0
100
AcDbLine
 10
251.7414034593
 20
56.2730735145
 30
0.0
 11
251.5274476397
 21
56.1725550277
 31
0.0
  0
LINE
  5
2FB
330
1F
100
AcDbEntity
  8
0
  6
HIDDEN
 62
     7
370
     0
100
AcDbLine
 10
255.2409019072
 20
53.314593597
 30
0.0
 11
251.7414034593
 21
56.2730735145
 31
0.0
  0
LINE
  5
2FC
330
1F
100
AcDbEntity
  8
0
  6
HIDDEN
 62
     7
370
     0
100
AcDbLine
 10
251.2326777535
 20
56.0504471528
 30
0.0
 11
254.8548699828
 21
52.9882417746
 31
0.0
  0
LINE
  5
2FD
330
1F
100
AcDbEntity
  8
0
  6
HIDDEN
 62
     7
370
     0
100
AcDbLine
 10
254.8548699828
 20
52.9882417746
 30
0.0
 11
255.2409019072
 21
53.314593597
 31
0.0
  0
LINE
  5
2FE
330
1F
100
AcDbEntity
  8
0
  6
HIDDEN
 62
     7
370
     0
100
AcDbLine
 10
250.0012040903
 20
56.1160376363
 30
0.0
 11
246.8651559402
 21
54.5064294298
 31
0.0
  0
LINE
  5
2FF
330
1F
100
AcDbEntity
  8
0
  6
HIDDEN
 62
     7
370
     0
100
AcDbLine
 10
253.962434357
 20
57.6454663619
 30
0.0
 11
254.3042760831
 21
57.6454663619
 31
0.0
  0
LINE
  5
300
330
1F
100
AcDbEntity
  8
0
  6
HIDDEN
 62
     7
370
     0
100
AcDbLine
 10
251.3831075897
 20
56.2730735145
 30
0.0
 11
254.3042760831
 21
57.6454663619
 31
0.0
  0
LINE
  5
301
330
1F
100
AcDbEntity
  8
0
  6
HIDDEN
 62
     7
370
     0
100
AcDbLine
 10
251.3831075897
 20
56.2730735145
 30
0.0
 11
251.7414034593
 21
56.2730735145
 31
0.0
  0
LINE
  5
302
330
1F
100
AcDbEntity
  8
0
  6
HIDDEN
 62
     7
370
     0
100
AcDbLine
 10
255.2409019072
 20
53.314593597
 30
0.0
 11
254.8826060376
 21
53.314593597
 31
0.0
  0
SPLINE
  5
303
330
1F
100
AcDbEntity
  8
0
  6
HIDDEN
 62
     7
370
     0
100
AcDbSpline
210
0.0
220
0.0
230
1.0
 70
     8
 71
     3
 72
    16
 73
    12
 74
     0
 42
0.00000001
 43
0.00000001
 12
1.0
 22
0.0
 32
0.0
 13
1.0
 23
0.0
 33
0.0
 40
0.0
 40
0.0
 40
0.0
 40
0.0
 40
0.25
 40
0.25
 40
0.375
 40
0.375
 40
0.5
 40
0.5
 40
0.75
 40
0.75
 40
1.0
 40
1.0
 40
1.0
 40
1.0
 10
134.3451256952272
 20
82.52549610116434
 30
0.0
 10
134.1838932177428
 20
82.42748048810961
 30
0.0
 10
134.0634133781031
 20
82.24074445643355
 30
0.0
 10
133.9410328607898
 20
81.82770464887466
 30
0.0
 10
133.9100552003924
 20
81.66770414964174
 30
0.0
 10
133.8684414627644
 20
81.30089849855057
 30
0.0
 10
133.8582055498316
 20
81.09756134592658
 30
0.0
 10
133.8580171527755
 20
80.43027407929989
 30
0.0
 10
133.8981618554131
 20
79.90945961541185
 30
0.0
 10
134.0623156103527
 20
78.71210059993415
 30
0.0
 10
134.1838672607622
 20
78.05383094563817
 30
0.0
 10
134.3451256952272
 20
77.33932177240324
 30
0.0
  0
SPLINE
  5
304
330
1F
100
AcDbEntity
  8
0
  6
HIDDEN
 62
     7
370
     0
100
AcDbSpline
210
0.0
220
0.0
230
1.0
 70
     8
 71
     3
 72
    16
 73
    12
 74
     0
 42
0.00000001
 43
0.00000001
 12
1.0
 22
0.0
 32
0.0
 13
1.0
 23
0.0
 33
0.0
 40
0.0
 40
0.0
 40
0.0
 40
0.0
 40
0.2500000000000002
 40
0.2500000000000002
 40
0.375
 40
0.375
 40
0.4999999999999998
 40
0.4999999999999998
 40
0.7499999999999999
 40
0.7499999999999999
 40
1.0
 40
1.0
 40
1.0
 40
1.0
 10
134.3451256952272
 20
44.17150851992117
 30
0.0
 10
134.1838932177427
 20
43.45711435772905
 30
0.0
 10
134.0634133781031
 20
42.80377209502037
 30
0.0
 10
133.9410328607898
 20
41.91551685321648
 30
0.0
 10
133.9100552003923
 20
41.63483631686466
 30
0.0
 10
133.8684414627644
 20
41.10580232702467
 30
0.0
 10
133.8582055498316
 20
40.86248134844621
 30
0.0
 10
133.8580171527755
 20
40.19445865793299
 30
0.0
 10
133.8981618554131
 20
39.83077774851353
 30
0.0
 10
134.0623156103526
 20
39.2708868759652
 30
0.0
 10
134.1838672607622
 20
39.08336558384806
 30
0.0
 10
134.3451256952272
 20
38.98533419116011
 30
0.0
  0
ARC
  5
305
330
1F
100
AcDbEntity
  8
0
  6
HIDDEN
 62
     7
370
     0
100
AcDbCircle
 10
255.05839873
 20
60.7456258739
 30
0.0
 40
3.190562641049858
100
AcDbArc
 50
256.3281730142
 51
153.344234047
  0
LINE
  5
306
330
1F
100
AcDbEntity
  8
0
  6
HIDDEN
 62
     7
370
     0
100
AcDbLine
 10
252.2069354366
 20
62.1770052971
 30
0.0
 11
247.4192292838
 21
59.9276952369
 31
0.0
  0
LINE
  5
307
330
1F
100
AcDbEntity
  8
0
  6
HIDDEN
 62
     7
370
     0
100
AcDbLine
 10
263.2279332341
 20
60.3697425804
 30
0.0
 11
263.2279332341
 21
61.141087712
 31
0.0
  0
LINE
  5
308
330
1F
100
AcDbEntity
  8
0
  6
HIDDEN
 62
     7
370
     0
100
AcDbLine
 10
251.3831075897
 20
56.2730735145
 30
0.0
 11
254.8826060376
 21
53.314593597
 31
0.0
  0
LINE
  5
309
330
1F
100
AcDbEntity
  8
0
  6
HIDDEN
 62
     7
370
     0
100
AcDbLine
 10
254.8826060376
 20
68.1962366954
 30
0.0
 11
249.323746327
 21
63.4967704538
 31
0.0
  0
LINE
  5
30A
330
1F
100
AcDbEntity
  8
0
  6
HIDDEN
 62
     7
370
     0
100
AcDbLine
 10
245.2630254723
 20
61.4469978091
 30
0.0
 11
247.1961215931
 21
59.8127561778
 31
0.0
  0
LINE
  5
30B
330
1F
100
AcDbEntity
  8
0
  6
HIDDEN
 62
     7
370
     0
100
AcDbLine
 10
263.2279332341
 20
60.3697425804
 30
0.0
 11
254.8826060376
 21
53.314593597
 31
0.0
  0
LINE
  5
30C
330
1F
100
AcDbEntity
  8
0
  6
HIDDEN
 62
     7
370
     0
100
AcDbLine
 10
263.2279332341
 20
61.141087712
 30
0.0
 11
254.8826060376
 21
68.1962366954
 31
0.0
  0
ARC
  5
30D
330
1F
100
AcDbEntity
  8
0
  6
HIDDEN
 62
     7
370
     0
100
AcDbCircle
 10
254.3794447894
 20
60.7451662716
 30
0.0
 40
3.190713024506763
100
AcDbArc
 50
248.1956551608
 51
161.4767519004
  0
LINE
  5
30E
330
1F
100
AcDbEntity
  8
0
  6
HIDDEN
 62
     7
370
     0
100
AcDbLine
 10
251.802324607
 20
62.1535162878
 30
0.0
 11
251.8650937104
 21
62.1770052971
 31
0.0
  0
SPLINE
  5
30F
330
1F
100
AcDbEntity
  8
0
  6
HIDDEN
 62
     7
370
     0
100
AcDbSpline
210
0.0
220
0.0
230
1.0
 70
     8
 71
     3
 72
    10
 73
     6
 74
     0
 42
0.00000001
 43
0.00000001
 12
1.0
 22
0.0
 32
0.0
 13
1.0
 23
0.0
 33
0.0
 40
0.0
 40
0.0
 40
0.0
 40
0.0
 40
0.5
 40
0.5
 40
1.0
 40
1.0
 40
1.0
 40
1.0
 10
253.9624343569557
 20
57.64546636191126
 30
0.0
 10
253.9048436961971
 20
57.64546636191128
 30
0.0
 10
253.7935507905059
 20
57.65815329419201
 30
0.0
 10
253.5253127121302
 20
57.70301935492162
 30
0.0
 10
253.3668993307457
 20
57.73581294153149
 30
0.0
 10
253.1942919490163
 20
57.78272431435769
 30
0.0
  0
LINE
  5
310
330
1F
100
AcDbEntity
  8
0
  6
HIDDEN
 62
     7
370
     0
100
AcDbLine
 10
252.2069354366
 20
62.1770052971
 30
0.0
 11
251.8650937104
 21
62.1770052971
 31
0.0
  0
LINE
  5
311
330
1F
100
AcDbEntity
  8
0
  6
HIDDEN
 62
     7
370
     0
100
AcDbLine
 10
260.3059771476
 20
60.3697425804
 30
0.0
 11
263.2279332341
 21
60.3697425804
 31
0.0
  0
LINE
  5
312
330
1F
100
AcDbEntity
  8
0
  6
HIDDEN
 62
     7
370
     0
100
AcDbLine
 10
263.2279332341
 20
61.141087712
 30
0.0
 11
260.3059771476
 21
61.141087712
 31
0.0
  0
LWPOLYLINE
  5
313
330
1F
100
AcDbEntity
  8
0
  6
HIDDEN
 62
     7
370
     0
100
AcDbPolyline
 90
       12
 70
   128
 43
0.0
 10
250.0012040903
 20
56.1160376363
 10
250.4505480056
 20
56.4602500221
 10
250.7785317163
 20
56.9601355347
 10
250.9585839328
 20
57.5751964229
 10
250.9761178953
 20
58.2556041113
 10
250.8297131064
 20
58.9462360156
 10
250.5312304115
 20
59.5911412463
 10
250.1048511033
 20
60.1380734169
 10
249.5851178977
 20
60.5427233358
 10
249.0141364879
 20
60.7723086731
 10
248.438164392
 20
60.8082297901
 10
247.9038634438
 20
60.6475765715
  0
ELLIPSE
  5
314
330
1F
100
AcDbEntity
  8
0
  6
HIDDEN
 62
     7
370
     0
100
AcDbEllipse
 10
251.0020522642
 20
59.1731250158
 30
0.0
 11
2.632718078441286
 21
1.286044576750726
 31
0.0
210
0.0
220
0.0
230
1.0
 40
0.8520481147
 41
5.194886272326144
 42
7.33583302701286
  0
LINE
  5
315
330
1F
100
AcDbEntity
  8
0
  6
HIDDEN
 62
     7
370
     0
100
AcDbLine
 10
244.7678152937
 20
59.037968365
 30
0.0
 11
247.9038634438
 21
60.6475765715
 31
0.0
  0
LINE
  5
316
330
1F
100
AcDbEntity
  8
0
  6
HIDDEN
 62
     7
370
     0
100
AcDbLine
 10
135.4664460388
 20
67.7773024719
 30
0.0
 11
135.4664460388
 21
53.7335278204
 31
0.0
  0
SPLINE
  5
317
330
1F
100
AcDbEntity
  8
0
  6
HIDDEN
 62
     7
370
     0
100
AcDbSpline
210
0.0
220
0.0
230
1.0
 70
     8
 71
     3
 72
     8
 73
     4
 74
     0
 42
0.00000001
 43
0.00000001
 12
1.0
 22
0.0
 32
0.0
 13
1.0
 23
0.0
 33
0.0
 40
0.0000249638557297
 40
0.0000249638557297
 40
0.0000249638557297
 40
0.0000249638557297
 40
0.0049776420541173
 40
0.0049776420541173
 40
0.0049776420541173
 40
0.0049776420541173
 10
99.16644603878687
 20
56.79020424932572
 30
0.0
 10
100.8164222732964
 20
56.74892501155754
 30
0.0
 10
102.4664235930414
 20
56.70870333031799
 30
0.0
 10
104.1164460387868
 20
56.669454093063
 30
0.0
  0
SPLINE
  5
318
330
1F
100
AcDbEntity
  8
0
  6
HIDDEN
 62
     7
370
     0
100
AcDbSpline
210
0.0
220
0.0
230
1.0
 70
     8
 71
     3
 72
     8
 73
     4
 74
     0
 42
0.00000001
 43
0.00000001
 12
1.0
 22
0.0
 32
0.0
 13
1.0
 23
0.0
 33
0.0
 40
0.0000249631533153
 40
0.0000249631533153
 40
0.0000249631533153
 40
0.0000249631533153
 40
0.0049776413517028
 40
0.0049776413517028
 40
0.0049776413517028
 40
0.0049776413517028
 10
104.1164460387868
 20
64.84137619926146
 30
0.0
 10
102.4664235930414
 20
64.8021269620065
 30
0.0
 10
100.8164222732964
 20
64.76190528076694
 30
0.0
 10
99.16644603878686
 20
64.72062604299876
 30
0.0
  0
SPLINE
  5
319
330
1F
100
AcDbEntity
  8
0
  6
HIDDEN
 62
     7
370
     0
100
AcDbSpline
210
0.0
220
0.0
230
1.0
 70
     8
 71
     3
 72
     8
 73
     4
 74
     0
 42
0.00000001
 43
0.00000001
 12
1.0
 22
0.0
 32
0.0
 13
1.0
 23
0.0
 33
0.0
 40
0.0
 40
0.0
 40
0.0
 40
0.0
 40
1.0
 40
1.0
 40
1.0
 40
1.0
 10
97.6664460387846
 20
57.85342781318193
 30
0.0
 10
98.13320665016239
 20
57.43806456755889
 30
0.0
 10
98.63895419694249
 20
57.09347413825427
 30
0.0
 10
99.16644603878689
 20
56.79020424932571
 30
0.0
  0
SPLINE
  5
31A
330
1F
100
AcDbEntity
  8
0
  6
HIDDEN
 62
     7
370
     0
100
AcDbSpline
210
0.0
220
0.0
230
1.0
 70
     8
 71
     3
 72
     8
 73
     4
 74
     0
 42
0.00000001
 43
0.00000001
 12
1.0
 22
0.0
 32
0.0
 13
1.0
 23
0.0
 33
0.0
 40
0.0
 40
0.0
 40
0.0
 40
0.0
 40
1.0
 40
1.0
 40
1.0
 40
1.0
 10
99.16644603878689
 20
64.72062604299877
 30
0.0
 10
98.63895419694333
 20
64.4173561540707
 30
0.0
 10
98.13320665016406
 20
64.0727657247667
 30
0.0
 10
97.66644603878689
 20
63.65740247914457
 30
0.0
  0
LINE
  5
31B
330
1F
100
AcDbEntity
  8
0
  6
HIDDEN
 62
     7
370
     0
100
AcDbLine
 10
104.1164460388
 20
56.6694540931
 30
0.0
 11
104.1164460388
 21
64.8413761993
 31
0.0
  0
SPLINE
  5
31C
330
1F
100
AcDbEntity
  8
0
  6
HIDDEN
 62
     7
370
     0
100
AcDbSpline
210
0.0
220
0.0
230
1.0
 70
     8
 71
     3
 72
    24
 73
    20
 74
     0
 42
0.00000001
 43
0.00000001
 12
1.0
 22
0.0
 32
0.0
 13
1.0
 23
0.0
 33
0.0
 40
0.0
 40
0.0
 40
0.0
 40
0.0
 40
0.1249999999999999
 40
0.1249999999999999
 40
0.2499999999999998
 40
0.2499999999999998
 40
0.3749999999999996
 40
0.3749999999999996
 40
0.4374999999999996
 40
0.4374999999999996
 40
0.4999999999999997
 40
0.4999999999999997
 40
0.6249999999999998
 40
0.6249999999999998
 40
0.7499999999999999
 40
0.7499999999999999
 40
0.875
 40
0.875
 40
1.0
 40
1.0
 40
1.0
 40
1.0
 10
104.1164460387869
 20
56.66945409306301
 30
0.0
 10
104.354249671062
 20
56.96846119539315
 30
0.0
 10
104.5843353322732
 20
57.27279904671187
 30
0.0
 10
105.0190887308831
 20
57.89853258410786
 30
0.0
 10
105.2240215231692
 20
58.21975731143537
 30
0.0
 10
105.5891234736679
 20
58.89168308216811
 30
0.0
 10
105.7509238594594
 20
59.246998314047
 30
0.0
 10
105.9227840640391
 20
59.79722953539944
 30
0.0
 10
105.9683692556993
 20
59.98363332037992
 30
0.0
 10
106.0308439952741
 20
60.36376782247618
 30
0.0
 10
106.0475151410226
 20
60.55943761476206
 30
0.0
 10
106.0480361841991
 20
61.13791799343648
 30
0.0
 10
105.9835938833124
 20
61.51582983240527
 30
0.0
 10
105.753744789939
 20
62.2577978575037
 30
0.0
 10
105.5952241122759
 20
62.60651331766465
 30
0.0
 10
105.2309897823757
 20
63.27960571539781
 30
0.0
 10
105.0242535423122
 20
63.60455820263945
 30
0.0
 10
104.5863155965718
 20
64.23548201310123
 30
0.0
 10
104.3550428692922
 20
64.54137175344188
 30
0.0
 10
104.1164460387869
 20
64.84137619926138
 30
0.0
  0
SPLINE
  5
31D
330
1F
100
AcDbEntity
  8
0
  6
HIDDEN
 62
     7
370
     0
100
AcDbSpline
210
0.0
220
0.0
230
1.0
 70
     8
 71
     3
 72
    11
 73
     7
 74
     0
 42
0.00000001
 43
0.00000001
 12
1.0
 22
0.0
 32
0.0
 13
1.0
 23
0.0
 33
0.0
 40
0.0
 40
0.0
 40
0.0
 40
0.0
 40
0.2662454704969808
 40
0.5381261528017515
 40
0.848806476365501
 40
1.0
 40
1.0
 40
1.0
 40
1.0
 10
116.977607467549
 20
63.40142669621964
 30
0.0
 10
117.120540829184
 20
63.5456529471916
 30
0.0
 10
117.4094328049238
 20
63.83715806622214
 30
0.0
 10
117.9443478823909
 20
64.20317735263642
 30
0.0
 10
118.441056765997
 20
64.46843956586177
 30
0.0
 10
118.7797174557933
 20
64.565606253159
 30
0.0
 10
118.8905773871737
 20
64.59741358306408
 30
0.0
  0
SPLINE
  5
31E
330
1F
100
AcDbEntity
  8
0
  6
HIDDEN
 62
     7
370
     0
100
AcDbSpline
210
0.0
220
0.0
230
1.0
 70
     8
 71
     3
 72
    29
 73
    25
 74
     0
 42
0.00000001
 43
0.00000001
 12
1.0
 22
0.0
 32
0.0
 13
1.0
 23
0.0
 33
0.0
 40
0.0
 40
0.0
 40
0.0
 40
0.0
 40
0.0225186817509652
 40
0.0741096296212502
 40
0.1254756854844632
 40
0.1783361674439363
 40
0.229529544608551
 40
0.2823198177596999
 40
0.331525732113624
 40
0.3823737442709903
 40
0.4281368325519909
 40
0.4754107719722394
 40
0.5183313683892226
 40
0.5625324687930396
 40
0.6049659671023413
 40
0.648535112128983
 40
0.6928378970004538
 40
0.7382680959572289
 40
0.7856503082679721
 40
0.8342609492860623
 40
0.8843848230872526
 40
0.9358879037873716
 40
0.9872998275469568
 40
1.0
 40
1.0
 40
1.0
 40
1.0
 10
119.661091180484
 20
64.76912586533844
 30
0.0
 10
119.7705704061944
 20
64.78710150362176
 30
0.0
 10
120.1308696882903
 20
64.84625984646416
 30
0.0
 10
120.753089127836
 20
64.8157337039154
 30
0.0
 10
121.5082124131543
 20
64.67844678575042
 30
0.0
 10
122.2274690926589
 20
64.4103263085887
 30
0.0
 10
122.8958612593828
 20
64.0224814183467
 30
0.0
 10
123.4726221846461
 20
63.53456402111654
 30
0.0
 10
123.952266912852
 20
62.95347253597955
 30
0.0
 10
124.3027563578141
 20
62.32414231545162
 30
0.0
 10
124.5305956016642
 20
61.65084860992214
 30
0.0
 10
124.6291203411353
 20
60.98529772996265
 30
0.0
 10
124.6098586480981
 20
60.32118045139826
 30
0.0
 10
124.4835592493968
 20
59.69329752233323
 30
0.0
 10
124.2544096009326
 20
59.09291334340959
 30
0.0
 10
123.9320753698859
 20
58.53710380374856
 30
0.0
 10
123.5166001764337
 20
58.02861858919307
 30
0.0
 10
123.0126620878662
 20
57.57941447812175
 30
0.0
 10
122.4262232486757
 20
57.20337726679049
 30
0.0
 10
121.7661493945846
 20
56.91618838306385
 30
0.0
 10
121.0475205002654
 20
56.73015774255263
 30
0.0
 10
120.296283044952
 20
56.67202711796915
 30
0.0
 10
119.7212582441247
 20
56.69319355066197
 30
0.0
 10
119.4161369693876
 20
56.77436723317864
 30
0.0
 10
119.3556945094281
 20
56.79044719043337
 30
0.0
  0
SPLINE
  5
31F
330
1F
100
AcDbEntity
  8
0
  6
HIDDEN
 62
     7
370
     0
100
AcDbSpline
210
0.0
220
0.0
230
1.0
 70
     8
 71
     3
 72
    20
 73
    16
 74
     0
 42
0.00000001
 43
0.00000001
 12
1.0
 22
0.0
 32
0.0
 13
1.0
 23
0.0
 33
0.0
 40
0.0
 40
0.0
 40
0.0
 40
0.0
 40
0.0292674553082392
 40
0.1209852157190914
 40
0.2155296168457461
 40
0.304291634418844
 40
0.3959336222259462
 40
0.4796570483900112
 40
0.5661239714784538
 40
0.6448643365602227
 40
0.726020710444219
 40
0.8027159236219963
 40
0.8815470388811932
 40
0.9403450855586221
 40
1.0
 40
1.0
 40
1.0
 40
1.0
 10
119.0135077597948
 20
56.87608498008947
 30
0.0
 10
118.9351898142815
 20
56.89419027521873
 30
0.0
 10
118.6114406726902
 20
56.96903357860128
 30
0.0
 10
118.0734442701328
 20
57.22920123312799
 30
0.0
 10
117.4409993629581
 20
57.64278742681644
 30
0.0
 10
116.895196829504
 20
58.16897412285571
 30
0.0
 10
116.4680769055391
 20
58.7582738058723
 30
0.0
 10
116.1567144956265
 20
59.40911194399193
 30
0.0
 10
115.9757832858646
 20
60.0715782816471
 30
0.0
 10
115.9155086874681
 20
60.74803238952316
 30
0.0
 10
115.9704483901592
 20
61.3981895915822
 30
0.0
 10
116.1340287415593
 20
62.02952211148684
 30
0.0
 10
116.3749671171829
 20
62.56814439502083
 30
0.0
 10
116.6607075562628
 20
63.02938596180377
 30
0.0
 10
116.871465967434
 20
63.27681649518006
 30
0.0
 10
116.977607467549
 20
63.40142669621964
 30
0.0
  0
CIRCLE
  5
320
330
1F
100
AcDbEntity
  8
0
  6
HIDDEN
 62
     7
370
     0
100
AcDbCircle
 10
147.6664460388
 20
60.7554151462
 30
0.0
 40
2.0
  0
CIRCLE
  5
321
330
1F
100
AcDbEntity
  8
0
  6
HIDDEN
 62
     7
370
     0
100
AcDbCircle
 10
244.4127773174
 20
55.3654559956
 30
0.0
 40
3.9804478761416
  0
LINE
  5
322
330
1F
100
AcDbEntity
  8
0
  6
HIDDEN
 62
     7
370
     0
100
AcDbLine
 10
242.2626546111
 20
55.3459013959
 30
0.0
 11
242.7174771925
 21
55.3459013959
 31
0.0
  0
CIRCLE
  5
323
330
1F
100
AcDbEntity
  8
0
  6
HIDDEN
 62
     7
370
     0
100
AcDbCircle
 10
243.7977518392
 20
55.3654559956
 30
0.0
 40
3.98044787614155
  0
LINE
  5
324
330
1F
100
AcDbEntity
  8
0
  6
HIDDEN
 62
     7
370
     0
100
AcDbLine
 10
243.1222247928
 20
56.8459013959
 30
0.0
 11
243.5770473743
 21
56.8459013959
 31
0.0
  0
LINE
  5
325
330
1F
100
AcDbEntity
  8
0
  6
HIDDEN
 62
     7
370
     0
100
AcDbLine
 10
243.1222247928
 20
53.8459013959
 30
0.0
 11
243.5770473743
 21
53.8459013959
 31
0.0
  0
ARC
  5
326
330
1F
100
AcDbEntity
  8
0
  6
HIDDEN
 62
     7
370
     0
100
AcDbCircle
 10
244.0024819838
 20
55.3459013959
 30
0.0
 40
1.509539923342013
100
AcDbArc
 50
150.2088365589
 51
209.7911634411
  0
LINE
  5
327
330
1F
100
AcDbEntity
  8
0
  6
HIDDEN
 62
     7
370
     0
100
AcDbLine
 10
242.6924397019
 20
56.0959013959
 30
0.0
 11
242.2626546111
 21
55.3459013959
 31
0.0
  0
LINE
  5
328
330
1F
100
AcDbEntity
  8
0
  6
HIDDEN
 62
     7
370
     0
100
AcDbLine
 10
242.2626546111
 20
55.3459013959
 30
0.0
 11
242.6924397019
 21
54.5959013959
 31
0.0
  0
ARC
  5
329
330
1F
100
AcDbEntity
  8
0
  6
HIDDEN
 62
     7
370
     0
100
AcDbCircle
 10
243.9868263885
 20
55.3358870276
 30
0.0
 40
1.490978078107494
100
AcDbArc
 50
209.7560951986
 51
251.4586647689
  0
ARC
  5
32A
330
1F
100
AcDbEntity
  8
0
  6
HIDDEN
 62
     7
370
     0
100
AcDbCircle
 10
243.985253618
 20
55.3576628548
 30
0.0
 40
1.488745769109082
100
AcDbArc
 50
102.606786185
 51
150.2722362195
  0
LINE
  5
32B
330
1F
100
AcDbEntity
  8
0
  6
HIDDEN
 62
     7
370
     0
100
AcDbLine
 10
242.6924397019
 20
54.5959013959
 30
0.0
 11
243.1222247928
 21
53.8459013959
 31
0.0
  0
LINE
  5
32C
330
1F
100
AcDbEntity
  8
0
  6
HIDDEN
 62
     7
370
     0
100
AcDbLine
 10
243.1222247928
 20
56.8459013959
 30
0.0
 11
242.6924397019
 21
56.0959013959
 31
0.0
  0
CIRCLE
  5
32D
330
1F
100
AcDbEntity
  8
0
  6
HIDDEN
 62
     7
370
     0
100
AcDbCircle
 10
243.6543601967
 20
55.3624119691
 30
0.0
 40
3.183491758057722
  0
CIRCLE
  5
32E
330
1F
100
AcDbEntity
  8
0
  6
HIDDEN
 62
     7
370
     0
100
AcDbCircle
 10
243.5712918757
 20
55.3624119691
 30
0.0
 40
3.183491758057765
  0
CIRCLE
  5
32F
330
1F
100
AcDbEntity
  8
0
  6
HIDDEN
 62
     7
370
     0
100
AcDbCircle
 10
243.2667892502
 20
55.3652115631
 30
0.0
 40
3.930692277689788
  0
CIRCLE
  5
330
330
1F
100
AcDbEntity
  8
0
  6
HIDDEN
 62
     7
370
     0
100
AcDbCircle
 10
243.4987017463
 20
55.3652115631
 30
0.0
 40
3.930692277689859
  0
CIRCLE
  5
331
330
1F
100
AcDbEntity
  8
0
  6
HIDDEN
 62
     7
370
     0
100
AcDbCircle
 10
242.8095800274
 20
55.3551075065
 30
0.0
 40
1.76579605312645
  0
CIRCLE
  5
332
330
1F
100
AcDbEntity
  8
0
  6
HIDDEN
 62
     7
370
     0
100
AcDbCircle
 10
243.1121336097
 20
55.3551075065
 30
0.0
 40
1.76579605312645
  0
CIRCLE
  5
333
330
1F
100
AcDbEntity
  8
0
  6
HIDDEN
 62
     7
370
     0
100
AcDbCircle
 10
242.6581640205
 20
55.3652115631
 30
0.0
 40
3.930692277689774
  0
CIRCLE
  5
334
330
1F
100
AcDbEntity
  8
0
  6
HIDDEN
 62
     7
370
     0
100
AcDbCircle
 10
242.4384384587
 20
55.3652115631
 30
0.0
 40
3.930692277689781
  0
CIRCLE
  5
335
330
1F
100
AcDbEntity
  8
0
  6
HIDDEN
 62
     7
370
     0
100
AcDbCircle
 10
242.3646905342
 20
55.3642153609
 30
0.0
 40
3.33168815419735
  0
LINE
  5
336
330
1F
100
AcDbEntity
  8
0
  6
HIDDEN
 62
     7
370
     0
100
AcDbLine
 10
244.317259721
 20
58.2695387032
 30
0.0
 11
243.9696586454
 21
58.2695387032
 31
0.0
  0
SPLINE
  5
337
330
1F
100
AcDbEntity
  8
0
  6
HIDDEN
 62
     7
370
     0
100
AcDbSpline
210
0.0
220
0.0
230
1.0
 70
     8
 71
     3
 72
     9
 73
     5
 74
     0
 42
0.00000001
 43
0.00000001
 12
1.0
 22
0.0
 32
0.0
 13
1.0
 23
0.0
 33
0.0
 40
0.0
 40
0.0
 40
0.0
 40
0.0
 40
0.3321251342674201
 40
1.0
 40
1.0
 40
1.0
 40
1.0
 10
243.9696586453627
 20
58.26953870319123
 30
0.0
 10
244.0702652283839
 20
58.31963876574533
 30
0.0
 10
244.3731829321077
 20
58.47048571282931
 30
0.0
 10
244.667774854294
 20
58.61833973344029
 30
0.0
 10
244.8645253947702
 20
58.71708771760389
 30
0.0
  0
LINE
  5
338
330
1F
100
AcDbEntity
  8
0
  6
HIDDEN
 62
     7
370
     0
100
AcDbLine
 10
252.2777438786
 20
62.1998885374
 30
0.0
 11
244.8645253948
 21
58.7170877176
 31
0.0
  0
LINE
  5
339
330
1F
100
AcDbEntity
  8
0
  6
HIDDEN
 62
     7
370
     0
100
AcDbLine
 10
252.4361740251
 20
62.1998885374
 30
0.0
 11
252.2777438786
 21
62.1998885374
 31
0.0
  0
LINE
  5
33A
330
1F
100
AcDbEntity
  8
0
  6
HIDDEN
 62
     7
370
     0
100
AcDbLine
 10
252.4361740251
 20
62.1998885374
 30
0.0
 11
253.6055920232
 21
62.7492922776
 31
0.0
  0
LINE
  5
33B
330
1F
100
AcDbEntity
  8
0
  6
HIDDEN
 62
     7
370
     0
100
AcDbLine
 10
254.0201087125
 20
62.2855992937
 30
0.0
 11
253.9787518914
 21
62.2661694643
 31
0.0
  0
LINE
  5
33C
330
1F
100
AcDbEntity
  8
0
  6
HIDDEN
 62
     7
370
     0
100
AcDbLine
 10
253.9787518914
 20
62.2661694643
 30
0.0
 11
253.5853782521
 21
62.3827641269
 31
0.0
  0
SPLINE
  5
33D
330
1F
100
AcDbEntity
  8
0
  6
HIDDEN
 62
     7
370
     0
100
AcDbSpline
210
0.0
220
0.0
230
1.0
 70
     8
 71
     3
 72
    18
 73
    14
 74
     0
 42
0.00000001
 43
0.00000001
 12
1.0
 22
0.0
 32
0.0
 13
1.0
 23
0.0
 33
0.0
 40
0.0
 40
0.0
 40
0.0
 40
0.0
 40
0.0195613188482862
 40
0.039649340192161
 40
0.0838348863949603
 40
0.1292455353945884
 40
0.3006696995198842
 40
0.4763729485752814
 40
0.6475884956135932
 40
0.8249693203311466
 40
0.8876869604579951
 40
0.9508822317533263
 40
0.9999999999999999
 40
0.9999999999999999
 40
0.9999999999999999
 40
0.9999999999999999
 10
253.5853782520908
 20
62.38276412693602
 30
0.0
 10
253.5812455283365
 20
62.3827773777204
 30
0.0
 10
253.5728688042861
 20
62.38280423607601
 30
0.0
 10
253.5280743874199
 20
62.36998518778304
 30
0.0
 10
253.4400074756659
 20
62.3387689672613
 30
0.0
 10
253.1841847352618
 20
62.24101506221462
 30
0.0
 10
252.7288951234119
 20
62.0576357264219
 30
0.0
 10
252.067913697714
 20
61.78314805901279
 30
0.0
 10
251.3282981583565
 20
61.46584161320895
 30
0.0
 10
250.6986334035643
 20
61.18685935814678
 30
0.0
 10
250.2225511254234
 20
60.97091799751579
 30
0.0
 10
249.9455751653669
 20
60.84385933950293
 30
0.0
 10
249.7683067366453
 20
60.76140724340183
 30
0.0
 10
249.690782082029
 20
60.72534853673464
 30
0.0
  0
LINE
  5
33E
330
1F
100
AcDbEntity
  8
0
  6
HIDDEN
 62
     7
370
     0
100
AcDbLine
 10
249.690782082
 20
60.7253485367
 30
0.0
 11
246.3552121241
 21
59.1693139096
 31
0.0
  0
SPLINE
  5
33F
330
1F
100
AcDbEntity
  8
0
  6
HIDDEN
 62
     7
370
     0
100
AcDbSpline
210
0.0
220
0.0
230
1.0
 70
     8
 71
     3
 72
     9
 73
     5
 74
     0
 42
0.00000001
 43
0.00000001
 12
1.0
 22
0.0
 32
0.0
 13
1.0
 23
0.0
 33
0.0
 40
0.0
 40
0.0
 40
0.0
 40
0.0
 40
0.5627412962132948
 40
0.9999999999999999
 40
0.9999999999999999
 40
0.9999999999999999
 40
0.9999999999999999
 10
246.3552121240683
 20
59.16931390958518
 30
0.0
 10
245.976635387042
 20
59.00297845086215
 30
0.0
 10
245.3038986613499
 20
58.70739776424414
 30
0.0
 10
244.6174259075543
 20
58.40274901875437
 30
0.0
 10
244.3172597210448
 20
58.26953870319127
 30
0.0
  0
ELLIPSE
  5
340
330
1F
100
AcDbEntity
  8
0
  6
HIDDEN
 62
     7
370
     0
100
AcDbEllipse
 10
255.3264820612
 20
60.4719145435
 30
0.0
 11
0.1774412266989032
 21
2.243639031128474
 31
0.0
210
0.0
220
0.0
230
1.0
 40
0.993338952
 41
0.7264672407746087
 42
3.319479629073036
  0
LINE
  5
341
330
1F
100
AcDbEntity
  8
0
  6
HIDDEN
 62
     7
370
     0
100
AcDbLine
 10
255.431038021
 20
58.395009864
 30
0.0
 11
255.8244116604
 21
58.2784152014
 31
0.0
  0
LINE
  5
342
330
1F
100
AcDbEntity
  8
0
  6
HIDDEN
 62
     7
370
     0
100
AcDbLine
 10
255.4143992272
 20
62.7661886683
 30
0.0
 11
255.1142067834
 21
62.8699356513
 31
0.0
  0
SPLINE
  5
343
330
1F
100
AcDbEntity
  8
0
  6
HIDDEN
 62
     7
370
     0
100
AcDbSpline
210
0.0
220
0.0
230
1.0
 70
     8
 71
     3
 72
    12
 73
     8
 74
     0
 42
0.00000001
 43
0.00000001
 12
1.0
 22
0.0
 32
0.0
 13
1.0
 23
0.0
 33
0.0
 40
0.0
 40
0.0
 40
0.0
 40
0.0
 40
0.0366810790004234
 40
0.1813965887902207
 40
0.4909064886163781
 40
0.8040214417334108
 40
1.0
 40
1.0
 40
1.0
 40
1.0
 10
254.811387099489
 20
62.9372721307306
 30
0.0
 10
254.7627695662758
 20
62.94399609215778
 30
0.0
 10
254.5223443955715
 20
62.97724766760994
 30
0.0
 10
254.3293180176441
 20
62.8991908508509
 30
0.0
 10
254.3124286233194
 20
62.84593753897202
 30
0.0
 10
254.422373716398
 20
62.78759499324582
 30
0.0
 10
254.5113188599947
 20
62.75993872260163
 30
0.0
 10
254.5455588190929
 20
62.74929227764272
 30
0.0
  0
ELLIPSE
  5
344
330
1F
100
AcDbEntity
  8
0
  6
HIDDEN
 62
     7
370
     0
100
AcDbEllipse
 10
254.4671353073
 20
60.7266221162
 30
0.0
 11
0.1774412266989316
 21
2.243639031128474
 31
0.0
210
0.0
220
0.0
230
1.0
 40
0.993338952
 41
4.530171685854163
 42
5.925118995746139
  0
SPLINE
  5
345
330
1F
100
AcDbEntity
  8
0
  6
HIDDEN
 62
     7
370
     0
100
AcDbSpline
210
0.0
220
0.0
230
1.0
 70
     8
 71
     3
 72
    23
 73
    19
 74
     0
 42
0.00000001
 43
0.00000001
 12
1.0
 22
0.0
 32
0.0
 13
1.0
 23
0.0
 33
0.0
 40
0.0
 40
0.0
 40
0.0
 40
0.0
 40
0.1736794559376713
 40
0.3073063209679417
 40
0.4409707706576637
 40
0.5749775181642969
 40
0.7094546784630521
 40
0.7622954309707557
 40
0.788878336510766
 40
0.8155379940651946
 40
0.8373602721004925
 40
0.8592757645231829
 40
0.8815726949432849
 40
0.904053623722606
 40
0.9377850778617052
 40
0.9550924781722551
 40
0.9725349177649297
 40
1.0
 40
1.0
 40
1.0
 40
1.0
 10
256.3912185880307
 20
58.76153801468156
 30
0.0
 10
256.3565352477796
 20
58.77274054845152
 30
0.0
 10
256.2951669665749
 20
58.79256217571182
 30
0.0
 10
256.2210330318923
 20
58.8316625816167
 30
0.0
 10
256.167843036932
 20
58.87854094630828
 30
0.0
 10
256.139799049808
 20
58.94724105266582
 30
0.0
 10
256.1541453371129
 20
59.03625287010697
 30
0.0
 10
256.2009251539022
 20
59.13925543594363
 30
0.0
 10
256.2351362422031
 20
59.20564649206813
 30
0.0
 10
256.2653028075158
 20
59.26177549024848
 30
0.0
 10
256.2992568438638
 20
59.32425144366082
 30
0.0
 10
256.3361197344406
 20
59.39281203769101
 30
0.0
 10
256.3783831449023
 20
59.473996617753
 30
0.0
 10
256.4332750400318
 20
59.5856864376708
 30
0.0
 10
256.4889589172508
 20
59.71115522331002
 30
0.0
 10
256.5397148561053
 20
59.84544468594017
 30
0.0
 10
256.584110845882
 20
59.97685752964964
 30
0.0
 10
256.6105857308199
 20
60.08225158339788
 30
0.0
 10
256.626777559324
 20
60.14670974620601
 30
0.0
  0
LINE
  5
346
330
1F
100
AcDbEntity
  8
0
  6
HIDDEN
 62
     7
370
     0
100
AcDbLine
 10
256.6742122309
 20
58.6776596227
 30
0.0
 11
256.391218588
 21
58.7615380147
 31
0.0
  0
ARC
  5
347
330
1F
100
AcDbEntity
  8
0
  6
HIDDEN
 62
     7
370
     0
100
AcDbCircle
 10
254.5284105382
 20
60.7863710842
 30
0.0
 40
2.169021351534609
100
AcDbArc
 50
65.8909941536
 51
115.1793949018
  0
SPLINE
  5
348
330
1F
100
AcDbEntity
  8
0
  6
HIDDEN
 62
     7
370
     0
100
AcDbSpline
210
0.0
220
0.0
230
1.0
 70
     8
 71
     3
 72
    17
 73
    13
 74
     0
 42
0.00000001
 43
0.00000001
 12
1.0
 22
0.0
 32
0.0
 13
1.0
 23
0.0
 33
0.0
 40
0.0
 40
0.0
 40
0.0
 40
0.0
 40
0.0491197050360488
 40
0.1650685404124223
 40
0.2840074046614862
 40
0.4439851499082806
 40
0.6084969652014613
 40
0.7627708846043696
 40
0.9203022708780774
 40
0.9487711912193263
 40
0.9778333692371557
 40
1.0
 40
1.0
 40
1.0
 40
1.0
 10
251.536441850967
 20
56.7375942737734
 30
0.0
 10
251.61396525006
 20
56.77364825838956
 30
0.0
 10
251.8744854288091
 20
56.89480897407937
 30
0.0
 10
252.3245049582695
 20
57.10012354829383
 30
0.0
 10
252.9339231432311
 20
57.37231026514687
 30
0.0
 10
253.582867955516
 20
57.65454260497391
 30
0.0
 10
254.2271911705386
 20
57.92658485033304
 30
0.0
 10
254.805058035349
 20
58.16311893868235
 30
0.0
 10
255.1902635886292
 20
58.31670087920637
 30
0.0
 10
255.365079295954
 20
58.37911074781694
 30
0.0
 10
255.4145723240274
 20
58.39461242732108
 30
0.0
 10
255.4260651095242
 20
58.39488983156395
 30
0.0
 10
255.4310380210287
 20
58.39500986397482
 30
0.0
  0
ELLIPSE
  5
349
330
1F
100
AcDbEntity
  8
0
  6
HIDDEN
 62
     7
370
     0
100
AcDbEllipse
 10
243.7262519847
 20
55.5185360579
 30
0.0
 11
3.440432314412362
 21
2.90127913218906
 31
0.0
210
0.0
220
0.0
230
1.0
 40
0.9940666589
 41
5.504458571134514
 42
6.530711182800575
  0
SPLINE
  5
34A
330
1F
100
AcDbEntity
  8
0
  6
HIDDEN
 62
     7
370
     0
100
AcDbSpline
210
0.0
220
0.0
230
1.0
 70
     8
 71
     3
 72
    15
 73
    11
 74
     0
 42
0.00000001
 43
0.00000001
 12
1.0
 22
0.0
 32
0.0
 13
1.0
 23
0.0
 33
0.0
 40
0.0
 40
0.0
 40
0.0
 40
0.0
 40
0.0632741509532625
 40
0.126589037581532
 40
0.2891881726087544
 40
0.4545791208374365
 40
0.649847397545527
 40
0.853446132097087
 40
0.9266836039188069
 40
1.0
 40
1.0
 40
1.0
 40
1.0
 10
244.3172597210448
 20
58.26953870319127
 30
0.0
 10
244.3502617038544
 20
58.18882755107409
 30
0.0
 10
244.4162869160337
 20
58.02735328528493
 30
0.0
 10
244.5707823494809
 20
57.65397165548756
 30
0.0
 10
244.7883056810477
 20
57.13850747994441
 30
0.0
 10
245.1039493447114
 20
56.42417990474856
 30
0.0
 10
245.4724557436188
 20
55.64315592226521
 30
0.0
 10
245.7864668240822
 20
55.01555643928133
 30
0.0
 10
246.0179616660918
 20
54.56236863272577
 30
0.0
 10
246.1145828707471
 20
54.37534607707159
 30
0.0
 10
246.1629194899827
 20
54.28178444023003
 30
0.0
  0
LINE
  5
34B
330
1F
100
AcDbEntity
  8
0
  6
HIDDEN
 62
     7
370
     0
100
AcDbLine
 10
246.16291949
 20
54.2817844402
 30
0.0
 11
248.200871893
 21
55.1815596466
 31
0.0
  0
LINE
  5
34C
330
1F
100
AcDbEntity
  8
0
  6
HIDDEN
 62
     7
370
     0
100
AcDbLine
 10
248.200871893
 20
55.1815596466
 30
0.0
 11
251.536441851
 21
56.7375942738
 31
0.0
  0
SPLINE
  5
34D
330
1F
100
AcDbEntity
  8
0
  6
HIDDEN
 62
     7
370
     0
100
AcDbSpline
210
0.0
220
0.0
230
1.0
 70
     8
 71
     3
 72
    15
 73
    11
 74
     0
 42
0.00000001
 43
0.00000001
 12
1.0
 22
0.0
 32
0.0
 13
1.0
 23
0.0
 33
0.0
 40
0.0
 40
0.0
 40
0.0
 40
0.0
 40
0.072280625879931
 40
0.1446252986257251
 40
0.3452165277704207
 40
0.5526658455201708
 40
0.7163995882290983
 40
0.8838037654203752
 40
0.9418844957845157
 40
1.0
 40
1.0
 40
1.0
 40
1.0
 10
245.8153184143007
 20
54.28178444023005
 30
0.0
 10
245.7775947958357
 20
54.3740140741955
 30
0.0
 10
245.7021141325277
 20
54.55855506553326
 30
0.0
 10
245.5168542153851
 20
55.00523407263992
 30
0.0
 10
245.2457793713986
 20
55.64311638740304
 30
0.0
 10
244.8860397109042
 20
56.43554106337196
 30
0.0
 10
244.5301420003844
 20
57.16972341422682
 30
0.0
 10
244.2719234191773
 20
57.68158636560842
 30
0.0
 10
244.0845490858646
 20
58.04724921391228
 30
0.0
 10
244.0079630987831
 20
58.19542742508372
 30
0.0
 10
243.9696586453627
 20
58.26953870319123
 30
0.0
  0
LINE
  5
34E
330
1F
100
AcDbEntity
  8
0
  6
HIDDEN
 62
     7
370
     0
100
AcDbLine
 10
246.16291949
 20
54.2817844402
 30
0.0
 11
245.8153184143
 21
54.2817844402
 31
0.0
  0
SPLINE
  5
34F
330
1F
100
AcDbEntity
  8
0
  6
HIDDEN
 62
     7
370
     0
100
AcDbSpline
210
0.0
220
0.0
230
1.0
 70
     8
 71
     3
 72
     9
 73
     5
 74
     0
 42
0.00000001
 43
0.00000001
 12
1.0
 22
0.0
 32
0.0
 13
1.0
 23
0.0
 33
0.0
 40
0.0
 40
0.0
 40
0.0
 40
0.0
 40
0.667874865732573
 40
1.0
 40
1.0
 40
1.0
 40
1.0
 10
246.7101851637081
 20
54.72933345464265
 30
0.0
 10
246.5134346232321
 20
54.63058547047903
 30
0.0
 10
246.2188427010457
 20
54.48273144986799
 30
0.0
 10
245.9159249973219
 20
54.33188450278411
 30
0.0
 10
245.8153184143007
 20
54.28178444023005
 30
0.0
  0
LINE
  5
350
330
1F
100
AcDbEntity
  8
0
  6
HIDDEN
 62
     7
370
     0
100
AcDbLine
 10
252.1425463345
 20
62.8343039883
 30
0.0
 11
253.3119643326
 21
63.3837077286
 31
0.0
  0
LINE
  5
351
330
1F
100
AcDbEntity
  8
0
  6
HIDDEN
 62
     7
370
     0
100
AcDbLine
 10
252.1425463345
 20
62.8343039883
 30
0.0
 11
251.9841161881
 21
62.8343039883
 31
0.0
  0
LINE
  5
352
330
1F
100
AcDbEntity
  8
0
  6
HIDDEN
 62
     7
370
     0
100
AcDbLine
 10
251.9841161881
 20
62.8343039883
 30
0.0
 11
253.1535341862
 21
63.3837077286
 31
0.0
  0
LINE
  5
353
330
1F
100
AcDbEntity
  8
0
  6
HIDDEN
 62
     7
370
     0
100
AcDbLine
 10
254.5754614845
 20
57.5777188235
 30
0.0
 11
254.281833794
 21
58.2121342744
 31
0.0
  0
LINE
  5
354
330
1F
100
AcDbEntity
  8
0
  6
HIDDEN
 62
     7
370
     0
100
AcDbLine
 10
252.4361740251
 20
62.1998885374
 30
0.0
 11
252.1425463345
 21
62.8343039883
 31
0.0
  0
ARC
  5
355
330
1F
100
AcDbEntity
  8
0
  6
HIDDEN
 62
     7
370
     0
100
AcDbCircle
 10
254.5285077834
 20
60.7952883249
 30
0.0
 40
2.86005121925821
100
AcDbArc
 50
59.3344150103
 51
115.1732766994
  0
ARC
  5
356
330
1F
100
AcDbEntity
  8
0
  6
HIDDEN
 62
     7
370
     0
100
AcDbCircle
 10
254.4943320482
 20
60.7551474237
 30
0.0
 40
2.912846124932378
100
AcDbArc
 50
310.6399211865
 51
15.3138367995
  0
LINE
  5
357
330
1F
100
AcDbEntity
  8
0
  6
HIDDEN
 62
     7
370
     0
100
AcDbLine
 10
255.9872092706
 20
58.2554438092
 30
0.0
 11
255.7448794826
 21
58.1271225638
 31
0.0
  0
LINE
  5
358
330
1F
100
AcDbEntity
  8
0
  6
HIDDEN
 62
     7
370
     0
100
AcDbLine
 10
255.7448794826
 20
58.1271225638
 30
0.0
 11
254.5754614845
 21
57.5777188235
 31
0.0
  0
ARC
  5
359
330
1F
100
AcDbEntity
  8
0
  6
HIDDEN
 62
     7
370
     0
100
AcDbCircle
 10
254.5151208396
 20
60.7473761394
 30
0.0
 40
2.195425748683448
100
AcDbArc
 50
295.2393518446
 51
344.1214560828
  0
LINE
  5
35A
330
1F
100
AcDbEntity
  8
0
  6
HIDDEN
 62
     7
370
     0
100
AcDbLine
 10
255.4512517921
 20
58.7615380147
 30
0.0
 11
254.281833794
 21
58.2121342744
 31
0.0
  0
LINE
  5
35B
330
1F
100
AcDbEntity
  8
0
  6
HIDDEN
 62
     7
370
     0
100
AcDbLine
 10
252.2777438786
 20
62.1998885374
 30
0.0
 11
251.9841161881
 21
62.8343039883
 31
0.0
  0
ARC
  5
35C
330
1F
100
AcDbEntity
  8
0
  6
HIDDEN
 62
     7
370
     0
100
AcDbCircle
 10
254.3598198192
 20
60.7507072472
 30
0.0
 40
2.896172744015526
100
AcDbArc
 50
295.057946893
 51
114.6144601683
  0
LINE
  5
35D
330
1F
100
AcDbEntity
  8
0
  6
HIDDEN
 62
     7
370
     0
100
AcDbLine
 10
254.5754614845
 20
57.5777188235
 30
0.0
 11
254.4170313381
 21
57.5777188235
 31
0.0
  0
LINE
  5
35E
330
1F
100
AcDbEntity
  8
0
  6
HIDDEN
 62
     7
370
     0
100
AcDbLine
 10
254.4170313381
 20
57.5777188235
 30
0.0
 11
254.1234036476
 21
58.2121342744
 31
0.0
  0
LINE
  5
35F
330
1F
100
AcDbEntity
  8
0
  6
HIDDEN
 62
     7
370
     0
100
AcDbLine
 10
254.1234036476
 20
58.2121342744
 30
0.0
 11
254.281833794
 21
58.2121342744
 31
0.0
  0
LINE
  5
360
330
1F
100
AcDbEntity
  8
0
  6
HIDDEN
 62
     7
370
     0
100
AcDbLine
 10
255.5864493362
 20
58.1271225638
 30
0.0
 11
254.4170313381
 21
57.5777188235
 31
0.0
  0
ARC
  5
361
330
1F
100
AcDbEntity
  8
0
  6
HIDDEN
 62
     7
370
     0
100
AcDbCircle
 10
242.8169849819
 20
55.3484285421
 30
0.0
 40
3.942116992526595
100
AcDbArc
 50
350.9645027854
 51
58.7079042758
  0
LINE
  5
362
330
1F
100
AcDbEntity
  8
0
  6
HIDDEN
 62
     7
370
     0
100
AcDbLine
 10
246.7101851637
 20
54.7293334546
 30
0.0
 11
254.1234036476
 21
58.2121342744
 31
0.0
  0
LINE
  5
363
330
1F
100
AcDbEntity
  8
0
  6
HIDDEN
 62
     7
370
     0
100
AcDbLine
 10
255.4668158518
 20
63.9554151462
 30
0.0
 11
255.4424419832
 21
64.3018253077
 31
0.0
  0
LINE
  5
364
330
1F
100
AcDbEntity
  8
0
  6
HIDDEN
 62
     7
370
     0
100
AcDbLine
 10
255.4078341856
 20
63.6759922828
 30
0.0
 11
255.4668158518
 21
63.9554151462
 31
0.0
  0
ARC
  5
365
330
1F
100
AcDbEntity
  8
0
  6
HIDDEN
 62
     7
370
     0
100
AcDbCircle
 10
255.2542874241
 20
63.6730687398
 30
0.0
 40
0.1535745912333739
100
AcDbArc
 50
309.994989969
 51
1.0907845521
  0
LINE
  5
366
330
1F
100
AcDbEntity
  8
0
  6
HIDDEN
 62
     7
370
     0
100
AcDbLine
 10
254.7355997914
 20
63.5554151462
 30
0.0
 11
255.352992981
 21
63.5554151462
 31
0.0
  0
LINE
  5
367
330
1F
100
AcDbEntity
  8
0
  6
HIDDEN
 62
     7
370
     0
100
AcDbLine
 10
254.7355997914
 20
63.9554151462
 30
0.0
 11
254.7355997914
 21
63.5554151462
 31
0.0
  0
LINE
  5
368
330
1F
100
AcDbEntity
  8
0
  6
HIDDEN
 62
     7
370
     0
100
AcDbLine
 10
254.7355997914
 20
63.9554151462
 30
0.0
 11
255.352992981
 21
63.9554151462
 31
0.0
  0
ARC
  5
369
330
1F
100
AcDbEntity
  8
0
  6
HIDDEN
 62
     7
370
     0
100
AcDbCircle
 10
255.2981565605
 20
64.0207782537
 30
0.0
 40
0.0853192173519935
100
AcDbArc
 50
309.9949899691
 51
1.090784552
  0
LINE
  5
36A
330
1F
100
AcDbEntity
  8
0
  6
HIDDEN
 62
     7
370
     0
100
AcDbLine
 10
255.3834603169
 20
64.0224024443
 30
0.0
 11
255.4424419832
 21
64.3018253077
 31
0.0
  0
ARC
  5
36B
330
1F
100
AcDbEntity
  8
0
  6
HIDDEN
 62
     7
370
     0
100
AcDbCircle
 10
255.4219318673
 20
60.7554151462
 30
0.0
 40
3.546469469563004
100
AcDbArc
 50
270.3313576049
 51
89.6686423951
  0
LINE
  5
36C
330
1F
100
AcDbEntity
  8
0
  6
HIDDEN
 62
     7
370
     0
100
AcDbLine
 10
255.4668158518
 20
57.5554151462
 30
0.0
 11
255.4424419832
 21
57.2090049846
 31
0.0
  0
ARC
  5
36D
330
1F
100
AcDbEntity
  8
0
  6
HIDDEN
 62
     7
370
     0
100
AcDbCircle
 10
255.4475489162
 20
60.7554151462
 30
0.0
 40
3.200058001788078
100
AcDbArc
 50
270.3449689861
 51
89.6550310139
  0
LINE
  5
36E
330
1F
100
AcDbEntity
  8
0
  6
HIDDEN
 62
     7
370
     0
100
AcDbLine
 10
255.4078341856
 20
57.8348380096
 30
0.0
 11
255.4668158518
 21
57.5554151462
 31
0.0
  0
ARC
  5
36F
330
1F
100
AcDbEntity
  8
0
  6
HIDDEN
 62
     7
370
     0
100
AcDbCircle
 10
255.2981565605
 20
57.4900520386
 30
0.0
 40
0.0853192173518768
100
AcDbArc
 50
358.9092154479
 51
50.005010031
  0
LINE
  5
370
330
1F
100
AcDbEntity
  8
0
  6
HIDDEN
 62
     7
370
     0
100
AcDbLine
 10
254.7355997914
 20
57.5554151462
 30
0.0
 11
255.352992981
 21
57.5554151462
 31
0.0
  0
LINE
  5
371
330
1F
100
AcDbEntity
  8
0
  6
HIDDEN
 62
     7
370
     0
100
AcDbLine
 10
254.7355997914
 20
57.5554151462
 30
0.0
 11
254.7355997914
 21
57.9554151462
 31
0.0
  0
LINE
  5
372
330
1F
100
AcDbEntity
  8
0
  6
HIDDEN
 62
     7
370
     0
100
AcDbLine
 10
254.7355997914
 20
57.9554151462
 30
0.0
 11
255.352992981
 21
57.9554151462
 31
0.0
  0
ARC
  5
373
330
1F
100
AcDbEntity
  8
0
  6
HIDDEN
 62
     7
370
     0
100
AcDbCircle
 10
255.2542874241
 20
57.8377615525
 30
0.0
 40
0.1535745912333848
100
AcDbArc
 50
358.9092154479
 51
50.005010031
  0
LINE
  5
374
330
1F
100
AcDbEntity
  8
0
  6
HIDDEN
 62
     7
370
     0
100
AcDbLine
 10
255.3834603169
 20
57.4884278481
 30
0.0
 11
255.4424419832
 21
57.2090049846
 31
0.0
  0
ARC
  5
375
330
1F
100
AcDbEntity
  8
0
  6
HIDDEN
 62
     7
370
     0
100
AcDbCircle
 10
255.3361344124
 20
60.7554151462
 30
0.0
 40
2.80005075156457
100
AcDbArc
 50
270.3449689861
 51
89.6550310139
  0
ARC
  5
376
330
1F
100
AcDbEntity
  8
0
  6
HIDDEN
 62
     7
370
     0
100
AcDbCircle
 10
255.3337260454
 20
60.7554151462
 30
0.0
 40
3.200058001788078
100
AcDbArc
 50
270.3449689861
 51
89.6550310139
  0
ARC
  5
377
330
1F
100
AcDbEntity
  8
0
  6
HIDDEN
 62
     7
370
     0
100
AcDbCircle
 10
254.7163328558
 20
60.7554151462
 30
0.0
 40
3.200058001788078
100
AcDbArc
 50
270.3449689861
 51
89.6550310139
  0
LWPOLYLINE
  5
378
330
1F
100
AcDbEntity
  8
0
  6
HIDDEN
 62
     7
370
     0
100
AcDbPolyline
 90
        3
 70
   128
 43
0.0
 10
254.7355997914
 20
63.5554151462
 10
255.4548913635
 20
63.4600074598
 10
255.8417905842
 20
63.3240517498
  0
ARC
  5
379
330
1F
100
AcDbEntity
  8
0
  6
HIDDEN
 62
     7
370
     0
100
AcDbCircle
 10
254.7062452521
 20
60.7533567739
 30
0.0
 40
2.808683532295949
100
AcDbArc
 50
309.9637300045
 51
4.5271151003
  0
LWPOLYLINE
  5
37A
330
1F
100
AcDbEntity
  8
0
  6
HIDDEN
 62
     7
370
     0
100
AcDbPolyline
 90
        3
 70
   128
 43
0.0
 10
255.8796262775
 20
58.2036565529
 10
255.4548913635
 20
58.0508228326
 10
254.7355997914
 20
57.9554151462
  0
ARC
  5
37B
330
1F
100
AcDbEntity
  8
0
  6
HIDDEN
 62
     7
370
     0
100
AcDbCircle
 10
246.3190171429
 20
60.7554706653
 30
0.0
 40
0.4019065685443549
100
AcDbArc
 50
147.0781905914
 51
229.6893960669
  0
LINE
  5
37C
330
1F
100
AcDbEntity
  8
0
  6
HIDDEN
 62
     7
370
     0
100
AcDbLine
 10
255.155887261
 20
68.7523420276
 30
0.0
 11
249.3252589147
 21
63.8231222761
 31
0.0
  0
LINE
  5
37D
330
1F
100
AcDbEntity
  8
0
  6
HIDDEN
 62
     7
370
     0
100
AcDbLine
 10
246.0590113575
 20
60.4489973689
 30
0.0
 11
255.155887261
 21
52.7584882648
 31
0.0
  0
ARC
  5
37E
330
1F
100
AcDbEntity
  8
0
  6
HIDDEN
 62
     7
370
     0
100
AcDbCircle
 10
255.5134059772
 20
60.7554151462
 30
0.0
 40
2.5784718146209
100
AcDbArc
 50
83.8013529468
 51
276.1986470531
  0
ARC
  5
37F
330
1F
100
AcDbEntity
  8
0
  6
HIDDEN
 62
     7
370
     0
100
AcDbCircle
 10
255.5015840206
 20
68.5273280657
 30
0.0
 40
0.3952604956131137
100
AcDbArc
 50
49.7505799382
 51
89.9730838638
  0
ARC
  5
380
330
1F
100
AcDbEntity
  8
0
  6
HIDDEN
 62
     7
370
     0
100
AcDbCircle
 10
255.5015840206
 20
52.9835022266
 30
0.0
 40
0.3952604956130091
100
AcDbArc
 50
270.0269161362
 51
310.2494200618
  0
ARC
  5
381
330
1F
100
AcDbEntity
  8
0
  6
HIDDEN
 62
     7
370
     0
100
AcDbCircle
 10
264.6846000066
 20
60.7554151462
 30
0.0
 40
0.4018139400519801
100
AcDbArc
 50
310.3072723465
 51
49.6927276535
  0
LINE
  5
382
330
1F
100
AcDbEntity
  8
0
  6
HIDDEN
 62
     7
370
     0
100
AcDbLine
 10
255.7569682515
 20
52.6818239974
 30
0.0
 11
264.9445280508
 21
60.4489973689
 31
0.0
  0
LINE
  5
383
330
1F
100
AcDbEntity
  8
0
  6
HIDDEN
 62
     7
370
     0
100
AcDbLine
 10
264.9445280508
 20
61.0618329234
 30
0.0
 11
255.7569682515
 21
68.8290062949
 31
0.0
  0
ARC
  5
384
330
1F
100
AcDbEntity
  8
0
  6
HIDDEN
 62
     7
370
     0
100
AcDbCircle
 10
248.0245741144
 20
60.7554151462
 30
0.0
 40
1.004534850130113
100
AcDbArc
 50
130.3072723465
 51
229.6927276535
  0
ARC
  5
385
330
1F
100
AcDbEntity
  8
0
  6
HIDDEN
 62
     7
370
     0
100
AcDbCircle
 10
247.6735904054
 20
60.7554151462
 30
0.0
 40
1.004534850130115
100
AcDbArc
 50
130.3072723465
 51
229.6927276535
  0
ARC
  5
386
330
1F
100
AcDbEntity
  8
0
  6
HIDDEN
 62
     7
370
     0
100
AcDbCircle
 10
262.8554350782
 20
60.7554151462
 30
0.0
 40
1.004534850130201
100
AcDbArc
 50
310.3072723465
 51
49.6927276535
  0
LINE
  5
387
330
1F
100
AcDbEntity
  8
0
  6
HIDDEN
 62
     7
370
     0
100
AcDbLine
 10
256.0780009646
 20
53.7103616414
 30
0.0
 11
263.5052551889
 21
59.989370703
 31
0.0
  0
ARC
  5
388
330
1F
100
AcDbEntity
  8
0
  6
HIDDEN
 62
     7
370
     0
100
AcDbCircle
 10
255.4400045963
 20
54.4635898821
 30
0.0
 40
0.9871130373959668
100
AcDbArc
 50
229.7348670886
 51
310.2651329114
  0
LINE
  5
389
330
1F
100
AcDbEntity
  8
0
  6
HIDDEN
 62
     7
370
     0
100
AcDbLine
 10
247.3747540036
 20
59.989370703
 30
0.0
 11
254.802008228
 21
53.7103616414
 31
0.0
  0
LINE
  5
38A
330
1F
100
AcDbEntity
  8
0
  6
HIDDEN
 62
     7
370
     0
100
AcDbLine
 10
254.802008228
 20
67.800468651
 30
0.0
 11
247.3747540036
 21
61.5214595893
 31
0.0
  0
ARC
  5
38B
330
1F
100
AcDbEntity
  8
0
  6
HIDDEN
 62
     7
370
     0
100
AcDbCircle
 10
255.4400045963
 20
67.0472404103
 30
0.0
 40
0.9871130373960656
100
AcDbArc
 50
49.7348670886
 51
130.2651329114
  0
LINE
  5
38C
330
1F
100
AcDbEntity
  8
0
  6
HIDDEN
 62
     7
370
     0
100
AcDbLine
 10
263.5052551889
 20
61.5214595893
 30
0.0
 11
256.0780009646
 21
67.800468651
 31
0.0
  0
CIRCLE
  5
38D
330
1F
100
AcDbEntity
  8
0
  6
HIDDEN
 62
     7
370
     0
100
AcDbCircle
 10
255.4620013196
 20
60.7354950896
 30
0.0
 40
3.986588690741066
  0
LINE
  5
38E
330
1F
100
AcDbEntity
  8
0
  6
HIDDEN
 62
     7
370
     0
100
AcDbLine
 10
254.451024519
 20
67.800468651
 30
0.0
 11
247.0237702946
 21
61.5214595893
 31
0.0
  0
LINE
  5
38F
330
1F
100
AcDbEntity
  8
0
  6
HIDDEN
 62
     7
370
     0
100
AcDbLine
 10
247.0237702946
 20
59.989370703
 30
0.0
 11
254.451024519
 21
53.7103616414
 31
0.0
  0
CIRCLE
  5
390
330
1F
100
AcDbEntity
  8
0
  6
HIDDEN
 62
     7
370
     0
100
AcDbCircle
 10
255.289546728
 20
60.7402981622
 30
0.0
 40
3.190420600802466
  0
ARC
  5
391
330
1F
100
AcDbEntity
  8
0
  6
HIDDEN
 62
     7
370
     0
100
AcDbCircle
 10
255.0890208873
 20
67.0472404103
 30
0.0
 40
0.9871130373959712
100
AcDbArc
 50
49.7348670886
 51
130.2651329114
  0
ARC
  5
392
330
1F
100
AcDbEntity
  8
0
  6
HIDDEN
 62
     7
370
     0
100
AcDbCircle
 10
255.0890208873
 20
54.4635898821
 30
0.0
 40
0.9871130373959571
100
AcDbArc
 50
229.7348670886
 51
310.2651329114
  0
CIRCLE
  5
393
330
1F
100
AcDbEntity
  8
0
  6
HIDDEN
 62
     7
370
     0
100
AcDbCircle
 10
255.1975196685
 20
60.7402981622
 30
0.0
 40
3.190420600802514
  0
LINE
  5
394
330
1F
100
AcDbEntity
  8
0
  6
HIDDEN
 62
     7
370
     0
100
AcDbLine
 10
254.6058626264
 20
53.9401749743
 30
0.0
 11
247.1786084021
 21
60.219184036
 31
0.0
  0
LINE
  5
395
330
1F
100
AcDbEntity
  8
0
  6
HIDDEN
 62
     7
370
     0
100
AcDbLine
 10
247.1786084021
 20
61.2916462563
 30
0.0
 11
254.6058626264
 21
67.570655318
 31
0.0
  0
ARC
  5
396
330
1F
100
AcDbEntity
  8
0
  6
HIDDEN
 62
     7
370
     0
100
AcDbCircle
 10
247.6334824796
 20
60.7554151462
 30
0.0
 40
0.703174395090991
100
AcDbArc
 50
130.3072723465
 51
229.6927276535
  0
CIRCLE
  5
397
330
1F
100
AcDbEntity
  8
0
  6
HIDDEN
 62
     7
370
     0
100
AcDbCircle
 10
255.0733569714
 20
60.7364910924
 30
0.0
 40
3.787259256203974
  0
ARC
  5
398
330
1F
100
AcDbEntity
  8
0
  6
HIDDEN
 62
     7
370
     0
100
AcDbCircle
 10
255.0524600843
 20
67.0433955495
 30
0.0
 40
0.6909791261770184
100
AcDbArc
 50
49.7348670886
 51
130.2651329114
  0
ARC
  5
399
330
1F
100
AcDbEntity
  8
0
  6
HIDDEN
 62
     7
370
     0
100
AcDbCircle
 10
255.0524600843
 20
54.4674347428
 30
0.0
 40
0.69097912617704
100
AcDbArc
 50
229.7348670886
 51
310.2651329114
  0
LINE
  5
39A
330
1F
100
AcDbEntity
  8
0
  6
HIDDEN
 62
     7
370
     0
100
AcDbLine
 10
262.9263117664
 20
60.219184036
 30
0.0
 11
255.4990575421
 21
53.9401749743
 31
0.0
  0
LINE
  5
39B
330
1F
100
AcDbEntity
  8
0
  6
HIDDEN
 62
     7
370
     0
100
AcDbLine
 10
255.7270172556
 20
53.7103616414
 30
0.0
 11
263.1542714799
 21
59.989370703
 31
0.0
  0
LINE
  5
39C
330
1F
100
AcDbEntity
  8
0
  6
HIDDEN
 62
     7
370
     0
100
AcDbLine
 10
255.4990575421
 20
67.570655318
 30
0.0
 11
262.9263117664
 21
61.2916462563
 31
0.0
  0
LINE
  5
39D
330
1F
100
AcDbEntity
  8
0
  6
HIDDEN
 62
     7
370
     0
100
AcDbLine
 10
263.1542714799
 20
61.5214595893
 30
0.0
 11
255.7270172556
 21
67.800468651
 31
0.0
  0
ARC
  5
39E
330
1F
100
AcDbEntity
  8
0
  6
HIDDEN
 62
     7
370
     0
100
AcDbCircle
 10
262.4714376889
 20
60.7554151462
 30
0.0
 40
0.703174395091204
100
AcDbArc
 50
310.3072723465
 51
49.6927276535
  0
ARC
  5
39F
330
1F
100
AcDbEntity
  8
0
  6
HIDDEN
 62
     7
370
     0
100
AcDbCircle
 10
262.5044513692
 20
60.7554151462
 30
0.0
 40
1.004534850130086
100
AcDbArc
 50
310.3072723465
 51
49.6927276535
  0
CIRCLE
  5
3A0
330
1F
100
AcDbEntity
  8
0
  6
HIDDEN
 62
     7
370
     0
100
AcDbCircle
 10
202.6664460388
 20
60.7554151462
 30
0.0
 40
2.800000000000005
  0
CIRCLE
  5
3A1
330
1F
100
AcDbEntity
  8
0
  6
HIDDEN
 62
     7
370
     0
100
AcDbCircle
 10
202.6664460388
 20
60.7554151462
 30
0.0
 40
2.480384757729329
  0
LINE
  5
3A2
330
1F
100
AcDbEntity
  8
0
  6
HIDDEN
 62
     7
370
     0
100
AcDbLine
 10
135.6664460388
 20
36.5054151462
 30
0.0
 11
135.7593392576
 21
36.598308365
 31
0.0
  0
LINE
  5
3A3
330
1F
100
AcDbEntity
  8
0
  6
HIDDEN
 62
     7
370
     0
100
AcDbLine
 10
135.7593392576
 20
84.9125219273
 30
0.0
 11
135.6664460388
 21
85.0054151462
 31
0.0
  0
ARC
  5
3A4
330
1F
100
AcDbEntity
  8
0
  6
HIDDEN
 62
     7
370
     0
100
AcDbCircle
 10
135.0522324764
 20
37.3054151462
 30
0.0
 40
1.000000000000018
100
AcDbArc
 50
315.0
 51
0.0
  0
ARC
  5
3A5
330
1F
100
AcDbEntity
  8
0
  6
HIDDEN
 62
     7
370
     0
100
AcDbCircle
 10
135.0522324764
 20
37.3054151462
 30
0.0
 40
1.0
100
AcDbArc
 50
0.0
 51
52.1052014664
  0
ARC
  5
3A6
330
1F
100
AcDbEntity
  8
0
  6
HIDDEN
 62
     7
370
     0
100
AcDbCircle
 10
135.0522324764
 20
84.2054151462
 30
0.0
 40
0.9999999999999779
100
AcDbArc
 50
351.8087250651
 51
45.0
  0
ARC
  5
3A7
330
1F
100
AcDbEntity
  8
0
  6
HIDDEN
 62
     7
370
     0
100
AcDbCircle
 10
135.0522324764
 20
84.2054151462
 30
0.0
 40
0.9999999999999827
100
AcDbArc
 50
307.8947985337
 51
351.8087250651
  0
LINE
  5
3A8
330
1F
100
AcDbEntity
  8
0
  6
HIDDEN
 62
     7
370
     0
100
AcDbLine
 10
136.0522324764
 20
37.3054151462
 30
0.0
 11
136.0522324764
 21
84.2054151462
 31
0.0
  0
LINE
  5
3A9
330
1F
100
AcDbEntity
  8
0
  6
HIDDEN
 62
     7
370
     0
100
AcDbLine
 10
214.730034402
 20
63.2554151462
 30
0.0
 11
202.8967159633
 21
63.2554151462
 31
0.0
  0
LINE
  5
3AA
330
1F
100
AcDbEntity
  8
0
  6
HIDDEN
 62
     7
370
     0
100
AcDbLine
 10
202.8967159633
 20
58.2554151462
 30
0.0
 11
214.730034402
 21
58.2554151462
 31
0.0
  0
LINE
  5
3AB
330
1F
100
AcDbEntity
  8
0
  6
HIDDEN
 62
     7
370
     0
100
AcDbLine
 10
97.6664460388
 20
44.5589863017
 30
0.0
 11
99.1966744784
 21
45.4424641032
 31
0.0
  0
LINE
  5
3AC
330
1F
100
AcDbEntity
  8
0
  6
HIDDEN
 62
     7
370
     0
100
AcDbLine
 10
99.1966744784
 20
76.0683661891
 30
0.0
 11
97.6664460388
 21
76.9518439906
 31
0.0
  0
ARC
  5
3AD
330
1F
100
AcDbEntity
  8
0
  6
HIDDEN
 62
     7
370
     0
100
AcDbCircle
 10
107.6664460388
 20
46.7554151462
 30
0.0
 40
2.0
100
AcDbArc
 50
189.9742217944
 51
270.0
  0
ARC
  5
3AE
330
1F
100
AcDbEntity
  8
0
  6
HIDDEN
 62
     7
370
     0
100
AcDbCircle
 10
107.6664460388
 20
74.7554151462
 30
0.0
 40
2.000000000000024
100
AcDbArc
 50
90.0
 51
170.0257782056
  0
ARC
  5
3AF
330
1F
100
AcDbEntity
  8
0
  6
HIDDEN
 62
     7
370
     0
100
AcDbCircle
 10
108.6682473537
 20
46.7554151462
 30
0.0
 40
2.000000000000016
100
AcDbArc
 50
270.0
 51
315.0
  0
ARC
  5
3B0
330
1F
100
AcDbEntity
  8
0
  6
HIDDEN
 62
     7
370
     0
100
AcDbCircle
 10
108.6682473537
 20
74.7554151462
 30
0.0
 40
2.000000000000016
100
AcDbArc
 50
45.0
 51
90.0
  0
LINE
  5
3B1
330
1F
100
AcDbEntity
  8
0
  6
HIDDEN
 62
     7
370
     0
100
AcDbLine
 10
107.6664460388
 20
44.7554151462
 30
0.0
 11
108.6682473537
 21
44.7554151462
 31
0.0
  0
LINE
  5
3B2
330
1F
100
AcDbEntity
  8
0
  6
HIDDEN
 62
     7
370
     0
100
AcDbLine
 10
108.6682473537
 20
76.7554151462
 30
0.0
 11
107.6664460388
 21
76.7554151462
 31
0.0
  0
LINE
  5
3B3
330
1F
100
AcDbEntity
  8
0
  6
HIDDEN
 62
     7
370
     0
100
AcDbLine
 10
110.0824609161
 20
45.3412015838
 30
0.0
 11
111.4966744784
 21
46.7554151462
 31
0.0
  0
LINE
  5
3B4
330
1F
100
AcDbEntity
  8
0
  6
HIDDEN
 62
     7
370
     0
100
AcDbLine
 10
111.4966744784
 20
74.7554151462
 30
0.0
 11
110.0824609161
 21
76.1696287085
 31
0.0
  0
LINE
  5
3B5
330
1F
100
AcDbEntity
  8
0
  6
HIDDEN
 62
     7
370
     0
100
AcDbLine
 10
99.1966744784
 20
45.4424641032
 30
0.0
 11
104.0966744784
 21
46.7554151462
 31
0.0
  0
LINE
  5
3B6
330
1F
100
AcDbEntity
  8
0
  6
HIDDEN
 62
     7
370
     0
100
AcDbLine
 10
104.0966744784
 20
74.7554151462
 30
0.0
 11
99.1966744784
 21
76.0683661891
 31
0.0
  0
LINE
  5
3B7
330
1F
100
AcDbEntity
  8
0
  6
HIDDEN
 62
     7
370
     0
100
AcDbLine
 10
105.6966744784
 20
75.1018253077
 30
0.0
 11
105.0966744784
 21
74.7554151462
 31
0.0
  0
LINE
  5
3B8
330
1F
100
AcDbEntity
  8
0
  6
HIDDEN
 62
     7
370
     0
100
AcDbLine
 10
105.0966744784
 20
46.7554151462
 30
0.0
 11
105.6966744784
 21
46.4090049846
 31
0.0
  0
ARC
  5
3B9
330
1F
100
AcDbEntity
  8
0
  6
HIDDEN
 62
     7
370
     0
100
AcDbCircle
 10
124.1664460388
 20
47.2554151462
 30
0.0
 40
0.5000000000000142
100
AcDbArc
 50
270.0
 51
0.0
  0
ARC
  5
3BA
330
1F
100
AcDbEntity
  8
0
  6
HIDDEN
 62
     7
370
     0
100
AcDbCircle
 10
124.1664460388
 20
74.2554151462
 30
0.0
 40
0.5
100
AcDbArc
 50
0.0
 51
90.0
  0
LINE
  5
3BB
330
1F
100
AcDbEntity
  8
0
  6
HIDDEN
 62
     7
370
     0
100
AcDbLine
 10
104.0966744784
 20
46.7554151462
 30
0.0
 11
105.0966744784
 21
46.7554151462
 31
0.0
  0
LINE
  5
3BC
330
1F
100
AcDbEntity
  8
0
  6
HIDDEN
 62
     7
370
     0
100
AcDbLine
 10
105.0966744784
 20
74.7554151462
 30
0.0
 11
104.0966744784
 21
74.7554151462
 31
0.0
  0
LINE
  5
3BD
330
1F
100
AcDbEntity
  8
0
  6
HIDDEN
 62
     7
370
     0
100
AcDbLine
 10
111.4966744784
 20
46.7554151462
 30
0.0
 11
124.1664460388
 21
46.7554151462
 31
0.0
  0
LINE
  5
3BE
330
1F
100
AcDbEntity
  8
0
  6
HIDDEN
 62
     7
370
     0
100
AcDbLine
 10
124.1664460388
 20
74.7554151462
 30
0.0
 11
111.4966744784
 21
74.7554151462
 31
0.0
  0
LINE
  5
3BF
330
1F
100
AcDbEntity
  8
0
  6
HIDDEN
 62
     7
370
     0
100
AcDbLine
 10
124.6664460388
 20
50.5054151462
 30
0.0
 11
125.9164460388
 21
51.7554151462
 31
0.0
  0
LINE
  5
3C0
330
1F
100
AcDbEntity
  8
0
  6
HIDDEN
 62
     7
370
     0
100
AcDbLine
 10
125.9164460388
 20
69.7554151462
 30
0.0
 11
124.6664460388
 21
71.0054151462
 31
0.0
  0
LINE
  5
3C1
330
1F
100
AcDbEntity
  8
0
  6
HIDDEN
 62
     7
370
     0
100
AcDbLine
 10
162.6664460388
 20
69.7554151462
 30
0.0
 11
125.9164460388
 21
69.7554151462
 31
0.0
  0
LINE
  5
3C2
330
1F
100
AcDbEntity
  8
0
  6
HIDDEN
 62
     7
370
     0
100
AcDbLine
 10
125.9164460388
 20
51.7554151462
 30
0.0
 11
162.6664460388
 21
51.7554151462
 31
0.0
  0
LINE
  5
3C3
330
1F
100
AcDbEntity
  8
0
  6
HIDDEN
 62
     7
370
     0
100
AcDbLine
 10
162.6664460388
 20
51.7554151462
 30
0.0
 11
165.5205339792
 21
56.5054151462
 31
0.0
  0
LINE
  5
3C4
330
1F
100
AcDbEntity
  8
0
  6
HIDDEN
 62
     7
370
     0
100
AcDbLine
 10
165.5205339792
 20
65.0054151462
 30
0.0
 11
162.6664460388
 21
69.7554151462
 31
0.0
  0
LINE
  5
3C5
330
1F
100
AcDbEntity
  8
0
  6
HIDDEN
 62
     7
370
     0
100
AcDbLine
 10
206.6664460388
 20
65.0054151462
 30
0.0
 11
165.5205339792
 21
65.0054151462
 31
0.0
  0
LINE
  5
3C6
330
1F
100
AcDbEntity
  8
0
  6
HIDDEN
 62
     7
370
     0
100
AcDbLine
 10
165.5205339792
 20
56.5054151462
 30
0.0
 11
206.6664460388
 21
56.5054151462
 31
0.0
  0
LINE
  5
3C7
330
1F
100
AcDbEntity
  8
0
  6
HIDDEN
 62
     7
370
     0
100
AcDbLine
 10
206.6664460388
 20
56.5054151462
 30
0.0
 11
209.2201036697
 21
60.7554151462
 31
0.0
  0
LINE
  5
3C8
330
1F
100
AcDbEntity
  8
0
  6
HIDDEN
 62
     7
370
     0
100
AcDbLine
 10
209.2201036697
 20
60.7554151462
 30
0.0
 11
206.6664460388
 21
65.0054151462
 31
0.0
  0
LINE
  5
3C9
330
1F
100
AcDbEntity
  8
0
  6
HIDDEN
 62
     7
370
     0
100
AcDbLine
 10
244.4083376765
 20
58.8459013959
 30
0.0
 11
243.9111841735
 21
58.8459013959
 31
0.0
  0
LINE
  5
3CA
330
1F
100
AcDbEntity
  8
0
  6
HIDDEN
 62
     7
370
     0
100
AcDbLine
 10
243.9111841735
 20
51.8459013959
 30
0.0
 11
244.4083376765
 21
51.8459013959
 31
0.0
  0
LINE
  5
3CB
330
1F
100
AcDbEntity
  8
0
  6
HIDDEN
 62
     7
370
     0
100
AcDbLine
 10
247.3744005373
 20
65.2141800289
 30
0.0
 11
246.8016146233
 21
65.2141800289
 31
0.0
  0
LINE
  5
3CC
330
1F
100
AcDbEntity
  8
0
  6
HIDDEN
 62
     7
370
     0
100
AcDbLine
 10
247.2638245323
 20
54.5171627837
 30
0.0
 11
251.3041811218
 21
56.077142137
 31
0.0
  0
LINE
  5
3CD
330
1F
100
AcDbEntity
  8
0
  6
HIDDEN
 62
     7
370
     0
100
AcDbLine
 10
243.8599256312
 20
59.5459013959
 30
0.0
 11
240.3191010588
 21
59.5459013959
 31
0.0
  0
LINE
  5
3CE
330
1F
100
AcDbEntity
  8
0
  6
HIDDEN
 62
     7
370
     0
100
AcDbLine
 10
240.5031674523
 20
51.1459013959
 30
0.0
 11
243.8599256312
 21
51.1459013959
 31
0.0
  0
LINE
  5
3CF
330
1F
100
AcDbEntity
  8
0
  6
HIDDEN
 62
     7
370
     0
100
AcDbLine
 10
246.9611137154
 20
65.1556911397
 30
0.0
 11
246.6028178458
 21
65.1556911397
 31
0.0
  0
LINE
  5
3D0
330
1F
100
AcDbEntity
  8
0
  6
HIDDEN
 62
     7
370
     0
100
AcDbLine
 10
255.0524600843
 20
63.9554151462
 30
0.0
 11
254.3699917612
 21
63.9554151462
 31
0.0
  0
LINE
  5
3D1
330
1F
100
AcDbEntity
  8
0
  6
HIDDEN
 62
     7
370
     0
100
AcDbLine
 10
254.3699917612
 20
57.5554151462
 30
0.0
 11
255.0524600843
 21
57.5554151462
 31
0.0
  0
LINE
  5
3D2
330
1F
100
AcDbEntity
  8
0
  6
HIDDEN
 62
     7
370
     0
100
AcDbLine
 10
251.7994613325
 20
62.1608744904
 30
0.0
 11
248.0520717526
 21
60.7140095309
 31
0.0
  0
LINE
  5
3D3
330
1F
100
AcDbEntity
  8
0
  6
HIDDEN
 62
     7
370
     0
100
AcDbLine
 10
243.7933121983
 20
51.3459013959
 30
0.0
 11
244.4083376765
 21
51.3459013959
 31
0.0
  0
LINE
  5
3D4
330
1F
100
AcDbEntity
  8
0
  6
HIDDEN
 62
     7
370
     0
100
AcDbLine
 10
244.4083376765
 20
59.3459013959
 30
0.0
 11
243.7933121983
 21
59.3459013959
 31
0.0
  0
LINE
  5
3D5
330
1F
100
AcDbEntity
  8
0
  6
HIDDEN
 62
     7
370
     0
100
AcDbLine
 10
243.567439207
 20
52.1459013959
 30
0.0
 11
243.650507528
 21
52.1459013959
 31
0.0
  0
LINE
  5
3D6
330
1F
100
AcDbEntity
  8
0
  6
HIDDEN
 62
     7
370
     0
100
AcDbLine
 10
243.650507528
 20
58.5459013959
 30
0.0
 11
243.567439207
 21
58.5459013959
 31
0.0
  0
LINE
  5
3D7
330
1F
100
AcDbEntity
  8
0
  6
HIDDEN
 62
     7
370
     0
100
AcDbLine
 10
243.2624051048
 20
51.3959013959
 30
0.0
 11
243.4943176009
 21
51.3959013959
 31
0.0
  0
LINE
  5
3D8
330
1F
100
AcDbEntity
  8
0
  6
HIDDEN
 62
     7
370
     0
100
AcDbLine
 10
243.4943176009
 20
59.2959013959
 30
0.0
 11
243.2624051048
 21
59.2959013959
 31
0.0
  0
LINE
  5
3D9
330
1F
100
AcDbEntity
  8
0
  6
HIDDEN
 62
     7
370
     0
100
AcDbLine
 10
242.8068156988
 20
53.5709013959
 30
0.0
 11
243.1093692811
 21
53.5709013959
 31
0.0
  0
LINE
  5
3DA
330
1F
100
AcDbEntity
  8
0
  6
HIDDEN
 62
     7
370
     0
100
AcDbLine
 10
243.1093692811
 20
57.1209013959
 30
0.0
 11
242.8068156988
 21
57.1209013959
 31
0.0
  0
LINE
  5
3DB
330
1F
100
AcDbEntity
  8
0
  6
HIDDEN
 62
     7
370
     0
100
AcDbLine
 10
242.4340543133
 20
51.3959013959
 30
0.0
 11
242.6537798752
 21
51.3959013959
 31
0.0
  0
LINE
  5
3DC
330
1F
100
AcDbEntity
  8
0
  6
HIDDEN
 62
     7
370
     0
100
AcDbLine
 10
242.6537798752
 20
59.2959013959
 30
0.0
 11
242.4340543133
 21
59.2959013959
 31
0.0
  0
LINE
  5
3DD
330
1F
100
AcDbEntity
  8
0
  6
HIDDEN
 62
     7
370
     0
100
AcDbLine
 10
254.2955552405
 20
58.4307257038
 30
0.0
 11
254.6929069965
 21
58.3129519404
 31
0.0
  0
LINE
  5
3DE
330
1F
100
AcDbEntity
  8
0
  6
HIDDEN
 62
     7
370
     0
100
AcDbLine
 10
254.6401357696
 20
62.9554151462
 30
0.0
 11
254.5284219076
 21
62.9554151462
 31
0.0
  0
SPLINE
  5
3DF
330
1F
100
AcDbEntity
  8
0
  6
HIDDEN
 62
     7
370
     0
100
AcDbSpline
210
0.0
220
0.0
230
1.0
 70
     8
 71
     3
 72
    10
 73
     6
 74
     0
 42
0.00000001
 43
0.00000001
 12
1.0
 22
0.0
 32
0.0
 13
1.0
 23
0.0
 33
0.0
 40
0.0
 40
0.0
 40
0.0
 40
0.0
 40
0.1959841259540517
 40
0.7558313991847353
 40
1.0
 40
1.0
 40
1.0
 40
1.0
 10
255.4589674340844
 20
58.40380785570463
 30
0.0
 10
255.388740379527
 20
58.38905026825484
 30
0.0
 10
255.1179030724321
 20
58.33213623036291
 30
0.0
 10
254.7407784193142
 20
58.31398898045354
 30
0.0
 10
254.4599391646179
 20
58.40350775500173
 30
0.0
 10
254.374652132251
 20
58.4306933798553
 30
0.0
  0
LINE
  5
3E0
330
1F
100
AcDbEntity
  8
0
  6
HIDDEN
 62
     7
370
     0
100
AcDbLine
 10
254.5284219076
 20
63.6554151462
 30
0.0
 11
254.3699917612
 21
63.6554151462
 31
0.0
  0
LINE
  5
3E1
330
1F
100
AcDbEntity
  8
0
  6
HIDDEN
 62
     7
370
     0
100
AcDbLine
 10
256.0818677788
 20
63.3354151462
 30
0.0
 11
255.5017697042
 21
63.3354151462
 31
0.0
  0
LINE
  5
3E2
330
1F
100
AcDbEntity
  8
0
  6
HIDDEN
 62
     7
370
     0
100
AcDbLine
 10
255.5017697042
 20
58.1754151462
 30
0.0
 11
256.0818677788
 21
58.1754151462
 31
0.0
  0
LINE
  5
3E3
330
1F
100
AcDbEntity
  8
0
  6
HIDDEN
 62
     7
370
     0
100
AcDbLine
 10
255.4400045963
 20
68.0344242079
 30
0.0
 11
255.0890208873
 21
68.0344242079
 31
0.0
  0
LINE
  5
3E4
330
1F
100
AcDbEntity
  8
0
  6
HIDDEN
 62
     7
370
     0
100
AcDbLine
 10
255.0890208873
 20
53.4764060845
 30
0.0
 11
255.4400045963
 21
53.4764060845
 31
0.0
  0
LINE
  5
3E5
330
1F
100
AcDbEntity
  8
0
  6
HIDDEN
 62
     7
370
     0
100
AcDbLine
 10
255.2711374806
 20
63.9554151462
 30
0.0
 11
255.1791104211
 21
63.9554151462
 31
0.0
  0
LINE
  5
3E6
330
1F
100
AcDbEntity
  8
0
  6
HIDDEN
 62
     7
370
     0
100
AcDbLine
 10
255.1791104211
 20
57.5554151462
 30
0.0
 11
255.2711374806
 21
57.5554151462
 31
0.0
  0
DIMENSION
  5
3E7
330
1F
100
AcDbEntity
  8
VERMASSUNG
100
AcDbDimension
  2
_D_2
 10
87.6664460388
 20
29.2554151462
 30
0.0
 11
87.6664460388
 21
60.7554151462
 31
0.0
 70
   160
  1
PSC%%c<>
 71
     2
 42
-1.0
  3
SLDDIMSTYLE1
100
AcDbAlignedDimension
 13
136.1664460388
 23
92.2554151462
 33
0.0
 14
136.1664460388
 24
29.2554151462
 34
0.0
 50
90.0
100
AcDbRotatedDimension
  0
LINE
  5
3F3
330
1F
100
AcDbEntity
  8
VERMASSUNG
  6
CENTERX2
370
     0
100
AcDbLine
 10
95.1702090596
 20
60.7554151462
 30
0.0
 11
272.0229857816
 21
60.7554151462
 31
0.0
  0
OLE2FRAME
  5
3F4
330
1F
100
AcDbEntity
  8
0
100
AcDbOle2Frame
 70
     2
  3
Paintbrush-Bild
 10
13.8511154363
 20
38.264191557
 30
0.0
 11
51.6290888628
 21
31.9806341108
 31
0.0
 71
     2
 72
     0
 73
     1
 90
    12928
310
80552BED0767C5B32B40DDAF6807D121434000000000000000006FFBDDFB85D0
310
4940DDAF6807D121434000000000000000006FFBDDFB85D04940416F4BD60AFB
310
3F4000000000000000002BED0767C5B32B40416F4BD60AFB3F40000000000000
310
0000000000000100000000010000010000000100000000000100000000320000
310
D0CF11E0A1B11AE1000000000000000000000000000000003E000300FEFF0900
310
0600000000000000000000000100000001000000000000000010000002000000
310
01000000FEFFFFFF0000000000000000FFFFFFFFFFFFFFFFFFFFFFFFFFFFFFFF
310
FFFFFFFFFFFFFFFFFFFFFFFFFFFFFFFFFFFFFFFFFFFFFFFFFFFFFFFFFFFFFFFF
310
FFFFFFFFFFFFFFFFFFFFFFFFFFFFFFFFFFFFFFFFFFFFFFFFFFFFFFFFFFFFFFFF
310
FFFFFFFFFFFFFFFFFFFFFFFFFFFFFFFFFFFFFFFFFFFFFFFFFFFFFFFFFFFFFFFF
310
FFFFFFFFFFFFFFFFFFFFFFFFFFFFFFFFFFFFFFFFFFFFFFFFFFFFFFFFFFFFFFFF
310
FFFFFFFFFFFFFFFFFFFFFFFFFFFFFFFFFFFFFFFFFFFFFFFFFFFFFFFFFFFFFFFF
310
FFFFFFFFFFFFFFFFFFFFFFFFFFFFFFFFFFFFFFFFFFFFFFFFFFFFFFFFFFFFFFFF
310
FFFFFFFFFFFFFFFFFFFFFFFFFFFFFFFFFFFFFFFFFFFFFFFFFFFFFFFFFFFFFFFF
310
FFFFFFFFFFFFFFFFFFFFFFFFFFFFFFFFFFFFFFFFFFFFFFFFFFFFFFFFFFFFFFFF
310
FFFFFFFFFFFFFFFFFFFFFFFFFFFFFFFFFFFFFFFFFFFFFFFFFFFFFFFFFFFFFFFF
310
FFFFFFFFFFFFFFFFFFFFFFFFFFFFFFFFFFFFFFFFFFFFFFFFFFFFFFFFFFFFFFFF
310
FFFFFFFFFFFFFFFFFFFFFFFFFFFFFFFFFFFFFFFFFFFFFFFFFFFFFFFFFFFFFFFF
310
FFFFFFFFFFFFFFFFFFFFFFFFFFFFFFFFFFFFFFFFFFFFFFFFFFFFFFFFFFFFFFFF
310
FFFFFFFFFFFFFFFFFFFFFFFFFFFFFFFFFFFFFFFFFFFFFFFFFFFFFFFFFFFFFFFF
310
FDFFFFFFFEFFFFFFFEFFFFFFFEFFFFFF05000000060000000700000008000000
310
090000000A0000000B0000000C0000000D0000000E0000000F00000010000000
310
11000000120000001300000014000000150000001600000017000000FEFFFFFF
310
FFFFFFFFFFFFFFFFFFFFFFFFFFFFFFFFFFFFFFFFFFFFFFFFFFFFFFFFFFFFFFFF
310
FFFFFFFFFFFFFFFFFFFFFFFFFFFFFFFFFFFFFFFFFFFFFFFFFFFFFFFFFFFFFFFF
310
FFFFFFFFFFFFFFFFFFFFFFFFFFFFFFFFFFFFFFFFFFFFFFFFFFFFFFFFFFFFFFFF
310
FFFFFFFFFFFFFFFFFFFFFFFFFFFFFFFFFFFFFFFFFFFFFFFFFFFFFFFFFFFFFFFF
310
FFFFFFFFFFFFFFFFFFFFFFFFFFFFFFFFFFFFFFFFFFFFFFFFFFFFFFFFFFFFFFFF
310
FFFFFFFFFFFFFFFFFFFFFFFFFFFFFFFFFFFFFFFFFFFFFFFFFFFFFFFFFFFFFFFF
310
FFFFFFFFFFFFFFFFFFFFFFFFFFFFFFFFFFFFFFFFFFFFFFFFFFFFFFFFFFFFFFFF
310
FFFFFFFFFFFFFFFFFFFFFFFFFFFFFFFFFFFFFFFFFFFFFFFFFFFFFFFFFFFFFFFF
310
FFFFFFFFFFFFFFFFFFFFFFFFFFFFFFFFFFFFFFFFFFFFFFFFFFFFFFFFFFFFFFFF
310
FFFFFFFFFFFFFFFFFFFFFFFFFFFFFFFFFFFFFFFFFFFFFFFFFFFFFFFFFFFFFFFF
310
FFFFFFFFFFFFFFFFFFFFFFFFFFFFFFFFFFFFFFFFFFFFFFFFFFFFFFFFFFFFFFFF
310
FFFFFFFFFFFFFFFFFFFFFFFFFFFFFFFFFFFFFFFFFFFFFFFFFFFFFFFFFFFFFFFF
310
FFFFFFFFFFFFFFFFFFFFFFFFFFFFFFFFFFFFFFFFFFFFFFFFFFFFFFFFFFFFFFFF
310
52006F006F007400200045006E00740072007900000000000000000000000000
310
0000000000000000000000000000000000000000000000000000000000000000
310
16000500FFFFFFFFFFFFFFFF020000000A00030000000000C000000000000046
310
00000000000000000000000030FEEF5EB639CD0103000000C000000000000000
310
01004F006C006500000000000000000000000000000000000000000000000000
310
0000000000000000000000000000000000000000000000000000000000000000
310
0A000200FFFFFFFFFFFFFFFFFFFFFFFF00000000000000000000000000000000
310
0000000000000000000000000000000000000000000000001400000000000000
310
010043006F006D0070004F0062006A0000000000000000000000000000000000
310
0000000000000000000000000000000000000000000000000000000000000000
310
120002010100000003000000FFFFFFFF00000000000000000000000000000000
310
0000000000000000000000000000000000000000010000004D00000000000000
310
01004F006C006500310030004E00610074006900760065000000000000000000
310
0000000000000000000000000000000000000000000000000000000000000000
310
1A000200FFFFFFFFFFFFFFFFFFFFFFFF00000000000000000000000000000000
310
0000000000000000000000000000000000000000040000002426000000000000
310
FEFFFFFF02000000FEFFFFFFFFFFFFFFFFFFFFFFFFFFFFFFFFFFFFFFFFFFFFFF
310
FFFFFFFFFFFFFFFFFFFFFFFFFFFFFFFFFFFFFFFFFFFFFFFFFFFFFFFFFFFFFFFF
310
FFFFFFFFFFFFFFFFFFFFFFFFFFFFFFFFFFFFFFFFFFFFFFFFFFFFFFFFFFFFFFFF
310
FFFFFFFFFFFFFFFFFFFFFFFFFFFFFFFFFFFFFFFFFFFFFFFFFFFFFFFFFFFFFFFF
310
FFFFFFFFFFFFFFFFFFFFFFFFFFFFFFFFFFFFFFFFFFFFFFFFFFFFFFFFFFFFFFFF
310
FFFFFFFFFFFFFFFFFFFFFFFFFFFFFFFFFFFFFFFFFFFFFFFFFFFFFFFFFFFFFFFF
310
FFFFFFFFFFFFFFFFFFFFFFFFFFFFFFFFFFFFFFFFFFFFFFFFFFFFFFFFFFFFFFFF
310
FFFFFFFFFFFFFFFFFFFFFFFFFFFFFFFFFFFFFFFFFFFFFFFFFFFFFFFFFFFFFFFF
310
FFFFFFFFFFFFFFFFFFFFFFFFFFFFFFFFFFFFFFFFFFFFFFFFFFFFFFFFFFFFFFFF
310
FFFFFFFFFFFFFFFFFFFFFFFFFFFFFFFFFFFFFFFFFFFFFFFFFFFFFFFFFFFFFFFF
310
FFFFFFFFFFFFFFFFFFFFFFFFFFFFFFFFFFFFFFFFFFFFFFFFFFFFFFFFFFFFFFFF
310
FFFFFFFFFFFFFFFFFFFFFFFFFFFFFFFFFFFFFFFFFFFFFFFFFFFFFFFFFFFFFFFF
310
FFFFFFFFFFFFFFFFFFFFFFFFFFFFFFFFFFFFFFFFFFFFFFFFFFFFFFFFFFFFFFFF
310
FFFFFFFFFFFFFFFFFFFFFFFFFFFFFFFFFFFFFFFFFFFFFFFFFFFFFFFFFFFFFFFF
310
FFFFFFFFFFFFFFFFFFFFFFFFFFFFFFFFFFFFFFFFFFFFFFFFFFFFFFFFFFFFFFFF
310
FFFFFFFFFFFFFFFFFFFFFFFFFFFFFFFFFFFFFFFFFFFFFFFFFFFFFFFFFFFFFFFF
310
0100000200000000000000000000000000000000000000000000000000000000
310
0000000000000000000000000000000000000000000000000000000000000000
310
0100FEFF030A0000FFFFFFFF0A00030000000000C00000000000004607000000
310
5042727573680007000000504272757368000700000050427275736800F439B2
310
7100000000000000000000000000000000000000000000000000000000000000
310
0000000000000000000000000000000000000000000000000000000000000000
310
0000000000000000000000000000000000000000000000000000000000000000
310
0000000000000000000000000000000000000000000000000000000000000000
310
0000000000000000000000000000000000000000000000000000000000000000
310
0000000000000000000000000000000000000000000000000000000000000000
310
0000000000000000000000000000000000000000000000000000000000000000
310
0000000000000000000000000000000000000000000000000000000000000000
310
0000000000000000000000000000000000000000000000000000000000000000
310
0000000000000000000000000000000000000000000000000000000000000000
310
0000000000000000000000000000000000000000000000000000000000000000
310
0000000000000000000000000000000000000000000000000000000000000000
310
20260000424D0E260000000000003E00000028000000B40200006E0000000100
310
01000000000000000000130B0000130B00000200000002000000000000FFFFFF
310
FFFFFFFFFFFFFFFFFFFFFFFFFFFFFFFFFFFFFFFFFFFFFFFFFFFFFFFFFFFFFFFF
310
FFFFFFFFFFFFFFFFFFFFFFFFFFFFFFFFFFFFFFFFFFFFFFFFFFFFFFFFFFFFFFFF
310
FFFFFFFFFFFFFFFFFFFFFFFFFFFFFFFFFFFFFFFFFFFFFFFFF000FFFFFFFFFFFF
310
FFFFFFFFFFFFFFFFFFFFFFFFFFFFFFFFFFFFFFFFFFFFFFFFFFFFFFFFFFFFFFFF
310
FFFFFFFFFFFFFFFFFFFFFFFFFFFFFFFFFFFFFFFFFFFFFFFFFFFFFFFFFFFFFFFF
310
FFFFFFFFFFFFFFFFFFFFFFFFFFFFFFFFF000FFFFFFFFFFFFFFFFFFFFFFFFFFFF
310
FFFFFFFFFFFFFFFFFFFFFFFFFFFFFFFFFFFFFFFFFFFFFFFFFFFFFFFFFFFFFFFF
310
FFFFFFFFFFFFFFFFFFFFFFFFFFFFFFFFFFFFFFFFFFFFFFFFFFFFFFFFFFFFFFFF
310
FFFFFFFFFFFFFFFFF000FFFFFFFFFFFFFFFFFFFFFFFFFFFFFFFFFFFFFFFFFFFF
310
FFFFFFFFFFFFFFFFFFFFFFFFFFFFFFFFFFFFFFFFFFFFFFFFFFFFFFFFFFFFFFFF
310
FFFFFFFFFFFFFFFFFFFFFFFFFFFFFFFFFFFFFFFFFFFFFFFFFFFFFFFFFFFFFFFF
310
F000FFFFFFFFFFFFFFFFFFFFFFFFFFFFFFFFFFFFFFFFFFFFFFFFFFFFFFFFFFFF
310
FFFFFFFFFFFFFFFFFFFFFFFFFFFFFFFFFFFFFFFFFFFFFFFFFFFFFFFFFFFFFFFF
310
FFFFFFFFFFFFFFFFFFFFFFFFFFFFFFFFFFFFFFFFFFFFFFFFF000FFFFFFFFFFFF
310
FFFFFFFFFFFFFFFFFFFFFFFFFFFFFFFFFFFFFFFFFFFFFFFFFFFFFFFFFFFFFFFF
310
FFFFFFFFFFFFFFFFFFFFFFFFFFFFFFFFFFFFFFFFFFFFFFFFFFFFFFFFFFFFFFFF
310
FFFFFFFFFFFFFFFFFFFFFFFFFFFFFFFFF000FFFFFFFFFFFFFFFFFFFFFFFFFFFF
310
FFFFFFFFFFFFFFFFFFFFFFFFFFFFFFFFFFFFFFFFFFFFFFFFFFFFFFFFFFFFFFFF
310
FFFFFFFFFFFFFFFFFFFFFFFFFFFFFFFFFFFFFFFFFFFFFFFFFFFFFFFFFFFFFFFF
310
FFFFFFFFFFFFFFFFF000FFFFFFFFFFFFFFFFFFFFFFFFFFFFFFFFFFFFFFFFFFFF
310
FFFFFFFFFFFFFFFFFFFFFFFFFFFFFFFFFFFFFFFFFFFFFFFFFFFFFFFFFFFFFFFF
310
FFFFFFFFFFFFFFFFFFFFFFFFFFFFFFFFFFFFFFFFFFFFFFFFFFFFFFFFFFFFFFFF
310
F000FFFFFFFFFFFFFFFFFFFFFFFFFFFFFFFFFFFFFFFFFFFFFFFFFFFFFFFFFFFF
310
FFFFFFFFFFFFFFFFFFFFFFFFFFFFFFFFFFFFFFFFFFFFFFFFFFFFFFFFFFFFFFFF
310
FFFFFFFFFFFFFFFFFFFFFFFFFFFFFFFFFFFFFFFFFFFFFFFFF000FFFFFFFFFFFF
310
FFFFFFFFFFFFFFFFFFFFFFFFFFFFFFFFFFFFFFFFFFFFFFFFFFFFFFFFFFFFFFFF
310
FFFFFFFFFFFFFFFFFFFFFFFFFFFFFFFFFFFFFFFFFFFFFFFFFFFFFFFFFFFFFFFF
310
FFFFFFFFFFFFFFFFFFFFFFFFFFFFFFFFF000FFFFFFFFFFFFFFFFFFFFFFFFFFFF
310
FFFFFFFFFFFFFFFFFFFFFFFFFFFFFFFFFFFFFFFFFFFFFFFFFFFFFFFFFFFFFFFF
310
FFFFFFFFFFFFFFFFFFFFFFFFFFFFFFFFFFFFFFFFFFFFFFFFFFFFFFFFFFFFFFFF
310
FFFFFFFFFFFFFFFFF000FFFFFFFFFFFFFFFFFFFFFFFFFFFFFFFFFFFFFFFFFFFF
310
FFFFFFFFFFFFFFFFFFFFFFFFFFFFFFFFFFFFFFFFFFFFFFFFFFFFFFFFFFFFFFFF
310
FFFFFFFFFFFFFFFFFFFFFFFFFFFFFFFFFFFFFFFFFFFFFFFFFFFFFFFFFFFFFFFF
310
F000FFFFFFFFFFFFFFFFFFFFFFFFFFFFFFFFFFFFFFFFFFFFFFFFFFFFFFFFFFFF
310
FFFFFFFFFFFFFFFFFFFFFFFFFFFFFFFFFFFFFFFFFFFFFFFFFFFFFFFFFFFFFFFF
310
FFFFFFFFFFFFFFFFFFFFFFFFFFFFFFFFFFFFFFFFFFFFFFFFF000FFFFFFFFFFFF
310
FFFFFFFFFFFFFFFFFFFFFFFFFFFFFFFFFFFFFFFFFFFFFFFFFFFFFFFFFFFFFFFF
310
FFFFFFFFFFFFFFFFFFFFFFFFFFFFFFFFFFFFFFFFFFFFFFFFFFFFFFFFFFFFFFFF
310
FFFFFFFFFFFFFFFFFFFFFFFFFFFFFFFFF000FFFFFFFFFFFFFFFFFFFFFFFFFFFF
310
FFFFFFFFFFFFFFFFFFFFFFFFFFFFFFFFFFFFFFFFFFFFFFFFFFFFFFFFFFFFFFFF
310
FFFFFFFFFFFFFFFFFFFFFFFFFFFFFFFFFFFFFFFFFFFFFFFFFFFFFFFFFFFFFFFF
310
FFFFFFFFFFFFFFFFF000FFFFFFFFFFFFFFFFFFFFFFFFFFFFFFFFFFFFFFFFFFFF
310
FFFFFFFFFFFFFFFFFFFFFFFFFFFFFFFFFFFFFFFFFFFFFFFFFFFFFFFFFFFFFFFF
310
FFFFFFFFFFFFFFFFFFFFFFFFFFFFFFFFFFFFFFFFFFFFFFFFFFFFFFFFFFFFFFFF
310
F000FFFFFFFFFFFFFFFFFFFFFFFFFFFFFFFFFFFFFFFFFFFFFFFFFFFFFFFFFFFF
310
FFFFFFFFFFFFFFFFFFFFFFFFFFFFFFFFFFFFFFFFFFFFFFFFFFFFFFFFFFFFFFFF
310
FFFFFFFFFFFFFFFFFFFFFFFFFFFFFFFFFFFFFFFFFFFFFFFFF000FFFFFFFFFFFF
310
FFFFFFFFFFFFFFFFFFFFFFFFFFFFFFFFFFFFFFFFFFFFFFFFFFFFFFFFFFFFFFFF
310
FFFFFFFFFFFFFFFFFFFFFFFFFFFFFFFFFFFFFFFFFFFFFFFFFFFFFFFFFFFFFFFF
310
FFFFFFFFFFFFFFFFFFFFFFFFFFFFFFFFF000FFFFFFFFFFFFFFFFFFFFFFFFFFFF
310
FFFFFFFFFFFFFFFFFFFFFFFFFFFFFFFFFFFFFFFFFFFFFFFFFFFFFFFFFFFFFFFF
310
FFFFFFFFFFFFFFFFFFFFFFFFFFFFFFFFFFFFFFFFFFFFFFFFFFFFFFFFFFFFFFFF
310
FFFFFFFFFFFFFFFFF000FFFFF80003FFFFFFFFFFFFFFFFFFFFFFFFFFFFFFFFFF
310
FFFFF00007FFFFFFFFFF00007FFFFFF800000000000000007FFFFFFFFFFFFFFF
310
FFFFFFFC001FFFFFFFFFFFFFFC001FFFFFFFFFFFFFFFFFFFFFFFFFFE0007FFFF
310
F000FFFF8000007FFFFFFFF8000FFFFFC0007FFFFF80007FFFFF0000007FFFFF
310
FFF8000007FFFFF800000000000000007FFFFFF0001FFFFFFFFFFFC00001FFFF
310
FFFFFFFFC00001FFFFFFFF000000000003FFFFE000007FFFF000FFFE0000000F
310
FFFFFFF0000FFFFF80007FFFFF80007FFFFC0000001FFFFFFFC0000001FFFFF8
310
00000000000000007FFFFFF0001FFFFFFFFFFE0000003FFFFFFFFFFE0000003F
310
FFFFFF000000000003FFFF0000000FFFF000FFF800000003FFFFFFF00007FFFF
310
80007FFFFF80007FFFF000000007FFFFFF000000003FFFF80000000000000000
310
7FFFFFF0001FFFFFFFFFF80000000FFFFFFFFFF80000000FFFFFFF0000000000
310
03FFFC00000003FFF000FFE000000000FFFFFFF00007FFFF80003FFFFF80007F
310
FFC000000001FFFFFC000000001FFFF800000000000000007FFFFFF0001FFFFF
310
FFFFE000000003FFFFFFFFE000000003FFFFFF000000000003FFF000000000FF
310
F000FF80000000007FFFFFF00007FFFF80003FFFFF80007FFF8000000000FFFF
310
F80000000007FFF800000000000000007FFFFFF0001FFFFFFFFFC000000001FF
310
FFFFFFC000000001FFFFFF000000000003FFC0000000007FF000FF0000000000
310
3FFFFFE00007FFFF00003FFFFF80007FFE00000000003FFFF00000000003FFF8
310
00000000000000007FFFFFF0001FFFFFFFFF8000000000FFFFFFFF8000000000
310
FFFFFF000000000003FF80000000003FF000FE00000000001FFFFFE00003FFFF
310
00003FFFFF80007FFC00000000001FFFE00000000001FFF8000001FFFE000000
310
7FFFFFF0001FFFFFFFFE00000000003FFFFFFE00000000003FFFFF0000000000
310
03FF00000000001FF000FC00000000000FFFFFE00003FFFF00001FFFFF80007F
310
F800000000001FFFC00000000000FFF8000001FFFE0000007FFFFFF0001FFFFF
310
FFFC00000000001FFFFFFC00000000001FFFFF000000000003FE00000000000F
310
F000F8000000000007FFFFE00003FFFF00001FFFFF80007FF800000000000FFF
310
800000000000FFF8000001FFFE0000007FFFFFF0001FFFFFFFF800000000000F
310
FFFFF800000000000FFFFF000000000003FC000000000007F000F80000000000
310
03FFFFC00003FFFE00001FFFFF80007FF0000000000007FF0000000000007FF8
310
000001FFFE0000007FFFFFF0001FFFFFFFF0000000000007FFFFF00000000000
310
07FFFF000000000003F8000000000003F000F0000000000003FFFFC00001FFFE
310
00001FFFFF80007FE0000000000007FE0000000000003FF8000001FFFE000000
310
7FFFFFF0001FFFFFFFF0000000000007FFFFF0000000000007FFFF0000000000
310
03F800001F800003F000E00001FFF00001FFFFC00001FFFE00000FFFFF80007F
310
E00001FFE00003FE00001FFF00003FF8000001FFFE0000007FFFFFF0001FFFFF
310
FFE000003E000003FFFFE000003E000003FFFF000000000003F00001FFF80001
310
F000E00007FFFC0001FFFFC00001FFFE00000FFFFF80007FC0000FFFFC0003FC
310
0000FFFFC0001FF8000001FFFE0000007FFFFFF0001FFFFFFFC00003FFE00001
310
FFFFC00003FFE00001FFFF0001FFFFFFFFF00007FFFE0001F000E0000FFFFF00
310
00FFFF800001FFFC00000FFFFF80007FC0001FFFFE0001FC0001FFFFE0001FF8
310
000001FFFE0000007FFFFFF0001FFFFFFF80000FFFF80000FFFF80000FFFF800
310
00FFFF0003FFFFFFFFE0000FFFFF8000F000C0003FFFFF8000FFFF800000FFFC
310
000007FFFF80007F80003FFFFF0001FC0003FFFFF0001FF8000001FFFE000000
310
7FFFFFF0001FFFFFFF80003FFFFE0000FFFF80003FFFFE0000FFFF0003FFFFFF
310
FFE0003FFFFF8000F000C0003FFFFF8000FFFF800000FFFC000007FFFF80007F
310
80007FFFFF8001F80007FFFFF8000FF8000001FFFE0000007FFFFFF0001FFFFF
310
FF00007FFFFF00007FFF00007FFFFF00007FFF0003FFFFFFFFE0003FFFFFC000
310
F000C0007FFFFFC000FFFF000000FFFC000007FFFF80007F8000FFFFFF8000F8
310
000FFFFFF8000FF8000001FFFE0000007FFFFFF0001FFFFFFF0000FFFFFF8000
310
7FFF0000FFFFFF80007FFF0003FFFFFFFFC0007FFFFFC00070008000FFFFFFC0
310
00FFFF000000FFF8000007FFFF80007F8000FFFFFF8000F8000FFFFFF8000FF8
310
000001FFFE0000007FFFFFF0001FFFFFFE0001FFFFFFC0003FFE0001FFFFFFC0
310
003FFF0003FFFFFFFFC0007FFFFFE00070008000FFFFFFC0007FFF0000007FF8
310
000003FFFF80007F0001FFFFFF8000F8000FFFFFF8000FF8000001FFFE000000
310
7FFFFFF0001FFFFFFE0001FFFFFFC0003FFE0001FFFFFFC0003FFF0003FFFFFF
310
FFC000FFFFFFE00070008000FFFFFFC0007FFF0000007FF8000003FFFF80007F
310
0001FFFFFF8000F8001FFFFFF8000FF8000001FFFE0000007FFFFFF0001FFFFF
310
FE0003FFFFFFE0003FFE0003FFFFFFE0003FFF0003FFFFFFFFC000FFFFFFE000
310
70008000FFFFFFC0007FFE0000007FF8000003FFFF80007F0001FFFFFF8000F0
310
001FFFFFF8000FF8000001FFFE0000007FFFFFF0001FFFFFFC0003FFFFFFE000
310
1FFC0003FFFFFFE0001FFF0003FFFFFFFFC000FFFFFFC00070008000FFFFFF80
310
007FFE0000007FF0000003FFFF80007F0001FFFFFF0000F0001FFFFFF8000FF8
310
000001FFFE0000007FFFFFF0001FFFFFFC0007FFFFFFF0001FFC0007FFFFFFF0
310
001FFF0003FFFFFFFFC000FFFFFFC00070008001FFFFFF0000FFFE0000003FF0
310
000001FFFF80007F0001FFFFFF0000F8001FFFFFF0000FF8000001FFFE000000
310
7FFFFFF0001FFFFFFC0007FFFFFFF0001FFC0007FFFFFFF0001FFF0003FFFFFF
310
FFC001FFFFFF80007000FFFFFFFFFE0000FFFE0008003FF0008001FFFF80007F
310
FFFFFFFFFC0000FFFFFFFFFFE0000FF8000001FFFE0000007FFFFFF0001FFFFF
310
F8000FFFFFFFF8000FF8000FFFFFFFF8000FFF0003FFFFFFFFFFFFFFFFFF0000
310
7000FFFFFFFFFC0000FFFC0008003FF0008001FFFF80007FFFFFFFFFF80001FF
310
FFFFFFFF80000FF8000001FFFE0000007FFFFFF0001FFFFFF8000FFFFFFFF800
310
0FF8000FFFFFFFF8000FFF0003FFFFFFFFFFFFFFFFFE0000F000FFFFFFFFE000
310
00FFFC000C003FE000C001FFFF80007FFFFFFFFFC00001FFFFFFFFFE00001FF8
310
000001FFFE0000007FFFFFF0001FFFFFF8000FFFFFFFF8000FF8000FFFFFFFF8
310
000FFF0003FFFFFFFFFFFFFFFFF00000F000FFFFFFFE000001FFFC000C001FE0
310
00C000FFFF80007FFFFFFFFE000001FFFFFFFFE000001FF80FFFFFFFFFFFFFC0
310
7FFFFFF0001FFFFFF8000FFFFFFFF8000FF8000FFFFFFFF8000FFF0003FFFFFF
310
FFFFFFFFFF800000F000FFFFFFC0000001FFFC001C001FE001C000FFFF80007F
310
FFFFFF80000003FFFFFFF80000001FF80FFFFFFFFFFFFFC07FFFFFF0001FFFFF
310
F8001FFFFFFFFC000FF8001FFFFFFFFC000FFF0003FFFFFFFFFFFFFFF0000001
310
F000FFFFF800000001FFF8001C001FE001C000FFFF80007FFFFFF800000003FF
310
FFFF800000003FF80FFFFFFFFFFFFFC07FFFFFF0001FFFFFF8001FFFFFFFFC00
310
0FF8001FFFFFFFFC000FFF0003FFFFFFFFFFFFFE00000001F000FFFFC0000000
310
03FFF8001E001FC001E000FFFF80007FFFFF8000000007FFFFFC000000003FF8
310
0FFFFFFFFFFFFFC07FFFFFF0001FFFFFF8001FFFFFFFFC000FF8001FFFFFFFFC
310
000FFF0003FFFFFFFFFFFFE000000003F000FFFE0000000007FFF8001E000FC0
310
01E0007FFF80007FFFFE0000000007FFFFE0000000007FF80FFFFFFFFFFFFFC0
310
7FFFFFF0001FFFFFF0001FFFFFFFFC0007F0001FFFFFFFFC0007FF0003FFFFFF
310
FFFFFF0000000003F000FFF80000000007FFF8001E000FC003E0007FFF80007F
310
FFF0000000000FFFFF8000000000FFF80FFFFFFFFFFFFFC07FFFFFF0001FFFFF
310
F0001FFFFFFFFC0007F0001FFFFFFFFC0007FF0003FFFFFFFFFFFC0000000007
310
F000FFE0000000000FFFF0003E000FC003E0007FFF80007FFFC0000000001FFF
310
FE0000000001FFF80FFFFFFFFFFFFFC07FFFFFF0001FFFFFF0001FFFFFFFFC00
310
07F0001FFFFFFFFC0007FF0003FFFFFFFFFFF0000000000FF000FFC000000000
310
1FFFF0003F000F8003F0003FFF80007FFF80000000003FFFF80000000003FFF8
310
0FFFFFFFFFFFFFC07FFFFFF0001FFFFFF0001FFFFFFFFC0007F0001FFFFFFFFC
310
0007FF0003FFFFFFFFFFE0000000001FF000FF00000000007FFFF0003F000780
310
03F0003FFF80007FFF00000000007FFFF00000000007FFF80FFFFFFFFFFFFFC0
310
7FFFFFF0001FFFFFF0001FFFFFFFFC0007F0001FFFFFFFFC0007FF0003FFFFFF
310
FFFF80000000007FF000FE0000000000FFFFE0003F00078007F0003FFF80007F
310
FE0000000001FFFFE0000000001FFFF80FFFFFFFFFFFFFC07FFFFFF0001FFFFF
310
F0001FFFFFFFFC0007F0001FFFFFFFFC0007FF0003FFFFFFFFFF0000000000FF
310
F000FC0000000003FFFFE0007F00078007F0003FFF80007FFC0000000007FFFF
310
C0000000007FFFF80FFFFFFFFFFFFFC07FFFFFF0001FFFFFF8001FFFFFFFFC00
310
0FF8001FFFFFFFFC000FFF0003FFFFFFFFFE0000000003FFF000FC000000000F
310
FFFFE0007F80070007F8001FFF80007FF8000000001FFFFF8000000001FFFFF8
310
0FFFFFFFFFFFFFC07FFFFFF0001FFFFFF8001FFFFFFFFC000FF8001FFFFFFFFC
310
000FFF0003FFFFFFFFFC000000000FFFF000F8000000007FFFFFE0007F800700
310
07F8001FFF80007FF000000000FFFFFF800000000FFFFFF80FFFFFFFFFFFFFC0
310
7FFFFFF0001FFFFFF8000FFFFFFFF8000FF8000FFFFFFFF8000FFF0003FFFFFF
310
FFFC000000007FFFF000F800000007FFFFFFC0007F8003000FF8001FFF80007F
310
F000000007FFFFFF000000007FFFFFF80FFFFFFFFFFFFFC07FFFFFF0001FFFFF
310
F8000FFFFFFFF8000FF8000FFFFFFFF8000FFF0003FFFFFFFFF80000000FFFFF
310
F000F0000000FFFFFFFFC000FF8003000FF8001FFF80007FE0000000FFFFFFFF
310
0000000FFFFFFFF8000001FFFE0000007FFFFFF0001FFFFFF8000FFFFFFFF800
310
0FF8000FFFFFFFF8000FFF0003FFFFFFFFF8000000FFFFFFF000F000000FFFFF
310
FFFFC000FFC002000FF8000FFF80007FE000001FFFFFFFFE000001FFFFFFFFF8
310
000001FFFE0000007FFFFFF0001FFFFFF8000FFFFFFFF8000FF8000FFFFFFFF8
310
000FFF0003FFFFFFFFF000001FFFFFFFF000E00000FFFFFFFFFFC000FFC00200
310
0FFC000FFF80007FE00001FFFFFFFFFE00001FFFFFFFFFF8000001FFFE000000
310
7FFFFFF0001FFFFFFC000FFFFFFFF8001FFC000FFFFFFFF8001FFF0003FFFFFF
310
FFF00001FFFFFFFFF000E00007FFFFFFFFFF8000FFC000001FFC000FFF80007F
310
C0000FFFFFFFFFFE0000FFFFFFFFFFF8000001FFFE0000007FFFFFF0001FFFFF
310
FC0007FFFFFFF0001FFC0007FFFFFFF0001FFF0003FFFFFFFFF00007FFFFFFFF
310
F000E0001FFFFFFFFFFF8000FFC000001FFC000FFF80007FC0003FFFFFFFFFFE
310
0001FFFFFFFFFFF8000001FFFE0000007FFFFFF0001FFFFFFC0007FFFFFFF000
310
1FFC0007FFFFFFF0001FFF0003FFFFFFFFF0001FFFFFFFFFF000E0003FFFFF00
310
03FF8001FFE000001FFC0007FF80007FC0007FFFFF0007FC0003FFFFF0003FF8
310
000001FFFE0000007FFFFFF0001FFFFFFC0003FFFFFFE0001FFC0003FFFFFFE0
310
001FFF0003FFFFFFFFF0003FFFFFFFFFF000E0003FFFFF0001FF8001FFE00000
310
1FFE0007FF80007FC0007FFFFE0003FC0007FFFFE0003FF8000001FFFE000000
310
7FFFFFF0001FFFFFFE0003FFFFFFE0003FFE0003FFFFFFE0003FFF0003FFFFFF
310
FFF0003FFFFF8001F000E0003FFFFF0001FF0001FFE000001FFE0007FF80007F
310
C0007FFFFE0003FC0007FFFFE0003FF8000001FFFE0000007FFFFFF0001FFFFF
310
FE0001FFFFFFC0003FFE0001FFFFFFC0003FFF0003FFFFFFFFF0003FFFFF0001
310
F000E0003FFFFF0003FF0001FFE000003FFE0007FF80007FC0007FFFFE0003FC
310
0007FFFFE0003FF8000001FFFE0000007FFFFFF0001FFFFFFF0001FFFFFFC000
310
7FFF0001FFFFFFC0007FFF0003FFFFFFFFF0003FFFFF0001F000E0003FFFFE00
310
03FF0003FFF000003FFE0003FF80007FC0007FFFFC0003FE0007FFFFE0003FF8
310
000001FFFE0000007FFFFFF0001FFFFFFF0000FFFFFF80007FFF0000FFFFFF80
310
007FFF0003FFFFFFFFF0003FFFFF0001F000E0003FFFFE0003FF0003FFF00000
310
3FFF0003FF80007FC0007FFFFC0007FE0007FFFFC0003FF8000001FFFE000000
310
7FFFFFF0001FFFFFFF80007FFFFF0000FFFF80007FFFFF0000FFFF0003FFFFFF
310
FFF0003FFFFF0003F000E0003FFFFC0003FE0003FFF000003FFF0003FF80007F
310
E0003FFFF80007FE0003FFFFC0007FF8000001FFFE0000007FFFFFF0001FFFFF
310
FF80003FFFFE0000FFFF80003FFFFE0000FFFF0003FFFFFFFFF0001FFFFE0003
310
F000F0001FFFF80003FE0003FFF000007FFF0001FF80007FE0003FFFF00007FE
310
0001FFFF80007FF8000001FFFE0000007FFFFFF0001FFFFFFFC0000FFFF80001
310
FFFFC0000FFFF80001FFFF0003FFFFFFFFF0001FFFFC0003F000F0000FFFF000
310
07FE0007FFF800007FFF0001FF80007FE0001FFFE00007FF0000FFFE00007FF8
310
000001FFFE0000007FFFFFF0001FFFFFFFC00003FFE00001FFFFC00003FFE000
310
01FFFF0003FFFFFFFFF8000FFFF80003F000F00003FFC00007FC0007FFF80000
310
7FFF8001FF80007FF00007FF80000FFF00007FF80000FFF8000001FFFE000000
310
7F80000000000001FFE000003E000003FFFFE000003E000003FFFF0003FFFFFF
310
FFF80003FFE00007F000F800000000000FFC0007FFF800007FFF8001FF80007F
310
F000000000000FFF000000000000FFF8000001FFFE0000007F80000000000001
310
FFF0000000000007FFFFF0000000000007FFFF0003FFFFFFFFFC00007E000007
310
F000F800000000000FFC0007FFF80000FFFF8000FF80007FF800000000001FFF
310
800000000001FFF8000001FFFE0000007F80000000000001FFF800000000000F
310
FFFFF800000000000FFFFF0003FFFFFFFFFC00000000000FF000FC0000000000
310
1FFC0007FFFC0000FFFF8000FF80007FF800000000003FFFC00000000001FFF8
310
000001FFFE0000007F80000000000001FFF800000000000FFFFFF80000000000
310
0FFFFF0003FFFFFFFFFE00000000001FF000FE00000000003FF8000FFFFC0000
310
FFFF8000FF80007FFC00000000003FFFC00000000003FFF8000001FFFE000000
310
7F80000000000001FFFC00000000001FFFFFFC00000000001FFFFF0003FFFFFF
310
FFFF00000000001FF000FF00000000003FF8000FFFFC0000FFFFC000FF80007F
310
FE00000000007FFFE00000000007FFF8000001FFFE0000007F80000000000001
310
FFFE00000000003FFFFFFE00000000003FFFFF0003FFFFFFFFFF80000000003F
310
F000FF80000000007FF8000FFFFC0001FFFFC0007F80007FFF0000000000FFFF
310
F0000000000FFFF800000000000000007F80000000000001FFFF8000000000FF
310
FFFFFF8000000000FFFFFF0003FFFFFFFFFFC0000000007FF000FFC000000000
310
FFF8000FFFFE0001FFFFC0007F80007FFF8000000001FFFFF8000000001FFFF8
310
00000000000000007F80000000000001FFFFC000000001FFFFFFFFC000000001
310
FFFFFF0003FFFFFFFFFFE000000000FFF000FFE000000003FFF0001FFFFE0001
310
FFFFC0007F80007FFFC000000007FFFFFE000000003FFFF80000000000000000
310
7F80000000000001FFFFE000000003FFFFFFFFE000000003FFFFFF0003FFFFFF
310
FFFFF000000003FFF000FFF80000000FFFF0001FFFFE0001FFFFE0007F80007F
310
FFF00000000FFFFFFF00000000FFFFF800000000000000007F80000000000001
310
FFFFF80000000FFFFFFFFFF80000000FFFFFFF0003FFFFFFFFFFFC0000000FFF
310
F000FFFE0000003FFFF0001FFFFE0003FFFFE0003F80007FFFFC0000003FFFFF
310
FFC0000003FFFFF800000000000000007F80000000000001FFFFFE0000003FFF
310
FFFFFFFE0000003FFFFFFF0003FFFFFFFFFFFF0000003FFFF000FFFF800000FF
310
FFF0001FFFFF0003FFFFE0003F80007FFFFF000001FFFFFFFFF800001FFFFFF8
310
00000000000000007F80000000000001FFFFFFC00001FFFFFFFFFFFFC00001FF
310
FFFFFF0003FFFFFFFFFFFFC00000FFFFF000FFFFF8000FFFFFFFFFFFFFFFFFFF
310
FFFFFFFFFFFFFFFFFFFFF0001FFFFFFFFFFF0000FFFFFFF80000000000000000
310
7FFFFFFFFFFFFFFFFFFFFFFC001FFFFFFFFFFFFFFC001FFFFFFFFFFFFFFFFFFF
310
FFFFFFFC001FFFFFF000FFFFFFFFFFFFFFFFFFFFFFFFFFFFFFFFFFFFFFFFFFFF
310
FFFFFFFFFFFFFFFFFFFFFFFFFFFFFFFFFFFFFFFFFFFFFFFFFFFFFFFFFFFFFFFF
310
FFFFFFFFFFFFFFFFFFFFFFFFFFFFFFFFFFFFFFFFFFFFFFFFFFFFFFFFFFFFFFFF
310
F000FFFFFFFFFFFFFFFFFFFFFFFFFFFFFFFFFFFFFFFFFFFFFFFFFFFFFFFFFFFF
310
FFFFFFFFFFFFFFFFFFFFFFFFFFFFFFFFFFFFFFFFFFFFFFFFFFFFFFFFFFFFFFFF
310
FFFFFFFFFFFFFFFFFFFFFFFFFFFFFFFFFFFFFFFFFFFFFFFFF000FFFFFFFFFFFF
310
FFFFFFFFFFFFFFFFFFFFFFFFFFFFFFFFFFFFFFFFFFFFFFFFFFFFFFFFFFFFFFFF
310
FFFFFFFFFFFFFFFFFFFFFFFFFFFFFFFFFFFFFFFFFFFFFFFFFFFFFFFFFFFFFFFF
310
FFFFFFFFFFFFFFFFFFFFFFFFFFFFFFFFF000FFFFFFFFFFFFFFFFFFFFFFFFFFFF
310
FFFFFFFFFFFFFFFFFFFFFFFFFFFFFFFFFFFFFFFFFFFFFFFFFFFFFFFFFFFFFFFF
310
FFFFFFFFFFFFFFFFFFFFFFFFFFFFFFFFFFFFFFFFFFFFFFFFFFFFFFFFFFFFFFFF
310
FFFFFFFFFFFFFFFFF000FFFFFFFFFFFFFFFFFFFFFFFFFFFFFFFFFFFFFFFFFFFF
310
FFFFFFFFFFFFFFFFFFFFFFFFFFFFFFFFFFFFFFFFFFFFFFFFFFFFFFFFFFFFFFFF
310
FFFFFFFFFFFFFFFFFFFFFFFFFFFFFFFFFFFFFFFFFFFFFFFFFFFFFFFFFFFFFFFF
310
F000FFFFFFFFFFFFFFFFFFFFFFFFFFFFFFFFFFFFFFFFFFFFFFFFFFFFFFFFFFFF
310
FFFFFFFFFFFFFFFFFFFFFFFFFFFFFFFFFFFFFFFFFFFFFFFFFFFFFFFFFFFFFFFF
310
FFFFFFFFFFFFFFFFFFFFFFFFFFFFFFFFFFFFFFFFFFFFFFFFF000FFFFFFFFFFFF
310
FFFFFFFFFFFFFFFFFFFFFFFFFFFFFFFFFFFFFFFFFFFFFFFFFFFFFFFFFFFFFFFF
310
FFFFFFFFFFFFFFFFFFFFFFFFFFFFFFFFFFFFFFFFFFFFFFFFFFFFFFFFFFFFFFFF
310
FFFFFFFFFFFFFFFFFFFFFFFFFFFFFFFFF000FFFFFFFFFFFFFFFFFFFFFFFFFFFF
310
FFFFFFFFFFFFFFFFFFFFFFFFFFFFFFFFFFFFFFFFFFFFFFFFFFFFFFFFFFFFFFFF
310
FFFFFFFFFFFFFFFFFFFFFFFFFFFFFFFFFFFFFFFFFFFFFFFFFFFFFFFFFFFFFFFF
310
FFFFFFFFFFFFFFFFF000FFFFFFFFFFFFFFFFFFFFFFFFFFFFFFFFFFFFFFFFFFFF
310
FFFFFFFFFFFFFFFFFFFFFFFFFFFFFFFFFFFFFFFFFFFFFFFFFFFFFFFFFFFFFFFF
310
FFFFFFFFFFFFFFFFFFFFFFFFFFFFFFFFFFFFFFFFFFFFFFFFFFFFFFFFFFFFFFFF
310
F000FFFFFFFFFFFFFFFFFFFFFFFFFFFFFFFFFFFFFFFFFFFFFFFFFFFFFFFFFFFF
310
FFFFFFFFFFFFFFFFFFFFFFFFFFFFFFFFFFFFFFFFFFFFFFFFFFFFFFFFFFFFFFFF
310
FFFFFFFFFFFFFFFFFFFFFFFFFFFFFFFFFFFFFFFFFFFFFFFFF000FFFFFFFFFFFF
310
FFFFFFFFFFFFFFFFFFFFFFFFFFFFFFFFFFFFFFFFFFFFFFFFFFFFFFFFFFFFFFFF
310
FFFFFFFFFFFFFFFFFFFFFFFFFFFFFFFFFFFFFFFFFFFFFFFFFFFFFFFFFFFFFFFF
310
FFFFFFFFFFFFFFFFFFFFFFFFFFFFFFFFF000FFFFFFFFFFFFFFFFFFFFFFFFFFFF
310
FFFFFFFFFFFFFFFFFFFFFFFFFFFFFFFFFFFFFFFFFFFFFFFFFFFFFFFFFFFFFFFF
310
FFFFFFFFFFFFFFFFFFFFFFFFFFFFFFFFFFFFFFFFFFFFFFFFFFFFFFFFFFFFFFFF
310
FFFFFFFFFFFFFFFFF000FFFFFFFFFFFFFFFFFFFFFFFFFFFFFFFFFFFFFFFFFFFF
310
FFFFFFFFFFFFFFFFFFFFFFFFFFFFFFFFFFFFFFFFFFFFFFFFFFFFFFFFFFFFFFFF
310
FFFFFFFFFFFFFFFFFFFFFFFFFFFFFFFFFFFFFFFFFFFFFFFFFFFFFFFFFFFFFFFF
310
F000FFFFFFFFFFFFFFFFFFFFFFFFFFFFFFFFFFFFFFFFFFFFFFFFFFFFFFFFFFFF
310
FFFFFFFFFFFFFFFFFFFFFFFFFFFFFFFFFFFFFFFFFFFFFFFFFFFFFFFFFFFFFFFF
310
FFFFFFFFFFFFFFFFFFFFFFFFFFFFFFFFFFFFFFFFFFFFFFFFF000FFFFFFFFFFFF
310
FFFFFFFFFFFFFFFFFFFFFFFFFFFFFFFFFFFFFFFFFFFFFFFFFFFFFFFFFFFFFFFF
310
FFFFFFFFFFFFFFFFFFFFFFFFFFFFFFFFFFFFFFFFFFFFFFFFFFFFFFFFFFFFFFFF
310
FFFFFFFFFFFFFFFFFFFFFFFFFFFFFFFFF000FFFFFFFFFFFFFFFFFFFFFFFFFFFF
310
FFFFFFFFFFFFFFFFFFFFFFFFFFFFFFFFFFFFFFFFFFFFFFFFFFFFFFFFFFFFFFFF
310
FFFFFFFFFFFFFFFFFFFFFFFFFFFFFFFFFFFFFFFFFFFFFFFFFFFFFFFFFFFFFFFF
310
FFFFFFFFFFFFFFFFF000FFFFFFFFFFFFFFFFFFFFFFFFFFFFFFFFFFFFFFFFFFFF
310
FFFFFFFFFFFFFFFFFFFFFFFFFFFFFFFFFFFFFFFFFFFFFFFFFFFFFFFFFFFFFFFF
310
FFFFFFFFFFFFFFFFFFFFFFFFFFFFFFFFFFFFFFFFFFFFFFFFFFFFFFFFFFFFFFFF
310
F000FFFFFFFFFFFFFFFFFFFFFFFFFFFFFFFFFFFFFFFFFFFFFFFFFFFFFFFFFFFF
310
FFFFFFFFFFFFFFFFFFFFFFFFFFFFFFFFFFFFFFFFFFFFFFFFFFFFFFFFFFFFFFFF
310
FFFFFFFFFFFFFFFFFFFFFFFFFFFFFFFFFFFFFFFFFFFFFFFFF000FFFFFFFFFFFF
310
FFFFFFFFFFFFFFFFFFFFFFFFFFFFFFFFFFFFFFFFFFFFFFFFFFFFFFFFFFFFFFFF
310
FFFFFFFFFFFFFFFFFFFFFFFFFFFFFFFFFFFFFFFFFFFFFFFFFFFFFFFFFFFFFFFF
310
FFFFFFFFFFFFFFFFFFFFFFFFFFFFFFFFF000FFFFFFFFFFFFFFFFFFFFFFFFFFFF
310
FFFFFFFFFFFFFFFFFFFFFFFFFFFFFFFFFFFFFFFFFFFFFFFFFFFFFFFFFFFFFFFF
310
FFFFFFFFFFFFFFFFFFFFFFFFFFFFFFFFFFFFFFFFFFFFFFFFFFFFFFFFFFFFFFFF
310
FFFFFFFFFFFFFFFFF000FFFFFFFFFFFFFFFFFFFFFFFFFFFFFFFFFFFFFFFFFFFF
310
FFFFFFFFFFFFFFFFFFFFFFFFFFFFFFFFFFFFFFFFFFFFFFFFFFFFFFFFFFFFFFFF
310
FFFFFFFFFFFFFFFFFFFFFFFFFFFFFFFFFFFFFFFFFFFFFFFFFFFFFFFFFFFFFFFF
310
F000FFFFFFFFFFFFFFFFFFFFFFFFFFFFFFFFFFFFFFFFFFFFFFFFFFFFFFFFFFFF
310
FFFFFFFFFFFFFFFFFFFFFFFFFFFFFFFFFFFFFFFFFFFFFFFFFFFFFFFFFFFFFFFF
310
FFFFFFFFFFFFFFFFFFFFFFFFFFFFFFFFFFFFFFFFFFFFFFFFF000FFFFFFFFFFFF
310
FFFFFFFFFFFFFFFFFFFFFFFFFFFFFFFFFFFFFFFFFFFFFFFFFFFFFFFFFFFFFFFF
310
FFFFFFFFFFFFFFFFFFFFFFFFFFFFFFFFFFFFFFFFFFFFFFFFFFFFFFFFFFFFFFFF
310
FFFFFFFFFFFFFFFFFFFFFFFFFFFFFFFFF0000000000000000000000000000000
310
0000000000000000000000000000000000000000000000000000000000000000
310
0000000000000000000000000000000000000000000000000000000000000000
310
0000000000000000000000000000000000000000000000000000000000000000
310
0000000000000000000000000000000000000000000000000000000000000000
310
0000000000000000000000000000000000000000000000000000000000000000
310
0000000000000000000000000000000000000000000000000000000000000000
310
0000000000000000000000000000000000000000000000000000000000000000
310
0000000000000000000000000000000000000000000000000000000000000000
310
0000000000000000000000000000000000000000000000000000000000000000
310
0000000000000000000000000000000000000000000000000000000000000000
310
0000000000000000000000000000000000000000000000000000000000000000
310
0000000000000000000000000000000000000000000000000000000000000000
310
0000000000000000000000000000000000000000000000000000000000000000
310
0000000000000000000000000000000000000000000000000000000000000000
310
0000000000000000000000000000000000000000000000000000000000000000
  1
OLE
  0
ENDSEC
  0
SECTION
  2
OBJECTS
  0
DICTIONARY
  5
C
330
0
100
AcDbDictionary
281
     1
  3
ACAD_GROUP
350
D
  3
ACAD_LAYOUT
350
1A
  3
ACAD_MLINESTYLE
350
17
  3
ACAD_PLOTSETTINGS
350
19
  3
ACAD_PLOTSTYLENAME
350
E
  0
DICTIONARY
  5
D
102
{ACAD_REACTORS
330
C
102
}
330
C
100
AcDbDictionary
281
     1
  0
DICTIONARY
  5
1A
102
{ACAD_REACTORS
330
C
102
}
330
C
100
AcDbDictionary
281
     1
  3
Layout1
350
1E
  3
Layout2
350
26
  3
Model
350
22
  0
DICTIONARY
  5
17
102
{ACAD_REACTORS
330
C
102
}
330
C
100
AcDbDictionary
281
     1
  3
Standard
350
18
  0
DICTIONARY
  5
19
102
{ACAD_REACTORS
330
C
102
}
330
C
100
AcDbDictionary
281
     1
  0
ACDBDICTIONARYWDFLT
  5
E
102
{ACAD_REACTORS
330
C
102
}
330
C
100
AcDbDictionary
281
     1
  3
Normal
350
F
100
AcDbDictionaryWithDefault
340
F
  0
LAYOUT
  5
1E
102
{ACAD_REACTORS
330
1A
102
}
330
1A
100
AcDbPlotSettings
  1

  2
none_device
  4

  6

 40
0.0
 41
0.0
 42
0.0
 43
0.0
 44
0.0
 45
0.0
 46
0.0
 47
0.0
 48
0.0
 49
0.0
140
0.0
141
0.0
142
1.0
143
1.0
 70
   688
 72
     0
 73
     0
 74
     5
  7

 75
    16
147
1.0
148
0.0
149
0.0
100
AcDbLayout
  1
Layout1
 70
     1
 71
     1
 10
0.0
 20
0.0
 11
420.0
 21
297.0
 12
0.0
 22
0.0
 32
0.0
 14
1.0000000000E+20
 24
1.0000000000E+20
 34
1.0000000000E+20
 15
-1.0000000000E+20
 25
-1.0000000000E+20
 35
-1.0000000000E+20
146
0.0
 13
0.0
 23
0.0
 33
0.0
 16
1.0
 26
0.0
 36
0.0
 17
0.0
 27
1.0
 37
0.0
 76
     0
330
1B
  0
LAYOUT
  5
26
102
{ACAD_REACTORS
330
1A
102
}
330
1A
100
AcDbPlotSettings
  1

  2
none_device
  4

  6

 40
0.0
 41
0.0
 42
0.0
 43
0.0
 44
0.0
 45
0.0
 46
0.0
 47
0.0
 48
0.0
 49
0.0
140
0.0
141
0.0
142
1.0
143
1.0
 70
   688
 72
     0
 73
     0
 74
     5
  7

 75
    16
147
1.0
148
0.0
149
0.0
100
AcDbLayout
  1
Layout2
 70
     1
 71
     2
 10
0.0
 20
0.0
 11
0.0
 21
0.0
 12
0.0
 22
0.0
 32
0.0
 14
0.0
 24
0.0
 34
0.0
 15
0.0
 25
0.0
 35
0.0
146
0.0
 13
0.0
 23
0.0
 33
0.0
 16
1.0
 26
0.0
 36
0.0
 17
0.0
 27
1.0
 37
0.0
 76
     0
330
23
  0
LAYOUT
  5
22
102
{ACAD_REACTORS
330
1A
102
}
330
1A
100
AcDbPlotSettings
  1

  2
none_device
  4

  6

 40
0.0
 41
0.0
 42
0.0
 43
0.0
 44
0.0
 45
0.0
 46
0.0
 47
0.0
 48
0.0
 49
0.0
140
0.0
141
0.0
142
1.0
143
1.0
 70
  1712
 72
     0
 73
     0
 74
     0
  7

 75
     0
147
1.0
148
0.0
149
0.0
100
AcDbLayout
  1
Model
 70
     1
 71
     0
 10
0.0
 20
0.0
 11
297.0
 21
210.0
 12
0.0
 22
0.0
 32
0.0
 14
0.0
 24
0.0
 34
0.0
 15
297.0
 25
210.0
 35
0.0
146
0.0
 13
0.0
 23
0.0
 33
0.0
 16
1.0
 26
0.0
 36
0.0
 17
0.0
 27
1.0
 37
0.0
 76
     0
330
1F
331
29
  0
MLINESTYLE
  5
18
102
{ACAD_REACTORS
330
17
102
}
330
17
100
AcDbMlineStyle
  2
Standard
 70
     0
  3

 62
   256
 51
90.0
 52
90.0
 71
     2
 49
0.5
 62
   256
  6
BYLAYER
 49
-0.5
 62
   256
  6
BYLAYER
  0
ACDBPLACEHOLDER
  5
F
102
{ACAD_REACTORS
330
E
102
}
330
E
  0
ENDSEC
  0
EOF
