  0
SECTION
  2
HEADER
  9
$ACADVER
  1
AC1015
  9
$ACADMAINTVER
 70
     6
  9
$DWGCODEPAGE
  3
ANSI_1252
  9
$INSBASE
 10
0.0
 20
0.0
 30
0.0
  9
$EXTMIN
 10
0.0
 20
0.0
 30
0.0
  9
$EXTMAX
 10
297.0
 20
210.0
 30
0.0
  9
$LIMMIN
 10
0.0
 20
0.0
  9
$LIMMAX
 10
297.0
 20
210.0
  9
$ORTHOMODE
 70
     0
  9
$REGENMODE
 70
     1
  9
$FILLMODE
 70
     1
  9
$QTEXTMODE
 70
     0
  9
$MIRRTEXT
 70
     1
  9
$LTSCALE
 40
1.0
  9
$ATTMODE
 70
     1
  9
$TEXTSIZE
 40
2.0
  9
$TRACEWID
 40
1.0
  9
$TEXTSTYLE
  7
Standard
  9
$CLAYER
  8
0
  9
$CELTYPE
  6
ByLayer
  9
$CECOLOR
 62
   256
  9
$CELTSCALE
 40
1.0
  9
$DISPSILH
 70
     0
  9
$DIMSCALE
 40
1.0
  9
$DIMASZ
 40
3.0
  9
$DIMEXO
 40
0.0
  9
$DIMDLI
 40
3.75
  9
$DIMRND
 40
0.0
  9
$DIMDLE
 40
0.0
  9
$DIMEXE
 40
1.0
  9
$DIMTP
 40
0.0
  9
$DIMTM
 40
0.0
  9
$DIMTXT
 40
2.0
  9
$DIMCEN
 40
2.5
  9
$DIMTSZ
 40
0.0
  9
$DIMTOL
 70
     0
  9
$DIMLIM
 70
     0
  9
$DIMTIH
 70
     1
  9
$DIMTOH
 70
     1
  9
$DIMSE1
 70
     0
  9
$DIMSE2
 70
     0
  9
$DIMTAD
 70
     1
  9
$DIMZIN
 70
     0
  9
$DIMBLK
  1

  9
$DIMASO
 70
     1
  9
$DIMSHO
 70
     1
  9
$DIMPOST
  1

  9
$DIMAPOST
  1

  9
$DIMALT
 70
     0
  9
$DIMALTD
 70
     3
  9
$DIMALTF
 40
0.0393700787
  9
$DIMLFAC
 40
1.0
  9
$DIMTOFL
 70
     1
  9
$DIMTVP
 40
0.0
  9
$DIMTIX
 70
     0
  9
$DIMSOXD
 70
     0
  9
$DIMSAH
 70
     0
  9
$DIMBLK1
  1

  9
$DIMBLK2
  1

  9
$DIMSTYLE
  2
ISO-25
  9
$DIMCLRD
 70
     0
  9
$DIMCLRE
 70
     0
  9
$DIMCLRT
 70
     0
  9
$DIMTFAC
 40
1.0
  9
$DIMGAP
 40
1.524
  9
$DIMJUST
 70
     0
  9
$DIMSD1
 70
     0
  9
$DIMSD2
 70
     0
  9
$DIMTOLJ
 70
     0
  9
$DIMTZIN
 70
     0
  9
$DIMALTZ
 70
     0
  9
$DIMALTTZ
 70
     0
  9
$DIMUPT
 70
     0
  9
$DIMDEC
 70
     2
  9
$DIMTDEC
 70
     3
  9
$DIMALTU
 70
     2
  9
$DIMALTTD
 70
     3
  9
$DIMTXSTY
  7
Standard
  9
$DIMAUNIT
 70
     0
  9
$DIMADEC
 70
     2
  9
$DIMALTRND
 40
0.0
  9
$DIMAZIN
 70
     0
  9
$DIMDSEP
 70
    44
  9
$DIMATFIT
 70
     3
  9
$DIMFRAC
 70
     0
  9
$DIMLDRBLK
  1

  9
$DIMLUNIT
 70
     2
  9
$DIMLWD
 70
    -2
  9
$DIMLWE
 70
    -2
  9
$DIMTMOVE
 70
     0
  9
$LUNITS
 70
     2
  9
$LUPREC
 70
     2
  9
$SKETCHINC
 40
1.0
  9
$FILLETRAD
 40
10.0
  9
$AUNITS
 70
     0
  9
$AUPREC
 70
     2
  9
$MENU
  1
.
  9
$ELEVATION
 40
0.0
  9
$PELEVATION
 40
0.0
  9
$THICKNESS
 40
0.0
  9
$LIMCHECK
 70
     0
  9
$CHAMFERA
 40
10.0
  9
$CHAMFERB
 40
10.0
  9
$CHAMFERC
 40
20.0
  9
$CHAMFERD
 40
0.0
  9
$SKPOLY
 70
     0
  9
$TDCREATE
 40
2456085.394241609
  9
$TDUCREATE
 40
2456085.310908276
  9
$TDUPDATE
 40
2456085.394243055
  9
$TDUUPDATE
 40
2456085.310909722
  9
$TDINDWG
 40
0.0000000116
  9
$TDUSRTIMER
 40
0.0000000116
  9
$USRTIMER
 70
     1
  9
$ANGBASE
 50
0.0
  9
$ANGDIR
 70
     0
  9
$PDMODE
 70
     0
  9
$PDSIZE
 40
-1.0
  9
$PLINEWID
 40
0.0
  9
$SPLFRAME
 70
     0
  9
$SPLINETYPE
 70
     6
  9
$SPLINESEGS
 70
     8
  9
$HANDSEED
  5
279
  9
$SURFTAB1
 70
     6
  9
$SURFTAB2
 70
     6
  9
$SURFTYPE
 70
     6
  9
$SURFU
 70
     6
  9
$SURFV
 70
     6
  9
$UCSBASE
  2

  9
$UCSNAME
  2

  9
$UCSORG
 10
0.0
 20
0.0
 30
0.0
  9
$UCSXDIR
 10
1.0
 20
0.0
 30
0.0
  9
$UCSYDIR
 10
0.0
 20
1.0
 30
0.0
  9
$UCSORTHOREF
  2

  9
$UCSORTHOVIEW
 70
     0
  9
$UCSORGTOP
 10
0.0
 20
0.0
 30
0.0
  9
$UCSORGBOTTOM
 10
0.0
 20
0.0
 30
0.0
  9
$UCSORGLEFT
 10
0.0
 20
0.0
 30
0.0
  9
$UCSORGRIGHT
 10
0.0
 20
0.0
 30
0.0
  9
$UCSORGFRONT
 10
0.0
 20
0.0
 30
0.0
  9
$UCSORGBACK
 10
0.0
 20
0.0
 30
0.0
  9
$PUCSBASE
  2

  9
$PUCSNAME
  2

  9
$PUCSORG
 10
0.0
 20
0.0
 30
0.0
  9
$PUCSXDIR
 10
1.0
 20
0.0
 30
0.0
  9
$PUCSYDIR
 10
0.0
 20
1.0
 30
0.0
  9
$PUCSORTHOREF
  2

  9
$PUCSORTHOVIEW
 70
     0
  9
$PUCSORGTOP
 10
0.0
 20
0.0
 30
0.0
  9
$PUCSORGBOTTOM
 10
0.0
 20
0.0
 30
0.0
  9
$PUCSORGLEFT
 10
0.0
 20
0.0
 30
0.0
  9
$PUCSORGRIGHT
 10
0.0
 20
0.0
 30
0.0
  9
$PUCSORGFRONT
 10
0.0
 20
0.0
 30
0.0
  9
$PUCSORGBACK
 10
0.0
 20
0.0
 30
0.0
  9
$USERI1
 70
     0
  9
$USERI2
 70
     0
  9
$USERI3
 70
     0
  9
$USERI4
 70
     0
  9
$USERI5
 70
     0
  9
$USERR1
 40
0.0
  9
$USERR2
 40
0.0
  9
$USERR3
 40
0.0
  9
$USERR4
 40
0.0
  9
$USERR5
 40
0.0
  9
$WORLDVIEW
 70
     1
  9
$SHADEDGE
 70
     3
  9
$SHADEDIF
 70
    70
  9
$TILEMODE
 70
     1
  9
$MAXACTVP
 70
    64
  9
$PINSBASE
 10
0.0
 20
0.0
 30
0.0
  9
$PLIMCHECK
 70
     0
  9
$PEXTMIN
 10
1.0000000000E+20
 20
1.0000000000E+20
 30
1.0000000000E+20
  9
$PEXTMAX
 10
-1.0000000000E+20
 20
-1.0000000000E+20
 30
-1.0000000000E+20
  9
$PLIMMIN
 10
0.0
 20
0.0
  9
$PLIMMAX
 10
420.0
 20
297.0
  9
$UNITMODE
 70
     0
  9
$VISRETAIN
 70
     1
  9
$PLINEGEN
 70
     0
  9
$PSLTSCALE
 70
     1
  9
$TREEDEPTH
 70
  3020
  9
$CMLSTYLE
  2
Standard
  9
$CMLJUST
 70
     0
  9
$CMLSCALE
 40
20.0
  9
$PROXYGRAPHICS
 70
     1
  9
$MEASUREMENT
 70
     1
  9
$CELWEIGHT
370
    -1
  9
$ENDCAPS
280
     0
  9
$JOINSTYLE
280
     0
  9
$LWDISPLAY
290
     1
  9
$INSUNITS
 70
     4
  9
$HYPERLINKBASE
  1

  9
$STYLESHEET
  1

  9
$XEDIT
290
     1
  9
$CEPSNTYPE
380
     0
  9
$PSTYLEMODE
290
     1
  9
$FINGERPRINTGUID
  2
{E49E5383-E57D-465B-9344-1925486D3506}
  9
$VERSIONGUID
  2
{FAEB1C32-E019-11D5-929B-00C0DF256EC4}
  9
$EXTNAMES
290
     1
  9
$PSVPSCALE
 40
0.0
  9
$OLESTARTUP
290
     0
  0
ENDSEC
  0
SECTION
  2
CLASSES
  0
CLASS
  1
ACDBDICTIONARYWDFLT
  2
AcDbDictionaryWithDefault
  3
ObjectDBX Classes
 90
        0
280
     0
281
     0
  0
CLASS
  1
VISUALSTYLE
  2
AcDbVisualStyle
  3
ObjectDBX Classes
 90
     4095
280
     0
281
     0
  0
CLASS
  1
MATERIAL
  2
AcDbMaterial
  3
ObjectDBX Classes
 90
     1153
280
     0
281
     0
  0
CLASS
  1
ACDBPLACEHOLDER
  2
AcDbPlaceHolder
  3
ObjectDBX Classes
 90
        0
280
     0
281
     0
  0
CLASS
  1
LAYOUT
  2
AcDbLayout
  3
ObjectDBX Classes
 90
        0
280
     0
281
     0
  0
ENDSEC
  0
SECTION
  2
TABLES
  0
TABLE
  2
VPORT
  5
8
330
0
100
AcDbSymbolTable
 70
     1
  0
VPORT
  5
29
330
8
100
AcDbSymbolTableRecord
100
AcDbViewportTableRecord
  2
*Active
 70
     0
 10
0.0
 20
0.0
 11
1.0
 21
1.0
 12
148.5
 22
105.0
 13
0.0
 23
0.0
 14
10.0
 24
10.0
 15
10.0
 25
10.0
 16
0.0
 26
0.0
 36
1.0
 17
0.0
 27
0.0
 37
0.0
 40
210.0
 41
1.4142857143
 42
50.0
 43
0.0
 44
0.0
 50
0.0
 51
0.0
 71
     0
 72
  2000
 73
     1
 74
     3
 75
     0
 76
     0
 77
     0
 78
     0
281
     0
 65
     1
110
0.0
120
0.0
130
0.0
111
1.0
121
0.0
131
0.0
112
0.0
122
1.0
132
0.0
 79
     0
146
0.0
  0
ENDTAB
  0
TABLE
  2
LTYPE
  5
5
330
0
100
AcDbSymbolTable
 70
     6
  0
LTYPE
  5
14
330
5
100
AcDbSymbolTableRecord
100
AcDbLinetypeTableRecord
  2
ByBlock
 70
     0
  3

 72
    65
 73
     0
 40
0.0
  0
LTYPE
  5
15
330
5
100
AcDbSymbolTableRecord
100
AcDbLinetypeTableRecord
  2
ByLayer
 70
     0
  3

 72
    65
 73
     0
 40
0.0
  0
LTYPE
  5
16
330
5
100
AcDbSymbolTableRecord
100
AcDbLinetypeTableRecord
  2
Continuous
 70
     0
  3
Solid line
 72
    65
 73
     0
 40
0.0
  0
LTYPE
  5
3F
330
5
100
AcDbSymbolTableRecord
100
AcDbLinetypeTableRecord
  2
HIDDEN
 70
     0
  3
Hidden __ __ __ __ __ __ __ __ __ __ __ __ __ __
 72
    65
 73
     2
 40
1.905
 49
1.27
 74
     0
 49
-0.635
 74
     0
  0
LTYPE
  5
40
330
5
100
AcDbSymbolTableRecord
100
AcDbLinetypeTableRecord
  2
PHANTOM
 70
     0
  3
Phantom ______  __  __  ______  __  __  ______
 72
    65
 73
     6
 40
12.7
 49
6.35
 74
     0
 49
-1.27
 74
     0
 49
1.27
 74
     0
 49
-1.27
 74
     0
 49
1.27
 74
     0
 49
-1.27
 74
     0
  0
LTYPE
  5
41
330
5
100
AcDbSymbolTableRecord
100
AcDbLinetypeTableRecord
  2
CENTER
 70
     0
  3
Center ____ _ ____ _ ____ _ ____ _ ____ _ ____
 72
    65
 73
     4
 40
10.16
 49
6.35
 74
     0
 49
-1.27
 74
     0
 49
1.27
 74
     0
 49
-1.27
 74
     0
  0
LTYPE
  5
42
330
5
100
AcDbSymbolTableRecord
100
AcDbLinetypeTableRecord
  2
CENTERX2
 70
     0
  3
Center (2x) ________  __  ________  __  _____
 72
    65
 73
     4
 40
20.32
 49
12.7
 74
     0
 49
-2.54
 74
     0
 49
2.54
 74
     0
 49
-2.54
 74
     0
  0
LTYPE
  5
43
330
5
100
AcDbSymbolTableRecord
100
AcDbLinetypeTableRecord
  2
DOT2
 70
     0
  3
Dot (.5x) ........................................
 72
    65
 73
     2
 40
0.635
 49
0.0
 74
     0
 49
-0.635
 74
     0
  0
ENDTAB
  0
TABLE
  2
LAYER
  5
2
330
0
100
AcDbSymbolTable
 70
     5
  0
LAYER
  5
10
330
2
100
AcDbSymbolTableRecord
100
AcDbLayerTableRecord
  2
0
 70
     0
 62
     7
  6
Continuous
370
    -3
390
F
  0
LAYER
  5
44
330
2
100
AcDbSymbolTableRecord
100
AcDbLayerTableRecord
  2
FORMAT
 70
     0
 62
     7
  6
Continuous
370
    -3
390
F
  0
LAYER
  5
45
330
2
100
AcDbSymbolTableRecord
100
AcDbLayerTableRecord
  2
VERMASSUNG
 70
     0
 62
     7
  6
Continuous
370
    -3
390
F
  0
LAYER
  5
46
330
2
100
AcDbSymbolTableRecord
100
AcDbLayerTableRecord
  2
KOPF_DÜNN
 70
     0
 62
     7
  6
Continuous
370
    -3
390
F
  0
LAYER
  5
47
330
2
100
AcDbSymbolTableRecord
100
AcDbLayerTableRecord
  2
KOPF_DICK
 70
     0
 62
     7
  6
Continuous
370
    15
390
F
  0
ENDTAB
  0
TABLE
  2
STYLE
  5
3
330
0
100
AcDbSymbolTable
 70
     2
  0
STYLE
  5
11
330
3
100
AcDbSymbolTableRecord
100
AcDbTextStyleTableRecord
  2
Standard
 70
     0
 40
0.0
 41
1.0
 50
0.0
 71
     0
 42
2.0
  3
txt
  4

  0
STYLE
  5
48
330
3
100
AcDbSymbolTableRecord
100
AcDbTextStyleTableRecord
  2
SLDTEXTSTYLE0
 70
     0
 40
0.0
 41
0.7
 50
0.0
 71
     0
 42
0.2
  3
TXT
  4

  0
ENDTAB
  0
TABLE
  2
VIEW
  5
6
330
0
100
AcDbSymbolTable
 70
     0
  0
ENDTAB
  0
TABLE
  2
UCS
  5
7
330
0
100
AcDbSymbolTable
 70
     0
  0
ENDTAB
  0
TABLE
  2
APPID
  5
9
330
0
100
AcDbSymbolTable
 70
     1
  0
APPID
  5
12
330
9
100
AcDbSymbolTableRecord
100
AcDbRegAppTableRecord
  2
ACAD
 70
     0
  0
ENDTAB
  0
TABLE
  2
DIMSTYLE
  5
A
330
0
100
AcDbSymbolTable
 70
     5
100
AcDbDimStyleTable
  0
DIMSTYLE
105
27
330
A
100
AcDbSymbolTableRecord
100
AcDbDimStyleTableRecord
  2
ISO-25
 70
     0
 41
2.5
 42
0.625
 43
3.75
 44
1.25
 73
     0
 74
     0
 77
     1
 78
     8
140
2.5
141
2.5
143
0.0393700787
147
0.625
171
     3
172
     1
178
     0
271
     2
272
     2
274
     3
278
    44
283
     0
284
     8
340
11
  0
DIMSTYLE
105
1C1
102
{ACAD_REACTORS
330
1C0
330
1CB
330
1D5
330
1E8
330
1F4
102
}
330
A
100
AcDbSymbolTableRecord
100
AcDbDimStyleTableRecord
  2
SLDDIMSTYLE0
 70
     0
 41
3.0
 44
0.0
 45
0.000000001
 73
     0
 74
     0
 77
     1
 78
    12
 79
     3
140
2.0
147
0.5
173
     1
178
     0
271
     2
272
     3
276
     2
284
    12
340
48
  0
DIMSTYLE
105
1E0
102
{ACAD_REACTORS
330
1DF
102
}
330
A
100
AcDbSymbolTableRecord
100
AcDbDimStyleTableRecord
  2
SLDDIMSTYLE1
 70
     0
 41
3.0
 44
0.0
 73
     0
 74
     0
 77
     1
 78
    12
 79
     3
140
2.0
147
0.5
173
     1
178
     0
179
     1
272
     3
276
     2
284
    12
340
48
  0
DIMSTYLE
105
251
102
{ACAD_REACTORS
330
250
102
}
330
A
100
AcDbSymbolTableRecord
100
AcDbDimStyleTableRecord
  2
SLDDIMSTYLE2
 70
     0
 41
3.0
 44
0.0
 73
     0
 74
     0
 77
     1
 78
    12
 79
     3
140
2.0
147
0.5
173
     1
178
     0
179
     2
272
     3
276
     2
284
    12
340
48
  0
DIMSTYLE
105
25E
102
{ACAD_REACTORS
330
25D
102
}
330
A
100
AcDbSymbolTableRecord
100
AcDbDimStyleTableRecord
  2
SLDDIMSTYLE3
 70
     0
 41
3.0
 44
0.0
 45
0.000000001
 73
     0
 74
     0
 77
     1
 78
    12
 79
     3
140
2.0
147
0.5
172
     1
173
     1
178
     0
271
     2
272
     3
276
     2
284
    12
289
     0
340
48
  0
ENDTAB
  0
TABLE
  2
BLOCK_RECORD
  5
1
330
0
100
AcDbSymbolTable
 70
    10
  0
BLOCK_RECORD
  5
1F
330
1
100
AcDbSymbolTableRecord
100
AcDbBlockTableRecord
  2
*Model_Space
340
22
  0
BLOCK_RECORD
  5
1B
330
1
100
AcDbSymbolTableRecord
100
AcDbBlockTableRecord
  2
*Paper_Space
340
1E
  0
BLOCK_RECORD
  5
23
330
1
100
AcDbSymbolTableRecord
100
AcDbBlockTableRecord
  2
*Paper_Space0
340
26
  0
BLOCK_RECORD
  5
1C2
330
1
100
AcDbSymbolTableRecord
100
AcDbBlockTableRecord
  2
_D
340
0
  0
BLOCK_RECORD
  5
1CC
330
1
100
AcDbSymbolTableRecord
100
AcDbBlockTableRecord
  2
_D_1
340
0
  0
BLOCK_RECORD
  5
1D6
330
1
100
AcDbSymbolTableRecord
100
AcDbBlockTableRecord
  2
_D_2
340
0
  0
BLOCK_RECORD
  5
1E1
330
1
100
AcDbSymbolTableRecord
100
AcDbBlockTableRecord
  2
_D_3
340
0
  0
BLOCK_RECORD
  5
1E9
330
1
100
AcDbSymbolTableRecord
100
AcDbBlockTableRecord
  2
_D_4
340
0
  0
BLOCK_RECORD
  5
1F5
330
1
100
AcDbSymbolTableRecord
100
AcDbBlockTableRecord
  2
_D_5
340
0
  0
BLOCK_RECORD
  5
252
330
1
100
AcDbSymbolTableRecord
100
AcDbBlockTableRecord
  2
_D_6
340
0
  0
BLOCK_RECORD
  5
25F
330
1
100
AcDbSymbolTableRecord
100
AcDbBlockTableRecord
  2
_D_7
340
0
  0
BLOCK_RECORD
  5
26C
330
1
100
AcDbSymbolTableRecord
100
AcDbBlockTableRecord
  2
SW_CENTERMARKSYMBOL_0
340
0
102
{BLKREFS
331
277
102
}
  0
ENDTAB
  0
ENDSEC
  0
SECTION
  2
BLOCKS
  0
BLOCK
  5
20
330
1F
100
AcDbEntity
  8
0
100
AcDbBlockBegin
  2
*Model_Space
 70
     0
 10
0.0
 20
0.0
 30
0.0
  3
*Model_Space
  1

  0
ENDBLK
  5
21
330
1F
100
AcDbEntity
  8
0
100
AcDbBlockEnd
  0
BLOCK
  5
1C
330
1B
100
AcDbEntity
 67
     1
  8
0
100
AcDbBlockBegin
  2
*Paper_Space
 70
     0
 10
0.0
 20
0.0
 30
0.0
  3
*Paper_Space
  1

  0
ENDBLK
  5
1D
330
1B
100
AcDbEntity
 67
     1
  8
0
100
AcDbBlockEnd
  0
BLOCK
  5
24
330
23
100
AcDbEntity
  8
0
100
AcDbBlockBegin
  2
*Paper_Space0
 70
     0
 10
0.0
 20
0.0
 30
0.0
  3
*Paper_Space0
  1

  0
ENDBLK
  5
25
330
23
100
AcDbEntity
  8
0
100
AcDbBlockEnd
  0
BLOCK
  5
1C3
330
1C2
100
AcDbEntity
  8
0
100
AcDbBlockBegin
  2
_D
 70
     0
 10
0.0
 20
0.0
 30
0.0
  3
_D
  1

  0
SOLID
  5
1C5
330
1C2
100
AcDbEntity
  8
VERMASSUNG
100
AcDbTrace
 10
83.4059704019
 20
183.4468190658
 30
0.0
 11
86.4059704019
 21
182.9968190658
 31
0.0
 12
86.4059704019
 22
183.8968190658
 32
0.0
 13
86.4059704019
 23
183.8968190658
 33
0.0
  0
SOLID
  5
1C6
330
1C2
100
AcDbEntity
  8
VERMASSUNG
100
AcDbTrace
 10
263.4059704019
 20
183.4468190658
 30
0.0
 11
260.4059704019
 21
183.8968190658
 31
0.0
 12
260.4059704019
 22
182.9968190658
 32
0.0
 13
260.4059704019
 23
182.9968190658
 33
0.0
  0
LINE
  5
1C7
330
1C2
100
AcDbEntity
  8
VERMASSUNG
100
AcDbLine
 10
83.4059704019
 20
172.9468190658
 30
0.0
 11
83.4059704019
 21
184.4468190658
 31
0.0
  0
LINE
  5
1C8
330
1C2
100
AcDbEntity
  8
VERMASSUNG
100
AcDbLine
 10
263.4059704019
 20
168.9468190658
 30
0.0
 11
263.4059704019
 21
184.4468190658
 31
0.0
  0
LINE
  5
1C9
330
1C2
100
AcDbEntity
  8
VERMASSUNG
100
AcDbLine
 10
83.4059704019
 20
183.4468190658
 30
0.0
 11
263.4059704019
 21
183.4468190658
 31
0.0
  0
MTEXT
  5
1CA
330
1C2
100
AcDbEntity
  8
VERMASSUNG
100
AcDbMText
 10
170.6059702689
 20
186.0249544289
 30
0.1
 40
2.0
 41
0.0
 71
     1
 72
     1
  1
180
  7
SLDTEXTSTYLE0
 73
     1
 44
1.0
  0
ENDBLK
  5
1C4
330
1C2
100
AcDbEntity
  8
0
100
AcDbBlockEnd
  0
BLOCK
  5
1CD
330
1CC
100
AcDbEntity
  8
0
100
AcDbBlockBegin
  2
_D_1
 70
     0
 10
0.0
 20
0.0
 30
0.0
  3
_D_1
  1

  0
SOLID
  5
1CF
330
1CC
100
AcDbEntity
  8
VERMASSUNG
100
AcDbTrace
 10
263.4059704019
 20
191.9031476264
 30
0.0
 11
260.4059704019
 21
192.3531476264
 31
0.0
 12
260.4059704019
 22
191.4531476264
 32
0.0
 13
260.4059704019
 23
191.4531476264
 33
0.0
  0
SOLID
  5
1D0
330
1CC
100
AcDbEntity
  8
VERMASSUNG
100
AcDbTrace
 10
45.4059704019
 20
191.9031476264
 30
0.0
 11
48.4059704019
 21
191.4531476264
 31
0.0
 12
48.4059704019
 22
192.3531476264
 32
0.0
 13
48.4059704019
 23
192.3531476264
 33
0.0
  0
LINE
  5
1D1
330
1CC
100
AcDbEntity
  8
VERMASSUNG
100
AcDbLine
 10
263.4059704019
 20
168.9468190658
 30
0.0
 11
263.4059704019
 21
192.9031476264
 31
0.0
  0
LINE
  5
1D2
330
1CC
100
AcDbEntity
  8
VERMASSUNG
100
AcDbLine
 10
45.4059704019
 20
162.2391570583
 30
0.0
 11
45.4059704019
 21
192.9031476264
 31
0.0
  0
LINE
  5
1D3
330
1CC
100
AcDbEntity
  8
VERMASSUNG
100
AcDbLine
 10
263.4059704019
 20
191.9031476264
 30
0.0
 11
45.4059704019
 21
191.9031476264
 31
0.0
  0
MTEXT
  5
1D4
330
1CC
100
AcDbEntity
  8
VERMASSUNG
100
AcDbMText
 10
151.6059702689
 20
194.4812829895
 30
0.1
 40
2.0
 41
0.0
 71
     1
 72
     1
  1
218
  7
SLDTEXTSTYLE0
 73
     1
 44
1.0
  0
ENDBLK
  5
1CE
330
1CC
100
AcDbEntity
  8
0
100
AcDbBlockEnd
  0
BLOCK
  5
1D7
330
1D6
100
AcDbEntity
  8
0
100
AcDbBlockBegin
  2
_D_2
 70
     0
 10
0.0
 20
0.0
 30
0.0
  3
_D_2
  1

  0
SOLID
  5
1D9
330
1D6
100
AcDbEntity
  8
VERMASSUNG
100
AcDbTrace
 10
281.0525497887
 20
141.9468190658
 30
0.0
 11
281.5025497887
 21
144.9468190658
 31
0.0
 12
280.6025497887
 22
144.9468190658
 32
0.0
 13
280.6025497887
 23
144.9468190658
 33
0.0
  0
SOLID
  5
1DA
330
1D6
100
AcDbEntity
  8
VERMASSUNG
100
AcDbTrace
 10
281.0525497887
 20
168.9468190658
 30
0.0
 11
280.6025497887
 21
165.9468190658
 31
0.0
 12
281.5025497887
 22
165.9468190658
 32
0.0
 13
281.5025497887
 23
165.9468190658
 33
0.0
  0
LINE
  5
1DB
330
1D6
100
AcDbEntity
  8
VERMASSUNG
100
AcDbLine
 10
263.4059704019
 20
141.9468190658
 30
0.0
 11
282.0525497887
 21
141.9468190658
 31
0.0
  0
LINE
  5
1DC
330
1D6
100
AcDbEntity
  8
VERMASSUNG
100
AcDbLine
 10
263.4059704019
 20
168.9468190658
 30
0.0
 11
282.0525497887
 21
168.9468190658
 31
0.0
  0
LINE
  5
1DD
330
1D6
100
AcDbEntity
  8
VERMASSUNG
100
AcDbLine
 10
281.0525497887
 20
141.9468190658
 30
0.0
 11
281.0525497887
 21
168.9468190658
 31
0.0
  0
MTEXT
  5
1DE
330
1D6
100
AcDbEntity
  8
VERMASSUNG
100
AcDbMText
 10
278.4744144256
 20
153.1468190148
 30
0.1
 40
2.0
 41
0.0
 71
     1
 72
     1
  1
27
  7
SLDTEXTSTYLE0
 11
6.123233995736766E-17
 21
1.0
 31
0.0
 73
     1
 44
1.0
  0
ENDBLK
  5
1D8
330
1D6
100
AcDbEntity
  8
0
100
AcDbBlockEnd
  0
BLOCK
  5
1E2
330
1E1
100
AcDbEntity
  8
0
100
AcDbBlockBegin
  2
_D_3
 70
     0
 10
0.0
 20
0.0
 30
0.0
  3
_D_3
  1

  0
ARC
  5
1E4
330
1E1
100
AcDbEntity
  8
VERMASSUNG
100
AcDbCircle
 10
263.4428561714
 20
168.9468190658
 30
0.0
 40
10.76214086731756
100
AcDbArc
 50
264.9722024819
 51
0.0
  0
SOLID
  5
1E5
330
1E1
100
AcDbEntity
  8
VERMASSUNG
100
AcDbTrace
 10
262.4996724288
 20
158.2260877253
 30
0.0
 11
265.5178623056
 21
157.9210797458
 31
0.0
 12
265.4745213271
 22
158.820035562
 32
0.0
 13
265.4745213271
 23
158.820035562
 33
0.0
  0
SOLID
  5
1E6
330
1E1
100
AcDbEntity
  8
VERMASSUNG
100
AcDbTrace
 10
274.2049970387
 20
168.9468190658
 30
0.0
 11
273.3526216221
 21
166.0354695249
 31
0.0
 12
274.244320161
 22
165.9135116808
 32
0.0
 13
274.244320161
 23
165.9135116808
 33
0.0
  0
MTEXT
  5
1E7
330
1E1
100
AcDbEntity
  8
VERMASSUNG
100
AcDbMText
 10
266.8318466706
 20
160.9529032153
 30
0.1
 40
2.0
 41
0.0
 71
     1
 72
     1
  1
95°
  7
SLDTEXTSTYLE0
 11
0.737441199185604
 21
0.6754113396617636
 31
0.0
 73
     1
 44
1.0
  0
ENDBLK
  5
1E3
330
1E1
100
AcDbEntity
  8
0
100
AcDbBlockEnd
  0
BLOCK
  5
1EA
330
1E9
100
AcDbEntity
  8
0
100
AcDbBlockBegin
  2
_D_4
 70
     0
 10
0.0
 20
0.0
 30
0.0
  3
_D_4
  1

  0
SOLID
  5
1EC
330
1E9
100
AcDbEntity
  8
VERMASSUNG
100
AcDbTrace
 10
35.4059704019
 20
173.4468190658
 30
0.0
 11
34.9559704019
 21
170.4468190658
 31
0.0
 12
35.8559704019
 22
170.4468190658
 32
0.0
 13
35.8559704019
 23
170.4468190658
 33
0.0
  0
SOLID
  5
1ED
330
1E9
100
AcDbEntity
  8
VERMASSUNG
100
AcDbTrace
 10
35.4059704019
 20
110.4468190658
 30
0.0
 11
35.8559704019
 21
113.4468190658
 31
0.0
 12
34.9559704019
 22
113.4468190658
 32
0.0
 13
34.9559704019
 23
113.4468190658
 33
0.0
  0
LINE
  5
1EE
330
1E9
100
AcDbEntity
  8
VERMASSUNG
100
AcDbLine
 10
83.9059704019
 20
173.4468190658
 30
0.0
 11
34.4059704019
 21
173.4468190658
 31
0.0
  0
LINE
  5
1EF
330
1E9
100
AcDbEntity
  8
VERMASSUNG
100
AcDbLine
 10
83.9059704019
 20
110.4468190658
 30
0.0
 11
34.4059704019
 21
110.4468190658
 31
0.0
  0
LINE
  5
1F0
330
1E9
100
AcDbEntity
  8
VERMASSUNG
100
AcDbLine
 10
35.4059704019
 20
173.4468190658
 30
0.0
 11
35.4059704019
 21
110.4468190658
 31
0.0
  0
MTEXT
  5
1F1
330
1E9
100
AcDbEntity
  8
VERMASSUNG
100
AcDbMText
 10
32.6278349128
 20
135.5418189566
 30
0.1
 40
2.0
 41
0.0
 71
     1
 72
     1
  1
PSC
  7
SLDTEXTSTYLE0
 11
-7.044195017643634E-15
 21
1.0
 31
0.0
 73
     1
 44
1.0
  0
MTEXT
  5
1F2
330
1E9
100
AcDbEntity
  8
VERMASSUNG
100
AcDbMText
 10
32.8278349223
 20
140.1418190587
 30
0.1
 40
2.0
 41
0.0
 71
     1
 72
     1
  1
%%c
  7
SLDTEXTSTYLE0
 11
-7.044195017643634E-15
 21
1.0
 31
0.0
 73
     1
 44
1.0
  0
MTEXT
  5
1F3
330
1E9
100
AcDbEntity
  8
VERMASSUNG
100
AcDbMText
 10
32.6278349128
 20
143.7518195386
 30
0.1
 40
2.0
 41
0.0
 71
     1
 72
     1
  1
63
  7
SLDTEXTSTYLE0
 11
-7.044195017643634E-15
 21
1.0
 31
0.0
 73
     1
 44
1.0
  0
ENDBLK
  5
1EB
330
1E9
100
AcDbEntity
  8
0
100
AcDbBlockEnd
  0
BLOCK
  5
1F6
330
1F5
100
AcDbEntity
  8
0
100
AcDbBlockBegin
  2
_D_5
 70
     0
 10
0.0
 20
0.0
 30
0.0
  3
_D_5
  1

  0
SOLID
  5
1F8
330
1F5
100
AcDbEntity
  8
VERMASSUNG
100
AcDbTrace
 10
131.1608120462
 20
161.9468190658
 30
0.0
 11
130.7108120462
 21
158.9468190658
 31
0.0
 12
131.6108120462
 22
158.9468190658
 32
0.0
 13
131.6108120462
 23
158.9468190658
 33
0.0
  0
SOLID
  5
1F9
330
1F5
100
AcDbEntity
  8
VERMASSUNG
100
AcDbTrace
 10
131.1608120462
 20
121.9468190658
 30
0.0
 11
131.6108120462
 21
124.9468190658
 31
0.0
 12
130.7108120462
 22
124.9468190658
 32
0.0
 13
130.7108120462
 23
124.9468190658
 33
0.0
  0
LINE
  5
1FA
330
1F5
100
AcDbEntity
  8
VERMASSUNG
100
AcDbLine
 10
131.1608120462
 20
161.9468190658
 30
0.0
 11
131.1608120462
 21
121.9468190658
 31
0.0
  0
MTEXT
  5
1FB
330
1F5
100
AcDbEntity
  8
VERMASSUNG
100
AcDbMText
 10
128.5826765667
 20
127.597245193
 30
0.1
 40
2.0
 41
0.0
 71
     1
 72
     1
  1
%%c
  7
SLDTEXTSTYLE0
 11
-7.044195017643634E-15
 21
1.0
 31
0.0
 73
     1
 44
1.0
  0
MTEXT
  5
1FC
330
1F5
100
AcDbEntity
  8
VERMASSUNG
100
AcDbMText
 10
128.3826765572
 20
131.2072452073
 30
0.1
 40
2.0
 41
0.0
 71
     1
 72
     1
  1
40
  7
SLDTEXTSTYLE0
 11
-7.044195017643634E-15
 21
1.0
 31
0.0
 73
     1
 44
1.0
  0
ENDBLK
  5
1F7
330
1F5
100
AcDbEntity
  8
0
100
AcDbBlockEnd
  0
BLOCK
  5
253
330
252
100
AcDbEntity
  8
0
100
AcDbBlockBegin
  2
_D_6
 70
     0
 10
0.0
 20
0.0
 30
0.0
  3
_D_6
  1

  0
ARC
  5
255
330
252
100
AcDbEntity
  8
VERMASSUNG
100
AcDbCircle
 10
165.8042943064
 20
97.2302874688
 30
0.0
 40
65.27993533770629
100
AcDbArc
 50
262.0
 51
270.0
  0
ARC
  5
256
330
252
100
AcDbEntity
  8
VERMASSUNG
100
AcDbCircle
 10
165.8042943064
 20
97.2302874688
 30
0.0
 40
65.27993533770629
100
AcDbArc
 50
256.738929385
 51
262.0
  0
ARC
  5
257
330
252
100
AcDbEntity
  8
VERMASSUNG
100
AcDbCircle
 10
165.8042943064
 20
97.2302874688
 30
0.0
 40
65.27993533770629
100
AcDbArc
 50
270.0
 51
275.261070615
  0
SOLID
  5
258
330
252
100
AcDbEntity
  8
VERMASSUNG
100
AcDbTrace
 10
156.719083275
 20
32.5856519744
 30
0.0
 11
153.8314911029
 21
33.5153354945
 31
0.0
 12
153.685805618
 22
32.6272050201
 32
0.0
 13
153.685805618
 23
32.6272050201
 33
0.0
  0
SOLID
  5
259
330
252
100
AcDbEntity
  8
VERMASSUNG
100
AcDbTrace
 10
165.8042943064
 20
31.9503521311
 30
0.0
 11
168.81383538
 21
31.5693501278
 31
0.0
 12
168.7931715684
 22
32.4691128782
 32
0.0
 13
168.7931715684
 23
32.4691128782
 33
0.0
  0
LINE
  5
25A
330
252
100
AcDbEntity
  8
VERMASSUNG
100
AcDbLine
 10
157.3458679388
 20
37.0454565937
 30
0.0
 11
156.579910174
 21
31.5953839057
 31
0.0
  0
LINE
  5
25B
330
252
100
AcDbEntity
  8
VERMASSUNG
100
AcDbLine
 10
165.8042943064
 20
36.2722168676
 30
0.0
 11
165.8042943064
 21
30.9503521311
 31
0.0
  0
MTEXT
  5
25C
330
252
100
AcDbEntity
  8
VERMASSUNG
100
AcDbMText
 10
159.2357967118
 20
34.8346901853
 30
0.1
 40
2.0
 41
0.0
 71
     1
 72
     1
  1
8°
  7
SLDTEXTSTYLE0
 11
0.9975640502598254
 21
-0.06975647374410793
 31
0.0
 73
     1
 44
1.0
  0
ENDBLK
  5
254
330
252
100
AcDbEntity
  8
0
100
AcDbBlockEnd
  0
BLOCK
  5
260
330
25F
100
AcDbEntity
  8
0
100
AcDbBlockBegin
  2
_D_7
 70
     0
 10
0.0
 20
0.0
 30
0.0
  3
_D_7
  1

  0
SOLID
  5
262
330
25F
100
AcDbEntity
  8
VERMASSUNG
100
AcDbTrace
 10
180.8138476874
 20
52.237456071
 30
0.0
 11
182.255123128
 21
49.5681443424
 31
0.0
 12
182.9748650583
 22
50.1084882641
 32
0.0
 13
182.9748650583
 23
50.1084882641
 33
0.0
  0
SOLID
  5
263
330
25F
100
AcDbEntity
  8
VERMASSUNG
100
AcDbTrace
 10
150.7947409254
 20
92.2231188667
 30
0.0
 11
149.3534654849
 21
94.8924305953
 31
0.0
 12
148.6337235545
 22
94.3520866736
 32
0.0
 13
148.6337235545
 23
94.3520866736
 33
0.0
  0
LINE
  5
264
330
25F
100
AcDbEntity
  8
VERMASSUNG
100
AcDbLine
 10
180.8138476874
 20
52.237456071
 30
0.0
 11
180.0141344315
 21
51.6370739358
 31
0.0
  0
LINE
  5
265
330
25F
100
AcDbEntity
  8
VERMASSUNG
100
AcDbLine
 10
150.7947409254
 20
92.2231188667
 30
0.0
 11
149.9950276695
 21
91.6227367314
 31
0.0
  0
LINE
  5
266
330
25F
100
AcDbEntity
  8
VERMASSUNG
100
AcDbLine
 10
180.8138476874
 20
52.237456071
 30
0.0
 11
184.4161404989
 21
47.4391765355
 31
0.0
  0
LINE
  5
267
330
25F
100
AcDbEntity
  8
VERMASSUNG
100
AcDbLine
 10
180.8138476874
 20
52.237456071
 30
0.0
 11
150.7947409254
 21
92.2231188667
 31
0.0
  0
LINE
  5
268
330
25F
100
AcDbEntity
  8
VERMASSUNG
100
AcDbLine
 10
150.7947409254
 20
92.2231188667
 30
0.0
 11
138.2106729259
 21
108.9851865596
 31
0.0
  0
MTEXT
  5
269
330
25F
100
AcDbEntity
  8
VERMASSUNG
100
AcDbMText
 10
140.2724420445
 20
110.5330530437
 30
0.1
 40
2.0
 41
0.0
 71
     1
 72
     1
  1
%%c
  7
SLDTEXTSTYLE0
 11
0.6003821352404299
 21
-0.7997132559137319
 31
0.0
 73
     1
 44
1.0
  0
MTEXT
  5
26A
330
25F
100
AcDbEntity
  8
VERMASSUNG
100
AcDbMText
 10
142.59976422
 20
107.7661646112
 30
0.1
 40
2.0
 41
0.0
 71
     1
 72
     1
  1
50
  7
SLDTEXTSTYLE0
 11
0.6003821352404299
 21
-0.7997132559137319
 31
0.0
 73
     1
 44
1.0
  0
MTEXT
  5
26B
330
25F
100
AcDbEntity
  8
VERMASSUNG
100
AcDbMText
 10
146.0744761686
 20
103.1378236886
 30
0.1
 40
2.0
 41
0.0
 71
     1
 72
     1
  1
min.
  7
SLDTEXTSTYLE0
 11
0.6003821352404299
 21
-0.7997132559137319
 31
0.0
 73
     1
 44
1.0
  0
ENDBLK
  5
261
330
25F
100
AcDbEntity
  8
0
100
AcDbBlockEnd
  0
BLOCK
  5
26D
330
26C
100
AcDbEntity
  8
0
100
AcDbBlockBegin
  2
SW_CENTERMARKSYMBOL_0
 70
     0
 10
0.0
 20
0.0
 30
0.0
  3
SW_CENTERMARKSYMBOL_0
  1

  0
LINE
  5
26F
330
26C
100
AcDbEntity
  8
VERMASSUNG
 62
     0
100
AcDbLine
 10
0.0
 20
0.0
 30
0.0
 11
0.0
 21
2.5
 31
0.0
  0
LINE
  5
270
330
26C
100
AcDbEntity
  8
VERMASSUNG
 62
     0
100
AcDbLine
 10
0.0
 20
0.0
 30
0.0
 11
-2.5
 21
0.0
 31
0.0
  0
LINE
  5
271
330
26C
100
AcDbEntity
  8
VERMASSUNG
 62
     0
100
AcDbLine
 10
0.0
 20
0.0
 30
0.0
 11
0.0
 21
-2.5
 31
0.0
  0
LINE
  5
272
330
26C
100
AcDbEntity
  8
VERMASSUNG
 62
     0
100
AcDbLine
 10
0.0
 20
0.0
 30
0.0
 11
2.5
 21
0.0
 31
0.0
  0
LINE
  5
273
330
26C
100
AcDbEntity
  8
VERMASSUNG
 62
     0
100
AcDbLine
 10
0.0
 20
5.0
 30
0.0
 11
0.0
 21
34.0
 31
0.0
  0
LINE
  5
274
330
26C
100
AcDbEntity
  8
VERMASSUNG
 62
     0
100
AcDbLine
 10
-5.0
 20
0.0
 30
0.0
 11
-34.0
 21
0.0
 31
0.0
  0
LINE
  5
275
330
26C
100
AcDbEntity
  8
VERMASSUNG
 62
     0
100
AcDbLine
 10
0.0
 20
-5.0
 30
0.0
 11
0.0
 21
-34.0
 31
0.0
  0
LINE
  5
276
330
26C
100
AcDbEntity
  8
VERMASSUNG
 62
     0
100
AcDbLine
 10
5.0
 20
0.0
 30
0.0
 11
34.0
 21
0.0
 31
0.0
  0
ENDBLK
  5
26E
330
26C
100
AcDbEntity
  8
0
100
AcDbBlockEnd
  0
ENDSEC
  0
SECTION
  2
ENTITIES
  0
MTEXT
  5
49
330
1F
100
AcDbEntity
  8
KOPF_DÜNN
100
AcDbMText
 10
13.8892156294
 20
23.8442973028
 30
0.0
 40
3.0
 41
0.0
 71
     1
 72
     1
  1
PS6.PCD.RLC.180
  7
SLDTEXTSTYLE0
 73
     1
 44
1.0
  0
MTEXT
  5
4A
330
1F
100
AcDbEntity
  8
VERMASSUNG
100
AcDbMText
 10
13.9329988022
 20
28.8834360957
 30
0.0
 40
3.0
 41
0.0
 71
     1
 72
     1
  1
Bohrstange rechts_Boring bar right
  7
SLDTEXTSTYLE0
 73
     1
 44
1.0
  0
MTEXT
  5
4B
330
1F
100
AcDbEntity
  8
VERMASSUNG
100
AcDbMText
 10
98.8601118557
 20
13.8365368179
 30
0.0
 40
2.0
 41
0.0
 71
     1
 72
     1
  1
Datum: 06.06.2012
  7
SLDTEXTSTYLE0
 73
     1
 44
1.0
  0
MTEXT
  5
4C
330
1F
100
AcDbEntity
  8
VERMASSUNG
100
AcDbMText
 10
13.933048693
 20
18.0482802738
 30
0.0
 40
2.0
 41
0.0
 71
     1
 72
     1
  1
PSC ø63 / Wp.: CN..12 04..
  7
SLDTEXTSTYLE0
 73
     1
 44
1.0
  0
MTEXT
  5
4D
330
1F
100
AcDbEntity
  8
VERMASSUNG
100
AcDbMText
 10
13.9808475933
 20
13.9090973692
 30
0.0
 40
2.0
 41
0.0
 71
     1
 72
     1
  1
Gewicht: 2108g
  7
SLDTEXTSTYLE0
 73
     1
 44
1.0
  0
LINE
  5
4E
330
1F
100
AcDbEntity
  8
0
  6
Continuous
 62
     7
370
    15
100
AcDbLine
 10
261.7824215365
 20
155.7456473026
 30
0.0
 11
262.2799713088
 21
156.4044816557
 31
0.0
  0
LINE
  5
4F
330
1F
100
AcDbEntity
  8
0
  6
Continuous
 62
     7
370
    15
100
AcDbLine
 10
250.7173109723
 20
167.9239444572
 30
0.0
 11
250.3291506244
 21
167.4099661547
 31
0.0
  0
LINE
  5
50
330
1F
100
AcDbEntity
  8
0
  6
Continuous
 62
     7
370
    15
100
AcDbLine
 10
254.5423198415
 20
162.9776232082
 30
0.0
 11
253.9371091796
 21
162.3500589418
 31
0.0
  0
ARC
  5
51
330
1F
100
AcDbEntity
  8
0
  6
Continuous
 62
     7
370
    15
100
AcDbCircle
 10
104.4059704019
 20
111.4468190658
 30
0.0
 40
1.0
100
AcDbArc
 50
270.0
 51
0.0
  0
ARC
  5
52
330
1F
100
AcDbEntity
  8
0
  6
Continuous
 62
     7
370
    15
100
AcDbCircle
 10
104.4059704019
 20
172.4468190658
 30
0.0
 40
1.0
100
AcDbArc
 50
360.0
 51
90.0
  0
LINE
  5
53
330
1F
100
AcDbEntity
  8
0
  6
Continuous
 62
     7
370
    15
100
AcDbLine
 10
83.9059704256
 20
110.4468185592
 30
0.0
 11
104.4059701187
 21
110.4468185592
 31
0.0
  0
LINE
  5
54
330
1F
100
AcDbEntity
  8
0
  6
Continuous
 62
     7
370
    15
100
AcDbLine
 10
104.4059701187
 20
173.4468195724
 30
0.0
 11
83.9059704256
 21
173.4468195724
 31
0.0
  0
ARC
  5
55
330
1F
100
AcDbEntity
  8
0
  6
Continuous
 62
     7
370
    15
100
AcDbCircle
 10
83.9059704019
 20
110.9468190658
 30
0.0
 40
0.4999999999999858
100
AcDbArc
 50
180.0
 51
270.0
  0
ARC
  5
56
330
1F
100
AcDbEntity
  8
0
  6
Continuous
 62
     7
370
    15
100
AcDbCircle
 10
83.9059704019
 20
172.9468190658
 30
0.0
 40
0.4999999999999716
100
AcDbArc
 50
90.0
 51
180.0
  0
LWPOLYLINE
  5
57
330
1F
100
AcDbEntity
  8
0
  6
Continuous
 62
     7
370
    15
100
AcDbPolyline
 90
        3
 70
   128
 43
0.0
 10
83.2059704069
 20
119.4069985437
 10
83.3314253421
 20
119.3386972088
 10
83.4059704019
 20
119.285958274
  0
LWPOLYLINE
  5
58
330
1F
100
AcDbEntity
  8
0
  6
Continuous
 62
     7
370
    15
100
AcDbPolyline
 90
        3
 70
   128
 43
0.0
 10
83.4059704019
 20
164.6076798576
 10
83.3314253421
 20
164.5549409229
 10
83.2059704069
 20
164.4866395879
  0
ARC
  5
59
330
1F
100
AcDbEntity
  8
0
  6
Continuous
 62
     7
370
    15
100
AcDbCircle
 10
109.4059704019
 20
117.9468190658
 30
0.0
 40
4.000000000000014
100
AcDbArc
 50
90.0
 51
180.0
  0
ARC
  5
5A
330
1F
100
AcDbEntity
  8
0
  6
Continuous
 62
     7
370
    15
100
AcDbCircle
 10
109.4059704019
 20
165.9468190658
 30
0.0
 40
4.000000000000028
100
AcDbArc
 50
180.0
 51
270.0
  0
LINE
  5
5B
330
1F
100
AcDbEntity
  8
0
  6
Continuous
 62
     7
370
    15
100
AcDbLine
 10
109.4059709383
 20
121.9468195128
 30
0.0
 11
237.4059695674
 21
121.9468195128
 31
0.0
  0
LINE
  5
5C
330
1F
100
AcDbEntity
  8
0
  6
Continuous
 62
     7
370
    15
100
AcDbLine
 10
237.4059695674
 20
161.9468186188
 30
0.0
 11
109.4059709383
 21
161.9468186188
 31
0.0
  0
LINE
  5
5D
330
1F
100
AcDbEntity
  8
0
  6
Continuous
 62
     7
370
    15
100
AcDbLine
 10
241.8814588262
 20
166.4223078775
 30
0.0
 11
237.4059695674
 21
161.9468186188
 31
0.0
  0
LINE
  5
5E
330
1F
100
AcDbEntity
  8
0
  6
Continuous
 62
     7
370
    15
100
AcDbLine
 10
237.4059695674
 20
121.9468195128
 30
0.0
 11
237.9059631301
 21
121.4468184996
 31
0.0
  0
LINE
  5
5F
330
1F
100
AcDbEntity
  8
0
  6
Continuous
 62
     7
370
    15
100
AcDbLine
 10
237.9059631301
 20
121.4468184996
 30
0.0
 11
242.2667134477
 21
121.4468184996
 31
0.0
  0
LINE
  5
60
330
1F
100
AcDbEntity
  8
0
  6
Continuous
 62
     7
370
    15
100
AcDbLine
 10
244.5229131652
 20
166.8091997641
 30
0.0
 11
242.0939791871
 21
166.5539093453
 31
0.0
  0
ARC
  5
61
330
1F
100
AcDbEntity
  8
0
  6
Continuous
 62
     7
370
    15
100
AcDbCircle
 10
255.7588049153
 20
161.1998986204
 30
0.0
 40
2.826401077361698
100
AcDbArc
 50
6.6352961296
 51
96.1273805627
  0
LWPOLYLINE
  5
62
330
1F
100
AcDbEntity
  8
0
  6
Continuous
 62
     7
370
    15
100
AcDbPolyline
 90
        3
 70
   128
 43
0.0
 10
254.0904421283
 20
163.0812272567
 10
254.6084213925
 20
163.2552895832
 10
254.9534279776
 20
163.3116495001
  0
LINE
  5
63
330
1F
100
AcDbEntity
  8
0
  6
Continuous
 62
     7
370
    15
100
AcDbLine
 10
258.0325294209
 20
160.1634904879
 30
0.0
 11
258.0214876605
 21
160.0856728989
 31
0.0
  0
CIRCLE
  5
64
330
1F
100
AcDbEntity
  8
0
  6
Continuous
 62
     7
370
    15
100
AcDbCircle
 10
252.0194685033
 20
150.2243808128
 30
0.0
 40
3.474551672767018
  0
CIRCLE
  5
65
330
1F
100
AcDbEntity
  8
0
  6
Continuous
 62
     7
370
    15
100
AcDbCircle
 10
252.0406713262
 20
150.2273809612
 30
0.0
 40
1.98595014853825
  0
SPLINE
  5
66
330
1F
100
AcDbEntity
  8
0
  6
Continuous
 62
     7
370
    15
100
AcDbSpline
210
0.0
220
0.0
230
1.0
 70
     8
 71
     3
 72
    11
 73
     7
 74
     0
 42
0.00000001
 43
0.00000001
 12
1.0
 22
0.0
 32
0.0
 13
1.0
 23
0.0
 33
0.0
 40
0.0
 40
0.0
 40
0.0
 40
0.0
 40
0.1081138114029651
 40
0.4711591939859822
 40
0.8135838365757578
 40
1.0
 40
1.0
 40
1.0
 40
1.0
 10
250.9811211300762
 20
148.8592679749432
 30
0.0
 10
251.0358642682484
 20
148.8464837211211
 30
0.0
 10
251.2744344612957
 20
148.7907700371028
 30
0.0
 10
251.7395350631152
 20
148.6991608683044
 30
0.0
 10
252.2840848716317
 20
148.6299069156128
 30
0.0
 10
252.5819273183929
 20
148.6045463999625
 30
0.0
 10
252.6869166565806
 20
148.5956068287792
 30
0.0
  0
SPLINE
  5
67
330
1F
100
AcDbEntity
  8
0
  6
Continuous
 62
     7
370
    15
100
AcDbSpline
210
0.0
220
0.0
230
1.0
 70
     8
 71
     3
 72
    10
 73
     6
 74
     0
 42
0.00000001
 43
0.00000001
 12
1.0
 22
0.0
 32
0.0
 13
1.0
 23
0.0
 33
0.0
 40
0.0
 40
0.0
 40
0.0
 40
0.0
 40
0.4391178509598753
 40
0.751368610772099
 40
1.0
 40
1.0
 40
1.0
 40
1.0
 10
252.6869166565807
 20
148.5956068287792
 30
0.0
 10
252.8280002840826
 20
148.7726574368022
 30
0.0
 10
253.0694065693592
 20
149.0756063355906
 30
0.0
 10
253.4552116504232
 20
149.5621779356898
 30
0.0
 10
253.6576805869852
 20
149.8181967463632
 30
0.0
 10
253.7474322987468
 20
149.9316863852742
 30
0.0
  0
SPLINE
  5
68
330
1F
100
AcDbEntity
  8
0
  6
Continuous
 62
     7
370
    15
100
AcDbSpline
210
0.0
220
0.0
230
1.0
 70
     8
 71
     3
 72
    10
 73
     6
 74
     0
 42
0.00000001
 43
0.00000001
 12
1.0
 22
0.0
 32
0.0
 13
1.0
 23
0.0
 33
0.0
 40
0.0
 40
0.0
 40
0.0
 40
0.0
 40
0.4391156114399599
 40
0.751366358722148
 40
1.0
 40
1.0
 40
1.0
 40
1.0
 10
253.7474322987468
 20
149.9316863852742
 30
0.0
 10
253.6443184727887
 20
150.1464819003997
 30
0.0
 10
253.4678814299562
 20
150.5140163716532
 30
0.0
 10
253.2462728211352
 20
151.094475481981
 30
0.0
 10
253.1464172487743
 20
151.3972217356221
 30
0.0
 10
253.1021524144084
 20
151.5314256909492
 30
0.0
  0
SPLINE
  5
69
330
1F
100
AcDbEntity
  8
0
  6
Continuous
 62
     7
370
    15
100
AcDbSpline
210
0.0
220
0.0
230
1.0
 70
     8
 71
     3
 72
    11
 73
     7
 74
     0
 42
0.00000001
 43
0.00000001
 12
1.0
 22
0.0
 32
0.0
 13
1.0
 23
0.0
 33
0.0
 40
0.0
 40
0.0
 40
0.0
 40
0.0
 40
0.1864160071145601
 40
0.5288404032236246
 40
0.8918932532477881
 40
1.0
 40
1.0
 40
1.0
 40
1.0
 10
253.1021524144085
 20
151.5314256909492
 30
0.0
 10
252.9971629967792
 20
151.5403650102976
 30
0.0
 10
252.6993203017622
 20
151.5657248134706
 30
0.0
 10
252.1547685746616
 20
151.6349821039473
 30
0.0
 10
251.689658649509
 20
151.7265835167974
 30
0.0
 10
251.4510949192397
 20
151.7823022671415
 30
0.0
 10
251.3963568879039
 20
151.7950868371131
 30
0.0
  0
SPLINE
  5
6A
330
1F
100
AcDbEntity
  8
0
  6
Continuous
 62
     7
370
    15
100
AcDbSpline
210
0.0
220
0.0
230
1.0
 70
     8
 71
     3
 72
    10
 73
     6
 74
     0
 42
0.00000001
 43
0.00000001
 12
1.0
 22
0.0
 32
0.0
 13
1.0
 23
0.0
 33
0.0
 40
0.0
 40
0.0
 40
0.0
 40
0.0
 40
0.4391165541774486
 40
0.751366861543583
 40
1.0
 40
1.0
 40
1.0
 40
1.0
 10
251.3963568879039
 20
151.7950868371131
 30
0.0
 10
251.2337971088054
 20
151.5895973319984
 30
0.0
 10
250.9556430973646
 20
151.2379868015609
 30
0.0
 10
250.58617774301
 20
150.7730414515832
 30
0.0
 10
250.4127290454391
 20
150.5554593659832
 30
0.0
 10
250.3358412457378
 20
150.4590077462795
 30
0.0
  0
SPLINE
  5
6B
330
1F
100
AcDbEntity
  8
0
  6
Continuous
 62
     7
370
    15
100
AcDbSpline
210
0.0
220
0.0
230
1.0
 70
     8
 71
     3
 72
    10
 73
     6
 74
     0
 42
0.00000001
 43
0.00000001
 12
1.0
 22
0.0
 32
0.0
 13
1.0
 23
0.0
 33
0.0
 40
0.0
 40
0.0
 40
0.0
 40
0.0
 40
0.4391166387131086
 40
0.7513678571407708
 40
1.0
 40
1.0
 40
1.0
 40
1.0
 10
250.3358412457378
 20
150.4590077462795
 30
0.0
 10
250.4174789315641
 20
150.2157728957723
 30
0.0
 10
250.5571683162365
 20
149.7995763040352
 30
0.0
 10
250.7951172804043
 20
149.2407487269556
 30
0.0
 10
250.9239924704185
 20
148.9764348189957
 30
0.0
 10
250.9811211300761
 20
148.8592679749432
 30
0.0
  0
LINE
  5
6C
330
1F
100
AcDbEntity
  8
0
  6
Continuous
 62
     7
370
    15
100
AcDbLine
 10
251.0062444878
 20
151.2785306337
 30
0.0
 11
251.3963568879
 21
151.7950868371
 31
0.0
  0
LINE
  5
6D
330
1F
100
AcDbEntity
  8
0
  6
Continuous
 62
     7
370
    15
100
AcDbLine
 10
251.0062444878
 20
151.2785306337
 30
0.0
 11
250.4759866668
 21
150.6104910883
 31
0.0
  0
LINE
  5
6E
330
1F
100
AcDbEntity
  8
0
  6
Continuous
 62
     7
370
    15
100
AcDbLine
 10
253.3573347999
 20
149.4151301819
 30
0.0
 11
253.0346948577
 21
150.2150003004
 31
0.0
  0
LINE
  5
6F
330
1F
100
AcDbEntity
  8
0
  6
Continuous
 62
     7
370
    15
100
AcDbLine
 10
253.0346948577
 20
150.2150003004
 30
0.0
 11
252.7120549155
 21
151.0148704189
 31
0.0
  0
LINE
  5
70
330
1F
100
AcDbEntity
  8
0
  6
Continuous
 62
     7
370
    15
100
AcDbLine
 10
252.7120549155
 20
151.0148704189
 30
0.0
 11
253.1021524144
 21
151.5314256909
 31
0.0
  0
LINE
  5
71
330
1F
100
AcDbEntity
  8
0
  6
Continuous
 62
     7
370
    15
100
AcDbLine
 10
252.7120549155
 20
151.0148704189
 30
0.0
 11
251.8591571523
 21
151.1467000607
 31
0.0
  0
LINE
  5
72
330
1F
100
AcDbEntity
  8
0
  6
Continuous
 62
     7
370
    15
100
AcDbLine
 10
251.8591571523
 20
151.1467000607
 30
0.0
 11
251.0062444878
 21
151.2785306337
 31
0.0
  0
ARC
  5
73
330
1F
100
AcDbEntity
  8
0
  6
Continuous
 62
     7
370
    15
100
AcDbCircle
 10
251.6712819021
 20
149.6592010597
 30
0.0
 40
1.472347677476799
100
AcDbArc
 50
321.7208133075
 51
22.1784080208
  0
ARC
  5
74
330
1F
100
AcDbEntity
  8
0
  6
Continuous
 62
     7
370
    15
100
AcDbCircle
 10
251.6283346333
 20
149.6900414226
 30
0.0
 40
1.474833354337658
100
AcDbArc
 50
80.9957617332
 51
141.3835329652
  0
ARC
  5
75
330
1F
100
AcDbEntity
  8
0
  6
Continuous
 62
     7
370
    15
100
AcDbCircle
 10
251.6260588849
 20
149.6451514587
 30
0.0
 40
1.51953381217407
100
AcDbArc
 50
22.0252752833
 51
81.1759187769
  0
LINE
  5
76
330
1F
100
AcDbEntity
  8
0
  6
Continuous
 62
     7
370
    15
100
AcDbLine
 10
250.0237960292
 20
155.3826503593
 30
0.0
 11
261.995448537
 21
156.2504371765
 31
0.0
  0
ARC
  5
77
330
1F
100
AcDbEntity
  8
0
  6
Continuous
 62
     7
370
    15
100
AcDbCircle
 10
249.9949251051
 20
155.785069032
 30
0.0
 40
0.4034529940638513
100
AcDbArc
 50
175.3071499774
 51
274.1035688689
  0
LINE
  5
78
330
1F
100
AcDbEntity
  8
0
  6
Continuous
 62
     7
370
    15
100
AcDbLine
 10
250.6402123643
 20
167.7232034642
 30
0.0
 11
249.5928246451
 21
155.8180771905
 31
0.0
  0
ARC
  5
79
330
1F
100
AcDbEntity
  8
0
  6
Continuous
 62
     7
370
    15
100
AcDbCircle
 10
251.0285965225
 20
167.6890232642
 30
0.0
 40
0.3898852913308157
100
AcDbArc
 50
93.9360320085
 51
174.9705759537
  0
LINE
  5
7A
330
1F
100
AcDbEntity
  8
0
  6
Continuous
 62
     7
370
    15
100
AcDbLine
 10
262.9734862519
 20
168.9457766849
 30
0.0
 11
251.0018337441
 21
168.0779889363
 31
0.0
  0
ARC
  5
7B
330
1F
100
AcDbEntity
  8
0
  6
Continuous
 62
     7
370
    15
100
AcDbCircle
 10
263.0023733571
 20
168.5433740276
 30
0.0
 40
0.4034381779244439
100
AcDbArc
 50
355.3046950947
 51
94.1060237515
  0
LINE
  5
7C
330
1F
100
AcDbEntity
  8
0
  6
Continuous
 62
     7
370
    15
100
AcDbLine
 10
262.3570699168
 20
156.60522358
 30
0.0
 11
263.404457636
 21
168.5103498536
 31
0.0
  0
ARC
  5
7D
330
1F
100
AcDbEntity
  8
0
  6
Continuous
 62
     7
370
    15
100
AcDbCircle
 10
261.9687211962
 20
156.6393666386
 30
0.0
 40
0.3898467355469978
100
AcDbArc
 50
273.9312013286
 51
354.9755570091
  0
ARC
  5
7E
330
1F
100
AcDbEntity
  8
0
  6
Continuous
 62
     7
370
    15
100
AcDbCircle
 10
263.0026553913
 20
168.5437344021
 30
0.0
 40
0.3832695811733834
100
AcDbArc
 50
355.3053055817
 51
94.103433361
  0
LINE
  5
7F
330
1F
100
AcDbEntity
  8
0
  6
Continuous
 62
     7
370
    15
100
AcDbLine
 10
262.9752296878
 20
168.9260214704
 30
0.0
 11
251.00357718
 21
168.0582337219
 31
0.0
  0
ARC
  5
80
330
1F
100
AcDbEntity
  8
0
  6
Continuous
 62
     7
370
    15
100
AcDbCircle
 10
251.0289903039
 20
167.6887216715
 30
0.0
 40
0.3703849108943953
100
AcDbArc
 50
93.9343115342
 51
174.9715241352
  0
LINE
  5
81
330
1F
100
AcDbEntity
  8
0
  6
Continuous
 62
     7
370
    15
100
AcDbLine
 10
250.6600309087
 20
167.7211862195
 30
0.0
 11
249.6126431895
 21
155.8160618085
 31
0.0
  0
ARC
  5
82
330
1F
100
AcDbEntity
  8
0
  6
Continuous
 62
     7
370
    15
100
AcDbCircle
 10
249.994627179
 20
155.7846919401
 30
0.0
 40
0.3832699268544833
100
AcDbArc
 50
175.3052045304
 51
274.1056196423
  0
LINE
  5
83
330
1F
100
AcDbEntity
  8
0
  6
Continuous
 62
     7
370
    15
100
AcDbLine
 10
250.0220674945
 20
155.4024055737
 30
0.0
 11
261.9937200023
 21
156.270192391
 31
0.0
  0
ARC
  5
84
330
1F
100
AcDbEntity
  8
0
  6
Continuous
 62
     7
370
    15
100
AcDbCircle
 10
261.9683243111
 20
156.6396703615
 30
0.0
 40
0.3703497155967486
100
AcDbArc
 50
273.9319826685
 51
354.9763377807
  0
LINE
  5
85
330
1F
100
AcDbEntity
  8
0
  6
Continuous
 62
     7
370
    15
100
AcDbLine
 10
262.3372513724
 20
156.6072398934
 30
0.0
 11
263.3846390916
 21
168.5123652357
 31
0.0
  0
LINE
  5
86
330
1F
100
AcDbEntity
  8
0
  6
Continuous
 62
     7
370
    15
100
AcDbLine
 10
250.8297402335
 20
156.5773202243
 30
0.0
 11
249.96618814
 21
155.7473907384
 31
0.0
  0
LINE
  5
87
330
1F
100
AcDbEntity
  8
0
  6
Continuous
 62
     7
370
    15
100
AcDbLine
 10
261.3297838641
 20
157.1419689941
 30
0.0
 11
261.9378406478
 21
156.6151775557
 31
0.0
  0
LINE
  5
88
330
1F
100
AcDbEntity
  8
0
  6
Continuous
 62
     7
370
    15
100
AcDbLine
 10
261.2389314843
 20
155.5728310856
 30
0.0
 11
261.4978987647
 21
155.5916018921
 31
0.0
  0
LINE
  5
89
330
1F
100
AcDbEntity
  8
0
  6
Continuous
 62
     7
370
    15
100
AcDbLine
 10
249.4676250888
 20
159.3916047502
 30
0.0
 11
249.1056162787
 21
155.2768446642
 31
0.0
  0
LINE
  5
8A
330
1F
100
AcDbEntity
  8
0
  6
Continuous
 62
     7
370
    15
100
AcDbLine
 10
251.5466201974
 20
167.0263935018
 30
0.0
 11
251.0135758592
 21
167.6525160807
 31
0.0
  0
ARC
  5
8B
330
1F
100
AcDbEntity
  8
0
  6
Continuous
 62
     7
370
    15
100
AcDbCircle
 10
252.8699757515
 20
158.6081892428
 30
0.0
 40
1.008600142830027
100
AcDbArc
 50
175.3049610015
 51
274.1048674299
  0
SPLINE
  5
8C
330
1F
100
AcDbEntity
  8
0
  6
Continuous
 62
     7
370
    15
100
AcDbSpline
210
0.0
220
0.0
230
1.0
 70
     8
 71
     3
 72
    11
 73
     7
 74
     0
 42
0.00000001
 43
0.00000001
 12
1.0
 22
0.0
 32
0.0
 13
1.0
 23
0.0
 33
0.0
 40
0.0
 40
0.0
 40
0.0
 40
0.0
 40
0.3367887381009768
 40
0.6790094874445738
 40
0.992379038201336
 40
1.0
 40
1.0
 40
1.0
 40
1.0
 10
250.8297402335078
 20
156.577320224345
 30
0.0
 10
250.8828098514682
 20
156.6286508652503
 30
0.0
 10
250.9898050386984
 20
156.73214005069
 30
0.0
 10
251.1620849816455
 20
156.9025582330717
 30
0.0
 10
251.2720532228732
 20
157.0124575554476
 30
0.0
 10
251.3226612032301
 20
157.0635929977141
 30
0.0
 10
251.3238627386958
 20
157.0648070561888
 30
0.0
  0
LINE
  5
8D
330
1F
100
AcDbEntity
  8
0
  6
Continuous
 62
     7
370
    15
100
AcDbLine
 10
252.9421735478
 20
157.6021764565
 30
0.0
 11
259.6422869635
 21
158.087846278
 31
0.0
  0
LINE
  5
8E
330
1F
100
AcDbEntity
  8
0
  6
Continuous
 62
     7
370
    15
100
AcDbLine
 10
252.4509418679
 20
165.3536133605
 30
0.0
 11
251.8647599889
 21
158.6907453972
 31
0.0
  0
ARC
  5
8F
330
1F
100
AcDbEntity
  8
0
  6
Continuous
 62
     7
370
    15
100
AcDbCircle
 10
253.4218884595
 20
165.2681798908
 30
0.0
 40
0.9746979847586789
100
AcDbArc
 50
93.9344023047
 51
174.9715020539
  0
LINE
  5
90
330
1F
100
AcDbEntity
  8
0
  6
Continuous
 62
     7
370
    15
100
AcDbLine
 10
260.0551087333
 20
166.7262487251
 30
0.0
 11
253.3550102187
 21
166.2405807662
 31
0.0
  0
ARC
  5
91
330
1F
100
AcDbEntity
  8
0
  6
Continuous
 62
     7
370
    15
100
AcDbCircle
 10
260.1273129581
 20
165.7202424427
 30
0.0
 40
1.008594115738174
100
AcDbArc
 50
355.304668332
 51
94.1052581328
  0
LINE
  5
92
330
1F
100
AcDbEntity
  8
0
  6
Continuous
 62
     7
370
    15
100
AcDbLine
 10
260.5463404132
 20
158.9748136836
 30
0.0
 11
261.1325222922
 21
165.6376816469
 31
0.0
  0
ARC
  5
93
330
1F
100
AcDbEntity
  8
0
  6
Continuous
 62
     7
370
    15
100
AcDbCircle
 10
259.575417112
 20
159.0602222905
 30
0.0
 40
0.9746726049361001
100
AcDbArc
 50
273.9340105878
 51
354.9728379751
  0
CIRCLE
  5
94
330
1F
100
AcDbEntity
  8
0
  6
Continuous
 62
     7
370
    15
100
AcDbCircle
 10
256.5105076668
 20
162.132772171
 30
0.0
 40
2.554492679786794
  0
ARC
  5
95
330
1F
100
AcDbEntity
  8
0
  6
Continuous
 62
     7
370
    15
100
AcDbCircle
 10
255.9771130352
 20
161.4681376951
 30
0.0
 40
2.589675331419918
100
AcDbArc
 50
355.0640076566
 51
132.7762450228
  0
LWPOLYLINE
  5
96
330
1F
100
AcDbEntity
  8
0
  6
Continuous
 62
     7
370
    15
100
AcDbPolyline
 90
        3
 70
   128
 43
0.0
 10
258.2813639117
 20
160.3006035227
 10
258.3629775716
 20
160.4725536096
 10
258.5571844054
 20
161.2453147906
  0
LINE
  5
97
330
1F
100
AcDbEntity
  8
0
  6
Continuous
 62
     7
370
    15
100
AcDbLine
 10
262.0208401156
 20
167.5568562138
 30
0.0
 11
262.9852283669
 21
168.5203019667
 31
0.0
  0
SPLINE
  5
98
330
1F
100
AcDbEntity
  8
0
  6
Continuous
 62
     7
370
    15
100
AcDbSpline
210
0.0
220
0.0
230
1.0
 70
     8
 71
     3
 72
    11
 73
     7
 74
     0
 42
0.00000001
 43
0.00000001
 12
1.0
 22
0.0
 32
0.0
 13
1.0
 23
0.0
 33
0.0
 40
0.0
 40
0.0
 40
0.0
 40
0.0
 40
0.0081094990923098
 40
0.3263703102441395
 40
0.6627673401664523
 40
1.0
 40
1.0
 40
1.0
 40
1.0
 10
260.8470458460719
 20
157.6419048148396
 30
0.0
 10
260.848127604352
 20
157.6405723062495
 30
0.0
 10
260.8916634357841
 20
157.5869449197725
 30
0.0
 10
260.990526508202
 20
157.4728675772701
 30
0.0
 10
261.1582322112785
 20
157.2969134565698
 30
0.0
 10
261.2725527087424
 20
157.1936598432586
 30
0.0
 10
261.3297838641078
 20
157.1419689941409
 30
0.0
  0
ARC
  5
99
330
1F
100
AcDbEntity
  8
0
  6
Continuous
 62
     7
370
    15
100
AcDbCircle
 10
261.4705360958
 20
155.9819212162
 30
0.0
 40
0.3912772551134152
100
AcDbArc
 50
274.010062138
 51
322.8536559269
  0
SPLINE
  5
9A
330
1F
100
AcDbEntity
  8
0
  6
Continuous
 62
     7
370
    15
100
AcDbSpline
210
0.0
220
0.0
230
1.0
 70
     8
 71
     3
 72
    11
 73
     7
 74
     0
 42
0.00000001
 43
0.00000001
 12
1.0
 22
0.0
 32
0.0
 13
1.0
 23
0.0
 33
0.0
 40
0.0
 40
0.0
 40
0.0
 40
0.0
 40
0.337236821424361
 40
0.6736268286193678
 40
0.9918738708820098
 40
1.0
 40
1.0
 40
1.0
 40
1.0
 10
251.5466201973827
 20
167.0263935017588
 30
0.0
 10
251.5985989591765
 20
166.9677488096556
 30
0.0
 10
251.7024259621554
 20
166.850606684457
 30
0.0
 10
251.8757281921826
 20
166.6819947378193
 30
0.0
 10
251.9866827485606
 20
166.5841019708487
 30
0.0
 10
252.0385279738764
 20
166.5413558512435
 30
0.0
 10
252.0398188305766
 20
166.5402915465834
 30
0.0
  0
SPLINE
  5
9B
330
1F
100
AcDbEntity
  8
0
  6
Continuous
 62
     7
370
    15
100
AcDbSpline
210
0.0
220
0.0
230
1.0
 70
     8
 71
     3
 72
    11
 73
     7
 74
     0
 42
0.00000001
 43
0.00000001
 12
1.0
 22
0.0
 32
0.0
 13
1.0
 23
0.0
 33
0.0
 40
0.0
 40
0.0
 40
0.0
 40
0.0
 40
0.0076343566753267
 40
0.3209911233144858
 40
0.6632245218608651
 40
1.0
 40
1.0
 40
1.0
 40
1.0
 10
261.5424681378277
 20
167.0902300763132
 30
0.0
 10
261.543485600328
 20
167.0911928172279
 30
0.0
 10
261.5862654238054
 20
167.1316718386832
 30
0.0
 10
261.6832418428623
 20
167.2248148042035
 30
0.0
 10
261.8480112610071
 20
167.3850710132397
 30
0.0
 10
261.9635400402026
 20
167.4999021538408
 30
0.0
 10
262.0208401156337
 20
167.5568562138083
 30
0.0
  0
LINE
  5
9C
330
1F
100
AcDbEntity
  8
0
  6
Continuous
 62
     7
370
    15
100
AcDbLine
 10
253.9422798825
 20
162.2918587315
 30
0.0
 11
254.2706269694
 21
162.6323316383
 31
0.0
  0
LINE
  5
9D
330
1F
100
AcDbEntity
  8
0
  6
Continuous
 62
     7
370
    15
100
AcDbLine
 10
254.2706269694
 20
162.6323316383
 30
0.0
 11
253.9646614266
 21
161.7997739601
 31
0.0
  0
ELLIPSE
  5
9E
330
1F
100
AcDbEntity
  8
0
  6
Continuous
 62
     7
370
    15
100
AcDbEllipse
 10
256.1659555235
 20
161.4199457436
 30
0.0
 11
1.759005141004991
 21
-1.403439041303358
 31
0.0
210
0.0
220
0.0
230
1.0
 40
0.9859532801
 41
0.5282529414980812
 42
3.24742383436954
  0
ELLIPSE
  5
9F
330
1F
100
AcDbEntity
  8
0
  6
Continuous
 62
     7
370
    15
100
AcDbEllipse
 10
256.1659555235
 20
161.4199457436
 30
0.0
 11
1.759005141004991
 21
-1.403439041303358
 31
0.0
210
0.0
220
0.0
230
1.0
 40
0.9859532801
 41
0.0036615999074608
 42
0.105831180779757
  0
LINE
  5
A0
330
1F
100
AcDbEntity
  8
0
  6
Continuous
 62
     7
370
    15
100
AcDbLine
 10
258.061288662
 20
160.2075588095
 30
0.0
 11
258.382617302
 21
161.0819403219
 31
0.0
  0
LINE
  5
A1
330
1F
100
AcDbEntity
  8
0
  6
Continuous
 62
     7
370
    15
100
AcDbLine
 10
105.4059702826
 20
111.4468187231
 30
0.0
 11
105.4059702826
 21
172.4468194085
 31
0.0
  0
SPLINE
  5
A2
330
1F
100
AcDbEntity
  8
0
  6
Continuous
 62
     7
370
    15
100
AcDbSpline
210
0.0
220
0.0
230
1.0
 70
     8
 71
     3
 72
    12
 73
     8
 74
     0
 42
0.00000001
 43
0.00000001
 12
1.0
 22
0.0
 32
0.0
 13
1.0
 23
0.0
 33
0.0
 40
0.0
 40
0.0
 40
0.0
 40
0.0
 40
0.2500000000000005
 40
0.2500000000000005
 40
0.500000000000001
 40
0.500000000000001
 40
1.0
 40
1.0
 40
1.0
 40
1.0
 10
93.93372721541687
 20
151.3348854971453
 30
0.0
 10
93.87064717692351
 20
151.3348854971453
 30
0.0
 10
93.8114985547421
 20
151.3602498163603
 30
0.0
 10
93.71302600467301
 20
151.4344146767332
 30
0.0
 10
93.6739893926883
 20
151.4809350172873
 30
0.0
 10
93.57409292590926
 20
151.6310773601325
 30
0.0
 10
93.53167204484261
 20
151.7427705671047
 30
0.0
 10
93.50071451352464
 20
151.8561883864945
 30
0.0
  0
LINE
  5
A3
330
1F
100
AcDbEntity
  8
0
  6
Continuous
 62
     7
370
    15
100
AcDbLine
 10
96.878213614
 20
151.3348858941
 30
0.0
 11
93.9337273983
 21
151.3348858941
 31
0.0
  0
SPLINE
  5
A4
330
1F
100
AcDbEntity
  8
0
  6
Continuous
 62
     7
370
    15
100
AcDbSpline
210
0.0
220
0.0
230
1.0
 70
     8
 71
     3
 72
    12
 73
     8
 74
     0
 42
0.00000001
 43
0.00000001
 12
1.0
 22
0.0
 32
0.0
 13
1.0
 23
0.0
 33
0.0
 40
0.0
 40
0.0
 40
0.0
 40
0.0
 40
0.5000000000000001
 40
0.5000000000000001
 40
0.75
 40
0.75
 40
1.0
 40
1.0
 40
1.0
 40
1.0
 10
97.31122629017622
 20
151.8561883864944
 30
0.0
 10
97.28050404825713
 20
151.7436325870853
 30
0.0
 10
97.23766683372197
 20
151.6308747273457
 30
0.0
 10
97.1382398095222
 20
151.4813338415493
 30
0.0
 10
97.0984876147055
 20
151.4340411098424
 30
0.0
 10
97.0004461578473
 20
151.360304816521
 30
0.0
 10
96.9408901022598
 20
151.3348854971453
 30
0.0
 10
96.87821358828398
 20
151.3348854971453
 30
0.0
  0
ELLIPSE
  5
A5
330
1F
100
AcDbEntity
  8
0
  6
Continuous
 62
     7
370
    15
100
AcDbEllipse
 10
81.0588162125
 20
141.9468190658
 30
0.0
 11
14.75368316065604
 21
31.09325491558118
 31
0.0
210
0.0
220
0.0
230
1.0
 40
0.3419987131
 41
5.193281737408617
 42
6.124043104552319
  0
SPLINE
  5
A6
330
1F
100
AcDbEntity
  8
0
  6
Continuous
 62
     7
370
    15
100
AcDbSpline
210
0.0
220
0.0
230
1.0
 70
     8
 71
     3
 72
    12
 73
     8
 74
     0
 42
0.00000001
 43
0.00000001
 12
1.0
 22
0.0
 32
0.0
 13
1.0
 23
0.0
 33
0.0
 40
0.0
 40
0.0
 40
0.0
 40
0.0
 40
0.2499999999999977
 40
0.2499999999999977
 40
0.4999999999999953
 40
0.4999999999999953
 40
1.0
 40
1.0
 40
1.0
 40
1.0
 10
96.87821358828396
 20
172.0153110246825
 30
0.0
 10
96.94129362677734
 20
172.0153110246825
 30
0.0
 10
97.00044224895876
 20
172.0074050984701
 30
0.0
 10
97.09891479902784
 20
171.9840799370338
 30
0.0
 10
97.13795141101258
 20
171.9693671472021
 30
0.0
 10
97.23784787779161
 20
171.9214113464712
 30
0.0
 10
97.28026875885826
 20
171.8851491898911
 30
0.0
 10
97.31122629017622
 20
171.8475615259266
 30
0.0
  0
LINE
  5
A7
330
1F
100
AcDbEntity
  8
0
  6
Continuous
 62
     7
370
    15
100
AcDbLine
 10
93.9337273983
 20
172.0153115827
 30
0.0
 11
96.878213614
 21
172.0153115827
 31
0.0
  0
SPLINE
  5
A8
330
1F
100
AcDbEntity
  8
0
  6
Continuous
 62
     7
370
    15
100
AcDbSpline
210
0.0
220
0.0
230
1.0
 70
     8
 71
     3
 72
    12
 73
     8
 74
     0
 42
0.00000001
 43
0.00000001
 12
1.0
 22
0.0
 32
0.0
 13
1.0
 23
0.0
 33
0.0
 40
0.0
 40
0.0
 40
0.0
 40
0.0
 40
0.5
 40
0.5
 40
0.75
 40
0.75
 40
1.0
 40
1.0
 40
1.0
 40
1.0
 10
93.50071451352464
 20
171.8475615259266
 30
0.0
 10
93.53143675544374
 20
171.8848635088797
 30
0.0
 10
93.57427396997889
 20
171.9214753409261
 30
0.0
 10
93.67370099417869
 20
171.9692401242113
 30
0.0
 10
93.71345318899529
 20
171.9841976396936
 30
0.0
 10
93.81149464585356
 20
172.0073875854628
 30
0.0
 10
93.87105070144105
 20
172.0153110246825
 30
0.0
 10
93.93372721541688
 20
172.0153110246825
 30
0.0
  0
ELLIPSE
  5
A9
330
1F
100
AcDbEntity
  8
0
  6
Continuous
 62
     7
370
    15
100
AcDbEllipse
 10
109.7531245912
 20
141.9468190658
 30
0.0
 11
-14.75368316065604
 21
31.09325491558116
 31
0.0
210
0.0
220
0.0
230
1.0
 40
0.3419987131
 41
0.1591422026273002
 42
1.08990356977098
  0
SPLINE
  5
AA
330
1F
100
AcDbEntity
  8
0
  6
Continuous
 62
     7
370
    15
100
AcDbSpline
210
0.0
220
0.0
230
1.0
 70
     8
 71
     3
 72
    12
 73
     8
 74
     0
 42
0.00000001
 43
0.00000001
 12
1.0
 22
0.0
 32
0.0
 13
1.0
 23
0.0
 33
0.0
 40
0.0
 40
0.0
 40
0.0
 40
0.0
 40
0.2499999999999995
 40
0.2499999999999995
 40
0.499999999999999
 40
0.499999999999999
 40
1.0
 40
1.0
 40
1.0
 40
1.0
 10
93.93372721541687
 20
111.8783271069364
 30
0.0
 10
93.87064717692351
 20
111.8783271069364
 30
0.0
 10
93.81149855474214
 20
111.8862330331488
 30
0.0
 10
93.71302600467304
 20
111.909558194585
 30
0.0
 10
93.67398939268836
 20
111.9242709844167
 30
0.0
 10
93.5740929259093
 20
111.9722267851477
 30
0.0
 10
93.53167204484267
 20
112.0084889417277
 30
0.0
 10
93.50071451352468
 20
112.0460766056922
 30
0.0
  0
LINE
  5
AB
330
1F
100
AcDbEntity
  8
0
  6
Continuous
 62
     7
370
    15
100
AcDbLine
 10
96.878213614
 20
111.8783265489
 30
0.0
 11
93.9337273983
 21
111.8783265489
 31
0.0
  0
SPLINE
  5
AC
330
1F
100
AcDbEntity
  8
0
  6
Continuous
 62
     7
370
    15
100
AcDbSpline
210
0.0
220
0.0
230
1.0
 70
     8
 71
     3
 72
    12
 73
     8
 74
     0
 42
0.00000001
 43
0.00000001
 12
1.0
 22
0.0
 32
0.0
 13
1.0
 23
0.0
 33
0.0
 40
0.0
 40
0.0
 40
0.0
 40
0.0
 40
0.500000000000001
 40
0.500000000000001
 40
0.7500000000000004
 40
0.7500000000000004
 40
1.0
 40
1.0
 40
1.0
 40
1.0
 10
97.3112262901762
 20
112.0460766056922
 30
0.0
 10
97.28050404825709
 20
112.0087746227391
 30
0.0
 10
97.23766683372196
 20
111.9721627906928
 30
0.0
 10
97.13823980952213
 20
111.9243980074076
 30
0.0
 10
97.0984876147055
 20
111.9094404919252
 30
0.0
 10
97.00044615784725
 20
111.8862505461561
 30
0.0
 10
96.94089010225979
 20
111.8783271069363
 30
0.0
 10
96.87821358828397
 20
111.8783271069363
 30
0.0
  0
ELLIPSE
  5
AD
330
1F
100
AcDbEntity
  8
0
  6
Continuous
 62
     7
370
    15
100
AcDbEllipse
 10
81.0588162125
 20
141.9468190658
 30
0.0
 11
-14.75368316065618
 21
31.09325491558119
 31
0.0
210
0.0
220
0.0
230
1.0
 40
0.3419987131
 41
3.30073485621712
 42
4.231496223360773
  0
SPLINE
  5
AE
330
1F
100
AcDbEntity
  8
0
  6
Continuous
 62
     7
370
    15
100
AcDbSpline
210
0.0
220
0.0
230
1.0
 70
     8
 71
     3
 72
    12
 73
     8
 74
     0
 42
0.00000001
 43
0.00000001
 12
1.0
 22
0.0
 32
0.0
 13
1.0
 23
0.0
 33
0.0
 40
0.0
 40
0.0
 40
0.0
 40
0.0
 40
0.2499999999999977
 40
0.2499999999999977
 40
0.4999999999999953
 40
0.4999999999999953
 40
1.0
 40
1.0
 40
1.0
 40
1.0
 10
96.878213588284
 20
132.5587526344732
 30
0.0
 10
96.94129362677734
 20
132.5587526344732
 30
0.0
 10
97.00044224895873
 20
132.5333883152582
 30
0.0
 10
97.09891479902784
 20
132.4592234548853
 30
0.0
 10
97.13795141101252
 20
132.4127031143312
 30
0.0
 10
97.23784787779158
 20
132.262560771486
 30
0.0
 10
97.28026875885823
 20
132.1508675645138
 30
0.0
 10
97.3112262901762
 20
132.0374497451241
 30
0.0
  0
LINE
  5
AF
330
1F
100
AcDbEntity
  8
0
  6
Continuous
 62
     7
370
    15
100
AcDbLine
 10
93.9337273983
 20
132.5587522376
 30
0.0
 11
96.878213614
 21
132.5587522376
 31
0.0
  0
SPLINE
  5
B0
330
1F
100
AcDbEntity
  8
0
  6
Continuous
 62
     7
370
    15
100
AcDbSpline
210
0.0
220
0.0
230
1.0
 70
     8
 71
     3
 72
    12
 73
     8
 74
     0
 42
0.00000001
 43
0.00000001
 12
1.0
 22
0.0
 32
0.0
 13
1.0
 23
0.0
 33
0.0
 40
0.0
 40
0.0
 40
0.0
 40
0.0
 40
0.5
 40
0.5
 40
0.75
 40
0.75
 40
1.0
 40
1.0
 40
1.0
 40
1.0
 10
93.50071451352468
 20
132.0374497451241
 30
0.0
 10
93.53143675544379
 20
132.1500055445333
 30
0.0
 10
93.57427396997895
 20
132.2627634042728
 30
0.0
 10
93.67370099417874
 20
132.4123042900692
 30
0.0
 10
93.71345318899537
 20
132.459597021776
 30
0.0
 10
93.81149464585359
 20
132.5333333150974
 30
0.0
 10
93.871050701441
 20
132.5587526344732
 30
0.0
 10
93.93372721541687
 20
132.5587526344732
 30
0.0
  0
ELLIPSE
  5
B1
330
1F
100
AcDbEntity
  8
0
  6
Continuous
 62
     7
370
    15
100
AcDbEllipse
 10
109.7531245912
 20
141.9468190658
 30
0.0
 11
14.75368316065618
 21
31.09325491558119
 31
0.0
210
0.0
220
0.0
230
1.0
 40
0.3419987131
 41
2.051689083818826
 42
2.982450450962504
  0
LINE
  5
B2
330
1F
100
AcDbEntity
  8
0
  6
Continuous
 62
     7
370
    15
100
AcDbLine
 10
83.4059704019
 20
110.9468195724
 30
0.0
 11
83.4059704019
 21
172.9467123884
 31
0.0
  0
SPLINE
  5
B3
330
1F
100
AcDbEntity
  8
0
  6
Continuous
 62
     7
370
    15
100
AcDbSpline
210
0.0
220
0.0
230
1.0
 70
     8
 71
     3
 72
    12
 73
     8
 74
     0
 42
0.00000001
 43
0.00000001
 12
1.0
 22
0.0
 32
0.0
 13
1.0
 23
0.0
 33
0.0
 40
0.0
 40
0.0
 40
0.0
 40
0.0
 40
0.4999999999999998
 40
0.4999999999999998
 40
0.7499999999999999
 40
0.7499999999999999
 40
1.0
 40
1.0
 40
1.0
 40
1.0
 10
82.58945811539394
 20
120.0920253633336
 30
0.0
 10
82.64589461630112
 20
120.0906074819919
 30
0.0
 10
82.71497924698986
 20
120.0890431457436
 30
0.0
 10
82.8337815187078
 20
120.0860989537691
 30
0.0
 10
82.87396679417789
 20
120.0850607506717
 30
0.0
 10
82.94734784158172
 20
120.0831268554571
 30
0.0
 10
82.98075740532434
 20
120.0822319681683
 30
0.0
 10
83.0109935129808
 20
120.0814481778959
 30
0.0
  0
SPLINE
  5
B4
330
1F
100
AcDbEntity
  8
0
  6
Continuous
 62
     7
370
    15
100
AcDbSpline
210
0.0
220
0.0
230
1.0
 70
     8
 71
     3
 72
    16
 73
    12
 74
     0
 42
0.00000001
 43
0.00000001
 12
1.0
 22
0.0
 32
0.0
 13
1.0
 23
0.0
 33
0.0
 40
0.0
 40
0.0
 40
0.0
 40
0.0
 40
0.0624999999999998
 40
0.0624999999999998
 40
0.1249999999999996
 40
0.1249999999999996
 40
0.2499999999999958
 40
0.2499999999999958
 40
0.499999999999996
 40
0.499999999999996
 40
1.0
 40
1.0
 40
1.0
 40
1.0
 10
83.01099351294359
 20
120.0814481779202
 30
0.0
 10
83.02257392053154
 20
120.0811479868088
 30
0.0
 10
83.0358834472928
 20
120.0798202385498
 30
0.0
 10
83.06518487737883
 20
120.0731215637748
 30
0.0
 10
83.07999897726317
 20
120.0677633806692
 30
0.0
 10
83.11582737896603
 20
120.0507177315018
 30
0.0
 10
83.12994700332904
 20
120.0392551937261
 30
0.0
 10
83.16445114741752
 20
120.0076918683539
 30
0.0
 10
83.17555569812214
 20
119.9897945693086
 30
0.0
 10
83.20173187533834
 20
119.9396331516943
 30
0.0
 10
83.20597040185038
 20
119.9118887394978
 30
0.0
 10
83.20597040185038
 20
119.8872245775682
 30
0.0
  0
LINE
  5
B5
330
1F
100
AcDbEntity
  8
0
  6
Continuous
 62
     7
370
    15
100
AcDbLine
 10
83.2059704069
 20
134.9249318379
 30
0.0
 11
83.2059704069
 21
119.4069985437
 31
0.0
  0
SPLINE
  5
B6
330
1F
100
AcDbEntity
  8
0
  6
Continuous
 62
     7
370
    15
100
AcDbSpline
210
0.0
220
0.0
230
1.0
 70
     8
 71
     3
 72
    16
 73
    12
 74
     0
 42
0.00000001
 43
0.00000001
 12
1.0
 22
0.0
 32
0.0
 13
1.0
 23
0.0
 33
0.0
 40
0.0
 40
0.0
 40
0.0
 40
0.0
 40
0.4999999999999989
 40
0.4999999999999989
 40
0.7500000000000001
 40
0.7500000000000001
 40
0.8750000000000007
 40
0.8750000000000007
 40
0.9375000000000003
 40
0.9375000000000003
 40
1.0
 40
1.0
 40
1.0
 40
1.0
 10
83.20597040185038
 20
134.9249317400593
 30
0.0
 10
83.20597040185037
 20
135.0386242841872
 30
0.0
 10
83.20182412677241
 20
135.1529444455367
 30
0.0
 10
83.17585853137888
 20
135.3259927360338
 30
0.0
 10
83.16439762600149
 20
135.3851682431955
 30
0.0
 10
83.13008588822709
 20
135.4682913626636
 30
0.0
 10
83.11606115229756
 20
135.4964126787642
 30
0.0
 10
83.08003818926372
 20
135.5250284927417
 30
0.0
 10
83.06528368017412
 20
135.5308215406435
 30
0.0
 10
83.03593151902723
 20
135.5292281147065
 30
0.0
 10
83.02259164452313
 20
135.5227317113827
 30
0.0
 10
83.01099351297478
 20
135.5142159651796
 30
0.0
  0
SPLINE
  5
B7
330
1F
100
AcDbEntity
  8
0
  6
Continuous
 62
     7
370
    15
100
AcDbSpline
210
0.0
220
0.0
230
1.0
 70
     8
 71
     3
 72
    12
 73
     8
 74
     0
 42
0.00000001
 43
0.00000001
 12
1.0
 22
0.0
 32
0.0
 13
1.0
 23
0.0
 33
0.0
 40
0.0
 40
0.0
 40
0.0
 40
0.0
 40
0.2500000000000001
 40
0.2500000000000001
 40
0.5000000000000001
 40
0.5000000000000001
 40
1.0
 40
1.0
 40
1.0
 40
1.0
 10
83.01099351298186
 20
135.5142159651705
 30
0.0
 10
82.98079507154124
 20
135.4920432331254
 30
0.0
 10
82.9474277162053
 20
135.4729635772482
 30
0.0
 10
82.87427244037534
 20
135.4477905328055
 30
0.0
 10
82.83401974135134
 20
135.4422339963887
 30
0.0
 10
82.71629099807656
 20
135.4531458073754
 30
0.0
 10
82.6458325500176
 20
135.4950815627863
 30
0.0
 10
82.58945811539932
 20
135.5442933451678
 30
0.0
  0
SPLINE
  5
B8
330
1F
100
AcDbEntity
  8
0
  6
Continuous
 62
     7
370
    15
100
AcDbSpline
210
0.0
220
0.0
230
1.0
 70
     8
 71
     3
 72
    12
 73
     8
 74
     0
 42
0.00000001
 43
0.00000001
 12
1.0
 22
0.0
 32
0.0
 13
1.0
 23
0.0
 33
0.0
 40
0.0
 40
0.0
 40
0.0
 40
0.0
 40
0.5000000000000009
 40
0.5000000000000009
 40
0.7500000000000004
 40
0.7500000000000004
 40
1.0
 40
1.0
 40
1.0
 40
1.0
 10
82.0846500582908
 20
136.7606447370484
 30
0.0
 10
82.12840041017526
 20
136.5401977520739
 30
0.0
 10
82.18129056129973
 20
136.3246527622683
 30
0.0
 10
82.2929021044414
 20
136.0122386856964
 30
0.0
 10
82.33546144834493
 20
135.9101592100805
 30
0.0
 10
82.44043868368234
 20
135.7157191974387
 30
0.0
 10
82.50200592677693
 20
135.620634298375
 30
0.0
 10
82.58945811539931
 20
135.5442933451679
 30
0.0
  0
SPLINE
  5
B9
330
1F
100
AcDbEntity
  8
0
  6
Continuous
 62
     7
370
    15
100
AcDbSpline
210
0.0
220
0.0
230
1.0
 70
     8
 71
     3
 72
    12
 73
     8
 74
     0
 42
0.00000001
 43
0.00000001
 12
1.0
 22
0.0
 32
0.0
 13
1.0
 23
0.0
 33
0.0
 40
0.0
 40
0.0
 40
0.0
 40
0.0
 40
0.2499999999999995
 40
0.2499999999999995
 40
0.4999999999999991
 40
0.4999999999999991
 40
1.0
 40
1.0
 40
1.0
 40
1.0
 10
82.58945811539918
 20
148.349344786451
 30
0.0
 10
82.50096470783132
 20
148.2720949063427
 30
0.0
 10
82.44090666706545
 20
148.1787755824535
 30
0.0
 10
82.3350583940829
 20
147.9827425294841
 30
0.0
 10
82.29252487280542
 20
147.8804161712723
 30
0.0
 10
82.18137356598177
 20
147.5690717654964
 30
0.0
 10
82.128442708934
 20
147.3536535123184
 30
0.0
 10
82.0846500582908
 20
147.1329933945705
 30
0.0
  0
SPLINE
  5
BA
330
1F
100
AcDbEntity
  8
0
  6
Continuous
 62
     7
370
    15
100
AcDbSpline
210
0.0
220
0.0
230
1.0
 70
     8
 71
     3
 72
    12
 73
     8
 74
     0
 42
0.00000001
 43
0.00000001
 12
1.0
 22
0.0
 32
0.0
 13
1.0
 23
0.0
 33
0.0
 40
0.0
 40
0.0
 40
0.0
 40
0.0
 40
0.5
 40
0.5
 40
0.75
 40
0.75
 40
1.0
 40
1.0
 40
1.0
 40
1.0
 10
82.58945811539914
 20
148.349344786451
 30
0.0
 10
82.64576666369479
 20
148.3984990536949
 30
0.0
 10
82.71604132441291
 20
148.4404563722987
 30
0.0
 10
82.8340792387365
 20
148.4514160498312
 30
0.0
 10
82.87425547959049
 20
148.4459072915838
 30
0.0
 10
82.94821257426844
 20
148.4203500627948
 30
0.0
 10
82.9808289619799
 20
148.4015700149555
 30
0.0
 10
83.01099351297565
 20
148.3794221664388
 30
0.0
  0
SPLINE
  5
BB
330
1F
100
AcDbEntity
  8
0
  6
Continuous
 62
     7
370
    15
100
AcDbSpline
210
0.0
220
0.0
230
1.0
 70
     8
 71
     3
 72
    16
 73
    12
 74
     0
 42
0.00000001
 43
0.00000001
 12
1.0
 22
0.0
 32
0.0
 13
1.0
 23
0.0
 33
0.0
 40
0.0
 40
0.0
 40
0.0
 40
0.0
 40
0.0624999999999994
 40
0.0624999999999994
 40
0.1249999999999988
 40
0.1249999999999988
 40
0.2499999999999967
 40
0.2499999999999967
 40
0.4999999999999956
 40
0.4999999999999956
 40
1.0
 40
1.0
 40
1.0
 40
1.0
 10
83.0109935129439
 20
148.3794221663842
 30
0.0
 10
83.02260641278328
 20
148.370895576789
 30
0.0
 10
83.03595759721576
 20
148.3643953152563
 30
0.0
 10
83.06535743683493
 20
148.3628259181388
 30
0.0
 10
83.08019816139007
 20
148.3687093087694
 30
0.0
 10
83.11603136935861
 20
148.39725694482
 30
0.0
 10
83.13014457718018
 20
148.4254239641257
 30
0.0
 10
83.1646359483991
 20
148.5091782225477
 30
0.0
 10
83.17572001950947
 20
148.566891636169
 30
0.0
 10
83.20184283730548
 20
148.7404821728149
 30
0.0
 10
83.20597040185037
 20
148.8555102254568
 30
0.0
 10
83.20597040185037
 20
148.9687063915596
 30
0.0
  0
LINE
  5
BC
330
1F
100
AcDbEntity
  8
0
  6
Continuous
 62
     7
370
    15
100
AcDbLine
 10
83.2059704069
 20
164.4866395879
 30
0.0
 11
83.2059704069
 21
148.9687062937
 31
0.0
  0
SPLINE
  5
BD
330
1F
100
AcDbEntity
  8
0
  6
Continuous
 62
     7
370
    15
100
AcDbSpline
210
0.0
220
0.0
230
1.0
 70
     8
 71
     3
 72
    16
 73
    12
 74
     0
 42
0.00000001
 43
0.00000001
 12
1.0
 22
0.0
 32
0.0
 13
1.0
 23
0.0
 33
0.0
 40
0.0
 40
0.0
 40
0.0
 40
0.0
 40
0.499999999999998
 40
0.499999999999998
 40
0.7499999999999967
 40
0.7499999999999967
 40
0.875
 40
0.875
 40
0.9375
 40
0.9375
 40
1.0
 40
1.0
 40
1.0
 40
1.0
 10
83.20597040185037
 20
164.0064135540507
 30
0.0
 10
83.20597040185035
 20
163.9817423980078
 30
0.0
 10
83.20180470339037
 20
163.9541605666165
 30
0.0
 10
83.17554637506538
 20
163.9038176957932
 30
0.0
 10
83.1640425933278
 20
163.8855281977313
 30
0.0
 10
83.12991183398125
 20
163.8543731666943
 30
0.0
 10
83.1154899473106
 20
163.8427337914826
 30
0.0
 10
83.07992297887267
 20
163.8258517655515
 30
0.0
 10
83.06497121057811
 20
163.8204626617438
 30
0.0
 10
83.03596739221832
 20
163.8138421657994
 30
0.0
 10
83.02255203820918
 20
163.8124895775929
 30
0.0
 10
83.0109935129726
 20
163.8121899537213
 30
0.0
  0
SPLINE
  5
BE
330
1F
100
AcDbEntity
  8
0
  6
Continuous
 62
     7
370
    15
100
AcDbSpline
210
0.0
220
0.0
230
1.0
 70
     8
 71
     3
 72
    12
 73
     8
 74
     0
 42
0.00000001
 43
0.00000001
 12
1.0
 22
0.0
 32
0.0
 13
1.0
 23
0.0
 33
0.0
 40
0.0
 40
0.0
 40
0.0
 40
0.0
 40
0.2500000000000001
 40
0.2500000000000001
 40
0.4999999999999999
 40
0.4999999999999999
 40
1.0
 40
1.0
 40
1.0
 40
1.0
 10
83.01099351298183
 20
163.812189953723
 30
0.0
 10
82.98080573643219
 20
163.8114074163055
 30
0.0
 10
82.94745193234044
 20
163.810514084487
 30
0.0
 10
82.87432572914454
 20
163.8085867756834
 30
0.0
 10
82.83409052612038
 20
163.8075472444707
 30
0.0
 10
82.71639889598733
 20
163.8046293611234
 30
0.0
 10
82.64601822282725
 20
163.8030337550532
 30
0.0
 10
82.58945811539662
 20
163.8016127682854
 30
0.0
  0
SPLINE
  5
BF
330
1F
100
AcDbEntity
  8
0
  6
Continuous
 62
     7
370
    15
100
AcDbSpline
210
0.0
220
0.0
230
1.0
 70
     8
 71
     3
 72
    16
 73
    12
 74
     0
 42
0.00000001
 43
0.00000001
 12
1.0
 22
0.0
 32
0.0
 13
1.0
 23
0.0
 33
0.0
 40
0.0
 40
0.0
 40
0.0
 40
0.0
 40
0.2500000000000002
 40
0.2500000000000002
 40
0.3750000000000001
 40
0.3750000000000001
 40
0.5000000000000001
 40
0.5000000000000001
 40
0.75
 40
0.75
 40
1.0
 40
1.0
 40
1.0
 40
1.0
 10
82.08465005829072
 20
147.1329933945706
 30
0.0
 10
81.92341758080626
 20
146.3205836193237
 30
0.0
 10
81.80293774116663
 20
145.480505324939
 30
0.0
 10
81.68055722385331
 20
144.1792102755762
 30
0.0
 10
81.64957956345584
 20
143.7385292399914
 30
0.0
 10
81.60796582582789
 20
142.8426895990603
 30
0.0
 10
81.59772991289509
 20
142.3960314678579
 30
0.0
 10
81.59754151583897
 20
141.0607215107179
 30
0.0
 10
81.63768621847659
 20
140.1762261374104
 30
0.0
 10
81.80183997341615
 20
138.4189762493844
 30
0.0
 10
81.92339162382571
 20
137.5731853029712
 30
0.0
 10
82.08465005829072
 20
136.7606447370484
 30
0.0
  0
LINE
  5
C0
330
1F
100
AcDbEntity
  8
0
  6
Continuous
 62
     7
370
    15
100
AcDbLine
 10
81.2059704138
 20
148.4319972011
 30
0.0
 11
81.2059704138
 21
135.4616409305
 31
0.0
  0
LINE
  5
C1
330
1F
100
AcDbEntity
  8
0
  6
Continuous
 62
     7
370
    15
100
AcDbLine
 10
46.9059709383
 20
148.0011296596
 30
0.0
 11
46.9059709383
 21
135.8925084721
 31
0.0
  0
LINE
  5
C2
330
1F
100
AcDbEntity
  8
0
  6
Continuous
 62
     7
370
    15
100
AcDbLine
 10
45.4059716237
 20
147.5681168164
 30
0.0
 11
45.4059716237
 21
136.3255213152
 31
0.0
  0
LINE
  5
C3
330
1F
100
AcDbEntity
  8
0
  6
Continuous
 62
     7
370
    15
100
AcDbLine
 10
46.9059709383
 20
120.7884553957
 30
0.0
 11
46.9059709383
 21
135.8925084721
 31
0.0
  0
LINE
  5
C4
330
1F
100
AcDbEntity
  8
0
  6
Continuous
 62
     7
370
    15
100
AcDbLine
 10
81.2059704138
 20
119.9267193812
 30
0.0
 11
81.2059704138
 21
135.4616409305
 31
0.0
  0
LINE
  5
C5
330
1F
100
AcDbEntity
  8
0
  6
Continuous
 62
     7
370
    15
100
AcDbLine
 10
46.9059709383
 20
120.7884553957
 30
0.0
 11
81.2059704138
 21
119.9267193812
 31
0.0
  0
ARC
  5
C6
330
1F
100
AcDbEntity
  8
0
  6
Continuous
 62
     7
370
    15
100
AcDbCircle
 10
81.4059073128
 20
119.9216971701
 30
0.0
 40
0.2000000000000343
100
AcDbArc
 50
88.5608333333
 51
178.5608333333
  0
LINE
  5
C7
330
1F
100
AcDbEntity
  8
0
  6
Continuous
 62
     7
370
    15
100
AcDbLine
 10
81.2059704138
 20
148.4319972011
 30
0.0
 11
81.2059704138
 21
163.9669187504
 31
0.0
  0
ARC
  5
C8
330
1F
100
AcDbEntity
  8
0
  6
Continuous
 62
     7
370
    15
100
AcDbCircle
 10
81.4059073128
 20
163.9719409615
 30
0.0
 40
0.2000000000000094
100
AcDbArc
 50
181.4391666667
 51
271.4391666667
  0
LINE
  5
C9
330
1F
100
AcDbEntity
  8
0
  6
Continuous
 62
     7
370
    15
100
AcDbLine
 10
46.9059709383
 20
148.0011296596
 30
0.0
 11
46.9059709383
 21
163.1051827359
 31
0.0
  0
LINE
  5
CA
330
1F
100
AcDbEntity
  8
0
  6
Continuous
 62
     7
370
    15
100
AcDbLine
 10
46.9059709383
 20
163.1051827359
 30
0.0
 11
81.2059704138
 21
163.9669187504
 31
0.0
  0
LINE
  5
CB
330
1F
100
AcDbEntity
  8
0
  6
Continuous
 62
     7
370
    15
100
AcDbLine
 10
81.4109305309
 20
163.7720041114
 30
0.0
 11
82.589458131
 21
163.8016127187
 31
0.0
  0
LINE
  5
CC
330
1F
100
AcDbEntity
  8
0
  6
Continuous
 62
     7
370
    15
100
AcDbLine
 10
81.4109305309
 20
120.1216340202
 30
0.0
 11
82.589458131
 21
120.0920254129
 31
0.0
  0
LINE
  5
CD
330
1F
100
AcDbEntity
  8
0
  6
Continuous
 62
     7
370
    15
100
AcDbLine
 10
45.4059716237
 20
121.654481082
 30
0.0
 11
46.9059709383
 21
120.7884553957
 31
0.0
  0
LINE
  5
CE
330
1F
100
AcDbEntity
  8
0
  6
Continuous
 62
     7
370
    15
100
AcDbLine
 10
45.4059716237
 20
121.654481082
 30
0.0
 11
45.4059716237
 21
136.3255213152
 31
0.0
  0
LINE
  5
CF
330
1F
100
AcDbEntity
  8
0
  6
Continuous
 62
     7
370
    15
100
AcDbLine
 10
45.4059716237
 20
162.2391570497
 30
0.0
 11
46.9059709383
 21
163.1051827359
 31
0.0
  0
LINE
  5
D0
330
1F
100
AcDbEntity
  8
0
  6
Continuous
 62
     7
370
    15
100
AcDbLine
 10
45.4059716237
 20
147.5681168164
 30
0.0
 11
45.4059716237
 21
162.2391570497
 31
0.0
  0
ELLIPSE
  5
D1
330
1F
100
AcDbEntity
  8
0
  6
Continuous
 62
     7
370
    15
100
AcDbEllipse
 10
232.2613741364
 20
141.9468190658
 30
0.0
 11
-0.8021781934011187
 21
19.9988707082226
 31
0.0
210
0.0
220
0.0
230
1.0
 40
0.2649452246
 41
0.4265913240725507
 42
2.414494921006887
  0
ELLIPSE
  5
D2
330
1F
100
AcDbEntity
  8
0
  6
Continuous
 62
     7
370
    15
100
AcDbEllipse
 10
228.734673972
 20
148.003445614
 30
0.0
 11
0.1164374532819181
 21
2.987911037318241
 31
0.0
210
0.0
220
0.0
230
1.0
 40
0.240361677
 41
5.464473231300505
 42
10.56495024227875
  0
SPLINE
  5
D3
330
1F
100
AcDbEntity
  8
0
  6
Continuous
 62
     7
370
    15
100
AcDbSpline
210
0.0
220
0.0
230
1.0
 70
     8
 71
     3
 72
    14
 73
    10
 74
     0
 42
0.00000001
 43
0.00000001
 12
1.0
 22
0.0
 32
0.0
 13
1.0
 23
0.0
 33
0.0
 40
0.0
 40
0.0
 40
0.0
 40
0.0
 40
0.25
 40
0.25
 40
0.5
 40
0.5
 40
0.75
 40
0.75
 40
1.0
 40
1.0
 40
1.0
 40
1.0
 10
234.5070661714442
 20
124.1180819061521
 30
0.0
 10
233.8693010375054
 20
124.1501967925009
 30
0.0
 10
233.2612319752231
 20
124.2287188940953
 30
0.0
 10
232.1039939446515
 20
124.4920158255976
 30
0.0
 10
231.586034947385
 20
124.6702951079177
 30
0.0
 10
230.6700596300794
 20
125.1393833709792
 30
0.0
 10
230.2941276181617
 20
125.4196236153831
 30
0.0
 10
229.6932404483772
 20
126.0825042858098
 30
0.0
 10
229.47903337996
 20
126.4538564553252
 30
0.0
 10
229.3386819933159
 20
126.8642571106753
 30
0.0
  0
ELLIPSE
  5
D4
330
1F
100
AcDbEntity
  8
0
  6
Continuous
 62
     7
370
    15
100
AcDbEllipse
 10
296.2878160603
 20
141.9468190658
 30
0.0
 11
190.2870637919095
 21
-2.813935298683731
 31
0.0
210
0.0
220
0.0
230
1.0
 40
0.1040588589
 41
4.383264002517431
 42
4.399327322519772
  0
LINE
  5
D5
330
1F
100
AcDbEntity
  8
0
  6
Continuous
 62
     7
370
    15
100
AcDbLine
 10
237.4059695674
 20
161.6414398092
 30
0.0
 11
237.4059695674
 21
161.9468186188
 31
0.0
  0
LINE
  5
D6
330
1F
100
AcDbEntity
  8
0
  6
Continuous
 62
     7
370
    15
100
AcDbLine
 10
237.4059695674
 20
121.9468195128
 30
0.0
 11
237.4059695674
 21
123.9748079467
 31
0.0
  0
ELLIPSE
  5
D7
330
1F
100
AcDbEntity
  8
0
  6
Continuous
 62
     7
370
    15
100
AcDbEllipse
 10
296.2878160603
 20
141.9468190658
 30
0.0
 11
190.2870637919095
 21
-2.813935298683731
 31
0.0
210
0.0
220
0.0
230
1.0
 40
0.1040588589
 41
1.886935594448542
 42
1.902998914450885
  0
SPLINE
  5
D8
330
1F
100
AcDbEntity
  8
0
  6
Continuous
 62
     7
370
    15
100
AcDbSpline
210
0.0
220
0.0
230
1.0
 70
     8
 71
     3
 72
    20
 73
    16
 74
     0
 42
0.00000001
 43
0.00000001
 12
1.0
 22
0.0
 32
0.0
 13
1.0
 23
0.0
 33
0.0
 40
0.0
 40
0.0
 40
0.0
 40
0.0
 40
0.2500000000000003
 40
0.2500000000000003
 40
0.3750000000000003
 40
0.3750000000000003
 40
0.5000000000000002
 40
0.5000000000000002
 40
0.6250000000000001
 40
0.6250000000000001
 40
0.7500000000000001
 40
0.7500000000000001
 40
0.875
 40
0.875
 40
1.0
 40
1.0
 40
1.0
 40
1.0
 10
229.3386819933159
 20
160.0654799545609
 30
0.0
 10
229.4790916801317
 20
160.330193198072
 30
0.0
 10
229.6919481484618
 20
160.5556706054982
 30
0.0
 10
230.1398893360704
 20
160.8436220590394
 30
0.0
 10
230.3113113974251
 20
160.9309436921312
 30
0.0
 10
230.6882151033501
 20
161.0848810060367
 30
0.0
 10
230.8949276114792
 20
161.1524161153822
 30
0.0
 10
231.3465895934696
 20
161.2715221803244
 30
0.0
 10
231.5943237099045
 20
161.3234927727708
 30
0.0
 10
232.1152952373714
 20
161.4110327016724
 30
0.0
 10
232.3882379082796
 20
161.4468600543511
 30
0.0
 10
232.9589356684907
 20
161.5059137958155
 30
0.0
 10
233.2588886694435
 20
161.5292497328686
 30
0.0
 10
233.8743819066484
 20
161.5644135627159
 30
0.0
 10
234.1878380443032
 20
161.5762388857064
 30
0.0
 10
234.5070661714444
 20
161.5829745944046
 30
0.0
  0
SPLINE
  5
D9
330
1F
100
AcDbEntity
  8
0
  6
Continuous
 62
     7
370
    15
100
AcDbSpline
210
0.0
220
0.0
230
1.0
 70
     8
 71
     3
 72
    18
 73
    14
 74
     0
 42
0.00000001
 43
0.00000001
 12
1.0
 22
0.0
 32
0.0
 13
1.0
 23
0.0
 33
0.0
 40
0.0
 40
0.0
 40
0.0
 40
0.0
 40
0.1250000000000001
 40
0.1250000000000001
 40
0.2500000000000002
 40
0.2500000000000002
 40
0.3750000000000002
 40
0.3750000000000002
 40
0.5000000000000003
 40
0.5000000000000003
 40
0.7500000000000001
 40
0.7500000000000001
 40
1.0
 40
1.0
 40
1.0
 40
1.0
 10
229.3386819933158
 20
150.0242357503421
 30
0.0
 10
229.3622436212027
 20
149.8963734345577
 30
0.0
 10
229.3843037307742
 20
149.7634718781473
 30
0.0
 10
229.4229392549198
 20
149.48804277081
 30
0.0
 10
229.4396211906171
 20
149.3442589301019
 30
0.0
 10
229.4652039597839
 20
149.0530964985473
 30
0.0
 10
229.4740514383353
 20
148.9072370858633
 30
0.0
 10
229.4840620929595
 20
148.6149951180813
 30
0.0
 10
229.4851889225216
 20
148.4675764142429
 30
0.0
 10
229.4782351048438
 20
148.0356799604424
 30
0.0
 10
229.460244010803
 20
147.7591903287726
 30
0.0
 10
229.4082241285951
 20
147.2241444063624
 30
0.0
 10
229.3744967437673
 20
146.96946081442
 30
0.0
 10
229.3386819933156
 20
146.7307461038108
 30
0.0
  0
LINE
  5
DA
330
1F
100
AcDbEntity
  8
0
  6
Continuous
 62
     7
370
    15
100
AcDbLine
 10
249.9338228179
 20
160.0089170176
 30
0.0
 11
250.5872685386
 21
167.4362331766
 31
0.0
  0
LINE
  5
DB
330
1F
100
AcDbEntity
  8
0
  6
Continuous
 62
     7
370
    15
100
AcDbLine
 10
248.6371833754
 20
159.9149279433
 30
0.0
 11
249.9338228179
 21
160.0089170176
 31
0.0
  0
ARC
  5
DC
330
1F
100
AcDbEntity
  8
0
  6
Continuous
 62
     7
370
    15
100
AcDbCircle
 10
248.8356894771
 20
157.5932184664
 30
0.0
 40
2.330180157787527
100
AcDbArc
 50
94.8869026739
 51
275.1428819606
  0
LINE
  5
DD
330
1F
100
AcDbEntity
  8
0
  6
Continuous
 62
     7
370
    15
100
AcDbLine
 10
261.2905938102
 20
156.1600942302
 30
0.0
 11
249.0445662213
 21
155.2724190193
 31
0.0
  0
LINE
  5
DE
330
1F
100
AcDbEntity
  8
0
  6
Continuous
 62
     7
370
    15
100
AcDbLine
 10
260.486050315
 20
147.0150648753
 30
0.0
 11
261.2905938102
 21
156.1600942302
 31
0.0
  0
LINE
  5
DF
330
1F
100
AcDbEntity
  8
0
  6
Continuous
 62
     7
370
    15
100
AcDbLine
 10
243.5464549733
 20
123.1740791488
 30
0.0
 11
260.486050315
 21
147.0150648753
 31
0.0
  0
ELLIPSE
  5
E0
330
1F
100
AcDbEntity
  8
0
  6
Continuous
 62
     7
370
    15
100
AcDbEllipse
 10
296.2878160603
 20
141.9468190658
 30
0.0
 11
195.0442403867073
 21
-2.884283681150834
 31
0.0
210
0.0
220
0.0
230
1.0
 40
0.1040588589
 41
4.409941788983812
 42
4.440112148992446
  0
SPLINE
  5
E1
330
1F
100
AcDbEntity
  8
0
  6
Continuous
 62
     7
370
    15
100
AcDbSpline
210
0.0
220
0.0
230
1.0
 70
     8
 71
     3
 72
     8
 73
     4
 74
     0
 42
0.00000001
 43
0.00000001
 12
1.0
 22
0.0
 32
0.0
 13
1.0
 23
0.0
 33
0.0
 40
0.0
 40
0.0
 40
0.0
 40
0.0
 40
1.0
 40
1.0
 40
1.0
 40
1.0
 10
237.9059704018502
 20
123.4310729648781
 30
0.0
 10
237.7391101295349
 20
123.6121383135478
 30
0.0
 10
237.572438416576
 20
123.7933786597285
 30
0.0
 10
237.4059704018502
 20
123.974808053456
 30
0.0
  0
SPLINE
  5
E2
330
1F
100
AcDbEntity
  8
0
  6
Continuous
 62
     7
370
    15
100
AcDbSpline
210
0.0
220
0.0
230
1.0
 70
     8
 71
     3
 72
     8
 73
     4
 74
     0
 42
0.00000001
 43
0.00000001
 12
1.0
 22
0.0
 32
0.0
 13
1.0
 23
0.0
 33
0.0
 40
0.0
 40
0.0
 40
0.0
 40
0.0
 40
1.0
 40
1.0
 40
1.0
 40
1.0
 10
237.4059704018503
 20
161.6414399466333
 30
0.0
 10
238.9631782112535
 20
163.2930457445983
 30
0.0
 10
240.5375369825072
 20
164.9282323799727
 30
0.0
 10
242.1206118645125
 20
166.5550748046355
 30
0.0
  0
ELLIPSE
  5
E3
330
1F
100
AcDbEntity
  8
0
  6
Continuous
 62
     7
370
    15
100
AcDbEllipse
 10
274.9110672744
 20
143.8599092699
 30
0.0
 11
217.1628490301413
 21
19.44089462863735
 31
0.0
210
0.0
220
0.0
230
1.0
 40
0.1182598878
 41
1.672446263155184
 42
1.711775786279166
  0
CIRCLE
  5
E4
330
1F
100
AcDbEntity
  8
0
  6
Continuous
 62
     7
370
    15
100
AcDbCircle
 10
252.0097073452
 20
150.2278300002
 30
0.0
 40
3.966129047037905
  0
LINE
  5
E5
330
1F
100
AcDbEntity
  8
0
  6
Continuous
 62
     7
370
    15
100
AcDbLine
 10
237.9059631301
 20
123.4310738879
 30
0.0
 11
237.9059631301
 21
121.4468184996
 31
0.0
  0
LINE
  5
E6
330
1F
100
AcDbEntity
  8
0
  6
Continuous
 62
     7
370
    15
100
AcDbLine
 10
241.9211108161
 20
166.3826577502
 30
0.0
 11
242.0210678054
 21
166.533392309
 31
0.0
  0
LINE
  5
E7
330
1F
100
AcDbEntity
  8
0
  6
Continuous
 62
     7
370
    15
100
AcDbLine
 10
242.0944560243
 20
166.549375667
 30
0.0
 11
242.1206075622
 21
166.5550753611
 31
0.0
  0
ELLIPSE
  5
E8
330
1F
100
AcDbEntity
  8
0
  6
Continuous
 62
     7
370
    15
100
AcDbEllipse
 10
256.8594441763
 20
141.9468190658
 30
0.0
 11
14.59302442225271
 21
20.49991501975614
 31
0.0
210
0.0
220
0.0
230
1.0
 40
0.0040448756
 41
3.144472021887815
 42
3.557913998333561
  0
LWPOLYLINE
  5
E9
330
1F
100
AcDbEntity
  8
0
  6
Continuous
 62
     7
370
    15
100
AcDbPolyline
 90
        3
 70
   128
 43
0.0
 10
248.1458920909
 20
159.2643972623
 10
247.3618674947
 20
159.066686793
 10
246.7492360545
 20
158.662511422
  0
LINE
  5
EA
330
1F
100
AcDbEntity
  8
0
  6
Continuous
 62
     7
370
    15
100
AcDbLine
 10
249.4425464345
 20
159.3583863366
 30
0.0
 11
249.9338228179
 21
160.0089170176
 31
0.0
  0
LINE
  5
EB
330
1F
100
AcDbEntity
  8
0
  6
Continuous
 62
     7
370
    15
100
AcDbLine
 10
249.4425464345
 20
159.3583863366
 30
0.0
 11
249.4648534728
 21
159.3600031126
 31
0.0
  0
LINE
  5
EC
330
1F
100
AcDbEntity
  8
0
  6
Continuous
 62
     7
370
    15
100
AcDbLine
 10
247.8385854436
 20
158.8574689019
 30
0.0
 11
249.4307894183
 21
158.9728839833
 31
0.0
  0
ARC
  5
ED
330
1F
100
AcDbEntity
  8
0
  6
Continuous
 62
     7
370
    15
100
AcDbCircle
 10
248.2887984121
 20
157.2165231991
 30
0.0
 40
2.052854207093901
100
AcDbArc
 50
93.9917869825
 51
142.8706102597
  0
LWPOLYLINE
  5
EE
330
1F
100
AcDbEntity
  8
0
  6
Continuous
 62
     7
370
    15
100
AcDbPolyline
 90
        3
 70
   128
 43
0.0
 10
246.6178078128
 20
158.3443027127
 10
247.1379626466
 20
158.6807914215
 10
247.8385854436
 20
158.8574689019
  0
LINE
  5
EF
330
1F
100
AcDbEntity
  8
0
  6
HIDDEN
 62
     7
370
     0
100
AcDbLine
 10
105.4059702826
 20
172.4468194085
 30
0.0
 11
105.4059702826
 21
111.4468187231
 31
0.0
  0
SPLINE
  5
F0
330
1F
100
AcDbEntity
  8
0
  6
HIDDEN
 62
     7
370
     0
100
AcDbSpline
210
0.0
220
0.0
230
1.0
 70
     8
 71
     3
 72
    60
 73
    56
 74
     0
 42
0.00000001
 43
0.00000001
 12
1.0
 22
0.0
 32
0.0
 13
1.0
 23
0.0
 33
0.0
 40
-0.0624999999999994
 40
-0.0624999999999994
 40
0.0
 40
0.0
 40
0.0312500000000002
 40
0.0312500000000002
 40
0.0625000000000004
 40
0.0625000000000004
 40
0.0937500000000006
 40
0.0937500000000006
 40
0.1250000000000008
 40
0.1250000000000008
 40
0.1875000000000009
 40
0.1875000000000009
 40
0.2500000000000011
 40
0.2500000000000011
 40
0.2812500000000011
 40
0.2812500000000011
 40
0.3125000000000011
 40
0.3125000000000011
 40
0.3437500000000012
 40
0.3437500000000012
 40
0.3750000000000012
 40
0.3750000000000012
 40
0.4062500000000012
 40
0.4062500000000012
 40
0.4375000000000013
 40
0.4375000000000013
 40
0.4687500000000013
 40
0.4687500000000013
 40
0.5000000000000013
 40
0.5000000000000013
 40
0.5625000000000014
 40
0.5625000000000014
 40
0.6250000000000014
 40
0.6250000000000014
 40
0.6562500000000013
 40
0.6562500000000013
 40
0.6875000000000012
 40
0.6875000000000012
 40
0.7187500000000011
 40
0.7187500000000011
 40
0.7500000000000009
 40
0.7500000000000009
 40
0.7812500000000008
 40
0.7812500000000008
 40
0.8125000000000007
 40
0.8125000000000007
 40
0.8437500000000007
 40
0.8437500000000007
 40
0.8750000000000007
 40
0.8750000000000007
 40
0.9062500000000007
 40
0.9062500000000007
 40
0.9375000000000006
 40
0.9375000000000006
 40
1.0
 40
1.0
 40
1.03125
 40
1.03125
 10
95.67030094890929
 20
139.9468190658095
 30
0.0
 10
95.27380512832093
 20
139.9468190658095
 30
0.0
 10
95.14385508494183
 20
139.9597909259454
 30
0.0
 10
94.88820222589857
 20
140.010611074931
 30
0.0
 10
94.76117277650296
 20
140.0490783773425
 30
0.0
 10
94.51898481541315
 20
140.149476508652
 30
0.0
 10
94.40412339268848
 20
140.210909470717
 30
0.0
 10
94.18674325743056
 20
140.3560441846868
 30
0.0
 10
94.08384572230577
 20
140.4404992222865
 30
0.0
 10
93.80717864044519
 20
140.7172185369092
 30
0.0
 10
93.65818031446913
 20
140.9402955932656
 30
0.0
 10
93.45866897261848
 20
141.4215792786252
 30
0.0
 10
93.40611087140685
 20
141.6848097514933
 30
0.0
 10
93.4059005999895
 20
142.0762120457486
 30
0.0
 10
93.41888637918764
 20
142.2087350828308
 30
0.0
 10
93.46991354429257
 20
142.4652655504125
 30
0.0
 10
93.50766876296348
 20
142.5899524324399
 30
0.0
 10
93.6078071809492
 20
142.8321318187236
 30
0.0
 10
93.6704129374541
 20
142.9492254640999
 30
0.0
 10
93.81514637256977
 20
143.1659405558254
 30
0.0
 10
93.89777377618458
 20
143.2669593760172
 30
0.0
 10
94.08437883329512
 20
143.4537441555962
 30
0.0
 10
94.18549395620188
 20
143.536601033145
 30
0.0
 10
94.40202668207439
 20
143.6814851620857
 30
0.0
 10
94.51889678971206
 20
143.7441225846717
 30
0.0
 10
94.76119450516148
 20
143.8445713086788
 30
0.0
 10
94.88585842262717
 20
143.8824223792611
 30
0.0
 10
95.14214534346284
 20
143.9336439188208
 30
0.0
 10
95.27471735750535
 20
143.9467720545252
 30
0.0
 10
95.66632155656825
 20
143.9469127013996
 30
0.0
 10
95.92948678409851
 20
143.8945879666975
 30
0.0
 10
96.410991947597
 20
143.6954770616262
 30
0.0
 10
96.63424329628043
 20
143.5466149574706
 30
0.0
 10
96.9110996970855
 20
143.2702940765924
 30
0.0
 10
96.99561322634936
 20
143.1675303980487
 30
0.0
 10
97.14103062914212
 20
142.9501467659198
 30
0.0
 10
97.20254189849504
 20
142.8353479245581
 30
0.0
 10
97.3030718507836
 20
142.5934710339041
 30
0.0
 10
97.34171689788337
 20
142.4663173638997
 30
0.0
 10
97.39277325035442
 20
142.2106512469378
 30
0.0
 10
97.40583810837437
 20
142.0807851640701
 30
0.0
 10
97.40610071566296
 20
141.816832578632
 30
0.0
 10
97.39322371706264
 20
141.686428333637
 30
0.0
 10
97.34263769040783
 20
141.4307775116154
 30
0.0
 10
97.30436129701836
 20
141.3039118900102
 30
0.0
 10
97.20409032959806
 20
141.0613912861529
 30
0.0
 10
97.1427342398794
 20
140.9464645858068
 30
0.0
 10
96.99788783253908
 20
140.7290930668195
 30
0.0
 10
96.91351024233877
 20
140.6260792262364
 30
0.0
 10
96.72910282613941
 20
140.441378704224
 30
0.0
 10
96.62852976360584
 20
140.3585490361404
 30
0.0
 10
96.41030374781187
 20
140.2122967654769
 30
0.0
 10
96.29374870890004
 20
140.1499283514241
 30
0.0
 10
95.9328993558463
 20
139.9999723525088
 30
0.0
 10
95.67030094890929
 20
139.9468190658095
 30
0.0
 10
95.27380512832093
 20
139.9468190658095
 30
0.0
  0
SPLINE
  5
F1
330
1F
100
AcDbEntity
  8
0
  6
HIDDEN
 62
     7
370
     0
100
AcDbSpline
210
0.0
220
0.0
230
1.0
 70
     8
 71
     3
 72
    12
 73
     8
 74
     0
 42
0.00000001
 43
0.00000001
 12
1.0
 22
0.0
 32
0.0
 13
1.0
 23
0.0
 33
0.0
 40
0.0
 40
0.0
 40
0.0
 40
0.0
 40
0.2500000000000023
 40
0.2500000000000023
 40
0.5000000000000047
 40
0.5000000000000047
 40
1.0
 40
1.0
 40
1.0
 40
1.0
 10
93.93372721541685
 20
132.5587526344734
 30
0.0
 10
93.87064717692348
 20
132.5587526344734
 30
0.0
 10
93.81149855474212
 20
132.5333883152584
 30
0.0
 10
93.71302600467307
 20
132.4592234548855
 30
0.0
 10
93.67398939268837
 20
132.4127031143314
 30
0.0
 10
93.5740929259093
 20
132.2625607714862
 30
0.0
 10
93.53167204484265
 20
132.150867564514
 30
0.0
 10
93.50071451352468
 20
132.0374497451243
 30
0.0
  0
LINE
  5
F2
330
1F
100
AcDbEntity
  8
0
  6
HIDDEN
 62
     7
370
     0
100
AcDbLine
 10
96.878213614
 20
132.5587522376
 30
0.0
 11
93.9337273983
 21
132.5587522376
 31
0.0
  0
SPLINE
  5
F3
330
1F
100
AcDbEntity
  8
0
  6
HIDDEN
 62
     7
370
     0
100
AcDbSpline
210
0.0
220
0.0
230
1.0
 70
     8
 71
     3
 72
    12
 73
     8
 74
     0
 42
0.00000001
 43
0.00000001
 12
1.0
 22
0.0
 32
0.0
 13
1.0
 23
0.0
 33
0.0
 40
0.0
 40
0.0
 40
0.0
 40
0.0
 40
0.5000000000000037
 40
0.5000000000000037
 40
0.7500000000000018
 40
0.7500000000000018
 40
1.0
 40
1.0
 40
1.0
 40
1.0
 10
97.3112262901762
 20
132.0374497451243
 30
0.0
 10
97.28050404825707
 20
132.1500055445335
 30
0.0
 10
97.23766683372195
 20
132.262763404273
 30
0.0
 10
97.13823980952213
 20
132.4123042900694
 30
0.0
 10
97.09848761470549
 20
132.4595970217762
 30
0.0
 10
97.00044615784725
 20
132.5333333150977
 30
0.0
 10
96.94089010225981
 20
132.5587526344734
 30
0.0
 10
96.878213588284
 20
132.5587526344734
 30
0.0
  0
ELLIPSE
  5
F4
330
1F
100
AcDbEntity
  8
0
  6
HIDDEN
 62
     7
370
     0
100
AcDbEllipse
 10
81.0588162125
 20
141.9468190658
 30
0.0
 11
-14.7536831606561
 21
31.09325491558116
 31
0.0
210
0.0
220
0.0
230
1.0
 40
0.3419987131
 41
3.300734856217127
 42
4.231496223360779
  0
SPLINE
  5
F5
330
1F
100
AcDbEntity
  8
0
  6
HIDDEN
 62
     7
370
     0
100
AcDbSpline
210
0.0
220
0.0
230
1.0
 70
     8
 71
     3
 72
    12
 73
     8
 74
     0
 42
0.00000001
 43
0.00000001
 12
1.0
 22
0.0
 32
0.0
 13
1.0
 23
0.0
 33
0.0
 40
0.0
 40
0.0
 40
0.0
 40
0.0
 40
0.25
 40
0.25
 40
0.5
 40
0.5
 40
1.0
 40
1.0
 40
1.0
 40
1.0
 10
96.87821358828398
 20
111.8783271069364
 30
0.0
 10
96.94129362677734
 20
111.8783271069364
 30
0.0
 10
97.00044224895873
 20
111.8862330331488
 30
0.0
 10
97.09891479902782
 20
111.9095581945851
 30
0.0
 10
97.13795141101255
 20
111.9242709844168
 30
0.0
 10
97.2378478777916
 20
111.9722267851477
 30
0.0
 10
97.28026875885823
 20
112.0084889417278
 30
0.0
 10
97.3112262901762
 20
112.0460766056923
 30
0.0
  0
LINE
  5
F6
330
1F
100
AcDbEntity
  8
0
  6
HIDDEN
 62
     7
370
     0
100
AcDbLine
 10
93.9337273983
 20
111.8783265489
 30
0.0
 11
96.878213614
 21
111.8783265489
 31
0.0
  0
SPLINE
  5
F7
330
1F
100
AcDbEntity
  8
0
  6
HIDDEN
 62
     7
370
     0
100
AcDbSpline
210
0.0
220
0.0
230
1.0
 70
     8
 71
     3
 72
    12
 73
     8
 74
     0
 42
0.00000001
 43
0.00000001
 12
1.0
 22
0.0
 32
0.0
 13
1.0
 23
0.0
 33
0.0
 40
0.0
 40
0.0
 40
0.0
 40
0.0
 40
0.5000000000000018
 40
0.5000000000000018
 40
0.7500000000000009
 40
0.7500000000000009
 40
1.0
 40
1.0
 40
1.0
 40
1.0
 10
93.50071451352467
 20
112.0460766056922
 30
0.0
 10
93.53143675544378
 20
112.0087746227392
 30
0.0
 10
93.57427396997892
 20
111.9721627906928
 30
0.0
 10
93.67370099417874
 20
111.9243980074076
 30
0.0
 10
93.71345318899539
 20
111.9094404919253
 30
0.0
 10
93.81149464585357
 20
111.8862505461561
 30
0.0
 10
93.87105070144106
 20
111.8783271069364
 30
0.0
 10
93.93372721541688
 20
111.8783271069364
 30
0.0
  0
ELLIPSE
  5
F8
330
1F
100
AcDbEntity
  8
0
  6
HIDDEN
 62
     7
370
     0
100
AcDbEllipse
 10
109.7531245912
 20
141.9468190658
 30
0.0
 11
14.75368316065612
 21
31.09325491558116
 31
0.0
210
0.0
220
0.0
230
1.0
 40
0.3419987131
 41
2.05168908381882
 42
2.982450450962498
  0
SPLINE
  5
F9
330
1F
100
AcDbEntity
  8
0
  6
HIDDEN
 62
     7
370
     0
100
AcDbSpline
210
0.0
220
0.0
230
1.0
 70
     8
 71
     3
 72
    12
 73
     8
 74
     0
 42
0.00000001
 43
0.00000001
 12
1.0
 22
0.0
 32
0.0
 13
1.0
 23
0.0
 33
0.0
 40
0.0
 40
0.0
 40
0.0
 40
0.0
 40
0.2499999999999986
 40
0.2499999999999986
 40
0.4999999999999971
 40
0.4999999999999971
 40
1.0
 40
1.0
 40
1.0
 40
1.0
 10
93.93372721541688
 20
172.0153110246827
 30
0.0
 10
93.87064717692351
 20
172.0153110246827
 30
0.0
 10
93.81149855474207
 20
172.0074050984703
 30
0.0
 10
93.71302600467298
 20
171.984079937034
 30
0.0
 10
93.67398939268828
 20
171.9693671472023
 30
0.0
 10
93.57409292590926
 20
171.9214113464714
 30
0.0
 10
93.53167204484258
 20
171.8851491898913
 30
0.0
 10
93.50071451352463
 20
171.8475615259268
 30
0.0
  0
LINE
  5
FA
330
1F
100
AcDbEntity
  8
0
  6
HIDDEN
 62
     7
370
     0
100
AcDbLine
 10
96.878213614
 20
172.0153115827
 30
0.0
 11
93.9337273983
 21
172.0153115827
 31
0.0
  0
SPLINE
  5
FB
330
1F
100
AcDbEntity
  8
0
  6
HIDDEN
 62
     7
370
     0
100
AcDbSpline
210
0.0
220
0.0
230
1.0
 70
     8
 71
     3
 72
    12
 73
     8
 74
     0
 42
0.00000001
 43
0.00000001
 12
1.0
 22
0.0
 32
0.0
 13
1.0
 23
0.0
 33
0.0
 40
0.0
 40
0.0
 40
0.0
 40
0.0
 40
0.4999999999999971
 40
0.4999999999999971
 40
0.7499999999999986
 40
0.7499999999999986
 40
1.0
 40
1.0
 40
1.0
 40
1.0
 10
97.31122629017617
 20
171.8475615259268
 30
0.0
 10
97.28050404825707
 20
171.8848635088799
 30
0.0
 10
97.23766683372192
 20
171.9214753409262
 30
0.0
 10
97.13823980952213
 20
171.9692401242115
 30
0.0
 10
97.09848761470546
 20
171.9841976396938
 30
0.0
 10
97.00044615784726
 20
172.007387585463
 30
0.0
 10
96.94089010225977
 20
172.0153110246827
 30
0.0
 10
96.87821358828397
 20
172.0153110246827
 30
0.0
  0
ELLIPSE
  5
FC
330
1F
100
AcDbEntity
  8
0
  6
HIDDEN
 62
     7
370
     0
100
AcDbEllipse
 10
81.0588162125
 20
141.9468190658
 30
0.0
 11
14.75368316065624
 21
31.09325491558116
 31
0.0
210
0.0
220
0.0
230
1.0
 40
0.3419987131
 41
5.193281737408638
 42
6.124043104552344
  0
SPLINE
  5
FD
330
1F
100
AcDbEntity
  8
0
  6
HIDDEN
 62
     7
370
     0
100
AcDbSpline
210
0.0
220
0.0
230
1.0
 70
     8
 71
     3
 72
    12
 73
     8
 74
     0
 42
0.00000001
 43
0.00000001
 12
1.0
 22
0.0
 32
0.0
 13
1.0
 23
0.0
 33
0.0
 40
0.0
 40
0.0
 40
0.0
 40
0.0
 40
0.2499999999999991
 40
0.2499999999999991
 40
0.4999999999999982
 40
0.4999999999999982
 40
1.0
 40
1.0
 40
1.0
 40
1.0
 10
96.87821358828394
 20
151.3348854971459
 30
0.0
 10
96.94129362677731
 20
151.3348854971459
 30
0.0
 10
97.00044224895873
 20
151.3602498163609
 30
0.0
 10
97.09891479902782
 20
151.4344146767339
 30
0.0
 10
97.13795141101251
 20
151.4809350172879
 30
0.0
 10
97.23784787779155
 20
151.6310773601332
 30
0.0
 10
97.28026875885817
 20
151.7427705671053
 30
0.0
 10
97.31122629017617
 20
151.8561883864951
 30
0.0
  0
LINE
  5
FE
330
1F
100
AcDbEntity
  8
0
  6
HIDDEN
 62
     7
370
     0
100
AcDbLine
 10
93.9337273983
 20
151.3348858941
 30
0.0
 11
96.878213614
 21
151.3348858941
 31
0.0
  0
SPLINE
  5
FF
330
1F
100
AcDbEntity
  8
0
  6
HIDDEN
 62
     7
370
     0
100
AcDbSpline
210
0.0
220
0.0
230
1.0
 70
     8
 71
     3
 72
    12
 73
     8
 74
     0
 42
0.00000001
 43
0.00000001
 12
1.0
 22
0.0
 32
0.0
 13
1.0
 23
0.0
 33
0.0
 40
0.0
 40
0.0
 40
0.0
 40
0.0
 40
0.5000000000000047
 40
0.5000000000000047
 40
0.7500000000000023
 40
0.7500000000000023
 40
1.0
 40
1.0
 40
1.0
 40
1.0
 10
93.50071451352463
 20
151.8561883864951
 30
0.0
 10
93.53143675544374
 20
151.7436325870859
 30
0.0
 10
93.57427396997886
 20
151.6308747273463
 30
0.0
 10
93.67370099417869
 20
151.4813338415499
 30
0.0
 10
93.71345318899532
 20
151.4340411098431
 30
0.0
 10
93.81149464585356
 20
151.3603048165216
 30
0.0
 10
93.871050701441
 20
151.334885497146
 30
0.0
 10
93.93372721541682
 20
151.334885497146
 30
0.0
  0
ELLIPSE
  5
100
330
1F
100
AcDbEntity
  8
0
  6
HIDDEN
 62
     7
370
     0
100
AcDbEllipse
 10
109.7531245912
 20
141.9468190658
 30
0.0
 11
-14.75368316065628
 21
31.09325491558116
 31
0.0
210
0.0
220
0.0
230
1.0
 40
0.3419987131
 41
0.1591422026272792
 42
1.089903569770959
  0
LINE
  5
101
330
1F
100
AcDbEntity
  8
0
  6
HIDDEN
 62
     7
370
     0
100
AcDbLine
 10
83.4059704019
 20
110.9468195724
 30
0.0
 11
83.4059704019
 21
172.9468185592
 31
0.0
  0
LINE
  5
102
330
1F
100
AcDbEntity
  8
0
  6
HIDDEN
 62
     7
370
     0
100
AcDbLine
 10
83.4059704019
 20
117.6968183506
 30
0.0
 11
83.4059704019
 21
166.166674732
 31
0.0
  0
SPLINE
  5
103
330
1F
100
AcDbEntity
  8
0
  6
HIDDEN
 62
     7
370
     0
100
AcDbSpline
210
0.0
220
0.0
230
1.0
 70
     8
 71
     3
 72
    12
 73
     8
 74
     0
 42
0.00000001
 43
0.00000001
 12
1.0
 22
0.0
 32
0.0
 13
1.0
 23
0.0
 33
0.0
 40
0.0
 40
0.0
 40
0.0
 40
0.0
 40
0.5000000000000011
 40
0.5000000000000011
 40
0.7500000000000006
 40
0.7500000000000006
 40
1.0
 40
1.0
 40
1.0
 40
1.0
 10
82.58945811540349
 20
157.3990870476403
 30
0.0
 10
82.64586429408374
 20
157.3512646739805
 30
0.0
 10
82.71602719555538
 20
157.310993827042
 30
0.0
 10
82.83403790894462
 20
157.3029479585651
 30
0.0
 10
82.87424369254009
 20
157.3095105569039
 30
0.0
 10
82.94796438927315
 20
157.3368926513575
 30
0.0
 10
82.98082511105964
 20
157.3566541418878
 30
0.0
 10
83.0109935129889
 20
157.3795868530759
 30
0.0
  0
SPLINE
  5
104
330
1F
100
AcDbEntity
  8
0
  6
HIDDEN
 62
     7
370
     0
100
AcDbSpline
210
0.0
220
0.0
230
1.0
 70
     8
 71
     3
 72
    16
 73
    12
 74
     0
 42
0.00000001
 43
0.00000001
 12
1.0
 22
0.0
 32
0.0
 13
1.0
 23
0.0
 33
0.0
 40
0.0
 40
0.0
 40
0.0
 40
0.0
 40
0.0624999999999946
 40
0.0624999999999946
 40
0.1249999999999891
 40
0.1249999999999891
 40
0.2499999999999862
 40
0.2499999999999862
 40
0.4999999999999908
 40
0.4999999999999908
 40
1.0
 40
1.0
 40
1.0
 40
1.0
 10
83.01099351294378
 20
157.379586853124
 30
0.0
 10
83.02260641278316
 20
157.3884144761054
 30
0.0
 10
83.03595759721564
 20
157.3962488579873
 30
0.0
 10
83.06535743683474
 20
157.4045589840596
 30
0.0
 10
83.08019816139006
 20
157.4040631648246
 30
0.0
 10
83.11603136935872
 20
157.3926121938553
 30
0.0
 10
83.13014457718027
 20
157.3759316929966
 30
0.0
 10
83.16463594839917
 20
157.3238110072396
 30
0.0
 10
83.17572001950958
 20
157.2840215132146
 30
0.0
 10
83.20184283730558
 20
157.1606848811174
 30
0.0
 10
83.20597040185045
 20
157.0732634706188
 30
0.0
 10
83.20597040185045
 20
156.9845262283006
 30
0.0
  0
LINE
  5
105
330
1F
100
AcDbEntity
  8
0
  6
HIDDEN
 62
     7
370
     0
100
AcDbLine
 10
83.2059704069
 20
126.9091120127
 30
0.0
 11
83.2059704069
 21
156.9845261189
 31
0.0
  0
SPLINE
  5
106
330
1F
100
AcDbEntity
  8
0
  6
HIDDEN
 62
     7
370
     0
100
AcDbSpline
210
0.0
220
0.0
230
1.0
 70
     8
 71
     3
 72
    16
 73
    12
 74
     0
 42
0.00000001
 43
0.00000001
 12
1.0
 22
0.0
 32
0.0
 13
1.0
 23
0.0
 33
0.0
 40
0.0
 40
0.0
 40
0.0
 40
0.0
 40
0.4999999999999976
 40
0.4999999999999976
 40
0.7499999999999939
 40
0.7499999999999939
 40
0.8749999999999921
 40
0.8749999999999921
 40
0.937499999999996
 40
0.937499999999996
 40
1.0
 40
1.0
 40
1.0
 40
1.0
 10
83.20597040185045
 20
126.9091119033184
 30
0.0
 10
83.20597040185045
 20
126.8199855381296
 30
0.0
 10
83.20182412677251
 20
126.7331241705162
 30
0.0
 10
83.17585853137896
 20
126.6101419240222
 30
0.0
 10
83.16439762600153
 20
126.5693706287909
 30
0.0
 10
83.13008588822719
 20
126.5176663087911
 30
0.0
 10
83.11606115229758
 20
126.5009959422007
 30
0.0
 10
83.08003818926372
 20
126.4895437217439
 30
0.0
 10
83.06528368017395
 20
126.4890906754689
 30
0.0
 10
83.03593151902719
 20
126.4974059966851
 30
0.0
 10
83.02259164452312
 20
126.5052348817634
 30
0.0
 10
83.01099351297478
 20
126.514051278526
 30
0.0
  0
SPLINE
  5
107
330
1F
100
AcDbEntity
  8
0
  6
HIDDEN
 62
     7
370
     0
100
AcDbSpline
210
0.0
220
0.0
230
1.0
 70
     8
 71
     3
 72
    12
 73
     8
 74
     0
 42
0.00000001
 43
0.00000001
 12
1.0
 22
0.0
 32
0.0
 13
1.0
 23
0.0
 33
0.0
 40
0.0
 40
0.0
 40
0.0
 40
0.0
 40
0.25
 40
0.25
 40
0.5
 40
0.5
 40
1.0
 40
1.0
 40
1.0
 40
1.0
 10
83.01099351298184
 20
126.5140512785349
 30
0.0
 10
82.98080167126463
 20
126.5370018076327
 30
0.0
 10
82.94744270185001
 20
126.5569712816569
 30
0.0
 10
82.87430541726943
 20
126.5840724152824
 30
0.0
 10
82.83406354461546
 20
126.5906731559278
 30
0.0
 10
82.71635776764697
 20
126.5827042814211
 30
0.0
 10
82.64594728986759
 20
126.5424438232532
 30
0.0
 10
82.58945811539928
 20
126.4945510839751
 30
0.0
  0
SPLINE
  5
108
330
1F
100
AcDbEntity
  8
0
  6
HIDDEN
 62
     7
370
     0
100
AcDbSpline
210
0.0
220
0.0
230
1.0
 70
     8
 71
     3
 72
    12
 73
     8
 74
     0
 42
0.00000001
 43
0.00000001
 12
1.0
 22
0.0
 32
0.0
 13
1.0
 23
0.0
 33
0.0
 40
0.0
 40
0.0
 40
0.0
 40
0.0
 40
0.249999999999998
 40
0.249999999999998
 40
0.4999999999999987
 40
0.4999999999999987
 40
1.0
 40
1.0
 40
1.0
 40
1.0
 10
82.58945811539893
 20
126.4945510839753
 30
0.0
 10
82.5013041776612
 20
126.4198122761212
 30
0.0
 10
82.44095075303248
 20
126.3288317756388
 30
0.0
 10
82.33468879496566
 20
126.1399179528863
 30
0.0
 10
82.29245662840358
 20
126.0434134933457
 30
0.0
 10
82.18138593308639
 20
125.7526457391785
 30
0.0
 10
82.12844915665961
 20
125.5569789246348
 30
0.0
 10
82.0846500582908
 20
125.3629124395685
 30
0.0
  0
SPLINE
  5
109
330
1F
100
AcDbEntity
  8
0
  6
HIDDEN
 62
     7
370
     0
100
AcDbSpline
210
0.0
220
0.0
230
1.0
 70
     8
 71
     3
 72
    12
 73
     8
 74
     0
 42
0.00000001
 43
0.00000001
 12
1.0
 22
0.0
 32
0.0
 13
1.0
 23
0.0
 33
0.0
 40
0.0
 40
0.0
 40
0.0
 40
0.0
 40
0.5000000000000001
 40
0.5000000000000001
 40
0.7500000000000002
 40
0.7500000000000002
 40
1.0
 40
1.0
 40
1.0
 40
1.0
 10
82.08465005829082
 20
120.1767381108074
 30
0.0
 10
82.12839659912741
 20
120.1501439401662
 30
0.0
 10
82.18128095435891
 20
120.1303837148405
 30
0.0
 10
82.29284804169508
 20
120.1099327246114
 30
0.0
 10
82.33543163823805
 20
120.1046724999549
 30
0.0
 10
82.44034836531985
 20
120.0967897060323
 30
0.0
 10
82.50188197316466
 20
120.0942255808531
 30
0.0
 10
82.58945811539077
 20
120.0920253633335
 30
0.0
  0
LINE
  5
10A
330
1F
100
AcDbEntity
  8
0
  6
HIDDEN
 62
     7
370
     0
100
AcDbLine
 10
83.2059704069
 20
119.4069985437
 30
0.0
 11
83.2059704069
 21
119.8872238535
 31
0.0
  0
LINE
  5
10B
330
1F
100
AcDbEntity
  8
0
  6
HIDDEN
 62
     7
370
     0
100
AcDbLine
 10
83.2059704069
 20
164.0064142781
 30
0.0
 11
83.2059704069
 21
164.4866395879
 31
0.0
  0
SPLINE
  5
10C
330
1F
100
AcDbEntity
  8
0
  6
HIDDEN
 62
     7
370
     0
100
AcDbSpline
210
0.0
220
0.0
230
1.0
 70
     8
 71
     3
 72
    12
 73
     8
 74
     0
 42
0.00000001
 43
0.00000001
 12
1.0
 22
0.0
 32
0.0
 13
1.0
 23
0.0
 33
0.0
 40
0.0
 40
0.0
 40
0.0
 40
0.0
 40
0.2500000000000004
 40
0.2500000000000004
 40
0.5000000000000009
 40
0.5000000000000009
 40
1.0
 40
1.0
 40
1.0
 40
1.0
 10
82.58945811539873
 20
163.8016127682854
 30
0.0
 10
82.50077345554237
 20
163.7993847009444
 30
0.0
 10
82.44085503981897
 20
163.7968829169141
 30
0.0
 10
82.33519581249824
 20
163.788951481078
 30
0.0
 10
82.29255457438329
 20
163.7836593261812
 30
0.0
 10
82.18136523228075
 20
163.7632543856941
 30
0.0
 10
82.12843855015979
 20
163.7435196941072
 30
0.0
 10
82.0846500582908
 20
163.7169000208116
 30
0.0
  0
SPLINE
  5
10D
330
1F
100
AcDbEntity
  8
0
  6
HIDDEN
 62
     7
370
     0
100
AcDbSpline
210
0.0
220
0.0
230
1.0
 70
     8
 71
     3
 72
    12
 73
     8
 74
     0
 42
0.00000001
 43
0.00000001
 12
1.0
 22
0.0
 32
0.0
 13
1.0
 23
0.0
 33
0.0
 40
0.0
 40
0.0
 40
0.0
 40
0.0
 40
0.5000000000000019
 40
0.5000000000000019
 40
0.7500000000000009
 40
0.7500000000000009
 40
1.0
 40
1.0
 40
1.0
 40
1.0
 10
82.08465005828923
 20
158.5307256920507
 30
0.0
 10
82.12841153458798
 20
158.3368259040886
 30
0.0
 10
82.181317850241
 20
158.1409695401517
 30
0.0
 10
82.2930290478884
 20
157.8488273936528
 30
0.0
 10
82.33554849147477
 20
157.7521094569549
 30
0.0
 10
82.44067183404219
 20
157.5653850205304
 30
0.0
 10
82.50223779775986
 20
157.4730343122607
 30
0.0
 10
82.58945811540262
 20
157.399087047641
 30
0.0
  0
LINE
  5
10E
330
1F
100
AcDbEntity
  8
0
  6
HIDDEN
 62
     7
370
     0
100
AcDbLine
 10
105.4059702826
 20
117.9468188572
 30
0.0
 11
105.4059702826
 21
165.9169852871
 31
0.0
  0
LINE
  5
10F
330
1F
100
AcDbEntity
  8
0
  6
HIDDEN
 62
     7
370
     0
100
AcDbLine
 10
83.2059704069
 20
119.8872238535
 30
0.0
 11
83.2059704069
 21
134.9249318379
 31
0.0
  0
LINE
  5
110
330
1F
100
AcDbEntity
  8
0
  6
HIDDEN
 62
     7
370
     0
100
AcDbLine
 10
83.2059704069
 20
148.9687062937
 30
0.0
 11
83.2059704069
 21
164.0064142781
 31
0.0
  0
LINE
  5
111
330
1F
100
AcDbEntity
  8
0
  6
HIDDEN
 62
     7
370
     0
100
AcDbLine
 10
237.4059695674
 20
161.9468186188
 30
0.0
 11
237.4059695674
 21
121.9468195128
 31
0.0
  0
SPLINE
  5
112
330
1F
100
AcDbEntity
  8
0
  6
HIDDEN
 62
     7
370
     0
100
AcDbSpline
210
0.0
220
0.0
230
1.0
 70
     8
 71
     3
 72
    70
 73
    66
 74
     0
 42
0.00000001
 43
0.00000001
 12
1.0
 22
0.0
 32
0.0
 13
1.0
 23
0.0
 33
0.0
 40
-0.0312499999999999
 40
-0.0312499999999999
 40
0.0
 40
0.0
 40
0.03125
 40
0.03125
 40
0.0625
 40
0.0625
 40
0.09375
 40
0.09375
 40
0.125
 40
0.125
 40
0.15625
 40
0.15625
 40
0.1875000000000001
 40
0.1875000000000001
 40
0.21875
 40
0.21875
 40
0.25
 40
0.25
 40
0.28125
 40
0.28125
 40
0.3125
 40
0.3125
 40
0.34375
 40
0.34375
 40
0.375
 40
0.375
 40
0.4062500000000001
 40
0.4062500000000001
 40
0.4375000000000001
 40
0.4375000000000001
 40
0.4687500000000001
 40
0.4687500000000001
 40
0.5
 40
0.5
 40
0.53125
 40
0.53125
 40
0.5625
 40
0.5625
 40
0.59375
 40
0.59375
 40
0.625
 40
0.625
 40
0.65625
 40
0.65625
 40
0.6875
 40
0.6875
 40
0.71875
 40
0.71875
 40
0.75
 40
0.75
 40
0.7812500000000001
 40
0.7812500000000001
 40
0.8125000000000001
 40
0.8125000000000001
 40
0.8437500000000001
 40
0.8437500000000001
 40
0.8750000000000001
 40
0.8750000000000001
 40
0.9062500000000001
 40
0.9062500000000001
 40
0.9375000000000001
 40
0.9375000000000001
 40
0.9687500000000001
 40
0.9687500000000001
 40
1.0
 40
1.0
 40
1.03125
 40
1.03125
 10
219.207475729682
 20
138.9468190658094
 30
0.0
 10
219.6044650740189
 20
138.9468190658094
 30
0.0
 10
219.7995859371824
 20
138.9663244332985
 30
0.0
 10
220.183373670096
 20
139.0426968916228
 30
0.0
 10
220.3740503790877
 20
139.1005112549039
 30
0.0
 10
220.737210897033
 20
139.2511844947418
 30
0.0
 10
220.9094088867399
 20
139.3433461293935
 30
0.0
 10
221.2352997104888
 20
139.5610376657114
 30
0.0
 10
221.3893810235892
 20
139.6875585387988
 30
0.0
 10
221.6656685517243
 20
139.963907041843
 30
0.0
 10
221.7897506469682
 20
140.1147478175585
 30
0.0
 10
222.0090731907052
 20
140.4425753400994
 30
0.0
 10
222.1020984196341
 20
140.6167621074234
 30
0.0
 10
222.2518109049065
 20
140.9776185540498
 30
0.0
 10
222.3095593319837
 20
141.1669636634644
 30
0.0
 10
222.3867352695908
 20
141.5543347642081
 30
0.0
 10
222.4058590395045
 20
141.7491672661317
 30
0.0
 10
222.4060808036144
 20
142.1410757245606
 30
0.0
 10
222.3865414478866
 20
142.3401568712785
 30
0.0
 10
222.3098922839545
 20
142.7251224079054
 30
0.0
 10
222.2531831212705
 20
142.9122633717311
 30
0.0
 10
222.1027205425031
 20
143.2758193127445
 30
0.0
 10
222.008909373369
 20
143.4510945042902
 30
0.0
 10
221.7919290867231
 20
143.7758453199531
 30
0.0
 10
221.6677269058798
 20
143.9276111533725
 30
0.0
 10
221.3882484826137
 20
144.2072733095838
 30
0.0
 10
221.2370531115957
 20
144.3312001303552
 30
0.0
 10
220.9124847479387
 20
144.5484630606563
 30
0.0
 10
220.7369872246586
 20
144.6425566009143
 30
0.0
 10
220.3740091686935
 20
144.793133803617
 30
0.0
 10
220.1870252358668
 20
144.8500044985774
 30
0.0
 10
219.8020620379168
 20
144.9270277374656
 30
0.0
 10
219.6030425180766
 20
144.9467434335603
 30
0.0
 10
219.2112077287472
 20
144.946894253598
 30
0.0
 10
219.0162925840617
 20
144.9279634469204
 30
0.0
 10
218.6285182067253
 20
144.8510640119186
 30
0.0
 10
218.4394315926994
 20
144.7935709235175
 30
0.0
 10
218.0782713228533
 20
144.6441155946675
 30
0.0
 10
217.903457066485
 20
144.5508978421511
 30
0.0
 10
217.5759718429
 20
144.33216555439
 30
0.0
 10
217.4250558969432
 20
144.2082821061124
 30
0.0
 10
217.1482541474678
 20
143.9320028540528
 30
0.0
 10
217.0215545950893
 20
143.7779035203776
 30
0.0
 10
216.8038517444172
 20
143.4525705432889
 30
0.0
 10
216.7115247140788
 20
143.2804907831111
 30
0.0
 10
216.5604080567321
 20
142.9171245609638
 30
0.0
 10
216.5025397381582
 20
142.7267820811446
 30
0.0
 10
216.4258488000177
 20
142.3432117529885
 30
0.0
 10
216.4061392859482
 20
142.1476508232992
 30
0.0
 10
216.4058036662819
 20
141.7510649405905
 30
0.0
 10
216.4251053698055
 20
141.555989111144
 30
0.0
 10
216.5011493174404
 20
141.1720166004683
 30
0.0
 10
216.5588724626336
 20
140.981091660845
 30
0.0
 10
216.7091312121478
 20
140.6180397458786
 30
0.0
 10
216.8011258193866
 20
140.4457387823549
 30
0.0
 10
217.018703888456
 20
140.1194121844081
 30
0.0
 10
217.1450249665011
 20
139.9653360783718
 30
0.0
 10
217.4210351156806
 20
139.68890387678
 30
0.0
 10
217.5718103260778
 20
139.5646268582178
 30
0.0
 10
217.8998399733827
 20
139.3447902362397
 30
0.0
 10
218.0735160954124
 20
139.2518745471807
 30
0.0
 10
218.43425205672
 20
139.1018368347632
 30
0.0
 10
218.6236862274918
 20
139.0438718707786
 30
0.0
 10
219.0113337250333
 20
138.9663270192004
 30
0.0
 10
219.207475729682
 20
138.9468190658094
 30
0.0
 10
219.6044650740189
 20
138.9468190658094
 30
0.0
  0
LWPOLYLINE
  5
113
330
1F
100
AcDbEntity
  8
0
  6
HIDDEN
 62
     7
370
     0
100
AcDbPolyline
 90
       21
 70
   128
 43
0.0
 10
216.2680167628
 20
143.1115391103
 10
216.4975989533
 20
143.1114456288
 10
216.8350357486
 20
142.9042464958
 10
217.2473359776
 20
142.5102239379
 10
217.6941025926
 20
141.9679475263
 10
218.1316304875
 20
141.3304991226
 10
218.5170788241
 20
140.6602765571
 10
218.8127178622
 20
140.0228859062
 10
218.9896095467
 20
139.4807194962
 10
219.0304387284
 20
139.0868480454
 10
218.931211896
 20
138.8798269115
 10
218.7016446067
 20
138.8799202766
 10
218.3641929103
 20
139.087119526
 10
217.9519075824
 20
139.4811420839
 10
217.5051260663
 20
140.0234183899
 10
217.0676130725
 20
140.6608668992
 10
216.6821647359
 20
141.3310894065
 10
216.3865256978
 20
141.9684800609
 10
216.2096191121
 20
142.5106465255
 10
216.1687899304
 20
142.9045178599
 10
216.2680167628
 20
143.1115391103
  0
SPLINE
  5
114
330
1F
100
AcDbEntity
  8
0
  6
HIDDEN
 62
     7
370
     0
100
AcDbSpline
210
0.0
220
0.0
230
1.0
 70
     8
 71
     3
 72
    76
 73
    72
 74
     0
 42
0.00000001
 43
0.00000001
 12
1.0
 22
0.0
 32
0.0
 13
1.0
 23
0.0
 33
0.0
 40
0.0
 40
0.0
 40
0.0
 40
0.0
 40
0.0156250000000035
 40
0.0156250000000035
 40
0.0312500000000067
 40
0.0312500000000067
 40
0.04687500000001
 40
0.04687500000001
 40
0.0625000000000132
 40
0.0625000000000132
 40
0.0937500000000171
 40
0.0937500000000171
 40
0.1250000000000209
 40
0.1250000000000209
 40
0.1562500000000248
 40
0.1562500000000248
 40
0.1875000000000286
 40
0.1875000000000286
 40
0.2187500000000325
 40
0.2187500000000325
 40
0.2500000000000363
 40
0.2500000000000363
 40
0.2812500000000401
 40
0.2812500000000401
 40
0.3125000000000439
 40
0.3125000000000439
 40
0.3437500000000477
 40
0.3437500000000477
 40
0.3750000000000515
 40
0.3750000000000515
 40
0.4062500000000553
 40
0.4062500000000553
 40
0.4375000000000592
 40
0.4375000000000592
 40
0.4531250000000595
 40
0.4531250000000595
 40
0.4687500000000597
 40
0.4687500000000597
 40
0.5000000000000566
 40
0.5000000000000566
 40
0.5312500000000535
 40
0.5312500000000535
 40
0.5625000000000504
 40
0.5625000000000504
 40
0.5937500000000474
 40
0.5937500000000474
 40
0.6250000000000443
 40
0.6250000000000443
 40
0.6562500000000412
 40
0.6562500000000412
 40
0.6875000000000381
 40
0.6875000000000381
 40
0.7187500000000351
 40
0.7187500000000351
 40
0.750000000000032
 40
0.750000000000032
 40
0.8125000000000249
 40
0.8125000000000249
 40
0.8750000000000179
 40
0.8750000000000179
 40
0.9062500000000143
 40
0.9062500000000143
 40
0.9218750000000119
 40
0.9218750000000119
 40
0.9375000000000093
 40
0.9375000000000093
 40
0.9531250000000069
 40
0.9531250000000069
 40
0.9687500000000044
 40
0.9687500000000044
 40
1.0
 40
1.0
 40
1.0
 40
1.0
 10
219.8253516277869
 20
139.4822462047782
 30
0.0
 10
219.8599202514669
 20
139.4881285351435
 30
0.0
 10
219.8871109060675
 20
139.4935057249438
 30
0.0
 10
219.9176376801198
 20
139.499690313656
 30
0.0
 10
219.9201393661532
 20
139.5002223609382
 30
0.0
 10
219.8920716410435
 20
139.4944914479341
 30
0.0
 10
219.8613392088112
 20
139.4882748893332
 30
0.0
 10
219.7776501797022
 20
139.4742385593802
 30
0.0
 10
219.7253236640664
 20
139.4665938538588
 30
0.0
 10
219.5487163422409
 20
139.4480917840072
 30
0.0
 10
219.4104266893914
 20
139.4425528673678
 30
0.0
 10
219.1185321683549
 20
139.4590995653269
 30
0.0
 10
218.9626181071444
 20
139.4811855168088
 30
0.0
 10
218.6500831369795
 20
139.5584002378012
 30
0.0
 10
218.4921118692721
 20
139.6132400875256
 30
0.0
 10
218.1754035842043
 20
139.7636027291256
 30
0.0
 10
218.021917590422
 20
139.8567121170528
 30
0.0
 10
217.7296458439775
 20
140.0829292571738
 30
0.0
 10
217.590742192571
 20
140.2171795751002
 30
0.0
 10
217.3483837477168
 20
140.513974559132
 30
0.0
 10
217.2409339678815
 20
140.6816067925202
 30
0.0
 10
217.0707161038744
 20
141.033182255759
 30
0.0
 10
217.0065406422777
 20
141.218825479966
 30
0.0
 10
216.9232434331258
 20
141.5956714744464
 30
0.0
 10
216.904290758508
 20
141.7835275312763
 30
0.0
 10
216.9078796219946
 20
142.1580242238039
 30
0.0
 10
216.9302933491745
 20
142.3384087064665
 30
0.0
 10
217.0117944530885
 20
142.6886012725159
 30
0.0
 10
217.0711097439505
 20
142.857572180844
 30
0.0
 10
217.2219342643369
 20
143.176059350859
 30
0.0
 10
217.3143098059155
 20
143.3281979444532
 30
0.0
 10
217.5368979068909
 20
143.6170943914775
 30
0.0
 10
217.6684893224151
 20
143.754964815878
 30
0.0
 10
217.8951719398149
 20
143.9410722833906
 30
0.0
 10
217.9761977790718
 20
143.9997988976129
 30
0.0
 10
218.1356773120551
 20
144.1021221555528
 30
0.0
 10
218.2166300898593
 20
144.1474947932496
 30
0.0
 10
218.4493969915964
 20
144.2630624578302
 30
0.0
 10
218.596582280999
 20
144.3168511492171
 30
0.0
 10
218.8835590910805
 20
144.3961552266776
 30
0.0
 10
219.0238651384602
 20
144.4215460993678
 30
0.0
 10
219.3073496859902
 20
144.4489286312238
 30
0.0
 10
219.4504569636536
 20
144.4507203514147
 30
0.0
 10
219.7428649649624
 20
144.4283514060344
 30
0.0
 10
219.8895608217619
 20
144.4043936908497
 30
0.0
 10
220.1864025446863
 20
144.3268313351687
 30
0.0
 10
220.337984003378
 20
144.2726395442677
 30
0.0
 10
220.6400971527419
 20
144.1274202247063
 30
0.0
 10
220.7891828453162
 20
144.037477484172
 30
0.0
 10
221.0814646920615
 20
143.8114499058148
 30
0.0
 10
221.218764562832
 20
143.6795246421357
 30
0.0
 10
221.466862377621
 20
143.3755302152463
 30
0.0
 10
221.5718268991107
 20
143.2102254906651
 30
0.0
 10
221.7398532601764
 20
142.8634001940809
 30
0.0
 10
221.8002162992772
 20
142.6873084285298
 30
0.0
 10
221.9200907394217
 20
142.1751840867704
 30
0.0
 10
221.9199362716326
 20
141.8591263923783
 30
0.0
 10
221.8388683816858
 20
141.3075055127572
 30
0.0
 10
221.7554040709202
 20
141.0636422628068
 30
0.0
 10
221.6101587566121
 20
140.7619082445183
 30
0.0
 10
221.558001343518
 20
140.6713381326264
 30
0.0
 10
221.485089679223
 20
140.5578319432414
 30
0.0
 10
221.4619078600132
 20
140.5240548690707
 30
0.0
 10
221.4227907618339
 20
140.4691274785846
 30
0.0
 10
221.4066621090013
 20
140.4476789188666
 30
0.0
 10
221.3900765010727
 20
140.4257958989026
 30
0.0
 10
221.3899803099999
 20
140.4256421138321
 30
0.0
 10
221.4099723611005
 20
140.4520780239616
 30
0.0
 10
221.4295349302452
 20
140.4781059527004
 30
0.0
 10
221.5050954482394
 20
140.5861572869714
 30
0.0
 10
221.5722361019612
 20
140.6914587093188
 30
0.0
 10
221.6341428490848
 20
140.8131314786031
 30
0.0
  0
SPLINE
  5
115
330
1F
100
AcDbEntity
  8
0
  6
HIDDEN
 62
     7
370
     0
100
AcDbSpline
210
0.0
220
0.0
230
1.0
 70
     8
 71
     3
 72
    10
 73
     6
 74
     0
 42
0.00000001
 43
0.00000001
 12
1.0
 22
0.0
 32
0.0
 13
1.0
 23
0.0
 33
0.0
 40
0.0
 40
0.0
 40
0.0
 40
0.0
 40
0.5
 40
0.5
 40
1.0
 40
1.0
 40
1.0
 40
1.0
 10
221.6341428490848
 20
140.813131478603
 30
0.0
 10
221.3241543077113
 20
140.6029017788404
 30
0.0
 10
221.0211715688196
 20
140.38315012789
 30
0.0
 10
220.423613054696
 20
139.9322204836382
 30
0.0
 10
220.1279446877418
 20
139.7025274886755
 30
0.0
 10
219.825351627787
 20
139.4822462047781
 30
0.0
  0
CIRCLE
  5
116
330
1F
100
AcDbEntity
  8
0
  6
HIDDEN
 62
     7
370
     0
100
AcDbCircle
 10
67.9059704019
 20
141.9468190658
 30
0.0
 40
4.049999999999983
  0
ARC
  5
117
330
1F
100
AcDbEntity
  8
0
  6
HIDDEN
 62
     7
370
     0
100
AcDbCircle
 10
219.4059704019
 20
141.9468190658
 30
0.0
 40
2.500000000000281
100
AcDbArc
 50
279.6571697284
 51
333.033141857
  0
LINE
  5
118
330
1F
100
AcDbEntity
  8
0
  6
HIDDEN
 62
     7
370
     0
100
AcDbLine
 10
46.9361979438
 20
157.259770124
 30
0.0
 11
46.9361979438
 21
126.6338680077
 31
0.0
  0
LINE
  5
119
330
1F
100
AcDbEntity
  8
0
  6
HIDDEN
 62
     7
370
     0
100
AcDbLine
 10
45.4059716237
 20
125.7503893363
 30
0.0
 11
45.4059716237
 21
158.1432487953
 31
0.0
  0
LINE
  5
11A
330
1F
100
AcDbEntity
  8
0
  6
HIDDEN
 62
     7
370
     0
100
AcDbLine
 10
53.4361980779
 20
156.2932295862
 30
0.0
 11
53.4361980779
 21
127.6004085454
 31
0.0
  0
LINE
  5
11B
330
1F
100
AcDbEntity
  8
0
  6
HIDDEN
 62
     7
370
     0
100
AcDbLine
 10
59.2361994011
 20
155.9468194979
 30
0.0
 11
59.2361994011
 21
127.9468186337
 31
0.0
  0
LINE
  5
11C
330
1F
100
AcDbEntity
  8
0
  6
HIDDEN
 62
     7
370
     0
100
AcDbLine
 10
51.8361989332
 20
155.9468194979
 30
0.0
 11
51.8361989332
 21
127.9468186337
 31
0.0
  0
LINE
  5
11D
330
1F
100
AcDbEntity
  8
0
  6
HIDDEN
 62
     7
370
     0
100
AcDbLine
 10
52.8361990971
 20
155.9468194979
 30
0.0
 11
52.8361990971
 21
127.9468186337
 31
0.0
  0
SPLINE
  5
11E
330
1F
100
AcDbEntity
  8
0
  6
HIDDEN
 62
     7
370
     0
100
AcDbSpline
210
0.0
220
0.0
230
1.0
 70
     8
 71
     3
 72
    10
 73
     6
 74
     0
 42
0.00000001
 43
0.00000001
 12
1.0
 22
0.0
 32
0.0
 13
1.0
 23
0.0
 33
0.0
 40
0.0
 40
0.0
 40
0.0
 40
0.0
 40
0.5
 40
0.5
 40
1.0
 40
1.0
 40
1.0
 40
1.0
 10
71.90597040185042
 20
142.5812479428318
 30
0.0
 10
71.93911781992686
 20
142.3722573418239
 30
0.0
 10
71.95597666528849
 20
142.1606948758023
 30
0.0
 10
71.95596413494081
 20
141.7327061098347
 30
0.0
 10
71.93904917720046
 20
141.5209480054192
 30
0.0
 10
71.90597040185042
 20
141.3123901887871
 30
0.0
  0
LINE
  5
11F
330
1F
100
AcDbEntity
  8
0
  6
HIDDEN
 62
     7
370
     0
100
AcDbLine
 10
72.4059704615
 20
155.446819416
 30
0.0
 11
72.4059704615
 21
128.4468187156
 31
0.0
  0
SPLINE
  5
120
330
1F
100
AcDbEntity
  8
0
  6
HIDDEN
 62
     7
370
     0
100
AcDbSpline
210
0.0
220
0.0
230
1.0
 70
     8
 71
     3
 72
    10
 73
     6
 74
     0
 42
0.00000001
 43
0.00000001
 12
1.0
 22
0.0
 32
0.0
 13
1.0
 23
0.0
 33
0.0
 40
0.0
 40
0.0
 40
0.0
 40
0.0
 40
0.5
 40
0.5
 40
1.0
 40
1.0
 40
1.0
 40
1.0
 10
71.90597040185042
 20
141.3123901887871
 30
0.0
 10
71.93915936432413
 20
141.5216427223696
 30
0.0
 10
71.95586014057876
 20
141.7324594832684
 30
0.0
 10
71.95607958102342
 20
142.1569917644716
 30
0.0
 10
71.93919986563003
 20
142.3717400532442
 30
0.0
 10
71.90597040185042
 20
142.5812479428318
 30
0.0
  0
SPLINE
  5
121
330
1F
100
AcDbEntity
  8
0
  6
HIDDEN
 62
     7
370
     0
100
AcDbSpline
210
0.0
220
0.0
230
1.0
 70
     8
 71
     3
 72
    66
 73
    62
 74
     0
 42
0.00000001
 43
0.00000001
 12
1.0
 22
0.0
 32
0.0
 13
1.0
 23
0.0
 33
0.0
 40
0.0
 40
0.0
 40
0.0
 40
0.0
 40
0.0312499999999998
 40
0.0312499999999998
 40
0.0624999999999997
 40
0.0624999999999997
 40
0.0937499999999995
 40
0.0937499999999995
 40
0.1249999999999994
 40
0.1249999999999994
 40
0.1562499999999992
 40
0.1562499999999992
 40
0.1874999999999991
 40
0.1874999999999991
 40
0.2187499999999989
 40
0.2187499999999989
 40
0.2499999999999988
 40
0.2499999999999988
 40
0.2812499999999988
 40
0.2812499999999988
 40
0.3124999999999989
 40
0.3124999999999989
 40
0.343749999999999
 40
0.343749999999999
 40
0.3749999999999991
 40
0.3749999999999991
 40
0.4374999999999992
 40
0.4374999999999992
 40
0.4687499999999993
 40
0.4687499999999993
 40
0.4999999999999993
 40
0.4999999999999993
 40
0.5312499999999993
 40
0.5312499999999993
 40
0.5624999999999992
 40
0.5624999999999992
 40
0.5937499999999992
 40
0.5937499999999992
 40
0.6249999999999992
 40
0.6249999999999992
 40
0.6874999999999993
 40
0.6874999999999993
 40
0.7187499999999993
 40
0.7187499999999993
 40
0.7499999999999994
 40
0.7499999999999994
 40
0.7812499999999996
 40
0.7812499999999996
 40
0.8124999999999996
 40
0.8124999999999996
 40
0.8437499999999997
 40
0.8437499999999997
 40
0.8749999999999997
 40
0.8749999999999997
 40
0.9062499999999998
 40
0.9062499999999998
 40
0.9374999999999999
 40
0.9374999999999999
 40
0.9687499999999999
 40
0.9687499999999999
 40
1.0
 40
1.0
 40
1.0
 40
1.0
 10
71.90597040185044
 20
141.3123901887871
 30
0.0
 10
71.86630024068417
 20
141.0622744541285
 30
0.0
 10
71.80382403284077
 20
140.818653671126
 30
0.0
 10
71.6338809114818
 20
140.3441015864744
 30
0.0
 10
71.52541273315906
 20
140.1124524490918
 30
0.0
 10
71.27174180685981
 20
139.680357832208
 30
0.0
 10
71.12587298539528
 20
139.4773821379688
 30
0.0
 10
70.79522756431017
 20
139.0975938312453
 30
0.0
 10
70.61237145789906
 20
138.923557364074
 30
0.0
 10
70.2209252621436
 20
138.6142971996897
 30
0.0
 10
70.01077771708724
 20
138.477446885589
 30
0.0
 10
69.56174874360067
 20
138.2420714033967
 30
0.0
 10
69.32944900646982
 20
138.1469283722687
 30
0.0
 10
68.8495154066742
 20
138.0002783724251
 30
0.0
 10
68.59945894445627
 20
137.948552667396
 30
0.0
 10
68.094304001129
 20
137.8932291745167
 30
0.0
 10
67.84225389444346
 20
137.8894683366799
 30
0.0
 10
67.3391871020022
 20
137.9287459674827
 30
0.0
 10
67.08567961121248
 20
137.9727399981755
 30
0.0
 10
66.59869729294815
 20
138.1053065465337
 30
0.0
 10
66.36371894004206
 20
138.1934967577686
 30
0.0
 10
65.91046056995837
 20
138.4135615843472
 30
0.0
 10
65.69297608776469
 20
138.5457060227732
 30
0.0
 10
65.29174359981569
 20
138.8434769974563
 30
0.0
 10
65.1055882603535
 20
139.0101461072127
 30
0.0
 10
64.59123226708168
 20
139.5656924596451
 30
0.0
 10
64.32268109730646
 20
139.9923998758238
 30
0.0
 10
64.04421898188006
 20
140.7003520093183
 30
0.0
 10
63.97455042200159
 20
140.941960914244
 30
0.0
 10
63.88040826742176
 20
141.4362777211797
 30
0.0
 10
63.85604892496895
 20
141.69188270382
 30
0.0
 10
63.85589226484931
 20
142.1992544075424
 30
0.0
 10
63.87944165874203
 20
142.4501183905849
 30
0.0
 10
63.97312465122302
 20
142.9463030482572
 30
0.0
 10
64.04431148733205
 20
143.1931505771336
 30
0.0
 10
64.22817610672527
 20
143.6613396783842
 30
0.0
 10
64.3409997772473
 20
143.8851229308417
 30
0.0
 10
64.6088556695181
 20
144.3122094922125
 30
0.0
 10
64.76291544741244
 20
144.5131318682166
 30
0.0
 10
65.27108910006403
 20
145.0627336845307
 30
0.0
 10
65.68291988740715
 20
145.3689378833778
 30
0.0
 10
66.35768662297154
 20
145.6975396682925
 30
0.0
 10
66.59556033036107
 20
145.7873533617941
 30
0.0
 10
67.08513692514002
 20
145.9208737505875
 30
0.0
 10
67.33375419600173
 20
145.9641817043967
 30
0.0
 10
67.83866674902866
 20
146.0041709330339
 30
0.0
 10
68.09620368965871
 20
146.000205147131
 30
0.0
 10
68.59769380944245
 20
145.9452745370421
 30
0.0
 10
68.84427873077134
 20
145.8947674737849
 30
0.0
 10
69.32909214511282
 20
145.7470090158003
 30
0.0
 10
69.56412768977557
 20
145.6502845456889
 30
0.0
 10
70.00750681058665
 20
145.4179409125492
 30
0.0
 10
70.21868997162399
 20
145.28111543758
 30
0.0
 10
70.6147752344589
 20
144.9681731466898
 30
0.0
 10
70.79537766264463
 20
144.7956953047232
 30
0.0
 10
71.12326008436847
 20
144.4194325095448
 30
0.0
 10
71.27178187214363
 20
144.2133426557763
 30
0.0
 10
71.52645229982049
 20
143.7792837623056
 30
0.0
 10
71.63251702393401
 20
143.5525832555242
 30
0.0
 10
71.80241493184006
 20
143.0796687399705
 30
0.0
 10
71.86640190028649
 20
142.8307227255665
 30
0.0
 10
71.90597040185042
 20
142.5812479428318
 30
0.0
  0
SPLINE
  5
122
330
1F
100
AcDbEntity
  8
0
  6
HIDDEN
 62
     7
370
     0
100
AcDbSpline
210
0.0
220
0.0
230
1.0
 70
     8
 71
     3
 72
    70
 73
    66
 74
     0
 42
0.00000001
 43
0.00000001
 12
1.0
 22
0.0
 32
0.0
 13
1.0
 23
0.0
 33
0.0
 40
0.0
 40
0.0
 40
0.0
 40
0.0
 40
0.03125
 40
0.03125
 40
0.0625
 40
0.0625
 40
0.09375
 40
0.09375
 40
0.125
 40
0.125
 40
0.15625
 40
0.15625
 40
0.1875
 40
0.1875
 40
0.2187500000000001
 40
0.2187500000000001
 40
0.2500000000000001
 40
0.2500000000000001
 40
0.2812500000000002
 40
0.2812500000000002
 40
0.3125000000000002
 40
0.3125000000000002
 40
0.3437500000000002
 40
0.3437500000000002
 40
0.3750000000000002
 40
0.3750000000000002
 40
0.4062500000000003
 40
0.4062500000000003
 40
0.4375000000000003
 40
0.4375000000000003
 40
0.4687500000000003
 40
0.4687500000000003
 40
0.5000000000000003
 40
0.5000000000000003
 40
0.5312500000000003
 40
0.5312500000000003
 40
0.5625000000000003
 40
0.5625000000000003
 40
0.5937500000000002
 40
0.5937500000000002
 40
0.6250000000000002
 40
0.6250000000000002
 40
0.6562500000000002
 40
0.6562500000000002
 40
0.6875000000000002
 40
0.6875000000000002
 40
0.7187500000000002
 40
0.7187500000000002
 40
0.7500000000000001
 40
0.7500000000000001
 40
0.7812500000000001
 40
0.7812500000000001
 40
0.8125000000000001
 40
0.8125000000000001
 40
0.8437500000000001
 40
0.8437500000000001
 40
0.8750000000000001
 40
0.8750000000000001
 40
0.9062500000000001
 40
0.9062500000000001
 40
0.9375
 40
0.9375
 40
0.96875
 40
0.96875
 40
1.0
 40
1.0
 40
1.0
 40
1.0
 10
71.90597040185042
 20
142.5812479428318
 30
0.0
 10
71.86648126149214
 20
142.8302223624303
 30
0.0
 10
71.80268887564237
 20
143.0789453186092
 30
0.0
 10
71.63209945365303
 20
143.5537064313652
 30
0.0
 10
71.52573556969936
 20
143.7806658980995
 30
0.0
 10
71.27117004105833
 20
144.2142240721874
 30
0.0
 10
71.1222696821777
 20
144.420744769323
 30
0.0
 10
70.79389862442841
 20
144.7972155344391
 30
0.0
 10
70.61323769960163
 20
144.9695157709645
 30
0.0
 10
70.21768890160692
 20
145.2817777118367
 30
0.0
 10
70.00562833632057
 20
145.4190577990715
 30
0.0
 10
69.56262460367655
 20
145.6509386802551
 30
0.0
 10
69.32996356111349
 20
145.7467641883425
 30
0.0
 10
68.84280275814362
 20
145.8951965285266
 30
0.0
 10
68.59536039481546
 20
145.9457086767872
 30
0.0
 10
68.09285021656392
 20
146.0003918871658
 30
0.0
 10
67.83520638464819
 20
146.004088925781
 30
0.0
 10
67.33106377116293
 20
145.9637742097905
 30
0.0
 10
67.0831870084128
 20
145.9204014850351
 30
0.0
 10
66.5957306717631
 20
145.7873400727299
 30
0.0
 10
66.35637193397345
 20
145.6970261484565
 30
0.0
 10
65.90583455022679
 20
145.4773664949531
 30
0.0
 10
65.69191122066006
 20
145.3474271047499
 30
0.0
 10
65.28686269178363
 20
145.0462493191606
 30
0.0
 10
65.10005384735842
 20
144.8779497258161
 30
0.0
 10
64.76163294716774
 20
144.5115484136907
 30
0.0
 10
64.6082847150786
 20
144.3114614286408
 30
0.0
 10
64.34009736747498
 20
143.8835208744394
 30
0.0
 10
64.22751160187732
 20
143.6598005302582
 30
0.0
 10
64.04431482967043
 20
143.1930056018046
 30
0.0
 10
63.97327668078579
 20
142.9471115541796
 30
0.0
 10
63.87928600438259
 20
142.4492906860827
 30
0.0
 10
63.85592089779352
 20
142.1985616112725
 30
0.0
 10
63.8560200620252
 20
141.6934862028457
 30
0.0
 10
63.88027272621047
 20
141.436937671822
 30
0.0
 10
63.9747440999971
 20
140.9409957338052
 30
0.0
 10
64.0445677843512
 20
140.6994505755456
 30
0.0
 10
64.22957452217256
 20
140.2291253617922
 30
0.0
 10
64.34464189479124
 20
140.0020835318907
 30
0.0
 10
64.61099129769102
 20
139.578661610058
 30
0.0
 10
64.7631778750079
 20
139.379862938186
 30
0.0
 10
65.10678894225157
 20
139.0089641027184
 30
0.0
 10
65.29308993011998
 20
138.8423666638843
 30
0.0
 10
65.6939637563495
 20
138.5450848499088
 30
0.0
 10
65.91058050957297
 20
138.4134575555963
 30
0.0
 10
66.36478975942217
 20
138.1930227725267
 30
0.0
 10
66.5996054020076
 20
138.1050622042163
 30
0.0
 10
67.08468560169914
 20
137.9730077248607
 30
0.0
 10
67.33793514494191
 20
137.9288673579537
 30
0.0
 10
67.84275460918678
 20
137.8894056356412
 30
0.0
 10
68.0946421815146
 20
137.8933213732911
 30
0.0
 10
68.59737770757619
 20
137.9482697637147
 30
0.0
 10
68.84923974367763
 20
138.000164973347
 30
0.0
 10
69.33058400211507
 20
138.1473044038134
 30
0.0
 10
69.56282997510112
 20
138.2426058865187
 30
0.0
 10
70.01050886308464
 20
138.4773382994281
 30
0.0
 10
70.22219506445707
 20
138.6151657239236
 30
0.0
 10
70.61380120606508
 20
138.9248225380297
 30
0.0
 10
70.79607621242714
 20
139.0984210676297
 30
0.0
 10
71.12707371235874
 20
139.4789097855895
 30
0.0
 10
71.27276878723211
 20
139.6819374328755
 30
0.0
 10
71.52579853854081
 20
140.1132802906986
 30
0.0
 10
71.63396815843144
 20
140.3442093843023
 30
0.0
 10
71.80423240729725
 20
140.8199302508755
 30
0.0
 10
71.86647313077195
 20
141.063364505947
 30
0.0
 10
71.90597040185045
 20
141.3123901887871
 30
0.0
  0
LINE
  5
123
330
1F
100
AcDbEntity
  8
0
  6
HIDDEN
 62
     7
370
     0
100
AcDbLine
 10
73.6559702007
 20
150.9468186784
 30
0.0
 11
73.6559702007
 21
132.9468194532
 31
0.0
  0
LINE
  5
124
330
1F
100
AcDbEntity
  8
0
  6
HIDDEN
 62
     7
370
     0
100
AcDbLine
 10
72.4059704615
 20
131.6968187827
 30
0.0
 11
72.4059704615
 21
152.1667432177
 31
0.0
  0
LINE
  5
125
330
1F
100
AcDbEntity
  8
0
  6
HIDDEN
 62
     7
370
     0
100
AcDbLine
 10
99.4059711618
 20
150.9468186784
 30
0.0
 11
99.4059711618
 21
132.9468194532
 31
0.0
  0
LINE
  5
126
330
1F
100
AcDbEntity
  8
0
  6
HIDDEN
 62
     7
370
     0
100
AcDbLine
 10
102.2600576205
 20
146.1968192968
 30
0.0
 11
102.2600576205
 21
137.6968188348
 31
0.0
  0
LINE
  5
127
330
1F
100
AcDbEntity
  8
0
  6
HIDDEN
 62
     7
370
     0
100
AcDbLine
 10
237.9059631301
 20
121.4468184996
 30
0.0
 11
237.9059631301
 21
141.9468190658
 31
0.0
  0
SPLINE
  5
128
330
1F
100
AcDbEntity
  8
0
  6
HIDDEN
 62
     7
370
     0
100
AcDbSpline
210
0.0
220
0.0
230
1.0
 70
     8
 71
     3
 72
    14
 73
    10
 74
     0
 42
0.00000001
 43
0.00000001
 12
1.0
 22
0.0
 32
0.0
 13
1.0
 23
0.0
 33
0.0
 40
0.0
 40
0.0
 40
0.0
 40
0.0
 40
0.5000000000000002
 40
0.5000000000000002
 40
0.6250000000000001
 40
0.6250000000000001
 40
0.7500000000000001
 40
0.7500000000000001
 40
1.0
 40
1.0
 40
1.0
 40
1.0
 10
240.8804879359255
 20
153.3837318248372
 30
0.0
 10
240.0123606341651
 20
151.6018812506165
 30
0.0
 10
239.2678181673098
 20
149.7654550162166
 30
0.0
 10
238.6017802180375
 20
147.3530558613347
 30
0.0
 10
238.4822927901
 20
146.8650266763105
 30
0.0
 10
238.2761783556814
 20
145.8892777812191
 30
0.0
 10
238.1891046844136
 20
145.4000147566076
 30
0.0
 10
237.978544934548
 20
143.9278244648279
 30
0.0
 10
237.9059704018502
 20
142.9404742363671
 30
0.0
 10
237.9059704018502
 20
141.9468190658095
 30
0.0
  0
SPLINE
  5
129
330
1F
100
AcDbEntity
  8
0
  6
HIDDEN
 62
     7
370
     0
100
AcDbSpline
210
0.0
220
0.0
230
1.0
 70
     8
 71
     3
 72
    13
 73
     9
 74
     0
 42
0.00000001
 43
0.00000001
 12
1.0
 22
0.0
 32
0.0
 13
1.0
 23
0.0
 33
0.0
 40
0.0
 40
0.0
 40
0.0
 40
0.0
 40
0.1718014761130438
 40
0.3485836955804523
 40
0.5204687532319002
 40
0.6973008308230393
 40
0.869828866543035
 40
1.0
 40
1.0
 40
1.0
 40
1.0
 10
240.880488224116
 20
153.3837322282793
 30
0.0
 10
240.8679591321382
 20
154.604014748844
 30
0.0
 10
240.8425377138669
 20
157.0799573326594
 30
0.0
 10
240.9191141269476
 20
160.2100017382116
 30
0.0
 10
241.0795569121556
 20
162.8403579224951
 30
0.0
 10
241.3242432719683
 20
164.7873162021121
 30
0.0
 10
241.6085460791105
 20
166.0350486028841
 30
0.0
 10
241.8271175209986
 20
166.2781260315399
 30
0.0
 10
241.9211108160884
 20
166.3826577502491
 30
0.0
  0
LINE
  5
12A
330
1F
100
AcDbEntity
  8
0
  6
HIDDEN
 62
     7
370
     0
100
AcDbLine
 10
242.0210678054
 20
166.533392309
 30
0.0
 11
242.0944560243
 21
166.549375667
 31
0.0
  0
ELLIPSE
  5
12B
330
1F
100
AcDbEntity
  8
0
  6
HIDDEN
 62
     7
370
     0
100
AcDbEllipse
 10
256.8594441763
 20
141.9468190658
 30
0.0
 11
14.59302442225271
 21
20.49991501975614
 31
0.0
210
0.0
220
0.0
230
1.0
 40
0.0040448756
 41
1.573675695089379
 42
3.144472021887815
  0
LINE
  5
12C
330
1F
100
AcDbEntity
  8
0
  6
HIDDEN
 62
     7
370
     0
100
AcDbLine
 10
223.4059709979
 20
146.1968192968
 30
0.0
 11
223.4059709979
 21
137.6968188348
 31
0.0
  0
SPLINE
  5
12D
330
1F
100
AcDbEntity
  8
0
  6
HIDDEN
 62
     7
370
     0
100
AcDbSpline
210
0.0
220
0.0
230
1.0
 70
    11
 71
     3
 72
    29
 73
    25
 74
     0
 42
0.00000001
 43
0.00000001
 12
1.0
 22
0.0
 32
0.0
 13
1.0
 23
0.0
 33
0.0
 40
0.0
 40
0.0
 40
0.0
 40
0.0
 40
0.0350053458675567
 40
0.0433313480673922
 40
0.0820519152048364
 40
0.1288668711401428
 40
0.18118074361164
 40
0.2387641234568856
 40
0.2909588950412822
 40
0.3369588690881005
 40
0.3833272824182525
 40
0.4351530840836039
 40
0.4925416888408586
 40
0.5361209505931849
 40
0.5797401970218579
 40
0.6236399880459008
 40
0.6752294272944911
 40
0.7327820882368243
 40
0.7858312454389684
 40
0.832204244178535
 40
0.8782346578432184
 40
0.9293469984113943
 40
0.9864260103319588
 40
1.0
 40
1.0
 40
1.0
 40
1.0
 10
219.9573803616435
 20
139.5332833423468
 30
0.0
 10
219.7735174435703
 20
139.4809178643752
 30
0.0
 10
219.5459228318826
 20
139.4160972863616
 30
0.0
 10
219.1154916012823
 20
139.4982927057212
 30
0.0
 10
218.6069948284801
 20
139.5224122205582
 30
0.0
 10
217.9643757333438
 20
139.8653211665533
 30
0.0
 10
217.3747193435128
 20
140.4061683426013
 30
0.0
 10
216.9757631543245
 20
141.1691053262769
 30
0.0
 10
216.8641688882206
 20
142.0129438157162
 30
0.0
 10
217.0113794101764
 20
142.7818837250825
 30
0.0
 10
217.3630566033364
 20
143.4531377050869
 30
0.0
 10
217.9270990835467
 20
144.0202243539977
 30
0.0
 10
218.6476967500851
 20
144.3746996908116
 30
0.0
 10
219.424624808545
 20
144.4803205246135
 30
0.0
 10
220.1271019144565
 20
144.3742125380705
 30
0.0
 10
220.7885034793365
 20
144.072684384634
 30
0.0
 10
221.3806530901932
 20
143.5553068033687
 30
0.0
 10
221.8064329230563
 20
142.8137348378102
 30
0.0
 10
221.9497413741527
 20
141.9683379776005
 30
0.0
 10
221.8260841790129
 20
141.1893700331545
 30
0.0
 10
221.4968531718062
 20
140.5050436200264
 30
0.0
 10
220.952078051176
 20
139.9388636454878
 30
0.0
 10
220.403943717432
 20
139.590908534671
 30
0.0
 10
220.0293483411138
 20
139.5425701962823
 30
0.0
 10
219.9573803616435
 20
139.5332833423468
 30
0.0
  0
SPLINE
  5
12E
330
1F
100
AcDbEntity
  8
0
  6
HIDDEN
 62
     7
370
     0
100
AcDbSpline
210
0.0
220
0.0
230
1.0
 70
     8
 71
     3
 72
    60
 73
    56
 74
     0
 42
0.00000001
 43
0.00000001
 12
1.0
 22
0.0
 32
0.0
 13
1.0
 23
0.0
 33
0.0
 40
-0.0312499999999978
 40
-0.0312499999999978
 40
0.0
 40
0.0
 40
0.0312499999999992
 40
0.0312499999999992
 40
0.0624999999999984
 40
0.0624999999999984
 40
0.1249999999999969
 40
0.1249999999999969
 40
0.1562499999999979
 40
0.1562499999999979
 40
0.1874999999999989
 40
0.1874999999999989
 40
0.2187499999999999
 40
0.2187499999999999
 40
0.2500000000000009
 40
0.2500000000000009
 40
0.3125000000000028
 40
0.3125000000000028
 40
0.3750000000000048
 40
0.3750000000000048
 40
0.4062500000000075
 40
0.4062500000000075
 40
0.4375000000000102
 40
0.4375000000000102
 40
0.4687500000000129
 40
0.4687500000000129
 40
0.5000000000000157
 40
0.5000000000000157
 40
0.5312500000000184
 40
0.5312500000000184
 40
0.5625000000000212
 40
0.5625000000000212
 40
0.6250000000000219
 40
0.6250000000000219
 40
0.6562500000000205
 40
0.6562500000000205
 40
0.6875000000000192
 40
0.6875000000000192
 40
0.7187500000000179
 40
0.7187500000000179
 40
0.7500000000000165
 40
0.7500000000000165
 40
0.7812500000000152
 40
0.7812500000000152
 40
0.8125000000000139
 40
0.8125000000000139
 40
0.8750000000000092
 40
0.8750000000000092
 40
0.9062500000000069
 40
0.9062500000000069
 40
0.9375000000000046
 40
0.9375000000000046
 40
0.9687500000000022
 40
0.9687500000000022
 40
1.0
 40
1.0
 40
1.031249999999999
 40
1.031249999999999
 10
219.2364428052797
 20
139.4468190658095
 30
0.0
 10
219.5754979984209
 20
139.4468190658095
 30
0.0
 10
219.7410958461285
 20
139.4638700304401
 30
0.0
 10
220.0652159228011
 20
139.5296429616023
 30
0.0
 10
220.2250259871268
 20
139.5792154637434
 30
0.0
 10
220.6743675896682
 20
139.7681120990307
 30
0.0
 10
220.9440503294435
 20
139.9504504267172
 30
0.0
 10
221.2822351182011
 20
140.2870223566064
 30
0.0
 10
221.385801551825
 20
140.4118392094872
 30
0.0
 10
221.5662530141249
 20
140.6783264261661
 30
0.0
 10
221.6433749803872
 20
140.8196157988779
 30
0.0
 10
221.7707928651944
 20
141.1196666192178
 30
0.0
 10
221.8212570579955
 20
141.280566575908
 30
0.0
 10
221.888098470678
 20
141.6054361992347
 30
0.0
 10
221.905416672227
 20
141.7706460771046
 30
0.0
 10
221.9070390641604
 20
142.2750413505575
 30
0.0
 10
221.8385510936167
 20
142.6105025294021
 30
0.0
 10
221.5845007872459
 20
143.2164370877786
 30
0.0
 10
221.3999178878906
 20
143.4880815172837
 30
0.0
 10
221.0625494174674
 20
143.8259345745981
 30
0.0
 10
220.9385602485007
 20
143.9284758051226
 30
0.0
 10
220.6723915032831
 20
144.1082937162198
 30
0.0
 10
220.5318548224592
 20
144.1847930536086
 30
0.0
 10
220.2341964871612
 20
144.3111762406555
 30
0.0
 10
220.0747291096187
 20
144.3614412882504
 30
0.0
 10
219.7491117254851
 20
144.4287321824064
 30
0.0
 10
219.5831447430979
 20
144.446281312242
 30
0.0
 10
219.2443114970349
 20
144.4473327464422
 30
0.0
 10
219.0773208181997
 20
144.4306795572766
 30
0.0
 10
218.7516959044089
 20
144.3653926892294
 30
0.0
 10
218.5915647318519
 20
144.3160514802719
 30
0.0
 10
218.1408595724936
 20
144.1275459872064
 30
0.0
 10
217.8706010713429
 20
143.9454542801311
 30
0.0
 10
217.5308863424411
 20
143.6080039427561
 30
0.0
 10
217.4269276985656
 20
143.4827868200554
 30
0.0
 10
217.246618605944
 20
143.2168611064616
 30
0.0
 10
217.1691848973514
 20
143.0753926433377
 30
0.0
 10
217.0409360425068
 20
142.7735597701152
 30
0.0
 10
216.99062075159
 20
142.6127921522426
 30
0.0
 10
216.9238725050986
 20
142.28832179758
 30
0.0
 10
216.9063989959025
 20
142.1225758722297
 30
0.0
 10
216.9055572133721
 20
141.7834741689832
 30
0.0
 10
216.922317310904
 20
141.6163834962969
 30
0.0
 10
216.9880694544078
 20
141.2899512327385
 30
0.0
 10
217.0379243151815
 20
141.1287083429741
 30
0.0
 10
217.2288891007489
 20
140.674770834798
 30
0.0
 10
217.4141852337189
 20
140.402585547804
 30
0.0
 10
217.7530741345387
 20
140.0644269020887
 30
0.0
 10
217.878256056942
 20
139.9614326673345
 30
0.0
 10
218.1441911929152
 20
139.7826602225664
 30
0.0
 10
218.2850467763139
 20
139.7062902298301
 30
0.0
 10
218.5847133727981
 20
139.5799696554386
 30
0.0
 10
218.7450915549327
 20
139.5300662077459
 30
0.0
 10
219.0698286949814
 20
139.4639852050438
 30
0.0
 10
219.2364428052797
 20
139.4468190658095
 30
0.0
 10
219.5754979984209
 20
139.4468190658095
 30
0.0
  0
CIRCLE
  5
12F
330
1F
100
AcDbEntity
  8
0
  6
HIDDEN
 62
     7
370
     0
100
AcDbCircle
 10
251.9651305198
 20
150.1575964027
 30
0.0
 40
3.471963195563215
  0
CIRCLE
  5
130
330
1F
100
AcDbEntity
  8
0
  6
HIDDEN
 62
     7
370
     0
100
AcDbCircle
 10
251.538718891
 20
149.592964397
 30
0.0
 40
3.471963195185428
  0
ARC
  5
131
330
1F
100
AcDbEntity
  8
0
  6
HIDDEN
 62
     7
370
     0
100
AcDbCircle
 10
248.3617555853
 20
156.959420705
 30
0.0
 40
2.345365052065502
100
AcDbArc
 50
133.4352634514
 51
274.6839115521
  0
LINE
  5
132
330
1F
100
AcDbEntity
  8
0
  6
HIDDEN
 62
     7
370
     0
100
AcDbLine
 10
261.2905938102
 20
156.1600942302
 30
0.0
 11
260.7993174268
 21
155.5095644805
 31
0.0
  0
LINE
  5
133
330
1F
100
AcDbEntity
  8
0
  6
HIDDEN
 62
     7
370
     0
100
AcDbLine
 10
257.982521124
 20
143.700043475
 30
0.0
 11
260.486050315
 21
147.0150648753
 31
0.0
  0
LINE
  5
134
330
1F
100
AcDbEntity
  8
0
  6
HIDDEN
 62
     7
370
     0
100
AcDbLine
 10
249.4648534728
 20
159.3600031126
 30
0.0
 11
249.9455500317
 21
159.3948476154
 31
0.0
  0
LINE
  5
135
330
1F
100
AcDbEntity
  8
0
  6
HIDDEN
 62
     7
370
     0
100
AcDbLine
 10
249.6382433844
 20
158.9879211175
 30
0.0
 11
249.9455500317
 21
159.3948476154
 31
0.0
  0
LINE
  5
136
330
1F
100
AcDbEntity
  8
0
  6
HIDDEN
 62
     7
370
     0
100
AcDbLine
 10
249.4307894183
 20
158.9728839833
 30
0.0
 11
249.6382433844
 21
158.9879211175
 31
0.0
  0
ELLIPSE
  5
137
330
1F
100
AcDbEntity
  8
0
  6
HIDDEN
 62
     7
370
     0
100
AcDbEllipse
 10
248.477771482
 20
141.0816579301
 30
0.0
 11
2.733626938423242
 21
26.42588789006405
 31
0.0
210
0.0
220
0.0
230
1.0
 40
0.0894011665
 41
0.2291084880573166
 42
0.3421776936159687
  0
ELLIPSE
  5
138
330
1F
100
AcDbEntity
  8
0
  6
HIDDEN
 62
     7
370
     0
100
AcDbEllipse
 10
235.4404815832
 20
139.7113835454
 30
0.0
 11
217.1628490301411
 21
19.44089462863735
 31
0.0
210
0.0
220
0.0
230
1.0
 40
0.1182598878
 41
1.490334009997226
 42
1.492657199575179
  0
LINE
  5
139
330
1F
100
AcDbEntity
  8
0
  6
HIDDEN
 62
     7
370
     0
100
AcDbLine
 10
258.6886722518
 20
155.2554465967
 30
0.0
 11
240.8804882241
 21
153.3837322283
 31
0.0
  0
SPLINE
  5
13A
330
1F
100
AcDbEntity
  8
0
  6
HIDDEN
 62
     7
370
     0
100
AcDbSpline
210
0.0
220
0.0
230
1.0
 70
     8
 71
     3
 72
    25
 73
    21
 74
     0
 42
0.00000001
 43
0.00000001
 12
1.0
 22
0.0
 32
0.0
 13
1.0
 23
0.0
 33
0.0
 40
0.0
 40
0.0
 40
0.0
 40
0.0
 40
0.0245280917907084
 40
0.0492188286101138
 40
0.0740723644261809
 40
0.0990888501993864
 40
0.1242684339578157
 40
0.185925972943034
 40
0.2487810943270133
 40
0.3104435951435853
 40
0.3735337332972678
 40
0.4984810115700368
 40
0.6236251569642378
 40
0.6849228946041112
 40
0.7489625924834914
 40
0.809813224115324
 40
0.874431994395782
 40
0.9136416519733329
 40
0.9554976535453107
 40
1.0
 40
1.0
 40
1.0
 40
1.0
 10
260.9898576736811
 20
166.734361879106
 30
0.0
 10
260.9723618674566
 20
166.6790590331522
 30
0.0
 10
260.9372542408501
 20
166.5680866297593
 30
0.0
 10
260.8839149383685
 20
166.3925792094363
 30
0.0
 10
260.8298706176533
 20
166.2096757687288
 30
0.0
 10
260.7750912710521
 20
166.0186852914862
 30
0.0
 10
260.6929160187652
 20
165.7240500359076
 30
0.0
 10
260.581738652493
 20
165.3066581697927
 30
0.0
 10
260.4416120103999
 20
164.7475220082467
 30
0.0
 10
260.298761487119
 20
164.1448187944713
 30
0.0
 10
260.1068133508315
 20
163.2918745623772
 30
0.0
 10
259.8631264008416
 20
162.1286764767009
 30
0.0
 10
259.6187566626365
 20
160.8575370821194
 30
0.0
 10
259.4219858679112
 20
159.7722050739361
 30
0.0
 10
259.275847501466
 20
158.9352345820338
 30
0.0
 10
259.1274583135494
 20
158.0542694717841
 30
0.0
 10
258.9990668435328
 20
157.2646793389656
 30
0.0
 10
258.8860364515213
 20
156.5493900140846
 30
0.0
 10
258.7890206324408
 20
155.9228367094723
 30
0.0
 10
258.7227950312682
 20
155.4824089820384
 30
0.0
 10
258.6886675298176
 20
155.255446936534
 30
0.0
  0
ELLIPSE
  5
13B
330
1F
100
AcDbEntity
  8
0
  6
HIDDEN
 62
     7
370
     0
100
AcDbEllipse
 10
210.7503705353
 20
137.1163483051
 30
0.0
 11
217.162849030141
 21
19.44089462863732
 31
0.0
210
0.0
220
0.0
230
1.0
 40
0.1182598878
 41
1.326763449177637
 42
1.377264804438695
  0
ELLIPSE
  5
13C
330
1F
100
AcDbEntity
  8
0
  6
HIDDEN
 62
     7
370
     0
100
AcDbEllipse
 10
247.9676418166
 20
141.0280411418
 30
0.0
 11
2.733626938423214
 21
26.42588789006402
 31
0.0
210
0.0
220
0.0
230
1.0
 40
0.0894011665
 41
0.046996234899394
 42
0.2267852984794285
  0
ELLIPSE
  5
13D
330
1F
100
AcDbEntity
  8
0
  6
HIDDEN
 62
     7
370
     0
100
AcDbEllipse
 10
254.0673174998
 20
156.3545885551
 30
0.0
 11
0.938287612369578
 21
2.751666891553327
 31
0.0
210
0.0
220
0.0
230
1.0
 40
0.8587453104
 41
4.575938033196798
 42
4.684963051302606
  0
ELLIPSE
  5
13E
330
1F
100
AcDbEntity
  8
0
  6
HIDDEN
 62
     7
370
     0
100
AcDbEllipse
 10
254.0673174998
 20
156.3545885551
 30
0.0
 11
0.938287612369578
 21
2.751666891553327
 31
0.0
210
0.0
220
0.0
230
1.0
 40
0.8587453104
 41
2.217011811208232
 42
2.40555334123451
  0
ELLIPSE
  5
13F
330
1F
100
AcDbEntity
  8
0
  6
HIDDEN
 62
     7
370
     0
100
AcDbEllipse
 10
253.5964647226
 20
155.2901918383
 30
0.0
 11
2.96722217003807
 21
0.5785035440251532
 31
0.0
210
0.0
220
0.0
230
1.0
 40
0.1845741307
 41
2.265121822756896
 42
2.853074040823612
  0
ELLIPSE
  5
140
330
1F
100
AcDbEntity
  8
0
  6
HIDDEN
 62
     7
370
     0
100
AcDbEllipse
 10
253.1351152372
 20
154.2472779994
 30
0.0
 11
0.9382876123696349
 21
2.751666891553356
 31
0.0
210
0.0
220
0.0
230
1.0
 40
0.8587453104
 41
1.543370397712894
 42
1.629059593141542
  0
SPLINE
  5
141
330
1F
100
AcDbEntity
  8
0
  6
HIDDEN
 62
     7
370
     0
100
AcDbSpline
210
0.0
220
0.0
230
1.0
 70
     8
 71
     3
 72
    22
 73
    18
 74
     0
 42
0.00000001
 43
0.00000001
 12
1.0
 22
0.0
 32
0.0
 13
1.0
 23
0.0
 33
0.0
 40
0.0
 40
0.0
 40
0.0
 40
0.0
 40
0.1249999999999987
 40
0.1249999999999987
 40
0.2499999999999973
 40
0.2499999999999973
 40
0.4999999999999951
 40
0.4999999999999951
 40
0.6249999999999941
 40
0.6249999999999941
 40
0.7499999999999929
 40
0.7499999999999929
 40
0.8749999999999918
 40
0.8749999999999918
 40
0.9374999999999959
 40
0.9374999999999959
 40
1.0
 40
1.0
 40
1.0
 40
1.0
 10
249.7304805278241
 20
152.7132754879726
 30
0.0
 10
249.7598188181312
 20
152.7521235974572
 30
0.0
 10
249.804613439177
 20
152.7953458236726
 30
0.0
 10
249.9176590177424
 20
152.8875653579584
 30
0.0
 10
249.9862418111436
 20
152.9367026905382
 30
0.0
 10
250.2197367144879
 20
153.0867462275096
 30
0.0
 10
250.4115134143192
 20
153.1909130527905
 30
0.0
 10
250.7561028038325
 20
153.3367927287601
 30
0.0
 10
250.8807069140504
 20
153.3836986825805
 30
0.0
 10
251.1554565252234
 20
153.4696587432244
 30
0.0
 10
251.3055330152523
 20
153.5088257725112
 30
0.0
 10
251.6389295959297
 20
153.5694099735729
 30
0.0
 10
251.8228670385175
 20
153.5915816976014
 30
0.0
 10
252.1378889812864
 20
153.5939274525445
 30
0.0
 10
252.2511770981052
 20
153.5894181597328
 30
0.0
 10
252.4957803029424
 20
153.5618738021636
 30
0.0
 10
252.6262178183628
 20
153.5388627170566
 30
0.0
 10
252.7626097106999
 20
153.5017005114853
 30
0.0
  0
SPLINE
  5
142
330
1F
100
AcDbEntity
  8
0
  6
HIDDEN
 62
     7
370
     0
100
AcDbSpline
210
0.0
220
0.0
230
1.0
 70
     8
 71
     3
 72
     8
 73
     4
 74
     0
 42
0.00000001
 43
0.00000001
 12
1.0
 22
0.0
 32
0.0
 13
1.0
 23
0.0
 33
0.0
 40
0.0
 40
0.0
 40
0.0
 40
0.0
 40
1.0
 40
1.0
 40
1.0
 40
1.0
 10
252.7626097107001
 20
153.5017005114852
 30
0.0
 10
252.8998703088404
 20
153.4418948333297
 30
0.0
 10
253.0410796220521
 20
153.388542057393
 30
0.0
 10
253.1845038278613
 20
153.3426290801625
 30
0.0
  0
SPLINE
  5
143
330
1F
100
AcDbEntity
  8
0
  6
HIDDEN
 62
     7
370
     0
100
AcDbSpline
210
0.0
220
0.0
230
1.0
 70
     8
 71
     3
 72
    22
 73
    18
 74
     0
 42
0.00000001
 43
0.00000001
 12
1.0
 22
0.0
 32
0.0
 13
1.0
 23
0.0
 33
0.0
 40
0.0
 40
0.0
 40
0.0
 40
0.0
 40
0.0624999999999998
 40
0.0624999999999998
 40
0.1249999999999997
 40
0.1249999999999997
 40
0.1874999999999995
 40
0.1874999999999995
 40
0.2499999999999993
 40
0.2499999999999993
 40
0.3749999999999992
 40
0.3749999999999992
 40
0.4999999999999992
 40
0.4999999999999992
 40
0.7499999999999996
 40
0.7499999999999996
 40
1.0
 40
1.0
 40
1.0
 40
1.0
 10
253.1845038278612
 20
153.3426290801625
 30
0.0
 10
253.3089378339731
 20
153.2813771943384
 30
0.0
 10
253.4147418676204
 20
153.2156939421497
 30
0.0
 10
253.6037699366393
 20
153.0792146679355
 30
0.0
 10
253.6827592407028
 20
153.0114160379197
 30
0.0
 10
253.8224806897101
 20
152.8771192652649
 30
0.0
 10
253.8833006539516
 20
152.8101742883023
 30
0.0
 10
253.9900624697256
 20
152.6803398414931
 30
0.0
 10
254.0363658322056
 20
152.6170840638732
 30
0.0
 10
254.1605698220358
 20
152.4312632022755
 30
0.0
 10
254.2240350496356
 20
152.3125837293448
 30
0.0
 10
254.3275186842862
 20
152.0839259995474
 30
0.0
 10
254.367147410452
 20
151.9739875687984
 30
0.0
 10
254.4585154625809
 20
151.6627065818201
 30
0.0
 10
254.4846799286497
 20
151.4769310446676
 30
0.0
 10
254.4865028282497
 20
151.1613249386219
 30
0.0
 10
254.4626457036737
 20
151.0301743068603
 30
0.0
 10
254.4032049592639
 20
150.9514662252878
 30
0.0
  0
ELLIPSE
  5
144
330
1F
100
AcDbEntity
  8
0
  6
HIDDEN
 62
     7
370
     0
100
AcDbEllipse
 10
253.3165228322
 20
154.6573629726
 30
0.0
 11
2.96722217003807
 21
0.5785035440251249
 31
0.0
210
0.0
220
0.0
230
1.0
 40
0.1845741307
 41
6.189380907948036
 42
8.359765599910222
  0
LINE
  5
145
330
1F
100
AcDbEntity
  8
0
  6
HIDDEN
 62
     7
370
     0
100
AcDbLine
 10
249.7304815722
 20
152.7132759008
 30
0.0
 11
249.4328457786
 21
152.319159745
 31
0.0
  0
ELLIPSE
  5
146
330
1F
100
AcDbEntity
  8
0
  6
HIDDEN
 62
     7
370
     0
100
AcDbEllipse
 10
250.8416787842
 20
148.60642578
 30
0.0
 11
3.671213746604395
 21
-2.058398841174011
 31
0.0
210
0.0
220
0.0
230
1.0
 40
0.8772799171
 41
1.104348183352967
 42
2.379472024591449
  0
LINE
  5
147
330
1F
100
AcDbEntity
  8
0
  6
HIDDEN
 62
     7
370
     0
100
AcDbLine
 10
254.1055668069
 20
150.5573498222
 30
0.0
 11
254.4032026006
 21
150.951465978
 31
0.0
  0
ELLIPSE
  5
148
330
1F
100
AcDbEntity
  8
0
  6
HIDDEN
 62
     7
370
     0
100
AcDbEllipse
 10
249.5193080277
 20
146.8554169998
 30
0.0
 11
-2.570105550204716
 21
-3.403188827857378
 31
0.0
210
0.0
220
0.0
230
1.0
 40
0.9848432766
 41
0.0
 42
6.283185307179586
  0
ARC
  5
149
330
1F
100
AcDbEntity
  8
0
  6
HIDDEN
 62
     7
370
     0
100
AcDbCircle
 10
251.5007656984
 20
149.5159293875
 30
0.0
 40
4.180745200355505
100
AcDbArc
 50
72.4328157172
 51
66.2505368695
  0
ARC
  5
14A
330
1F
100
AcDbEntity
  8
0
  6
HIDDEN
 62
     7
370
     0
100
AcDbCircle
 10
248.3417896634
 20
157.2088956433
 30
0.0
 40
2.099866694921989
100
AcDbArc
 50
143.5774619684
 51
274.5930374579
  0
LINE
  5
14B
330
1F
100
AcDbEntity
  8
0
  6
HIDDEN
 62
     7
370
     0
100
AcDbLine
 10
251.6157764865
 20
155.3409047562
 30
0.0
 11
248.50994236
 21
155.1157724249
 31
0.0
  0
LINE
  5
14C
330
1F
100
AcDbEntity
  8
0
  6
HIDDEN
 62
     7
370
     0
100
AcDbLine
 10
248.5532749368
 20
154.6218883383
 30
0.0
 11
251.7855156136
 21
154.8561830211
 31
0.0
  0
ARC
  5
14D
330
1F
100
AcDbEntity
  8
0
  6
HIDDEN
 62
     7
370
     0
100
AcDbCircle
 10
248.0311698738
 20
156.7972683644
 30
0.0
 40
2.095449257416208
100
AcDbArc
 50
132.4146505603
 51
274.693222183
  0
LINE
  5
14E
330
1F
100
AcDbEntity
  8
0
  6
HIDDEN
 62
     7
370
     0
100
AcDbLine
 10
249.9455500317
 20
159.3948476154
 30
0.0
 11
250.6034213973
 21
166.872520386
 31
0.0
  0
LINE
  5
14F
330
1F
100
AcDbEntity
  8
0
  6
HIDDEN
 62
     7
370
     0
100
AcDbLine
 10
250.1000750733
 20
166.8322239208
 30
0.0
 11
249.4425464345
 21
159.3583863366
 31
0.0
  0
LINE
  5
150
330
1F
100
AcDbEntity
  8
0
  6
HIDDEN
 62
     7
370
     0
100
AcDbLine
 10
256.4036834908
 20
155.473684347
 30
0.0
 11
256.484581895
 21
155.6938285145
 31
0.0
  0
LINE
  5
151
330
1F
100
AcDbEntity
  8
0
  6
HIDDEN
 62
     7
370
     0
100
AcDbLine
 10
260.8433205558
 20
156.009779698
 30
0.0
 11
256.484581895
 21
155.6938285145
 31
0.0
  0
LINE
  5
152
330
1F
100
AcDbEntity
  8
0
  6
HIDDEN
 62
     7
370
     0
100
AcDbLine
 10
260.7993174268
 20
155.5095644805
 30
0.0
 11
260.8433205558
 21
156.009779698
 31
0.0
  0
LINE
  5
153
330
1F
100
AcDbEntity
  8
0
  6
HIDDEN
 62
     7
370
     0
100
AcDbLine
 10
256.2807042075
 20
155.1820248502
 30
0.0
 11
260.7993174268
 21
155.5095644805
 31
0.0
  0
LINE
  5
154
330
1F
100
AcDbEntity
  8
0
  6
HIDDEN
 62
     7
370
     0
100
AcDbLine
 10
256.484581895
 20
155.6938285145
 30
0.0
 11
256.1772752477
 21
155.2869010854
 31
0.0
  0
LINE
  5
155
330
1F
100
AcDbEntity
  8
0
  6
HIDDEN
 62
     7
370
     0
100
AcDbLine
 10
254.1055668069
 20
150.5573498222
 30
0.0
 11
255.1522988749
 21
153.753131083
 31
0.0
  0
LINE
  5
156
330
1F
100
AcDbEntity
  8
0
  6
HIDDEN
 62
     7
370
     0
100
AcDbLine
 10
257.22958035
 20
158.2233593005
 30
0.0
 11
256.9886434747
 21
157.9043254393
 31
0.0
  0
SPLINE
  5
157
330
1F
100
AcDbEntity
  8
0
  6
HIDDEN
 62
     7
370
     0
100
AcDbSpline
210
0.0
220
0.0
230
1.0
 70
     8
 71
     3
 72
     8
 73
     4
 74
     0
 42
0.00000001
 43
0.00000001
 12
1.0
 22
0.0
 32
0.0
 13
1.0
 23
0.0
 33
0.0
 40
0.0
 40
0.0
 40
0.0
 40
0.0
 40
1.0
 40
1.0
 40
1.0
 40
1.0
 10
257.0334925664125
 20
157.6167696748872
 30
0.0
 10
257.0959960537887
 20
157.8124221298094
 30
0.0
 10
257.1607332166832
 20
158.0131861108987
 30
0.0
 10
257.2295822027664
 20
158.2233595570819
 30
0.0
  0
LINE
  5
158
330
1F
100
AcDbEntity
  8
0
  6
HIDDEN
 62
     7
370
     0
100
AcDbLine
 10
257.0334959699
 20
157.6167702812
 30
0.0
 11
256.1772752477
 21
155.2869010854
 31
0.0
  0
LINE
  5
159
330
1F
100
AcDbEntity
  8
0
  6
HIDDEN
 62
     7
370
     0
100
AcDbLine
 10
260.8433205558
 20
156.009779698
 30
0.0
 11
260.5360139085
 21
155.6028522688
 31
0.0
  0
LINE
  5
15A
330
1F
100
AcDbEntity
  8
0
  6
HIDDEN
 62
     7
370
     0
100
AcDbLine
 10
261.4705104304
 20
166.2249382722
 30
0.0
 11
260.989858575
 21
166.7343605447
 31
0.0
  0
ARC
  5
15B
330
1F
100
AcDbEntity
  8
0
  6
HIDDEN
 62
     7
370
     0
100
AcDbCircle
 10
255.6502017713
 20
161.0254249677
 30
0.0
 40
3.678645078246608
100
AcDbArc
 50
292.0882108231
 51
206.5947557992
  0
LINE
  5
15C
330
1F
100
AcDbEntity
  8
0
  6
HIDDEN
 62
     7
370
     0
100
AcDbLine
 10
250.7987458182
 20
155.1281822982
 30
0.0
 11
252.3607749415
 21
159.3785792726
 31
0.0
  0
LINE
  5
15D
330
1F
100
AcDbEntity
  8
0
  6
HIDDEN
 62
     7
370
     0
100
AcDbLine
 10
256.1772752477
 20
155.2869010854
 30
0.0
 11
260.5360139085
 21
155.6028522688
 31
0.0
  0
LINE
  5
15E
330
1F
100
AcDbEntity
  8
0
  6
HIDDEN
 62
     7
370
     0
100
AcDbLine
 10
250.2602029515
 20
166.0575386274
 30
0.0
 11
249.6382433844
 21
158.9879211175
 31
0.0
  0
LINE
  5
15F
330
1F
100
AcDbEntity
  8
0
  6
HIDDEN
 62
     7
370
     0
100
AcDbLine
 10
248.2026208115
 20
154.7088449958
 30
0.0
 11
250.7215130998
 21
154.8914307866
 31
0.0
  0
LINE
  5
160
330
1F
100
AcDbEntity
  8
0
  6
HIDDEN
 62
     7
370
     0
100
AcDbLine
 10
261.4705104304
 20
166.2249382722
 30
0.0
 11
260.5360139085
 21
155.6028522688
 31
0.0
  0
SPLINE
  5
161
330
1F
100
AcDbEntity
  8
0
  6
HIDDEN
 62
     7
370
     0
100
AcDbSpline
210
0.0
220
0.0
230
1.0
 70
     8
 71
     3
 72
    16
 73
    12
 74
     0
 42
0.00000001
 43
0.00000001
 12
1.0
 22
0.0
 32
0.0
 13
1.0
 23
0.0
 33
0.0
 40
0.0
 40
0.0
 40
0.0
 40
0.0
 40
0.2500000000000006
 40
0.2500000000000006
 40
0.3750000000000006
 40
0.3750000000000006
 40
0.5000000000000007
 40
0.5000000000000007
 40
0.7500000000000003
 40
0.7500000000000003
 40
1.0
 40
1.0
 40
1.0
 40
1.0
 10
82.08465005829072
 20
163.7169000208116
 30
0.0
 10
81.92341758080626
 20
163.6188844077569
 30
0.0
 10
81.80293774116663
 20
163.4321483760808
 30
0.0
 10
81.68055722385331
 20
163.0191085685219
 30
0.0
 10
81.64957956345584
 20
162.859108069289
 30
0.0
 10
81.60796582582789
 20
162.4923024181979
 30
0.0
 10
81.59772991289509
 20
162.2889652655738
 30
0.0
 10
81.59754151583897
 20
161.6216779989471
 30
0.0
 10
81.63768621847659
 20
161.1008635350591
 30
0.0
 10
81.80183997341615
 20
159.9035045195814
 30
0.0
 10
81.92339162382571
 20
159.2452348652854
 30
0.0
 10
82.08465005829072
 20
158.5307256920505
 30
0.0
  0
LINE
  5
162
330
1F
100
AcDbEntity
  8
0
  6
HIDDEN
 62
     7
370
     0
100
AcDbLine
 10
46.9059709383
 20
163.1051827359
 30
0.0
 11
46.9059709383
 21
157.0508716765
 31
0.0
  0
LINE
  5
163
330
1F
100
AcDbEntity
  8
0
  6
HIDDEN
 62
     7
370
     0
100
AcDbLine
 10
45.4059716237
 20
162.2391570497
 30
0.0
 11
45.4059716237
 21
156.6178588334
 31
0.0
  0
LINE
  5
164
330
1F
100
AcDbEntity
  8
0
  6
HIDDEN
 62
     7
370
     0
100
AcDbLine
 10
81.2059704138
 20
163.9669187504
 30
0.0
 11
81.2059704138
 21
157.4817396837
 31
0.0
  0
SPLINE
  5
165
330
1F
100
AcDbEntity
  8
0
  6
HIDDEN
 62
     7
370
     0
100
AcDbSpline
210
0.0
220
0.0
230
1.0
 70
     8
 71
     3
 72
    16
 73
    12
 74
     0
 42
0.00000001
 43
0.00000001
 12
1.0
 22
0.0
 32
0.0
 13
1.0
 23
0.0
 33
0.0
 40
0.0
 40
0.0
 40
0.0
 40
0.0
 40
0.2500000000000002
 40
0.2500000000000002
 40
0.3750000000000003
 40
0.3750000000000003
 40
0.5000000000000004
 40
0.5000000000000004
 40
0.7500000000000002
 40
0.7500000000000002
 40
1.0
 40
1.0
 40
1.0
 40
1.0
 10
82.08465005829072
 20
125.3629124395685
 30
0.0
 10
81.92341758080626
 20
124.6485182773764
 30
0.0
 10
81.80293774116662
 20
123.9951760146677
 30
0.0
 10
81.68055722385331
 20
123.1069207728638
 30
0.0
 10
81.64957956345584
 20
122.8262402365119
 30
0.0
 10
81.60796582582789
 20
122.297206246672
 30
0.0
 10
81.59772991289509
 20
122.0538852680935
 30
0.0
 10
81.59754151583897
 20
121.3858625775803
 30
0.0
 10
81.63768621847659
 20
121.0221816681608
 30
0.0
 10
81.80183997341615
 20
120.4622907956124
 30
0.0
 10
81.92339162382571
 20
120.2747695034953
 30
0.0
 10
82.08465005829072
 20
120.1767381108074
 30
0.0
  0
LINE
  5
166
330
1F
100
AcDbEntity
  8
0
  6
HIDDEN
 62
     7
370
     0
100
AcDbLine
 10
46.9059709383
 20
126.8427664551
 30
0.0
 11
46.9059709383
 21
120.7884553957
 31
0.0
  0
LINE
  5
167
330
1F
100
AcDbEntity
  8
0
  6
HIDDEN
 62
     7
370
     0
100
AcDbLine
 10
81.2059704138
 20
126.4118984479
 30
0.0
 11
81.2059704138
 21
119.9267193812
 31
0.0
  0
LINE
  5
168
330
1F
100
AcDbEntity
  8
0
  6
HIDDEN
 62
     7
370
     0
100
AcDbLine
 10
45.4059716237
 20
127.2757792982
 30
0.0
 11
45.4059716237
 21
121.654481082
 31
0.0
  0
ARC
  5
169
330
1F
100
AcDbEntity
  8
0
  6
HIDDEN
 62
     7
370
     0
100
AcDbCircle
 10
255.5881861605
 20
160.9474736873
 30
0.0
 40
3.180404703453779
100
AcDbArc
 50
301.0707422432
 51
197.6122243791
  0
SPLINE
  5
16A
330
1F
100
AcDbEntity
  8
0
  6
HIDDEN
 62
     7
370
     0
100
AcDbSpline
210
0.0
220
0.0
230
1.0
 70
     8
 71
     3
 72
     8
 73
     4
 74
     0
 42
0.00000001
 43
0.00000001
 12
1.0
 22
0.0
 32
0.0
 13
1.0
 23
0.0
 33
0.0
 40
0.0
 40
0.0
 40
0.0
 40
0.0
 40
1.0
 40
1.0
 40
1.0
 40
1.0
 10
252.5568577713281
 20
159.985168819764
 30
0.0
 10
252.488008785245
 20
159.7749953735808
 30
0.0
 10
252.4232716223505
 20
159.5742313924916
 30
0.0
 10
252.3607681349742
 20
159.3785789375694
 30
0.0
  0
SPLINE
  5
16B
330
1F
100
AcDbEntity
  8
0
  6
HIDDEN
 62
     7
370
     0
100
AcDbSpline
210
0.0
220
0.0
230
1.0
 70
     8
 71
     3
 72
    10
 73
     6
 74
     0
 42
0.00000001
 43
0.00000001
 12
1.0
 22
0.0
 32
0.0
 13
1.0
 23
0.0
 33
0.0
 40
0.0
 40
0.0
 40
0.0
 40
0.0
 40
0.5
 40
0.5
 40
1.0
 40
1.0
 40
1.0
 40
1.0
 10
256.2970616138019
 20
157.3178136669154
 30
0.0
 10
256.4604594237879
 20
157.4288927082978
 30
0.0
 10
256.6034812352338
 20
157.5400058876068
 30
0.0
 10
256.842053930111
 20
157.7445796965199
 30
0.0
 10
256.9393374996503
 20
157.8390338896358
 30
0.0
 10
256.9886456234221
 20
157.9043249263909
 30
0.0
  0
ARC
  5
16C
330
1F
100
AcDbEntity
  8
0
  6
HIDDEN
 62
     7
370
     0
100
AcDbCircle
 10
255.0609088214
 20
160.2492189443
 30
0.0
 40
3.18138640887746
100
AcDbArc
 50
292.8648763904
 51
205.8181500728
  0
SPLINE
  5
16D
330
1F
100
AcDbEntity
  8
0
  6
HIDDEN
 62
     7
370
     0
100
AcDbSpline
210
0.0
220
0.0
230
1.0
 70
     8
 71
     3
 72
    10
 73
     6
 74
     0
 42
0.00000001
 43
0.00000001
 12
1.0
 22
0.0
 32
0.0
 13
1.0
 23
0.0
 33
0.0
 40
0.0
 40
0.0
 40
0.0
 40
0.0
 40
0.5
 40
0.5
 40
1.0
 40
1.0
 40
1.0
 40
1.0
 10
252.3159211919841
 20
159.666134189073
 30
0.0
 10
252.2665251494728
 20
159.6007267352813
 30
0.0
 10
252.2348608261722
 20
159.4828569667632
 30
0.0
 10
252.1952521655411
 20
159.20314748074
 30
0.0
 10
252.1882251240913
 20
159.039917566162
 30
0.0
 10
252.1970838290114
 20
158.8636738912926
 30
0.0
  0
LINE
  5
16E
330
1F
100
AcDbEntity
  8
0
  6
HIDDEN
 62
     7
370
     0
100
AcDbLine
 10
252.3159224463
 20
159.6661344308
 30
0.0
 11
252.5568593217
 21
159.9851682919
 31
0.0
  0
SPLINE
  5
16F
330
1F
100
AcDbEntity
  8
0
  6
HIDDEN
 62
     7
370
     0
100
AcDbSpline
210
0.0
220
0.0
230
1.0
 70
     8
 71
     3
 72
    25
 73
    21
 74
     0
 42
0.00000001
 43
0.00000001
 12
1.0
 22
0.0
 32
0.0
 13
1.0
 23
0.0
 33
0.0
 40
0.0
 40
0.0
 40
0.0
 40
0.0
 40
0.0251360526117005
 40
0.0502550180586255
 40
0.0753641177197576
 40
0.1004705814871767
 40
0.1255816415297161
 40
0.1883288995932323
 40
0.2510679709500772
 40
0.3137540139126663
 40
0.3764235232255411
 40
0.5015802348910736
 40
0.6265319828112748
 40
0.6889158963926489
 40
0.7512790951062589
 40
0.8135379550389386
 40
0.8757712983888856
 40
0.9171943544147898
 40
0.9585923866318723
 40
1.0
 40
1.0
 40
1.0
 40
1.0
 10
259.0651810133866
 20
154.3412478850921
 30
0.0
 10
259.0852378320034
 20
154.4740301201571
 30
0.0
 10
259.12533783487
 20
154.739504326634
 30
0.0
 10
259.1857774793957
 20
155.1328801606367
 30
0.0
 10
259.2463944019222
 20
155.5224838072551
 30
0.0
 10
259.3072119801549
 20
155.9079859318881
 30
0.0
 10
259.398690947694
 20
156.4799763296249
 30
0.0
 10
259.521242444643
 20
157.2278562541286
 30
0.0
 10
259.6751314986816
 20
158.1342317266661
 30
0.0
 10
259.829449978179
 20
159.0106072707734
 30
0.0
 10
260.0352444276019
 20
160.1359923041764
 30
0.0
 10
260.2921077652267
 20
161.4596175869081
 30
0.0
 10
260.5466324410071
 20
162.6626711729748
 30
0.0
 10
260.7475536966488
 20
163.546642269857
 30
0.0
 10
260.8965669656403
 20
164.1689485966171
 30
0.0
 10
261.0437072344233
 20
164.7498061791536
 30
0.0
 10
261.1725701912944
 20
165.2283023874201
 30
0.0
 10
261.2837076482686
 20
165.6182583722594
 30
0.0
 10
261.3778765407666
 20
165.9341587305246
 30
0.0
 10
261.4396337127444
 20
166.1280039424412
 30
0.0
 10
261.4705158715863
 20
166.2249377629745
 30
0.0
  0
LWPOLYLINE
  5
170
330
1F
100
AcDbEntity
  8
0
  6
HIDDEN
 62
     7
370
     0
100
AcDbPolyline
 90
       11
 70
   128
 43
0.0
 10
250.4795778466
 20
155.5149410057
 10
250.7739800883
 20
156.0215544093
 10
251.2682665063
 20
156.3923483852
 10
251.9140530301
 20
156.5910255674
 10
252.6481140328
 20
156.5981399405
 10
253.3986110164
 20
156.412993944
 10
254.0920663548
 20
156.0537111151
 10
254.660605259
 20
155.555460057
 10
255.048586793
 20
154.9670141327
 10
255.2179980946
 20
154.345973781
 10
255.1522988749
 20
153.753131083
  0
ELLIPSE
  5
171
330
1F
100
AcDbEntity
  8
0
  6
HIDDEN
 62
     7
370
     0
100
AcDbEllipse
 10
253.7660524705
 20
156.781840504
 30
0.0
 11
0.9382876123696348
 21
2.751666891553299
 31
0.0
210
0.0
220
0.0
230
1.0
 40
0.8587453104
 41
5.185286000754195
 42
7.326232755440876
  0
LINE
  5
172
330
1F
100
AcDbEntity
  8
0
  6
HIDDEN
 62
     7
370
     0
100
AcDbLine
 10
250.4795778466
 20
155.5149410057
 30
0.0
 11
249.4328457786
 21
152.319159745
 31
0.0
  0
CIRCLE
  5
173
330
1F
100
AcDbEntity
  8
0
  6
HIDDEN
 62
     7
370
     0
100
AcDbCircle
 10
219.4059704019
 20
141.9468190658
 30
0.0
 40
2.5
  0
CIRCLE
  5
174
330
1F
100
AcDbEntity
  8
0
  6
HIDDEN
 62
     7
370
     0
100
AcDbCircle
 10
219.4059704019
 20
141.9468190658
 30
0.0
 40
3.000000000000028
  0
LINE
  5
175
330
1F
100
AcDbEntity
  8
0
  6
HIDDEN
 62
     7
370
     0
100
AcDbLine
 10
45.4059716237
 20
156.6178588334
 30
0.0
 11
45.4059716237
 21
144.8488064713
 31
0.0
  0
LINE
  5
176
330
1F
100
AcDbEntity
  8
0
  6
HIDDEN
 62
     7
370
     0
100
AcDbLine
 10
45.4059716237
 20
139.0448316603
 30
0.0
 11
45.4059716237
 21
127.2757792982
 31
0.0
  0
LINE
  5
177
330
1F
100
AcDbEntity
  8
0
  6
HIDDEN
 62
     7
370
     0
100
AcDbLine
 10
46.9059709383
 20
137.9816079649
 30
0.0
 11
46.9059709383
 21
126.8427664551
 31
0.0
  0
LINE
  5
178
330
1F
100
AcDbEntity
  8
0
  6
HIDDEN
 62
     7
370
     0
100
AcDbLine
 10
46.9059709383
 20
157.0508716765
 30
0.0
 11
46.9059709383
 21
145.9120301667
 31
0.0
  0
LINE
  5
179
330
1F
100
AcDbEntity
  8
0
  6
HIDDEN
 62
     7
370
     0
100
AcDbLine
 10
83.2059704069
 20
156.9845261189
 30
0.0
 11
83.2059704069
 21
126.9091120127
 31
0.0
  0
LINE
  5
17A
330
1F
100
AcDbEntity
  8
0
  6
HIDDEN
 62
     7
370
     0
100
AcDbLine
 10
81.2059704138
 20
157.4817396837
 30
0.0
 11
81.2059704138
 21
126.4118984479
 31
0.0
  0
SPLINE
  5
17B
330
1F
100
AcDbEntity
  8
0
  6
HIDDEN
 62
     7
370
     0
100
AcDbSpline
210
0.0
220
0.0
230
1.0
 70
     8
 71
     3
 72
    24
 73
    20
 74
     0
 42
0.00000001
 43
0.00000001
 12
1.0
 22
0.0
 32
0.0
 13
1.0
 23
0.0
 33
0.0
 40
0.0
 40
0.0
 40
0.0
 40
0.0
 40
0.1249999999999999
 40
0.1249999999999999
 40
0.2499999999999998
 40
0.2499999999999998
 40
0.3749999999999998
 40
0.3749999999999998
 40
0.4374999999999998
 40
0.4374999999999998
 40
0.4999999999999998
 40
0.4999999999999998
 40
0.6249999999999998
 40
0.6249999999999998
 40
0.7499999999999998
 40
0.7499999999999998
 40
0.875
 40
0.875
 40
1.0
 40
1.0
 40
1.0
 40
1.0
 10
51.85597040185043
 20
137.8608580127102
 30
0.0
 10
52.09377403412553
 20
138.1598651150404
 30
0.0
 10
52.3238596953368
 20
138.4642029663591
 30
0.0
 10
52.75861309394662
 20
139.0899365037551
 30
0.0
 10
52.96354588623278
 20
139.4111612310826
 30
0.0
 10
53.3286478367315
 20
140.0830870018153
 30
0.0
 10
53.49044822252301
 20
140.4384022336942
 30
0.0
 10
53.66230842710272
 20
140.9886334550467
 30
0.0
 10
53.70789361876287
 20
141.1750372400271
 30
0.0
 10
53.77036835833772
 20
141.5551717421234
 30
0.0
 10
53.78703950408617
 20
141.7508415344093
 30
0.0
 10
53.78756054726266
 20
142.3293219130837
 30
0.0
 10
53.72311824637598
 20
142.7072337520525
 30
0.0
 10
53.49326915300264
 20
143.4492017771509
 30
0.0
 10
53.33474847533953
 20
143.7979172373119
 30
0.0
 10
52.97051414543937
 20
144.471009635045
 30
0.0
 10
52.76377790537579
 20
144.7959621222867
 30
0.0
 10
52.32583995963542
 20
145.4268859327484
 30
0.0
 10
52.09456723235586
 20
145.7327756730891
 30
0.0
 10
51.85597040185054
 20
146.0327801189086
 30
0.0
  0
LINE
  5
17C
330
1F
100
AcDbEntity
  8
0
  6
HIDDEN
 62
     7
370
     0
100
AcDbLine
 10
51.8559690488
 20
137.8608578022
 30
0.0
 11
51.8559690488
 21
146.0327803294
 31
0.0
  0
SPLINE
  5
17D
330
1F
100
AcDbEntity
  8
0
  6
HIDDEN
 62
     7
370
     0
100
AcDbSpline
210
0.0
220
0.0
230
1.0
 70
     8
 71
     3
 72
     8
 73
     4
 74
     0
 42
0.00000001
 43
0.00000001
 12
1.0
 22
0.0
 32
0.0
 13
1.0
 23
0.0
 33
0.0
 40
0.0000249638557296
 40
0.0000249638557296
 40
0.0000249638557296
 40
0.0000249638557296
 40
0.0049776420541172
 40
0.0049776420541172
 40
0.0049776420541172
 40
0.0049776420541172
 10
46.90597040185043
 20
137.9816081689729
 30
0.0
 10
48.55594663635998
 20
137.9403289312047
 30
0.0
 10
50.205947956105
 20
137.9001072499653
 30
0.0
 10
51.85597040185043
 20
137.8608580127102
 30
0.0
  0
SPLINE
  5
17E
330
1F
100
AcDbEntity
  8
0
  6
HIDDEN
 62
     7
370
     0
100
AcDbSpline
210
0.0
220
0.0
230
1.0
 70
     8
 71
     3
 72
     8
 73
     4
 74
     0
 42
0.00000001
 43
0.00000001
 12
1.0
 22
0.0
 32
0.0
 13
1.0
 23
0.0
 33
0.0
 40
0.0000249631533153
 40
0.0000249631533153
 40
0.0000249631533153
 40
0.0000249631533153
 40
0.0049776413517029
 40
0.0049776413517029
 40
0.0049776413517029
 40
0.0049776413517029
 10
51.85597040185044
 20
146.0327801189087
 30
0.0
 10
50.205947956105
 20
145.9935308816537
 30
0.0
 10
48.55594663635993
 20
145.9533092004142
 30
0.0
 10
46.90597040185035
 20
145.912029962646
 30
0.0
  0
SPLINE
  5
17F
330
1F
100
AcDbEntity
  8
0
  6
HIDDEN
 62
     7
370
     0
100
AcDbSpline
210
0.0
220
0.0
230
1.0
 70
     8
 71
     3
 72
     8
 73
     4
 74
     0
 42
0.00000001
 43
0.00000001
 12
1.0
 22
0.0
 32
0.0
 13
1.0
 23
0.0
 33
0.0
 40
0.0
 40
0.0
 40
0.0
 40
0.0
 40
1.0
 40
1.0
 40
1.0
 40
1.0
 10
45.40597040184824
 20
139.0448317328291
 30
0.0
 10
45.87273101322602
 20
138.6294684872061
 30
0.0
 10
46.37847856000609
 20
138.2848780579015
 30
0.0
 10
46.90597040185045
 20
137.9816081689729
 30
0.0
  0
SPLINE
  5
180
330
1F
100
AcDbEntity
  8
0
  6
HIDDEN
 62
     7
370
     0
100
AcDbSpline
210
0.0
220
0.0
230
1.0
 70
     8
 71
     3
 72
     8
 73
     4
 74
     0
 42
0.00000001
 43
0.00000001
 12
1.0
 22
0.0
 32
0.0
 13
1.0
 23
0.0
 33
0.0
 40
0.0
 40
0.0
 40
0.0
 40
0.0
 40
1.0
 40
1.0
 40
1.0
 40
1.0
 10
46.90597040185042
 20
145.912029962646
 30
0.0
 10
46.3784785600069
 20
145.6087600737179
 30
0.0
 10
45.87273101322761
 20
145.2641696444139
 30
0.0
 10
45.40597040185045
 20
144.8488063987918
 30
0.0
  0
LINE
  5
181
330
1F
100
AcDbEntity
  8
0
  6
HIDDEN
 62
     7
370
     0
100
AcDbLine
 10
45.4059716237
 20
139.0448316603
 30
0.0
 11
45.4059716237
 21
144.8488064713
 31
0.0
  0
SPLINE
  5
182
330
1F
100
AcDbEntity
  8
0
  6
HIDDEN
 62
     7
370
     0
100
AcDbSpline
210
0.0
220
0.0
230
1.0
 70
     8
 71
     3
 72
    72
 73
    68
 74
     0
 42
0.00000001
 43
0.00000001
 12
1.0
 22
0.0
 32
0.0
 13
1.0
 23
0.0
 33
0.0
 40
-0.03125
 40
-0.03125
 40
0.0
 40
0.0
 40
0.03125
 40
0.03125
 40
0.0624999999999999
 40
0.0624999999999999
 40
0.0937499999999999
 40
0.0937499999999999
 40
0.1249999999999998
 40
0.1249999999999998
 40
0.1562499999999998
 40
0.1562499999999998
 40
0.1874999999999998
 40
0.1874999999999998
 40
0.2187499999999997
 40
0.2187499999999997
 40
0.2499999999999997
 40
0.2499999999999997
 40
0.2812499999999996
 40
0.2812499999999996
 40
0.3124999999999996
 40
0.3124999999999996
 40
0.3437499999999996
 40
0.3437499999999996
 40
0.3749999999999996
 40
0.3749999999999996
 40
0.3906249999999996
 40
0.3906249999999996
 40
0.4062499999999996
 40
0.4062499999999996
 40
0.4374999999999996
 40
0.4374999999999996
 40
0.4687499999999996
 40
0.4687499999999996
 40
0.4999999999999996
 40
0.4999999999999996
 40
0.5312499999999996
 40
0.5312499999999996
 40
0.5624999999999994
 40
0.5624999999999994
 40
0.5937499999999994
 40
0.5937499999999994
 40
0.6249999999999994
 40
0.6249999999999994
 40
0.6562499999999996
 40
0.6562499999999996
 40
0.6874999999999997
 40
0.6874999999999997
 40
0.7187499999999997
 40
0.7187499999999997
 40
0.7499999999999998
 40
0.7499999999999998
 40
0.7812499999999999
 40
0.7812499999999999
 40
0.8124999999999999
 40
0.8124999999999999
 40
0.84375
 40
0.84375
 40
0.875
 40
0.875
 40
0.9062500000000001
 40
0.9062500000000001
 40
0.9375000000000001
 40
0.9375000000000001
 40
0.96875
 40
0.96875
 40
1.0
 40
1.0
 40
1.03125
 40
1.03125
 10
64.52991672067563
 20
144.3876527156243
 30
0.0
 10
64.9043469405495
 20
144.7980085161095
 30
0.0
 10
65.10919954181514
 20
144.9816575987679
 30
0.0
 10
65.55206773866213
 20
145.3086125022633
 30
0.0
 10
65.79202315598044
 20
145.4523907104431
 30
0.0
 10
66.28763413875497
 20
145.689908065889
 30
0.0
 10
66.54490042990942
 20
145.7852276307867
 30
0.0
 10
67.07825419774646
 20
145.9293131634212
 30
0.0
 10
67.35253433764477
 20
145.9770491703908
 30
0.0
 10
67.89896287222432
 20
146.0226313109246
 30
0.0
 10
68.17353919069208
 20
146.0211975508523
 30
0.0
 10
68.7255063649628
 20
145.9682842427615
 30
0.0
 10
68.99612332753449
 20
145.9173145165573
 30
0.0
 10
69.52240849861369
 20
145.7687078896138
 30
0.0
 10
69.78004006202129
 20
145.6704225188566
 30
0.0
 10
70.27596622669479
 20
145.4261691596709
 30
0.0
 10
70.50894990448644
 20
145.2830890286487
 30
0.0
 10
70.94528317981143
 20
144.9552304781799
 30
0.0
 10
71.15056443366973
 20
144.7682368404797
 30
0.0
 10
71.5185987315299
 20
144.3588062206567
 30
0.0
 10
71.6801137215151
 20
144.1387007796722
 30
0.0
 10
71.95727140466222
 20
143.6669506982342
 30
0.0
 10
72.07366558409592
 20
143.4119341717929
 30
0.0
 10
72.24693962074255
 20
142.8906963483959
 30
0.0
 10
72.30538617520833
 20
142.623212230615
 30
0.0
 10
72.3492509006842
 20
142.2112965712826
 30
0.0
 10
72.35643111731356
 20
142.0715892682071
 30
0.0
 10
72.35546309001812
 20
141.7954662127446
 30
0.0
 10
72.34746030060447
 20
141.6582896464139
 30
0.0
 10
72.30138756869206
 20
141.2493562051506
 30
0.0
 10
72.24045273624003
 20
140.9774299561464
 30
0.0
 10
72.0623325798315
 20
140.4542494396913
 30
0.0
 10
71.94676466848914
 20
140.2055374393279
 30
0.0
 10
71.66491788454985
 20
139.7326529143359
 30
0.0
 10
71.49804793913518
 20
139.5090436971038
 30
0.0
 10
71.12872238433638
 20
139.1043863089162
 30
0.0
 10
70.92393722803885
 20
138.9199727207466
 30
0.0
 10
70.47928428052268
 20
138.5909466858523
 30
0.0
 10
70.24443515101191
 20
138.449778609864
 30
0.0
 10
69.75102538853493
 20
138.2113690810836
 30
0.0
 10
69.48973843483027
 20
138.1135865246787
 30
0.0
 10
68.95900015431761
 20
137.9682584964885
 30
0.0
 10
68.68936045342036
 20
137.9199691062936
 30
0.0
 10
68.14160911367514
 20
137.871553882507
 30
0.0
 10
67.86170507181652
 20
137.8720120681429
 30
0.0
 10
67.31462716398153
 20
137.9221639237451
 30
0.0
 10
67.04502205929408
 20
137.9713374907771
 30
0.0
 10
66.513867302638
 20
138.1190120140841
 30
0.0
 10
66.25257248619447
 20
138.2181671784497
 30
0.0
 10
65.76025850801908
 20
138.4591799489264
 30
0.0
 10
65.52630163244044
 20
138.6016680735512
 30
0.0
 10
65.08413301190996
 20
138.9331555025362
 30
0.0
 10
64.87893948079831
 20
139.1205891305245
 30
0.0
 10
64.51324526444034
 20
139.5274928495749
 30
0.0
 10
64.350474642052
 20
139.7486719242439
 30
0.0
 10
64.06952221128647
 20
140.2284192534592
 30
0.0
 10
63.95631835901294
 20
140.4784312202694
 30
0.0
 10
63.78370963487401
 20
140.9985064302899
 30
0.0
 10
63.72410335219764
 20
141.2722378949196
 30
0.0
 10
63.66621158212779
 20
141.8208555448181
 30
0.0
 10
63.66700112098775
 20
142.0951954087097
 30
0.0
 10
63.72819159660416
 20
142.6439373598486
 30
0.0
 10
63.78932032033818
 20
142.9170026737058
 30
0.0
 10
63.96540000596799
 20
143.4371679224742
 30
0.0
 10
64.08173060095794
 20
143.6894870560331
 30
0.0
 10
64.36493183069868
 20
144.1658913974401
 30
0.0
 10
64.52991672067563
 20
144.3876527156243
 30
0.0
 10
64.9043469405495
 20
144.7980085161095
 30
0.0
  0
CIRCLE
  5
183
330
1F
100
AcDbEntity
  8
0
  6
HIDDEN
 62
     7
370
     0
100
AcDbCircle
 10
67.9059704019
 20
141.9468190658
 30
0.0
 40
4.049999999999983
  0
SPLINE
  5
184
330
1F
100
AcDbEntity
  8
0
  6
HIDDEN
 62
     7
370
     0
100
AcDbSpline
210
0.0
220
0.0
230
1.0
 70
     8
 71
     3
 72
     9
 73
     5
 74
     0
 42
0.00000001
 43
0.00000001
 12
1.0
 22
0.0
 32
0.0
 13
1.0
 23
0.0
 33
0.0
 40
0.0
 40
0.0
 40
0.0
 40
0.0
 40
0.5000000629276316
 40
1.0
 40
1.0
 40
1.0
 40
1.0
 10
258.6886653070741
 20
155.2554443197193
 30
0.0
 10
258.752902290832
 20
155.1036895683957
 30
0.0
 10
258.8813762421788
 20
154.8001801039469
 30
0.0
 10
259.0039117070323
 20
154.4942248604291
 30
0.0
 10
259.0651794317482
 20
154.3412472579232
 30
0.0
  0
LINE
  5
185
330
1F
100
AcDbEntity
  8
0
  6
HIDDEN
 62
     7
370
     0
100
AcDbLine
 10
259.0651798917
 20
154.3412482503
 30
0.0
 11
257.982521124
 21
143.700043475
 31
0.0
  0
LINE
  5
186
330
1F
100
AcDbEntity
  8
0
  6
HIDDEN
 62
     7
370
     0
100
AcDbLine
 10
257.982521124
 20
143.700043475
 30
0.0
 11
256.7345041705
 21
141.9468190658
 31
0.0
  0
CIRCLE
  5
187
330
1F
100
AcDbEntity
  8
0
  6
HIDDEN
 62
     7
370
     0
100
AcDbCircle
 10
95.4059704019
 20
141.9468190658
 30
0.0
 40
2.0
  0
LINE
  5
188
330
1F
100
AcDbEntity
  8
0
  6
HIDDEN
 62
     7
370
     0
100
AcDbLine
 10
83.4059704019
 20
117.6968183506
 30
0.0
 11
83.4988636223
 21
117.7897121894
 31
0.0
  0
LINE
  5
189
330
1F
100
AcDbEntity
  8
0
  6
HIDDEN
 62
     7
370
     0
100
AcDbLine
 10
83.4988636223
 20
166.1039259422
 30
0.0
 11
83.4059704019
 21
166.1968197811
 31
0.0
  0
ARC
  5
18A
330
1F
100
AcDbEntity
  8
0
  6
HIDDEN
 62
     7
370
     0
100
AcDbCircle
 10
82.7917568395
 20
118.4968190658
 30
0.0
 40
1.0
100
AcDbArc
 50
315.0
 51
0.0
  0
ARC
  5
18B
330
1F
100
AcDbEntity
  8
0
  6
HIDDEN
 62
     7
370
     0
100
AcDbCircle
 10
82.7917568395
 20
118.4968190658
 30
0.0
 40
1.0
100
AcDbArc
 50
0.0
 51
52.1052014664
  0
ARC
  5
18C
330
1F
100
AcDbEntity
  8
0
  6
HIDDEN
 62
     7
370
     0
100
AcDbCircle
 10
82.7917568395
 20
165.3968190658
 30
0.0
 40
0.9999999999999917
100
AcDbArc
 50
351.8087250651
 51
45.0
  0
ARC
  5
18D
330
1F
100
AcDbEntity
  8
0
  6
HIDDEN
 62
     7
370
     0
100
AcDbCircle
 10
82.7917568395
 20
165.3968190658
 30
0.0
 40
1.000000000000004
100
AcDbArc
 50
307.8947985336
 51
351.8087250651
  0
LINE
  5
18E
330
1F
100
AcDbEntity
  8
0
  6
HIDDEN
 62
     7
370
     0
100
AcDbLine
 10
83.7917568377
 20
118.4968188542
 30
0.0
 11
83.7917568377
 21
165.3968192774
 31
0.0
  0
LINE
  5
18F
330
1F
100
AcDbEntity
  8
0
  6
HIDDEN
 62
     7
370
     0
100
AcDbLine
 10
83.7917568377
 20
118.4968188542
 30
0.0
 11
83.7917568377
 21
165.3968192774
 31
0.0
  0
LINE
  5
190
330
1F
100
AcDbEntity
  8
0
  6
HIDDEN
 62
     7
370
     0
100
AcDbLine
 10
216.2872541619
 20
142.2386429992
 30
0.0
 11
216.8542433453
 21
140.5265917207
 31
0.0
  0
LINE
  5
191
330
1F
100
AcDbEntity
  8
0
  6
HIDDEN
 62
     7
370
     0
100
AcDbLine
 10
216.8542433453
 20
140.5265917207
 30
0.0
 11
218.1525368167
 21
139.2747698489
 31
0.0
  0
LINE
  5
192
330
1F
100
AcDbEntity
  8
0
  6
HIDDEN
 62
     7
370
     0
100
AcDbLine
 10
228.7328679038
 20
150.9561970967
 30
0.0
 11
216.2680167628
 21
143.1115391103
 31
0.0
  0
LINE
  5
193
330
1F
100
AcDbEntity
  8
0
  6
HIDDEN
 62
     7
370
     0
100
AcDbLine
 10
221.401273079
 20
140.4343359542
 30
0.0
 11
228.7364739848
 21
145.0506941552
 31
0.0
  0
LINE
  5
194
330
1F
100
AcDbEntity
  8
0
  6
HIDDEN
 62
     7
370
     0
100
AcDbLine
 10
218.931211896
 20
138.8798269115
 30
0.0
 11
219.9144203139
 21
139.4985978629
 31
0.0
  0
LINE
  5
195
330
1F
100
AcDbEntity
  8
0
  6
HIDDEN
 62
     7
370
     0
100
AcDbLine
 10
45.4059716237
 20
125.7503893363
 30
0.0
 11
46.9361979438
 21
126.6338680077
 31
0.0
  0
LINE
  5
196
330
1F
100
AcDbEntity
  8
0
  6
HIDDEN
 62
     7
370
     0
100
AcDbLine
 10
46.9361979438
 20
157.259770124
 30
0.0
 11
45.4059716237
 21
158.1432487953
 31
0.0
  0
ARC
  5
197
330
1F
100
AcDbEntity
  8
0
  6
HIDDEN
 62
     7
370
     0
100
AcDbCircle
 10
56.4077717167
 20
127.9468190658
 30
0.0
 40
2.000000000000014
100
AcDbArc
 50
270.0
 51
315.0
  0
ARC
  5
198
330
1F
100
AcDbEntity
  8
0
  6
HIDDEN
 62
     7
370
     0
100
AcDbCircle
 10
56.4077717167
 20
155.9468190658
 30
0.0
 40
2.000000000000006
100
AcDbArc
 50
45.0
 51
90.0
  0
LINE
  5
199
330
1F
100
AcDbEntity
  8
0
  6
HIDDEN
 62
     7
370
     0
100
AcDbLine
 10
55.4059695376
 20
125.9468183059
 30
0.0
 11
56.4077708794
 21
125.9468183059
 31
0.0
  0
LINE
  5
19A
330
1F
100
AcDbEntity
  8
0
  6
HIDDEN
 62
     7
370
     0
100
AcDbLine
 10
56.4077708794
 20
157.9468198258
 30
0.0
 11
55.4059695376
 21
157.9468198258
 31
0.0
  0
ARC
  5
19B
330
1F
100
AcDbEntity
  8
0
  6
HIDDEN
 62
     7
370
     0
100
AcDbCircle
 10
55.4059704019
 20
127.9468190658
 30
0.0
 40
2.000000000000032
100
AcDbArc
 50
189.9742217944
 51
270.0
  0
ARC
  5
19C
330
1F
100
AcDbEntity
  8
0
  6
HIDDEN
 62
     7
370
     0
100
AcDbCircle
 10
55.4059704019
 20
155.9468190658
 30
0.0
 40
2.000000000000032
100
AcDbArc
 50
90.0
 51
170.0257782056
  0
LINE
  5
19D
330
1F
100
AcDbEntity
  8
0
  6
HIDDEN
 62
     7
370
     0
100
AcDbLine
 10
57.8219860716
 20
126.5326053041
 30
0.0
 11
59.2361994011
 21
127.9468186337
 31
0.0
  0
LINE
  5
19E
330
1F
100
AcDbEntity
  8
0
  6
HIDDEN
 62
     7
370
     0
100
AcDbLine
 10
59.2361994011
 20
155.9468194979
 30
0.0
 11
57.8219860716
 21
157.3610328275
 31
0.0
  0
LINE
  5
19F
330
1F
100
AcDbEntity
  8
0
  6
HIDDEN
 62
     7
370
     0
100
AcDbLine
 10
46.9361979438
 20
126.6338680077
 30
0.0
 11
51.8361989332
 21
127.9468186337
 31
0.0
  0
LINE
  5
1A0
330
1F
100
AcDbEntity
  8
0
  6
HIDDEN
 62
     7
370
     0
100
AcDbLine
 10
51.8361989332
 20
155.9468194979
 30
0.0
 11
46.9361979438
 21
157.259770124
 31
0.0
  0
LINE
  5
1A1
330
1F
100
AcDbEntity
  8
0
  6
HIDDEN
 62
     7
370
     0
100
AcDbLine
 10
53.4361980779
 20
156.2932295862
 30
0.0
 11
52.8361990971
 21
155.9468194979
 31
0.0
  0
LINE
  5
1A2
330
1F
100
AcDbEntity
  8
0
  6
HIDDEN
 62
     7
370
     0
100
AcDbLine
 10
52.8361990971
 20
127.9468186337
 30
0.0
 11
53.4361980779
 21
127.6004085454
 31
0.0
  0
ARC
  5
1A3
330
1F
100
AcDbEntity
  8
0
  6
HIDDEN
 62
     7
370
     0
100
AcDbCircle
 10
71.9059704019
 20
128.4468190658
 30
0.0
 40
0.5
100
AcDbArc
 50
270.0
 51
0.0
  0
ARC
  5
1A4
330
1F
100
AcDbEntity
  8
0
  6
HIDDEN
 62
     7
370
     0
100
AcDbCircle
 10
71.9059704019
 20
155.4468190658
 30
0.0
 40
0.5
100
AcDbArc
 50
360.0
 51
90.0
  0
LINE
  5
1A5
330
1F
100
AcDbEntity
  8
0
  6
HIDDEN
 62
     7
370
     0
100
AcDbLine
 10
59.2361994011
 20
127.9468186337
 30
0.0
 11
71.9059703795
 21
127.9468186337
 31
0.0
  0
LINE
  5
1A6
330
1F
100
AcDbEntity
  8
0
  6
HIDDEN
 62
     7
370
     0
100
AcDbLine
 10
71.9059703795
 20
155.9468194979
 30
0.0
 11
59.2361994011
 21
155.9468194979
 31
0.0
  0
LINE
  5
1A7
330
1F
100
AcDbEntity
  8
0
  6
HIDDEN
 62
     7
370
     0
100
AcDbLine
 10
51.8361989332
 20
127.9468186337
 30
0.0
 11
52.8361990971
 21
127.9468186337
 31
0.0
  0
LINE
  5
1A8
330
1F
100
AcDbEntity
  8
0
  6
HIDDEN
 62
     7
370
     0
100
AcDbLine
 10
52.8361990971
 20
155.9468194979
 30
0.0
 11
51.8361989332
 21
155.9468194979
 31
0.0
  0
LINE
  5
1A9
330
1F
100
AcDbEntity
  8
0
  6
HIDDEN
 62
     7
370
     0
100
AcDbLine
 10
72.4059704615
 20
131.6968187827
 30
0.0
 11
73.6559702007
 21
132.9468194532
 31
0.0
  0
LINE
  5
1AA
330
1F
100
AcDbEntity
  8
0
  6
HIDDEN
 62
     7
370
     0
100
AcDbLine
 10
73.6559702007
 20
150.9468186784
 30
0.0
 11
72.4059704615
 21
152.1968193489
 31
0.0
  0
LINE
  5
1AB
330
1F
100
AcDbEntity
  8
0
  6
HIDDEN
 62
     7
370
     0
100
AcDbLine
 10
99.4059711618
 20
132.9468194532
 30
0.0
 11
102.2600576205
 21
137.6968188348
 31
0.0
  0
LINE
  5
1AC
330
1F
100
AcDbEntity
  8
0
  6
HIDDEN
 62
     7
370
     0
100
AcDbLine
 10
102.2600576205
 20
146.1968192968
 30
0.0
 11
99.4059711618
 21
150.9468186784
 31
0.0
  0
LINE
  5
1AD
330
1F
100
AcDbEntity
  8
0
  6
HIDDEN
 62
     7
370
     0
100
AcDbLine
 10
73.6559702007
 20
132.9468194532
 30
0.0
 11
99.4059711618
 21
132.9468194532
 31
0.0
  0
LINE
  5
1AE
330
1F
100
AcDbEntity
  8
0
  6
HIDDEN
 62
     7
370
     0
100
AcDbLine
 10
99.4059711618
 20
150.9468186784
 30
0.0
 11
73.6559702007
 21
150.9468186784
 31
0.0
  0
LINE
  5
1AF
330
1F
100
AcDbEntity
  8
0
  6
HIDDEN
 62
     7
370
     0
100
AcDbLine
 10
223.4059709979
 20
137.6968188348
 30
0.0
 11
225.9596276952
 21
141.9468190658
 31
0.0
  0
LINE
  5
1B0
330
1F
100
AcDbEntity
  8
0
  6
HIDDEN
 62
     7
370
     0
100
AcDbLine
 10
225.9596276952
 20
141.9468190658
 30
0.0
 11
223.4059709979
 21
146.1968192968
 31
0.0
  0
LINE
  5
1B1
330
1F
100
AcDbEntity
  8
0
  6
HIDDEN
 62
     7
370
     0
100
AcDbLine
 10
102.2600576205
 20
137.6968188348
 30
0.0
 11
223.4059709979
 21
137.6968188348
 31
0.0
  0
LINE
  5
1B2
330
1F
100
AcDbEntity
  8
0
  6
HIDDEN
 62
     7
370
     0
100
AcDbLine
 10
223.4059709979
 20
146.1968192968
 30
0.0
 11
102.2600576205
 21
146.1968192968
 31
0.0
  0
LINE
  5
1B3
330
1F
100
AcDbEntity
  8
0
  6
HIDDEN
 62
     7
370
     0
100
AcDbLine
 10
254.3839801026
 20
147.4893036436
 30
0.0
 11
254.8103917313
 21
148.0539356495
 31
0.0
  0
LINE
  5
1B4
330
1F
100
AcDbEntity
  8
0
  6
HIDDEN
 62
     7
370
     0
100
AcDbLine
 10
249.2243785334
 20
152.2725209731
 30
0.0
 11
248.7979669047
 21
151.7078889671
 31
0.0
  0
LINE
  5
1B5
330
1F
100
AcDbEntity
  8
0
  6
HIDDEN
 62
     7
370
     0
100
AcDbLine
 10
246.9655711127
 20
159.0099115062
 30
0.0
 11
246.4742798282
 21
158.3593826878
 31
0.0
  0
LINE
  5
1B6
330
1F
100
AcDbEntity
  8
0
  6
HIDDEN
 62
     7
370
     0
100
AcDbLine
 10
254.4421393348
 20
151.0222157601
 30
0.0
 11
256.3222188426
 21
155.2722541752
 31
0.0
  0
LINE
  5
1B7
330
1F
100
AcDbEntity
  8
0
  6
HIDDEN
 62
     7
370
     0
100
AcDbLine
 10
252.870916195
 20
144.3242658067
 30
0.0
 11
254.8986066056
 21
147.0092292081
 31
0.0
  0
LINE
  5
1B8
330
1F
100
AcDbEntity
  8
0
  6
HIDDEN
 62
     7
370
     0
100
AcDbLine
 10
248.1953937484
 20
152.0715313169
 30
0.0
 11
246.1677033378
 21
149.3865683812
 31
0.0
  0
LINE
  5
1B9
330
1F
100
AcDbEntity
  8
0
  6
HIDDEN
 62
     7
370
     0
100
AcDbLine
 10
246.6521102858
 20
158.4556609529
 30
0.0
 11
246.3448036385
 21
158.0487325925
 31
0.0
  0
LINE
  5
1BA
330
1F
100
AcDbEntity
  8
0
  6
HIDDEN
 62
     7
370
     0
100
AcDbLine
 10
253.0190635396
 20
162.8815889496
 30
0.0
 11
252.4859595967
 21
162.1756948668
 31
0.0
  0
LINE
  5
1BB
330
1F
100
AcDbEntity
  8
0
  6
HIDDEN
 62
     7
370
     0
100
AcDbLine
 10
257.5931686831
 20
158.3187025177
 30
0.0
 11
258.126272626
 21
159.0245966005
 31
0.0
  0
LINE
  5
1BC
330
1F
100
AcDbEntity
  8
0
  6
HIDDEN
 62
     7
370
     0
100
AcDbLine
 10
252.2697735501
 20
159.5790892977
 30
0.0
 11
250.5296457482
 21
155.6454127792
 31
0.0
  0
LINE
  5
1BD
330
1F
100
AcDbEntity
  8
VERMASSUNG
  6
CENTERX2
100
AcDbLine
 10
41.8590594104
 20
141.9468190658
 30
0.0
 11
263.4059704019
 21
141.9468190658
 31
0.0
  0
LINE
  5
1BE
330
1F
100
AcDbEntity
  8
VERMASSUNG
  6
CENTERX2
100
AcDbLine
 10
263.4059704019
 20
141.9468190658
 30
0.0
 11
263.4059704019
 21
168.9468190658
 31
0.0
  0
LINE
  5
1BF
330
1F
100
AcDbEntity
  8
VERMASSUNG
  6
CENTERX2
100
AcDbLine
 10
263.4059704019
 20
168.9468190658
 30
0.0
 11
279.3942371774
 21
168.9468190658
 31
0.0
  0
DIMENSION
  5
1C0
330
1F
100
AcDbEntity
  8
VERMASSUNG
100
AcDbDimension
  2
_D
 10
263.4059704019
 20
183.4468190658
 30
0.0
 11
173.4059704019
 21
183.4468190658
 31
0.0
 70
   160
  1
<>
 71
     2
 42
-1.0
  3
SLDDIMSTYLE0
100
AcDbAlignedDimension
 13
83.4059704019
 23
172.9468190658
 33
0.0
 14
263.4059704019
 24
168.9468190658
 34
0.0
100
AcDbRotatedDimension
  0
DIMENSION
  5
1CB
330
1F
100
AcDbEntity
  8
VERMASSUNG
100
AcDbDimension
  2
_D_1
 10
45.4059704019
 20
191.9031476264
 30
0.0
 11
154.4059704019
 21
191.9031476264
 31
0.0
 70
   160
  1
<>
 71
     2
 42
-1.0
  3
SLDDIMSTYLE0
100
AcDbAlignedDimension
 13
263.4059704019
 23
168.9468190658
 33
0.0
 14
45.4059704019
 24
162.2391570583
 34
0.0
100
AcDbRotatedDimension
  0
DIMENSION
  5
1D5
330
1F
100
AcDbEntity
  8
VERMASSUNG
100
AcDbDimension
  2
_D_2
 10
281.0525497887
 20
168.9468190658
 30
0.0
 11
281.0525497887
 21
155.4468190658
 31
0.0
 70
   160
  1
<>
 71
     2
 42
-1.0
  3
SLDDIMSTYLE0
100
AcDbAlignedDimension
 13
263.4059704019
 23
141.9468190658
 33
0.0
 14
263.4059704019
 24
168.9468190658
 34
0.0
 50
90.0
100
AcDbRotatedDimension
  0
DIMENSION
  5
1DF
330
1F
100
AcDbEntity
  8
VERMASSUNG
100
AcDbDimension
  2
_D_3
 10
263.4059704019
 20
168.9468190658
 30
0.0
 11
270.7117281522
 21
161.0103729988
 31
0.0
 70
   162
  1
<>
 71
     1
 42
-1.0
  3
SLDDIMSTYLE1
100
AcDb2LineAngularDimension
 13
262.3570728016
 23
156.6052240228
 33
0.0
 14
263.4044566194
 24
168.5103492018
 34
0.0
 15
279.3942371774
 25
168.9468190658
 35
0.0
 16
270.7117281522
 26
161.0103729988
 36
0.0
  0
DIMENSION
  5
1E8
330
1F
100
AcDbEntity
  8
VERMASSUNG
100
AcDbDimension
  2
_D_4
 10
35.4059704019
 20
110.4468190658
 30
0.0
 11
35.4059704019
 21
141.9468190658
 31
0.0
 70
   160
  1
PSC%%c<>
 71
     2
 42
-1.0
  3
SLDDIMSTYLE0
100
AcDbAlignedDimension
 13
83.9059704019
 23
173.4468190658
 33
0.0
 14
83.9059704019
 24
110.4468190658
 34
0.0
 50
90.0
100
AcDbRotatedDimension
  0
DIMENSION
  5
1F4
330
1F
100
AcDbEntity
  8
VERMASSUNG
100
AcDbDimension
  2
_D_5
 10
131.1608120462
 20
121.9468190658
 30
0.0
 11
131.1608120462
 21
131.8022453142
 31
0.0
 70
   160
  1
%%c<>
 71
     2
 42
-1.0
  3
SLDDIMSTYLE0
100
AcDbAlignedDimension
 13
109.4059704019
 23
161.9468190658
 33
0.0
 14
109.4059704019
 24
121.9468190658
 34
0.0
 50
90.0
100
AcDbRotatedDimension
  0
LINE
  5
1FD
330
1F
100
AcDbEntity
  8
0
  6
Continuous
 62
     7
370
    15
100
AcDbLine
 10
162.949565468
 20
82.1834619306
 30
0.0
 11
162.7219008707
 21
82.0099239386
 31
0.0
  0
LINE
  5
1FE
330
1F
100
AcDbEntity
  8
0
  6
Continuous
 62
     7
370
    15
100
AcDbLine
 10
161.753084879
 20
75.1164418794
 30
0.0
 11
161.9240968913
 21
74.8868741244
 31
0.0
  0
LINE
  5
1FF
330
1F
100
AcDbEntity
  8
0
  6
Continuous
 62
     7
370
    15
100
AcDbLine
 10
173.0547504459
 20
95.5423194132
 30
0.0
 11
170.3916302841
 21
95.9165974669
 31
0.0
  0
LINE
  5
200
330
1F
100
AcDbEntity
  8
0
  6
Continuous
 62
     7
370
    15
100
AcDbLine
 10
173.315527286
 20
95.1988066695
 30
0.0
 11
173.0648590211
 21
95.5353065543
 31
0.0
  0
LINE
  5
201
330
1F
100
AcDbEntity
  8
0
  6
Continuous
 62
     7
370
    15
100
AcDbLine
 10
170.4499199014
 20
96.6133385114
 30
0.0
 11
165.762066009
 21
97.2721747271
 31
0.0
  0
LINE
  5
202
330
1F
100
AcDbEntity
  8
0
  6
Continuous
 62
     7
370
    15
100
AcDbLine
 10
164.790993692
 20
95.1361584626
 30
0.0
 11
164.3455584027
 21
94.5545791797
 31
0.0
  0
SPLINE
  5
203
330
1F
100
AcDbEntity
  8
0
  6
Continuous
 62
     7
370
    15
100
AcDbSpline
210
0.0
220
0.0
230
1.0
 70
     8
 71
     3
 72
     9
 73
     5
 74
     0
 42
0.00000001
 43
0.00000001
 12
1.0
 22
0.0
 32
0.0
 13
1.0
 23
0.0
 33
0.0
 40
0.0
 40
0.0
 40
0.0
 40
0.0
 40
0.1188394392916813
 40
0.9999999999999999
 40
0.9999999999999999
 40
0.9999999999999999
 40
0.9999999999999999
 10
164.9077508674126
 20
95.34732840580025
 30
0.0
 10
164.9077618772404
 20
95.3487936383248
 30
0.0
 10
164.9078545218023
 20
95.36112315227489
 30
0.0
 10
164.9031066620831
 20
95.33561075720507
 30
0.0
 10
164.8989230353508
 20
95.31313024086037
 30
0.0
  0
LINE
  5
204
330
1F
100
AcDbEntity
  8
0
  6
Continuous
 62
     7
370
    15
100
AcDbLine
 10
163.0732425448
 20
85.9442710094
 30
0.0
 11
163.3523042739
 21
85.2339689769
 31
0.0
  0
SPLINE
  5
205
330
1F
100
AcDbEntity
  8
0
  6
Continuous
 62
     7
370
    15
100
AcDbSpline
210
0.0
220
0.0
230
1.0
 70
     8
 71
     3
 72
    13
 73
     9
 74
     0
 42
0.00000001
 43
0.00000001
 12
1.0
 22
0.0
 32
0.0
 13
1.0
 23
0.0
 33
0.0
 40
0.0
 40
0.0
 40
0.0
 40
0.0
 40
0.0718188734829291
 40
0.2836938250418392
 40
0.4649107952029302
 40
0.6269001513667378
 40
0.814055965478343
 40
1.0
 40
1.0
 40
1.0
 40
1.0
 10
163.3648168254767
 20
85.23708331954757
 30
0.0
 10
163.3741724937552
 20
85.21887597281693
 30
0.0
 10
163.4111285916589
 20
85.14695460191015
 30
0.0
 10
163.4213601044458
 20
85.01920776706504
 30
0.0
 10
163.4139055336555
 20
84.89368387359337
 30
0.0
 10
163.395143140651
 20
84.81766959425116
 30
0.0
 10
163.3812439775288
 20
84.77967513098788
 30
0.0
 10
163.3815301908738
 20
84.78069280405285
 30
0.0
 10
163.3816728327546
 20
84.78119998795071
 30
0.0
  0
LINE
  5
206
330
1F
100
AcDbEntity
  8
0
  6
Continuous
 62
     7
370
    15
100
AcDbLine
 10
162.4738084111
 20
83.7070479206
 30
0.0
 11
162.7710691147
 21
83.6652706526
 31
0.0
  0
LWPOLYLINE
  5
207
330
1F
100
AcDbEntity
  8
0
  6
Continuous
 62
     7
370
    15
100
AcDbPolyline
 90
       25
 70
   128
 43
0.0
 10
162.8083574079
 20
81.9829537682
 10
162.8655119758
 20
81.7283497341
 10
162.8824632108
 20
81.2576807253
 10
162.8580555745
 20
80.6030214913
 10
162.7939528745
 20
79.8089861087
 10
162.6945230138
 20
78.9296862818
 10
162.5665422954
 20
78.0250451676
 10
162.4187325552
 20
77.156713061
 10
162.2611665126
 20
76.3838643357
 10
162.104582084
 20
75.7591680772
 10
161.9596503634
 20
75.3251959718
 10
161.836247794
 20
75.1115226336
 10
161.742784917
 20
75.1327097565
 10
161.6856301163
 20
75.3873133249
 10
161.6686786484
 20
75.8579823337
 10
161.6930862848
 20
76.5126415677
 10
161.7571892176
 20
77.3066774159
 10
161.8566190783
 20
78.1859767772
 10
161.9845995639
 20
79.0906178914
 10
162.1324095369
 20
79.9589504637
 10
162.2899755795
 20
80.731799189
 10
162.4465600081
 20
81.3564949818
 10
162.5914917287
 20
81.7904670872
 10
162.7148940653
 20
82.0041404254
 10
162.8083574079
 20
81.9829537682
  0
LWPOLYLINE
  5
208
330
1F
100
AcDbEntity
  8
0
  6
Continuous
 62
     7
370
    15
100
AcDbPolyline
 90
       19
 70
   128
 43
0.0
 10
162.5800203957
 20
80.5150441043
 10
162.6185273245
 20
80.2928817607
 10
162.6156686299
 20
79.8614475094
 10
162.5717891339
 20
79.2727771364
 10
162.4921815429
 20
78.5978737436
 10
162.3864473269
 20
77.9181414433
 10
162.2673397843
 20
77.3155645616
 10
162.1492252644
 20
76.8628235124
 10
162.046349743
 20
76.6145259291
 10
161.9711216964
 20
76.6006194204
 10
161.9326147676
 20
76.8227812983
 10
161.9354734622
 20
77.2542160153
 10
161.9793529581
 20
77.8428863883
 10
162.0589605492
 20
78.5177893154
 10
162.1646947652
 20
79.1975216157
 10
162.283802075
 20
79.8000984974
 10
162.4019168276
 20
80.2528395466
 10
162.5047923491
 20
80.5011375956
 10
162.5800203957
 20
80.5150441043
  0
LINE
  5
209
330
1F
100
AcDbEntity
  8
0
  6
Continuous
 62
     7
370
    15
100
AcDbLine
 10
162.5146324705
 20
78.7676575742
 30
0.0
 11
162.3954655562
 21
78.7844055481
 31
0.0
  0
LINE
  5
20A
330
1F
100
AcDbEntity
  8
0
  6
Continuous
 62
     7
370
    15
100
AcDbLine
 10
171.5641123202
 20
84.8271086029
 30
0.0
 11
173.0065647472
 21
94.4512526653
 31
0.0
  0
LINE
  5
20B
330
1F
100
AcDbEntity
  8
0
  6
Continuous
 62
     7
370
    15
100
AcDbLine
 10
173.2747213874
 20
94.439968761
 30
0.0
 11
171.8322689604
 21
84.81582563
 31
0.0
  0
ARC
  5
20C
330
1F
100
AcDbEntity
  8
0
  6
Continuous
 62
     7
370
    15
100
AcDbCircle
 10
170.4702111567
 20
95.1098651895
 30
0.0
 40
2.620469422261709
100
AcDbArc
 50
345.4435466697
 51
9.4989363322
  0
ARC
  5
20D
330
1F
100
AcDbEntity
  8
0
  6
Continuous
 62
     7
370
    15
100
AcDbCircle
 10
171.1960945722
 20
94.9322613538
 30
0.0
 40
2.136127672627647
100
AcDbArc
 50
346.6758278313
 51
7.168032447
  0
ARC
  5
20E
330
1F
100
AcDbEntity
  8
0
  6
Continuous
 62
     7
370
    15
100
AcDbCircle
 10
167.5257796425
 20
85.3029787624
 30
0.0
 40
4.066273874703182
100
AcDbArc
 50
340.908021733
 51
353.2793570808
  0
LINE
  5
20F
330
1F
100
AcDbEntity
  8
0
  6
Continuous
 62
     7
370
    15
100
AcDbLine
 10
171.3837346953
 20
83.9708021991
 30
0.0
 11
171.677842639
 21
84.1949473284
 31
0.0
  0
ARC
  5
210
330
1F
100
AcDbEntity
  8
0
  6
Continuous
 62
     7
370
    15
100
AcDbCircle
 10
169.9660050249
 20
84.9503634243
 30
0.0
 40
1.871107023979491
100
AcDbArc
 50
336.1886320496
 51
355.8767161212
  0
LINE
  5
211
330
1F
100
AcDbEntity
  8
0
  6
Continuous
 62
     7
370
    15
100
AcDbLine
 10
162.4776289292
 20
83.7080481611
 30
0.0
 11
163.8702254469
 21
84.5758349783
 31
0.0
  0
ARC
  5
212
330
1F
100
AcDbEntity
  8
0
  6
Continuous
 62
     7
370
    15
100
AcDbCircle
 10
163.3687505453
 20
83.8944091451
 30
0.0
 40
0.9103999950966192
100
AcDbArc
 50
164.1226812205
 51
191.8120732467
  0
LINE
  5
213
330
1F
100
AcDbEntity
  8
0
  6
Continuous
 62
     7
370
    15
100
AcDbLine
 10
164.2774052644
 20
96.048601266
 30
0.0
 11
162.4930825975
 21
84.1434749923
 31
0.0
  0
ARC
  5
214
330
1F
100
AcDbEntity
  8
0
  6
Continuous
 62
     7
370
    15
100
AcDbCircle
 10
165.3438181831
 20
95.9717254433
 30
0.0
 40
1.069180249189672
100
AcDbArc
 50
156.1883656158
 51
175.8767810383
  0
LINE
  5
215
330
1F
100
AcDbEntity
  8
0
  6
Continuous
 62
     7
370
    15
100
AcDbLine
 10
165.7582455347
 20
97.2711744867
 30
0.0
 11
164.3656490097
 21
96.4033867381
 31
0.0
  0
ARC
  5
216
330
1F
100
AcDbEntity
  8
0
  6
Continuous
 62
     7
370
    15
100
AcDbCircle
 10
164.867122403
 20
97.0848136882
 30
0.0
 40
0.9104014406169391
100
AcDbArc
 50
344.1226949599
 51
11.8120422957
  0
LINE
  5
217
330
1F
100
AcDbEntity
  8
0
  6
Continuous
 62
     7
370
    15
100
AcDbLine
 10
163.9584691921
 20
84.9306213818
 30
0.0
 11
165.7427918009
 21
96.8357476555
 31
0.0
  0
ARC
  5
218
330
1F
100
AcDbEntity
  8
0
  6
Continuous
 62
     7
370
    15
100
AcDbCircle
 10
162.892052761
 20
85.007496945
 30
0.0
 40
1.069183733905818
100
AcDbArc
 50
336.1884086711
 51
355.8768084418
  0
ARC
  5
219
330
1F
100
AcDbEntity
  8
0
  6
Continuous
 62
     7
370
    15
100
AcDbCircle
 10
164.90908438
 20
97.0743761529
 30
0.0
 40
0.8648831468225053
100
AcDbArc
 50
344.1227019952
 51
11.8120420731
  0
LINE
  5
21A
330
1F
100
AcDbEntity
  8
0
  6
Continuous
 62
     7
370
    15
100
AcDbLine
 10
165.7556530964
 20
97.2514192722
 30
0.0
 11
164.3630565569
 21
96.3836315237
 31
0.0
  0
ARC
  5
21B
330
1F
100
AcDbEntity
  8
0
  6
Continuous
 62
     7
370
    15
100
AcDbCircle
 10
165.2923188042
 20
95.973553055
 30
0.0
 40
1.015722735180466
100
AcDbArc
 50
156.1883882032
 51
175.8768473753
  0
LINE
  5
21C
330
1F
100
AcDbEntity
  8
0
  6
Continuous
 62
     7
370
    15
100
AcDbLine
 10
164.2792249523
 20
96.0465840213
 30
0.0
 11
162.4949024018
 21
84.1414596103
 31
0.0
  0
ARC
  5
21D
330
1F
100
AcDbEntity
  8
0
  6
Continuous
 62
     7
370
    15
100
AcDbCircle
 10
163.3267837055
 20
83.9048470185
 30
0.0
 40
0.8648768826154242
100
AcDbArc
 50
164.1226200282
 51
191.8121643013
  0
LINE
  5
21E
330
1F
100
AcDbEntity
  8
0
  6
Continuous
 62
     7
370
    15
100
AcDbLine
 10
162.4802214984
 20
83.7278033755
 30
0.0
 11
163.8728178997
 21
84.5955901928
 31
0.0
  0
ARC
  5
21F
330
1F
100
AcDbEntity
  8
0
  6
Continuous
 62
     7
370
    15
100
AcDbCircle
 10
162.9435492178
 20
85.0056702619
 30
0.0
 40
1.015729268146148
100
AcDbArc
 50
336.1884521497
 51
355.8767834288
  0
LINE
  5
220
330
1F
100
AcDbEntity
  8
0
  6
Continuous
 62
     7
370
    15
100
AcDbLine
 10
163.9566495042
 20
84.9326376952
 30
0.0
 11
165.7409720475
 21
96.8377630375
 31
0.0
  0
ARC
  5
221
330
1F
100
AcDbEntity
  8
0
  6
Continuous
 62
     7
370
    15
100
AcDbCircle
 10
169.4161125149
 20
96.4403560127
 30
0.0
 40
1.048179687518775
100
AcDbArc
 50
345.4434566239
 51
9.4990550954
  0
LINE
  5
222
330
1F
100
AcDbEntity
  8
0
  6
Continuous
 62
     7
370
    15
100
AcDbLine
 10
168.6463231646
 20
84.2717870287
 30
0.0
 11
170.4306457151
 21
96.1769114397
 31
0.0
  0
LINE
  5
223
330
1F
100
AcDbEntity
  8
0
  6
Continuous
 62
     7
370
    15
100
AcDbLine
 10
164.8628005251
 20
95.3517913036
 30
0.0
 11
164.5298680715
 21
95.9779138826
 31
0.0
  0
ARC
  5
224
330
1F
100
AcDbEntity
  8
0
  6
Continuous
 62
     7
370
    15
100
AcDbCircle
 10
167.5799019524
 20
84.3486626479
 30
0.0
 40
1.069188506538655
100
AcDbArc
 50
336.1884637024
 51
355.876823869
  0
LINE
  5
225
330
1F
100
AcDbEntity
  8
0
  6
Continuous
 62
     7
370
    15
100
AcDbLine
 10
163.4435845964
 20
84.9027180262
 30
0.0
 11
162.745545521
 21
84.0727885402
 31
0.0
  0
ARC
  5
226
330
1F
100
AcDbEntity
  8
0
  6
Continuous
 62
     7
370
    15
100
AcDbCircle
 10
162.9087666957
 20
94.585744128
 30
0.0
 40
2.275991975447822
100
AcDbArc
 50
344.1226222512
 51
11.8121138569
  0
LINE
  5
227
330
1F
100
AcDbEntity
  8
0
  6
Continuous
 62
     7
370
    15
100
AcDbLine
 10
168.4797360987
 20
83.8681806959
 30
0.0
 11
168.5580794193
 21
83.9169996939
 31
0.0
  0
LINE
  5
228
330
1F
100
AcDbEntity
  8
0
  6
Continuous
 62
     7
370
    15
100
AcDbLine
 10
164.0993074007
 20
87.3002114854
 30
0.0
 11
165.0979282177
 21
93.9630794488
 31
0.0
  0
ARC
  5
229
330
1F
100
AcDbEntity
  8
0
  6
Continuous
 62
     7
370
    15
100
AcDbCircle
 10
161.4332486484
 20
87.4924034106
 30
0.0
 40
2.672977180410909
100
AcDbArc
 50
336.1884740517
 51
355.8767711723
  0
LINE
  5
22A
330
1F
100
AcDbEntity
  8
0
  6
Continuous
 62
     7
370
    15
100
AcDbLine
 10
163.0993118934
 20
85.9275742583
 30
0.0
 11
163.8786979212
 21
86.4132440798
 31
0.0
  0
ARC
  5
22B
330
1F
100
AcDbEntity
  8
0
  6
Continuous
 62
     7
370
    15
100
AcDbCircle
 10
165.3271215721
 20
86.3934773495
 30
0.0
 40
2.276005635932212
100
AcDbArc
 50
164.1226894331
 51
191.8120597449
  0
LINE
  5
22C
330
1F
100
AcDbEntity
  8
0
  6
Continuous
 62
     7
370
    15
100
AcDbLine
 10
164.1365671722
 20
93.6790111623
 30
0.0
 11
163.1379461806
 21
87.016143199
 31
0.0
  0
ARC
  5
22D
330
1F
100
AcDbEntity
  8
0
  6
Continuous
 62
     7
370
    15
100
AcDbCircle
 10
166.8026156064
 20
93.4868218035
 30
0.0
 40
2.672966704448089
100
AcDbArc
 50
156.1884350861
 51
175.8768101379
  0
LINE
  5
22E
330
1F
100
AcDbEntity
  8
0
  6
Continuous
 62
     7
370
    15
100
AcDbLine
 10
165.1365625631
 20
95.0516465269
 30
0.0
 11
164.3571766518
 21
94.565978568
 31
0.0
  0
LWPOLYLINE
  5
22F
330
1F
100
AcDbEntity
  8
0
  6
Continuous
 62
     7
370
    15
100
AcDbPolyline
 90
       21
 70
   128
 43
0.0
 10
164.3526852323
 20
90.2295469455
 10
164.4589238759
 20
91.0277667604
 10
164.5317843842
 20
91.7733053826
 10
164.5641346887
 20
92.3931881003
 10
164.55280806
 20
92.8267355226
 10
164.4989132375
 20
93.0315091423
 10
164.4077258144
 20
92.9874631725
 10
164.2881719355
 20
92.6989114992
 10
164.151954251
 20
92.1940974109
 10
164.012406739
 20
91.5224350206
 10
163.8831893407
 20
90.7496738396
 10
163.7769505806
 20
89.9514558874
 10
163.7040901888
 20
89.2059172652
 10
163.6717397679
 20
88.5860326849
 10
163.683066513
 20
88.1524852626
 10
163.7369612191
 20
87.9477135054
 10
163.8281486422
 20
87.9917576126
 10
163.9477026375
 20
88.2803111486
 10
164.083920322
 20
88.7851252369
 10
164.2234677175
 20
89.4567857645
 10
164.3526852323
 20
90.2295469455
  0
SPLINE
  5
230
330
1F
100
AcDbEntity
  8
0
  6
Continuous
 62
     7
370
    15
100
AcDbSpline
210
0.0
220
0.0
230
1.0
 70
    24
 71
     3
 72
     9
 73
     5
 74
     0
 42
0.00000001
 43
0.00000001
 12
1.0
 22
0.0
 32
0.0
 13
1.0
 23
0.0
 33
0.0
 40
0.0
 40
0.0
 40
0.0
 40
0.0
 40
0.5000000629276316
 40
1.0
 40
1.0
 40
1.0
 40
1.0
 10
186.3042943064246
 20
83.58084212153828
 30
0.0
 10
186.3042943064246
 20
83.42908737021473
 30
0.0
 10
186.3042943064246
 20
83.12557790576591
 30
0.0
 10
186.3042943064246
 20
82.81962266224811
 30
0.0
 10
186.3042943064246
 20
82.66664505974227
 30
0.0
  0
SPLINE
  5
231
330
1F
100
AcDbEntity
  8
0
  6
Continuous
 62
     7
370
    15
100
AcDbSpline
210
0.0
220
0.0
230
1.0
 70
     8
 71
     3
 72
    25
 73
    21
 74
     0
 42
0.00000001
 43
0.00000001
 12
1.0
 22
0.0
 32
0.0
 13
1.0
 23
0.0
 33
0.0
 40
0.0
 40
0.0
 40
0.0
 40
0.0
 40
0.0251360526117005
 40
0.0502550180586255
 40
0.0753641177197576
 40
0.1004705814871767
 40
0.1255816415297161
 40
0.1883288995932323
 40
0.2510679709500772
 40
0.3137540139126663
 40
0.3764235232255411
 40
0.5015802348910736
 40
0.6265319828112748
 40
0.6889158963926489
 40
0.7512790951062589
 40
0.8135379550389386
 40
0.8757712983888856
 40
0.9171943544147898
 40
0.9585923866318723
 40
1.0
 40
1.0
 40
1.0
 40
1.0
 10
186.3042925312198
 20
82.66664568691115
 30
0.0
 10
186.2330011898609
 20
82.79942792197608
 30
0.0
 10
186.0904669700785
 20
83.06490212845297
 30
0.0
 10
185.8681548944703
 20
83.45827796245571
 30
0.0
 10
185.6397335069283
 20
83.84788160907412
 30
0.0
 10
185.4045834040676
 20
84.23338373370711
 30
0.0
 10
185.0421695860434
 20
84.80537413144387
 30
0.0
 10
184.5362735437202
 20
85.55325405594758
 30
0.0
 10
183.8647397086196
 20
86.45962952848518
 30
0.0
 10
183.1552948402248
 20
87.33600507259247
 30
0.0
 10
182.161205843292
 20
88.46139010599538
 30
0.0
 10
180.8306610802023
 20
89.78501538872715
 30
0.0
 10
179.3920070920175
 20
90.9880689747938
 30
0.0
 10
178.1835326990604
 20
91.872040071676
 30
0.0
 10
177.2503865042931
 20
92.4943463984361
 30
0.0
 10
176.2917162604944
 20
93.07520398097262
 30
0.0
 10
175.4186622921823
 20
93.55370018923917
 30
0.0
 10
174.6405277116671
 20
93.94365617407837
 30
0.0
 10
173.9651170941778
 20
94.25955653234362
 30
0.0
 10
173.5074106873187
 20
94.45340174426015
 30
0.0
 10
173.278531004087
 20
94.55033556479346
 30
0.0
  0
SPLINE
  5
232
330
1F
100
AcDbEntity
  8
0
  6
Continuous
 62
     7
370
    15
100
AcDbSpline
210
0.0
220
0.0
230
1.0
 70
     8
 71
     3
 72
    25
 73
    21
 74
     0
 42
0.00000001
 43
0.00000001
 12
1.0
 22
0.0
 32
0.0
 13
1.0
 23
0.0
 33
0.0
 40
0.0
 40
0.0
 40
0.0
 40
0.0
 40
0.0245280917907084
 40
0.0492188286101138
 40
0.0740723644261809
 40
0.0990888501993864
 40
0.1242684339578157
 40
0.185925972943034
 40
0.2487810943270133
 40
0.3104435951435853
 40
0.3735337332972678
 40
0.4984810115700368
 40
0.6236251569642378
 40
0.6849228946041112
 40
0.7489625924834914
 40
0.809813224115324
 40
0.874431994395782
 40
0.9136416519733329
 40
0.9554976535453107
 40
1.0
 40
1.0
 40
1.0
 40
1.0
 10
173.2991108655991
 20
95.05975968092503
 30
0.0
 10
173.4327666133941
 20
95.00445683497117
 30
0.0
 10
173.7009643761719
 20
94.89348443157833
 30
0.0
 10
174.1009253335814
 20
94.71797701125531
 30
0.0
 10
174.5006629162829
 20
94.53507357054777
 30
0.0
 10
174.8997553187485
 20
94.34408309330516
 30
0.0
 10
175.4895899845031
 20
94.04944783772658
 30
0.0
 10
176.2671144724154
 20
93.63205597161169
 30
0.0
 10
177.2112491813743
 20
93.07291981006571
 30
0.0
 10
178.1380331219293
 20
92.47021659629037
 30
0.0
 10
179.3366353089342
 20
91.61727236419615
 30
0.0
 10
180.7707554211457
 20
90.4540742785199
 30
0.0
 10
182.0951345756954
 20
89.18293488393839
 30
0.0
 10
183.0941438987373
 20
88.09760287575513
 30
0.0
 10
183.8026843855642
 20
87.26063238385282
 30
0.0
 10
184.4879987293763
 20
86.37966727360309
 30
0.0
 10
185.0515301339
 20
85.59007714078457
 30
0.0
 10
185.5253850003637
 20
84.8747878159036
 30
0.0
 10
185.9185293878152
 20
84.24823451129126
 30
0.0
 10
186.173105603639
 20
83.80780678385743
 30
0.0
 10
186.3042942983581
 20
83.58084473835306
 30
0.0
  0
LINE
  5
233
330
1F
100
AcDbEntity
  8
0
  6
Continuous
 62
     7
370
    15
100
AcDbLine
 10
186.3042948727
 20
72.0254412768
 30
0.0
 11
162.7166915178
 21
75.3404626772
 31
0.0
  0
LINE
  5
234
330
1F
100
AcDbEntity
  8
0
  6
Continuous
 62
     7
370
    15
100
AcDbLine
 10
162.7166915178
 20
75.3404626772
 30
0.0
 11
164.0873350162
 21
84.485492032
 31
0.0
  0
LINE
  5
235
330
1F
100
AcDbEntity
  8
0
  6
Continuous
 62
     7
370
    15
100
AcDbLine
 10
164.0873350162
 20
84.485492032
 30
0.0
 11
168.7160983175
 21
83.8349622823
 31
0.0
  0
LINE
  5
236
330
1F
100
AcDbEntity
  8
0
  6
Continuous
 62
     7
370
    15
100
AcDbLine
 10
168.7160983175
 20
83.8349622823
 30
0.0
 11
168.7910700176
 21
84.3351774998
 31
0.0
  0
LINE
  5
237
330
1F
100
AcDbEntity
  8
0
  6
Continuous
 62
     7
370
    15
100
AcDbLine
 10
168.7910700176
 20
84.3351774998
 30
0.0
 11
171.6865090612
 21
83.9282500706
 31
0.0
  0
LINE
  5
238
330
1F
100
AcDbEntity
  8
0
  6
Continuous
 62
     7
370
    15
100
AcDbLine
 10
171.7634777498
 20
84.4417906515
 30
0.0
 11
171.6865090612
 21
83.9282500706
 31
0.0
  0
LINE
  5
239
330
1F
100
AcDbEntity
  8
0
  6
Continuous
 62
     7
370
    15
100
AcDbLine
 10
186.3042948727
 20
82.6666460521
 30
0.0
 11
186.3042948727
 21
72.0254412768
 31
0.0
  0
LWPOLYLINE
  5
23A
330
1F
100
AcDbEntity
  8
0
  6
Continuous
 62
     7
370
    15
100
AcDbPolyline
 90
        3
 70
   128
 43
0.0
 10
162.6628210262
 20
83.5978168212
 10
162.5885617878
 20
83.6800842695
 10
162.5860469841
 20
83.6912741102
  0
ARC
  5
23B
330
1F
100
AcDbEntity
  8
0
  6
Continuous
 62
     7
370
    15
100
AcDbCircle
 10
182.4931227377
 20
83.1636572134
 30
0.0
 40
19.96591509025217
100
AcDbArc
 50
167.7783539192
 51
175.1737271194
  0
LINE
  5
23C
330
1F
100
AcDbEntity
  8
0
  6
Continuous
 62
     7
370
    15
100
AcDbLine
 10
157.5681393925
 20
51.4994769506
 30
0.0
 11
162.7166915178
 21
75.3404626772
 31
0.0
  0
ARC
  5
23D
330
1F
100
AcDbEntity
  8
0
  6
Continuous
 62
     7
370
    15
100
AcDbCircle
 10
165.8042943064
 20
70.2722168676
 30
0.0
 40
20.50000000000001
100
AcDbArc
 50
244.5828853812
 51
246.3115196761
  0
SPLINE
  5
23E
330
1F
100
AcDbEntity
  8
0
  6
Continuous
 62
     7
370
    15
100
AcDbSpline
210
0.0
220
0.0
230
1.0
 70
     8
 71
     3
 72
     8
 73
     4
 74
     0
 42
0.00000001
 43
0.00000001
 12
1.0
 22
0.0
 32
0.0
 13
1.0
 23
0.0
 33
0.0
 40
0.0
 40
0.0
 40
0.0
 40
0.0
 40
1.0
 40
1.0
 40
1.0
 40
1.0
 10
157.0055929064539
 20
51.75647076669709
 30
0.0
 10
157.0133299071457
 20
51.93753611536686
 30
0.0
 10
157.0211115152873
 20
52.11877646154753
 30
0.0
 10
157.0289413122798
 20
52.30020585527497
 30
0.0
  0
ARC
  5
23F
330
1F
100
AcDbEntity
  8
0
  6
Continuous
 62
     7
370
    15
100
AcDbCircle
 10
165.8042943064
 20
70.2722168676
 30
0.0
 40
20.0
100
AcDbArc
 50
243.0543608099
 51
243.974721251
  0
ARC
  5
240
330
1F
100
AcDbEntity
  8
0
  6
Continuous
 62
     7
370
    15
100
AcDbCircle
 10
165.8042943064
 20
70.2722168676
 30
0.0
 40
19.99999999999998
100
AcDbArc
 50
100.025278749
 51
100.9456391901
  0
SPLINE
  5
241
330
1F
100
AcDbEntity
  8
0
  6
Continuous
 62
     7
370
    15
100
AcDbSpline
210
0.0
220
0.0
230
1.0
 70
     8
 71
     3
 72
     8
 73
     4
 74
     0
 42
0.00000001
 43
0.00000001
 12
1.0
 22
0.0
 32
0.0
 13
1.0
 23
0.0
 33
0.0
 40
0.0
 40
0.0
 40
0.0
 40
0.0
 40
1.0
 40
1.0
 40
1.0
 40
1.0
 10
162.3226411989741
 20
89.96683774845236
 30
0.0
 10
162.7200368626791
 20
91.61844354641735
 30
0.0
 10
163.1169453178608
 20
93.25363018179169
 30
0.0
 10
163.5136061738998
 20
94.88047260645446
 30
0.0
  0
LWPOLYLINE
  5
242
330
1F
100
AcDbEntity
  8
0
  6
Continuous
 62
     7
370
    15
100
AcDbPolyline
 90
       26
 70
   128
 43
0.0
 10
162.8322635271
 20
82.5189038329
 10
162.9177426413
 20
82.3799877576
 10
162.9628719721
 20
82.0009124614
 10
162.9648154095
 20
81.4054946564
 10
162.9234514158
 20
80.6311483644
 10
162.8413783811
 20
79.7265277393
 10
162.7237537369
 20
78.7484741918
 10
162.5779682264
 20
77.7584410421
 10
162.4131818727
 20
76.8186369128
 10
162.2397488874
 20
75.9881127774
 10
162.0685669087
 20
75.3190534338
 10
161.9103915483
 20
74.8534983173
 10
161.7751618806
 20
74.6207002699
 10
161.6713748273
 20
74.6352866441
 10
161.605551276
 20
74.8963410184
 10
161.5818281617
 20
75.3874600082
 10
161.6016951349
 20
76.0777856372
 10
161.6639037576
 20
76.9239410907
 10
161.7645462003
 20
77.8727604225
 10
161.897298317
 20
78.8646250181
 10
162.0538184844
 20
79.8372126333
 10
162.2242721688
 20
80.7294122092
 10
162.3979491606
 20
81.4851627834
 10
162.5639366876
 20
82.0569790117
 10
162.7118051011
 20
82.4089304693
 10
162.8322635271
 20
82.5189038329
  0
LINE
  5
243
330
1F
100
AcDbEntity
  8
0
  6
Continuous
 62
     7
370
    15
100
AcDbLine
 10
164.0873350162
 20
84.485492032
 30
0.0
 11
162.6628210262
 21
83.5978168212
 31
0.0
  0
ELLIPSE
  5
244
330
1F
100
AcDbEntity
  8
0
  6
Continuous
 62
     7
370
    15
100
AcDbEllipse
 10
163.8042943064
 20
72.1853070718
 30
0.0
 11
22.79178641213892
 21
30.85594993360243
 31
0.0
210
0.0
220
0.0
230
1.0
 40
0.4054768606
 41
1.053917419045914
 42
1.079946143511191
  0
LINE
  5
245
330
1F
100
AcDbEntity
  8
0
  6
Continuous
 62
     7
370
    15
100
AcDbLine
 10
168.7910700176
 20
84.3351774998
 30
0.0
 11
168.6417578213
 21
84.2421346493
 31
0.0
  0
LINE
  5
246
330
1F
100
AcDbEntity
  8
0
  6
Continuous
 62
     7
370
    15
100
AcDbLine
 10
186.3042948727
 20
72.0254412768
 30
0.0
 11
186.3042948727
 21
70.2722168676
 31
0.0
  0
ARC
  5
247
330
1F
100
AcDbEntity
  8
0
  6
Continuous
 62
     7
370
    15
100
AcDbCircle
 10
165.8042943064
 20
70.2722168676
 30
0.0
 40
20.50000000000003
100
AcDbArc
 50
246.3115196761
 51
0.0
  0
SPLINE
  5
248
330
1F
100
AcDbEntity
  8
0
  6
Continuous
 62
     7
370
    15
100
AcDbSpline
210
0.0
220
0.0
230
1.0
 70
     8
 71
     3
 72
    18
 73
    14
 74
     0
 42
0.00000001
 43
0.00000001
 12
1.0
 22
0.0
 32
0.0
 13
1.0
 23
0.0
 33
0.0
 40
0.0
 40
0.0
 40
0.0
 40
0.0
 40
0.1250000000000001
 40
0.1250000000000001
 40
0.2500000000000002
 40
0.2500000000000002
 40
0.3750000000000002
 40
0.3750000000000002
 40
0.5000000000000003
 40
0.5000000000000003
 40
0.7500000000000001
 40
0.7500000000000001
 40
1.0
 40
1.0
 40
1.0
 40
1.0
 10
155.9246700371097
 20
78.34963355216117
 30
0.0
 10
155.9954975227306
 20
78.22177123637675
 30
0.0
 10
156.0520817084551
 20
78.08886967996635
 30
0.0
 10
156.1391460034971
 20
77.81344057262902
 30
0.0
 10
156.16972733912
 20
77.66965673192092
 30
0.0
 10
156.2049437831548
 20
77.3784943003663
 30
0.0
 10
156.2096823662152
 20
77.23263488768235
 30
0.0
 10
156.1971272201681
 20
76.94039291990036
 30
0.0
 10
156.1795465868063
 20
76.79297421606189
 30
0.0
 10
156.0991572752167
 20
76.36107776226137
 30
0.0
 10
156.0099771711183
 20
76.08458813059157
 30
0.0
 10
155.774958054207
 20
75.54954220818142
 30
0.0
 10
155.6303254637344
 20
75.29485861623901
 30
0.0
 10
155.4618002531026
 20
75.05614390562977
 30
0.0
  0
SPLINE
  5
249
330
1F
100
AcDbEntity
  8
0
  6
Continuous
 62
     7
370
    15
100
AcDbSpline
210
0.0
220
0.0
230
1.0
 70
     8
 71
     3
 72
    14
 73
    10
 74
     0
 42
0.00000001
 43
0.00000001
 12
1.0
 22
0.0
 32
0.0
 13
1.0
 23
0.0
 33
0.0
 40
0.0
 40
0.0
 40
0.0
 40
0.0
 40
0.25
 40
0.25
 40
0.5
 40
0.5
 40
0.75
 40
0.75
 40
1.0
 40
1.0
 40
1.0
 40
1.0
 10
156.7413956921924
 20
52.44347970797111
 30
0.0
 10
156.678218568405
 20
52.47559459431986
 30
0.0
 10
156.522842597802
 20
52.55411669591435
 30
0.0
 10
156.0366813247449
 20
52.8174136274166
 30
0.0
 10
155.7185348853853
 20
52.99569290973673
 30
0.0
 10
154.9548275669559
 20
53.46478117279825
 30
0.0
 10
154.5272856772719
 20
53.74502141720214
 30
0.0
 10
153.6123859390006
 20
54.40790208762883
 30
0.0
 10
153.1410154304064
 20
54.77925425714422
 30
0.0
 10
152.6697473074017
 20
55.18965491249435
 30
0.0
  0
SPLINE
  5
24A
330
1F
100
AcDbEntity
  8
0
  6
Continuous
 62
     7
370
    15
100
AcDbSpline
210
0.0
220
0.0
230
1.0
 70
     8
 71
     3
 72
    20
 73
    16
 74
     0
 42
0.00000001
 43
0.00000001
 12
1.0
 22
0.0
 32
0.0
 13
1.0
 23
0.0
 33
0.0
 40
0.0
 40
0.0
 40
0.0
 40
0.0
 40
0.2500000000000003
 40
0.2500000000000003
 40
0.3750000000000003
 40
0.3750000000000003
 40
0.5000000000000002
 40
0.5000000000000002
 40
0.6250000000000001
 40
0.6250000000000001
 40
0.7500000000000001
 40
0.7500000000000001
 40
0.875
 40
0.875
 40
1.0
 40
1.0
 40
1.0
 40
1.0
 10
157.3358748790211
 20
88.39087775637996
 30
0.0
 10
157.9022437903693
 20
88.65559099989102
 30
0.0
 10
158.4539577001326
 20
88.88106840731723
 30
0.0
 10
159.2476154521534
 20
89.16901986085844
 30
0.0
 10
159.5060703242002
 20
89.2563414939502
 30
0.0
 10
159.9905865110494
 20
89.41027880785575
 30
0.0
 10
160.2191168136499
 20
89.47781391720115
 30
0.0
 10
160.6462893440182
 20
89.59691998214339
 30
0.0
 10
160.8466680056887
 20
89.64889057458981
 30
0.0
 10
161.2023458037486
 20
89.73643050349145
 30
0.0
 10
161.3582674663769
 20
89.77225785617013
 30
0.0
 10
161.6257100294382
 20
89.83131159763454
 30
0.0
 10
161.7378197192978
 20
89.85464753468766
 30
0.0
 10
161.9109933223145
 20
89.88981136453494
 30
0.0
 10
161.9719143753776
 20
89.9016366875254
 30
0.0
 10
162.0067429826344
 20
89.90837239622363
 30
0.0
  0
ELLIPSE
  5
24B
330
1F
100
AcDbEntity
  8
0
  6
Continuous
 62
     7
370
    15
100
AcDbEllipse
 10
153.3643246785
 20
76.3288434158
 30
0.0
 11
2.131252361053981
 21
2.544070092956133
 31
0.0
210
0.0
220
0.0
230
1.0
 40
0.7353403728
 41
6.00722182323578
 42
11.10769883421447
  0
ARC
  5
24C
330
1F
100
AcDbEntity
  8
0
  6
Continuous
 62
     7
370
    15
100
AcDbCircle
 10
165.8042943064
 20
70.2722168676
 30
0.0
 40
20.00000000000001
100
AcDbArc
 50
115.0507569084
 51
228.9492430916
  0
CIRCLE
  5
24D
330
1F
100
AcDbEntity
  8
0
  6
Continuous
 62
     7
370
    15
100
AcDbCircle
 10
165.8042943064
 20
70.2722168676
 30
0.0
 40
31.49999999999998
  0
LINE
  5
24E
330
1F
100
AcDbEntity
  8
VERMASSUNG
100
AcDbLine
 10
165.8042943064
 20
97.2302874688
 30
0.0
 11
157.3458679388
 21
37.0454565937
 31
0.0
  0
CIRCLE
  5
24F
330
1F
100
AcDbEntity
  8
VERMASSUNG
  6
CENTERX2
100
AcDbCircle
 10
165.8042943064
 20
72.2302874688
 30
0.0
 40
25.00000000000003
  0
DIMENSION
  5
250
330
1F
100
AcDbEntity
  8
VERMASSUNG
100
AcDbDimension
  2
_D_6
 10
165.8042943064
 20
104.2722168676
 30
0.0
 11
161.250596211
 21
32.1093707727
 31
0.0
 70
   162
  1
<>
 71
     1
 42
-1.0
  3
SLDDIMSTYLE2
100
AcDb2LineAngularDimension
 13
157.3458679388
 23
37.0454565937
 33
0.0
 14
165.8042943064
 24
97.2302874688
 34
0.0
 15
165.8042943064
 25
36.2722168676
 35
0.0
 16
161.250596211
 26
32.1093707727
 36
0.0
  0
DIMENSION
  5
25D
330
1F
100
AcDbEntity
  8
VERMASSUNG
100
AcDbDimension
  2
_D_7
 10
150.7947409254
 20
92.2231188667
 30
0.0
 11
142.356311405
 21
103.463166747
 31
0.0
 70
   160
  1
%%c<> min. 
 71
     2
 42
-1.0
  3
SLDDIMSTYLE3
100
AcDbAlignedDimension
 13
180.8138476874
 23
52.237456071
 33
0.0
 14
150.7947409254
 24
92.2231188667
 34
0.0
 50
-53.1027290284
100
AcDbRotatedDimension
  0
INSERT
  5
277
330
1F
100
AcDbEntity
  8
VERMASSUNG
100
AcDbBlockReference
  2
SW_CENTERMARKSYMBOL_0
 10
165.8042943064
 20
70.2722168676
 30
0.0
  0
OLE2FRAME
  5
278
330
1F
100
AcDbEntity
  8
0
100
AcDbOle2Frame
 70
     2
  3
Paintbrush-Bild
 10
13.8511154363
 20
38.264191557
 30
0.0
 11
51.6290888628
 21
31.9806341108
 31
0.0
 71
     2
 72
     0
 73
     1
 90
    12928
310
80552BED0767C5B32B40DDAF6807D121434000000000000000006FFBDDFB85D0
310
4940DDAF6807D121434000000000000000006FFBDDFB85D04940416F4BD60AFB
310
3F4000000000000000002BED0767C5B32B40416F4BD60AFB3F40000000000000
310
0000000000000100000000010000010000000100000000000100000000320000
310
D0CF11E0A1B11AE1000000000000000000000000000000003E000300FEFF0900
310
0600000000000000000000000100000001000000000000000010000002000000
310
01000000FEFFFFFF0000000000000000FFFFFFFFFFFFFFFFFFFFFFFFFFFFFFFF
310
FFFFFFFFFFFFFFFFFFFFFFFFFFFFFFFFFFFFFFFFFFFFFFFFFFFFFFFFFFFFFFFF
310
FFFFFFFFFFFFFFFFFFFFFFFFFFFFFFFFFFFFFFFFFFFFFFFFFFFFFFFFFFFFFFFF
310
FFFFFFFFFFFFFFFFFFFFFFFFFFFFFFFFFFFFFFFFFFFFFFFFFFFFFFFFFFFFFFFF
310
FFFFFFFFFFFFFFFFFFFFFFFFFFFFFFFFFFFFFFFFFFFFFFFFFFFFFFFFFFFFFFFF
310
FFFFFFFFFFFFFFFFFFFFFFFFFFFFFFFFFFFFFFFFFFFFFFFFFFFFFFFFFFFFFFFF
310
FFFFFFFFFFFFFFFFFFFFFFFFFFFFFFFFFFFFFFFFFFFFFFFFFFFFFFFFFFFFFFFF
310
FFFFFFFFFFFFFFFFFFFFFFFFFFFFFFFFFFFFFFFFFFFFFFFFFFFFFFFFFFFFFFFF
310
FFFFFFFFFFFFFFFFFFFFFFFFFFFFFFFFFFFFFFFFFFFFFFFFFFFFFFFFFFFFFFFF
310
FFFFFFFFFFFFFFFFFFFFFFFFFFFFFFFFFFFFFFFFFFFFFFFFFFFFFFFFFFFFFFFF
310
FFFFFFFFFFFFFFFFFFFFFFFFFFFFFFFFFFFFFFFFFFFFFFFFFFFFFFFFFFFFFFFF
310
FFFFFFFFFFFFFFFFFFFFFFFFFFFFFFFFFFFFFFFFFFFFFFFFFFFFFFFFFFFFFFFF
310
FFFFFFFFFFFFFFFFFFFFFFFFFFFFFFFFFFFFFFFFFFFFFFFFFFFFFFFFFFFFFFFF
310
FFFFFFFFFFFFFFFFFFFFFFFFFFFFFFFFFFFFFFFFFFFFFFFFFFFFFFFFFFFFFFFF
310
FDFFFFFFFEFFFFFFFEFFFFFFFEFFFFFF05000000060000000700000008000000
310
090000000A0000000B0000000C0000000D0000000E0000000F00000010000000
310
11000000120000001300000014000000150000001600000017000000FEFFFFFF
310
FFFFFFFFFFFFFFFFFFFFFFFFFFFFFFFFFFFFFFFFFFFFFFFFFFFFFFFFFFFFFFFF
310
FFFFFFFFFFFFFFFFFFFFFFFFFFFFFFFFFFFFFFFFFFFFFFFFFFFFFFFFFFFFFFFF
310
FFFFFFFFFFFFFFFFFFFFFFFFFFFFFFFFFFFFFFFFFFFFFFFFFFFFFFFFFFFFFFFF
310
FFFFFFFFFFFFFFFFFFFFFFFFFFFFFFFFFFFFFFFFFFFFFFFFFFFFFFFFFFFFFFFF
310
FFFFFFFFFFFFFFFFFFFFFFFFFFFFFFFFFFFFFFFFFFFFFFFFFFFFFFFFFFFFFFFF
310
FFFFFFFFFFFFFFFFFFFFFFFFFFFFFFFFFFFFFFFFFFFFFFFFFFFFFFFFFFFFFFFF
310
FFFFFFFFFFFFFFFFFFFFFFFFFFFFFFFFFFFFFFFFFFFFFFFFFFFFFFFFFFFFFFFF
310
FFFFFFFFFFFFFFFFFFFFFFFFFFFFFFFFFFFFFFFFFFFFFFFFFFFFFFFFFFFFFFFF
310
FFFFFFFFFFFFFFFFFFFFFFFFFFFFFFFFFFFFFFFFFFFFFFFFFFFFFFFFFFFFFFFF
310
FFFFFFFFFFFFFFFFFFFFFFFFFFFFFFFFFFFFFFFFFFFFFFFFFFFFFFFFFFFFFFFF
310
FFFFFFFFFFFFFFFFFFFFFFFFFFFFFFFFFFFFFFFFFFFFFFFFFFFFFFFFFFFFFFFF
310
FFFFFFFFFFFFFFFFFFFFFFFFFFFFFFFFFFFFFFFFFFFFFFFFFFFFFFFFFFFFFFFF
310
FFFFFFFFFFFFFFFFFFFFFFFFFFFFFFFFFFFFFFFFFFFFFFFFFFFFFFFFFFFFFFFF
310
52006F006F007400200045006E00740072007900000000000000000000000000
310
0000000000000000000000000000000000000000000000000000000000000000
310
16000500FFFFFFFFFFFFFFFF020000000A00030000000000C000000000000046
310
00000000000000000000000080B831DCB543CD0103000000C000000000000000
310
01004F006C006500000000000000000000000000000000000000000000000000
310
0000000000000000000000000000000000000000000000000000000000000000
310
0A000200FFFFFFFFFFFFFFFFFFFFFFFF00000000000000000000000000000000
310
0000000000000000000000000000000000000000000000001400000000000000
310
010043006F006D0070004F0062006A0000000000000000000000000000000000
310
0000000000000000000000000000000000000000000000000000000000000000
310
120002010100000003000000FFFFFFFF00000000000000000000000000000000
310
0000000000000000000000000000000000000000010000004D00000000000000
310
01004F006C006500310030004E00610074006900760065000000000000000000
310
0000000000000000000000000000000000000000000000000000000000000000
310
1A000200FFFFFFFFFFFFFFFFFFFFFFFF00000000000000000000000000000000
310
0000000000000000000000000000000000000000040000002426000000000000
310
FEFFFFFF02000000FEFFFFFFFFFFFFFFFFFFFFFFFFFFFFFFFFFFFFFFFFFFFFFF
310
FFFFFFFFFFFFFFFFFFFFFFFFFFFFFFFFFFFFFFFFFFFFFFFFFFFFFFFFFFFFFFFF
310
FFFFFFFFFFFFFFFFFFFFFFFFFFFFFFFFFFFFFFFFFFFFFFFFFFFFFFFFFFFFFFFF
310
FFFFFFFFFFFFFFFFFFFFFFFFFFFFFFFFFFFFFFFFFFFFFFFFFFFFFFFFFFFFFFFF
310
FFFFFFFFFFFFFFFFFFFFFFFFFFFFFFFFFFFFFFFFFFFFFFFFFFFFFFFFFFFFFFFF
310
FFFFFFFFFFFFFFFFFFFFFFFFFFFFFFFFFFFFFFFFFFFFFFFFFFFFFFFFFFFFFFFF
310
FFFFFFFFFFFFFFFFFFFFFFFFFFFFFFFFFFFFFFFFFFFFFFFFFFFFFFFFFFFFFFFF
310
FFFFFFFFFFFFFFFFFFFFFFFFFFFFFFFFFFFFFFFFFFFFFFFFFFFFFFFFFFFFFFFF
310
FFFFFFFFFFFFFFFFFFFFFFFFFFFFFFFFFFFFFFFFFFFFFFFFFFFFFFFFFFFFFFFF
310
FFFFFFFFFFFFFFFFFFFFFFFFFFFFFFFFFFFFFFFFFFFFFFFFFFFFFFFFFFFFFFFF
310
FFFFFFFFFFFFFFFFFFFFFFFFFFFFFFFFFFFFFFFFFFFFFFFFFFFFFFFFFFFFFFFF
310
FFFFFFFFFFFFFFFFFFFFFFFFFFFFFFFFFFFFFFFFFFFFFFFFFFFFFFFFFFFFFFFF
310
FFFFFFFFFFFFFFFFFFFFFFFFFFFFFFFFFFFFFFFFFFFFFFFFFFFFFFFFFFFFFFFF
310
FFFFFFFFFFFFFFFFFFFFFFFFFFFFFFFFFFFFFFFFFFFFFFFFFFFFFFFFFFFFFFFF
310
FFFFFFFFFFFFFFFFFFFFFFFFFFFFFFFFFFFFFFFFFFFFFFFFFFFFFFFFFFFFFFFF
310
FFFFFFFFFFFFFFFFFFFFFFFFFFFFFFFFFFFFFFFFFFFFFFFFFFFFFFFFFFFFFFFF
310
0100000200000000000000000000000000000000000000000000000000000000
310
0000000000000000000000000000000000000000000000000000000000000000
310
0100FEFF030A0000FFFFFFFF0A00030000000000C00000000000004607000000
310
5042727573680007000000504272757368000700000050427275736800F439B2
310
7100000000000000000000000000000000000000000000000000000000000000
310
0000000000000000000000000000000000000000000000000000000000000000
310
0000000000000000000000000000000000000000000000000000000000000000
310
0000000000000000000000000000000000000000000000000000000000000000
310
0000000000000000000000000000000000000000000000000000000000000000
310
0000000000000000000000000000000000000000000000000000000000000000
310
0000000000000000000000000000000000000000000000000000000000000000
310
0000000000000000000000000000000000000000000000000000000000000000
310
0000000000000000000000000000000000000000000000000000000000000000
310
0000000000000000000000000000000000000000000000000000000000000000
310
0000000000000000000000000000000000000000000000000000000000000000
310
0000000000000000000000000000000000000000000000000000000000000000
310
20260000424D0E260000000000003E00000028000000B40200006E0000000100
310
01000000000000000000130B0000130B00000200000002000000000000FFFFFF
310
FFFFFFFFFFFFFFFFFFFFFFFFFFFFFFFFFFFFFFFFFFFFFFFFFFFFFFFFFFFFFFFF
310
FFFFFFFFFFFFFFFFFFFFFFFFFFFFFFFFFFFFFFFFFFFFFFFFFFFFFFFFFFFFFFFF
310
FFFFFFFFFFFFFFFFFFFFFFFFFFFFFFFFFFFFFFFFFFFFFFFFF000FFFFFFFFFFFF
310
FFFFFFFFFFFFFFFFFFFFFFFFFFFFFFFFFFFFFFFFFFFFFFFFFFFFFFFFFFFFFFFF
310
FFFFFFFFFFFFFFFFFFFFFFFFFFFFFFFFFFFFFFFFFFFFFFFFFFFFFFFFFFFFFFFF
310
FFFFFFFFFFFFFFFFFFFFFFFFFFFFFFFFF000FFFFFFFFFFFFFFFFFFFFFFFFFFFF
310
FFFFFFFFFFFFFFFFFFFFFFFFFFFFFFFFFFFFFFFFFFFFFFFFFFFFFFFFFFFFFFFF
310
FFFFFFFFFFFFFFFFFFFFFFFFFFFFFFFFFFFFFFFFFFFFFFFFFFFFFFFFFFFFFFFF
310
FFFFFFFFFFFFFFFFF000FFFFFFFFFFFFFFFFFFFFFFFFFFFFFFFFFFFFFFFFFFFF
310
FFFFFFFFFFFFFFFFFFFFFFFFFFFFFFFFFFFFFFFFFFFFFFFFFFFFFFFFFFFFFFFF
310
FFFFFFFFFFFFFFFFFFFFFFFFFFFFFFFFFFFFFFFFFFFFFFFFFFFFFFFFFFFFFFFF
310
F000FFFFFFFFFFFFFFFFFFFFFFFFFFFFFFFFFFFFFFFFFFFFFFFFFFFFFFFFFFFF
310
FFFFFFFFFFFFFFFFFFFFFFFFFFFFFFFFFFFFFFFFFFFFFFFFFFFFFFFFFFFFFFFF
310
FFFFFFFFFFFFFFFFFFFFFFFFFFFFFFFFFFFFFFFFFFFFFFFFF000FFFFFFFFFFFF
310
FFFFFFFFFFFFFFFFFFFFFFFFFFFFFFFFFFFFFFFFFFFFFFFFFFFFFFFFFFFFFFFF
310
FFFFFFFFFFFFFFFFFFFFFFFFFFFFFFFFFFFFFFFFFFFFFFFFFFFFFFFFFFFFFFFF
310
FFFFFFFFFFFFFFFFFFFFFFFFFFFFFFFFF000FFFFFFFFFFFFFFFFFFFFFFFFFFFF
310
FFFFFFFFFFFFFFFFFFFFFFFFFFFFFFFFFFFFFFFFFFFFFFFFFFFFFFFFFFFFFFFF
310
FFFFFFFFFFFFFFFFFFFFFFFFFFFFFFFFFFFFFFFFFFFFFFFFFFFFFFFFFFFFFFFF
310
FFFFFFFFFFFFFFFFF000FFFFFFFFFFFFFFFFFFFFFFFFFFFFFFFFFFFFFFFFFFFF
310
FFFFFFFFFFFFFFFFFFFFFFFFFFFFFFFFFFFFFFFFFFFFFFFFFFFFFFFFFFFFFFFF
310
FFFFFFFFFFFFFFFFFFFFFFFFFFFFFFFFFFFFFFFFFFFFFFFFFFFFFFFFFFFFFFFF
310
F000FFFFFFFFFFFFFFFFFFFFFFFFFFFFFFFFFFFFFFFFFFFFFFFFFFFFFFFFFFFF
310
FFFFFFFFFFFFFFFFFFFFFFFFFFFFFFFFFFFFFFFFFFFFFFFFFFFFFFFFFFFFFFFF
310
FFFFFFFFFFFFFFFFFFFFFFFFFFFFFFFFFFFFFFFFFFFFFFFFF000FFFFFFFFFFFF
310
FFFFFFFFFFFFFFFFFFFFFFFFFFFFFFFFFFFFFFFFFFFFFFFFFFFFFFFFFFFFFFFF
310
FFFFFFFFFFFFFFFFFFFFFFFFFFFFFFFFFFFFFFFFFFFFFFFFFFFFFFFFFFFFFFFF
310
FFFFFFFFFFFFFFFFFFFFFFFFFFFFFFFFF000FFFFFFFFFFFFFFFFFFFFFFFFFFFF
310
FFFFFFFFFFFFFFFFFFFFFFFFFFFFFFFFFFFFFFFFFFFFFFFFFFFFFFFFFFFFFFFF
310
FFFFFFFFFFFFFFFFFFFFFFFFFFFFFFFFFFFFFFFFFFFFFFFFFFFFFFFFFFFFFFFF
310
FFFFFFFFFFFFFFFFF000FFFFFFFFFFFFFFFFFFFFFFFFFFFFFFFFFFFFFFFFFFFF
310
FFFFFFFFFFFFFFFFFFFFFFFFFFFFFFFFFFFFFFFFFFFFFFFFFFFFFFFFFFFFFFFF
310
FFFFFFFFFFFFFFFFFFFFFFFFFFFFFFFFFFFFFFFFFFFFFFFFFFFFFFFFFFFFFFFF
310
F000FFFFFFFFFFFFFFFFFFFFFFFFFFFFFFFFFFFFFFFFFFFFFFFFFFFFFFFFFFFF
310
FFFFFFFFFFFFFFFFFFFFFFFFFFFFFFFFFFFFFFFFFFFFFFFFFFFFFFFFFFFFFFFF
310
FFFFFFFFFFFFFFFFFFFFFFFFFFFFFFFFFFFFFFFFFFFFFFFFF000FFFFFFFFFFFF
310
FFFFFFFFFFFFFFFFFFFFFFFFFFFFFFFFFFFFFFFFFFFFFFFFFFFFFFFFFFFFFFFF
310
FFFFFFFFFFFFFFFFFFFFFFFFFFFFFFFFFFFFFFFFFFFFFFFFFFFFFFFFFFFFFFFF
310
FFFFFFFFFFFFFFFFFFFFFFFFFFFFFFFFF000FFFFFFFFFFFFFFFFFFFFFFFFFFFF
310
FFFFFFFFFFFFFFFFFFFFFFFFFFFFFFFFFFFFFFFFFFFFFFFFFFFFFFFFFFFFFFFF
310
FFFFFFFFFFFFFFFFFFFFFFFFFFFFFFFFFFFFFFFFFFFFFFFFFFFFFFFFFFFFFFFF
310
FFFFFFFFFFFFFFFFF000FFFFFFFFFFFFFFFFFFFFFFFFFFFFFFFFFFFFFFFFFFFF
310
FFFFFFFFFFFFFFFFFFFFFFFFFFFFFFFFFFFFFFFFFFFFFFFFFFFFFFFFFFFFFFFF
310
FFFFFFFFFFFFFFFFFFFFFFFFFFFFFFFFFFFFFFFFFFFFFFFFFFFFFFFFFFFFFFFF
310
F000FFFFFFFFFFFFFFFFFFFFFFFFFFFFFFFFFFFFFFFFFFFFFFFFFFFFFFFFFFFF
310
FFFFFFFFFFFFFFFFFFFFFFFFFFFFFFFFFFFFFFFFFFFFFFFFFFFFFFFFFFFFFFFF
310
FFFFFFFFFFFFFFFFFFFFFFFFFFFFFFFFFFFFFFFFFFFFFFFFF000FFFFFFFFFFFF
310
FFFFFFFFFFFFFFFFFFFFFFFFFFFFFFFFFFFFFFFFFFFFFFFFFFFFFFFFFFFFFFFF
310
FFFFFFFFFFFFFFFFFFFFFFFFFFFFFFFFFFFFFFFFFFFFFFFFFFFFFFFFFFFFFFFF
310
FFFFFFFFFFFFFFFFFFFFFFFFFFFFFFFFF000FFFFFFFFFFFFFFFFFFFFFFFFFFFF
310
FFFFFFFFFFFFFFFFFFFFFFFFFFFFFFFFFFFFFFFFFFFFFFFFFFFFFFFFFFFFFFFF
310
FFFFFFFFFFFFFFFFFFFFFFFFFFFFFFFFFFFFFFFFFFFFFFFFFFFFFFFFFFFFFFFF
310
FFFFFFFFFFFFFFFFF000FFFFF80003FFFFFFFFFFFFFFFFFFFFFFFFFFFFFFFFFF
310
FFFFF00007FFFFFFFFFF00007FFFFFF800000000000000007FFFFFFFFFFFFFFF
310
FFFFFFFC001FFFFFFFFFFFFFFC001FFFFFFFFFFFFFFFFFFFFFFFFFFE0007FFFF
310
F000FFFF8000007FFFFFFFF8000FFFFFC0007FFFFF80007FFFFF0000007FFFFF
310
FFF8000007FFFFF800000000000000007FFFFFF0001FFFFFFFFFFFC00001FFFF
310
FFFFFFFFC00001FFFFFFFF000000000003FFFFE000007FFFF000FFFE0000000F
310
FFFFFFF0000FFFFF80007FFFFF80007FFFFC0000001FFFFFFFC0000001FFFFF8
310
00000000000000007FFFFFF0001FFFFFFFFFFE0000003FFFFFFFFFFE0000003F
310
FFFFFF000000000003FFFF0000000FFFF000FFF800000003FFFFFFF00007FFFF
310
80007FFFFF80007FFFF000000007FFFFFF000000003FFFF80000000000000000
310
7FFFFFF0001FFFFFFFFFF80000000FFFFFFFFFF80000000FFFFFFF0000000000
310
03FFFC00000003FFF000FFE000000000FFFFFFF00007FFFF80003FFFFF80007F
310
FFC000000001FFFFFC000000001FFFF800000000000000007FFFFFF0001FFFFF
310
FFFFE000000003FFFFFFFFE000000003FFFFFF000000000003FFF000000000FF
310
F000FF80000000007FFFFFF00007FFFF80003FFFFF80007FFF8000000000FFFF
310
F80000000007FFF800000000000000007FFFFFF0001FFFFFFFFFC000000001FF
310
FFFFFFC000000001FFFFFF000000000003FFC0000000007FF000FF0000000000
310
3FFFFFE00007FFFF00003FFFFF80007FFE00000000003FFFF00000000003FFF8
310
00000000000000007FFFFFF0001FFFFFFFFF8000000000FFFFFFFF8000000000
310
FFFFFF000000000003FF80000000003FF000FE00000000001FFFFFE00003FFFF
310
00003FFFFF80007FFC00000000001FFFE00000000001FFF8000001FFFE000000
310
7FFFFFF0001FFFFFFFFE00000000003FFFFFFE00000000003FFFFF0000000000
310
03FF00000000001FF000FC00000000000FFFFFE00003FFFF00001FFFFF80007F
310
F800000000001FFFC00000000000FFF8000001FFFE0000007FFFFFF0001FFFFF
310
FFFC00000000001FFFFFFC00000000001FFFFF000000000003FE00000000000F
310
F000F8000000000007FFFFE00003FFFF00001FFFFF80007FF800000000000FFF
310
800000000000FFF8000001FFFE0000007FFFFFF0001FFFFFFFF800000000000F
310
FFFFF800000000000FFFFF000000000003FC000000000007F000F80000000000
310
03FFFFC00003FFFE00001FFFFF80007FF0000000000007FF0000000000007FF8
310
000001FFFE0000007FFFFFF0001FFFFFFFF0000000000007FFFFF00000000000
310
07FFFF000000000003F8000000000003F000F0000000000003FFFFC00001FFFE
310
00001FFFFF80007FE0000000000007FE0000000000003FF8000001FFFE000000
310
7FFFFFF0001FFFFFFFF0000000000007FFFFF0000000000007FFFF0000000000
310
03F800001F800003F000E00001FFF00001FFFFC00001FFFE00000FFFFF80007F
310
E00001FFE00003FE00001FFF00003FF8000001FFFE0000007FFFFFF0001FFFFF
310
FFE000003E000003FFFFE000003E000003FFFF000000000003F00001FFF80001
310
F000E00007FFFC0001FFFFC00001FFFE00000FFFFF80007FC0000FFFFC0003FC
310
0000FFFFC0001FF8000001FFFE0000007FFFFFF0001FFFFFFFC00003FFE00001
310
FFFFC00003FFE00001FFFF0001FFFFFFFFF00007FFFE0001F000E0000FFFFF00
310
00FFFF800001FFFC00000FFFFF80007FC0001FFFFE0001FC0001FFFFE0001FF8
310
000001FFFE0000007FFFFFF0001FFFFFFF80000FFFF80000FFFF80000FFFF800
310
00FFFF0003FFFFFFFFE0000FFFFF8000F000C0003FFFFF8000FFFF800000FFFC
310
000007FFFF80007F80003FFFFF0001FC0003FFFFF0001FF8000001FFFE000000
310
7FFFFFF0001FFFFFFF80003FFFFE0000FFFF80003FFFFE0000FFFF0003FFFFFF
310
FFE0003FFFFF8000F000C0003FFFFF8000FFFF800000FFFC000007FFFF80007F
310
80007FFFFF8001F80007FFFFF8000FF8000001FFFE0000007FFFFFF0001FFFFF
310
FF00007FFFFF00007FFF00007FFFFF00007FFF0003FFFFFFFFE0003FFFFFC000
310
F000C0007FFFFFC000FFFF000000FFFC000007FFFF80007F8000FFFFFF8000F8
310
000FFFFFF8000FF8000001FFFE0000007FFFFFF0001FFFFFFF0000FFFFFF8000
310
7FFF0000FFFFFF80007FFF0003FFFFFFFFC0007FFFFFC00070008000FFFFFFC0
310
00FFFF000000FFF8000007FFFF80007F8000FFFFFF8000F8000FFFFFF8000FF8
310
000001FFFE0000007FFFFFF0001FFFFFFE0001FFFFFFC0003FFE0001FFFFFFC0
310
003FFF0003FFFFFFFFC0007FFFFFE00070008000FFFFFFC0007FFF0000007FF8
310
000003FFFF80007F0001FFFFFF8000F8000FFFFFF8000FF8000001FFFE000000
310
7FFFFFF0001FFFFFFE0001FFFFFFC0003FFE0001FFFFFFC0003FFF0003FFFFFF
310
FFC000FFFFFFE00070008000FFFFFFC0007FFF0000007FF8000003FFFF80007F
310
0001FFFFFF8000F8001FFFFFF8000FF8000001FFFE0000007FFFFFF0001FFFFF
310
FE0003FFFFFFE0003FFE0003FFFFFFE0003FFF0003FFFFFFFFC000FFFFFFE000
310
70008000FFFFFFC0007FFE0000007FF8000003FFFF80007F0001FFFFFF8000F0
310
001FFFFFF8000FF8000001FFFE0000007FFFFFF0001FFFFFFC0003FFFFFFE000
310
1FFC0003FFFFFFE0001FFF0003FFFFFFFFC000FFFFFFC00070008000FFFFFF80
310
007FFE0000007FF0000003FFFF80007F0001FFFFFF0000F0001FFFFFF8000FF8
310
000001FFFE0000007FFFFFF0001FFFFFFC0007FFFFFFF0001FFC0007FFFFFFF0
310
001FFF0003FFFFFFFFC000FFFFFFC00070008001FFFFFF0000FFFE0000003FF0
310
000001FFFF80007F0001FFFFFF0000F8001FFFFFF0000FF8000001FFFE000000
310
7FFFFFF0001FFFFFFC0007FFFFFFF0001FFC0007FFFFFFF0001FFF0003FFFFFF
310
FFC001FFFFFF80007000FFFFFFFFFE0000FFFE0008003FF0008001FFFF80007F
310
FFFFFFFFFC0000FFFFFFFFFFE0000FF8000001FFFE0000007FFFFFF0001FFFFF
310
F8000FFFFFFFF8000FF8000FFFFFFFF8000FFF0003FFFFFFFFFFFFFFFFFF0000
310
7000FFFFFFFFFC0000FFFC0008003FF0008001FFFF80007FFFFFFFFFF80001FF
310
FFFFFFFF80000FF8000001FFFE0000007FFFFFF0001FFFFFF8000FFFFFFFF800
310
0FF8000FFFFFFFF8000FFF0003FFFFFFFFFFFFFFFFFE0000F000FFFFFFFFE000
310
00FFFC000C003FE000C001FFFF80007FFFFFFFFFC00001FFFFFFFFFE00001FF8
310
000001FFFE0000007FFFFFF0001FFFFFF8000FFFFFFFF8000FF8000FFFFFFFF8
310
000FFF0003FFFFFFFFFFFFFFFFF00000F000FFFFFFFE000001FFFC000C001FE0
310
00C000FFFF80007FFFFFFFFE000001FFFFFFFFE000001FF80FFFFFFFFFFFFFC0
310
7FFFFFF0001FFFFFF8000FFFFFFFF8000FF8000FFFFFFFF8000FFF0003FFFFFF
310
FFFFFFFFFF800000F000FFFFFFC0000001FFFC001C001FE001C000FFFF80007F
310
FFFFFF80000003FFFFFFF80000001FF80FFFFFFFFFFFFFC07FFFFFF0001FFFFF
310
F8001FFFFFFFFC000FF8001FFFFFFFFC000FFF0003FFFFFFFFFFFFFFF0000001
310
F000FFFFF800000001FFF8001C001FE001C000FFFF80007FFFFFF800000003FF
310
FFFF800000003FF80FFFFFFFFFFFFFC07FFFFFF0001FFFFFF8001FFFFFFFFC00
310
0FF8001FFFFFFFFC000FFF0003FFFFFFFFFFFFFE00000001F000FFFFC0000000
310
03FFF8001E001FC001E000FFFF80007FFFFF8000000007FFFFFC000000003FF8
310
0FFFFFFFFFFFFFC07FFFFFF0001FFFFFF8001FFFFFFFFC000FF8001FFFFFFFFC
310
000FFF0003FFFFFFFFFFFFE000000003F000FFFE0000000007FFF8001E000FC0
310
01E0007FFF80007FFFFE0000000007FFFFE0000000007FF80FFFFFFFFFFFFFC0
310
7FFFFFF0001FFFFFF0001FFFFFFFFC0007F0001FFFFFFFFC0007FF0003FFFFFF
310
FFFFFF0000000003F000FFF80000000007FFF8001E000FC003E0007FFF80007F
310
FFF0000000000FFFFF8000000000FFF80FFFFFFFFFFFFFC07FFFFFF0001FFFFF
310
F0001FFFFFFFFC0007F0001FFFFFFFFC0007FF0003FFFFFFFFFFFC0000000007
310
F000FFE0000000000FFFF0003E000FC003E0007FFF80007FFFC0000000001FFF
310
FE0000000001FFF80FFFFFFFFFFFFFC07FFFFFF0001FFFFFF0001FFFFFFFFC00
310
07F0001FFFFFFFFC0007FF0003FFFFFFFFFFF0000000000FF000FFC000000000
310
1FFFF0003F000F8003F0003FFF80007FFF80000000003FFFF80000000003FFF8
310
0FFFFFFFFFFFFFC07FFFFFF0001FFFFFF0001FFFFFFFFC0007F0001FFFFFFFFC
310
0007FF0003FFFFFFFFFFE0000000001FF000FF00000000007FFFF0003F000780
310
03F0003FFF80007FFF00000000007FFFF00000000007FFF80FFFFFFFFFFFFFC0
310
7FFFFFF0001FFFFFF0001FFFFFFFFC0007F0001FFFFFFFFC0007FF0003FFFFFF
310
FFFF80000000007FF000FE0000000000FFFFE0003F00078007F0003FFF80007F
310
FE0000000001FFFFE0000000001FFFF80FFFFFFFFFFFFFC07FFFFFF0001FFFFF
310
F0001FFFFFFFFC0007F0001FFFFFFFFC0007FF0003FFFFFFFFFF0000000000FF
310
F000FC0000000003FFFFE0007F00078007F0003FFF80007FFC0000000007FFFF
310
C0000000007FFFF80FFFFFFFFFFFFFC07FFFFFF0001FFFFFF8001FFFFFFFFC00
310
0FF8001FFFFFFFFC000FFF0003FFFFFFFFFE0000000003FFF000FC000000000F
310
FFFFE0007F80070007F8001FFF80007FF8000000001FFFFF8000000001FFFFF8
310
0FFFFFFFFFFFFFC07FFFFFF0001FFFFFF8001FFFFFFFFC000FF8001FFFFFFFFC
310
000FFF0003FFFFFFFFFC000000000FFFF000F8000000007FFFFFE0007F800700
310
07F8001FFF80007FF000000000FFFFFF800000000FFFFFF80FFFFFFFFFFFFFC0
310
7FFFFFF0001FFFFFF8000FFFFFFFF8000FF8000FFFFFFFF8000FFF0003FFFFFF
310
FFFC000000007FFFF000F800000007FFFFFFC0007F8003000FF8001FFF80007F
310
F000000007FFFFFF000000007FFFFFF80FFFFFFFFFFFFFC07FFFFFF0001FFFFF
310
F8000FFFFFFFF8000FF8000FFFFFFFF8000FFF0003FFFFFFFFF80000000FFFFF
310
F000F0000000FFFFFFFFC000FF8003000FF8001FFF80007FE0000000FFFFFFFF
310
0000000FFFFFFFF8000001FFFE0000007FFFFFF0001FFFFFF8000FFFFFFFF800
310
0FF8000FFFFFFFF8000FFF0003FFFFFFFFF8000000FFFFFFF000F000000FFFFF
310
FFFFC000FFC002000FF8000FFF80007FE000001FFFFFFFFE000001FFFFFFFFF8
310
000001FFFE0000007FFFFFF0001FFFFFF8000FFFFFFFF8000FF8000FFFFFFFF8
310
000FFF0003FFFFFFFFF000001FFFFFFFF000E00000FFFFFFFFFFC000FFC00200
310
0FFC000FFF80007FE00001FFFFFFFFFE00001FFFFFFFFFF8000001FFFE000000
310
7FFFFFF0001FFFFFFC000FFFFFFFF8001FFC000FFFFFFFF8001FFF0003FFFFFF
310
FFF00001FFFFFFFFF000E00007FFFFFFFFFF8000FFC000001FFC000FFF80007F
310
C0000FFFFFFFFFFE0000FFFFFFFFFFF8000001FFFE0000007FFFFFF0001FFFFF
310
FC0007FFFFFFF0001FFC0007FFFFFFF0001FFF0003FFFFFFFFF00007FFFFFFFF
310
F000E0001FFFFFFFFFFF8000FFC000001FFC000FFF80007FC0003FFFFFFFFFFE
310
0001FFFFFFFFFFF8000001FFFE0000007FFFFFF0001FFFFFFC0007FFFFFFF000
310
1FFC0007FFFFFFF0001FFF0003FFFFFFFFF0001FFFFFFFFFF000E0003FFFFF00
310
03FF8001FFE000001FFC0007FF80007FC0007FFFFF0007FC0003FFFFF0003FF8
310
000001FFFE0000007FFFFFF0001FFFFFFC0003FFFFFFE0001FFC0003FFFFFFE0
310
001FFF0003FFFFFFFFF0003FFFFFFFFFF000E0003FFFFF0001FF8001FFE00000
310
1FFE0007FF80007FC0007FFFFE0003FC0007FFFFE0003FF8000001FFFE000000
310
7FFFFFF0001FFFFFFE0003FFFFFFE0003FFE0003FFFFFFE0003FFF0003FFFFFF
310
FFF0003FFFFF8001F000E0003FFFFF0001FF0001FFE000001FFE0007FF80007F
310
C0007FFFFE0003FC0007FFFFE0003FF8000001FFFE0000007FFFFFF0001FFFFF
310
FE0001FFFFFFC0003FFE0001FFFFFFC0003FFF0003FFFFFFFFF0003FFFFF0001
310
F000E0003FFFFF0003FF0001FFE000003FFE0007FF80007FC0007FFFFE0003FC
310
0007FFFFE0003FF8000001FFFE0000007FFFFFF0001FFFFFFF0001FFFFFFC000
310
7FFF0001FFFFFFC0007FFF0003FFFFFFFFF0003FFFFF0001F000E0003FFFFE00
310
03FF0003FFF000003FFE0003FF80007FC0007FFFFC0003FE0007FFFFE0003FF8
310
000001FFFE0000007FFFFFF0001FFFFFFF0000FFFFFF80007FFF0000FFFFFF80
310
007FFF0003FFFFFFFFF0003FFFFF0001F000E0003FFFFE0003FF0003FFF00000
310
3FFF0003FF80007FC0007FFFFC0007FE0007FFFFC0003FF8000001FFFE000000
310
7FFFFFF0001FFFFFFF80007FFFFF0000FFFF80007FFFFF0000FFFF0003FFFFFF
310
FFF0003FFFFF0003F000E0003FFFFC0003FE0003FFF000003FFF0003FF80007F
310
E0003FFFF80007FE0003FFFFC0007FF8000001FFFE0000007FFFFFF0001FFFFF
310
FF80003FFFFE0000FFFF80003FFFFE0000FFFF0003FFFFFFFFF0001FFFFE0003
310
F000F0001FFFF80003FE0003FFF000007FFF0001FF80007FE0003FFFF00007FE
310
0001FFFF80007FF8000001FFFE0000007FFFFFF0001FFFFFFFC0000FFFF80001
310
FFFFC0000FFFF80001FFFF0003FFFFFFFFF0001FFFFC0003F000F0000FFFF000
310
07FE0007FFF800007FFF0001FF80007FE0001FFFE00007FF0000FFFE00007FF8
310
000001FFFE0000007FFFFFF0001FFFFFFFC00003FFE00001FFFFC00003FFE000
310
01FFFF0003FFFFFFFFF8000FFFF80003F000F00003FFC00007FC0007FFF80000
310
7FFF8001FF80007FF00007FF80000FFF00007FF80000FFF8000001FFFE000000
310
7F80000000000001FFE000003E000003FFFFE000003E000003FFFF0003FFFFFF
310
FFF80003FFE00007F000F800000000000FFC0007FFF800007FFF8001FF80007F
310
F000000000000FFF000000000000FFF8000001FFFE0000007F80000000000001
310
FFF0000000000007FFFFF0000000000007FFFF0003FFFFFFFFFC00007E000007
310
F000F800000000000FFC0007FFF80000FFFF8000FF80007FF800000000001FFF
310
800000000001FFF8000001FFFE0000007F80000000000001FFF800000000000F
310
FFFFF800000000000FFFFF0003FFFFFFFFFC00000000000FF000FC0000000000
310
1FFC0007FFFC0000FFFF8000FF80007FF800000000003FFFC00000000001FFF8
310
000001FFFE0000007F80000000000001FFF800000000000FFFFFF80000000000
310
0FFFFF0003FFFFFFFFFE00000000001FF000FE00000000003FF8000FFFFC0000
310
FFFF8000FF80007FFC00000000003FFFC00000000003FFF8000001FFFE000000
310
7F80000000000001FFFC00000000001FFFFFFC00000000001FFFFF0003FFFFFF
310
FFFF00000000001FF000FF00000000003FF8000FFFFC0000FFFFC000FF80007F
310
FE00000000007FFFE00000000007FFF8000001FFFE0000007F80000000000001
310
FFFE00000000003FFFFFFE00000000003FFFFF0003FFFFFFFFFF80000000003F
310
F000FF80000000007FF8000FFFFC0001FFFFC0007F80007FFF0000000000FFFF
310
F0000000000FFFF800000000000000007F80000000000001FFFF8000000000FF
310
FFFFFF8000000000FFFFFF0003FFFFFFFFFFC0000000007FF000FFC000000000
310
FFF8000FFFFE0001FFFFC0007F80007FFF8000000001FFFFF8000000001FFFF8
310
00000000000000007F80000000000001FFFFC000000001FFFFFFFFC000000001
310
FFFFFF0003FFFFFFFFFFE000000000FFF000FFE000000003FFF0001FFFFE0001
310
FFFFC0007F80007FFFC000000007FFFFFE000000003FFFF80000000000000000
310
7F80000000000001FFFFE000000003FFFFFFFFE000000003FFFFFF0003FFFFFF
310
FFFFF000000003FFF000FFF80000000FFFF0001FFFFE0001FFFFE0007F80007F
310
FFF00000000FFFFFFF00000000FFFFF800000000000000007F80000000000001
310
FFFFF80000000FFFFFFFFFF80000000FFFFFFF0003FFFFFFFFFFFC0000000FFF
310
F000FFFE0000003FFFF0001FFFFE0003FFFFE0003F80007FFFFC0000003FFFFF
310
FFC0000003FFFFF800000000000000007F80000000000001FFFFFE0000003FFF
310
FFFFFFFE0000003FFFFFFF0003FFFFFFFFFFFF0000003FFFF000FFFF800000FF
310
FFF0001FFFFF0003FFFFE0003F80007FFFFF000001FFFFFFFFF800001FFFFFF8
310
00000000000000007F80000000000001FFFFFFC00001FFFFFFFFFFFFC00001FF
310
FFFFFF0003FFFFFFFFFFFFC00000FFFFF000FFFFF8000FFFFFFFFFFFFFFFFFFF
310
FFFFFFFFFFFFFFFFFFFFF0001FFFFFFFFFFF0000FFFFFFF80000000000000000
310
7FFFFFFFFFFFFFFFFFFFFFFC001FFFFFFFFFFFFFFC001FFFFFFFFFFFFFFFFFFF
310
FFFFFFFC001FFFFFF000FFFFFFFFFFFFFFFFFFFFFFFFFFFFFFFFFFFFFFFFFFFF
310
FFFFFFFFFFFFFFFFFFFFFFFFFFFFFFFFFFFFFFFFFFFFFFFFFFFFFFFFFFFFFFFF
310
FFFFFFFFFFFFFFFFFFFFFFFFFFFFFFFFFFFFFFFFFFFFFFFFFFFFFFFFFFFFFFFF
310
F000FFFFFFFFFFFFFFFFFFFFFFFFFFFFFFFFFFFFFFFFFFFFFFFFFFFFFFFFFFFF
310
FFFFFFFFFFFFFFFFFFFFFFFFFFFFFFFFFFFFFFFFFFFFFFFFFFFFFFFFFFFFFFFF
310
FFFFFFFFFFFFFFFFFFFFFFFFFFFFFFFFFFFFFFFFFFFFFFFFF000FFFFFFFFFFFF
310
FFFFFFFFFFFFFFFFFFFFFFFFFFFFFFFFFFFFFFFFFFFFFFFFFFFFFFFFFFFFFFFF
310
FFFFFFFFFFFFFFFFFFFFFFFFFFFFFFFFFFFFFFFFFFFFFFFFFFFFFFFFFFFFFFFF
310
FFFFFFFFFFFFFFFFFFFFFFFFFFFFFFFFF000FFFFFFFFFFFFFFFFFFFFFFFFFFFF
310
FFFFFFFFFFFFFFFFFFFFFFFFFFFFFFFFFFFFFFFFFFFFFFFFFFFFFFFFFFFFFFFF
310
FFFFFFFFFFFFFFFFFFFFFFFFFFFFFFFFFFFFFFFFFFFFFFFFFFFFFFFFFFFFFFFF
310
FFFFFFFFFFFFFFFFF000FFFFFFFFFFFFFFFFFFFFFFFFFFFFFFFFFFFFFFFFFFFF
310
FFFFFFFFFFFFFFFFFFFFFFFFFFFFFFFFFFFFFFFFFFFFFFFFFFFFFFFFFFFFFFFF
310
FFFFFFFFFFFFFFFFFFFFFFFFFFFFFFFFFFFFFFFFFFFFFFFFFFFFFFFFFFFFFFFF
310
F000FFFFFFFFFFFFFFFFFFFFFFFFFFFFFFFFFFFFFFFFFFFFFFFFFFFFFFFFFFFF
310
FFFFFFFFFFFFFFFFFFFFFFFFFFFFFFFFFFFFFFFFFFFFFFFFFFFFFFFFFFFFFFFF
310
FFFFFFFFFFFFFFFFFFFFFFFFFFFFFFFFFFFFFFFFFFFFFFFFF000FFFFFFFFFFFF
310
FFFFFFFFFFFFFFFFFFFFFFFFFFFFFFFFFFFFFFFFFFFFFFFFFFFFFFFFFFFFFFFF
310
FFFFFFFFFFFFFFFFFFFFFFFFFFFFFFFFFFFFFFFFFFFFFFFFFFFFFFFFFFFFFFFF
310
FFFFFFFFFFFFFFFFFFFFFFFFFFFFFFFFF000FFFFFFFFFFFFFFFFFFFFFFFFFFFF
310
FFFFFFFFFFFFFFFFFFFFFFFFFFFFFFFFFFFFFFFFFFFFFFFFFFFFFFFFFFFFFFFF
310
FFFFFFFFFFFFFFFFFFFFFFFFFFFFFFFFFFFFFFFFFFFFFFFFFFFFFFFFFFFFFFFF
310
FFFFFFFFFFFFFFFFF000FFFFFFFFFFFFFFFFFFFFFFFFFFFFFFFFFFFFFFFFFFFF
310
FFFFFFFFFFFFFFFFFFFFFFFFFFFFFFFFFFFFFFFFFFFFFFFFFFFFFFFFFFFFFFFF
310
FFFFFFFFFFFFFFFFFFFFFFFFFFFFFFFFFFFFFFFFFFFFFFFFFFFFFFFFFFFFFFFF
310
F000FFFFFFFFFFFFFFFFFFFFFFFFFFFFFFFFFFFFFFFFFFFFFFFFFFFFFFFFFFFF
310
FFFFFFFFFFFFFFFFFFFFFFFFFFFFFFFFFFFFFFFFFFFFFFFFFFFFFFFFFFFFFFFF
310
FFFFFFFFFFFFFFFFFFFFFFFFFFFFFFFFFFFFFFFFFFFFFFFFF000FFFFFFFFFFFF
310
FFFFFFFFFFFFFFFFFFFFFFFFFFFFFFFFFFFFFFFFFFFFFFFFFFFFFFFFFFFFFFFF
310
FFFFFFFFFFFFFFFFFFFFFFFFFFFFFFFFFFFFFFFFFFFFFFFFFFFFFFFFFFFFFFFF
310
FFFFFFFFFFFFFFFFFFFFFFFFFFFFFFFFF000FFFFFFFFFFFFFFFFFFFFFFFFFFFF
310
FFFFFFFFFFFFFFFFFFFFFFFFFFFFFFFFFFFFFFFFFFFFFFFFFFFFFFFFFFFFFFFF
310
FFFFFFFFFFFFFFFFFFFFFFFFFFFFFFFFFFFFFFFFFFFFFFFFFFFFFFFFFFFFFFFF
310
FFFFFFFFFFFFFFFFF000FFFFFFFFFFFFFFFFFFFFFFFFFFFFFFFFFFFFFFFFFFFF
310
FFFFFFFFFFFFFFFFFFFFFFFFFFFFFFFFFFFFFFFFFFFFFFFFFFFFFFFFFFFFFFFF
310
FFFFFFFFFFFFFFFFFFFFFFFFFFFFFFFFFFFFFFFFFFFFFFFFFFFFFFFFFFFFFFFF
310
F000FFFFFFFFFFFFFFFFFFFFFFFFFFFFFFFFFFFFFFFFFFFFFFFFFFFFFFFFFFFF
310
FFFFFFFFFFFFFFFFFFFFFFFFFFFFFFFFFFFFFFFFFFFFFFFFFFFFFFFFFFFFFFFF
310
FFFFFFFFFFFFFFFFFFFFFFFFFFFFFFFFFFFFFFFFFFFFFFFFF000FFFFFFFFFFFF
310
FFFFFFFFFFFFFFFFFFFFFFFFFFFFFFFFFFFFFFFFFFFFFFFFFFFFFFFFFFFFFFFF
310
FFFFFFFFFFFFFFFFFFFFFFFFFFFFFFFFFFFFFFFFFFFFFFFFFFFFFFFFFFFFFFFF
310
FFFFFFFFFFFFFFFFFFFFFFFFFFFFFFFFF000FFFFFFFFFFFFFFFFFFFFFFFFFFFF
310
FFFFFFFFFFFFFFFFFFFFFFFFFFFFFFFFFFFFFFFFFFFFFFFFFFFFFFFFFFFFFFFF
310
FFFFFFFFFFFFFFFFFFFFFFFFFFFFFFFFFFFFFFFFFFFFFFFFFFFFFFFFFFFFFFFF
310
FFFFFFFFFFFFFFFFF000FFFFFFFFFFFFFFFFFFFFFFFFFFFFFFFFFFFFFFFFFFFF
310
FFFFFFFFFFFFFFFFFFFFFFFFFFFFFFFFFFFFFFFFFFFFFFFFFFFFFFFFFFFFFFFF
310
FFFFFFFFFFFFFFFFFFFFFFFFFFFFFFFFFFFFFFFFFFFFFFFFFFFFFFFFFFFFFFFF
310
F000FFFFFFFFFFFFFFFFFFFFFFFFFFFFFFFFFFFFFFFFFFFFFFFFFFFFFFFFFFFF
310
FFFFFFFFFFFFFFFFFFFFFFFFFFFFFFFFFFFFFFFFFFFFFFFFFFFFFFFFFFFFFFFF
310
FFFFFFFFFFFFFFFFFFFFFFFFFFFFFFFFFFFFFFFFFFFFFFFFF000FFFFFFFFFFFF
310
FFFFFFFFFFFFFFFFFFFFFFFFFFFFFFFFFFFFFFFFFFFFFFFFFFFFFFFFFFFFFFFF
310
FFFFFFFFFFFFFFFFFFFFFFFFFFFFFFFFFFFFFFFFFFFFFFFFFFFFFFFFFFFFFFFF
310
FFFFFFFFFFFFFFFFFFFFFFFFFFFFFFFFF000FFFFFFFFFFFFFFFFFFFFFFFFFFFF
310
FFFFFFFFFFFFFFFFFFFFFFFFFFFFFFFFFFFFFFFFFFFFFFFFFFFFFFFFFFFFFFFF
310
FFFFFFFFFFFFFFFFFFFFFFFFFFFFFFFFFFFFFFFFFFFFFFFFFFFFFFFFFFFFFFFF
310
FFFFFFFFFFFFFFFFF000FFFFFFFFFFFFFFFFFFFFFFFFFFFFFFFFFFFFFFFFFFFF
310
FFFFFFFFFFFFFFFFFFFFFFFFFFFFFFFFFFFFFFFFFFFFFFFFFFFFFFFFFFFFFFFF
310
FFFFFFFFFFFFFFFFFFFFFFFFFFFFFFFFFFFFFFFFFFFFFFFFFFFFFFFFFFFFFFFF
310
F000FFFFFFFFFFFFFFFFFFFFFFFFFFFFFFFFFFFFFFFFFFFFFFFFFFFFFFFFFFFF
310
FFFFFFFFFFFFFFFFFFFFFFFFFFFFFFFFFFFFFFFFFFFFFFFFFFFFFFFFFFFFFFFF
310
FFFFFFFFFFFFFFFFFFFFFFFFFFFFFFFFFFFFFFFFFFFFFFFFF000FFFFFFFFFFFF
310
FFFFFFFFFFFFFFFFFFFFFFFFFFFFFFFFFFFFFFFFFFFFFFFFFFFFFFFFFFFFFFFF
310
FFFFFFFFFFFFFFFFFFFFFFFFFFFFFFFFFFFFFFFFFFFFFFFFFFFFFFFFFFFFFFFF
310
FFFFFFFFFFFFFFFFFFFFFFFFFFFFFFFFF0000000000000000000000000000000
310
0000000000000000000000000000000000000000000000000000000000000000
310
0000000000000000000000000000000000000000000000000000000000000000
310
0000000000000000000000000000000000000000000000000000000000000000
310
0000000000000000000000000000000000000000000000000000000000000000
310
0000000000000000000000000000000000000000000000000000000000000000
310
0000000000000000000000000000000000000000000000000000000000000000
310
0000000000000000000000000000000000000000000000000000000000000000
310
0000000000000000000000000000000000000000000000000000000000000000
310
0000000000000000000000000000000000000000000000000000000000000000
310
0000000000000000000000000000000000000000000000000000000000000000
310
0000000000000000000000000000000000000000000000000000000000000000
310
0000000000000000000000000000000000000000000000000000000000000000
310
0000000000000000000000000000000000000000000000000000000000000000
310
0000000000000000000000000000000000000000000000000000000000000000
310
0000000000000000000000000000000000000000000000000000000000000000
  1
OLE
  0
ENDSEC
  0
SECTION
  2
OBJECTS
  0
DICTIONARY
  5
C
330
0
100
AcDbDictionary
281
     1
  3
ACAD_GROUP
350
D
  3
ACAD_LAYOUT
350
1A
  3
ACAD_MLINESTYLE
350
17
  3
ACAD_PLOTSETTINGS
350
19
  3
ACAD_PLOTSTYLENAME
350
E
  0
DICTIONARY
  5
D
102
{ACAD_REACTORS
330
C
102
}
330
C
100
AcDbDictionary
281
     1
  0
DICTIONARY
  5
1A
102
{ACAD_REACTORS
330
C
102
}
330
C
100
AcDbDictionary
281
     1
  3
Layout1
350
1E
  3
Layout2
350
26
  3
Model
350
22
  0
DICTIONARY
  5
17
102
{ACAD_REACTORS
330
C
102
}
330
C
100
AcDbDictionary
281
     1
  3
Standard
350
18
  0
DICTIONARY
  5
19
102
{ACAD_REACTORS
330
C
102
}
330
C
100
AcDbDictionary
281
     1
  0
ACDBDICTIONARYWDFLT
  5
E
102
{ACAD_REACTORS
330
C
102
}
330
C
100
AcDbDictionary
281
     1
  3
Normal
350
F
100
AcDbDictionaryWithDefault
340
F
  0
LAYOUT
  5
1E
102
{ACAD_REACTORS
330
1A
102
}
330
1A
100
AcDbPlotSettings
  1

  2
none_device
  4

  6

 40
0.0
 41
0.0
 42
0.0
 43
0.0
 44
0.0
 45
0.0
 46
0.0
 47
0.0
 48
0.0
 49
0.0
140
0.0
141
0.0
142
1.0
143
1.0
 70
   688
 72
     0
 73
     0
 74
     5
  7

 75
    16
147
1.0
148
0.0
149
0.0
100
AcDbLayout
  1
Layout1
 70
     1
 71
     1
 10
0.0
 20
0.0
 11
420.0
 21
297.0
 12
0.0
 22
0.0
 32
0.0
 14
1.0000000000E+20
 24
1.0000000000E+20
 34
1.0000000000E+20
 15
-1.0000000000E+20
 25
-1.0000000000E+20
 35
-1.0000000000E+20
146
0.0
 13
0.0
 23
0.0
 33
0.0
 16
1.0
 26
0.0
 36
0.0
 17
0.0
 27
1.0
 37
0.0
 76
     0
330
1B
  0
LAYOUT
  5
26
102
{ACAD_REACTORS
330
1A
102
}
330
1A
100
AcDbPlotSettings
  1

  2
none_device
  4

  6

 40
0.0
 41
0.0
 42
0.0
 43
0.0
 44
0.0
 45
0.0
 46
0.0
 47
0.0
 48
0.0
 49
0.0
140
0.0
141
0.0
142
1.0
143
1.0
 70
   688
 72
     0
 73
     0
 74
     5
  7

 75
    16
147
1.0
148
0.0
149
0.0
100
AcDbLayout
  1
Layout2
 70
     1
 71
     2
 10
0.0
 20
0.0
 11
0.0
 21
0.0
 12
0.0
 22
0.0
 32
0.0
 14
0.0
 24
0.0
 34
0.0
 15
0.0
 25
0.0
 35
0.0
146
0.0
 13
0.0
 23
0.0
 33
0.0
 16
1.0
 26
0.0
 36
0.0
 17
0.0
 27
1.0
 37
0.0
 76
     0
330
23
  0
LAYOUT
  5
22
102
{ACAD_REACTORS
330
1A
102
}
330
1A
100
AcDbPlotSettings
  1

  2
none_device
  4

  6

 40
0.0
 41
0.0
 42
0.0
 43
0.0
 44
0.0
 45
0.0
 46
0.0
 47
0.0
 48
0.0
 49
0.0
140
0.0
141
0.0
142
1.0
143
1.0
 70
  1712
 72
     0
 73
     0
 74
     0
  7

 75
     0
147
1.0
148
0.0
149
0.0
100
AcDbLayout
  1
Model
 70
     1
 71
     0
 10
0.0
 20
0.0
 11
297.0
 21
210.0
 12
0.0
 22
0.0
 32
0.0
 14
0.0
 24
0.0
 34
0.0
 15
297.0
 25
210.0
 35
0.0
146
0.0
 13
0.0
 23
0.0
 33
0.0
 16
1.0
 26
0.0
 36
0.0
 17
0.0
 27
1.0
 37
0.0
 76
     0
330
1F
331
29
  0
MLINESTYLE
  5
18
102
{ACAD_REACTORS
330
17
102
}
330
17
100
AcDbMlineStyle
  2
Standard
 70
     0
  3

 62
   256
 51
90.0
 52
90.0
 71
     2
 49
0.5
 62
   256
  6
BYLAYER
 49
-0.5
 62
   256
  6
BYLAYER
  0
ACDBPLACEHOLDER
  5
F
102
{ACAD_REACTORS
330
E
102
}
330
E
  0
ENDSEC
  0
EOF
