  0
SECTION
  2
HEADER
  9
$ACADVER
  1
AC1015
  9
$ACADMAINTVER
 70
     6
  9
$DWGCODEPAGE
  3
ANSI_1252
  9
$INSBASE
 10
0.0
 20
0.0
 30
0.0
  9
$EXTMIN
 10
0.0
 20
0.0
 30
0.0
  9
$EXTMAX
 10
297.0
 20
210.0
 30
0.0
  9
$LIMMIN
 10
0.0
 20
0.0
  9
$LIMMAX
 10
297.0
 20
210.0
  9
$ORTHOMODE
 70
     0
  9
$REGENMODE
 70
     1
  9
$FILLMODE
 70
     1
  9
$QTEXTMODE
 70
     0
  9
$MIRRTEXT
 70
     1
  9
$LTSCALE
 40
1.0
  9
$ATTMODE
 70
     1
  9
$TEXTSIZE
 40
2.0
  9
$TRACEWID
 40
1.0
  9
$TEXTSTYLE
  7
Standard
  9
$CLAYER
  8
0
  9
$CELTYPE
  6
ByLayer
  9
$CECOLOR
 62
   256
  9
$CELTSCALE
 40
1.0
  9
$DISPSILH
 70
     0
  9
$DIMSCALE
 40
1.0
  9
$DIMASZ
 40
3.0
  9
$DIMEXO
 40
0.0
  9
$DIMDLI
 40
3.75
  9
$DIMRND
 40
0.0
  9
$DIMDLE
 40
0.0
  9
$DIMEXE
 40
1.0
  9
$DIMTP
 40
0.0
  9
$DIMTM
 40
0.0
  9
$DIMTXT
 40
2.0
  9
$DIMCEN
 40
2.5
  9
$DIMTSZ
 40
0.0
  9
$DIMTOL
 70
     0
  9
$DIMLIM
 70
     0
  9
$DIMTIH
 70
     1
  9
$DIMTOH
 70
     1
  9
$DIMSE1
 70
     0
  9
$DIMSE2
 70
     0
  9
$DIMTAD
 70
     1
  9
$DIMZIN
 70
     0
  9
$DIMBLK
  1

  9
$DIMASO
 70
     1
  9
$DIMSHO
 70
     1
  9
$DIMPOST
  1

  9
$DIMAPOST
  1

  9
$DIMALT
 70
     0
  9
$DIMALTD
 70
     3
  9
$DIMALTF
 40
0.0393700787
  9
$DIMLFAC
 40
1.0
  9
$DIMTOFL
 70
     1
  9
$DIMTVP
 40
0.0
  9
$DIMTIX
 70
     0
  9
$DIMSOXD
 70
     0
  9
$DIMSAH
 70
     0
  9
$DIMBLK1
  1

  9
$DIMBLK2
  1

  9
$DIMSTYLE
  2
ISO-25
  9
$DIMCLRD
 70
     0
  9
$DIMCLRE
 70
     0
  9
$DIMCLRT
 70
     0
  9
$DIMTFAC
 40
1.0
  9
$DIMGAP
 40
1.524
  9
$DIMJUST
 70
     0
  9
$DIMSD1
 70
     0
  9
$DIMSD2
 70
     0
  9
$DIMTOLJ
 70
     0
  9
$DIMTZIN
 70
     0
  9
$DIMALTZ
 70
     0
  9
$DIMALTTZ
 70
     0
  9
$DIMUPT
 70
     0
  9
$DIMDEC
 70
     2
  9
$DIMTDEC
 70
     3
  9
$DIMALTU
 70
     2
  9
$DIMALTTD
 70
     3
  9
$DIMTXSTY
  7
Standard
  9
$DIMAUNIT
 70
     0
  9
$DIMADEC
 70
     2
  9
$DIMALTRND
 40
0.0
  9
$DIMAZIN
 70
     0
  9
$DIMDSEP
 70
    44
  9
$DIMATFIT
 70
     3
  9
$DIMFRAC
 70
     0
  9
$DIMLDRBLK
  1

  9
$DIMLUNIT
 70
     2
  9
$DIMLWD
 70
    -2
  9
$DIMLWE
 70
    -2
  9
$DIMTMOVE
 70
     0
  9
$LUNITS
 70
     2
  9
$LUPREC
 70
     2
  9
$SKETCHINC
 40
1.0
  9
$FILLETRAD
 40
10.0
  9
$AUNITS
 70
     0
  9
$AUPREC
 70
     2
  9
$MENU
  1
.
  9
$ELEVATION
 40
0.0
  9
$PELEVATION
 40
0.0
  9
$THICKNESS
 40
0.0
  9
$LIMCHECK
 70
     0
  9
$CHAMFERA
 40
10.0
  9
$CHAMFERB
 40
10.0
  9
$CHAMFERC
 40
20.0
  9
$CHAMFERD
 40
0.0
  9
$SKPOLY
 70
     0
  9
$TDCREATE
 40
2456073.345139259
  9
$TDUCREATE
 40
2456073.261805926
  9
$TDUPDATE
 40
2456073.345140533
  9
$TDUUPDATE
 40
2456073.261807199
  9
$TDINDWG
 40
0.0000000116
  9
$TDUSRTIMER
 40
0.0000000116
  9
$USRTIMER
 70
     1
  9
$ANGBASE
 50
0.0
  9
$ANGDIR
 70
     0
  9
$PDMODE
 70
     0
  9
$PDSIZE
 40
-1.0
  9
$PLINEWID
 40
0.0
  9
$SPLFRAME
 70
     0
  9
$SPLINETYPE
 70
     6
  9
$SPLINESEGS
 70
     8
  9
$HANDSEED
  5
3DE
  9
$SURFTAB1
 70
     6
  9
$SURFTAB2
 70
     6
  9
$SURFTYPE
 70
     6
  9
$SURFU
 70
     6
  9
$SURFV
 70
     6
  9
$UCSBASE
  2

  9
$UCSNAME
  2

  9
$UCSORG
 10
0.0
 20
0.0
 30
0.0
  9
$UCSXDIR
 10
1.0
 20
0.0
 30
0.0
  9
$UCSYDIR
 10
0.0
 20
1.0
 30
0.0
  9
$UCSORTHOREF
  2

  9
$UCSORTHOVIEW
 70
     0
  9
$UCSORGTOP
 10
0.0
 20
0.0
 30
0.0
  9
$UCSORGBOTTOM
 10
0.0
 20
0.0
 30
0.0
  9
$UCSORGLEFT
 10
0.0
 20
0.0
 30
0.0
  9
$UCSORGRIGHT
 10
0.0
 20
0.0
 30
0.0
  9
$UCSORGFRONT
 10
0.0
 20
0.0
 30
0.0
  9
$UCSORGBACK
 10
0.0
 20
0.0
 30
0.0
  9
$PUCSBASE
  2

  9
$PUCSNAME
  2

  9
$PUCSORG
 10
0.0
 20
0.0
 30
0.0
  9
$PUCSXDIR
 10
1.0
 20
0.0
 30
0.0
  9
$PUCSYDIR
 10
0.0
 20
1.0
 30
0.0
  9
$PUCSORTHOREF
  2

  9
$PUCSORTHOVIEW
 70
     0
  9
$PUCSORGTOP
 10
0.0
 20
0.0
 30
0.0
  9
$PUCSORGBOTTOM
 10
0.0
 20
0.0
 30
0.0
  9
$PUCSORGLEFT
 10
0.0
 20
0.0
 30
0.0
  9
$PUCSORGRIGHT
 10
0.0
 20
0.0
 30
0.0
  9
$PUCSORGFRONT
 10
0.0
 20
0.0
 30
0.0
  9
$PUCSORGBACK
 10
0.0
 20
0.0
 30
0.0
  9
$USERI1
 70
     0
  9
$USERI2
 70
     0
  9
$USERI3
 70
     0
  9
$USERI4
 70
     0
  9
$USERI5
 70
     0
  9
$USERR1
 40
0.0
  9
$USERR2
 40
0.0
  9
$USERR3
 40
0.0
  9
$USERR4
 40
0.0
  9
$USERR5
 40
0.0
  9
$WORLDVIEW
 70
     1
  9
$SHADEDGE
 70
     3
  9
$SHADEDIF
 70
    70
  9
$TILEMODE
 70
     1
  9
$MAXACTVP
 70
    64
  9
$PINSBASE
 10
0.0
 20
0.0
 30
0.0
  9
$PLIMCHECK
 70
     0
  9
$PEXTMIN
 10
1.0000000000E+20
 20
1.0000000000E+20
 30
1.0000000000E+20
  9
$PEXTMAX
 10
-1.0000000000E+20
 20
-1.0000000000E+20
 30
-1.0000000000E+20
  9
$PLIMMIN
 10
0.0
 20
0.0
  9
$PLIMMAX
 10
420.0
 20
297.0
  9
$UNITMODE
 70
     0
  9
$VISRETAIN
 70
     1
  9
$PLINEGEN
 70
     0
  9
$PSLTSCALE
 70
     1
  9
$TREEDEPTH
 70
  3020
  9
$CMLSTYLE
  2
Standard
  9
$CMLJUST
 70
     0
  9
$CMLSCALE
 40
20.0
  9
$PROXYGRAPHICS
 70
     1
  9
$MEASUREMENT
 70
     1
  9
$CELWEIGHT
370
    -1
  9
$ENDCAPS
280
     0
  9
$JOINSTYLE
280
     0
  9
$LWDISPLAY
290
     1
  9
$INSUNITS
 70
     4
  9
$HYPERLINKBASE
  1

  9
$STYLESHEET
  1

  9
$XEDIT
290
     1
  9
$CEPSNTYPE
380
     0
  9
$PSTYLEMODE
290
     1
  9
$FINGERPRINTGUID
  2
{8C66BFAF-3B02-477D-9E88-73A37D4279F4}
  9
$VERSIONGUID
  2
{FAEB1C32-E019-11D5-929B-00C0DF256EC4}
  9
$EXTNAMES
290
     1
  9
$PSVPSCALE
 40
0.0
  9
$OLESTARTUP
290
     0
  0
ENDSEC
  0
SECTION
  2
CLASSES
  0
CLASS
  1
ACDBDICTIONARYWDFLT
  2
AcDbDictionaryWithDefault
  3
ObjectDBX Classes
 90
        0
280
     0
281
     0
  0
CLASS
  1
VISUALSTYLE
  2
AcDbVisualStyle
  3
ObjectDBX Classes
 90
     4095
280
     0
281
     0
  0
CLASS
  1
MATERIAL
  2
AcDbMaterial
  3
ObjectDBX Classes
 90
     1153
280
     0
281
     0
  0
CLASS
  1
ACDBPLACEHOLDER
  2
AcDbPlaceHolder
  3
ObjectDBX Classes
 90
        0
280
     0
281
     0
  0
CLASS
  1
LAYOUT
  2
AcDbLayout
  3
ObjectDBX Classes
 90
        0
280
     0
281
     0
  0
ENDSEC
  0
SECTION
  2
TABLES
  0
TABLE
  2
VPORT
  5
8
330
0
100
AcDbSymbolTable
 70
     1
  0
VPORT
  5
29
330
8
100
AcDbSymbolTableRecord
100
AcDbViewportTableRecord
  2
*Active
 70
     0
 10
0.0
 20
0.0
 11
1.0
 21
1.0
 12
148.5
 22
105.0
 13
0.0
 23
0.0
 14
10.0
 24
10.0
 15
10.0
 25
10.0
 16
0.0
 26
0.0
 36
1.0
 17
0.0
 27
0.0
 37
0.0
 40
210.0
 41
1.4142857143
 42
50.0
 43
0.0
 44
0.0
 50
0.0
 51
0.0
 71
     0
 72
  2000
 73
     1
 74
     3
 75
     0
 76
     0
 77
     0
 78
     0
281
     0
 65
     1
110
0.0
120
0.0
130
0.0
111
1.0
121
0.0
131
0.0
112
0.0
122
1.0
132
0.0
 79
     0
146
0.0
  0
ENDTAB
  0
TABLE
  2
LTYPE
  5
5
330
0
100
AcDbSymbolTable
 70
     6
  0
LTYPE
  5
14
330
5
100
AcDbSymbolTableRecord
100
AcDbLinetypeTableRecord
  2
ByBlock
 70
     0
  3

 72
    65
 73
     0
 40
0.0
  0
LTYPE
  5
15
330
5
100
AcDbSymbolTableRecord
100
AcDbLinetypeTableRecord
  2
ByLayer
 70
     0
  3

 72
    65
 73
     0
 40
0.0
  0
LTYPE
  5
16
330
5
100
AcDbSymbolTableRecord
100
AcDbLinetypeTableRecord
  2
Continuous
 70
     0
  3
Solid line
 72
    65
 73
     0
 40
0.0
  0
LTYPE
  5
3F
330
5
100
AcDbSymbolTableRecord
100
AcDbLinetypeTableRecord
  2
HIDDEN
 70
     0
  3
Hidden __ __ __ __ __ __ __ __ __ __ __ __ __ __
 72
    65
 73
     2
 40
1.905
 49
1.27
 74
     0
 49
-0.635
 74
     0
  0
LTYPE
  5
40
330
5
100
AcDbSymbolTableRecord
100
AcDbLinetypeTableRecord
  2
PHANTOM
 70
     0
  3
Phantom ______  __  __  ______  __  __  ______
 72
    65
 73
     6
 40
12.7
 49
6.35
 74
     0
 49
-1.27
 74
     0
 49
1.27
 74
     0
 49
-1.27
 74
     0
 49
1.27
 74
     0
 49
-1.27
 74
     0
  0
LTYPE
  5
41
330
5
100
AcDbSymbolTableRecord
100
AcDbLinetypeTableRecord
  2
CENTER
 70
     0
  3
Center ____ _ ____ _ ____ _ ____ _ ____ _ ____
 72
    65
 73
     4
 40
10.16
 49
6.35
 74
     0
 49
-1.27
 74
     0
 49
1.27
 74
     0
 49
-1.27
 74
     0
  0
LTYPE
  5
42
330
5
100
AcDbSymbolTableRecord
100
AcDbLinetypeTableRecord
  2
CENTERX2
 70
     0
  3
Center (2x) ________  __  ________  __  _____
 72
    65
 73
     4
 40
20.32
 49
12.7
 74
     0
 49
-2.54
 74
     0
 49
2.54
 74
     0
 49
-2.54
 74
     0
  0
LTYPE
  5
43
330
5
100
AcDbSymbolTableRecord
100
AcDbLinetypeTableRecord
  2
DOT2
 70
     0
  3
Dot (.5x) ........................................
 72
    65
 73
     2
 40
0.635
 49
0.0
 74
     0
 49
-0.635
 74
     0
  0
ENDTAB
  0
TABLE
  2
LAYER
  5
2
330
0
100
AcDbSymbolTable
 70
     5
  0
LAYER
  5
10
330
2
100
AcDbSymbolTableRecord
100
AcDbLayerTableRecord
  2
0
 70
     0
 62
     7
  6
Continuous
370
    -3
390
F
  0
LAYER
  5
44
330
2
100
AcDbSymbolTableRecord
100
AcDbLayerTableRecord
  2
FORMAT
 70
     0
 62
     7
  6
Continuous
370
    -3
390
F
  0
LAYER
  5
45
330
2
100
AcDbSymbolTableRecord
100
AcDbLayerTableRecord
  2
VERMASSUNG
 70
     0
 62
     7
  6
Continuous
370
    -3
390
F
  0
LAYER
  5
46
330
2
100
AcDbSymbolTableRecord
100
AcDbLayerTableRecord
  2
KOPF_DÜNN
 70
     0
 62
     7
  6
Continuous
370
    -3
390
F
  0
LAYER
  5
47
330
2
100
AcDbSymbolTableRecord
100
AcDbLayerTableRecord
  2
KOPF_DICK
 70
     0
 62
     7
  6
Continuous
370
    15
390
F
  0
ENDTAB
  0
TABLE
  2
STYLE
  5
3
330
0
100
AcDbSymbolTable
 70
     3
  0
STYLE
  5
11
330
3
100
AcDbSymbolTableRecord
100
AcDbTextStyleTableRecord
  2
Standard
 70
     0
 40
0.0
 41
1.0
 50
0.0
 71
     0
 42
2.0
  3
txt
  4

  0
STYLE
  5
48
330
3
100
AcDbSymbolTableRecord
100
AcDbTextStyleTableRecord
  2
SLDTEXTSTYLE0
 70
     0
 40
0.0
 41
0.7
 50
0.0
 71
     0
 42
0.2
  3
TXT
  4

  0
STYLE
  5
4C
330
3
100
AcDbSymbolTableRecord
100
AcDbTextStyleTableRecord
  2
SLDTEXTSTYLE1
 70
     0
 40
0.0
 41
0.645
 50
0.0
 71
     0
 42
0.2
  3
TXT
  4

  0
ENDTAB
  0
TABLE
  2
VIEW
  5
6
330
0
100
AcDbSymbolTable
 70
     0
  0
ENDTAB
  0
TABLE
  2
UCS
  5
7
330
0
100
AcDbSymbolTable
 70
     0
  0
ENDTAB
  0
TABLE
  2
APPID
  5
9
330
0
100
AcDbSymbolTable
 70
     1
  0
APPID
  5
12
330
9
100
AcDbSymbolTableRecord
100
AcDbRegAppTableRecord
  2
ACAD
 70
     0
  0
ENDTAB
  0
TABLE
  2
DIMSTYLE
  5
A
330
0
100
AcDbSymbolTable
 70
     3
100
AcDbDimStyleTable
  0
DIMSTYLE
105
27
330
A
100
AcDbSymbolTableRecord
100
AcDbDimStyleTableRecord
  2
ISO-25
 70
     0
 41
2.5
 42
0.625
 43
3.75
 44
1.25
 73
     0
 74
     0
 77
     1
 78
     8
140
2.5
141
2.5
143
0.0393700787
147
0.625
171
     3
172
     1
178
     0
271
     2
272
     2
274
     3
278
    44
283
     0
284
     8
340
11
  0
DIMSTYLE
105
20D
102
{ACAD_REACTORS
330
20C
102
}
330
A
100
AcDbSymbolTableRecord
100
AcDbDimStyleTableRecord
  2
SLDDIMSTYLE0
 70
     0
 41
3.0
 44
0.0
 45
0.000000001
 47
0.1
 48
0.1
 71
     1
 73
     0
 74
     0
 77
     1
 78
    12
 79
     3
140
2.0
147
0.5
173
     1
178
     0
271
     2
272
     1
276
     2
284
     8
340
48
  0
DIMSTYLE
105
21A
102
{ACAD_REACTORS
330
219
330
3D0
102
}
330
A
100
AcDbSymbolTableRecord
100
AcDbDimStyleTableRecord
  2
SLDDIMSTYLE1
 70
     0
 41
3.0
 44
0.0
 45
0.000000001
 73
     0
 74
     0
 77
     1
 78
    12
 79
     3
140
2.0
147
0.5
173
     1
178
     0
271
     2
272
     3
276
     2
284
    12
340
48
  0
ENDTAB
  0
TABLE
  2
BLOCK_RECORD
  5
1
330
0
100
AcDbSymbolTable
 70
     4
  0
BLOCK_RECORD
  5
1F
330
1
100
AcDbSymbolTableRecord
100
AcDbBlockTableRecord
  2
*Model_Space
340
22
  0
BLOCK_RECORD
  5
1B
330
1
100
AcDbSymbolTableRecord
100
AcDbBlockTableRecord
  2
*Paper_Space
340
1E
  0
BLOCK_RECORD
  5
23
330
1
100
AcDbSymbolTableRecord
100
AcDbBlockTableRecord
  2
*Paper_Space0
340
26
  0
BLOCK_RECORD
  5
20E
330
1
100
AcDbSymbolTableRecord
100
AcDbBlockTableRecord
  2
_D
340
0
  0
BLOCK_RECORD
  5
21B
330
1
100
AcDbSymbolTableRecord
100
AcDbBlockTableRecord
  2
_D_1
340
0
  0
BLOCK_RECORD
  5
3D1
330
1
100
AcDbSymbolTableRecord
100
AcDbBlockTableRecord
  2
_D_2
340
0
  0
ENDTAB
  0
ENDSEC
  0
SECTION
  2
BLOCKS
  0
BLOCK
  5
20
330
1F
100
AcDbEntity
  8
0
100
AcDbBlockBegin
  2
*Model_Space
 70
     0
 10
0.0
 20
0.0
 30
0.0
  3
*Model_Space
  1

  0
ENDBLK
  5
21
330
1F
100
AcDbEntity
  8
0
100
AcDbBlockEnd
  0
BLOCK
  5
1C
330
1B
100
AcDbEntity
 67
     1
  8
0
100
AcDbBlockBegin
  2
*Paper_Space
 70
     0
 10
0.0
 20
0.0
 30
0.0
  3
*Paper_Space
  1

  0
ENDBLK
  5
1D
330
1B
100
AcDbEntity
 67
     1
  8
0
100
AcDbBlockEnd
  0
BLOCK
  5
24
330
23
100
AcDbEntity
  8
0
100
AcDbBlockBegin
  2
*Paper_Space0
 70
     0
 10
0.0
 20
0.0
 30
0.0
  3
*Paper_Space0
  1

  0
ENDBLK
  5
25
330
23
100
AcDbEntity
  8
0
100
AcDbBlockEnd
  0
BLOCK
  5
20F
330
20E
100
AcDbEntity
  8
0
100
AcDbBlockBegin
  2
_D
 70
     0
 10
0.0
 20
0.0
 30
0.0
  3
_D
  1

  0
SOLID
  5
211
330
20E
100
AcDbEntity
  8
VERMASSUNG
100
AcDbTrace
 10
249.0034447031
 20
191.4246603328
 30
0.0
 11
246.0034447031
 21
191.8746603328
 31
0.0
 12
246.0034447031
 22
190.9746603328
 32
0.0
 13
246.0034447031
 23
190.9746603328
 33
0.0
  0
SOLID
  5
212
330
20E
100
AcDbEntity
  8
VERMASSUNG
100
AcDbTrace
 10
119.0034447031
 20
191.4246603328
 30
0.0
 11
122.0034447031
 21
190.9746603328
 31
0.0
 12
122.0034447031
 22
191.8746603328
 32
0.0
 13
122.0034447031
 23
191.8746603328
 33
0.0
  0
LINE
  5
213
330
20E
100
AcDbEntity
  8
VERMASSUNG
100
AcDbLine
 10
249.0034447031
 20
154.2095316586
 30
0.0
 11
249.0034447031
 21
192.4246603328
 31
0.0
  0
LINE
  5
214
330
20E
100
AcDbEntity
  8
VERMASSUNG
100
AcDbLine
 10
119.0034447031
 20
180.9246603328
 30
0.0
 11
119.0034447031
 21
192.4246603328
 31
0.0
  0
LINE
  5
215
330
20E
100
AcDbEntity
  8
VERMASSUNG
100
AcDbLine
 10
249.0034447031
 20
191.4246603328
 30
0.0
 11
119.0034447031
 21
191.4246603328
 31
0.0
  0
MTEXT
  5
216
330
20E
100
AcDbEntity
  8
VERMASSUNG
100
AcDbMText
 10
178.9534444341
 20
194.0027956959
 30
0.1
 40
2.0
 41
0.0
 71
     1
 72
     1
  1
130
  7
SLDTEXTSTYLE0
 73
     1
 44
1.0
  0
MTEXT
  5
217
330
20E
100
AcDbEntity
  8
VERMASSUNG
100
AcDbMText
 10
185.7409447001
 20
194.0027956959
 30
0.1
 40
2.0
 41
0.0
 71
     1
 72
     1
  1

  7
SLDTEXTSTYLE0
 73
     1
 44
1.0
  0
MTEXT
  5
218
330
20E
100
AcDbEntity
  8
VERMASSUNG
100
AcDbMText
 10
185.7534449899
 20
193.5082618331
 30
0.1
 40
1.5
 41
0.0
 71
     1
 72
     1
  1
±0.1
  7
SLDTEXTSTYLE0
 73
     1
 44
1.0
  0
ENDBLK
  5
210
330
20E
100
AcDbEntity
  8
0
100
AcDbBlockEnd
  0
BLOCK
  5
21C
330
21B
100
AcDbEntity
  8
0
100
AcDbBlockBegin
  2
_D_1
 70
     0
 10
0.0
 20
0.0
 30
0.0
  3
_D_1
  1

  0
SOLID
  5
21E
330
21B
100
AcDbEntity
  8
VERMASSUNG
100
AcDbTrace
 10
81.0034447031
 20
197.4246603328
 30
0.0
 11
84.0034447031
 21
196.9746603328
 31
0.0
 12
84.0034447031
 22
197.8746603328
 32
0.0
 13
84.0034447031
 23
197.8746603328
 33
0.0
  0
SOLID
  5
21F
330
21B
100
AcDbEntity
  8
VERMASSUNG
100
AcDbTrace
 10
249.0034447031
 20
197.4246603328
 30
0.0
 11
246.0034447031
 21
197.8746603328
 31
0.0
 12
246.0034447031
 22
196.9746603328
 32
0.0
 13
246.0034447031
 23
196.9746603328
 33
0.0
  0
LINE
  5
220
330
21B
100
AcDbEntity
  8
VERMASSUNG
100
AcDbLine
 10
81.0034447031
 20
170.1107761018
 30
0.0
 11
81.0034447031
 21
198.4246603328
 31
0.0
  0
LINE
  5
221
330
21B
100
AcDbEntity
  8
VERMASSUNG
100
AcDbLine
 10
249.0034447031
 20
154.2095316586
 30
0.0
 11
249.0034447031
 21
198.4246603328
 31
0.0
  0
LINE
  5
222
330
21B
100
AcDbEntity
  8
VERMASSUNG
100
AcDbLine
 10
81.0034447031
 20
197.4246603328
 30
0.0
 11
249.0034447031
 21
197.4246603328
 31
0.0
  0
MTEXT
  5
223
330
21B
100
AcDbEntity
  8
VERMASSUNG
100
AcDbMText
 10
162.2034445701
 20
200.0027956959
 30
0.1
 40
2.0
 41
0.0
 71
     1
 72
     1
  1
168
  7
SLDTEXTSTYLE0
 73
     1
 44
1.0
  0
ENDBLK
  5
21D
330
21B
100
AcDbEntity
  8
0
100
AcDbBlockEnd
  0
BLOCK
  5
3D2
330
3D1
100
AcDbEntity
  8
0
100
AcDbBlockBegin
  2
_D_2
 70
     0
 10
0.0
 20
0.0
 30
0.0
  3
_D_2
  1

  0
SOLID
  5
3D4
330
3D1
100
AcDbEntity
  8
VERMASSUNG
100
AcDbTrace
 10
71.0034447031
 20
103.6971137853
 30
0.0
 11
70.5534447031
 21
100.6971137853
 31
0.0
 12
71.4534447031
 22
100.6971137853
 32
0.0
 13
71.4534447031
 23
100.6971137853
 33
0.0
  0
SOLID
  5
3D5
330
3D1
100
AcDbEntity
  8
VERMASSUNG
100
AcDbTrace
 10
71.0034447031
 20
40.6971137853
 30
0.0
 11
71.4534447031
 21
43.6971137853
 31
0.0
 12
70.5534447031
 22
43.6971137853
 32
0.0
 13
70.5534447031
 23
43.6971137853
 33
0.0
  0
LINE
  5
3D6
330
3D1
100
AcDbEntity
  8
VERMASSUNG
100
AcDbLine
 10
119.5034447031
 20
103.6971137853
 30
0.0
 11
70.0034447031
 21
103.6971137853
 31
0.0
  0
LINE
  5
3D7
330
3D1
100
AcDbEntity
  8
VERMASSUNG
100
AcDbLine
 10
119.5034447031
 20
40.6971137853
 30
0.0
 11
70.0034447031
 21
40.6971137853
 31
0.0
  0
LINE
  5
3D8
330
3D1
100
AcDbEntity
  8
VERMASSUNG
100
AcDbLine
 10
71.0034447031
 20
103.6971137853
 30
0.0
 11
71.0034447031
 21
40.6971137853
 31
0.0
  0
MTEXT
  5
3D9
330
3D1
100
AcDbEntity
  8
VERMASSUNG
100
AcDbMText
 10
68.225309214
 20
65.792113676
 30
0.1
 40
2.0
 41
0.0
 71
     1
 72
     1
  1
PSC
  7
SLDTEXTSTYLE0
 11
-7.044195017643634E-15
 21
1.0
 31
0.0
 73
     1
 44
1.0
  0
MTEXT
  5
3DA
330
3D1
100
AcDbEntity
  8
VERMASSUNG
100
AcDbMText
 10
68.4253092235
 20
70.3921137781
 30
0.1
 40
2.0
 41
0.0
 71
     1
 72
     1
  1
%%c
  7
SLDTEXTSTYLE0
 11
-7.044195017643634E-15
 21
1.0
 31
0.0
 73
     1
 44
1.0
  0
MTEXT
  5
3DB
330
3D1
100
AcDbEntity
  8
VERMASSUNG
100
AcDbMText
 10
68.225309214
 20
74.0021142581
 30
0.1
 40
2.0
 41
0.0
 71
     1
 72
     1
  1
63
  7
SLDTEXTSTYLE0
 11
-7.044195017643634E-15
 21
1.0
 31
0.0
 73
     1
 44
1.0
  0
ENDBLK
  5
3D3
330
3D1
100
AcDbEntity
  8
0
100
AcDbBlockEnd
  0
ENDSEC
  0
SECTION
  2
ENTITIES
  0
MTEXT
  5
49
330
1F
100
AcDbEntity
  8
KOPF_DÜNN
100
AcDbMText
 10
13.8892156294
 20
23.8442973028
 30
0.0
 40
3.0
 41
0.0
 71
     1
 72
     1
  1
PS6.PCE.NMA.130
  7
SLDTEXTSTYLE0
 73
     1
 44
1.0
  0
MTEXT
  5
4A
330
1F
100
AcDbEntity
  8
VERMASSUNG
100
AcDbMText
 10
13.9329988022
 20
28.8834360957
 30
0.0
 40
3.0
 41
0.0
 71
     1
 72
     1
  1
Klemmhalter_Turning tool neutral
  7
SLDTEXTSTYLE0
 73
     1
 44
1.0
  0
MTEXT
  5
4B
330
1F
100
AcDbEntity
  8
VERMASSUNG
100
AcDbMText
 10
98.8601118557
 20
13.8365368179
 30
0.0
 40
2.0
 41
0.0
 71
     1
 72
     1
  1
Datum: 25.05.2012
  7
SLDTEXTSTYLE0
 73
     1
 44
1.0
  0
MTEXT
  5
4D
330
1F
100
AcDbEntity
  8
VERMASSUNG
100
AcDbMText
 10
13.933048693
 20
18.0482802738
 30
0.0
 40
2.0
 41
0.0
 71
     1
 72
     1
  1
PSC ø63 / CN.. 16 06.. / 50° / 80° / 50°
  7
SLDTEXTSTYLE1
 73
     1
 44
1.0
  0
MTEXT
  5
4E
330
1F
100
AcDbEntity
  8
VERMASSUNG
100
AcDbMText
 10
13.9808475933
 20
13.9090973692
 30
0.0
 40
2.0
 41
0.0
 71
     1
 72
     1
  1
Gewicht: 2545g
  7
SLDTEXTSTYLE0
 73
     1
 44
1.0
  0
LINE
  5
4F
330
1F
100
AcDbEntity
  8
0
  6
Continuous
 62
     7
370
    15
100
AcDbLine
 10
224.9316827439
 20
152.8803010551
 30
0.0
 11
224.8707480722
 21
152.3840279793
 31
0.0
  0
LINE
  5
50
330
1F
100
AcDbEntity
  8
0
  6
Continuous
 62
     7
370
    15
100
AcDbLine
 10
248.2295743724
 20
143.6219922699
 30
0.0
 11
249.0034447031
 21
149.9246603328
 31
0.0
  0
LINE
  5
51
330
1F
100
AcDbEntity
  8
0
  6
Continuous
 62
     7
370
    15
100
AcDbLine
 10
246.3767192983
 20
139.356000445
 30
0.0
 11
246.9202565698
 21
143.7827562813
 31
0.0
  0
LINE
  5
52
330
1F
100
AcDbEntity
  8
0
  6
Continuous
 62
     7
370
    15
100
AcDbLine
 10
246.0423946497
 20
139.0947974025
 30
0.0
 11
246.3767192983
 21
139.356000445
 31
0.0
  0
ARC
  5
53
330
1F
100
AcDbEntity
  8
0
  6
Continuous
 62
     7
370
    15
100
AcDbCircle
 10
119.5034447031
 20
118.9246603328
 30
0.0
 40
0.5
100
AcDbArc
 50
180.0
 51
270.0
  0
ARC
  5
54
330
1F
100
AcDbEntity
  8
0
  6
Continuous
 62
     7
370
    15
100
AcDbCircle
 10
119.5034447031
 20
180.9246603328
 30
0.0
 40
0.5
100
AcDbArc
 50
90.0
 51
180.0
  0
LINE
  5
55
330
1F
100
AcDbEntity
  8
0
  6
Continuous
 62
     7
370
    15
100
AcDbLine
 10
132.9788263474
 20
118.4246603328
 30
0.0
 11
238.4708854828
 21
118.4246603328
 31
0.0
  0
LINE
  5
56
330
1F
100
AcDbEntity
  8
0
  6
Continuous
 62
     7
370
    15
100
AcDbLine
 10
119.5034447031
 20
118.4246603328
 30
0.0
 11
129.0034447031
 21
118.4246603328
 31
0.0
  0
LINE
  5
57
330
1F
100
AcDbEntity
  8
0
  6
Continuous
 62
     7
370
    15
100
AcDbLine
 10
183.0034447031
 20
181.4246603328
 30
0.0
 11
119.5034447031
 21
181.4246603328
 31
0.0
  0
LINE
  5
58
330
1F
100
AcDbEntity
  8
0
  6
Continuous
 62
     7
370
    15
100
AcDbLine
 10
194.0072655684
 20
181.4246603328
 30
0.0
 11
188.9941060961
 21
181.4246603328
 31
0.0
  0
LWPOLYLINE
  5
59
330
1F
100
AcDbEntity
  8
0
  6
Continuous
 62
     7
370
    15
100
AcDbPolyline
 90
        3
 70
   128
 43
0.0
 10
118.8034447031
 20
127.3848400539
 10
118.9288996466
 20
127.316537939
 10
119.0034447031
 20
127.2638001808
  0
ARC
  5
5A
330
1F
100
AcDbEntity
  8
0
  6
Continuous
 62
     7
370
    15
100
AcDbCircle
 10
118.3892311407
 20
173.3746603328
 30
0.0
 40
0.9999999999999989
100
AcDbArc
 50
225.0
 51
307.8947985336
  0
ARC
  5
5B
330
1F
100
AcDbEntity
  8
0
  6
Continuous
 62
     7
370
    15
100
AcDbCircle
 10
117.003381614
 20
129.2995384371
 30
0.0
 40
0.2000000000000059
100
AcDbArc
 50
88.5608333333
 51
178.5608333333
  0
LINE
  5
5C
330
1F
100
AcDbEntity
  8
0
  6
Continuous
 62
     7
370
    15
100
AcDbLine
 10
107.9417344089
 20
129.5271985558
 30
0.0
 11
116.8034447031
 21
129.3045615482
 31
0.0
  0
LINE
  5
5D
330
1F
100
AcDbEntity
  8
0
  6
Continuous
 62
     7
370
    15
100
AcDbLine
 10
89.3693521084
 20
129.9938014443
 30
0.0
 11
99.2727581736
 21
129.744993413
 31
0.0
  0
ARC
  5
5E
330
1F
100
AcDbEntity
  8
0
  6
Continuous
 62
     7
370
    15
100
AcDbCircle
 10
118.6034447031
 20
129.2593392829
 30
0.0
 40
0.2000000000000063
100
AcDbArc
 50
0.0
 51
88.5608333333
  0
LINE
  5
5F
330
1F
100
AcDbEntity
  8
0
  6
Continuous
 62
     7
370
    15
100
AcDbLine
 10
117.0084047251
 20
129.499475348
 30
0.0
 11
118.6084678142
 21
129.4592761939
 31
0.0
  0
ARC
  5
60
330
1F
100
AcDbEntity
  8
0
  6
Continuous
 62
     7
370
    15
100
AcDbCircle
 10
117.003381614
 20
173.3497822285
 30
0.0
 40
0.1999999999999938
100
AcDbArc
 50
181.4391666667
 51
271.4391666667
  0
LINE
  5
61
330
1F
100
AcDbEntity
  8
0
  6
Continuous
 62
     7
370
    15
100
AcDbLine
 10
116.8034447031
 20
173.3447591173
 30
0.0
 11
82.5034447031
 21
172.4830237291
 31
0.0
  0
LINE
  5
62
330
1F
100
AcDbEntity
  8
0
  6
Continuous
 62
     7
370
    15
100
AcDbLine
 10
117.2091838521
 20
173.1548895881
 30
0.0
 11
117.0084047251
 21
173.1498453175
 31
0.0
  0
LINE
  5
63
330
1F
100
AcDbEntity
  8
0
  6
Continuous
 62
     7
370
    15
100
AcDbLine
 10
82.5034447031
 20
172.4830237291
 30
0.0
 11
81.0034447031
 21
171.6169983253
 31
0.0
  0
LINE
  5
64
330
1F
100
AcDbEntity
  8
0
  6
Continuous
 62
     7
370
    15
100
AcDbLine
 10
117.6821243595
 20
172.6675535516
 30
0.0
 11
117.2193792634
 21
173.1302986477
 31
0.0
  0
LINE
  5
65
330
1F
100
AcDbEntity
  8
0
  6
Continuous
 62
     7
370
    15
100
AcDbLine
 10
235.5145227519
 20
145.1832042999
 30
0.0
 11
235.9384948456
 21
145.1311470726
 31
0.0
  0
LINE
  5
66
330
1F
100
AcDbEntity
  8
0
  6
Continuous
 62
     7
370
    15
100
AcDbLine
 10
225.0735026573
 20
152.8628877593
 30
0.0
 11
236.7123651762
 21
151.4338151355
 31
0.0
  0
LINE
  5
67
330
1F
100
AcDbEntity
  8
0
  6
Continuous
 62
     7
370
    15
100
AcDbLine
 10
235.9384948456
 20
145.1311470726
 30
0.0
 11
236.4488919402
 21
145.0684781894
 31
0.0
  0
LINE
  5
68
330
1F
100
AcDbEntity
  8
0
  6
Continuous
 62
     7
370
    15
100
AcDbLine
 10
236.7123651762
 20
151.4338151355
 30
0.0
 11
237.2227622708
 21
151.3711462524
 31
0.0
  0
LINE
  5
69
330
1F
100
AcDbEntity
  8
0
  6
Continuous
 62
     7
370
    15
100
AcDbLine
 10
236.4488919402
 20
145.0684781894
 30
0.0
 11
248.0877544591
 21
143.6394055656
 31
0.0
  0
LINE
  5
6A
330
1F
100
AcDbEntity
  8
0
  6
Continuous
 62
     7
370
    15
100
AcDbLine
 10
237.2227622708
 20
151.3711462524
 30
0.0
 11
248.8616247897
 21
149.9420736286
 31
0.0
  0
LINE
  5
6B
330
1F
100
AcDbEntity
  8
0
  6
Continuous
 62
     7
370
    15
100
AcDbLine
 10
224.9316827439
 20
152.8803010551
 30
0.0
 11
225.0735026573
 21
152.8628877593
 31
0.0
  0
LINE
  5
6C
330
1F
100
AcDbEntity
  8
0
  6
Continuous
 62
     7
370
    15
100
AcDbLine
 10
248.0877544591
 20
143.6394055656
 30
0.0
 11
248.2295743724
 21
143.6219922699
 31
0.0
  0
LINE
  5
6D
330
1F
100
AcDbEntity
  8
0
  6
Continuous
 62
     7
370
    15
100
AcDbLine
 10
248.8616247897
 20
149.9420736286
 30
0.0
 11
249.0034447031
 21
149.9246603328
 31
0.0
  0
LINE
  5
6E
330
1F
100
AcDbEntity
  8
0
  6
Continuous
 62
     7
370
    15
100
AcDbLine
 10
236.8735127016
 20
140.5228474942
 30
0.0
 11
245.8448946233
 21
139.4213003042
 31
0.0
  0
LINE
  5
6F
330
1F
100
AcDbEntity
  8
0
  6
Continuous
 62
     7
370
    15
100
AcDbLine
 10
245.6169349098
 20
139.1470372899
 30
0.0
 11
236.6455529881
 21
140.2485844798
 31
0.0
  0
LINE
  5
70
330
1F
100
AcDbEntity
  8
0
  6
Continuous
 62
     7
370
    15
100
AcDbLine
 10
235.1658396172
 20
140.732523384
 30
0.0
 11
236.8735127016
 21
140.5228474942
 31
0.0
  0
LINE
  5
71
330
1F
100
AcDbEntity
  8
0
  6
Continuous
 62
     7
370
    15
100
AcDbLine
 10
236.6455529881
 20
140.2485844798
 30
0.0
 11
235.3605505365
 21
140.4063629416
 31
0.0
  0
LINE
  5
72
330
1F
100
AcDbEntity
  8
0
  6
Continuous
 62
     7
370
    15
100
AcDbLine
 10
245.8448946233
 20
139.4213003042
 30
0.0
 11
246.3767192983
 21
139.356000445
 31
0.0
  0
LINE
  5
73
330
1F
100
AcDbEntity
  8
0
  6
Continuous
 62
     7
370
    15
100
AcDbLine
 10
246.0423946497
 20
139.0947974025
 30
0.0
 11
245.6169349098
 21
139.1470372899
 31
0.0
  0
LINE
  5
74
330
1F
100
AcDbEntity
  8
0
  6
Continuous
 62
     7
370
    15
100
AcDbLine
 10
119.0034447031
 20
149.9246603328
 30
0.0
 11
119.0034447031
 21
180.9246603328
 31
0.0
  0
LINE
  5
75
330
1F
100
AcDbEntity
  8
0
  6
Continuous
 62
     7
370
    15
100
AcDbLine
 10
119.0034447031
 20
118.9246603328
 30
0.0
 11
119.0034447031
 21
149.9246603328
 31
0.0
  0
LINE
  5
76
330
1F
100
AcDbEntity
  8
0
  6
Continuous
 62
     7
370
    15
100
AcDbLine
 10
194.0072655684
 20
181.4246603328
 30
0.0
 11
199.9559908016
 21
159.2237155222
 31
0.0
  0
SPLINE
  5
77
330
1F
100
AcDbEntity
  8
0
  6
Continuous
 62
     7
370
    15
100
AcDbSpline
210
0.0
220
0.0
230
1.0
 70
     8
 71
     3
 72
    20
 73
    16
 74
     0
 42
0.00000001
 43
0.00000001
 12
1.0
 22
0.0
 32
0.0
 13
1.0
 23
0.0
 33
0.0
 40
0.0
 40
0.0
 40
0.0
 40
0.0
 40
0.25
 40
0.25
 40
0.375
 40
0.375
 40
0.5
 40
0.5
 40
0.625
 40
0.625
 40
0.75
 40
0.75
 40
0.875
 40
0.875
 40
1.0
 40
1.0
 40
1.0
 40
1.0
 10
199.9559908016142
 20
159.2237155222116
 30
0.0
 10
200.1063701621576
 20
158.6624921082539
 30
0.0
 10
200.3348020441961
 20
158.1296956138861
 30
0.0
 10
200.7987415485509
 20
157.3771336970316
 30
0.0
 10
200.9738501597257
 20
157.1351114869431
 30
0.0
 10
201.3541258054263
 20
156.6839865682605
 30
0.0
 10
201.5605325325086
 20
156.4727081668007
 30
0.0
 10
202.0063936874538
 20
156.0795914505407
 30
0.0
 10
202.248028698068
 20
155.8965886893529
 30
0.0
 10
202.7506516639127
 20
155.5723942487476
 30
0.0
 10
203.0124450174706
 20
155.4299981260525
 30
0.0
 10
203.5567739019154
 20
155.1844817665198
 30
0.0
 10
203.8409738268944
 20
155.0809182718561
 30
0.0
 10
204.4232289879382
 20
154.9177058819034
 30
0.0
 10
204.7192939740712
 20
154.8583154222702
 30
0.0
 10
205.0203296989177
 20
154.8213528829788
 30
0.0
  0
LINE
  5
78
330
1F
100
AcDbEntity
  8
0
  6
Continuous
 62
     7
370
    15
100
AcDbLine
 10
205.0203296989
 20
154.821352883
 30
0.0
 11
211.96190346
 21
153.9690347968
 31
0.0
  0
ELLIPSE
  5
79
330
1F
100
AcDbEntity
  8
0
  6
Continuous
 62
     7
370
    15
100
AcDbEllipse
 10
249.0722772965
 20
149.9246603328
 30
0.0
 11
38.34610350915744
 21
16.37948343726116
 31
0.0
210
0.0
220
0.0
230
1.0
 40
0.7016762904
 41
2.466012665176846
 42
4.153184879094386
  0
LINE
  5
7A
330
1F
100
AcDbEntity
  8
0
  6
Continuous
 62
     7
370
    15
100
AcDbLine
 10
238.4708854828
 20
118.4246603328
 30
0.0
 11
238.4716602022
 21
118.4270712336
 31
0.0
  0
ARC
  5
7B
330
1F
100
AcDbEntity
  8
0
  6
Continuous
 62
     7
370
    15
100
AcDbCircle
 10
131.003385605
 20
86.9599610776
 30
0.0
 40
31.5281947283506
100
AcDbArc
 50
86.4077040829
 51
93.6369084886
  0
SPLINE
  5
7C
330
1F
100
AcDbEntity
  8
0
  6
Continuous
 62
     7
370
    15
100
AcDbSpline
210
0.0
220
0.0
230
1.0
 70
     8
 71
     3
 72
    12
 73
     8
 74
     0
 42
0.00000001
 43
0.00000001
 12
1.0
 22
0.0
 32
0.0
 13
1.0
 23
0.0
 33
0.0
 40
0.0
 40
0.0
 40
0.0
 40
0.0
 40
0.2500000000000009
 40
0.2500000000000009
 40
0.5000000000000019
 40
0.5000000000000019
 40
1.0
 40
1.0
 40
1.0
 40
1.0
 10
129.5312015166368
 20
119.8561683739081
 30
0.0
 10
129.4681214781434
 20
119.8561683739081
 30
0.0
 10
129.408972855962
 20
119.8640743001206
 30
0.0
 10
129.310500305893
 20
119.8873994615569
 30
0.0
 10
129.2714636939082
 20
119.9021122513886
 30
0.0
 10
129.1715672271292
 20
119.9500680521195
 30
0.0
 10
129.1291463460625
 20
119.9863302086996
 30
0.0
 10
129.0981888147446
 20
120.023917872664
 30
0.0
  0
LINE
  5
7D
330
1F
100
AcDbEntity
  8
0
  6
Continuous
 62
     7
370
    15
100
AcDbLine
 10
132.4756878895
 20
119.8561683739
 30
0.0
 11
129.5312015166
 21
119.8561683739
 31
0.0
  0
SPLINE
  5
7E
330
1F
100
AcDbEntity
  8
0
  6
Continuous
 62
     7
370
    15
100
AcDbSpline
210
0.0
220
0.0
230
1.0
 70
     8
 71
     3
 72
    12
 73
     8
 74
     0
 42
0.00000001
 43
0.00000001
 12
1.0
 22
0.0
 32
0.0
 13
1.0
 23
0.0
 33
0.0
 40
0.0
 40
0.0
 40
0.0
 40
0.0
 40
0.5000000000000028
 40
0.5000000000000028
 40
0.7500000000000013
 40
0.7500000000000013
 40
1.0
 40
1.0
 40
1.0
 40
1.0
 10
132.9087005913961
 20
120.023917872664
 30
0.0
 10
132.877978349477
 20
119.986615889711
 30
0.0
 10
132.8351411349418
 20
119.9500040576646
 30
0.0
 10
132.735714110742
 20
119.9022392743794
 30
0.0
 10
132.6959619159254
 20
119.8872817588971
 30
0.0
 10
132.5979204590672
 20
119.8640918131279
 30
0.0
 10
132.5383644034797
 20
119.8561683739082
 30
0.0
 10
132.4756878895039
 20
119.8561683739082
 30
0.0
  0
ELLIPSE
  5
7F
330
1F
100
AcDbEntity
  8
0
  6
Continuous
 62
     7
370
    15
100
AcDbEllipse
 10
116.6562905137
 20
149.9246603328
 30
0.0
 11
-14.75368316065621
 21
31.09325491558116
 31
0.0
210
0.0
220
0.0
230
1.0
 40
0.3419987131
 41
3.300734856217118
 42
4.23149622336077
  0
SPLINE
  5
80
330
1F
100
AcDbEntity
  8
0
  6
Continuous
 62
     7
370
    15
100
AcDbSpline
210
0.0
220
0.0
230
1.0
 70
     8
 71
     3
 72
    12
 73
     8
 74
     0
 42
0.00000001
 43
0.00000001
 12
1.0
 22
0.0
 32
0.0
 13
1.0
 23
0.0
 33
0.0
 40
0.0
 40
0.0
 40
0.0
 40
0.0
 40
0.2500000000000009
 40
0.2500000000000009
 40
0.5000000000000018
 40
0.5000000000000018
 40
1.0
 40
1.0
 40
1.0
 40
1.0
 10
132.4756878895039
 20
140.536593901445
 30
0.0
 10
132.5387679279972
 20
140.536593901445
 30
0.0
 10
132.5979165501786
 20
140.51122958223
 30
0.0
 10
132.6963891002477
 20
140.4370647218571
 30
0.0
 10
132.7354257122324
 20
140.390544381303
 30
0.0
 10
132.8353221790115
 20
140.2404020384578
 30
0.0
 10
132.8777430600781
 20
140.1287088314856
 30
0.0
 10
132.9087005913961
 20
140.0152910120958
 30
0.0
  0
LINE
  5
81
330
1F
100
AcDbEntity
  8
0
  6
Continuous
 62
     7
370
    15
100
AcDbLine
 10
129.5312015166
 20
140.5365939014
 30
0.0
 11
132.4756878895
 21
140.5365939014
 31
0.0
  0
SPLINE
  5
82
330
1F
100
AcDbEntity
  8
0
  6
Continuous
 62
     7
370
    15
100
AcDbSpline
210
0.0
220
0.0
230
1.0
 70
     8
 71
     3
 72
    12
 73
     8
 74
     0
 42
0.00000001
 43
0.00000001
 12
1.0
 22
0.0
 32
0.0
 13
1.0
 23
0.0
 33
0.0
 40
0.0
 40
0.0
 40
0.0
 40
0.0
 40
0.4999999999999971
 40
0.4999999999999971
 40
0.7499999999999986
 40
0.7499999999999986
 40
1.0
 40
1.0
 40
1.0
 40
1.0
 10
129.0981888147446
 20
140.0152910120959
 30
0.0
 10
129.1289110566637
 20
140.127846811505
 30
0.0
 10
129.1717482711988
 20
140.2406046712446
 30
0.0
 10
129.2711752953986
 20
140.390145557041
 30
0.0
 10
129.3109274902152
 20
140.4374382887478
 30
0.0
 10
129.4089689470735
 20
140.5111745820693
 30
0.0
 10
129.4685250026609
 20
140.536593901445
 30
0.0
 10
129.5312015166368
 20
140.536593901445
 30
0.0
  0
ELLIPSE
  5
83
330
1F
100
AcDbEntity
  8
0
  6
Continuous
 62
     7
370
    15
100
AcDbEllipse
 10
145.3505988924
 20
149.9246603328
 30
0.0
 11
14.75368316065624
 21
31.09325491558118
 31
0.0
210
0.0
220
0.0
230
1.0
 40
0.3419987131
 41
2.051689083818829
 42
2.982450450962511
  0
SPLINE
  5
84
330
1F
100
AcDbEntity
  8
0
  6
Continuous
 62
     7
370
    15
100
AcDbSpline
210
0.0
220
0.0
230
1.0
 70
     8
 71
     3
 72
    12
 73
     8
 74
     0
 42
0.00000001
 43
0.00000001
 12
1.0
 22
0.0
 32
0.0
 13
1.0
 23
0.0
 33
0.0
 40
0.0
 40
0.0
 40
0.0
 40
0.0
 40
0.2500000000000001
 40
0.2500000000000001
 40
0.5000000000000001
 40
0.5000000000000001
 40
1.0
 40
1.0
 40
1.0
 40
1.0
 10
129.5312015166368
 20
159.3127267641176
 30
0.0
 10
129.4681445617389
 20
159.3127267641176
 30
0.0
 10
129.4090144119934
 20
159.3380731174982
 30
0.0
 10
129.3105668614601
 20
159.4121924996377
 30
0.0
 10
129.271534623272
 20
159.4586890143357
 30
0.0
 10
129.1716447388151
 20
159.6087635213443
 30
0.0
 10
129.1293457652057
 20
159.7198812304592
 30
0.0
 10
129.0981888147445
 20
159.8340296534667
 30
0.0
  0
LINE
  5
85
330
1F
100
AcDbEntity
  8
0
  6
Continuous
 62
     7
370
    15
100
AcDbLine
 10
132.4756878895
 20
159.3127267641
 30
0.0
 11
129.5312015166
 21
159.3127267641
 31
0.0
  0
SPLINE
  5
86
330
1F
100
AcDbEntity
  8
0
  6
Continuous
 62
     7
370
    15
100
AcDbSpline
210
0.0
220
0.0
230
1.0
 70
     8
 71
     3
 72
    12
 73
     8
 74
     0
 42
0.00000001
 43
0.00000001
 12
1.0
 22
0.0
 32
0.0
 13
1.0
 23
0.0
 33
0.0
 40
0.0
 40
0.0
 40
0.0
 40
0.0
 40
0.5000000000000064
 40
0.5000000000000064
 40
0.7500000000000032
 40
0.7500000000000032
 40
1.0
 40
1.0
 40
1.0
 40
1.0
 10
132.9087005913961
 20
159.8340296534667
 30
0.0
 10
132.877555393434
 20
159.7199242876014
 30
0.0
 10
132.8352811270996
 20
159.6088179603826
 30
0.0
 10
132.7353355932743
 20
159.4586603529523
 30
0.0
 10
132.6956052885702
 20
159.411667661335
 30
0.0
 10
132.598717238564
 20
159.3386920767964
 30
0.0
 10
132.5386519968175
 20
159.3127267641175
 30
0.0
 10
132.4756878895039
 20
159.3127267641174
 30
0.0
  0
ELLIPSE
  5
87
330
1F
100
AcDbEntity
  8
0
  6
Continuous
 62
     7
370
    15
100
AcDbEllipse
 10
116.6562905137
 20
149.9246603328
 30
0.0
 11
14.75368316065614
 21
31.09325491558119
 31
0.0
210
0.0
220
0.0
230
1.0
 40
0.3419987131
 41
5.193281737408627
 42
6.124043104552335
  0
SPLINE
  5
88
330
1F
100
AcDbEntity
  8
0
  6
Continuous
 62
     7
370
    15
100
AcDbSpline
210
0.0
220
0.0
230
1.0
 70
     8
 71
     3
 72
    12
 73
     8
 74
     0
 42
0.00000001
 43
0.00000001
 12
1.0
 22
0.0
 32
0.0
 13
1.0
 23
0.0
 33
0.0
 40
0.0
 40
0.0
 40
0.0
 40
0.0
 40
0.25
 40
0.25
 40
0.5
 40
0.5
 40
1.0
 40
1.0
 40
1.0
 40
1.0
 10
132.4756878895039
 20
179.9931522916545
 30
0.0
 10
132.5387448444017
 20
179.9931522916545
 30
0.0
 10
132.5978749941472
 20
179.9852519605749
 30
0.0
 10
132.6963225446805
 20
179.9619412125699
 30
0.0
 10
132.7353547828686
 20
179.9472360862862
 30
0.0
 10
132.8352446673256
 20
179.8993025580996
 30
0.0
 10
132.8775436409349
 20
179.8632325853349
 30
0.0
 10
132.9087005913962
 20
179.8254027928987
 30
0.0
  0
LINE
  5
89
330
1F
100
AcDbEntity
  8
0
  6
Continuous
 62
     7
370
    15
100
AcDbLine
 10
129.5312015166
 20
179.9931522917
 30
0.0
 11
132.4756878895
 21
179.9931522917
 31
0.0
  0
SPLINE
  5
8A
330
1F
100
AcDbEntity
  8
0
  6
Continuous
 62
     7
370
    15
100
AcDbSpline
210
0.0
220
0.0
230
1.0
 70
     8
 71
     3
 72
    12
 73
     8
 74
     0
 42
0.00000001
 43
0.00000001
 12
1.0
 22
0.0
 32
0.0
 13
1.0
 23
0.0
 33
0.0
 40
0.0
 40
0.0
 40
0.0
 40
0.0
 40
0.5000000000000046
 40
0.5000000000000046
 40
0.7500000000000022
 40
0.7500000000000022
 40
1.0
 40
1.0
 40
1.0
 40
1.0
 10
129.0981888147446
 20
179.8254027928987
 30
0.0
 10
129.1293340127067
 20
179.8632183158189
 30
0.0
 10
129.1716082790411
 20
179.8992851739024
 30
0.0
 10
129.2715538128664
 20
179.9472452389137
 30
0.0
 10
129.3112841175705
 20
179.9621062128114
 30
0.0
 10
129.4081721675767
 20
179.9850573589425
 30
0.0
 10
129.4682374093232
 20
179.9931522916546
 30
0.0
 10
129.5312015166367
 20
179.9931522916546
 30
0.0
  0
ELLIPSE
  5
8B
330
1F
100
AcDbEntity
  8
0
  6
Continuous
 62
     7
370
    15
100
AcDbEllipse
 10
145.3505988924
 20
149.9246603328
 30
0.0
 11
-14.75368316065618
 21
31.09325491558119
 31
0.0
210
0.0
220
0.0
230
1.0
 40
0.3419987131
 41
0.159142202627288
 42
1.08990356977097
  0
SPLINE
  5
8C
330
1F
100
AcDbEntity
  8
0
  6
Continuous
 62
     7
370
    15
100
AcDbSpline
210
0.0
220
0.0
230
1.0
 70
     8
 71
     3
 72
    37
 73
    33
 74
     0
 42
0.00000001
 43
0.00000001
 12
1.0
 22
0.0
 32
0.0
 13
1.0
 23
0.0
 33
0.0
 40
0.0
 40
0.0
 40
0.0
 40
0.0
 40
0.0262983841569508
 40
0.0527800245450726
 40
0.0798391546599968
 40
0.1070975412082472
 40
0.1600217516800282
 40
0.1868831456063853
 40
0.2141336073326279
 40
0.2672070963669317
 40
0.2941445872717865
 40
0.3214733172995695
 40
0.3478923569242027
 40
0.3744955094121259
 40
0.401680576448644
 40
0.429067296626468
 40
0.4820736747805853
 40
0.5089813403620509
 40
0.536283996863061
 40
0.5891213501898049
 40
0.6159396218343994
 40
0.6431472707187211
 40
0.6960742241846901
 40
0.7229359716608642
 40
0.7501859470108647
 40
0.8033209882823549
 40
0.8302910211599651
 40
0.8576543294354995
 40
0.910792105377694
 40
0.937766742769678
 40
0.9651380822351752
 40
1.0
 40
1.0
 40
1.0
 40
1.0
 10
183.0034447030703
 20
181.4246603327814
 30
0.0
 10
183.0054184800167
 20
181.4244720329687
 30
0.0
 10
183.0093797878697
 20
181.4240941212052
 30
0.0
 10
183.0416648879479
 20
181.4210342864694
 30
0.0
 10
183.0939079126586
 20
181.4161527515336
 30
0.0
 10
183.1915637406136
 20
181.407223378544
 30
0.0
 10
183.3291912096455
 20
181.3951221790078
 30
0.0
 10
183.5035400474075
 20
181.380866856168
 30
0.0
 10
183.7018469938262
 20
181.3655385629302
 30
0.0
 10
183.9340101503785
 20
181.3492508313749
 30
0.0
 10
184.1942131545516
 20
181.333409104025
 30
0.0
 10
184.4028919445524
 20
181.3220560330955
 30
0.0
 10
184.6220466590201
 20
181.311630272258
 30
0.0
 10
184.8505000866811
 20
181.3023756378125
 30
0.0
 10
185.0900656469243
 20
181.2944592727885
 30
0.0
 10
185.4163059715658
 20
181.2862238597614
 30
0.0
 10
185.7519005995521
 20
181.2817019370571
 30
0.0
 10
186.0889954974089
 20
181.2812483890317
 30
0.0
 10
186.4247556251602
 20
181.2835269657783
 30
0.0
 10
186.7559953609175
 20
181.2897916366022
 30
0.0
 10
187.0745846481076
 20
181.2994677481736
 30
0.0
 10
187.3832509287168
 20
181.3111767608139
 30
0.0
 10
187.6740790484043
 20
181.3254410177629
 30
0.0
 10
187.9400399694468
 20
181.3410225002242
 30
0.0
 10
188.1881163371844
 20
181.3570890644912
 30
0.0
 10
188.4066968921796
 20
181.3731857345111
 30
0.0
 10
188.5904913396424
 20
181.3879279958493
 30
0.0
 10
188.7494843905628
 20
181.4013360874267
 30
0.0
 10
188.8707564420633
 20
181.4122492238465
 30
0.0
 10
188.9492694625036
 20
181.4195327923864
 30
0.0
 10
188.9958162774155
 20
181.4239305601023
 30
0.0
 10
188.9947201348868
 20
181.4238295265126
 30
0.0
 10
188.9941060961494
 20
181.4237729293674
 30
0.0
  0
LINE
  5
8D
330
1F
100
AcDbEntity
  8
0
  6
Continuous
 62
     7
370
    15
100
AcDbLine
 10
236.7820239066
 20
150.9215072062
 30
0.0
 11
211.96190346
 21
153.9690347968
 31
0.0
  0
LINE
  5
8E
330
1F
100
AcDbEntity
  8
0
  6
Continuous
 62
     7
370
    15
100
AcDbLine
 10
236.7820239066
 20
150.9215072062
 30
0.0
 11
235.4820227223
 21
145.0360683279
 31
0.0
  0
LINE
  5
8F
330
1F
100
AcDbEntity
  8
0
  6
Continuous
 62
     7
370
    15
100
AcDbLine
 10
235.4820227223
 20
145.0360683279
 30
0.0
 11
236.0996738012
 21
144.9602303114
 31
0.0
  0
LINE
  5
90
330
1F
100
AcDbEntity
  8
0
  6
Continuous
 62
     7
370
    15
100
AcDbLine
 10
236.0996738012
 20
144.9602303114
 30
0.0
 11
235.1008395579
 21
140.4382514401
 31
0.0
  0
LINE
  5
91
330
1F
100
AcDbEntity
  8
0
  6
Continuous
 62
     7
370
    15
100
AcDbLine
 10
235.1008395579
 20
140.4382514401
 30
0.0
 11
235.3605505365
 21
140.4063629416
 31
0.0
  0
LINE
  5
92
330
1F
100
AcDbEntity
  8
0
  6
Continuous
 62
     7
370
    15
100
AcDbLine
 10
238.4716602022
 20
118.4270712336
 30
0.0
 11
245.1483080879
 21
139.2045774284
 31
0.0
  0
LINE
  5
93
330
1F
100
AcDbEntity
  8
0
  6
Continuous
 62
     7
370
    15
100
AcDbLine
 10
118.8034447031
 20
133.134458979
 30
0.0
 11
118.8034447031
 21
127.3848400539
 31
0.0
  0
SPLINE
  5
94
330
1F
100
AcDbEntity
  8
0
  6
Continuous
 62
     7
370
    15
100
AcDbSpline
210
0.0
220
0.0
230
1.0
 70
     8
 71
     3
 72
    16
 73
    12
 74
     0
 42
0.00000001
 43
0.00000001
 12
1.0
 22
0.0
 32
0.0
 13
1.0
 23
0.0
 33
0.0
 40
0.0
 40
0.0
 40
0.0
 40
0.0
 40
0.4999999999999915
 40
0.4999999999999915
 40
0.7499999999999948
 40
0.7499999999999948
 40
0.8749999999999932
 40
0.8749999999999932
 40
0.9374999999999967
 40
0.9374999999999967
 40
1.0
 40
1.0
 40
1.0
 40
1.0
 10
118.8034447030703
 20
133.1344589790402
 30
0.0
 10
118.8034447030703
 20
133.2142826900207
 30
0.0
 10
118.7992984279924
 20
133.2961388079048
 30
0.0
 10
118.7733328325989
 20
133.4249539289887
 30
0.0
 10
118.7618719272214
 20
133.4697446006903
 30
0.0
 10
118.7275601894471
 20
133.5358754084216
 30
0.0
 10
118.7135354535174
 20
133.5587224666247
 30
0.0
 10
118.6775124904837
 20
133.585153219867
 30
0.0
 10
118.662757981394
 20
133.5915808890091
 30
0.0
 10
118.6334058202471
 20
133.5945418121643
 30
0.0
 10
118.620065945743
 20
133.5915604206562
 30
0.0
 10
118.6084678141947
 20
133.5868174329749
 30
0.0
  0
SPLINE
  5
95
330
1F
100
AcDbEntity
  8
0
  6
Continuous
 62
     7
370
    15
100
AcDbSpline
210
0.0
220
0.0
230
1.0
 70
     8
 71
     3
 72
    12
 73
     8
 74
     0
 42
0.00000001
 43
0.00000001
 12
1.0
 22
0.0
 32
0.0
 13
1.0
 23
0.0
 33
0.0
 40
0.0
 40
0.0
 40
0.0
 40
0.0
 40
0.2500000000000004
 40
0.2500000000000004
 40
0.5000000000000008
 40
0.5000000000000008
 40
1.0
 40
1.0
 40
1.0
 40
1.0
 10
118.6084678142017
 20
133.5868174329695
 30
0.0
 10
118.5782759724845
 20
133.574470656875
 30
0.0
 10
118.5449170030699
 20
133.5639729704052
 30
0.0
 10
118.4717797184893
 20
133.550551915826
 30
0.0
 10
118.4315378458353
 20
133.547941504579
 30
0.0
 10
118.3138320688668
 20
133.5559119573212
 30
0.0
 10
118.2434215910874
 20
133.580999714939
 30
0.0
 10
118.1869324166191
 20
133.6102893572673
 30
0.0
  0
SPLINE
  5
96
330
1F
100
AcDbEntity
  8
0
  6
Continuous
 62
     7
370
    15
100
AcDbSpline
210
0.0
220
0.0
230
1.0
 70
     8
 71
     3
 72
    12
 73
     8
 74
     0
 42
0.00000001
 43
0.00000001
 12
1.0
 22
0.0
 32
0.0
 13
1.0
 23
0.0
 33
0.0
 40
0.0
 40
0.0
 40
0.0
 40
0.0
 40
0.2499999999999966
 40
0.2499999999999966
 40
0.4999999999999958
 40
0.4999999999999958
 40
1.0
 40
1.0
 40
1.0
 40
1.0
 10
118.1869324166187
 20
133.6102893572672
 30
0.0
 10
118.098778478881
 20
133.6559971823588
 30
0.0
 10
118.0384250542523
 20
133.7114144206781
 30
0.0
 10
117.9321630961855
 20
133.8297071477334
 30
0.0
 10
117.8899309296234
 20
133.8915022631423
 30
0.0
 10
117.7788602343062
 20
134.0829228896572
 30
0.0
 10
117.7259234578794
 20
134.2186695545427
 30
0.0
 10
117.6821243595107
 20
134.3614590883564
 30
0.0
  0
SPLINE
  5
97
330
1F
100
AcDbEntity
  8
0
  6
Continuous
 62
     7
370
    15
100
AcDbSpline
210
0.0
220
0.0
230
1.0
 70
     8
 71
     3
 72
    12
 73
     8
 74
     0
 42
0.00000001
 43
0.00000001
 12
1.0
 22
0.0
 32
0.0
 13
1.0
 23
0.0
 33
0.0
 40
0.0
 40
0.0
 40
0.0
 40
0.0
 40
0.4999999999999992
 40
0.4999999999999992
 40
0.7499999999999997
 40
0.7499999999999997
 40
1.0
 40
1.0
 40
1.0
 40
1.0
 10
117.6821243595107
 20
143.34417652268
 30
0.0
 10
117.7258709003472
 20
143.5833504497267
 30
0.0
 10
117.7787552555787
 20
143.8207933046425
 30
0.0
 10
117.8903223429149
 20
144.1696313410581
 30
0.0
 10
117.9329059394579
 20
144.2845402486686
 30
0.0
 10
118.0378226665397
 20
144.5044226935787
 30
0.0
 10
118.0993562743844
 20
144.6127836145931
 30
0.0
 10
118.1869324166106
 20
144.6997892021922
 30
0.0
  0
SPLINE
  5
98
330
1F
100
AcDbEntity
  8
0
  6
Continuous
 62
     7
370
    15
100
AcDbSpline
210
0.0
220
0.0
230
1.0
 70
     8
 71
     3
 72
    12
 73
     8
 74
     0
 42
0.00000001
 43
0.00000001
 12
1.0
 22
0.0
 32
0.0
 13
1.0
 23
0.0
 33
0.0
 40
0.0
 40
0.0
 40
0.0
 40
0.0
 40
0.4999999999999998
 40
0.4999999999999998
 40
0.7499999999999998
 40
0.7499999999999998
 40
1.0
 40
1.0
 40
1.0
 40
1.0
 10
118.1869324166138
 20
144.6997892021923
 30
0.0
 10
118.243368917521
 20
144.7558580218342
 30
0.0
 10
118.3124535482097
 20
144.8029707005886
 30
0.0
 10
118.4312558199277
 20
144.8142911470844
 30
0.0
 10
118.4714410953978
 20
144.8072902565929
 30
0.0
 10
118.5448221428016
 20
144.7770789599341
 30
0.0
 10
118.5782317065442
 20
144.7545001495525
 30
0.0
 10
118.6084678142007
 20
144.7284128281984
 30
0.0
  0
SPLINE
  5
99
330
1F
100
AcDbEntity
  8
0
  6
Continuous
 62
     7
370
    15
100
AcDbSpline
210
0.0
220
0.0
230
1.0
 70
     8
 71
     3
 72
    16
 73
    12
 74
     0
 42
0.00000001
 43
0.00000001
 12
1.0
 22
0.0
 32
0.0
 13
1.0
 23
0.0
 33
0.0
 40
0.0
 40
0.0
 40
0.0
 40
0.0
 40
0.0625000000000032
 40
0.0625000000000032
 40
0.1250000000000063
 40
0.1250000000000063
 40
0.2500000000000054
 40
0.2500000000000054
 40
0.5000000000000037
 40
0.5000000000000037
 40
1.0
 40
1.0
 40
1.0
 40
1.0
 10
118.6084678141635
 20
144.7284128281414
 30
0.0
 10
118.6200482217514
 20
144.7184214027316
 30
0.0
 10
118.6333577485127
 20
144.71016399635
 30
0.0
 10
118.6626591785989
 20
144.7044147115378
 30
0.0
 10
118.6774732784831
 20
144.7080250102459
 30
0.0
 10
118.713301680186
 20
144.7309454695286
 30
0.0
 10
118.727421304549
 20
144.7567409777741
 30
0.0
 10
118.7619254486375
 20
144.8348960021931
 30
0.0
 10
118.7730299993421
 20
144.8910388449291
 30
0.0
 10
118.7992061765583
 20
145.0619449004628
 30
0.0
 10
118.8034447030703
 20
145.1791599930417
 30
0.0
 10
118.8034447030703
 20
145.2967245922634
 30
0.0
  0
LINE
  5
9A
330
1F
100
AcDbEntity
  8
0
  6
Continuous
 62
     7
370
    15
100
AcDbLine
 10
118.8034447031
 20
171.342797427
 30
0.0
 11
118.8034447031
 21
145.2967245923
 31
0.0
  0
SPLINE
  5
9B
330
1F
100
AcDbEntity
  8
0
  6
Continuous
 62
     7
370
    15
100
AcDbSpline
210
0.0
220
0.0
230
1.0
 70
     8
 71
     3
 72
    16
 73
    12
 74
     0
 42
0.00000001
 43
0.00000001
 12
1.0
 22
0.0
 32
0.0
 13
1.0
 23
0.0
 33
0.0
 40
0.0
 40
0.0
 40
0.0
 40
0.0
 40
0.499999999999996
 40
0.499999999999996
 40
0.7499999999999974
 40
0.7499999999999974
 40
0.8749999999999991
 40
0.8749999999999991
 40
0.9374999999999994
 40
0.9374999999999994
 40
1.0
 40
1.0
 40
1.0
 40
1.0
 10
118.8034447030703
 20
171.3427974270405
 30
0.0
 10
118.8034447030703
 20
171.3800712679507
 30
0.0
 10
118.7992984279924
 20
171.4143673599693
 30
0.0
 10
118.7733328325989
 20
171.4564655491056
 30
0.0
 10
118.7618719272215
 20
171.4693791906703
 30
0.0
 10
118.7275601894471
 20
171.4810910414099
 30
0.0
 10
118.7135354535175
 20
171.484104473266
 30
0.0
 10
118.6775124904837
 20
171.4808070104902
 30
0.0
 10
118.662757981394
 20
171.4779855255023
 30
0.0
 10
118.6334058202471
 20
171.4693037845109
 30
0.0
 10
118.620065945743
 20
171.4640144669039
 30
0.0
 10
118.6084678141947
 20
171.4587507371782
 30
0.0
  0
SPLINE
  5
9C
330
1F
100
AcDbEntity
  8
0
  6
Continuous
 62
     7
370
    15
100
AcDbSpline
210
0.0
220
0.0
230
1.0
 70
     8
 71
     3
 72
    12
 73
     8
 74
     0
 42
0.00000001
 43
0.00000001
 12
1.0
 22
0.0
 32
0.0
 13
1.0
 23
0.0
 33
0.0
 40
0.0
 40
0.0
 40
0.0
 40
0.0
 40
0.2500000000000001
 40
0.2500000000000001
 40
0.5000000000000002
 40
0.5000000000000002
 40
1.0
 40
1.0
 40
1.0
 40
1.0
 10
118.6084678142018
 20
171.4587507371732
 30
0.0
 10
118.5782693727611
 20
171.4450453887538
 30
0.0
 10
118.5449020174251
 20
171.4329977833034
 30
0.0
 10
118.4717467415952
 20
171.4162377950738
 30
0.0
 10
118.4314940425712
 20
171.4118289055329
 30
0.0
 10
118.3137652992963
 20
171.4147586706304
 30
0.0
 10
118.2433068512374
 20
171.4371254308862
 30
0.0
 10
118.1869324166192
 20
171.4639024388918
 30
0.0
  0
SPLINE
  5
9D
330
1F
100
AcDbEntity
  8
0
  6
Continuous
 62
     7
370
    15
100
AcDbSpline
210
0.0
220
0.0
230
1.0
 70
     8
 71
     3
 72
    12
 73
     8
 74
     0
 42
0.00000001
 43
0.00000001
 12
1.0
 22
0.0
 32
0.0
 13
1.0
 23
0.0
 33
0.0
 40
0.0
 40
0.0
 40
0.0
 40
0.0
 40
0.5000000000000023
 40
0.5000000000000023
 40
0.7500000000000011
 40
0.7500000000000011
 40
1.0
 40
1.0
 40
1.0
 40
1.0
 10
117.6821243595107
 20
172.0683453873077
 30
0.0
 10
117.7258747113951
 20
171.9717812395492
 30
0.0
 10
117.7787648625196
 20
171.8701569763636
 30
0.0
 10
117.8903764056613
 20
171.7134025121805
 30
0.0
 10
117.9329357495648
 20
171.6605359425069
 30
0.0
 10
118.0379129849022
 20
171.5573798281926
 30
0.0
 10
118.0994802279968
 20
171.5054409123277
 30
0.0
 10
118.1869324166192
 20
171.4639024388919
 30
0.0
  0
SPLINE
  5
9E
330
1F
100
AcDbEntity
  8
0
  6
Continuous
 62
     7
370
    15
100
AcDbSpline
210
0.0
220
0.0
230
1.0
 70
     8
 71
     3
 72
    16
 73
    12
 74
     0
 42
0.00000001
 43
0.00000001
 12
1.0
 22
0.0
 32
0.0
 13
1.0
 23
0.0
 33
0.0
 40
0.0
 40
0.0
 40
0.0
 40
0.0
 40
0.2500000000000009
 40
0.2500000000000009
 40
0.3750000000000011
 40
0.3750000000000011
 40
0.5000000000000012
 40
0.5000000000000012
 40
0.7500000000000006
 40
0.7500000000000006
 40
1.0
 40
1.0
 40
1.0
 40
1.0
 10
117.6821243595107
 20
134.3614590883564
 30
0.0
 10
117.5208918820262
 20
134.8870934313694
 30
0.0
 10
117.4004120423866
 20
135.4799249589284
 30
0.0
 10
117.2780315250733
 20
136.4696966500532
 30
0.0
 10
117.2470538646758
 20
136.8165002958775
 30
0.0
 10
117.2054401270478
 20
137.5454888951176
 30
0.0
 10
117.195204214115
 20
137.9207638472068
 30
0.0
 10
117.1950158170589
 20
139.0769638934268
 30
0.0
 10
117.2351605196965
 20
139.8883199062265
 30
0.0
 10
117.3993142746361
 20
141.5941641520144
 30
0.0
 10
117.5208659250457
 20
142.4625339447113
 30
0.0
 10
117.6821243595107
 20
143.34417652268
 30
0.0
  0
LINE
  5
9F
330
1F
100
AcDbEntity
  8
0
  6
Continuous
 62
     7
370
    15
100
AcDbLine
 10
116.8034447031
 20
144.6997892022
 30
0.0
 11
116.8034447031
 21
171.6070608394
 31
0.0
  0
LINE
  5
A0
330
1F
100
AcDbEntity
  8
0
  6
Continuous
 62
     7
370
    15
100
AcDbLine
 10
82.5034447031
 20
144.6997892022
 30
0.0
 11
82.5034447031
 21
170.8607761018
 31
0.0
  0
LINE
  5
A1
330
1F
100
AcDbEntity
  8
0
  6
Continuous
 62
     7
370
    15
100
AcDbLine
 10
82.5034447031
 20
134.2134156944
 30
0.0
 11
82.5034447031
 21
144.6997892022
 31
0.0
  0
LINE
  5
A2
330
1F
100
AcDbEntity
  8
0
  6
Continuous
 62
     7
370
    15
100
AcDbLine
 10
116.8034447031
 20
133.4671309568
 30
0.0
 11
116.8034447031
 21
144.6997892022
 31
0.0
  0
LINE
  5
A3
330
1F
100
AcDbEntity
  8
0
  6
Continuous
 62
     7
370
    15
100
AcDbLine
 10
81.0034447031
 20
134.9634156944
 30
0.0
 11
81.0034447031
 21
144.6997892022
 31
0.0
  0
LINE
  5
A4
330
1F
100
AcDbEntity
  8
0
  6
Continuous
 62
     7
370
    15
100
AcDbLine
 10
81.0034447031
 20
144.6997892022
 30
0.0
 11
81.0034447031
 21
170.1107761018
 31
0.0
  0
LINE
  5
A5
330
1F
100
AcDbEntity
  8
0
  6
Continuous
 62
     7
370
    15
100
AcDbLine
 10
116.8034447031
 20
129.3045615482
 30
0.0
 11
116.8034447031
 21
133.4671309568
 31
0.0
  0
SPLINE
  5
A6
330
1F
100
AcDbEntity
  8
0
  6
Continuous
 62
     7
370
    15
100
AcDbSpline
210
0.0
220
0.0
230
1.0
 70
     8
 71
     3
 72
     8
 73
     4
 74
     0
 42
0.00000001
 43
0.00000001
 12
1.0
 22
0.0
 32
0.0
 13
1.0
 23
0.0
 33
0.0
 40
0.0000249638557296
 40
0.0000249638557296
 40
0.0000249638557296
 40
0.0000249638557296
 40
0.0049776420541173
 40
0.0049776420541173
 40
0.0049776420541173
 40
0.0049776420541173
 10
82.50344470307031
 20
130.4276707195792
 30
0.0
 10
84.15342093757988
 20
130.3913215066412
 30
0.0
 10
85.80342225732493
 20
130.3548969205091
 30
0.0
 10
87.45344470307039
 20
130.3183970422982
 30
0.0
  0
LINE
  5
A7
330
1F
100
AcDbEntity
  8
0
  6
Continuous
 62
     7
370
    15
100
AcDbLine
 10
82.5034447031
 20
130.4276707196
 30
0.0
 11
82.5034447031
 21
134.2134156944
 31
0.0
  0
SPLINE
  5
A8
330
1F
100
AcDbEntity
  8
0
  6
Continuous
 62
     7
370
    15
100
AcDbSpline
210
0.0
220
0.0
230
1.0
 70
     8
 71
     3
 72
    12
 73
     8
 74
     0
 42
0.00000001
 43
0.00000001
 12
1.0
 22
0.0
 32
0.0
 13
1.0
 23
0.0
 33
0.0
 40
0.0
 40
0.0
 40
0.0
 40
0.0
 40
0.3217007750382258
 40
0.6482385293902448
 40
0.7953300047197277
 40
0.9461094724574207
 40
1.0
 40
1.0
 40
1.0
 40
1.0
 10
87.45344470307039
 20
130.3183970422982
 30
0.0
 10
87.75213705666141
 20
130.2621185766804
 30
0.0
 10
88.35401279665288
 20
130.1487154622985
 30
0.0
 10
88.96791770165207
 20
130.0537159751497
 30
0.0
 10
89.27615326531573
 20
130.0086312570715
 30
0.0
 10
89.38870336002405
 20
129.9928522163039
 30
0.0
 10
89.37342047981026
 20
129.9950000226709
 30
0.0
 10
89.36939642891818
 20
129.9955655497185
 30
0.0
  0
SPLINE
  5
A9
330
1F
100
AcDbEntity
  8
0
  6
Continuous
 62
     7
370
    15
100
AcDbSpline
210
0.0
220
0.0
230
1.0
 70
     8
 71
     3
 72
    27
 73
    23
 74
     0
 42
0.00000001
 43
0.00000001
 12
1.0
 22
0.0
 32
0.0
 13
1.0
 23
0.0
 33
0.0
 40
0.0
 40
0.0
 40
0.0
 40
0.0
 40
0.0322524045785724
 40
0.0816430999251084
 40
0.1290586612648775
 40
0.1777432041577073
 40
0.2272475226158285
 40
0.2780116234121249
 40
0.3309569209659095
 40
0.3852748754781225
 40
0.4412837295085769
 40
0.4988337213646162
 40
0.5562818536597506
 40
0.6154087749742475
 40
0.6725513772536977
 40
0.7314550518215068
 40
0.7867561477595284
 40
0.8438515416930646
 40
0.896013461274782
 40
0.949884652353124
 40
0.9989419924478979
 40
1.0
 40
1.0
 40
1.0
 40
1.0
 10
107.9417703623968
 20
129.528629626261
 30
0.0
 10
107.9417281122253
 20
129.5286379646343
 30
0.0
 10
107.9416211609759
 20
129.5286590722278
 30
0.0
 10
107.8180179215699
 20
129.5468505876222
 30
0.0
 10
107.5920967479692
 20
129.5789471688428
 30
0.0
 10
107.2688837806144
 20
129.6224768090327
 30
0.0
 10
106.8536530968138
 20
129.6741330734395
 30
0.0
 10
106.3496393616453
 20
129.7304001874284
 30
0.0
 10
105.763251687563
 20
129.7868549886079
 30
0.0
 10
105.1030474556314
 20
129.8386664572939
 30
0.0
 10
104.3849075646165
 20
129.8807851868353
 30
0.0
 10
103.6317916532999
 20
129.9087830446357
 30
0.0
 10
102.8638601706282
 20
129.920283354256
 30
0.0
 10
102.1179501653314
 20
129.91482375928
 30
0.0
 10
101.4088761208618
 20
129.8945617435846
 30
0.0
 10
100.7784458019282
 20
129.8641532804758
 30
0.0
 10
100.2318937360555
 20
129.8284982930926
 30
0.0
 10
99.8058312999138
 20
129.7946981068044
 30
0.0
 10
99.49121200015315
 20
129.7664231057927
 30
0.0
 10
99.32209496174403
 20
129.750063557639
 30
0.0
 10
99.2534821467787
 20
129.7432416619517
 30
0.0
 10
99.272363285687
 20
129.7451022115782
 30
0.0
 10
99.27276189386782
 20
129.7451414904748
 30
0.0
  0
SPLINE
  5
AA
330
1F
100
AcDbEntity
  8
0
  6
Continuous
 62
     7
370
    15
100
AcDbSpline
210
0.0
220
0.0
230
1.0
 70
     8
 71
     3
 72
     8
 73
     4
 74
     0
 42
0.00000001
 43
0.00000001
 12
1.0
 22
0.0
 32
0.0
 13
1.0
 23
0.0
 33
0.0
 40
0.0
 40
0.0
 40
0.0
 40
0.0
 40
1.0
 40
1.0
 40
1.0
 40
1.0
 10
81.00344470306814
 20
131.176181019137
 30
0.0
 10
81.47020531444593
 20
130.946651526753
 30
0.0
 10
81.97595286122599
 20
130.6947207516616
 30
0.0
 10
82.50344470307036
 20
130.4276707195792
 30
0.0
  0
LINE
  5
AB
330
1F
100
AcDbEntity
  8
0
  6
Continuous
 62
     7
370
    15
100
AcDbLine
 10
81.0034447031
 20
131.1761810191
 30
0.0
 11
81.0034447031
 21
134.9634156944
 31
0.0
  0
LINE
  5
AC
330
1F
100
AcDbEntity
  8
0
  6
Continuous
 62
     7
370
    15
100
AcDbLine
 10
116.8034447031
 20
173.3447591173
 30
0.0
 11
116.8034447031
 21
171.6070608394
 31
0.0
  0
LINE
  5
AD
330
1F
100
AcDbEntity
  8
0
  6
Continuous
 62
     7
370
    15
100
AcDbLine
 10
82.5034447031
 20
172.4830237291
 30
0.0
 11
82.5034447031
 21
170.8607761018
 31
0.0
  0
SPLINE
  5
AE
330
1F
100
AcDbEntity
  8
0
  6
Continuous
 62
     7
370
    15
100
AcDbSpline
210
0.0
220
0.0
230
1.0
 70
     8
 71
     3
 72
    10
 73
     6
 74
     0
 42
0.00000001
 43
0.00000001
 12
1.0
 22
0.0
 32
0.0
 13
1.0
 23
0.0
 33
0.0
 40
0.0
 40
0.0
 40
0.0
 40
0.0
 40
0.1209913321306079
 40
0.5024128609468684
 40
1.0
 40
1.0
 40
1.0
 40
1.0
 10
117.2100356573641
 20
173.1209848426761
 30
0.0
 10
117.2060083884076
 20
173.1300680541243
 30
0.0
 10
117.1892852754157
 20
173.1677858159668
 30
0.0
 10
117.307676235843
 20
172.899841963948
 30
0.0
 10
117.5467755740192
 20
172.3688998424516
 30
0.0
 10
117.6821243595107
 20
172.0683453873077
 30
0.0
  0
LINE
  5
AF
330
1F
100
AcDbEntity
  8
0
  6
Continuous
 62
     7
370
    15
100
AcDbLine
 10
81.0034447031
 20
171.6169983253
 30
0.0
 11
81.0034447031
 21
170.1107761018
 31
0.0
  0
LINE
  5
B0
330
1F
100
AcDbEntity
  8
0
  6
HIDDEN
 62
     7
370
     0
100
AcDbLine
 10
224.2996323267
 20
146.5602196964
 30
0.0
 11
235.5145227519
 21
145.1832042999
 31
0.0
  0
LINE
  5
B1
330
1F
100
AcDbEntity
  8
0
  6
HIDDEN
 62
     7
370
     0
100
AcDbLine
 10
236.9408264302
 20
151.1847229147
 30
0.0
 11
236.7251251036
 21
151.4322484136
 31
0.0
  0
LINE
  5
B2
330
1F
100
AcDbEntity
  8
0
  6
HIDDEN
 62
     7
370
     0
100
AcDbLine
 10
236.9408264302
 20
151.1847229147
 30
0.0
 11
237.2100023435
 21
151.3727129746
 31
0.0
  0
LINE
  5
B3
330
1F
100
AcDbEntity
  8
0
  6
HIDDEN
 62
     7
370
     0
100
AcDbLine
 10
236.8573188768
 20
150.5046084707
 30
0.0
 11
236.9408264302
 21
151.1847229147
 31
0.0
  0
SPLINE
  5
B4
330
1F
100
AcDbEntity
  8
0
  6
HIDDEN
 62
     7
370
     0
100
AcDbSpline
210
0.0
220
0.0
230
1.0
 70
    24
 71
     3
 72
     9
 73
     5
 74
     0
 42
0.00000001
 43
0.00000001
 12
1.0
 22
0.0
 32
0.0
 13
1.0
 23
0.0
 33
0.0
 40
0.0
 40
0.0
 40
0.0
 40
0.0
 40
0.2697092706216266
 40
1.0
 40
1.0
 40
1.0
 40
1.0
 10
236.8511204962988
 20
150.4541267123372
 30
0.0
 10
236.8506483671186
 20
150.4502815287345
 30
0.0
 10
236.8488978556171
 20
150.436024756641
 30
0.0
 10
236.8537646800638
 20
150.4756618609382
 30
0.0
 10
236.8573188768386
 20
150.5046084707458
 30
0.0
  0
LINE
  5
B5
330
1F
100
AcDbEntity
  8
0
  6
HIDDEN
 62
     7
370
     0
100
AcDbLine
 10
238.4597987682
 20
150.4560243096
 30
0.0
 11
238.4702099741
 21
150.4545534493
 31
0.0
  0
LINE
  5
B6
330
1F
100
AcDbEntity
  8
0
  6
HIDDEN
 62
     7
370
     0
100
AcDbLine
 10
246.2498657869
 20
149.2023019788
 30
0.0
 11
248.5796889491
 21
149.7556502909
 31
0.0
  0
SPLINE
  5
B7
330
1F
100
AcDbEntity
  8
0
  6
HIDDEN
 62
     7
370
     0
100
AcDbSpline
210
0.0
220
0.0
230
1.0
 70
     8
 71
     3
 72
    11
 73
     7
 74
     0
 42
0.00000001
 43
0.00000001
 12
1.0
 22
0.0
 32
0.0
 13
1.0
 23
0.0
 33
0.0
 40
0.0
 40
0.0
 40
0.0
 40
0.0
 40
0.3517313814401961
 40
0.7021754471682464
 40
0.9922929354047627
 40
1.0
 40
1.0
 40
1.0
 40
1.0
 10
227.4287142959701
 20
151.5132488003071
 30
0.0
 10
227.5078151245655
 20
151.4824521778089
 30
0.0
 10
227.6657272774789
 20
151.4209716465995
 30
0.0
 10
227.9086854555811
 20
151.431686441826
 30
0.0
 10
228.0584621549064
 20
151.4745625746183
 30
0.0
 10
228.1240523991286
 20
151.5022546847374
 30
0.0
 10
228.1257497348393
 20
151.5029712975198
 30
0.0
  0
SPLINE
  5
B8
330
1F
100
AcDbEntity
  8
0
  6
HIDDEN
 62
     7
370
     0
100
AcDbSpline
210
0.0
220
0.0
230
1.0
 70
     8
 71
     3
 72
    14
 73
    10
 74
     0
 42
0.00000001
 43
0.00000001
 12
1.0
 22
0.0
 32
0.0
 13
1.0
 23
0.0
 33
0.0
 40
0.0
 40
0.0
 40
0.0
 40
0.0
 40
0.0076858322765676
 40
0.1516387840461444
 40
0.2974777217055085
 40
0.4707628533312271
 40
0.647943980212785
 40
0.8214275826202392
 40
1.0
 40
1.0
 40
1.0
 40
1.0
 10
245.5710489265533
 20
149.3609578964454
 30
0.0
 10
245.5725224612434
 20
149.3598520147971
 30
0.0
 10
245.601594785568
 20
149.3380333564649
 30
0.0
 10
245.6612564669392
 20
149.2986445705986
 30
0.0
 10
245.7604125647439
 20
149.2482671689954
 30
0.0
 10
245.8729755290503
 20
149.2083130852488
 30
0.0
 10
245.9967166106259
 20
149.1847570916263
 30
0.0
 10
246.1243786119925
 20
149.1795208619311
 30
0.0
 10
246.2076355809753
 20
149.1946354482804
 30
0.0
 10
246.2498657869066
 20
149.2023019788051
 30
0.0
  0
LINE
  5
B9
330
1F
100
AcDbEntity
  8
0
  6
HIDDEN
 62
     7
370
     0
100
AcDbLine
 10
227.428714296
 20
151.5132488003
 30
0.0
 11
225.3019639113
 21
152.6137955385
 31
0.0
  0
LINE
  5
BA
330
1F
100
AcDbEntity
  8
0
  6
HIDDEN
 62
     7
370
     0
100
AcDbLine
 10
229.2311078781
 20
151.5889725433
 30
0.0
 11
229.2444477697
 21
151.5876475194
 31
0.0
  0
LINE
  5
BB
330
1F
100
AcDbEntity
  8
0
  6
HIDDEN
 62
     7
370
     0
100
AcDbLine
 10
224.1578124133
 20
146.5776329922
 30
0.0
 11
224.2996323267
 21
146.5602196964
 31
0.0
  0
LINE
  5
BC
330
1F
100
AcDbEntity
  8
0
  6
HIDDEN
 62
     7
370
     0
100
AcDbLine
 10
225.3019639113
 20
152.6137955385
 30
0.0
 11
225.0862625847
 21
152.8613210374
 31
0.0
  0
LINE
  5
BD
330
1F
100
AcDbEntity
  8
0
  6
HIDDEN
 62
     7
370
     0
100
AcDbLine
 10
248.5796889491
 20
149.7556502909
 30
0.0
 11
248.8488648624
 21
149.9436403508
 31
0.0
  0
LINE
  5
BE
330
1F
100
AcDbEntity
  8
0
  6
HIDDEN
 62
     7
370
     0
100
AcDbLine
 10
234.9595235966
 20
140.757855806
 30
0.0
 11
235.1658396172
 21
140.732523384
 31
0.0
  0
LINE
  5
BF
330
1F
100
AcDbEntity
  8
0
  6
HIDDEN
 62
     7
370
     0
100
AcDbLine
 10
225.9881416749
 20
141.8594029959
 30
0.0
 11
234.9595235966
 21
140.757855806
 31
0.0
  0
LINE
  5
C0
330
1F
100
AcDbEntity
  8
0
  6
HIDDEN
 62
     7
370
     0
100
AcDbLine
 10
231.5607218827
 20
140.8729232344
 30
0.0
 11
226.1429797824
 21
141.5381383193
 31
0.0
  0
LINE
  5
C1
330
1F
100
AcDbEntity
  8
0
  6
HIDDEN
 62
     7
370
     0
100
AcDbLine
 10
233.5494913451
 20
142.5919235319
 30
0.0
 11
240.1124249879
 21
141.7860966063
 31
0.0
  0
LINE
  5
C2
330
1F
100
AcDbEntity
  8
0
  6
HIDDEN
 62
     7
370
     0
100
AcDbLine
 10
232.1224284672
 20
142.7671448207
 30
0.0
 11
233.5494913451
 21
142.5919235319
 31
0.0
  0
LINE
  5
C3
330
1F
100
AcDbEntity
  8
0
  6
HIDDEN
 62
     7
370
     0
100
AcDbLine
 10
233.7074216304
 20
143.8781624867
 30
0.0
 11
240.2703552732
 21
143.0723355611
 31
0.0
  0
LINE
  5
C4
330
1F
100
AcDbEntity
  8
0
  6
HIDDEN
 62
     7
370
     0
100
AcDbLine
 10
232.2803587525
 20
144.0533837755
 30
0.0
 11
233.7074216304
 21
143.8781624867
 31
0.0
  0
LINE
  5
C5
330
1F
100
AcDbEntity
  8
0
  6
HIDDEN
 62
     7
370
     0
100
AcDbLine
 10
225.4563169999
 20
141.9247028551
 30
0.0
 11
225.9881416749
 21
141.8594029959
 31
0.0
  0
LINE
  5
C6
330
1F
100
AcDbEntity
  8
0
  6
HIDDEN
 62
     7
370
     0
100
AcDbLine
 10
226.1429797824
 20
141.5381383193
 30
0.0
 11
226.0023930574
 21
141.5554001986
 31
0.0
  0
LINE
  5
C7
330
1F
100
AcDbEntity
  8
0
  6
HIDDEN
 62
     7
370
     0
100
AcDbLine
 10
226.0650900556
 20
134.3291489629
 30
0.0
 11
234.626823318
 21
133.1130374279
 31
0.0
  0
LINE
  5
C8
330
1F
100
AcDbEntity
  8
0
  6
HIDDEN
 62
     7
370
     0
100
AcDbLine
 10
234.941424415
 20
133.0744092703
 30
0.0
 11
234.626823318
 21
133.1130374279
 31
0.0
  0
LINE
  5
C9
330
1F
100
AcDbEntity
  8
0
  6
HIDDEN
 62
     7
370
     0
100
AcDbLine
 10
236.7360843118
 20
132.8194951618
 30
0.0
 11
234.941424415
 21
133.0744092703
 31
0.0
  0
LWPOLYLINE
  5
CA
330
1F
100
AcDbEntity
  8
0
  6
HIDDEN
 62
     7
370
     0
100
AcDbPolyline
 90
       14
 70
   128
 43
0.0
 10
233.590073342
 20
133.2057767373
 10
234.4410761951
 20
133.085780156
 10
235.3340392168
 20
132.9615326993
 10
236.2170666421
 20
132.8402551778
 10
237.0388401266
 20
132.7289958001
 10
237.7516011825
 20
132.6342205569
 10
238.313926728
 20
132.5614374409
 10
238.6931364463
 20
132.5148763421
 10
238.8671920471
 20
132.4972432225
 10
238.8259780514
 20
132.5095628547
 10
238.5718896668
 20
132.5511192667
 10
238.1196935868
 20
132.6194973507
 10
237.4956698037
 20
132.7107232211
 10
236.7360843118
 20
132.8194951618
  0
LINE
  5
CB
330
1F
100
AcDbEntity
  8
0
  6
HIDDEN
 62
     7
370
     0
100
AcDbLine
 10
231.7954134452
 20
133.4606908458
 30
0.0
 11
233.590073342
 21
133.2057767373
 31
0.0
  0
LINE
  5
CC
330
1F
100
AcDbEntity
  8
0
  6
HIDDEN
 62
     7
370
     0
100
AcDbLine
 10
232.1100145422
 20
133.4220626883
 30
0.0
 11
231.7954134452
 21
133.4606908458
 31
0.0
  0
LINE
  5
CD
330
1F
100
AcDbEntity
  8
0
  6
HIDDEN
 62
     7
370
     0
100
AcDbLine
 10
232.1100145422
 20
133.4220626883
 30
0.0
 11
223.5482812798
 21
134.6381742233
 31
0.0
  0
LWPOLYLINE
  5
CE
330
1F
100
AcDbEntity
  8
0
  6
HIDDEN
 62
     7
370
     0
100
AcDbPolyline
 90
        9
 70
   128
 43
0.0
 10
223.5482812798
 20
134.6381742233
 10
224.2550019202
 20
134.5431405667
 10
224.8805158449
 20
134.4602424224
 10
225.4049176964
 20
134.3921178089
 10
225.8115197463
 20
134.3409346153
 10
226.0873829392
 20
134.3083216138
 10
226.2237286449
 20
134.2953166286
 10
226.2162180149
 20
134.3023335096
 10
226.0650900556
 20
134.3291489629
  0
SPLINE
  5
CF
330
1F
100
AcDbEntity
  8
0
  6
HIDDEN
 62
     7
370
     0
100
AcDbSpline
210
0.0
220
0.0
230
1.0
 70
     8
 71
     3
 72
     9
 73
     5
 74
     0
 42
0.00000001
 43
0.00000001
 12
1.0
 22
0.0
 32
0.0
 13
1.0
 23
0.0
 33
0.0
 40
0.0
 40
0.0
 40
0.0
 40
0.0
 40
0.688261020746148
 40
1.0
 40
1.0
 40
1.0
 40
1.0
 10
226.0650900556114
 20
134.3291489629021
 30
0.0
 10
225.8820862603349
 20
134.4495187889201
 30
0.0
 10
225.6161932491658
 20
134.6244085798421
 30
0.0
 10
225.3432981263786
 20
134.7860168677229
 30
0.0
 10
225.2582260793574
 20
134.8363964704258
 30
0.0
  0
SPLINE
  5
D0
330
1F
100
AcDbEntity
  8
0
  6
HIDDEN
 62
     7
370
     0
100
AcDbSpline
210
0.0
220
0.0
230
1.0
 70
     8
 71
     3
 72
     9
 73
     5
 74
     0
 42
0.00000001
 43
0.00000001
 12
1.0
 22
0.0
 32
0.0
 13
1.0
 23
0.0
 33
0.0
 40
0.0
 40
0.0
 40
0.0
 40
0.0
 40
0.311738978384361
 40
1.0
 40
1.0
 40
1.0
 40
1.0
 10
222.7414173035329
 20
135.1454217308419
 30
0.0
 10
222.8264893503175
 20
135.0950421282812
 30
0.0
 10
223.0993844731073
 20
134.9334338404056
 30
0.0
 10
223.365277484278
 20
134.7585440494864
 30
0.0
 10
223.5482812797869
 20
134.6381742233183
 30
0.0
  0
SPLINE
  5
D1
330
1F
100
AcDbEntity
  8
0
  6
HIDDEN
 62
     7
370
     0
100
AcDbSpline
210
0.0
220
0.0
230
1.0
 70
     8
 71
     3
 72
    15
 73
    11
 74
     0
 42
0.00000001
 43
0.00000001
 12
1.0
 22
0.0
 32
0.0
 13
1.0
 23
0.0
 33
0.0
 40
0.0
 40
0.0
 40
0.0
 40
0.0
 40
0.0729909034271077
 40
0.1460348512140158
 40
0.3140735749592555
 40
0.4862016577832528
 40
0.6765271614145884
 40
0.8759126132857491
 40
0.9379385893496259
 40
1.0
 40
1.0
 40
1.0
 40
1.0
 10
225.2582260793574
 20
134.8363964704258
 30
0.0
 10
225.2080731931617
 20
134.9038663943632
 30
0.0
 10
225.1077309733828
 20
135.0388552743607
 30
0.0
 10
224.8855832030163
 20
135.3094698316496
 30
0.0
 10
224.5793068912388
 20
135.6209399885133
 30
0.0
 10
224.139419969991
 20
135.8437726489153
 30
0.0
 10
223.6257146978561
 20
135.7566145128673
 30
0.0
 10
223.208848504882
 20
135.4995097764905
 30
0.0
 10
222.9119250308116
 20
135.281183449191
 30
0.0
 10
222.7982640316962
 20
135.190684251322
 30
0.0
 10
222.7414173035329
 20
135.1454217308419
 30
0.0
  0
LINE
  5
D2
330
1F
100
AcDbEntity
  8
0
  6
HIDDEN
 62
     7
370
     0
100
AcDbLine
 10
225.8378853372
 20
139.0188062209
 30
0.0
 11
225.2582260794
 21
134.8363964704
 31
0.0
  0
LINE
  5
D3
330
1F
100
AcDbEntity
  8
0
  6
HIDDEN
 62
     7
370
     0
100
AcDbLine
 10
223.3210765613
 20
139.3278314813
 30
0.0
 11
222.7414173035
 21
135.1454217308
 31
0.0
  0
SPLINE
  5
D4
330
1F
100
AcDbEntity
  8
0
  6
HIDDEN
 62
     7
370
     0
100
AcDbSpline
210
0.0
220
0.0
230
1.0
 70
     8
 71
     3
 72
    13
 73
     9
 74
     0
 42
0.00000001
 43
0.00000001
 12
1.0
 22
0.0
 32
0.0
 13
1.0
 23
0.0
 33
0.0
 40
0.0
 40
0.0
 40
0.0
 40
0.0
 40
0.124077611754254
 40
0.319611889866442
 40
0.5137740162790448
 40
0.6834542479774122
 40
0.8539711742919598
 40
1.0
 40
1.0
 40
1.0
 40
1.0
 10
223.3210765613326
 20
139.3278314812749
 30
0.0
 10
223.4066513868385
 20
139.2141493647496
 30
0.0
 10
223.6270838348701
 20
138.9213152620217
 30
0.0
 10
224.0072131942841
 20
138.5308387852368
 30
0.0
 10
224.476140586043
 20
138.3137342510474
 30
0.0
 10
224.9656432559002
 20
138.4256988249885
 30
0.0
 10
225.4138874197849
 20
138.6873783675309
 30
0.0
 10
225.7040346653794
 20
138.914178723892
 30
0.0
 10
225.8378853371571
 20
139.0188062208587
 30
0.0
  0
LINE
  5
D5
330
1F
100
AcDbEntity
  8
0
  6
HIDDEN
 62
     7
370
     0
100
AcDbLine
 10
236.538810385
 20
134.1544647039
 30
0.0
 11
234.8052856791
 21
134.4006951489
 31
0.0
  0
LINE
  5
D6
330
1F
100
AcDbEntity
  8
0
  6
HIDDEN
 62
     7
370
     0
100
AcDbLine
 10
234.626823318
 20
133.1130374279
 30
0.0
 11
234.8052856791
 21
134.4006951489
 31
0.0
  0
SPLINE
  5
D7
330
1F
100
AcDbEntity
  8
0
  6
HIDDEN
 62
     7
370
     0
100
AcDbSpline
210
0.0
220
0.0
230
1.0
 70
     8
 71
     3
 72
     9
 73
     5
 74
     0
 42
0.00000001
 43
0.00000001
 12
1.0
 22
0.0
 32
0.0
 13
1.0
 23
0.0
 33
0.0
 40
0.0
 40
0.0
 40
0.0
 40
0.0
 40
0.24201954964472
 40
1.0
 40
1.0
 40
1.0
 40
1.0
 10
225.8378853371571
 20
139.0188062208587
 30
0.0
 10
225.9222938625379
 20
139.0406119750444
 30
0.0
 10
226.2710612472584
 20
139.1307111187611
 30
0.0
 10
226.6158383310208
 20
139.2395796730476
 30
0.0
 10
226.8771726202434
 20
139.3220999088553
 30
0.0
  0
LINE
  5
D8
330
1F
100
AcDbEntity
  8
0
  6
HIDDEN
 62
     7
370
     0
100
AcDbLine
 10
226.8771726202
 20
139.3220999089
 30
0.0
 11
231.7219249453
 21
138.9174610642
 31
0.0
  0
SPLINE
  5
D9
330
1F
100
AcDbEntity
  8
0
  6
HIDDEN
 62
     7
370
     0
100
AcDbSpline
210
0.0
220
0.0
230
1.0
 70
     8
 71
     3
 72
    26
 73
    22
 74
     0
 42
0.00000001
 43
0.00000001
 12
1.0
 22
0.0
 32
0.0
 13
1.0
 23
0.0
 33
0.0
 40
0.0
 40
0.0
 40
0.0
 40
0.0
 40
0.0405421577441532
 40
0.0812397760044035
 40
0.12238784812519
 40
0.1636766409502466
 40
0.1984612442268848
 40
0.2333185019746471
 40
0.2683823901964744
 40
0.3035097206090871
 40
0.3393249630799629
 40
0.37519651350511
 40
0.4472868827351
 40
0.5149697216002433
 40
0.5828713724521162
 40
0.6512922249902012
 40
0.7198340744210104
 40
0.7893760057436581
 40
0.858966755804937
 40
0.998298867647703
 40
1.0
 40
1.0
 40
1.0
 40
1.0
 10
231.7219249452502
 20
138.9174610642113
 30
0.0
 10
231.8069989191311
 20
138.9120837046904
 30
0.0
 10
231.9774730864288
 20
138.9013083659498
 30
0.0
 10
232.2353011508991
 20
138.9073191239391
 30
0.0
 10
232.4942088352531
 20
138.929121017202
 30
0.0
 10
232.7395247396018
 20
138.9658845414401
 30
0.0
 10
232.9699730982265
 20
139.013625874336
 30
0.0
 10
233.1856413185647
 20
139.0694741351757
 30
0.0
 10
233.399795157085
 20
139.1358214399131
 30
0.0
 10
233.6133518212741
 20
139.2126830109971
 30
0.0
 10
233.8256911938363
 20
139.2996543292264
 30
0.0
 10
234.10735555276
 20
139.4288731020378
 30
0.0
 10
234.443543951991
 20
139.6076902984919
 30
0.0
 10
234.8281881716116
 20
139.8466342174899
 30
0.0
 10
235.1940600315791
 20
140.1037653787365
 30
0.0
 10
235.550077779733
 20
140.3808786097902
 30
0.0
 10
235.8986103261309
 20
140.6757706306212
 30
0.0
 10
236.2402404847433
 20
140.9846875379474
 30
0.0
 10
236.6889472657858
 20
141.4111807255935
 30
0.0
 10
237.0210035007827
 20
141.7429424961757
 30
0.0
 10
237.2432859951218
 20
141.9651206120355
 30
0.0
 10
237.2459671498001
 20
141.9678005077084
 30
0.0
  0
SPLINE
  5
DA
330
1F
100
AcDbEntity
  8
0
  6
HIDDEN
 62
     7
370
     0
100
AcDbSpline
210
0.0
220
0.0
230
1.0
 70
     8
 71
     3
 72
     9
 73
     5
 74
     0
 42
0.00000001
 43
0.00000001
 12
1.0
 22
0.0
 32
0.0
 13
1.0
 23
0.0
 33
0.0
 40
0.0
 40
0.0
 40
0.0
 40
0.0
 40
0.757980449006113
 40
1.0
 40
1.0
 40
1.0
 40
1.0
 10
224.3603638444188
 20
139.6311251692715
 30
0.0
 10
224.0990295556628
 20
139.548604933606
 30
0.0
 10
223.7542524719019
 20
139.4397363793134
 30
0.0
 10
223.4054850871835
 20
139.349637235585
 30
0.0
 10
223.3210765613326
 20
139.3278314812749
 30
0.0
  0
ELLIPSE
  5
DB
330
1F
100
AcDbEntity
  8
0
  6
HIDDEN
 62
     7
370
     0
100
AcDbEllipse
 10
222.731955742
 20
139.7177221753
 30
0.0
 11
4.372568604137911
 21
-0.3954696638791689
 31
0.0
210
0.0
220
0.0
230
1.0
 40
0.0148241663
 41
5.960634695218497
 42
7.47371339089201
  0
LINE
  5
DC
330
1F
100
AcDbEntity
  8
0
  6
HIDDEN
 62
     7
370
     0
100
AcDbLine
 10
229.2051161694
 20
139.2264863246
 30
0.0
 11
224.3603638444
 21
139.6311251693
 31
0.0
  0
SPLINE
  5
DD
330
1F
100
AcDbEntity
  8
0
  6
HIDDEN
 62
     7
370
     0
100
AcDbSpline
210
0.0
220
0.0
230
1.0
 70
     8
 71
     3
 72
    25
 73
    21
 74
     0
 42
0.00000001
 43
0.00000001
 12
1.0
 22
0.0
 32
0.0
 13
1.0
 23
0.0
 33
0.0
 40
0.0
 40
0.0
 40
0.0
 40
0.0
 40
0.0017011875715627
 40
0.1150573306615832
 40
0.228451831492944
 40
0.2853424736763788
 40
0.3422742103810458
 40
0.3993752296214612
 40
0.4565583875394965
 40
0.5298069078174716
 40
0.6033564748978482
 40
0.6406882600690045
 40
0.6780782606670474
 40
0.7156615823036679
 40
0.7533177887954985
 40
0.8109770165613187
 40
0.8689648972802901
 40
0.9280944548270454
 40
0.9876712887334402
 40
1.0
 40
1.0
 40
1.0
 40
1.0
 10
234.7291583739756
 20
142.2768257681246
 30
0.0
 10
234.7264772182292
 20
142.274145871533
 30
0.0
 10
234.5451411748569
 20
142.0928949892527
 30
0.0
 10
234.1850376929228
 20
141.7330791703174
 30
0.0
 10
233.7290653401226
 20
141.2971647823156
 30
0.0
 10
233.3537390386178
 20
140.9613405460441
 30
0.0
 10
233.0652974359134
 20
140.7172733473538
 30
0.0
 10
232.7693261236693
 20
140.4833072299188
 30
0.0
 10
232.43663148022
 20
140.2408374115952
 30
0.0
 10
232.063430950809
 20
139.9971214869037
 30
0.0
 10
231.7145995876402
 20
139.8014670367777
 30
0.0
 10
231.4267054672084
 20
139.6613236114589
 30
0.0
 10
231.2051688176985
 20
139.5647063400614
 30
0.0
 10
230.9796954126082
 20
139.4780878937279
 30
0.0
 10
230.7100707341392
 20
139.388855519673
 30
0.0
 10
230.3943190057828
 20
139.3060482552199
 30
0.0
 10
230.0294656639669
 20
139.241817807287
 30
0.0
 10
229.6577195895993
 20
139.210395464072
 30
0.0
 10
229.3816235042793
 20
139.2129420257972
 30
0.0
 10
229.2309501716455
 20
139.2245039512244
 30
0.0
 10
229.2051161694257
 20
139.2264863246274
 30
0.0
  0
ELLIPSE
  5
DE
330
1F
100
AcDbEntity
  8
0
  6
HIDDEN
 62
     7
370
     0
100
AcDbEllipse
 10
235.2804059971
 20
134.3089773341
 30
0.0
 11
2.974943011508969
 21
-0.4123339970385018
 31
0.0
210
0.0
220
0.0
230
1.0
 40
0.0072415107
 41
4.276638053245295
 42
7.41823070683467
  0
ELLIPSE
  5
DF
330
1F
100
AcDbEntity
  8
0
  6
HIDDEN
 62
     7
370
     0
100
AcDbEllipse
 10
236.742483041
 20
150.4633853567
 30
0.0
 11
2.974943011508941
 21
-0.4123339970385302
 31
0.0
210
0.0
220
0.0
230
1.0
 40
0.0072415107
 41
0.0
 42
6.283185307179586
  0
LINE
  5
E0
330
1F
100
AcDbEntity
  8
0
  6
HIDDEN
 62
     7
370
     0
100
AcDbLine
 10
235.119886776
 20
134.3620669913
 30
0.0
 11
234.941424415
 21
133.0744092703
 31
0.0
  0
LINE
  5
E1
330
1F
100
AcDbEntity
  8
0
  6
HIDDEN
 62
     7
370
     0
100
AcDbLine
 10
236.9145466728
 20
134.1071528828
 30
0.0
 11
235.119886776
 21
134.3620669913
 31
0.0
  0
LINE
  5
E2
330
1F
100
AcDbEntity
  8
0
  6
HIDDEN
 62
     7
370
     0
100
AcDbLine
 10
235.119886776
 20
134.3620669913
 30
0.0
 11
234.8052856791
 21
134.4006951489
 31
0.0
  0
LWPOLYLINE
  5
E3
330
1F
100
AcDbEntity
  8
0
  6
HIDDEN
 62
     7
370
     0
100
AcDbPolyline
 90
       14
 70
   128
 43
0.0
 10
233.768535703
 20
134.4934344583
 10
234.6195385561
 20
134.373437877
 10
235.5125015778
 20
134.2491904203
 10
236.3955290031
 20
134.1279128988
 10
237.2173024876
 20
134.0166535211
 10
237.9300635435
 20
133.9218782779
 10
238.492389089
 20
133.8490951619
 10
238.8715988074
 20
133.8025340631
 10
239.0456544081
 20
133.7849009435
 10
239.0044404124
 20
133.7972205757
 10
238.7503520278
 20
133.8387769877
 10
238.2981559478
 20
133.9071550717
 10
237.6741321648
 20
133.9983809421
 10
236.9145466728
 20
134.1071528828
  0
LINE
  5
E4
330
1F
100
AcDbEntity
  8
0
  6
HIDDEN
 62
     7
370
     0
100
AcDbLine
 10
232.2884769032
 20
134.7097204093
 30
0.0
 11
234.0220016091
 21
134.4634899643
 31
0.0
  0
LINE
  5
E5
330
1F
100
AcDbEntity
  8
0
  6
HIDDEN
 62
     7
370
     0
100
AcDbLine
 10
231.9738758063
 20
134.7483485669
 30
0.0
 11
231.7954134452
 21
133.4606908458
 31
0.0
  0
LINE
  5
E6
330
1F
100
AcDbEntity
  8
0
  6
HIDDEN
 62
     7
370
     0
100
AcDbLine
 10
232.2884769032
 20
134.7097204093
 30
0.0
 11
232.1100145422
 21
133.4220626883
 31
0.0
  0
LINE
  5
E7
330
1F
100
AcDbEntity
  8
0
  6
HIDDEN
 62
     7
370
     0
100
AcDbLine
 10
232.2884769032
 20
134.7097204093
 30
0.0
 11
231.9738758063
 21
134.7483485669
 31
0.0
  0
LINE
  5
E8
330
1F
100
AcDbEntity
  8
0
  6
HIDDEN
 62
     7
370
     0
100
AcDbLine
 10
231.9738758063
 20
134.7483485669
 30
0.0
 11
233.768535703
 21
134.4934344583
 31
0.0
  0
LINE
  5
E9
330
1F
100
AcDbEntity
  8
0
  6
HIDDEN
 62
     7
370
     0
100
AcDbLine
 10
226.4864535693
 20
142.5673538852
 30
0.0
 11
218.5460843562
 21
143.5423086324
 31
0.0
  0
LINE
  5
EA
330
1F
100
AcDbEntity
  8
0
  6
HIDDEN
 62
     7
370
     0
100
AcDbLine
 10
227.4670870777
 20
150.5539728963
 30
0.0
 11
219.5267178645
 21
151.5289276436
 31
0.0
  0
LINE
  5
EB
330
1F
100
AcDbEntity
  8
0
  6
HIDDEN
 62
     7
370
     0
100
AcDbLine
 10
227.0317486736
 20
151.1111806439
 30
0.0
 11
220.0839256121
 21
151.9642660477
 31
0.0
  0
LINE
  5
EC
330
1F
100
AcDbEntity
  8
0
  6
HIDDEN
 62
     7
370
     0
100
AcDbLine
 10
225.0775683767
 20
131.503180252
 30
0.0
 11
217.2364537787
 21
132.4659480649
 31
0.0
  0
LINE
  5
ED
330
1F
100
AcDbEntity
  8
0
  6
HIDDEN
 62
     7
370
     0
100
AcDbLine
 10
225.3704155446
 20
133.8882290377
 30
0.0
 11
217.5293009466
 21
134.8509968506
 31
0.0
  0
LINE
  5
EE
330
1F
100
AcDbEntity
  8
0
  6
HIDDEN
 62
     7
370
     0
100
AcDbLine
 10
224.4089190797
 20
130.9807741671
 30
0.0
 11
217.7588598637
 21
131.7972987679
 31
0.0
  0
LINE
  5
EF
330
1F
100
AcDbEntity
  8
0
  6
HIDDEN
 62
     7
370
     0
100
AcDbLine
 10
223.3646634884
 20
135.3996716231
 30
0.0
 11
219.8411246501
 21
135.8323077922
 31
0.0
  0
LINE
  5
F0
330
1F
100
AcDbEntity
  8
0
  6
HIDDEN
 62
     7
370
     0
100
AcDbLine
 10
223.6672170708
 20
137.8637728108
 30
0.0
 11
220.1436782324
 21
138.2964089799
 31
0.0
  0
LINE
  5
F1
330
1F
100
AcDbEntity
  8
0
  6
HIDDEN
 62
     7
370
     0
100
AcDbLine
 10
225.9790407742
 20
138.8450837524
 30
0.0
 11
218.1379261762
 21
139.8078515653
 31
0.0
  0
LINE
  5
F2
330
1F
100
AcDbEntity
  8
0
  6
HIDDEN
 62
     7
370
     0
100
AcDbLine
 10
226.1378316643
 20
140.1383317713
 30
0.0
 11
218.2967170664
 21
141.1010995842
 31
0.0
  0
SPLINE
  5
F3
330
1F
100
AcDbEntity
  8
0
  6
HIDDEN
 62
     7
370
     0
100
AcDbSpline
210
0.0
220
0.0
230
1.0
 70
     8
 71
     3
 72
    11
 73
     7
 74
     0
 42
0.00000001
 43
0.00000001
 12
1.0
 22
0.0
 32
0.0
 13
1.0
 23
0.0
 33
0.0
 40
0.0
 40
0.0
 40
0.0
 40
0.0
 40
0.1081100880371242
 40
0.4711580666043642
 40
0.8135808430836154
 40
1.0
 40
1.0
 40
1.0
 40
1.0
 10
223.3753493953955
 20
151.2901685796256
 30
0.0
 10
223.424611044201
 20
151.2559400837893
 30
0.0
 10
223.6392998269996
 20
151.1067677705127
 30
0.0
 10
224.060757802722
 20
150.9265120922786
 30
0.0
 10
224.5606953197561
 20
150.9623346619246
 30
0.0
 10
224.836276196846
 20
151.0632784599592
 30
0.0
 10
224.9334196938443
 20
151.0988616021748
 30
0.0
  0
SPLINE
  5
F4
330
1F
100
AcDbEntity
  8
0
  6
HIDDEN
 62
     7
370
     0
100
AcDbSpline
210
0.0
220
0.0
230
1.0
 70
     8
 71
     3
 72
    13
 73
     9
 74
     0
 42
0.00000001
 43
0.00000001
 12
1.0
 22
0.0
 32
0.0
 13
1.0
 23
0.0
 33
0.0
 40
0.0
 40
0.0
 40
0.0
 40
0.0
 40
0.2161241182544802
 40
0.4396369202065125
 40
0.5932538221761637
 40
0.752004855775685
 40
0.8754343578245609
 40
1.0
 40
1.0
 40
1.0
 40
1.0
 10
224.9334196938443
 20
151.0988616021748
 30
0.0
 10
224.9370545421901
 20
151.0436491856612
 30
0.0
 10
224.9444485042572
 20
150.931336793369
 30
0.0
 10
224.9663009318286
 20
150.855739535399
 30
0.0
 10
224.9951420309003
 20
150.8585500261075
 30
0.0
 10
225.024070901274
 20
150.9094394083967
 30
0.0
 10
225.0539551468371
 20
150.9869376617306
 30
0.0
 10
225.0734570336901
 20
151.0491937683144
 30
0.0
 10
225.0832526491126
 20
151.0804644285533
 30
0.0
  0
SPLINE
  5
F5
330
1F
100
AcDbEntity
  8
0
  6
HIDDEN
 62
     7
370
     0
100
AcDbSpline
210
0.0
220
0.0
230
1.0
 70
     8
 71
     3
 72
    10
 73
     6
 74
     0
 42
0.00000001
 43
0.00000001
 12
1.0
 22
0.0
 32
0.0
 13
1.0
 23
0.0
 33
0.0
 40
0.0
 40
0.0
 40
0.0
 40
0.0
 40
0.4391165375904129
 40
0.7513669429073412
 40
1.0
 40
1.0
 40
1.0
 40
1.0
 10
225.0832526491126
 20
151.0804644285533
 30
0.0
 10
224.8691324261366
 20
151.0032490279892
 30
0.0
 10
224.5027539284491
 20
150.8711266994028
 30
0.0
 10
224.0108228335069
 20
151.0102514625833
 30
0.0
 10
223.7781544638914
 20
151.1787020594897
 30
0.0
 10
223.6750153059321
 20
151.2533742323828
 30
0.0
  0
SPLINE
  5
F6
330
1F
100
AcDbEntity
  8
0
  6
HIDDEN
 62
     7
370
     0
100
AcDbSpline
210
0.0
220
0.0
230
1.0
 70
     8
 71
     3
 72
    11
 73
     7
 74
     0
 42
0.00000001
 43
0.00000001
 12
1.0
 22
0.0
 32
0.0
 13
1.0
 23
0.0
 33
0.0
 40
0.0
 40
0.0
 40
0.0
 40
0.0
 40
0.186419156916384
 40
0.5288419333956518
 40
0.891889911962875
 40
1.0
 40
1.0
 40
1.0
 40
1.0
 10
223.6750153059321
 20
151.2533742323828
 30
0.0
 10
223.5778718089338
 20
151.2177910901673
 30
0.0
 10
223.3022909318439
 20
151.1168472921327
 30
0.0
 10
222.8023534148096
 20
151.0810247224866
 30
0.0
 10
222.3808954390873
 20
151.2612804007208
 30
0.0
 10
222.1662066562887
 20
151.4104527139974
 30
0.0
 10
222.1169450074833
 20
151.4446812098337
 30
0.0
  0
SPLINE
  5
F7
330
1F
100
AcDbEntity
  8
0
  6
HIDDEN
 62
     7
370
     0
100
AcDbSpline
210
0.0
220
0.0
230
1.0
 70
     8
 71
     3
 72
    11
 73
     7
 74
     0
 42
0.00000001
 43
0.00000001
 12
1.0
 22
0.0
 32
0.0
 13
1.0
 23
0.0
 33
0.0
 40
0.0
 40
0.0
 40
0.0
 40
0.0
 40
0.0485263313458422
 40
0.4198818266812959
 40
0.7086120656793072
 40
1.0
 40
1.0
 40
1.0
 40
1.0
 10
222.0034505935367
 20
151.233612259114
 30
0.0
 10
222.0023844160057
 20
151.2338725550132
 30
0.0
 10
221.9931591447594
 20
151.2361248068238
 30
0.0
 10
221.9834693751045
 20
151.2852363007765
 30
0.0
 10
221.9728435274309
 20
151.3646956169463
 30
0.0
 10
221.9690283700803
 20
151.4301841204609
 30
0.0
 10
221.967112052215
 20
151.4630783834551
 30
0.0
  0
SPLINE
  5
F8
330
1F
100
AcDbEntity
  8
0
  6
HIDDEN
 62
     7
370
     0
100
AcDbSpline
210
0.0
220
0.0
230
1.0
 70
     8
 71
     3
 72
    11
 73
     7
 74
     0
 42
0.00000001
 43
0.00000001
 12
1.0
 22
0.0
 32
0.0
 13
1.0
 23
0.0
 33
0.0
 40
0.0
 40
0.0
 40
0.0
 40
0.0
 40
0.216449995351199
 40
0.4402998152333299
 40
0.7518914760010578
 40
1.0
 40
1.0
 40
1.0
 40
1.0
 10
221.967112052215
 20
151.4630783834551
 30
0.0
 10
222.0569543347054
 20
151.3973113346687
 30
0.0
 10
222.2397103579451
 20
151.2635288442505
 30
0.0
 10
222.5926278466252
 20
151.1273863708129
 30
0.0
 10
222.9900145689277
 20
151.1345426280869
 30
0.0
 10
223.2569985358382
 20
151.2423699798913
 30
0.0
 10
223.3753493953955
 20
151.2901685796256
 30
0.0
  0
LINE
  5
F9
330
1F
100
AcDbEntity
  8
0
  6
HIDDEN
 62
     7
370
     0
100
AcDbLine
 10
222.2164081423
 20
147.6723908148
 30
0.0
 11
222.9205268139
 21
147.5859359128
 31
0.0
  0
LINE
  5
FA
330
1F
100
AcDbEntity
  8
0
  6
HIDDEN
 62
     7
370
     0
100
AcDbLine
 10
222.9205268139
 20
147.5859359128
 30
0.0
 11
223.6995619631
 21
147.4902824241
 31
0.0
  0
LINE
  5
FB
330
1F
100
AcDbEntity
  8
0
  6
HIDDEN
 62
     7
370
     0
100
AcDbLine
 10
222.9205268139
 20
147.5859359128
 30
0.0
 11
223.3753493954
 21
151.2901685796
 31
0.0
  0
LINE
  5
FC
330
1F
100
AcDbEntity
  8
0
  6
HIDDEN
 62
     7
370
     0
100
AcDbLine
 10
221.5122894707
 20
147.7588457167
 30
0.0
 11
222.2164081423
 21
147.6723908148
 31
0.0
  0
LINE
  5
FD
330
1F
100
AcDbEntity
  8
0
  6
HIDDEN
 62
     7
370
     0
100
AcDbLine
 10
223.6995619631
 20
147.4902824241
 30
0.0
 11
224.4785971124
 21
147.3946289354
 31
0.0
  0
LINE
  5
FE
330
1F
100
AcDbEntity
  8
0
  6
HIDDEN
 62
     7
370
     0
100
AcDbLine
 10
224.4785971124
 20
147.3946289354
 30
0.0
 11
224.55351359
 21
147.3854303486
 31
0.0
  0
LINE
  5
FF
330
1F
100
AcDbEntity
  8
0
  6
HIDDEN
 62
     7
370
     0
100
AcDbLine
 10
224.4785971124
 20
147.3946289354
 30
0.0
 11
224.9334196938
 21
151.0988616022
 31
0.0
  0
LINE
  5
100
330
1F
100
AcDbEntity
  8
0
  6
HIDDEN
 62
     7
370
     0
100
AcDbLine
 10
221.662122426
 20
147.7404485431
 30
0.0
 11
222.1169450075
 21
151.4446812098
 31
0.0
  0
LINE
  5
101
330
1F
100
AcDbEntity
  8
0
  6
HIDDEN
 62
     7
370
     0
100
AcDbLine
 10
221.5122894707
 20
147.7588457167
 30
0.0
 11
221.9671120522
 21
151.4630783835
 31
0.0
  0
LINE
  5
102
330
1F
100
AcDbEntity
  8
0
  6
HIDDEN
 62
     7
370
     0
100
AcDbLine
 10
224.55351359
 20
147.3854303486
 30
0.0
 11
224.6284300676
 21
147.3762317618
 31
0.0
  0
LINE
  5
103
330
1F
100
AcDbEntity
  8
0
  6
HIDDEN
 62
     7
370
     0
100
AcDbLine
 10
223.2201927245
 20
147.5491415656
 30
0.0
 11
223.6750153059
 21
151.2533742324
 31
0.0
  0
LINE
  5
104
330
1F
100
AcDbEntity
  8
0
  6
HIDDEN
 62
     7
370
     0
100
AcDbLine
 10
224.6284300676
 20
147.3762317618
 30
0.0
 11
225.0832526491
 21
151.0804644286
 31
0.0
  0
LINE
  5
105
330
1F
100
AcDbEntity
  8
0
  6
HIDDEN
 62
     7
370
     0
100
AcDbLine
 10
185.4719130852
 20
178.7343983091
 30
0.0
 11
183.2034447031
 21
178.7343983091
 31
0.0
  0
LINE
  5
106
330
1F
100
AcDbEntity
  8
0
  6
HIDDEN
 62
     7
370
     0
100
AcDbLine
 10
188.8034447031
 20
178.7343983091
 30
0.0
 11
185.4719130852
 21
178.7343983091
 31
0.0
  0
LINE
  5
107
330
1F
100
AcDbEntity
  8
0
  6
HIDDEN
 62
     7
370
     0
100
AcDbLine
 10
185.433946541
 20
179.2446603328
 30
0.0
 11
183.0034447031
 21
179.2446603328
 31
0.0
  0
LINE
  5
108
330
1F
100
AcDbEntity
  8
0
  6
HIDDEN
 62
     7
370
     0
100
AcDbLine
 10
189.0034447031
 20
179.2446603328
 30
0.0
 11
185.433946541
 21
179.2446603328
 31
0.0
  0
LINE
  5
109
330
1F
100
AcDbEntity
  8
0
  6
HIDDEN
 62
     7
370
     0
100
AcDbLine
 10
185.4719130852
 20
179.4243983091
 30
0.0
 11
183.2034447031
 21
179.4243983091
 31
0.0
  0
LINE
  5
10A
330
1F
100
AcDbEntity
  8
0
  6
HIDDEN
 62
     7
370
     0
100
AcDbLine
 10
188.8034447031
 20
179.4243983091
 30
0.0
 11
185.4719130852
 21
179.4243983091
 31
0.0
  0
LINE
  5
10B
330
1F
100
AcDbEntity
  8
0
  6
HIDDEN
 62
     7
370
     0
100
AcDbLine
 10
185.433946541
 20
179.9346603328
 30
0.0
 11
183.0034447031
 21
179.9346603328
 31
0.0
  0
LINE
  5
10C
330
1F
100
AcDbEntity
  8
0
  6
HIDDEN
 62
     7
370
     0
100
AcDbLine
 10
189.0034447031
 20
179.9346603328
 30
0.0
 11
185.433946541
 21
179.9346603328
 31
0.0
  0
LINE
  5
10D
330
1F
100
AcDbEntity
  8
0
  6
HIDDEN
 62
     7
370
     0
100
AcDbLine
 10
185.433946541
 20
180.4846603328
 30
0.0
 11
183.0034447031
 21
180.4846603328
 31
0.0
  0
LINE
  5
10E
330
1F
100
AcDbEntity
  8
0
  6
HIDDEN
 62
     7
370
     0
100
AcDbLine
 10
189.0034447031
 20
180.4846603328
 30
0.0
 11
185.433946541
 21
180.4846603328
 31
0.0
  0
LINE
  5
10F
330
1F
100
AcDbEntity
  8
0
  6
HIDDEN
 62
     7
370
     0
100
AcDbLine
 10
185.4605231219
 20
180.6246603328
 30
0.0
 11
183.1434447031
 21
180.6246603328
 31
0.0
  0
LINE
  5
110
330
1F
100
AcDbEntity
  8
0
  6
HIDDEN
 62
     7
370
     0
100
AcDbLine
 10
188.8634447031
 20
180.6246603328
 30
0.0
 11
185.4605231219
 21
180.6246603328
 31
0.0
  0
LINE
  5
111
330
1F
100
AcDbEntity
  8
0
  6
HIDDEN
 62
     7
370
     0
100
AcDbLine
 10
185.433946541
 20
178.5546603328
 30
0.0
 11
183.0034447031
 21
178.5546603328
 31
0.0
  0
LINE
  5
112
330
1F
100
AcDbEntity
  8
0
  6
HIDDEN
 62
     7
370
     0
100
AcDbLine
 10
189.0034447031
 20
178.5546603328
 30
0.0
 11
185.433946541
 21
178.5546603328
 31
0.0
  0
LINE
  5
113
330
1F
100
AcDbEntity
  8
0
  6
HIDDEN
 62
     7
370
     0
100
AcDbLine
 10
185.4719130852
 20
178.0443983091
 30
0.0
 11
183.2034447031
 21
178.0443983091
 31
0.0
  0
LINE
  5
114
330
1F
100
AcDbEntity
  8
0
  6
HIDDEN
 62
     7
370
     0
100
AcDbLine
 10
188.8034447031
 20
178.0443983091
 30
0.0
 11
185.4719130852
 21
178.0443983091
 31
0.0
  0
LINE
  5
115
330
1F
100
AcDbEntity
  8
0
  6
HIDDEN
 62
     7
370
     0
100
AcDbLine
 10
185.4719130852
 20
177.3543983091
 30
0.0
 11
183.2034447031
 21
177.3543983091
 31
0.0
  0
LINE
  5
116
330
1F
100
AcDbEntity
  8
0
  6
HIDDEN
 62
     7
370
     0
100
AcDbLine
 10
188.8034447031
 20
177.3543983091
 30
0.0
 11
185.4719130852
 21
177.3543983091
 31
0.0
  0
LINE
  5
117
330
1F
100
AcDbEntity
  8
0
  6
HIDDEN
 62
     7
370
     0
100
AcDbLine
 10
185.433946541
 20
177.8646603328
 30
0.0
 11
183.0034447031
 21
177.8646603328
 31
0.0
  0
LINE
  5
118
330
1F
100
AcDbEntity
  8
0
  6
HIDDEN
 62
     7
370
     0
100
AcDbLine
 10
189.0034447031
 20
177.8646603328
 30
0.0
 11
185.433946541
 21
177.8646603328
 31
0.0
  0
LINE
  5
119
330
1F
100
AcDbEntity
  8
0
  6
HIDDEN
 62
     7
370
     0
100
AcDbLine
 10
185.433946541
 20
177.1746603328
 30
0.0
 11
183.0034447031
 21
177.1746603328
 31
0.0
  0
LINE
  5
11A
330
1F
100
AcDbEntity
  8
0
  6
HIDDEN
 62
     7
370
     0
100
AcDbLine
 10
189.0034447031
 20
177.1746603328
 30
0.0
 11
185.433946541
 21
177.1746603328
 31
0.0
  0
LINE
  5
11B
330
1F
100
AcDbEntity
  8
0
  6
HIDDEN
 62
     7
370
     0
100
AcDbLine
 10
185.433946541
 20
174.4246603328
 30
0.0
 11
183.0034447031
 21
174.4246603328
 31
0.0
  0
LINE
  5
11C
330
1F
100
AcDbEntity
  8
0
  6
HIDDEN
 62
     7
370
     0
100
AcDbLine
 10
189.0034447031
 20
174.4246603328
 30
0.0
 11
185.433946541
 21
174.4246603328
 31
0.0
  0
LINE
  5
11D
330
1F
100
AcDbEntity
  8
0
  6
HIDDEN
 62
     7
370
     0
100
AcDbLine
 10
185.5325865162
 20
174.1246603328
 30
0.0
 11
183.5230599453
 21
174.1246603328
 31
0.0
  0
LINE
  5
11E
330
1F
100
AcDbEntity
  8
0
  6
HIDDEN
 62
     7
370
     0
100
AcDbLine
 10
188.4838294608
 20
174.1246603328
 30
0.0
 11
185.5325865162
 21
174.1246603328
 31
0.0
  0
LINE
  5
11F
330
1F
100
AcDbEntity
  8
0
  6
HIDDEN
 62
     7
370
     0
100
AcDbLine
 10
185.5288629014
 20
175.7680360058
 30
0.0
 11
183.5034447031
 21
175.7680360058
 31
0.0
  0
LINE
  5
120
330
1F
100
AcDbEntity
  8
0
  6
HIDDEN
 62
     7
370
     0
100
AcDbLine
 10
188.5034447031
 20
175.7680360058
 30
0.0
 11
185.5288629014
 21
175.7680360058
 31
0.0
  0
SPLINE
  5
121
330
1F
100
AcDbEntity
  8
0
  6
HIDDEN
 62
     7
370
     0
100
AcDbSpline
210
0.0
220
0.0
230
1.0
 70
     8
 71
     3
 72
     9
 73
     5
 74
     0
 42
0.00000001
 43
0.00000001
 12
1.0
 22
0.0
 32
0.0
 13
1.0
 23
0.0
 33
0.0
 40
0.0
 40
0.0
 40
0.0
 40
0.0
 40
0.4001551796672133
 40
1.0
 40
1.0
 40
1.0
 40
1.0
 10
118.7412208821824
 20
171.4755545111824
 30
0.0
 10
118.7589180911863
 20
171.4624363041181
 30
0.0
 10
118.8031439563084
 20
171.4296535045172
 30
0.0
 10
118.8033319412668
 20
171.3753631906237
 30
0.0
 10
118.8034447030703
 20
171.3427974270405
 30
0.0
  0
LINE
  5
122
330
1F
100
AcDbEntity
  8
0
  6
HIDDEN
 62
     7
370
     0
100
AcDbLine
 10
82.5336731427
 20
149.9246603328
 30
0.0
 11
82.5336731427
 21
165.2376113757
 31
0.0
  0
LINE
  5
123
330
1F
100
AcDbEntity
  8
0
  6
HIDDEN
 62
     7
370
     0
100
AcDbLine
 10
82.5336731427
 20
134.6117092899
 30
0.0
 11
82.5336731427
 21
149.9246603328
 31
0.0
  0
LINE
  5
124
330
1F
100
AcDbEntity
  8
0
  6
HIDDEN
 62
     7
370
     0
100
AcDbLine
 10
89.0336731427
 20
149.9246603328
 30
0.0
 11
89.0336731427
 21
164.2710704943
 31
0.0
  0
LINE
  5
125
330
1F
100
AcDbEntity
  8
0
  6
HIDDEN
 62
     7
370
     0
100
AcDbLine
 10
89.0336731427
 20
135.5782501713
 30
0.0
 11
89.0336731427
 21
149.9246603328
 31
0.0
  0
SPLINE
  5
126
330
1F
100
AcDbEntity
  8
0
  6
HIDDEN
 62
     7
370
     0
100
AcDbSpline
210
0.0
220
0.0
230
1.0
 70
     8
 71
     3
 72
     9
 73
     5
 74
     0
 42
0.00000001
 43
0.00000001
 12
1.0
 22
0.0
 32
0.0
 13
1.0
 23
0.0
 33
0.0
 40
0.0
 40
0.0
 40
0.0
 40
0.0
 40
0.9756764595993186
 40
1.0
 40
1.0
 40
1.0
 40
1.0
 10
100.3146061318325
 20
129.8332262090367
 30
0.0
 10
100.4526108378337
 20
129.8430778772629
 30
0.0
 10
100.5940559907257
 20
129.8531751468333
 30
0.0
 10
100.7639509808393
 20
129.8616124671901
 30
0.0
 10
100.7680834284952
 20
129.8618176926927
 30
0.0
  0
LINE
  5
127
330
1F
100
AcDbEntity
  8
0
  6
HIDDEN
 62
     7
370
     0
100
AcDbLine
 10
94.8336731427
 20
149.9246603328
 30
0.0
 11
94.8336731427
 21
163.9246603328
 31
0.0
  0
LINE
  5
128
330
1F
100
AcDbEntity
  8
0
  6
HIDDEN
 62
     7
370
     0
100
AcDbLine
 10
94.8336731427
 20
135.9246603328
 30
0.0
 11
94.8336731427
 21
149.9246603328
 31
0.0
  0
LINE
  5
129
330
1F
100
AcDbEntity
  8
0
  6
HIDDEN
 62
     7
370
     0
100
AcDbLine
 10
87.4336731427
 20
149.9246603328
 30
0.0
 11
87.4336731427
 21
163.9246603328
 31
0.0
  0
LINE
  5
12A
330
1F
100
AcDbEntity
  8
0
  6
HIDDEN
 62
     7
370
     0
100
AcDbLine
 10
87.4336731427
 20
135.9246603328
 30
0.0
 11
87.4336731427
 21
149.9246603328
 31
0.0
  0
LINE
  5
12B
330
1F
100
AcDbEntity
  8
0
  6
HIDDEN
 62
     7
370
     0
100
AcDbLine
 10
88.4336731427
 20
149.9246603328
 30
0.0
 11
88.4336731427
 21
163.9246603328
 31
0.0
  0
LINE
  5
12C
330
1F
100
AcDbEntity
  8
0
  6
HIDDEN
 62
     7
370
     0
100
AcDbLine
 10
88.4336731427
 20
135.9246603328
 30
0.0
 11
88.4336731427
 21
149.9246603328
 31
0.0
  0
LINE
  5
12D
330
1F
100
AcDbEntity
  8
0
  6
HIDDEN
 62
     7
370
     0
100
AcDbLine
 10
107.5034447031
 20
163.9102779452
 30
0.0
 11
107.5313065207
 21
163.917160839
 31
0.0
  0
SPLINE
  5
12E
330
1F
100
AcDbEntity
  8
0
  6
HIDDEN
 62
     7
370
     0
100
AcDbSpline
210
0.0
220
0.0
230
1.0
 70
    11
 71
     3
 72
    10
 73
     6
 74
     0
 42
0.00000001
 43
0.00000001
 12
1.0
 22
0.0
 32
0.0
 13
1.0
 23
0.0
 33
0.0
 40
0.0
 40
0.0
 40
0.0
 40
0.0
 40
0.5
 40
0.5
 40
1.0
 40
1.0
 40
1.0
 40
1.0
 10
107.5034447030704
 20
135.9390427203911
 30
0.0
 10
107.5365921211468
 20
135.9295622901391
 30
0.0
 10
107.5534509665084
 20
135.9271654314797
 30
0.0
 10
107.5534384361608
 20
135.927167797632
 30
0.0
 10
107.5365234784204
 20
135.9295819225152
 30
0.0
 10
107.5034447030704
 20
135.9390427203911
 30
0.0
  0
LINE
  5
12F
330
1F
100
AcDbEntity
  8
0
  6
HIDDEN
 62
     7
370
     0
100
AcDbLine
 10
108.0034447031
 20
149.9246603328
 30
0.0
 11
108.0034447031
 21
163.4246603328
 31
0.0
  0
LINE
  5
130
330
1F
100
AcDbEntity
  8
0
  6
HIDDEN
 62
     7
370
     0
100
AcDbLine
 10
108.0034447031
 20
136.4246603328
 30
0.0
 11
108.0034447031
 21
149.9246603328
 31
0.0
  0
SPLINE
  5
131
330
1F
100
AcDbEntity
  8
0
  6
HIDDEN
 62
     7
370
     0
100
AcDbSpline
210
0.0
220
0.0
230
1.0
 70
     8
 71
     3
 72
    25
 73
    21
 74
     0
 42
0.00000001
 43
0.00000001
 12
1.0
 22
0.0
 32
0.0
 13
1.0
 23
0.0
 33
0.0
 40
0.0
 40
0.0
 40
0.0
 40
0.0
 40
0.0549750651531319
 40
0.1115904166097517
 40
0.1665511143376597
 40
0.2230332448707688
 40
0.2792895739877811
 40
0.3371819341542678
 40
0.3932068848019557
 40
0.4509852466146963
 40
0.5048857621704592
 40
0.5603942416835969
 40
0.6136660432572612
 40
0.6683896474005935
 40
0.7234252935747383
 40
0.7799702773413639
 40
0.8364764672746658
 40
0.8946772928864263
 40
0.9501157183199604
 40
1.0
 40
1.0
 40
1.0
 40
1.0
 10
107.5034447030703
 20
135.9390427203911
 30
0.0
 10
107.4581041957744
 20
135.9519585655623
 30
0.0
 10
107.3660703603554
 20
135.978175624869
 30
0.0
 10
107.0932833070055
 20
136.0519368854558
 30
0.0
 10
106.7280021533016
 20
136.1426666178355
 30
0.0
 10
106.2736281068713
 20
136.2428429532323
 30
0.0
 10
105.7337329464746
 20
136.342899239623
 30
0.0
 10
105.12965244991
 20
136.4298512166082
 30
0.0
 10
104.4709873646977
 20
136.4939734816515
 30
0.0
 10
103.7974924277093
 20
136.525798350702
 30
0.0
 10
103.1177962049943
 20
136.5232099772159
 30
0.0
 10
102.4673196420424
 20
136.4883147742231
 30
0.0
 10
101.843533440515
 20
136.4252030176473
 30
0.0
 10
101.2667707497111
 20
136.3415558474861
 30
0.0
 10
100.7398129388868
 20
136.2441210531467
 30
0.0
 10
100.2833642226046
 20
136.1438140333202
 30
0.0
 10
99.90814510999286
 20
136.0505350692731
 30
0.0
 10
99.64065990403483
 20
135.978173752692
 30
0.0
 10
99.47896823714301
 20
135.9320851872348
 30
0.0
 10
99.4661325435815
 20
135.9283381729898
 30
0.0
 10
99.46005313895235
 20
135.92656346439
 30
0.0
  0
SPLINE
  5
132
330
1F
100
AcDbEntity
  8
0
  6
HIDDEN
 62
     7
370
     0
100
AcDbSpline
210
0.0
220
0.0
230
1.0
 70
     8
 71
     3
 72
    26
 73
    22
 74
     0
 42
0.00000001
 43
0.00000001
 12
1.0
 22
0.0
 32
0.0
 13
1.0
 23
0.0
 33
0.0
 40
0.0
 40
0.0
 40
0.0
 40
0.0
 40
0.0072761510202679
 40
0.0608588622393711
 40
0.115996127878595
 40
0.1696869484977918
 40
0.2248356045681132
 40
0.2803721972800551
 40
0.3374590698641253
 40
0.3939498239410826
 40
0.452168747910986
 40
0.5070555597878394
 40
0.5636413711496918
 40
0.6168440399158784
 40
0.6715483407463303
 40
0.7256051222217861
 40
0.7811176369167446
 40
0.8372052268092743
 40
0.8949039621445418
 40
0.9467741440334032
 40
1.0
 40
1.0
 40
1.0
 40
1.0
 10
99.46005313895235
 20
163.9227572011727
 30
0.0
 10
99.4579065449849
 20
163.923375268418
 30
0.0
 10
99.43995209816471
 20
163.9285448792784
 30
0.0
 10
99.51126842328893
 20
163.9078904485993
 30
0.0
 10
99.67508917655343
 20
163.8616365986216
 30
0.0
 10
99.95235604072728
 20
163.7874100328409
 30
0.0
 10
100.3200433079019
 20
163.6970092106756
 30
0.0
 10
100.7821291730679
 20
163.5965972372528
 30
0.0
 10
101.3241164649703
 20
163.4980844264002
 30
0.0
 10
101.9388348389382
 20
163.412057612689
 30
0.0
 10
102.5936064657115
 20
163.351315263382
 30
0.0
 10
103.2763287626311
 20
163.3222355035796
 30
0.0
 10
103.9461065227716
 20
163.3278587728303
 30
0.0
 10
104.6014315382895
 20
163.3660351060659
 30
0.0
 10
105.2162307340256
 20
163.4307324629877
 30
0.0
 10
105.7922551576286
 20
163.5165371175109
 30
0.0
 10
106.3108225313271
 20
163.6141813423556
 30
0.0
 10
106.7636006851217
 20
163.7149968582609
 30
0.0
 10
107.1153924118747
 20
163.803255408878
 30
0.0
 10
107.3739110636555
 20
163.8733765611817
 30
0.0
 10
107.4598971009802
 20
163.8978721578115
 30
0.0
 10
107.5034447030704
 20
163.9102779451716
 30
0.0
  0
ELLIPSE
  5
133
330
1F
100
AcDbEntity
  8
0
  6
HIDDEN
 62
     7
370
     0
100
AcDbEllipse
 10
221.6926609318
 20
136.3470821339
 30
0.0
 11
3.836318985757202
 21
-2.981814344700723
 31
0.0
210
0.0
220
0.0
230
1.0
 40
0.1973179358
 41
4.97908940969047
 42
6.949310976366125
  0
LINE
  5
134
330
1F
100
AcDbEntity
  8
0
  6
HIDDEN
 62
     7
370
     0
100
AcDbLine
 10
225.0724353224
 20
134.4704833369
 30
0.0
 11
225.3304808122
 21
136.5720952002
 31
0.0
  0
SPLINE
  5
135
330
1F
100
AcDbEntity
  8
0
  6
HIDDEN
 62
     7
370
     0
100
AcDbSpline
210
0.0
220
0.0
230
1.0
 70
     8
 71
     3
 72
    20
 73
    16
 74
     0
 42
0.00000001
 43
0.00000001
 12
1.0
 22
0.0
 32
0.0
 13
1.0
 23
0.0
 33
0.0
 40
0.0
 40
0.0
 40
0.0
 40
0.0
 40
0.0624999999999996
 40
0.0624999999999996
 40
0.1249999999999992
 40
0.1249999999999992
 40
0.2499999999999988
 40
0.2499999999999988
 40
0.4999999999999989
 40
0.4999999999999989
 40
0.749999999999999
 40
0.749999999999999
 40
0.8749999999999994
 40
0.8749999999999994
 40
1.0
 40
1.0
 40
1.0
 40
1.0
 10
226.9773471095838
 20
145.5765562759904
 30
0.0
 10
226.989392677174
 20
145.4313756134205
 30
0.0
 10
226.9884103381224
 20
145.2748788858144
 30
0.0
 10
226.9726913744464
 20
144.949639605851
 30
0.0
 10
226.9576550935862
 20
144.7806415648897
 30
0.0
 10
226.8986179642557
 20
144.260816469955
 30
0.0
 10
226.8406175391032
 20
143.8961305234
 30
0.0
 10
226.6425885728053
 20
142.7976692617539
 30
0.0
 10
226.4774196558479
 20
142.0489501630001
 30
0.0
 10
226.1300671577486
 20
140.5284355076604
 30
0.0
 10
225.9452186846757
 20
139.7545570537025
 30
0.0
 10
225.6842279998046
 20
138.574981958992
 30
0.0
 10
225.6001891512679
 20
138.1793463590019
 30
0.0
 10
225.4481177324051
 20
137.3795914746532
 30
0.0
 10
225.3800696810588
 20
136.9759641272753
 30
0.0
 10
225.3304808121829
 20
136.5720952001793
 30
0.0
  0
LINE
  5
136
330
1F
100
AcDbEntity
  8
0
  6
HIDDEN
 62
     7
370
     0
100
AcDbLine
 10
218.7188619172
 20
146.5905707541
 30
0.0
 11
227.056249591
 21
145.5668682695
 31
0.0
  0
SPLINE
  5
137
330
1F
100
AcDbEntity
  8
0
  6
HIDDEN
 62
     7
370
     0
100
AcDbSpline
210
0.0
220
0.0
230
1.0
 70
     8
 71
     3
 72
    22
 73
    18
 74
     0
 42
0.00000001
 43
0.00000001
 12
1.0
 22
0.0
 32
0.0
 13
1.0
 23
0.0
 33
0.0
 40
0.0
 40
0.0
 40
0.0
 40
0.0
 40
0.1250000000000006
 40
0.1250000000000006
 40
0.2500000000000012
 40
0.2500000000000012
 40
0.5000000000000011
 40
0.5000000000000011
 40
0.6250000000000008
 40
0.6250000000000008
 40
0.7500000000000006
 40
0.7500000000000006
 40
0.8750000000000002
 40
0.8750000000000002
 40
0.9375000000000001
 40
0.9375000000000001
 40
1.0
 40
1.0
 40
1.0
 40
1.0
 10
222.3942039070544
 20
136.9326246706648
 30
0.0
 10
222.4441039550221
 20
137.3390279480857
 30
0.0
 10
222.529106226009
 20
137.7437312570044
 30
0.0
 10
222.7325833772882
 20
138.5381614787981
 30
0.0
 10
222.8514131028204
 20
138.9282315004655
 30
0.0
 10
223.2384114058495
 20
140.0849201533313
 30
0.0
 10
223.5361413337105
 20
140.838444173252
 30
0.0
 10
224.0191463259591
 20
141.9493479015203
 30
0.0
 10
224.1866650204558
 20
142.3162326837881
 30
0.0
 10
224.5351427953093
 20
143.0423188350865
 30
0.0
 10
224.7163163411545
 20
143.4021059384459
 30
0.0
 10
225.0945514490406
 20
144.1089854696041
 30
0.0
 10
225.289426178313
 20
144.4526198418318
 30
0.0
 10
225.594861521017
 20
144.9427196365243
 30
0.0
 10
225.698888312639
 20
145.1018065154222
 30
0.0
 10
225.9135176678243
 20
145.4067230557122
 30
0.0
 10
226.0230497153258
 20
145.5512204536585
 30
0.0
 10
226.1347945052498
 20
145.6800087275511
 30
0.0
  0
LINE
  5
138
330
1F
100
AcDbEntity
  8
0
  6
HIDDEN
 62
     7
370
     0
100
AcDbLine
 10
222.3942039071
 20
136.9326246707
 30
0.0
 11
222.1361584172
 21
134.8310128074
 31
0.0
  0
LINE
  5
139
330
1F
100
AcDbEntity
  8
0
  6
HIDDEN
 62
     7
370
     0
100
AcDbLine
 10
216.3424097208
 20
127.2359207971
 30
0.0
 11
224.6797973946
 21
126.2122183125
 31
0.0
  0
LINE
  5
13A
330
1F
100
AcDbEntity
  8
0
  6
HIDDEN
 62
     7
370
     0
100
AcDbLine
 10
219.4649027657
 20
146.9227295402
 30
0.0
 11
226.4127258272
 21
146.0696441364
 31
0.0
  0
LINE
  5
13B
330
1F
100
AcDbEntity
  8
0
  6
HIDDEN
 62
     7
370
     0
100
AcDbLine
 10
220.1448602838
 20
152.4605391235
 30
0.0
 11
227.0926833453
 21
151.6074537197
 31
0.0
  0
LINE
  5
13C
330
1F
100
AcDbEntity
  8
0
  6
HIDDEN
 62
     7
370
     0
100
AcDbLine
 10
109.2534447031
 20
149.9246603328
 30
0.0
 11
109.2534447031
 21
158.9246603328
 31
0.0
  0
LINE
  5
13D
330
1F
100
AcDbEntity
  8
0
  6
HIDDEN
 62
     7
370
     0
100
AcDbLine
 10
109.2534447031
 20
140.9246603328
 30
0.0
 11
109.2534447031
 21
149.9246603328
 31
0.0
  0
LINE
  5
13E
330
1F
100
AcDbEntity
  8
0
  6
HIDDEN
 62
     7
370
     0
100
AcDbLine
 10
231.2880181204
 20
145.5510273413
 30
0.0
 11
235.4820227223
 21
145.0360683279
 31
0.0
  0
LINE
  5
13F
330
1F
100
AcDbEntity
  8
0
  6
HIDDEN
 62
     7
370
     0
100
AcDbLine
 10
226.9401883185
 20
146.0848737145
 30
0.0
 11
226.6119867681
 21
146.1251717977
 31
0.0
  0
ELLIPSE
  5
140
330
1F
100
AcDbEntity
  8
0
  6
HIDDEN
 62
     7
370
     0
100
AcDbEllipse
 10
228.9112973167
 20
143.5696775282
 30
0.0
 11
2.125136462389463
 21
6.878565028734613
 31
0.0
210
0.0
220
0.0
230
1.0
 40
0.3769781733
 41
1.315039236085587
 42
1.976098166294304
  0
LINE
  5
141
330
1F
100
AcDbEntity
  8
0
  6
HIDDEN
 62
     7
370
     0
100
AcDbLine
 10
225.8332464328
 20
141.5761687926
 30
0.0
 11
225.6903768421
 21
141.5937109725
 31
0.0
  0
ELLIPSE
  5
142
330
1F
100
AcDbEntity
  8
0
  6
HIDDEN
 62
     7
370
     0
100
AcDbEllipse
 10
227.9451054422
 20
142.2650834251
 30
0.0
 11
2.125136462389491
 21
6.878565028734613
 31
0.0
210
0.0
220
0.0
230
1.0
 40
0.3769781733
 41
5.322730577417988
 42
7.378665638921926
  0
LINE
  5
143
330
1F
100
AcDbEntity
  8
0
  6
HIDDEN
 62
     7
370
     0
100
AcDbLine
 10
135.0034447031
 20
149.9246603328
 30
0.0
 11
135.0034447031
 21
158.9246603328
 31
0.0
  0
LINE
  5
144
330
1F
100
AcDbEntity
  8
0
  6
HIDDEN
 62
     7
370
     0
100
AcDbLine
 10
135.0034447031
 20
140.9246603328
 30
0.0
 11
135.0034447031
 21
149.9246603328
 31
0.0
  0
LINE
  5
145
330
1F
100
AcDbEntity
  8
0
  6
HIDDEN
 62
     7
370
     0
100
AcDbLine
 10
137.8575326435
 20
149.9246603328
 30
0.0
 11
137.8575326435
 21
154.1746603328
 31
0.0
  0
LINE
  5
146
330
1F
100
AcDbEntity
  8
0
  6
HIDDEN
 62
     7
370
     0
100
AcDbLine
 10
137.8575326435
 20
145.6746603328
 30
0.0
 11
137.8575326435
 21
149.9246603328
 31
0.0
  0
LINE
  5
147
330
1F
100
AcDbEntity
  8
0
  6
HIDDEN
 62
     7
370
     0
100
AcDbLine
 10
231.5607218827
 20
140.8729232344
 30
0.0
 11
235.1008395579
 21
140.4382514401
 31
0.0
  0
LINE
  5
148
330
1F
100
AcDbEntity
  8
0
  6
HIDDEN
 62
     7
370
     0
100
AcDbLine
 10
231.5607218827
 20
140.8729232344
 30
0.0
 11
232.1225395558
 21
145.4485609933
 31
0.0
  0
LINE
  5
149
330
1F
100
AcDbEntity
  8
0
  6
HIDDEN
 62
     7
370
     0
100
AcDbLine
 10
229.6657053251
 20
130.394539688
 30
0.0
 11
225.0724353224
 21
134.4704833369
 31
0.0
  0
SPLINE
  5
14A
330
1F
100
AcDbEntity
  8
0
  6
HIDDEN
 62
     7
370
     0
100
AcDbSpline
210
0.0
220
0.0
230
1.0
 70
     8
 71
     3
 72
    12
 73
     8
 74
     0
 42
0.00000001
 43
0.00000001
 12
1.0
 22
0.0
 32
0.0
 13
1.0
 23
0.0
 33
0.0
 40
0.0
 40
0.0
 40
0.0
 40
0.0
 40
0.25
 40
0.25
 40
0.5
 40
0.5
 40
1.0
 40
1.0
 40
1.0
 40
1.0
 10
232.3812599038343
 20
138.386416741097
 30
0.0
 10
232.3330665960077
 20
137.9939137466468
 30
0.0
 10
232.2626738866487
 20
137.6022114283767
 30
0.0
 10
232.1064898608471
 20
136.8341122004317
 30
0.0
 10
232.0198591542409
 20
136.4548226596877
 30
0.0
 10
231.7510244591655
 20
135.3246859929176
 30
0.0
 10
231.5601560657604
 20
134.5813517054062
 30
0.0
 10
231.3769882615588
 20
133.8429141081668
 30
0.0
  0
LINE
  5
14B
330
1F
100
AcDbEntity
  8
0
  6
HIDDEN
 62
     7
370
     0
100
AcDbLine
 10
233.8775468991
 20
133.5358841138
 30
0.0
 11
231.3769882616
 21
133.8429141082
 31
0.0
  0
SPLINE
  5
14C
330
1F
100
AcDbEntity
  8
0
  6
HIDDEN
 62
     7
370
     0
100
AcDbSpline
210
0.0
220
0.0
230
1.0
 70
     8
 71
     3
 72
    12
 73
     8
 74
     0
 42
0.00000001
 43
0.00000001
 12
1.0
 22
0.0
 32
0.0
 13
1.0
 23
0.0
 33
0.0
 40
0.0
 40
0.0
 40
0.0
 40
0.0
 40
0.4999999999999986
 40
0.4999999999999986
 40
0.7499999999999992
 40
0.7499999999999992
 40
1.0
 40
1.0
 40
1.0
 40
1.0
 10
233.877546899126
 20
133.5358841138411
 30
0.0
 10
234.1908765725455
 20
134.2574380701971
 30
0.0
 10
234.4829979287059
 20
134.9889807389796
 30
0.0
 10
234.8657754112857
 20
136.1093182560883
 30
0.0
 10
234.9834833279892
 20
136.4854866793886
 30
0.0
 10
235.1847297690018
 20
137.2471005835491
 30
0.0
 10
235.2694865567591
 20
137.6345493707046
 30
0.0
 10
235.317536808964
 20
138.0258872706129
 30
0.0
  0
LWPOLYLINE
  5
14D
330
1F
100
AcDbEntity
  8
0
  6
HIDDEN
 62
     7
370
     0
100
AcDbPolyline
 90
       14
 70
   128
 43
0.0
 10
229.6657053251
 20
130.394539688
 10
230.2079288553
 20
129.8807667442
 10
230.6333174544
 20
129.4073287476
 10
230.9171490832
 20
129.0017401937
 10
231.0429284793
 20
128.6875724149
 10
231.0033458012
 20
128.4830837006
 10
230.8007014505
 20
128.4001581917
 10
230.44677238
 20
128.4436152172
 10
229.962127661
 20
128.6109292128
 10
229.3749330829
 20
128.8923764972
 10
228.7193142601
 20
129.2716003774
 10
228.0333733757
 20
129.7265617397
 10
227.3569748206
 20
130.2308198836
 10
226.72942842
 20
130.7550691585
  0
LINE
  5
14E
330
1F
100
AcDbEntity
  8
0
  6
HIDDEN
 62
     7
370
     0
100
AcDbLine
 10
107.5534447031
 20
129.9269043525
 30
0.0
 11
99.4534447031
 21
129.9269043525
 31
0.0
  0
ARC
  5
14F
330
1F
100
AcDbEntity
  8
0
  6
HIDDEN
 62
     7
370
     0
100
AcDbCircle
 10
186.003296667
 20
157.957781724
 30
0.0
 40
4.534453363128697
100
AcDbArc
 50
236.5436373051
 51
303.4206249889
  0
LINE
  5
150
330
1F
100
AcDbEntity
  8
0
  6
HIDDEN
 62
     7
370
     0
100
AcDbLine
 10
190.0034447031
 20
154.1746603328
 30
0.0
 11
190.0034447031
 21
145.6746603328
 31
0.0
  0
LINE
  5
151
330
1F
100
AcDbEntity
  8
0
  6
HIDDEN
 62
     7
370
     0
100
AcDbLine
 10
233.8775468991
 20
133.5358841138
 30
0.0
 11
238.9970565488
 21
132.9072873695
 31
0.0
  0
LINE
  5
152
330
1F
100
AcDbEntity
  8
0
  6
HIDDEN
 62
     7
370
     0
100
AcDbLine
 10
232.669843343
 20
140.7367402429
 30
0.0
 11
232.3812599038
 21
138.3864167411
 31
0.0
  0
LINE
  5
153
330
1F
100
AcDbEntity
  8
0
  6
HIDDEN
 62
     7
370
     0
100
AcDbLine
 10
235.317536809
 20
138.0258872706
 30
0.0
 11
235.6061202481
 21
140.3762107724
 31
0.0
  0
LINE
  5
154
330
1F
100
AcDbEntity
  8
0
  6
HIDDEN
 62
     7
370
     0
100
AcDbLine
 10
87.4534447031
 20
130.3183970423
 30
0.0
 11
87.4534447031
 21
131.9246603328
 31
0.0
  0
LINE
  5
155
330
1F
100
AcDbEntity
  8
0
  6
HIDDEN
 62
     7
370
     0
100
AcDbLine
 10
107.5534447031
 20
167.4246603328
 30
0.0
 11
99.4534447031
 21
167.4246603328
 31
0.0
  0
LINE
  5
156
330
1F
100
AcDbEntity
  8
0
  6
HIDDEN
 62
     7
370
     0
100
AcDbLine
 10
183.0034447031
 20
174.4246603328
 30
0.0
 11
189.0034447031
 21
174.4246603328
 31
0.0
  0
LINE
  5
157
330
1F
100
AcDbEntity
  8
0
  6
HIDDEN
 62
     7
370
     0
100
AcDbLine
 10
183.5034447031
 20
174.1242300233
 30
0.0
 11
188.5034447031
 21
174.1242300233
 31
0.0
  0
LINE
  5
158
330
1F
100
AcDbEntity
  8
0
  6
HIDDEN
 62
     7
370
     0
100
AcDbLine
 10
186.3366944685
 20
170.6367213225
 30
0.0
 11
188.5034447031
 21
172.2109575155
 31
0.0
  0
LINE
  5
159
330
1F
100
AcDbEntity
  8
0
  6
HIDDEN
 62
     7
370
     0
100
AcDbLine
 10
188.5034447031
 20
166.9536463943
 30
0.0
 11
186.1793552722
 21
170.1524810684
 31
0.0
  0
SPLINE
  5
15A
330
1F
100
AcDbEntity
  8
0
  6
HIDDEN
 62
     7
370
     0
100
AcDbSpline
210
0.0
220
0.0
230
1.0
 70
     8
 71
     3
 72
     8
 73
     4
 74
     0
 42
0.00000001
 43
0.00000001
 12
1.0
 22
0.0
 32
0.0
 13
1.0
 23
0.0
 33
0.0
 40
0.0
 40
0.0
 40
0.0
 40
0.0
 40
1.0
 40
1.0
 40
1.0
 40
1.0
 10
186.1793552722296
 20
170.1524810684431
 30
0.0
 10
186.2229712799492
 20
170.3157772043034
 30
0.0
 10
186.2762534724156
 20
170.4788054665827
 30
0.0
 10
186.3366944684705
 20
170.636721322466
 30
0.0
  0
LINE
  5
15B
330
1F
100
AcDbEntity
  8
0
  6
HIDDEN
 62
     7
370
     0
100
AcDbLine
 10
186.3366944685
 20
170.6367213225
 30
0.0
 11
186.1793552722
 21
170.1524810684
 31
0.0
  0
LINE
  5
15C
330
1F
100
AcDbEntity
  8
0
  6
HIDDEN
 62
     7
370
     0
100
AcDbLine
 10
223.6642798321
 20
146.4871046995
 30
0.0
 11
226.6119867681
 21
146.1251717977
 31
0.0
  0
LINE
  5
15D
330
1F
100
AcDbEntity
  8
0
  6
HIDDEN
 62
     7
370
     0
100
AcDbLine
 10
222.1361584172
 20
134.8310128074
 30
0.0
 11
226.72942842
 21
130.7550691585
 31
0.0
  0
LINE
  5
15E
330
1F
100
AcDbEntity
  8
0
  6
HIDDEN
 62
     7
370
     0
100
AcDbLine
 10
225.8332464328
 20
141.5761687926
 30
0.0
 11
226.0023930574
 21
141.5554001986
 31
0.0
  0
LINE
  5
15F
330
1F
100
AcDbEntity
  8
0
  6
HIDDEN
 62
     7
370
     0
100
AcDbLine
 10
131.0034447031
 20
118.9246603328
 30
0.0
 11
133.0034447031
 21
118.9246603328
 31
0.0
  0
LINE
  5
160
330
1F
100
AcDbEntity
  8
0
  6
HIDDEN
 62
     7
370
     0
100
AcDbLine
 10
129.0034447031
 20
118.9246603328
 30
0.0
 11
131.0034447031
 21
118.9246603328
 31
0.0
  0
LINE
  5
161
330
1F
100
AcDbEntity
  8
0
  6
HIDDEN
 62
     7
370
     0
100
AcDbLine
 10
223.6128592536
 20
141.8487980574
 30
0.0
 11
225.6903768421
 21
141.5937109725
 31
0.0
  0
LINE
  5
162
330
1F
100
AcDbEntity
  8
0
  6
HIDDEN
 62
     7
370
     0
100
AcDbLine
 10
222.4233555904
 20
146.6394710376
 30
0.0
 11
223.6642798321
 21
146.4871046995
 31
0.0
  0
LINE
  5
163
330
1F
100
AcDbEntity
  8
0
  6
HIDDEN
 62
     7
370
     0
100
AcDbLine
 10
226.9401883185
 20
146.0848737145
 30
0.0
 11
228.1302544103
 21
145.9387519719
 31
0.0
  0
LINE
  5
164
330
1F
100
AcDbEntity
  8
0
  6
HIDDEN
 62
     7
370
     0
100
AcDbLine
 10
222.5137549253
 20
141.9837510997
 30
0.0
 11
223.6128592536
 21
141.8487980574
 31
0.0
  0
LINE
  5
165
330
1F
100
AcDbEntity
  8
0
  6
HIDDEN
 62
     7
370
     0
100
AcDbLine
 10
229.3791797402
 20
141.1407829284
 30
0.0
 11
229.9409974132
 21
145.7164206874
 31
0.0
  0
LINE
  5
166
330
1F
100
AcDbEntity
  8
0
  6
HIDDEN
 62
     7
370
     0
100
AcDbLine
 10
229.9409974132
 20
145.7164206874
 30
0.0
 11
231.2880181204
 21
145.5510273413
 31
0.0
  0
LINE
  5
167
330
1F
100
AcDbEntity
  8
0
  6
HIDDEN
 62
     7
370
     0
100
AcDbLine
 10
229.3233463343
 20
145.7922587039
 30
0.0
 11
230.0545623947
 21
151.7475356139
 31
0.0
  0
LINE
  5
168
330
1F
100
AcDbEntity
  8
0
  6
HIDDEN
 62
     7
370
     0
100
AcDbLine
 10
229.3233463343
 20
145.7922587039
 30
0.0
 11
229.9409974132
 21
145.7164206874
 31
0.0
  0
SPLINE
  5
169
330
1F
100
AcDbEntity
  8
0
  6
HIDDEN
 62
     7
370
     0
100
AcDbSpline
210
0.0
220
0.0
230
1.0
 70
     8
 71
     3
 72
    10
 73
     6
 74
     0
 42
0.00000001
 43
0.00000001
 12
1.0
 22
0.0
 32
0.0
 13
1.0
 23
0.0
 33
0.0
 40
0.0
 40
0.0
 40
0.0
 40
0.0
 40
0.3126827501966142
 40
0.7443321018557055
 40
1.0
 40
1.0
 40
1.0
 40
1.0
 10
235.2928960188868
 20
150.8291303598378
 30
0.0
 10
235.4383001034307
 20
150.8073832861681
 30
0.0
 10
235.7844302554744
 20
150.7556150161128
 30
0.0
 10
236.3182865046669
 20
150.6179199483233
 30
0.0
 10
236.7017516722959
 20
150.4825380023728
 30
0.0
 10
236.8443928375617
 20
150.4321786994778
 30
0.0
  0
SPLINE
  5
16A
330
1F
100
AcDbEntity
  8
0
  6
HIDDEN
 62
     7
370
     0
100
AcDbSpline
210
0.0
220
0.0
230
1.0
 70
     8
 71
     3
 72
    10
 73
     6
 74
     0
 42
0.00000001
 43
0.00000001
 12
1.0
 22
0.0
 32
0.0
 13
1.0
 23
0.0
 33
0.0
 40
0.0
 40
0.0
 40
0.0
 40
0.0
 40
0.1687161790612049
 40
0.6100334551647286
 40
0.9999999999999999
 40
0.9999999999999999
 40
0.9999999999999999
 40
0.9999999999999999
 10
236.8528474068495
 20
150.4307474020661
 30
0.0
 10
236.9531682116415
 20
150.4417352645141
 30
0.0
 10
237.3159019311501
 20
150.4814644933961
 30
0.0
 10
237.8723833614173
 20
150.4900666495703
 30
0.0
 10
238.2723214389333
 20
150.4588445330259
 30
0.0
 10
238.4599378297597
 20
150.4441978135727
 30
0.0
  0
LINE
  5
16B
330
1F
100
AcDbEntity
  8
0
  6
HIDDEN
 62
     7
370
     0
100
AcDbLine
 10
229.2311078781
 20
151.5889725433
 30
0.0
 11
235.3271517507
 21
150.8404724732
 31
0.0
  0
LINE
  5
16C
330
1F
100
AcDbEntity
  8
0
  6
HIDDEN
 62
     7
370
     0
100
AcDbLine
 10
238.4702099741
 20
150.4545534493
 30
0.0
 11
244.5193302286
 21
149.711814875
 31
0.0
  0
LINE
  5
16D
330
1F
100
AcDbEntity
  8
0
  6
HIDDEN
 62
     7
370
     0
100
AcDbLine
 10
233.816229692
 20
151.7894158592
 30
0.0
 11
233.0423593614
 21
145.4867477963
 31
0.0
  0
LINE
  5
16E
330
1F
100
AcDbEntity
  8
0
  6
HIDDEN
 62
     7
370
     0
100
AcDbLine
 10
239.3450274243
 20
144.7128774657
 30
0.0
 11
240.118897755
 21
151.0155455286
 31
0.0
  0
SPLINE
  5
16F
330
1F
100
AcDbEntity
  8
0
  6
HIDDEN
 62
     7
370
     0
100
AcDbSpline
210
0.0
220
0.0
230
1.0
 70
     8
 71
     3
 72
    10
 73
     6
 74
     0
 42
0.00000001
 43
0.00000001
 12
1.0
 22
0.0
 32
0.0
 13
1.0
 23
0.0
 33
0.0
 40
0.0
 40
0.0
 40
0.0
 40
0.0
 40
0.2926609884170746
 40
0.636430470376609
 40
1.0
 40
1.0
 40
1.0
 40
1.0
 10
228.1486427432951
 20
151.5042545257441
 30
0.0
 10
228.2125916425752
 20
151.5296698201156
 30
0.0
 10
228.3516570788983
 20
151.584938777687
 30
0.0
 10
228.7045080214426
 20
151.6308131558679
 30
0.0
 10
229.0526263118621
 20
151.6030501071281
 30
0.0
 10
229.2315577733376
 20
151.5887800069273
 30
0.0
  0
SPLINE
  5
170
330
1F
100
AcDbEntity
  8
0
  6
HIDDEN
 62
     7
370
     0
100
AcDbSpline
210
0.0
220
0.0
230
1.0
 70
     8
 71
     3
 72
    11
 73
     7
 74
     0
 42
0.00000001
 43
0.00000001
 12
1.0
 22
0.0
 32
0.0
 13
1.0
 23
0.0
 33
0.0
 40
0.0
 40
0.0
 40
0.0
 40
0.0
 40
0.0479196324816111
 40
0.4057188728547112
 40
0.7785737631052532
 40
1.0
 40
1.0
 40
1.0
 40
1.0
 10
244.5017238329754
 20
149.7029856128105
 30
0.0
 10
244.5274282827201
 20
149.7000455382536
 30
0.0
 10
244.7450589246448
 20
149.6751529488585
 30
0.0
 10
245.0788682142729
 20
149.5895588994374
 30
0.0
 10
245.4100566947978
 20
149.4610878129792
 30
0.0
 10
245.5182937472791
 20
149.3797372619883
 30
0.0
 10
245.5586223428355
 20
149.3494264451838
 30
0.0
  0
LINE
  5
171
330
1F
100
AcDbEntity
  8
0
  6
HIDDEN
 62
     7
370
     0
100
AcDbLine
 10
229.9258973175
 20
152.2670886118
 30
0.0
 11
228.1257497348
 21
151.5029712975
 31
0.0
  0
LINE
  5
172
330
1F
100
AcDbEntity
  8
0
  6
HIDDEN
 62
     7
370
     0
100
AcDbLine
 10
245.5710489266
 20
149.3609578964
 30
0.0
 11
244.0092301296
 21
150.5378727764
 31
0.0
  0
SPLINE
  5
173
330
1F
100
AcDbEntity
  8
0
  6
HIDDEN
 62
     7
370
     0
100
AcDbSpline
210
0.0
220
0.0
230
1.0
 70
     8
 71
     3
 72
    10
 73
     6
 74
     0
 42
0.00000001
 43
0.00000001
 12
1.0
 22
0.0
 32
0.0
 13
1.0
 23
0.0
 33
0.0
 40
0.0
 40
0.0
 40
0.0
 40
0.0
 40
0.3002170355665364
 40
0.6434946943557889
 40
1.0
 40
1.0
 40
1.0
 40
1.0
 10
244.5134994289504
 20
149.708906229974
 30
0.0
 10
244.6666182706739
 20
149.6860803602833
 30
0.0
 10
244.9948180414465
 20
149.6371546688671
 30
0.0
 10
245.3478989736354
 20
149.5074272458875
 30
0.0
 10
245.4959485159389
 20
149.4100221367875
 30
0.0
 10
245.5713725402608
 20
149.360398982244
 30
0.0
  0
SPLINE
  5
174
330
1F
100
AcDbEntity
  8
0
  6
HIDDEN
 62
     7
370
     0
100
AcDbSpline
210
0.0
220
0.0
230
1.0
 70
     8
 71
     3
 72
    11
 73
     7
 74
     0
 42
0.00000001
 43
0.00000001
 12
1.0
 22
0.0
 32
0.0
 13
1.0
 23
0.0
 33
0.0
 40
0.0
 40
0.0
 40
0.0
 40
0.0
 40
0.2358715546776775
 40
0.6065035651966754
 40
0.9955147764124351
 40
1.0
 40
1.0
 40
1.0
 40
1.0
 10
228.139604140446
 20
151.4907663389207
 30
0.0
 10
228.1902309748356
 20
151.5113628120608
 30
0.0
 10
228.32040926443
 20
151.5643231378916
 30
0.0
 10
228.6897428049755
 20
151.6080792243982
 30
0.0
 10
229.0316799037503
 20
151.6067079892167
 30
0.0
 10
229.2414315257557
 20
151.578455812826
 30
0.0
 10
229.2438223553524
 20
151.578133783662
 30
0.0
  0
LINE
  5
175
330
1F
100
AcDbEntity
  8
0
  6
HIDDEN
 62
     7
370
     0
100
AcDbLine
 10
224.8707480722
 20
152.3840279793
 30
0.0
 11
224.1578124133
 21
146.5776329922
 31
0.0
  0
LINE
  5
176
330
1F
100
AcDbEntity
  8
0
  6
HIDDEN
 62
     7
370
     0
100
AcDbLine
 10
224.951533667
 20
152.8778636684
 30
0.0
 11
225.3019639113
 21
152.6137955385
 31
0.0
  0
LINE
  5
177
330
1F
100
AcDbEntity
  8
0
  6
HIDDEN
 62
     7
370
     0
100
AcDbLine
 10
248.5796889491
 20
149.7556502909
 30
0.0
 11
248.9835937801
 21
149.9270977198
 31
0.0
  0
LINE
  5
178
330
1F
100
AcDbEntity
  8
0
  6
HIDDEN
 62
     7
370
     0
100
AcDbLine
 10
244.5193302286
 20
149.711814875
 30
0.0
 11
244.5662538467
 21
149.7060533792
 31
0.0
  0
LINE
  5
179
330
1F
100
AcDbEntity
  8
0
  6
HIDDEN
 62
     7
370
     0
100
AcDbLine
 10
240.991570027
 20
139.714960686
 30
0.0
 11
240.1124249879
 21
141.7860966063
 31
0.0
  0
LINE
  5
17A
330
1F
100
AcDbEntity
  8
0
  6
HIDDEN
 62
     7
370
     0
100
AcDbLine
 10
232.1224284672
 20
142.7671448207
 30
0.0
 11
230.7683446651
 21
140.9702149231
 31
0.0
  0
LINE
  5
17B
330
1F
100
AcDbEntity
  8
0
  6
HIDDEN
 62
     7
370
     0
100
AcDbLine
 10
231.5965792776
 20
145.6642672691
 30
0.0
 11
232.2803587525
 21
144.0533837755
 31
0.0
  0
LINE
  5
17C
330
1F
100
AcDbEntity
  8
0
  6
HIDDEN
 62
     7
370
     0
100
AcDbLine
 10
240.2703552732
 20
143.0723355611
 30
0.0
 11
241.3235315637
 21
144.4699477037
 31
0.0
  0
LINE
  5
17D
330
1F
100
AcDbEntity
  8
0
  6
HIDDEN
 62
     7
370
     0
100
AcDbLine
 10
232.2803587525
 20
144.0533837755
 30
0.0
 11
232.1224284672
 21
142.7671448207
 31
0.0
  0
LINE
  5
17E
330
1F
100
AcDbEntity
  8
0
  6
HIDDEN
 62
     7
370
     0
100
AcDbLine
 10
240.1124249879
 20
141.7860966063
 30
0.0
 11
240.2703552732
 21
143.0723355611
 31
0.0
  0
LINE
  5
17F
330
1F
100
AcDbEntity
  8
0
  6
HIDDEN
 62
     7
370
     0
100
AcDbLine
 10
225.9998542715
 20
146.3514586914
 30
0.0
 11
225.4563169999
 21
141.9247028551
 31
0.0
  0
LINE
  5
180
330
1F
100
AcDbEntity
  8
0
  6
HIDDEN
 62
     7
370
     0
100
AcDbLine
 10
225.4563169999
 20
141.9247028551
 30
0.0
 11
225.7175200424
 21
141.5903782066
 31
0.0
  0
LINE
  5
181
330
1F
100
AcDbEntity
  8
0
  6
HIDDEN
 62
     7
370
     0
100
AcDbLine
 10
226.237941305
 20
134.2964120895
 30
0.0
 11
224.5944599022
 21
135.5752752311
 31
0.0
  0
LINE
  5
182
330
1F
100
AcDbEntity
  8
0
  6
HIDDEN
 62
     7
370
     0
100
AcDbLine
 10
224.9603327838
 20
138.4503937793
 30
0.0
 11
227.1025495726
 21
139.3205529263
 31
0.0
  0
SPLINE
  5
183
330
1F
100
AcDbEntity
  8
0
  6
HIDDEN
 62
     7
370
     0
100
AcDbSpline
210
0.0
220
0.0
230
1.0
 70
     8
 71
     3
 72
    18
 73
    14
 74
     0
 42
0.00000001
 43
0.00000001
 12
1.0
 22
0.0
 32
0.0
 13
1.0
 23
0.0
 33
0.0
 40
0.0
 40
0.0
 40
0.0
 40
0.0
 40
0.037686822858301
 40
0.1886666492965355
 40
0.3267718415115382
 40
0.4543438761794783
 40
0.5724478932546657
 40
0.681190503001095
 40
0.77989670556331
 40
0.8666229932474416
 40
0.9372060675962628
 40
0.9918948825758118
 40
1.0
 40
1.0
 40
1.0
 40
1.0
 10
232.985005558626
 20
142.3932728524741
 30
0.0
 10
232.9837181353986
 20
142.3302682721116
 30
0.0
 10
232.9772730756108
 20
142.0148566198207
 30
0.0
 10
232.8123377837393
 20
141.4839009537614
 30
0.0
 10
232.5103010928108
 20
140.8559498133542
 30
0.0
 10
232.1179388235687
 20
140.3434122160056
 30
0.0
 10
231.6813256542882
 20
139.9409385255393
 30
0.0
 10
231.2256836608981
 20
139.6416407727038
 30
0.0
 10
230.7811910824978
 20
139.4359793513262
 30
0.0
 10
230.3750541242036
 20
139.3105144474553
 30
0.0
 10
230.0490519078542
 20
139.2482226691893
 30
0.0
 10
229.8503209338436
 20
139.2268966231219
 30
0.0
 10
229.7935381478028
 20
139.223855483889
 30
0.0
 10
229.7862089181955
 20
139.2234629492978
 30
0.0
  0
LINE
  5
184
330
1F
100
AcDbEntity
  8
0
  6
HIDDEN
 62
     7
370
     0
100
AcDbLine
 10
238.2553498596
 20
133.8966507717
 30
0.0
 11
239.7174269035
 21
150.0510587943
 31
0.0
  0
LINE
  5
185
330
1F
100
AcDbEntity
  8
0
  6
HIDDEN
 62
     7
370
     0
100
AcDbLine
 10
233.7675391784
 20
150.8757119191
 30
0.0
 11
232.9997748951
 21
142.3927270117
 31
0.0
  0
LINE
  5
186
330
1F
100
AcDbEntity
  8
0
  6
HIDDEN
 62
     7
370
     0
100
AcDbLine
 10
238.8775736654
 20
132.4978271552
 30
0.0
 11
239.0560360264
 21
133.7854848762
 31
0.0
  0
LINE
  5
187
330
1F
100
AcDbEntity
  8
0
  6
HIDDEN
 62
     7
370
     0
100
AcDbLine
 10
226.4864535693
 20
142.5673538852
 30
0.0
 11
227.4670870777
 21
150.5539728963
 31
0.0
  0
LINE
  5
188
330
1F
100
AcDbEntity
  8
0
  6
HIDDEN
 62
     7
370
     0
100
AcDbLine
 10
219.5267178645
 20
151.5289276436
 30
0.0
 11
218.5460843562
 21
143.5423086324
 31
0.0
  0
LINE
  5
189
330
1F
100
AcDbEntity
  8
0
  6
HIDDEN
 62
     7
370
     0
100
AcDbLine
 10
218.5460843562
 20
143.5423086324
 30
0.0
 11
219.1049912569
 21
142.6816674779
 31
0.0
  0
LINE
  5
18A
330
1F
100
AcDbEntity
  8
0
  6
HIDDEN
 62
     7
370
     0
100
AcDbLine
 10
225.7359406526
 20
141.867489268
 30
0.0
 11
226.4864535693
 21
142.5673538852
 31
0.0
  0
LINE
  5
18B
330
1F
100
AcDbEntity
  8
0
  6
HIDDEN
 62
     7
370
     0
100
AcDbLine
 10
227.4670870777
 20
150.5539728963
 30
0.0
 11
227.0317486736
 21
151.1111806439
 31
0.0
  0
LINE
  5
18C
330
1F
100
AcDbEntity
  8
0
  6
HIDDEN
 62
     7
370
     0
100
AcDbLine
 10
220.0839256121
 20
151.9642660477
 30
0.0
 11
219.5267178645
 21
151.5289276436
 31
0.0
  0
LINE
  5
18D
330
1F
100
AcDbEntity
  8
0
  6
HIDDEN
 62
     7
370
     0
100
AcDbLine
 10
225.0775683767
 20
131.503180252
 30
0.0
 11
225.3704155446
 21
133.8882290377
 31
0.0
  0
LINE
  5
18E
330
1F
100
AcDbEntity
  8
0
  6
HIDDEN
 62
     7
370
     0
100
AcDbLine
 10
217.5293009466
 20
134.8509968506
 30
0.0
 11
217.2364537787
 21
132.4659480649
 31
0.0
  0
LINE
  5
18F
330
1F
100
AcDbEntity
  8
0
  6
HIDDEN
 62
     7
370
     0
100
AcDbLine
 10
217.2364537787
 20
132.4659480649
 30
0.0
 11
217.7588598637
 21
131.7972987679
 31
0.0
  0
LINE
  5
190
330
1F
100
AcDbEntity
  8
0
  6
HIDDEN
 62
     7
370
     0
100
AcDbLine
 10
224.4089190797
 20
130.9807741671
 30
0.0
 11
225.0775683767
 21
131.503180252
 31
0.0
  0
LINE
  5
191
330
1F
100
AcDbEntity
  8
0
  6
HIDDEN
 62
     7
370
     0
100
AcDbLine
 10
225.3704155446
 20
133.8882290377
 30
0.0
 11
223.3646634884
 21
135.3996716231
 31
0.0
  0
LINE
  5
192
330
1F
100
AcDbEntity
  8
0
  6
HIDDEN
 62
     7
370
     0
100
AcDbLine
 10
219.8411246501
 20
135.8323077922
 30
0.0
 11
217.5293009466
 21
134.8509968506
 31
0.0
  0
LINE
  5
193
330
1F
100
AcDbEntity
  8
0
  6
HIDDEN
 62
     7
370
     0
100
AcDbLine
 10
218.1379261762
 20
139.8078515653
 30
0.0
 11
220.1436782324
 21
138.2964089799
 31
0.0
  0
LINE
  5
194
330
1F
100
AcDbEntity
  8
0
  6
HIDDEN
 62
     7
370
     0
100
AcDbLine
 10
223.6672170708
 20
137.8637728108
 30
0.0
 11
225.9790407742
 21
138.8450837524
 31
0.0
  0
LINE
  5
195
330
1F
100
AcDbEntity
  8
0
  6
HIDDEN
 62
     7
370
     0
100
AcDbLine
 10
225.9790407742
 20
138.8450837524
 30
0.0
 11
226.1378316643
 21
140.1383317713
 31
0.0
  0
LINE
  5
196
330
1F
100
AcDbEntity
  8
0
  6
HIDDEN
 62
     7
370
     0
100
AcDbLine
 10
218.2967170664
 20
141.1010995842
 30
0.0
 11
218.1379261762
 21
139.8078515653
 31
0.0
  0
ARC
  5
197
330
1F
100
AcDbEntity
  8
0
  6
HIDDEN
 62
     7
370
     0
100
AcDbCircle
 10
226.0620713476
 20
140.7521398638
 30
0.0
 40
0.600000000000002
100
AcDbArc
 50
173.0
 51
263.0
  0
ARC
  5
198
330
1F
100
AcDbEntity
  8
0
  6
HIDDEN
 62
     7
370
     0
100
AcDbCircle
 10
218.5187205952
 20
141.6783468737
 30
0.0
 40
0.6000000000000055
100
AcDbArc
 50
263.0
 51
353.0
  0
ARC
  5
199
330
1F
100
AcDbEntity
  8
0
  6
HIDDEN
 62
     7
370
     0
100
AcDbCircle
 10
226.1451396686
 20
141.4286770471
 30
0.0
 40
0.600000000000002
100
AcDbArc
 50
133.0
 51
173.0
  0
ARC
  5
19A
330
1F
100
AcDbEntity
  8
0
  6
HIDDEN
 62
     7
370
     0
100
AcDbCircle
 10
218.6017889161
 20
142.3548840569
 30
0.0
 40
0.5999999999999976
100
AcDbArc
 50
353.0
 51
33.0
  0
LINE
  5
19B
330
1F
100
AcDbEntity
  8
0
  6
HIDDEN
 62
     7
370
     0
100
AcDbLine
 10
225.4665436567
 20
140.8252614698
 30
0.0
 11
225.5496119776
 21
141.5017986531
 31
0.0
  0
LINE
  5
19C
330
1F
100
AcDbEntity
  8
0
  6
HIDDEN
 62
     7
370
     0
100
AcDbLine
 10
219.1973166071
 20
142.2817624509
 30
0.0
 11
219.1142482861
 21
141.6052252676
 31
0.0
  0
LINE
  5
19D
330
1F
100
AcDbEntity
  8
0
  6
HIDDEN
 62
     7
370
     0
100
AcDbLine
 10
221.5727448395
 20
151.7814620326
 30
0.0
 11
222.0080832436
 21
151.2242542851
 31
0.0
  0
LINE
  5
19E
330
1F
100
AcDbEntity
  8
0
  6
HIDDEN
 62
     7
370
     0
100
AcDbLine
 10
224.9857216986
 20
150.8586462549
 30
0.0
 11
225.5429294461
 21
151.293984659
 31
0.0
  0
LINE
  5
19F
330
1F
100
AcDbEntity
  8
0
  6
HIDDEN
 62
     7
370
     0
100
AcDbLine
 10
223.3646634884
 20
135.3996716231
 30
0.0
 11
223.6672170708
 21
137.8637728108
 31
0.0
  0
LINE
  5
1A0
330
1F
100
AcDbEntity
  8
0
  6
HIDDEN
 62
     7
370
     0
100
AcDbLine
 10
220.1436782324
 20
138.2964089799
 30
0.0
 11
219.8411246501
 21
135.8323077922
 31
0.0
  0
LINE
  5
1A1
330
1F
100
AcDbEntity
  8
0
  6
HIDDEN
 62
     7
370
     0
100
AcDbLine
 10
221.5815405417
 20
147.7503427543
 30
0.0
 11
222.9605200355
 21
146.6729658966
 31
0.0
  0
LINE
  5
1A2
330
1F
100
AcDbEntity
  8
0
  6
HIDDEN
 62
     7
370
     0
100
AcDbLine
 10
222.9605200355
 20
146.6729658966
 30
0.0
 11
224.5591789967
 21
147.3847347241
 31
0.0
  0
LINE
  5
1A3
330
1F
100
AcDbEntity
  8
0
  6
HIDDEN
 62
     7
370
     0
100
AcDbLine
 10
183.0034447031
 20
179.2446603328
 30
0.0
 11
183.2034447031
 21
178.7343983091
 31
0.0
  0
LINE
  5
1A4
330
1F
100
AcDbEntity
  8
0
  6
HIDDEN
 62
     7
370
     0
100
AcDbLine
 10
188.8034447031
 20
178.7343983091
 30
0.0
 11
189.0034447031
 21
179.2446603328
 31
0.0
  0
LINE
  5
1A5
330
1F
100
AcDbEntity
  8
0
  6
HIDDEN
 62
     7
370
     0
100
AcDbLine
 10
189.0034447031
 20
179.2446603328
 30
0.0
 11
188.8034447031
 21
179.4243983091
 31
0.0
  0
LINE
  5
1A6
330
1F
100
AcDbEntity
  8
0
  6
HIDDEN
 62
     7
370
     0
100
AcDbLine
 10
183.2034447031
 20
179.4243983091
 30
0.0
 11
183.0034447031
 21
179.2446603328
 31
0.0
  0
LINE
  5
1A7
330
1F
100
AcDbEntity
  8
0
  6
HIDDEN
 62
     7
370
     0
100
AcDbLine
 10
183.0034447031
 20
179.9346603328
 30
0.0
 11
183.2034447031
 21
179.4243983091
 31
0.0
  0
LINE
  5
1A8
330
1F
100
AcDbEntity
  8
0
  6
HIDDEN
 62
     7
370
     0
100
AcDbLine
 10
188.8034447031
 20
179.4243983091
 30
0.0
 11
189.0034447031
 21
179.9346603328
 31
0.0
  0
LINE
  5
1A9
330
1F
100
AcDbEntity
  8
0
  6
HIDDEN
 62
     7
370
     0
100
AcDbLine
 10
189.0034447031
 20
180.4846603328
 30
0.0
 11
188.8634447031
 21
180.6246603328
 31
0.0
  0
LINE
  5
1AA
330
1F
100
AcDbEntity
  8
0
  6
HIDDEN
 62
     7
370
     0
100
AcDbLine
 10
183.1434447031
 20
180.6246603328
 30
0.0
 11
183.0034447031
 21
180.4846603328
 31
0.0
  0
LINE
  5
1AB
330
1F
100
AcDbEntity
  8
0
  6
HIDDEN
 62
     7
370
     0
100
AcDbLine
 10
189.0034447031
 20
179.9346603328
 30
0.0
 11
189.0034447031
 21
180.4846603328
 31
0.0
  0
LINE
  5
1AC
330
1F
100
AcDbEntity
  8
0
  6
HIDDEN
 62
     7
370
     0
100
AcDbLine
 10
183.0034447031
 20
180.4846603328
 30
0.0
 11
183.0034447031
 21
179.9346603328
 31
0.0
  0
LINE
  5
1AD
330
1F
100
AcDbEntity
  8
0
  6
HIDDEN
 62
     7
370
     0
100
AcDbLine
 10
189.0034447031
 20
178.5546603328
 30
0.0
 11
188.8034447031
 21
178.7343983091
 31
0.0
  0
LINE
  5
1AE
330
1F
100
AcDbEntity
  8
0
  6
HIDDEN
 62
     7
370
     0
100
AcDbLine
 10
183.2034447031
 20
178.7343983091
 30
0.0
 11
183.0034447031
 21
178.5546603328
 31
0.0
  0
LINE
  5
1AF
330
1F
100
AcDbEntity
  8
0
  6
HIDDEN
 62
     7
370
     0
100
AcDbLine
 10
183.0034447031
 20
178.5546603328
 30
0.0
 11
183.2034447031
 21
178.0443983091
 31
0.0
  0
LINE
  5
1B0
330
1F
100
AcDbEntity
  8
0
  6
HIDDEN
 62
     7
370
     0
100
AcDbLine
 10
188.8034447031
 20
178.0443983091
 30
0.0
 11
189.0034447031
 21
178.5546603328
 31
0.0
  0
LINE
  5
1B1
330
1F
100
AcDbEntity
  8
0
  6
HIDDEN
 62
     7
370
     0
100
AcDbLine
 10
183.0034447031
 20
177.8646603328
 30
0.0
 11
183.2034447031
 21
177.3543983091
 31
0.0
  0
LINE
  5
1B2
330
1F
100
AcDbEntity
  8
0
  6
HIDDEN
 62
     7
370
     0
100
AcDbLine
 10
188.8034447031
 20
177.3543983091
 30
0.0
 11
189.0034447031
 21
177.8646603328
 31
0.0
  0
LINE
  5
1B3
330
1F
100
AcDbEntity
  8
0
  6
HIDDEN
 62
     7
370
     0
100
AcDbLine
 10
189.0034447031
 20
177.8646603328
 30
0.0
 11
188.8034447031
 21
178.0443983091
 31
0.0
  0
LINE
  5
1B4
330
1F
100
AcDbEntity
  8
0
  6
HIDDEN
 62
     7
370
     0
100
AcDbLine
 10
183.2034447031
 20
178.0443983091
 30
0.0
 11
183.0034447031
 21
177.8646603328
 31
0.0
  0
LINE
  5
1B5
330
1F
100
AcDbEntity
  8
0
  6
HIDDEN
 62
     7
370
     0
100
AcDbLine
 10
189.0034447031
 20
177.1746603328
 30
0.0
 11
188.8034447031
 21
177.3543983091
 31
0.0
  0
LINE
  5
1B6
330
1F
100
AcDbEntity
  8
0
  6
HIDDEN
 62
     7
370
     0
100
AcDbLine
 10
183.2034447031
 20
177.3543983091
 30
0.0
 11
183.0034447031
 21
177.1746603328
 31
0.0
  0
LINE
  5
1B7
330
1F
100
AcDbEntity
  8
0
  6
HIDDEN
 62
     7
370
     0
100
AcDbLine
 10
189.0034447031
 20
174.4246603328
 30
0.0
 11
189.0034447031
 21
177.1746603328
 31
0.0
  0
LINE
  5
1B8
330
1F
100
AcDbEntity
  8
0
  6
HIDDEN
 62
     7
370
     0
100
AcDbLine
 10
183.0034447031
 20
177.1746603328
 30
0.0
 11
183.0034447031
 21
174.4246603328
 31
0.0
  0
LINE
  5
1B9
330
1F
100
AcDbEntity
  8
0
  6
HIDDEN
 62
     7
370
     0
100
AcDbLine
 10
183.0034447031
 20
174.4246603328
 30
0.0
 11
183.5230599453
 21
174.1246603328
 31
0.0
  0
LINE
  5
1BA
330
1F
100
AcDbEntity
  8
0
  6
HIDDEN
 62
     7
370
     0
100
AcDbLine
 10
188.4838294608
 20
174.1246603328
 30
0.0
 11
189.0034447031
 21
174.4246603328
 31
0.0
  0
LINE
  5
1BB
330
1F
100
AcDbEntity
  8
0
  6
HIDDEN
 62
     7
370
     0
100
AcDbLine
 10
188.5034447031
 20
175.7680360058
 30
0.0
 11
188.5034447031
 21
180.6246603328
 31
0.0
  0
LINE
  5
1BC
330
1F
100
AcDbEntity
  8
0
  6
HIDDEN
 62
     7
370
     0
100
AcDbLine
 10
183.5034447031
 20
180.6246603328
 30
0.0
 11
183.5034447031
 21
175.7680360058
 31
0.0
  0
LINE
  5
1BD
330
1F
100
AcDbEntity
  8
0
  6
HIDDEN
 62
     7
370
     0
100
AcDbLine
 10
183.5034447031
 20
175.7680360058
 30
0.0
 11
186.0034447031
 21
174.3246603328
 31
0.0
  0
LINE
  5
1BE
330
1F
100
AcDbEntity
  8
0
  6
HIDDEN
 62
     7
370
     0
100
AcDbLine
 10
186.0034447031
 20
174.3246603328
 30
0.0
 11
188.5034447031
 21
175.7680360058
 31
0.0
  0
CIRCLE
  5
1BF
330
1F
100
AcDbEntity
  8
0
  6
HIDDEN
 62
     7
370
     0
100
AcDbCircle
 10
186.0034447031
 20
177.2246603328
 30
0.0
 40
2.500000000000028
  0
LINE
  5
1C0
330
1F
100
AcDbEntity
  8
0
  6
HIDDEN
 62
     7
370
     0
100
AcDbLine
 10
119.0034447031
 20
125.6746603328
 30
0.0
 11
119.0963379219
 21
125.7675535516
 31
0.0
  0
LINE
  5
1C1
330
1F
100
AcDbEntity
  8
0
  6
HIDDEN
 62
     7
370
     0
100
AcDbLine
 10
119.0963379219
 20
174.081767114
 30
0.0
 11
119.0034447031
 21
174.1746603328
 31
0.0
  0
ARC
  5
1C2
330
1F
100
AcDbEntity
  8
0
  6
HIDDEN
 62
     7
370
     0
100
AcDbCircle
 10
118.3892311407
 20
126.4746603328
 30
0.0
 40
1.000000000000018
100
AcDbArc
 50
315.0
 51
0.0
  0
ARC
  5
1C3
330
1F
100
AcDbEntity
  8
0
  6
HIDDEN
 62
     7
370
     0
100
AcDbCircle
 10
118.3892311407
 20
126.4746603328
 30
0.0
 40
1.00000000000001
100
AcDbArc
 50
0.0
 51
52.1052014664
  0
ARC
  5
1C4
330
1F
100
AcDbEntity
  8
0
  6
HIDDEN
 62
     7
370
     0
100
AcDbCircle
 10
118.3892311407
 20
173.3746603328
 30
0.0
 40
1.000000000000028
100
AcDbArc
 50
343.125
 51
45.0
  0
ARC
  5
1C5
330
1F
100
AcDbEntity
  8
0
  6
HIDDEN
 62
     7
370
     0
100
AcDbCircle
 10
118.3892311407
 20
173.3746603328
 30
0.0
 40
0.9999999999999989
100
AcDbArc
 50
307.8947985336
 51
343.125
  0
LINE
  5
1C6
330
1F
100
AcDbEntity
  8
0
  6
HIDDEN
 62
     7
370
     0
100
AcDbLine
 10
119.3892311407
 20
126.4746603328
 30
0.0
 11
119.3892311407
 21
173.3746603328
 31
0.0
  0
LINE
  5
1C7
330
1F
100
AcDbEntity
  8
0
  6
HIDDEN
 62
     7
370
     0
100
AcDbLine
 10
81.0034447031
 20
133.7282314883
 30
0.0
 11
82.5336731427
 21
134.6117092899
 31
0.0
  0
LINE
  5
1C8
330
1F
100
AcDbEntity
  8
0
  6
HIDDEN
 62
     7
370
     0
100
AcDbLine
 10
82.5336731427
 20
165.2376113757
 30
0.0
 11
81.0034447031
 21
166.1210891772
 31
0.0
  0
LINE
  5
1C9
330
1F
100
AcDbEntity
  8
0
  6
HIDDEN
 62
     7
370
     0
100
AcDbLine
 10
91.0034447031
 20
133.9246603328
 30
0.0
 11
92.005246018
 21
133.9246603328
 31
0.0
  0
LINE
  5
1CA
330
1F
100
AcDbEntity
  8
0
  6
HIDDEN
 62
     7
370
     0
100
AcDbLine
 10
92.005246018
 20
165.9246603328
 30
0.0
 11
91.0034447031
 21
165.9246603328
 31
0.0
  0
ARC
  5
1CB
330
1F
100
AcDbEntity
  8
0
  6
HIDDEN
 62
     7
370
     0
100
AcDbCircle
 10
91.0034447031
 20
135.9246603328
 30
0.0
 40
2.0
100
AcDbArc
 50
189.9742217944
 51
270.0
  0
ARC
  5
1CC
330
1F
100
AcDbEntity
  8
0
  6
HIDDEN
 62
     7
370
     0
100
AcDbCircle
 10
91.0034447031
 20
163.9246603328
 30
0.0
 40
2.0
100
AcDbArc
 50
90.0
 51
170.0257782056
  0
ARC
  5
1CD
330
1F
100
AcDbEntity
  8
0
  6
HIDDEN
 62
     7
370
     0
100
AcDbCircle
 10
92.005246018
 20
135.9246603328
 30
0.0
 40
2.000000000000016
100
AcDbArc
 50
270.0
 51
315.0
  0
ARC
  5
1CE
330
1F
100
AcDbEntity
  8
0
  6
HIDDEN
 62
     7
370
     0
100
AcDbCircle
 10
92.005246018
 20
163.9246603328
 30
0.0
 40
2.0
100
AcDbArc
 50
45.0
 51
90.0
  0
LINE
  5
1CF
330
1F
100
AcDbEntity
  8
0
  6
HIDDEN
 62
     7
370
     0
100
AcDbLine
 10
93.4194595803
 20
134.5104467704
 30
0.0
 11
94.8336731427
 21
135.9246603328
 31
0.0
  0
LINE
  5
1D0
330
1F
100
AcDbEntity
  8
0
  6
HIDDEN
 62
     7
370
     0
100
AcDbLine
 10
94.8336731427
 20
163.9246603328
 30
0.0
 11
93.4194595803
 21
165.3388738952
 31
0.0
  0
LINE
  5
1D1
330
1F
100
AcDbEntity
  8
0
  6
HIDDEN
 62
     7
370
     0
100
AcDbLine
 10
82.5336731427
 20
134.6117092899
 30
0.0
 11
87.4336731427
 21
135.9246603328
 31
0.0
  0
LINE
  5
1D2
330
1F
100
AcDbEntity
  8
0
  6
HIDDEN
 62
     7
370
     0
100
AcDbLine
 10
87.4336731427
 20
163.9246603328
 30
0.0
 11
82.5336731427
 21
165.2376113757
 31
0.0
  0
LINE
  5
1D3
330
1F
100
AcDbEntity
  8
0
  6
HIDDEN
 62
     7
370
     0
100
AcDbLine
 10
89.0336731427
 20
164.2710704943
 30
0.0
 11
88.4336731427
 21
163.9246603328
 31
0.0
  0
LINE
  5
1D4
330
1F
100
AcDbEntity
  8
0
  6
HIDDEN
 62
     7
370
     0
100
AcDbLine
 10
88.4336731427
 20
135.9246603328
 30
0.0
 11
89.0336731427
 21
135.5782501713
 31
0.0
  0
LINE
  5
1D5
330
1F
100
AcDbEntity
  8
0
  6
HIDDEN
 62
     7
370
     0
100
AcDbLine
 10
87.4336731427
 20
135.9246603328
 30
0.0
 11
88.4336731427
 21
135.9246603328
 31
0.0
  0
LINE
  5
1D6
330
1F
100
AcDbEntity
  8
0
  6
HIDDEN
 62
     7
370
     0
100
AcDbLine
 10
88.4336731427
 20
163.9246603328
 30
0.0
 11
87.4336731427
 21
163.9246603328
 31
0.0
  0
ARC
  5
1D7
330
1F
100
AcDbEntity
  8
0
  6
HIDDEN
 62
     7
370
     0
100
AcDbCircle
 10
107.5034447031
 20
136.4246603328
 30
0.0
 40
0.500000000000033
100
AcDbArc
 50
275.5682401931
 51
0.0
  0
ARC
  5
1D8
330
1F
100
AcDbEntity
  8
0
  6
HIDDEN
 62
     7
370
     0
100
AcDbCircle
 10
107.5034447031
 20
163.4246603328
 30
0.0
 40
0.5000000000000124
100
AcDbArc
 50
0.0
 51
86.7052363418
  0
LINE
  5
1D9
330
1F
100
AcDbEntity
  8
0
  6
HIDDEN
 62
     7
370
     0
100
AcDbLine
 10
94.8336731427
 20
135.9246603328
 30
0.0
 11
99.460053139
 21
135.9246603328
 31
0.0
  0
LINE
  5
1DA
330
1F
100
AcDbEntity
  8
0
  6
HIDDEN
 62
     7
370
     0
100
AcDbLine
 10
99.460053139
 20
163.9246603328
 30
0.0
 11
94.8336731427
 21
163.9246603328
 31
0.0
  0
LINE
  5
1DB
330
1F
100
AcDbEntity
  8
0
  6
HIDDEN
 62
     7
370
     0
100
AcDbLine
 10
218.7188619172
 20
146.5905707541
 30
0.0
 11
216.3424097208
 21
127.2359207971
 31
0.0
  0
LINE
  5
1DC
330
1F
100
AcDbEntity
  8
0
  6
HIDDEN
 62
     7
370
     0
100
AcDbLine
 10
226.9258726363
 20
144.5050331845
 30
0.0
 11
227.056249591
 21
145.5668682695
 31
0.0
  0
LINE
  5
1DD
330
1F
100
AcDbEntity
  8
0
  6
HIDDEN
 62
     7
370
     0
100
AcDbLine
 10
224.6797973946
 20
126.2122183125
 30
0.0
 11
225.5714811464
 21
133.4743996919
 31
0.0
  0
LINE
  5
1DE
330
1F
100
AcDbEntity
  8
0
  6
HIDDEN
 62
     7
370
     0
100
AcDbLine
 10
227.056249591
 20
145.5668682695
 30
0.0
 11
226.4127258272
 21
146.0696441364
 31
0.0
  0
LINE
  5
1DF
330
1F
100
AcDbEntity
  8
0
  6
HIDDEN
 62
     7
370
     0
100
AcDbLine
 10
219.4649027657
 20
146.9227295402
 30
0.0
 11
218.7188619172
 21
146.5905707541
 31
0.0
  0
LINE
  5
1E0
330
1F
100
AcDbEntity
  8
0
  6
HIDDEN
 62
     7
370
     0
100
AcDbLine
 10
219.7095218797
 20
153.017746871
 30
0.0
 11
220.1448602838
 21
152.4605391235
 31
0.0
  0
LINE
  5
1E1
330
1F
100
AcDbEntity
  8
0
  6
HIDDEN
 62
     7
370
     0
100
AcDbLine
 10
227.0926833453
 20
151.6074537197
 30
0.0
 11
227.6498910928
 21
152.0427921238
 31
0.0
  0
LINE
  5
1E2
330
1F
100
AcDbEntity
  8
0
  6
HIDDEN
 62
     7
370
     0
100
AcDbLine
 10
108.0034447031
 20
139.6746603328
 30
0.0
 11
109.2534447031
 21
140.9246603328
 31
0.0
  0
LINE
  5
1E3
330
1F
100
AcDbEntity
  8
0
  6
HIDDEN
 62
     7
370
     0
100
AcDbLine
 10
109.2534447031
 20
158.9246603328
 30
0.0
 11
108.0034447031
 21
160.1746603328
 31
0.0
  0
LINE
  5
1E4
330
1F
100
AcDbEntity
  8
0
  6
HIDDEN
 62
     7
370
     0
100
AcDbLine
 10
220.1448602838
 20
152.4605391235
 30
0.0
 11
219.4649027657
 21
146.9227295402
 31
0.0
  0
LINE
  5
1E5
330
1F
100
AcDbEntity
  8
0
  6
HIDDEN
 62
     7
370
     0
100
AcDbLine
 10
226.4127258272
 20
146.0696441364
 30
0.0
 11
227.0926833453
 21
151.6074537197
 31
0.0
  0
LINE
  5
1E6
330
1F
100
AcDbEntity
  8
0
  6
HIDDEN
 62
     7
370
     0
100
AcDbLine
 10
227.4967784976
 20
147.5405214239
 30
0.0
 11
225.9038328102
 21
145.3896571854
 31
0.0
  0
LINE
  5
1E7
330
1F
100
AcDbEntity
  8
0
  6
HIDDEN
 62
     7
370
     0
100
AcDbLine
 10
109.2534447031
 20
140.9246603328
 30
0.0
 11
135.0034447031
 21
140.9246603328
 31
0.0
  0
LINE
  5
1E8
330
1F
100
AcDbEntity
  8
0
  6
HIDDEN
 62
     7
370
     0
100
AcDbLine
 10
135.0034447031
 20
158.9246603328
 30
0.0
 11
109.2534447031
 21
158.9246603328
 31
0.0
  0
LINE
  5
1E9
330
1F
100
AcDbEntity
  8
0
  6
HIDDEN
 62
     7
370
     0
100
AcDbLine
 10
135.0034447031
 20
140.9246603328
 30
0.0
 11
137.8575326435
 21
145.6746603328
 31
0.0
  0
LINE
  5
1EA
330
1F
100
AcDbEntity
  8
0
  6
HIDDEN
 62
     7
370
     0
100
AcDbLine
 10
137.8575326435
 20
154.1746603328
 30
0.0
 11
135.0034447031
 21
158.9246603328
 31
0.0
  0
LINE
  5
1EB
330
1F
100
AcDbEntity
  8
0
  6
HIDDEN
 62
     7
370
     0
100
AcDbLine
 10
231.010196597
 20
128.4917504074
 30
0.0
 11
234.6735353598
 21
133.4381490202
 31
0.0
  0
LINE
  5
1EC
330
1F
100
AcDbEntity
  8
0
  6
HIDDEN
 62
     7
370
     0
100
AcDbLine
 10
107.9467468446
 20
129.5336022109
 30
0.0
 11
107.5534447031
 21
129.9269043525
 31
0.0
  0
LINE
  5
1ED
330
1F
100
AcDbEntity
  8
0
  6
HIDDEN
 62
     7
370
     0
100
AcDbLine
 10
99.4534447031
 20
129.9269043525
 30
0.0
 11
99.2722200484
 21
129.7456796978
 31
0.0
  0
LINE
  5
1EE
330
1F
100
AcDbEntity
  8
0
  6
HIDDEN
 62
     7
370
     0
100
AcDbLine
 10
137.8575326435
 20
145.6746603328
 30
0.0
 11
190.0034447031
 21
145.6746603328
 31
0.0
  0
LINE
  5
1EF
330
1F
100
AcDbEntity
  8
0
  6
HIDDEN
 62
     7
370
     0
100
AcDbLine
 10
183.5034447031
 20
154.1746603328
 30
0.0
 11
137.8575326435
 21
154.1746603328
 31
0.0
  0
LINE
  5
1F0
330
1F
100
AcDbEntity
  8
0
  6
HIDDEN
 62
     7
370
     0
100
AcDbLine
 10
190.0034447031
 20
154.1746603328
 30
0.0
 11
188.5007884582
 21
154.1746603328
 31
0.0
  0
LINE
  5
1F1
330
1F
100
AcDbEntity
  8
0
  6
HIDDEN
 62
     7
370
     0
100
AcDbLine
 10
190.0034447031
 20
145.6746603328
 30
0.0
 11
192.5571023339
 21
149.9246603328
 31
0.0
  0
LINE
  5
1F2
330
1F
100
AcDbEntity
  8
0
  6
HIDDEN
 62
     7
370
     0
100
AcDbLine
 10
192.5571023339
 20
149.9246603328
 30
0.0
 11
190.0034447031
 21
154.1746603328
 31
0.0
  0
LINE
  5
1F3
330
1F
100
AcDbEntity
  8
0
  6
HIDDEN
 62
     7
370
     0
100
AcDbLine
 10
238.9970565488
 20
132.9072873695
 30
0.0
 11
239.8501419526
 21
139.855110431
 31
0.0
  0
LINE
  5
1F4
330
1F
100
AcDbEntity
  8
0
  6
HIDDEN
 62
     7
370
     0
100
AcDbLine
 10
87.4534447031
 20
131.9246603328
 30
0.0
 11
81.0034447031
 21
131.9246603328
 31
0.0
  0
LINE
  5
1F5
330
1F
100
AcDbEntity
  8
0
  6
HIDDEN
 62
     7
370
     0
100
AcDbLine
 10
89.3759700623
 20
130.0021349735
 30
0.0
 11
87.4534447031
 21
131.9246603328
 31
0.0
  0
LINE
  5
1F6
330
1F
100
AcDbEntity
  8
0
  6
HIDDEN
 62
     7
370
     0
100
AcDbLine
 10
107.5534447031
 20
163.9171714057
 30
0.0
 11
107.5534447031
 21
167.4246603328
 31
0.0
  0
LINE
  5
1F7
330
1F
100
AcDbEntity
  8
0
  6
HIDDEN
 62
     7
370
     0
100
AcDbLine
 10
99.4534447031
 20
167.4246603328
 30
0.0
 11
99.4534447031
 21
163.9227643331
 31
0.0
  0
LINE
  5
1F8
330
1F
100
AcDbEntity
  8
0
  6
HIDDEN
 62
     7
370
     0
100
AcDbLine
 10
107.5534447031
 20
167.4246603328
 30
0.0
 11
103.5034447031
 21
169.8581458398
 31
0.0
  0
LINE
  5
1F9
330
1F
100
AcDbEntity
  8
0
  6
HIDDEN
 62
     7
370
     0
100
AcDbLine
 10
103.5034447031
 20
169.8581458398
 30
0.0
 11
99.4534447031
 21
167.4246603328
 31
0.0
  0
LINE
  5
1FA
330
1F
100
AcDbEntity
  8
0
  6
HIDDEN
 62
     7
370
     0
100
AcDbLine
 10
107.5534447031
 20
129.9269043525
 30
0.0
 11
107.5534447031
 21
135.9274785256
 31
0.0
  0
LINE
  5
1FB
330
1F
100
AcDbEntity
  8
0
  6
HIDDEN
 62
     7
370
     0
100
AcDbLine
 10
99.4534447031
 20
135.9265563325
 30
0.0
 11
99.4534447031
 21
129.9269043525
 31
0.0
  0
LINE
  5
1FC
330
1F
100
AcDbEntity
  8
0
  6
HIDDEN
 62
     7
370
     0
100
AcDbLine
 10
183.0034447031
 20
181.4246603328
 30
0.0
 11
183.0034447031
 21
174.4246603328
 31
0.0
  0
LINE
  5
1FD
330
1F
100
AcDbEntity
  8
0
  6
HIDDEN
 62
     7
370
     0
100
AcDbLine
 10
189.0034447031
 20
174.4246603328
 30
0.0
 11
189.0034447031
 21
181.4246603328
 31
0.0
  0
LINE
  5
1FE
330
1F
100
AcDbEntity
  8
0
  6
HIDDEN
 62
     7
370
     0
100
AcDbLine
 10
183.0034447031
 20
174.4246603328
 30
0.0
 11
183.5034447031
 21
174.1242300233
 31
0.0
  0
LINE
  5
1FF
330
1F
100
AcDbEntity
  8
0
  6
HIDDEN
 62
     7
370
     0
100
AcDbLine
 10
188.5034447031
 20
174.1242300233
 30
0.0
 11
189.0034447031
 21
174.4246603328
 31
0.0
  0
LINE
  5
200
330
1F
100
AcDbEntity
  8
0
  6
HIDDEN
 62
     7
370
     0
100
AcDbLine
 10
183.5034447031
 20
174.1242300233
 30
0.0
 11
183.5034447031
 21
154.1746603328
 31
0.0
  0
LINE
  5
201
330
1F
100
AcDbEntity
  8
0
  6
HIDDEN
 62
     7
370
     0
100
AcDbLine
 10
188.5034447031
 20
172.2109575155
 30
0.0
 11
188.5034447031
 21
174.1242300233
 31
0.0
  0
LINE
  5
202
330
1F
100
AcDbEntity
  8
0
  6
HIDDEN
 62
     7
370
     0
100
AcDbLine
 10
188.5034447031
 20
154.1731052302
 30
0.0
 11
188.5034447031
 21
166.9536463943
 31
0.0
  0
LINE
  5
203
330
1F
100
AcDbEntity
  8
0
  6
HIDDEN
 62
     7
370
     0
100
AcDbLine
 10
197.2363760022
 20
169.3734561305
 30
0.0
 11
188.5034447031
 21
172.2109575155
 31
0.0
  0
LINE
  5
204
330
1F
100
AcDbEntity
  8
0
  6
HIDDEN
 62
     7
370
     0
100
AcDbLine
 10
188.5034447031
 20
166.9536463943
 30
0.0
 11
198.7794076466
 21
163.6147836362
 31
0.0
  0
LINE
  5
205
330
1F
100
AcDbEntity
  8
0
  6
HIDDEN
 62
     7
370
     0
100
AcDbLine
 10
133.0034447031
 20
118.9246603328
 30
0.0
 11
131.0034447031
 21
120.1263815708
 31
0.0
  0
LINE
  5
206
330
1F
100
AcDbEntity
  8
0
  6
HIDDEN
 62
     7
370
     0
100
AcDbLine
 10
131.0034447031
 20
120.1263815708
 30
0.0
 11
129.0034447031
 21
118.9246603328
 31
0.0
  0
LINE
  5
207
330
1F
100
AcDbEntity
  8
0
  6
HIDDEN
 62
     7
370
     0
100
AcDbLine
 10
129.0034447031
 20
118.9246603328
 30
0.0
 11
129.0034447031
 21
118.4246603328
 31
0.0
  0
LINE
  5
208
330
1F
100
AcDbEntity
  8
0
  6
HIDDEN
 62
     7
370
     0
100
AcDbLine
 10
133.0034447031
 20
118.4246603328
 30
0.0
 11
133.0034447031
 21
118.9246603328
 31
0.0
  0
LINE
  5
209
330
1F
100
AcDbEntity
  8
0
  6
HIDDEN
 62
     7
370
     0
100
AcDbLine
 10
223.1545716509
 20
152.5947479476
 30
0.0
 11
222.4233555904
 21
146.6394710376
 31
0.0
  0
LINE
  5
20A
330
1F
100
AcDbEntity
  8
0
  6
HIDDEN
 62
     7
370
     0
100
AcDbLine
 10
223.0755725984
 20
146.5593888587
 30
0.0
 11
222.5137549253
 21
141.9837510997
 31
0.0
  0
LINE
  5
20B
330
1F
100
AcDbEntity
  8
VERMASSUNG
100
AcDbLine
 10
249.0034447031
 20
149.9246603328
 30
0.0
 11
249.0034447031
 21
154.2095316586
 31
0.0
  0
DIMENSION
  5
20C
330
1F
100
AcDbEntity
  8
VERMASSUNG
100
AcDbDimension
  2
_D
 10
119.0034447031
 20
191.4246603328
 30
0.0
 11
184.0034447031
 21
191.4246603328
 31
0.0
 70
   160
  1
<>
 71
     2
 42
-1.0
  3
SLDDIMSTYLE0
100
AcDbAlignedDimension
 13
249.0034447031
 23
154.2095316586
 33
0.0
 14
119.0034447031
 24
180.9246603328
 34
0.0
100
AcDbRotatedDimension
  0
DIMENSION
  5
219
330
1F
100
AcDbEntity
  8
VERMASSUNG
100
AcDbDimension
  2
_D_1
 10
249.0034447031
 20
197.4246603328
 30
0.0
 11
165.0034447031
 21
197.4246603328
 31
0.0
 70
   160
  1
<>
 71
     2
 42
-1.0
  3
SLDDIMSTYLE1
100
AcDbAlignedDimension
 13
81.0034447031
 23
170.1107761018
 33
0.0
 14
249.0034447031
 24
154.2095316586
 34
0.0
 50
0.0
100
AcDbRotatedDimension
  0
LINE
  5
224
330
1F
100
AcDbEntity
  8
VERMASSUNG
  6
CENTERX2
370
     0
100
AcDbLine
 10
255.3519936966
 20
149.9246603328
 30
0.0
 11
77.5130261171
 21
149.9246603328
 31
0.0
  0
LINE
  5
225
330
1F
100
AcDbEntity
  8
0
  6
Continuous
 62
     7
370
    15
100
AcDbLine
 10
236.9675637235
 20
82.4366212286
 30
0.0
 11
236.7621261497
 21
82.4366212286
 31
0.0
  0
LINE
  5
226
330
1F
100
AcDbEntity
  8
0
  6
Continuous
 62
     7
370
    15
100
AcDbLine
 10
236.7621261497
 20
61.9576063419
 30
0.0
 11
236.9675637235
 21
61.9576063419
 31
0.0
  0
LINE
  5
227
330
1F
100
AcDbEntity
  8
0
  6
Continuous
 62
     7
370
    15
100
AcDbLine
 10
237.2230750073
 20
74.9824334321
 30
0.0
 11
235.931520509
 21
75.1956229224
 31
0.0
  0
LINE
  5
228
330
1F
100
AcDbEntity
  8
0
  6
Continuous
 62
     7
370
    15
100
AcDbLine
 10
119.5034447031
 20
40.6971137853
 30
0.0
 11
210.3417256396
 21
40.6971137853
 31
0.0
  0
LINE
  5
229
330
1F
100
AcDbEntity
  8
0
  6
Continuous
 62
     7
370
    15
100
AcDbLine
 10
210.3417256396
 20
103.6971137853
 30
0.0
 11
119.5034447031
 21
103.6971137853
 31
0.0
  0
ARC
  5
22A
330
1F
100
AcDbEntity
  8
0
  6
Continuous
 62
     7
370
    15
100
AcDbCircle
 10
119.5034447031
 20
41.1971137853
 30
0.0
 40
0.5000000000000071
100
AcDbArc
 50
180.0
 51
270.0
  0
ARC
  5
22B
330
1F
100
AcDbEntity
  8
0
  6
Continuous
 62
     7
370
    15
100
AcDbCircle
 10
119.5034447031
 20
103.1971137853
 30
0.0
 40
0.5
100
AcDbArc
 50
90.0
 51
180.0
  0
LWPOLYLINE
  5
22C
330
1F
100
AcDbEntity
  8
0
  6
Continuous
 62
     7
370
    15
100
AcDbPolyline
 90
        3
 70
   128
 43
0.0
 10
118.8034447031
 20
49.6572935064
 10
118.9288996466
 20
49.5889913914
 10
119.0034447031
 20
49.5362536333
  0
LWPOLYLINE
  5
22D
330
1F
100
AcDbEntity
  8
0
  6
Continuous
 62
     7
370
    15
100
AcDbPolyline
 90
        3
 70
   128
 43
0.0
 10
119.0034447031
 20
94.8579739372
 10
118.9288996466
 20
94.8052361791
 10
118.8034447031
 20
94.7369340641
  0
LINE
  5
22E
330
1F
100
AcDbEntity
  8
0
  6
Continuous
 62
     7
370
    15
100
AcDbLine
 10
225.0735026573
 20
71.890696008
 30
0.0
 11
236.7123651762
 21
62.0511885647
 31
0.0
  0
ARC
  5
22F
330
1F
100
AcDbEntity
  8
0
  6
Continuous
 62
     7
370
    15
100
AcDbCircle
 10
225.3334307016
 20
72.1971137853
 30
0.0
 40
0.4018139400519357
100
AcDbArc
 50
130.3072723465
 51
229.6927276535
  0
LINE
  5
230
330
1F
100
AcDbEntity
  8
0
  6
Continuous
 62
     7
370
    15
100
AcDbLine
 10
236.7123651762
 20
82.3430390059
 30
0.0
 11
225.0735026573
 21
72.5035315625
 31
0.0
  0
ARC
  5
231
330
1F
100
AcDbEntity
  8
0
  6
Continuous
 62
     7
370
    15
100
AcDbCircle
 10
236.9675637235
 20
82.0417477096
 30
0.0
 40
0.3948452149583508
100
AcDbArc
 50
49.7348670886
 51
130.2651329114
  0
LINE
  5
232
330
1F
100
AcDbEntity
  8
0
  6
Continuous
 62
     7
370
    15
100
AcDbLine
 10
248.8616247897
 20
72.5035315625
 30
0.0
 11
237.2227622708
 21
82.3430390059
 31
0.0
  0
ARC
  5
233
330
1F
100
AcDbEntity
  8
0
  6
Continuous
 62
     7
370
    15
100
AcDbCircle
 10
248.6016967455
 20
72.1971137853
 30
0.0
 40
0.4018139400520276
100
AcDbArc
 50
310.3072723465
 51
49.6927276535
  0
LINE
  5
234
330
1F
100
AcDbEntity
  8
0
  6
Continuous
 62
     7
370
    15
100
AcDbLine
 10
237.2227622708
 20
62.0511885647
 30
0.0
 11
248.8616247897
 21
71.890696008
 31
0.0
  0
ARC
  5
235
330
1F
100
AcDbEntity
  8
0
  6
Continuous
 62
     7
370
    15
100
AcDbCircle
 10
236.9675637235
 20
62.352479861
 30
0.0
 40
0.3948452149583229
100
AcDbArc
 50
229.7348670886
 51
310.2651329114
  0
ARC
  5
236
330
1F
100
AcDbEntity
  8
0
  6
Continuous
 62
     7
370
    15
100
AcDbCircle
 10
236.9675637235
 20
82.0414913855
 30
0.0
 40
0.3751029542106624
100
AcDbArc
 50
49.7348670887
 51
130.2651329113
  0
LINE
  5
237
330
1F
100
AcDbEntity
  8
0
  6
Continuous
 62
     7
370
    15
100
AcDbLine
 10
236.7251251036
 20
82.327718117
 30
0.0
 11
225.0862625847
 21
72.4882106736
 31
0.0
  0
ARC
  5
238
330
1F
100
AcDbEntity
  8
0
  6
Continuous
 62
     7
370
    15
100
AcDbCircle
 10
225.3331942267
 20
72.1971137853
 30
0.0
 40
0.3817232430494089
100
AcDbArc
 50
130.3072723465
 51
229.6927276535
  0
LINE
  5
239
330
1F
100
AcDbEntity
  8
0
  6
Continuous
 62
     7
370
    15
100
AcDbLine
 10
225.0862625847
 20
71.9060168969
 30
0.0
 11
236.7251251036
 21
62.0665094535
 31
0.0
  0
ARC
  5
23A
330
1F
100
AcDbEntity
  8
0
  6
Continuous
 62
     7
370
    15
100
AcDbCircle
 10
236.9675637235
 20
62.352736185
 30
0.0
 40
0.3751029542106145
100
AcDbArc
 50
229.7348670886
 51
310.2651329114
  0
LINE
  5
23B
330
1F
100
AcDbEntity
  8
0
  6
Continuous
 62
     7
370
    15
100
AcDbLine
 10
237.2100023435
 20
62.0665094535
 30
0.0
 11
248.8488648624
 21
71.9060168969
 31
0.0
  0
ARC
  5
23C
330
1F
100
AcDbEntity
  8
0
  6
Continuous
 62
     7
370
    15
100
AcDbCircle
 10
248.6019332209
 20
72.1971137851
 30
0.0
 40
0.3817232425514325
100
AcDbArc
 50
310.3072723048
 51
49.6927274857
  0
LINE
  5
23D
330
1F
100
AcDbEntity
  8
0
  6
Continuous
 62
     7
370
    15
100
AcDbLine
 10
248.8488648635
 20
72.4882106723
 30
0.0
 11
237.2100023435
 21
82.327718117
 31
0.0
  0
LINE
  5
23E
330
1F
100
AcDbEntity
  8
0
  6
Continuous
 62
     7
370
    15
100
AcDbLine
 10
225.3019639113
 20
72.1971137853
 30
0.0
 11
225.0862625847
 21
71.9060168969
 31
0.0
  0
LINE
  5
23F
330
1F
100
AcDbEntity
  8
0
  6
Continuous
 62
     7
370
    15
100
AcDbLine
 10
225.3019639113
 20
72.1971137853
 30
0.0
 11
225.0862625847
 21
72.4882106736
 31
0.0
  0
LINE
  5
240
330
1F
100
AcDbEntity
  8
0
  6
Continuous
 62
     7
370
    15
100
AcDbLine
 10
236.8573188768
 20
63.906915005
 30
0.0
 11
236.9408264302
 21
62.3576063419
 31
0.0
  0
LINE
  5
241
330
1F
100
AcDbEntity
  8
0
  6
Continuous
 62
     7
370
    15
100
AcDbLine
 10
236.9408264302
 20
62.3576063419
 30
0.0
 11
236.7251251036
 21
62.0665094535
 31
0.0
  0
LINE
  5
242
330
1F
100
AcDbEntity
  8
0
  6
Continuous
 62
     7
370
    15
100
AcDbLine
 10
227.428714296
 20
72.1971137853
 30
0.0
 11
225.3019639113
 21
72.1971137853
 31
0.0
  0
LINE
  5
243
330
1F
100
AcDbEntity
  8
0
  6
Continuous
 62
     7
370
    15
100
AcDbLine
 10
229.3416267358
 20
76.7660392979
 30
0.0
 11
224.2996323267
 21
72.5035315625
 31
0.0
  0
LINE
  5
244
330
1F
100
AcDbEntity
  8
0
  6
Continuous
 62
     7
370
    15
100
AcDbLine
 10
236.9408264302
 20
82.0366212286
 30
0.0
 11
236.7251251036
 21
82.327718117
 31
0.0
  0
LINE
  5
245
330
1F
100
AcDbEntity
  8
0
  6
Continuous
 62
     7
370
    15
100
AcDbLine
 10
236.8573188768
 20
80.4873125655
 30
0.0
 11
236.9408264302
 21
82.0366212286
 31
0.0
  0
ARC
  5
246
330
1F
100
AcDbEntity
  8
0
  6
Continuous
 62
     7
370
    15
100
AcDbCircle
 10
230.9302672115
 20
72.1971137853
 30
0.0
 40
1.00453485013006
100
AcDbArc
 50
130.3072723465
 51
229.6927276535
  0
LINE
  5
247
330
1F
100
AcDbEntity
  8
0
  6
Continuous
 62
     7
370
    15
100
AcDbLine
 10
230.2804471008
 20
71.4310693421
 30
0.0
 11
236.3295673552
 21
66.3171362862
 31
0.0
  0
LINE
  5
248
330
1F
100
AcDbEntity
  8
0
  6
Continuous
 62
     7
370
    15
100
AcDbLine
 10
236.3295673552
 20
78.0770912843
 30
0.0
 11
230.2804471008
 21
72.9631582284
 31
0.0
  0
ARC
  5
249
330
1F
100
AcDbEntity
  8
0
  6
Continuous
 62
     7
370
    15
100
AcDbCircle
 10
236.9675637235
 20
77.3238630436
 30
0.0
 40
0.987113037396199
100
AcDbArc
 50
49.7348670886
 51
130.2651329114
  0
LINE
  5
24A
330
1F
100
AcDbEntity
  8
0
  6
Continuous
 62
     7
370
    15
100
AcDbLine
 10
243.6546803463
 20
72.9631582284
 30
0.0
 11
237.6055600918
 21
78.0770912843
 31
0.0
  0
ARC
  5
24B
330
1F
100
AcDbEntity
  8
0
  6
Continuous
 62
     7
370
    15
100
AcDbCircle
 10
243.0048602361
 20
72.1971137851
 30
0.0
 40
1.004534849950167
100
AcDbArc
 50
310.3072723307
 51
49.6927276818
  0
LINE
  5
24C
330
1F
100
AcDbEntity
  8
0
  6
Continuous
 62
     7
370
    15
100
AcDbLine
 10
237.6055600918
 20
66.3171362862
 30
0.0
 11
243.6546803465
 21
71.4310693419
 31
0.0
  0
ARC
  5
24D
330
1F
100
AcDbEntity
  8
0
  6
Continuous
 62
     7
370
    15
100
AcDbCircle
 10
236.9675637235
 20
67.0703645269
 30
0.0
 40
0.987113037396073
100
AcDbArc
 50
229.7348670886
 51
310.2651329114
  0
CIRCLE
  5
24E
330
1F
100
AcDbEntity
  8
0
  6
Continuous
 62
     7
370
    15
100
AcDbCircle
 10
236.9542114477
 20
72.1783532128
 30
0.0
 40
3.159450933861525
  0
SPLINE
  5
24F
330
1F
100
AcDbEntity
  8
0
  6
Continuous
 62
     7
370
    15
100
AcDbSpline
210
0.0
220
0.0
230
1.0
 70
    24
 71
     3
 72
    11
 73
     7
 74
     0
 42
0.00000001
 43
0.00000001
 12
1.0
 22
0.0
 32
0.0
 13
1.0
 23
0.0
 33
0.0
 40
0.0
 40
0.0
 40
0.0
 40
0.0
 40
0.3517313814402143
 40
0.702175447168264
 40
0.9922929354047793
 40
1.0
 40
1.0
 40
1.0
 40
1.0
 10
227.42871429597
 20
72.19711378526434
 30
0.0
 10
227.5078151245655
 20
72.19711378526432
 30
0.0
 10
227.6657272774789
 20
72.19711378526429
 30
0.0
 10
227.9086854555809
 20
72.19711378526435
 30
0.0
 10
228.0584621549067
 20
72.19711378526425
 30
0.0
 10
228.1240523991286
 20
72.19711378526429
 30
0.0
 10
228.1257497348393
 20
72.19711378526429
 30
0.0
  0
ARC
  5
250
330
1F
100
AcDbEntity
  8
0
  6
Continuous
 62
     7
370
    15
100
AcDbCircle
 10
236.1907453873
 20
72.2318233221
 30
0.0
 40
3.140561227211114
100
AcDbArc
 50
49.4745858749
 51
82.8686498416
  0
LINE
  5
251
330
1F
100
AcDbEntity
  8
0
  6
Continuous
 62
     7
370
    15
100
AcDbLine
 10
246.2498657869
 20
72.1971137853
 30
0.0
 11
248.5796889491
 21
72.1971137853
 31
0.0
  0
LINE
  5
252
330
1F
100
AcDbEntity
  8
0
  6
Continuous
 62
     7
370
    15
100
AcDbLine
 10
248.5796889491
 20
72.1971137853
 30
0.0
 11
248.8488648624
 21
71.9060168969
 31
0.0
  0
LINE
  5
253
330
1F
100
AcDbEntity
  8
0
  6
Continuous
 62
     7
370
    15
100
AcDbLine
 10
236.9408264302
 20
62.3576063419
 30
0.0
 11
237.2100023435
 21
62.0665094535
 31
0.0
  0
LINE
  5
254
330
1F
100
AcDbEntity
  8
0
  6
Continuous
 62
     7
370
    15
100
AcDbLine
 10
236.9408264302
 20
82.0366212286
 30
0.0
 11
237.2100023435
 21
82.327718117
 31
0.0
  0
LINE
  5
255
330
1F
100
AcDbEntity
  8
0
  6
Continuous
 62
     7
370
    15
100
AcDbLine
 10
248.5796889491
 20
72.1971137853
 30
0.0
 11
248.8488648635
 21
72.4882106723
 31
0.0
  0
SPLINE
  5
256
330
1F
100
AcDbEntity
  8
0
  6
Continuous
 62
     7
370
    15
100
AcDbSpline
210
0.0
220
0.0
230
1.0
 70
     8
 71
     3
 72
    11
 73
     7
 74
     0
 42
0.00000001
 43
0.00000001
 12
1.0
 22
0.0
 32
0.0
 13
1.0
 23
0.0
 33
0.0
 40
0.0
 40
0.0
 40
0.0
 40
0.0
 40
0.0082250097086952
 40
0.3243955849041993
 40
0.661784888887319
 40
1.0
 40
1.0
 40
1.0
 40
1.0
 10
236.8633455657255
 20
64.60199490072563
 30
0.0
 10
236.8632257442342
 20
64.60028291999596
 30
0.0
 10
236.8584999671052
 20
64.53276214983134
 30
0.0
 10
236.8513147192826
 20
64.38356395230471
 30
0.0
 10
236.8481068784819
 20
64.14071357304768
 30
0.0
 10
236.8542457095073
 20
63.98491134127682
 30
0.0
 10
236.8573188768386
 20
63.9069150050295
 30
0.0
  0
SPLINE
  5
257
330
1F
100
AcDbEntity
  8
0
  6
Continuous
 62
     7
370
    15
100
AcDbSpline
210
0.0
220
0.0
230
1.0
 70
     8
 71
     3
 72
    11
 73
     7
 74
     0
 42
0.00000001
 43
0.00000001
 12
1.0
 22
0.0
 32
0.0
 13
1.0
 23
0.0
 33
0.0
 40
0.0
 40
0.0
 40
0.0
 40
0.0
 40
0.3382151111130761
 40
0.6756044150963999
 40
0.9917749902912684
 40
1.0
 40
1.0
 40
1.0
 40
1.0
 10
236.8573188768386
 20
80.48731256549858
 30
0.0
 10
236.8542457095073
 20
80.4093162292512
 30
0.0
 10
236.8481068784819
 20
80.25351399748027
 30
0.0
 10
236.8513147192826
 20
80.01066361822346
 30
0.0
 10
236.8584999671054
 20
79.86146542069699
 30
0.0
 10
236.8632257442342
 20
79.79394465053255
 30
0.0
 10
236.8633455657255
 20
79.7922326698029
 30
0.0
  0
SPLINE
  5
258
330
1F
100
AcDbEntity
  8
0
  6
Continuous
 62
     7
370
    15
100
AcDbSpline
210
0.0
220
0.0
230
1.0
 70
    24
 71
     3
 72
    14
 73
    10
 74
     0
 42
0.00000001
 43
0.00000001
 12
1.0
 22
0.0
 32
0.0
 13
1.0
 23
0.0
 33
0.0
 40
0.0
 40
0.0
 40
0.0
 40
0.0
 40
0.0076858322765687
 40
0.1516387840461465
 40
0.2974777217055086
 40
0.4707628533312271
 40
0.6479439802127848
 40
0.821427582620239
 40
1.0
 40
1.0
 40
1.0
 40
1.0
 10
245.5710489265534
 20
72.1971137852643
 30
0.0
 10
245.5725224612434
 20
72.19711378526426
 30
0.0
 10
245.601594785568
 20
72.19711378526355
 30
0.0
 10
245.6612564669392
 20
72.19711378526462
 30
0.0
 10
245.7604125647439
 20
72.19711378526405
 30
0.0
 10
245.8729755290503
 20
72.19711378526435
 30
0.0
 10
245.9967166106258
 20
72.19711378526426
 30
0.0
 10
246.1243786119925
 20
72.19711378526428
 30
0.0
 10
246.2076355809753
 20
72.19711378526428
 30
0.0
 10
246.2498657869066
 20
72.19711378526428
 30
0.0
  0
ELLIPSE
  5
259
330
1F
100
AcDbEntity
  8
0
  6
Continuous
 62
     7
370
    15
100
AcDbEllipse
 10
236.742483041
 20
72.0211673289
 30
0.0
 11
0.008162934549829972
 21
3.000645832916732
 31
0.0
210
0.0
220
0.0
230
1.0
 40
0.991431004
 41
5.151887495528595
 42
7.575643256847912
  0
ELLIPSE
  5
25A
330
1F
100
AcDbEntity
  8
0
  6
Continuous
 62
     7
370
    15
100
AcDbEllipse
 10
236.742483041
 20
72.0211673289
 30
0.0
 11
0.008162934549829972
 21
3.000645832916732
 31
0.0
210
0.0
220
0.0
230
1.0
 40
0.991431004
 41
3.188843566632863
 42
5.151887495528612
  0
ARC
  5
25B
330
1F
100
AcDbEntity
  8
0
  6
Continuous
 62
     7
370
    15
100
AcDbCircle
 10
223.5390124213
 20
65.8578398591
 30
0.0
 40
3.500212486968415
100
AcDbArc
 50
270.8068996745
 51
89.1931003541
  0
CIRCLE
  5
25C
330
1F
100
AcDbEntity
  8
0
  6
Continuous
 62
     7
370
    15
100
AcDbCircle
 10
223.567538245
 20
65.867887361
 30
0.0
 40
1.992344605014126
  0
SPLINE
  5
25D
330
1F
100
AcDbEntity
  8
0
  6
Continuous
 62
     7
370
    15
100
AcDbSpline
210
0.0
220
0.0
230
1.0
 70
     8
 71
     3
 72
    11
 73
     7
 74
     0
 42
0.00000001
 43
0.00000001
 12
1.0
 22
0.0
 32
0.0
 13
1.0
 23
0.0
 33
0.0
 40
0.0
 40
0.0
 40
0.0
 40
0.0
 40
0.1081100880371236
 40
0.4711580666043568
 40
0.8135808430836144
 40
0.9999999999999999
 40
0.9999999999999999
 40
0.9999999999999999
 40
0.9999999999999999
 10
223.3753493953955
 20
64.13238002782789
 30
0.0
 10
223.424611044201
 20
64.15712504671833
 30
0.0
 10
223.6392998269996
 20
64.26496711280294
 30
0.0
 10
224.0607578027219
 20
64.47027497580048
 30
0.0
 10
224.5606953197561
 20
64.69962624571137
 30
0.0
 10
224.8362761968461
 20
64.82143736328624
 30
0.0
 10
224.9334196938443
 20
64.86437632936924
 30
0.0
  0
SPLINE
  5
25E
330
1F
100
AcDbEntity
  8
0
  6
Continuous
 62
     7
370
    15
100
AcDbSpline
210
0.0
220
0.0
230
1.0
 70
     8
 71
     3
 72
    13
 73
     9
 74
     0
 42
0.00000001
 43
0.00000001
 12
1.0
 22
0.0
 32
0.0
 13
1.0
 23
0.0
 33
0.0
 40
0.0
 40
0.0
 40
0.0
 40
0.0
 40
0.2161241182544797
 40
0.4396369202065132
 40
0.5932538221761648
 40
0.7520048557756837
 40
0.8754343578245652
 40
0.9999999999999999
 40
0.9999999999999999
 40
0.9999999999999999
 40
0.9999999999999999
 10
224.9334196938443
 20
64.86437632936924
 30
0.0
 10
224.9370545421901
 20
64.98252255848217
 30
0.0
 10
224.9444485042572
 20
65.22285410833756
 30
0.0
 10
224.9663009318285
 20
65.57607165489271
 30
0.0
 10
224.9951420309003
 20
65.89935478776502
 30
0.0
 10
225.0240709012739
 20
66.1566610769182
 30
0.0
 10
225.0539551468371
 20
66.38774052041215
 30
0.0
 10
225.0734570336901
 20
66.52226551415437
 30
0.0
 10
225.0832526491126
 20
66.58983616069489
 30
0.0
  0
SPLINE
  5
25F
330
1F
100
AcDbEntity
  8
0
  6
Continuous
 62
     7
370
    15
100
AcDbSpline
210
0.0
220
0.0
230
1.0
 70
     8
 71
     3
 72
    10
 73
     6
 74
     0
 42
0.00000001
 43
0.00000001
 12
1.0
 22
0.0
 32
0.0
 13
1.0
 23
0.0
 33
0.0
 40
0.0
 40
0.0
 40
0.0
 40
0.0
 40
0.4391165375904097
 40
0.751366942907345
 40
0.9999999999999999
 40
0.9999999999999999
 40
0.9999999999999999
 40
0.9999999999999999
 10
225.0832526491126
 20
66.58983616069489
 30
0.0
 10
224.8691324261366
 20
66.73205812380867
 30
0.0
 10
224.5027539284491
 20
66.97541238740682
 30
0.0
 10
224.0108228335069
 20
67.32917079081645
 30
0.0
 10
223.7781544638914
 20
67.50524711996759
 30
0.0
 10
223.6750153059321
 20
67.58329969047918
 30
0.0
  0
SPLINE
  5
260
330
1F
100
AcDbEntity
  8
0
  6
Continuous
 62
     7
370
    15
100
AcDbSpline
210
0.0
220
0.0
230
1.0
 70
     8
 71
     3
 72
    11
 73
     7
 74
     0
 42
0.00000001
 43
0.00000001
 12
1.0
 22
0.0
 32
0.0
 13
1.0
 23
0.0
 33
0.0
 40
0.0
 40
0.0
 40
0.0
 40
0.0
 40
0.1864191569163783
 40
0.5288419333956434
 40
0.8918899119628765
 40
1.0
 40
1.0
 40
1.0
 40
1.0
 10
223.6750153059321
 20
67.58329969047918
 30
0.0
 10
223.5778718089338
 20
67.54036072439617
 30
0.0
 10
223.3022909318438
 20
67.41854960682132
 30
0.0
 10
222.8023534148097
 20
67.18919833691042
 30
0.0
 10
222.3808954390872
 20
66.98389047391288
 30
0.0
 10
222.1662066562888
 20
66.87604840782828
 30
0.0
 10
222.1169450074833
 20
66.85130338893782
 30
0.0
  0
SPLINE
  5
261
330
1F
100
AcDbEntity
  8
0
  6
Continuous
 62
     7
370
    15
100
AcDbSpline
210
0.0
220
0.0
230
1.0
 70
     8
 71
     3
 72
    13
 73
     9
 74
     0
 42
0.00000001
 43
0.00000001
 12
1.0
 22
0.0
 32
0.0
 13
1.0
 23
0.0
 33
0.0
 40
0.0
 40
0.0
 40
0.0
 40
0.0
 40
0.2161241182544813
 40
0.4396369202065122
 40
0.5932538221761652
 40
0.7520048557756842
 40
0.8754343578245659
 40
1.0
 40
1.0
 40
1.0
 40
1.0
 10
222.1169450074833
 20
66.85130338893782
 30
0.0
 10
222.1000610372041
 20
66.73315715982487
 30
0.0
 10
222.0657158805675
 20
66.4928256099695
 30
0.0
 10
222.0262239315361
 20
66.13960806341434
 30
0.0
 10
221.9989194556054
 20
65.81632493054204
 30
0.0
 10
221.9831611521452
 20
65.55901864138887
 30
0.0
 10
221.9729131207444
 20
65.32793919789492
 30
0.0
 10
221.969051638594
 20
65.1934142041527
 30
0.0
 10
221.967112052215
 20
65.12584355761219
 30
0.0
  0
SPLINE
  5
262
330
1F
100
AcDbEntity
  8
0
  6
Continuous
 62
     7
370
    15
100
AcDbSpline
210
0.0
220
0.0
230
1.0
 70
     8
 71
     3
 72
    11
 73
     7
 74
     0
 42
0.00000001
 43
0.00000001
 12
1.0
 22
0.0
 32
0.0
 13
1.0
 23
0.0
 33
0.0
 40
0.0
 40
0.0
 40
0.0
 40
0.0
 40
0.2164499953511956
 40
0.4402998152333263
 40
0.7518914760010554
 40
1.0
 40
1.0
 40
1.0
 40
1.0
 10
221.967112052215
 20
65.12584355761219
 30
0.0
 10
222.0569543347054
 20
65.05779206831629
 30
0.0
 10
222.2397103579451
 20
64.91936259819909
 30
0.0
 10
222.5926278466252
 20
64.66247151453561
 30
0.0
 10
222.9900145689278
 20
64.38690306385575
 30
0.0
 10
223.2569985358382
 20
64.21055365248353
 30
0.0
 10
223.3753493953955
 20
64.13238002782789
 30
0.0
  0
LINE
  5
263
330
1F
100
AcDbEntity
  8
0
  6
Continuous
 62
     7
370
    15
100
AcDbLine
 10
224.6284300676
 20
66.5898361607
 30
0.0
 11
225.0832526491
 21
66.5898361607
 31
0.0
  0
LINE
  5
264
330
1F
100
AcDbEntity
  8
0
  6
Continuous
 62
     7
370
    15
100
AcDbLine
 10
224.6284300676
 20
66.5898361607
 30
0.0
 11
223.924311396
 21
67.0865679256
 31
0.0
  0
LINE
  5
265
330
1F
100
AcDbEntity
  8
0
  6
Continuous
 62
     7
370
    15
100
AcDbLine
 10
223.924311396
 20
67.0865679256
 30
0.0
 11
223.3959029418
 21
67.4593421108
 31
0.0
  0
LINE
  5
266
330
1F
100
AcDbEntity
  8
0
  6
Continuous
 62
     7
370
    15
100
AcDbLine
 10
223.1871611852
 20
64.2576474011
 30
0.0
 11
223.6995619631
 21
64.4983781786
 31
0.0
  0
LINE
  5
267
330
1F
100
AcDbEntity
  8
0
  6
Continuous
 62
     7
370
    15
100
AcDbLine
 10
223.6995619631
 20
64.4983781786
 30
0.0
 11
224.4785971124
 21
64.8643763294
 31
0.0
  0
LINE
  5
268
330
1F
100
AcDbEntity
  8
0
  6
Continuous
 62
     7
370
    15
100
AcDbLine
 10
224.4785971124
 20
64.8643763294
 30
0.0
 11
224.9334196938
 21
64.8643763294
 31
0.0
  0
LINE
  5
269
330
1F
100
AcDbEntity
  8
0
  6
Continuous
 62
     7
370
    15
100
AcDbLine
 10
224.4785971124
 20
64.8643763294
 30
0.0
 11
224.55351359
 21
65.727106245
 31
0.0
  0
LINE
  5
26A
330
1F
100
AcDbEntity
  8
0
  6
Continuous
 62
     7
370
    15
100
AcDbLine
 10
224.55351359
 20
65.727106245
 30
0.0
 11
224.6284300676
 21
66.5898361607
 31
0.0
  0
ARC
  5
26B
330
1F
100
AcDbEntity
  8
0
  6
Continuous
 62
     7
370
    15
100
AcDbCircle
 10
223.055161741
 20
65.8589595093
 30
0.0
 40
1.504142129833219
100
AcDbArc
 50
354.970990868
 51
54.7014161932
  0
ARC
  5
26C
330
1F
100
AcDbEntity
  8
0
  6
Continuous
 62
     7
370
    15
100
AcDbCircle
 10
223.0593254586
 20
65.8544422836
 30
0.0
 40
1.499604160639446
100
AcDbArc
 50
295.2733310516
 51
355.1289721794
  0
ARC
  5
26D
330
1F
100
AcDbEntity
  8
0
  6
Continuous
 62
     7
370
    15
100
AcDbCircle
 10
223.0702629891
 20
65.8371007363
 30
0.0
 40
1.479254976416886
100
AcDbArc
 50
267.4247876214
 51
295.1770079246
  0
ARC
  5
26E
330
1F
100
AcDbEntity
  8
0
  6
Continuous
 62
     7
370
    15
100
AcDbCircle
 10
223.0697695736
 20
65.8763642092
 30
0.0
 40
1.481497472631754
100
AcDbArc
 50
54.7735483957
 51
87.5396181004
  0
ARC
  5
26F
330
1F
100
AcDbEntity
  8
0
  6
Continuous
 62
     7
370
    15
100
AcDbCircle
 10
186.0034447031
 20
72.1971137853
 30
0.0
 40
3.0
100
AcDbArc
 50
167.2567901253
 51
190.0768679467
  0
LINE
  5
270
330
1F
100
AcDbEntity
  8
0
  6
Continuous
 62
     7
370
    15
100
AcDbLine
 10
185.5090165383
 20
69.2381374775
 30
0.0
 11
185.433946541
 21
69.2516644404
 31
0.0
  0
CIRCLE
  5
271
330
1F
100
AcDbEntity
  8
0
  6
Continuous
 62
     7
370
    15
100
AcDbCircle
 10
186.0034447031
 20
72.1971137853
 30
0.0
 40
2.860000000000005
  0
CIRCLE
  5
272
330
1F
100
AcDbEntity
  8
0
  6
Continuous
 62
     7
370
    15
100
AcDbCircle
 10
186.0034447031
 20
72.1971137853
 30
0.0
 40
2.499999999999996
  0
ELLIPSE
  5
273
330
1F
100
AcDbEntity
  8
0
  6
Continuous
 62
     7
370
    15
100
AcDbEllipse
 10
244.900690179
 20
72.1971137853
 30
0.0
 11
256.546912481199
 21
1.421085471520200E-14
 31
0.0
210
0.0
220
0.0
230
1.0
 40
0.1227845609
 41
1.699544563023993
 42
1.726879865457706
  0
SPLINE
  5
274
330
1F
100
AcDbEntity
  8
0
  6
Continuous
 62
     7
370
    15
100
AcDbSpline
210
0.0
220
0.0
230
1.0
 70
     8
 71
     3
 72
    20
 73
    16
 74
     0
 42
0.00000001
 43
0.00000001
 12
1.0
 22
0.0
 32
0.0
 13
1.0
 23
0.0
 33
0.0
 40
0.0
 40
0.0
 40
0.0
 40
0.0
 40
0.2500000000000038
 40
0.2500000000000038
 40
0.375000000000003
 40
0.375000000000003
 40
0.5000000000000022
 40
0.5000000000000022
 40
0.6250000000000013
 40
0.6250000000000013
 40
0.7500000000000004
 40
0.7500000000000004
 40
0.8750000000000003
 40
0.8750000000000003
 40
1.0
 40
1.0
 40
1.0
 40
1.0
 10
205.0203296989177
 20
103.3141895165865
 30
0.0
 10
204.4184272054833
 20
103.3025596705904
 30
0.0
 10
203.8431209612336
 20
103.2772863659686
 30
0.0
 10
203.0194548317905
 20
103.2132038877403
 30
0.0
 10
202.7536455623442
 20
103.1874136496493
 30
0.0
 10
202.2528707981269
 20
103.1269300433627
 30
0.0
 10
202.0157634408054
 20
103.0920850837765
 30
0.0
 10
201.5682793891017
 20
103.0112729745746
 30
0.0
 10
201.3572745437008
 20
102.964977781013
 30
0.0
 10
200.9759136091968
 20
102.862285864074
 30
0.0
 10
200.8036436857919
 20
102.8056233339567
 30
0.0
 10
200.4952014724481
 20
102.6800623678707
 30
0.0
 10
200.358348731133
 20
102.6106434068423
 30
0.0
 10
200.1265314375587
 20
102.460550401457
 30
0.0
 10
200.0311749748509
 20
102.3799492078097
 30
0.0
 10
199.9559908016142
 20
102.2932526170801
 30
0.0
  0
ELLIPSE
  5
275
330
1F
100
AcDbEntity
  8
0
  6
Continuous
 62
     7
370
    15
100
AcDbEllipse
 10
202.44766513
 20
72.1971137853
 30
0.0
 11
0.0
 21
31.5
 31
0.0
210
0.0
220
0.0
230
1.0
 40
0.2679491924
 41
0.2996733196630466
 42
2.841919333926744
  0
SPLINE
  5
276
330
1F
100
AcDbEntity
  8
0
  6
Continuous
 62
     7
370
    15
100
AcDbSpline
210
0.0
220
0.0
230
1.0
 70
     8
 71
     3
 72
    20
 73
    16
 74
     0
 42
0.00000001
 43
0.00000001
 12
1.0
 22
0.0
 32
0.0
 13
1.0
 23
0.0
 33
0.0
 40
0.0
 40
0.0
 40
0.0
 40
0.0
 40
0.25
 40
0.25
 40
0.375
 40
0.375
 40
0.5
 40
0.5
 40
0.625
 40
0.625
 40
0.75
 40
0.75
 40
0.875
 40
0.875
 40
1.0
 40
1.0
 40
1.0
 40
1.0
 10
199.9559908016142
 20
42.10097495344851
 30
0.0
 10
200.1063701621576
 20
41.92756907141302
 30
0.0
 10
200.3348020441961
 20
41.78009358380866
 30
0.0
 10
200.7987415485509
 20
41.59029148646752
 30
0.0
 10
200.9738501597257
 20
41.53259188090427
 30
0.0
 10
201.3541258054263
 20
41.43000442621189
 30
0.0
 10
201.5605325325086
 20
41.38456208807669
 30
0.0
 10
202.0063936874538
 20
41.30363396404471
 30
0.0
 10
202.248028698068
 20
41.26794838229547
 30
0.0
 10
202.7506516639127
 20
41.20711051913555
 30
0.0
 10
203.0124450174706
 20
41.18168571156569
 30
0.0
 10
203.5567739019154
 20
41.13910674524356
 30
0.0
 10
203.8409738268944
 20
41.12188504790247
 30
0.0
 10
204.4232289879382
 20
41.0952435334929
 30
0.0
 10
204.7192939740712
 20
41.08585460921059
 30
0.0
 10
205.0203296989177
 20
41.08003805394213
 30
0.0
  0
ELLIPSE
  5
277
330
1F
100
AcDbEntity
  8
0
  6
Continuous
 62
     7
370
    15
100
AcDbEllipse
 10
244.900690179
 20
72.1971137853
 30
0.0
 11
256.546912481199
 21
1.421085471520200E-14
 31
0.0
210
0.0
220
0.0
230
1.0
 40
0.1227845609
 41
4.556305441721884
 42
4.583640744155597
  0
ELLIPSE
  5
278
330
1F
100
AcDbEntity
  8
0
  6
Continuous
 62
     7
370
    15
100
AcDbEllipse
 10
249.0722772965
 20
72.1971137853
 30
0.0
 11
39.84277411711714
 21
31.10509843531038
 31
0.0
210
0.0
220
0.0
230
1.0
 40
0.1247957253
 41
3.30010347180639
 42
3.428851708035486
  0
ELLIPSE
  5
279
330
1F
100
AcDbEntity
  8
0
  6
Continuous
 62
     7
370
    15
100
AcDbEllipse
 10
249.0722772965
 20
72.1971137853
 30
0.0
 11
39.84277411711702
 21
-31.10509843531032
 31
0.0
210
0.0
220
0.0
230
1.0
 40
0.1247957253
 41
2.854333599144211
 42
2.983081835373316
  0
SPLINE
  5
27A
330
1F
100
AcDbEntity
  8
0
  6
Continuous
 62
     7
370
    15
100
AcDbSpline
210
0.0
220
0.0
230
1.0
 70
     8
 71
     3
 72
    12
 73
     8
 74
     0
 42
0.00000001
 43
0.00000001
 12
1.0
 22
0.0
 32
0.0
 13
1.0
 23
0.0
 33
0.0
 40
0.0
 40
0.0
 40
0.0
 40
0.0
 40
0.2499999999999986
 40
0.2499999999999986
 40
0.4999999999999971
 40
0.4999999999999971
 40
1.0
 40
1.0
 40
1.0
 40
1.0
 10
129.5312015166368
 20
81.58518021660018
 30
0.0
 10
129.4681214781434
 20
81.58518021660018
 30
0.0
 10
129.408972855962
 20
81.61054453581514
 30
0.0
 10
129.310500305893
 20
81.68470939618805
 30
0.0
 10
129.2714636939082
 20
81.73122973674216
 30
0.0
 10
129.1715672271292
 20
81.88137207958741
 30
0.0
 10
129.1291463460625
 20
81.99306528655954
 30
0.0
 10
129.0981888147446
 20
82.10648310594931
 30
0.0
  0
LINE
  5
27B
330
1F
100
AcDbEntity
  8
0
  6
Continuous
 62
     7
370
    15
100
AcDbLine
 10
132.4756878895
 20
81.5851802166
 30
0.0
 11
129.5312015166
 21
81.5851802166
 31
0.0
  0
SPLINE
  5
27C
330
1F
100
AcDbEntity
  8
0
  6
Continuous
 62
     7
370
    15
100
AcDbSpline
210
0.0
220
0.0
230
1.0
 70
     8
 71
     3
 72
    12
 73
     8
 74
     0
 42
0.00000001
 43
0.00000001
 12
1.0
 22
0.0
 32
0.0
 13
1.0
 23
0.0
 33
0.0
 40
0.0
 40
0.0
 40
0.0
 40
0.0
 40
0.5
 40
0.5
 40
0.75
 40
0.75
 40
1.0
 40
1.0
 40
1.0
 40
1.0
 10
132.9087005913961
 20
82.1064831059493
 30
0.0
 10
132.877978349477
 20
81.99392730654012
 30
0.0
 10
132.8351411349418
 20
81.88116944680054
 30
0.0
 10
132.735714110742
 20
81.73162856100419
 30
0.0
 10
132.6959619159254
 20
81.68433582929735
 30
0.0
 10
132.5979204590671
 20
81.61059953597592
 30
0.0
 10
132.5383644034797
 20
81.58518021660016
 30
0.0
 10
132.4756878895039
 20
81.58518021660016
 30
0.0
  0
ELLIPSE
  5
27D
330
1F
100
AcDbEntity
  8
0
  6
Continuous
 62
     7
370
    15
100
AcDbEllipse
 10
116.6562905137
 20
72.1971137853
 30
0.0
 11
14.75368316065602
 21
31.09325491558117
 31
0.0
210
0.0
220
0.0
230
1.0
 40
0.3419987131
 41
5.193281737408617
 42
6.124043104552322
  0
SPLINE
  5
27E
330
1F
100
AcDbEntity
  8
0
  6
Continuous
 62
     7
370
    15
100
AcDbSpline
210
0.0
220
0.0
230
1.0
 70
     8
 71
     3
 72
    12
 73
     8
 74
     0
 42
0.00000001
 43
0.00000001
 12
1.0
 22
0.0
 32
0.0
 13
1.0
 23
0.0
 33
0.0
 40
0.0
 40
0.0
 40
0.0
 40
0.0
 40
0.2500000000000023
 40
0.2500000000000023
 40
0.5000000000000046
 40
0.5000000000000046
 40
1.0
 40
1.0
 40
1.0
 40
1.0
 10
132.4756878895039
 20
102.2656057441373
 30
0.0
 10
132.5387679279972
 20
102.2656057441373
 30
0.0
 10
132.5979165501787
 20
102.2576998179249
 30
0.0
 10
132.6963891002477
 20
102.2343746564887
 30
0.0
 10
132.7354257122324
 20
102.219661866657
 30
0.0
 10
132.8353221790115
 20
102.171706065926
 30
0.0
 10
132.8777430600781
 20
102.135443909346
 30
0.0
 10
132.9087005913961
 20
102.0978562453815
 30
0.0
  0
LINE
  5
27F
330
1F
100
AcDbEntity
  8
0
  6
Continuous
 62
     7
370
    15
100
AcDbLine
 10
129.5312015166
 20
102.2656057441
 30
0.0
 11
132.4756878895
 21
102.2656057441
 31
0.0
  0
SPLINE
  5
280
330
1F
100
AcDbEntity
  8
0
  6
Continuous
 62
     7
370
    15
100
AcDbSpline
210
0.0
220
0.0
230
1.0
 70
     8
 71
     3
 72
    12
 73
     8
 74
     0
 42
0.00000001
 43
0.00000001
 12
1.0
 22
0.0
 32
0.0
 13
1.0
 23
0.0
 33
0.0
 40
0.0
 40
0.0
 40
0.0
 40
0.0
 40
0.5000000000000028
 40
0.5000000000000028
 40
0.7500000000000013
 40
0.7500000000000013
 40
1.0
 40
1.0
 40
1.0
 40
1.0
 10
129.0981888147446
 20
102.0978562453815
 30
0.0
 10
129.1289110566637
 20
102.1351582283345
 30
0.0
 10
129.1717482711988
 20
102.1717700603809
 30
0.0
 10
129.2711752953986
 20
102.2195348436661
 30
0.0
 10
129.3109274902152
 20
102.2344923591485
 30
0.0
 10
129.4089689470735
 20
102.2576823049176
 30
0.0
 10
129.4685250026609
 20
102.2656057441373
 30
0.0
 10
129.5312015166368
 20
102.2656057441373
 30
0.0
  0
ELLIPSE
  5
281
330
1F
100
AcDbEntity
  8
0
  6
Continuous
 62
     7
370
    15
100
AcDbEllipse
 10
145.3505988924
 20
72.1971137853
 30
0.0
 11
-14.75368316065604
 21
31.09325491558117
 31
0.0
210
0.0
220
0.0
230
1.0
 40
0.3419987131
 41
0.1591422026273014
 42
1.089903569770979
  0
SPLINE
  5
282
330
1F
100
AcDbEntity
  8
0
  6
Continuous
 62
     7
370
    15
100
AcDbSpline
210
0.0
220
0.0
230
1.0
 70
     8
 71
     3
 72
    12
 73
     8
 74
     0
 42
0.00000001
 43
0.00000001
 12
1.0
 22
0.0
 32
0.0
 13
1.0
 23
0.0
 33
0.0
 40
0.0
 40
0.0
 40
0.0
 40
0.0
 40
0.2500000000000001
 40
0.2500000000000001
 40
0.5000000000000001
 40
0.5000000000000001
 40
1.0
 40
1.0
 40
1.0
 40
1.0
 10
129.5312015166368
 20
42.12862182639117
 30
0.0
 10
129.4681445617389
 20
42.12862182639117
 30
0.0
 10
129.4090144119934
 20
42.13652215747071
 30
0.0
 10
129.3105668614601
 20
42.15983290547576
 30
0.0
 10
129.271534623272
 20
42.1745380317594
 30
0.0
 10
129.1716447388151
 20
42.22247155994604
 30
0.0
 10
129.1293457652057
 20
42.2585415327108
 30
0.0
 10
129.0981888147445
 20
42.29637132514702
 30
0.0
  0
LINE
  5
283
330
1F
100
AcDbEntity
  8
0
  6
Continuous
 62
     7
370
    15
100
AcDbLine
 10
132.4756878895
 20
42.1286218264
 30
0.0
 11
129.5312015166
 21
42.1286218264
 31
0.0
  0
SPLINE
  5
284
330
1F
100
AcDbEntity
  8
0
  6
Continuous
 62
     7
370
    15
100
AcDbSpline
210
0.0
220
0.0
230
1.0
 70
     8
 71
     3
 72
    12
 73
     8
 74
     0
 42
0.00000001
 43
0.00000001
 12
1.0
 22
0.0
 32
0.0
 13
1.0
 23
0.0
 33
0.0
 40
0.0
 40
0.0
 40
0.0
 40
0.0
 40
0.5000000000000064
 40
0.5000000000000064
 40
0.7500000000000032
 40
0.7500000000000032
 40
1.0
 40
1.0
 40
1.0
 40
1.0
 10
132.9087005913961
 20
42.29637132514702
 30
0.0
 10
132.877555393434
 20
42.25855580222684
 30
0.0
 10
132.8352811270996
 20
42.22248894414322
 30
0.0
 10
132.7353355932743
 20
42.17452887913195
 30
0.0
 10
132.6956052885702
 20
42.15966790523429
 30
0.0
 10
132.598717238564
 20
42.13671675910315
 30
0.0
 10
132.5386519968175
 20
42.12862182639113
 30
0.0
 10
132.4756878895039
 20
42.12862182639113
 30
0.0
  0
ELLIPSE
  5
285
330
1F
100
AcDbEntity
  8
0
  6
Continuous
 62
     7
370
    15
100
AcDbEllipse
 10
116.6562905137
 20
72.1971137853
 30
0.0
 11
-14.75368316065618
 21
31.09325491558117
 31
0.0
210
0.0
220
0.0
230
1.0
 40
0.3419987131
 41
3.300734856217123
 42
4.231496223360773
  0
SPLINE
  5
286
330
1F
100
AcDbEntity
  8
0
  6
Continuous
 62
     7
370
    15
100
AcDbSpline
210
0.0
220
0.0
230
1.0
 70
     8
 71
     3
 72
    12
 73
     8
 74
     0
 42
0.00000001
 43
0.00000001
 12
1.0
 22
0.0
 32
0.0
 13
1.0
 23
0.0
 33
0.0
 40
0.0
 40
0.0
 40
0.0
 40
0.0
 40
0.25
 40
0.25
 40
0.5
 40
0.5
 40
1.0
 40
1.0
 40
1.0
 40
1.0
 10
132.4756878895039
 20
62.80904735392803
 30
0.0
 10
132.5387448444017
 20
62.80904735392803
 30
0.0
 10
132.5978749941472
 20
62.78370100054735
 30
0.0
 10
132.6963225446805
 20
62.70958161840787
 30
0.0
 10
132.7353547828686
 20
62.66308510370987
 30
0.0
 10
132.8352446673256
 20
62.51301059670128
 30
0.0
 10
132.8775436409349
 20
62.40189288758641
 30
0.0
 10
132.9087005913962
 20
62.28774446457892
 30
0.0
  0
LINE
  5
287
330
1F
100
AcDbEntity
  8
0
  6
Continuous
 62
     7
370
    15
100
AcDbLine
 10
129.5312015166
 20
62.8090473539
 30
0.0
 11
132.4756878895
 21
62.8090473539
 31
0.0
  0
SPLINE
  5
288
330
1F
100
AcDbEntity
  8
0
  6
Continuous
 62
     7
370
    15
100
AcDbSpline
210
0.0
220
0.0
230
1.0
 70
     8
 71
     3
 72
    12
 73
     8
 74
     0
 42
0.00000001
 43
0.00000001
 12
1.0
 22
0.0
 32
0.0
 13
1.0
 23
0.0
 33
0.0
 40
0.0
 40
0.0
 40
0.0
 40
0.0
 40
0.5000000000000046
 40
0.5000000000000046
 40
0.7500000000000022
 40
0.7500000000000022
 40
1.0
 40
1.0
 40
1.0
 40
1.0
 10
129.0981888147446
 20
62.28774446457891
 30
0.0
 10
129.1293340127067
 20
62.40184983044421
 30
0.0
 10
129.1716082790411
 20
62.51295615766299
 30
0.0
 10
129.2715538128664
 20
62.66311376509326
 30
0.0
 10
129.3112841175705
 20
62.71010645671061
 30
0.0
 10
129.4081721675767
 20
62.7830820412491
 30
0.0
 10
129.4682374093232
 20
62.80904735392811
 30
0.0
 10
129.5312015166367
 20
62.80904735392813
 30
0.0
  0
ELLIPSE
  5
289
330
1F
100
AcDbEntity
  8
0
  6
Continuous
 62
     7
370
    15
100
AcDbEllipse
 10
145.3505988924
 20
72.1971137853
 30
0.0
 11
14.75368316065621
 21
31.09325491558117
 31
0.0
210
0.0
220
0.0
230
1.0
 40
0.3419987131
 41
2.051689083818828
 42
2.982450450962506
  0
SPLINE
  5
28A
330
1F
100
AcDbEntity
  8
0
  6
Continuous
 62
     7
370
    15
100
AcDbSpline
210
0.0
220
0.0
230
1.0
 70
     8
 71
     3
 72
    68
 73
    64
 74
     0
 42
0.00000001
 43
0.00000001
 12
1.0
 22
0.0
 32
0.0
 13
1.0
 23
0.0
 33
0.0
 40
-0.0624999999999999
 40
-0.0624999999999999
 40
0.0
 40
0.0
 40
0.03125
 40
0.03125
 40
0.0625000000000001
 40
0.0625000000000001
 40
0.0937500000000001
 40
0.0937500000000001
 40
0.1250000000000002
 40
0.1250000000000002
 40
0.1562500000000002
 40
0.1562500000000002
 40
0.1875000000000002
 40
0.1875000000000002
 40
0.2187500000000003
 40
0.2187500000000003
 40
0.2500000000000003
 40
0.2500000000000003
 40
0.2812500000000004
 40
0.2812500000000004
 40
0.3125000000000004
 40
0.3125000000000004
 40
0.3437500000000004
 40
0.3437500000000004
 40
0.3750000000000005
 40
0.3750000000000005
 40
0.4062500000000006
 40
0.4062500000000006
 40
0.4375000000000006
 40
0.4375000000000006
 40
0.4687500000000006
 40
0.4687500000000006
 40
0.5000000000000007
 40
0.5000000000000007
 40
0.5312500000000007
 40
0.5312500000000007
 40
0.5625000000000008
 40
0.5625000000000008
 40
0.5937500000000008
 40
0.5937500000000008
 40
0.6250000000000009
 40
0.6250000000000009
 40
0.6562500000000008
 40
0.6562500000000008
 40
0.6875000000000007
 40
0.6875000000000007
 40
0.7187500000000007
 40
0.7187500000000007
 40
0.7500000000000006
 40
0.7500000000000006
 40
0.7812500000000004
 40
0.7812500000000004
 40
0.8125000000000004
 40
0.8125000000000004
 40
0.8437500000000003
 40
0.8437500000000003
 40
0.8750000000000002
 40
0.8750000000000002
 40
0.9062500000000002
 40
0.9062500000000002
 40
0.9375000000000001
 40
0.9375000000000001
 40
1.0
 40
1.0
 40
1.03125
 40
1.03125
 10
183.0034447030703
 20
72.5937432381943
 30
0.0
 10
183.0034447030703
 20
71.99879905879934
 30
0.0
 10
183.0229153761707
 20
71.80382067799668
 30
0.0
 10
183.0991844022909
 20
71.42025688592578
 30
0.0
 10
183.1569165093053
 20
71.22967567237276
 30
0.0
 10
183.3075354202838
 20
70.86642509170754
 30
0.0
 10
183.399688884594
 20
70.69415782087037
 30
0.0
 10
183.6173893928538
 20
70.36813564167042
 30
0.0
 10
183.7440297939891
 20
70.21386002507356
 30
0.0
 10
184.0206485001782
 20
69.93729732668065
 30
0.0
 10
184.1716034171857
 20
69.81315494642229
 30
0.0
 10
184.4994914454142
 20
69.59384145207477
 30
0.0
 10
184.673940414628
 20
69.50071149709
 30
0.0
 10
185.0348720173763
 20
69.35105793458506
 30
0.0
 10
185.2240237553856
 20
69.29341121231957
 30
0.0
 10
185.6113184406433
 20
69.21630472728512
 30
0.0
 10
185.8060399851926
 20
69.19722096441045
 30
0.0
 10
186.1975782227074
 20
69.19700749784644
 30
0.0
 10
186.3964446192847
 20
69.21650272470178
 30
0.0
 10
186.7812848305108
 20
69.29307246933308
 30
0.0
 10
186.9683440818573
 20
69.34972556075974
 30
0.0
 10
187.3316887990125
 20
69.50000085959257
 30
0.0
 10
187.5072320220326
 20
69.59388384157751
 30
0.0
 10
187.8322134482717
 20
69.81094796601501
 30
0.0
 10
187.9837263468242
 20
69.93487879512571
 30
0.0
 10
188.2639304449345
 20
70.21483561355767
 30
0.0
 10
188.3880345449109
 20
70.3662942988359
 30
0.0
 10
188.6053428636705
 20
70.69102790870845
 30
0.0
 10
188.699340864555
 20
70.86639310777917
 30
0.0
 10
188.8499875356269
 20
71.2297113160641
 30
0.0
 10
188.9067895657462
 20
71.41670338933244
 30
0.0
 10
188.983673568389
 20
71.80127582848647
 30
0.0
 10
189.0033727906941
 20
72.00018352876843
 30
0.0
 10
189.0035162131654
 20
72.39184691329841
 30
0.0
 10
188.9845973541689
 20
72.5865548599294
 30
0.0
 10
188.9079053524311
 20
72.9736727438134
 30
0.0
 10
188.8503671847779
 20
73.16314387443317
 30
0.0
 10
188.7010026964268
 20
73.52427715972517
 30
0.0
 10
188.6080903108916
 20
73.69869667051378
 30
0.0
 10
188.3889901830399
 20
74.02689592164387
 30
0.0
 10
188.2649568238737
 20
74.17797427867772
 30
0.0
 10
187.9886534786839
 20
74.45480984189675
 30
0.0
 10
187.8345051371862
 20
74.58157304248431
 30
0.0
 10
187.5086408985576
 20
74.79957659495388
 30
0.0
 10
187.3364798285666
 20
74.89185723698618
 30
0.0
 10
186.9735263519199
 20
75.04273612685675
 30
0.0
 10
186.7828846687007
 20
75.10068237828577
 30
0.0
 10
186.3993751633942
 20
75.17729436787843
 30
0.0
 10
186.2044821115023
 20
75.19692239279807
 30
0.0
 10
185.8081605990025
 20
75.19730241935403
 30
0.0
 10
185.6127977595937
 20
75.1779900642193
 30
0.0
 10
185.2291966824851
 20
75.10206962443021
 30
0.0
 10
185.0387043904493
 20
75.04456407971236
 30
0.0
 10
184.6751383670485
 20
74.89420468618562
 30
0.0
 10
184.5027790143527
 20
74.80218589350447
 30
0.0
 10
184.1766582656844
 20
74.58484272938841
 30
0.0
 10
184.0222337824838
 20
74.45832391695154
 30
0.0
 10
183.7453642526088
 20
74.18189101476386
 30
0.0
 10
183.6211145066376
 20
74.03106141107727
 30
0.0
 10
183.4016156386818
 20
73.7035488415357
 30
0.0
 10
183.3082178689757
 20
73.52899979443359
 30
0.0
 10
183.0832566342754
 20
72.9877930865274
 30
0.0
 10
183.0034447030703
 20
72.5937432381943
 30
0.0
 10
183.0034447030703
 20
71.99879905879934
 30
0.0
  0
ELLIPSE
  5
28B
330
1F
100
AcDbEntity
  8
0
  6
Continuous
 62
     7
370
    15
100
AcDbEllipse
 10
198.0078918244
 20
72.1971137853
 30
0.0
 11
0.0
 21
2.5
 31
0.0
210
0.0
220
0.0
230
1.0
 40
0.3086063289
 41
0.0
 42
6.283185307179586
  0
LINE
  5
28C
330
1F
100
AcDbEntity
  8
0
  6
Continuous
 62
     7
370
    15
100
AcDbLine
 10
119.0034447031
 20
41.1971137853
 30
0.0
 11
119.0034447031
 21
103.197113783
 31
0.0
  0
SPLINE
  5
28D
330
1F
100
AcDbEntity
  8
0
  6
Continuous
 62
     7
370
    15
100
AcDbSpline
210
0.0
220
0.0
230
1.0
 70
     8
 71
     3
 72
    12
 73
     8
 74
     0
 42
0.00000001
 43
0.00000001
 12
1.0
 22
0.0
 32
0.0
 13
1.0
 23
0.0
 33
0.0
 40
0.0
 40
0.0
 40
0.0
 40
0.0
 40
0.4999999999999998
 40
0.4999999999999998
 40
0.7499999999999998
 40
0.7499999999999998
 40
1.0
 40
1.0
 40
1.0
 40
1.0
 10
118.1869324166138
 20
50.34232008278845
 30
0.0
 10
118.243368917521
 20
50.3409022014467
 30
0.0
 10
118.3124535482097
 20
50.3393378651984
 30
0.0
 10
118.4312558199277
 20
50.33639367322395
 30
0.0
 10
118.4714410953978
 20
50.33535547012656
 30
0.0
 10
118.5448221428016
 20
50.33342157491192
 30
0.0
 10
118.5782317065442
 20
50.33252668762313
 30
0.0
 10
118.6084678142007
 20
50.33174289735079
 30
0.0
  0
SPLINE
  5
28E
330
1F
100
AcDbEntity
  8
0
  6
Continuous
 62
     7
370
    15
100
AcDbSpline
210
0.0
220
0.0
230
1.0
 70
     8
 71
     3
 72
    16
 73
    12
 74
     0
 42
0.00000001
 43
0.00000001
 12
1.0
 22
0.0
 32
0.0
 13
1.0
 23
0.0
 33
0.0
 40
0.0
 40
0.0
 40
0.0
 40
0.0
 40
0.0625000000000032
 40
0.0625000000000032
 40
0.1250000000000063
 40
0.1250000000000063
 40
0.2500000000000054
 40
0.2500000000000054
 40
0.5000000000000037
 40
0.5000000000000037
 40
1.0
 40
1.0
 40
1.0
 40
1.0
 10
118.6084678141635
 20
50.33174289737504
 30
0.0
 10
118.6200482217514
 20
50.33144270626369
 30
0.0
 10
118.6333577485127
 20
50.3301149580047
 30
0.0
 10
118.6626591785989
 20
50.32341628322968
 30
0.0
 10
118.6774732784831
 20
50.31805810012399
 30
0.0
 10
118.713301680186
 20
50.30101245095666
 30
0.0
 10
118.727421304549
 20
50.28954991318089
 30
0.0
 10
118.7619254486375
 20
50.25798658780867
 30
0.0
 10
118.7730299993421
 20
50.24008928876339
 30
0.0
 10
118.7992061765583
 20
50.18992787114914
 30
0.0
 10
118.8034447030703
 20
50.16218345895258
 30
0.0
 10
118.8034447030703
 20
50.13751929702303
 30
0.0
  0
LINE
  5
28F
330
1F
100
AcDbEntity
  8
0
  6
Continuous
 62
     7
370
    15
100
AcDbLine
 10
118.8034447031
 20
65.1752264595
 30
0.0
 11
118.8034447031
 21
49.6572935064
 31
0.0
  0
SPLINE
  5
290
330
1F
100
AcDbEntity
  8
0
  6
Continuous
 62
     7
370
    15
100
AcDbSpline
210
0.0
220
0.0
230
1.0
 70
     8
 71
     3
 72
    16
 73
    12
 74
     0
 42
0.00000001
 43
0.00000001
 12
1.0
 22
0.0
 32
0.0
 13
1.0
 23
0.0
 33
0.0
 40
0.0
 40
0.0
 40
0.0
 40
0.0
 40
0.499999999999996
 40
0.499999999999996
 40
0.7499999999999974
 40
0.7499999999999974
 40
0.8749999999999991
 40
0.8749999999999991
 40
0.9374999999999994
 40
0.9374999999999994
 40
1.0
 40
1.0
 40
1.0
 40
1.0
 10
118.8034447030703
 20
65.17522645951414
 30
0.0
 10
118.8034447030703
 20
65.28891900364204
 30
0.0
 10
118.7992984279924
 20
65.40323916499153
 30
0.0
 10
118.7733328325989
 20
65.57628745548863
 30
0.0
 10
118.7618719272215
 20
65.63546296265035
 30
0.0
 10
118.7275601894471
 20
65.7185860821185
 30
0.0
 10
118.7135354535175
 20
65.74670739821919
 30
0.0
 10
118.6775124904837
 20
65.77532321219662
 30
0.0
 10
118.662757981394
 20
65.78111626009841
 30
0.0
 10
118.6334058202471
 20
65.77952283416138
 30
0.0
 10
118.620065945743
 20
65.77302643083759
 30
0.0
 10
118.6084678141947
 20
65.76451068463444
 30
0.0
  0
SPLINE
  5
291
330
1F
100
AcDbEntity
  8
0
  6
Continuous
 62
     7
370
    15
100
AcDbSpline
210
0.0
220
0.0
230
1.0
 70
     8
 71
     3
 72
    12
 73
     8
 74
     0
 42
0.00000001
 43
0.00000001
 12
1.0
 22
0.0
 32
0.0
 13
1.0
 23
0.0
 33
0.0
 40
0.0
 40
0.0
 40
0.0
 40
0.0
 40
0.2500000000000001
 40
0.2500000000000001
 40
0.5000000000000002
 40
0.5000000000000002
 40
1.0
 40
1.0
 40
1.0
 40
1.0
 10
118.6084678142018
 20
65.7645106846253
 30
0.0
 10
118.5782693727611
 20
65.74233795258024
 30
0.0
 10
118.5449020174251
 20
65.72325829670304
 30
0.0
 10
118.4717467415952
 20
65.69808525226033
 30
0.0
 10
118.4314940425712
 20
65.6925287158435
 30
0.0
 10
118.3137652992963
 20
65.70344052683028
 30
0.0
 10
118.2433068512374
 20
65.74537628224114
 30
0.0
 10
118.1869324166192
 20
65.79458806462269
 30
0.0
  0
SPLINE
  5
292
330
1F
100
AcDbEntity
  8
0
  6
Continuous
 62
     7
370
    15
100
AcDbSpline
210
0.0
220
0.0
230
1.0
 70
     8
 71
     3
 72
    12
 73
     8
 74
     0
 42
0.00000001
 43
0.00000001
 12
1.0
 22
0.0
 32
0.0
 13
1.0
 23
0.0
 33
0.0
 40
0.0
 40
0.0
 40
0.0
 40
0.0
 40
0.5000000000000023
 40
0.5000000000000023
 40
0.7500000000000011
 40
0.7500000000000011
 40
1.0
 40
1.0
 40
1.0
 40
1.0
 10
117.6821243595107
 20
67.01093945650324
 30
0.0
 10
117.7258747113951
 20
66.79049247152871
 30
0.0
 10
117.7787648625196
 20
66.57494748172314
 30
0.0
 10
117.8903764056613
 20
66.26253340515123
 30
0.0
 10
117.9329357495648
 20
66.16045392953532
 30
0.0
 10
118.0379129849022
 20
65.96601391689356
 30
0.0
 10
118.0994802279968
 20
65.8709290178299
 30
0.0
 10
118.1869324166192
 20
65.79458806462272
 30
0.0
  0
SPLINE
  5
293
330
1F
100
AcDbEntity
  8
0
  6
Continuous
 62
     7
370
    15
100
AcDbSpline
210
0.0
220
0.0
230
1.0
 70
     8
 71
     3
 72
    12
 73
     8
 74
     0
 42
0.00000001
 43
0.00000001
 12
1.0
 22
0.0
 32
0.0
 13
1.0
 23
0.0
 33
0.0
 40
0.0
 40
0.0
 40
0.0
 40
0.0
 40
0.2499999999999992
 40
0.2499999999999992
 40
0.4999999999999984
 40
0.4999999999999984
 40
1.0
 40
1.0
 40
1.0
 40
1.0
 10
118.186932416619
 20
78.59963950590587
 30
0.0
 10
118.0984390090512
 20
78.52238962579756
 30
0.0
 10
118.0383809682853
 20
78.42907030190834
 30
0.0
 10
117.9325326953028
 20
78.23303724893888
 30
0.0
 10
117.8899991740253
 20
78.13071089072714
 30
0.0
 10
117.7788478672016
 20
77.81936648495126
 30
0.0
 10
117.7259170101539
 20
77.60394823177326
 30
0.0
 10
117.6821243595107
 20
77.38328811402538
 30
0.0
  0
SPLINE
  5
294
330
1F
100
AcDbEntity
  8
0
  6
Continuous
 62
     7
370
    15
100
AcDbSpline
210
0.0
220
0.0
230
1.0
 70
     8
 71
     3
 72
    12
 73
     8
 74
     0
 42
0.00000001
 43
0.00000001
 12
1.0
 22
0.0
 32
0.0
 13
1.0
 23
0.0
 33
0.0
 40
0.0
 40
0.0
 40
0.0
 40
0.0
 40
0.4999999999999999
 40
0.4999999999999999
 40
0.75
 40
0.75
 40
1.0
 40
1.0
 40
1.0
 40
1.0
 10
118.1869324166191
 20
78.59963950590586
 30
0.0
 10
118.2432409649147
 20
78.6487937731497
 30
0.0
 10
118.3135156256328
 20
78.69075109175346
 30
0.0
 10
118.4315535399564
 20
78.70171076928591
 30
0.0
 10
118.4717297808103
 20
78.69620201103855
 30
0.0
 10
118.5456868754883
 20
78.6706447822496
 30
0.0
 10
118.5783032631997
 20
78.65186473441031
 30
0.0
 10
118.6084678141955
 20
78.62971688589359
 30
0.0
  0
SPLINE
  5
295
330
1F
100
AcDbEntity
  8
0
  6
Continuous
 62
     7
370
    15
100
AcDbSpline
210
0.0
220
0.0
230
1.0
 70
     8
 71
     3
 72
    16
 73
    12
 74
     0
 42
0.00000001
 43
0.00000001
 12
1.0
 22
0.0
 32
0.0
 13
1.0
 23
0.0
 33
0.0
 40
0.0
 40
0.0
 40
0.0
 40
0.0
 40
0.0624999999999995
 40
0.0624999999999995
 40
0.1249999999999989
 40
0.1249999999999989
 40
0.2499999999999989
 40
0.2499999999999989
 40
0.4999999999999969
 40
0.4999999999999969
 40
1.0
 40
1.0
 40
1.0
 40
1.0
 10
118.6084678141637
 20
78.62971688583907
 30
0.0
 10
118.6200807140031
 20
78.62119029624381
 30
0.0
 10
118.6334318984356
 20
78.61469003471105
 30
0.0
 10
118.6628317380548
 20
78.61312063759352
 30
0.0
 10
118.67767246261
 20
78.61900402822415
 30
0.0
 10
118.7135056705786
 20
78.6475516642747
 30
0.0
 10
118.7276188784002
 20
78.6757186835805
 30
0.0
 10
118.7621102496191
 20
78.75947294200243
 30
0.0
 10
118.7731943207295
 20
78.81718635562386
 30
0.0
 10
118.7993171385255
 20
78.99077689226971
 30
0.0
 10
118.8034447030703
 20
79.10580494491164
 30
0.0
 10
118.8034447030703
 20
79.21900111101446
 30
0.0
  0
LINE
  5
296
330
1F
100
AcDbEntity
  8
0
  6
Continuous
 62
     7
370
    15
100
AcDbLine
 10
118.8034447031
 20
94.7369340641
 30
0.0
 11
118.8034447031
 21
79.219001111
 31
0.0
  0
SPLINE
  5
297
330
1F
100
AcDbEntity
  8
0
  6
Continuous
 62
     7
370
    15
100
AcDbSpline
210
0.0
220
0.0
230
1.0
 70
     8
 71
     3
 72
    16
 73
    12
 74
     0
 42
0.00000001
 43
0.00000001
 12
1.0
 22
0.0
 32
0.0
 13
1.0
 23
0.0
 33
0.0
 40
0.0
 40
0.0
 40
0.0
 40
0.0
 40
0.4999999999999964
 40
0.4999999999999964
 40
0.7499999999999964
 40
0.7499999999999964
 40
0.8749999999999964
 40
0.8749999999999964
 40
0.9374999999999982
 40
0.9374999999999982
 40
1.0
 40
1.0
 40
1.0
 40
1.0
 10
118.8034447030703
 20
94.2567082735056
 30
0.0
 10
118.8034447030703
 20
94.23203711746264
 30
0.0
 10
118.7992790046103
 20
94.20445528607142
 30
0.0
 10
118.7730206762854
 20
94.1541124152481
 30
0.0
 10
118.7615168945478
 20
94.13582291718619
 30
0.0
 10
118.7273861352013
 20
94.10466788614916
 30
0.0
 10
118.7129642485306
 20
94.09302851093742
 30
0.0
 10
118.6773972800927
 20
94.07614648500636
 30
0.0
 10
118.6624455117981
 20
94.0707573811987
 30
0.0
 10
118.6334416934383
 20
94.0641368852542
 30
0.0
 10
118.6200263394291
 20
94.06278429704776
 30
0.0
 10
118.6084678141925
 20
94.06248467317614
 30
0.0
  0
SPLINE
  5
298
330
1F
100
AcDbEntity
  8
0
  6
Continuous
 62
     7
370
    15
100
AcDbSpline
210
0.0
220
0.0
230
1.0
 70
     8
 71
     3
 72
    12
 73
     8
 74
     0
 42
0.00000001
 43
0.00000001
 12
1.0
 22
0.0
 32
0.0
 13
1.0
 23
0.0
 33
0.0
 40
0.0
 40
0.0
 40
0.0
 40
0.0
 40
0.2499999999999999
 40
0.2499999999999999
 40
0.5000000000000001
 40
0.5000000000000001
 40
1.0
 40
1.0
 40
1.0
 40
1.0
 10
118.6084678142017
 20
94.06248467317788
 30
0.0
 10
118.5782800376521
 20
94.06170213576029
 30
0.0
 10
118.5449262335604
 20
94.06080880394178
 30
0.0
 10
118.4718000303644
 20
94.0588814951382
 30
0.0
 10
118.4315648273403
 20
94.05784196392551
 30
0.0
 10
118.3138731972072
 20
94.05492408057825
 30
0.0
 10
118.2434925240471
 20
94.05332847450806
 30
0.0
 10
118.1869324166165
 20
94.05190748774018
 30
0.0
  0
SPLINE
  5
299
330
1F
100
AcDbEntity
  8
0
  6
Continuous
 62
     7
370
    15
100
AcDbSpline
210
0.0
220
0.0
230
1.0
 70
     8
 71
     3
 72
    16
 73
    12
 74
     0
 42
0.00000001
 43
0.00000001
 12
1.0
 22
0.0
 32
0.0
 13
1.0
 23
0.0
 33
0.0
 40
0.0
 40
0.0
 40
0.0
 40
0.0
 40
0.2499999999999999
 40
0.2499999999999999
 40
0.3749999999999999
 40
0.3749999999999999
 40
0.4999999999999999
 40
0.4999999999999999
 40
0.7499999999999999
 40
0.7499999999999999
 40
1.0
 40
1.0
 40
1.0
 40
1.0
 10
117.6821243595106
 20
77.38328811402539
 30
0.0
 10
117.5208918820262
 20
76.57087833877856
 30
0.0
 10
117.4004120423866
 20
75.7308000443938
 30
0.0
 10
117.2780315250732
 20
74.42950499503104
 30
0.0
 10
117.2470538646758
 20
73.98882395944626
 30
0.0
 10
117.2054401270478
 20
73.09298431851514
 30
0.0
 10
117.195204214115
 20
72.64632618731268
 30
0.0
 10
117.1950158170589
 20
71.31101623017277
 30
0.0
 10
117.2351605196965
 20
70.42652085686525
 30
0.0
 10
117.3993142746361
 20
68.66927096883924
 30
0.0
 10
117.5208659250457
 20
67.82348002242611
 30
0.0
 10
117.6821243595106
 20
67.01093945650324
 30
0.0
  0
LINE
  5
29A
330
1F
100
AcDbEntity
  8
0
  6
Continuous
 62
     7
370
    15
100
AcDbLine
 10
116.8034447031
 20
78.682292047
 30
0.0
 11
116.8034447031
 21
65.7119355236
 31
0.0
  0
LINE
  5
29B
330
1F
100
AcDbEntity
  8
0
  6
Continuous
 62
     7
370
    15
100
AcDbLine
 10
82.5034447031
 20
78.2514243528
 30
0.0
 11
82.5034447031
 21
66.1428032177
 31
0.0
  0
LINE
  5
29C
330
1F
100
AcDbEntity
  8
0
  6
Continuous
 62
     7
370
    15
100
AcDbLine
 10
81.0034447031
 20
77.8184116509
 30
0.0
 11
81.0034447031
 21
66.5758159196
 31
0.0
  0
LINE
  5
29D
330
1F
100
AcDbEntity
  8
0
  6
Continuous
 62
     7
370
    15
100
AcDbLine
 10
116.8034447031
 20
78.682292047
 30
0.0
 11
116.8034447031
 21
94.2172125698
 31
0.0
  0
ARC
  5
29E
330
1F
100
AcDbEntity
  8
0
  6
Continuous
 62
     7
370
    15
100
AcDbCircle
 10
117.003381614
 20
94.222235681
 30
0.0
 40
0.199999999999992
100
AcDbArc
 50
181.4391666667
 51
271.4391666667
  0
LINE
  5
29F
330
1F
100
AcDbEntity
  8
0
  6
Continuous
 62
     7
370
    15
100
AcDbLine
 10
82.5034447031
 20
78.2514243528
 30
0.0
 11
82.5034447031
 21
93.3554771815
 31
0.0
  0
LINE
  5
2A0
330
1F
100
AcDbEntity
  8
0
  6
Continuous
 62
     7
370
    15
100
AcDbLine
 10
82.5034447031
 20
93.3554771815
 30
0.0
 11
116.8034447031
 21
94.2172125698
 31
0.0
  0
LINE
  5
2A1
330
1F
100
AcDbEntity
  8
0
  6
Continuous
 62
     7
370
    15
100
AcDbLine
 10
116.8034447031
 20
50.1770150007
 30
0.0
 11
116.8034447031
 21
65.7119355236
 31
0.0
  0
ARC
  5
2A2
330
1F
100
AcDbEntity
  8
0
  6
Continuous
 62
     7
370
    15
100
AcDbCircle
 10
117.003381614
 20
50.1719918896
 30
0.0
 40
0.199999999999992
100
AcDbArc
 50
88.5608333333
 51
178.5608333333
  0
LINE
  5
2A3
330
1F
100
AcDbEntity
  8
0
  6
Continuous
 62
     7
370
    15
100
AcDbLine
 10
82.5034447031
 20
51.038750389
 30
0.0
 11
82.5034447031
 21
66.1428032177
 31
0.0
  0
LINE
  5
2A4
330
1F
100
AcDbEntity
  8
0
  6
Continuous
 62
     7
370
    15
100
AcDbLine
 10
82.5034447031
 20
51.038750389
 30
0.0
 11
116.8034447031
 21
50.1770150007
 31
0.0
  0
LINE
  5
2A5
330
1F
100
AcDbEntity
  8
0
  6
Continuous
 62
     7
370
    15
100
AcDbLine
 10
117.0084047251
 20
94.02229877
 30
0.0
 11
118.1869324166
 21
94.0519074877
 31
0.0
  0
LINE
  5
2A6
330
1F
100
AcDbEntity
  8
0
  6
Continuous
 62
     7
370
    15
100
AcDbLine
 10
117.0084047251
 20
50.3719288005
 30
0.0
 11
118.1869324166
 21
50.3423200828
 31
0.0
  0
LINE
  5
2A7
330
1F
100
AcDbEntity
  8
0
  6
Continuous
 62
     7
370
    15
100
AcDbLine
 10
81.0034447031
 20
92.4894517778
 30
0.0
 11
82.5034447031
 21
93.3554771815
 31
0.0
  0
LINE
  5
2A8
330
1F
100
AcDbEntity
  8
0
  6
Continuous
 62
     7
370
    15
100
AcDbLine
 10
81.0034447031
 20
77.8184116509
 30
0.0
 11
81.0034447031
 21
92.4894517778
 31
0.0
  0
LINE
  5
2A9
330
1F
100
AcDbEntity
  8
0
  6
Continuous
 62
     7
370
    15
100
AcDbLine
 10
81.0034447031
 20
51.9047757928
 30
0.0
 11
82.5034447031
 21
51.038750389
 31
0.0
  0
LINE
  5
2AA
330
1F
100
AcDbEntity
  8
0
  6
Continuous
 62
     7
370
    15
100
AcDbLine
 10
81.0034447031
 20
51.9047757928
 30
0.0
 11
81.0034447031
 21
66.5758159196
 31
0.0
  0
LINE
  5
2AB
330
1F
100
AcDbEntity
  8
0
  6
Continuous
 62
     7
370
    15
100
AcDbLine
 10
230.0545623947
 20
76.7660392979
 30
0.0
 11
228.8614704707
 21
77.7746805503
 31
0.0
  0
ARC
  5
2AC
330
1F
100
AcDbEntity
  8
0
  6
Continuous
 62
     7
370
    15
100
AcDbCircle
 10
226.6319695214
 20
75.0906214183
 30
0.0
 40
3.489247469997552
100
AcDbArc
 50
50.2854439866
 51
230.1364392459
  0
LINE
  5
2AD
330
1F
100
AcDbEntity
  8
0
  6
Continuous
 62
     7
370
    15
100
AcDbLine
 10
224.3954958925
 20
72.4123694484
 30
0.0
 11
236.7820239066
 21
61.9407847559
 31
0.0
  0
LINE
  5
2AE
330
1F
100
AcDbEntity
  8
0
  6
Continuous
 62
     7
370
    15
100
AcDbLine
 10
236.7820239066
 20
61.9407847559
 30
0.0
 11
211.96190346
 21
40.9578270585
 31
0.0
  0
LINE
  5
2AF
330
1F
100
AcDbEntity
  8
0
  6
Continuous
 62
     7
370
    15
100
AcDbLine
 10
236.7820239066
 20
82.4534428147
 30
0.0
 11
211.96190346
 21
103.436400512
 31
0.0
  0
LINE
  5
2B0
330
1F
100
AcDbEntity
  8
0
  6
Continuous
 62
     7
370
    15
100
AcDbLine
 10
236.7820239066
 20
82.4534428147
 30
0.0
 11
230.0545623947
 21
76.7660392979
 31
0.0
  0
CIRCLE
  5
2B1
330
1F
100
AcDbEntity
  8
0
  6
Continuous
 62
     7
370
    15
100
AcDbCircle
 10
223.6994079376
 20
65.8622464076
 30
0.0
 40
3.989888491319856
  0
CIRCLE
  5
2B2
330
1F
100
AcDbEntity
  8
0
  6
Continuous
 62
     7
370
    15
100
AcDbCircle
 10
223.6380495008
 20
65.8617366825
 30
0.0
 40
3.493191390566663
  0
ARC
  5
2B3
330
1F
100
AcDbEntity
  8
0
  6
Continuous
 62
     7
370
    15
100
AcDbCircle
 10
225.8949977719
 20
75.1339812402
 30
0.0
 40
3.459720376765684
100
AcDbArc
 50
49.753290675
 51
83.8961125726
  0
LINE
  5
2B4
330
1F
100
AcDbEntity
  8
0
  6
Continuous
 62
     7
370
    15
100
AcDbLine
 10
229.3233463343
 20
76.7660392979
 30
0.0
 11
230.0545623947
 21
76.7660392979
 31
0.0
  0
LINE
  5
2B5
330
1F
100
AcDbEntity
  8
0
  6
Continuous
 62
     7
370
    15
100
AcDbLine
 10
229.3233463343
 20
76.7660392979
 30
0.0
 11
229.3324865351
 21
76.7583121619
 31
0.0
  0
LINE
  5
2B6
330
1F
100
AcDbEntity
  8
0
  6
Continuous
 62
     7
370
    15
100
AcDbLine
 10
229.0515776985
 20
76.5208315161
 30
0.0
 11
227.5684367372
 21
77.7746805503
 31
0.0
  0
ARC
  5
2B7
330
1F
100
AcDbEntity
  8
0
  6
Continuous
 62
     7
370
    15
100
AcDbCircle
 10
226.180461481
 20
75.3939914701
 30
0.0
 40
3.103920263987787
100
AcDbArc
 50
196.264335396
 51
229.7435363349
  0
ARC
  5
2B8
330
1F
100
AcDbEntity
  8
0
  6
Continuous
 62
     7
370
    15
100
AcDbCircle
 10
226.1522645871
 20
75.4396421793
 30
0.0
 40
3.060203904067373
100
AcDbArc
 50
49.73236731
 51
98.4924357425
  0
LINE
  5
2B9
330
1F
100
AcDbEntity
  8
0
  6
Continuous
 62
     7
370
    15
100
AcDbLine
 10
224.5456906732
 20
72.711549565
 30
0.0
 11
224.1746769267
 21
73.0252050029
 31
0.0
  0
ARC
  5
2BA
330
1F
100
AcDbEntity
  8
0
  6
Continuous
 62
     7
370
    15
100
AcDbCircle
 10
225.5888980399
 20
75.4363336676
 30
0.0
 40
3.063729687447776
100
AcDbArc
 50
49.7502577906
 51
84.7063804369
  0
ARC
  5
2BB
330
1F
100
AcDbEntity
  8
0
  6
HIDDEN
 62
     7
370
     0
100
AcDbCircle
 10
224.5595603709
 20
72.1971137853
 30
0.0
 40
0.4018139400521087
100
AcDbArc
 50
130.3072723465
 51
229.6927276535
  0
LINE
  5
2BC
330
1F
100
AcDbEntity
  8
0
  6
HIDDEN
 62
     7
370
     0
100
AcDbLine
 10
235.9384948456
 20
82.3430390059
 30
0.0
 11
229.3416267358
 21
76.7660392979
 31
0.0
  0
LINE
  5
2BD
330
1F
100
AcDbEntity
  8
0
  6
HIDDEN
 62
     7
370
     0
100
AcDbLine
 10
224.2996323267
 20
71.890696008
 30
0.0
 11
235.9384948456
 21
62.0511885647
 31
0.0
  0
ARC
  5
2BE
330
1F
100
AcDbEntity
  8
0
  6
HIDDEN
 62
     7
370
     0
100
AcDbCircle
 10
236.1567668651
 20
72.1971294863
 30
0.0
 40
3.189013064335699
100
AcDbArc
 50
310.2986793865
 51
49.4155810321
  0
ARC
  5
2BF
330
1F
100
AcDbEntity
  8
0
  6
HIDDEN
 62
     7
370
     0
100
AcDbCircle
 10
236.1949683783
 20
72.2028257484
 30
0.0
 40
3.168819795163142
100
AcDbArc
 50
83.0095056242
 51
309.7052496775
  0
ARC
  5
2C0
330
1F
100
AcDbEntity
  8
0
  6
HIDDEN
 62
     7
370
     0
100
AcDbCircle
 10
236.1936933929
 20
82.0417477096
 30
0.0
 40
0.3948452149583358
100
AcDbArc
 50
49.7348670886
 51
130.2651329114
  0
ARC
  5
2C1
330
1F
100
AcDbEntity
  8
0
  6
HIDDEN
 62
     7
370
     0
100
AcDbCircle
 10
236.1936933929
 20
62.352479861
 30
0.0
 40
0.3948452149585481
100
AcDbArc
 50
229.7348670886
 51
310.2651329113
  0
ARC
  5
2C2
330
1F
100
AcDbEntity
  8
0
  6
HIDDEN
 62
     7
370
     0
100
AcDbCircle
 10
247.8278264148
 20
72.1971137853
 30
0.0
 40
0.4018139400520319
100
AcDbArc
 50
310.3072723465
 51
49.6927276535
  0
LINE
  5
2C3
330
1F
100
AcDbEntity
  8
0
  6
HIDDEN
 62
     7
370
     0
100
AcDbLine
 10
236.4488919402
 20
62.0511885647
 30
0.0
 11
248.0877544591
 21
71.890696008
 31
0.0
  0
LINE
  5
2C4
330
1F
100
AcDbEntity
  8
0
  6
HIDDEN
 62
     7
370
     0
100
AcDbLine
 10
248.0877544591
 20
72.5035315625
 30
0.0
 11
236.4488919402
 21
82.3430390059
 31
0.0
  0
ARC
  5
2C5
330
1F
100
AcDbEntity
  8
0
  6
HIDDEN
 62
     7
370
     0
100
AcDbCircle
 10
245.4137017288
 20
72.1971137853
 30
0.0
 40
1.506802275195175
100
AcDbArc
 50
310.3072723465
 51
49.6927276535
  0
LINE
  5
2C6
330
1F
100
AcDbEntity
  8
0
  6
HIDDEN
 62
     7
370
     0
100
AcDbLine
 10
237.4170499732
 20
63.4636307696
 30
0.0
 11
246.3884318949
 21
71.0480471206
 31
0.0
  0
ARC
  5
2C7
330
1F
100
AcDbEntity
  8
0
  6
HIDDEN
 62
     7
370
     0
100
AcDbCircle
 10
236.4600554207
 20
64.5934731306
 30
0.0
 40
1.480669556094053
100
AcDbArc
 50
229.7348670886
 51
310.2651329114
  0
LINE
  5
2C8
330
1F
100
AcDbEntity
  8
0
  6
HIDDEN
 62
     7
370
     0
100
AcDbLine
 10
226.5316789465
 20
71.0480471206
 30
0.0
 11
235.5030608682
 21
63.4636307696
 31
0.0
  0
ARC
  5
2C9
330
1F
100
AcDbEntity
  8
0
  6
HIDDEN
 62
     7
370
     0
100
AcDbCircle
 10
227.5064091126
 20
72.1971137853
 30
0.0
 40
1.506802275195157
100
AcDbArc
 50
130.3072723465
 51
229.6927276535
  0
LINE
  5
2CA
330
1F
100
AcDbEntity
  8
0
  6
HIDDEN
 62
     7
370
     0
100
AcDbLine
 10
235.5030608682
 20
80.930596801
 30
0.0
 11
226.5316789465
 21
73.3461804499
 31
0.0
  0
ARC
  5
2CB
330
1F
100
AcDbEntity
  8
0
  6
HIDDEN
 62
     7
370
     0
100
AcDbCircle
 10
236.4600554207
 20
79.8007544399
 30
0.0
 40
1.480669556093965
100
AcDbArc
 50
49.7348670886
 51
130.2651329114
  0
LINE
  5
2CC
330
1F
100
AcDbEntity
  8
0
  6
HIDDEN
 62
     7
370
     0
100
AcDbLine
 10
246.3884318949
 20
73.3461804499
 30
0.0
 11
237.4170499732
 21
80.930596801
 31
0.0
  0
CIRCLE
  5
2CD
330
1F
100
AcDbEntity
  8
0
  6
HIDDEN
 62
     7
370
     0
100
AcDbCircle
 10
236.4875734516
 20
72.1731980912
 30
0.0
 40
4.884311902560831
  0
ARC
  5
2CE
330
1F
100
AcDbEntity
  8
0
  6
HIDDEN
 62
     7
370
     0
100
AcDbCircle
 10
226.962871841
 20
72.1971137853
 30
0.0
 40
1.506802275195157
100
AcDbArc
 50
130.3072723465
 51
229.6927276535
  0
LINE
  5
2CF
330
1F
100
AcDbEntity
  8
0
  6
HIDDEN
 62
     7
370
     0
100
AcDbLine
 10
234.9595235966
 20
80.930596801
 30
0.0
 11
225.9881416749
 21
73.3461804499
 31
0.0
  0
LINE
  5
2D0
330
1F
100
AcDbEntity
  8
0
  6
HIDDEN
 62
     7
370
     0
100
AcDbLine
 10
225.9881416749
 20
71.0480471206
 30
0.0
 11
234.9595235966
 21
63.4636307696
 31
0.0
  0
CIRCLE
  5
2D1
330
1F
100
AcDbEntity
  8
0
  6
HIDDEN
 62
     7
370
     0
100
AcDbCircle
 10
236.2974912157
 20
72.1770692284
 30
0.0
 40
4.011504870058125
  0
ARC
  5
2D2
330
1F
100
AcDbEntity
  8
0
  6
HIDDEN
 62
     7
370
     0
100
AcDbCircle
 10
235.9165181491
 20
79.8007544399
 30
0.0
 40
1.480669556093946
100
AcDbArc
 50
49.7348670886
 51
130.2651329114
  0
ARC
  5
2D3
330
1F
100
AcDbEntity
  8
0
  6
HIDDEN
 62
     7
370
     0
100
AcDbCircle
 10
235.9165181491
 20
64.5934731306
 30
0.0
 40
1.480669556094053
100
AcDbArc
 50
229.7348670886
 51
310.2651329114
  0
CIRCLE
  5
2D4
330
1F
100
AcDbEntity
  8
0
  6
HIDDEN
 62
     7
370
     0
100
AcDbCircle
 10
236.1395609304
 20
72.1770692284
 30
0.0
 40
4.011504870058113
  0
LINE
  5
2D5
330
1F
100
AcDbEntity
  8
0
  6
HIDDEN
 62
     7
370
     0
100
AcDbLine
 10
235.1143617041
 20
63.6934441025
 30
0.0
 11
226.1429797824
 21
71.2778604535
 31
0.0
  0
LINE
  5
2D6
330
1F
100
AcDbEntity
  8
0
  6
HIDDEN
 62
     7
370
     0
100
AcDbLine
 10
226.1429797824
 20
73.116367117
 30
0.0
 11
235.1143617041
 21
80.700783468
 31
0.0
  0
ARC
  5
2D7
330
1F
100
AcDbEntity
  8
0
  6
HIDDEN
 62
     7
370
     0
100
AcDbCircle
 10
226.9227639153
 20
72.1971137853
 30
0.0
 40
1.205441820156161
100
AcDbArc
 50
130.3072723465
 51
229.6927276535
  0
CIRCLE
  5
2D8
330
1F
100
AcDbEntity
  8
0
  6
HIDDEN
 62
     7
370
     0
100
AcDbCircle
 10
235.908066486
 20
72.1711765007
 30
0.0
 40
5.132374678055685
  0
ARC
  5
2D9
330
1F
100
AcDbEntity
  8
0
  6
HIDDEN
 62
     7
370
     0
100
AcDbCircle
 10
235.8799573461
 20
79.7969095792
 30
0.0
 40
1.184535644875199
100
AcDbArc
 50
49.7348670886
 51
130.2651329114
  0
ARC
  5
2DA
330
1F
100
AcDbEntity
  8
0
  6
HIDDEN
 62
     7
370
     0
100
AcDbCircle
 10
235.8799573461
 20
64.5973179914
 30
0.0
 40
1.184535644875256
100
AcDbArc
 50
229.7348670886
 51
310.2651329114
  0
LINE
  5
2DB
330
1F
100
AcDbEntity
  8
0
  6
HIDDEN
 62
     7
370
     0
100
AcDbLine
 10
245.6169349098
 20
71.2778604535
 30
0.0
 11
236.6455529881
 21
63.6934441025
 31
0.0
  0
LINE
  5
2DC
330
1F
100
AcDbEntity
  8
0
  6
HIDDEN
 62
     7
370
     0
100
AcDbLine
 10
236.8735127016
 20
63.4636307696
 30
0.0
 11
245.8448946233
 21
71.0480471206
 31
0.0
  0
LINE
  5
2DD
330
1F
100
AcDbEntity
  8
0
  6
HIDDEN
 62
     7
370
     0
100
AcDbLine
 10
236.6455529881
 20
80.700783468
 30
0.0
 11
245.6169349098
 21
73.116367117
 31
0.0
  0
LINE
  5
2DE
330
1F
100
AcDbEntity
  8
0
  6
HIDDEN
 62
     7
370
     0
100
AcDbLine
 10
245.8448946233
 20
73.3461804499
 30
0.0
 11
236.8735127016
 21
80.930596801
 31
0.0
  0
ARC
  5
2DF
330
1F
100
AcDbEntity
  8
0
  6
HIDDEN
 62
     7
370
     0
100
AcDbCircle
 10
244.8371507769
 20
72.1971137853
 30
0.0
 40
1.205441820156116
100
AcDbArc
 50
310.3072723465
 51
49.6927276535
  0
ARC
  5
2E0
330
1F
100
AcDbEntity
  8
0
  6
HIDDEN
 62
     7
370
     0
100
AcDbCircle
 10
244.8701644572
 20
72.1971137853
 30
0.0
 40
1.506802275195193
100
AcDbArc
 50
310.3072723465
 51
49.6927276535
  0
ELLIPSE
  5
2E1
330
1F
100
AcDbEntity
  8
0
  6
HIDDEN
 62
     7
370
     0
100
AcDbEllipse
 10
236.742483041
 20
72.0211673289
 30
0.0
 11
0.008162934549829972
 21
3.000645832916732
 31
0.0
210
0.0
220
0.0
230
1.0
 40
0.991431004
 41
1.292457949668326
 42
3.188843566632863
  0
ELLIPSE
  5
2E2
330
1F
100
AcDbEntity
  8
0
  6
HIDDEN
 62
     7
370
     0
100
AcDbEllipse
 10
235.2804059971
 20
72.2625039973
 30
0.0
 11
0.008162934549801548
 21
3.000645832916732
 31
0.0
210
0.0
220
0.0
230
1.0
 40
0.991431004
 41
3.581091168733685
 42
6.722683822323471
  0
LINE
  5
2E3
330
1F
100
AcDbEntity
  8
0
  6
HIDDEN
 62
     7
370
     0
100
AcDbLine
 10
235.4989812427
 20
69.1858303741
 30
0.0
 11
235.3146977866
 21
69.222259928
 31
0.0
  0
LINE
  5
2E4
330
1F
100
AcDbEntity
  8
0
  6
HIDDEN
 62
     7
370
     0
100
AcDbLine
 10
229.2051161694
 20
72.4813448015
 30
0.0
 11
224.3603638444
 21
70.2160439532
 31
0.0
  0
SPLINE
  5
2E5
330
1F
100
AcDbEntity
  8
0
  6
HIDDEN
 62
     7
370
     0
100
AcDbSpline
210
0.0
220
0.0
230
1.0
 70
     8
 71
     3
 72
     9
 73
     5
 74
     0
 42
0.00000001
 43
0.00000001
 12
1.0
 22
0.0
 32
0.0
 13
1.0
 23
0.0
 33
0.0
 40
0.0
 40
0.0
 40
0.0
 40
0.0
 40
0.7579804490061033
 40
0.9999999999999999
 40
0.9999999999999999
 40
0.9999999999999999
 40
0.9999999999999999
 10
224.3603638444188
 20
70.21604395320588
 30
0.0
 10
224.0990295556628
 20
70.09977962536715
 30
0.0
 10
223.7542524719019
 20
69.94639265082024
 30
0.0
 10
223.4054850871835
 20
69.79009219833529
 30
0.0
 10
223.3210765613326
 20
69.75226443300474
 30
0.0
  0
LINE
  5
2E6
330
1F
100
AcDbEntity
  8
0
  6
HIDDEN
 62
     7
370
     0
100
AcDbLine
 10
223.3210765613
 20
69.752264433
 30
0.0
 11
222.7414173035
 21
69.7216601786
 31
0.0
  0
SPLINE
  5
2E7
330
1F
100
AcDbEntity
  8
0
  6
HIDDEN
 62
     7
370
     0
100
AcDbSpline
210
0.0
220
0.0
230
1.0
 70
     8
 71
     3
 72
     9
 73
     5
 74
     0
 42
0.00000001
 43
0.00000001
 12
1.0
 22
0.0
 32
0.0
 13
1.0
 23
0.0
 33
0.0
 40
0.0
 40
0.0
 40
0.0
 40
0.0
 40
0.3117389783843614
 40
1.0
 40
1.0
 40
1.0
 40
1.0
 10
222.7414173035329
 20
69.72166017855905
 30
0.0
 10
222.8264893503174
 20
69.76389723588308
 30
0.0
 10
223.0993844731073
 20
69.89938577037097
 30
0.0
 10
223.365277484278
 20
70.03238827376492
 30
0.0
 10
223.5482812797869
 20
70.12392871262828
 30
0.0
  0
LINE
  5
2E8
330
1F
100
AcDbEntity
  8
0
  6
HIDDEN
 62
     7
370
     0
100
AcDbLine
 10
232.1100145422
 20
74.1556816683
 30
0.0
 11
223.5482812798
 21
70.1239287126
 31
0.0
  0
LINE
  5
2E9
330
1F
100
AcDbEntity
  8
0
  6
HIDDEN
 62
     7
370
     0
100
AcDbLine
 10
232.2884769032
 20
74.1651039409
 30
0.0
 11
232.1100145422
 21
74.1556816683
 31
0.0
  0
LINE
  5
2EA
330
1F
100
AcDbEntity
  8
0
  6
HIDDEN
 62
     7
370
     0
100
AcDbLine
 10
232.2884769032
 20
74.1651039409
 30
0.0
 11
234.0220016091
 21
74.9814273584
 31
0.0
  0
SPLINE
  5
2EB
330
1F
100
AcDbEntity
  8
0
  6
HIDDEN
 62
     7
370
     0
100
AcDbSpline
210
0.0
220
0.0
230
1.0
 70
     8
 71
     3
 72
    25
 73
    21
 74
     0
 42
0.00000001
 43
0.00000001
 12
1.0
 22
0.0
 32
0.0
 13
1.0
 23
0.0
 33
0.0
 40
0.0
 40
0.0
 40
0.0
 40
0.0
 40
0.0017011875715624
 40
0.1150573306615843
 40
0.2284518314929449
 40
0.2853424736763797
 40
0.3422742103810463
 40
0.3993752296214617
 40
0.4565583875394953
 40
0.529806907817472
 40
0.6033564748978504
 40
0.6406882600690046
 40
0.678078260667046
 40
0.7156615823036686
 40
0.7533177887954984
 40
0.8109770165613187
 40
0.8689648972802899
 40
0.9280944548270454
 40
0.9876712887334398
 40
1.0
 40
1.0
 40
1.0
 40
1.0
 10
234.7291583739756
 20
74.8647010488304
 30
0.0
 10
234.7264772182293
 20
74.86361241929154
 30
0.0
 10
234.5451411748577
 20
74.78998455431362
 30
0.0
 10
234.1850376929224
 20
74.64376501797747
 30
0.0
 10
233.7290653401226
 20
74.45749888847249
 30
0.0
 10
233.3537390386179
 20
74.30287033781455
 30
0.0
 10
233.0652974359134
 20
74.18324037018286
 30
0.0
 10
232.7693261236693
 20
74.05955138260421
 30
0.0
 10
232.43663148022
 20
73.9193489203985
 30
0.0
 10
232.063430950809
 20
73.76046985767351
 30
0.0
 10
231.7145995876402
 20
73.61013835506529
 30
0.0
 10
231.4267054672084
 20
73.48485593628685
 30
0.0
 10
231.2051688176986
 20
73.3878123392243
 30
0.0
 10
230.9796954126082
 20
73.28837846689723
 30
0.0
 10
230.7100707341392
 20
73.1686585239537
 30
0.0
 10
230.3943190057828
 20
73.02722438214451
 30
0.0
 10
230.029465663967
 20
72.86200875405392
 30
0.0
 10
229.6577195895992
 20
72.69173851072972
 30
0.0
 10
229.3816235042792
 20
72.56380772526609
 30
0.0
 10
229.2309501716455
 20
72.49341425659635
 30
0.0
 10
229.2051161694257
 20
72.48134480147722
 30
0.0
  0
SPLINE
  5
2EC
330
1F
100
AcDbEntity
  8
0
  6
HIDDEN
 62
     7
370
     0
100
AcDbSpline
210
0.0
220
0.0
230
1.0
 70
     8
 71
     3
 72
    25
 73
    21
 74
     0
 42
0.00000001
 43
0.00000001
 12
1.0
 22
0.0
 32
0.0
 13
1.0
 23
0.0
 33
0.0
 40
0.0
 40
0.0
 40
0.0
 40
0.0
 40
0.0435899458008258
 40
0.0873470389822551
 40
0.1315884492414848
 40
0.1759811589927408
 40
0.2133807217170633
 40
0.2508584007685566
 40
0.2885582438997745
 40
0.3263262985375255
 40
0.3648339795544313
 40
0.4034022015196096
 40
0.4809120199986244
 40
0.5536829686095937
 40
0.6266891785675875
 40
0.7002536216000149
 40
0.7739481575601338
 40
0.8487179573416022
 40
0.9235402458481241
 40
1.0
 40
1.0
 40
1.0
 40
1.0
 10
231.7219249452502
 20
67.04349807925735
 30
0.0
 10
231.8069989191311
 20
67.08317861366857
 30
0.0
 10
231.9774730864288
 20
67.16269183907819
 30
0.0
 10
232.2353011508987
 20
67.28168130169293
 30
0.0
 10
232.4942088352549
 20
67.4002730585622
 30
0.0
 10
232.7395247395956
 20
67.51172385778442
 30
0.0
 10
232.9699730982459
 20
67.61566962942504
 30
0.0
 10
233.1856413184916
 20
67.71231397650607
 30
0.0
 10
233.3997951573598
 20
67.8076607735995
 30
0.0
 10
233.6133518202381
 20
67.9021336673733
 30
0.0
 10
233.8256911977894
 20
67.9954686402851
 30
0.0
 10
234.1073555316859
 20
68.11848854633895
 30
0.0
 10
234.4435441179988
 20
68.26392541971336
 30
0.0
 10
234.8281876053785
 20
68.42837178306513
 30
0.0
 10
235.194062160311
 20
68.58309797151426
 30
0.0
 10
235.5500697621275
 20
68.73212096377917
 30
0.0
 10
235.8986404842646
 20
68.87669498369874
 30
0.0
 10
236.2401260782659
 20
69.01717992123034
 30
0.0
 10
236.5794539935943
 20
69.15597061096194
 30
0.0
 10
236.8014985848118
 20
69.24616170371092
 30
0.0
 10
236.9137225775403
 20
69.29174536094544
 30
0.0
  0
SPLINE
  5
2ED
330
1F
100
AcDbEntity
  8
0
  6
HIDDEN
 62
     7
370
     0
100
AcDbSpline
210
0.0
220
0.0
230
1.0
 70
     8
 71
     3
 72
     9
 73
     5
 74
     0
 42
0.00000001
 43
0.00000001
 12
1.0
 22
0.0
 32
0.0
 13
1.0
 23
0.0
 33
0.0
 40
0.0
 40
0.0
 40
0.0
 40
0.0
 40
0.9481761316338864
 40
1.0
 40
1.0
 40
1.0
 40
1.0
 10
237.0900093190525
 20
69.36343600589939
 30
0.0
 10
237.1394326185036
 20
69.3835499098257
 30
0.0
 10
237.1915572162468
 20
69.40476316678846
 30
0.0
 10
237.2432863461798
 20
69.4257658845309
 30
0.0
 10
237.2459671498001
 20
69.42685432661052
 30
0.0
  0
ELLIPSE
  5
2EE
330
1F
100
AcDbEntity
  8
0
  6
HIDDEN
 62
     7
370
     0
100
AcDbEllipse
 10
222.731955742
 20
66.1473098392
 30
0.0
 11
2.982295792206088
 21
3.215581004764986
 31
0.0
210
0.0
220
0.0
230
1.0
 40
0.9944400924
 41
5.139054400024183
 42
6.652133095698672
  0
LINE
  5
2EF
330
1F
100
AcDbEntity
  8
0
  6
HIDDEN
 62
     7
370
     0
100
AcDbLine
 10
226.8771726202
 20
64.778197231
 30
0.0
 11
231.7219249453
 21
67.0434980793
 31
0.0
  0
SPLINE
  5
2F0
330
1F
100
AcDbEntity
  8
0
  6
HIDDEN
 62
     7
370
     0
100
AcDbSpline
210
0.0
220
0.0
230
1.0
 70
     8
 71
     3
 72
    13
 73
     9
 74
     0
 42
0.00000001
 43
0.00000001
 12
1.0
 22
0.0
 32
0.0
 13
1.0
 23
0.0
 33
0.0
 40
0.0
 40
0.0
 40
0.0
 40
0.0
 40
0.1240776117542532
 40
0.3196118898664421
 40
0.5137740162790445
 40
0.683454247977413
 40
0.8539711742919599
 40
0.9999999999999999
 40
0.9999999999999999
 40
0.9999999999999999
 40
0.9999999999999999
 10
223.3210765613326
 20
69.75226443300474
 30
0.0
 10
223.4066513868385
 20
69.5362494705897
 30
0.0
 10
223.6270838348701
 20
68.97981588518479
 30
0.0
 10
224.0072131942841
 20
68.05480158766424
 30
0.0
 10
224.476140586043
 20
66.99351270835182
 30
0.0
 10
224.9656432559002
 20
65.98778891395412
 30
0.0
 10
225.4138874197849
 20
65.11483972879171
 30
0.0
 10
225.7040346653794
 20
64.56710061422896
 30
0.0
 10
225.8378853371571
 20
64.31441771078488
 30
0.0
  0
SPLINE
  5
2F1
330
1F
100
AcDbEntity
  8
0
  6
HIDDEN
 62
     7
370
     0
100
AcDbSpline
210
0.0
220
0.0
230
1.0
 70
     8
 71
     3
 72
     9
 73
     5
 74
     0
 42
0.00000001
 43
0.00000001
 12
1.0
 22
0.0
 32
0.0
 13
1.0
 23
0.0
 33
0.0
 40
0.0
 40
0.0
 40
0.0
 40
0.0
 40
0.2420195496447312
 40
1.0
 40
1.0
 40
1.0
 40
1.0
 10
225.8378853371571
 20
64.31441771078488
 30
0.0
 10
225.9222938625379
 20
64.35224547590492
 30
0.0
 10
226.2710612472584
 20
64.50854592839147
 30
0.0
 10
226.6158383310209
 20
64.66193290293948
 30
0.0
 10
226.8771726202434
 20
64.77819723098602
 30
0.0
  0
SPLINE
  5
2F2
330
1F
100
AcDbEntity
  8
0
  6
HIDDEN
 62
     7
370
     0
100
AcDbSpline
210
0.0
220
0.0
230
1.0
 70
     8
 71
     3
 72
    11
 73
     7
 74
     0
 42
0.00000001
 43
0.00000001
 12
1.0
 22
0.0
 32
0.0
 13
1.0
 23
0.0
 33
0.0
 40
0.0
 40
0.0
 40
0.0
 40
0.0
 40
0.2231217075376424
 40
0.4464055633373039
 40
0.9600735029583897
 40
1.0
 40
1.0
 40
1.0
 40
1.0
 10
225.2582260793574
 20
64.28381345633917
 30
0.0
 10
225.2081387125832
 20
64.41062321689284
 30
0.0
 10
225.1079275792621
 20
64.66433489390248
 30
0.0
 10
224.8843695720934
 20
65.21867501186043
 30
0.0
 10
224.7038927270125
 20
65.67107560499171
 30
0.0
 10
224.553446134639
 20
66.01091184430973
 30
0.0
 10
224.5425955822716
 20
66.03542161121699
 30
0.0
  0
SPLINE
  5
2F3
330
1F
100
AcDbEntity
  8
0
  6
HIDDEN
 62
     7
370
     0
100
AcDbSpline
210
0.0
220
0.0
230
1.0
 70
     8
 71
     3
 72
    12
 73
     8
 74
     0
 42
0.00000001
 43
0.00000001
 12
1.0
 22
0.0
 32
0.0
 13
1.0
 23
0.0
 33
0.0
 40
0.0
 40
0.0
 40
0.0
 40
0.0
 40
0.0601888971535961
 40
0.4083216308947008
 40
0.773026313681541
 40
0.8864807493619242
 40
1.0
 40
1.0
 40
1.0
 40
1.0
 10
224.2292724094083
 20
66.74477303733426
 30
0.0
 10
224.202217239335
 20
66.80639206887436
 30
0.0
 10
224.0186748969608
 20
67.22441573507312
 30
0.0
 10
223.6227731638383
 20
68.02946048957521
 30
0.0
 10
223.2090682464861
 20
68.83574099526179
 30
0.0
 10
222.911896439394
 20
69.40053715778038
 30
0.0
 10
222.7982544994094
 20
69.61459879570845
 30
0.0
 10
222.7414173035329
 20
69.72166017855905
 30
0.0
  0
LINE
  5
2F4
330
1F
100
AcDbEntity
  8
0
  6
HIDDEN
 62
     7
370
     0
100
AcDbLine
 10
225.8378853372
 20
64.3144177108
 30
0.0
 11
225.2582260794
 21
64.2838134563
 31
0.0
  0
SPLINE
  5
2F5
330
1F
100
AcDbEntity
  8
0
  6
HIDDEN
 62
     7
370
     0
100
AcDbSpline
210
0.0
220
0.0
230
1.0
 70
     8
 71
     3
 72
     9
 73
     5
 74
     0
 42
0.00000001
 43
0.00000001
 12
1.0
 22
0.0
 32
0.0
 13
1.0
 23
0.0
 33
0.0
 40
0.0
 40
0.0
 40
0.0
 40
0.0
 40
0.6882610207461539
 40
1.0
 40
1.0
 40
1.0
 40
1.0
 10
226.0650900556114
 20
64.68608199040841
 30
0.0
 10
225.8820862603349
 20
64.59454155166112
 30
0.0
 10
225.6161932491658
 20
64.46153904826778
 30
0.0
 10
225.3432981263785
 20
64.32605051378074
 30
0.0
 10
225.2582260793575
 20
64.28381345633917
 30
0.0
  0
LINE
  5
2F6
330
1F
100
AcDbEntity
  8
0
  6
HIDDEN
 62
     7
370
     0
100
AcDbLine
 10
231.9738758063
 20
74.8448347811
 30
0.0
 11
233.768535703
 21
75.689946994
 31
0.0
  0
LINE
  5
2F7
330
1F
100
AcDbEntity
  8
0
  6
HIDDEN
 62
     7
370
     0
100
AcDbLine
 10
231.9738758063
 20
74.8448347811
 30
0.0
 11
231.7954134452
 21
74.8354125086
 31
0.0
  0
LINE
  5
2F8
330
1F
100
AcDbEntity
  8
0
  6
HIDDEN
 62
     7
370
     0
100
AcDbLine
 10
231.7954134452
 20
74.8354125086
 30
0.0
 11
233.590073342
 21
75.6805247214
 31
0.0
  0
LINE
  5
2F9
330
1F
100
AcDbEntity
  8
0
  6
HIDDEN
 62
     7
370
     0
100
AcDbLine
 10
232.1100145422
 20
74.1556816683
 30
0.0
 11
231.7954134452
 21
74.8354125086
 31
0.0
  0
LINE
  5
2FA
330
1F
100
AcDbEntity
  8
0
  6
HIDDEN
 62
     7
370
     0
100
AcDbLine
 10
232.2884769032
 20
74.1651039409
 30
0.0
 11
231.9738758063
 21
74.8448347811
 31
0.0
  0
ARC
  5
2FB
330
1F
100
AcDbEntity
  8
0
  6
HIDDEN
 62
     7
370
     0
100
AcDbCircle
 10
235.3226104027
 20
72.2825310219
 30
0.0
 40
3.745081011054022
100
AcDbArc
 50
295.1553424639
 51
114.5170645974
  0
LINE
  5
2FC
330
1F
100
AcDbEntity
  8
0
  6
HIDDEN
 62
     7
370
     0
100
AcDbLine
 10
236.9145466728
 20
68.8926385912
 30
0.0
 11
235.119886776
 21
68.0475263784
 31
0.0
  0
LINE
  5
2FD
330
1F
100
AcDbEntity
  8
0
  6
HIDDEN
 62
     7
370
     0
100
AcDbLine
 10
235.119886776
 20
68.0475263784
 30
0.0
 11
234.8052856791
 21
68.7272572186
 31
0.0
  0
LINE
  5
2FE
330
1F
100
AcDbEntity
  8
0
  6
HIDDEN
 62
     7
370
     0
100
AcDbLine
 10
236.538810385
 20
69.5435806362
 30
0.0
 11
234.8052856791
 21
68.7272572186
 31
0.0
  0
ARC
  5
2FF
330
1F
100
AcDbEntity
  8
0
  6
HIDDEN
 62
     7
370
     0
100
AcDbCircle
 10
221.6446625909
 20
65.9415202929
 30
0.0
 40
4.595248013163548
100
AcDbArc
 50
344.1450109533
 51
65.5273961079
  0
LINE
  5
300
330
1F
100
AcDbEntity
  8
0
  6
HIDDEN
 62
     7
370
     0
100
AcDbLine
 10
226.0650900556
 20
64.6860819904
 30
0.0
 11
234.626823318
 21
68.7178349461
 31
0.0
  0
ARC
  5
301
330
1F
100
AcDbEntity
  8
0
  6
HIDDEN
 62
     7
370
     0
100
AcDbCircle
 10
235.1441480417
 20
72.2731087493
 30
0.0
 40
3.745081011054007
100
AcDbArc
 50
295.1553424639
 51
114.5170645974
  0
LINE
  5
302
330
1F
100
AcDbEntity
  8
0
  6
HIDDEN
 62
     7
370
     0
100
AcDbLine
 10
235.119886776
 20
68.0475263784
 30
0.0
 11
234.941424415
 21
68.0381041058
 31
0.0
  0
LINE
  5
303
330
1F
100
AcDbEntity
  8
0
  6
HIDDEN
 62
     7
370
     0
100
AcDbLine
 10
234.941424415
 20
68.0381041058
 30
0.0
 11
234.626823318
 21
68.7178349461
 31
0.0
  0
LINE
  5
304
330
1F
100
AcDbEntity
  8
0
  6
HIDDEN
 62
     7
370
     0
100
AcDbLine
 10
234.626823318
 20
68.7178349461
 30
0.0
 11
234.8052856791
 21
68.7272572186
 31
0.0
  0
LINE
  5
305
330
1F
100
AcDbEntity
  8
0
  6
HIDDEN
 62
     7
370
     0
100
AcDbLine
 10
236.7360843118
 20
68.8832163187
 30
0.0
 11
234.941424415
 21
68.0381041058
 31
0.0
  0
CIRCLE
  5
306
330
1F
100
AcDbEntity
  8
0
  6
HIDDEN
 62
     7
370
     0
100
AcDbCircle
 10
223.515285951
 20
65.8783548902
 30
0.0
 40
3.983875335996606
  0
LWPOLYLINE
  5
307
330
1F
100
AcDbEntity
  8
0
  6
HIDDEN
 62
     7
370
     0
100
AcDbPolyline
 90
        3
 70
   128
 43
0.0
 10
222.0896986902
 20
69.0299171138
 10
222.8858294775
 20
69.2917294089
 10
223.5883044788
 20
69.357705249
  0
ARC
  5
308
330
1F
100
AcDbEntity
  8
0
  6
HIDDEN
 62
     7
370
     0
100
AcDbCircle
 10
223.5815105696
 20
65.8607230441
 30
0.0
 40
3.502755163433305
100
AcDbArc
 50
115.2074350648
 51
270.1111304248
  0
CIRCLE
  5
309
330
1F
100
AcDbEntity
  8
0
  6
HIDDEN
 62
     7
370
     0
100
AcDbCircle
 10
222.5346524426
 20
65.8783548902
 30
0.0
 40
3.983875335996554
  0
LINE
  5
30A
330
1F
100
AcDbEntity
  8
0
  6
HIDDEN
 62
     7
370
     0
100
AcDbLine
 10
221.5122894707
 20
65.1258435576
 30
0.0
 11
221.9671120522
 21
65.1258435576
 31
0.0
  0
LINE
  5
30B
330
1F
100
AcDbEntity
  8
0
  6
HIDDEN
 62
     7
370
     0
100
AcDbLine
 10
221.662122426
 20
66.8513033889
 30
0.0
 11
222.1169450075
 21
66.8513033889
 31
0.0
  0
LINE
  5
30C
330
1F
100
AcDbEntity
  8
0
  6
HIDDEN
 62
     7
370
     0
100
AcDbLine
 10
223.3959029418
 20
67.4593421108
 30
0.0
 11
223.2201927245
 21
67.5832996905
 31
0.0
  0
LINE
  5
30D
330
1F
100
AcDbEntity
  8
0
  6
HIDDEN
 62
     7
370
     0
100
AcDbLine
 10
223.2201927245
 20
67.5832996905
 30
0.0
 11
223.6750153059
 21
67.5832996905
 31
0.0
  0
LINE
  5
30E
330
1F
100
AcDbEntity
  8
0
  6
HIDDEN
 62
     7
370
     0
100
AcDbLine
 10
222.9205268139
 20
64.1323800278
 30
0.0
 11
223.1871611852
 21
64.2576474011
 31
0.0
  0
LINE
  5
30F
330
1F
100
AcDbEntity
  8
0
  6
HIDDEN
 62
     7
370
     0
100
AcDbLine
 10
222.9205268139
 20
64.1323800278
 30
0.0
 11
223.3753493954
 21
64.1323800278
 31
0.0
  0
ARC
  5
310
330
1F
100
AcDbEntity
  8
0
  6
HIDDEN
 62
     7
370
     0
100
AcDbCircle
 10
223.0709557711
 20
65.8393268411
 30
0.0
 40
1.481510078659179
100
AcDbArc
 50
234.7736177521
 51
267.401890284
  0
ARC
  5
311
330
1F
100
AcDbEntity
  8
0
  6
HIDDEN
 62
     7
370
     0
100
AcDbCircle
 10
223.0855577974
 20
65.8567202091
 30
0.0
 40
1.504142129833324
100
AcDbArc
 50
174.970990868
 51
234.7014161932
  0
ARC
  5
312
330
1F
100
AcDbEntity
  8
0
  6
HIDDEN
 62
     7
370
     0
100
AcDbCircle
 10
223.0813940797
 20
65.8612374347
 30
0.0
 40
1.499604160639312
100
AcDbArc
 50
115.2733310516
 51
175.1289721794
  0
ARC
  5
313
330
1F
100
AcDbEntity
  8
0
  6
HIDDEN
 62
     7
370
     0
100
AcDbCircle
 10
223.0704587007
 20
65.8785724531
 30
0.0
 40
1.479261800305321
100
AcDbArc
 50
87.5626135049
 51
115.1769757587
  0
LINE
  5
314
330
1F
100
AcDbEntity
  8
0
  6
HIDDEN
 62
     7
370
     0
100
AcDbLine
 10
221.5122894707
 20
65.1258435576
 30
0.0
 11
222.2164081423
 21
64.6291117927
 31
0.0
  0
LINE
  5
315
330
1F
100
AcDbEntity
  8
0
  6
HIDDEN
 62
     7
370
     0
100
AcDbLine
 10
221.5872059484
 20
65.9885734733
 30
0.0
 11
221.5122894707
 21
65.1258435576
 31
0.0
  0
LINE
  5
316
330
1F
100
AcDbEntity
  8
0
  6
HIDDEN
 62
     7
370
     0
100
AcDbLine
 10
222.4411575752
 20
67.2173015397
 30
0.0
 11
221.662122426
 21
66.8513033889
 31
0.0
  0
LINE
  5
317
330
1F
100
AcDbEntity
  8
0
  6
HIDDEN
 62
     7
370
     0
100
AcDbLine
 10
221.662122426
 20
66.8513033889
 30
0.0
 11
221.5872059484
 21
65.9885734733
 31
0.0
  0
LINE
  5
318
330
1F
100
AcDbEntity
  8
0
  6
HIDDEN
 62
     7
370
     0
100
AcDbLine
 10
222.2164081423
 20
64.6291117927
 30
0.0
 11
222.9205268139
 21
64.1323800278
 31
0.0
  0
LINE
  5
319
330
1F
100
AcDbEntity
  8
0
  6
HIDDEN
 62
     7
370
     0
100
AcDbLine
 10
223.2201927245
 20
67.5832996905
 30
0.0
 11
222.4411575752
 21
67.2173015397
 31
0.0
  0
CIRCLE
  5
31A
330
1F
100
AcDbEntity
  8
0
  6
HIDDEN
 62
     7
370
     0
100
AcDbCircle
 10
222.3885660212
 20
65.8739372358
 30
0.0
 40
3.187553138459538
  0
CIRCLE
  5
31B
330
1F
100
AcDbEntity
  8
0
  6
HIDDEN
 62
     7
370
     0
100
AcDbCircle
 10
222.3054977003
 20
65.8739372358
 30
0.0
 40
3.187553138459562
  0
CIRCLE
  5
31C
330
1F
100
AcDbEntity
  8
0
  6
HIDDEN
 62
     7
370
     0
100
AcDbCircle
 10
222.2354280517
 20
65.8780984523
 30
0.0
 40
3.934076894296599
  0
CIRCLE
  5
31D
330
1F
100
AcDbEntity
  8
0
  6
HIDDEN
 62
     7
370
     0
100
AcDbCircle
 10
222.0766371616
 20
65.8780984523
 30
0.0
 40
3.934076894296575
  0
CIRCLE
  5
31E
330
1F
100
AcDbEntity
  8
0
  6
HIDDEN
 62
     7
370
     0
100
AcDbCircle
 10
221.6116531461
 20
65.8666143736
 30
0.0
 40
1.76839850969414
  0
CIRCLE
  5
31F
330
1F
100
AcDbEntity
  8
0
  6
HIDDEN
 62
     7
370
     0
100
AcDbCircle
 10
221.9142067284
 20
65.8666143736
 30
0.0
 40
1.768398509694151
  0
CIRCLE
  5
320
330
1F
100
AcDbEntity
  8
0
  6
HIDDEN
 62
     7
370
     0
100
AcDbCircle
 10
221.468011932
 20
65.8780984523
 30
0.0
 40
3.934076894296599
  0
ARC
  5
321
330
1F
100
AcDbEntity
  8
0
  6
HIDDEN
 62
     7
370
     0
100
AcDbCircle
 10
221.1540474926
 20
65.881551107
 30
0.0
 40
3.92200117881572
100
AcDbArc
 50
3.8629309648
 51
114.9424073382
  0
ARC
  5
322
330
1F
100
AcDbEntity
  8
0
  6
HIDDEN
 62
     7
370
     0
100
AcDbCircle
 10
221.1461112415
 20
65.8653046398
 30
0.0
 40
3.933410683249654
100
AcDbArc
 50
114.7377877379
 51
350.1407578176
  0
ARC
  5
323
330
1F
100
AcDbEntity
  8
0
  6
HIDDEN
 62
     7
370
     0
100
AcDbCircle
 10
221.0840336555
 20
65.8949997752
 30
0.0
 40
3.311928683556804
100
AcDbArc
 50
34.167369431
 51
115.1084858535
  0
ARC
  5
324
330
1F
100
AcDbEntity
  8
0
  6
HIDDEN
 62
     7
370
     0
100
AcDbCircle
 10
221.0736990597
 20
65.8650869396
 30
0.0
 40
3.334702527078313
100
AcDbArc
 50
114.7296089586
 51
15.5330879913
  0
CIRCLE
  5
325
330
1F
100
AcDbEntity
  8
0
  6
HIDDEN
 62
     7
370
     0
100
AcDbCircle
 10
186.0034447031
 20
72.1971137853
 30
0.0
 40
2.800000000000009
  0
CIRCLE
  5
326
330
1F
100
AcDbEntity
  8
0
  6
HIDDEN
 62
     7
370
     0
100
AcDbCircle
 10
186.0034447031
 20
72.1971137853
 30
0.0
 40
2.480384757729335
  0
ELLIPSE
  5
327
330
1F
100
AcDbEntity
  8
0
  6
HIDDEN
 62
     7
370
     0
100
AcDbEllipse
 10
249.0722772965
 20
72.1971137853
 30
0.0
 11
39.84277411711714
 21
31.10509843531038
 31
0.0
210
0.0
220
0.0
230
1.0
 40
0.1247957253
 41
1.741679494117853
 42
3.30010347180639
  0
ELLIPSE
  5
328
330
1F
100
AcDbEntity
  8
0
  6
HIDDEN
 62
     7
370
     0
100
AcDbEllipse
 10
248.5931016155
 20
72.1971137853
 30
0.0
 11
0.0
 21
31.5
 31
0.0
210
0.0
220
0.0
230
1.0
 40
0.3213401947
 41
1.558423977688429
 42
1.583168675901363
  0
ELLIPSE
  5
329
330
1F
100
AcDbEntity
  8
0
  6
HIDDEN
 62
     7
370
     0
100
AcDbEllipse
 10
249.0722772965
 20
72.1971137853
 30
0.0
 11
39.84277411711702
 21
-31.10509843531032
 31
0.0
210
0.0
220
0.0
230
1.0
 40
0.1247957253
 41
2.983081835373316
 42
4.541505813061737
  0
LINE
  5
32A
330
1F
100
AcDbEntity
  8
0
  6
HIDDEN
 62
     7
370
     0
100
AcDbLine
 10
129.0034447031
 20
72.1971137853
 30
0.0
 11
129.0798549655
 21
72.6463291101
 31
0.0
  0
SPLINE
  5
32B
330
1F
100
AcDbEntity
  8
0
  6
HIDDEN
 62
     7
370
     0
100
AcDbSpline
210
0.0
220
0.0
230
1.0
 70
     8
 71
     3
 72
     9
 73
     5
 74
     0
 42
0.00000001
 43
0.00000001
 12
1.0
 22
0.0
 32
0.0
 13
1.0
 23
0.0
 33
0.0
 40
0.0
 40
0.0
 40
0.0
 40
0.0
 40
0.4709540533551501
 40
1.0
 40
1.0
 40
1.0
 40
1.0
 10
129.1923058250666
 20
71.4167486370595
 30
0.0
 10
129.136678715619
 20
71.53272261565515
 30
0.0
 10
129.0185629269314
 20
71.77897589189182
 30
0.0
 10
129.0086755694624
 20
72.05243915458188
 30
0.0
 10
129.0034447030703
 20
72.19711378526432
 30
0.0
  0
SPLINE
  5
32C
330
1F
100
AcDbEntity
  8
0
  6
HIDDEN
 62
     7
370
     0
100
AcDbSpline
210
0.0
220
0.0
230
1.0
 70
     8
 71
     3
 72
    12
 73
     8
 74
     0
 42
0.00000001
 43
0.00000001
 12
1.0
 22
0.0
 32
0.0
 13
1.0
 23
0.0
 33
0.0
 40
0.0
 40
0.0
 40
0.0
 40
0.0
 40
0.4999999999999998
 40
0.4999999999999998
 40
0.75
 40
0.75
 40
1.0
 40
1.0
 40
1.0
 40
1.0
 10
118.1869324166233
 20
87.6493817670952
 30
0.0
 10
118.2433385953035
 20
87.60155939343538
 30
0.0
 10
118.3135014967753
 20
87.56128854649681
 30
0.0
 10
118.4315122101645
 20
87.55324267801986
 30
0.0
 10
118.47171799376
 20
87.5598052763587
 30
0.0
 10
118.545438690493
 20
87.58718737081232
 30
0.0
 10
118.5782994122795
 20
87.60694886134269
 30
0.0
 10
118.6084678142088
 20
87.6298815725307
 30
0.0
  0
SPLINE
  5
32D
330
1F
100
AcDbEntity
  8
0
  6
HIDDEN
 62
     7
370
     0
100
AcDbSpline
210
0.0
220
0.0
230
1.0
 70
     8
 71
     3
 72
    16
 73
    12
 74
     0
 42
0.00000001
 43
0.00000001
 12
1.0
 22
0.0
 32
0.0
 13
1.0
 23
0.0
 33
0.0
 40
0.0
 40
0.0
 40
0.0
 40
0.0
 40
0.0625000000000026
 40
0.0625000000000026
 40
0.1250000000000052
 40
0.1250000000000052
 40
0.2500000000000087
 40
0.2500000000000087
 40
0.5000000000000092
 40
0.5000000000000092
 40
1.0
 40
1.0
 40
1.0
 40
1.0
 10
118.6084678141636
 20
87.62988157257878
 30
0.0
 10
118.620080714003
 20
87.63870919556018
 30
0.0
 10
118.6334318984355
 20
87.64654357744212
 30
0.0
 10
118.6628317380547
 20
87.6548537035145
 30
0.0
 10
118.67767246261
 20
87.6543578842795
 30
0.0
 10
118.7135056705786
 20
87.64290691331011
 30
0.0
 10
118.7276188784002
 20
87.62622641245143
 30
0.0
 10
118.7621102496191
 20
87.5741057266944
 30
0.0
 10
118.7731943207295
 20
87.53431623266938
 30
0.0
 10
118.7993171385255
 20
87.41097960057228
 30
0.0
 10
118.8034447030703
 20
87.32355819007364
 30
0.0
 10
118.8034447030703
 20
87.23482094775541
 30
0.0
  0
SPLINE
  5
32E
330
1F
100
AcDbEntity
  8
0
  6
HIDDEN
 62
     7
370
     0
100
AcDbSpline
210
0.0
220
0.0
230
1.0
 70
     8
 71
     3
 72
    15
 73
    11
 74
     0
 42
0.00000001
 43
0.00000001
 12
1.0
 22
0.0
 32
0.0
 13
1.0
 23
0.0
 33
0.0
 40
0.0
 40
0.0
 40
0.0
 40
0.0
 40
0.436379395142498
 40
0.5912816402124355
 40
0.7470882878685406
 40
0.8149590456236152
 40
0.8581686291208669
 40
0.9016963548896497
 40
0.9400274549662155
 40
1.0
 40
1.0
 40
1.0
 40
1.0
 10
118.784568897093
 20
56.99746884172642
 30
0.0
 10
118.7830401094623
 20
56.94446733266786
 30
0.0
 10
118.780968645805
 20
56.87265179884864
 30
0.0
 10
118.747625820158
 20
56.79588806000777
 30
0.0
 10
118.7226876481845
 20
56.76057781947745
 30
0.0
 10
118.6936112061412
 20
56.74372836141609
 30
0.0
 10
118.671747433405
 20
56.73957047988041
 30
0.0
 10
118.6515978766639
 20
56.74179928267252
 30
0.0
 10
118.6292805347836
 20
56.74994349370613
 30
0.0
 10
118.616353977121
 20
56.75888873472866
 30
0.0
 10
118.608467814195
 20
56.76434599798132
 30
0.0
  0
SPLINE
  5
32F
330
1F
100
AcDbEntity
  8
0
  6
HIDDEN
 62
     7
370
     0
100
AcDbSpline
210
0.0
220
0.0
230
1.0
 70
     8
 71
     3
 72
    12
 73
     8
 74
     0
 42
0.00000001
 43
0.00000001
 12
1.0
 22
0.0
 32
0.0
 13
1.0
 23
0.0
 33
0.0
 40
0.0
 40
0.0
 40
0.0
 40
0.0
 40
0.2500000000000004
 40
0.2500000000000004
 40
0.5000000000000008
 40
0.5000000000000008
 40
1.0
 40
1.0
 40
1.0
 40
1.0
 10
118.6084678142017
 20
56.76434599798974
 30
0.0
 10
118.5782759724845
 20
56.78729652708757
 30
0.0
 10
118.5449170030699
 20
56.80726600111175
 30
0.0
 10
118.4717797184893
 20
56.83436713473725
 30
0.0
 10
118.4315378458353
 20
56.84096787538265
 30
0.0
 10
118.3138320688668
 20
56.83299900087593
 30
0.0
 10
118.2434215910874
 20
56.79273854270808
 30
0.0
 10
118.1869324166191
 20
56.74484580342993
 30
0.0
  0
SPLINE
  5
330
330
1F
100
AcDbEntity
  8
0
  6
HIDDEN
 62
     7
370
     0
100
AcDbSpline
210
0.0
220
0.0
230
1.0
 70
     8
 71
     3
 72
    12
 73
     8
 74
     0
 42
0.00000001
 43
0.00000001
 12
1.0
 22
0.0
 32
0.0
 13
1.0
 23
0.0
 33
0.0
 40
0.0
 40
0.0
 40
0.0
 40
0.0
 40
0.2499999999999966
 40
0.2499999999999966
 40
0.4999999999999958
 40
0.4999999999999958
 40
1.0
 40
1.0
 40
1.0
 40
1.0
 10
118.1869324166187
 20
56.74484580343014
 30
0.0
 10
118.098778478881
 20
56.67010699557603
 30
0.0
 10
118.0384250542523
 20
56.57912649509365
 30
0.0
 10
117.9321630961855
 20
56.39021267234105
 30
0.0
 10
117.8899309296234
 20
56.29370821280047
 30
0.0
 10
117.7788602343062
 20
56.00294045863334
 30
0.0
 10
117.7259234578794
 20
55.80727364408959
 30
0.0
 10
117.6821243595107
 20
55.61320715902328
 30
0.0
  0
SPLINE
  5
331
330
1F
100
AcDbEntity
  8
0
  6
HIDDEN
 62
     7
370
     0
100
AcDbSpline
210
0.0
220
0.0
230
1.0
 70
     8
 71
     3
 72
    12
 73
     8
 74
     0
 42
0.00000001
 43
0.00000001
 12
1.0
 22
0.0
 32
0.0
 13
1.0
 23
0.0
 33
0.0
 40
0.0
 40
0.0
 40
0.0
 40
0.0
 40
0.4999999999999992
 40
0.4999999999999992
 40
0.7499999999999997
 40
0.7499999999999997
 40
1.0
 40
1.0
 40
1.0
 40
1.0
 10
117.6821243595107
 20
50.42703283026221
 30
0.0
 10
117.7258709003472
 20
50.40043865962102
 30
0.0
 10
117.7787552555787
 20
50.38067843429529
 30
0.0
 10
117.8903223429149
 20
50.36022744406622
 30
0.0
 10
117.9329059394579
 20
50.35496721940977
 30
0.0
 10
118.0378226665397
 20
50.34708442548713
 30
0.0
 10
118.0993562743844
 20
50.34452030030798
 30
0.0
 10
118.1869324166106
 20
50.34232008278833
 30
0.0
  0
SPLINE
  5
332
330
1F
100
AcDbEntity
  8
0
  6
HIDDEN
 62
     7
370
     0
100
AcDbSpline
210
0.0
220
0.0
230
1.0
 70
     8
 71
     3
 72
    12
 73
     8
 74
     0
 42
0.00000001
 43
0.00000001
 12
1.0
 22
0.0
 32
0.0
 13
1.0
 23
0.0
 33
0.0
 40
0.0
 40
0.0
 40
0.0
 40
0.0
 40
0.2500000000000005
 40
0.2500000000000005
 40
0.5000000000000009
 40
0.5000000000000009
 40
1.0
 40
1.0
 40
1.0
 40
1.0
 10
118.1869324166186
 20
94.05190748774021
 30
0.0
 10
118.0982477567622
 20
94.04967942039923
 30
0.0
 10
118.0383293410388
 20
94.0471776363689
 30
0.0
 10
117.9326701137181
 20
94.03924620053287
 30
0.0
 10
117.8900288756032
 20
94.03395404563605
 30
0.0
 10
117.7788395335006
 20
94.0135491051489
 30
0.0
 10
117.7259128513796
 20
93.99381441356203
 30
0.0
 10
117.6821243595107
 20
93.96719474026642
 30
0.0
  0
SPLINE
  5
333
330
1F
100
AcDbEntity
  8
0
  6
HIDDEN
 62
     7
370
     0
100
AcDbSpline
210
0.0
220
0.0
230
1.0
 70
     8
 71
     3
 72
    12
 73
     8
 74
     0
 42
0.00000001
 43
0.00000001
 12
1.0
 22
0.0
 32
0.0
 13
1.0
 23
0.0
 33
0.0
 40
0.0
 40
0.0
 40
0.0
 40
0.0
 40
0.5000000000000014
 40
0.5000000000000014
 40
0.7499999999999993
 40
0.7499999999999993
 40
1.0
 40
1.0
 40
1.0
 40
1.0
 10
117.6821243595091
 20
88.78102041150554
 30
0.0
 10
117.7258858358078
 20
88.58712062354347
 30
0.0
 10
117.7787921514609
 20
88.3912642596066
 30
0.0
 10
117.8905033491082
 20
88.09912211310765
 30
0.0
 10
117.9330227926946
 20
88.00240417640974
 30
0.0
 10
118.038146135262
 20
87.81567973998526
 30
0.0
 10
118.0997120989797
 20
87.72332903171556
 30
0.0
 10
118.1869324166224
 20
87.64938176709587
 30
0.0
  0
ARC
  5
334
330
1F
100
AcDbEntity
  8
0
  6
HIDDEN
 62
     7
370
     0
100
AcDbCircle
 10
186.233985024
 20
74.4481326954
 30
0.0
 40
0.2488548281389033
100
AcDbArc
 50
65.6236584358
 51
102.6811108783
  0
ARC
  5
335
330
1F
100
AcDbEntity
  8
0
  6
HIDDEN
 62
     7
370
     0
100
AcDbCircle
 10
186.233985024
 20
69.9460948751
 30
0.0
 40
0.248854828137705
100
AcDbArc
 50
257.3188891216
 51
294.3763415643
  0
CIRCLE
  5
336
330
1F
100
AcDbEntity
  8
0
  6
HIDDEN
 62
     7
370
     0
100
AcDbCircle
 10
103.5034447031
 20
72.1971137853
 30
0.0
 40
4.049999999999997
  0
LINE
  5
337
330
1F
100
AcDbEntity
  8
0
  6
HIDDEN
 62
     7
370
     0
100
AcDbLine
 10
82.5336731427
 20
56.8841627424
 30
0.0
 11
82.5336731427
 21
87.5100648282
 31
0.0
  0
LINE
  5
338
330
1F
100
AcDbEntity
  8
0
  6
HIDDEN
 62
     7
370
     0
100
AcDbLine
 10
89.0336731427
 20
57.8507036238
 30
0.0
 11
89.0336731427
 21
86.5435239468
 31
0.0
  0
LINE
  5
339
330
1F
100
AcDbEntity
  8
0
  6
HIDDEN
 62
     7
370
     0
100
AcDbLine
 10
94.8336731427
 20
58.1971137853
 30
0.0
 11
94.8336731427
 21
86.1971137853
 31
0.0
  0
LINE
  5
33A
330
1F
100
AcDbEntity
  8
0
  6
HIDDEN
 62
     7
370
     0
100
AcDbLine
 10
87.4336731427
 20
58.1971137853
 30
0.0
 11
87.4336731427
 21
86.1971137853
 31
0.0
  0
LINE
  5
33B
330
1F
100
AcDbEntity
  8
0
  6
HIDDEN
 62
     7
370
     0
100
AcDbLine
 10
88.4336731427
 20
58.1971137853
 30
0.0
 11
88.4336731427
 21
86.1971137853
 31
0.0
  0
LINE
  5
33C
330
1F
100
AcDbEntity
  8
0
  6
HIDDEN
 62
     7
370
     0
100
AcDbLine
 10
108.0034447031
 20
58.6971137853
 30
0.0
 11
108.0034447031
 21
85.6971137073
 31
0.0
  0
SPLINE
  5
33D
330
1F
100
AcDbEntity
  8
0
  6
HIDDEN
 62
     7
370
     0
100
AcDbSpline
210
0.0
220
0.0
230
1.0
 70
     8
 71
     3
 72
     9
 73
     5
 74
     0
 42
0.00000001
 43
0.00000001
 12
1.0
 22
0.0
 32
0.0
 13
1.0
 23
0.0
 33
0.0
 40
0.0
 40
0.0
 40
0.0
 40
0.0
 40
0.8240629730853719
 40
1.0
 40
1.0
 40
1.0
 40
1.0
 10
107.5034447030703
 20
72.83154266228685
 30
0.0
 10
107.4650946557089
 20
73.05229886880065
 30
0.0
 10
107.4185568926812
 20
73.32018641347125
 30
0.0
 10
107.3087080634217
 20
73.56548025874477
 30
0.0
 10
107.2893815869918
 20
73.60863652860264
 30
0.0
  0
LINE
  5
33E
330
1F
100
AcDbEntity
  8
0
  6
HIDDEN
 62
     7
370
     0
100
AcDbLine
 10
103.5634305904
 20
76.2349331313
 30
0.0
 11
103.4000321052
 21
76.23290226
 31
0.0
  0
SPLINE
  5
33F
330
1F
100
AcDbEntity
  8
0
  6
HIDDEN
 62
     7
370
     0
100
AcDbSpline
210
0.0
220
0.0
230
1.0
 70
     8
 71
     3
 72
     9
 73
     5
 74
     0
 42
0.00000001
 43
0.00000001
 12
1.0
 22
0.0
 32
0.0
 13
1.0
 23
0.0
 33
0.0
 40
0.0
 40
0.0
 40
0.0
 40
0.0
 40
0.3911289720172398
 40
1.0
 40
1.0
 40
1.0
 40
1.0
 10
107.193483125684
 20
70.5545721518599
 30
0.0
 10
107.2503356550588
 20
70.68027890588249
 30
0.0
 10
107.3956905979095
 20
71.00167354298713
 30
0.0
 10
107.4626655780581
 20
71.35037232337233
 30
0.0
 10
107.5034447030704
 20
71.56268490824179
 30
0.0
  0
LINE
  5
340
330
1F
100
AcDbEntity
  8
0
  6
HIDDEN
 62
     7
370
     0
100
AcDbLine
 10
109.2534447031
 20
63.1971137853
 30
0.0
 11
109.2534447031
 21
81.1971137853
 31
0.0
  0
LINE
  5
341
330
1F
100
AcDbEntity
  8
0
  6
HIDDEN
 62
     7
370
     0
100
AcDbLine
 10
135.0034447031
 20
63.1971137853
 30
0.0
 11
135.0034447031
 21
81.1971137853
 31
0.0
  0
LINE
  5
342
330
1F
100
AcDbEntity
  8
0
  6
HIDDEN
 62
     7
370
     0
100
AcDbLine
 10
137.8575326435
 20
67.9471137853
 30
0.0
 11
137.8575326435
 21
76.4471137853
 31
0.0
  0
LINE
  5
343
330
1F
100
AcDbEntity
  8
0
  6
HIDDEN
 62
     7
370
     0
100
AcDbLine
 10
190.0034447031
 20
72.1971137853
 30
0.0
 11
190.0034447031
 21
67.9471137853
 31
0.0
  0
LINE
  5
344
330
1F
100
AcDbEntity
  8
0
  6
HIDDEN
 62
     7
370
     0
100
AcDbLine
 10
190.0034447031
 20
76.4471137853
 30
0.0
 11
190.0034447031
 21
72.1971137853
 31
0.0
  0
ARC
  5
345
330
1F
100
AcDbEntity
  8
0
  6
HIDDEN
 62
     7
370
     0
100
AcDbCircle
 10
225.9191539564
 20
75.0902310658
 30
0.0
 40
3.500771366150923
100
AcDbArc
 50
84.3653693093
 51
229.901186103
  0
CIRCLE
  5
346
330
1F
100
AcDbEntity
  8
0
  6
HIDDEN
 62
     7
370
     0
100
AcDbCircle
 10
222.9580919827
 20
65.8617366825
 30
0.0
 40
3.493191390566578
  0
LINE
  5
347
330
1F
100
AcDbEntity
  8
0
  6
HIDDEN
 62
     7
370
     0
100
AcDbLine
 10
236.7820239066
 20
61.9407847559
 30
0.0
 11
235.4820227223
 21
62.4216363383
 31
0.0
  0
LINE
  5
348
330
1F
100
AcDbEntity
  8
0
  6
HIDDEN
 62
     7
370
     0
100
AcDbLine
 10
229.3324865351
 20
76.7583121619
 30
0.0
 11
229.9409974132
 21
76.2438763822
 31
0.0
  0
LINE
  5
349
330
1F
100
AcDbEntity
  8
0
  6
HIDDEN
 62
     7
370
     0
100
AcDbLine
 10
229.3791797402
 20
76.2438763822
 30
0.0
 11
229.9409974132
 21
76.2438763822
 31
0.0
  0
LINE
  5
34A
330
1F
100
AcDbEntity
  8
0
  6
HIDDEN
 62
     7
370
     0
100
AcDbLine
 10
229.3791797402
 20
76.2438763822
 30
0.0
 11
229.0515776985
 21
76.5208315161
 31
0.0
  0
LINE
  5
34B
330
1F
100
AcDbEntity
  8
0
  6
HIDDEN
 62
     7
370
     0
100
AcDbLine
 10
236.7820239066
 20
82.4534428147
 30
0.0
 11
235.4820227223
 21
81.9725912322
 31
0.0
  0
ELLIPSE
  5
34C
330
1F
100
AcDbEntity
  8
0
  6
HIDDEN
 62
     7
370
     0
100
AcDbEllipse
 10
230.4544958514
 20
69.38423287
 30
0.0
 11
3.685805309817937
 21
1.80046240745105
 31
0.0
210
0.0
220
0.0
230
1.0
 40
0.8520481147
 41
4.528313489539642
 42
4.694563322874649
  0
ELLIPSE
  5
34D
330
1F
100
AcDbEntity
  8
0
  6
HIDDEN
 62
     7
370
     0
100
AcDbEllipse
 10
230.4544958514
 20
69.38423287
 30
0.0
 11
3.685805309817937
 21
1.80046240745105
 31
0.0
210
0.0
220
0.0
230
1.0
 40
0.8520481147
 41
2.252819523692426
 42
2.472378428035678
  0
ELLIPSE
  5
34E
330
1F
100
AcDbEntity
  8
0
  6
HIDDEN
 62
     7
370
     0
100
AcDbEllipse
 10
228.9112973167
 20
68.7884048042
 30
0.0
 11
3.340480305532254
 21
-2.451703880153744
 31
0.0
210
0.0
220
0.0
230
1.0
 40
0.1163726509
 41
2.284493551797045
 42
2.945552482005718
  0
ELLIPSE
  5
34F
330
1F
100
AcDbEntity
  8
0
  6
HIDDEN
 62
     7
370
     0
100
AcDbEllipse
 10
227.3013848853
 20
68.1668185412
 30
0.0
 11
3.685805309817908
 21
1.80046240745105
 31
0.0
210
0.0
220
0.0
230
1.0
 40
0.8520481147
 41
1.552970669284846
 42
1.591760593483718
  0
SPLINE
  5
350
330
1F
100
AcDbEntity
  8
0
  6
HIDDEN
 62
     7
370
     0
100
AcDbSpline
210
0.0
220
0.0
230
1.0
 70
     8
 71
     3
 72
    22
 73
    18
 74
     0
 42
0.00000001
 43
0.00000001
 12
1.0
 22
0.0
 32
0.0
 13
1.0
 23
0.0
 33
0.0
 40
0.0
 40
0.0
 40
0.0
 40
0.0
 40
0.1250000000000006
 40
0.1250000000000006
 40
0.2500000000000012
 40
0.2500000000000012
 40
0.5000000000000011
 40
0.5000000000000011
 40
0.6250000000000008
 40
0.6250000000000008
 40
0.7500000000000006
 40
0.7500000000000006
 40
0.8750000000000002
 40
0.8750000000000002
 40
0.9375000000000001
 40
0.9375000000000001
 40
1.0
 40
1.0
 40
1.0
 40
1.0
 10
222.3942039070544
 20
70.01108345640402
 30
0.0
 10
222.4441039550221
 20
70.01108345640402
 30
0.0
 10
222.529106226009
 20
70.0060012927539
 30
0.0
 10
222.7325833772882
 20
69.98790013670038
 30
0.0
 10
222.8514131028204
 20
69.97472586194533
 30
0.0
 10
223.2384114058495
 20
69.92035075252298
 30
0.0
 10
223.5361413337105
 20
69.86482500066931
 30
0.0
 10
224.0191463259591
 20
69.7321051082096
 30
0.0
 10
224.1866650204558
 20
69.67953297229356
 30
0.0
 10
224.5351427953093
 20
69.55097733526155
 30
0.0
 10
224.7163163411545
 20
69.47508270553168
 30
0.0
 10
225.0945514490406
 20
69.28740706915667
 30
0.0
 10
225.289426178313
 20
69.17725548639628
 30
0.0
 10
225.594861521017
 20
68.96712394527343
 30
0.0
 10
225.698888312639
 20
68.88949909666371
 30
0.0
 10
225.9135176678243
 20
68.71032407380599
 30
0.0
 10
226.0230497153258
 20
68.60983650368377
 30
0.0
 10
226.1347945052498
 20
68.49155780219063
 30
0.0
  0
SPLINE
  5
351
330
1F
100
AcDbEntity
  8
0
  6
HIDDEN
 62
     7
370
     0
100
AcDbSpline
210
0.0
220
0.0
230
1.0
 70
     8
 71
     3
 72
     9
 73
     5
 74
     0
 42
0.00000001
 43
0.00000001
 12
1.0
 22
0.0
 32
0.0
 13
1.0
 23
0.0
 33
0.0
 40
0.0
 40
0.0
 40
0.0
 40
0.0
 40
0.6621426251173217
 40
1.0
 40
1.0
 40
1.0
 40
1.0
 10
226.1347945052498
 20
68.49155780219063
 30
0.0
 10
226.1704170111076
 20
68.37023841630528
 30
0.0
 10
226.2242158521829
 20
68.1870159785958
 30
0.0
 10
226.2960019780057
 20
68.0064604390271
 30
0.0
 10
226.3202554500292
 20
67.9454584184079
 30
0.0
  0
SPLINE
  5
352
330
1F
100
AcDbEntity
  8
0
  6
HIDDEN
 62
     7
370
     0
100
AcDbSpline
210
0.0
220
0.0
230
1.0
 70
     8
 71
     3
 72
     9
 73
     5
 74
     0
 42
0.00000001
 43
0.00000001
 12
1.0
 22
0.0
 32
0.0
 13
1.0
 23
0.0
 33
0.0
 40
0.0
 40
0.0
 40
0.0
 40
0.0
 40
0.2374976747681591
 40
1.0
 40
1.0
 40
1.0
 40
1.0
 10
226.8921270733337
 20
66.8017892269459
 30
0.0
 10
226.8986237168455
 20
66.79109871787182
 30
0.0
 10
226.9259782731296
 20
66.74608560738771
 30
0.0
 10
226.9551236738016
 20
66.703556926761
 30
0.0
 10
226.9773471095838
 20
66.67112870889407
 30
0.0
  0
SPLINE
  5
353
330
1F
100
AcDbEntity
  8
0
  6
HIDDEN
 62
     7
370
     0
100
AcDbSpline
210
0.0
220
0.0
230
1.0
 70
     8
 71
     3
 72
    23
 73
    19
 74
     0
 42
0.00000001
 43
0.00000001
 12
1.0
 22
0.0
 32
0.0
 13
1.0
 23
0.0
 33
0.0
 40
0.0
 40
0.0
 40
0.0
 40
0.0
 40
0.0475211167117617
 40
0.095771088336216
 40
0.1453709140901598
 40
0.1951964467069655
 40
0.2633984025630867
 40
0.3318119213722697
 40
0.4006752510110254
 40
0.4696347896983677
 40
0.5396636652245426
 40
0.6097548398957406
 40
0.6800191209239358
 40
0.7503393563046574
 40
0.8559439505200412
 40
0.9088923168241969
 40
0.9619015986050414
 40
0.9999999999999999
 40
0.9999999999999999
 40
0.9999999999999999
 40
0.9999999999999999
 10
226.9773471095838
 20
66.67112870889407
 30
0.0
 10
226.9820557051349
 20
66.57006631304588
 30
0.0
 10
226.9915451143003
 20
66.36639147731017
 30
0.0
 10
226.9688470654082
 20
66.10222843564577
 30
0.0
 10
226.9292914970297
 20
65.85794314732976
 30
0.0
 10
226.8671680536337
 20
65.60670699723192
 30
0.0
 10
226.7820229315172
 20
65.3541546921196
 30
0.0
 10
226.6732950083147
 20
65.10369882932049
 30
0.0
 10
226.5532107543629
 20
64.8757875575818
 30
0.0
 10
226.4240291129025
 20
64.66679613937626
 30
0.0
 10
226.2881991821463
 20
64.47551229298907
 30
0.0
 10
226.1477025496077
 20
64.30099315556625
 30
0.0
 10
226.0052345123257
 20
64.14366447141461
 30
0.0
 10
225.8393623648464
 20
63.980596737285
 30
0.0
 10
225.68896477346
 20
63.85391283013528
 30
0.0
 10
225.5598942952173
 20
63.76333530861744
 30
0.0
 10
225.4770198770391
 20
63.71307351375022
 30
0.0
 10
225.432075381074
 20
63.69494304305849
 30
0.0
 10
225.4132809897769
 20
63.68736144372664
 30
0.0
  0
ELLIPSE
  5
354
330
1F
100
AcDbEntity
  8
0
  6
HIDDEN
 62
     7
370
     0
100
AcDbEllipse
 10
227.9451054422
 20
68.4153586776
 30
0.0
 11
3.340480305532224
 21
-2.451703880153743
 31
0.0
210
0.0
220
0.0
230
1.0
 40
0.1163726509
 41
0.0089995859498262
 42
2.064934647453808
  0
ARC
  5
355
330
1F
100
AcDbEntity
  8
0
  6
HIDDEN
 62
     7
370
     0
100
AcDbCircle
 10
226.1706248839
 20
75.4046982491
 30
0.0
 40
3.097503388191377
100
AcDbArc
 50
98.7328750593
 51
196.5054168714
  0
LINE
  5
356
330
1F
100
AcDbEntity
  8
0
  6
HIDDEN
 62
     7
370
     0
100
AcDbLine
 10
226.9401883185
 20
70.6872385668
 30
0.0
 11
224.5456906732
 21
72.711549565
 31
0.0
  0
LINE
  5
357
330
1F
100
AcDbEntity
  8
0
  6
HIDDEN
 62
     7
370
     0
100
AcDbLine
 10
223.6642798321
 20
72.4123694484
 30
0.0
 11
226.6119867681
 21
69.9203746946
 31
0.0
  0
ARC
  5
358
330
1F
100
AcDbEntity
  8
0
  6
HIDDEN
 62
     7
370
     0
100
AcDbCircle
 10
220.5153776225
 20
65.8439979075
 30
0.0
 40
4.172990858861549
100
AcDbArc
 50
179.8099476149
 51
20.0786675714
  0
ARC
  5
359
330
1F
100
AcDbEntity
  8
0
  6
HIDDEN
 62
     7
370
     0
100
AcDbCircle
 10
220.5071275775
 20
65.888132594
 30
0.0
 40
4.164828024784696
100
AcDbArc
 50
30.879878522
 51
180.4167425761
  0
ELLIPSE
  5
35A
330
1F
100
AcDbEntity
  8
0
  6
HIDDEN
 62
     7
370
     0
100
AcDbEllipse
 10
221.6926609318
 20
65.8578398592
 30
0.0
 11
-0.8683615577165824
 21
4.123771890140347
 31
0.0
210
0.0
220
0.0
230
1.0
 40
0.9173119931
 41
3.972797940918234
 42
5.943019507593725
  0
LINE
  5
35B
330
1F
100
AcDbEntity
  8
0
  6
HIDDEN
 62
     7
370
     0
100
AcDbLine
 10
225.0724353224
 20
63.6669289471
 30
0.0
 11
225.3304808122
 21
63.6669289471
 31
0.0
  0
LINE
  5
35C
330
1F
100
AcDbEntity
  8
0
  6
HIDDEN
 62
     7
370
     0
100
AcDbLine
 10
222.3942039071
 20
70.0110834564
 30
0.0
 11
222.1361584172
 21
70.0110834564
 31
0.0
  0
ARC
  5
35D
330
1F
100
AcDbEntity
  8
0
  6
HIDDEN
 62
     7
370
     0
100
AcDbCircle
 10
222.8658979384
 20
65.8734136401
 30
0.0
 40
4.188121729144893
100
AcDbArc
 50
38.6921438406
 51
10.9802632206
  0
ARC
  5
35E
330
1F
100
AcDbEntity
  8
0
  6
HIDDEN
 62
     7
370
     0
100
AcDbCircle
 10
225.6086569956
 20
75.3977849481
 30
0.0
 40
3.100378077449176
100
AcDbArc
 50
85.1357025409
 51
229.9296867102
  0
LINE
  5
35F
330
1F
100
AcDbEntity
  8
0
  6
HIDDEN
 62
     7
370
     0
100
AcDbLine
 10
229.9409974132
 20
76.2438763822
 30
0.0
 11
236.0996738012
 21
81.4504283165
 31
0.0
  0
LINE
  5
360
330
1F
100
AcDbEntity
  8
0
  6
HIDDEN
 62
     7
370
     0
100
AcDbLine
 10
235.4820227223
 20
81.9725912322
 30
0.0
 11
229.3233463343
 21
76.7660392979
 31
0.0
  0
LINE
  5
361
330
1F
100
AcDbEntity
  8
0
  6
HIDDEN
 62
     7
370
     0
100
AcDbLine
 10
235.4820227223
 20
81.9725912322
 30
0.0
 11
236.0996738012
 21
81.4504283165
 31
0.0
  0
LINE
  5
362
330
1F
100
AcDbEntity
  8
0
  6
HIDDEN
 62
     7
370
     0
100
AcDbLine
 10
236.0996738012
 20
81.4504283165
 30
0.0
 11
235.1008395579
 21
81.0809740173
 31
0.0
  0
LINE
  5
363
330
1F
100
AcDbEntity
  8
0
  6
HIDDEN
 62
     7
370
     0
100
AcDbLine
 10
232.1225395558
 20
66.3060730113
 30
0.0
 11
231.9226343039
 21
66.2121556154
 31
0.0
  0
LINE
  5
364
330
1F
100
AcDbEntity
  8
0
  6
HIDDEN
 62
     7
370
     0
100
AcDbLine
 10
236.0996738012
 20
62.9437992541
 30
0.0
 11
232.1225395558
 21
66.3060730113
 31
0.0
  0
LINE
  5
365
330
1F
100
AcDbEntity
  8
0
  6
HIDDEN
 62
     7
370
     0
100
AcDbLine
 10
231.2880181204
 20
65.9672525384
 30
0.0
 11
235.4820227223
 21
62.4216363383
 31
0.0
  0
LINE
  5
366
330
1F
100
AcDbEntity
  8
0
  6
HIDDEN
 62
     7
370
     0
100
AcDbLine
 10
235.4820227223
 20
62.4216363383
 30
0.0
 11
236.0996738012
 21
62.9437992541
 31
0.0
  0
LINE
  5
367
330
1F
100
AcDbEntity
  8
0
  6
HIDDEN
 62
     7
370
     0
100
AcDbLine
 10
229.6657053251
 20
66.0244709036
 30
0.0
 11
225.0724353224
 21
63.6669289471
 31
0.0
  0
LINE
  5
368
330
1F
100
AcDbEntity
  8
0
  6
HIDDEN
 62
     7
370
     0
100
AcDbLine
 10
235.317536809
 20
68.2066397859
 30
0.0
 11
235.6061202481
 21
68.2066397859
 31
0.0
  0
LINE
  5
369
330
1F
100
AcDbEntity
  8
0
  6
HIDDEN
 62
     7
370
     0
100
AcDbLine
 10
235.6061202481
 20
68.2066397859
 30
0.0
 11
231.5607218827
 21
66.3060730113
 31
0.0
  0
LINE
  5
36A
330
1F
100
AcDbEntity
  8
0
  6
HIDDEN
 62
     7
370
     0
100
AcDbLine
 10
231.5607218827
 20
66.3060730113
 30
0.0
 11
232.1225395558
 21
66.3060730113
 31
0.0
  0
LINE
  5
36B
330
1F
100
AcDbEntity
  8
0
  6
HIDDEN
 62
     7
370
     0
100
AcDbLine
 10
236.0996738012
 20
62.9437992541
 30
0.0
 11
235.1008395579
 21
63.3132535532
 31
0.0
  0
SPLINE
  5
36C
330
1F
100
AcDbEntity
  8
0
  6
HIDDEN
 62
     7
370
     0
100
AcDbSpline
210
0.0
220
0.0
230
1.0
 70
     8
 71
     3
 72
    16
 73
    12
 74
     0
 42
0.00000001
 43
0.00000001
 12
1.0
 22
0.0
 32
0.0
 13
1.0
 23
0.0
 33
0.0
 40
0.0
 40
0.0
 40
0.0
 40
0.0
 40
0.2499999999999998
 40
0.2499999999999998
 40
0.3749999999999997
 40
0.3749999999999997
 40
0.4999999999999996
 40
0.4999999999999996
 40
0.7499999999999998
 40
0.7499999999999998
 40
1.0
 40
1.0
 40
1.0
 40
1.0
 10
117.6821243595107
 20
93.96719474026642
 30
0.0
 10
117.5208918820262
 20
93.86917912721172
 30
0.0
 10
117.4004120423866
 20
93.68244309553565
 30
0.0
 10
117.2780315250732
 20
93.26940328797676
 30
0.0
 10
117.2470538646758
 20
93.10940278874384
 30
0.0
 10
117.2054401270478
 20
92.74259713765268
 30
0.0
 10
117.195204214115
 20
92.53925998502868
 30
0.0
 10
117.1950158170589
 20
91.87197271840199
 30
0.0
 10
117.2351605196965
 20
91.35115825451392
 30
0.0
 10
117.3993142746361
 20
90.15379923903623
 30
0.0
 10
117.5208659250457
 20
89.49552958474024
 30
0.0
 10
117.6821243595106
 20
88.78102041150534
 30
0.0
  0
SPLINE
  5
36D
330
1F
100
AcDbEntity
  8
0
  6
HIDDEN
 62
     7
370
     0
100
AcDbSpline
210
0.0
220
0.0
230
1.0
 70
     8
 71
     3
 72
    16
 73
    12
 74
     0
 42
0.00000001
 43
0.00000001
 12
1.0
 22
0.0
 32
0.0
 13
1.0
 23
0.0
 33
0.0
 40
0.0
 40
0.0
 40
0.0
 40
0.0
 40
0.2500000000000009
 40
0.2500000000000009
 40
0.3750000000000011
 40
0.3750000000000011
 40
0.5000000000000012
 40
0.5000000000000012
 40
0.7500000000000006
 40
0.7500000000000006
 40
1.0
 40
1.0
 40
1.0
 40
1.0
 10
117.6821243595107
 20
55.61320715902329
 30
0.0
 10
117.5208918820262
 20
54.89881299683115
 30
0.0
 10
117.4004120423866
 20
54.24547073412248
 30
0.0
 10
117.2780315250733
 20
53.3572154923186
 30
0.0
 10
117.2470538646758
 20
53.07653495596676
 30
0.0
 10
117.2054401270478
 20
52.54750096612676
 30
0.0
 10
117.195204214115
 20
52.3041799875483
 30
0.0
 10
117.1950158170589
 20
51.63615729703508
 30
0.0
 10
117.2351605196965
 20
51.27247638761561
 30
0.0
 10
117.3993142746361
 20
50.7125855150673
 30
0.0
 10
117.5208659250457
 20
50.52506422295015
 30
0.0
 10
117.6821243595107
 20
50.42703283026221
 30
0.0
  0
ARC
  5
36E
330
1F
100
AcDbEntity
  8
0
  6
HIDDEN
 62
     7
370
     0
100
AcDbCircle
 10
235.882565319
 20
72.1861658978
 30
0.0
 40
3.989116437595821
100
AcDbArc
 50
266.0262275188
 51
143.6461795424
  0
LINE
  5
36F
330
1F
100
AcDbEntity
  8
0
  6
HIDDEN
 62
     7
370
     0
100
AcDbLine
 10
225.8332464328
 20
71.3388957958
 30
0.0
 11
232.669843343
 21
74.5507942951
 31
0.0
  0
LINE
  5
370
330
1F
100
AcDbEntity
  8
0
  6
HIDDEN
 62
     7
370
     0
100
AcDbLine
 10
245.1483080879
 20
71.8073947313
 30
0.0
 11
245.1483080879
 21
72.5868328392
 31
0.0
  0
LINE
  5
371
330
1F
100
AcDbEntity
  8
0
  6
HIDDEN
 62
     7
370
     0
100
AcDbLine
 10
231.5607218827
 20
66.3060730113
 30
0.0
 11
235.1008395579
 21
63.3132535532
 31
0.0
  0
LINE
  5
372
330
1F
100
AcDbEntity
  8
0
  6
HIDDEN
 62
     7
370
     0
100
AcDbLine
 10
235.1008395579
 20
81.0809740173
 30
0.0
 11
229.3791797402
 21
76.2438763822
 31
0.0
  0
LINE
  5
373
330
1F
100
AcDbEntity
  8
0
  6
HIDDEN
 62
     7
370
     0
100
AcDbLine
 10
223.6128592536
 20
73.0252050029
 30
0.0
 11
225.6903768421
 21
71.2688693007
 31
0.0
  0
LINE
  5
374
330
1F
100
AcDbEntity
  8
0
  6
HIDDEN
 62
     7
370
     0
100
AcDbLine
 10
235.1008395579
 20
63.3132535532
 30
0.0
 11
245.1483080879
 21
71.8073947313
 31
0.0
  0
LINE
  5
375
330
1F
100
AcDbEntity
  8
0
  6
HIDDEN
 62
     7
370
     0
100
AcDbLine
 10
235.1008395579
 20
81.0809740173
 30
0.0
 11
245.1483080879
 21
72.5868328392
 31
0.0
  0
ARC
  5
376
330
1F
100
AcDbEntity
  8
0
  6
HIDDEN
 62
     7
370
     0
100
AcDbCircle
 10
235.0357854458
 20
72.1844955778
 30
0.0
 40
3.988005732029452
100
AcDbArc
 50
253.1162680974
 51
156.5561389639
  0
SPLINE
  5
377
330
1F
100
AcDbEntity
  8
0
  6
HIDDEN
 62
     7
370
     0
100
AcDbSpline
210
0.0
220
0.0
230
1.0
 70
     8
 71
     3
 72
    12
 73
     8
 74
     0
 42
0.00000001
 43
0.00000001
 12
1.0
 22
0.0
 32
0.0
 13
1.0
 23
0.0
 33
0.0
 40
0.0
 40
0.0
 40
0.0
 40
0.0
 40
0.25
 40
0.25
 40
0.5
 40
0.5
 40
1.0
 40
1.0
 40
1.0
 40
1.0
 10
232.3812599038343
 20
74.5507942951297
 30
0.0
 10
232.3330665960077
 20
74.5507942951297
 30
0.0
 10
232.2626738866487
 20
74.52070357510809
 30
0.0
 10
232.1064898608471
 20
74.43213930867893
 30
0.0
 10
232.0198591542409
 20
74.37281987775214
 30
0.0
 10
231.7510244591655
 20
74.16438146452242
 30
0.0
 10
231.5601560657604
 20
73.98561573461579
 30
0.0
 10
231.3769882615588
 20
73.77112498728546
 30
0.0
  0
SPLINE
  5
378
330
1F
100
AcDbEntity
  8
0
  6
HIDDEN
 62
     7
370
     0
100
AcDbSpline
210
0.0
220
0.0
230
1.0
 70
     8
 71
     3
 72
    12
 73
     8
 74
     0
 42
0.00000001
 43
0.00000001
 12
1.0
 22
0.0
 32
0.0
 13
1.0
 23
0.0
 33
0.0
 40
0.0
 40
0.0
 40
0.0
 40
0.0
 40
0.4999999999999986
 40
0.4999999999999986
 40
0.7499999999999992
 40
0.7499999999999992
 40
1.0
 40
1.0
 40
1.0
 40
1.0
 10
233.877546899126
 20
68.36838850542604
 30
0.0
 10
234.1908765725455
 20
68.30092678350886
 30
0.0
 10
234.4829979287059
 20
68.2616384978377
 30
0.0
 10
234.8657754112857
 20
68.22648202141418
 30
0.0
 10
234.9834833279892
 20
68.21883403065542
 30
0.0
 10
235.1847297690018
 20
68.20900163876797
 30
0.0
 10
235.2694865567591
 20
68.20663978587359
 30
0.0
 10
235.317536808964
 20
68.20663978587359
 30
0.0
  0
LINE
  5
379
330
1F
100
AcDbEntity
  8
0
  6
HIDDEN
 62
     7
370
     0
100
AcDbLine
 10
232.669843343
 20
74.5507942951
 30
0.0
 11
232.3812599038
 21
74.5507942951
 31
0.0
  0
LINE
  5
37A
330
1F
100
AcDbEntity
  8
0
  6
HIDDEN
 62
     7
370
     0
100
AcDbLine
 10
238.4716602022
 20
71.8073947313
 30
0.0
 11
245.1483080879
 21
71.8073947313
 31
0.0
  0
LINE
  5
37B
330
1F
100
AcDbEntity
  8
0
  6
HIDDEN
 62
     7
370
     0
100
AcDbLine
 10
245.1483080879
 20
72.5868328392
 30
0.0
 11
238.4716602022
 21
72.5868328392
 31
0.0
  0
ELLIPSE
  5
37C
330
1F
100
AcDbEntity
  8
0
  6
HIDDEN
 62
     7
370
     0
100
AcDbEllipse
 10
230.6812222372
 20
70.1554860647
 30
0.0
 11
3.685805309817937
 21
1.80046240745105
 31
0.0
210
0.0
220
0.0
230
1.0
 40
0.8520481147
 41
5.24631317708964
 42
7.284406122249559
  0
LWPOLYLINE
  5
37D
330
1F
100
AcDbEntity
  8
0
  6
HIDDEN
 62
     7
370
     0
100
AcDbPolyline
 90
       14
 70
   128
 43
0.0
 10
229.6657053251
 20
66.0244709036
 10
230.2079288553
 20
66.4168437857
 10
230.6333174544
 20
66.9707629821
 10
230.9171490832
 20
67.6540367226
 10
231.0429284793
 20
68.4269556209
 10
231.0033458012
 20
69.2446004401
 10
230.8007014505
 20
70.0594526354
 10
230.44677238
 20
70.824155959
 10
229.962127661
 20
71.4942686333
 10
229.3749330829
 20
72.0308461454
 10
228.7193142601
 20
72.4027045608
 10
228.0333733757
 20
72.58823282
 10
227.3569748206
 20
72.5766486949
 10
226.72942842
 20
72.3686254128
  0
LINE
  5
37E
330
1F
100
AcDbEntity
  8
0
  6
HIDDEN
 62
     7
370
     0
100
AcDbLine
 10
222.1361584172
 20
70.0110834564
 30
0.0
 11
226.72942842
 21
72.3686254128
 31
0.0
  0
LINE
  5
37F
330
1F
100
AcDbEntity
  8
0
  6
HIDDEN
 62
     7
370
     0
100
AcDbLine
 10
118.8034447031
 20
79.219001111
 30
0.0
 11
118.8034447031
 21
65.1581069436
 31
0.0
  0
SPLINE
  5
380
330
1F
100
AcDbEntity
  8
0
  6
HIDDEN
 62
     7
370
     0
100
AcDbSpline
210
0.0
220
0.0
230
1.0
 70
     8
 71
     3
 72
     8
 73
     4
 74
     0
 42
0.00000001
 43
0.00000001
 12
1.0
 22
0.0
 32
0.0
 13
1.0
 23
0.0
 33
0.0
 40
0.0000249638557296
 40
0.0000249638557296
 40
0.0000249638557296
 40
0.0000249638557296
 40
0.0049776420541173
 40
0.0049776420541173
 40
0.0049776420541173
 40
0.0049776420541173
 10
82.50344470307031
 20
68.23190288842781
 30
0.0
 10
84.15342093757988
 20
68.19062365065956
 30
0.0
 10
85.80342225732493
 20
68.15040196942016
 30
0.0
 10
87.45344470307039
 20
68.1111527321651
 30
0.0
  0
SPLINE
  5
381
330
1F
100
AcDbEntity
  8
0
  6
HIDDEN
 62
     7
370
     0
100
AcDbSpline
210
0.0
220
0.0
230
1.0
 70
     8
 71
     3
 72
     8
 73
     4
 74
     0
 42
0.00000001
 43
0.00000001
 12
1.0
 22
0.0
 32
0.0
 13
1.0
 23
0.0
 33
0.0
 40
0.0000249631533153
 40
0.0000249631533153
 40
0.0000249631533153
 40
0.0000249631533153
 40
0.0049776413517029
 40
0.0049776413517029
 40
0.0049776413517029
 40
0.0049776413517029
 10
87.45344470307035
 20
76.28307483836352
 30
0.0
 10
85.80342225732493
 20
76.24382560110848
 30
0.0
 10
84.15342093757988
 20
76.20360391986907
 30
0.0
 10
82.50344470307033
 20
76.16232468210082
 30
0.0
  0
SPLINE
  5
382
330
1F
100
AcDbEntity
  8
0
  6
HIDDEN
 62
     7
370
     0
100
AcDbSpline
210
0.0
220
0.0
230
1.0
 70
     8
 71
     3
 72
     8
 73
     4
 74
     0
 42
0.00000001
 43
0.00000001
 12
1.0
 22
0.0
 32
0.0
 13
1.0
 23
0.0
 33
0.0
 40
0.0
 40
0.0
 40
0.0
 40
0.0
 40
1.0
 40
1.0
 40
1.0
 40
1.0
 10
81.00344470306814
 20
69.29512645228398
 30
0.0
 10
81.47020531444593
 20
68.87976320666095
 30
0.0
 10
81.97595286122599
 20
68.53517277735638
 30
0.0
 10
82.50344470307036
 20
68.2319028884278
 30
0.0
  0
SPLINE
  5
383
330
1F
100
AcDbEntity
  8
0
  6
HIDDEN
 62
     7
370
     0
100
AcDbSpline
210
0.0
220
0.0
230
1.0
 70
     8
 71
     3
 72
     8
 73
     4
 74
     0
 42
0.00000001
 43
0.00000001
 12
1.0
 22
0.0
 32
0.0
 13
1.0
 23
0.0
 33
0.0
 40
0.0
 40
0.0
 40
0.0
 40
0.0
 40
1.0
 40
1.0
 40
1.0
 40
1.0
 10
82.50344470307037
 20
76.16232468210083
 30
0.0
 10
81.97595286122686
 20
75.85905479317273
 30
0.0
 10
81.47020531444757
 20
75.51446436386877
 30
0.0
 10
81.0034447030704
 20
75.09910111824665
 30
0.0
  0
LINE
  5
384
330
1F
100
AcDbEntity
  8
0
  6
HIDDEN
 62
     7
370
     0
100
AcDbLine
 10
87.4534447031
 20
68.1111527322
 30
0.0
 11
87.4534447031
 21
76.2830748384
 31
0.0
  0
SPLINE
  5
385
330
1F
100
AcDbEntity
  8
0
  6
HIDDEN
 62
     7
370
     0
100
AcDbSpline
210
0.0
220
0.0
230
1.0
 70
     8
 71
     3
 72
    24
 73
    20
 74
     0
 42
0.00000001
 43
0.00000001
 12
1.0
 22
0.0
 32
0.0
 13
1.0
 23
0.0
 33
0.0
 40
0.0
 40
0.0
 40
0.0
 40
0.0
 40
0.1249999999999999
 40
0.1249999999999999
 40
0.2499999999999998
 40
0.2499999999999998
 40
0.3749999999999998
 40
0.3749999999999998
 40
0.4374999999999999
 40
0.4374999999999999
 40
0.4999999999999999
 40
0.4999999999999999
 40
0.6249999999999999
 40
0.6249999999999999
 40
0.7499999999999999
 40
0.7499999999999999
 40
0.875
 40
0.875
 40
1.0
 40
1.0
 40
1.0
 40
1.0
 10
87.45344470307037
 20
68.11115273216507
 30
0.0
 10
87.69124833534548
 20
68.4101598344952
 30
0.0
 10
87.92133399655675
 20
68.71449768581395
 30
0.0
 10
88.35608739516658
 20
69.34023122320993
 30
0.0
 10
88.56102018745274
 20
69.66145595053744
 30
0.0
 10
88.92612213795144
 20
70.33338172127019
 30
0.0
 10
89.08792252374293
 20
70.68869695314905
 30
0.0
 10
89.25978272832266
 20
71.23892817450151
 30
0.0
 10
89.3053679199828
 20
71.42533195948198
 30
0.0
 10
89.36784265955765
 20
71.80546646157823
 30
0.0
 10
89.38451380530611
 20
72.00113625386412
 30
0.0
 10
89.38503484848259
 20
72.57961663253853
 30
0.0
 10
89.32059254759591
 20
72.95752847150733
 30
0.0
 10
89.09074345422258
 20
73.69949649660576
 30
0.0
 10
88.93222277655946
 20
74.0482119567667
 30
0.0
 10
88.56798844665931
 20
74.72130435449986
 30
0.0
 10
88.36125220659571
 20
75.0462568417415
 30
0.0
 10
87.92331426085535
 20
75.67718065220329
 30
0.0
 10
87.69204153357579
 20
75.98307039254392
 30
0.0
 10
87.45344470307049
 20
76.28307483836343
 30
0.0
  0
SPLINE
  5
386
330
1F
100
AcDbEntity
  8
0
  6
HIDDEN
 62
     7
370
     0
100
AcDbSpline
210
0.0
220
0.0
230
1.0
 70
     8
 71
     3
 72
    32
 73
    28
 74
     0
 42
0.00000001
 43
0.00000001
 12
1.0
 22
0.0
 32
0.0
 13
1.0
 23
0.0
 33
0.0
 40
0.0
 40
0.0
 40
0.0
 40
0.0
 40
0.0353056075622083
 40
0.0713584750730809
 40
0.1125563875129314
 40
0.1548516320645121
 40
0.1978551381035932
 40
0.2420485630222915
 40
0.2860493427495431
 40
0.3313302658005353
 40
0.3751831268828191
 40
0.4204039082262564
 40
0.4625542848199086
 40
0.5061113020933957
 40
0.5453125125669684
 40
0.585807936253168
 40
0.6225742340926421
 40
0.660437427010348
 40
0.6967864707667224
 40
0.7341083231263252
 40
0.7720586201790038
 40
0.8109746736635361
 40
0.8515628452067595
 40
0.8932033035190221
 40
0.9361400151886111
 40
0.9802581720351403
 40
1.0
 40
1.0
 40
1.0
 40
1.0
 10
100.3146061318325
 20
74.84312533532172
 30
0.0
 10
100.457617631382
 20
74.98710741518993
 30
0.0
 10
100.746667536777
 20
75.2781190240156
 30
0.0
 10
101.2803212550414
 20
75.64807989846115
 30
0.0
 10
101.8961304326279
 20
75.95669334879474
 30
0.0
 10
102.5931972237918
 20
76.17341566551602
 30
0.0
 10
103.3328014056682
 20
76.27850224037346
 30
0.0
 10
104.0894920565175
 20
76.2617955255159
 30
0.0
 10
104.8453757409959
 20
76.11893942482828
 30
0.0
 10
105.5644247033291
 20
75.85234027340412
 30
0.0
 10
106.2328717257435
 20
75.46409361885183
 30
0.0
 10
106.8096178891748
 20
74.97628433711505
 30
0.0
 10
107.2892663779775
 20
74.39516531116878
 30
0.0
 10
107.6397548284551
 20
73.76584236731824
 30
0.0
 10
107.8675943185569
 20
73.09254688213122
 30
0.0
 10
107.9661189885761
 20
72.42699642368915
 30
0.0
 10
107.9468573303023
 20
71.7628791923075
 30
0.0
 10
107.8205578573411
 20
71.13499568770528
 30
0.0
 10
107.5914084653761
 20
70.53461371084042
 30
0.0
 10
107.2690732591938
 20
69.97879573769838
 30
0.0
 10
106.8536018163863
 20
69.4703429777025
 30
0.0
 10
106.3496491311029
 20
69.02101255558892
 30
0.0
 10
105.7632678214644
 20
68.64547317111837
 30
0.0
 10
105.1029697135958
 20
68.356343726902
 30
0.0
 10
104.3852152196867
 20
68.1778796341233
 30
0.0
 10
103.7704743099778
 20
68.10677719874063
 30
0.0
 10
103.4049884573366
 20
68.14314872843137
 30
0.0
 10
103.2920012894294
 20
68.15439270983997
 30
0.0
  0
SPLINE
  5
387
330
1F
100
AcDbEntity
  8
0
  6
HIDDEN
 62
     7
370
     0
100
AcDbSpline
210
0.0
220
0.0
230
1.0
 70
     8
 71
     3
 72
    20
 73
    16
 74
     0
 42
0.00000001
 43
0.00000001
 12
1.0
 22
0.0
 32
0.0
 13
1.0
 23
0.0
 33
0.0
 40
0.0
 40
0.0
 40
0.0
 40
0.0
 40
0.0351594399198036
 40
0.1263205077216551
 40
0.2202910595840666
 40
0.3085143248051473
 40
0.3996000799146991
 40
0.4828153360979779
 40
0.5687574372022064
 40
0.6470198776260377
 40
0.727683662579467
 40
0.8039133644088358
 40
0.8822660041903534
 40
0.9407071686471262
 40
1.0
 40
1.0
 40
1.0
 40
1.0
 10
102.3992642642433
 20
68.30558117808415
 30
0.0
 10
102.3045311056516
 20
68.32722169761492
 30
0.0
 10
101.9641746972823
 20
68.40497155428844
 30
0.0
 10
101.4102585190152
 20
68.67029620442622
 30
0.0
 10
100.778044639807
 20
69.08463864810446
 30
0.0
 10
100.2321828617096
 20
69.61063141194772
 30
0.0
 10
99.80507866932273
 20
70.19998259091905
 30
0.0
 10
99.49371232959025
 20
70.85080786511436
 30
0.0
 10
99.31278215317197
 20
71.51327758533031
 30
0.0
 10
99.25250729762654
 20
72.1897308514514
 30
0.0
 10
99.30744706823161
 20
72.8398882758213
 30
0.0
 10
99.47102740209074
 20
73.47122073830666
 30
0.0
 10
99.7119657821957
 20
74.00984303651039
 30
0.0
 10
99.99770622038388
 20
74.47108460037414
 30
0.0
 10
100.2084646316631
 20
74.71851513410407
 30
0.0
 10
100.3146061318325
 20
74.84312533532172
 30
0.0
  0
CIRCLE
  5
388
330
1F
100
AcDbEntity
  8
0
  6
HIDDEN
 62
     7
370
     0
100
AcDbCircle
 10
131.0034447031
 20
72.1971137853
 30
0.0
 40
2.0
  0
LINE
  5
389
330
1F
100
AcDbEntity
  8
0
  6
HIDDEN
 62
     7
370
     0
100
AcDbLine
 10
236.9675637235
 20
75.3721137853
 30
0.0
 11
236.1936933929
 21
75.3721137853
 31
0.0
  0
LINE
  5
38A
330
1F
100
AcDbEntity
  8
0
  6
HIDDEN
 62
     7
370
     0
100
AcDbLine
 10
236.1936933929
 20
69.0221137853
 30
0.0
 11
236.9675637235
 21
69.0221137853
 31
0.0
  0
LINE
  5
38B
330
1F
100
AcDbEntity
  8
0
  6
HIDDEN
 62
     7
370
     0
100
AcDbLine
 10
236.7621261497
 20
82.4366212286
 30
0.0
 11
236.1936933929
 21
82.4366212286
 31
0.0
  0
LINE
  5
38C
330
1F
100
AcDbEntity
  8
0
  6
HIDDEN
 62
     7
370
     0
100
AcDbLine
 10
236.1936933929
 20
61.9576063419
 30
0.0
 11
236.7621261497
 21
61.9576063419
 31
0.0
  0
LINE
  5
38D
330
1F
100
AcDbEntity
  8
0
  6
HIDDEN
 62
     7
370
     0
100
AcDbLine
 10
236.4600554207
 20
81.2815301363
 30
0.0
 11
235.9165181491
 21
81.2815301363
 31
0.0
  0
LINE
  5
38E
330
1F
100
AcDbEntity
  8
0
  6
HIDDEN
 62
     7
370
     0
100
AcDbLine
 10
235.9165181491
 20
63.1126974342
 30
0.0
 11
236.4600554207
 21
63.1126974342
 31
0.0
  0
LINE
  5
38F
330
1F
100
AcDbEntity
  8
0
  6
HIDDEN
 62
     7
370
     0
100
AcDbLine
 10
236.2753570129
 20
76.2221137853
 30
0.0
 11
236.1174267276
 21
76.2221137853
 31
0.0
  0
LINE
  5
390
330
1F
100
AcDbEntity
  8
0
  6
HIDDEN
 62
     7
370
     0
100
AcDbLine
 10
236.1174267276
 20
68.1721137853
 30
0.0
 11
236.2753570129
 21
68.1721137853
 31
0.0
  0
LINE
  5
391
330
1F
100
AcDbEntity
  8
0
  6
HIDDEN
 62
     7
370
     0
100
AcDbLine
 10
235.4989812427
 20
69.1858303741
 30
0.0
 11
236.2618910746
 21
69.0599012257
 31
0.0
  0
LINE
  5
392
330
1F
100
AcDbEntity
  8
0
  6
HIDDEN
 62
     7
370
     0
100
AcDbLine
 10
235.931520509
 20
75.1956229224
 30
0.0
 11
235.7609979634
 21
75.2237701005
 31
0.0
  0
SPLINE
  5
393
330
1F
100
AcDbEntity
  8
0
  6
HIDDEN
 62
     7
370
     0
100
AcDbSpline
210
0.0
220
0.0
230
1.0
 70
     8
 71
     3
 72
    11
 73
     7
 74
     0
 42
0.00000001
 43
0.00000001
 12
1.0
 22
0.0
 32
0.0
 13
1.0
 23
0.0
 33
0.0
 40
0.0
 40
0.0
 40
0.0
 40
0.0
 40
0.0236825161812353
 40
0.4160499746609194
 40
0.809956928077382
 40
1.0
 40
1.0
 40
1.0
 40
1.0
 10
237.0893704939826
 20
69.36490843869188
 30
0.0
 10
237.0762988750104
 20
69.35911122484083
 30
0.0
 10
236.8466591399187
 20
69.25726686601612
 30
0.0
 10
236.3658331022636
 20
69.15275707148852
 30
0.0
 10
235.77086121324
 20
69.12029575657633
 30
0.0
 10
235.4315464646266
 20
69.21278640279301
 30
0.0
 10
235.3211184924082
 20
69.24288693497627
 30
0.0
  0
LINE
  5
394
330
1F
100
AcDbEntity
  8
0
  6
HIDDEN
 62
     7
370
     0
100
AcDbLine
 10
235.1438279106
 20
76.0360770935
 30
0.0
 11
234.9653655496
 21
76.0266548209
 31
0.0
  0
LINE
  5
395
330
1F
100
AcDbEntity
  8
0
  6
HIDDEN
 62
     7
370
     0
100
AcDbLine
 10
222.5162689627
 20
61.8578398592
 30
0.0
 11
223.4969024711
 21
61.8578398592
 31
0.0
  0
LINE
  5
396
330
1F
100
AcDbEntity
  8
0
  6
HIDDEN
 62
     7
370
     0
100
AcDbLine
 10
223.4969024711
 20
69.8578398592
 30
0.0
 11
222.5162689627
 21
69.8578398592
 31
0.0
  0
LINE
  5
397
330
1F
100
AcDbEntity
  8
0
  6
HIDDEN
 62
     7
370
     0
100
AcDbLine
 10
222.2903959714
 20
62.6578398592
 30
0.0
 11
222.3734642924
 21
62.6578398592
 31
0.0
  0
LINE
  5
398
330
1F
100
AcDbEntity
  8
0
  6
HIDDEN
 62
     7
370
     0
100
AcDbLine
 10
222.3734642924
 20
69.0578398592
 30
0.0
 11
222.2903959714
 21
69.0578398592
 31
0.0
  0
LINE
  5
399
330
1F
100
AcDbEntity
  8
0
  6
HIDDEN
 62
     7
370
     0
100
AcDbLine
 10
222.0584834752
 20
61.9078398592
 30
0.0
 11
222.2172743654
 21
61.9078398592
 31
0.0
  0
LINE
  5
39A
330
1F
100
AcDbEntity
  8
0
  6
HIDDEN
 62
     7
370
     0
100
AcDbLine
 10
222.2172743654
 20
69.8078398592
 30
0.0
 11
222.0584834752
 21
69.8078398592
 31
0.0
  0
LINE
  5
39B
330
1F
100
AcDbEntity
  8
0
  6
HIDDEN
 62
     7
370
     0
100
AcDbLine
 10
221.6028940692
 20
64.0828398592
 30
0.0
 11
221.9054476516
 21
64.0828398592
 31
0.0
  0
LINE
  5
39C
330
1F
100
AcDbEntity
  8
0
  6
HIDDEN
 62
     7
370
     0
100
AcDbLine
 10
221.9054476516
 20
67.6328398592
 30
0.0
 11
221.6028940692
 21
67.6328398592
 31
0.0
  0
LINE
  5
39D
330
1F
100
AcDbEntity
  8
0
  6
HIDDEN
 62
     7
370
     0
100
AcDbLine
 10
221.1570110777
 20
61.9078398592
 30
0.0
 11
221.4498582456
 21
61.9078398592
 31
0.0
  0
LINE
  5
39E
330
1F
100
AcDbEntity
  8
0
  6
HIDDEN
 62
     7
370
     0
100
AcDbLine
 10
221.4498582456
 20
69.8078398592
 30
0.0
 11
221.1570110777
 21
69.8078398592
 31
0.0
  0
LINE
  5
39F
330
1F
100
AcDbEntity
  8
0
  6
HIDDEN
 62
     7
370
     0
100
AcDbLine
 10
119.0034447031
 20
47.9471137853
 30
0.0
 11
119.0963379219
 21
48.0400070041
 31
0.0
  0
LINE
  5
3A0
330
1F
100
AcDbEntity
  8
0
  6
HIDDEN
 62
     7
370
     0
100
AcDbLine
 10
119.0963379219
 20
96.3542205665
 30
0.0
 11
119.0034447031
 21
96.4471137853
 31
0.0
  0
ARC
  5
3A1
330
1F
100
AcDbEntity
  8
0
  6
HIDDEN
 62
     7
370
     0
100
AcDbCircle
 10
118.3892311407
 20
48.7471137853
 30
0.0
 40
1.000000000000013
100
AcDbArc
 50
315.0
 51
0.0
  0
ARC
  5
3A2
330
1F
100
AcDbEntity
  8
0
  6
HIDDEN
 62
     7
370
     0
100
AcDbCircle
 10
118.3892311407
 20
48.7471137853
 30
0.0
 40
1.000000000000004
100
AcDbArc
 50
0.0
 51
52.1052014664
  0
ARC
  5
3A3
330
1F
100
AcDbEntity
  8
0
  6
HIDDEN
 62
     7
370
     0
100
AcDbCircle
 10
118.3892311407
 20
95.6471137853
 30
0.0
 40
1.000000000000008
100
AcDbArc
 50
351.8087250651
 51
45.0
  0
ARC
  5
3A4
330
1F
100
AcDbEntity
  8
0
  6
HIDDEN
 62
     7
370
     0
100
AcDbCircle
 10
118.3892311407
 20
95.6471137853
 30
0.0
 40
1.000000000000021
100
AcDbArc
 50
307.8947985336
 51
351.8087250651
  0
LINE
  5
3A5
330
1F
100
AcDbEntity
  8
0
  6
HIDDEN
 62
     7
370
     0
100
AcDbLine
 10
119.3892311407
 20
48.7471137853
 30
0.0
 11
119.3892311407
 21
95.6471137853
 31
0.0
  0
LINE
  5
3A6
330
1F
100
AcDbEntity
  8
0
  6
HIDDEN
 62
     7
370
     0
100
AcDbLine
 10
198.0078918244
 20
74.6971137853
 30
0.0
 11
186.2337146276
 21
74.6971137853
 31
0.0
  0
LINE
  5
3A7
330
1F
100
AcDbEntity
  8
0
  6
HIDDEN
 62
     7
370
     0
100
AcDbLine
 10
186.2337146276
 20
69.6971137853
 30
0.0
 11
198.0078918244
 21
69.6971137853
 31
0.0
  0
LINE
  5
3A8
330
1F
100
AcDbEntity
  8
0
  6
HIDDEN
 62
     7
370
     0
100
AcDbLine
 10
81.0034447031
 20
56.0006849408
 30
0.0
 11
82.5336731427
 21
56.8841627424
 31
0.0
  0
LINE
  5
3A9
330
1F
100
AcDbEntity
  8
0
  6
HIDDEN
 62
     7
370
     0
100
AcDbLine
 10
82.5336731427
 20
87.5100648282
 30
0.0
 11
81.0034447031
 21
88.3935426297
 31
0.0
  0
ARC
  5
3AA
330
1F
100
AcDbEntity
  8
0
  6
HIDDEN
 62
     7
370
     0
100
AcDbCircle
 10
92.005246018
 20
58.1971137853
 30
0.0
 40
2.000000000000006
100
AcDbArc
 50
270.0
 51
315.0
  0
ARC
  5
3AB
330
1F
100
AcDbEntity
  8
0
  6
HIDDEN
 62
     7
370
     0
100
AcDbCircle
 10
92.005246018
 20
86.1971137853
 30
0.0
 40
2.000000000000006
100
AcDbArc
 50
45.0
 51
90.0
  0
LINE
  5
3AC
330
1F
100
AcDbEntity
  8
0
  6
HIDDEN
 62
     7
370
     0
100
AcDbLine
 10
91.0034447031
 20
56.1971137853
 30
0.0
 11
92.005246018
 21
56.1971137853
 31
0.0
  0
LINE
  5
3AD
330
1F
100
AcDbEntity
  8
0
  6
HIDDEN
 62
     7
370
     0
100
AcDbLine
 10
92.005246018
 20
88.1971137853
 30
0.0
 11
91.0034447031
 21
88.1971137853
 31
0.0
  0
ARC
  5
3AE
330
1F
100
AcDbEntity
  8
0
  6
HIDDEN
 62
     7
370
     0
100
AcDbCircle
 10
91.0034447031
 20
58.1971137853
 30
0.0
 40
2.0
100
AcDbArc
 50
189.9742217944
 51
270.0
  0
ARC
  5
3AF
330
1F
100
AcDbEntity
  8
0
  6
HIDDEN
 62
     7
370
     0
100
AcDbCircle
 10
91.0034447031
 20
86.1971137853
 30
0.0
 40
2.0
100
AcDbArc
 50
90.0
 51
170.0257782056
  0
LINE
  5
3B0
330
1F
100
AcDbEntity
  8
0
  6
HIDDEN
 62
     7
370
     0
100
AcDbLine
 10
93.4194595803
 20
56.7829002229
 30
0.0
 11
94.8336731427
 21
58.1971137853
 31
0.0
  0
LINE
  5
3B1
330
1F
100
AcDbEntity
  8
0
  6
HIDDEN
 62
     7
370
     0
100
AcDbLine
 10
94.8336731427
 20
86.1971137853
 30
0.0
 11
93.4194595803
 21
87.6113273476
 31
0.0
  0
LINE
  5
3B2
330
1F
100
AcDbEntity
  8
0
  6
HIDDEN
 62
     7
370
     0
100
AcDbLine
 10
82.5336731427
 20
56.8841627424
 30
0.0
 11
87.4336731427
 21
58.1971137853
 31
0.0
  0
LINE
  5
3B3
330
1F
100
AcDbEntity
  8
0
  6
HIDDEN
 62
     7
370
     0
100
AcDbLine
 10
87.4336731427
 20
86.1971137853
 30
0.0
 11
82.5336731427
 21
87.5100648282
 31
0.0
  0
LINE
  5
3B4
330
1F
100
AcDbEntity
  8
0
  6
HIDDEN
 62
     7
370
     0
100
AcDbLine
 10
89.0336731427
 20
86.5435239468
 30
0.0
 11
88.4336731427
 21
86.1971137853
 31
0.0
  0
LINE
  5
3B5
330
1F
100
AcDbEntity
  8
0
  6
HIDDEN
 62
     7
370
     0
100
AcDbLine
 10
88.4336731427
 20
58.1971137853
 30
0.0
 11
89.0336731427
 21
57.8507036238
 31
0.0
  0
ARC
  5
3B6
330
1F
100
AcDbEntity
  8
0
  6
HIDDEN
 62
     7
370
     0
100
AcDbCircle
 10
107.5034447031
 20
58.6971137853
 30
0.0
 40
0.5
100
AcDbArc
 50
270.0
 51
0.0
  0
ARC
  5
3B7
330
1F
100
AcDbEntity
  8
0
  6
HIDDEN
 62
     7
370
     0
100
AcDbCircle
 10
107.5034447031
 20
85.6971137853
 30
0.0
 40
0.5
100
AcDbArc
 50
0.0
 51
90.0
  0
LINE
  5
3B8
330
1F
100
AcDbEntity
  8
0
  6
HIDDEN
 62
     7
370
     0
100
AcDbLine
 10
94.8336731427
 20
58.1971137853
 30
0.0
 11
107.5034447031
 21
58.1971137853
 31
0.0
  0
LINE
  5
3B9
330
1F
100
AcDbEntity
  8
0
  6
HIDDEN
 62
     7
370
     0
100
AcDbLine
 10
107.5034447031
 20
86.1971137853
 30
0.0
 11
94.8336731427
 21
86.1971137853
 31
0.0
  0
LINE
  5
3BA
330
1F
100
AcDbEntity
  8
0
  6
HIDDEN
 62
     7
370
     0
100
AcDbLine
 10
87.4336731427
 20
58.1971137853
 30
0.0
 11
88.4336731427
 21
58.1971137853
 31
0.0
  0
LINE
  5
3BB
330
1F
100
AcDbEntity
  8
0
  6
HIDDEN
 62
     7
370
     0
100
AcDbLine
 10
88.4336731427
 20
86.1971137853
 30
0.0
 11
87.4336731427
 21
86.1971137853
 31
0.0
  0
LINE
  5
3BC
330
1F
100
AcDbEntity
  8
0
  6
HIDDEN
 62
     7
370
     0
100
AcDbLine
 10
108.0034447031
 20
61.9471137853
 30
0.0
 11
109.2534447031
 21
63.1971137853
 31
0.0
  0
LINE
  5
3BD
330
1F
100
AcDbEntity
  8
0
  6
HIDDEN
 62
     7
370
     0
100
AcDbLine
 10
109.2534447031
 20
81.1971137853
 30
0.0
 11
108.0034447031
 21
82.4471137853
 31
0.0
  0
LINE
  5
3BE
330
1F
100
AcDbEntity
  8
0
  6
HIDDEN
 62
     7
370
     0
100
AcDbLine
 10
109.2534447031
 20
63.1971137853
 30
0.0
 11
135.0034447031
 21
63.1971137853
 31
0.0
  0
LINE
  5
3BF
330
1F
100
AcDbEntity
  8
0
  6
HIDDEN
 62
     7
370
     0
100
AcDbLine
 10
135.0034447031
 20
81.1971137853
 30
0.0
 11
109.2534447031
 21
81.1971137853
 31
0.0
  0
LINE
  5
3C0
330
1F
100
AcDbEntity
  8
0
  6
HIDDEN
 62
     7
370
     0
100
AcDbLine
 10
135.0034447031
 20
63.1971137853
 30
0.0
 11
137.8575326435
 21
67.9471137853
 31
0.0
  0
LINE
  5
3C1
330
1F
100
AcDbEntity
  8
0
  6
HIDDEN
 62
     7
370
     0
100
AcDbLine
 10
137.8575326435
 20
76.4471137853
 30
0.0
 11
135.0034447031
 21
81.1971137853
 31
0.0
  0
LINE
  5
3C2
330
1F
100
AcDbEntity
  8
0
  6
HIDDEN
 62
     7
370
     0
100
AcDbLine
 10
137.8575326435
 20
67.9471137853
 30
0.0
 11
190.0034447031
 21
67.9471137853
 31
0.0
  0
LINE
  5
3C3
330
1F
100
AcDbEntity
  8
0
  6
HIDDEN
 62
     7
370
     0
100
AcDbLine
 10
190.0034447031
 20
76.4471137853
 30
0.0
 11
137.8575326435
 21
76.4471137853
 31
0.0
  0
LINE
  5
3C4
330
1F
100
AcDbEntity
  8
0
  6
HIDDEN
 62
     7
370
     0
100
AcDbLine
 10
190.0034447031
 20
67.9471137853
 30
0.0
 11
192.5571023339
 21
72.1971137853
 31
0.0
  0
LINE
  5
3C5
330
1F
100
AcDbEntity
  8
0
  6
HIDDEN
 62
     7
370
     0
100
AcDbLine
 10
192.5571023339
 20
72.1971137853
 30
0.0
 11
190.0034447031
 21
76.4471137853
 31
0.0
  0
LINE
  5
3C6
330
1F
100
AcDbEntity
  8
0
  6
HIDDEN
 62
     7
370
     0
100
AcDbLine
 10
226.6284831816
 20
78.5935249994
 30
0.0
 11
225.8972671212
 21
78.5935249994
 31
0.0
  0
LINE
  5
3C7
330
1F
100
AcDbEntity
  8
0
  6
HIDDEN
 62
     7
370
     0
100
AcDbLine
 10
223.6187718145
 20
69.3578398592
 30
0.0
 11
222.9388142965
 21
69.3578398592
 31
0.0
  0
LINE
  5
3C8
330
1F
100
AcDbEntity
  8
0
  6
HIDDEN
 62
     7
370
     0
100
AcDbLine
 10
222.9388142965
 20
62.3578398592
 30
0.0
 11
223.6187718145
 21
62.3578398592
 31
0.0
  0
LINE
  5
3C9
330
1F
100
AcDbEntity
  8
0
  6
HIDDEN
 62
     7
370
     0
100
AcDbLine
 10
225.4137221298
 20
63.6861746286
 30
0.0
 11
231.6100611789
 21
66.0785775684
 31
0.0
  0
LINE
  5
3CA
330
1F
100
AcDbEntity
  8
0
  6
HIDDEN
 62
     7
370
     0
100
AcDbLine
 10
222.8875557541
 20
70.0578398592
 30
0.0
 11
220.5111035577
 21
70.0578398592
 31
0.0
  0
LINE
  5
3CB
330
1F
100
AcDbEntity
  8
0
  6
HIDDEN
 62
     7
370
     0
100
AcDbLine
 10
220.5111035577
 20
61.6578398592
 30
0.0
 11
222.8875557541
 21
61.6578398592
 31
0.0
  0
LINE
  5
3CC
330
1F
100
AcDbEntity
  8
0
  6
HIDDEN
 62
     7
370
     0
100
AcDbLine
 10
226.1524656685
 20
78.4999427766
 30
0.0
 11
225.5906479954
 21
78.4999427766
 31
0.0
  0
LINE
  5
3CD
330
1F
100
AcDbEntity
  8
0
  6
HIDDEN
 62
     7
370
     0
100
AcDbLine
 10
235.8799573461
 20
76.1971137853
 30
0.0
 11
235.0268719422
 21
76.1971137853
 31
0.0
  0
LINE
  5
3CE
330
1F
100
AcDbEntity
  8
0
  6
HIDDEN
 62
     7
370
     0
100
AcDbLine
 10
235.0268719422
 20
68.1971137853
 30
0.0
 11
235.8799573461
 21
68.1971137853
 31
0.0
  0
LINE
  5
3CF
330
1F
100
AcDbEntity
  8
0
  6
HIDDEN
 62
     7
370
     0
100
AcDbLine
 10
232.2927563638
 20
74.5295168726
 30
0.0
 11
226.9369200523
 21
72.461631556
 31
0.0
  0
DIMENSION
  5
3D0
330
1F
100
AcDbEntity
  8
VERMASSUNG
100
AcDbDimension
  2
_D_2
 10
71.0034447031
 20
40.6971137853
 30
0.0
 11
71.0034447031
 21
72.1971137853
 31
0.0
 70
   160
  1
PSC%%c<>
 71
     2
 42
-1.0
  3
SLDDIMSTYLE1
100
AcDbAlignedDimension
 13
119.5034447031
 23
103.6971137853
 33
0.0
 14
119.5034447031
 24
40.6971137853
 34
0.0
 50
90.0
100
AcDbRotatedDimension
  0
LINE
  5
3DC
330
1F
100
AcDbEntity
  8
VERMASSUNG
  6
CENTERX2
370
     0
100
AcDbLine
 10
76.2715673556
 20
72.1971137853
 30
0.0
 11
251.3172527219
 21
72.1971137853
 31
0.0
  0
OLE2FRAME
  5
3DD
330
1F
100
AcDbEntity
  8
0
100
AcDbOle2Frame
 70
     2
  3
Paintbrush-Bild
 10
13.8511154363
 20
38.264191557
 30
0.0
 11
51.6290888628
 21
31.9806341108
 31
0.0
 71
     2
 72
     0
 73
     1
 90
    12928
310
80552BED0767C5B32B40DDAF6807D121434000000000000000006FFBDDFB85D0
310
4940DDAF6807D121434000000000000000006FFBDDFB85D04940416F4BD60AFB
310
3F4000000000000000002BED0767C5B32B40416F4BD60AFB3F40000000000000
310
0000000000000100000000010000010000000100000000000100000000320000
310
D0CF11E0A1B11AE1000000000000000000000000000000003E000300FEFF0900
310
0600000000000000000000000100000001000000000000000010000002000000
310
01000000FEFFFFFF0000000000000000FFFFFFFFFFFFFFFFFFFFFFFFFFFFFFFF
310
FFFFFFFFFFFFFFFFFFFFFFFFFFFFFFFFFFFFFFFFFFFFFFFFFFFFFFFFFFFFFFFF
310
FFFFFFFFFFFFFFFFFFFFFFFFFFFFFFFFFFFFFFFFFFFFFFFFFFFFFFFFFFFFFFFF
310
FFFFFFFFFFFFFFFFFFFFFFFFFFFFFFFFFFFFFFFFFFFFFFFFFFFFFFFFFFFFFFFF
310
FFFFFFFFFFFFFFFFFFFFFFFFFFFFFFFFFFFFFFFFFFFFFFFFFFFFFFFFFFFFFFFF
310
FFFFFFFFFFFFFFFFFFFFFFFFFFFFFFFFFFFFFFFFFFFFFFFFFFFFFFFFFFFFFFFF
310
FFFFFFFFFFFFFFFFFFFFFFFFFFFFFFFFFFFFFFFFFFFFFFFFFFFFFFFFFFFFFFFF
310
FFFFFFFFFFFFFFFFFFFFFFFFFFFFFFFFFFFFFFFFFFFFFFFFFFFFFFFFFFFFFFFF
310
FFFFFFFFFFFFFFFFFFFFFFFFFFFFFFFFFFFFFFFFFFFFFFFFFFFFFFFFFFFFFFFF
310
FFFFFFFFFFFFFFFFFFFFFFFFFFFFFFFFFFFFFFFFFFFFFFFFFFFFFFFFFFFFFFFF
310
FFFFFFFFFFFFFFFFFFFFFFFFFFFFFFFFFFFFFFFFFFFFFFFFFFFFFFFFFFFFFFFF
310
FFFFFFFFFFFFFFFFFFFFFFFFFFFFFFFFFFFFFFFFFFFFFFFFFFFFFFFFFFFFFFFF
310
FFFFFFFFFFFFFFFFFFFFFFFFFFFFFFFFFFFFFFFFFFFFFFFFFFFFFFFFFFFFFFFF
310
FFFFFFFFFFFFFFFFFFFFFFFFFFFFFFFFFFFFFFFFFFFFFFFFFFFFFFFFFFFFFFFF
310
FDFFFFFFFEFFFFFFFEFFFFFFFEFFFFFF05000000060000000700000008000000
310
090000000A0000000B0000000C0000000D0000000E0000000F00000010000000
310
11000000120000001300000014000000150000001600000017000000FEFFFFFF
310
FFFFFFFFFFFFFFFFFFFFFFFFFFFFFFFFFFFFFFFFFFFFFFFFFFFFFFFFFFFFFFFF
310
FFFFFFFFFFFFFFFFFFFFFFFFFFFFFFFFFFFFFFFFFFFFFFFFFFFFFFFFFFFFFFFF
310
FFFFFFFFFFFFFFFFFFFFFFFFFFFFFFFFFFFFFFFFFFFFFFFFFFFFFFFFFFFFFFFF
310
FFFFFFFFFFFFFFFFFFFFFFFFFFFFFFFFFFFFFFFFFFFFFFFFFFFFFFFFFFFFFFFF
310
FFFFFFFFFFFFFFFFFFFFFFFFFFFFFFFFFFFFFFFFFFFFFFFFFFFFFFFFFFFFFFFF
310
FFFFFFFFFFFFFFFFFFFFFFFFFFFFFFFFFFFFFFFFFFFFFFFFFFFFFFFFFFFFFFFF
310
FFFFFFFFFFFFFFFFFFFFFFFFFFFFFFFFFFFFFFFFFFFFFFFFFFFFFFFFFFFFFFFF
310
FFFFFFFFFFFFFFFFFFFFFFFFFFFFFFFFFFFFFFFFFFFFFFFFFFFFFFFFFFFFFFFF
310
FFFFFFFFFFFFFFFFFFFFFFFFFFFFFFFFFFFFFFFFFFFFFFFFFFFFFFFFFFFFFFFF
310
FFFFFFFFFFFFFFFFFFFFFFFFFFFFFFFFFFFFFFFFFFFFFFFFFFFFFFFFFFFFFFFF
310
FFFFFFFFFFFFFFFFFFFFFFFFFFFFFFFFFFFFFFFFFFFFFFFFFFFFFFFFFFFFFFFF
310
FFFFFFFFFFFFFFFFFFFFFFFFFFFFFFFFFFFFFFFFFFFFFFFFFFFFFFFFFFFFFFFF
310
FFFFFFFFFFFFFFFFFFFFFFFFFFFFFFFFFFFFFFFFFFFFFFFFFFFFFFFFFFFFFFFF
310
52006F006F007400200045006E00740072007900000000000000000000000000
310
0000000000000000000000000000000000000000000000000000000000000000
310
16000500FFFFFFFFFFFFFFFF020000000A00030000000000C000000000000046
310
000000000000000000000000E00089FE3D3ACD0103000000C000000000000000
310
01004F006C006500000000000000000000000000000000000000000000000000
310
0000000000000000000000000000000000000000000000000000000000000000
310
0A000200FFFFFFFFFFFFFFFFFFFFFFFF00000000000000000000000000000000
310
0000000000000000000000000000000000000000000000001400000000000000
310
010043006F006D0070004F0062006A0000000000000000000000000000000000
310
0000000000000000000000000000000000000000000000000000000000000000
310
120002010100000003000000FFFFFFFF00000000000000000000000000000000
310
0000000000000000000000000000000000000000010000004D00000000000000
310
01004F006C006500310030004E00610074006900760065000000000000000000
310
0000000000000000000000000000000000000000000000000000000000000000
310
1A000200FFFFFFFFFFFFFFFFFFFFFFFF00000000000000000000000000000000
310
0000000000000000000000000000000000000000040000002426000000000000
310
FEFFFFFF02000000FEFFFFFFFFFFFFFFFFFFFFFFFFFFFFFFFFFFFFFFFFFFFFFF
310
FFFFFFFFFFFFFFFFFFFFFFFFFFFFFFFFFFFFFFFFFFFFFFFFFFFFFFFFFFFFFFFF
310
FFFFFFFFFFFFFFFFFFFFFFFFFFFFFFFFFFFFFFFFFFFFFFFFFFFFFFFFFFFFFFFF
310
FFFFFFFFFFFFFFFFFFFFFFFFFFFFFFFFFFFFFFFFFFFFFFFFFFFFFFFFFFFFFFFF
310
FFFFFFFFFFFFFFFFFFFFFFFFFFFFFFFFFFFFFFFFFFFFFFFFFFFFFFFFFFFFFFFF
310
FFFFFFFFFFFFFFFFFFFFFFFFFFFFFFFFFFFFFFFFFFFFFFFFFFFFFFFFFFFFFFFF
310
FFFFFFFFFFFFFFFFFFFFFFFFFFFFFFFFFFFFFFFFFFFFFFFFFFFFFFFFFFFFFFFF
310
FFFFFFFFFFFFFFFFFFFFFFFFFFFFFFFFFFFFFFFFFFFFFFFFFFFFFFFFFFFFFFFF
310
FFFFFFFFFFFFFFFFFFFFFFFFFFFFFFFFFFFFFFFFFFFFFFFFFFFFFFFFFFFFFFFF
310
FFFFFFFFFFFFFFFFFFFFFFFFFFFFFFFFFFFFFFFFFFFFFFFFFFFFFFFFFFFFFFFF
310
FFFFFFFFFFFFFFFFFFFFFFFFFFFFFFFFFFFFFFFFFFFFFFFFFFFFFFFFFFFFFFFF
310
FFFFFFFFFFFFFFFFFFFFFFFFFFFFFFFFFFFFFFFFFFFFFFFFFFFFFFFFFFFFFFFF
310
FFFFFFFFFFFFFFFFFFFFFFFFFFFFFFFFFFFFFFFFFFFFFFFFFFFFFFFFFFFFFFFF
310
FFFFFFFFFFFFFFFFFFFFFFFFFFFFFFFFFFFFFFFFFFFFFFFFFFFFFFFFFFFFFFFF
310
FFFFFFFFFFFFFFFFFFFFFFFFFFFFFFFFFFFFFFFFFFFFFFFFFFFFFFFFFFFFFFFF
310
FFFFFFFFFFFFFFFFFFFFFFFFFFFFFFFFFFFFFFFFFFFFFFFFFFFFFFFFFFFFFFFF
310
0100000200000000000000000000000000000000000000000000000000000000
310
0000000000000000000000000000000000000000000000000000000000000000
310
0100FEFF030A0000FFFFFFFF0A00030000000000C00000000000004607000000
310
5042727573680007000000504272757368000700000050427275736800F439B2
310
7100000000000000000000000000000000000000000000000000000000000000
310
0000000000000000000000000000000000000000000000000000000000000000
310
0000000000000000000000000000000000000000000000000000000000000000
310
0000000000000000000000000000000000000000000000000000000000000000
310
0000000000000000000000000000000000000000000000000000000000000000
310
0000000000000000000000000000000000000000000000000000000000000000
310
0000000000000000000000000000000000000000000000000000000000000000
310
0000000000000000000000000000000000000000000000000000000000000000
310
0000000000000000000000000000000000000000000000000000000000000000
310
0000000000000000000000000000000000000000000000000000000000000000
310
0000000000000000000000000000000000000000000000000000000000000000
310
0000000000000000000000000000000000000000000000000000000000000000
310
20260000424D0E260000000000003E00000028000000B40200006E0000000100
310
01000000000000000000130B0000130B00000200000002000000000000FFFFFF
310
FFFFFFFFFFFFFFFFFFFFFFFFFFFFFFFFFFFFFFFFFFFFFFFFFFFFFFFFFFFFFFFF
310
FFFFFFFFFFFFFFFFFFFFFFFFFFFFFFFFFFFFFFFFFFFFFFFFFFFFFFFFFFFFFFFF
310
FFFFFFFFFFFFFFFFFFFFFFFFFFFFFFFFFFFFFFFFFFFFFFFFF000FFFFFFFFFFFF
310
FFFFFFFFFFFFFFFFFFFFFFFFFFFFFFFFFFFFFFFFFFFFFFFFFFFFFFFFFFFFFFFF
310
FFFFFFFFFFFFFFFFFFFFFFFFFFFFFFFFFFFFFFFFFFFFFFFFFFFFFFFFFFFFFFFF
310
FFFFFFFFFFFFFFFFFFFFFFFFFFFFFFFFF000FFFFFFFFFFFFFFFFFFFFFFFFFFFF
310
FFFFFFFFFFFFFFFFFFFFFFFFFFFFFFFFFFFFFFFFFFFFFFFFFFFFFFFFFFFFFFFF
310
FFFFFFFFFFFFFFFFFFFFFFFFFFFFFFFFFFFFFFFFFFFFFFFFFFFFFFFFFFFFFFFF
310
FFFFFFFFFFFFFFFFF000FFFFFFFFFFFFFFFFFFFFFFFFFFFFFFFFFFFFFFFFFFFF
310
FFFFFFFFFFFFFFFFFFFFFFFFFFFFFFFFFFFFFFFFFFFFFFFFFFFFFFFFFFFFFFFF
310
FFFFFFFFFFFFFFFFFFFFFFFFFFFFFFFFFFFFFFFFFFFFFFFFFFFFFFFFFFFFFFFF
310
F000FFFFFFFFFFFFFFFFFFFFFFFFFFFFFFFFFFFFFFFFFFFFFFFFFFFFFFFFFFFF
310
FFFFFFFFFFFFFFFFFFFFFFFFFFFFFFFFFFFFFFFFFFFFFFFFFFFFFFFFFFFFFFFF
310
FFFFFFFFFFFFFFFFFFFFFFFFFFFFFFFFFFFFFFFFFFFFFFFFF000FFFFFFFFFFFF
310
FFFFFFFFFFFFFFFFFFFFFFFFFFFFFFFFFFFFFFFFFFFFFFFFFFFFFFFFFFFFFFFF
310
FFFFFFFFFFFFFFFFFFFFFFFFFFFFFFFFFFFFFFFFFFFFFFFFFFFFFFFFFFFFFFFF
310
FFFFFFFFFFFFFFFFFFFFFFFFFFFFFFFFF000FFFFFFFFFFFFFFFFFFFFFFFFFFFF
310
FFFFFFFFFFFFFFFFFFFFFFFFFFFFFFFFFFFFFFFFFFFFFFFFFFFFFFFFFFFFFFFF
310
FFFFFFFFFFFFFFFFFFFFFFFFFFFFFFFFFFFFFFFFFFFFFFFFFFFFFFFFFFFFFFFF
310
FFFFFFFFFFFFFFFFF000FFFFFFFFFFFFFFFFFFFFFFFFFFFFFFFFFFFFFFFFFFFF
310
FFFFFFFFFFFFFFFFFFFFFFFFFFFFFFFFFFFFFFFFFFFFFFFFFFFFFFFFFFFFFFFF
310
FFFFFFFFFFFFFFFFFFFFFFFFFFFFFFFFFFFFFFFFFFFFFFFFFFFFFFFFFFFFFFFF
310
F000FFFFFFFFFFFFFFFFFFFFFFFFFFFFFFFFFFFFFFFFFFFFFFFFFFFFFFFFFFFF
310
FFFFFFFFFFFFFFFFFFFFFFFFFFFFFFFFFFFFFFFFFFFFFFFFFFFFFFFFFFFFFFFF
310
FFFFFFFFFFFFFFFFFFFFFFFFFFFFFFFFFFFFFFFFFFFFFFFFF000FFFFFFFFFFFF
310
FFFFFFFFFFFFFFFFFFFFFFFFFFFFFFFFFFFFFFFFFFFFFFFFFFFFFFFFFFFFFFFF
310
FFFFFFFFFFFFFFFFFFFFFFFFFFFFFFFFFFFFFFFFFFFFFFFFFFFFFFFFFFFFFFFF
310
FFFFFFFFFFFFFFFFFFFFFFFFFFFFFFFFF000FFFFFFFFFFFFFFFFFFFFFFFFFFFF
310
FFFFFFFFFFFFFFFFFFFFFFFFFFFFFFFFFFFFFFFFFFFFFFFFFFFFFFFFFFFFFFFF
310
FFFFFFFFFFFFFFFFFFFFFFFFFFFFFFFFFFFFFFFFFFFFFFFFFFFFFFFFFFFFFFFF
310
FFFFFFFFFFFFFFFFF000FFFFFFFFFFFFFFFFFFFFFFFFFFFFFFFFFFFFFFFFFFFF
310
FFFFFFFFFFFFFFFFFFFFFFFFFFFFFFFFFFFFFFFFFFFFFFFFFFFFFFFFFFFFFFFF
310
FFFFFFFFFFFFFFFFFFFFFFFFFFFFFFFFFFFFFFFFFFFFFFFFFFFFFFFFFFFFFFFF
310
F000FFFFFFFFFFFFFFFFFFFFFFFFFFFFFFFFFFFFFFFFFFFFFFFFFFFFFFFFFFFF
310
FFFFFFFFFFFFFFFFFFFFFFFFFFFFFFFFFFFFFFFFFFFFFFFFFFFFFFFFFFFFFFFF
310
FFFFFFFFFFFFFFFFFFFFFFFFFFFFFFFFFFFFFFFFFFFFFFFFF000FFFFFFFFFFFF
310
FFFFFFFFFFFFFFFFFFFFFFFFFFFFFFFFFFFFFFFFFFFFFFFFFFFFFFFFFFFFFFFF
310
FFFFFFFFFFFFFFFFFFFFFFFFFFFFFFFFFFFFFFFFFFFFFFFFFFFFFFFFFFFFFFFF
310
FFFFFFFFFFFFFFFFFFFFFFFFFFFFFFFFF000FFFFFFFFFFFFFFFFFFFFFFFFFFFF
310
FFFFFFFFFFFFFFFFFFFFFFFFFFFFFFFFFFFFFFFFFFFFFFFFFFFFFFFFFFFFFFFF
310
FFFFFFFFFFFFFFFFFFFFFFFFFFFFFFFFFFFFFFFFFFFFFFFFFFFFFFFFFFFFFFFF
310
FFFFFFFFFFFFFFFFF000FFFFFFFFFFFFFFFFFFFFFFFFFFFFFFFFFFFFFFFFFFFF
310
FFFFFFFFFFFFFFFFFFFFFFFFFFFFFFFFFFFFFFFFFFFFFFFFFFFFFFFFFFFFFFFF
310
FFFFFFFFFFFFFFFFFFFFFFFFFFFFFFFFFFFFFFFFFFFFFFFFFFFFFFFFFFFFFFFF
310
F000FFFFFFFFFFFFFFFFFFFFFFFFFFFFFFFFFFFFFFFFFFFFFFFFFFFFFFFFFFFF
310
FFFFFFFFFFFFFFFFFFFFFFFFFFFFFFFFFFFFFFFFFFFFFFFFFFFFFFFFFFFFFFFF
310
FFFFFFFFFFFFFFFFFFFFFFFFFFFFFFFFFFFFFFFFFFFFFFFFF000FFFFFFFFFFFF
310
FFFFFFFFFFFFFFFFFFFFFFFFFFFFFFFFFFFFFFFFFFFFFFFFFFFFFFFFFFFFFFFF
310
FFFFFFFFFFFFFFFFFFFFFFFFFFFFFFFFFFFFFFFFFFFFFFFFFFFFFFFFFFFFFFFF
310
FFFFFFFFFFFFFFFFFFFFFFFFFFFFFFFFF000FFFFFFFFFFFFFFFFFFFFFFFFFFFF
310
FFFFFFFFFFFFFFFFFFFFFFFFFFFFFFFFFFFFFFFFFFFFFFFFFFFFFFFFFFFFFFFF
310
FFFFFFFFFFFFFFFFFFFFFFFFFFFFFFFFFFFFFFFFFFFFFFFFFFFFFFFFFFFFFFFF
310
FFFFFFFFFFFFFFFFF000FFFFF80003FFFFFFFFFFFFFFFFFFFFFFFFFFFFFFFFFF
310
FFFFF00007FFFFFFFFFF00007FFFFFF800000000000000007FFFFFFFFFFFFFFF
310
FFFFFFFC001FFFFFFFFFFFFFFC001FFFFFFFFFFFFFFFFFFFFFFFFFFE0007FFFF
310
F000FFFF8000007FFFFFFFF8000FFFFFC0007FFFFF80007FFFFF0000007FFFFF
310
FFF8000007FFFFF800000000000000007FFFFFF0001FFFFFFFFFFFC00001FFFF
310
FFFFFFFFC00001FFFFFFFF000000000003FFFFE000007FFFF000FFFE0000000F
310
FFFFFFF0000FFFFF80007FFFFF80007FFFFC0000001FFFFFFFC0000001FFFFF8
310
00000000000000007FFFFFF0001FFFFFFFFFFE0000003FFFFFFFFFFE0000003F
310
FFFFFF000000000003FFFF0000000FFFF000FFF800000003FFFFFFF00007FFFF
310
80007FFFFF80007FFFF000000007FFFFFF000000003FFFF80000000000000000
310
7FFFFFF0001FFFFFFFFFF80000000FFFFFFFFFF80000000FFFFFFF0000000000
310
03FFFC00000003FFF000FFE000000000FFFFFFF00007FFFF80003FFFFF80007F
310
FFC000000001FFFFFC000000001FFFF800000000000000007FFFFFF0001FFFFF
310
FFFFE000000003FFFFFFFFE000000003FFFFFF000000000003FFF000000000FF
310
F000FF80000000007FFFFFF00007FFFF80003FFFFF80007FFF8000000000FFFF
310
F80000000007FFF800000000000000007FFFFFF0001FFFFFFFFFC000000001FF
310
FFFFFFC000000001FFFFFF000000000003FFC0000000007FF000FF0000000000
310
3FFFFFE00007FFFF00003FFFFF80007FFE00000000003FFFF00000000003FFF8
310
00000000000000007FFFFFF0001FFFFFFFFF8000000000FFFFFFFF8000000000
310
FFFFFF000000000003FF80000000003FF000FE00000000001FFFFFE00003FFFF
310
00003FFFFF80007FFC00000000001FFFE00000000001FFF8000001FFFE000000
310
7FFFFFF0001FFFFFFFFE00000000003FFFFFFE00000000003FFFFF0000000000
310
03FF00000000001FF000FC00000000000FFFFFE00003FFFF00001FFFFF80007F
310
F800000000001FFFC00000000000FFF8000001FFFE0000007FFFFFF0001FFFFF
310
FFFC00000000001FFFFFFC00000000001FFFFF000000000003FE00000000000F
310
F000F8000000000007FFFFE00003FFFF00001FFFFF80007FF800000000000FFF
310
800000000000FFF8000001FFFE0000007FFFFFF0001FFFFFFFF800000000000F
310
FFFFF800000000000FFFFF000000000003FC000000000007F000F80000000000
310
03FFFFC00003FFFE00001FFFFF80007FF0000000000007FF0000000000007FF8
310
000001FFFE0000007FFFFFF0001FFFFFFFF0000000000007FFFFF00000000000
310
07FFFF000000000003F8000000000003F000F0000000000003FFFFC00001FFFE
310
00001FFFFF80007FE0000000000007FE0000000000003FF8000001FFFE000000
310
7FFFFFF0001FFFFFFFF0000000000007FFFFF0000000000007FFFF0000000000
310
03F800001F800003F000E00001FFF00001FFFFC00001FFFE00000FFFFF80007F
310
E00001FFE00003FE00001FFF00003FF8000001FFFE0000007FFFFFF0001FFFFF
310
FFE000003E000003FFFFE000003E000003FFFF000000000003F00001FFF80001
310
F000E00007FFFC0001FFFFC00001FFFE00000FFFFF80007FC0000FFFFC0003FC
310
0000FFFFC0001FF8000001FFFE0000007FFFFFF0001FFFFFFFC00003FFE00001
310
FFFFC00003FFE00001FFFF0001FFFFFFFFF00007FFFE0001F000E0000FFFFF00
310
00FFFF800001FFFC00000FFFFF80007FC0001FFFFE0001FC0001FFFFE0001FF8
310
000001FFFE0000007FFFFFF0001FFFFFFF80000FFFF80000FFFF80000FFFF800
310
00FFFF0003FFFFFFFFE0000FFFFF8000F000C0003FFFFF8000FFFF800000FFFC
310
000007FFFF80007F80003FFFFF0001FC0003FFFFF0001FF8000001FFFE000000
310
7FFFFFF0001FFFFFFF80003FFFFE0000FFFF80003FFFFE0000FFFF0003FFFFFF
310
FFE0003FFFFF8000F000C0003FFFFF8000FFFF800000FFFC000007FFFF80007F
310
80007FFFFF8001F80007FFFFF8000FF8000001FFFE0000007FFFFFF0001FFFFF
310
FF00007FFFFF00007FFF00007FFFFF00007FFF0003FFFFFFFFE0003FFFFFC000
310
F000C0007FFFFFC000FFFF000000FFFC000007FFFF80007F8000FFFFFF8000F8
310
000FFFFFF8000FF8000001FFFE0000007FFFFFF0001FFFFFFF0000FFFFFF8000
310
7FFF0000FFFFFF80007FFF0003FFFFFFFFC0007FFFFFC00070008000FFFFFFC0
310
00FFFF000000FFF8000007FFFF80007F8000FFFFFF8000F8000FFFFFF8000FF8
310
000001FFFE0000007FFFFFF0001FFFFFFE0001FFFFFFC0003FFE0001FFFFFFC0
310
003FFF0003FFFFFFFFC0007FFFFFE00070008000FFFFFFC0007FFF0000007FF8
310
000003FFFF80007F0001FFFFFF8000F8000FFFFFF8000FF8000001FFFE000000
310
7FFFFFF0001FFFFFFE0001FFFFFFC0003FFE0001FFFFFFC0003FFF0003FFFFFF
310
FFC000FFFFFFE00070008000FFFFFFC0007FFF0000007FF8000003FFFF80007F
310
0001FFFFFF8000F8001FFFFFF8000FF8000001FFFE0000007FFFFFF0001FFFFF
310
FE0003FFFFFFE0003FFE0003FFFFFFE0003FFF0003FFFFFFFFC000FFFFFFE000
310
70008000FFFFFFC0007FFE0000007FF8000003FFFF80007F0001FFFFFF8000F0
310
001FFFFFF8000FF8000001FFFE0000007FFFFFF0001FFFFFFC0003FFFFFFE000
310
1FFC0003FFFFFFE0001FFF0003FFFFFFFFC000FFFFFFC00070008000FFFFFF80
310
007FFE0000007FF0000003FFFF80007F0001FFFFFF0000F0001FFFFFF8000FF8
310
000001FFFE0000007FFFFFF0001FFFFFFC0007FFFFFFF0001FFC0007FFFFFFF0
310
001FFF0003FFFFFFFFC000FFFFFFC00070008001FFFFFF0000FFFE0000003FF0
310
000001FFFF80007F0001FFFFFF0000F8001FFFFFF0000FF8000001FFFE000000
310
7FFFFFF0001FFFFFFC0007FFFFFFF0001FFC0007FFFFFFF0001FFF0003FFFFFF
310
FFC001FFFFFF80007000FFFFFFFFFE0000FFFE0008003FF0008001FFFF80007F
310
FFFFFFFFFC0000FFFFFFFFFFE0000FF8000001FFFE0000007FFFFFF0001FFFFF
310
F8000FFFFFFFF8000FF8000FFFFFFFF8000FFF0003FFFFFFFFFFFFFFFFFF0000
310
7000FFFFFFFFFC0000FFFC0008003FF0008001FFFF80007FFFFFFFFFF80001FF
310
FFFFFFFF80000FF8000001FFFE0000007FFFFFF0001FFFFFF8000FFFFFFFF800
310
0FF8000FFFFFFFF8000FFF0003FFFFFFFFFFFFFFFFFE0000F000FFFFFFFFE000
310
00FFFC000C003FE000C001FFFF80007FFFFFFFFFC00001FFFFFFFFFE00001FF8
310
000001FFFE0000007FFFFFF0001FFFFFF8000FFFFFFFF8000FF8000FFFFFFFF8
310
000FFF0003FFFFFFFFFFFFFFFFF00000F000FFFFFFFE000001FFFC000C001FE0
310
00C000FFFF80007FFFFFFFFE000001FFFFFFFFE000001FF80FFFFFFFFFFFFFC0
310
7FFFFFF0001FFFFFF8000FFFFFFFF8000FF8000FFFFFFFF8000FFF0003FFFFFF
310
FFFFFFFFFF800000F000FFFFFFC0000001FFFC001C001FE001C000FFFF80007F
310
FFFFFF80000003FFFFFFF80000001FF80FFFFFFFFFFFFFC07FFFFFF0001FFFFF
310
F8001FFFFFFFFC000FF8001FFFFFFFFC000FFF0003FFFFFFFFFFFFFFF0000001
310
F000FFFFF800000001FFF8001C001FE001C000FFFF80007FFFFFF800000003FF
310
FFFF800000003FF80FFFFFFFFFFFFFC07FFFFFF0001FFFFFF8001FFFFFFFFC00
310
0FF8001FFFFFFFFC000FFF0003FFFFFFFFFFFFFE00000001F000FFFFC0000000
310
03FFF8001E001FC001E000FFFF80007FFFFF8000000007FFFFFC000000003FF8
310
0FFFFFFFFFFFFFC07FFFFFF0001FFFFFF8001FFFFFFFFC000FF8001FFFFFFFFC
310
000FFF0003FFFFFFFFFFFFE000000003F000FFFE0000000007FFF8001E000FC0
310
01E0007FFF80007FFFFE0000000007FFFFE0000000007FF80FFFFFFFFFFFFFC0
310
7FFFFFF0001FFFFFF0001FFFFFFFFC0007F0001FFFFFFFFC0007FF0003FFFFFF
310
FFFFFF0000000003F000FFF80000000007FFF8001E000FC003E0007FFF80007F
310
FFF0000000000FFFFF8000000000FFF80FFFFFFFFFFFFFC07FFFFFF0001FFFFF
310
F0001FFFFFFFFC0007F0001FFFFFFFFC0007FF0003FFFFFFFFFFFC0000000007
310
F000FFE0000000000FFFF0003E000FC003E0007FFF80007FFFC0000000001FFF
310
FE0000000001FFF80FFFFFFFFFFFFFC07FFFFFF0001FFFFFF0001FFFFFFFFC00
310
07F0001FFFFFFFFC0007FF0003FFFFFFFFFFF0000000000FF000FFC000000000
310
1FFFF0003F000F8003F0003FFF80007FFF80000000003FFFF80000000003FFF8
310
0FFFFFFFFFFFFFC07FFFFFF0001FFFFFF0001FFFFFFFFC0007F0001FFFFFFFFC
310
0007FF0003FFFFFFFFFFE0000000001FF000FF00000000007FFFF0003F000780
310
03F0003FFF80007FFF00000000007FFFF00000000007FFF80FFFFFFFFFFFFFC0
310
7FFFFFF0001FFFFFF0001FFFFFFFFC0007F0001FFFFFFFFC0007FF0003FFFFFF
310
FFFF80000000007FF000FE0000000000FFFFE0003F00078007F0003FFF80007F
310
FE0000000001FFFFE0000000001FFFF80FFFFFFFFFFFFFC07FFFFFF0001FFFFF
310
F0001FFFFFFFFC0007F0001FFFFFFFFC0007FF0003FFFFFFFFFF0000000000FF
310
F000FC0000000003FFFFE0007F00078007F0003FFF80007FFC0000000007FFFF
310
C0000000007FFFF80FFFFFFFFFFFFFC07FFFFFF0001FFFFFF8001FFFFFFFFC00
310
0FF8001FFFFFFFFC000FFF0003FFFFFFFFFE0000000003FFF000FC000000000F
310
FFFFE0007F80070007F8001FFF80007FF8000000001FFFFF8000000001FFFFF8
310
0FFFFFFFFFFFFFC07FFFFFF0001FFFFFF8001FFFFFFFFC000FF8001FFFFFFFFC
310
000FFF0003FFFFFFFFFC000000000FFFF000F8000000007FFFFFE0007F800700
310
07F8001FFF80007FF000000000FFFFFF800000000FFFFFF80FFFFFFFFFFFFFC0
310
7FFFFFF0001FFFFFF8000FFFFFFFF8000FF8000FFFFFFFF8000FFF0003FFFFFF
310
FFFC000000007FFFF000F800000007FFFFFFC0007F8003000FF8001FFF80007F
310
F000000007FFFFFF000000007FFFFFF80FFFFFFFFFFFFFC07FFFFFF0001FFFFF
310
F8000FFFFFFFF8000FF8000FFFFFFFF8000FFF0003FFFFFFFFF80000000FFFFF
310
F000F0000000FFFFFFFFC000FF8003000FF8001FFF80007FE0000000FFFFFFFF
310
0000000FFFFFFFF8000001FFFE0000007FFFFFF0001FFFFFF8000FFFFFFFF800
310
0FF8000FFFFFFFF8000FFF0003FFFFFFFFF8000000FFFFFFF000F000000FFFFF
310
FFFFC000FFC002000FF8000FFF80007FE000001FFFFFFFFE000001FFFFFFFFF8
310
000001FFFE0000007FFFFFF0001FFFFFF8000FFFFFFFF8000FF8000FFFFFFFF8
310
000FFF0003FFFFFFFFF000001FFFFFFFF000E00000FFFFFFFFFFC000FFC00200
310
0FFC000FFF80007FE00001FFFFFFFFFE00001FFFFFFFFFF8000001FFFE000000
310
7FFFFFF0001FFFFFFC000FFFFFFFF8001FFC000FFFFFFFF8001FFF0003FFFFFF
310
FFF00001FFFFFFFFF000E00007FFFFFFFFFF8000FFC000001FFC000FFF80007F
310
C0000FFFFFFFFFFE0000FFFFFFFFFFF8000001FFFE0000007FFFFFF0001FFFFF
310
FC0007FFFFFFF0001FFC0007FFFFFFF0001FFF0003FFFFFFFFF00007FFFFFFFF
310
F000E0001FFFFFFFFFFF8000FFC000001FFC000FFF80007FC0003FFFFFFFFFFE
310
0001FFFFFFFFFFF8000001FFFE0000007FFFFFF0001FFFFFFC0007FFFFFFF000
310
1FFC0007FFFFFFF0001FFF0003FFFFFFFFF0001FFFFFFFFFF000E0003FFFFF00
310
03FF8001FFE000001FFC0007FF80007FC0007FFFFF0007FC0003FFFFF0003FF8
310
000001FFFE0000007FFFFFF0001FFFFFFC0003FFFFFFE0001FFC0003FFFFFFE0
310
001FFF0003FFFFFFFFF0003FFFFFFFFFF000E0003FFFFF0001FF8001FFE00000
310
1FFE0007FF80007FC0007FFFFE0003FC0007FFFFE0003FF8000001FFFE000000
310
7FFFFFF0001FFFFFFE0003FFFFFFE0003FFE0003FFFFFFE0003FFF0003FFFFFF
310
FFF0003FFFFF8001F000E0003FFFFF0001FF0001FFE000001FFE0007FF80007F
310
C0007FFFFE0003FC0007FFFFE0003FF8000001FFFE0000007FFFFFF0001FFFFF
310
FE0001FFFFFFC0003FFE0001FFFFFFC0003FFF0003FFFFFFFFF0003FFFFF0001
310
F000E0003FFFFF0003FF0001FFE000003FFE0007FF80007FC0007FFFFE0003FC
310
0007FFFFE0003FF8000001FFFE0000007FFFFFF0001FFFFFFF0001FFFFFFC000
310
7FFF0001FFFFFFC0007FFF0003FFFFFFFFF0003FFFFF0001F000E0003FFFFE00
310
03FF0003FFF000003FFE0003FF80007FC0007FFFFC0003FE0007FFFFE0003FF8
310
000001FFFE0000007FFFFFF0001FFFFFFF0000FFFFFF80007FFF0000FFFFFF80
310
007FFF0003FFFFFFFFF0003FFFFF0001F000E0003FFFFE0003FF0003FFF00000
310
3FFF0003FF80007FC0007FFFFC0007FE0007FFFFC0003FF8000001FFFE000000
310
7FFFFFF0001FFFFFFF80007FFFFF0000FFFF80007FFFFF0000FFFF0003FFFFFF
310
FFF0003FFFFF0003F000E0003FFFFC0003FE0003FFF000003FFF0003FF80007F
310
E0003FFFF80007FE0003FFFFC0007FF8000001FFFE0000007FFFFFF0001FFFFF
310
FF80003FFFFE0000FFFF80003FFFFE0000FFFF0003FFFFFFFFF0001FFFFE0003
310
F000F0001FFFF80003FE0003FFF000007FFF0001FF80007FE0003FFFF00007FE
310
0001FFFF80007FF8000001FFFE0000007FFFFFF0001FFFFFFFC0000FFFF80001
310
FFFFC0000FFFF80001FFFF0003FFFFFFFFF0001FFFFC0003F000F0000FFFF000
310
07FE0007FFF800007FFF0001FF80007FE0001FFFE00007FF0000FFFE00007FF8
310
000001FFFE0000007FFFFFF0001FFFFFFFC00003FFE00001FFFFC00003FFE000
310
01FFFF0003FFFFFFFFF8000FFFF80003F000F00003FFC00007FC0007FFF80000
310
7FFF8001FF80007FF00007FF80000FFF00007FF80000FFF8000001FFFE000000
310
7F80000000000001FFE000003E000003FFFFE000003E000003FFFF0003FFFFFF
310
FFF80003FFE00007F000F800000000000FFC0007FFF800007FFF8001FF80007F
310
F000000000000FFF000000000000FFF8000001FFFE0000007F80000000000001
310
FFF0000000000007FFFFF0000000000007FFFF0003FFFFFFFFFC00007E000007
310
F000F800000000000FFC0007FFF80000FFFF8000FF80007FF800000000001FFF
310
800000000001FFF8000001FFFE0000007F80000000000001FFF800000000000F
310
FFFFF800000000000FFFFF0003FFFFFFFFFC00000000000FF000FC0000000000
310
1FFC0007FFFC0000FFFF8000FF80007FF800000000003FFFC00000000001FFF8
310
000001FFFE0000007F80000000000001FFF800000000000FFFFFF80000000000
310
0FFFFF0003FFFFFFFFFE00000000001FF000FE00000000003FF8000FFFFC0000
310
FFFF8000FF80007FFC00000000003FFFC00000000003FFF8000001FFFE000000
310
7F80000000000001FFFC00000000001FFFFFFC00000000001FFFFF0003FFFFFF
310
FFFF00000000001FF000FF00000000003FF8000FFFFC0000FFFFC000FF80007F
310
FE00000000007FFFE00000000007FFF8000001FFFE0000007F80000000000001
310
FFFE00000000003FFFFFFE00000000003FFFFF0003FFFFFFFFFF80000000003F
310
F000FF80000000007FF8000FFFFC0001FFFFC0007F80007FFF0000000000FFFF
310
F0000000000FFFF800000000000000007F80000000000001FFFF8000000000FF
310
FFFFFF8000000000FFFFFF0003FFFFFFFFFFC0000000007FF000FFC000000000
310
FFF8000FFFFE0001FFFFC0007F80007FFF8000000001FFFFF8000000001FFFF8
310
00000000000000007F80000000000001FFFFC000000001FFFFFFFFC000000001
310
FFFFFF0003FFFFFFFFFFE000000000FFF000FFE000000003FFF0001FFFFE0001
310
FFFFC0007F80007FFFC000000007FFFFFE000000003FFFF80000000000000000
310
7F80000000000001FFFFE000000003FFFFFFFFE000000003FFFFFF0003FFFFFF
310
FFFFF000000003FFF000FFF80000000FFFF0001FFFFE0001FFFFE0007F80007F
310
FFF00000000FFFFFFF00000000FFFFF800000000000000007F80000000000001
310
FFFFF80000000FFFFFFFFFF80000000FFFFFFF0003FFFFFFFFFFFC0000000FFF
310
F000FFFE0000003FFFF0001FFFFE0003FFFFE0003F80007FFFFC0000003FFFFF
310
FFC0000003FFFFF800000000000000007F80000000000001FFFFFE0000003FFF
310
FFFFFFFE0000003FFFFFFF0003FFFFFFFFFFFF0000003FFFF000FFFF800000FF
310
FFF0001FFFFF0003FFFFE0003F80007FFFFF000001FFFFFFFFF800001FFFFFF8
310
00000000000000007F80000000000001FFFFFFC00001FFFFFFFFFFFFC00001FF
310
FFFFFF0003FFFFFFFFFFFFC00000FFFFF000FFFFF8000FFFFFFFFFFFFFFFFFFF
310
FFFFFFFFFFFFFFFFFFFFF0001FFFFFFFFFFF0000FFFFFFF80000000000000000
310
7FFFFFFFFFFFFFFFFFFFFFFC001FFFFFFFFFFFFFFC001FFFFFFFFFFFFFFFFFFF
310
FFFFFFFC001FFFFFF000FFFFFFFFFFFFFFFFFFFFFFFFFFFFFFFFFFFFFFFFFFFF
310
FFFFFFFFFFFFFFFFFFFFFFFFFFFFFFFFFFFFFFFFFFFFFFFFFFFFFFFFFFFFFFFF
310
FFFFFFFFFFFFFFFFFFFFFFFFFFFFFFFFFFFFFFFFFFFFFFFFFFFFFFFFFFFFFFFF
310
F000FFFFFFFFFFFFFFFFFFFFFFFFFFFFFFFFFFFFFFFFFFFFFFFFFFFFFFFFFFFF
310
FFFFFFFFFFFFFFFFFFFFFFFFFFFFFFFFFFFFFFFFFFFFFFFFFFFFFFFFFFFFFFFF
310
FFFFFFFFFFFFFFFFFFFFFFFFFFFFFFFFFFFFFFFFFFFFFFFFF000FFFFFFFFFFFF
310
FFFFFFFFFFFFFFFFFFFFFFFFFFFFFFFFFFFFFFFFFFFFFFFFFFFFFFFFFFFFFFFF
310
FFFFFFFFFFFFFFFFFFFFFFFFFFFFFFFFFFFFFFFFFFFFFFFFFFFFFFFFFFFFFFFF
310
FFFFFFFFFFFFFFFFFFFFFFFFFFFFFFFFF000FFFFFFFFFFFFFFFFFFFFFFFFFFFF
310
FFFFFFFFFFFFFFFFFFFFFFFFFFFFFFFFFFFFFFFFFFFFFFFFFFFFFFFFFFFFFFFF
310
FFFFFFFFFFFFFFFFFFFFFFFFFFFFFFFFFFFFFFFFFFFFFFFFFFFFFFFFFFFFFFFF
310
FFFFFFFFFFFFFFFFF000FFFFFFFFFFFFFFFFFFFFFFFFFFFFFFFFFFFFFFFFFFFF
310
FFFFFFFFFFFFFFFFFFFFFFFFFFFFFFFFFFFFFFFFFFFFFFFFFFFFFFFFFFFFFFFF
310
FFFFFFFFFFFFFFFFFFFFFFFFFFFFFFFFFFFFFFFFFFFFFFFFFFFFFFFFFFFFFFFF
310
F000FFFFFFFFFFFFFFFFFFFFFFFFFFFFFFFFFFFFFFFFFFFFFFFFFFFFFFFFFFFF
310
FFFFFFFFFFFFFFFFFFFFFFFFFFFFFFFFFFFFFFFFFFFFFFFFFFFFFFFFFFFFFFFF
310
FFFFFFFFFFFFFFFFFFFFFFFFFFFFFFFFFFFFFFFFFFFFFFFFF000FFFFFFFFFFFF
310
FFFFFFFFFFFFFFFFFFFFFFFFFFFFFFFFFFFFFFFFFFFFFFFFFFFFFFFFFFFFFFFF
310
FFFFFFFFFFFFFFFFFFFFFFFFFFFFFFFFFFFFFFFFFFFFFFFFFFFFFFFFFFFFFFFF
310
FFFFFFFFFFFFFFFFFFFFFFFFFFFFFFFFF000FFFFFFFFFFFFFFFFFFFFFFFFFFFF
310
FFFFFFFFFFFFFFFFFFFFFFFFFFFFFFFFFFFFFFFFFFFFFFFFFFFFFFFFFFFFFFFF
310
FFFFFFFFFFFFFFFFFFFFFFFFFFFFFFFFFFFFFFFFFFFFFFFFFFFFFFFFFFFFFFFF
310
FFFFFFFFFFFFFFFFF000FFFFFFFFFFFFFFFFFFFFFFFFFFFFFFFFFFFFFFFFFFFF
310
FFFFFFFFFFFFFFFFFFFFFFFFFFFFFFFFFFFFFFFFFFFFFFFFFFFFFFFFFFFFFFFF
310
FFFFFFFFFFFFFFFFFFFFFFFFFFFFFFFFFFFFFFFFFFFFFFFFFFFFFFFFFFFFFFFF
310
F000FFFFFFFFFFFFFFFFFFFFFFFFFFFFFFFFFFFFFFFFFFFFFFFFFFFFFFFFFFFF
310
FFFFFFFFFFFFFFFFFFFFFFFFFFFFFFFFFFFFFFFFFFFFFFFFFFFFFFFFFFFFFFFF
310
FFFFFFFFFFFFFFFFFFFFFFFFFFFFFFFFFFFFFFFFFFFFFFFFF000FFFFFFFFFFFF
310
FFFFFFFFFFFFFFFFFFFFFFFFFFFFFFFFFFFFFFFFFFFFFFFFFFFFFFFFFFFFFFFF
310
FFFFFFFFFFFFFFFFFFFFFFFFFFFFFFFFFFFFFFFFFFFFFFFFFFFFFFFFFFFFFFFF
310
FFFFFFFFFFFFFFFFFFFFFFFFFFFFFFFFF000FFFFFFFFFFFFFFFFFFFFFFFFFFFF
310
FFFFFFFFFFFFFFFFFFFFFFFFFFFFFFFFFFFFFFFFFFFFFFFFFFFFFFFFFFFFFFFF
310
FFFFFFFFFFFFFFFFFFFFFFFFFFFFFFFFFFFFFFFFFFFFFFFFFFFFFFFFFFFFFFFF
310
FFFFFFFFFFFFFFFFF000FFFFFFFFFFFFFFFFFFFFFFFFFFFFFFFFFFFFFFFFFFFF
310
FFFFFFFFFFFFFFFFFFFFFFFFFFFFFFFFFFFFFFFFFFFFFFFFFFFFFFFFFFFFFFFF
310
FFFFFFFFFFFFFFFFFFFFFFFFFFFFFFFFFFFFFFFFFFFFFFFFFFFFFFFFFFFFFFFF
310
F000FFFFFFFFFFFFFFFFFFFFFFFFFFFFFFFFFFFFFFFFFFFFFFFFFFFFFFFFFFFF
310
FFFFFFFFFFFFFFFFFFFFFFFFFFFFFFFFFFFFFFFFFFFFFFFFFFFFFFFFFFFFFFFF
310
FFFFFFFFFFFFFFFFFFFFFFFFFFFFFFFFFFFFFFFFFFFFFFFFF000FFFFFFFFFFFF
310
FFFFFFFFFFFFFFFFFFFFFFFFFFFFFFFFFFFFFFFFFFFFFFFFFFFFFFFFFFFFFFFF
310
FFFFFFFFFFFFFFFFFFFFFFFFFFFFFFFFFFFFFFFFFFFFFFFFFFFFFFFFFFFFFFFF
310
FFFFFFFFFFFFFFFFFFFFFFFFFFFFFFFFF000FFFFFFFFFFFFFFFFFFFFFFFFFFFF
310
FFFFFFFFFFFFFFFFFFFFFFFFFFFFFFFFFFFFFFFFFFFFFFFFFFFFFFFFFFFFFFFF
310
FFFFFFFFFFFFFFFFFFFFFFFFFFFFFFFFFFFFFFFFFFFFFFFFFFFFFFFFFFFFFFFF
310
FFFFFFFFFFFFFFFFF000FFFFFFFFFFFFFFFFFFFFFFFFFFFFFFFFFFFFFFFFFFFF
310
FFFFFFFFFFFFFFFFFFFFFFFFFFFFFFFFFFFFFFFFFFFFFFFFFFFFFFFFFFFFFFFF
310
FFFFFFFFFFFFFFFFFFFFFFFFFFFFFFFFFFFFFFFFFFFFFFFFFFFFFFFFFFFFFFFF
310
F000FFFFFFFFFFFFFFFFFFFFFFFFFFFFFFFFFFFFFFFFFFFFFFFFFFFFFFFFFFFF
310
FFFFFFFFFFFFFFFFFFFFFFFFFFFFFFFFFFFFFFFFFFFFFFFFFFFFFFFFFFFFFFFF
310
FFFFFFFFFFFFFFFFFFFFFFFFFFFFFFFFFFFFFFFFFFFFFFFFF000FFFFFFFFFFFF
310
FFFFFFFFFFFFFFFFFFFFFFFFFFFFFFFFFFFFFFFFFFFFFFFFFFFFFFFFFFFFFFFF
310
FFFFFFFFFFFFFFFFFFFFFFFFFFFFFFFFFFFFFFFFFFFFFFFFFFFFFFFFFFFFFFFF
310
FFFFFFFFFFFFFFFFFFFFFFFFFFFFFFFFF000FFFFFFFFFFFFFFFFFFFFFFFFFFFF
310
FFFFFFFFFFFFFFFFFFFFFFFFFFFFFFFFFFFFFFFFFFFFFFFFFFFFFFFFFFFFFFFF
310
FFFFFFFFFFFFFFFFFFFFFFFFFFFFFFFFFFFFFFFFFFFFFFFFFFFFFFFFFFFFFFFF
310
FFFFFFFFFFFFFFFFF000FFFFFFFFFFFFFFFFFFFFFFFFFFFFFFFFFFFFFFFFFFFF
310
FFFFFFFFFFFFFFFFFFFFFFFFFFFFFFFFFFFFFFFFFFFFFFFFFFFFFFFFFFFFFFFF
310
FFFFFFFFFFFFFFFFFFFFFFFFFFFFFFFFFFFFFFFFFFFFFFFFFFFFFFFFFFFFFFFF
310
F000FFFFFFFFFFFFFFFFFFFFFFFFFFFFFFFFFFFFFFFFFFFFFFFFFFFFFFFFFFFF
310
FFFFFFFFFFFFFFFFFFFFFFFFFFFFFFFFFFFFFFFFFFFFFFFFFFFFFFFFFFFFFFFF
310
FFFFFFFFFFFFFFFFFFFFFFFFFFFFFFFFFFFFFFFFFFFFFFFFF000FFFFFFFFFFFF
310
FFFFFFFFFFFFFFFFFFFFFFFFFFFFFFFFFFFFFFFFFFFFFFFFFFFFFFFFFFFFFFFF
310
FFFFFFFFFFFFFFFFFFFFFFFFFFFFFFFFFFFFFFFFFFFFFFFFFFFFFFFFFFFFFFFF
310
FFFFFFFFFFFFFFFFFFFFFFFFFFFFFFFFF0000000000000000000000000000000
310
0000000000000000000000000000000000000000000000000000000000000000
310
0000000000000000000000000000000000000000000000000000000000000000
310
0000000000000000000000000000000000000000000000000000000000000000
310
0000000000000000000000000000000000000000000000000000000000000000
310
0000000000000000000000000000000000000000000000000000000000000000
310
0000000000000000000000000000000000000000000000000000000000000000
310
0000000000000000000000000000000000000000000000000000000000000000
310
0000000000000000000000000000000000000000000000000000000000000000
310
0000000000000000000000000000000000000000000000000000000000000000
310
0000000000000000000000000000000000000000000000000000000000000000
310
0000000000000000000000000000000000000000000000000000000000000000
310
0000000000000000000000000000000000000000000000000000000000000000
310
0000000000000000000000000000000000000000000000000000000000000000
310
0000000000000000000000000000000000000000000000000000000000000000
310
0000000000000000000000000000000000000000000000000000000000000000
  1
OLE
  0
ENDSEC
  0
SECTION
  2
OBJECTS
  0
DICTIONARY
  5
C
330
0
100
AcDbDictionary
281
     1
  3
ACAD_GROUP
350
D
  3
ACAD_LAYOUT
350
1A
  3
ACAD_MLINESTYLE
350
17
  3
ACAD_PLOTSETTINGS
350
19
  3
ACAD_PLOTSTYLENAME
350
E
  0
DICTIONARY
  5
D
102
{ACAD_REACTORS
330
C
102
}
330
C
100
AcDbDictionary
281
     1
  0
DICTIONARY
  5
1A
102
{ACAD_REACTORS
330
C
102
}
330
C
100
AcDbDictionary
281
     1
  3
Layout1
350
1E
  3
Layout2
350
26
  3
Model
350
22
  0
DICTIONARY
  5
17
102
{ACAD_REACTORS
330
C
102
}
330
C
100
AcDbDictionary
281
     1
  3
Standard
350
18
  0
DICTIONARY
  5
19
102
{ACAD_REACTORS
330
C
102
}
330
C
100
AcDbDictionary
281
     1
  0
ACDBDICTIONARYWDFLT
  5
E
102
{ACAD_REACTORS
330
C
102
}
330
C
100
AcDbDictionary
281
     1
  3
Normal
350
F
100
AcDbDictionaryWithDefault
340
F
  0
LAYOUT
  5
1E
102
{ACAD_REACTORS
330
1A
102
}
330
1A
100
AcDbPlotSettings
  1

  2
none_device
  4

  6

 40
0.0
 41
0.0
 42
0.0
 43
0.0
 44
0.0
 45
0.0
 46
0.0
 47
0.0
 48
0.0
 49
0.0
140
0.0
141
0.0
142
1.0
143
1.0
 70
   688
 72
     0
 73
     0
 74
     5
  7

 75
    16
147
1.0
148
0.0
149
0.0
100
AcDbLayout
  1
Layout1
 70
     1
 71
     1
 10
0.0
 20
0.0
 11
420.0
 21
297.0
 12
0.0
 22
0.0
 32
0.0
 14
1.0000000000E+20
 24
1.0000000000E+20
 34
1.0000000000E+20
 15
-1.0000000000E+20
 25
-1.0000000000E+20
 35
-1.0000000000E+20
146
0.0
 13
0.0
 23
0.0
 33
0.0
 16
1.0
 26
0.0
 36
0.0
 17
0.0
 27
1.0
 37
0.0
 76
     0
330
1B
  0
LAYOUT
  5
26
102
{ACAD_REACTORS
330
1A
102
}
330
1A
100
AcDbPlotSettings
  1

  2
none_device
  4

  6

 40
0.0
 41
0.0
 42
0.0
 43
0.0
 44
0.0
 45
0.0
 46
0.0
 47
0.0
 48
0.0
 49
0.0
140
0.0
141
0.0
142
1.0
143
1.0
 70
   688
 72
     0
 73
     0
 74
     5
  7

 75
    16
147
1.0
148
0.0
149
0.0
100
AcDbLayout
  1
Layout2
 70
     1
 71
     2
 10
0.0
 20
0.0
 11
0.0
 21
0.0
 12
0.0
 22
0.0
 32
0.0
 14
0.0
 24
0.0
 34
0.0
 15
0.0
 25
0.0
 35
0.0
146
0.0
 13
0.0
 23
0.0
 33
0.0
 16
1.0
 26
0.0
 36
0.0
 17
0.0
 27
1.0
 37
0.0
 76
     0
330
23
  0
LAYOUT
  5
22
102
{ACAD_REACTORS
330
1A
102
}
330
1A
100
AcDbPlotSettings
  1

  2
none_device
  4

  6

 40
0.0
 41
0.0
 42
0.0
 43
0.0
 44
0.0
 45
0.0
 46
0.0
 47
0.0
 48
0.0
 49
0.0
140
0.0
141
0.0
142
1.0
143
1.0
 70
  1712
 72
     0
 73
     0
 74
     0
  7

 75
     0
147
1.0
148
0.0
149
0.0
100
AcDbLayout
  1
Model
 70
     1
 71
     0
 10
0.0
 20
0.0
 11
297.0
 21
210.0
 12
0.0
 22
0.0
 32
0.0
 14
0.0
 24
0.0
 34
0.0
 15
297.0
 25
210.0
 35
0.0
146
0.0
 13
0.0
 23
0.0
 33
0.0
 16
1.0
 26
0.0
 36
0.0
 17
0.0
 27
1.0
 37
0.0
 76
     0
330
1F
331
29
  0
MLINESTYLE
  5
18
102
{ACAD_REACTORS
330
17
102
}
330
17
100
AcDbMlineStyle
  2
Standard
 70
     0
  3

 62
   256
 51
90.0
 52
90.0
 71
     2
 49
0.5
 62
   256
  6
BYLAYER
 49
-0.5
 62
   256
  6
BYLAYER
  0
ACDBPLACEHOLDER
  5
F
102
{ACAD_REACTORS
330
E
102
}
330
E
  0
ENDSEC
  0
EOF
