  0
SECTION
  2
HEADER
  9
$ACADVER
  1
AC1015
  9
$ACADMAINTVER
 70
     6
  9
$DWGCODEPAGE
  3
ANSI_1252
  9
$INSBASE
 10
0.0
 20
0.0
 30
0.0
  9
$EXTMIN
 10
0.0
 20
0.0
 30
0.0
  9
$EXTMAX
 10
297.0
 20
210.0
 30
0.0
  9
$LIMMIN
 10
0.0
 20
0.0
  9
$LIMMAX
 10
297.0
 20
210.0
  9
$ORTHOMODE
 70
     0
  9
$REGENMODE
 70
     1
  9
$FILLMODE
 70
     1
  9
$QTEXTMODE
 70
     0
  9
$MIRRTEXT
 70
     1
  9
$LTSCALE
 40
1.0
  9
$ATTMODE
 70
     1
  9
$TEXTSIZE
 40
2.0
  9
$TRACEWID
 40
1.0
  9
$TEXTSTYLE
  7
Standard
  9
$CLAYER
  8
0
  9
$CELTYPE
  6
ByLayer
  9
$CECOLOR
 62
   256
  9
$CELTSCALE
 40
1.0
  9
$DISPSILH
 70
     0
  9
$DIMSCALE
 40
1.0
  9
$DIMASZ
 40
3.0
  9
$DIMEXO
 40
0.0
  9
$DIMDLI
 40
3.75
  9
$DIMRND
 40
0.0
  9
$DIMDLE
 40
0.0
  9
$DIMEXE
 40
1.0
  9
$DIMTP
 40
0.0
  9
$DIMTM
 40
0.0
  9
$DIMTXT
 40
2.0
  9
$DIMCEN
 40
2.5
  9
$DIMTSZ
 40
0.0
  9
$DIMTOL
 70
     0
  9
$DIMLIM
 70
     0
  9
$DIMTIH
 70
     1
  9
$DIMTOH
 70
     1
  9
$DIMSE1
 70
     0
  9
$DIMSE2
 70
     0
  9
$DIMTAD
 70
     1
  9
$DIMZIN
 70
     0
  9
$DIMBLK
  1

  9
$DIMASO
 70
     1
  9
$DIMSHO
 70
     1
  9
$DIMPOST
  1

  9
$DIMAPOST
  1

  9
$DIMALT
 70
     0
  9
$DIMALTD
 70
     3
  9
$DIMALTF
 40
0.0393700787
  9
$DIMLFAC
 40
1.0
  9
$DIMTOFL
 70
     1
  9
$DIMTVP
 40
0.0
  9
$DIMTIX
 70
     0
  9
$DIMSOXD
 70
     0
  9
$DIMSAH
 70
     0
  9
$DIMBLK1
  1

  9
$DIMBLK2
  1

  9
$DIMSTYLE
  2
ISO-25
  9
$DIMCLRD
 70
     0
  9
$DIMCLRE
 70
     0
  9
$DIMCLRT
 70
     0
  9
$DIMTFAC
 40
1.0
  9
$DIMGAP
 40
1.524
  9
$DIMJUST
 70
     0
  9
$DIMSD1
 70
     0
  9
$DIMSD2
 70
     0
  9
$DIMTOLJ
 70
     0
  9
$DIMTZIN
 70
     0
  9
$DIMALTZ
 70
     0
  9
$DIMALTTZ
 70
     0
  9
$DIMUPT
 70
     0
  9
$DIMDEC
 70
     2
  9
$DIMTDEC
 70
     3
  9
$DIMALTU
 70
     2
  9
$DIMALTTD
 70
     3
  9
$DIMTXSTY
  7
Standard
  9
$DIMAUNIT
 70
     0
  9
$DIMADEC
 70
     2
  9
$DIMALTRND
 40
0.0
  9
$DIMAZIN
 70
     0
  9
$DIMDSEP
 70
    44
  9
$DIMATFIT
 70
     3
  9
$DIMFRAC
 70
     0
  9
$DIMLDRBLK
  1

  9
$DIMLUNIT
 70
     2
  9
$DIMLWD
 70
    -2
  9
$DIMLWE
 70
    -2
  9
$DIMTMOVE
 70
     0
  9
$LUNITS
 70
     2
  9
$LUPREC
 70
     2
  9
$SKETCHINC
 40
1.0
  9
$FILLETRAD
 40
10.0
  9
$AUNITS
 70
     0
  9
$AUPREC
 70
     2
  9
$MENU
  1
.
  9
$ELEVATION
 40
0.0
  9
$PELEVATION
 40
0.0
  9
$THICKNESS
 40
0.0
  9
$LIMCHECK
 70
     0
  9
$CHAMFERA
 40
0.0
  9
$CHAMFERB
 40
0.0
  9
$CHAMFERC
 40
0.0
  9
$CHAMFERD
 40
0.0
  9
$SKPOLY
 70
     0
  9
$TDCREATE
 40
2457632.566237569
  9
$TDUCREATE
 40
2457632.482904236
  9
$TDUPDATE
 40
2457632.566238947
  9
$TDUUPDATE
 40
2457632.482905613
  9
$TDINDWG
 40
0.0000000116
  9
$TDUSRTIMER
 40
0.0000000116
  9
$USRTIMER
 70
     1
  9
$ANGBASE
 50
0.0
  9
$ANGDIR
 70
     0
  9
$PDMODE
 70
     0
  9
$PDSIZE
 40
-1.0
  9
$PLINEWID
 40
0.0
  9
$SPLFRAME
 70
     0
  9
$SPLINETYPE
 70
     6
  9
$SPLINESEGS
 70
     8
  9
$HANDSEED
  5
284
  9
$SURFTAB1
 70
     6
  9
$SURFTAB2
 70
     6
  9
$SURFTYPE
 70
     6
  9
$SURFU
 70
     6
  9
$SURFV
 70
     6
  9
$UCSBASE
  2

  9
$UCSNAME
  2

  9
$UCSORG
 10
0.0
 20
0.0
 30
0.0
  9
$UCSXDIR
 10
1.0
 20
0.0
 30
0.0
  9
$UCSYDIR
 10
0.0
 20
1.0
 30
0.0
  9
$UCSORTHOREF
  2

  9
$UCSORTHOVIEW
 70
     0
  9
$UCSORGTOP
 10
0.0
 20
0.0
 30
0.0
  9
$UCSORGBOTTOM
 10
0.0
 20
0.0
 30
0.0
  9
$UCSORGLEFT
 10
0.0
 20
0.0
 30
0.0
  9
$UCSORGRIGHT
 10
0.0
 20
0.0
 30
0.0
  9
$UCSORGFRONT
 10
0.0
 20
0.0
 30
0.0
  9
$UCSORGBACK
 10
0.0
 20
0.0
 30
0.0
  9
$PUCSBASE
  2

  9
$PUCSNAME
  2

  9
$PUCSORG
 10
0.0
 20
0.0
 30
0.0
  9
$PUCSXDIR
 10
1.0
 20
0.0
 30
0.0
  9
$PUCSYDIR
 10
0.0
 20
1.0
 30
0.0
  9
$PUCSORTHOREF
  2

  9
$PUCSORTHOVIEW
 70
     0
  9
$PUCSORGTOP
 10
0.0
 20
0.0
 30
0.0
  9
$PUCSORGBOTTOM
 10
0.0
 20
0.0
 30
0.0
  9
$PUCSORGLEFT
 10
0.0
 20
0.0
 30
0.0
  9
$PUCSORGRIGHT
 10
0.0
 20
0.0
 30
0.0
  9
$PUCSORGFRONT
 10
0.0
 20
0.0
 30
0.0
  9
$PUCSORGBACK
 10
0.0
 20
0.0
 30
0.0
  9
$USERI1
 70
     0
  9
$USERI2
 70
     0
  9
$USERI3
 70
     0
  9
$USERI4
 70
     0
  9
$USERI5
 70
     0
  9
$USERR1
 40
0.0
  9
$USERR2
 40
0.0
  9
$USERR3
 40
0.0
  9
$USERR4
 40
0.0
  9
$USERR5
 40
0.0
  9
$WORLDVIEW
 70
     1
  9
$SHADEDGE
 70
     3
  9
$SHADEDIF
 70
    70
  9
$TILEMODE
 70
     1
  9
$MAXACTVP
 70
    64
  9
$PINSBASE
 10
0.0
 20
0.0
 30
0.0
  9
$PLIMCHECK
 70
     0
  9
$PEXTMIN
 10
1.0000000000E+20
 20
1.0000000000E+20
 30
1.0000000000E+20
  9
$PEXTMAX
 10
-1.0000000000E+20
 20
-1.0000000000E+20
 30
-1.0000000000E+20
  9
$PLIMMIN
 10
0.0
 20
0.0
  9
$PLIMMAX
 10
420.0
 20
297.0
  9
$UNITMODE
 70
     0
  9
$VISRETAIN
 70
     1
  9
$PLINEGEN
 70
     0
  9
$PSLTSCALE
 70
     1
  9
$TREEDEPTH
 70
  3020
  9
$CMLSTYLE
  2
Standard
  9
$CMLJUST
 70
     0
  9
$CMLSCALE
 40
20.0
  9
$PROXYGRAPHICS
 70
     1
  9
$MEASUREMENT
 70
     1
  9
$CELWEIGHT
370
    -1
  9
$ENDCAPS
280
     0
  9
$JOINSTYLE
280
     0
  9
$LWDISPLAY
290
     1
  9
$INSUNITS
 70
     4
  9
$HYPERLINKBASE
  1

  9
$STYLESHEET
  1

  9
$XEDIT
290
     1
  9
$CEPSNTYPE
380
     0
  9
$PSTYLEMODE
290
     1
  9
$FINGERPRINTGUID
  2
{EACE366D-E816-493A-8003-5D91CCC920F6}
  9
$VERSIONGUID
  2
{FAEB1C32-E019-11D5-929B-00C0DF256EC4}
  9
$EXTNAMES
290
     1
  9
$PSVPSCALE
 40
0.0
  9
$OLESTARTUP
290
     0
  0
ENDSEC
  0
SECTION
  2
CLASSES
  0
CLASS
  1
ACDBDICTIONARYWDFLT
  2
AcDbDictionaryWithDefault
  3
ObjectDBX Classes
 90
        0
280
     0
281
     0
  0
CLASS
  1
VISUALSTYLE
  2
AcDbVisualStyle
  3
ObjectDBX Classes
 90
     4095
280
     0
281
     0
  0
CLASS
  1
MATERIAL
  2
AcDbMaterial
  3
ObjectDBX Classes
 90
     1153
280
     0
281
     0
  0
CLASS
  1
SCALE
  2
AcDbScale
  3
ObjectDBX Classes
 90
     1153
280
     0
281
     0
  0
CLASS
  1
TABLESTYLE
  2
AcDbTableStyle
  3
ObjectDBX Classes
 90
     4095
280
     0
281
     0
  0
CLASS
  1
MLEADERSTYLE
  2
AcDbMLeaderStyle
  3
ACDB_MLEADERSTYLE_CLASS
 90
     4095
280
     0
281
     0
  0
CLASS
  1
SUN
  2
AcDbSun
  3
SCENEOE
 90
     1153
280
     0
281
     0
  0
CLASS
  1
ACDBPLACEHOLDER
  2
AcDbPlaceHolder
  3
ObjectDBX Classes
 90
        0
280
     0
281
     0
  0
CLASS
  1
LAYOUT
  2
AcDbLayout
  3
ObjectDBX Classes
 90
        0
280
     0
281
     0
  0
ENDSEC
  0
SECTION
  2
TABLES
  0
TABLE
  2
VPORT
  5
8
330
0
100
AcDbSymbolTable
 70
     1
  0
VPORT
  5
29
330
8
100
AcDbSymbolTableRecord
100
AcDbViewportTableRecord
  2
*Active
 70
     0
 10
0.0
 20
0.0
 11
1.0
 21
1.0
 12
148.5
 22
105.0
 13
0.0
 23
0.0
 14
10.0
 24
10.0
 15
10.0
 25
10.0
 16
0.0
 26
0.0
 36
1.0
 17
0.0
 27
0.0
 37
0.0
 40
210.0
 41
1.4142857143
 42
50.0
 43
0.0
 44
0.0
 50
0.0
 51
0.0
 71
     0
 72
  2000
 73
     1
 74
     3
 75
     0
 76
     0
 77
     0
 78
     0
281
     0
 65
     1
110
0.0
120
0.0
130
0.0
111
1.0
121
0.0
131
0.0
112
0.0
122
1.0
132
0.0
 79
     0
146
0.0
  0
ENDTAB
  0
TABLE
  2
LTYPE
  5
5
330
0
100
AcDbSymbolTable
 70
     6
  0
LTYPE
  5
14
330
5
100
AcDbSymbolTableRecord
100
AcDbLinetypeTableRecord
  2
ByBlock
 70
     0
  3

 72
    65
 73
     0
 40
0.0
  0
LTYPE
  5
15
330
5
100
AcDbSymbolTableRecord
100
AcDbLinetypeTableRecord
  2
ByLayer
 70
     0
  3

 72
    65
 73
     0
 40
0.0
  0
LTYPE
  5
16
330
5
100
AcDbSymbolTableRecord
100
AcDbLinetypeTableRecord
  2
Continuous
 70
     0
  3
Solid line
 72
    65
 73
     0
 40
0.0
  0
LTYPE
  5
6E
330
5
100
AcDbSymbolTableRecord
100
AcDbLinetypeTableRecord
  2
HIDDEN
 70
     0
  3
Hidden __ __ __ __ __ __ __ __ __ __ __ __ __ __
 72
    65
 73
     2
 40
1.905
 49
1.27
 74
     0
 49
-0.635
 74
     0
  0
LTYPE
  5
6F
330
5
100
AcDbSymbolTableRecord
100
AcDbLinetypeTableRecord
  2
PHANTOM
 70
     0
  3
Phantom ______  __  __  ______  __  __  ______
 72
    65
 73
     6
 40
12.7
 49
6.35
 74
     0
 49
-1.27
 74
     0
 49
1.27
 74
     0
 49
-1.27
 74
     0
 49
1.27
 74
     0
 49
-1.27
 74
     0
  0
LTYPE
  5
70
330
5
100
AcDbSymbolTableRecord
100
AcDbLinetypeTableRecord
  2
CENTER
 70
     0
  3
Center ____ _ ____ _ ____ _ ____ _ ____ _ ____
 72
    65
 73
     4
 40
10.16
 49
6.35
 74
     0
 49
-1.27
 74
     0
 49
1.27
 74
     0
 49
-1.27
 74
     0
  0
LTYPE
  5
71
330
5
100
AcDbSymbolTableRecord
100
AcDbLinetypeTableRecord
  2
CENTERX2
 70
     0
  3
Center (2x) ________  __  ________  __  _____
 72
    65
 73
     4
 40
20.32
 49
12.7
 74
     0
 49
-2.54
 74
     0
 49
2.54
 74
     0
 49
-2.54
 74
     0
  0
LTYPE
  5
72
330
5
100
AcDbSymbolTableRecord
100
AcDbLinetypeTableRecord
  2
DOT2
 70
     0
  3
Dot (.5x) ........................................
 72
    65
 73
     2
 40
0.635
 49
0.0
 74
     0
 49
-0.635
 74
     0
  0
ENDTAB
  0
TABLE
  2
LAYER
  5
2
330
0
100
AcDbSymbolTable
 70
     5
  0
LAYER
  5
10
330
2
100
AcDbSymbolTableRecord
100
AcDbLayerTableRecord
  2
0
 70
     0
 62
     7
  6
Continuous
370
    -3
390
F
  0
LAYER
  5
73
330
2
100
AcDbSymbolTableRecord
100
AcDbLayerTableRecord
  2
FORMAT
 70
     0
 62
     7
  6
Continuous
370
    -3
390
F
  0
LAYER
  5
74
330
2
100
AcDbSymbolTableRecord
100
AcDbLayerTableRecord
  2
VERMASSUNG
 70
     0
 62
     7
  6
Continuous
370
    -3
390
F
  0
LAYER
  5
75
330
2
100
AcDbSymbolTableRecord
100
AcDbLayerTableRecord
  2
KOPF_DÜNN
 70
     0
 62
     7
  6
Continuous
370
    -3
390
F
  0
LAYER
  5
76
330
2
100
AcDbSymbolTableRecord
100
AcDbLayerTableRecord
  2
KOPF_DICK
 70
     0
 62
     7
  6
Continuous
370
    15
390
F
  0
ENDTAB
  0
TABLE
  2
STYLE
  5
3
330
0
100
AcDbSymbolTable
 70
     3
  0
STYLE
  5
11
330
3
100
AcDbSymbolTableRecord
100
AcDbTextStyleTableRecord
  2
Standard
 70
     0
 40
0.0
 41
1.0
 50
0.0
 71
     0
 42
2.0
  3
txt
  4

  0
STYLE
  5
77
330
3
100
AcDbSymbolTableRecord
100
AcDbTextStyleTableRecord
  2
SLDTEXTSTYLE0
 70
     0
 40
0.0
 41
0.7
 50
0.0
 71
     0
 42
2.0
  3
TXT
  4

  0
STYLE
  5
7B
330
3
100
AcDbSymbolTableRecord
100
AcDbTextStyleTableRecord
  2
SLDTEXTSTYLE1
 70
     0
 40
0.0
 41
0.6411764706
 50
0.0
 71
     0
 42
2.0
  3
TXT
  4

  0
ENDTAB
  0
TABLE
  2
VIEW
  5
6
330
0
100
AcDbSymbolTable
 70
     0
  0
ENDTAB
  0
TABLE
  2
UCS
  5
7
330
0
100
AcDbSymbolTable
 70
     0
  0
ENDTAB
  0
TABLE
  2
APPID
  5
9
330
0
100
AcDbSymbolTable
 70
     1
  0
APPID
  5
12
330
9
100
AcDbSymbolTableRecord
100
AcDbRegAppTableRecord
  2
ACAD
 70
     0
  0
ENDTAB
  0
TABLE
  2
DIMSTYLE
  5
A
330
0
100
AcDbSymbolTable
 70
     2
100
AcDbDimStyleTable
  0
DIMSTYLE
105
27
330
A
100
AcDbSymbolTableRecord
100
AcDbDimStyleTableRecord
  2
ISO-25
 70
     0
 41
2.5
 42
0.625
 43
3.75
 44
1.25
 73
     0
 74
     0
 77
     1
 78
     8
140
2.5
141
2.5
143
0.0393700787
147
0.625
171
     3
172
     1
178
     0
271
     2
272
     2
274
     3
278
    44
283
     0
284
     8
340
11
  0
DIMSTYLE
105
17C
102
{ACAD_REACTORS
330
17B
330
188
330
192
330
19C
330
1A6
102
}
330
A
100
AcDbSymbolTableRecord
100
AcDbDimStyleTableRecord
  2
SLDDIMSTYLE0
 70
     0
 41
3.0
 44
0.0
 45
0.000000001
 73
     0
 74
     0
 77
     1
 78
    12
 79
     3
140
2.0
147
0.5
173
     1
178
     0
271
     2
272
     3
276
     2
284
    12
340
77
  0
ENDTAB
  0
TABLE
  2
BLOCK_RECORD
  5
1
330
0
100
AcDbSymbolTable
 70
     6
  0
BLOCK_RECORD
  5
1F
330
1
100
AcDbSymbolTableRecord
100
AcDbBlockTableRecord
  2
*Model_Space
340
22
  0
BLOCK_RECORD
  5
1B
330
1
100
AcDbSymbolTableRecord
100
AcDbBlockTableRecord
  2
*Paper_Space
340
1E
  0
BLOCK_RECORD
  5
23
330
1
100
AcDbSymbolTableRecord
100
AcDbBlockTableRecord
  2
*Paper_Space0
340
26
  0
BLOCK_RECORD
  5
17D
330
1
100
AcDbSymbolTableRecord
100
AcDbBlockTableRecord
  2
_D
340
0
  0
BLOCK_RECORD
  5
189
330
1
100
AcDbSymbolTableRecord
100
AcDbBlockTableRecord
  2
_D_1
340
0
  0
BLOCK_RECORD
  5
193
330
1
100
AcDbSymbolTableRecord
100
AcDbBlockTableRecord
  2
_D_2
340
0
  0
BLOCK_RECORD
  5
19D
330
1
100
AcDbSymbolTableRecord
100
AcDbBlockTableRecord
  2
_D_3
340
0
  0
BLOCK_RECORD
  5
1A7
330
1
100
AcDbSymbolTableRecord
100
AcDbBlockTableRecord
  2
_D_4
340
0
  0
ENDTAB
  0
ENDSEC
  0
SECTION
  2
BLOCKS
  0
BLOCK
  5
20
330
1F
100
AcDbEntity
  8
0
100
AcDbBlockBegin
  2
*Model_Space
 70
     0
 10
0.0
 20
0.0
 30
0.0
  3
*Model_Space
  1

  0
ENDBLK
  5
21
330
1F
100
AcDbEntity
  8
0
100
AcDbBlockEnd
  0
BLOCK
  5
1C
330
1B
100
AcDbEntity
 67
     1
  8
0
100
AcDbBlockBegin
  2
*Paper_Space
 70
     0
 10
0.0
 20
0.0
 30
0.0
  3
*Paper_Space
  1

  0
ENDBLK
  5
1D
330
1B
100
AcDbEntity
 67
     1
  8
0
100
AcDbBlockEnd
  0
BLOCK
  5
24
330
23
100
AcDbEntity
  8
0
100
AcDbBlockBegin
  2
*Paper_Space0
 70
     0
 10
0.0
 20
0.0
 30
0.0
  3
*Paper_Space0
  1

  0
ENDBLK
  5
25
330
23
100
AcDbEntity
  8
0
100
AcDbBlockEnd
  0
BLOCK
  5
17E
330
17D
100
AcDbEntity
  8
0
100
AcDbBlockBegin
  2
_D
 70
     0
 10
0.0
 20
0.0
 30
0.0
  3
_D
  1

  0
SOLID
  5
180
330
17D
100
AcDbEntity
  8
VERMASSUNG
100
AcDbTrace
 10
103.0759556738
 20
139.9706883608
 30
0.0
 11
102.6259556738
 21
136.9706883608
 31
0.0
 12
103.5259556738
 22
136.9706883608
 32
0.0
 13
103.5259556738
 23
136.9706883608
 33
0.0
  0
SOLID
  5
181
330
17D
100
AcDbEntity
  8
VERMASSUNG
100
AcDbTrace
 10
103.0759556738
 20
89.9706883608
 30
0.0
 11
103.5259556738
 21
92.9706883608
 31
0.0
 12
102.6259556738
 22
92.9706883608
 32
0.0
 13
102.6259556738
 23
92.9706883608
 33
0.0
  0
LINE
  5
182
330
17D
100
AcDbEntity
  8
VERMASSUNG
100
AcDbLine
 10
133.0996772198
 20
139.9706883608
 30
0.0
 11
102.0759556738
 21
139.9706883608
 31
0.0
  0
LINE
  5
183
330
17D
100
AcDbEntity
  8
VERMASSUNG
100
AcDbLine
 10
133.0996772198
 20
89.9706883608
 30
0.0
 11
102.0759556738
 21
89.9706883608
 31
0.0
  0
LINE
  5
184
330
17D
100
AcDbEntity
  8
VERMASSUNG
100
AcDbLine
 10
103.0759556738
 20
139.9706883608
 30
0.0
 11
103.0759556738
 21
89.9706883608
 31
0.0
  0
MTEXT
  5
185
330
17D
100
AcDbEntity
  8
VERMASSUNG
100
AcDbMText
 10
100.2978204176
 20
107.2663268778
 30
0.0
 40
2.0
 41
0.0
 71
     1
 72
     1
  1
HSK A
  7
SLDTEXTSTYLE0
 11
-7.044195017643634E-15
 21
1.0
 31
0.0
 73
     1
 44
1.0
  0
MTEXT
  5
186
330
17D
100
AcDbEntity
  8
VERMASSUNG
100
AcDbMText
 10
100.4978203689
 20
116.2663264904
 30
0.0
 40
2.0
 41
0.0
 71
     1
 72
     1
  1
%%c
  7
SLDTEXTSTYLE0
 11
-7.044195017643634E-15
 21
1.0
 31
0.0
 73
     1
 44
1.0
  0
MTEXT
  5
187
330
17D
100
AcDbEntity
  8
VERMASSUNG
100
AcDbMText
 10
100.4978200778
 20
119.8756698232
 30
0.0
 40
2.0
 41
0.0
 71
     1
 72
     1
  1
50
  7
SLDTEXTSTYLE0
 11
-7.044195017643634E-15
 21
1.0
 31
0.0
 73
     1
 44
1.0
  0
ENDBLK
  5
17F
330
17D
100
AcDbEntity
  8
0
100
AcDbBlockEnd
  0
BLOCK
  5
18A
330
189
100
AcDbEntity
  8
0
100
AcDbBlockBegin
  2
_D_1
 70
     0
 10
0.0
 20
0.0
 30
0.0
  3
_D_1
  1

  0
SOLID
  5
18C
330
189
100
AcDbEntity
  8
VERMASSUNG
100
AcDbTrace
 10
107.8996772198
 20
161.2448905408
 30
0.0
 11
110.8996772198
 21
160.7948905408
 31
0.0
 12
110.8996772198
 22
161.6948905408
 32
0.0
 13
110.8996772198
 23
161.6948905408
 33
0.0
  0
SOLID
  5
18D
330
189
100
AcDbEntity
  8
VERMASSUNG
100
AcDbTrace
 10
198.7996772198
 20
161.2448905408
 30
0.0
 11
195.7996772198
 21
161.6948905408
 31
0.0
 12
195.7996772198
 22
160.7948905408
 32
0.0
 13
195.7996772198
 23
160.7948905408
 33
0.0
  0
LINE
  5
18E
330
189
100
AcDbEntity
  8
VERMASSUNG
100
AcDbLine
 10
107.8996772198
 20
130.0806883608
 30
0.0
 11
107.8996772198
 21
162.2448905408
 31
0.0
  0
LINE
  5
18F
330
189
100
AcDbEntity
  8
VERMASSUNG
100
AcDbLine
 10
198.7996772198
 20
141.9706883608
 30
0.0
 11
198.7996772198
 21
162.2448905408
 31
0.0
  0
LINE
  5
190
330
189
100
AcDbEntity
  8
VERMASSUNG
100
AcDbLine
 10
107.8996772198
 20
161.2448905408
 30
0.0
 11
198.7996772198
 21
161.2448905408
 31
0.0
  0
MTEXT
  5
191
330
189
100
AcDbEntity
  8
VERMASSUNG
100
AcDbMText
 10
150.9506813392
 20
163.8230261368
 30
0.0
 40
2.0
 41
0.0
 71
     1
 72
     1
  1
90.9
  7
SLDTEXTSTYLE0
 73
     1
 44
1.0
  0
ENDBLK
  5
18B
330
189
100
AcDbEntity
  8
0
100
AcDbBlockEnd
  0
BLOCK
  5
194
330
193
100
AcDbEntity
  8
0
100
AcDbBlockBegin
  2
_D_2
 70
     0
 10
0.0
 20
0.0
 30
0.0
  3
_D_2
  1

  0
SOLID
  5
196
330
193
100
AcDbEntity
  8
VERMASSUNG
100
AcDbTrace
 10
132.7996772198
 20
155.2448905408
 30
0.0
 11
135.7996772198
 21
154.7948905408
 31
0.0
 12
135.7996772198
 22
155.6948905408
 32
0.0
 13
135.7996772198
 23
155.6948905408
 33
0.0
  0
SOLID
  5
197
330
193
100
AcDbEntity
  8
VERMASSUNG
100
AcDbTrace
 10
198.7996772198
 20
155.2448905408
 30
0.0
 11
195.7996772198
 21
155.6948905408
 31
0.0
 12
195.7996772198
 22
154.7948905408
 32
0.0
 13
195.7996772198
 23
154.7948905408
 33
0.0
  0
LINE
  5
198
330
193
100
AcDbEntity
  8
VERMASSUNG
100
AcDbLine
 10
132.7996772198
 20
139.6706883608
 30
0.0
 11
132.7996772198
 21
156.2448905408
 31
0.0
  0
LINE
  5
199
330
193
100
AcDbEntity
  8
VERMASSUNG
100
AcDbLine
 10
198.7996772198
 20
141.9706883608
 30
0.0
 11
198.7996772198
 21
156.2448905408
 31
0.0
  0
LINE
  5
19A
330
193
100
AcDbEntity
  8
VERMASSUNG
100
AcDbLine
 10
132.7996772198
 20
155.2448905408
 30
0.0
 11
198.7996772198
 21
155.2448905408
 31
0.0
  0
MTEXT
  5
19B
330
193
100
AcDbEntity
  8
VERMASSUNG
100
AcDbMText
 10
164.3999872095
 20
157.8230261368
 30
0.0
 40
2.0
 41
0.0
 71
     1
 72
     1
  1
66
  7
SLDTEXTSTYLE0
 73
     1
 44
1.0
  0
ENDBLK
  5
195
330
193
100
AcDbEntity
  8
0
100
AcDbBlockEnd
  0
BLOCK
  5
19E
330
19D
100
AcDbEntity
  8
0
100
AcDbBlockBegin
  2
_D_3
 70
     0
 10
0.0
 20
0.0
 30
0.0
  3
_D_3
  1

  0
SOLID
  5
1A0
330
19D
100
AcDbEntity
  8
VERMASSUNG
100
AcDbTrace
 10
158.7496772198
 20
149.2448905408
 30
0.0
 11
161.7496772198
 21
148.7948905408
 31
0.0
 12
161.7496772198
 22
149.6948905408
 32
0.0
 13
161.7496772198
 23
149.6948905408
 33
0.0
  0
SOLID
  5
1A1
330
19D
100
AcDbEntity
  8
VERMASSUNG
100
AcDbTrace
 10
198.7996772198
 20
149.2448905408
 30
0.0
 11
195.7996772198
 21
149.6948905408
 31
0.0
 12
195.7996772198
 22
148.7948905408
 32
0.0
 13
195.7996772198
 23
148.7948905408
 33
0.0
  0
LINE
  5
1A2
330
19D
100
AcDbEntity
  8
VERMASSUNG
100
AcDbLine
 10
158.7496772198
 20
138.6214811594
 30
0.0
 11
158.7496772198
 21
150.2448905408
 31
0.0
  0
LINE
  5
1A3
330
19D
100
AcDbEntity
  8
VERMASSUNG
100
AcDbLine
 10
198.7996772198
 20
141.9706883608
 30
0.0
 11
198.7996772198
 21
150.2448905408
 31
0.0
  0
LINE
  5
1A4
330
19D
100
AcDbEntity
  8
VERMASSUNG
100
AcDbLine
 10
158.7496772198
 20
149.2448905408
 30
0.0
 11
198.7996772198
 21
149.2448905408
 31
0.0
  0
MTEXT
  5
1A5
330
19D
100
AcDbEntity
  8
VERMASSUNG
100
AcDbMText
 10
175.5749130591
 20
151.8230261368
 30
0.0
 40
2.0
 41
0.0
 71
     1
 72
     1
  1
40.05
  7
SLDTEXTSTYLE0
 73
     1
 44
1.0
  0
ENDBLK
  5
19F
330
19D
100
AcDbEntity
  8
0
100
AcDbBlockEnd
  0
BLOCK
  5
1A8
330
1A7
100
AcDbEntity
  8
0
100
AcDbBlockBegin
  2
_D_4
 70
     0
 10
0.0
 20
0.0
 30
0.0
  3
_D_4
  1

  0
SOLID
  5
1AA
330
1A7
100
AcDbEntity
  8
VERMASSUNG
100
AcDbTrace
 10
208.7996772198
 20
142.4706883608
 30
0.0
 11
208.3496772198
 21
139.4706883608
 31
0.0
 12
209.2496772198
 22
139.4706883608
 32
0.0
 13
209.2496772198
 23
139.4706883608
 33
0.0
  0
SOLID
  5
1AB
330
1A7
100
AcDbEntity
  8
VERMASSUNG
100
AcDbTrace
 10
208.7996772198
 20
87.4706883608
 30
0.0
 11
209.2496772198
 21
90.4706883608
 31
0.0
 12
208.3496772198
 22
90.4706883608
 32
0.0
 13
208.3496772198
 23
90.4706883608
 33
0.0
  0
LINE
  5
1AC
330
1A7
100
AcDbEntity
  8
VERMASSUNG
100
AcDbLine
 10
198.2996772198
 20
142.4706883608
 30
0.0
 11
209.7996772198
 21
142.4706883608
 31
0.0
  0
LINE
  5
1AD
330
1A7
100
AcDbEntity
  8
VERMASSUNG
100
AcDbLine
 10
198.2996772198
 20
87.4706883608
 30
0.0
 11
209.7996772198
 21
87.4706883608
 31
0.0
  0
LINE
  5
1AE
330
1A7
100
AcDbEntity
  8
VERMASSUNG
100
AcDbLine
 10
208.7996772198
 20
142.4706883608
 30
0.0
 11
208.7996772198
 21
87.4706883608
 31
0.0
  0
MTEXT
  5
1AF
330
1A7
100
AcDbEntity
  8
VERMASSUNG
100
AcDbMText
 10
206.0215419636
 20
108.5656887173
 30
0.0
 40
2.0
 41
0.0
 71
     1
 72
     1
  1
MBM
  7
SLDTEXTSTYLE0
 11
-7.044195017643634E-15
 21
1.0
 31
0.0
 73
     1
 44
1.0
  0
MTEXT
  5
1B0
330
1A7
100
AcDbEntity
  8
VERMASSUNG
100
AcDbMText
 10
206.2215419149
 20
114.9656885556
 30
0.0
 40
2.0
 41
0.0
 71
     1
 72
     1
  1
%%c
  7
SLDTEXTSTYLE0
 11
-7.044195017643634E-15
 21
1.0
 31
0.0
 73
     1
 44
1.0
  0
MTEXT
  5
1B1
330
1A7
100
AcDbEntity
  8
VERMASSUNG
100
AcDbMText
 10
206.0215419636
 20
118.5756890355
 30
0.0
 40
2.0
 41
0.0
 71
     1
 72
     1
  1
55
  7
SLDTEXTSTYLE0
 11
-7.044195017643634E-15
 21
1.0
 31
0.0
 73
     1
 44
1.0
  0
ENDBLK
  5
1A9
330
1A7
100
AcDbEntity
  8
0
100
AcDbBlockEnd
  0
ENDSEC
  0
SECTION
  2
ENTITIES
  0
MTEXT
  5
78
330
1F
100
AcDbEntity
  8
KOPF_DÜNN
100
AcDbMText
 10
13.8892156294
 20
23.8442973028
 30
0.0
 40
3.0
 41
0.0
 71
     1
 72
     1
  1
102.050.551
  7
SLDTEXTSTYLE0
 73
     1
 44
1.0
  0
MTEXT
  5
79
330
1F
100
AcDbEntity
  8
VERMASSUNG
100
AcDbMText
 10
13.9329988022
 20
28.8834360957
 30
0.0
 40
3.0
 41
0.0
 71
     1
 72
     1
  1
Aufnahme_Master shank MBM 55
  7
SLDTEXTSTYLE0
 73
     1
 44
1.0
  0
MTEXT
  5
7A
330
1F
100
AcDbEntity
  8
VERMASSUNG
100
AcDbMText
 10
98.8601118557
 20
13.8365368761
 30
0.0
 40
2.0
 41
0.0
 71
     1
 72
     1
  1
Datum: 21.11.2007
  7
SLDTEXTSTYLE0
 73
     1
 44
1.0
  0
MTEXT
  5
7C
330
1F
100
AcDbEntity
  8
VERMASSUNG
100
AcDbMText
 10
13.933048693
 20
18.0482802738
 30
0.0
 40
2.0
 41
0.0
 71
     1
 72
     1
  1
HSK A 50 / MBM 55
  7
SLDTEXTSTYLE1
 73
     1
 44
1.0
  0
MTEXT
  5
7D
330
1F
100
AcDbEntity
  8
VERMASSUNG
100
AcDbMText
 10
13.9808475933
 20
13.9090974274
 30
0.0
 40
2.0
 41
0.0
 71
     1
 72
     1
  1
Gewicht: g
  7
SLDTEXTSTYLE0
 73
     1
 44
1.0
  0
LINE
  5
7E
330
1F
100
AcDbEntity
  8
0
  6
Continuous
 62
     7
370
    15
100
AcDbLine
 10
198.2996772198
 20
87.4706883608
 30
0.0
 11
198.7996772198
 21
87.9706883608
 31
0.0
  0
LINE
  5
7F
330
1F
100
AcDbEntity
  8
0
  6
Continuous
 62
     7
370
    15
100
AcDbLine
 10
198.7996772198
 20
141.9706883608
 30
0.0
 11
198.2996772198
 21
142.4706883608
 31
0.0
  0
LINE
  5
80
330
1F
100
AcDbEntity
  8
0
  6
Continuous
 62
     7
370
    15
100
AcDbLine
 10
175.7996772198
 20
87.4706883608
 30
0.0
 11
198.2996772198
 21
87.4706883608
 31
0.0
  0
LINE
  5
81
330
1F
100
AcDbEntity
  8
0
  6
Continuous
 62
     7
370
    15
100
AcDbLine
 10
198.2996772198
 20
142.4706883608
 30
0.0
 11
175.7996772198
 21
142.4706883608
 31
0.0
  0
ARC
  5
82
330
1F
100
AcDbEntity
  8
0
  6
Continuous
 62
     7
370
    15
100
AcDbCircle
 10
175.7996772198
 20
88.4706883608
 30
0.0
 40
1.0
100
AcDbArc
 50
180.0
 51
270.0
  0
ARC
  5
83
330
1F
100
AcDbEntity
  8
0
  6
Continuous
 62
     7
370
    15
100
AcDbCircle
 10
175.7996772198
 20
141.4706883608
 30
0.0
 40
1.0
100
AcDbArc
 50
90.0
 51
180.0
  0
LINE
  5
84
330
1F
100
AcDbEntity
  8
0
  6
Continuous
 62
     7
370
    15
100
AcDbLine
 10
133.0996772198
 20
89.9706883608
 30
0.0
 11
139.7496772198
 21
89.9706883608
 31
0.0
  0
LINE
  5
85
330
1F
100
AcDbEntity
  8
0
  6
Continuous
 62
     7
370
    15
100
AcDbLine
 10
139.7705321778
 20
139.9706883608
 30
0.0
 11
133.0996772198
 21
139.9706883608
 31
0.0
  0
ARC
  5
86
330
1F
100
AcDbEntity
  8
0
  6
Continuous
 62
     7
370
    15
100
AcDbCircle
 10
133.0996772198
 20
90.2706883608
 30
0.0
 40
0.3000000000000114
100
AcDbArc
 50
180.0
 51
270.0
  0
ARC
  5
87
330
1F
100
AcDbEntity
  8
0
  6
Continuous
 62
     7
370
    15
100
AcDbCircle
 10
133.0996772198
 20
139.6706883608
 30
0.0
 40
0.3000000000000114
100
AcDbArc
 50
90.0
 51
180.0
  0
ARC
  5
88
330
1F
100
AcDbEntity
  8
0
  6
Continuous
 62
     7
370
    15
100
AcDbCircle
 10
173.7996772198
 20
93.4706883608
 30
0.0
 40
1.0
100
AcDbArc
 50
0.0
 51
90.0
  0
ARC
  5
89
330
1F
100
AcDbEntity
  8
0
  6
Continuous
 62
     7
370
    15
100
AcDbCircle
 10
173.7996772198
 20
136.4706883608
 30
0.0
 40
1.0
100
AcDbArc
 50
270.0
 51
0.0
  0
ARC
  5
8A
330
1F
100
AcDbEntity
  8
0
  6
Continuous
 62
     7
370
    15
100
AcDbCircle
 10
159.7496772198
 20
93.4706883608
 30
0.0
 40
1.0
100
AcDbArc
 50
90.0
 51
143.1138223979
  0
ARC
  5
8B
330
1F
100
AcDbEntity
  8
0
  6
Continuous
 62
     7
370
    15
100
AcDbCircle
 10
159.7496772198
 20
136.4706883608
 30
0.0
 40
1.000000000000013
100
AcDbArc
 50
216.8997495352
 51
270.0
  0
LINE
  5
8C
330
1F
100
AcDbEntity
  8
0
  6
Continuous
 62
     7
370
    15
100
AcDbLine
 10
159.7496772198
 20
94.4706883608
 30
0.0
 11
173.7996772198
 21
94.4706883608
 31
0.0
  0
LINE
  5
8D
330
1F
100
AcDbEntity
  8
0
  6
Continuous
 62
     7
370
    15
100
AcDbLine
 10
173.7996772198
 20
135.4706883608
 30
0.0
 11
159.7496772198
 21
135.4706883608
 31
0.0
  0
ARC
  5
8E
330
1F
100
AcDbEntity
  8
0
  6
Continuous
 62
     7
370
    15
100
AcDbCircle
 10
132.2996704671
 20
95.465881007
 30
0.0
 40
0.60000675266771
100
AcDbArc
 50
33.5571153394
 51
90.0
  0
ARC
  5
8F
330
1F
100
AcDbEntity
  8
0
  6
Continuous
 62
     7
370
    15
100
AcDbCircle
 10
132.2996704671
 20
134.4754957147
 30
0.0
 40
0.6000067526677242
100
AcDbArc
 50
270.0
 51
326.4428846606
  0
LINE
  5
90
330
1F
100
AcDbEntity
  8
0
  6
Continuous
 62
     7
370
    15
100
AcDbLine
 10
121.8195009719
 20
133.6755803324
 30
0.0
 11
112.4996772198
 21
133.2086552947
 31
0.0
  0
LINE
  5
91
330
1F
100
AcDbEntity
  8
0
  6
Continuous
 62
     7
370
    15
100
AcDbLine
 10
130.7996772198
 20
134.125488962
 30
0.0
 11
128.7314615255
 21
134.0218709413
 31
0.0
  0
LINE
  5
92
330
1F
100
AcDbEntity
  8
0
  6
Continuous
 62
     7
370
    15
100
AcDbLine
 10
128.7315027399
 20
95.9195037155
 30
0.0
 11
130.7996772198
 21
95.8158877596
 31
0.0
  0
LINE
  5
93
330
1F
100
AcDbEntity
  8
0
  6
Continuous
 62
     7
370
    15
100
AcDbLine
 10
115.4996772198
 20
96.5824208258
 30
0.0
 11
121.8198457534
 21
96.2657791157
 31
0.0
  0
LINE
  5
94
330
1F
100
AcDbEntity
  8
0
  6
Continuous
 62
     7
370
    15
100
AcDbLine
 10
130.7996772198
 20
95.8158877596
 30
0.0
 11
131.6563899932
 21
96.0454432554
 31
0.0
  0
LINE
  5
95
330
1F
100
AcDbEntity
  8
0
  6
Continuous
 62
     7
370
    15
100
AcDbLine
 10
131.6563899932
 20
133.8959334662
 30
0.0
 11
130.7996772198
 21
134.125488962
 31
0.0
  0
ARC
  5
96
330
1F
100
AcDbEntity
  8
0
  6
Continuous
 62
     7
370
    15
100
AcDbCircle
 10
131.8116814202
 20
95.4658877596
 30
0.0
 40
0.5999999999976922
100
AcDbArc
 50
90.0
 51
105.0
  0
ARC
  5
97
330
1F
100
AcDbEntity
  8
0
  6
Continuous
 62
     7
370
    15
100
AcDbCircle
 10
131.8116814202
 20
134.475488962
 30
0.0
 40
0.5999999999977323
100
AcDbArc
 50
255.0
 51
270.0
  0
LINE
  5
98
330
1F
100
AcDbEntity
  8
0
  6
Continuous
 62
     7
370
    15
100
AcDbLine
 10
131.8116814202
 20
96.0658877596
 30
0.0
 11
132.2996704671
 21
96.0658877596
 31
0.0
  0
LINE
  5
99
330
1F
100
AcDbEntity
  8
0
  6
Continuous
 62
     7
370
    15
100
AcDbLine
 10
132.2996704671
 20
133.875488962
 30
0.0
 11
131.8116814202
 21
133.875488962
 31
0.0
  0
LINE
  5
9A
330
1F
100
AcDbEntity
  8
0
  6
Continuous
 62
     7
370
    15
100
AcDbLine
 10
109.0496772198
 20
98.7106883608
 30
0.0
 11
114.0996772198
 21
98.7106883608
 31
0.0
  0
ARC
  5
9B
330
1F
100
AcDbEntity
  8
0
  6
Continuous
 62
     7
370
    15
100
AcDbCircle
 10
111.0996772198
 20
132.6306883608
 30
0.0
 40
1.399999999999999
100
AcDbArc
 50
270.0
 51
305.4492769478
  0
ARC
  5
9C
330
1F
100
AcDbEntity
  8
0
  6
Continuous
 62
     7
370
    15
100
AcDbCircle
 10
114.0996772198
 20
97.3106883608
 30
0.0
 40
1.399999999999991
100
AcDbArc
 50
43.2749270438
 51
90.0
  0
LINE
  5
9D
330
1F
100
AcDbEntity
  8
0
  6
Continuous
 62
     7
370
    15
100
AcDbLine
 10
107.8996772198
 20
99.8606883608
 30
0.0
 11
109.0496772198
 21
98.7106883608
 31
0.0
  0
LINE
  5
9E
330
1F
100
AcDbEntity
  8
0
  6
Continuous
 62
     7
370
    15
100
AcDbLine
 10
109.0496772198
 20
131.2306883608
 30
0.0
 11
107.8996772198
 21
130.0806883608
 31
0.0
  0
LINE
  5
9F
330
1F
100
AcDbEntity
  8
0
  6
Continuous
 62
     7
370
    15
100
AcDbLine
 10
111.0996772198
 20
131.2306883608
 30
0.0
 11
109.0496772198
 21
131.2306883608
 31
0.0
  0
SPLINE
  5
A0
330
1F
100
AcDbEntity
  8
0
  6
Continuous
 62
     7
370
    15
100
AcDbSpline
210
0.0
220
0.0
230
1.0
 70
    24
 71
     3
 72
    13
 73
     9
 74
     0
 42
0.000000001
 43
0.00000001
 40
0.0
 40
0.0
 40
0.0
 40
0.0
 40
0.1333078910201617
 40
0.3081793907436533
 40
0.4826178978901977
 40
0.6492099713623957
 40
0.8161279311171458
 40
0.9999999999999999
 40
0.9999999999999999
 40
0.9999999999999999
 40
0.9999999999999999
 10
185.981728027351
 20
111.970688360821
 30
0.0
 10
185.8364585529661
 20
111.970688360821
 30
0.0
 10
185.5006265345689
 20
111.970688360821
 30
0.0
 10
184.9430147315869
 20
111.970688360821
 30
0.0
 10
184.3225760408657
 20
111.970688360821
 30
0.0
 10
183.7088378338597
 20
111.970688360821
 30
0.0
 10
183.1027865760112
 20
111.970688360821
 30
0.0
 10
182.7188649335978
 20
111.970688360821
 30
0.0
 10
182.5176264122132
 20
111.970688360821
 30
0.0
  0
SPLINE
  5
A1
330
1F
100
AcDbEntity
  8
0
  6
Continuous
 62
     7
370
    15
100
AcDbSpline
210
0.0
220
0.0
230
1.0
 70
    24
 71
     3
 72
    11
 73
     7
 74
     0
 42
0.000000001
 43
0.00000001
 40
0.0
 40
0.0
 40
0.0
 40
0.0
 40
0.2164553779443454
 40
0.4403112895790567
 40
0.7519005688038769
 40
0.9999999999999999
 40
0.9999999999999999
 40
0.9999999999999999
 40
0.9999999999999999
 10
187.7137788349199
 20
114.970688360821
 30
0.0
 10
187.5951316763998
 20
114.7651854540905
 30
0.0
 10
187.3537808544936
 20
114.3471535681005
 30
0.0
 10
186.9058981898413
 20
113.5713980370932
 30
0.0
 10
186.4254636912583
 20
112.7392610758388
 30
0.0
 10
186.1180144620546
 20
112.20674339011
 30
0.0
 10
185.981728027351
 20
111.970688360821
 30
0.0
  0
SPLINE
  5
A2
330
1F
100
AcDbEntity
  8
0
  6
Continuous
 62
     7
370
    15
100
AcDbSpline
210
0.0
220
0.0
230
1.0
 70
    24
 71
     3
 72
    11
 73
     7
 74
     0
 42
0.000000001
 43
0.00000001
 40
0.0
 40
0.0
 40
0.0
 40
0.0
 40
0.2164553779443449
 40
0.4403112895790563
 40
0.7519005688038768
 40
1.0
 40
1.0
 40
1.0
 40
1.0
 10
185.981728027351
 20
117.970688360821
 30
0.0
 10
186.1003751858711
 20
117.7651854540905
 30
0.0
 10
186.3417260077773
 20
117.3471535681005
 30
0.0
 10
186.7896086724296
 20
116.5713980370932
 30
0.0
 10
187.2700431710126
 20
115.7392610758388
 30
0.0
 10
187.5774924002163
 20
115.2067433901101
 30
0.0
 10
187.7137788349199
 20
114.970688360821
 30
0.0
  0
SPLINE
  5
A3
330
1F
100
AcDbEntity
  8
0
  6
Continuous
 62
     7
370
    15
100
AcDbSpline
210
0.0
220
0.0
230
1.0
 70
    24
 71
     3
 72
    13
 73
     9
 74
     0
 42
0.000000001
 43
0.00000001
 40
0.0
 40
0.0
 40
0.0
 40
0.0
 40
0.1838720688828538
 40
0.3507900286376041
 40
0.5173821021098041
 40
0.6918206092563466
 40
0.8666921089798383
 40
1.0
 40
1.0
 40
1.0
 40
1.0
 10
182.5176264122132
 20
117.970688360821
 30
0.0
 10
182.7188649335978
 20
117.970688360821
 30
0.0
 10
183.1027865760112
 20
117.970688360821
 30
0.0
 10
183.7088378338597
 20
117.970688360821
 30
0.0
 10
184.3225760408657
 20
117.970688360821
 30
0.0
 10
184.9430147315869
 20
117.970688360821
 30
0.0
 10
185.5006265345688
 20
117.970688360821
 30
0.0
 10
185.8364585529661
 20
117.970688360821
 30
0.0
 10
185.981728027351
 20
117.970688360821
 30
0.0
  0
SPLINE
  5
A4
330
1F
100
AcDbEntity
  8
0
  6
Continuous
 62
     7
370
    15
100
AcDbSpline
210
0.0
220
0.0
230
1.0
 70
    24
 71
     3
 72
    11
 73
     7
 74
     0
 42
0.000000001
 43
0.00000001
 40
0.0
 40
0.0
 40
0.0
 40
0.0
 40
0.2164553779443448
 40
0.4403112895790571
 40
0.7519005688038776
 40
1.0
 40
1.0
 40
1.0
 40
1.0
 10
182.5176264122132
 20
111.970688360821
 30
0.0
 10
182.3989792536932
 20
112.1761912675515
 30
0.0
 10
182.157628431787
 20
112.5942231535414
 30
0.0
 10
181.7097457671346
 20
113.3699786845487
 30
0.0
 10
181.2293112685517
 20
114.2021156458032
 30
0.0
 10
180.921862039348
 20
114.7346333315319
 30
0.0
 10
180.7855756046444
 20
114.970688360821
 30
0.0
  0
CIRCLE
  5
A5
330
1F
100
AcDbEntity
  8
0
  6
Continuous
 62
     7
370
    15
100
AcDbCircle
 10
184.2496772198
 20
114.9706883608
 30
0.0
 40
3.5
  0
SPLINE
  5
A6
330
1F
100
AcDbEntity
  8
0
  6
Continuous
 62
     7
370
    15
100
AcDbSpline
210
0.0
220
0.0
230
1.0
 70
    24
 71
     3
 72
    11
 73
     7
 74
     0
 42
0.000000001
 43
0.00000001
 40
0.0
 40
0.0
 40
0.0
 40
0.0
 40
0.2164553779443452
 40
0.4403112895790577
 40
0.7519005688038782
 40
1.0
 40
1.0
 40
1.0
 40
1.0
 10
180.7855756046444
 20
114.970688360821
 30
0.0
 10
180.9042227631645
 20
115.1761912675515
 30
0.0
 10
181.1455735850706
 20
115.5942231535414
 30
0.0
 10
181.593456249723
 20
116.3699786845487
 30
0.0
 10
182.0738907483059
 20
117.2021156458032
 30
0.0
 10
182.3813399775096
 20
117.7346333315319
 30
0.0
 10
182.5176264122132
 20
117.970688360821
 30
0.0
  0
CIRCLE
  5
A7
330
1F
100
AcDbEntity
  8
0
  6
Continuous
 62
     7
370
    15
100
AcDbCircle
 10
184.2496772198
 20
114.9706883608
 30
0.0
 40
5.5
  0
CIRCLE
  5
A8
330
1F
100
AcDbEntity
  8
0
  6
Continuous
 62
     7
370
    15
100
AcDbCircle
 10
184.2496772198
 20
114.9706883608
 30
0.0
 40
6.0
  0
ARC
  5
A9
330
1F
100
AcDbEntity
  8
0
  6
Continuous
 62
     7
370
    15
100
AcDbCircle
 10
184.2496772198
 20
114.9706883608
 30
0.0
 40
2.999999999999976
100
AcDbArc
 50
330.0
 51
30.0
  0
ARC
  5
AA
330
1F
100
AcDbEntity
  8
0
  6
Continuous
 62
     7
370
    15
100
AcDbCircle
 10
184.2496772198
 20
114.9706883608
 30
0.0
 40
3.0
100
AcDbArc
 50
30.0
 51
90.0
  0
ARC
  5
AB
330
1F
100
AcDbEntity
  8
0
  6
Continuous
 62
     7
370
    15
100
AcDbCircle
 10
184.2496772198
 20
114.9706883608
 30
0.0
 40
3.000000000000025
100
AcDbArc
 50
90.0
 51
150.0
  0
ARC
  5
AC
330
1F
100
AcDbEntity
  8
0
  6
Continuous
 62
     7
370
    15
100
AcDbCircle
 10
184.2496772198
 20
114.9706883608
 30
0.0
 40
3.000000000000025
100
AcDbArc
 50
210.0
 51
270.0
  0
ARC
  5
AD
330
1F
100
AcDbEntity
  8
0
  6
Continuous
 62
     7
370
    15
100
AcDbCircle
 10
184.2496772198
 20
114.9706883608
 30
0.0
 40
3.0
100
AcDbArc
 50
270.0
 51
330.0
  0
ARC
  5
AE
330
1F
100
AcDbEntity
  8
0
  6
Continuous
 62
     7
370
    15
100
AcDbCircle
 10
184.2496772198
 20
114.9706883608
 30
0.0
 40
3.000000000000025
100
AcDbArc
 50
150.0
 51
210.0
  0
LINE
  5
AF
330
1F
100
AcDbEntity
  8
0
  6
Continuous
 62
     7
370
    15
100
AcDbLine
 10
198.7996772198
 20
87.9706883608
 30
0.0
 11
198.7996772198
 21
141.9706883608
 31
0.0
  0
LINE
  5
B0
330
1F
100
AcDbEntity
  8
0
  6
Continuous
 62
     7
370
    15
100
AcDbLine
 10
198.2996772198
 20
87.4706883608
 30
0.0
 11
198.2996772198
 21
142.4706883608
 31
0.0
  0
SPLINE
  5
B1
330
1F
100
AcDbEntity
  8
0
  6
Continuous
 62
     7
370
    15
100
AcDbSpline
210
0.0
220
0.0
230
1.0
 70
     8
 71
     3
 72
    48
 73
    44
 74
     0
 42
0.000000001
 43
0.00000001
 40
0.0
 40
0.0
 40
0.0
 40
0.0
 40
0.0312499999999996
 40
0.0312499999999996
 40
0.0624999999999992
 40
0.0624999999999992
 40
0.1249999999999984
 40
0.1249999999999984
 40
0.1562499999999982
 40
0.1562499999999982
 40
0.187499999999998
 40
0.187499999999998
 40
0.2187499999999978
 40
0.2187499999999978
 40
0.2499999999999976
 40
0.2499999999999976
 40
0.3124999999999971
 40
0.3124999999999971
 40
0.3437499999999973
 40
0.3437499999999973
 40
0.3749999999999974
 40
0.3749999999999974
 40
0.4374999999999979
 40
0.4374999999999979
 40
0.4999999999999982
 40
0.4999999999999982
 40
0.5624999999999986
 40
0.5624999999999986
 40
0.6249999999999989
 40
0.6249999999999989
 40
0.6874999999999992
 40
0.6874999999999992
 40
0.7499999999999996
 40
0.7499999999999996
 40
0.8125
 40
0.8125
 40
0.8750000000000003
 40
0.8750000000000003
 40
0.9062500000000002
 40
0.9062500000000002
 40
0.9375000000000002
 40
0.9375000000000002
 40
1.0
 40
1.0
 40
1.0
 40
1.0
 10
191.4996772197821
 20
114.970688360821
 30
0.0
 10
191.4996772197821
 20
114.7463905017241
 30
0.0
 10
191.4865591529574
 20
114.5222498601637
 30
0.0
 10
191.4337797172911
 20
114.0742864977553
 30
0.0
 10
191.3936874216342
 20
113.8490439988058
 30
0.0
 10
191.2360812110684
 20
113.1892943453228
 30
0.0
 10
191.0820614577408
 20
112.7678327244933
 30
0.0
 10
190.7816621973427
 20
112.1614872195203
 30
0.0
 10
190.66951163381
 20
111.9634406737877
 30
0.0
 10
190.4274546074287
 20
111.5844924914807
 30
0.0
 10
190.2970328998429
 20
111.4024178134837
 30
0.0
 10
190.0182542877408
 20
111.0523097440117
 30
0.0
 10
189.8698945198547
 20
110.8842787598979
 30
0.0
 10
189.5554779808534
 20
110.5619785687757
 30
0.0
 10
189.3893154823842
 20
110.4078066340043
 30
0.0
 10
188.8745961414321
 20
109.9741369148651
 30
0.0
 10
188.5069170530341
 20
109.7198845169352
 30
0.0
 10
187.9201440383947
 20
109.3878723516347
 30
0.0
 10
187.7176755505226
 20
109.2851091137196
 30
0.0
 10
187.3070844507004
 20
109.0991727296362
 30
0.0
 10
187.098714158891
 20
109.0157404762905
 30
0.0
 10
186.4646686418133
 20
108.7929895845163
 30
0.0
 10
186.030131880269
 20
108.6809820513199
 30
0.0
 10
185.1370257910249
 20
108.5304153083811
 30
0.0
 10
184.6854170820726
 20
108.4935046908319
 30
0.0
 10
183.7885831899522
 20
108.494917740418
 30
0.0
 10
183.3407903444261
 20
108.5327841181674
 30
0.0
 10
182.4465043266153
 20
108.6861383855804
 30
0.0
 10
182.0108033135178
 20
108.7999790466169
 30
0.0
 10
181.1686026797184
 20
109.0987361622378
 30
0.0
 10
180.760899811755
 20
109.283806334391
 30
0.0
 10
179.9742353563156
 20
109.7314974155847
 30
0.0
 10
179.6078840568453
 20
109.9869559638945
 30
0.0
 10
178.9289891625813
 20
110.5618010407818
 30
0.0
 10
178.6149066526742
 20
110.8829675358273
 30
0.0
 10
178.0536550255288
 20
111.5904570016211
 30
0.0
 10
177.8139071703553
 20
111.9667579194333
 30
0.0
 10
177.5172477704983
 20
112.5663416780851
 30
0.0
 10
177.4289335986909
 20
112.7721009856147
 30
0.0
 10
177.2748195769966
 20
113.196232769236
 30
0.0
 10
177.2090096531887
 20
113.4154764929594
 30
0.0
 10
177.0524754165107
 20
114.0736833148198
 30
0.0
 10
176.9996772197821
 20
114.5188964122986
 30
0.0
 10
176.9996772197821
 20
114.970688360821
 30
0.0
  0
SPLINE
  5
B2
330
1F
100
AcDbEntity
  8
0
  6
Continuous
 62
     7
370
    15
100
AcDbSpline
210
0.0
220
0.0
230
1.0
 70
     8
 71
     3
 72
    52
 73
    48
 74
     0
 42
0.000000001
 43
0.00000001
 40
0.0
 40
0.0
 40
0.0
 40
0.0
 40
0.0312500000000001
 40
0.0312500000000001
 40
0.0625000000000002
 40
0.0625000000000002
 40
0.0937500000000002
 40
0.0937500000000002
 40
0.1250000000000003
 40
0.1250000000000003
 40
0.1875000000000004
 40
0.1875000000000004
 40
0.2500000000000006
 40
0.2500000000000006
 40
0.3125000000000007
 40
0.3125000000000007
 40
0.3750000000000008
 40
0.3750000000000008
 40
0.4375000000000009
 40
0.4375000000000009
 40
0.4687500000000014
 40
0.4687500000000014
 40
0.500000000000002
 40
0.500000000000002
 40
0.5625000000000022
 40
0.5625000000000022
 40
0.5937500000000022
 40
0.5937500000000022
 40
0.6250000000000023
 40
0.6250000000000023
 40
0.6875000000000014
 40
0.6875000000000014
 40
0.7187500000000014
 40
0.7187500000000014
 40
0.7500000000000014
 40
0.7500000000000014
 40
0.8125000000000013
 40
0.8125000000000013
 40
0.843750000000001
 40
0.843750000000001
 40
0.8750000000000007
 40
0.8750000000000007
 40
0.9375000000000003
 40
0.9375000000000003
 40
0.9687500000000002
 40
0.9687500000000002
 40
1.0
 40
1.0
 40
1.0
 40
1.0
 10
176.9996772197821
 20
114.970688360821
 30
0.0
 10
176.9996772197821
 20
115.1966279979688
 30
0.0
 10
177.0132746002901
 20
115.4256366650102
 30
0.0
 10
177.0668356871608
 20
115.8752698774215
 30
0.0
 10
177.106631814137
 20
116.0969272085816
 30
0.0
 10
177.2113477938361
 20
116.534154974576
 30
0.0
 10
177.2762699216277
 20
116.749724839335
 30
0.0
 10
177.4311652393026
 20
117.1748137129548
 30
0.0
 10
177.5214198434474
 20
117.3844845591139
 30
0.0
 10
177.8224524372347
 20
117.989766995359
 30
0.0
 10
178.0648617712133
 20
118.3672022503338
 30
0.0
 10
178.6285316748172
 20
119.0733311892899
 30
0.0
 10
178.9459766044268
 20
119.3965088825589
 30
0.0
 10
179.6388585716558
 20
119.9779154991926
 30
0.0
 10
180.0083182110004
 20
120.2314980156701
 30
0.0
 10
180.7852354282312
 20
120.6690237707872
 30
0.0
 10
181.1947113928719
 20
120.8539124838816
 30
0.0
 10
182.0485565796939
 20
121.1526234152758
 30
0.0
 10
182.4831395094742
 20
121.2632703834466
 30
0.0
 10
183.1459957499307
 20
121.3742171765112
 30
0.0
 10
183.3687902900522
 20
121.4019641821145
 30
0.0
 10
183.8181182377637
 20
121.4387582513593
 30
0.0
 10
184.045723219576
 20
121.447762833353
 30
0.0
 10
184.7235410312737
 20
121.4459107005915
 30
0.0
 10
185.1700515982605
 20
121.4069444453003
 30
0.0
 10
185.8319404103689
 20
121.2929564941243
 30
0.0
 10
186.0512493921254
 20
121.2456460506852
 30
0.0
 10
186.48715777595
 20
121.1318442273038
 30
0.0
 10
186.7045598188853
 20
121.0649922735194
 30
0.0
 10
187.3404447058598
 20
120.8387508537461
 30
0.0
 10
187.7461170012033
 20
120.6533422135447
 30
0.0
 10
188.3271364424108
 20
120.3224846383297
 30
0.0
 10
188.5161983529313
 20
120.2033496310571
 30
0.0
 10
188.8846752624876
 20
119.9464326278643
 30
0.0
 10
189.0644090261839
 20
119.8082159892839
 30
0.0
 10
189.5766387354091
 20
119.3737977224416
 30
0.0
 10
189.8865729375656
 20
119.0554544942111
 30
0.0
 10
190.3019720272319
 20
118.5322329731105
 30
0.0
 10
190.4321282034831
 20
118.3501532822113
 30
0.0
 10
190.674575940395
 20
117.969398012818
 30
0.0
 10
190.7858675660679
 20
117.7719890360247
 30
0.0
 10
191.0833419884642
 20
117.1697542710033
 30
0.0
 10
191.2363278512231
 20
116.7507831209345
 30
0.0
 10
191.3932835769511
 20
116.0941562870013
 30
0.0
 10
191.4335298707136
 20
115.8688457797197
 30
0.0
 10
191.486554683116
 20
115.419528058296
 30
0.0
 10
191.4996772197821
 20
115.1950295739086
 30
0.0
 10
191.4996772197821
 20
114.970688360821
 30
0.0
  0
LINE
  5
B3
330
1F
100
AcDbEntity
  8
0
  6
Continuous
 62
     7
370
    15
100
AcDbLine
 10
174.7996772198
 20
88.4706883608
 30
0.0
 11
174.7996772198
 21
141.470688358
 31
0.0
  0
LINE
  5
B4
330
1F
100
AcDbEntity
  8
0
  6
Continuous
 62
     7
370
    15
100
AcDbLine
 10
139.7496772198
 20
130.3206883608
 30
0.0
 11
147.4077443883
 21
130.3206883608
 31
0.0
  0
LINE
  5
B5
330
1F
100
AcDbEntity
  8
0
  6
Continuous
 62
     7
370
    15
100
AcDbLine
 10
147.4077443883
 20
90.9706883608
 30
0.0
 11
147.4077443883
 21
130.3206883608
 31
0.0
  0
LINE
  5
B6
330
1F
100
AcDbEntity
  8
0
  6
Continuous
 62
     7
370
    15
100
AcDbLine
 10
147.4077443883
 20
90.9706883608
 30
0.0
 11
145.7496772198
 21
90.9706883608
 31
0.0
  0
SPLINE
  5
B7
330
1F
100
AcDbEntity
  8
0
  6
Continuous
 62
     7
370
    15
100
AcDbSpline
210
0.0
220
0.0
230
1.0
 70
     8
 71
     3
 72
    28
 73
    24
 74
     0
 42
0.000000001
 43
0.00000001
 40
0.0
 40
0.0
 40
0.0
 40
0.0
 40
0.1249999999999999
 40
0.1249999999999999
 40
0.1874999999999998
 40
0.1874999999999998
 40
0.2499999999999998
 40
0.2499999999999998
 40
0.3749999999999997
 40
0.3749999999999997
 40
0.4374999999999996
 40
0.4374999999999996
 40
0.4999999999999996
 40
0.4999999999999996
 40
0.6249999999999999
 40
0.6249999999999999
 40
0.75
 40
0.75
 40
0.8125000000000001
 40
0.8125000000000001
 40
0.8750000000000001
 40
0.8750000000000001
 40
1.0
 40
1.0
 40
1.0
 40
1.0
 10
145.7496772197821
 20
90.97068836082097
 30
0.0
 10
145.3508909466554
 20
90.97068836082097
 30
0.0
 10
144.9591884044865
 20
90.95911049835861
 30
0.0
 10
144.3817302084896
 20
90.9260673905652
 30
0.0
 10
144.1909387986737
 20
90.91243706277734
 30
0.0
 10
143.8127992136131
 20
90.88020104513993
 30
0.0
 10
143.6254650716411
 20
90.86155916464378
 30
0.0
 10
143.0811479111592
 20
90.8001586770602
 30
0.0
 10
142.7372968025211
 20
90.75160429309037
 30
0.0
 10
142.249334118381
 20
90.67104831652598
 30
0.0
 10
142.0905462875528
 20
90.64274455403063
 30
0.0
 10
141.7874164830473
 20
90.58508574647693
 30
0.0
 10
141.6430121312117
 20
90.55574939289913
 30
0.0
 10
141.2306018501659
 20
90.46726193206727
 30
0.0
 10
140.9831857565773
 20
90.40763018511986
 30
0.0
 10
140.5449798194598
 20
90.29231393024862
 30
0.0
 10
140.360329518252
 20
90.23825698847587
 30
0.0
 10
140.1355784716927
 20
90.16623189498094
 30
0.0
 10
140.0692813796537
 20
90.14369026978387
 30
0.0
 10
139.9543477496993
 20
90.10201941343192
 30
0.0
 10
139.9055733755028
 20
90.08281960294521
 30
0.0
 10
139.7889649916
 20
90.03191646892569
 30
0.0
 10
139.7496772197821
 20
90.00664487327265
 30
0.0
 10
139.7496772197821
 20
89.9906963672274
 30
0.0
  0
LINE
  5
B8
330
1F
100
AcDbEntity
  8
0
  6
Continuous
 62
     7
370
    15
100
AcDbLine
 10
139.7496772198
 20
89.9906963672
 30
0.0
 11
139.7496772198
 21
89.9706883608
 31
0.0
  0
SPLINE
  5
B9
330
1F
100
AcDbEntity
  8
0
  6
Continuous
 62
     7
370
    15
100
AcDbSpline
210
0.0
220
0.0
230
1.0
 70
     8
 71
     3
 72
    17
 73
    13
 74
     0
 42
0.000000001
 43
0.00000001
 40
0.0
 40
0.0
 40
0.0
 40
0.0
 40
0.1037351088284877
 40
0.2105350252577494
 40
0.3142546101764768
 40
0.4208808836821488
 40
0.5264907424787555
 40
0.6350831601676893
 40
0.7419458441960668
 40
0.8520203430034949
 40
0.9568577721678186
 40
1.0
 40
1.0
 40
1.0
 40
1.0
 10
145.7496772197821
 20
139.2400105598442
 30
0.0
 10
145.422583986045
 20
139.2438729535324
 30
0.0
 10
144.7587336946231
 20
139.2517118536107
 30
0.0
 10
143.7961096934088
 20
139.3129517750195
 30
0.0
 10
142.8810565674195
 20
139.4036809820315
 30
0.0
 10
142.0491343229239
 20
139.5164224922669
 30
0.0
 10
141.3079060804379
 20
139.6400814529313
 30
0.0
 10
140.6906353331624
 20
139.7597368713392
 30
0.0
 10
140.2057608271128
 20
139.8641703861273
 30
0.0
 10
139.8948472615484
 20
139.9358973063363
 30
0.0
 10
139.7473310253837
 20
139.9712469520349
 30
0.0
 10
139.7652949471268
 20
139.9669465140579
 30
0.0
 10
139.7705321778403
 20
139.9656927574352
 30
0.0
  0
LINE
  5
BA
330
1F
100
AcDbEntity
  8
0
  6
Continuous
 62
     7
370
    15
100
AcDbLine
 10
147.4077443883
 20
139.2400105598
 30
0.0
 11
145.7496772198
 21
139.2400105598
 31
0.0
  0
LINE
  5
BB
330
1F
100
AcDbEntity
  8
0
  6
Continuous
 62
     7
370
    15
100
AcDbLine
 10
147.4077443883
 20
134.7033389684
 30
0.0
 11
147.4077443883
 21
139.2400105598
 31
0.0
  0
LINE
  5
BC
330
1F
100
AcDbEntity
  8
0
  6
Continuous
 62
     7
370
    15
100
AcDbLine
 10
145.5275817658
 20
134.7033389684
 30
0.0
 11
147.4077443883
 21
134.7033389684
 31
0.0
  0
SPLINE
  5
BD
330
1F
100
AcDbEntity
  8
0
  6
Continuous
 62
     7
370
    15
100
AcDbSpline
210
0.0
220
0.0
230
1.0
 70
     8
 71
     3
 72
    20
 73
    16
 74
     0
 42
0.000000001
 43
0.00000001
 40
0.0
 40
0.0
 40
0.0
 40
0.0
 40
0.2499999999999988
 40
0.2499999999999988
 40
0.3749999999999988
 40
0.3749999999999988
 40
0.4999999999999989
 40
0.4999999999999989
 40
0.6249999999999989
 40
0.6249999999999989
 40
0.749999999999999
 40
0.749999999999999
 40
0.8749999999999994
 40
0.8749999999999994
 40
1.0
 40
1.0
 40
1.0
 40
1.0
 10
139.7496772197821
 20
130.320688360821
 30
0.0
 10
139.8807753001684
 20
130.9227485240425
 30
0.0
 10
140.0756674090402
 20
131.4856241940066
 30
0.0
 10
140.5060579135877
 20
132.2675312357846
 30
0.0
 10
140.6745189119864
 20
132.5196165846075
 30
0.0
 10
141.0599715970501
 20
132.9892691265231
 30
0.0
 10
141.2765522520687
 20
133.2073012703587
 30
0.0
 10
141.7654134485297
 20
133.6088982660276
 30
0.0
 10
142.0405891285256
 20
133.7935877928758
 30
0.0
 10
142.6337848573829
 20
134.1127765869094
 30
0.0
 10
142.9531984925236
 20
134.2492172060669
 30
0.0
 10
143.6439694706696
 20
134.4741394436567
 30
0.0
 10
144.0057451143662
 20
134.5591555955467
 30
0.0
 10
144.7495586386235
 20
134.6734667616275
 30
0.0
 10
145.137450792222
 20
134.70333896838
 30
0.0
 10
145.5275817657893
 20
134.70333896838
 30
0.0
  0
LINE
  5
BE
330
1F
100
AcDbEntity
  8
0
  6
Continuous
 62
     7
370
    15
100
AcDbLine
 10
148.8896772198
 20
93.6575650122
 30
0.0
 11
148.8896772198
 21
130.3206883608
 31
0.0
  0
SPLINE
  5
BF
330
1F
100
AcDbEntity
  8
0
  6
Continuous
 62
     7
370
    15
100
AcDbSpline
210
0.0
220
0.0
230
1.0
 70
     8
 71
     3
 72
     8
 73
     4
 74
     0
 42
0.000000001
 43
0.00000001
 40
0.0
 40
0.0
 40
0.0
 40
0.0
 40
1.0
 40
1.0
 40
1.0
 40
1.0
 10
148.8896772197821
 20
93.6575650121899
 30
0.0
 10
148.3977783314729
 20
92.76079530749955
 30
0.0
 10
147.9035785459479
 20
91.86528206205674
 30
0.0
 10
147.4077443882931
 20
90.97068836082097
 30
0.0
  0
SPLINE
  5
C0
330
1F
100
AcDbEntity
  8
0
  6
Continuous
 62
     7
370
    15
100
AcDbSpline
210
0.0
220
0.0
230
1.0
 70
    24
 71
     3
 72
     8
 73
     4
 74
     0
 42
0.000000001
 43
0.00000001
 40
0.0
 40
0.0
 40
0.0
 40
0.0
 40
1.0
 40
1.0
 40
1.0
 40
1.0
 10
147.4077443882931
 20
130.320688360821
 30
0.0
 10
147.9169207989659
 20
130.320688360821
 30
0.0
 10
148.4128929285262
 20
130.320688360821
 30
0.0
 10
148.8896772197821
 20
130.320688360821
 30
0.0
  0
LINE
  5
C1
330
1F
100
AcDbEntity
  8
0
  6
Continuous
 62
     7
370
    15
100
AcDbLine
 10
158.7496772198
 20
91.5963434502
 30
0.0
 11
158.7496772198
 21
130.3206883608
 31
0.0
  0
SPLINE
  5
C2
330
1F
100
AcDbEntity
  8
0
  6
Continuous
 62
     7
370
    15
100
AcDbSpline
210
0.0
220
0.0
230
1.0
 70
     8
 71
     3
 72
    10
 73
     6
 74
     0
 42
0.000000001
 43
0.00000001
 40
0.0
 40
0.0
 40
0.0
 40
0.0
 40
0.5
 40
0.5
 40
1.0
 40
1.0
 40
1.0
 40
1.0
 10
158.7496772197821
 20
91.59634345021439
 30
0.0
 10
158.7496772197821
 20
91.43649252355402
 30
0.0
 10
158.6878825237329
 20
91.27514494718132
 30
0.0
 10
158.4692566093414
 20
91.04221318230204
 30
0.0
 10
158.3113470446276
 20
90.97068836082097
 30
0.0
 10
158.1496772197821
 20
90.97068836082097
 30
0.0
  0
SPLINE
  5
C3
330
1F
100
AcDbEntity
  8
0
  6
Continuous
 62
     7
370
    15
100
AcDbSpline
210
0.0
220
0.0
230
1.0
 70
    24
 71
     3
 72
    12
 73
     8
 74
     0
 42
0.000000001
 43
0.00000001
 40
0.0
 40
0.0
 40
0.0
 40
0.0
 40
0.250000000000002
 40
0.250000000000002
 40
0.500000000000004
 40
0.500000000000004
 40
1.0
 40
1.0
 40
1.0
 40
1.0
 10
158.1496772197821
 20
130.320688360821
 30
0.0
 10
158.2394811576649
 20
130.320688360821
 30
0.0
 10
158.3283597477605
 20
130.320688360821
 30
0.0
 10
158.4831110846228
 20
130.320688360821
 30
0.0
 10
158.5485946875254
 20
130.320688360821
 30
0.0
 10
158.70142572269
 20
130.320688360821
 30
0.0
 10
158.7496772197821
 20
130.320688360821
 30
0.0
 10
158.7496772197821
 20
130.320688360821
 30
0.0
  0
LINE
  5
C4
330
1F
100
AcDbEntity
  8
0
  6
Continuous
 62
     7
370
    15
100
AcDbLine
 10
154.1916100513
 20
90.9706883608
 30
0.0
 11
154.1916100513
 21
130.3206883608
 31
0.0
  0
SPLINE
  5
C5
330
1F
100
AcDbEntity
  8
0
  6
Continuous
 62
     7
370
    15
100
AcDbSpline
210
0.0
220
0.0
230
1.0
 70
     8
 71
     3
 72
     8
 73
     4
 74
     0
 42
0.000000001
 43
0.00000001
 40
0.0
 40
0.0
 40
0.0
 40
0.0
 40
1.0
 40
1.0
 40
1.0
 40
1.0
 10
154.1916100512712
 20
90.97068836082097
 30
0.0
 10
153.6957758936163
 20
91.86528206205674
 30
0.0
 10
153.2015761080914
 20
92.76079530749955
 30
0.0
 10
152.7096772197821
 20
93.6575650121899
 30
0.0
  0
LINE
  5
C6
330
1F
100
AcDbEntity
  8
0
  6
Continuous
 62
     7
370
    15
100
AcDbLine
 10
152.7096772198
 20
93.6575650122
 30
0.0
 11
152.7096772198
 21
130.3206883608
 31
0.0
  0
SPLINE
  5
C7
330
1F
100
AcDbEntity
  8
0
  6
Continuous
 62
     7
370
    15
100
AcDbSpline
210
0.0
220
0.0
230
1.0
 70
    24
 71
     3
 72
     8
 73
     4
 74
     0
 42
0.000000001
 43
0.00000001
 40
0.0
 40
0.0
 40
0.0
 40
0.0
 40
1.0
 40
1.0
 40
1.0
 40
1.0
 10
152.7096772197821
 20
130.320688360821
 30
0.0
 10
153.1864615110379
 20
130.320688360821
 30
0.0
 10
153.6824336405982
 20
130.320688360821
 30
0.0
 10
154.1916100512712
 20
130.320688360821
 30
0.0
  0
LINE
  5
C8
330
1F
100
AcDbEntity
  8
0
  6
Continuous
 62
     7
370
    15
100
AcDbLine
 10
158.1496772198
 20
90.9706883608
 30
0.0
 11
154.1916100513
 21
90.9706883608
 31
0.0
  0
LINE
  5
C9
330
1F
100
AcDbEntity
  8
0
  6
Continuous
 62
     7
370
    15
100
AcDbLine
 10
154.1916100513
 20
130.3206883608
 30
0.0
 11
158.1496772198
 21
130.3206883608
 31
0.0
  0
LINE
  5
CA
330
1F
100
AcDbEntity
  8
0
  6
Continuous
 62
     7
370
    15
100
AcDbLine
 10
132.7996772198
 20
90.2706883608
 30
0.0
 11
132.7996772198
 21
139.6706883608
 31
0.0
  0
SPLINE
  5
CB
330
1F
100
AcDbEntity
  8
0
  6
Continuous
 62
     7
370
    15
100
AcDbSpline
210
0.0
220
0.0
230
1.0
 70
     8
 71
     3
 72
    10
 73
     6
 74
     0
 42
0.000000001
 43
0.00000001
 40
0.0
 40
0.0
 40
0.0
 40
0.0
 40
0.5
 40
0.5
 40
1.0
 40
1.0
 40
1.0
 40
1.0
 10
152.7096772197821
 20
93.82416086810956
 30
0.0
 10
152.7096772197821
 20
93.86588476333048
 30
0.0
 10
152.7067102331277
 20
93.90784248695697
 30
0.0
 10
152.6949562777704
 20
93.99046541477327
 30
0.0
 10
152.6862337819615
 20
94.03097180795261
 30
0.0
 10
152.6747195998502
 20
94.0706883608205
 30
0.0
  0
SPLINE
  5
CC
330
1F
100
AcDbEntity
  8
0
  6
Continuous
 62
     7
370
    15
100
AcDbSpline
210
0.0
220
0.0
230
1.0
 70
    24
 71
     3
 72
    16
 73
    12
 74
     0
 42
0.000000001
 43
0.00000001
 40
0.0
 40
0.0
 40
0.0
 40
0.0
 40
0.4999999999999991
 40
0.4999999999999991
 40
0.7499999999999987
 40
0.7499999999999987
 40
0.8749999999999984
 40
0.8749999999999984
 40
0.9374999999999992
 40
0.9374999999999992
 40
1.0
 40
1.0
 40
1.0
 40
1.0
 10
152.6747195998502
 20
94.07068836082098
 30
0.0
 10
152.6378719984351
 20
94.07068836082098
 30
0.0
 10
152.5759252778385
 20
94.07068836082098
 30
0.0
 10
152.4279297668044
 20
94.07068836082098
 30
0.0
 10
152.3696618514003
 20
94.070688360821
 30
0.0
 10
152.2492681394809
 20
94.07068836082098
 30
0.0
 10
152.2044779408213
 20
94.070688360821
 30
0.0
 10
152.1160664671413
 20
94.07068836082098
 30
0.0
 10
152.0832372209784
 20
94.07068836082098
 30
0.0
 10
152.0046896359489
 20
94.07068836082098
 30
0.0
 10
151.9585835312882
 20
94.07068836082098
 30
0.0
 10
151.9096772197822
 20
94.07068836082098
 30
0.0
  0
SPLINE
  5
CD
330
1F
100
AcDbEntity
  8
0
  6
Continuous
 62
     7
370
    15
100
AcDbSpline
210
0.0
220
0.0
230
1.0
 70
    24
 71
     3
 72
    14
 73
    10
 74
     0
 42
0.000000001
 43
0.00000001
 40
0.0
 40
0.0
 40
0.0
 40
0.0
 40
0.4999999999999984
 40
0.4999999999999984
 40
0.7499999999999992
 40
0.7499999999999992
 40
0.8749999999999996
 40
0.8749999999999996
 40
1.0
 40
1.0
 40
1.0
 40
1.0
 10
152.5082134814733
 20
135.870688360821
 30
0.0
 10
152.4576876278025
 20
135.870688360821
 30
0.0
 10
152.3972049874495
 20
135.870688360821
 30
0.0
 10
152.2718046305069
 20
135.870688360821
 30
0.0
 10
152.2246140657873
 20
135.870688360821
 30
0.0
 10
152.1319425235037
 20
135.870688360821
 30
0.0
 10
152.0970417564317
 20
135.870688360821
 30
0.0
 10
152.0137409824933
 20
135.870688360821
 30
0.0
 10
151.9640814721147
 20
135.870688360821
 30
0.0
 10
151.9096772197821
 20
135.870688360821
 30
0.0
  0
SPLINE
  5
CE
330
1F
100
AcDbEntity
  8
0
  6
Continuous
 62
     7
370
    15
100
AcDbSpline
210
0.0
220
0.0
230
1.0
 70
     8
 71
     3
 72
    10
 73
     6
 74
     0
 42
0.000000001
 43
0.00000001
 40
0.0
 40
0.0
 40
0.0
 40
0.0
 40
0.5
 40
0.5
 40
1.0
 40
1.0
 40
1.0
 40
1.0
 10
152.7096772197821
 20
136.4223928385542
 30
0.0
 10
152.7096772197821
 20
136.3224702010522
 30
0.0
 10
152.6921830458647
 20
136.2225298864923
 30
0.0
 10
152.6238358121043
 20
136.0345681370882
 30
0.0
 10
152.5731613371259
 20
135.9468817012857
 30
0.0
 10
152.5082134814733
 20
135.870688360821
 30
0.0
  0
SPLINE
  5
CF
330
1F
100
AcDbEntity
  8
0
  6
Continuous
 62
     7
370
    15
100
AcDbSpline
210
0.0
220
0.0
230
1.0
 70
     8
 71
     3
 72
    10
 73
     6
 74
     0
 42
0.000000001
 43
0.00000001
 40
0.0
 40
0.0
 40
0.0
 40
0.0
 40
0.500000000000003
 40
0.500000000000003
 40
1.0
 40
1.0
 40
1.0
 40
1.0
 10
152.4742239646343
 20
130.320688360821
 30
0.0
 10
152.5551666683219
 20
130.4346991767937
 30
0.0
 10
152.6136945602854
 20
130.5648064578946
 30
0.0
 10
152.690584405118
 20
130.8325730391995
 30
0.0
 10
152.7096772197821
 20
130.9725344373059
 30
0.0
 10
152.7096772197821
 20
131.1123464231143
 30
0.0
  0
SPLINE
  5
D0
330
1F
100
AcDbEntity
  8
0
  6
Continuous
 62
     7
370
    15
100
AcDbSpline
210
0.0
220
0.0
230
1.0
 70
    24
 71
     3
 72
    10
 73
     6
 74
     0
 42
0.000000001
 43
0.00000001
 40
0.0
 40
0.0
 40
0.0
 40
0.0
 40
0.500000000000003
 40
0.500000000000003
 40
1.0
 40
1.0
 40
1.0
 40
1.0
 10
152.4742239646344
 20
130.320688360821
 30
0.0
 10
152.5548371996335
 20
130.320688360821
 30
0.0
 10
152.6137504523232
 20
130.320688360821
 30
0.0
 10
152.6906044657701
 20
130.320688360821
 30
0.0
 10
152.7096772197821
 20
130.320688360821
 30
0.0
 10
152.7096772197821
 20
130.320688360821
 30
0.0
  0
SPLINE
  5
D1
330
1F
100
AcDbEntity
  8
0
  6
Continuous
 62
     7
370
    15
100
AcDbSpline
210
0.0
220
0.0
230
1.0
 70
     8
 71
     3
 72
    10
 73
     6
 74
     0
 42
0.000000001
 43
0.00000001
 40
0.0
 40
0.0
 40
0.0
 40
0.0
 40
0.5
 40
0.5
 40
1.0
 40
1.0
 40
1.0
 40
1.0
 10
149.0911409580897
 20
135.8706883608223
 30
0.0
 10
149.0262532892935
 20
135.9468110932959
 30
0.0
 10
148.9753709344935
 20
136.0349360893755
 30
0.0
 10
148.9072426931021
 20
136.2223720670404
 30
0.0
 10
148.8896772197821
 20
136.3228442966225
 30
0.0
 10
148.8896772197821
 20
136.4223928385542
 30
0.0
  0
SPLINE
  5
D2
330
1F
100
AcDbEntity
  8
0
  6
Continuous
 62
     7
370
    15
100
AcDbSpline
210
0.0
220
0.0
230
1.0
 70
    24
 71
     3
 72
    14
 73
    10
 74
     0
 42
0.000000001
 43
0.00000001
 40
0.0
 40
0.0
 40
0.0
 40
0.0
 40
0.1249999999999972
 40
0.1249999999999972
 40
0.2499999999999944
 40
0.2499999999999944
 40
0.4999999999999952
 40
0.4999999999999952
 40
1.0
 40
1.0
 40
1.0
 40
1.0
 10
149.6896772197821
 20
135.870688360821
 30
0.0
 10
149.6357180867258
 20
135.870688360821
 30
0.0
 10
149.5849083964446
 20
135.870688360821
 30
0.0
 10
149.5010200338331
 20
135.870688360821
 30
0.0
 10
149.4663888690621
 20
135.870688360821
 30
0.0
 10
149.3735335357527
 20
135.870688360821
 30
0.0
 10
149.3263765046165
 20
135.870688360821
 30
0.0
 10
149.2019045816534
 20
135.870688360821
 30
0.0
 10
149.141385115734
 20
135.870688360821
 30
0.0
 10
149.0911409580908
 20
135.870688360821
 30
0.0
  0
SPLINE
  5
D3
330
1F
100
AcDbEntity
  8
0
  6
Continuous
 62
     7
370
    15
100
AcDbSpline
210
0.0
220
0.0
230
1.0
 70
    24
 71
     3
 72
    16
 73
    12
 74
     0
 42
0.000000001
 43
0.00000001
 40
0.0
 40
0.0
 40
0.0
 40
0.0
 40
0.0624999999999985
 40
0.0624999999999985
 40
0.124999999999997
 40
0.124999999999997
 40
0.2499999999999968
 40
0.2499999999999968
 40
0.4999999999999983
 40
0.4999999999999983
 40
1.0
 40
1.0
 40
1.0
 40
1.0
 10
149.6896772197821
 20
94.07068836082098
 30
0.0
 10
149.6416971890145
 20
94.070688360821
 30
0.0
 10
149.5946074802423
 20
94.07068836082098
 30
0.0
 10
149.5171340689376
 20
94.070688360821
 30
0.0
 10
149.4839694673978
 20
94.070688360821
 30
0.0
 10
149.3956201423817
 20
94.07068836082098
 30
0.0
 10
149.3508914498925
 20
94.07068836082098
 30
0.0
 10
149.2306540752893
 20
94.070688360821
 30
0.0
 10
149.1722569664423
 20
94.07068836082098
 30
0.0
 10
149.0238943306675
 20
94.07068836082098
 30
0.0
 10
148.9615234447537
 20
94.07068836082098
 30
0.0
 10
148.9246348397142
 20
94.07068836082098
 30
0.0
  0
SPLINE
  5
D4
330
1F
100
AcDbEntity
  8
0
  6
Continuous
 62
     7
370
    15
100
AcDbSpline
210
0.0
220
0.0
230
1.0
 70
     8
 71
     3
 72
    10
 73
     6
 74
     0
 42
0.000000001
 43
0.00000001
 40
0.0
 40
0.0
 40
0.0
 40
0.0
 40
0.5
 40
0.5
 40
1.0
 40
1.0
 40
1.0
 40
1.0
 10
148.9246348397142
 20
94.07068836082098
 30
0.0
 10
148.9130064618095
 20
94.03057790561441
 30
0.0
 10
148.9042810188971
 20
93.98985383449576
 30
0.0
 10
148.892581970531
 20
93.90718988170902
 30
0.0
 10
148.8896772197821
 20
93.86547717991618
 30
0.0
 10
148.8896772197821
 20
93.82416086811062
 30
0.0
  0
SPLINE
  5
D5
330
1F
100
AcDbEntity
  8
0
  6
Continuous
 62
     7
370
    15
100
AcDbSpline
210
0.0
220
0.0
230
1.0
 70
    24
 71
     3
 72
    10
 73
     6
 74
     0
 42
0.000000001
 43
0.00000001
 40
0.0
 40
0.0
 40
0.0
 40
0.0
 40
0.500000000000003
 40
0.500000000000003
 40
1.0
 40
1.0
 40
1.0
 40
1.0
 10
148.8896772197821
 20
130.320688360821
 30
0.0
 10
148.8896772197821
 20
130.320688360821
 30
0.0
 10
148.9088585932537
 20
130.320688360821
 30
0.0
 10
148.9859517201467
 20
130.320688360821
 30
0.0
 10
149.044749795446
 20
130.320688360821
 30
0.0
 10
149.1251304749275
 20
130.320688360821
 30
0.0
  0
SPLINE
  5
D6
330
1F
100
AcDbEntity
  8
0
  6
Continuous
 62
     7
370
    15
100
AcDbSpline
210
0.0
220
0.0
230
1.0
 70
     8
 71
     3
 72
    10
 73
     6
 74
     0
 42
0.000000001
 43
0.00000001
 40
0.0
 40
0.0
 40
0.0
 40
0.0
 40
0.5
 40
0.5
 40
1.0
 40
1.0
 40
1.0
 40
1.0
 10
148.8896772197821
 20
131.1123464231143
 30
0.0
 10
148.8896772197821
 20
130.9718755348453
 30
0.0
 10
148.9083834814612
 20
130.833994382544
 30
0.0
 10
148.9859306578844
 20
130.5637884074945
 30
0.0
 10
149.0433277042005
 20
130.4359106132893
 30
0.0
 10
149.125130474928
 20
130.3206883608237
 30
0.0
  0
SPLINE
  5
D7
330
1F
100
AcDbEntity
  8
0
  6
Continuous
 62
     7
370
    15
100
AcDbSpline
210
0.0
220
0.0
230
1.0
 70
    24
 71
     3
 72
     9
 73
     5
 74
     0
 42
0.000000001
 43
0.00000001
 40
0.0
 40
0.0
 40
0.0
 40
0.0
 40
0.9316755639619528
 40
1.0
 40
1.0
 40
1.0
 40
1.0
 10
158.949676556051
 20
135.870688360821
 30
0.0
 10
158.9368094558222
 20
135.870688360821
 30
0.0
 10
158.92299874668
 20
135.870688360821
 30
0.0
 10
158.8806223954295
 20
135.870688360821
 30
0.0
 10
158.877727055129
 20
135.870688360821
 30
0.0
  0
SPLINE
  5
D8
330
1F
100
AcDbEntity
  8
0
  6
Continuous
 62
     7
370
    15
100
AcDbSpline
210
0.0
220
0.0
230
1.0
 70
    24
 71
     3
 72
     9
 73
     5
 74
     0
 42
0.000000001
 43
0.00000001
 40
0.0
 40
0.0
 40
0.0
 40
0.0
 40
0.9316372761015015
 40
1.0
 40
1.0
 40
1.0
 40
1.0
 10
158.9496765504041
 20
94.07068836082098
 30
0.0
 10
158.9368091116582
 20
94.07068836082098
 30
0.0
 10
158.9229974715747
 20
94.07068836082098
 30
0.0
 10
158.8806190179541
 20
94.07068836082098
 30
0.0
 10
158.87772191143
 20
94.07068836082098
 30
0.0
  0
LINE
  5
D9
330
1F
100
AcDbEntity
  8
0
  6
Continuous
 62
     7
370
    15
100
AcDbLine
 10
151.9096772198
 20
135.8706883608
 30
0.0
 11
149.6896772198
 21
135.8706883608
 31
0.0
  0
LINE
  5
DA
330
1F
100
AcDbEntity
  8
0
  6
Continuous
 62
     7
370
    15
100
AcDbLine
 10
151.9096772198
 20
94.0706883608
 30
0.0
 11
149.6896772198
 21
94.0706883608
 31
0.0
  0
LINE
  5
DB
330
1F
100
AcDbEntity
  8
0
  6
Continuous
 62
     7
370
    15
100
AcDbLine
 10
115.4996772198
 20
96.5824208258
 30
0.0
 11
115.4996772198
 21
97.6322618525
 31
0.0
  0
SPLINE
  5
DC
330
1F
100
AcDbEntity
  8
0
  6
Continuous
 62
     7
370
    15
100
AcDbSpline
210
0.0
220
0.0
230
1.0
 70
     8
 71
     3
 72
    14
 73
    10
 74
     0
 42
0.000000001
 43
0.00000001
 40
0.0
 40
0.0
 40
0.0
 40
0.0
 40
0.25
 40
0.25
 40
0.5
 40
0.5
 40
0.75
 40
0.75
 40
1.0
 40
1.0
 40
1.0
 40
1.0
 10
114.7239141567363
 20
98.71620481215382
 30
0.0
 10
114.7889499973429
 20
98.61159776959285
 30
0.0
 10
114.8855489350145
 20
98.51330684855233
 30
0.0
 10
115.0690652343674
 20
98.32281068850172
 30
0.0
 10
115.1590168529136
 20
98.23059125615832
 30
0.0
 10
115.3140373231983
 20
98.05047875867231
 30
0.0
 10
115.3796867132493
 20
97.9626525464184
 30
0.0
 10
115.4729327575349
 20
97.79125206897663
 30
0.0
 10
115.4996772197821
 20
97.70909547772197
 30
0.0
 10
115.4996772197821
 20
97.63226185247484
 30
0.0
  0
SPLINE
  5
DD
330
1F
100
AcDbEntity
  8
0
  6
Continuous
 62
     7
370
    15
100
AcDbSpline
210
0.0
220
0.0
230
1.0
 70
     8
 71
     3
 72
    14
 73
    10
 74
     0
 42
0.000000001
 43
0.00000001
 40
0.0
 40
0.0
 40
0.0
 40
0.0
 40
0.1249999999999989
 40
0.1249999999999989
 40
0.2499999999999979
 40
0.2499999999999979
 40
0.4999999999999958
 40
0.4999999999999958
 40
1.0
 40
1.0
 40
1.0
 40
1.0
 10
114.0996772197821
 20
99.10800885567028
 30
0.0
 10
114.1433214937419
 20
99.11231217005457
 30
0.0
 10
114.1895987448184
 20
99.11050358035095
 30
0.0
 10
114.276223587711
 20
99.09521564319382
 30
0.0
 10
114.3161564753872
 20
99.08222779720423
 30
0.0
 10
114.422367749231
 20
99.03625530259423
 30
0.0
 10
114.4761547916149
 20
98.99756964117942
 30
0.0
 10
114.6135263184243
 20
98.87948105067676
 30
0.0
 10
114.6733895525273
 20
98.79747122423558
 30
0.0
 10
114.723914156736
 20
98.71620481215382
 30
0.0
  0
SPLINE
  5
DE
330
1F
100
AcDbEntity
  8
0
  6
Continuous
 62
     7
370
    15
100
AcDbSpline
210
0.0
220
0.0
230
1.0
 70
     8
 71
     3
 72
     8
 73
     4
 74
     0
 42
0.000000001
 43
0.00000001
 40
0.0
 40
0.0
 40
0.0
 40
0.0
 40
1.0
 40
1.0
 40
1.0
 40
1.0
 10
111.8186102942295
 20
98.85421992335053
 30
0.0
 10
112.5696714200327
 20
98.95017965719622
 30
0.0
 10
113.332036171172
 20
99.0323196422472
 30
0.0
 10
114.0996772197821
 20
99.10800885567029
 30
0.0
  0
SPLINE
  5
DF
330
1F
100
AcDbEntity
  8
0
  6
Continuous
 62
     7
370
    15
100
AcDbSpline
210
0.0
220
0.0
230
1.0
 70
     8
 71
     3
 72
    12
 73
     8
 74
     0
 42
0.000000001
 43
0.00000001
 40
0.0
 40
0.0
 40
0.0
 40
0.0
 40
0.5000000000000019
 40
0.5000000000000019
 40
0.7500000000000009
 40
0.7500000000000009
 40
1.0
 40
1.0
 40
1.0
 40
1.0
 10
109.0496772197821
 20
98.72367654945839
 30
0.0
 10
109.517161610828
 20
98.73084232384538
 30
0.0
 10
109.9832833738389
 20
98.7412949244771
 30
0.0
 10
110.6778274029141
 20
98.76826565874151
 30
0.0
 10
110.9085688270602
 20
98.77913824724014
 30
0.0
 10
111.3670224665982
 20
98.80828311751229
 30
0.0
 10
111.5950987770721
 20
98.82566285261285
 30
0.0
 10
111.8186102942295
 20
98.85421992335053
 30
0.0
  0
SPLINE
  5
E0
330
1F
100
AcDbEntity
  8
0
  6
Continuous
 62
     7
370
    15
100
AcDbSpline
210
0.0
220
0.0
230
1.0
 70
     8
 71
     3
 72
     8
 73
     4
 74
     0
 42
0.000000001
 43
0.00000001
 40
0.0
 40
0.0
 40
0.0
 40
0.0
 40
1.0
 40
1.0
 40
1.0
 40
1.0
 10
108.9022226474016
 20
98.99278189691759
 30
0.0
 10
108.9305096996434
 20
98.89888425303614
 30
0.0
 10
108.9819552410236
 20
98.80946885884187
 30
0.0
 10
109.0496772197821
 20
98.72367654945839
 30
0.0
  0
ELLIPSE
  5
E1
330
1F
100
AcDbEntity
  8
0
  6
Continuous
 62
     7
370
    15
100
AcDbEllipse
 10
91.8722398569
 20
114.160720015
 30
0.0
 11
16.9438350180923
 21
-16.94118807703233
 31
0.0
210
0.0
220
0.0
230
1.0
 40
0.1761188775
 41
0.316870308148129
 42
0.3369746613680529
  0
ELLIPSE
  5
E2
330
1F
100
AcDbEntity
  8
0
  6
Continuous
 62
     7
370
    15
100
AcDbEllipse
 10
91.8722398569
 20
115.7806567066
 30
0.0
 11
16.94383501809232
 21
16.94118807703235
 31
0.0
210
0.0
220
0.0
230
1.0
 40
0.1761188775
 41
5.946210645811587
 42
5.966314999031528
  0
SPLINE
  5
E3
330
1F
100
AcDbEntity
  8
0
  6
Continuous
 62
     7
370
    15
100
AcDbSpline
210
0.0
220
0.0
230
1.0
 70
     8
 71
     3
 72
     8
 73
     4
 74
     0
 42
0.000000001
 43
0.00000001
 40
0.0
 40
0.0
 40
0.0
 40
0.0
 40
1.0
 40
1.0
 40
1.0
 40
1.0
 10
109.0496772197821
 20
131.2177001721836
 30
0.0
 10
108.9819552410236
 20
131.1319078628001
 30
0.0
 10
108.9305096996434
 20
131.0424924686058
 30
0.0
 10
108.9022226474016
 20
130.9485948247244
 30
0.0
  0
SPLINE
  5
E4
330
1F
100
AcDbEntity
  8
0
  6
Continuous
 62
     7
370
    15
100
AcDbSpline
210
0.0
220
0.0
230
1.0
 70
     8
 71
     3
 72
    10
 73
     6
 74
     0
 42
0.000000001
 43
0.00000001
 40
0.0
 40
0.0
 40
0.0
 40
0.0
 40
0.5
 40
0.5
 40
1.0
 40
1.0
 40
1.0
 40
1.0
 10
111.0996772197821
 20
131.1500530378509
 30
0.0
 10
110.7613831166193
 20
131.1709203551173
 30
0.0
 10
110.4204765847102
 20
131.184340715254
 30
0.0
 10
109.7365741168037
 20
131.2052608993308
 30
0.0
 10
109.3934627887361
 20
131.2124304992879
 30
0.0
 10
109.0496772197821
 20
131.2177001721836
 30
0.0
  0
SPLINE
  5
E5
330
1F
100
AcDbEntity
  8
0
  6
Continuous
 62
     7
370
    15
100
AcDbSpline
210
0.0
220
0.0
230
1.0
 70
     8
 71
     3
 72
    20
 73
    16
 74
     0
 42
0.000000001
 43
0.00000001
 40
0.0
 40
0.0
 40
0.0
 40
0.0
 40
0.1250000000000004
 40
0.1250000000000004
 40
0.2500000000000009
 40
0.2500000000000009
 40
0.5000000000000009
 40
0.5000000000000009
 40
0.7500000000000009
 40
0.7500000000000009
 40
0.8750000000000018
 40
0.8750000000000018
 40
0.9375000000000009
 40
0.9375000000000009
 40
1.0
 40
1.0
 40
1.0
 40
1.0
 10
112.4996772197821
 20
132.2172804776423
 30
0.0
 10
112.4996772197821
 20
132.1749678674022
 30
0.0
 10
112.4901617132699
 20
132.1305432819238
 30
0.0
 10
112.4550740260993
 20
132.0403168475357
 30
0.0
 10
112.429521112891
 20
131.9941770532159
 30
0.0
 10
112.3316803042716
 20
131.852878348754
 30
0.0
 10
112.2372103356839
 20
131.7539765125392
 30
0.0
 10
112.0090805342003
 20
131.557577401187
 30
0.0
 10
111.8766421059245
 20
131.4588953327799
 30
0.0
 10
111.6408148603417
 20
131.3139286476569
 30
0.0
 10
111.5559613277885
 20
131.2653201611976
 30
0.0
 10
111.4064424654405
 20
131.2010751788831
 30
0.0
 10
111.3536990189964
 20
131.1814076936986
 30
0.0
 10
111.2319743975759
 20
131.1527660953081
 30
0.0
 10
111.1642679560155
 20
131.1460688259569
 30
0.0
 10
111.0996772197799
 20
131.1500530378397
 30
0.0
  0
LINE
  5
E6
330
1F
100
AcDbEntity
  8
0
  6
Continuous
 62
     7
370
    15
100
AcDbLine
 10
112.4996772198
 20
132.2172804776
 30
0.0
 11
112.4996772198
 21
133.2086552947
 31
0.0
  0
LINE
  5
E7
330
1F
100
AcDbEntity
  8
0
  6
Continuous
 62
     7
370
    15
100
AcDbLine
 10
130.7996772198
 20
95.8158877596
 30
0.0
 11
130.7996772198
 21
134.125488962
 31
0.0
  0
SPLINE
  5
E8
330
1F
100
AcDbEntity
  8
0
  6
Continuous
 62
     7
370
    15
100
AcDbSpline
210
0.0
220
0.0
230
1.0
 70
     8
 71
     3
 72
    24
 73
    20
 74
     0
 42
0.000000001
 43
0.00000001
 40
0.0
 40
0.0
 40
0.0
 40
0.0
 40
0.0017031186671448
 40
0.0645985403556871
 40
0.1281810668687633
 40
0.1914276903704007
 40
0.2537592370750869
 40
0.3156852010917592
 40
0.3780359647273891
 40
0.4401565351893691
 40
0.5014470215319977
 40
0.5626433037852857
 40
0.6251775740855234
 40
0.6876640495909668
 40
0.7498925915944741
 40
0.8122426267061529
 40
0.875447765682123
 40
0.9389331130981629
 40
1.0
 40
1.0
 40
1.0
 40
1.0
 10
121.8198625165094
 20
96.26611370787094
 30
0.0
 10
121.8192751906589
 20
96.26603166008897
 30
0.0
 10
121.7969981800291
 20
96.26291962388298
 30
0.0
 10
121.8762851845839
 20
96.27430429237302
 30
0.0
 10
122.0696900406793
 20
96.30022558977399
 30
0.0
 10
122.395762787631
 20
96.34136970505124
 30
0.0
 10
122.8297839201782
 20
96.38580199495367
 30
0.0
 10
123.3593448717194
 20
96.42538283502793
 30
0.0
 10
123.9669876958381
 20
96.45002989626087
 30
0.0
 10
124.622842245207
 20
96.4544544222459
 30
0.0
 10
125.3023571624931
 20
96.43200791242172
 30
0.0
 10
125.9806524287119
 20
96.38290290971895
 30
0.0
 10
126.6309967716681
 20
96.31052918272115
 30
0.0
 10
127.2321019735738
 20
96.2240838653979
 30
0.0
 10
127.7532165291775
 20
96.13233183170247
 30
0.0
 10
128.1807975542008
 20
96.04584547855818
 30
0.0
 10
128.4929942776045
 20
95.97571855510729
 30
0.0
 10
128.6972478801315
 20
95.92821372200493
 30
0.0
 10
128.7202443860483
 20
95.9225920187471
 30
0.0
 10
128.7315193746797
 20
95.91983574609635
 30
0.0
  0
SPLINE
  5
E9
330
1F
100
AcDbEntity
  8
0
  6
Continuous
 62
     7
370
    15
100
AcDbSpline
210
0.0
220
0.0
230
1.0
 70
     8
 71
     3
 72
    24
 73
    20
 74
     0
 42
0.000000001
 43
0.00000001
 40
0.0
 40
0.0
 40
0.0
 40
0.0
 40
0.0609448165312277
 40
0.124704674575801
 40
0.1881498910214992
 40
0.2506332243034222
 40
0.3127135107480773
 40
0.3750008029782688
 40
0.4372587531429109
 40
0.4984486376142583
 40
0.5597610877935809
 40
0.6219932781065487
 40
0.6844090839678337
 40
0.7464628822949545
 40
0.8087657944765246
 40
0.8721066385122244
 40
0.9355763828333278
 40
0.9985153190737249
 40
1.0
 40
1.0
 40
1.0
 40
1.0
 10
128.7314793736114
 20
134.0215146938174
 30
0.0
 10
128.7200226295447
 20
134.0187672576865
 30
0.0
 10
128.6965799543206
 20
134.0131454813301
 30
0.0
 10
128.4907596206105
 20
133.9654877721092
 30
0.0
 10
128.1774689747842
 20
133.8950526940376
 30
0.0
 10
127.7495580223167
 20
133.8083306629058
 30
0.0
 10
127.2291405855184
 20
133.7165766716096
 30
0.0
 10
126.6299923975312
 20
133.6303559320878
 30
0.0
 10
125.9809875332831
 20
133.5582998248397
 30
0.0
 10
125.3035644449235
 20
133.5094253380765
 30
0.0
 10
124.623636717802
 20
133.4870151533826
 30
0.0
 10
123.9671030852199
 20
133.4914571652594
 30
0.0
 10
123.3584412825419
 20
133.5161137285359
 30
0.0
 10
122.8282626787794
 20
133.5556738350388
 30
0.0
 10
122.3938995727823
 20
133.6001263547602
 30
0.0
 10
122.0685603296256
 20
133.6412632177394
 30
0.0
 10
121.8759888760832
 20
133.6671424974857
 30
0.0
 10
121.7969011796674
 20
133.6784817462338
 30
0.0
 10
121.8190061989087
 20
133.6753598559911
 30
0.0
 10
121.8195156223451
 20
133.6752879101566
 30
0.0
  0
LINE
  5
EA
330
1F
100
AcDbEntity
  8
0
  6
Continuous
 62
     7
370
    15
100
AcDbLine
 10
107.8996772198
 20
99.917900853
 30
0.0
 11
107.8996772198
 21
130.0234758686
 31
0.0
  0
SPLINE
  5
EB
330
1F
100
AcDbEntity
  8
0
  6
Continuous
 62
     7
370
    15
100
AcDbSpline
210
0.0
220
0.0
230
1.0
 70
     8
 71
     3
 72
     8
 73
     4
 74
     0
 42
0.000000001
 43
0.00000001
 40
0.0
 40
0.0
 40
0.0
 40
0.0
 40
1.0
 40
1.0
 40
1.0
 40
1.0
 10
107.8997143420692
 20
130.0065451679269
 30
0.0
 10
107.8996924577898
 20
130.0125444418478
 30
0.0
 10
107.8996772197821
 20
130.0181842833688
 30
0.0
 10
107.8996772197821
 20
130.0234758686437
 30
0.0
  0
SPLINE
  5
EC
330
1F
100
AcDbEntity
  8
0
  6
Continuous
 62
     7
370
    15
100
AcDbSpline
210
0.0
220
0.0
230
1.0
 70
     8
 71
     3
 72
    26
 73
    22
 74
     0
 42
0.000000001
 43
0.00000001
 40
0.0
 40
0.0
 40
0.0
 40
0.0
 40
0.2500000000000007
 40
0.2500000000000007
 40
0.3750000000000019
 40
0.3750000000000019
 40
0.4375000000000026
 40
0.4375000000000026
 40
0.4687500000000028
 40
0.4687500000000028
 40
0.5000000000000032
 40
0.5000000000000032
 40
0.5312500000000036
 40
0.5312500000000036
 40
0.5625000000000039
 40
0.5625000000000039
 40
0.6250000000000039
 40
0.6250000000000039
 40
0.7500000000000029
 40
0.7500000000000029
 40
1.0
 40
1.0
 40
1.0
 40
1.0
 10
108.8496397777669
 20
130.7824070079334
 30
0.0
 10
108.7928520491649
 20
130.6108493649055
 30
0.0
 10
108.7229969502135
 20
130.4286670913837
 30
0.0
 10
108.5738080739868
 20
130.1212627951616
 30
0.0
 10
108.5174400274929
 20
130.0137047529788
 30
0.0
 10
108.4059800421834
 20
129.8353913526969
 30
0.0
 10
108.3647539658161
 20
129.7733445240789
 30
0.0
 10
108.2869153637565
 20
129.6741573301372
 30
0.0
 10
108.2576587379444
 20
129.6395916742719
 30
0.0
 10
108.1958710425113
 20
129.576709155666
 30
0.0
 10
108.1629074362901
 20
129.5488306313928
 30
0.0
 10
108.1089255235875
 20
129.513845286523
 30
0.0
 10
108.0873828626336
 20
129.5052865075663
 30
0.0
 10
108.0521613061731
 20
129.4973000223777
 30
0.0
 10
108.0379955770349
 20
129.4977651210149
 30
0.0
 10
108.002032528682
 20
129.5057190852102
 30
0.0
 10
107.9857828416169
 20
129.5195249647558
 30
0.0
 10
107.9460052971567
 20
129.5708170669438
 30
0.0
 10
107.9324019285449
 20
129.6178101081684
 30
0.0
 10
107.9030246639323
 20
129.7694973393905
 30
0.0
 10
107.9001510094425
 20
129.8868388186817
 30
0.0
 10
107.8997143420692
 20
130.0065451679269
 30
0.0
  0
SPLINE
  5
ED
330
1F
100
AcDbEntity
  8
0
  6
Continuous
 62
     7
370
    15
100
AcDbSpline
210
0.0
220
0.0
230
1.0
 70
     8
 71
     3
 72
    26
 73
    22
 74
     0
 42
0.000000001
 43
0.00000001
 40
0.0
 40
0.0
 40
0.0
 40
0.0
 40
0.2500000000000004
 40
0.2500000000000004
 40
0.3750000000000007
 40
0.3750000000000007
 40
0.4375000000000003
 40
0.4375000000000003
 40
0.4687500000000004
 40
0.4687500000000004
 40
0.5000000000000004
 40
0.5000000000000004
 40
0.5312500000000006
 40
0.5312500000000006
 40
0.5625000000000007
 40
0.5625000000000007
 40
0.6250000000000013
 40
0.6250000000000013
 40
0.7500000000000011
 40
0.7500000000000011
 40
1.0
 40
1.0
 40
1.0
 40
1.0
 10
107.8997143420692
 20
99.9348315537151
 30
0.0
 10
107.9001505021519
 20
100.0543988362478
 30
0.0
 10
107.9030334825011
 20
100.1718785051058
 30
0.0
 10
107.9323801199579
 20
100.323477191469
 30
0.0
 10
107.9460031447838
 20
100.3700520491225
 30
0.0
 10
107.9848704884134
 20
100.420918941398
 30
0.0
 10
108.000711086974
 20
100.4349017072749
 30
0.0
 10
108.0364907698664
 20
100.4434902456155
 30
0.0
 10
108.0506515689699
 20
100.4441928139224
 30
0.0
 10
108.0858922927788
 20
100.4366359853631
 30
0.0
 10
108.1073440463834
 20
100.4283824492567
 30
0.0
 10
108.1620338476033
 20
100.3932785616345
 30
0.0
 10
108.1949299086558
 20
100.3655992877499
 30
0.0
 10
108.2581096889955
 20
100.301351992409
 30
0.0
 10
108.2872487530678
 20
100.2668214978465
 30
0.0
 10
108.3652491493194
 20
100.1673467279852
 30
0.0
 10
108.4070423126514
 20
100.1043678086371
 30
0.0
 10
108.5181104548992
 20
99.92643257682285
 30
0.0
 10
108.5748992111993
 20
99.81796736549906
 30
0.0
 10
108.7229762326751
 20
99.51254661195314
 30
0.0
 10
108.7928647939485
 20
99.33048885431542
 30
0.0
 10
108.8496397777669
 20
99.15896971370854
 30
0.0
  0
SPLINE
  5
EE
330
1F
100
AcDbEntity
  8
0
  6
Continuous
 62
     7
370
    15
100
AcDbSpline
210
0.0
220
0.0
230
1.0
 70
     8
 71
     3
 72
     8
 73
     4
 74
     0
 42
0.000000001
 43
0.00000001
 40
0.0
 40
0.0
 40
0.0
 40
0.0
 40
1.0
 40
1.0
 40
1.0
 40
1.0
 10
107.8996772197821
 20
99.9179008529982
 30
0.0
 10
107.8996772197821
 20
99.92318768580373
 30
0.0
 10
107.8996924379103
 20
99.92882683010033
 30
0.0
 10
107.8997143420692
 20
99.9348315537151
 30
0.0
  0
SPLINE
  5
EF
330
1F
100
AcDbEntity
  8
0
  6
Continuous
 62
     7
370
    15
100
AcDbSpline
210
0.0
220
0.0
230
1.0
 70
     8
 71
     3
 72
     8
 73
     4
 74
     0
 42
0.000000001
 43
0.00000001
 40
0.0
 40
0.0
 40
0.0
 40
0.0
 40
1.0
 40
1.0
 40
1.0
 40
1.0
 10
154.1916100512712
 20
139.2400105598442
 30
0.0
 10
153.6963049404364
 20
138.3562882929232
 30
0.0
 10
153.202172155361
 20
137.4719147723476
 30
0.0
 10
152.7096772197821
 20
136.5866367988138
 30
0.0
  0
LINE
  5
F0
330
1F
100
AcDbEntity
  8
0
  6
Continuous
 62
     7
370
    15
100
AcDbLine
 10
154.1916100513
 20
134.7033389684
 30
0.0
 11
154.1916100513
 21
139.2400105598
 31
0.0
  0
SPLINE
  5
F1
330
1F
100
AcDbEntity
  8
0
  6
Continuous
 62
     7
370
    15
100
AcDbSpline
210
0.0
220
0.0
230
1.0
 70
     8
 71
     3
 72
     8
 73
     4
 74
     0
 42
0.000000001
 43
0.00000001
 40
0.0
 40
0.0
 40
0.0
 40
0.0
 40
1.0
 40
1.0
 40
1.0
 40
1.0
 10
152.7096772197821
 20
131.3299892894659
 30
0.0
 10
153.1862546790161
 20
132.4619228640358
 30
0.0
 10
153.6823865592912
 20
133.5859004421803
 30
0.0
 10
154.1916100512712
 20
134.70333896838
 30
0.0
  0
LINE
  5
F2
330
1F
100
AcDbEntity
  8
0
  6
Continuous
 62
     7
370
    15
100
AcDbLine
 10
152.7096772198
 20
131.3299892895
 30
0.0
 11
152.7096772198
 21
136.5866367988
 31
0.0
  0
SPLINE
  5
F3
330
1F
100
AcDbEntity
  8
0
  6
Continuous
 62
     7
370
    15
100
AcDbSpline
210
0.0
220
0.0
230
1.0
 70
     8
 71
     3
 72
     8
 73
     4
 74
     0
 42
0.000000001
 43
0.00000001
 40
0.0
 40
0.0
 40
0.0
 40
0.0
 40
1.0
 40
1.0
 40
1.0
 40
1.0
 10
148.8896772197821
 20
136.5866367988138
 30
0.0
 10
148.3971822842032
 20
137.4719147723476
 30
0.0
 10
147.9030494991277
 20
138.3562882929232
 30
0.0
 10
147.4077443882931
 20
139.2400105598442
 30
0.0
  0
SPLINE
  5
F4
330
1F
100
AcDbEntity
  8
0
  6
Continuous
 62
     7
370
    15
100
AcDbSpline
210
0.0
220
0.0
230
1.0
 70
     8
 71
     3
 72
     8
 73
     4
 74
     0
 42
0.000000001
 43
0.00000001
 40
0.0
 40
0.0
 40
0.0
 40
0.0
 40
1.0
 40
1.0
 40
1.0
 40
1.0
 10
147.4077443882931
 20
134.70333896838
 30
0.0
 10
147.9173050831649
 20
133.5851604851507
 30
0.0
 10
148.4137780887169
 20
132.4603117462333
 30
0.0
 10
148.8896772197821
 20
131.3299892894659
 30
0.0
  0
LINE
  5
F5
330
1F
100
AcDbEntity
  8
0
  6
Continuous
 62
     7
370
    15
100
AcDbLine
 10
148.8896772198
 20
131.3299892895
 30
0.0
 11
148.8896772198
 21
136.5866367988
 31
0.0
  0
LINE
  5
F6
330
1F
100
AcDbEntity
  8
0
  6
Continuous
 62
     7
370
    15
100
AcDbLine
 10
152.7096772198
 20
131.1123464231
 30
0.0
 11
152.7096772198
 21
131.3299892895
 31
0.0
  0
LINE
  5
F7
330
1F
100
AcDbEntity
  8
0
  6
Continuous
 62
     7
370
    15
100
AcDbLine
 10
154.1916100513
 20
134.7033389684
 30
0.0
 11
158.1496772198
 21
134.7033389684
 31
0.0
  0
SPLINE
  5
F8
330
1F
100
AcDbEntity
  8
0
  6
Continuous
 62
     7
370
    15
100
AcDbSpline
210
0.0
220
0.0
230
1.0
 70
     8
 71
     3
 72
    12
 73
     8
 74
     0
 42
0.000000001
 43
0.00000001
 40
0.0
 40
0.0
 40
0.0
 40
0.0
 40
0.250000000000002
 40
0.250000000000002
 40
0.500000000000004
 40
0.500000000000004
 40
1.0
 40
1.0
 40
1.0
 40
1.0
 10
158.1496772197821
 20
134.70333896838
 30
0.0
 10
158.2400948269356
 20
134.70333896838
 30
0.0
 10
158.3290938376877
 20
134.6764959958199
 30
0.0
 10
158.4825792190707
 20
134.5845606619621
 30
0.0
 10
158.5481659802019
 20
134.5196622502381
 30
0.0
 10
158.702348983488
 20
134.2971896197622
 30
0.0
 10
158.7496772197821
 20
134.1176984633057
 30
0.0
 10
158.7496772197821
 20
133.9374355779903
 30
0.0
  0
LINE
  5
F9
330
1F
100
AcDbEntity
  8
0
  6
Continuous
 62
     7
370
    15
100
AcDbLine
 10
158.7496772198
 20
133.937435578
 30
0.0
 11
158.7496772198
 21
130.3206883608
 31
0.0
  0
LINE
  5
FA
330
1F
100
AcDbEntity
  8
0
  6
Continuous
 62
     7
370
    15
100
AcDbLine
 10
158.1496772198
 20
139.2400105598
 30
0.0
 11
154.1916100513
 21
139.2400105598
 31
0.0
  0
LINE
  5
FB
330
1F
100
AcDbEntity
  8
0
  6
Continuous
 62
     7
370
    15
100
AcDbLine
 10
148.8896772198
 20
131.3299892895
 30
0.0
 11
148.8896772198
 21
131.1123464231
 31
0.0
  0
SPLINE
  5
FC
330
1F
100
AcDbEntity
  8
0
  6
Continuous
 62
     7
370
    15
100
AcDbSpline
210
0.0
220
0.0
230
1.0
 70
     8
 71
     3
 72
    12
 73
     8
 74
     0
 42
0.000000001
 43
0.00000001
 40
0.0
 40
0.0
 40
0.0
 40
0.0
 40
0.499999999999996
 40
0.499999999999996
 40
0.749999999999998
 40
0.749999999999998
 40
1.0
 40
1.0
 40
1.0
 40
1.0
 10
158.7496772197821
 20
138.6214811593722
 30
0.0
 10
158.7496772197821
 20
138.7801403309653
 30
0.0
 10
158.6875431471131
 20
138.9398088090446
 30
0.0
 10
158.5227625757148
 20
139.1126667562659
 30
0.0
 10
158.4551432857632
 20
139.1601321205547
 30
0.0
 10
158.3090665624401
 20
139.2233669733581
 30
0.0
 10
158.229023601296
 20
139.2400105598442
 30
0.0
 10
158.1496772197821
 20
139.2400105598442
 30
0.0
  0
LINE
  5
FD
330
1F
100
AcDbEntity
  8
0
  6
Continuous
 62
     7
370
    15
100
AcDbLine
 10
158.7496772198
 20
133.937435578
 30
0.0
 11
158.7496772198
 21
138.6214811594
 31
0.0
  0
LINE
  5
FE
330
1F
100
AcDbEntity
  8
0
  6
Continuous
 62
     7
370
    15
100
AcDbLine
 10
109.0496772198
 20
98.7106883608
 30
0.0
 11
109.0496772198
 21
98.7236765495
 31
0.0
  0
LINE
  5
FF
330
1F
100
AcDbEntity
  8
0
  6
Continuous
 62
     7
370
    15
100
AcDbLine
 10
107.8996772198
 20
99.8606883608
 30
0.0
 11
107.8996772198
 21
99.917900853
 31
0.0
  0
LINE
  5
100
330
1F
100
AcDbEntity
  8
0
  6
Continuous
 62
     7
370
    15
100
AcDbLine
 10
109.0496772198
 20
131.2306883608
 30
0.0
 11
109.0496772198
 21
131.2177001722
 31
0.0
  0
LINE
  5
101
330
1F
100
AcDbEntity
  8
0
  6
Continuous
 62
     7
370
    15
100
AcDbLine
 10
107.8996772198
 20
130.0806883608
 30
0.0
 11
107.8996772198
 21
130.0234758686
 31
0.0
  0
CIRCLE
  5
102
330
1F
100
AcDbEntity
  8
0
  6
HIDDEN
 62
     7
370
     0
100
AcDbCircle
 10
184.2496772198
 20
114.9706883608
 30
0.0
 40
5.258613578496409
  0
CIRCLE
  5
103
330
1F
100
AcDbEntity
  8
0
  6
HIDDEN
 62
     7
370
     0
100
AcDbCircle
 10
184.2496772198
 20
114.9706883608
 30
0.0
 40
4.094716599621009
  0
CIRCLE
  5
104
330
1F
100
AcDbEntity
  8
0
  6
HIDDEN
 62
     7
370
     0
100
AcDbCircle
 10
184.2496772198
 20
114.9706883608
 30
0.0
 40
3.694716599621017
  0
LINE
  5
105
330
1F
100
AcDbEntity
  8
0
  6
HIDDEN
 62
     7
370
     0
100
AcDbLine
 10
147.4077443883
 20
134.7033389684
 30
0.0
 11
147.4077443883
 21
130.3206883608
 31
0.0
  0
LINE
  5
106
330
1F
100
AcDbEntity
  8
0
  6
HIDDEN
 62
     7
370
     0
100
AcDbLine
 10
198.2496772198
 20
134.1372296634
 30
0.0
 11
198.2496772198
 21
137.2912095545
 31
0.0
  0
SPLINE
  5
107
330
1F
100
AcDbEntity
  8
0
  6
HIDDEN
 62
     7
370
     0
100
AcDbSpline
210
0.0
220
0.0
230
1.0
 70
     8
 71
     3
 72
    18
 73
    14
 74
     0
 42
0.000000001
 43
0.00000001
 40
0.0
 40
0.0
 40
0.0
 40
0.0
 40
0.25
 40
0.25
 40
0.375
 40
0.375
 40
0.5
 40
0.5
 40
0.625
 40
0.625
 40
0.75
 40
0.75
 40
1.0
 40
1.0
 40
1.0
 40
1.0
 10
198.2496772197821
 20
130.8301153232955
 30
0.0
 10
198.340210278653
 20
131.2702636390411
 30
0.0
 10
198.4083930740199
 20
131.6813725498104
 30
0.0
 10
198.4784228225123
 20
132.253404308303
 30
0.0
 10
198.496199055687
 20
132.4365012478362
 30
0.0
 10
198.5196315717709
 20
132.7753708157368
 30
0.0
 10
198.5255161227225
 20
132.9327992640746
 30
0.0
 10
198.5256581442283
 20
133.2235982448188
 30
0.0
 10
198.5197954120667
 20
133.3579060665785
 30
0.0
 10
198.4963325655688
 20
133.595729630285
 30
0.0
 10
198.4788772224606
 20
133.6992930324611
 30
0.0
 10
198.409655873524
 20
133.9654445493329
 30
0.0
 10
198.3402260260592
 20
134.0838407815882
 30
0.0
 10
198.2496772197821
 20
134.13722966339
 30
0.0
  0
LINE
  5
108
330
1F
100
AcDbEntity
  8
0
  6
HIDDEN
 62
     7
370
     0
100
AcDbLine
 10
198.2496772198
 20
99.1112613983
 30
0.0
 11
198.2496772198
 21
130.8301153233
 31
0.0
  0
SPLINE
  5
109
330
1F
100
AcDbEntity
  8
0
  6
HIDDEN
 62
     7
370
     0
100
AcDbSpline
210
0.0
220
0.0
230
1.0
 70
     8
 71
     3
 72
    18
 73
    14
 74
     0
 42
0.000000001
 43
0.00000001
 40
0.0
 40
0.0
 40
0.0
 40
0.0
 40
0.2499999999999997
 40
0.2499999999999997
 40
0.3749999999999999
 40
0.3749999999999999
 40
0.5000000000000001
 40
0.5000000000000001
 40
0.6250000000000003
 40
0.6250000000000003
 40
0.7500000000000004
 40
0.7500000000000004
 40
1.0
 40
1.0
 40
1.0
 40
1.0
 10
198.2496772197821
 20
95.80414705825198
 30
0.0
 10
198.3402102786531
 20
95.85752665515604
 30
0.0
 10
198.4083930740199
 20
95.97262748187843
 30
0.0
 10
198.4784228225123
 20
96.23957914494262
 30
0.0
 10
198.496199055687
 20
96.34491623727888
 30
0.0
 10
198.5196315717709
 20
96.58119538007895
 30
0.0
 10
198.5255161227224
 20
96.71279696736235
 30
0.0
 10
198.5256581442283
 20
97.00297313040592
 30
0.0
 10
198.5197954120667
 20
97.16301259759808
 30
0.0
 10
198.4963325655688
 20
97.50356080848465
 30
0.0
 10
198.4788772224606
 20
97.68348134182847
 30
0.0
 10
198.409655873524
 20
98.251211780211
 30
0.0
 10
198.3402260260592
 20
98.67103652278523
 30
0.0
 10
198.2496772197821
 20
99.11126139834647
 30
0.0
  0
LINE
  5
10A
330
1F
100
AcDbEntity
  8
0
  6
HIDDEN
 62
     7
370
     0
100
AcDbLine
 10
198.2496772198
 20
92.6501671671
 30
0.0
 11
198.2496772198
 21
95.8041470583
 31
0.0
  0
LINE
  5
10B
330
1F
100
AcDbEntity
  8
0
  6
HIDDEN
 62
     7
370
     0
100
AcDbLine
 10
122.8218710867
 20
96.3829064735
 30
0.0
 11
122.6101764076
 21
96.3615181143
 31
0.0
  0
LINE
  5
10C
330
1F
100
AcDbEntity
  8
0
  6
HIDDEN
 62
     7
370
     0
100
AcDbLine
 10
194.2496772198
 20
105.7702807612
 30
0.0
 11
194.2496772198
 21
124.1710959605
 31
0.0
  0
LINE
  5
10D
330
1F
100
AcDbEntity
  8
0
  6
HIDDEN
 62
     7
370
     0
100
AcDbLine
 10
194.2496772198
 20
128.9706883608
 30
0.0
 11
194.2496772198
 21
124.1710959605
 31
0.0
  0
LINE
  5
10E
330
1F
100
AcDbEntity
  8
0
  6
HIDDEN
 62
     7
370
     0
100
AcDbLine
 10
194.2496772198
 20
124.1710959605
 30
0.0
 11
198.2496772198
 21
124.1710959605
 31
0.0
  0
LINE
  5
10F
330
1F
100
AcDbEntity
  8
0
  6
HIDDEN
 62
     7
370
     0
100
AcDbLine
 10
198.2496772198
 20
134.1372296634
 30
0.0
 11
198.2496772198
 21
133.997426049
 31
0.0
  0
LINE
  5
110
330
1F
100
AcDbEntity
  8
0
  6
HIDDEN
 62
     7
370
     0
100
AcDbLine
 10
194.2496772198
 20
133.997426049
 30
0.0
 11
198.2496772198
 21
133.997426049
 31
0.0
  0
LINE
  5
111
330
1F
100
AcDbEntity
  8
0
  6
HIDDEN
 62
     7
370
     0
100
AcDbLine
 10
194.2496772198
 20
134.1706883608
 30
0.0
 11
194.2496772198
 21
128.9706883608
 31
0.0
  0
LINE
  5
112
330
1F
100
AcDbEntity
  8
0
  6
HIDDEN
 62
     7
370
     0
100
AcDbLine
 10
194.2496772198
 20
95.9439506726
 30
0.0
 11
198.2496772198
 21
95.9439506726
 31
0.0
  0
LINE
  5
113
330
1F
100
AcDbEntity
  8
0
  6
HIDDEN
 62
     7
370
     0
100
AcDbLine
 10
194.2496772198
 20
100.9706883608
 30
0.0
 11
194.2496772198
 21
95.7706883608
 31
0.0
  0
LINE
  5
114
330
1F
100
AcDbEntity
  8
0
  6
HIDDEN
 62
     7
370
     0
100
AcDbLine
 10
194.2496772198
 20
105.7702807612
 30
0.0
 11
194.2496772198
 21
100.9706883608
 31
0.0
  0
LINE
  5
115
330
1F
100
AcDbEntity
  8
0
  6
HIDDEN
 62
     7
370
     0
100
AcDbLine
 10
198.2496772198
 20
105.7702807612
 30
0.0
 11
194.2496772198
 21
105.7702807612
 31
0.0
  0
SPLINE
  5
116
330
1F
100
AcDbEntity
  8
0
  6
HIDDEN
 62
     7
370
     0
100
AcDbSpline
210
0.0
220
0.0
230
1.0
 70
     8
 71
     3
 72
    10
 73
     6
 74
     0
 42
0.000000001
 43
0.00000001
 40
0.0
 40
0.0
 40
0.0
 40
0.0
 40
0.4799687115050565
 40
0.9599436962036563
 40
1.0
 40
1.0
 40
1.0
 40
1.0
 10
127.6035247970755
 20
130.8548853395606
 30
0.0
 10
127.7856064887557
 20
130.877668063568
 30
0.0
 10
128.1497722519247
 20
130.9232338093531
 30
0.0
 10
128.3456161997323
 20
130.9337206371125
 30
0.0
 10
128.2910799529652
 20
130.9294917917744
 30
0.0
 10
128.2868792048242
 20
130.9291660576939
 30
0.0
  0
SPLINE
  5
117
330
1F
100
AcDbEntity
  8
0
  6
HIDDEN
 62
     7
370
     0
100
AcDbSpline
210
0.0
220
0.0
230
1.0
 70
     8
 71
     3
 72
    10
 73
     6
 74
     0
 42
0.000000001
 43
0.00000001
 40
0.0
 40
0.0
 40
0.0
 40
0.0
 40
0.4431255603408186
 40
0.9265710365881609
 40
1.0
 40
1.0
 40
1.0
 40
1.0
 10
128.2869195826059
 20
99.01220748282951
 30
0.0
 10
128.2644639013176
 20
99.01360430331404
 30
0.0
 10
128.2175093002953
 20
99.01652504073051
 30
0.0
 10
127.8759541787852
 20
99.0478645630092
 30
0.0
 10
127.6352622222653
 20
99.08199144241652
 30
0.0
 10
127.6035247970755
 20
99.08649138208138
 30
0.0
  0
SPLINE
  5
118
330
1F
100
AcDbEntity
  8
0
  6
HIDDEN
 62
     7
370
     0
100
AcDbSpline
210
0.0
220
0.0
230
1.0
 70
     8
 71
     3
 72
    15
 73
    11
 74
     0
 42
0.000000001
 43
0.00000001
 40
0.0
 40
0.0
 40
0.0
 40
0.0
 40
0.1382244404899934
 40
0.2764943761973024
 40
0.4133666497703766
 40
0.5486122487583225
 40
0.6849104652337179
 40
0.8232943490236031
 40
0.9615791564591623
 40
1.0
 40
1.0
 40
1.0
 40
1.0
 10
127.6035247970755
 20
99.08649138208138
 30
0.0
 10
127.3619526022391
 20
99.11902091913998
 30
0.0
 10
126.8787287014505
 20
99.18409070003494
 30
0.0
 10
125.9066627512708
 20
99.25360050013221
 30
0.0
 10
124.8892006710928
 20
99.259809066975
 30
0.0
 10
123.9214327711203
 20
99.20282602285786
 30
0.0
 10
123.0989418295322
 20
99.10605492507811
 30
0.0
 10
122.539851143396
 20
99.01589557731208
 30
0.0
 10
122.2780152046265
 20
98.9666774064953
 30
0.0
 10
122.3235348435154
 20
98.97511570641126
 30
0.0
 10
122.3334321100382
 20
98.97695043325236
 30
0.0
  0
SPLINE
  5
119
330
1F
100
AcDbEntity
  8
0
  6
HIDDEN
 62
     7
370
     0
100
AcDbSpline
210
0.0
220
0.0
230
1.0
 70
     8
 71
     3
 72
    15
 73
    11
 74
     0
 42
0.000000001
 43
0.00000001
 40
0.0
 40
0.0
 40
0.0
 40
0.0
 40
0.097779056017688
 40
0.2331528274379736
 40
0.3701726140968555
 40
0.5088608781768574
 40
0.6466164185365058
 40
0.7822311948475797
 40
0.9178622724479186
 40
0.9999999999999999
 40
0.9999999999999999
 40
0.9999999999999999
 40
0.9999999999999999
 10
122.3334321100382
 20
130.9644262883896
 30
0.0
 10
122.336820156265
 20
130.963728226257
 30
0.0
 10
122.3448989063514
 20
130.9620637066085
 30
0.0
 10
122.7391123254997
 20
130.8910301475823
 30
0.0
 10
123.4146236443861
 20
130.7930049636777
 30
0.0
 10
124.3186410237881
 20
130.7073028514625
 30
0.0
 10
125.3313918902843
 20
130.6758577367299
 30
0.0
 10
126.3290451806985
 20
130.7110371855984
 30
0.0
 10
127.1028672272531
 20
130.7855324395131
 30
0.0
 10
127.4664058263878
 20
130.8358911230703
 30
0.0
 10
127.6035247970755
 20
130.8548853395606
 30
0.0
  0
LINE
  5
11A
330
1F
100
AcDbEntity
  8
0
  6
HIDDEN
 62
     7
370
     0
100
AcDbLine
 10
117.803651816
 20
101.9706883608
 30
0.0
 11
117.803651816
 21
127.9706883608
 31
0.0
  0
LINE
  5
11B
330
1F
100
AcDbEntity
  8
0
  6
HIDDEN
 62
     7
370
     0
100
AcDbLine
 10
193.0496772198
 20
99.9706883608
 30
0.0
 11
193.0496772198
 21
129.9706883608
 31
0.0
  0
LINE
  5
11C
330
1F
100
AcDbEntity
  8
0
  6
HIDDEN
 62
     7
370
     0
100
AcDbLine
 10
167.7996772198
 20
100.2706883608
 30
0.0
 11
167.7996772198
 21
129.6706883553
 31
0.0
  0
LINE
  5
11D
330
1F
100
AcDbEntity
  8
0
  6
HIDDEN
 62
     7
370
     0
100
AcDbLine
 10
170.2996772198
 20
99.9706883608
 30
0.0
 11
170.2996772198
 21
129.9706883608
 31
0.0
  0
LINE
  5
11E
330
1F
100
AcDbEntity
  8
0
  6
HIDDEN
 62
     7
370
     0
100
AcDbLine
 10
140.3840127351
 20
101.9706883608
 30
0.0
 11
140.3840127351
 21
127.9706883608
 31
0.0
  0
LINE
  5
11F
330
1F
100
AcDbEntity
  8
0
  6
HIDDEN
 62
     7
370
     0
100
AcDbLine
 10
142.7496772198
 20
103.1956883608
 30
0.0
 11
142.7496772198
 21
126.7456883608
 31
0.0
  0
SPLINE
  5
120
330
1F
100
AcDbEntity
  8
0
  6
HIDDEN
 62
     7
370
     0
100
AcDbSpline
210
0.0
220
0.0
230
1.0
 70
     8
 71
     3
 72
    18
 73
    14
 74
     0
 42
0.000000001
 43
0.00000001
 40
0.0
 40
0.0
 40
0.0
 40
0.0
 40
0.2500000000000006
 40
0.2500000000000006
 40
0.3750000000000004
 40
0.3750000000000004
 40
0.5000000000000003
 40
0.5000000000000003
 40
0.6250000000000002
 40
0.6250000000000002
 40
0.75
 40
0.75
 40
1.0
 40
1.0
 40
1.0
 40
1.0
 10
112.4996772197821
 20
127.3812926974357
 30
0.0
 10
112.4996772197821
 20
127.3244235481391
 30
0.0
 10
112.4647508411591
 20
127.2647668917404
 30
0.0
 10
112.3629989044748
 20
127.1746670473936
 30
0.0
 10
112.3214936766517
 20
127.1451982104286
 30
0.0
 10
112.2234605887731
 20
127.0878169162974
 30
0.0
 10
112.1661758997422
 20
127.0596114277071
 30
0.0
 10
112.0392388698947
 20
127.0072340481571
 30
0.0
 10
111.9698389025502
 20
126.9830441261837
 30
0.0
 10
111.8187380670998
 20
126.9394106834349
 30
0.0
 10
111.7360602184317
 20
126.9198476085232
 30
0.0
 10
111.4795341597094
 20
126.8723989548203
 30
0.0
 10
111.2910705176046
 20
126.8545892355338
 30
0.0
 10
111.0996772197821
 20
126.8545892355338
 30
0.0
  0
LINE
  5
121
330
1F
100
AcDbEntity
  8
0
  6
HIDDEN
 62
     7
370
     0
100
AcDbLine
 10
111.0996772198
 20
126.8545892355
 30
0.0
 11
109.0496772198
 21
126.8545892355
 31
0.0
  0
LINE
  5
122
330
1F
100
AcDbEntity
  8
0
  6
HIDDEN
 62
     7
370
     0
100
AcDbLine
 10
109.0496772198
 20
103.0867874861
 30
0.0
 11
114.0996772198
 21
103.0867874861
 31
0.0
  0
SPLINE
  5
123
330
1F
100
AcDbEntity
  8
0
  6
HIDDEN
 62
     7
370
     0
100
AcDbSpline
210
0.0
220
0.0
230
1.0
 70
     8
 71
     3
 72
    16
 73
    12
 74
     0
 42
0.000000001
 43
0.00000001
 40
0.0
 40
0.0
 40
0.0
 40
0.0
 40
0.125
 40
0.125
 40
0.25
 40
0.25
 40
0.5
 40
0.5
 40
0.75
 40
0.75
 40
1.0
 40
1.0
 40
1.0
 40
1.0
 10
114.0996772197821
 20
103.0867874861082
 30
0.0
 10
114.1952413289991
 20
103.0867874861082
 30
0.0
 10
114.2889568874114
 20
103.0824812591292
 30
0.0
 10
114.4728937060972
 20
103.0658621475925
 30
0.0
 10
114.5640279145401
 20
103.0533214863172
 30
0.0
 10
114.821043383885
 20
103.0058652675979
 30
0.0
 10
114.975811155391
 20
102.9602752737606
 30
0.0
 10
115.2287698642603
 20
102.8559765904717
 30
0.0
 10
115.3291198189237
 20
102.7966110843971
 30
0.0
 10
115.4640315655114
 20
102.6773442660908
 30
0.0
 10
115.4996772197821
 20
102.6168900017597
 30
0.0
 10
115.4996772197821
 20
102.5600840242063
 30
0.0
  0
LINE
  5
124
330
1F
100
AcDbEntity
  8
0
  6
HIDDEN
 62
     7
370
     0
100
AcDbLine
 10
109.0496772198
 20
103.0867874861
 30
0.0
 11
109.0496772198
 21
126.8545892355
 31
0.0
  0
LINE
  5
125
330
1F
100
AcDbEntity
  8
0
  6
HIDDEN
 62
     7
370
     0
100
AcDbLine
 10
194.2496772198
 20
136.2456883608
 30
0.0
 11
194.2496772198
 21
134.1706883608
 31
0.0
  0
LINE
  5
126
330
1F
100
AcDbEntity
  8
0
  6
HIDDEN
 62
     7
370
     0
100
AcDbLine
 10
194.2496772198
 20
95.7706883608
 30
0.0
 11
194.2496772198
 21
93.6956883608
 31
0.0
  0
LINE
  5
127
330
1F
100
AcDbEntity
  8
0
  6
HIDDEN
 62
     7
370
     0
100
AcDbLine
 10
109.0496772198
 20
101.0906883608
 30
0.0
 11
109.0496772198
 21
98.7236765495
 31
0.0
  0
LINE
  5
128
330
1F
100
AcDbEntity
  8
0
  6
HIDDEN
 62
     7
370
     0
100
AcDbLine
 10
112.4996772198
 20
128.8506883608
 30
0.0
 11
112.4996772198
 21
132.2172804776
 31
0.0
  0
LINE
  5
129
330
1F
100
AcDbEntity
  8
0
  6
HIDDEN
 62
     7
370
     0
100
AcDbLine
 10
115.4996772198
 20
101.0906883608
 30
0.0
 11
115.4996772198
 21
97.6322618525
 31
0.0
  0
LINE
  5
12A
330
1F
100
AcDbEntity
  8
0
  6
HIDDEN
 62
     7
370
     0
100
AcDbLine
 10
150.0996772198
 20
106.4706883608
 30
0.0
 11
150.0996772198
 21
123.4706883608
 31
0.0
  0
LINE
  5
12B
330
1F
100
AcDbEntity
  8
0
  6
HIDDEN
 62
     7
370
     0
100
AcDbLine
 10
152.5996772198
 20
106.4706883608
 30
0.0
 11
152.5996772198
 21
123.4706883608
 31
0.0
  0
LINE
  5
12C
330
1F
100
AcDbEntity
  8
0
  6
HIDDEN
 62
     7
370
     0
100
AcDbLine
 10
109.0496772198
 20
128.8506883608
 30
0.0
 11
109.0496772198
 21
131.2177001722
 31
0.0
  0
LINE
  5
12D
330
1F
100
AcDbEntity
  8
0
  6
HIDDEN
 62
     7
370
     0
100
AcDbLine
 10
143.2496772198
 20
107.4706883608
 30
0.0
 11
143.2496772198
 21
122.4706883608
 31
0.0
  0
LINE
  5
12E
330
1F
100
AcDbEntity
  8
0
  6
HIDDEN
 62
     7
370
     0
100
AcDbLine
 10
158.7496772198
 20
94.0706883608
 30
0.0
 11
152.6747195999
 21
94.0706883608
 31
0.0
  0
LINE
  5
12F
330
1F
100
AcDbEntity
  8
0
  6
HIDDEN
 62
     7
370
     0
100
AcDbLine
 10
148.9246348397
 20
94.0706883608
 30
0.0
 11
145.7496772198
 21
94.0706883608
 31
0.0
  0
LINE
  5
130
330
1F
100
AcDbEntity
  8
0
  6
HIDDEN
 62
     7
370
     0
100
AcDbLine
 10
139.7496772198
 20
89.9906963672
 30
0.0
 11
139.7496772198
 21
94.0706883608
 31
0.0
  0
LINE
  5
131
330
1F
100
AcDbEntity
  8
0
  6
HIDDEN
 62
     7
370
     0
100
AcDbLine
 10
145.7496772198
 20
94.0706883608
 30
0.0
 11
139.7496772198
 21
94.0706883608
 31
0.0
  0
ELLIPSE
  5
132
330
1F
100
AcDbEntity
  8
0
  6
HIDDEN
 62
     7
370
     0
100
AcDbEllipse
 10
105.6963469706
 20
114.9706883608
 30
0.0
 11
14.93604612205526
 21
0.0
 31
0.0
210
0.0
220
0.0
230
1.0
 40
0.8164965809
 41
4.860446959989093
 42
4.938831798436658
  0
ELLIPSE
  5
133
330
1F
100
AcDbEntity
  8
0
  6
HIDDEN
 62
     7
370
     0
100
AcDbEllipse
 10
105.6963469706
 20
114.9706883608
 30
0.0
 11
14.93604612205525
 21
-1.421085471520200E-14
 31
0.0
210
0.0
220
0.0
230
1.0
 40
0.8164965809
 41
1.344353508742942
 42
1.422738347190506
  0
LINE
  5
134
330
1F
100
AcDbEntity
  8
0
  6
HIDDEN
 62
     7
370
     0
100
AcDbLine
 10
158.7496772198
 20
135.8706883608
 30
0.0
 11
152.5082134815
 21
135.8706883608
 31
0.0
  0
LINE
  5
135
330
1F
100
AcDbEntity
  8
0
  6
HIDDEN
 62
     7
370
     0
100
AcDbLine
 10
149.0911409581
 20
135.8706883608
 30
0.0
 11
145.7496772198
 21
135.8706883608
 31
0.0
  0
LINE
  5
136
330
1F
100
AcDbEntity
  8
0
  6
HIDDEN
 62
     7
370
     0
100
AcDbLine
 10
145.7496772198
 20
135.8706883608
 30
0.0
 11
139.7496772198
 21
135.8706883608
 31
0.0
  0
LINE
  5
137
330
1F
100
AcDbEntity
  8
0
  6
HIDDEN
 62
     7
370
     0
100
AcDbLine
 10
109.0496772198
 20
101.0906883608
 30
0.0
 11
109.0496772198
 21
103.0867874861
 31
0.0
  0
LINE
  5
138
330
1F
100
AcDbEntity
  8
0
  6
HIDDEN
 62
     7
370
     0
100
AcDbLine
 10
115.4996772198
 20
101.0906883608
 30
0.0
 11
115.4996772198
 21
102.5600840242
 31
0.0
  0
LINE
  5
139
330
1F
100
AcDbEntity
  8
0
  6
HIDDEN
 62
     7
370
     0
100
AcDbLine
 10
109.0496772198
 20
128.8506883608
 30
0.0
 11
109.0496772198
 21
126.8545892355
 31
0.0
  0
LINE
  5
13A
330
1F
100
AcDbEntity
  8
0
  6
HIDDEN
 62
     7
370
     0
100
AcDbLine
 10
112.4996772198
 20
128.8506883608
 30
0.0
 11
112.4996772198
 21
127.3812926974
 31
0.0
  0
SPLINE
  5
13B
330
1F
100
AcDbEntity
  8
0
  6
HIDDEN
 62
     7
370
     0
100
AcDbSpline
210
0.0
220
0.0
230
1.0
 70
     8
 71
     3
 72
    20
 73
    16
 74
     0
 42
0.000000001
 43
0.00000001
 40
0.0
 40
0.0
 40
0.0
 40
0.0
 40
0.1112451096653675
 40
0.1767473384690864
 40
0.2483987900653005
 40
0.3291392735252646
 40
0.397917254811487
 40
0.499259325351525
 40
0.6130611197972669
 40
0.6782468328178278
 40
0.7488704648927864
 40
0.8287959266656839
 40
0.8971590453244784
 40
0.9988357963770639
 40
1.0
 40
1.0
 40
1.0
 40
1.0
 10
128.2978126974704
 20
96.3986130101923
 30
0.0
 10
128.263876282271
 20
96.40980849001451
 30
0.0
 10
128.2099577677249
 20
96.42759597988629
 30
0.0
 10
127.8560622613598
 20
96.5148718928217
 30
0.0
 10
127.4361849573256
 20
96.6108292310345
 30
0.0
 10
126.8891296221314
 20
96.71492479536758
 30
0.0
 10
126.1754379393016
 20
96.81809439345736
 30
0.0
 10
125.2854464963448
 20
96.91733065071176
 30
0.0
 10
124.3962230018842
 20
96.9257653282346
 30
0.0
 10
123.6875039257339
 20
96.90097274437406
 30
0.0
 10
123.1530116169406
 20
96.85858365391937
 30
0.0
 10
122.7191620289154
 20
96.80916207471077
 30
0.0
 10
122.406892735109
 20
96.76939083962677
 30
0.0
 10
122.2498358122322
 20
96.73535482555677
 30
0.0
 10
122.3008553049949
 20
96.7447501488597
 30
0.0
 10
122.3014328674893
 20
96.7448565079407
 30
0.0
  0
LINE
  5
13C
330
1F
100
AcDbEntity
  8
0
  6
HIDDEN
 62
     7
370
     0
100
AcDbLine
 10
123.0271898201
 20
96.8416493555
 30
0.0
 11
123.1706006271
 21
96.8572923258
 31
0.0
  0
LINE
  5
13D
330
1F
100
AcDbEntity
  8
0
  6
HIDDEN
 62
     7
370
     0
100
AcDbLine
 10
123.1705976958
 20
133.0840139734
 30
0.0
 11
123.030719503
 21
133.0992603226
 31
0.0
  0
SPLINE
  5
13E
330
1F
100
AcDbEntity
  8
0
  6
HIDDEN
 62
     7
370
     0
100
AcDbSpline
210
0.0
220
0.0
230
1.0
 70
     8
 71
     3
 72
    20
 73
    16
 74
     0
 42
0.000000001
 43
0.00000001
 40
0.0
 40
0.0
 40
0.0
 40
0.0
 40
0.0012085584126041
 40
0.1028136336694364
 40
0.1711455628280359
 40
0.2510430224184637
 40
0.3217226584698243
 40
0.3869668709517316
 40
0.5008907022375636
 40
0.6019131317664047
 40
0.6704631752191081
 40
0.7509315409224213
 40
0.8227626752295394
 40
0.8884120475877076
 40
1.0
 40
1.0
 40
1.0
 40
1.0
 10
122.3014924889721
 20
133.1964475618825
 30
0.0
 10
122.300891248474
 20
133.1965584395112
 30
0.0
 10
122.2497429384951
 20
133.2059909433753
 30
0.0
 10
122.4062188596785
 20
133.1719762227696
 30
0.0
 10
122.7179860554764
 20
133.1322527716539
 30
0.0
 10
123.1516082653992
 20
133.082855689489
 30
0.0
 10
123.6863280563197
 20
133.0404650685896
 30
0.0
 10
124.3959417763915
 20
133.0156601024545
 30
0.0
 10
125.2852269216212
 20
133.0239639126284
 30
0.0
 10
126.1742133463685
 20
133.1229576893535
 30
0.0
 10
126.8861302706431
 20
133.2258543502874
 30
0.0
 10
127.4332260444756
 20
133.3298603728525
 30
0.0
 10
127.8542195037994
 20
133.4259323346312
 30
0.0
 10
128.2098950045739
 20
133.5135788820737
 30
0.0
 10
128.2638701889041
 20
133.5314654646979
 30
0.0
 10
128.2978527617526
 20
133.5427267897788
 30
0.0
  0
LINE
  5
13F
330
1F
100
AcDbEntity
  8
0
  6
HIDDEN
 62
     7
370
     0
100
AcDbLine
 10
148.8896772198
 20
131.1123464231
 30
0.0
 11
148.8896772198
 21
130.3206883608
 31
0.0
  0
LINE
  5
140
330
1F
100
AcDbEntity
  8
0
  6
HIDDEN
 62
     7
370
     0
100
AcDbLine
 10
152.7096772198
 20
131.1123464231
 30
0.0
 11
152.7096772198
 21
130.3206883608
 31
0.0
  0
LINE
  5
141
330
1F
100
AcDbEntity
  8
0
  6
HIDDEN
 62
     7
370
     0
100
AcDbLine
 10
154.1916100513
 20
134.7033389684
 30
0.0
 11
154.1916100513
 21
130.3206883608
 31
0.0
  0
CIRCLE
  5
142
330
1F
100
AcDbEntity
  8
0
  6
HIDDEN
 62
     7
370
     0
100
AcDbCircle
 10
139.7996772198
 20
114.9706883608
 30
0.0
 40
5.0
  0
LINE
  5
143
330
1F
100
AcDbEntity
  8
0
  6
HIDDEN
 62
     7
370
     0
100
AcDbLine
 10
198.7996772198
 20
138.4706883608
 30
0.0
 11
198.2496772198
 21
137.2912095545
 31
0.0
  0
LINE
  5
144
330
1F
100
AcDbEntity
  8
0
  6
HIDDEN
 62
     7
370
     0
100
AcDbLine
 10
198.2496772198
 20
92.6501671671
 30
0.0
 11
198.7996772198
 21
91.4706883608
 31
0.0
  0
LINE
  5
145
330
1F
100
AcDbEntity
  8
0
  6
HIDDEN
 62
     7
370
     0
100
AcDbLine
 10
132.7996772198
 20
94.7123874754
 30
0.0
 11
132.8938379953
 21
95.3823762066
 31
0.0
  0
LINE
  5
146
330
1F
100
AcDbEntity
  8
0
  6
HIDDEN
 62
     7
370
     0
100
AcDbLine
 10
132.8938379953
 20
134.5590005151
 30
0.0
 11
132.7996772198
 21
135.2289892463
 31
0.0
  0
ARC
  5
147
330
1F
100
AcDbEntity
  8
0
  6
HIDDEN
 62
     7
370
     0
100
AcDbCircle
 10
132.2996704671
 20
95.465881007
 30
0.0
 40
0.6000067526677042
100
AcDbArc
 50
352.0
 51
0.0
  0
ARC
  5
148
330
1F
100
AcDbEntity
  8
0
  6
HIDDEN
 62
     7
370
     0
100
AcDbCircle
 10
132.2996704671
 20
95.465881007
 30
0.0
 40
0.6000067526677045
100
AcDbArc
 50
0.0
 51
33.5571153394
  0
ARC
  5
149
330
1F
100
AcDbEntity
  8
0
  6
HIDDEN
 62
     7
370
     0
100
AcDbCircle
 10
132.2996704671
 20
134.4754957147
 30
0.0
 40
0.6000067526677081
100
AcDbArc
 50
348.75
 51
8.0
  0
LWPOLYLINE
  5
14A
330
1F
100
AcDbEntity
  8
0
  6
HIDDEN
 62
     7
370
     0
100
AcDbPolyline
 90
        3
 70
   128
 43
0.0
 10
132.8881482583
 20
134.3584402041
 10
132.8540044253
 20
134.2458830711
 10
132.7996772198
 20
134.1438311997
  0
LINE
  5
14B
330
1F
100
AcDbEntity
  8
0
  6
HIDDEN
 62
     7
370
     0
100
AcDbLine
 10
132.8996772198
 20
95.465881007
 30
0.0
 11
132.8996772198
 21
134.4754957147
 31
0.0
  0
LINE
  5
14C
330
1F
100
AcDbEntity
  8
0
  6
HIDDEN
 62
     7
370
     0
100
AcDbLine
 10
198.2496772198
 20
134.1706883608
 30
0.0
 11
194.2496772198
 21
134.1706883608
 31
0.0
  0
LINE
  5
14D
330
1F
100
AcDbEntity
  8
0
  6
HIDDEN
 62
     7
370
     0
100
AcDbLine
 10
194.2496772198
 20
95.7706883608
 30
0.0
 11
198.2496772198
 21
95.7706883608
 31
0.0
  0
ARC
  5
14E
330
1F
100
AcDbEntity
  8
0
  6
HIDDEN
 62
     7
370
     0
100
AcDbCircle
 10
119.8243777582
 20
99.4706883608
 30
0.0
 40
0.5000000000000041
100
AcDbArc
 50
210.0
 51
270.0
  0
ARC
  5
14F
330
1F
100
AcDbEntity
  8
0
  6
HIDDEN
 62
     7
370
     0
100
AcDbCircle
 10
119.8243777582
 20
130.4706883608
 30
0.0
 40
0.5000000000000041
100
AcDbArc
 50
90.0
 51
150.0
  0
ARC
  5
150
330
1F
100
AcDbEntity
  8
0
  6
HIDDEN
 62
     7
370
     0
100
AcDbCircle
 10
127.6035247971
 20
104.9706883608
 30
0.0
 40
6.000000000000012
100
AcDbArc
 50
276.544206992
 51
330.0
  0
ARC
  5
151
330
1F
100
AcDbEntity
  8
0
  6
HIDDEN
 62
     7
370
     0
100
AcDbCircle
 10
127.6035247971
 20
124.9706883608
 30
0.0
 40
6.000000000000012
100
AcDbArc
 50
30.0
 51
83.4503360383
  0
LINE
  5
152
330
1F
100
AcDbEntity
  8
0
  6
HIDDEN
 62
     7
370
     0
100
AcDbLine
 10
119.8243777582
 20
98.9706883608
 30
0.0
 11
122.33343211
 21
98.9706883608
 31
0.0
  0
LINE
  5
153
330
1F
100
AcDbEntity
  8
0
  6
HIDDEN
 62
     7
370
     0
100
AcDbLine
 10
122.33343211
 20
130.9706883608
 30
0.0
 11
119.8243777582
 21
130.9706883608
 31
0.0
  0
LINE
  5
154
330
1F
100
AcDbEntity
  8
0
  6
HIDDEN
 62
     7
370
     0
100
AcDbLine
 10
119.3913650563
 20
130.7206883608
 30
0.0
 11
117.803651816
 21
127.9706883608
 31
0.0
  0
LINE
  5
155
330
1F
100
AcDbEntity
  8
0
  6
HIDDEN
 62
     7
370
     0
100
AcDbLine
 10
117.803651816
 20
101.9706883608
 30
0.0
 11
119.3913650563
 21
99.2206883608
 31
0.0
  0
LINE
  5
156
330
1F
100
AcDbEntity
  8
0
  6
HIDDEN
 62
     7
370
     0
100
AcDbLine
 10
194.2496772198
 20
130.6635086838
 30
0.0
 11
193.0496772198
 21
129.9706883608
 31
0.0
  0
LINE
  5
157
330
1F
100
AcDbEntity
  8
0
  6
HIDDEN
 62
     7
370
     0
100
AcDbLine
 10
193.0496772198
 20
99.9706883608
 30
0.0
 11
194.2496772198
 21
99.2778680378
 31
0.0
  0
LINE
  5
158
330
1F
100
AcDbEntity
  8
0
  6
HIDDEN
 62
     7
370
     0
100
AcDbLine
 10
168.3996772198
 20
99.6706883608
 30
0.0
 11
169.101070479
 21
99.6706883608
 31
0.0
  0
LINE
  5
159
330
1F
100
AcDbEntity
  8
0
  6
HIDDEN
 62
     7
370
     0
100
AcDbLine
 10
169.101070479
 20
130.2706883608
 30
0.0
 11
168.3996772198
 21
130.2706883608
 31
0.0
  0
ARC
  5
15A
330
1F
100
AcDbEntity
  8
0
  6
HIDDEN
 62
     7
370
     0
100
AcDbCircle
 10
168.3996772198
 20
100.2706883608
 30
0.0
 40
0.6000000000000227
100
AcDbArc
 50
180.0
 51
270.0
  0
ARC
  5
15B
330
1F
100
AcDbEntity
  8
0
  6
HIDDEN
 62
     7
370
     0
100
AcDbCircle
 10
168.3996772198
 20
129.6706883608
 30
0.0
 40
0.6000000000000227
100
AcDbArc
 50
90.0
 51
180.0
  0
ARC
  5
15C
330
1F
100
AcDbEntity
  8
0
  6
HIDDEN
 62
     7
370
     0
100
AcDbCircle
 10
169.101070479
 20
100.2706883608
 30
0.0
 40
0.6000000000000085
100
AcDbArc
 50
270.0
 51
285.0
  0
ARC
  5
15D
330
1F
100
AcDbEntity
  8
0
  6
HIDDEN
 62
     7
370
     0
100
AcDbCircle
 10
169.101070479
 20
129.6706883608
 30
0.0
 40
0.5999999999999733
100
AcDbArc
 50
75.0
 51
90.0
  0
LINE
  5
15E
330
1F
100
AcDbEntity
  8
0
  6
HIDDEN
 62
     7
370
     0
100
AcDbLine
 10
169.256361906
 20
99.691132865
 30
0.0
 11
170.2996772198
 21
99.9706883608
 31
0.0
  0
LINE
  5
15F
330
1F
100
AcDbEntity
  8
0
  6
HIDDEN
 62
     7
370
     0
100
AcDbLine
 10
170.2996772198
 20
129.9706883608
 30
0.0
 11
169.256361906
 21
130.2502438566
 31
0.0
  0
LINE
  5
160
330
1F
100
AcDbEntity
  8
0
  6
HIDDEN
 62
     7
370
     0
100
AcDbLine
 10
170.2996772198
 20
99.9706883608
 30
0.0
 11
193.0496772198
 21
99.9706883608
 31
0.0
  0
LINE
  5
161
330
1F
100
AcDbEntity
  8
0
  6
HIDDEN
 62
     7
370
     0
100
AcDbLine
 10
193.0496772198
 20
129.9706883608
 30
0.0
 11
170.2996772198
 21
129.9706883608
 31
0.0
  0
ARC
  5
162
330
1F
100
AcDbEntity
  8
0
  6
HIDDEN
 62
     7
370
     0
100
AcDbCircle
 10
141.2496772198
 20
103.1956883608
 30
0.0
 40
1.500000000000028
100
AcDbArc
 50
234.7524930079
 51
0.0
  0
ARC
  5
163
330
1F
100
AcDbEntity
  8
0
  6
HIDDEN
 62
     7
370
     0
100
AcDbCircle
 10
141.2496772198
 20
126.7456883608
 30
0.0
 40
1.500000000000028
100
AcDbArc
 50
0.0
 51
125.2475069921
  0
LINE
  5
164
330
1F
100
AcDbEntity
  8
0
  6
HIDDEN
 62
     7
370
     0
100
AcDbLine
 10
132.7996772198
 20
101.9706883608
 30
0.0
 11
140.3840127351
 21
101.9706883608
 31
0.0
  0
LINE
  5
165
330
1F
100
AcDbEntity
  8
0
  6
HIDDEN
 62
     7
370
     0
100
AcDbLine
 10
140.3840127351
 20
127.9706883608
 30
0.0
 11
132.7996772198
 21
127.9706883608
 31
0.0
  0
LINE
  5
166
330
1F
100
AcDbEntity
  8
0
  6
HIDDEN
 62
     7
370
     0
100
AcDbLine
 10
115.4996772198
 20
101.9706883608
 30
0.0
 11
117.803651816
 21
101.9706883608
 31
0.0
  0
LINE
  5
167
330
1F
100
AcDbEntity
  8
0
  6
HIDDEN
 62
     7
370
     0
100
AcDbLine
 10
117.803651816
 20
127.9706883608
 30
0.0
 11
112.4996772198
 21
127.9706883608
 31
0.0
  0
LINE
  5
168
330
1F
100
AcDbEntity
  8
0
  6
HIDDEN
 62
     7
370
     0
100
AcDbLine
 10
198.2496772198
 20
136.2456883608
 30
0.0
 11
194.2496772198
 21
136.2456883608
 31
0.0
  0
LINE
  5
169
330
1F
100
AcDbEntity
  8
0
  6
HIDDEN
 62
     7
370
     0
100
AcDbLine
 10
194.2496772198
 20
93.6956883608
 30
0.0
 11
198.2496772198
 21
93.6956883608
 31
0.0
  0
LINE
  5
16A
330
1F
100
AcDbEntity
  8
0
  6
HIDDEN
 62
     7
370
     0
100
AcDbLine
 10
150.0996772198
 20
106.4706883608
 30
0.0
 11
152.5996772198
 21
106.4706883608
 31
0.0
  0
LINE
  5
16B
330
1F
100
AcDbEntity
  8
0
  6
HIDDEN
 62
     7
370
     0
100
AcDbLine
 10
152.5996772198
 20
123.4706883608
 30
0.0
 11
150.0996772198
 21
123.4706883608
 31
0.0
  0
LINE
  5
16C
330
1F
100
AcDbEntity
  8
0
  6
HIDDEN
 62
     7
370
     0
100
AcDbLine
 10
142.7496772198
 20
106.9706883608
 30
0.0
 11
143.2496772198
 21
107.4706883608
 31
0.0
  0
LINE
  5
16D
330
1F
100
AcDbEntity
  8
0
  6
HIDDEN
 62
     7
370
     0
100
AcDbLine
 10
143.2496772198
 20
122.4706883608
 30
0.0
 11
142.7496772198
 21
122.9706883608
 31
0.0
  0
LINE
  5
16E
330
1F
100
AcDbEntity
  8
0
  6
HIDDEN
 62
     7
370
     0
100
AcDbLine
 10
143.2496772198
 20
107.4706883608
 30
0.0
 11
150.0996772198
 21
107.4706883608
 31
0.0
  0
LINE
  5
16F
330
1F
100
AcDbEntity
  8
0
  6
HIDDEN
 62
     7
370
     0
100
AcDbLine
 10
150.0996772198
 20
122.4706883608
 30
0.0
 11
143.2496772198
 21
122.4706883608
 31
0.0
  0
LINE
  5
170
330
1F
100
AcDbEntity
  8
0
  6
HIDDEN
 62
     7
370
     0
100
AcDbLine
 10
139.7496772198
 20
139.9706883608
 30
0.0
 11
139.7496772198
 21
135.8706883608
 31
0.0
  0
LINE
  5
171
330
1F
100
AcDbEntity
  8
0
  6
HIDDEN
 62
     7
370
     0
100
AcDbLine
 10
128.7333017561
 20
95.9194127883
 30
0.0
 11
128.2996838649
 21
96.398080722
 31
0.0
  0
LINE
  5
172
330
1F
100
AcDbEntity
  8
0
  6
HIDDEN
 62
     7
370
     0
100
AcDbLine
 10
122.299680839
 20
96.7445351952
 30
0.0
 11
121.8181018532
 21
96.265867334
 31
0.0
  0
LINE
  5
173
330
1F
100
AcDbEntity
  8
0
  6
HIDDEN
 62
     7
370
     0
100
AcDbLine
 10
121.8179765998
 20
133.6755043679
 30
0.0
 11
122.2996738447
 21
133.1967818983
 31
0.0
  0
LINE
  5
174
330
1F
100
AcDbEntity
  8
0
  6
HIDDEN
 62
     7
370
     0
100
AcDbLine
 10
128.2996771685
 20
133.5432457088
 30
0.0
 11
128.7334057551
 21
134.0219681833
 31
0.0
  0
LINE
  5
175
330
1F
100
AcDbEntity
  8
0
  6
HIDDEN
 62
     7
370
     0
100
AcDbLine
 10
152.5996772198
 20
111.5706883608
 30
0.0
 11
167.7996772198
 21
111.5706883608
 31
0.0
  0
LINE
  5
176
330
1F
100
AcDbEntity
  8
0
  6
HIDDEN
 62
     7
370
     0
100
AcDbLine
 10
167.7996772198
 20
118.3706883608
 30
0.0
 11
152.5996772198
 21
118.3706883608
 31
0.0
  0
LINE
  5
177
330
1F
100
AcDbEntity
  8
0
  6
HIDDEN
 62
     7
370
     0
100
AcDbLine
 10
128.2996772198
 20
130.9291898183
 30
0.0
 11
128.2996772198
 21
133.542531003
 31
0.0
  0
LINE
  5
178
330
1F
100
AcDbEntity
  8
0
  6
HIDDEN
 62
     7
370
     0
100
AcDbLine
 10
122.2996772198
 20
133.1963840127
 30
0.0
 11
122.2996772198
 21
130.9644585314
 31
0.0
  0
LINE
  5
179
330
1F
100
AcDbEntity
  8
0
  6
HIDDEN
 62
     7
370
     0
100
AcDbLine
 10
128.2996772198
 20
96.3987164223
 30
0.0
 11
128.2996772198
 21
99.0121869033
 31
0.0
  0
LINE
  5
17A
330
1F
100
AcDbEntity
  8
0
  6
HIDDEN
 62
     7
370
     0
100
AcDbLine
 10
122.2996772198
 20
98.9769181902
 30
0.0
 11
122.2996772198
 21
96.7449894985
 31
0.0
  0
DIMENSION
  5
17B
330
1F
100
AcDbEntity
  8
VERMASSUNG
100
AcDbDimension
  2
_D
 10
103.0759556738
 20
89.9706883608
 30
0.0
 11
103.0759556738
 21
114.9706883608
 31
0.0
 70
   160
  1
HSK A %%c<>
 71
     2
 42
-1.0
  3
SLDDIMSTYLE0
100
AcDbAlignedDimension
 13
133.0996772198
 23
139.9706883608
 33
0.0
 14
133.0996772198
 24
89.9706883608
 34
0.0
 50
90.0
100
AcDbRotatedDimension
  0
DIMENSION
  5
188
330
1F
100
AcDbEntity
  8
VERMASSUNG
100
AcDbDimension
  2
_D_1
 10
198.7996772198
 20
161.2448905408
 30
0.0
 11
153.3496772198
 21
161.2448905408
 31
0.0
 70
   160
  1
<>
 71
     2
 42
-1.0
  3
SLDDIMSTYLE0
100
AcDbAlignedDimension
 13
107.8996772198
 23
130.0806883608
 33
0.0
 14
198.7996772198
 24
141.9706883608
 34
0.0
100
AcDbRotatedDimension
  0
DIMENSION
  5
192
330
1F
100
AcDbEntity
  8
VERMASSUNG
100
AcDbDimension
  2
_D_2
 10
198.7996772198
 20
155.2448905408
 30
0.0
 11
165.7996772198
 21
155.2448905408
 31
0.0
 70
   160
  1
<>
 71
     2
 42
-1.0
  3
SLDDIMSTYLE0
100
AcDbAlignedDimension
 13
132.7996772198
 23
139.6706883608
 33
0.0
 14
198.7996772198
 24
141.9706883608
 34
0.0
100
AcDbRotatedDimension
  0
DIMENSION
  5
19C
330
1F
100
AcDbEntity
  8
VERMASSUNG
100
AcDbDimension
  2
_D_3
 10
198.7996772198
 20
149.2448905408
 30
0.0
 11
178.7746772198
 21
149.2448905408
 31
0.0
 70
   160
  1
<>
 71
     2
 42
-1.0
  3
SLDDIMSTYLE0
100
AcDbAlignedDimension
 13
158.7496772198
 23
138.6214811594
 33
0.0
 14
198.7996772198
 24
141.9706883608
 34
0.0
100
AcDbRotatedDimension
  0
DIMENSION
  5
1A6
330
1F
100
AcDbEntity
  8
VERMASSUNG
100
AcDbDimension
  2
_D_4
 10
208.7996772198
 20
87.4706883608
 30
0.0
 11
208.7996772198
 21
114.9706883608
 31
0.0
 70
   160
  1
MBM %%c<>
 71
     2
 42
-1.0
  3
SLDDIMSTYLE0
100
AcDbAlignedDimension
 13
198.2996772198
 23
142.4706883608
 33
0.0
 14
198.2996772198
 24
87.4706883608
 34
0.0
 50
90.0
100
AcDbRotatedDimension
  0
LINE
  5
1B2
330
1F
100
AcDbEntity
  8
VERMASSUNG
  6
CENTERX2
 62
     7
370
     0
100
AcDbLine
 10
125.2996772198
 20
101.0864913821
 30
0.0
 11
125.2996772198
 21
94.6078464477
 31
0.0
  0
LINE
  5
1B3
330
1F
100
AcDbEntity
  8
VERMASSUNG
  6
CENTERX2
 62
     7
370
     0
100
AcDbLine
 10
125.2996772198
 20
135.3326467113
 30
0.0
 11
125.2996772198
 21
128.8548853396
 31
0.0
  0
LINE
  5
1B4
330
1F
100
AcDbEntity
  8
VERMASSUNG
  6
CENTERX2
 62
     7
370
     0
100
AcDbLine
 10
105.6462690622
 20
114.9706883608
 30
0.0
 11
200.7996772198
 21
114.9706883608
 31
0.0
  0
LINE
  5
1B5
330
1F
100
AcDbEntity
  8
0
  6
Continuous
 62
     7
370
    15
100
AcDbLine
 10
253.5618090512
 20
58.6633966556
 30
0.0
 11
253.3850036317
 21
58.7654974294
 31
0.0
  0
LINE
  5
1B6
330
1F
100
AcDbEntity
  8
0
  6
Continuous
 62
     7
370
    15
100
AcDbLine
 10
249.4952844032
 20
58.7654974294
 30
0.0
 11
249.3184789837
 21
58.6633966556
 31
0.0
  0
LINE
  5
1B7
330
1F
100
AcDbEntity
  8
0
  6
Continuous
 62
     7
370
    15
100
AcDbLine
 10
254.4401440175
 20
57.1327807011
 30
0.0
 11
254.4401440175
 21
57.4389835056
 31
0.0
  0
LINE
  5
1B8
330
1F
100
AcDbEntity
  8
0
  6
Continuous
 62
     7
370
    15
100
AcDbLine
 10
248.4401440175
 20
57.4389835056
 30
0.0
 11
248.4401440175
 21
57.1327807011
 31
0.0
  0
LINE
  5
1B9
330
1F
100
AcDbEntity
  8
0
  6
Continuous
 62
     7
370
    15
100
AcDbLine
 10
256.4091493705
 20
32.321525276
 30
0.0
 11
256.5858973346
 21
32.4235928762
 31
0.0
  0
LINE
  5
1BA
330
1F
100
AcDbEntity
  8
0
  6
Continuous
 62
     7
370
    15
100
AcDbLine
 10
266.1302873966
 20
48.9567527932
 30
0.0
 11
266.1302873966
 21
49.1608548211
 31
0.0
  0
LINE
  5
1BB
330
1F
100
AcDbEntity
  8
0
  6
Continuous
 62
     7
370
    15
100
AcDbLine
 10
241.5781765801
 20
36.2321728236
 30
0.0
 11
249.5331278684
 21
31.6398771946
 31
0.0
  0
LINE
  5
1BC
330
1F
100
AcDbEntity
  8
0
  6
Continuous
 62
     7
370
    15
100
AcDbLine
 10
263.2820104422
 20
55.4562209101
 30
0.0
 11
255.3270591538
 21
60.0485165391
 31
0.0
  0
SPLINE
  5
1BD
330
1F
100
AcDbEntity
  8
0
  6
Continuous
 62
     7
370
    15
100
AcDbSpline
210
0.0
220
0.0
230
1.0
 70
     8
 71
     3
 72
    38
 73
    34
 74
     0
 42
0.000000001
 43
0.00000001
 40
0.0
 40
0.0
 40
0.0
 40
0.0
 40
0.0126589080668711
 40
0.0454608500295488
 40
0.0783017217992899
 40
0.1112859681209902
 40
0.1444818948665854
 40
0.1779119307422152
 40
0.2115577092916495
 40
0.2453751479904812
 40
0.2793115863603244
 40
0.3133185991590315
 40
0.3473583338845542
 40
0.3814013183348869
 40
0.4154313164993012
 40
0.4494417703841308
 40
0.4834305972378531
 40
0.5173985462704773
 40
0.5513480761017717
 40
0.5852826332232576
 40
0.6192062116430749
 40
0.6531230983782209
 40
0.6870377357681278
 40
0.7209544310617639
 40
0.7548764688727106
 40
0.7888084571941971
 40
0.8227549909071947
 40
0.8567205643071756
 40
0.8907094007891663
 40
0.9247251422844311
 40
0.9587703168745345
 40
0.991045086820247
 40
1.0
 40
1.0
 40
1.0
 40
1.0
 10
255.1844745451654
 20
60.11631130946522
 30
0.0
 10
255.1125451629884
 20
60.15773779452298
 30
0.0
 10
254.8542313464572
 20
60.30650917468573
 30
0.0
 10
254.3673538741583
 20
60.4851377041099
 30
0.0
 10
253.730051561285
 20
60.65103948055715
 30
0.0
 10
253.0586315302516
 20
60.73512119111457
 30
0.0
 10
252.3597007116967
 20
60.74280661861577
 30
0.0
 10
251.6360110147304
 20
60.6720261958893
 30
0.0
 10
250.8920560899512
 20
60.52319397649088
 30
0.0
 10
250.1325303121725
 20
60.29681446999939
 30
0.0
 10
249.3625204873245
 20
59.99428294819084
 30
0.0
 10
248.5871748666884
 20
59.61765313024656
 30
0.0
 10
247.8115982324673
 20
59.16959410880108
 30
0.0
 10
247.0407421436004
 20
58.6532575650911
 30
0.0
 10
246.279370776556
 20
58.07218076976623
 30
0.0
 10
245.532050529177
 20
57.43020244545284
 30
0.0
 10
244.8031935744457
 20
56.73144417384061
 30
0.0
 10
244.0970837274283
 20
55.9803084430657
 30
0.0
 10
243.4178704442603
 20
55.18146318275721
 30
0.0
 10
242.7695556078983
 20
54.3398241752698
 30
0.0
 10
242.1559757393342
 20
53.46053391119872
 30
0.0
 10
241.580781907429
 20
52.54893662346545
 30
0.0
 10
241.0474203187023
 20
51.61055192576061
 30
0.0
 10
240.5591170164616
 20
50.65105386754022
 30
0.0
 10
240.118851146742
 20
49.67622627777301
 30
0.0
 10
239.7293366373809
 20
48.69192377900067
 30
0.0
 10
239.3930127373415
 20
47.70402842854872
 30
0.0
 10
239.1120207881011
 20
46.71841579494055
 30
0.0
 10
238.8882749477968
 20
45.74096640572414
 30
0.0
 10
238.7231756514724
 20
44.77737411263982
 30
0.0
 10
238.6205154127683
 20
43.85036839647661
 30
0.0
 10
238.5859483673822
 20
43.17279305210032
 30
0.0
 10
238.5838982853895
 20
42.81035989314752
 30
0.0
 10
238.5834530162323
 20
42.7316409405422
 30
0.0
  0
SPLINE
  5
1BE
330
1F
100
AcDbEntity
  8
0
  6
Continuous
 62
     7
370
    15
100
AcDbSpline
210
0.0
220
0.0
230
1.0
 70
     8
 71
     3
 72
    18
 73
    14
 74
     0
 42
0.000000001
 43
0.00000001
 40
0.0
 40
0.0
 40
0.0
 40
0.0
 40
0.0519968535918298
 40
0.150563727309519
 40
0.249179018235091
 40
0.3477204054598435
 40
0.4460705614992329
 40
0.5440762875987358
 40
0.6415671838121562
 40
0.7383964526270452
 40
0.8344970802514855
 40
0.9299303431299114
 40
1.0
 40
1.0
 40
1.0
 40
1.0
 10
238.5834530162323
 20
42.7316409405422
 30
0.0
 10
238.5851854796208
 20
42.57485796268996
 30
0.0
 10
238.5902020551859
 20
42.12087223291058
 30
0.0
 10
238.6460127351109
 20
41.39602232524645
 30
0.0
 10
238.7713447440226
 20
40.57457069697029
 30
0.0
 10
238.9594977588328
 20
39.79925873543718
 30
0.0
 10
239.208582857473
 20
39.07508568706785
 30
0.0
 10
239.5173807662134
 20
38.40740318681322
 30
0.0
 10
239.8837153818912
 20
37.8014039566127
 30
0.0
 10
240.304085765178
 20
37.26066882265818
 30
0.0
 10
240.7766601624042
 20
36.79212525749784
 30
0.0
 10
241.245955293259
 20
36.42167016856904
 30
0.0
 10
241.5756014312277
 20
36.24155219276714
 30
0.0
 10
241.7151650824981
 20
36.16529489906047
 30
0.0
  0
LINE
  5
1BF
330
1F
100
AcDbEntity
  8
0
  6
Continuous
 62
     7
370
    15
100
AcDbLine
 10
237.6535024432
 20
42.5391813907
 30
0.0
 11
238.6126553843
 21
41.9854741838
 31
0.0
  0
LINE
  5
1C0
330
1F
100
AcDbEntity
  8
0
  6
Continuous
 62
     7
370
    15
100
AcDbLine
 10
248.8621181254
 20
59.7393051403
 30
0.0
 11
247.9026694527
 21
60.2931830695
 31
0.0
  0
LINE
  5
1C1
330
1F
100
AcDbEntity
  8
0
  6
Continuous
 62
     7
370
    15
100
AcDbLine
 10
227.1063960096
 20
46.0298904953
 30
0.0
 11
232.1650616699
 21
43.1095849701
 31
0.0
  0
LINE
  5
1C2
330
1F
100
AcDbEntity
  8
0
  6
Continuous
 62
     7
370
    15
100
AcDbLine
 10
242.326712954
 20
66.1101200768
 30
0.0
 11
239.6053801676
 21
67.6811120548
 31
0.0
  0
SPLINE
  5
1C3
330
1F
100
AcDbEntity
  8
0
  6
Continuous
 62
     7
370
    15
100
AcDbSpline
210
0.0
220
0.0
230
1.0
 70
     8
 71
     3
 72
    10
 73
     6
 74
     0
 42
0.000000001
 43
0.00000001
 40
0.0
 40
0.0
 40
0.0
 40
0.0
 40
0.1615603326188017
 40
0.6556968465121333
 40
1.0
 40
1.0
 40
1.0
 40
1.0
 10
224.6031021799296
 20
53.58754302473412
 30
0.0
 10
224.5880526412393
 20
53.48865525360955
 30
0.0
 10
224.5269736938225
 20
53.08731664137739
 30
0.0
 10
224.4846449341472
 20
52.49420469693162
 30
0.0
 10
224.4764745066109
 20
52.01213989175525
 30
0.0
 10
224.4731193409674
 20
51.81418118456985
 30
0.0
  0
SPLINE
  5
1C4
330
1F
100
AcDbEntity
  8
0
  6
Continuous
 62
     7
370
    15
100
AcDbSpline
210
0.0
220
0.0
230
1.0
 70
     8
 71
     3
 72
    14
 73
    10
 74
     0
 42
0.000000001
 43
0.00000001
 40
0.0
 40
0.0
 40
0.0
 40
0.0
 40
0.097648552661131
 40
0.2516284563083604
 40
0.4056688326595375
 40
0.5597189834572841
 40
0.7137495097229187
 40
0.867749282089461
 40
1.0
 40
1.0
 40
1.0
 40
1.0
 10
234.985536759006
 20
67.85430534343541
 30
0.0
 10
234.8333535292538
 20
67.80139274151506
 30
0.0
 10
234.4411958358217
 20
67.66504339503082
 30
0.0
 10
233.7996409361716
 20
67.36147571362416
 30
0.0
 10
233.0679603339752
 20
66.9558465219664
 30
0.0
 10
232.3379290074168
 20
66.47896069220448
 30
0.0
 10
231.615706955228
 20
65.93627103263283
 30
0.0
 10
230.9369312259864
 20
65.36545145702166
 30
0.0
 10
230.5095258559507
 20
64.94975091476601
 30
0.0
 10
230.3120601084812
 20
64.75769292004993
 30
0.0
  0
SPLINE
  5
1C5
330
1F
100
AcDbEntity
  8
0
  6
Continuous
 62
     7
370
    15
100
AcDbSpline
210
0.0
220
0.0
230
1.0
 70
     8
 71
     3
 72
    11
 73
     7
 74
     0
 42
0.000000001
 43
0.00000001
 40
0.0
 40
0.0
 40
0.0
 40
0.0
 40
0.1916157886045363
 40
0.5556596091852087
 40
0.9198211569572232
 40
1.0
 40
1.0
 40
1.0
 40
1.0
 10
224.4731193409674
 20
51.81418118456985
 30
0.0
 10
224.4747089881394
 20
51.66681303542607
 30
0.0
 10
224.4793187477671
 20
51.23946553574491
 30
0.0
 10
224.5372954791672
 20
50.56297169950934
 30
0.0
 10
224.6164252564379
 20
49.98673676392866
 30
0.0
 10
224.692486907907
 20
49.69635122181389
 30
0.0
 10
224.706211825427
 20
49.64395270643153
 30
0.0
  0
SPLINE
  5
1C6
330
1F
100
AcDbEntity
  8
0
  6
Continuous
 62
     7
370
    15
100
AcDbSpline
210
0.0
220
0.0
230
1.0
 70
     8
 71
     3
 72
    10
 73
     6
 74
     0
 42
0.000000001
 43
0.00000001
 40
0.0
 40
0.0
 40
0.0
 40
0.0
 40
0.1529170180437892
 40
0.7138124921260269
 40
1.0
 40
1.0
 40
1.0
 40
1.0
 10
237.6710707957361
 20
40.3567636908317
 30
0.0
 10
237.7278728460481
 20
40.34709738836288
 30
0.0
 10
237.9930232760641
 20
40.30197535065135
 30
0.0
 10
238.3844724498398
 20
40.29209315820916
 30
0.0
 10
238.7262326738821
 20
40.32445787707319
 30
0.0
 10
238.841696576348
 20
40.33539231730164
 30
0.0
  0
LINE
  5
1C7
330
1F
100
AcDbEntity
  8
0
  6
Continuous
 62
     7
370
    15
100
AcDbLine
 10
234.5635203764
 20
41.7249842309
 30
0.0
 11
235.962908444
 21
40.917134695
 31
0.0
  0
LINE
  5
1C8
330
1F
100
AcDbEntity
  8
0
  6
Continuous
 62
     7
370
    15
100
AcDbLine
 10
233.8350671748
 20
67.3679251096
 30
0.0
 11
229.1328477503
 21
69.7107005176
 31
0.0
  0
LINE
  5
1C9
330
1F
100
AcDbEntity
  8
0
  6
Continuous
 62
     7
370
    15
100
AcDbLine
 10
220.1116988267
 20
54.0839190449
 30
0.0
 11
224.4964192367
 21
51.1805393029
 31
0.0
  0
LINE
  5
1CA
330
1F
100
AcDbEntity
  8
0
  6
Continuous
 62
     7
370
    15
100
AcDbLine
 10
249.3229565171
 20
61.9081041119
 30
0.0
 11
249.2169135632
 21
62.0087252215
 31
0.0
  0
SPLINE
  5
1CB
330
1F
100
AcDbEntity
  8
0
  6
Continuous
 62
     7
370
    15
100
AcDbSpline
210
0.0
220
0.0
230
1.0
 70
     8
 71
     3
 72
    11
 73
     7
 74
     0
 42
0.000000001
 43
0.00000001
 40
0.0
 40
0.0
 40
0.0
 40
0.0
 40
0.1840008953240672
 40
0.5295490486980897
 40
0.8733950606726215
 40
1.0
 40
1.0
 40
1.0
 40
1.0
 10
250.405282852414
 20
60.36594729872476
 30
0.0
 10
250.3544583357927
 20
60.4775309644283
 30
0.0
 10
250.2081869039069
 20
60.79866540195093
 30
0.0
 10
249.9017809771386
 20
61.26126972953111
 30
0.0
 10
249.5890840417303
 20
61.66316788292406
 30
0.0
 10
249.3793885189613
 20
61.85616569727024
 30
0.0
 10
249.322956517147
 20
61.90810411190835
 30
0.0
  0
SPLINE
  5
1CC
330
1F
100
AcDbEntity
  8
0
  6
Continuous
 62
     7
370
    15
100
AcDbSpline
210
0.0
220
0.0
230
1.0
 70
     8
 71
     3
 72
    25
 73
    21
 74
     0
 42
0.000000001
 43
0.00000001
 40
0.0
 40
0.0
 40
0.0
 40
0.0
 40
0.051362330675656
 40
0.1055869409072812
 40
0.1601626199978898
 40
0.2153412918433635
 40
0.2711981166410327
 40
0.3276494036235668
 40
0.38452338459496
 40
0.441638364679472
 40
0.4988510678056067
 40
0.5560526584796637
 40
0.6132026249051199
 40
0.6702889702471964
 40
0.7273144322143762
 40
0.7842897072050085
 40
0.841229522443112
 40
0.8981505466964103
 40
0.955070375664076
 40
1.0
 40
1.0
 40
1.0
 40
1.0
 10
229.1655801130611
 20
69.69180480212796
 30
0.0
 10
229.0128419744901
 20
69.76279471387618
 30
0.0
 10
228.6988540265246
 20
69.90873060732511
 30
0.0
 10
228.1791162732588
 20
70.03455078752148
 30
0.0
 10
227.6240039603314
 20
70.09147214096322
 30
0.0
 10
227.0422215882537
 20
70.06903801373227
 30
0.0
 10
226.4390319406462
 20
69.9689126372976
 30
0.0
 10
225.8193458887714
 20
69.79068546307626
 30
0.0
 10
225.1893907408816
 20
69.53580417142976
 30
0.0
 10
224.5557164683837
 20
69.20677567791681
 30
0.0
 10
223.9249097867799
 20
68.80726154274875
 30
0.0
 10
223.3032004619828
 20
68.3416817220631
 30
0.0
 10
222.6964090468189
 20
67.81498705455064
 30
0.0
 10
222.1099588454105
 20
67.23245610221525
 30
0.0
 10
221.5489682738885
 20
66.59973487303122
 30
0.0
 10
221.0185022687733
 20
65.92276765066408
 30
0.0
 10
220.5227189823892
 20
65.20797575532649
 30
0.0
 10
220.067983853544
 20
64.46145635558305
 30
0.0
 10
219.6804302717638
 20
63.74590143947
 30
0.0
 10
219.4686062386505
 20
63.27484735263945
 30
0.0
 10
219.3751626910968
 20
63.06704767893761
 30
0.0
  0
LINE
  5
1CD
330
1F
100
AcDbEntity
  8
0
  6
Continuous
 62
     7
370
    15
100
AcDbLine
 10
219.3506563375
 20
61.0238893586
 30
0.0
 11
221.0809053291
 21
60.0250378769
 31
0.0
  0
LINE
  5
1CE
330
1F
100
AcDbEntity
  8
0
  6
Continuous
 62
     7
370
    15
100
AcDbLine
 10
219.1041509138
 20
62.0381593426
 30
0.0
 11
219.1041509138
 21
61.5687246783
 31
0.0
  0
LINE
  5
1CF
330
1F
100
AcDbEntity
  8
0
  6
Continuous
 62
     7
370
    15
100
AcDbLine
 10
219.1041509138
 20
55.7916221317
 30
0.0
 11
219.1041509138
 21
55.3221874674
 31
0.0
  0
SPLINE
  5
1D0
330
1F
100
AcDbEntity
  8
0
  6
Continuous
 62
     7
370
    15
100
AcDbSpline
210
0.0
220
0.0
230
1.0
 70
     8
 71
     3
 72
    10
 73
     6
 74
     0
 42
0.000000001
 43
0.00000001
 40
0.0
 40
0.0
 40
0.0
 40
0.0
 40
0.3191832518565164
 40
0.7932582900299928
 40
1.0
 40
1.0
 40
1.0
 40
1.0
 10
219.3069820173915
 20
54.84051390680728
 30
0.0
 10
219.384914068276
 20
54.74273222538446
 30
0.0
 10
219.5785966786999
 20
54.49971781610524
 30
0.0
 10
219.8663442494895
 20
54.24232479832033
 30
0.0
 10
220.0880128439787
 20
54.10863287834373
 30
0.0
 10
220.155326323555
 20
54.06803502845167
 30
0.0
  0
LWPOLYLINE
  5
1D1
330
1F
100
AcDbEntity
  8
0
  6
Continuous
 62
     7
370
    15
100
AcDbPolyline
 90
       34
 70
   128
 43
0.0
 10
249.4956003692
 20
56.5205575548
 10
249.162733501
 20
56.7532897925
 10
248.9121781826
 20
57.0181827656
 10
248.752990136
 20
57.305662552
 10
248.6909228321
 20
57.6053388831
 10
248.7282195447
 20
57.9063806755
 10
248.8635322737
 20
58.1979074945
 10
249.0919704644
 20
58.4693828013
 10
249.4052777654
 20
58.710994771
 10
249.7921304346
 20
58.9140109174
 10
250.2385466085
 20
59.0710937082
 10
250.7283916434
 20
59.1765657619
 10
251.2439612637
 20
59.2266150438
 10
251.7666214398
 20
59.2194326423
 10
252.2774818712
 20
59.1552781482
 10
252.7580787309
 20
59.0364702721
 10
253.1910419963
 20
58.8673030401
 10
253.5607232468
 20
58.6538905969
 10
253.8537612388
 20
58.403946224
 10
254.0595648158
 20
58.1265035624
 10
254.1706957003
 20
57.8315901127
 10
254.1831373326
 20
57.5298648155
 10
254.0964400398
 20
57.232232809
 10
253.9137372877
 20
56.9494512895
 10
253.64163243
 20
56.6917407178
 10
253.2899600451
 20
56.4684154255
 10
252.8714304894
 20
56.2875469705
 10
252.4011705114
 20
56.1556724101
 10
251.8961765319
 20
56.0775580344
 10
251.3747003492
 20
56.0560271004
 10
250.8555894712
 20
56.0918577923
 10
250.3576059175
 20
56.1837550955
 10
249.8987481113
 20
56.328397602
 10
249.4956003692
 20
56.5205575548
  0
LWPOLYLINE
  5
1D2
330
1F
100
AcDbEntity
  8
0
  6
Continuous
 62
     7
370
    15
100
AcDbPolyline
 90
       10
 70
   128
 43
0.0
 10
249.3188236739
 20
56.2143713379
 10
248.9741377911
 20
56.4527143052
 10
248.7087113775
 20
56.7227567762
 10
248.5310754563
 20
57.0158193635
 10
248.4469393923
 20
57.3224827946
 10
248.4590073878
 20
57.6328906543
 10
248.5668915674
 20
57.9370661788
 10
248.7671244449
 20
58.2252329163
 10
249.0532703708
 20
58.4881289508
 10
249.3184789837
 20
58.6633966556
  0
LWPOLYLINE
  5
1D3
330
1F
100
AcDbEntity
  8
0
  6
Continuous
 62
     7
370
    15
100
AcDbPolyline
 90
       19
 70
   128
 43
0.0
 10
253.5618090512
 20
58.6633966556
 10
253.7430782385
 20
58.5488923564
 10
254.0493674169
 20
58.2936721959
 10
254.2717940084
 20
58.0109816377
 10
254.4032090393
 20
57.7099065888
 10
254.4393887223
 20
57.4001238492
 10
254.3791702127
 20
57.0915900909
 10
254.224488983
 20
56.7942218428
 10
253.9803166152
 20
56.517576765
 10
253.6545010099
 20
56.270546458
 10
253.257514149
 20
56.0610706791
 10
252.8021155167
 20
55.8958821522
 10
252.3029419998
 20
55.7802901725
 10
251.7760374458
 20
55.7180099612
 10
251.2383370006
 20
55.7110432557
 10
250.7071227991
 20
55.7596139716
 10
250.1994685026
 20
55.8621610062
 10
249.731690538
 20
56.0153884132
 10
249.3188236739
 20
56.2143713379
  0
LWPOLYLINE
  5
1D4
330
1F
100
AcDbEntity
  8
0
  6
Continuous
 62
     7
370
    15
100
AcDbPolyline
 90
       28
 70
   128
 43
0.0
 10
250.2027071504
 20
56.9287616107
 10
249.9506898407
 20
57.1127592829
 10
249.7789693912
 20
57.325348769
 10
249.6968032958
 20
57.5550693148
 10
249.70862115
 20
57.7895366261
 10
249.8137858501
 20
58.0161105097
 10
250.00662794
 20
58.2225763087
 10
250.2767512526
 20
58.3978033985
 10
250.6095933704
 20
58.5323452413
 10
250.9872106885
 20
58.6189486516
 10
251.3892457597
 20
58.6529448171
 10
251.794024769
 20
58.6325009956
 10
252.1797259755
 20
58.558719319
 10
252.5255561272
 20
58.4355773765
 10
252.8128714311
 20
58.2697137821
 10
253.0261826448
 20
58.070070285
 10
253.1539901056
 20
57.847409718
 10
253.1894036801
 20
57.6137357698
 10
253.1305142135
 20
57.3816458634
 10
252.980496452
 20
57.1636520258
 10
252.7474378921
 20
56.9715063611
 10
252.4439027811
 20
56.815567492
 10
252.0862547753
 20
56.7042421231
 10
251.6937747713
 20
56.643531834
 10
251.2876214677
 20
56.636709532
 10
250.8896906942
 20
56.6841430092
 10
250.5214350019
 20
56.7832751146
 10
250.2027071504
 20
56.9287616107
  0
SPLINE
  5
1D5
330
1F
100
AcDbEntity
  8
0
  6
Continuous
 62
     7
370
    15
100
AcDbSpline
210
0.0
220
0.0
230
1.0
 70
     8
 71
     3
 72
     9
 73
     5
 74
     0
 42
0.000000001
 43
0.00000001
 40
0.0
 40
0.0
 40
0.0
 40
0.0
 40
0.6311775999677022
 40
0.9999999999999999
 40
0.9999999999999999
 40
0.9999999999999999
 40
0.9999999999999999
 10
250.3796523638628
 20
56.83120052845242
 30
0.0
 10
250.2446845197103
 20
56.9241354596282
 30
0.0
 10
250.0308495481279
 20
57.07137600045308
 30
0.0
 10
249.8381743419579
 20
57.28929722853258
 30
0.0
 10
249.7671114099916
 20
57.36967145889086
 30
0.0
  0
SPLINE
  5
1D6
330
1F
100
AcDbEntity
  8
0
  6
Continuous
 62
     7
370
    15
100
AcDbSpline
210
0.0
220
0.0
230
1.0
 70
     8
 71
     3
 72
    11
 73
     7
 74
     0
 42
0.000000001
 43
0.00000001
 40
0.0
 40
0.0
 40
0.0
 40
0.0
 40
0.2164553779443449
 40
0.4403112895790563
 40
0.7519005688038768
 40
1.0
 40
1.0
 40
1.0
 40
1.0
 10
253.1131766249428
 20
57.88725346193076
 30
0.0
 10
253.0824684806706
 20
57.77673186096806
 30
0.0
 10
253.0200022914101
 20
57.55190996414856
 30
0.0
 10
252.9040817278267
 20
57.22694730090167
 30
0.0
 10
252.7797361296693
 20
57.00439780856921
 30
0.0
 10
252.7001624137492
 20
56.94691384896948
 30
0.0
 10
252.6648888888588
 20
56.92143229571666
 30
0.0
  0
SPLINE
  5
1D7
330
1F
100
AcDbEntity
  8
0
  6
Continuous
 62
     7
370
    15
100
AcDbSpline
210
0.0
220
0.0
230
1.0
 70
     8
 71
     3
 72
    11
 73
     7
 74
     0
 42
0.000000001
 43
0.00000001
 40
0.0
 40
0.0
 40
0.0
 40
0.0
 40
0.1843643438496127
 40
0.5174526391740203
 40
0.8663352079125943
 40
1.0
 40
1.0
 40
1.0
 40
1.0
 10
251.8884317535512
 20
58.59428362662491
 30
0.0
 10
251.9595020157044
 20
58.51514971406177
 30
0.0
 10
252.1589738547274
 20
58.29304574835478
 30
0.0
 10
252.5306076647414
 20
57.9989232906053
 30
0.0
 10
252.8766388372637
 20
57.89459749982488
 30
0.0
 10
253.0618683635568
 20
57.88884648357689
 30
0.0
 10
253.1131766249428
 20
57.88725346193076
 30
0.0
  0
SPLINE
  5
1D8
330
1F
100
AcDbEntity
  8
0
  6
Continuous
 62
     7
370
    15
100
AcDbSpline
210
0.0
220
0.0
230
1.0
 70
     8
 71
     3
 72
    11
 73
     7
 74
     0
 42
0.000000001
 43
0.00000001
 40
0.0
 40
0.0
 40
0.0
 40
0.0
 40
0.2164553779443452
 40
0.4403112895790577
 40
0.7519005688038782
 40
1.0
 40
1.0
 40
1.0
 40
1.0
 10
250.2153991460757
 20
58.33549262510497
 30
0.0
 10
250.330003500706
 20
58.30885814417123
 30
0.0
 10
250.5631304927813
 20
58.2546785587131
 30
0.0
 10
250.9957519257161
 20
58.24638244961904
 30
0.0
 10
251.4598160157376
 20
58.36351463994439
 30
0.0
 10
251.7567891664982
 20
58.52340655950367
 30
0.0
 10
251.8884317535512
 20
58.59428362662491
 30
0.0
  0
SPLINE
  5
1D9
330
1F
100
AcDbEntity
  8
0
  6
Continuous
 62
     7
370
    15
100
AcDbSpline
210
0.0
220
0.0
230
1.0
 70
     8
 71
     3
 72
    11
 73
     7
 74
     0
 42
0.000000001
 43
0.00000001
 40
0.0
 40
0.0
 40
0.0
 40
0.0
 40
0.2164553779443448
 40
0.4403112895790571
 40
0.7519005688038776
 40
1.0
 40
1.0
 40
1.0
 40
1.0
 10
249.7671114099916
 20
57.36967145889086
 30
0.0
 10
249.7978195542639
 20
57.39146922928738
 30
0.0
 10
249.8602857435244
 20
57.43581002822889
 30
0.0
 10
249.9762063071076
 20
57.61034143941831
 30
0.0
 10
250.1005519052652
 20
57.92358894066496
 30
0.0
 10
250.1801256211853
 20
58.20898288257201
 30
0.0
 10
250.2153991460757
 20
58.33549262510497
 30
0.0
  0
LINE
  5
1DA
330
1F
100
AcDbEntity
  8
0
  6
Continuous
 62
     7
370
    15
100
AcDbLine
 10
250.2153991461
 20
56.9215090685
 30
0.0
 11
250.2153991461
 21
58.3354926251
 31
0.0
  0
LINE
  5
1DB
330
1F
100
AcDbEntity
  8
0
  6
Continuous
 62
     7
370
    15
100
AcDbLine
 10
251.8884317536
 20
56.6665741146
 30
0.0
 11
251.8884317536
 21
58.5942836266
 31
0.0
  0
LWPOLYLINE
  5
1DC
330
1F
100
AcDbEntity
  8
0
  6
Continuous
 62
     7
370
    15
100
AcDbPolyline
 90
       76
 70
   128
 43
0.0
 10
247.0384043046
 20
37.9352432836
 10
247.0718832652
 20
38.8769763269
 10
247.1720853161
 20
39.8507577747
 10
247.338307612
 20
40.8497572498
 10
247.5693842229
 20
41.8669674886
 10
247.8636943123
 20
42.8952534922
 10
248.2191735065
 20
43.9274025731
 10
248.6333283743
 20
44.9561749471
 10
249.103253917
 20
45.974354515
 10
249.6256539444
 20
46.974799479
 10
250.1968641956
 20
47.9504924363
 10
250.8128780413
 20
48.8945896018
 10
251.4693745869
 20
49.8004688123
 10
252.1617489808
 20
50.6617759761
 10
252.8851447142
 20
51.4724696421
 10
253.6344876856
 20
52.2268633768
 10
254.4045217925
 20
52.9196656503
 10
255.1898457991
 20
53.5460169522
 10
255.9849512215
 20
54.1015238784
 10
256.7842609666
 20
54.5822899467
 10
257.5821684508
 20
54.9849429288
 10
258.3730769265
 20
55.3066585031
 10
259.1514387388
 20
55.5451800662
 10
259.9117942389
 20
55.6988345605
 10
260.6488100794
 20
55.7665442104
 10
261.3573166236
 20
55.7478340811
 10
262.0323442072
 20
55.6428354109
 10
262.6691579968
 20
55.4522846899
 10
263.263291201
 20
55.1775184945
 10
263.8105764025
 20
54.8204641122
 10
264.3071747886
 20
54.383626023
 10
264.7496030786
 20
53.8700683321
 10
265.1347579559
 20
53.2833932778
 10
265.4599378358
 20
52.6277159641
 10
265.7228618149
 20
51.9076354961
 10
265.9216856706
 20
51.1282027211
 10
266.0550147963
 20
50.2948847999
 10
266.121913984
 20
49.413526859
 10
266.121913984
 20
48.490310991
 10
266.0550147963
 20
47.531712892
 10
265.9216856706
 20
46.5444564389
 10
265.7228618149
 20
45.5354665264
 10
265.4599378358
 20
44.5118204937
 10
265.1347579559
 20
43.4806984823
 10
264.7496030786
 20
42.4493330722
 10
264.3071747886
 20
41.4249585507
 10
263.8105764025
 20
40.4147601691
 10
263.263291201
 20
39.4258237433
 10
262.6691579968
 20
38.4650859516
 10
262.0323442072
 20
37.5392856794
 10
261.3573166236
 20
36.6549167505
 10
260.6488100794
 20
35.8181823774
 10
259.9117942389
 20
35.0349516506
 10
259.1514387388
 20
34.3107183708
 10
258.3730769265
 20
33.6505625143
 10
257.5821684508
 20
33.0591145999
 10
256.7842609666
 20
32.5405232099
 10
255.9849512215
 20
32.0984258903
 10
255.1898457991
 20
31.735923636
 10
254.4045217925
 20
31.45555914
 10
253.6344876856
 20
31.2592989578
 10
252.8851447142
 20
31.1485197135
 10
252.1617489808
 20
31.1239984439
 10
251.4693745869
 20
31.1859071481
 10
250.8128780413
 20
31.333811581
 10
250.1968641956
 20
31.5666742994
 10
249.6256539444
 20
31.8828619385
 10
249.103253917
 20
32.2801566692
 10
248.6333283743
 20
32.7557717545
 10
248.2191735065
 20
33.3063710962
 10
247.8636943123
 20
33.9280926357
 10
247.5693842229
 20
34.6165754429
 10
247.338307612
 20
35.3669903057
 10
247.1720853161
 20
36.174073603
 10
247.0718832652
 20
37.0321642254
 10
247.0384043046
 20
37.9352432836
  0
LWPOLYLINE
  5
1DD
330
1F
100
AcDbEntity
  8
0
  6
Continuous
 62
     7
370
    15
100
AcDbPolyline
 90
       40
 70
   128
 43
0.0
 10
246.684850914
 20
37.9352432836
 10
246.7180589261
 20
38.8815681906
 10
246.8174561182
 20
39.8597698937
 10
246.9823635065
 20
40.8631662834
 10
247.2116546065
 20
41.8849031447
 10
247.5037631273
 20
42.9180009791
 10
247.8566936717
 20
43.9554026806
 10
248.2680353661
 20
44.9900217438
 10
248.7349783296
 20
46.0147906713
 10
249.2543328684
 20
47.0227092524
 10
249.8225512644
 20
48.006892381
 10
250.4357520096
 20
48.9606170885
 10
251.0897463213
 20
49.8773684681
 10
251.7800667551
 20
50.7508841782
 10
252.5019977226
 20
51.5751972208
 10
253.2506077031
 20
52.344676702
 10
254.0207829315
 20
53.0540662966
 10
254.80726233
 20
53.6985201546
 10
255.6046734467
 20
54.2736360024
 10
256.4075691553
 20
54.7754852158
 10
257.2104648639
 20
55.2006396557
 10
258.0078759806
 20
55.5461950862
 10
258.7943553791
 20
55.8097910134
 10
259.5645306075
 20
55.9896268097
 10
260.313140588
 20
56.0844740143
 10
261.0350715555
 20
56.0936847247
 10
261.7253919893
 20
56.0171960224
 10
262.379386301
 20
55.8555304026
 10
262.9925870463
 20
55.6097922057
 10
263.5608054422
 20
55.2816600725
 10
264.080159981
 20
54.8733754784
 10
264.5471029445
 20
54.387727421
 10
264.9584446389
 20
53.8280333691
 10
265.3113751833
 20
53.1981166005
 10
265.6034837041
 20
52.5022800856
 10
265.8327748041
 20
51.7452770932
 10
265.9976821924
 20
50.9322787214
 10
266.0970793845
 20
50.0688385735
 10
266.1302873966
 20
49.1608548211
 10
266.1302873966
 20
49.1608548211
  0
LWPOLYLINE
  5
1DE
330
1F
100
AcDbEntity
  8
0
  6
Continuous
 62
     7
370
    15
100
AcDbPolyline
 90
       21
 70
   128
 43
0.0
 10
256.4091493705
 20
32.321525276
 10
256.4075691553
 20
32.3206128889
 10
255.6046734467
 20
31.895458449
 10
254.80726233
 20
31.5499030185
 10
254.0207829315
 20
31.2863070913
 10
253.2506077031
 20
31.106471295
 10
252.5019977226
 20
31.0116240904
 10
251.7800667551
 20
31.00241338
 10
251.0897463213
 20
31.0789020824
 10
250.4357520096
 20
31.2405677021
 10
249.8225512644
 20
31.4863058991
 10
249.2543328684
 20
31.8144380322
 10
248.7349783296
 20
32.2227226264
 10
248.2680353661
 20
32.7083706837
 10
247.8566936717
 20
33.2680647356
 10
247.5037631273
 20
33.8979815042
 10
247.2116546065
 20
34.5938180191
 10
246.9823635065
 20
35.3508210115
 10
246.8174561182
 20
36.1638193833
 10
246.7180589261
 20
37.0272595312
 10
246.684850914
 20
37.9352432836
  0
LINE
  5
1DF
330
1F
100
AcDbEntity
  8
0
  6
Continuous
 62
     7
370
    15
100
AcDbLine
 10
255.1987738973
 20
60.1198606433
 30
0.0
 11
255.3270591538
 21
60.0485165391
 31
0.0
  0
SPLINE
  5
1E0
330
1F
100
AcDbEntity
  8
0
  6
Continuous
 62
     7
370
    15
100
AcDbSpline
210
0.0
220
0.0
230
1.0
 70
     8
 71
     3
 72
    48
 73
    44
 74
     0
 42
0.000000001
 43
0.00000001
 40
0.0
 40
0.0
 40
0.0
 40
0.0
 40
0.0312499999999996
 40
0.0312499999999996
 40
0.0624999999999992
 40
0.0624999999999992
 40
0.1249999999999984
 40
0.1249999999999984
 40
0.1562499999999982
 40
0.1562499999999982
 40
0.187499999999998
 40
0.187499999999998
 40
0.2187499999999978
 40
0.2187499999999978
 40
0.2499999999999976
 40
0.2499999999999976
 40
0.3124999999999971
 40
0.3124999999999971
 40
0.3437499999999973
 40
0.3437499999999973
 40
0.3749999999999974
 40
0.3749999999999974
 40
0.4374999999999979
 40
0.4374999999999979
 40
0.4999999999999982
 40
0.4999999999999982
 40
0.5624999999999986
 40
0.5624999999999986
 40
0.6249999999999989
 40
0.6249999999999989
 40
0.6874999999999992
 40
0.6874999999999992
 40
0.7499999999999996
 40
0.7499999999999996
 40
0.8125
 40
0.8125
 40
0.8750000000000003
 40
0.8750000000000003
 40
0.9062500000000002
 40
0.9062500000000002
 40
0.9375000000000002
 40
0.9375000000000002
 40
1.0
 40
1.0
 40
1.0
 40
1.0
 10
254.0034060992685
 20
56.16337900589255
 30
0.0
 10
253.924104830682
 20
56.11759935798477
 30
0.0
 10
253.8402212098846
 20
56.07340902644486
 30
0.0
 10
253.6631818958101
 20
55.98827788264715
 30
0.0
 10
253.5693718795347
 20
55.94709922167144
 30
0.0
 10
253.280392942479
 20
55.83145477784396
 30
0.0
 10
253.0769295514224
 20
55.76415666072497
 30
0.0
 10
252.7563468652228
 20
55.67813743979432
 30
0.0
 10
252.6466756254897
 20
55.65197092303588
 30
0.0
 10
252.427117128382
 20
55.60592384202015
 30
0.0
 10
252.316632971711
 20
55.58586742268086
 30
0.0
 10
252.0942879531415
 20
55.55166918125701
 30
0.0
 10
251.9824269300196
 20
55.53752782899355
 30
0.0
 10
251.7573135712369
 20
55.5153476124169
 30
0.0
 10
251.644058246241
 20
55.50735006742809
 30
0.0
 10
251.3087520784441
 20
55.49313028913558
 30
0.0
 10
251.0888660927362
 20
55.49633150417721
 30
0.0
 10
250.7640264771416
 20
55.52080545395162
 30
0.0
 10
250.6561107655728
 20
55.53234533735917
 30
0.0
 10
250.445206451056
 20
55.56188217150962
 30
0.0
 10
250.3420386718326
 20
55.57985772860204
 30
0.0
 10
250.0391153964349
 20
55.64336801678228
 30
0.0
 10
249.8458828079199
 20
55.6984230718942
 30
0.0
 10
249.4768887394316
 20
55.83535178827733
 30
0.0
 10
249.3041710751766
 20
55.91630567283261
 30
0.0
 10
248.9875920002908
 20
56.09977949364633
 30
0.0
 10
248.8426611077144
 20
56.2026851927786
 30
0.0
 10
248.580702175163
 20
56.43139722810921
 30
0.0
 10
248.4669073563943
 20
56.55449704754062
 30
0.0
 10
248.2747710579464
 20
56.81474006912279
 30
0.0
 10
248.1960585134858
 20
56.95218623877852
 30
0.0
 10
248.0762133277003
 20
57.24116923544123
 30
0.0
 10
248.0370068195353
 20
57.3880594119894
 30
0.0
 10
248.0002196538112
 20
57.68462736976069
 30
0.0
 10
248.0027242207758
 20
57.83510282799312
 30
0.0
 10
248.054427104463
 20
58.13364199483568
 30
0.0
 10
248.1027059027547
 20
58.27758398509502
 30
0.0
 10
248.2098058368999
 20
58.48379513580121
 30
0.0
 10
248.2513289628432
 20
58.55090763390706
 30
0.0
 10
248.346794658093
 20
58.68147015688246
 30
0.0
 10
248.4010416982847
 20
58.745101575586
 30
0.0
 10
248.5784097417436
 20
58.92446065987432
 30
0.0
 10
248.7171493604232
 20
59.03064675834241
 30
0.0
 10
248.876881935666
 20
59.12285841124988
 30
0.0
  0
SPLINE
  5
1E1
330
1F
100
AcDbEntity
  8
0
  6
Continuous
 62
     7
370
    15
100
AcDbSpline
210
0.0
220
0.0
230
1.0
 70
     8
 71
     3
 72
    52
 73
    48
 74
     0
 42
0.000000001
 43
0.00000001
 40
0.0
 40
0.0
 40
0.0
 40
0.0
 40
0.0312500000000001
 40
0.0312500000000001
 40
0.0625000000000002
 40
0.0625000000000002
 40
0.0937500000000002
 40
0.0937500000000002
 40
0.1250000000000003
 40
0.1250000000000003
 40
0.1875000000000004
 40
0.1875000000000004
 40
0.2500000000000006
 40
0.2500000000000006
 40
0.3125000000000007
 40
0.3125000000000007
 40
0.3750000000000008
 40
0.3750000000000008
 40
0.4375000000000009
 40
0.4375000000000009
 40
0.4687500000000014
 40
0.4687500000000014
 40
0.500000000000002
 40
0.500000000000002
 40
0.5625000000000022
 40
0.5625000000000022
 40
0.5937500000000022
 40
0.5937500000000022
 40
0.6250000000000023
 40
0.6250000000000023
 40
0.6875000000000014
 40
0.6875000000000014
 40
0.7187500000000014
 40
0.7187500000000014
 40
0.7500000000000014
 40
0.7500000000000014
 40
0.8125000000000013
 40
0.8125000000000013
 40
0.843750000000001
 40
0.843750000000001
 40
0.8750000000000007
 40
0.8750000000000007
 40
0.9375000000000003
 40
0.9375000000000003
 40
0.9687500000000002
 40
0.9687500000000002
 40
1.0
 40
1.0
 40
1.0
 40
1.0
 10
248.876881935666
 20
59.12285841124988
 30
0.0
 10
248.956763660449
 20
59.16897314938731
 30
0.0
 10
249.0425378511385
 20
59.2117779634165
 30
0.0
 10
249.2204439017769
 20
59.28807803655216
 30
0.0
 10
249.3128816583833
 20
59.32183279008323
 30
0.0
 10
249.5044877071841
 20
59.38095899555077
 30
0.0
 10
249.6036566021846
 20
59.40632952122613
 30
0.0
 10
249.8087119795074
 20
59.44887470972373
 30
0.0
 10
249.9147516393875
 20
59.46600283846687
 30
0.0
 10
250.2351823912011
 20
59.50449004567074
 30
0.0
 10
250.4543305472665
 20
59.51367330675771
 30
0.0
 10
250.903272233425
 20
59.50307086087225
 30
0.0
 10
251.1297665338344
 20
59.48323180824469
 30
0.0
 10
251.5802955832534
 20
59.41915563266731
 30
0.0
 10
251.8005742499269
 20
59.37555012599861
 30
0.0
 10
252.2299446804826
 20
59.26995822024703
 30
0.0
 10
252.4400843275448
 20
59.20765969698009
 30
0.0
 10
252.8475744509892
 20
59.06693496164991
 30
0.0
 10
253.0403423300626
 20
58.99016448210674
 30
0.0
 10
253.3139230162153
 20
58.86673921255903
 30
0.0
 10
253.4025028291908
 20
58.82420268964368
 30
0.0
 10
253.5743729165277
 20
58.73637945480992
 30
0.0
 10
253.6580270300581
 20
58.6908696485084
 30
0.0
 10
253.8970169877707
 20
58.55233087248949
 30
0.0
 10
254.0411056609877
 20
58.45713265590555
 30
0.0
 10
254.2348178680793
 20
58.30983799520859
 30
0.0
 10
254.2956285344785
 20
58.25997964934126
 30
0.0
 10
254.4095104010555
 20
58.15856755079298
 30
0.0
 10
254.462737895529
 20
58.10680882622944
 30
0.0
 10
254.6075687322923
 20
57.95156583477507
 30
0.0
 10
254.6854436943923
 20
57.84738778818711
 30
0.0
 10
254.7738892703111
 20
57.68864687034741
 30
0.0
 10
254.798612164048
 20
57.63531534802609
 30
0.0
 10
254.8380545471971
 20
57.52748410785944
 30
0.0
 10
254.8527330675495
 20
57.4728562571845
 30
0.0
 10
254.880243566831
 20
57.3103595226919
 30
0.0
 10
254.8772705271509
 20
57.20270881707498
 30
0.0
 10
254.8391495409353
 20
57.04042632234271
 30
0.0
 10
254.82079180628
 20
56.98619824522015
 30
0.0
 10
254.7718927092266
 20
56.87715087091455
 30
0.0
 10
254.7414456277491
 20
56.82272049342923
 30
0.0
 10
254.6336965752957
 20
56.66244398829008
 30
0.0
 10
254.5396565751192
 20
56.55833231893541
 30
0.0
 10
254.3629961606318
 20
56.4053798024976
 30
0.0
 10
254.2975660804647
 20
56.35458092621361
 30
0.0
 10
254.1574553788121
 20
56.25654582366306
 30
0.0
 10
254.0827226958054
 20
56.20916750243778
 30
0.0
 10
254.0034060992685
 20
56.16337900589255
 30
0.0
  0
LWPOLYLINE
  5
1E2
330
1F
100
AcDbEntity
  8
0
  6
Continuous
 62
     7
370
    15
100
AcDbPolyline
 90
       71
 70
   128
 43
0.0
 10
248.2758411717
 20
38.6496003814
 10
248.3092887688
 20
39.5289405786
 10
248.40936226
 20
40.4398186192
 10
248.5752559122
 20
41.3749006489
 10
248.8056340473
 20
42.326657937
 10
249.0986417961
 20
43.2874274935
 10
249.4519200323
 20
44.2494737667
 10
249.8626243675
 20
45.2050509258
 10
250.3274480517
 20
46.1464652254
 10
250.842648598
 20
47.066136951
 10
251.4040779146
 20
47.9566614467
 10
252.0072157026
 20
48.8108687328
 10
252.6472058512
 20
49.6218812347
 10
253.3188955362
 20
50.3831691564
 10
254.016876707
 20
51.0886030552
 10
254.7355296297
 20
51.7325031922
 10
255.4690681335
 20
52.3096852621
 10
256.2115861977
 20
52.8155021343
 10
256.9571055035
 20
53.2458812686
 10
257.6996235677
 20
53.5973575054
 10
258.4331620715
 20
53.8671009647
 10
259.1518149942
 20
54.0529398308
 10
259.849796165
 20
54.1533778383
 10
260.52148585
 20
54.1676063195
 10
261.1614759986
 20
54.095510715
 10
261.7646137866
 20
53.9376714962
 10
262.3260431031
 20
53.6953594918
 10
262.8412436495
 20
53.3705256555
 10
263.3060673337
 20
52.9657853583
 10
263.7167716689
 20
52.4843973312
 10
264.0700499051
 20
51.9302374275
 10
264.3630576539
 20
51.3077674168
 10
264.593435789
 20
50.6219990618
 10
264.7593294412
 20
49.878453766
 10
264.8594029324
 20
49.0831181188
 10
264.8928505295
 20
48.2423956953
 10
264.8594029324
 20
47.3630554982
 10
264.7593294412
 20
46.4521774576
 10
264.593435789
 20
45.5170954278
 10
264.3630576539
 20
44.5653381397
 10
264.0700499051
 20
43.6045685833
 10
263.7167716689
 20
42.6425223101
 10
263.3060673337
 20
41.686945151
 10
262.8412436495
 20
40.7455308514
 10
262.3260431031
 20
39.8258591258
 10
261.7646137866
 20
38.9353346301
 10
261.1614759986
 20
38.0811273439
 10
260.52148585
 20
37.2701148421
 10
259.849796165
 20
36.5088269204
 10
259.1518149942
 20
35.8033930216
 10
258.4331620715
 20
35.1594928846
 10
257.6996235677
 20
34.5823108146
 10
256.9571055035
 20
34.0764939425
 10
256.2115861977
 20
33.6461148082
 10
255.4690681335
 20
33.2946385713
 10
254.7355296297
 20
33.0248951121
 10
254.016876707
 20
32.839056246
 10
253.3188955362
 20
32.7386182385
 10
252.6472058512
 20
32.7243897573
 10
252.0072157026
 20
32.7964853618
 10
251.4040779146
 20
32.9543245806
 10
250.842648598
 20
33.196636585
 10
250.3274480517
 20
33.5214704213
 10
249.8626243675
 20
33.9262107185
 10
249.4519200323
 20
34.4075987456
 10
249.0986417961
 20
34.9617586493
 10
248.8056340473
 20
35.5842286599
 10
248.5752559122
 20
36.269997015
 10
248.40936226
 20
37.0135423108
 10
248.3092887688
 20
37.808877958
 10
248.2758411717
 20
38.6496003814
  0
SPLINE
  5
1E3
330
1F
100
AcDbEntity
  8
0
  6
Continuous
 62
     7
370
    15
100
AcDbSpline
210
0.0
220
0.0
230
1.0
 70
     8
 71
     3
 72
    18
 73
    14
 74
     0
 42
0.000000001
 43
0.00000001
 40
0.0
 40
0.0
 40
0.0
 40
0.0
 40
0.2500000000000007
 40
0.2500000000000007
 40
0.3750000000000006
 40
0.3750000000000006
 40
0.5000000000000004
 40
0.5000000000000004
 40
0.6250000000000003
 40
0.6250000000000003
 40
0.7500000000000002
 40
0.7500000000000002
 40
1.0
 40
1.0
 40
1.0
 40
1.0
 10
250.7827373103238
 20
33.90894248087884
 30
0.0
 10
250.6591296508526
 20
33.86943605660163
 30
0.0
 10
250.5378869600291
 20
33.86338553556929
 30
0.0
 10
250.3604024473088
 20
33.90506280280587
 30
0.0
 10
250.3019527510405
 20
33.92773580073148
 30
0.0
 10
250.190428911852
 20
33.9890532358175
 30
0.0
 10
250.1368500531074
 20
34.02776537561955
 30
0.0
 10
250.0340872996691
 20
34.12131419933637
 30
0.0
 10
249.9845295250689
 20
34.1767003184315
 30
0.0
 10
249.8921508288252
 20
34.30154366868202
 30
0.0
 10
249.8493642411046
 20
34.37071864537659
 30
0.0
 10
249.7307920272851
 20
34.59788075176665
 30
0.0
 10
249.6643854799582
 20
34.77734159091356
 30
0.0
 10
249.6134958223037
 20
34.97614330400346
 30
0.0
  0
LWPOLYLINE
  5
1E4
330
1F
100
AcDbEntity
  8
0
  6
Continuous
 62
     7
370
    15
100
AcDbPolyline
 90
       18
 70
   128
 43
0.0
 10
261.9970456612
 20
40.3828248914
 10
261.4573083426
 20
39.4978203588
 10
260.8738018784
 20
38.6478872882
 10
260.2515662289
 20
37.8403668645
 10
259.5959758726
 20
37.082233939
 10
258.9126933846
 20
36.3800367851
 10
258.2076205276
 20
35.7398405381
 10
257.4868472755
 20
35.1671748087
 10
256.7565992122
 20
34.6669859218
 10
256.0231837593
 20
34.2435941929
 10
255.292935696
 20
33.9006566124
 10
254.5721624439
 20
33.6411352585
 10
253.8670895869
 20
33.4672717126
 10
253.183807099
 20
33.3805676982
 10
252.5282167426
 20
33.3817721099
 10
251.9059810931
 20
33.4708745446
 10
251.3224746289
 20
33.6471053918
 10
250.7827373103
 20
33.9089424809
  0
SPLINE
  5
1E5
330
1F
100
AcDbEntity
  8
0
  6
Continuous
 62
     7
370
    15
100
AcDbSpline
210
0.0
220
0.0
230
1.0
 70
     8
 71
     3
 72
    18
 73
    14
 74
     0
 42
0.000000001
 43
0.00000001
 40
0.0
 40
0.0
 40
0.0
 40
0.0
 40
0.2500000000000005
 40
0.2500000000000005
 40
0.3750000000000004
 40
0.3750000000000004
 40
0.5000000000000003
 40
0.5000000000000003
 40
0.6250000000000002
 40
0.6250000000000002
 40
0.7500000000000001
 40
0.7500000000000001
 40
1.0
 40
1.0
 40
1.0
 40
1.0
 10
263.1662871492424
 20
42.80000320150462
 30
0.0
 10
263.179422881693
 20
42.57944629420036
 30
0.0
 10
263.1628348526273
 20
42.35660405807543
 30
0.0
 10
263.0932124420483
 20
42.01857188554452
 30
0.0
 10
263.0622550034085
 20
41.90516862690677
 30
0.0
 10
262.9870023568566
 20
41.68443633374623
 30
0.0
 10
262.9425546724062
 20
41.57615861410682
 30
0.0
 10
262.8400121182777
 20
41.36377654611879
 30
0.0
 10
262.7813568331893
 20
41.25884847820038
 30
0.0
 10
262.6526594896376
 20
41.05803896583522
 30
0.0
 10
262.5828765792967
 20
40.96228981148959
 30
0.0
 10
262.3576801152455
 20
40.68860959759757
 30
0.0
 10
262.1847024960739
 20
40.52301317504585
 30
0.0
 10
261.9970456612223
 20
40.38282489139082
 30
0.0
  0
LWPOLYLINE
  5
1E6
330
1F
100
AcDbEntity
  8
0
  6
Continuous
 62
     7
370
    15
100
AcDbPolyline
 90
       12
 70
   128
 43
0.0
 10
263.1662871492
 20
52.1403650035
 10
263.5289134065
 20
51.5630444752
 10
263.8232656849
 20
50.9091701988
 10
264.0465289487
 20
50.1849954957
 10
264.1965680215
 20
49.3974460049
 10
264.2719480058
 20
48.5540534496
 10
264.2719480058
 20
47.6628836079
 10
264.1965680215
 20
46.7324591752
 10
264.0465289487
 20
45.7716782583
 10
263.8232656849
 20
44.7897292777
 10
263.5289134065
 20
43.7960030947
 10
263.1662871492
 20
42.8000032015
  0
SPLINE
  5
1E7
330
1F
100
AcDbEntity
  8
0
  6
Continuous
 62
     7
370
    15
100
AcDbSpline
210
0.0
220
0.0
230
1.0
 70
     8
 71
     3
 72
    18
 73
    14
 74
     0
 42
0.000000001
 43
0.00000001
 40
0.0
 40
0.0
 40
0.0
 40
0.0
 40
0.25
 40
0.25
 40
0.375
 40
0.375
 40
0.5
 40
0.5
 40
0.625
 40
0.625
 40
0.75
 40
0.75
 40
1.0
 40
1.0
 40
1.0
 40
1.0
 10
261.9970456612223
 20
53.2075658266465
 30
0.0
 10
262.1846698605427
 20
53.21011628909854
 30
0.0
 10
262.3541250683303
 20
53.18833431651877
 30
0.0
 10
262.5811280910943
 20
53.11807062191316
 30
0.0
 10
262.6521474823844
 20
53.08814129350678
 30
0.0
 10
262.7802406125961
 20
53.0172586103151
 30
0.0
 10
262.8379804772229
 20
52.97614437294741
 30
0.0
 10
262.940843655031
 20
52.88253757547586
 30
0.0
 10
262.9862558519634
 20
52.82954464742784
 30
0.0
 10
263.0620438103425
 20
52.71427892628098
 30
0.0
 10
263.0924876065835
 20
52.65222929144048
 30
0.0
 10
263.162112935167
 20
52.45332362044203
 30
0.0
 10
263.1794251665348
 20
52.30220432663154
 30
0.0
 10
263.1662871492424
 20
52.14036500352188
 30
0.0
  0
LWPOLYLINE
  5
1E8
330
1F
100
AcDbEntity
  8
0
  6
Continuous
 62
     7
370
    15
100
AcDbPolyline
 90
       18
 70
   128
 43
0.0
 10
250.7827373103
 20
46.7336834161
 10
251.3224746289
 20
47.6186879488
 10
251.9059810931
 20
48.4686210194
 10
252.5282167426
 20
49.276141443
 10
253.183807099
 20
50.0342743685
 10
253.8670895869
 20
50.7364715224
 10
254.5721624439
 20
51.3766677695
 10
255.292935696
 20
51.9493334989
 10
256.0231837593
 20
52.4495223858
 10
256.7565992122
 20
52.8729141146
 10
257.4868472755
 20
53.2158516951
 10
258.2076205276
 20
53.475373049
 10
258.9126933846
 20
53.6492365949
 10
259.5959758726
 20
53.7359406093
 10
260.2515662289
 20
53.7347361977
 10
260.8738018784
 20
53.6456337629
 10
261.4573083426
 20
53.4694029157
 10
261.9970456612
 20
53.2075658266
  0
SPLINE
  5
1E9
330
1F
100
AcDbEntity
  8
0
  6
Continuous
 62
     7
370
    15
100
AcDbSpline
210
0.0
220
0.0
230
1.0
 70
     8
 71
     3
 72
    18
 73
    14
 74
     0
 42
0.000000001
 43
0.00000001
 40
0.0
 40
0.0
 40
0.0
 40
0.0
 40
0.2499999999999997
 40
0.2499999999999997
 40
0.3749999999999999
 40
0.3749999999999999
 40
0.5000000000000001
 40
0.5000000000000001
 40
0.6250000000000003
 40
0.6250000000000003
 40
0.7500000000000004
 40
0.7500000000000004
 40
1.0
 40
1.0
 40
1.0
 40
1.0
 10
249.6134958223037
 20
44.31650510602073
 30
0.0
 10
249.6643766297022
 20
44.50010605149981
 30
0.0
 10
249.7291771757321
 20
44.69511579401263
 30
0.0
 10
249.8483180963549
 20
45.0045615391745
 30
0.0
 10
249.8918452300165
 20
45.11070846733149
 30
0.0
 10
249.9836671675915
 20
45.32187551238638
 30
0.0
 10
250.032275857924
 20
45.42775113446015
 30
0.0
 10
250.1349188364224
 20
45.64007522869344
 30
0.0
 10
250.189428543843
 20
45.74739648765897
 30
0.0
 10
250.3015351495302
 20
45.95778362912779
 30
0.0
 10
250.3589752683914
 20
46.06065812532749
 30
0.0
 10
250.5352248472065
 20
46.36259477461111
 30
0.0
 10
250.659108150419
 20
46.55653274249926
 30
0.0
 10
250.7827373103238
 20
46.73368341613452
 30
0.0
  0
LWPOLYLINE
  5
1EA
330
1F
100
AcDbEntity
  8
0
  6
Continuous
 62
     7
370
    15
100
AcDbPolyline
 90
       12
 70
   128
 43
0.0
 10
249.6134958223
 20
34.976143304
 10
249.250869565
 20
35.5534638324
 10
248.9565172867
 20
36.2073381088
 10
248.7332540229
 20
36.9315128119
 10
248.58321495
 20
37.7190623026
 10
248.5078349657
 20
38.5624548579
 10
248.5078349657
 20
39.4536246996
 10
248.58321495
 20
40.3840491323
 10
248.7332540229
 20
41.3448300492
 10
248.9565172867
 20
42.3267790298
 10
249.250869565
 20
43.3205052129
 10
249.6134958223
 20
44.316505106
  0
ARC
  5
1EB
330
1F
100
AcDbEntity
  8
0
  6
Continuous
 62
     7
370
    15
100
AcDbCircle
 10
262.279598695
 20
51.4076456088
 30
0.0
 40
1.821962954515991
100
AcDbArc
 50
98.9215321124
 51
121.0579635503
  0
LINE
  5
1EC
330
1F
100
AcDbEntity
  8
0
  6
Continuous
 62
     7
370
    15
100
AcDbLine
 10
259.6427267875
 20
51.9888160183
 30
0.0
 11
261.3396389541
 21
52.9684225605
 31
0.0
  0
LWPOLYLINE
  5
1ED
330
1F
100
AcDbEntity
  8
0
  6
Continuous
 62
     7
370
    15
100
AcDbPolyline
 90
       11
 70
   128
 43
0.0
 10
253.1370561841
 20
48.23317232
 10
253.7443252549
 20
48.9385919026
 10
254.3802386205
 20
49.5857570447
 10
255.0379110669
 20
50.1676607058
 10
255.7102217882
 20
50.6780024504
 10
256.3898914858
 20
51.1112566637
 10
257.0695611834
 20
51.4627323798
 10
257.7418719046
 20
51.7286240714
 10
258.399544351
 20
51.906052854
 10
259.0354577167
 20
51.9930976559
 10
259.6427267875
 20
51.9888160183
  0
LINE
  5
1EE
330
1F
100
AcDbEntity
  8
0
  6
Continuous
 62
     7
370
    15
100
AcDbLine
 10
251.4401440175
 20
47.2535657778
 30
0.0
 11
253.1370561841
 21
48.23317232
 31
0.0
  0
ARC
  5
1EF
330
1F
100
AcDbEntity
  8
0
  6
Continuous
 62
     7
370
    15
100
AcDbCircle
 10
253.0288685405
 20
44.5689800243
 30
0.0
 40
3.119462498237581
100
AcDbArc
 50
120.6168359905
 51
136.0576097217
  0
ARC
  5
1F0
330
1F
100
AcDbEntity
  8
0
  6
Continuous
 62
     7
370
    15
100
AcDbCircle
 10
261.0444854233
 20
40.7188770698
 30
0.0
 40
11.62588031349025
100
AcDbArc
 50
145.8646250115
 51
177.7676626041
  0
LWPOLYLINE
  5
1F1
330
1F
100
AcDbEntity
  8
0
  6
Continuous
 62
     7
370
    15
100
AcDbPolyline
 90
       41
 70
   128
 43
0.0
 10
257.2206260765
 20
51.5296617317
 10
257.74980284
 20
51.5246808827
 10
258.2615470652
 20
51.4340219805
 10
258.7334052902
 20
51.2576720142
 10
259.1596497953
 20
50.9977716336
 10
259.5351065496
 20
50.6574756771
 10
259.8552180168
 20
50.2409148767
 10
260.1160984773
 20
49.7531457163
 10
260.3145811956
 20
49.2000890527
 10
260.4482568605
 20
48.5884582445
 10
260.5155028304
 20
47.9256776614
 10
260.5155028304
 20
47.2197925616
 10
260.4482568605
 20
46.4793714342
 10
260.3145811956
 20
45.7134019886
 10
260.1160984773
 20
44.9311820563
 10
259.8552180168
 20
44.1422067276
 10
259.5351065496
 20
43.3560530942
 10
259.1596497953
 20
42.5822639963
 10
258.7334052902
 20
41.8302321854
 10
258.2615470652
 20
41.1090863088
 10
257.74980284
 20
40.4275801008
 10
257.2043844962
 20
39.7939861233
 10
256.6319126737
 20
39.215995349
 10
256.039336405
 20
38.700623803
 10
255.4338487631
 20
38.2541273977
 10
254.822799548
 20
37.8819259946
 10
254.2136060691
 20
37.5885376145
 10
253.6136631103
 20
37.377523595
 10
253.0302531663
 20
37.2514453603
 10
252.4704580435
 20
37.2118333295
 10
251.9410728963
 20
37.259168339
 10
251.4485237434
 20
37.3928758058
 10
250.9987894643
 20
37.6113327025
 10
250.5973292238
 20
37.9118872582
 10
250.2490162054
 20
38.2908911478
 10
249.9580784574
 20
38.7437437775
 10
249.7280475699
 20
39.2649481298
 10
249.5617158063
 20
39.8481774898
 10
249.4611022088
 20
40.4863522434
 10
249.4274280902
 20
41.1717258133
 10
249.4274280902
 20
41.1717258133
  0
LINE
  5
1F2
330
1F
100
AcDbEntity
  8
0
  6
Continuous
 62
     7
370
    15
100
AcDbLine
 10
250.0259304551
 20
34.9644938588
 30
0.0
 11
251.7228426217
 21
35.9441004011
 31
0.0
  0
LINE
  5
1F3
330
1F
100
AcDbEntity
  8
0
  6
Continuous
 62
     7
370
    15
100
AcDbLine
 10
249.6584809962
 20
34.7952052537
 30
0.0
 11
250.0259304551
 21
34.9644938588
 31
0.0
  0
ARC
  5
1F4
330
1F
100
AcDbEntity
  8
0
  6
Continuous
 62
     7
370
    15
100
AcDbCircle
 10
259.3273890872
 20
52.6932099852
 30
0.0
 40
2.437849799889737
100
AcDbArc
 50
346.9883651865
 51
10.6364611934
  0
LWPOLYLINE
  5
1F5
330
1F
100
AcDbEntity
  8
0
  6
Continuous
 62
     7
370
    15
100
AcDbPolyline
 90
       10
 70
   128
 43
0.0
 10
261.702645545
 20
44.3717852685
 10
262.0132440226
 20
45.3710662435
 10
262.2491250541
 20
46.3597684531
 10
262.4077843037
 20
47.3273949012
 10
262.4875372951
 20
48.2636723518
 10
262.4875372951
 20
49.1586603997
 10
262.4077843037
 20
50.0028570065
 10
262.2491250541
 20
50.7872993842
 10
262.0132440226
 20
51.5036591518
 10
261.702645545
 20
52.1443307577
  0
ARC
  5
1F6
330
1F
100
AcDbEntity
  8
0
  6
Continuous
 62
     7
370
    15
100
AcDbCircle
 10
257.9965676684
 20
43.8816544024
 30
0.0
 40
3.738347428065264
100
AcDbArc
 50
301.0620018917
 51
7.5336799128
  0
LINE
  5
1F7
330
1F
100
AcDbEntity
  8
0
  6
Continuous
 62
     7
370
    15
100
AcDbLine
 10
258.2285132251
 20
39.6997440993
 30
0.0
 11
259.9254253917
 21
40.6793506416
 31
0.0
  0
LWPOLYLINE
  5
1F8
330
1F
100
AcDbEntity
  8
0
  6
Continuous
 62
     7
370
    15
100
AcDbPolyline
 90
       11
 70
   128
 43
0.0
 10
258.2285132251
 20
39.6997440993
 10
257.6212441543
 20
38.9943245167
 10
256.9853307886
 20
38.3471593747
 10
256.3276583423
 20
37.7652557135
 10
255.655347621
 20
37.254913969
 10
254.9756779234
 20
36.8216597556
 10
254.2960082258
 20
36.4701840396
 10
253.6236975045
 20
36.2042923479
 10
252.9660250582
 20
36.0268635654
 10
252.3301116925
 20
35.9398187635
 10
251.7228426217
 20
35.9441004011
  0
ARC
  5
1F9
330
1F
100
AcDbEntity
  8
0
  6
Continuous
 62
     7
370
    15
100
AcDbCircle
 10
252.3114923668
 20
35.2197251038
 30
0.0
 40
2.708969812921908
100
AcDbArc
 50
167.8781475344
 51
185.1588186135
  0
LWPOLYLINE
  5
1FA
330
1F
100
AcDbEntity
  8
0
  6
Continuous
 62
     7
370
    15
100
AcDbPolyline
 90
       10
 70
   128
 43
0.0
 10
249.6629238642
 20
35.7885856616
 10
249.3523253865
 20
36.4292572675
 10
249.1164443551
 20
37.1456170351
 10
248.9577851054
 20
37.9300594128
 10
248.8780321141
 20
38.7742560197
 10
248.8780321141
 20
39.6692440675
 10
248.9577851054
 20
40.6055215182
 10
249.1164443551
 20
41.5731479663
 10
249.3523253865
 20
42.5618501759
 10
249.6629238642
 20
43.5611311508
  0
ARC
  5
1FB
330
1F
100
AcDbEntity
  8
0
  6
Continuous
 62
     7
370
    15
100
AcDbCircle
 10
251.7834603004
 20
44.0791930099
 30
0.0
 40
2.182902395195812
100
AcDbArc
 50
173.7588101909
 51
193.7288361877
  0
LWPOLYLINE
  5
1FC
330
1F
100
AcDbEntity
  8
0
  6
Continuous
 62
     7
370
    15
100
AcDbPolyline
 90
       36
 70
   128
 43
0.0
 10
257.0699669861
 20
51.4629176705
 10
257.372940023
 20
51.4338035736
 10
257.8579678564
 20
51.3163975446
 10
258.3014138547
 20
51.1147752085
 10
258.6977014272
 20
50.8314720831
 10
259.0418470277
 20
50.4700508697
 10
259.3295228257
 20
50.0350566496
 10
259.557111131
 20
49.5319597277
 10
259.7217498887
 20
48.9670868395
 10
259.8213686709
 20
48.3475415894
 10
259.8547147136
 20
47.6811151185
 10
259.8213686709
 20
46.9761881261
 10
259.7217498887
 20
46.2416254784
 10
259.557111131
 20
45.4866647267
 10
259.3295228257
 20
44.7207999406
 10
259.0418470277
 20
43.9536623141
 10
258.6977014272
 20
43.1948990479
 10
258.3014138547
 20
42.4540520305
 10
257.8579678564
 20
41.7404378428
 10
257.372940023
 20
41.0630305973
 10
256.852429861
 20
40.4303490833
 10
256.3029830876
 20
39.8503496378
 10
255.7315093149
 20
39.3303260903
 10
255.145195157
 20
38.8768180388
 10
254.5514138547
 20
38.49552861
 10
253.9576325524
 20
38.1912527398
 10
253.3713183945
 20
37.9678168738
 10
252.7998446217
 20
37.8280308477
 10
252.2503978484
 20
37.7736525518
 10
251.7298876863
 20
37.8053658247
 10
251.244859853
 20
37.9227718537
 10
250.8014138547
 20
38.1243941898
 10
250.4051262822
 20
38.4076973152
 10
250.0609806817
 20
38.7691185286
 10
249.7733048837
 20
39.2041127487
 10
249.7003798062
 20
39.3444797523
  0
LWPOLYLINE
  5
1FD
330
1F
100
AcDbEntity
  8
0
  6
Continuous
 62
     7
370
    15
100
AcDbPolyline
 90
        3
 70
   128
 43
0.0
 10
237.6535024432
 20
42.5391813907
 10
237.591535951
 20
42.5758295165
 10
237.5722082046
 20
42.5876244601
  0
ARC
  5
1FE
330
1F
100
AcDbEntity
  8
0
  6
Continuous
 62
     7
370
    15
100
AcDbCircle
 10
250.5001842766
 20
35.7088626988
 30
0.0
 40
1.821962954514883
100
AcDbArc
 50
278.9215321124
 51
301.0579635504
  0
SPLINE
  5
1FF
330
1F
100
AcDbEntity
  8
0
  6
Continuous
 62
     7
370
    15
100
AcDbSpline
210
0.0
220
0.0
230
1.0
 70
     8
 71
     3
 72
    10
 73
     6
 74
     0
 42
0.000000001
 43
0.00000001
 40
0.0
 40
0.0
 40
0.0
 40
0.0
 40
0.5
 40
0.5
 40
1.0
 40
1.0
 40
1.0
 40
1.0
 10
234.1604536612971
 20
49.7074259012218
 30
0.0
 10
234.1039378241869
 20
49.67480000291983
 30
0.0
 10
234.0250451171874
 20
49.65448105815697
 30
0.0
 10
233.8653953686328
 20
49.65156120506079
 30
0.0
 10
233.784278063475
 20
49.66919250633901
 30
0.0
 10
233.7271191487442
 20
49.70218964544922
 30
0.0
  0
SPLINE
  5
200
330
1F
100
AcDbEntity
  8
0
  6
Continuous
 62
     7
370
    15
100
AcDbSpline
210
0.0
220
0.0
230
1.0
 70
     8
 71
     3
 72
    12
 73
     8
 74
     0
 42
0.000000001
 43
0.00000001
 40
0.0
 40
0.0
 40
0.0
 40
0.0
 40
0.250000000000002
 40
0.250000000000002
 40
0.500000000000004
 40
0.500000000000004
 40
1.0
 40
1.0
 40
1.0
 40
1.0
 10
247.6394450685895
 20
62.93196887778205
 30
0.0
 10
247.6711955553166
 20
62.91363971194176
 30
0.0
 10
247.7026188821961
 20
62.88471057941727
 30
0.0
 10
247.7573317420426
 20
62.81529976465495
 30
0.0
 10
247.7804836918771
 20
62.77530333094732
 30
0.0
 10
247.8345176225474
 20
62.654087746492
 30
0.0
 10
247.8515771029455
 20
62.56973365820296
 30
0.0
 10
247.8515771029455
 20
62.49681197290119
 30
0.0
  0
LINE
  5
201
330
1F
100
AcDbEntity
  8
0
  6
Continuous
 62
     7
370
    15
100
AcDbLine
 10
233.7271191487
 20
49.7021896454
 30
0.0
 11
232.3277310811
 21
50.5100391813
 31
0.0
  0
LWPOLYLINE
  5
202
330
1F
100
AcDbEntity
  8
0
  6
Continuous
 62
     7
370
    15
100
AcDbPolyline
 90
       23
 70
   128
 43
0.0
 10
232.3277310811
 20
50.5100391813
 10
232.5798431292
 20
51.5109148993
 10
232.8964714947
 20
52.5199377026
 10
233.2751350315
 20
53.529200741
 10
233.7128664768
 20
54.5307952819
 10
234.2062357031
 20
55.5168726843
 10
234.751376597
 20
56.4797059015
 10
235.3440173549
 20
57.4117500319
 10
235.9795139572
 20
58.3057014416
 10
236.6528865598
 20
59.1545549966
 10
237.3588585165
 20
59.9516589565
 10
238.091897728
 20
60.6907670984
 10
238.846259992
 20
61.3660876627
 10
239.6160340156
 20
61.972328739
 10
240.3951877371
 20
62.5047397337
 10
241.1776155941
 20
62.9591485963
 10
241.9571863676
 20
63.3319945127
 10
242.7277912272
 20
63.6203558078
 10
243.4833916007
 20
63.8219728404
 10
244.2180664932
 20
63.93526571
 10
244.9260588848
 20
63.9593466371
 10
245.6018208439
 20
63.89402692
 10
246.240057001
 20
63.7398184137
  0
LINE
  5
203
330
1F
100
AcDbEntity
  8
0
  6
Continuous
 62
     7
370
    15
100
AcDbLine
 10
246.240057001
 20
63.7398184137
 30
0.0
 11
247.6394450686
 21
62.9319688778
 31
0.0
  0
LINE
  5
204
330
1F
100
AcDbEntity
  8
0
  6
Continuous
 62
     7
370
    15
100
AcDbLine
 10
235.0352666939
 20
49.4137894482
 30
0.0
 11
235.0352666939
 21
50.2124447153
 31
0.0
  0
LINE
  5
205
330
1F
100
AcDbEntity
  8
0
  6
Continuous
 62
     7
370
    15
100
AcDbLine
 10
235.0352666939
 20
50.2124447153
 30
0.0
 11
234.1604536613
 21
49.7074259012
 31
0.0
  0
LINE
  5
206
330
1F
100
AcDbEntity
  8
0
  6
Continuous
 62
     7
370
    15
100
AcDbLine
 10
247.8515771029
 20
62.4968119729
 30
0.0
 11
247.8515771029
 21
61.0202011184
 31
0.0
  0
LINE
  5
207
330
1F
100
AcDbEntity
  8
0
  6
Continuous
 62
     7
370
    15
100
AcDbLine
 10
249.1302903445
 20
61.75838656
 30
0.0
 11
247.8515771029
 21
61.0202011184
 31
0.0
  0
SPLINE
  5
208
330
1F
100
AcDbEntity
  8
0
  6
Continuous
 62
     7
370
    15
100
AcDbSpline
210
0.0
220
0.0
230
1.0
 70
     8
 71
     3
 72
    18
 73
    14
 74
     0
 42
0.000000001
 43
0.00000001
 40
0.0
 40
0.0
 40
0.0
 40
0.0
 40
0.2500000000000001
 40
0.2500000000000001
 40
0.5000000000000001
 40
0.5000000000000001
 40
0.5625000000000001
 40
0.5625000000000001
 40
0.6250000000000001
 40
0.6250000000000001
 40
0.75
 40
0.75
 40
1.0
 40
1.0
 40
1.0
 40
1.0
 10
235.0352666939393
 20
45.29531429930905
 30
0.0
 10
235.0352666939393
 20
45.63668641085292
 30
0.0
 10
235.0547536661721
 20
45.96712953456706
 30
0.0
 10
235.0902934441134
 20
46.62903096313341
 30
0.0
 10
235.1057030634908
 20
46.96145804647092
 30
0.0
 10
235.1060408247685
 20
47.3888291908691
 30
0.0
 10
235.1052491127879
 20
47.47634300179866
 30
0.0
 10
235.1020607646519
 20
47.65076476925322
 30
0.0
 10
235.0996674105969
 20
47.7384077561482
 30
0.0
 10
235.0906077737795
 20
48.00235297121175
 30
0.0
 10
235.0820319666288
 20
48.17968655650025
 30
0.0
 10
235.0551395741941
 20
48.71233207284041
 30
0.0
 10
235.0352666939393
 20
49.06849201072068
 30
0.0
 10
235.0352666939393
 20
49.41378944816756
 30
0.0
  0
ARC
  5
209
330
1F
100
AcDbEntity
  8
0
  6
Continuous
 62
     7
370
    15
100
AcDbCircle
 10
260.4682906047
 20
51.8967832037
 30
0.0
 40
2.708969812921862
100
AcDbArc
 50
347.8781475344
 51
5.1588186135
  0
LINE
  5
20A
330
1F
100
AcDbEntity
  8
0
  6
Continuous
 62
     7
370
    15
100
AcDbLine
 10
261.702645545
 20
52.1443307577
 30
0.0
 11
263.1168591074
 21
51.3279226459
 31
0.0
  0
LWPOLYLINE
  5
20B
330
1F
100
AcDbEntity
  8
0
  6
Continuous
 62
     7
370
    15
100
AcDbPolyline
 90
       11
 70
   128
 43
0.0
 10
259.6427267875
 20
38.8833359875
 10
259.0354577167
 20
38.1779164049
 10
258.399544351
 20
37.5307512629
 10
257.7418719046
 20
36.9488476017
 10
257.0695611834
 20
36.4385058572
 10
256.3898914858
 20
36.0052516438
 10
255.7102217882
 20
35.6537759278
 10
255.0379110669
 20
35.3878842361
 10
254.3802386205
 20
35.2104554535
 10
253.7443252549
 20
35.1234106517
 10
253.1370561841
 20
35.1276922893
  0
LINE
  5
20C
330
1F
100
AcDbEntity
  8
0
  6
Continuous
 62
     7
370
    15
100
AcDbLine
 10
261.3396389541
 20
39.8629425298
 30
0.0
 11
259.6427267875
 21
38.8833359875
 31
0.0
  0
ARC
  5
20D
330
1F
100
AcDbEntity
  8
0
  6
Continuous
 62
     7
370
    15
100
AcDbCircle
 10
259.750914431
 20
42.5475282832
 30
0.0
 40
3.119462498234495
100
AcDbArc
 50
300.6168359905
 51
316.0576097217
  0
LINE
  5
20E
330
1F
100
AcDbEntity
  8
0
  6
Continuous
 62
     7
370
    15
100
AcDbLine
 10
253.1370561841
 20
35.1276922893
 30
0.0
 11
251.4401440175
 21
34.148085747
 31
0.0
  0
LWPOLYLINE
  5
20F
330
1F
100
AcDbEntity
  8
0
  6
Continuous
 62
     7
370
    15
100
AcDbPolyline
 90
       21
 70
   128
 43
0.0
 10
231.403169102
 20
52.1405713977
 10
231.6737295638
 20
53.1140872633
 10
232.0105977321
 20
54.0923369392
 10
232.4106989098
 20
55.0663916469
 10
232.8703812535
 20
56.0273608964
 10
233.3854491042
 20
56.9664736328
 10
233.9512012831
 20
57.875158292
 10
234.5624739999
 20
58.7451210362
 10
235.2136879851
 20
59.5684214543
 10
235.898899413
 20
60.3375450358
 10
236.611854153
 20
61.045471759
 10
237.3460448532
 20
61.685740164
 10
238.0947703344
 20
62.2525063287
 10
238.8511967544
 20
62.7405972081
 10
239.608419982
 20
63.1455578502
 10
240.3595286133
 20
63.4636920575
 10
241.0976670542
 20
63.6920961236
 10
241.8160980936
 20
63.8286853359
 10
242.5082643955
 20
63.8722130038
 10
243.1678483502
 20
63.822281837
 10
243.3461027098
 20
63.791548224
  0
SPLINE
  5
210
330
1F
100
AcDbEntity
  8
0
  6
Continuous
 62
     7
370
    15
100
AcDbSpline
210
0.0
220
0.0
230
1.0
 70
     8
 71
     3
 72
     8
 73
     4
 74
     0
 42
0.000000001
 43
0.00000001
 40
0.0
 40
0.0
 40
0.0
 40
0.0
 40
1.0
 40
1.0
 40
1.0
 40
1.0
 10
231.4031691020479
 20
52.14057139772996
 30
0.0
 10
230.9122006125825
 20
52.0579364430465
 30
0.0
 10
230.4208628585322
 20
51.97602755203136
 30
0.0
 10
229.929272374646
 20
51.89463992051982
 30
0.0
  0
LWPOLYLINE
  5
211
330
1F
100
AcDbEntity
  8
0
  6
Continuous
 62
     7
370
    15
100
AcDbPolyline
 90
       23
 70
   128
 43
0.0
 10
229.9292723746
 20
51.8946399205
 10
230.1813844227
 20
52.8955156385
 10
230.4980127882
 20
53.9045384418
 10
230.876676325
 20
54.9138014802
 10
231.3144077703
 20
55.9153960211
 10
231.8077769966
 20
56.9014734235
 10
232.3529178905
 20
57.8643066407
 10
232.9455586484
 20
58.7963507711
 10
233.5810552507
 20
59.6903021807
 10
234.2544278533
 20
60.5391557358
 10
234.96039981
 20
61.3362596957
 10
235.6934390216
 20
62.0753678375
 10
236.4478012856
 20
62.7506884019
 10
237.2175753091
 20
63.3569294782
 10
237.9967290306
 20
63.8893404728
 10
238.7791568876
 20
64.3437493355
 10
239.5587276611
 20
64.7165952519
 10
240.3293325207
 20
65.004956547
 10
241.0849328942
 20
65.2065735796
 10
241.8196077867
 20
65.3198664492
 10
242.5276001784
 20
65.3439473763
 10
243.2033621374
 20
65.2786276592
 10
243.8415982945
 20
65.1244191529
  0
LINE
  5
212
330
1F
100
AcDbEntity
  8
0
  6
Continuous
 62
     7
370
    15
100
AcDbLine
 10
243.8415982945
 20
65.1244191529
 30
0.0
 11
244.2230240686
 21
63.9021362351
 31
0.0
  0
LINE
  5
213
330
1F
100
AcDbEntity
  8
0
  6
Continuous
 62
     7
370
    15
100
AcDbLine
 10
241.1340626817
 20
66.6874461922
 30
0.0
 11
243.8415982945
 21
65.1244191529
 31
0.0
  0
LINE
  5
214
330
1F
100
AcDbEntity
  8
0
  6
Continuous
 62
     7
370
    15
100
AcDbLine
 10
229.9292723746
 20
51.8946399205
 30
0.0
 11
229.3430571054
 21
52.2330547921
 31
0.0
  0
SPLINE
  5
215
330
1F
100
AcDbEntity
  8
0
  6
Continuous
 62
     7
370
    15
100
AcDbSpline
210
0.0
220
0.0
230
1.0
 70
     8
 71
     3
 72
    28
 73
    24
 74
     0
 42
0.000000001
 43
0.00000001
 40
0.0
 40
0.0
 40
0.0
 40
0.0
 40
0.1249999999999999
 40
0.1249999999999999
 40
0.1874999999999998
 40
0.1874999999999998
 40
0.2499999999999998
 40
0.2499999999999998
 40
0.3749999999999997
 40
0.3749999999999997
 40
0.4374999999999996
 40
0.4374999999999996
 40
0.4999999999999996
 40
0.4999999999999996
 40
0.6249999999999999
 40
0.6249999999999999
 40
0.75
 40
0.75
 40
0.8125000000000001
 40
0.8125000000000001
 40
0.8750000000000001
 40
0.8750000000000001
 40
1.0
 40
1.0
 40
1.0
 40
1.0
 10
229.3430571053876
 20
52.23305479209963
 30
0.0
 10
229.2020648664016
 20
52.31444787916566
 30
0.0
 10
229.0594837119844
 20
52.37596315494996
 30
0.0
 10
228.8436389060677
 20
52.43997906051106
 30
0.0
 10
228.7713649076269
 20
52.45657582136977
 30
0.0
 10
228.6262752218763
 20
52.48016460577517
 30
0.0
 10
228.5534517007518
 20
52.48708490188436
 30
0.0
 10
228.339298172536
 20
52.49315002407955
 30
0.0
 10
228.2005618801371
 20
52.47807901561014
 30
0.0
 10
227.9995601800294
 20
52.42786980878959
 30
0.0
 10
227.9334133128584
 20
52.4063439993943
 30
0.0
 10
227.8058552757774
 20
52.35468494733912
 30
0.0
 10
227.7444286602945
 20
52.32461993934356
 30
0.0
 10
227.5673345653131
 20
52.22223964616403
 30
0.0
 10
227.4587767602173
 20
52.13786296267509
 30
0.0
 10
227.263077112471
 20
51.93657213375767
 30
0.0
 10
227.1786813573561
 20
51.82231882901736
 30
0.0
 10
227.0737551467927
 20
51.63307462220988
 30
0.0
 10
227.0423459170979
 20
51.56692148528774
 30
0.0
 10
226.9869778699822
 20
51.42838240072773
 30
0.0
 10
226.9629453665146
 20
51.35562966096103
 30
0.0
 10
226.9037211013898
 20
51.13153700312277
 30
0.0
 10
226.8808959181259
 20
50.97393359106947
 30
0.0
 10
226.8752572697387
 20
50.80802617090367
 30
0.0
  0
ARC
  5
216
330
1F
100
AcDbEntity
  8
0
  6
Continuous
 62
     7
370
    15
100
AcDbCircle
 10
238.6522149139
 20
50.399755765
 30
0.0
 40
11.78403225035789
100
AcDbArc
 50
178.0145290684
 51
181.9854709316
  0
SPLINE
  5
217
330
1F
100
AcDbEntity
  8
0
  6
Continuous
 62
     7
370
    15
100
AcDbSpline
210
0.0
220
0.0
230
1.0
 70
     8
 71
     3
 72
    24
 73
    20
 74
     0
 42
0.000000001
 43
0.00000001
 40
0.0
 40
0.0
 40
0.0
 40
0.0
 40
0.1249999999999998
 40
0.1249999999999998
 40
0.1874999999999998
 40
0.1874999999999998
 40
0.2499999999999998
 40
0.2499999999999998
 40
0.3749999999999997
 40
0.3749999999999997
 40
0.4999999999999998
 40
0.4999999999999998
 40
0.6249999999999998
 40
0.6249999999999998
 40
0.7499999999999999
 40
0.7499999999999999
 40
0.8749999999999999
 40
0.8749999999999999
 40
1.0
 40
1.0
 40
1.0
 40
1.0
 10
226.8752572697387
 20
49.99148535901791
 30
0.0
 10
226.8808967297466
 20
49.83206524025508
 30
0.0
 10
226.9036949377613
 20
49.66951130583818
 30
0.0
 10
226.9621150965304
 20
49.4210553477731
 30
0.0
 10
226.9856517010556
 20
49.33745659593271
 30
0.0
 10
227.0409003064196
 20
49.1685987287772
 30
0.0
 10
227.0727204497208
 20
49.08319229472104
 30
0.0
 10
227.1781573353237
 20
48.82994586738717
 30
0.0
 10
227.2621996593797
 20
48.66320673480139
 30
0.0
 10
227.4560129317618
 20
48.33273116392114
 30
0.0
 10
227.5664407742778
 20
48.16856259236192
 30
0.0
 10
227.8025277698354
 20
47.8556248484885
 30
0.0
 10
227.9291412626902
 20
47.70504524076998
 30
0.0
 10
228.198394473364
 20
47.41462093245391
 30
0.0
 10
228.3384648789848
 20
47.2777090342671
 30
0.0
 10
228.6221616802737
 20
47.02440546131544
 30
0.0
 10
228.7676391667247
 20
46.90636699961009
 30
0.0
 10
229.0586731852116
 20
46.69278509293245
 30
0.0
 10
229.2020549613187
 20
46.5986679140481
 30
0.0
 10
229.3430571053876
 20
46.51726910889938
 30
0.0
  0
LINE
  5
218
330
1F
100
AcDbEntity
  8
0
  6
Continuous
 62
     7
370
    15
100
AcDbLine
 10
229.3430571054
 20
46.5172691089
 30
0.0
 11
229.9292723746
 21
46.1788542373
 31
0.0
  0
ARC
  5
219
330
1F
100
AcDbEntity
  8
0
  6
Continuous
 62
     7
370
    15
100
AcDbCircle
 10
234.5340087647
 20
47.2203891385
 30
0.0
 40
4.721058374139898
100
AcDbArc
 50
192.7451401393
 51
257.1045020167
  0
LWPOLYLINE
  5
21A
330
1F
100
AcDbEntity
  8
0
  6
Continuous
 62
     7
370
    15
100
AcDbPolyline
 90
        3
 70
   128
 43
0.0
 10
245.3910992766
 20
64.229620487
 10
245.6654878258
 20
63.9579334235
 10
245.7471726713
 20
63.8673889227
  0
LINE
  5
21B
330
1F
100
AcDbEntity
  8
0
  6
Continuous
 62
     7
370
    15
100
AcDbLine
 10
244.7263614065
 20
64.6133654912
 30
0.0
 11
245.3910992766
 21
64.229620487
 31
0.0
  0
SPLINE
  5
21C
330
1F
100
AcDbEntity
  8
0
  6
Continuous
 62
     7
370
    15
100
AcDbSpline
210
0.0
220
0.0
230
1.0
 70
     8
 71
     3
 72
    20
 73
    16
 74
     0
 42
0.000000001
 43
0.00000001
 40
0.0
 40
0.0
 40
0.0
 40
0.0
 40
0.2499999999999988
 40
0.2499999999999988
 40
0.3749999999999988
 40
0.3749999999999988
 40
0.4999999999999989
 40
0.4999999999999989
 40
0.6249999999999989
 40
0.6249999999999989
 40
0.749999999999999
 40
0.749999999999999
 40
0.8749999999999994
 40
0.8749999999999994
 40
1.0
 40
1.0
 40
1.0
 40
1.0
 10
241.1340626816733
 20
66.6874461921665
 30
0.0
 10
241.3932732645422
 20
66.59236044463805
 30
0.0
 10
241.661184632032
 20
66.47056146910552
 30
0.0
 10
242.0897965399433
 20
66.24506879643319
 30
0.0
 10
242.2384821269051
 20
66.1619628156674
 30
0.0
 10
242.5408074792177
 20
65.98508062174182
 30
0.0
 10
242.6944663078478
 20
65.89138372757397
 30
0.0
 10
243.0092908208569
 20
65.69452522801903
 30
0.0
 10
243.1718777239525
 20
65.5904200378077
 30
0.0
 10
243.4944543655454
 20
65.38243970141629
 30
0.0
 10
243.6556231827689
 20
65.27785051067401
 30
0.0
 10
243.9793696239356
 20
65.06992290664388
 30
0.0
 10
244.1373343781545
 20
64.96960778841897
 30
0.0
 10
244.4407272719753
 20
64.78182456979441
 30
0.0
 10
244.5884292780464
 20
64.69299201403557
 30
0.0
 10
244.7263614065266
 20
64.61336549116216
 30
0.0
  0
ARC
  5
21D
330
1F
100
AcDbEntity
  8
0
  6
Continuous
 62
     7
370
    15
100
AcDbCircle
 10
237.1481180876
 20
62.9340926074
 30
0.0
 40
5.345309211282052
100
AcDbArc
 50
62.63196639
 51
113.0169384073
  0
ARC
  5
21E
330
1F
100
AcDbEntity
  8
0
  6
Continuous
 62
     7
370
    15
100
AcDbCircle
 10
229.9258792764
 20
50.4655306806
 30
0.0
 40
5.255890956283539
100
AcDbArc
 50
189.6575847464
 51
237.5582090372
  0
LINE
  5
21F
330
1F
100
AcDbEntity
  8
0
  6
Continuous
 62
     7
370
    15
100
AcDbLine
 10
251.7228426217
 20
35.9441004011
 30
0.0
 11
253.1370561841
 21
35.1276922893
 31
0.0
  0
LINE
  5
220
330
1F
100
AcDbEntity
  8
0
  6
Continuous
 62
     7
370
    15
100
AcDbLine
 10
232.4143230235
 20
50.8828764054
 30
0.0
 11
231.8320729752
 21
51.2190022037
 31
0.0
  0
SPLINE
  5
221
330
1F
100
AcDbEntity
  8
0
  6
Continuous
 62
     7
370
    15
100
AcDbSpline
210
0.0
220
0.0
230
1.0
 70
     8
 71
     3
 72
    16
 73
    12
 74
     0
 42
0.000000001
 43
0.00000001
 40
0.0
 40
0.0
 40
0.0
 40
0.0
 40
0.0624999999999985
 40
0.0624999999999985
 40
0.124999999999997
 40
0.124999999999997
 40
0.2499999999999968
 40
0.2499999999999968
 40
0.4999999999999983
 40
0.4999999999999983
 40
1.0
 40
1.0
 40
1.0
 40
1.0
 10
231.8320729751643
 20
51.21900220369832
 30
0.0
 10
231.8151094726056
 20
51.22879502527935
 30
0.0
 10
231.7984607464071
 20
51.24676548126542
 30
0.0
 10
231.7710697591595
 20
51.28570652961352
 30
0.0
 10
231.7593443018375
 20
51.30723173144977
 30
0.0
 10
231.7281080984214
 20
51.37216345481264
 30
0.0
 10
231.712294117535
 20
51.41579771727856
 30
0.0
 10
231.6697837860681
 20
51.54704152036496
 30
0.0
 10
231.6491372902343
 20
51.63371664165808
 30
0.0
 10
231.5966831773188
 20
51.88871352592095
 30
0.0
 10
231.5746317391297
 20
52.05512138125033
 30
0.0
 10
231.5615896477437
 20
52.21775578986075
 30
0.0
  0
SPLINE
  5
222
330
1F
100
AcDbEntity
  8
0
  6
Continuous
 62
     7
370
    15
100
AcDbSpline
210
0.0
220
0.0
230
1.0
 70
     8
 71
     3
 72
    10
 73
     6
 74
     0
 42
0.000000001
 43
0.00000001
 40
0.0
 40
0.0
 40
0.0
 40
0.0
 40
0.5
 40
0.5
 40
1.0
 40
1.0
 40
1.0
 40
1.0
 10
231.5615896477437
 20
52.21775578986075
 30
0.0
 10
231.5432972078719
 20
52.21194254012305
 30
0.0
 10
231.525814164523
 20
52.20541155521435
 30
0.0
 10
231.4924518055189
 20
52.19092747430842
 30
0.0
 10
231.4766771538931
 20
52.18300669279954
 30
0.0
 10
231.4620696317674
 20
52.17457394977239
 30
0.0
  0
LINE
  5
223
330
1F
100
AcDbEntity
  8
0
  6
Continuous
 62
     7
370
    15
100
AcDbLine
 10
231.4620696318
 20
52.1745739498
 30
0.0
 11
231.403169102
 21
52.1405713977
 31
0.0
  0
LINE
  5
224
330
1F
100
AcDbEntity
  8
0
  6
Continuous
 62
     7
370
    15
100
AcDbLine
 10
259.6427267875
 20
38.8833359875
 30
0.0
 11
258.2285132251
 21
39.6997440993
 31
0.0
  0
ARC
  5
225
330
1F
100
AcDbEntity
  8
0
  6
Continuous
 62
     7
370
    15
100
AcDbCircle
 10
260.9963226712
 20
43.0373152976
 30
0.0
 40
2.182902395195515
100
AcDbArc
 50
353.7588101909
 51
13.7288361877
  0
LWPOLYLINE
  5
226
330
1F
100
AcDbEntity
  8
0
  6
Continuous
 62
     7
370
    15
100
AcDbPolyline
 90
       10
 70
   128
 43
0.0
 10
263.1168591074
 20
51.3279226459
 10
263.427457585
 20
50.68725104
 10
263.6633386165
 20
49.9708912724
 10
263.8219978661
 20
49.1864488947
 10
263.9017508574
 20
48.3422522878
 10
263.9017508574
 20
47.44726424
 10
263.8219978661
 20
46.5109867894
 10
263.6633386165
 20
45.5433603413
 10
263.427457585
 20
44.5546581317
 10
263.1168591074
 20
43.5553771567
  0
LINE
  5
227
330
1F
100
AcDbEntity
  8
0
  6
Continuous
 62
     7
370
    15
100
AcDbLine
 10
261.702645545
 20
44.3717852685
 30
0.0
 11
263.1168591074
 21
43.5553771567
 31
0.0
  0
LINE
  5
228
330
1F
100
AcDbEntity
  8
0
  6
Continuous
 62
     7
370
    15
100
AcDbLine
 10
230.4390726162
 20
47.1499853956
 30
0.0
 11
231.5615896477
 21
46.5019701067
 31
0.0
  0
ARC
  5
229
330
1F
100
AcDbEntity
  8
0
  6
Continuous
 62
     7
370
    15
100
AcDbCircle
 10
232.9234005768
 20
51.0338025557
 30
0.0
 40
4.610414422716255
100
AcDbArc
 50
182.6054784857
 51
237.39452166
  0
LINE
  5
22A
330
1F
100
AcDbEntity
  8
0
  6
Continuous
 62
     7
370
    15
100
AcDbLine
 10
228.3177522727
 20
51.6407608108
 30
0.0
 11
228.3177522727
 21
50.824219999
 31
0.0
  0
ARC
  5
22B
330
1F
100
AcDbEntity
  8
0
  6
Continuous
 62
     7
370
    15
100
AcDbCircle
 10
230.2578807761
 20
51.7069370141
 30
0.0
 40
1.941256783513541
100
AcDbArc
 50
156.1059223584
 51
181.9535550024
  0
LINE
  5
22C
330
1F
100
AcDbEntity
  8
0
  6
Continuous
 62
     7
370
    15
100
AcDbLine
 10
235.0352666939
 20
44.4966590321
 30
0.0
 11
235.0352666939
 21
45.2953142993
 31
0.0
  0
LINE
  5
22D
330
1F
100
AcDbEntity
  8
0
  6
Continuous
 62
     7
370
    15
100
AcDbLine
 10
232.8874448297
 20
45.7365702021
 30
0.0
 11
235.0352666939
 21
44.4966590321
 31
0.0
  0
SPLINE
  5
22E
330
1F
100
AcDbEntity
  8
0
  6
Continuous
 62
     7
370
    15
100
AcDbSpline
210
0.0
220
0.0
230
1.0
 70
     8
 71
     3
 72
    16
 73
    12
 74
     0
 42
0.000000001
 43
0.00000001
 40
0.0
 40
0.0
 40
0.0
 40
0.0
 40
0.0625000000000009
 40
0.0625000000000009
 40
0.1250000000000017
 40
0.1250000000000017
 40
0.2500000000000016
 40
0.2500000000000016
 40
0.5000000000000002
 40
0.5000000000000002
 40
1.0
 40
1.0
 40
1.0
 40
1.0
 10
232.6169615022813
 20
46.73532378827326
 30
0.0
 10
232.6339282354119
 20
46.72552910172273
 30
0.0
 10
232.6506422352506
 20
46.70748526512902
 30
0.0
 10
232.6780758710899
 20
46.66843914876954
 30
0.0
 10
232.6897823335341
 20
46.64689862209141
 30
0.0
 10
232.7206789219459
 20
46.58268505531071
 30
0.0
 10
232.7367488648803
 20
46.53848628426359
 30
0.0
 10
232.7790779425902
 20
46.40784918438442
 30
0.0
 10
232.7995054573442
 20
46.32229246585285
 30
0.0
 10
232.8520863857582
 20
46.06733617448135
 30
0.0
 10
232.8743342781602
 20
45.90005830639081
 30
0.0
 10
232.8874448297019
 20
45.7365702021111
 30
0.0
  0
LINE
  5
22F
330
1F
100
AcDbEntity
  8
0
  6
Continuous
 62
     7
370
    15
100
AcDbLine
 10
231.8320729752
 20
47.1884302903
 30
0.0
 11
232.6169615023
 21
46.7353237883
 31
0.0
  0
SPLINE
  5
230
330
1F
100
AcDbEntity
  8
0
  6
Continuous
 62
     7
370
    15
100
AcDbSpline
210
0.0
220
0.0
230
1.0
 70
     8
 71
     3
 72
    16
 73
    12
 74
     0
 42
0.000000001
 43
0.00000001
 40
0.0
 40
0.0
 40
0.0
 40
0.0
 40
0.5000000000000017
 40
0.5000000000000017
 40
0.7500000000000037
 40
0.7500000000000037
 40
0.8750000000000031
 40
0.8750000000000031
 40
0.9375000000000016
 40
0.9375000000000016
 40
1.0
 40
1.0
 40
1.0
 40
1.0
 10
231.5615896477437
 20
46.5019701066605
 30
0.0
 10
231.5745707310347
 20
46.64885610678306
 30
0.0
 10
231.5966723731021
 20
46.79053761910514
 30
0.0
 10
231.6492424485968
 20
46.98527686409301
 30
0.0
 10
231.6699089858928
 20
47.04809641445665
 30
0.0
 10
231.7124500761776
 20
47.13018541706315
 30
0.0
 10
231.7284782294502
 20
47.15571005739161
 30
0.0
 10
231.7594073809702
 20
47.18419757825325
 30
0.0
 10
231.7710929678113
 20
47.19217507139197
 30
0.0
 10
231.7985193066847
 20
47.19948038327217
 30
0.0
 10
231.8151487275221
 20
47.19820045053492
 30
0.0
 10
231.8320729751643
 20
47.18843029033481
 30
0.0
  0
ARC
  5
231
330
1F
100
AcDbEntity
  8
0
  6
Continuous
 62
     7
370
    15
100
AcDbCircle
 10
244.4293870897
 20
50.4973717745
 30
0.0
 40
20.03772150956227
100
AcDbArc
 50
135.0301370065
 51
170.799345454
  0
LINE
  5
232
330
1F
100
AcDbEntity
  8
0
  6
Continuous
 62
     7
370
    15
100
AcDbLine
 10
234.1604536613
 20
43.991640218
 30
0.0
 11
235.0352666939
 21
44.4966590321
 31
0.0
  0
ARC
  5
233
330
1F
100
AcDbEntity
  8
0
  6
Continuous
 62
     7
370
    15
100
AcDbCircle
 10
238.1231511128
 20
44.6575279334
 30
0.0
 40
4.316113149026296
100
AcDbArc
 50
218.4915264272
 51
262.9929195252
  0
SPLINE
  5
234
330
1F
100
AcDbEntity
  8
0
  6
Continuous
 62
     7
370
    15
100
AcDbSpline
210
0.0
220
0.0
230
1.0
 70
     8
 71
     3
 72
    10
 73
     6
 74
     0
 42
0.000000001
 43
0.00000001
 40
0.0
 40
0.0
 40
0.0
 40
0.0
 40
0.5
 40
0.5
 40
1.0
 40
1.0
 40
1.0
 40
1.0
 10
233.7271191487455
 20
43.98640396224818
 30
0.0
 10
233.7836023357674
 20
43.95379691244147
 30
0.0
 10
233.8646468122571
 20
43.93576172294363
 30
0.0
 10
234.025795102758
 20
43.93870920001334
 30
0.0
 10
234.1040009807726
 20
43.95905077924044
 30
0.0
 10
234.1604536612971
 20
43.99164021802155
 30
0.0
  0
ARC
  5
235
330
1F
100
AcDbEntity
  8
0
  6
Continuous
 62
     7
370
    15
100
AcDbCircle
 10
237.2453359038
 20
46.0274931026
 30
0.0
 40
5.069883343199176
100
AcDbArc
 50
194.0783268203
 51
238.0641205898
  0
LINE
  5
236
330
1F
100
AcDbEntity
  8
0
  6
Continuous
 62
     7
370
    15
100
AcDbLine
 10
232.3277310811
 20
44.7942534981
 30
0.0
 11
233.7271191487
 21
43.9864039622
 31
0.0
  0
SPLINE
  5
237
330
1F
100
AcDbEntity
  8
0
  6
Continuous
 62
     7
370
    15
100
AcDbSpline
210
0.0
220
0.0
230
1.0
 70
     8
 71
     3
 72
     8
 73
     4
 74
     0
 42
0.000000001
 43
0.00000001
 40
0.0
 40
0.0
 40
0.0
 40
0.0
 40
1.0
 40
1.0
 40
1.0
 40
1.0
 10
232.7537430541142
 20
45.64511596773902
 30
0.0
 10
232.6105996042304
 20
45.36168589174945
 30
0.0
 10
232.4687138697857
 20
45.07804264385249
 30
0.0
 10
232.3277310811212
 20
44.79425349812684
 30
0.0
  0
LINE
  5
238
330
1F
100
AcDbEntity
  8
0
  6
Continuous
 62
     7
370
    15
100
AcDbLine
 10
232.8126435838
 20
45.6791185198
 30
0.0
 11
232.7537430541
 21
45.6451159677
 31
0.0
  0
SPLINE
  5
239
330
1F
100
AcDbEntity
  8
0
  6
Continuous
 62
     7
370
    15
100
AcDbSpline
210
0.0
220
0.0
230
1.0
 70
     8
 71
     3
 72
    10
 73
     6
 74
     0
 42
0.000000001
 43
0.00000001
 40
0.0
 40
0.0
 40
0.0
 40
0.0
 40
0.5
 40
0.5
 40
1.0
 40
1.0
 40
1.0
 40
1.0
 10
232.8874448297019
 20
45.7365702021111
 30
0.0
 10
232.8773748947006
 20
45.72601020134898
 30
0.0
 10
232.8660616712039
 20
45.71591745525379
 30
0.0
 10
232.8409717886327
 20
45.69665777535443
 30
0.0
 10
232.8272511059591
 20
45.68755126280842
 30
0.0
 10
232.8126435838334
 20
45.67911851978122
 30
0.0
  0
SPLINE
  5
23A
330
1F
100
AcDbEntity
  8
0
  6
Continuous
 62
     7
370
    15
100
AcDbSpline
210
0.0
220
0.0
230
1.0
 70
     8
 71
     3
 72
     8
 73
     4
 74
     0
 42
0.000000001
 43
0.00000001
 40
0.0
 40
0.0
 40
0.0
 40
0.0
 40
1.0
 40
1.0
 40
1.0
 40
1.0
 10
219.1517529759342
 20
55.09811382516528
 30
0.0
 10
219.1285561288012
 20
55.14473562271728
 30
0.0
 10
219.1151317585985
 20
55.18591358217215
 30
0.0
 10
219.1087429319369
 20
55.22346303677628
 30
0.0
  0
SPLINE
  5
23B
330
1F
100
AcDbEntity
  8
0
  6
Continuous
 62
     7
370
    15
100
AcDbSpline
210
0.0
220
0.0
230
1.0
 70
     8
 71
     3
 72
    12
 73
     8
 74
     0
 42
0.000000001
 43
0.00000001
 40
0.0
 40
0.0
 40
0.0
 40
0.0
 40
0.5000000000000019
 40
0.5000000000000019
 40
0.7500000000000009
 40
0.7500000000000009
 40
1.0
 40
1.0
 40
1.0
 40
1.0
 10
219.1087429319369
 20
55.22346303677628
 30
0.0
 10
219.2765571072713
 20
55.10162245481201
 30
0.0
 10
219.445051589407
 20
54.9783178934307
 30
0.0
 10
219.7001455803488
 20
54.78840812396523
 30
0.0
 10
219.7855690337342
 20
54.72427922196445
 30
0.0
 10
219.9579611401258
 20
54.59279460462965
 30
0.0
 10
220.0447429572803
 20
54.5258257980082
 30
0.0
 10
220.1338626611926
 20
54.45400234204669
 30
0.0
  0
SPLINE
  5
23C
330
1F
100
AcDbEntity
  8
0
  6
Continuous
 62
     7
370
    15
100
AcDbSpline
210
0.0
220
0.0
230
1.0
 70
     8
 71
     3
 72
     8
 73
     4
 74
     0
 42
0.000000001
 43
0.00000001
 40
0.0
 40
0.0
 40
0.0
 40
0.0
 40
1.0
 40
1.0
 40
1.0
 40
1.0
 10
220.1338626611926
 20
54.45400234204669
 30
0.0
 10
220.4333297580247
 20
54.21265546927885
 30
0.0
 10
220.7319072708769
 20
53.98168266675055
 30
0.0
 10
221.0300695444086
 20
53.75555226468565
 30
0.0
  0
SPLINE
  5
23D
330
1F
100
AcDbEntity
  8
0
  6
Continuous
 62
     7
370
    15
100
AcDbSpline
210
0.0
220
0.0
230
1.0
 70
     8
 71
     3
 72
    14
 73
    10
 74
     0
 42
0.000000001
 43
0.00000001
 40
0.0
 40
0.0
 40
0.0
 40
0.0
 40
0.1250000000000002
 40
0.1250000000000002
 40
0.2500000000000005
 40
0.2500000000000005
 40
0.5000000000000034
 40
0.5000000000000034
 40
1.0
 40
1.0
 40
1.0
 40
1.0
 10
221.0300695444086
 20
53.75555226468566
 30
0.0
 10
221.0470215768385
 20
53.74269560826242
 30
0.0
 10
221.062743622842
 20
53.73226770533817
 30
0.0
 10
221.0879650277392
 20
53.71873023208844
 30
0.0
 10
221.0974915385871
 20
53.71548454350425
 30
0.0
 10
221.1187891632305
 20
53.71280245349162
 30
0.0
 10
221.1241283076747
 20
53.71951465432059
 30
0.0
 10
221.1309458551866
 20
53.74796047590777
 30
0.0
 10
221.1231158523753
 20
53.77813082177796
 30
0.0
 10
221.1122469819688
 20
53.81234596030941
 30
0.0
  0
SPLINE
  5
23E
330
1F
100
AcDbEntity
  8
0
  6
Continuous
 62
     7
370
    15
100
AcDbSpline
210
0.0
220
0.0
230
1.0
 70
     8
 71
     3
 72
    14
 73
    10
 74
     0
 42
0.000000001
 43
0.00000001
 40
0.0
 40
0.0
 40
0.0
 40
0.0
 40
0.25
 40
0.25
 40
0.5
 40
0.5
 40
0.75
 40
0.75
 40
1.0
 40
1.0
 40
1.0
 40
1.0
 10
221.1122469819689
 20
53.81234596030934
 30
0.0
 10
221.0982564493481
 20
53.85638807267662
 30
0.0
 10
221.0976582428912
 20
53.8923140264153
 30
0.0
 10
221.0951904894757
 20
53.96927072284225
 30
0.0
 10
221.0943886962185
 20
54.00961619054005
 30
0.0
 10
221.0855173249246
 20
54.10112600582723
 30
0.0
 10
221.0776766342422
 20
54.15210479759789
 30
0.0
 10
221.0500448694099
 20
54.26966540271314
 30
0.0
 10
221.0304537233193
 20
54.33538273135565
 30
0.0
 10
221.0032889346016
 20
54.40850855294831
 30
0.0
  0
ARC
  5
23F
330
1F
100
AcDbEntity
  8
0
  6
Continuous
 62
     7
370
    15
100
AcDbCircle
 10
229.1776205966
 20
56.9088889552
 30
0.0
 40
8.548192807655132
100
AcDbArc
 50
162.9920748387
 51
197.0079251613
  0
SPLINE
  5
240
330
1F
100
AcDbEntity
  8
0
  6
Continuous
 62
     7
370
    15
100
AcDbSpline
210
0.0
220
0.0
230
1.0
 70
     8
 71
     3
 72
    14
 73
    10
 74
     0
 42
0.000000001
 43
0.00000001
 40
0.0
 40
0.0
 40
0.0
 40
0.0
 40
0.25
 40
0.25
 40
0.5
 40
0.5
 40
0.75
 40
0.75
 40
1.0
 40
1.0
 40
1.0
 40
1.0
 10
221.1122469819689
 20
60.76457149133186
 30
0.0
 10
221.0982564493481
 20
60.65128046599906
 30
0.0
 10
221.0976582428912
 20
60.53579968147813
 30
0.0
 10
221.0951904894757
 20
60.30616958216127
 30
0.0
 10
221.0943886962185
 20
60.1914611526207
 30
0.0
 10
221.0855173249246
 20
59.96314870061993
 30
0.0
 10
221.0776766342422
 20
59.84952054550492
 30
0.0
 10
221.0500448694099
 20
59.62393015683775
 30
0.0
 10
221.0304537233193
 20
59.51375897646276
 30
0.0
 10
221.0032889346016
 20
59.40926935741386
 30
0.0
  0
SPLINE
  5
241
330
1F
100
AcDbEntity
  8
0
  6
Continuous
 62
     7
370
    15
100
AcDbSpline
210
0.0
220
0.0
230
1.0
 70
     8
 71
     3
 72
    14
 73
    10
 74
     0
 42
0.000000001
 43
0.00000001
 40
0.0
 40
0.0
 40
0.0
 40
0.0
 40
0.1249999999999989
 40
0.1249999999999989
 40
0.2499999999999979
 40
0.2499999999999979
 40
0.4999999999999958
 40
0.4999999999999958
 40
1.0
 40
1.0
 40
1.0
 40
1.0
 10
221.0300695444086
 20
61.23611723615581
 30
0.0
 10
221.0470215768385
 20
61.23291475331688
 30
0.0
 10
221.062743622842
 20
61.22371382100278
 30
0.0
 10
221.0879650277392
 20
61.19565008408699
 30
0.0
 10
221.0974915385871
 20
61.17729331454701
 30
0.0
 10
221.1187891632305
 20
61.11785337303293
 30
0.0
 10
221.1241283076747
 20
61.07339343945221
 30
0.0
 10
221.1309458551866
 20
60.94066776185467
 30
0.0
 10
221.1231158523753
 20
60.85258425724578
 30
0.0
 10
221.1122469819688
 20
60.7645714913319
 30
0.0
  0
SPLINE
  5
242
330
1F
100
AcDbEntity
  8
0
  6
Continuous
 62
     7
370
    15
100
AcDbSpline
210
0.0
220
0.0
230
1.0
 70
     8
 71
     3
 72
     8
 73
     4
 74
     0
 42
0.000000001
 43
0.00000001
 40
0.0
 40
0.0
 40
0.0
 40
0.0
 40
1.0
 40
1.0
 40
1.0
 40
1.0
 10
220.1338626611926
 20
61.36521025809225
 30
0.0
 10
220.4333297580247
 20
61.33914208562986
 30
0.0
 10
220.7319072708769
 20
61.29244437970954
 30
0.0
 10
221.0300695444086
 20
61.23611723615581
 30
0.0
  0
SPLINE
  5
243
330
1F
100
AcDbEntity
  8
0
  6
Continuous
 62
     7
370
    15
100
AcDbSpline
210
0.0
220
0.0
230
1.0
 70
     8
 71
     3
 72
    12
 73
     8
 74
     0
 42
0.000000001
 43
0.00000001
 40
0.0
 40
0.0
 40
0.0
 40
0.0
 40
0.5000000000000019
 40
0.5000000000000019
 40
0.7500000000000009
 40
0.7500000000000009
 40
1.0
 40
1.0
 40
1.0
 40
1.0
 10
219.1087429319369
 20
61.67275094020408
 30
0.0
 10
219.2765571072713
 20
61.60668759583669
 30
0.0
 10
219.445051589407
 20
61.54398615698108
 30
0.0
 10
219.7001455803488
 20
61.46138979988667
 30
0.0
 10
219.7855690337342
 20
61.43576735140766
 30
0.0
 10
219.9579611401258
 20
61.3920063878898
 30
0.0
 10
220.0447429572803
 20
61.37296799787722
 30
0.0
 10
220.1338626611926
 20
61.36521025809225
 30
0.0
  0
SPLINE
  5
244
330
1F
100
AcDbEntity
  8
0
  6
Continuous
 62
     7
370
    15
100
AcDbSpline
210
0.0
220
0.0
230
1.0
 70
     8
 71
     3
 72
     8
 73
     4
 74
     0
 42
0.000000001
 43
0.00000001
 40
0.0
 40
0.0
 40
0.0
 40
0.0
 40
1.0
 40
1.0
 40
1.0
 40
1.0
 10
219.1517529759342
 20
61.96814160062375
 30
0.0
 10
219.1285561288012
 20
61.87164351454395
 30
0.0
 10
219.1151317585985
 20
61.77296554986809
 30
0.0
 10
219.1087429319369
 20
61.67275094020408
 30
0.0
  0
ELLIPSE
  5
245
330
1F
100
AcDbEntity
  8
0
  6
Continuous
 62
     7
370
    15
100
AcDbEllipse
 10
218.4934207686
 20
65.2251485655
 30
0.0
 11
1.663315361310481
 21
8.949293731805371
 31
0.0
210
0.0
220
0.0
230
1.0
 40
0.1450564612
 41
4.366989935493928
 42
4.387094288713854
  0
LINE
  5
246
330
1F
100
AcDbEntity
  8
0
  6
Continuous
 62
     7
370
    15
100
AcDbLine
 10
229.1328477503
 20
69.7107005176
 30
0.0
 11
229.1632909768
 21
69.6953176251
 31
0.0
  0
ELLIPSE
  5
247
330
1F
100
AcDbEntity
  8
0
  6
Continuous
 62
     7
370
    15
100
AcDbEllipse
 10
218.4934207686
 20
64.9844287671
 30
0.0
 11
-1.397079711787399
 21
10.67372992549016
 31
0.0
210
0.0
220
0.0
230
1.0
 40
0.1481332939
 41
2.735230309581366
 42
2.755334662801298
  0
SPLINE
  5
248
330
1F
100
AcDbEntity
  8
0
  6
Continuous
 62
     7
370
    15
100
AcDbSpline
210
0.0
220
0.0
230
1.0
 70
     8
 71
     3
 72
    18
 73
    14
 74
     0
 42
0.000000001
 43
0.00000001
 40
0.0
 40
0.0
 40
0.0
 40
0.0
 40
0.1192960316208352
 40
0.2394071079407095
 40
0.3594906143293796
 40
0.478719869722819
 40
0.5966781649195204
 40
0.6559418436093457
 40
0.7144136133039876
 40
0.7727955113049145
 40
0.8324538639989578
 40
0.9508536058566123
 40
1.0
 40
1.0
 40
1.0
 40
1.0
 10
223.150361572525
 20
54.13886076599235
 30
0.0
 10
223.0405393288612
 20
54.34062351370711
 30
0.0
 10
222.8201445228824
 20
54.74552747626378
 30
0.0
 10
222.7181095407011
 20
55.36531465180273
 30
0.0
 10
222.8315915306161
 20
55.88122446413311
 30
0.0
 10
223.1360206662745
 20
56.22658085204755
 30
0.0
 10
223.502157584555
 20
56.30545037950187
 30
0.0
 10
223.8123831595115
 20
56.2382254238079
 30
0.0
 10
224.0445954586614
 20
56.12087161694174
 30
0.0
 10
224.2676171930476
 20
55.94164350089413
 30
0.0
 10
224.5366175197554
 20
55.62999748967222
 30
0.0
 10
224.7705465706931
 20
55.252386026325
 30
0.0
 10
224.8590546030973
 20
54.94392320534484
 30
0.0
 10
224.8850167097099
 20
54.85344164760616
 30
0.0
  0
SPLINE
  5
249
330
1F
100
AcDbEntity
  8
0
  6
Continuous
 62
     7
370
    15
100
AcDbSpline
210
0.0
220
0.0
230
1.0
 70
     8
 71
     3
 72
    14
 73
    10
 74
     0
 42
0.000000001
 43
0.00000001
 40
0.0
 40
0.0
 40
0.0
 40
0.0
 40
0.0764787907857118
 40
0.2313850574015107
 40
0.3836380677965371
 40
0.535995825062573
 40
0.6906745025914
 40
0.84581402134714
 40
1.0
 40
1.0
 40
1.0
 40
1.0
 10
224.5401162761473
 20
53.04924022188077
 30
0.0
 10
224.5134086837272
 20
53.04325939069793
 30
0.0
 10
224.4326053951072
 20
53.0251645051443
 30
0.0
 10
224.2535745747905
 20
53.09735502599508
 30
0.0
 10
224.0334930493543
 20
53.21179788199791
 30
0.0
 10
223.8000270439976
 20
53.38477933288799
 30
0.0
 10
223.5675490724218
 20
53.60259777827048
 30
0.0
 10
223.3427466062752
 20
53.85457250195054
 30
0.0
 10
223.2143579916838
 20
54.04429295812862
 30
0.0
 10
223.150361572525
 20
54.13886076599235
 30
0.0
  0
ARC
  5
24A
330
1F
100
AcDbEntity
  8
0
  6
Continuous
 62
     7
370
    15
100
AcDbCircle
 10
236.1585695665
 20
47.9698453786
 30
0.0
 40
5.000104293240025
100
AcDbArc
 50
197.9993067703
 51
220.3033920372
  0
SPLINE
  5
24B
330
1F
100
AcDbEntity
  8
0
  6
Continuous
 62
     7
370
    15
100
AcDbSpline
210
0.0
220
0.0
230
1.0
 70
     8
 71
     3
 72
     8
 73
     4
 74
     0
 42
0.000000001
 43
0.00000001
 40
0.0
 40
0.0
 40
0.0
 40
0.0
 40
1.0
 40
1.0
 40
1.0
 40
1.0
 10
229.929272374646
 20
46.17885423731956
 30
0.0
 10
230.4208628585322
 20
46.2602418688311
 30
0.0
 10
230.9122006125825
 20
46.34215075984625
 30
0.0
 10
231.4031691020479
 20
46.4247857145297
 30
0.0
  0
SPLINE
  5
24C
330
1F
100
AcDbEntity
  8
0
  6
Continuous
 62
     7
370
    15
100
AcDbSpline
210
0.0
220
0.0
230
1.0
 70
     8
 71
     3
 72
    10
 73
     6
 74
     0
 42
0.000000001
 43
0.00000001
 40
0.0
 40
0.0
 40
0.0
 40
0.0
 40
0.5
 40
0.5
 40
1.0
 40
1.0
 40
1.0
 40
1.0
 10
231.462069631767
 20
46.45878826657187
 30
0.0
 10
231.4768212563911
 20
46.46730419820069
 30
0.0
 10
231.4927045400324
 20
46.47526228668821
 30
0.0
 10
231.5260718070721
 20
46.48972678768627
 30
0.0
 10
231.5434768476891
 20
46.49621394559593
 30
0.0
 10
231.5615896477437
 20
46.5019701066605
 30
0.0
  0
LINE
  5
24D
330
1F
100
AcDbEntity
  8
0
  6
Continuous
 62
     7
370
    15
100
AcDbLine
 10
231.403169102
 20
46.4247857145
 30
0.0
 11
231.4620696318
 21
46.4587882666
 31
0.0
  0
SPLINE
  5
24E
330
1F
100
AcDbEntity
  8
0
  6
Continuous
 62
     7
370
    15
100
AcDbSpline
210
0.0
220
0.0
230
1.0
 70
     8
 71
     3
 72
    13
 73
     9
 74
     0
 42
0.000000001
 43
0.00000001
 40
0.0
 40
0.0
 40
0.0
 40
0.0
 40
0.1005102170914164
 40
0.314801729100104
 40
0.5277843292343251
 40
0.7433565935383387
 40
0.9615538616055416
 40
1.0
 40
1.0
 40
1.0
 40
1.0
 10
223.936821354213
 20
56.07040433830571
 30
0.0
 10
223.9169310497028
 20
56.01749385953124
 30
0.0
 10
223.8546338779989
 20
55.85177627690411
 30
0.0
 10
223.8986810242134
 20
55.49004711324242
 30
0.0
 10
224.0597855066679
 20
55.04492325151948
 30
0.0
 10
224.3390619114679
 20
54.62525972069541
 30
0.0
 10
224.5912774030575
 20
54.33851889333732
 30
0.0
 10
224.7346446233421
 20
54.23802038549175
 30
0.0
 10
224.7561215670449
 20
54.22296533461653
 30
0.0
  0
LINE
  5
24F
330
1F
100
AcDbEntity
  8
0
  6
Continuous
 62
     7
370
    15
100
AcDbLine
 10
247.7895579831
 20
62.8450197478
 30
0.0
 11
249.1889460507
 21
62.037170212
 31
0.0
  0
SPLINE
  5
250
330
1F
100
AcDbEntity
  8
0
  6
Continuous
 62
     7
370
    15
100
AcDbSpline
210
0.0
220
0.0
230
1.0
 70
     8
 71
     3
 72
    12
 73
     8
 74
     0
 42
0.000000001
 43
0.00000001
 40
0.0
 40
0.0
 40
0.0
 40
0.0
 40
0.250000000000002
 40
0.250000000000002
 40
0.500000000000004
 40
0.500000000000004
 40
1.0
 40
1.0
 40
1.0
 40
1.0
 10
249.1889460506777
 20
62.03717021195209
 30
0.0
 10
249.2209135022562
 20
62.01871579496917
 30
0.0
 10
249.2428889803048
 20
61.99507221125273
 30
0.0
 10
249.2646502082985
 20
61.94498134556975
 30
0.0
 10
249.2648935765653
 20
61.91834905717186
 30
0.0
 10
249.24074954733
 20
61.84147287848011
 30
0.0
 10
249.1940228987959
 20
61.79517858044004
 30
0.0
 10
249.1302903444945
 20
61.75838655998201
 30
0.0
  0
SPLINE
  5
251
330
1F
100
AcDbEntity
  8
0
  6
Continuous
 62
     7
370
    15
100
AcDbSpline
210
0.0
220
0.0
230
1.0
 70
     8
 71
     3
 72
    12
 73
     8
 74
     0
 42
0.000000001
 43
0.00000001
 40
0.0
 40
0.0
 40
0.0
 40
0.0
 40
0.188349792451723
 40
0.3617013668539028
 40
0.6627183693103349
 40
0.9339874047835435
 40
1.0
 40
1.0
 40
1.0
 40
1.0
 10
223.4413768104623
 20
54.32217102951612
 30
0.0
 10
223.5056355977728
 20
54.23056324495212
 30
0.0
 10
223.6290362710627
 20
54.05464236678206
 30
0.0
 10
223.8900153547312
 20
53.77219154398099
 30
0.0
 10
224.1991473652669
 20
53.52742684197037
 30
0.0
 10
224.4433350983489
 20
53.39126337069629
 30
0.0
 10
224.5510199322172
 20
53.37748799823039
 30
0.0
 10
224.5720959550488
 20
53.3747918890925
 30
0.0
  0
SPLINE
  5
252
330
1F
100
AcDbEntity
  8
0
  6
Continuous
 62
     7
370
    15
100
AcDbSpline
210
0.0
220
0.0
230
1.0
 70
     8
 71
     3
 72
    16
 73
    12
 74
     0
 42
0.000000001
 43
0.00000001
 40
0.0
 40
0.0
 40
0.0
 40
0.0
 40
0.1450782896473135
 40
0.2327297433698039
 40
0.3276932519622447
 40
0.4351643923274055
 40
0.527088319424075
 40
0.6638071589760454
 40
0.8020714903093321
 40
0.8936384086301211
 40
1.0
 40
1.0
 40
1.0
 40
1.0
 10
224.1975354974318
 20
55.98636022929081
 30
0.0
 10
224.0808809522678
 20
56.04504365633566
 30
0.0
 10
223.8937476298049
 20
56.13918164865283
 30
0.0
 10
223.6394360746296
 20
56.13132168347558
 30
0.0
 10
223.4352644633449
 20
56.06103325866168
 30
0.0
 10
223.2664394856558
 20
55.91553487532447
 30
0.0
 10
223.1338876908352
 20
55.68205138054117
 30
0.0
 10
223.0702163587073
 20
55.35294683569628
 30
0.0
 10
223.1313091641902
 20
54.98057711900266
 30
0.0
 10
223.2596387269156
 20
54.62782832072322
 30
0.0
 10
223.3778520631532
 20
54.42901050866212
 30
0.0
 10
223.4413768104623
 20
54.32217102951613
 30
0.0
  0
LWPOLYLINE
  5
253
330
1F
100
AcDbEntity
  8
0
  6
Continuous
 62
     7
370
    15
100
AcDbPolyline
 90
        3
 70
   128
 43
0.0
 10
224.6981905634
 20
54.3481334742
 10
224.5076257767
 20
54.4718741389
 10
224.2765508453
 20
54.6649290325
  0
LINE
  5
254
330
1F
100
AcDbEntity
  8
0
  6
Continuous
 62
     7
370
    15
100
AcDbLine
 10
245.3910992766
 20
64.229620487
 30
0.0
 11
245.1767841278
 21
63.9029856
 31
0.0
  0
SPLINE
  5
255
330
1F
100
AcDbEntity
  8
0
  6
Continuous
 62
     7
370
    15
100
AcDbSpline
210
0.0
220
0.0
230
1.0
 70
     8
 71
     3
 72
    14
 73
    10
 74
     0
 42
0.000000001
 43
0.00000001
 40
0.0
 40
0.0
 40
0.0
 40
0.0
 40
0.4999999999999972
 40
0.4999999999999972
 40
0.7499999999999969
 40
0.7499999999999969
 40
0.8749999999999984
 40
0.8749999999999984
 40
1.0
 40
1.0
 40
1.0
 40
1.0
 10
219.130377615754
 20
62.22504286992948
 30
0.0
 10
219.1686080147153
 20
62.36827370593668
 30
0.0
 10
219.2068822754413
 20
62.51089452625636
 30
0.0
 10
219.2645777989314
 20
62.71993119417572
 30
0.0
 10
219.283778242414
 20
62.78851406848561
 30
0.0
 10
219.3124636821121
 20
62.88736614325
 30
0.0
 10
219.3220061403217
 20
62.91964119908858
 30
0.0
 10
219.3410182623905
 20
62.98165024093321
 30
0.0
 10
219.3504934163863
 20
63.01157587395942
 30
0.0
 10
219.3598747634951
 20
63.03822694172391
 30
0.0
  0
SPLINE
  5
256
330
1F
100
AcDbEntity
  8
0
  6
Continuous
 62
     7
370
    15
100
AcDbSpline
210
0.0
220
0.0
230
1.0
 70
     8
 71
     3
 72
    17
 73
    13
 74
     0
 42
0.000000001
 43
0.00000001
 40
0.0
 40
0.0
 40
0.0
 40
0.0
 40
0.0101041562504628
 40
0.0460439488988058
 40
0.0748180950310412
 40
0.1036798311018144
 40
0.1391415234344253
 40
0.198453577323096
 40
0.3633430103241554
 40
0.6376773171021852
 40
0.9182818790571244
 40
1.0
 40
1.0
 40
1.0
 40
1.0
 10
219.3716571213762
 20
63.0686992046567
 30
0.0
 10
219.3724961548087
 20
63.07091945227685
 30
0.0
 10
219.3763195727704
 20
63.08103696881466
 30
0.0
 10
219.3813754544857
 20
63.08939467160587
 30
0.0
 10
219.3859250995648
 20
63.09125563754106
 30
0.0
 10
219.3874088029255
 20
63.07993763617326
 30
0.0
 10
219.3852970484162
 20
63.05081915606908
 30
0.0
 10
219.3734818348823
 20
62.96911908693266
 30
0.0
 10
219.3390062358661
 20
62.78927710235424
 30
0.0
 10
219.2825859995917
 20
62.52725410548084
 30
0.0
 10
219.229633422021
 20
62.29617443982178
 30
0.0
 10
219.1988591972187
 20
62.16583637456191
 30
0.0
 10
219.1919183901895
 20
62.13643997659096
 30
0.0
  0
SPLINE
  5
257
330
1F
100
AcDbEntity
  8
0
  6
Continuous
 62
     7
370
    15
100
AcDbSpline
210
0.0
220
0.0
230
1.0
 70
     8
 71
     3
 72
     8
 73
     4
 74
     0
 42
0.000000001
 43
0.00000001
 40
0.0
 40
0.0
 40
0.0
 40
0.0
 40
1.0
 40
1.0
 40
1.0
 40
1.0
 10
219.1243785844
 20
62.20121043389454
 30
0.0
 10
219.1262477620639
 20
62.20911695549255
 30
0.0
 10
219.1282468810708
 20
62.21706003641804
 30
0.0
 10
219.130377615754
 20
62.22504286992948
 30
0.0
  0
ARC
  5
258
330
1F
100
AcDbEntity
  8
0
  6
Continuous
 62
     7
370
    15
100
AcDbCircle
 10
219.7369824602
 20
61.5374491091
 30
0.0
 40
0.6426441397555537
100
AcDbArc
 50
167.8460430119
 51
233.0476284716
  0
LWPOLYLINE
  5
259
330
1F
100
AcDbEntity
  8
0
  6
Continuous
 62
     7
370
    15
100
AcDbPolyline
 90
        3
 70
   128
 43
0.0
 10
219.1041509138
 20
62.0381593426
 10
219.1052643818
 20
62.0747148833
 10
219.1243785844
 20
62.2012104339
  0
ARC
  5
25A
330
1F
100
AcDbEntity
  8
0
  6
Continuous
 62
     7
370
    15
100
AcDbCircle
 10
220.9028427386
 20
55.2617531428
 30
0.0
 40
1.794508358425587
100
AcDbArc
 50
122.2371290291
 51
181.2226345817
  0
LINE
  5
25B
330
1F
100
AcDbEntity
  8
0
  6
Continuous
 62
     7
370
    15
100
AcDbLine
 10
219.9456079834
 20
56.7796338601
 30
0.0
 11
220.6454899882
 21
57.1836671413
 31
0.0
  0
ARC
  5
25C
330
1F
100
AcDbEntity
  8
0
  6
Continuous
 62
     7
370
    15
100
AcDbCircle
 10
220.0384251837
 20
55.7543640254
 30
0.0
 40
0.9350168864385554
100
AcDbArc
 50
122.2836993341
 51
177.7163005202
  0
LINE
  5
25D
330
1F
100
AcDbEntity
  8
0
  6
Continuous
 62
     7
370
    15
100
AcDbLine
 10
219.9456079834
 20
56.7796338601
 30
0.0
 11
219.5390215842
 21
56.5448402254
 31
0.0
  0
SPLINE
  5
25E
330
1F
100
AcDbEntity
  8
0
  6
Continuous
 62
     7
370
    15
100
AcDbSpline
210
0.0
220
0.0
230
1.0
 70
     8
 71
     3
 72
     9
 73
     5
 74
     0
 42
0.000000001
 43
0.00000001
 40
0.0
 40
0.0
 40
0.0
 40
0.0
 40
0.8271971681498804
 40
1.0
 40
1.0
 40
1.0
 40
1.0
 10
219.3068723784554
 20
54.84040381197654
 30
0.0
 10
219.2762227842595
 20
54.88019825962972
 30
0.0
 10
219.2391704400592
 20
54.92830583202648
 30
0.0
 10
219.1988805903194
 20
55.00573802797521
 30
0.0
 10
219.1919183901895
 20
55.01911853071152
 30
0.0
  0
LWPOLYLINE
  5
25F
330
1F
100
AcDbEntity
  8
0
  6
Continuous
 62
     7
370
     0
100
AcDbPolyline
 90
       30
 70
   128
 43
0.0
 10
238.7298996256
 20
42.5275389126
 10
238.7631076378
 20
43.4738638197
 10
238.8625048298
 20
44.4520655227
 10
239.0274122182
 20
45.4554619124
 10
239.2567033181
 20
46.4771987737
 10
239.548811839
 20
47.5102966081
 10
239.9017423833
 20
48.5476983096
 10
240.3130840777
 20
49.5823173728
 10
240.7800270413
 20
50.6070863003
 10
241.2993815801
 20
51.6150048814
 10
241.867599976
 20
52.59918801
 10
242.4808007212
 20
53.5529127175
 10
243.1347950329
 20
54.4696640971
 10
243.8251154668
 20
55.3431798072
 10
244.5470464342
 20
56.1674928498
 10
245.2956564148
 20
56.936972331
 10
246.0658316432
 20
57.6463619256
 10
246.8523110416
 20
58.2908157836
 10
247.6497221584
 20
58.8659316314
 10
248.452617867
 20
59.3677808448
 10
249.2555135755
 20
59.7929352847
 10
250.0529246923
 20
60.1384907152
 10
250.8394040908
 20
60.4020866424
 10
251.6095793191
 20
60.5819224387
 10
252.3581892997
 20
60.6767696433
 10
253.0801202671
 20
60.6859803537
 10
253.770440701
 20
60.6094916514
 10
254.4244350127
 20
60.4478260316
 10
255.0376357579
 20
60.2020878347
 10
255.1987738973
 20
60.1198606433
  0
LWPOLYLINE
  5
260
330
1F
100
AcDbEntity
  8
0
  6
Continuous
 62
     7
370
     0
100
AcDbPolyline
 90
       11
 70
   128
 43
0.0
 10
241.5781765801
 20
36.2321728236
 10
241.2993815801
 20
36.4067336612
 10
240.7800270413
 20
36.8150182554
 10
240.3130840777
 20
37.3006663127
 10
239.9017423833
 20
37.8603603646
 10
239.548811839
 20
38.4902771332
 10
239.2567033181
 20
39.1861136481
 10
239.0274122182
 20
39.9431166405
 10
238.8625048298
 20
40.7561150123
 10
238.7631076378
 20
41.6195551602
 10
238.7298996256
 20
42.5275389126
  0
LWPOLYLINE
  5
261
330
1F
100
AcDbEntity
  8
0
  6
Continuous
 62
     7
370
     0
100
AcDbPolyline
 90
       26
 70
   128
 43
0.0
 10
235.5302414408
 20
47.232090657
 10
235.5640770264
 20
48.0594009671
 10
235.6652678697
 20
48.9180526394
 10
235.8328691789
 20
49.8000286746
 10
236.0653161058
 20
50.6970943001
 10
236.3604383561
 20
51.6008738559
 10
236.7154804527
 20
52.5029289957
 10
237.1271274635
 20
53.3948374737
 10
237.591535951
 20
54.2682717809
 10
238.1043698584
 20
55.1150768964
 10
238.6608409936
 20
55.9273464291
 10
239.2557537357
 20
56.697496437
 10
239.8835535446
 20
57.4183362372
 10
240.5383788226
 20
58.0831355426
 10
241.2141156427
 20
58.6856873012
 10
241.904454832
 20
59.2203656497
 10
242.6029508797
 20
59.6821784403
 10
243.3030821164
 20
60.0668138514
 10
243.9983116053
 20
60.3706806458
 10
244.682148176
 20
60.5909417012
 10
245.3482070307
 20
60.7255404995
 10
245.9902693573
 20
60.7732203278
 10
246.6023403929
 20
60.7335360125
 10
247.1787053952
 20
60.6068580754
 10
247.7139829993
 20
60.3943692743
 10
247.9026694527
 20
60.2931830695
  0
LWPOLYLINE
  5
262
330
1F
100
AcDbEntity
  8
0
  6
Continuous
 62
     7
370
     0
100
AcDbPolyline
 90
        9
 70
   128
 43
0.0
 10
237.5722082046
 20
42.5876244601
 10
237.1271274635
 20
42.9130691972
 10
236.7154804527
 20
43.3297001533
 10
236.3604383561
 20
43.8218324137
 10
236.0653161058
 20
44.3848710722
 10
235.8328691789
 20
45.0135591885
 10
235.6652678697
 20
45.702026871
 10
235.5640770264
 20
46.4438460825
 10
235.5302414408
 20
47.232090657
  0
LINE
  5
263
330
1F
100
AcDbEntity
  8
0
  6
Continuous
 62
     7
370
     0
100
AcDbLine
 10
250.0259304551
 20
34.9644938588
 30
0.0
 11
251.4401440175
 21
34.148085747
 31
0.0
  0
LWPOLYLINE
  5
264
330
1F
100
AcDbEntity
  8
0
  6
Continuous
 62
     7
370
     0
100
AcDbPolyline
 90
       23
 70
   128
 43
0.0
 10
234.1604536613
 20
49.7074259012
 10
234.4134572591
 20
50.6913130012
 10
234.7300181862
 20
51.6825702644
 10
235.1076249488
 20
52.6733333701
 10
235.5432817346
 20
53.6557419183
 10
236.0335321809
 20
54.6220017914
 10
236.5744867962
 20
55.56444699
 10
237.1618538183
 20
56.4756004531
 10
237.7909732635
 20
57.3482333781
 10
238.4568538979
 20
58.1754225724
 10
239.1542128358
 20
58.9506053793
 10
239.8775174526
 20
59.6676317445
 10
240.621029279
 20
60.3208130083
 10
241.3788495282
 20
60.9049670378
 10
242.1449658947
 20
61.4154593403
 10
242.9133002544
 20
61.8482398319
 10
243.6777568863
 20
62.1998749694
 10
244.432270834
 20
62.4675749913
 10
245.1708560234
 20
62.6492160505
 10
245.8876527538
 20
62.7433570645
 10
246.5769741874
 20
62.7492511485
 10
247.2333514669
 20
62.6668515405
 10
247.8515771029
 20
62.4968119729
  0
LWPOLYLINE
  5
265
330
1F
100
AcDbEntity
  8
0
  6
Continuous
 62
     7
370
     0
100
AcDbPolyline
 90
       23
 70
   128
 43
0.0
 10
233.7271191487
 20
49.7021896454
 10
233.9792311968
 20
50.7030653635
 10
234.2958595623
 20
51.7120881667
 10
234.6745230991
 20
52.7213512051
 10
235.1122545444
 20
53.722945746
 10
235.6056237707
 20
54.7090231484
 10
236.1507646646
 20
55.6718563657
 10
236.7434054225
 20
56.6039004961
 10
237.3789020248
 20
57.4978519057
 10
238.0522746274
 20
58.3467054607
 10
238.7582465841
 20
59.1438094206
 10
239.4912857957
 20
59.8829175625
 10
240.2456480597
 20
60.5582381268
 10
241.0154220832
 20
61.1644792031
 10
241.7945758047
 20
61.6968901978
 10
242.5770036617
 20
62.1512990604
 10
243.3565744352
 20
62.5241449768
 10
244.1271792948
 20
62.8125062719
 10
244.8827796683
 20
63.0141233046
 10
245.6174545608
 20
63.1274161742
 10
246.3254469525
 20
63.1514971012
 10
247.0012089115
 20
63.0861773842
 10
247.6394450686
 20
62.9319688778
  0
LWPOLYLINE
  5
266
330
1F
100
AcDbEntity
  8
0
  6
Continuous
 62
     7
370
     0
100
AcDbPolyline
 90
       26
 70
   128
 43
0.0
 10
235.0352666939
 20
49.4137894482
 10
235.2384468887
 20
50.3335669678
 10
235.5068222254
 20
51.265018119
 10
235.8379578921
 20
52.1996923915
 10
236.2288496889
 20
53.1291100338
 10
236.6759512837
 20
54.0448389845
 10
237.175206386
 20
54.9385713717
 10
237.7220855469
 20
55.8021988854
 10
238.3116272525
 20
56.6278863397
 10
238.9384829364
 20
57.4081427562
 10
239.5969655046
 20
58.1358893261
 10
240.2811009308
 20
58.8045236314
 10
240.9846824555
 20
59.4079795451
 10
241.701326896
 20
59.9407822654
 10
242.4245325573
 20
60.3980979858
 10
243.1477382187
 20
60.7757777487
 10
243.8643826592
 20
61.0703950872
 10
244.5679641838
 20
61.2792771108
 10
245.2520996101
 20
61.4005287554
 10
245.9105821783
 20
61.433049976
 10
246.5374378622
 20
61.3765457266
 10
247.1269795677
 20
61.2315286371
 10
247.6738587286
 20
60.9993143625
 10
248.1731138309
 20
60.6820096468
 10
248.6202154258
 20
60.2824932097
 10
248.9978127194
 20
59.8232558853
  0
ARC
  5
267
330
1F
100
AcDbEntity
  8
0
  6
Continuous
 62
     7
370
     0
100
AcDbCircle
 10
246.0011605545
 20
58.1520556258
 30
0.0
 40
4.774628367713142
100
AcDbArc
 50
27.2888729747
 51
49.052581114
  0
ARC
  5
268
330
1F
100
AcDbEntity
  8
0
  6
Continuous
 62
     7
370
     0
100
AcDbCircle
 10
239.1052658385
 20
45.9125777461
 30
0.0
 40
4.116540683532201
100
AcDbArc
 50
188.6238624781
 51
263.2384549625
  0
LWPOLYLINE
  5
269
330
1F
100
AcDbEntity
  8
0
  6
Continuous
 62
     7
370
     0
100
AcDbPolyline
 90
       22
 70
   128
 43
0.0
 10
224.5170533238
 20
51.7529505762
 10
224.5506877586
 20
52.6619450839
 10
224.6513350846
 20
53.6028550864
 10
224.818229315
 20
54.5685196903
 10
225.0501002838
 20
55.551589605
 10
225.3451833129
 20
56.5445830749
 10
225.7012326424
 20
57.53994282
 10
226.1155385219
 20
58.5300935517
 10
226.5849478334
 20
59.507499625
 10
227.1058880886
 20
60.4647223895
 10
227.6743946177
 20
61.3944768021
 10
228.2861407427
 20
62.2896868702
 10
228.9364707062
 20
63.1435395046
 10
229.6204351045
 20
63.9495363713
 10
230.3328285555
 20
64.7015433475
 10
231.068229315
 20
65.3938372058
 10
231.821040539
 20
66.0211491722
 10
232.5855328797
 20
66.5787050237
 10
233.3558880886
 20
67.0622614236
 10
234.1262432976
 20
67.4681382158
 10
234.8907356382
 20
67.7932464328
 10
235.0580848609
 20
67.853858016
  0
ARC
  5
26A
330
1F
100
AcDbEntity
  8
0
  6
Continuous
 62
     7
370
     0
100
AcDbCircle
 10
234.2661442213
 20
51.678588744
 30
0.0
 40
9.749374493311374
100
AcDbArc
 50
179.5629811474
 51
192.4075172611
  0
LWPOLYLINE
  5
26B
330
1F
100
AcDbEntity
  8
0
  6
Continuous
 62
     7
370
     0
100
AcDbPolyline
 90
       19
 70
   128
 43
0.0
 10
231.8320729752
 20
51.2190022037
 10
232.0324818363
 20
52.1402689465
 10
232.2985879878
 20
53.0736827529
 10
232.6279595476
 20
54.0107133716
 10
233.0175864656
 20
54.9427974978
 10
233.4639080321
 20
55.8614170317
 10
233.9628454184
 20
56.7581769234
 10
234.5098389516
 20
57.6248818929
 10
235.0998897855
 20
58.4536113253
 10
235.7276055826
 20
59.2367916552
 10
236.3872497945
 20
59.9672655801
 10
237.0727940864
 20
60.6383574687
 10
237.7779734285
 20
61.2439343685
 10
238.496343351
 20
61.7784620533
 10
239.2213388386
 20
62.2370555989
 10
239.9463343261
 20
62.6155240258
 10
240.6647042486
 20
62.9104085991
 10
241.3698835907
 20
63.1190144373
 10
241.591762279
 20
63.1672253059
  0
LWPOLYLINE
  5
26C
330
1F
100
AcDbEntity
  8
0
  6
Continuous
 62
     7
370
     0
100
AcDbPolyline
 90
       20
 70
   128
 43
0.0
 10
231.4620696318
 20
52.1745739498
 10
231.7330198433
 20
53.1435485872
 10
232.0700219012
 20
54.1170075018
 10
232.4699865429
 20
55.0860270975
 10
232.9292473344
 20
56.0417244734
 10
233.4435942802
 20
56.9753388515
 10
234.0083124157
 20
57.8783118867
 10
234.6182250289
 20
58.7423661197
 10
235.2677411147
 20
59.559580856
 10
235.9509066272
 20
60.3224647735
 10
236.6614590598
 20
61.0240245954
 10
237.3928848526
 20
61.6578291962
 10
238.1384791021
 20
62.2180685556
 10
238.8914070238
 20
62.699607018
 10
239.6447666065
 20
63.0980303708
 10
240.3916518816
 20
63.4096863087
 10
241.1252162301
 20
63.6317179146
 10
241.8387351444
 20
63.7620898479
 10
242.5256678715
 20
63.7996070027
 10
243.1629025413
 20
63.7465941731
  0
LINE
  5
26D
330
1F
100
AcDbEntity
  8
0
  6
Continuous
 62
     7
370
     0
100
AcDbLine
 10
226.8752572697
 20
50.8080261709
 30
0.0
 11
228.3177522727
 21
51.6407608108
 31
0.0
  0
ARC
  5
26E
330
1F
100
AcDbEntity
  8
0
  6
Continuous
 62
     7
370
     0
100
AcDbCircle
 10
238.5849815151
 20
45.0269513495
 30
0.0
 40
4.544041798676325
100
AcDbArc
 50
193.1698933894
 51
272.7619760704
  0
ARC
  5
26F
330
1F
100
AcDbEntity
  8
0
  6
Continuous
 62
     7
370
     0
100
AcDbCircle
 10
239.2684143647
 20
45.5204587152
 30
0.0
 40
5.749719702309989
100
AcDbArc
 50
195.4742419682
 51
218.1188890769
  0
LINE
  5
270
330
1F
100
AcDbEntity
  8
0
  6
Continuous
 62
     7
370
     0
100
AcDbLine
 10
259.9254253917
 20
40.6793506416
 30
0.0
 11
261.3396389541
 21
39.8629425298
 31
0.0
  0
LINE
  5
271
330
1F
100
AcDbEntity
  8
0
  6
Continuous
 62
     7
370
     0
100
AcDbLine
 10
226.8752572697
 20
49.991485359
 30
0.0
 11
228.3177522727
 21
50.824219999
 31
0.0
  0
LINE
  5
272
330
1F
100
AcDbEntity
  8
0
  6
Continuous
 62
     7
370
     0
100
AcDbLine
 10
229.3430571054
 20
46.5172691089
 30
0.0
 11
230.4390726162
 21
47.1499853956
 31
0.0
  0
LWPOLYLINE
  5
273
330
1F
100
AcDbEntity
  8
0
  6
Continuous
 62
     7
370
     0
100
AcDbPolyline
 90
        3
 70
   128
 43
0.0
 10
232.8308673113
 20
46.007778197
 10
232.8173703634
 20
46.0454441913
 10
232.6169615023
 20
46.7353237883
  0
LWPOLYLINE
  5
274
330
1F
100
AcDbEntity
  8
0
  6
Continuous
 62
     7
370
     0
100
AcDbPolyline
 90
       19
 70
   128
 43
0.0
 10
219.1919183902
 20
62.1364399766
 10
219.551900807
 20
63.0114960006
 10
219.9713713209
 20
63.8728294662
 10
220.4455589852
 20
64.7106437944
 10
220.9690705149
 20
65.515409907
 10
221.5359516285
 20
66.2779746069
 10
222.1397547703
 20
66.9896646854
 10
222.773612443
 20
67.6423855676
 10
223.4303153173
 20
68.2287133792
 10
224.1023942285
 20
68.7419793826
 10
224.782205129
 20
69.1763458264
 10
225.4620160295
 20
69.5268723414
 10
226.1340949407
 20
69.7895721319
 10
226.790797815
 20
69.9614573201
 10
227.4246554877
 20
70.0405729291
 10
228.0284586294
 20
70.0260191192
 10
228.595339743
 20
69.9179614214
 10
229.1188512728
 20
69.7176288554
 10
229.1328477503
 20
69.7107005176
  0
ARC
  5
275
330
1F
100
AcDbEntity
  8
0
  6
Continuous
 62
     7
370
     0
100
AcDbCircle
 10
221.9057327056
 20
56.7682814373
 30
0.0
 40
3.22867759494278
100
AcDbArc
 50
212.8034147986
 51
236.244093918
  0
ARC
  5
276
330
1F
100
AcDbEntity
  8
0
  6
Continuous
 62
     7
370
     0
100
AcDbCircle
 10
237.1588857688
 20
48.3446310263
 30
0.0
 40
5.450847152524548
100
AcDbArc
 50
192.2462641172
 51
213.2754398538
  0
ARC
  5
277
330
1F
100
AcDbEntity
  8
0
  6
Continuous
 62
     7
370
     0
100
AcDbCircle
 10
236.1910633775
 20
48.01375609
 30
0.0
 40
4.978082640824851
100
AcDbArc
 50
198.2016815201
 51
219.4444787098
  0
LINE
  5
278
330
1F
100
AcDbEntity
  8
0
  6
Continuous
 62
     7
370
     0
100
AcDbLine
 10
244.7263614065
 20
64.6133654912
 30
0.0
 11
244.1117915896
 21
64.2585818876
 31
0.0
  0
ARC
  5
279
330
1F
100
AcDbEntity
  8
0
  6
Continuous
 62
     7
370
     0
100
AcDbCircle
 10
221.717963385
 20
60.5784358366
 30
0.0
 40
0.8413487164007195
100
AcDbArc
 50
157.5564641353
 51
219.9065742487
  0
ARC
  5
27A
330
1F
100
AcDbEntity
  8
0
  6
Continuous
 62
     7
370
     0
100
AcDbCircle
 10
220.641308115
 20
60.3421228088
 30
0.0
 40
0.6326502238707982
100
AcDbArc
 50
41.8932189765
 51
61.7923804548
  0
LINE
  5
27B
330
1F
100
AcDbEntity
  8
0
  6
Continuous
 62
     7
370
     0
100
AcDbLine
 10
220.9403416069
 20
60.8996398727
 30
0.0
 11
221.0300695444
 21
61.2361172362
 31
0.0
  0
LINE
  5
27C
330
1F
100
AcDbEntity
  8
0
  6
Continuous
 62
     7
370
     0
100
AcDbLine
 10
220.9403416069
 20
60.8996398727
 30
0.0
 11
220.1338626612
 21
61.3652102581
 31
0.0
  0
LINE
  5
27D
330
1F
100
AcDbEntity
  8
0
  6
Continuous
 62
     7
370
     0
100
AcDbLine
 10
219.1517529759
 20
61.9681416006
 30
0.0
 11
219.1303776158
 21
62.2250428699
 31
0.0
  0
ARC
  5
27E
330
1F
100
AcDbEntity
  8
0
  6
Continuous
 62
     7
370
     0
100
AcDbCircle
 10
220.7305449517
 20
53.6116612757
 30
0.0
 40
0.4312432985155976
100
AcDbArc
 50
27.7337187338
 51
60.8896929331
  0
ARC
  5
27F
330
1F
100
AcDbEntity
  8
0
  6
Continuous
 62
     7
370
     0
100
AcDbCircle
 10
221.984047343
 20
54.3180463562
 30
0.0
 40
1.094516932708392
100
AcDbArc
 50
164.1617245073
 51
197.5267222046
  0
LINE
  5
280
330
1F
100
AcDbEntity
  8
0
  6
Continuous
 62
     7
370
     0
100
AcDbLine
 10
220.6379501417
 20
56.3799532395
 30
0.0
 11
219.9456079834
 21
56.7796338601
 31
0.0
  0
LINE
  5
281
330
1F
100
AcDbEntity
  8
0
  6
Continuous
 62
     7
370
     0
100
AcDbLine
 10
220.9403416069
 20
53.9884319566
 30
0.0
 11
220.1338626612
 21
54.454002342
 31
0.0
  0
LINE
  5
282
330
1F
100
AcDbEntity
  8
0
  6
Continuous
 62
     7
370
     0
100
AcDbLine
 10
220.9403416069
 20
53.9884319566
 30
0.0
 11
221.0300695444
 21
53.7555522647
 31
0.0
  0
OLE2FRAME
  5
283
330
1F
100
AcDbEntity
  8
0
100
AcDbOle2Frame
 70
     2
  3
Paintbrush-Bild
 10
13.8511154363
 20
38.264191557
 30
0.0
 11
51.6290888628
 21
31.9806341108
 31
0.0
 71
     2
 72
     0
 73
     1
 90
    12928
310
80552BED0767C5B32B40DDAF6807D121434000000000000000006FFBDDFB85D0
310
4940DDAF6807D121434000000000000000006FFBDDFB85D04940416F4BD60AFB
310
3F4000000000000000002BED0767C5B32B40416F4BD60AFB3F40000000000000
310
0000000000000100000000010000010000000100000000000100000000320000
310
D0CF11E0A1B11AE1000000000000000000000000000000003E000300FEFF0900
310
0600000000000000000000000100000001000000000000000010000002000000
310
01000000FEFFFFFF0000000000000000FFFFFFFFFFFFFFFFFFFFFFFFFFFFFFFF
310
FFFFFFFFFFFFFFFFFFFFFFFFFFFFFFFFFFFFFFFFFFFFFFFFFFFFFFFFFFFFFFFF
310
FFFFFFFFFFFFFFFFFFFFFFFFFFFFFFFFFFFFFFFFFFFFFFFFFFFFFFFFFFFFFFFF
310
FFFFFFFFFFFFFFFFFFFFFFFFFFFFFFFFFFFFFFFFFFFFFFFFFFFFFFFFFFFFFFFF
310
FFFFFFFFFFFFFFFFFFFFFFFFFFFFFFFFFFFFFFFFFFFFFFFFFFFFFFFFFFFFFFFF
310
FFFFFFFFFFFFFFFFFFFFFFFFFFFFFFFFFFFFFFFFFFFFFFFFFFFFFFFFFFFFFFFF
310
FFFFFFFFFFFFFFFFFFFFFFFFFFFFFFFFFFFFFFFFFFFFFFFFFFFFFFFFFFFFFFFF
310
FFFFFFFFFFFFFFFFFFFFFFFFFFFFFFFFFFFFFFFFFFFFFFFFFFFFFFFFFFFFFFFF
310
FFFFFFFFFFFFFFFFFFFFFFFFFFFFFFFFFFFFFFFFFFFFFFFFFFFFFFFFFFFFFFFF
310
FFFFFFFFFFFFFFFFFFFFFFFFFFFFFFFFFFFFFFFFFFFFFFFFFFFFFFFFFFFFFFFF
310
FFFFFFFFFFFFFFFFFFFFFFFFFFFFFFFFFFFFFFFFFFFFFFFFFFFFFFFFFFFFFFFF
310
FFFFFFFFFFFFFFFFFFFFFFFFFFFFFFFFFFFFFFFFFFFFFFFFFFFFFFFFFFFFFFFF
310
FFFFFFFFFFFFFFFFFFFFFFFFFFFFFFFFFFFFFFFFFFFFFFFFFFFFFFFFFFFFFFFF
310
FFFFFFFFFFFFFFFFFFFFFFFFFFFFFFFFFFFFFFFFFFFFFFFFFFFFFFFFFFFFFFFF
310
FDFFFFFFFEFFFFFFFEFFFFFFFEFFFFFF05000000060000000700000008000000
310
090000000A0000000B0000000C0000000D0000000E0000000F00000010000000
310
11000000120000001300000014000000150000001600000017000000FEFFFFFF
310
FFFFFFFFFFFFFFFFFFFFFFFFFFFFFFFFFFFFFFFFFFFFFFFFFFFFFFFFFFFFFFFF
310
FFFFFFFFFFFFFFFFFFFFFFFFFFFFFFFFFFFFFFFFFFFFFFFFFFFFFFFFFFFFFFFF
310
FFFFFFFFFFFFFFFFFFFFFFFFFFFFFFFFFFFFFFFFFFFFFFFFFFFFFFFFFFFFFFFF
310
FFFFFFFFFFFFFFFFFFFFFFFFFFFFFFFFFFFFFFFFFFFFFFFFFFFFFFFFFFFFFFFF
310
FFFFFFFFFFFFFFFFFFFFFFFFFFFFFFFFFFFFFFFFFFFFFFFFFFFFFFFFFFFFFFFF
310
FFFFFFFFFFFFFFFFFFFFFFFFFFFFFFFFFFFFFFFFFFFFFFFFFFFFFFFFFFFFFFFF
310
FFFFFFFFFFFFFFFFFFFFFFFFFFFFFFFFFFFFFFFFFFFFFFFFFFFFFFFFFFFFFFFF
310
FFFFFFFFFFFFFFFFFFFFFFFFFFFFFFFFFFFFFFFFFFFFFFFFFFFFFFFFFFFFFFFF
310
FFFFFFFFFFFFFFFFFFFFFFFFFFFFFFFFFFFFFFFFFFFFFFFFFFFFFFFFFFFFFFFF
310
FFFFFFFFFFFFFFFFFFFFFFFFFFFFFFFFFFFFFFFFFFFFFFFFFFFFFFFFFFFFFFFF
310
FFFFFFFFFFFFFFFFFFFFFFFFFFFFFFFFFFFFFFFFFFFFFFFFFFFFFFFFFFFFFFFF
310
FFFFFFFFFFFFFFFFFFFFFFFFFFFFFFFFFFFFFFFFFFFFFFFFFFFFFFFFFFFFFFFF
310
FFFFFFFFFFFFFFFFFFFFFFFFFFFFFFFFFFFFFFFFFFFFFFFFFFFFFFFFFFFFFFFF
310
52006F006F007400200045006E00740072007900000000000000000000000000
310
0000000000000000000000000000000000000000000000000000000000000000
310
16000500FFFFFFFFFFFFFFFF020000000A00030000000000C000000000000046
310
00000000000000000000000040C6C0C27B03D20103000000C000000000000000
310
01004F006C006500000000000000000000000000000000000000000000000000
310
0000000000000000000000000000000000000000000000000000000000000000
310
0A000200FFFFFFFFFFFFFFFFFFFFFFFF00000000000000000000000000000000
310
0000000000000000000000000000000000000000000000001400000000000000
310
010043006F006D0070004F0062006A0000000000000000000000000000000000
310
0000000000000000000000000000000000000000000000000000000000000000
310
120002010100000003000000FFFFFFFF00000000000000000000000000000000
310
0000000000000000000000000000000000000000010000004D00000000000000
310
01004F006C006500310030004E00610074006900760065000000000000000000
310
0000000000000000000000000000000000000000000000000000000000000000
310
1A000200FFFFFFFFFFFFFFFFFFFFFFFF00000000000000000000000000000000
310
0000000000000000000000000000000000000000040000002426000000000000
310
FEFFFFFF02000000FEFFFFFFFFFFFFFFFFFFFFFFFFFFFFFFFFFFFFFFFFFFFFFF
310
FFFFFFFFFFFFFFFFFFFFFFFFFFFFFFFFFFFFFFFFFFFFFFFFFFFFFFFFFFFFFFFF
310
FFFFFFFFFFFFFFFFFFFFFFFFFFFFFFFFFFFFFFFFFFFFFFFFFFFFFFFFFFFFFFFF
310
FFFFFFFFFFFFFFFFFFFFFFFFFFFFFFFFFFFFFFFFFFFFFFFFFFFFFFFFFFFFFFFF
310
FFFFFFFFFFFFFFFFFFFFFFFFFFFFFFFFFFFFFFFFFFFFFFFFFFFFFFFFFFFFFFFF
310
FFFFFFFFFFFFFFFFFFFFFFFFFFFFFFFFFFFFFFFFFFFFFFFFFFFFFFFFFFFFFFFF
310
FFFFFFFFFFFFFFFFFFFFFFFFFFFFFFFFFFFFFFFFFFFFFFFFFFFFFFFFFFFFFFFF
310
FFFFFFFFFFFFFFFFFFFFFFFFFFFFFFFFFFFFFFFFFFFFFFFFFFFFFFFFFFFFFFFF
310
FFFFFFFFFFFFFFFFFFFFFFFFFFFFFFFFFFFFFFFFFFFFFFFFFFFFFFFFFFFFFFFF
310
FFFFFFFFFFFFFFFFFFFFFFFFFFFFFFFFFFFFFFFFFFFFFFFFFFFFFFFFFFFFFFFF
310
FFFFFFFFFFFFFFFFFFFFFFFFFFFFFFFFFFFFFFFFFFFFFFFFFFFFFFFFFFFFFFFF
310
FFFFFFFFFFFFFFFFFFFFFFFFFFFFFFFFFFFFFFFFFFFFFFFFFFFFFFFFFFFFFFFF
310
FFFFFFFFFFFFFFFFFFFFFFFFFFFFFFFFFFFFFFFFFFFFFFFFFFFFFFFFFFFFFFFF
310
FFFFFFFFFFFFFFFFFFFFFFFFFFFFFFFFFFFFFFFFFFFFFFFFFFFFFFFFFFFFFFFF
310
FFFFFFFFFFFFFFFFFFFFFFFFFFFFFFFFFFFFFFFFFFFFFFFFFFFFFFFFFFFFFFFF
310
FFFFFFFFFFFFFFFFFFFFFFFFFFFFFFFFFFFFFFFFFFFFFFFFFFFFFFFFFFFFFFFF
310
0100000200000000000000000000000000000000000000000000000000000000
310
0000000000000000000000000000000000000000000000000000000000000000
310
0100FEFF030A0000FFFFFFFF0A00030000000000C00000000000004607000000
310
5042727573680007000000504272757368000700000050427275736800F439B2
310
7100000000000000000000000000000000000000000000000000000000000000
310
0000000000000000000000000000000000000000000000000000000000000000
310
0000000000000000000000000000000000000000000000000000000000000000
310
0000000000000000000000000000000000000000000000000000000000000000
310
0000000000000000000000000000000000000000000000000000000000000000
310
0000000000000000000000000000000000000000000000000000000000000000
310
0000000000000000000000000000000000000000000000000000000000000000
310
0000000000000000000000000000000000000000000000000000000000000000
310
0000000000000000000000000000000000000000000000000000000000000000
310
0000000000000000000000000000000000000000000000000000000000000000
310
0000000000000000000000000000000000000000000000000000000000000000
310
0000000000000000000000000000000000000000000000000000000000000000
310
20260000424D0E260000000000003E00000028000000B40200006E0000000100
310
01000000000000000000130B0000130B00000200000002000000000000FFFFFF
310
FFFFFFFFFFFFFFFFFFFFFFFFFFFFFFFFFFFFFFFFFFFFFFFFFFFFFFFFFFFFFFFF
310
FFFFFFFFFFFFFFFFFFFFFFFFFFFFFFFFFFFFFFFFFFFFFFFFFFFFFFFFFFFFFFFF
310
FFFFFFFFFFFFFFFFFFFFFFFFFFFFFFFFFFFFFFFFFFFFFFFFF000FFFFFFFFFFFF
310
FFFFFFFFFFFFFFFFFFFFFFFFFFFFFFFFFFFFFFFFFFFFFFFFFFFFFFFFFFFFFFFF
310
FFFFFFFFFFFFFFFFFFFFFFFFFFFFFFFFFFFFFFFFFFFFFFFFFFFFFFFFFFFFFFFF
310
FFFFFFFFFFFFFFFFFFFFFFFFFFFFFFFFF000FFFFFFFFFFFFFFFFFFFFFFFFFFFF
310
FFFFFFFFFFFFFFFFFFFFFFFFFFFFFFFFFFFFFFFFFFFFFFFFFFFFFFFFFFFFFFFF
310
FFFFFFFFFFFFFFFFFFFFFFFFFFFFFFFFFFFFFFFFFFFFFFFFFFFFFFFFFFFFFFFF
310
FFFFFFFFFFFFFFFFF000FFFFFFFFFFFFFFFFFFFFFFFFFFFFFFFFFFFFFFFFFFFF
310
FFFFFFFFFFFFFFFFFFFFFFFFFFFFFFFFFFFFFFFFFFFFFFFFFFFFFFFFFFFFFFFF
310
FFFFFFFFFFFFFFFFFFFFFFFFFFFFFFFFFFFFFFFFFFFFFFFFFFFFFFFFFFFFFFFF
310
F000FFFFFFFFFFFFFFFFFFFFFFFFFFFFFFFFFFFFFFFFFFFFFFFFFFFFFFFFFFFF
310
FFFFFFFFFFFFFFFFFFFFFFFFFFFFFFFFFFFFFFFFFFFFFFFFFFFFFFFFFFFFFFFF
310
FFFFFFFFFFFFFFFFFFFFFFFFFFFFFFFFFFFFFFFFFFFFFFFFF000FFFFFFFFFFFF
310
FFFFFFFFFFFFFFFFFFFFFFFFFFFFFFFFFFFFFFFFFFFFFFFFFFFFFFFFFFFFFFFF
310
FFFFFFFFFFFFFFFFFFFFFFFFFFFFFFFFFFFFFFFFFFFFFFFFFFFFFFFFFFFFFFFF
310
FFFFFFFFFFFFFFFFFFFFFFFFFFFFFFFFF000FFFFFFFFFFFFFFFFFFFFFFFFFFFF
310
FFFFFFFFFFFFFFFFFFFFFFFFFFFFFFFFFFFFFFFFFFFFFFFFFFFFFFFFFFFFFFFF
310
FFFFFFFFFFFFFFFFFFFFFFFFFFFFFFFFFFFFFFFFFFFFFFFFFFFFFFFFFFFFFFFF
310
FFFFFFFFFFFFFFFFF000FFFFFFFFFFFFFFFFFFFFFFFFFFFFFFFFFFFFFFFFFFFF
310
FFFFFFFFFFFFFFFFFFFFFFFFFFFFFFFFFFFFFFFFFFFFFFFFFFFFFFFFFFFFFFFF
310
FFFFFFFFFFFFFFFFFFFFFFFFFFFFFFFFFFFFFFFFFFFFFFFFFFFFFFFFFFFFFFFF
310
F000FFFFFFFFFFFFFFFFFFFFFFFFFFFFFFFFFFFFFFFFFFFFFFFFFFFFFFFFFFFF
310
FFFFFFFFFFFFFFFFFFFFFFFFFFFFFFFFFFFFFFFFFFFFFFFFFFFFFFFFFFFFFFFF
310
FFFFFFFFFFFFFFFFFFFFFFFFFFFFFFFFFFFFFFFFFFFFFFFFF000FFFFFFFFFFFF
310
FFFFFFFFFFFFFFFFFFFFFFFFFFFFFFFFFFFFFFFFFFFFFFFFFFFFFFFFFFFFFFFF
310
FFFFFFFFFFFFFFFFFFFFFFFFFFFFFFFFFFFFFFFFFFFFFFFFFFFFFFFFFFFFFFFF
310
FFFFFFFFFFFFFFFFFFFFFFFFFFFFFFFFF000FFFFFFFFFFFFFFFFFFFFFFFFFFFF
310
FFFFFFFFFFFFFFFFFFFFFFFFFFFFFFFFFFFFFFFFFFFFFFFFFFFFFFFFFFFFFFFF
310
FFFFFFFFFFFFFFFFFFFFFFFFFFFFFFFFFFFFFFFFFFFFFFFFFFFFFFFFFFFFFFFF
310
FFFFFFFFFFFFFFFFF000FFFFFFFFFFFFFFFFFFFFFFFFFFFFFFFFFFFFFFFFFFFF
310
FFFFFFFFFFFFFFFFFFFFFFFFFFFFFFFFFFFFFFFFFFFFFFFFFFFFFFFFFFFFFFFF
310
FFFFFFFFFFFFFFFFFFFFFFFFFFFFFFFFFFFFFFFFFFFFFFFFFFFFFFFFFFFFFFFF
310
F000FFFFFFFFFFFFFFFFFFFFFFFFFFFFFFFFFFFFFFFFFFFFFFFFFFFFFFFFFFFF
310
FFFFFFFFFFFFFFFFFFFFFFFFFFFFFFFFFFFFFFFFFFFFFFFFFFFFFFFFFFFFFFFF
310
FFFFFFFFFFFFFFFFFFFFFFFFFFFFFFFFFFFFFFFFFFFFFFFFF000FFFFFFFFFFFF
310
FFFFFFFFFFFFFFFFFFFFFFFFFFFFFFFFFFFFFFFFFFFFFFFFFFFFFFFFFFFFFFFF
310
FFFFFFFFFFFFFFFFFFFFFFFFFFFFFFFFFFFFFFFFFFFFFFFFFFFFFFFFFFFFFFFF
310
FFFFFFFFFFFFFFFFFFFFFFFFFFFFFFFFF000FFFFFFFFFFFFFFFFFFFFFFFFFFFF
310
FFFFFFFFFFFFFFFFFFFFFFFFFFFFFFFFFFFFFFFFFFFFFFFFFFFFFFFFFFFFFFFF
310
FFFFFFFFFFFFFFFFFFFFFFFFFFFFFFFFFFFFFFFFFFFFFFFFFFFFFFFFFFFFFFFF
310
FFFFFFFFFFFFFFFFF000FFFFFFFFFFFFFFFFFFFFFFFFFFFFFFFFFFFFFFFFFFFF
310
FFFFFFFFFFFFFFFFFFFFFFFFFFFFFFFFFFFFFFFFFFFFFFFFFFFFFFFFFFFFFFFF
310
FFFFFFFFFFFFFFFFFFFFFFFFFFFFFFFFFFFFFFFFFFFFFFFFFFFFFFFFFFFFFFFF
310
F000FFFFFFFFFFFFFFFFFFFFFFFFFFFFFFFFFFFFFFFFFFFFFFFFFFFFFFFFFFFF
310
FFFFFFFFFFFFFFFFFFFFFFFFFFFFFFFFFFFFFFFFFFFFFFFFFFFFFFFFFFFFFFFF
310
FFFFFFFFFFFFFFFFFFFFFFFFFFFFFFFFFFFFFFFFFFFFFFFFF000FFFFFFFFFFFF
310
FFFFFFFFFFFFFFFFFFFFFFFFFFFFFFFFFFFFFFFFFFFFFFFFFFFFFFFFFFFFFFFF
310
FFFFFFFFFFFFFFFFFFFFFFFFFFFFFFFFFFFFFFFFFFFFFFFFFFFFFFFFFFFFFFFF
310
FFFFFFFFFFFFFFFFFFFFFFFFFFFFFFFFF000FFFFFFFFFFFFFFFFFFFFFFFFFFFF
310
FFFFFFFFFFFFFFFFFFFFFFFFFFFFFFFFFFFFFFFFFFFFFFFFFFFFFFFFFFFFFFFF
310
FFFFFFFFFFFFFFFFFFFFFFFFFFFFFFFFFFFFFFFFFFFFFFFFFFFFFFFFFFFFFFFF
310
FFFFFFFFFFFFFFFFF000FFFFF80003FFFFFFFFFFFFFFFFFFFFFFFFFFFFFFFFFF
310
FFFFF00007FFFFFFFFFF00007FFFFFF800000000000000007FFFFFFFFFFFFFFF
310
FFFFFFFC001FFFFFFFFFFFFFFC001FFFFFFFFFFFFFFFFFFFFFFFFFFE0007FFFF
310
F000FFFF8000007FFFFFFFF8000FFFFFC0007FFFFF80007FFFFF0000007FFFFF
310
FFF8000007FFFFF800000000000000007FFFFFF0001FFFFFFFFFFFC00001FFFF
310
FFFFFFFFC00001FFFFFFFF000000000003FFFFE000007FFFF000FFFE0000000F
310
FFFFFFF0000FFFFF80007FFFFF80007FFFFC0000001FFFFFFFC0000001FFFFF8
310
00000000000000007FFFFFF0001FFFFFFFFFFE0000003FFFFFFFFFFE0000003F
310
FFFFFF000000000003FFFF0000000FFFF000FFF800000003FFFFFFF00007FFFF
310
80007FFFFF80007FFFF000000007FFFFFF000000003FFFF80000000000000000
310
7FFFFFF0001FFFFFFFFFF80000000FFFFFFFFFF80000000FFFFFFF0000000000
310
03FFFC00000003FFF000FFE000000000FFFFFFF00007FFFF80003FFFFF80007F
310
FFC000000001FFFFFC000000001FFFF800000000000000007FFFFFF0001FFFFF
310
FFFFE000000003FFFFFFFFE000000003FFFFFF000000000003FFF000000000FF
310
F000FF80000000007FFFFFF00007FFFF80003FFFFF80007FFF8000000000FFFF
310
F80000000007FFF800000000000000007FFFFFF0001FFFFFFFFFC000000001FF
310
FFFFFFC000000001FFFFFF000000000003FFC0000000007FF000FF0000000000
310
3FFFFFE00007FFFF00003FFFFF80007FFE00000000003FFFF00000000003FFF8
310
00000000000000007FFFFFF0001FFFFFFFFF8000000000FFFFFFFF8000000000
310
FFFFFF000000000003FF80000000003FF000FE00000000001FFFFFE00003FFFF
310
00003FFFFF80007FFC00000000001FFFE00000000001FFF8000001FFFE000000
310
7FFFFFF0001FFFFFFFFE00000000003FFFFFFE00000000003FFFFF0000000000
310
03FF00000000001FF000FC00000000000FFFFFE00003FFFF00001FFFFF80007F
310
F800000000001FFFC00000000000FFF8000001FFFE0000007FFFFFF0001FFFFF
310
FFFC00000000001FFFFFFC00000000001FFFFF000000000003FE00000000000F
310
F000F8000000000007FFFFE00003FFFF00001FFFFF80007FF800000000000FFF
310
800000000000FFF8000001FFFE0000007FFFFFF0001FFFFFFFF800000000000F
310
FFFFF800000000000FFFFF000000000003FC000000000007F000F80000000000
310
03FFFFC00003FFFE00001FFFFF80007FF0000000000007FF0000000000007FF8
310
000001FFFE0000007FFFFFF0001FFFFFFFF0000000000007FFFFF00000000000
310
07FFFF000000000003F8000000000003F000F0000000000003FFFFC00001FFFE
310
00001FFFFF80007FE0000000000007FE0000000000003FF8000001FFFE000000
310
7FFFFFF0001FFFFFFFF0000000000007FFFFF0000000000007FFFF0000000000
310
03F800001F800003F000E00001FFF00001FFFFC00001FFFE00000FFFFF80007F
310
E00001FFE00003FE00001FFF00003FF8000001FFFE0000007FFFFFF0001FFFFF
310
FFE000003E000003FFFFE000003E000003FFFF000000000003F00001FFF80001
310
F000E00007FFFC0001FFFFC00001FFFE00000FFFFF80007FC0000FFFFC0003FC
310
0000FFFFC0001FF8000001FFFE0000007FFFFFF0001FFFFFFFC00003FFE00001
310
FFFFC00003FFE00001FFFF0001FFFFFFFFF00007FFFE0001F000E0000FFFFF00
310
00FFFF800001FFFC00000FFFFF80007FC0001FFFFE0001FC0001FFFFE0001FF8
310
000001FFFE0000007FFFFFF0001FFFFFFF80000FFFF80000FFFF80000FFFF800
310
00FFFF0003FFFFFFFFE0000FFFFF8000F000C0003FFFFF8000FFFF800000FFFC
310
000007FFFF80007F80003FFFFF0001FC0003FFFFF0001FF8000001FFFE000000
310
7FFFFFF0001FFFFFFF80003FFFFE0000FFFF80003FFFFE0000FFFF0003FFFFFF
310
FFE0003FFFFF8000F000C0003FFFFF8000FFFF800000FFFC000007FFFF80007F
310
80007FFFFF8001F80007FFFFF8000FF8000001FFFE0000007FFFFFF0001FFFFF
310
FF00007FFFFF00007FFF00007FFFFF00007FFF0003FFFFFFFFE0003FFFFFC000
310
F000C0007FFFFFC000FFFF000000FFFC000007FFFF80007F8000FFFFFF8000F8
310
000FFFFFF8000FF8000001FFFE0000007FFFFFF0001FFFFFFF0000FFFFFF8000
310
7FFF0000FFFFFF80007FFF0003FFFFFFFFC0007FFFFFC00070008000FFFFFFC0
310
00FFFF000000FFF8000007FFFF80007F8000FFFFFF8000F8000FFFFFF8000FF8
310
000001FFFE0000007FFFFFF0001FFFFFFE0001FFFFFFC0003FFE0001FFFFFFC0
310
003FFF0003FFFFFFFFC0007FFFFFE00070008000FFFFFFC0007FFF0000007FF8
310
000003FFFF80007F0001FFFFFF8000F8000FFFFFF8000FF8000001FFFE000000
310
7FFFFFF0001FFFFFFE0001FFFFFFC0003FFE0001FFFFFFC0003FFF0003FFFFFF
310
FFC000FFFFFFE00070008000FFFFFFC0007FFF0000007FF8000003FFFF80007F
310
0001FFFFFF8000F8001FFFFFF8000FF8000001FFFE0000007FFFFFF0001FFFFF
310
FE0003FFFFFFE0003FFE0003FFFFFFE0003FFF0003FFFFFFFFC000FFFFFFE000
310
70008000FFFFFFC0007FFE0000007FF8000003FFFF80007F0001FFFFFF8000F0
310
001FFFFFF8000FF8000001FFFE0000007FFFFFF0001FFFFFFC0003FFFFFFE000
310
1FFC0003FFFFFFE0001FFF0003FFFFFFFFC000FFFFFFC00070008000FFFFFF80
310
007FFE0000007FF0000003FFFF80007F0001FFFFFF0000F0001FFFFFF8000FF8
310
000001FFFE0000007FFFFFF0001FFFFFFC0007FFFFFFF0001FFC0007FFFFFFF0
310
001FFF0003FFFFFFFFC000FFFFFFC00070008001FFFFFF0000FFFE0000003FF0
310
000001FFFF80007F0001FFFFFF0000F8001FFFFFF0000FF8000001FFFE000000
310
7FFFFFF0001FFFFFFC0007FFFFFFF0001FFC0007FFFFFFF0001FFF0003FFFFFF
310
FFC001FFFFFF80007000FFFFFFFFFE0000FFFE0008003FF0008001FFFF80007F
310
FFFFFFFFFC0000FFFFFFFFFFE0000FF8000001FFFE0000007FFFFFF0001FFFFF
310
F8000FFFFFFFF8000FF8000FFFFFFFF8000FFF0003FFFFFFFFFFFFFFFFFF0000
310
7000FFFFFFFFFC0000FFFC0008003FF0008001FFFF80007FFFFFFFFFF80001FF
310
FFFFFFFF80000FF8000001FFFE0000007FFFFFF0001FFFFFF8000FFFFFFFF800
310
0FF8000FFFFFFFF8000FFF0003FFFFFFFFFFFFFFFFFE0000F000FFFFFFFFE000
310
00FFFC000C003FE000C001FFFF80007FFFFFFFFFC00001FFFFFFFFFE00001FF8
310
000001FFFE0000007FFFFFF0001FFFFFF8000FFFFFFFF8000FF8000FFFFFFFF8
310
000FFF0003FFFFFFFFFFFFFFFFF00000F000FFFFFFFE000001FFFC000C001FE0
310
00C000FFFF80007FFFFFFFFE000001FFFFFFFFE000001FF80FFFFFFFFFFFFFC0
310
7FFFFFF0001FFFFFF8000FFFFFFFF8000FF8000FFFFFFFF8000FFF0003FFFFFF
310
FFFFFFFFFF800000F000FFFFFFC0000001FFFC001C001FE001C000FFFF80007F
310
FFFFFF80000003FFFFFFF80000001FF80FFFFFFFFFFFFFC07FFFFFF0001FFFFF
310
F8001FFFFFFFFC000FF8001FFFFFFFFC000FFF0003FFFFFFFFFFFFFFF0000001
310
F000FFFFF800000001FFF8001C001FE001C000FFFF80007FFFFFF800000003FF
310
FFFF800000003FF80FFFFFFFFFFFFFC07FFFFFF0001FFFFFF8001FFFFFFFFC00
310
0FF8001FFFFFFFFC000FFF0003FFFFFFFFFFFFFE00000001F000FFFFC0000000
310
03FFF8001E001FC001E000FFFF80007FFFFF8000000007FFFFFC000000003FF8
310
0FFFFFFFFFFFFFC07FFFFFF0001FFFFFF8001FFFFFFFFC000FF8001FFFFFFFFC
310
000FFF0003FFFFFFFFFFFFE000000003F000FFFE0000000007FFF8001E000FC0
310
01E0007FFF80007FFFFE0000000007FFFFE0000000007FF80FFFFFFFFFFFFFC0
310
7FFFFFF0001FFFFFF0001FFFFFFFFC0007F0001FFFFFFFFC0007FF0003FFFFFF
310
FFFFFF0000000003F000FFF80000000007FFF8001E000FC003E0007FFF80007F
310
FFF0000000000FFFFF8000000000FFF80FFFFFFFFFFFFFC07FFFFFF0001FFFFF
310
F0001FFFFFFFFC0007F0001FFFFFFFFC0007FF0003FFFFFFFFFFFC0000000007
310
F000FFE0000000000FFFF0003E000FC003E0007FFF80007FFFC0000000001FFF
310
FE0000000001FFF80FFFFFFFFFFFFFC07FFFFFF0001FFFFFF0001FFFFFFFFC00
310
07F0001FFFFFFFFC0007FF0003FFFFFFFFFFF0000000000FF000FFC000000000
310
1FFFF0003F000F8003F0003FFF80007FFF80000000003FFFF80000000003FFF8
310
0FFFFFFFFFFFFFC07FFFFFF0001FFFFFF0001FFFFFFFFC0007F0001FFFFFFFFC
310
0007FF0003FFFFFFFFFFE0000000001FF000FF00000000007FFFF0003F000780
310
03F0003FFF80007FFF00000000007FFFF00000000007FFF80FFFFFFFFFFFFFC0
310
7FFFFFF0001FFFFFF0001FFFFFFFFC0007F0001FFFFFFFFC0007FF0003FFFFFF
310
FFFF80000000007FF000FE0000000000FFFFE0003F00078007F0003FFF80007F
310
FE0000000001FFFFE0000000001FFFF80FFFFFFFFFFFFFC07FFFFFF0001FFFFF
310
F0001FFFFFFFFC0007F0001FFFFFFFFC0007FF0003FFFFFFFFFF0000000000FF
310
F000FC0000000003FFFFE0007F00078007F0003FFF80007FFC0000000007FFFF
310
C0000000007FFFF80FFFFFFFFFFFFFC07FFFFFF0001FFFFFF8001FFFFFFFFC00
310
0FF8001FFFFFFFFC000FFF0003FFFFFFFFFE0000000003FFF000FC000000000F
310
FFFFE0007F80070007F8001FFF80007FF8000000001FFFFF8000000001FFFFF8
310
0FFFFFFFFFFFFFC07FFFFFF0001FFFFFF8001FFFFFFFFC000FF8001FFFFFFFFC
310
000FFF0003FFFFFFFFFC000000000FFFF000F8000000007FFFFFE0007F800700
310
07F8001FFF80007FF000000000FFFFFF800000000FFFFFF80FFFFFFFFFFFFFC0
310
7FFFFFF0001FFFFFF8000FFFFFFFF8000FF8000FFFFFFFF8000FFF0003FFFFFF
310
FFFC000000007FFFF000F800000007FFFFFFC0007F8003000FF8001FFF80007F
310
F000000007FFFFFF000000007FFFFFF80FFFFFFFFFFFFFC07FFFFFF0001FFFFF
310
F8000FFFFFFFF8000FF8000FFFFFFFF8000FFF0003FFFFFFFFF80000000FFFFF
310
F000F0000000FFFFFFFFC000FF8003000FF8001FFF80007FE0000000FFFFFFFF
310
0000000FFFFFFFF8000001FFFE0000007FFFFFF0001FFFFFF8000FFFFFFFF800
310
0FF8000FFFFFFFF8000FFF0003FFFFFFFFF8000000FFFFFFF000F000000FFFFF
310
FFFFC000FFC002000FF8000FFF80007FE000001FFFFFFFFE000001FFFFFFFFF8
310
000001FFFE0000007FFFFFF0001FFFFFF8000FFFFFFFF8000FF8000FFFFFFFF8
310
000FFF0003FFFFFFFFF000001FFFFFFFF000E00000FFFFFFFFFFC000FFC00200
310
0FFC000FFF80007FE00001FFFFFFFFFE00001FFFFFFFFFF8000001FFFE000000
310
7FFFFFF0001FFFFFFC000FFFFFFFF8001FFC000FFFFFFFF8001FFF0003FFFFFF
310
FFF00001FFFFFFFFF000E00007FFFFFFFFFF8000FFC000001FFC000FFF80007F
310
C0000FFFFFFFFFFE0000FFFFFFFFFFF8000001FFFE0000007FFFFFF0001FFFFF
310
FC0007FFFFFFF0001FFC0007FFFFFFF0001FFF0003FFFFFFFFF00007FFFFFFFF
310
F000E0001FFFFFFFFFFF8000FFC000001FFC000FFF80007FC0003FFFFFFFFFFE
310
0001FFFFFFFFFFF8000001FFFE0000007FFFFFF0001FFFFFFC0007FFFFFFF000
310
1FFC0007FFFFFFF0001FFF0003FFFFFFFFF0001FFFFFFFFFF000E0003FFFFF00
310
03FF8001FFE000001FFC0007FF80007FC0007FFFFF0007FC0003FFFFF0003FF8
310
000001FFFE0000007FFFFFF0001FFFFFFC0003FFFFFFE0001FFC0003FFFFFFE0
310
001FFF0003FFFFFFFFF0003FFFFFFFFFF000E0003FFFFF0001FF8001FFE00000
310
1FFE0007FF80007FC0007FFFFE0003FC0007FFFFE0003FF8000001FFFE000000
310
7FFFFFF0001FFFFFFE0003FFFFFFE0003FFE0003FFFFFFE0003FFF0003FFFFFF
310
FFF0003FFFFF8001F000E0003FFFFF0001FF0001FFE000001FFE0007FF80007F
310
C0007FFFFE0003FC0007FFFFE0003FF8000001FFFE0000007FFFFFF0001FFFFF
310
FE0001FFFFFFC0003FFE0001FFFFFFC0003FFF0003FFFFFFFFF0003FFFFF0001
310
F000E0003FFFFF0003FF0001FFE000003FFE0007FF80007FC0007FFFFE0003FC
310
0007FFFFE0003FF8000001FFFE0000007FFFFFF0001FFFFFFF0001FFFFFFC000
310
7FFF0001FFFFFFC0007FFF0003FFFFFFFFF0003FFFFF0001F000E0003FFFFE00
310
03FF0003FFF000003FFE0003FF80007FC0007FFFFC0003FE0007FFFFE0003FF8
310
000001FFFE0000007FFFFFF0001FFFFFFF0000FFFFFF80007FFF0000FFFFFF80
310
007FFF0003FFFFFFFFF0003FFFFF0001F000E0003FFFFE0003FF0003FFF00000
310
3FFF0003FF80007FC0007FFFFC0007FE0007FFFFC0003FF8000001FFFE000000
310
7FFFFFF0001FFFFFFF80007FFFFF0000FFFF80007FFFFF0000FFFF0003FFFFFF
310
FFF0003FFFFF0003F000E0003FFFFC0003FE0003FFF000003FFF0003FF80007F
310
E0003FFFF80007FE0003FFFFC0007FF8000001FFFE0000007FFFFFF0001FFFFF
310
FF80003FFFFE0000FFFF80003FFFFE0000FFFF0003FFFFFFFFF0001FFFFE0003
310
F000F0001FFFF80003FE0003FFF000007FFF0001FF80007FE0003FFFF00007FE
310
0001FFFF80007FF8000001FFFE0000007FFFFFF0001FFFFFFFC0000FFFF80001
310
FFFFC0000FFFF80001FFFF0003FFFFFFFFF0001FFFFC0003F000F0000FFFF000
310
07FE0007FFF800007FFF0001FF80007FE0001FFFE00007FF0000FFFE00007FF8
310
000001FFFE0000007FFFFFF0001FFFFFFFC00003FFE00001FFFFC00003FFE000
310
01FFFF0003FFFFFFFFF8000FFFF80003F000F00003FFC00007FC0007FFF80000
310
7FFF8001FF80007FF00007FF80000FFF00007FF80000FFF8000001FFFE000000
310
7F80000000000001FFE000003E000003FFFFE000003E000003FFFF0003FFFFFF
310
FFF80003FFE00007F000F800000000000FFC0007FFF800007FFF8001FF80007F
310
F000000000000FFF000000000000FFF8000001FFFE0000007F80000000000001
310
FFF0000000000007FFFFF0000000000007FFFF0003FFFFFFFFFC00007E000007
310
F000F800000000000FFC0007FFF80000FFFF8000FF80007FF800000000001FFF
310
800000000001FFF8000001FFFE0000007F80000000000001FFF800000000000F
310
FFFFF800000000000FFFFF0003FFFFFFFFFC00000000000FF000FC0000000000
310
1FFC0007FFFC0000FFFF8000FF80007FF800000000003FFFC00000000001FFF8
310
000001FFFE0000007F80000000000001FFF800000000000FFFFFF80000000000
310
0FFFFF0003FFFFFFFFFE00000000001FF000FE00000000003FF8000FFFFC0000
310
FFFF8000FF80007FFC00000000003FFFC00000000003FFF8000001FFFE000000
310
7F80000000000001FFFC00000000001FFFFFFC00000000001FFFFF0003FFFFFF
310
FFFF00000000001FF000FF00000000003FF8000FFFFC0000FFFFC000FF80007F
310
FE00000000007FFFE00000000007FFF8000001FFFE0000007F80000000000001
310
FFFE00000000003FFFFFFE00000000003FFFFF0003FFFFFFFFFF80000000003F
310
F000FF80000000007FF8000FFFFC0001FFFFC0007F80007FFF0000000000FFFF
310
F0000000000FFFF800000000000000007F80000000000001FFFF8000000000FF
310
FFFFFF8000000000FFFFFF0003FFFFFFFFFFC0000000007FF000FFC000000000
310
FFF8000FFFFE0001FFFFC0007F80007FFF8000000001FFFFF8000000001FFFF8
310
00000000000000007F80000000000001FFFFC000000001FFFFFFFFC000000001
310
FFFFFF0003FFFFFFFFFFE000000000FFF000FFE000000003FFF0001FFFFE0001
310
FFFFC0007F80007FFFC000000007FFFFFE000000003FFFF80000000000000000
310
7F80000000000001FFFFE000000003FFFFFFFFE000000003FFFFFF0003FFFFFF
310
FFFFF000000003FFF000FFF80000000FFFF0001FFFFE0001FFFFE0007F80007F
310
FFF00000000FFFFFFF00000000FFFFF800000000000000007F80000000000001
310
FFFFF80000000FFFFFFFFFF80000000FFFFFFF0003FFFFFFFFFFFC0000000FFF
310
F000FFFE0000003FFFF0001FFFFE0003FFFFE0003F80007FFFFC0000003FFFFF
310
FFC0000003FFFFF800000000000000007F80000000000001FFFFFE0000003FFF
310
FFFFFFFE0000003FFFFFFF0003FFFFFFFFFFFF0000003FFFF000FFFF800000FF
310
FFF0001FFFFF0003FFFFE0003F80007FFFFF000001FFFFFFFFF800001FFFFFF8
310
00000000000000007F80000000000001FFFFFFC00001FFFFFFFFFFFFC00001FF
310
FFFFFF0003FFFFFFFFFFFFC00000FFFFF000FFFFF8000FFFFFFFFFFFFFFFFFFF
310
FFFFFFFFFFFFFFFFFFFFF0001FFFFFFFFFFF0000FFFFFFF80000000000000000
310
7FFFFFFFFFFFFFFFFFFFFFFC001FFFFFFFFFFFFFFC001FFFFFFFFFFFFFFFFFFF
310
FFFFFFFC001FFFFFF000FFFFFFFFFFFFFFFFFFFFFFFFFFFFFFFFFFFFFFFFFFFF
310
FFFFFFFFFFFFFFFFFFFFFFFFFFFFFFFFFFFFFFFFFFFFFFFFFFFFFFFFFFFFFFFF
310
FFFFFFFFFFFFFFFFFFFFFFFFFFFFFFFFFFFFFFFFFFFFFFFFFFFFFFFFFFFFFFFF
310
F000FFFFFFFFFFFFFFFFFFFFFFFFFFFFFFFFFFFFFFFFFFFFFFFFFFFFFFFFFFFF
310
FFFFFFFFFFFFFFFFFFFFFFFFFFFFFFFFFFFFFFFFFFFFFFFFFFFFFFFFFFFFFFFF
310
FFFFFFFFFFFFFFFFFFFFFFFFFFFFFFFFFFFFFFFFFFFFFFFFF000FFFFFFFFFFFF
310
FFFFFFFFFFFFFFFFFFFFFFFFFFFFFFFFFFFFFFFFFFFFFFFFFFFFFFFFFFFFFFFF
310
FFFFFFFFFFFFFFFFFFFFFFFFFFFFFFFFFFFFFFFFFFFFFFFFFFFFFFFFFFFFFFFF
310
FFFFFFFFFFFFFFFFFFFFFFFFFFFFFFFFF000FFFFFFFFFFFFFFFFFFFFFFFFFFFF
310
FFFFFFFFFFFFFFFFFFFFFFFFFFFFFFFFFFFFFFFFFFFFFFFFFFFFFFFFFFFFFFFF
310
FFFFFFFFFFFFFFFFFFFFFFFFFFFFFFFFFFFFFFFFFFFFFFFFFFFFFFFFFFFFFFFF
310
FFFFFFFFFFFFFFFFF000FFFFFFFFFFFFFFFFFFFFFFFFFFFFFFFFFFFFFFFFFFFF
310
FFFFFFFFFFFFFFFFFFFFFFFFFFFFFFFFFFFFFFFFFFFFFFFFFFFFFFFFFFFFFFFF
310
FFFFFFFFFFFFFFFFFFFFFFFFFFFFFFFFFFFFFFFFFFFFFFFFFFFFFFFFFFFFFFFF
310
F000FFFFFFFFFFFFFFFFFFFFFFFFFFFFFFFFFFFFFFFFFFFFFFFFFFFFFFFFFFFF
310
FFFFFFFFFFFFFFFFFFFFFFFFFFFFFFFFFFFFFFFFFFFFFFFFFFFFFFFFFFFFFFFF
310
FFFFFFFFFFFFFFFFFFFFFFFFFFFFFFFFFFFFFFFFFFFFFFFFF000FFFFFFFFFFFF
310
FFFFFFFFFFFFFFFFFFFFFFFFFFFFFFFFFFFFFFFFFFFFFFFFFFFFFFFFFFFFFFFF
310
FFFFFFFFFFFFFFFFFFFFFFFFFFFFFFFFFFFFFFFFFFFFFFFFFFFFFFFFFFFFFFFF
310
FFFFFFFFFFFFFFFFFFFFFFFFFFFFFFFFF000FFFFFFFFFFFFFFFFFFFFFFFFFFFF
310
FFFFFFFFFFFFFFFFFFFFFFFFFFFFFFFFFFFFFFFFFFFFFFFFFFFFFFFFFFFFFFFF
310
FFFFFFFFFFFFFFFFFFFFFFFFFFFFFFFFFFFFFFFFFFFFFFFFFFFFFFFFFFFFFFFF
310
FFFFFFFFFFFFFFFFF000FFFFFFFFFFFFFFFFFFFFFFFFFFFFFFFFFFFFFFFFFFFF
310
FFFFFFFFFFFFFFFFFFFFFFFFFFFFFFFFFFFFFFFFFFFFFFFFFFFFFFFFFFFFFFFF
310
FFFFFFFFFFFFFFFFFFFFFFFFFFFFFFFFFFFFFFFFFFFFFFFFFFFFFFFFFFFFFFFF
310
F000FFFFFFFFFFFFFFFFFFFFFFFFFFFFFFFFFFFFFFFFFFFFFFFFFFFFFFFFFFFF
310
FFFFFFFFFFFFFFFFFFFFFFFFFFFFFFFFFFFFFFFFFFFFFFFFFFFFFFFFFFFFFFFF
310
FFFFFFFFFFFFFFFFFFFFFFFFFFFFFFFFFFFFFFFFFFFFFFFFF000FFFFFFFFFFFF
310
FFFFFFFFFFFFFFFFFFFFFFFFFFFFFFFFFFFFFFFFFFFFFFFFFFFFFFFFFFFFFFFF
310
FFFFFFFFFFFFFFFFFFFFFFFFFFFFFFFFFFFFFFFFFFFFFFFFFFFFFFFFFFFFFFFF
310
FFFFFFFFFFFFFFFFFFFFFFFFFFFFFFFFF000FFFFFFFFFFFFFFFFFFFFFFFFFFFF
310
FFFFFFFFFFFFFFFFFFFFFFFFFFFFFFFFFFFFFFFFFFFFFFFFFFFFFFFFFFFFFFFF
310
FFFFFFFFFFFFFFFFFFFFFFFFFFFFFFFFFFFFFFFFFFFFFFFFFFFFFFFFFFFFFFFF
310
FFFFFFFFFFFFFFFFF000FFFFFFFFFFFFFFFFFFFFFFFFFFFFFFFFFFFFFFFFFFFF
310
FFFFFFFFFFFFFFFFFFFFFFFFFFFFFFFFFFFFFFFFFFFFFFFFFFFFFFFFFFFFFFFF
310
FFFFFFFFFFFFFFFFFFFFFFFFFFFFFFFFFFFFFFFFFFFFFFFFFFFFFFFFFFFFFFFF
310
F000FFFFFFFFFFFFFFFFFFFFFFFFFFFFFFFFFFFFFFFFFFFFFFFFFFFFFFFFFFFF
310
FFFFFFFFFFFFFFFFFFFFFFFFFFFFFFFFFFFFFFFFFFFFFFFFFFFFFFFFFFFFFFFF
310
FFFFFFFFFFFFFFFFFFFFFFFFFFFFFFFFFFFFFFFFFFFFFFFFF000FFFFFFFFFFFF
310
FFFFFFFFFFFFFFFFFFFFFFFFFFFFFFFFFFFFFFFFFFFFFFFFFFFFFFFFFFFFFFFF
310
FFFFFFFFFFFFFFFFFFFFFFFFFFFFFFFFFFFFFFFFFFFFFFFFFFFFFFFFFFFFFFFF
310
FFFFFFFFFFFFFFFFFFFFFFFFFFFFFFFFF000FFFFFFFFFFFFFFFFFFFFFFFFFFFF
310
FFFFFFFFFFFFFFFFFFFFFFFFFFFFFFFFFFFFFFFFFFFFFFFFFFFFFFFFFFFFFFFF
310
FFFFFFFFFFFFFFFFFFFFFFFFFFFFFFFFFFFFFFFFFFFFFFFFFFFFFFFFFFFFFFFF
310
FFFFFFFFFFFFFFFFF000FFFFFFFFFFFFFFFFFFFFFFFFFFFFFFFFFFFFFFFFFFFF
310
FFFFFFFFFFFFFFFFFFFFFFFFFFFFFFFFFFFFFFFFFFFFFFFFFFFFFFFFFFFFFFFF
310
FFFFFFFFFFFFFFFFFFFFFFFFFFFFFFFFFFFFFFFFFFFFFFFFFFFFFFFFFFFFFFFF
310
F000FFFFFFFFFFFFFFFFFFFFFFFFFFFFFFFFFFFFFFFFFFFFFFFFFFFFFFFFFFFF
310
FFFFFFFFFFFFFFFFFFFFFFFFFFFFFFFFFFFFFFFFFFFFFFFFFFFFFFFFFFFFFFFF
310
FFFFFFFFFFFFFFFFFFFFFFFFFFFFFFFFFFFFFFFFFFFFFFFFF000FFFFFFFFFFFF
310
FFFFFFFFFFFFFFFFFFFFFFFFFFFFFFFFFFFFFFFFFFFFFFFFFFFFFFFFFFFFFFFF
310
FFFFFFFFFFFFFFFFFFFFFFFFFFFFFFFFFFFFFFFFFFFFFFFFFFFFFFFFFFFFFFFF
310
FFFFFFFFFFFFFFFFFFFFFFFFFFFFFFFFF000FFFFFFFFFFFFFFFFFFFFFFFFFFFF
310
FFFFFFFFFFFFFFFFFFFFFFFFFFFFFFFFFFFFFFFFFFFFFFFFFFFFFFFFFFFFFFFF
310
FFFFFFFFFFFFFFFFFFFFFFFFFFFFFFFFFFFFFFFFFFFFFFFFFFFFFFFFFFFFFFFF
310
FFFFFFFFFFFFFFFFF000FFFFFFFFFFFFFFFFFFFFFFFFFFFFFFFFFFFFFFFFFFFF
310
FFFFFFFFFFFFFFFFFFFFFFFFFFFFFFFFFFFFFFFFFFFFFFFFFFFFFFFFFFFFFFFF
310
FFFFFFFFFFFFFFFFFFFFFFFFFFFFFFFFFFFFFFFFFFFFFFFFFFFFFFFFFFFFFFFF
310
F000FFFFFFFFFFFFFFFFFFFFFFFFFFFFFFFFFFFFFFFFFFFFFFFFFFFFFFFFFFFF
310
FFFFFFFFFFFFFFFFFFFFFFFFFFFFFFFFFFFFFFFFFFFFFFFFFFFFFFFFFFFFFFFF
310
FFFFFFFFFFFFFFFFFFFFFFFFFFFFFFFFFFFFFFFFFFFFFFFFF000FFFFFFFFFFFF
310
FFFFFFFFFFFFFFFFFFFFFFFFFFFFFFFFFFFFFFFFFFFFFFFFFFFFFFFFFFFFFFFF
310
FFFFFFFFFFFFFFFFFFFFFFFFFFFFFFFFFFFFFFFFFFFFFFFFFFFFFFFFFFFFFFFF
310
FFFFFFFFFFFFFFFFFFFFFFFFFFFFFFFFF0000000000000000000000000000000
310
0000000000000000000000000000000000000000000000000000000000000000
310
0000000000000000000000000000000000000000000000000000000000000000
310
0000000000000000000000000000000000000000000000000000000000000000
310
0000000000000000000000000000000000000000000000000000000000000000
310
0000000000000000000000000000000000000000000000000000000000000000
310
0000000000000000000000000000000000000000000000000000000000000000
310
0000000000000000000000000000000000000000000000000000000000000000
310
0000000000000000000000000000000000000000000000000000000000000000
310
0000000000000000000000000000000000000000000000000000000000000000
310
0000000000000000000000000000000000000000000000000000000000000000
310
0000000000000000000000000000000000000000000000000000000000000000
310
0000000000000000000000000000000000000000000000000000000000000000
310
0000000000000000000000000000000000000000000000000000000000000000
310
0000000000000000000000000000000000000000000000000000000000000000
310
0000000000000000000000000000000000000000000000000000000000000000
  1
OLE
  0
ENDSEC
  0
SECTION
  2
OBJECTS
  0
DICTIONARY
  5
C
330
0
100
AcDbDictionary
281
     1
  3
ACAD_GROUP
350
D
  3
ACAD_LAYOUT
350
1A
  3
ACAD_MLINESTYLE
350
17
  3
ACAD_PLOTSETTINGS
350
19
  3
ACAD_PLOTSTYLENAME
350
E
  3
ACAD_SCALELIST
350
47
  0
DICTIONARY
  5
D
102
{ACAD_REACTORS
330
C
102
}
330
C
100
AcDbDictionary
281
     1
  0
DICTIONARY
  5
1A
102
{ACAD_REACTORS
330
C
102
}
330
C
100
AcDbDictionary
281
     1
  3
Layout1
350
1E
  3
Layout2
350
26
  3
Model
350
22
  0
DICTIONARY
  5
17
102
{ACAD_REACTORS
330
C
102
}
330
C
100
AcDbDictionary
281
     1
  3
Standard
350
18
  0
DICTIONARY
  5
19
102
{ACAD_REACTORS
330
C
102
}
330
C
100
AcDbDictionary
281
     1
  0
ACDBDICTIONARYWDFLT
  5
E
102
{ACAD_REACTORS
330
C
102
}
330
C
100
AcDbDictionary
281
     1
  3
Normal
350
F
100
AcDbDictionaryWithDefault
340
F
  0
DICTIONARY
  5
47
102
{ACAD_REACTORS
330
C
102
}
330
C
100
AcDbDictionary
281
     1
  3
A0
350
48
  3
A1
350
49
  3
A2
350
4A
  3
A3
350
4B
  3
A4
350
4C
  3
A5
350
4D
  3
A6
350
4E
  3
A7
350
4F
  3
A8
350
50
  3
A9
350
51
  3
B0
350
52
  3
B1
350
53
  3
B2
350
54
  3
B3
350
55
  3
B4
350
56
  3
B5
350
57
  3
B6
350
58
  3
B7
350
59
  3
B8
350
5A
  3
B9
350
5B
  3
C0
350
5C
  3
C1
350
5D
  3
C2
350
5E
  3
C3
350
5F
  3
C4
350
60
  3
C5
350
61
  3
C6
350
62
  3
C7
350
63
  3
C8
350
64
  3
C9
350
65
  3
D0
350
66
  3
D1
350
67
  3
D2
350
68
  0
LAYOUT
  5
1E
102
{ACAD_REACTORS
330
1A
102
}
330
1A
100
AcDbPlotSettings
  1

  2
none_device
  4

  6

 40
0.0
 41
0.0
 42
0.0
 43
0.0
 44
0.0
 45
0.0
 46
0.0
 47
0.0
 48
0.0
 49
0.0
140
0.0
141
0.0
142
1.0
143
1.0
 70
   688
 72
     1
 73
     0
 74
     5
  7

 75
    16
147
1.0
148
0.0
149
0.0
100
AcDbLayout
  1
Layout1
 70
     1
 71
     1
 10
0.0
 20
0.0
 11
420.0
 21
297.0
 12
0.0
 22
0.0
 32
0.0
 14
1.0000000000E+20
 24
1.0000000000E+20
 34
1.0000000000E+20
 15
-1.0000000000E+20
 25
-1.0000000000E+20
 35
-1.0000000000E+20
146
0.0
 13
0.0
 23
0.0
 33
0.0
 16
1.0
 26
0.0
 36
0.0
 17
0.0
 27
1.0
 37
0.0
 76
     0
330
1B
  0
LAYOUT
  5
26
102
{ACAD_REACTORS
330
1A
102
}
330
1A
100
AcDbPlotSettings
  1

  2
none_device
  4

  6

 40
0.0
 41
0.0
 42
0.0
 43
0.0
 44
0.0
 45
0.0
 46
0.0
 47
0.0
 48
0.0
 49
0.0
140
0.0
141
0.0
142
1.0
143
1.0
 70
   688
 72
     1
 73
     0
 74
     5
  7

 75
    16
147
1.0
148
0.0
149
0.0
100
AcDbLayout
  1
Layout2
 70
     1
 71
     2
 10
0.0
 20
0.0
 11
0.0
 21
0.0
 12
0.0
 22
0.0
 32
0.0
 14
0.0
 24
0.0
 34
0.0
 15
0.0
 25
0.0
 35
0.0
146
0.0
 13
0.0
 23
0.0
 33
0.0
 16
1.0
 26
0.0
 36
0.0
 17
0.0
 27
1.0
 37
0.0
 76
     0
330
23
  0
LAYOUT
  5
22
102
{ACAD_REACTORS
330
1A
102
}
330
1A
100
AcDbPlotSettings
  1

  2
none_device
  4
Letter_(8.50_x_11.00_Inches)
  6

 40
6.35
 41
6.35
 42
6.35000508
 43
6.35000508
 44
215.9
 45
279.4
 46
0.0
 47
0.0
 48
0.0
 49
0.0
140
0.0
141
0.0
142
1.0
143
1.0
 70
  1712
 72
     1
 73
     0
 74
     0
  7

 75
     0
147
1.0
148
0.0
149
0.0
100
AcDbLayout
  1
Model
 70
     1
 71
     0
 10
0.0
 20
0.0
 11
297.0
 21
210.0
 12
0.0
 22
0.0
 32
0.0
 14
0.0
 24
0.0
 34
0.0
 15
297.0
 25
210.0
 35
0.0
146
0.0
 13
0.0
 23
0.0
 33
0.0
 16
1.0
 26
0.0
 36
0.0
 17
0.0
 27
1.0
 37
0.0
 76
     0
330
1F
331
29
  0
MLINESTYLE
  5
18
102
{ACAD_REACTORS
330
17
102
}
330
17
100
AcDbMlineStyle
  2
Standard
 70
     0
  3

 62
   256
 51
90.0
 52
90.0
 71
     2
 49
0.5
 62
   256
  6
BYLAYER
 49
-0.5
 62
   256
  6
BYLAYER
  0
ACDBPLACEHOLDER
  5
F
102
{ACAD_REACTORS
330
E
102
}
330
E
  0
SCALE
  5
48
102
{ACAD_REACTORS
330
47
102
}
330
47
100
AcDbScale
 70
     0
300
1:1
140
1.0
141
1.0
290
     1
  0
SCALE
  5
49
102
{ACAD_REACTORS
330
47
102
}
330
47
100
AcDbScale
 70
     0
300
1:2
140
1.0
141
2.0
290
     0
  0
SCALE
  5
4A
102
{ACAD_REACTORS
330
47
102
}
330
47
100
AcDbScale
 70
     0
300
1:4
140
1.0
141
4.0
290
     0
  0
SCALE
  5
4B
102
{ACAD_REACTORS
330
47
102
}
330
47
100
AcDbScale
 70
     0
300
1:5
140
1.0
141
5.0
290
     0
  0
SCALE
  5
4C
102
{ACAD_REACTORS
330
47
102
}
330
47
100
AcDbScale
 70
     0
300
1:8
140
1.0
141
8.0
290
     0
  0
SCALE
  5
4D
102
{ACAD_REACTORS
330
47
102
}
330
47
100
AcDbScale
 70
     0
300
1:10
140
1.0
141
10.0
290
     0
  0
SCALE
  5
4E
102
{ACAD_REACTORS
330
47
102
}
330
47
100
AcDbScale
 70
     0
300
1:16
140
1.0
141
16.0
290
     0
  0
SCALE
  5
4F
102
{ACAD_REACTORS
330
47
102
}
330
47
100
AcDbScale
 70
     0
300
1:20
140
1.0
141
20.0
290
     0
  0
SCALE
  5
50
102
{ACAD_REACTORS
330
47
102
}
330
47
100
AcDbScale
 70
     0
300
1:30
140
1.0
141
30.0
290
     0
  0
SCALE
  5
51
102
{ACAD_REACTORS
330
47
102
}
330
47
100
AcDbScale
 70
     0
300
1:40
140
1.0
141
40.0
290
     0
  0
SCALE
  5
52
102
{ACAD_REACTORS
330
47
102
}
330
47
100
AcDbScale
 70
     0
300
1:50
140
1.0
141
50.0
290
     0
  0
SCALE
  5
53
102
{ACAD_REACTORS
330
47
102
}
330
47
100
AcDbScale
 70
     0
300
1:100
140
1.0
141
100.0
290
     0
  0
SCALE
  5
54
102
{ACAD_REACTORS
330
47
102
}
330
47
100
AcDbScale
 70
     0
300
2:1
140
2.0
141
1.0
290
     0
  0
SCALE
  5
55
102
{ACAD_REACTORS
330
47
102
}
330
47
100
AcDbScale
 70
     0
300
4:1
140
4.0
141
1.0
290
     0
  0
SCALE
  5
56
102
{ACAD_REACTORS
330
47
102
}
330
47
100
AcDbScale
 70
     0
300
8:1
140
8.0
141
1.0
290
     0
  0
SCALE
  5
57
102
{ACAD_REACTORS
330
47
102
}
330
47
100
AcDbScale
 70
     0
300
10:1
140
10.0
141
1.0
290
     0
  0
SCALE
  5
58
102
{ACAD_REACTORS
330
47
102
}
330
47
100
AcDbScale
 70
     0
300
100:1
140
100.0
141
1.0
290
     0
  0
SCALE
  5
59
102
{ACAD_REACTORS
330
47
102
}
330
47
100
AcDbScale
 70
     0
300
1/128" = 1'-0"
140
0.0078125
141
12.0
290
     0
  0
SCALE
  5
5A
102
{ACAD_REACTORS
330
47
102
}
330
47
100
AcDbScale
 70
     0
300
1/64" = 1'-0"
140
0.015625
141
12.0
290
     0
  0
SCALE
  5
5B
102
{ACAD_REACTORS
330
47
102
}
330
47
100
AcDbScale
 70
     0
300
1/32" = 1'-0"
140
0.03125
141
12.0
290
     0
  0
SCALE
  5
5C
102
{ACAD_REACTORS
330
47
102
}
330
47
100
AcDbScale
 70
     0
300
1/16" = 1'-0"
140
0.0625
141
12.0
290
     0
  0
SCALE
  5
5D
102
{ACAD_REACTORS
330
47
102
}
330
47
100
AcDbScale
 70
     0
300
3/32" = 1'-0"
140
0.09375
141
12.0
290
     0
  0
SCALE
  5
5E
102
{ACAD_REACTORS
330
47
102
}
330
47
100
AcDbScale
 70
     0
300
1/8" = 1'-0"
140
0.125
141
12.0
290
     0
  0
SCALE
  5
5F
102
{ACAD_REACTORS
330
47
102
}
330
47
100
AcDbScale
 70
     0
300
3/16" = 1'-0"
140
0.1875
141
12.0
290
     0
  0
SCALE
  5
60
102
{ACAD_REACTORS
330
47
102
}
330
47
100
AcDbScale
 70
     0
300
1/4" = 1'-0"
140
0.25
141
12.0
290
     0
  0
SCALE
  5
61
102
{ACAD_REACTORS
330
47
102
}
330
47
100
AcDbScale
 70
     0
300
3/8" = 1'-0"
140
0.375
141
12.0
290
     0
  0
SCALE
  5
62
102
{ACAD_REACTORS
330
47
102
}
330
47
100
AcDbScale
 70
     0
300
1/2" = 1'-0"
140
0.5
141
12.0
290
     0
  0
SCALE
  5
63
102
{ACAD_REACTORS
330
47
102
}
330
47
100
AcDbScale
 70
     0
300
3/4" = 1'-0"
140
0.75
141
12.0
290
     0
  0
SCALE
  5
64
102
{ACAD_REACTORS
330
47
102
}
330
47
100
AcDbScale
 70
     0
300
1" = 1'-0"
140
1.0
141
12.0
290
     0
  0
SCALE
  5
65
102
{ACAD_REACTORS
330
47
102
}
330
47
100
AcDbScale
 70
     0
300
1-1/2" = 1'-0"
140
1.5
141
12.0
290
     0
  0
SCALE
  5
66
102
{ACAD_REACTORS
330
47
102
}
330
47
100
AcDbScale
 70
     0
300
3" = 1'-0"
140
3.0
141
12.0
290
     0
  0
SCALE
  5
67
102
{ACAD_REACTORS
330
47
102
}
330
47
100
AcDbScale
 70
     0
300
6" = 1'-0"
140
6.0
141
12.0
290
     0
  0
SCALE
  5
68
102
{ACAD_REACTORS
330
47
102
}
330
47
100
AcDbScale
 70
     0
300
1'-0" = 1'-0"
140
12.0
141
12.0
290
     0
  0
ENDSEC
  0
EOF
