  0
SECTION
  2
HEADER
  9
$ACADVER
  1
AC1015
  9
$ACADMAINTVER
 70
     6
  9
$DWGCODEPAGE
  3
ANSI_1252
  9
$INSBASE
 10
0.0
 20
0.0
 30
0.0
  9
$EXTMIN
 10
0.0
 20
0.0
 30
0.0
  9
$EXTMAX
 10
297.0
 20
210.0
 30
0.0
  9
$LIMMIN
 10
0.0
 20
0.0
  9
$LIMMAX
 10
297.0
 20
210.0
  9
$ORTHOMODE
 70
     0
  9
$REGENMODE
 70
     1
  9
$FILLMODE
 70
     1
  9
$QTEXTMODE
 70
     0
  9
$MIRRTEXT
 70
     1
  9
$LTSCALE
 40
1.0
  9
$ATTMODE
 70
     1
  9
$TEXTSIZE
 40
2.0
  9
$TRACEWID
 40
1.0
  9
$TEXTSTYLE
  7
Standard
  9
$CLAYER
  8
0
  9
$CELTYPE
  6
ByLayer
  9
$CECOLOR
 62
   256
  9
$CELTSCALE
 40
1.0
  9
$DISPSILH
 70
     0
  9
$DIMSCALE
 40
1.0
  9
$DIMASZ
 40
3.0
  9
$DIMEXO
 40
0.0
  9
$DIMDLI
 40
3.75
  9
$DIMRND
 40
0.0
  9
$DIMDLE
 40
0.0
  9
$DIMEXE
 40
1.0
  9
$DIMTP
 40
0.0
  9
$DIMTM
 40
0.0
  9
$DIMTXT
 40
2.0
  9
$DIMCEN
 40
2.5
  9
$DIMTSZ
 40
0.0
  9
$DIMTOL
 70
     0
  9
$DIMLIM
 70
     0
  9
$DIMTIH
 70
     1
  9
$DIMTOH
 70
     1
  9
$DIMSE1
 70
     0
  9
$DIMSE2
 70
     0
  9
$DIMTAD
 70
     1
  9
$DIMZIN
 70
     0
  9
$DIMBLK
  1

  9
$DIMASO
 70
     1
  9
$DIMSHO
 70
     1
  9
$DIMPOST
  1

  9
$DIMAPOST
  1

  9
$DIMALT
 70
     0
  9
$DIMALTD
 70
     3
  9
$DIMALTF
 40
0.0393700787
  9
$DIMLFAC
 40
1.0
  9
$DIMTOFL
 70
     1
  9
$DIMTVP
 40
0.0
  9
$DIMTIX
 70
     0
  9
$DIMSOXD
 70
     0
  9
$DIMSAH
 70
     0
  9
$DIMBLK1
  1

  9
$DIMBLK2
  1

  9
$DIMSTYLE
  2
ISO-25
  9
$DIMCLRD
 70
     0
  9
$DIMCLRE
 70
     0
  9
$DIMCLRT
 70
     0
  9
$DIMTFAC
 40
1.0
  9
$DIMGAP
 40
1.524
  9
$DIMJUST
 70
     0
  9
$DIMSD1
 70
     0
  9
$DIMSD2
 70
     0
  9
$DIMTOLJ
 70
     0
  9
$DIMTZIN
 70
     0
  9
$DIMALTZ
 70
     0
  9
$DIMALTTZ
 70
     0
  9
$DIMUPT
 70
     0
  9
$DIMDEC
 70
     2
  9
$DIMTDEC
 70
     3
  9
$DIMALTU
 70
     2
  9
$DIMALTTD
 70
     3
  9
$DIMTXSTY
  7
Standard
  9
$DIMAUNIT
 70
     0
  9
$DIMADEC
 70
     2
  9
$DIMALTRND
 40
0.0
  9
$DIMAZIN
 70
     0
  9
$DIMDSEP
 70
    44
  9
$DIMATFIT
 70
     3
  9
$DIMFRAC
 70
     0
  9
$DIMLDRBLK
  1

  9
$DIMLUNIT
 70
     2
  9
$DIMLWD
 70
    -2
  9
$DIMLWE
 70
    -2
  9
$DIMTMOVE
 70
     0
  9
$LUNITS
 70
     2
  9
$LUPREC
 70
     2
  9
$SKETCHINC
 40
1.0
  9
$FILLETRAD
 40
10.0
  9
$AUNITS
 70
     0
  9
$AUPREC
 70
     2
  9
$MENU
  1
.
  9
$ELEVATION
 40
0.0
  9
$PELEVATION
 40
0.0
  9
$THICKNESS
 40
0.0
  9
$LIMCHECK
 70
     0
  9
$CHAMFERA
 40
0.0
  9
$CHAMFERB
 40
0.0
  9
$CHAMFERC
 40
0.0
  9
$CHAMFERD
 40
0.0
  9
$SKPOLY
 70
     0
  9
$TDCREATE
 40
2457632.657907882
  9
$TDUCREATE
 40
2457632.574574549
  9
$TDUPDATE
 40
2457632.657910012
  9
$TDUUPDATE
 40
2457632.574576678
  9
$TDINDWG
 40
0.0000000116
  9
$TDUSRTIMER
 40
0.0000000116
  9
$USRTIMER
 70
     1
  9
$ANGBASE
 50
0.0
  9
$ANGDIR
 70
     0
  9
$PDMODE
 70
     0
  9
$PDSIZE
 40
-1.0
  9
$PLINEWID
 40
0.0
  9
$SPLFRAME
 70
     0
  9
$SPLINETYPE
 70
     6
  9
$SPLINESEGS
 70
     8
  9
$HANDSEED
  5
2BF
  9
$SURFTAB1
 70
     6
  9
$SURFTAB2
 70
     6
  9
$SURFTYPE
 70
     6
  9
$SURFU
 70
     6
  9
$SURFV
 70
     6
  9
$UCSBASE
  2

  9
$UCSNAME
  2

  9
$UCSORG
 10
0.0
 20
0.0
 30
0.0
  9
$UCSXDIR
 10
1.0
 20
0.0
 30
0.0
  9
$UCSYDIR
 10
0.0
 20
1.0
 30
0.0
  9
$UCSORTHOREF
  2

  9
$UCSORTHOVIEW
 70
     0
  9
$UCSORGTOP
 10
0.0
 20
0.0
 30
0.0
  9
$UCSORGBOTTOM
 10
0.0
 20
0.0
 30
0.0
  9
$UCSORGLEFT
 10
0.0
 20
0.0
 30
0.0
  9
$UCSORGRIGHT
 10
0.0
 20
0.0
 30
0.0
  9
$UCSORGFRONT
 10
0.0
 20
0.0
 30
0.0
  9
$UCSORGBACK
 10
0.0
 20
0.0
 30
0.0
  9
$PUCSBASE
  2

  9
$PUCSNAME
  2

  9
$PUCSORG
 10
0.0
 20
0.0
 30
0.0
  9
$PUCSXDIR
 10
1.0
 20
0.0
 30
0.0
  9
$PUCSYDIR
 10
0.0
 20
1.0
 30
0.0
  9
$PUCSORTHOREF
  2

  9
$PUCSORTHOVIEW
 70
     0
  9
$PUCSORGTOP
 10
0.0
 20
0.0
 30
0.0
  9
$PUCSORGBOTTOM
 10
0.0
 20
0.0
 30
0.0
  9
$PUCSORGLEFT
 10
0.0
 20
0.0
 30
0.0
  9
$PUCSORGRIGHT
 10
0.0
 20
0.0
 30
0.0
  9
$PUCSORGFRONT
 10
0.0
 20
0.0
 30
0.0
  9
$PUCSORGBACK
 10
0.0
 20
0.0
 30
0.0
  9
$USERI1
 70
     0
  9
$USERI2
 70
     0
  9
$USERI3
 70
     0
  9
$USERI4
 70
     0
  9
$USERI5
 70
     0
  9
$USERR1
 40
0.0
  9
$USERR2
 40
0.0
  9
$USERR3
 40
0.0
  9
$USERR4
 40
0.0
  9
$USERR5
 40
0.0
  9
$WORLDVIEW
 70
     1
  9
$SHADEDGE
 70
     3
  9
$SHADEDIF
 70
    70
  9
$TILEMODE
 70
     1
  9
$MAXACTVP
 70
    64
  9
$PINSBASE
 10
0.0
 20
0.0
 30
0.0
  9
$PLIMCHECK
 70
     0
  9
$PEXTMIN
 10
1.0000000000E+20
 20
1.0000000000E+20
 30
1.0000000000E+20
  9
$PEXTMAX
 10
-1.0000000000E+20
 20
-1.0000000000E+20
 30
-1.0000000000E+20
  9
$PLIMMIN
 10
0.0
 20
0.0
  9
$PLIMMAX
 10
420.0
 20
297.0
  9
$UNITMODE
 70
     0
  9
$VISRETAIN
 70
     1
  9
$PLINEGEN
 70
     0
  9
$PSLTSCALE
 70
     1
  9
$TREEDEPTH
 70
  3020
  9
$CMLSTYLE
  2
Standard
  9
$CMLJUST
 70
     0
  9
$CMLSCALE
 40
20.0
  9
$PROXYGRAPHICS
 70
     1
  9
$MEASUREMENT
 70
     1
  9
$CELWEIGHT
370
    -1
  9
$ENDCAPS
280
     0
  9
$JOINSTYLE
280
     0
  9
$LWDISPLAY
290
     1
  9
$INSUNITS
 70
     4
  9
$HYPERLINKBASE
  1

  9
$STYLESHEET
  1

  9
$XEDIT
290
     1
  9
$CEPSNTYPE
380
     0
  9
$PSTYLEMODE
290
     1
  9
$FINGERPRINTGUID
  2
{5563C36D-9806-45FE-BEEE-725994776320}
  9
$VERSIONGUID
  2
{FAEB1C32-E019-11D5-929B-00C0DF256EC4}
  9
$EXTNAMES
290
     1
  9
$PSVPSCALE
 40
0.0
  9
$OLESTARTUP
290
     0
  0
ENDSEC
  0
SECTION
  2
CLASSES
  0
CLASS
  1
ACDBDICTIONARYWDFLT
  2
AcDbDictionaryWithDefault
  3
ObjectDBX Classes
 90
        0
280
     0
281
     0
  0
CLASS
  1
VISUALSTYLE
  2
AcDbVisualStyle
  3
ObjectDBX Classes
 90
     4095
280
     0
281
     0
  0
CLASS
  1
MATERIAL
  2
AcDbMaterial
  3
ObjectDBX Classes
 90
     1153
280
     0
281
     0
  0
CLASS
  1
SCALE
  2
AcDbScale
  3
ObjectDBX Classes
 90
     1153
280
     0
281
     0
  0
CLASS
  1
TABLESTYLE
  2
AcDbTableStyle
  3
ObjectDBX Classes
 90
     4095
280
     0
281
     0
  0
CLASS
  1
MLEADERSTYLE
  2
AcDbMLeaderStyle
  3
ACDB_MLEADERSTYLE_CLASS
 90
     4095
280
     0
281
     0
  0
CLASS
  1
SUN
  2
AcDbSun
  3
SCENEOE
 90
     1153
280
     0
281
     0
  0
CLASS
  1
ACDBPLACEHOLDER
  2
AcDbPlaceHolder
  3
ObjectDBX Classes
 90
        0
280
     0
281
     0
  0
CLASS
  1
LAYOUT
  2
AcDbLayout
  3
ObjectDBX Classes
 90
        0
280
     0
281
     0
  0
ENDSEC
  0
SECTION
  2
TABLES
  0
TABLE
  2
VPORT
  5
8
330
0
100
AcDbSymbolTable
 70
     1
  0
VPORT
  5
29
330
8
100
AcDbSymbolTableRecord
100
AcDbViewportTableRecord
  2
*Active
 70
     0
 10
0.0
 20
0.0
 11
1.0
 21
1.0
 12
148.5
 22
105.0
 13
0.0
 23
0.0
 14
10.0
 24
10.0
 15
10.0
 25
10.0
 16
0.0
 26
0.0
 36
1.0
 17
0.0
 27
0.0
 37
0.0
 40
210.0
 41
1.4142857143
 42
50.0
 43
0.0
 44
0.0
 50
0.0
 51
0.0
 71
     0
 72
  2000
 73
     1
 74
     3
 75
     0
 76
     0
 77
     0
 78
     0
281
     0
 65
     1
110
0.0
120
0.0
130
0.0
111
1.0
121
0.0
131
0.0
112
0.0
122
1.0
132
0.0
 79
     0
146
0.0
  0
ENDTAB
  0
TABLE
  2
LTYPE
  5
5
330
0
100
AcDbSymbolTable
 70
     6
  0
LTYPE
  5
14
330
5
100
AcDbSymbolTableRecord
100
AcDbLinetypeTableRecord
  2
ByBlock
 70
     0
  3

 72
    65
 73
     0
 40
0.0
  0
LTYPE
  5
15
330
5
100
AcDbSymbolTableRecord
100
AcDbLinetypeTableRecord
  2
ByLayer
 70
     0
  3

 72
    65
 73
     0
 40
0.0
  0
LTYPE
  5
16
330
5
100
AcDbSymbolTableRecord
100
AcDbLinetypeTableRecord
  2
Continuous
 70
     0
  3
Solid line
 72
    65
 73
     0
 40
0.0
  0
LTYPE
  5
6E
330
5
100
AcDbSymbolTableRecord
100
AcDbLinetypeTableRecord
  2
HIDDEN
 70
     0
  3
Hidden __ __ __ __ __ __ __ __ __ __ __ __ __ __
 72
    65
 73
     2
 40
1.905
 49
1.27
 74
     0
 49
-0.635
 74
     0
  0
LTYPE
  5
6F
330
5
100
AcDbSymbolTableRecord
100
AcDbLinetypeTableRecord
  2
PHANTOM
 70
     0
  3
Phantom ______  __  __  ______  __  __  ______
 72
    65
 73
     6
 40
12.7
 49
6.35
 74
     0
 49
-1.27
 74
     0
 49
1.27
 74
     0
 49
-1.27
 74
     0
 49
1.27
 74
     0
 49
-1.27
 74
     0
  0
LTYPE
  5
70
330
5
100
AcDbSymbolTableRecord
100
AcDbLinetypeTableRecord
  2
CENTER
 70
     0
  3
Center ____ _ ____ _ ____ _ ____ _ ____ _ ____
 72
    65
 73
     4
 40
10.16
 49
6.35
 74
     0
 49
-1.27
 74
     0
 49
1.27
 74
     0
 49
-1.27
 74
     0
  0
LTYPE
  5
71
330
5
100
AcDbSymbolTableRecord
100
AcDbLinetypeTableRecord
  2
CENTERX2
 70
     0
  3
Center (2x) ________  __  ________  __  _____
 72
    65
 73
     4
 40
20.32
 49
12.7
 74
     0
 49
-2.54
 74
     0
 49
2.54
 74
     0
 49
-2.54
 74
     0
  0
LTYPE
  5
72
330
5
100
AcDbSymbolTableRecord
100
AcDbLinetypeTableRecord
  2
DOT2
 70
     0
  3
Dot (.5x) ........................................
 72
    65
 73
     2
 40
0.635
 49
0.0
 74
     0
 49
-0.635
 74
     0
  0
ENDTAB
  0
TABLE
  2
LAYER
  5
2
330
0
100
AcDbSymbolTable
 70
     5
  0
LAYER
  5
10
330
2
100
AcDbSymbolTableRecord
100
AcDbLayerTableRecord
  2
0
 70
     0
 62
     7
  6
Continuous
370
    -3
390
F
  0
LAYER
  5
73
330
2
100
AcDbSymbolTableRecord
100
AcDbLayerTableRecord
  2
FORMAT
 70
     0
 62
     7
  6
Continuous
370
    -3
390
F
  0
LAYER
  5
74
330
2
100
AcDbSymbolTableRecord
100
AcDbLayerTableRecord
  2
VERMASSUNG
 70
     0
 62
     7
  6
Continuous
370
    -3
390
F
  0
LAYER
  5
75
330
2
100
AcDbSymbolTableRecord
100
AcDbLayerTableRecord
  2
KOPF_DÜNN
 70
     0
 62
     7
  6
Continuous
370
    -3
390
F
  0
LAYER
  5
76
330
2
100
AcDbSymbolTableRecord
100
AcDbLayerTableRecord
  2
KOPF_DICK
 70
     0
 62
     7
  6
Continuous
370
    15
390
F
  0
ENDTAB
  0
TABLE
  2
STYLE
  5
3
330
0
100
AcDbSymbolTable
 70
     2
  0
STYLE
  5
11
330
3
100
AcDbSymbolTableRecord
100
AcDbTextStyleTableRecord
  2
Standard
 70
     0
 40
0.0
 41
1.0
 50
0.0
 71
     0
 42
2.0
  3
txt
  4

  0
STYLE
  5
77
330
3
100
AcDbSymbolTableRecord
100
AcDbTextStyleTableRecord
  2
SLDTEXTSTYLE0
 70
     0
 40
0.0
 41
0.7
 50
0.0
 71
     0
 42
2.0
  3
TXT
  4

  0
ENDTAB
  0
TABLE
  2
VIEW
  5
6
330
0
100
AcDbSymbolTable
 70
     0
  0
ENDTAB
  0
TABLE
  2
UCS
  5
7
330
0
100
AcDbSymbolTable
 70
     0
  0
ENDTAB
  0
TABLE
  2
APPID
  5
9
330
0
100
AcDbSymbolTable
 70
     1
  0
APPID
  5
12
330
9
100
AcDbSymbolTableRecord
100
AcDbRegAppTableRecord
  2
ACAD
 70
     0
  0
ENDTAB
  0
TABLE
  2
DIMSTYLE
  5
A
330
0
100
AcDbSymbolTable
 70
     3
100
AcDbDimStyleTable
  0
DIMSTYLE
105
27
330
A
100
AcDbSymbolTableRecord
100
AcDbDimStyleTableRecord
  2
ISO-25
 70
     0
 41
2.5
 42
0.625
 43
3.75
 44
1.25
 73
     0
 74
     0
 77
     1
 78
     8
140
2.5
141
2.5
143
0.0393700787
147
0.625
171
     3
172
     1
178
     0
271
     2
272
     2
274
     3
278
    44
283
     0
284
     8
340
11
  0
DIMSTYLE
105
19A
102
{ACAD_REACTORS
330
199
330
1A6
330
1B0
330
1BA
330
1C4
102
}
330
A
100
AcDbSymbolTableRecord
100
AcDbDimStyleTableRecord
  2
SLDDIMSTYLE0
 70
     0
 41
3.0
 44
0.0
 45
0.000000001
 73
     0
 74
     0
 77
     1
 78
    12
 79
     3
140
2.0
147
0.5
173
     1
178
     0
271
     2
272
     3
276
     2
284
    12
340
77
  0
DIMSTYLE
105
1D6
330
A
100
AcDbSymbolTableRecord
100
AcDbDimStyleTableRecord
  2
SLDDIMSTYLE1
 70
     0
 41
0.9
 44
0.0
 45
0.000000001
146
0.9
147
0.0
173
     1
178
     0
271
     0
272
     0
276
     2
340
11
341
1D7
343
1D7
344
1D7
  0
ENDTAB
  0
TABLE
  2
BLOCK_RECORD
  5
1
330
0
100
AcDbSymbolTable
 70
    10
  0
BLOCK_RECORD
  5
1F
330
1
100
AcDbSymbolTableRecord
100
AcDbBlockTableRecord
  2
*Model_Space
340
22
  0
BLOCK_RECORD
  5
1B
330
1
100
AcDbSymbolTableRecord
100
AcDbBlockTableRecord
  2
*Paper_Space
340
1E
  0
BLOCK_RECORD
  5
23
330
1
100
AcDbSymbolTableRecord
100
AcDbBlockTableRecord
  2
*Paper_Space0
340
26
  0
BLOCK_RECORD
  5
7D
330
1
100
AcDbSymbolTableRecord
100
AcDbBlockTableRecord
  2
SW_TABLEANNOTATION_0
340
0
102
{BLKREFS
331
98
102
}
  0
BLOCK_RECORD
  5
19B
330
1
100
AcDbSymbolTableRecord
100
AcDbBlockTableRecord
  2
_D
340
0
  0
BLOCK_RECORD
  5
1A7
330
1
100
AcDbSymbolTableRecord
100
AcDbBlockTableRecord
  2
_D_1
340
0
  0
BLOCK_RECORD
  5
1B1
330
1
100
AcDbSymbolTableRecord
100
AcDbBlockTableRecord
  2
_D_2
340
0
  0
BLOCK_RECORD
  5
1BB
330
1
100
AcDbSymbolTableRecord
100
AcDbBlockTableRecord
  2
_D_3
340
0
  0
BLOCK_RECORD
  5
1C5
330
1
100
AcDbSymbolTableRecord
100
AcDbBlockTableRecord
  2
_D_4
340
0
  0
BLOCK_RECORD
  5
1D0
330
1
100
AcDbSymbolTableRecord
100
AcDbBlockTableRecord
  2
SW_NOTE_0
340
0
102
{BLKREFS
331
1D5
102
}
  0
BLOCK_RECORD
  5
1D7
330
1
100
AcDbSymbolTableRecord
100
AcDbBlockTableRecord
  2
_DOT
340
0
  0
BLOCK_RECORD
  5
1E0
330
1
100
AcDbSymbolTableRecord
100
AcDbBlockTableRecord
  2
SW_NOTE_1
340
0
102
{BLKREFS
331
1E5
102
}
  0
ENDTAB
  0
ENDSEC
  0
SECTION
  2
BLOCKS
  0
BLOCK
  5
20
330
1F
100
AcDbEntity
  8
0
100
AcDbBlockBegin
  2
*Model_Space
 70
     0
 10
0.0
 20
0.0
 30
0.0
  3
*Model_Space
  1

  0
ENDBLK
  5
21
330
1F
100
AcDbEntity
  8
0
100
AcDbBlockEnd
  0
BLOCK
  5
1C
330
1B
100
AcDbEntity
 67
     1
  8
0
100
AcDbBlockBegin
  2
*Paper_Space
 70
     0
 10
0.0
 20
0.0
 30
0.0
  3
*Paper_Space
  1

  0
ENDBLK
  5
1D
330
1B
100
AcDbEntity
 67
     1
  8
0
100
AcDbBlockEnd
  0
BLOCK
  5
24
330
23
100
AcDbEntity
  8
0
100
AcDbBlockBegin
  2
*Paper_Space0
 70
     0
 10
0.0
 20
0.0
 30
0.0
  3
*Paper_Space0
  1

  0
ENDBLK
  5
25
330
23
100
AcDbEntity
  8
0
100
AcDbBlockEnd
  0
BLOCK
  5
7E
330
7D
100
AcDbEntity
  8
0
100
AcDbBlockBegin
  2
SW_TABLEANNOTATION_0
 70
     0
 10
0.0
 20
0.0
 30
0.0
  3
SW_TABLEANNOTATION_0
  1

  0
LINE
  5
80
330
7D
100
AcDbEntity
  8
0
  6
Continuous
 62
     0
370
     0
100
AcDbLine
 10
0.0
 20
0.0
 30
0.0
 11
0.0
 21
-10.9613963039
 31
0.0
  0
LINE
  5
81
330
7D
100
AcDbEntity
  8
0
  6
Continuous
 62
     0
370
     0
100
AcDbLine
 10
0.0
 20
-10.9613963039
 30
0.0
 11
125.0044361962
 21
-10.9613963039
 31
0.0
  0
LINE
  5
82
330
7D
100
AcDbEntity
  8
0
  6
Continuous
 62
     0
370
     0
100
AcDbLine
 10
125.0044361962
 20
-10.9613963039
 30
0.0
 11
125.0044361962
 21
0.0
 31
0.0
  0
LINE
  5
83
330
7D
100
AcDbEntity
  8
0
  6
Continuous
 62
     0
370
     0
100
AcDbLine
 10
125.0044361962
 20
0.0
 30
0.0
 11
0.0
 21
0.0
 31
0.0
  0
LINE
  5
84
330
7D
100
AcDbEntity
  8
0
  6
Continuous
 62
     0
370
     0
100
AcDbLine
 10
15.9651052694
 20
-7.3075975359
 30
0.0
 11
15.9651052694
 21
-10.9613963039
 31
0.0
  0
LINE
  5
85
330
7D
100
AcDbEntity
  8
0
  6
Continuous
 62
     0
370
     0
100
AcDbLine
 10
34.1012448998
 20
-7.3075975359
 30
0.0
 11
34.1012448998
 21
-10.9613963039
 31
0.0
  0
LINE
  5
86
330
7D
100
AcDbEntity
  8
0
  6
Continuous
 62
     0
370
     0
100
AcDbLine
 10
92.6586456418
 20
-7.3075975359
 30
0.0
 11
92.6586456418
 21
-10.9613963039
 31
0.0
  0
LINE
  5
87
330
7D
100
AcDbEntity
  8
0
  6
Continuous
 62
     0
370
     0
100
AcDbLine
 10
15.9651052694
 20
0.0
 30
0.0
 11
15.9651052694
 21
-7.3075975359
 31
0.0
  0
LINE
  5
88
330
7D
100
AcDbEntity
  8
0
  6
Continuous
 62
     0
370
     0
100
AcDbLine
 10
34.1012448998
 20
0.0
 30
0.0
 11
34.1012448998
 21
-7.3075975359
 31
0.0
  0
LINE
  5
89
330
7D
100
AcDbEntity
  8
0
  6
Continuous
 62
     0
370
     0
100
AcDbLine
 10
92.6586456418
 20
0.0
 30
0.0
 11
92.6586456418
 21
-7.3075975359
 31
0.0
  0
LINE
  5
8A
330
7D
100
AcDbEntity
  8
0
  6
Continuous
 62
     0
370
     0
100
AcDbLine
 10
0.0
 20
-3.653798768
 30
0.0
 11
125.0044361962
 21
-3.653798768
 31
0.0
  0
LINE
  5
8B
330
7D
100
AcDbEntity
  8
0
  6
Continuous
 62
     0
370
     0
100
AcDbLine
 10
0.0
 20
-7.3075975359
 30
0.0
 11
125.0044361962
 21
-7.3075975359
 31
0.0
  0
MTEXT
  5
8C
330
7D
100
AcDbEntity
  8
0
  6
Continuous
 62
     0
370
     0
100
AcDbMText
 10
5.2825527975
 20
-7.9563615651
 30
0.0
 40
2.0
 41
0.0
 71
     1
 72
     1
  1
POS.
  7
SLDTEXTSTYLE0
 73
     1
 44
1.0
  0
MTEXT
  5
8D
330
7D
100
AcDbEntity
  8
0
  6
Continuous
 62
     0
370
     0
100
AcDbMText
 10
21.1331751904
 20
-7.9563615651
 30
0.0
 40
2.0
 41
0.0
 71
     1
 72
     1
  1
MENGE
  7
SLDTEXTSTYLE0
 73
     1
 44
1.0
  0
MTEXT
  5
8E
330
7D
100
AcDbEntity
  8
0
  6
Continuous
 62
     0
370
     0
100
AcDbMText
 10
56.0799464956
 20
-7.9563615651
 30
0.0
 40
2.0
 41
0.0
 71
     1
 72
     1
  1
Bezeichnung
  7
SLDTEXTSTYLE0
 73
     1
 44
1.0
  0
MTEXT
  5
8F
330
7D
100
AcDbEntity
  8
0
  6
Continuous
 62
     0
370
     0
100
AcDbMText
 10
97.7315420798
 20
-7.9563615651
 30
0.0
 40
2.0
 41
0.0
 71
     1
 72
     1
  1
Zeichnungsnummer
  7
SLDTEXTSTYLE0
 73
     1
 44
1.0
  0
MTEXT
  5
90
330
7D
100
AcDbEntity
  8
0
  6
Continuous
 62
     0
370
     0
100
AcDbMText
 10
7.2825526596
 20
-0.9171773494
 30
0.0
 40
2.0
 41
0.0
 71
     1
 72
     1
  1
2
  7
SLDTEXTSTYLE0
 73
     1
 44
1.0
  0
MTEXT
  5
91
330
7D
100
AcDbEntity
  8
0
  6
Continuous
 62
     0
370
     0
100
AcDbMText
 10
24.5331750608
 20
-0.9171773494
 30
0.0
 40
2.0
 41
0.0
 71
     1
 72
     1
  1
1
  7
SLDTEXTSTYLE0
 73
     1
 44
1.0
  0
MTEXT
  5
92
330
7D
100
AcDbEntity
  8
0
  6
Continuous
 62
     0
370
     0
100
AcDbMText
 10
54.2799467594
 20
-0.9171773494
 30
0.0
 40
2.0
 41
0.0
 71
     1
 72
     1
  1
Klemmschraube
  7
SLDTEXTSTYLE0
 73
     1
 44
1.0
  0
MTEXT
  5
93
330
7D
100
AcDbEntity
  8
0
  6
Continuous
 62
     0
370
     0
100
AcDbMText
 10
99.3315412244
 20
-0.9171773494
 30
0.0
 40
2.0
 41
0.0
 71
     1
 72
     1
  1
MB5-ER1.001.017
  7
SLDTEXTSTYLE0
 73
     1
 44
1.0
  0
MTEXT
  5
94
330
7D
100
AcDbEntity
  8
0
  6
Continuous
 62
     0
370
     0
100
AcDbMText
 10
7.4825526109
 20
-4.5709761174
 30
0.0
 40
2.0
 41
0.0
 71
     1
 72
     1
  1
1
  7
SLDTEXTSTYLE0
 73
     1
 44
1.0
  0
MTEXT
  5
95
330
7D
100
AcDbEntity
  8
0
  6
Continuous
 62
     0
370
     0
100
AcDbMText
 10
24.5331750608
 20
-4.5709761174
 30
0.0
 40
2.0
 41
0.0
 71
     1
 72
     1
  1
1
  7
SLDTEXTSTYLE0
 73
     1
 44
1.0
  0
MTEXT
  5
96
330
7D
100
AcDbEntity
  8
0
  6
Continuous
 62
     0
370
     0
100
AcDbMText
 10
54.2799448967
 20
-4.5709761174
 30
0.0
 40
2.0
 41
0.0
 71
     1
 72
     1
  1
Aufnahme MBM
  7
SLDTEXTSTYLE0
 73
     1
 44
1.0
  0
MTEXT
  5
97
330
7D
100
AcDbEntity
  8
0
  6
Continuous
 62
     0
370
     0
100
AcDbMText
 10
98.8315411425
 20
-4.5709761174
 30
0.0
 40
2.0
 41
0.0
 71
     1
 72
     1
  1
HA6-MB5.K01.100
  7
SLDTEXTSTYLE0
 73
     1
 44
1.0
  0
ENDBLK
  5
7F
330
7D
100
AcDbEntity
  8
0
100
AcDbBlockEnd
  0
BLOCK
  5
19C
330
19B
100
AcDbEntity
  8
0
100
AcDbBlockBegin
  2
_D
 70
     0
 10
0.0
 20
0.0
 30
0.0
  3
_D
  1

  0
SOLID
  5
19E
330
19B
100
AcDbEntity
  8
VERMASSUNG
100
AcDbTrace
 10
76.2219672163
 20
145.580526548
 30
0.0
 11
75.7719672163
 21
142.580526548
 31
0.0
 12
76.6719672163
 22
142.580526548
 32
0.0
 13
76.6719672163
 23
142.580526548
 33
0.0
  0
SOLID
  5
19F
330
19B
100
AcDbEntity
  8
VERMASSUNG
100
AcDbTrace
 10
76.2219672163
 20
82.580526548
 30
0.0
 11
76.6719672163
 21
85.580526548
 31
0.0
 12
75.7719672163
 22
85.580526548
 32
0.0
 13
75.7719672163
 23
85.580526548
 33
0.0
  0
LINE
  5
1A0
330
19B
100
AcDbEntity
  8
VERMASSUNG
100
AcDbLine
 10
114.0002478219
 20
145.580526548
 30
0.0
 11
75.2219672163
 21
145.580526548
 31
0.0
  0
LINE
  5
1A1
330
19B
100
AcDbEntity
  8
VERMASSUNG
100
AcDbLine
 10
114.0002478219
 20
82.580526548
 30
0.0
 11
75.2219672163
 21
82.580526548
 31
0.0
  0
LINE
  5
1A2
330
19B
100
AcDbEntity
  8
VERMASSUNG
100
AcDbLine
 10
76.2219672163
 20
145.580526548
 30
0.0
 11
76.2219672163
 21
82.580526548
 31
0.0
  0
MTEXT
  5
1A3
330
19B
100
AcDbEntity
  8
VERMASSUNG
100
AcDbMText
 10
73.44383196
 20
105.7087413219
 30
0.0
 40
2.0
 41
0.0
 71
     1
 72
     1
  1
HSK A
  7
SLDTEXTSTYLE0
 11
-7.044195017643634E-15
 21
1.0
 31
0.0
 73
     1
 44
1.0
  0
MTEXT
  5
1A4
330
19B
100
AcDbEntity
  8
VERMASSUNG
100
AcDbMText
 10
73.6438319113
 20
114.7087409344
 30
0.0
 40
2.0
 41
0.0
 71
     1
 72
     1
  1
%%c
  7
SLDTEXTSTYLE0
 11
-7.044195017643634E-15
 21
1.0
 31
0.0
 73
     1
 44
1.0
  0
MTEXT
  5
1A5
330
19B
100
AcDbEntity
  8
VERMASSUNG
100
AcDbMText
 10
73.6438316203
 20
118.3180842673
 30
0.0
 40
2.0
 41
0.0
 71
     1
 72
     1
  1
63
  7
SLDTEXTSTYLE0
 11
-7.044195017643634E-15
 21
1.0
 31
0.0
 73
     1
 44
1.0
  0
ENDBLK
  5
19D
330
19B
100
AcDbEntity
  8
0
100
AcDbBlockEnd
  0
BLOCK
  5
1A8
330
1A7
100
AcDbEntity
  8
0
100
AcDbBlockBegin
  2
_D_1
 70
     0
 10
0.0
 20
0.0
 30
0.0
  3
_D_1
  1

  0
SOLID
  5
1AA
330
1A7
100
AcDbEntity
  8
VERMASSUNG
100
AcDbTrace
 10
213.7002478219
 20
159.241140378
 30
0.0
 11
210.7002478219
 21
159.691140378
 31
0.0
 12
210.7002478219
 22
158.791140378
 32
0.0
 13
210.7002478219
 23
158.791140378
 33
0.0
  0
SOLID
  5
1AB
330
1A7
100
AcDbEntity
  8
VERMASSUNG
100
AcDbTrace
 10
113.7002478219
 20
159.241140378
 30
0.0
 11
116.7002478219
 21
158.791140378
 31
0.0
 12
116.7002478219
 22
159.691140378
 32
0.0
 13
116.7002478219
 23
159.691140378
 33
0.0
  0
LINE
  5
1AC
330
1A7
100
AcDbEntity
  8
VERMASSUNG
100
AcDbLine
 10
213.7002478219
 20
141.180526548
 30
0.0
 11
213.7002478219
 21
160.241140378
 31
0.0
  0
LINE
  5
1AD
330
1A7
100
AcDbEntity
  8
VERMASSUNG
100
AcDbLine
 10
113.7002478219
 20
145.280526548
 30
0.0
 11
113.7002478219
 21
160.241140378
 31
0.0
  0
LINE
  5
1AE
330
1A7
100
AcDbEntity
  8
VERMASSUNG
100
AcDbLine
 10
213.7002478219
 20
159.241140378
 30
0.0
 11
113.7002478219
 21
159.241140378
 31
0.0
  0
MTEXT
  5
1AF
330
1A7
100
AcDbEntity
  8
VERMASSUNG
100
AcDbMText
 10
158.1493885857
 20
161.8192759739
 30
0.0
 40
2.0
 41
0.0
 71
     1
 72
     1
  1
100
  7
SLDTEXTSTYLE0
 73
     1
 44
1.0
  0
ENDBLK
  5
1A9
330
1A7
100
AcDbEntity
  8
0
100
AcDbBlockEnd
  0
BLOCK
  5
1B2
330
1B1
100
AcDbEntity
  8
0
100
AcDbBlockBegin
  2
_D_2
 70
     0
 10
0.0
 20
0.0
 30
0.0
  3
_D_2
  1

  0
SOLID
  5
1B4
330
1B1
100
AcDbEntity
  8
VERMASSUNG
100
AcDbTrace
 10
213.7002478219
 20
153.241140378
 30
0.0
 11
210.7002478219
 21
153.691140378
 31
0.0
 12
210.7002478219
 22
152.791140378
 32
0.0
 13
210.7002478219
 23
152.791140378
 33
0.0
  0
SOLID
  5
1B5
330
1B1
100
AcDbEntity
  8
VERMASSUNG
100
AcDbTrace
 10
139.6502478219
 20
153.241140378
 30
0.0
 11
142.6502478219
 21
152.791140378
 31
0.0
 12
142.6502478219
 22
153.691140378
 32
0.0
 13
142.6502478219
 23
153.691140378
 33
0.0
  0
LINE
  5
1B6
330
1B1
100
AcDbEntity
  8
VERMASSUNG
100
AcDbLine
 10
213.7002478219
 20
141.180526548
 30
0.0
 11
213.7002478219
 21
154.241140378
 31
0.0
  0
LINE
  5
1B7
330
1B1
100
AcDbEntity
  8
VERMASSUNG
100
AcDbLine
 10
139.6502478219
 20
143.9269668718
 30
0.0
 11
139.6502478219
 21
154.241140378
 31
0.0
  0
LINE
  5
1B8
330
1B1
100
AcDbEntity
  8
VERMASSUNG
100
AcDbLine
 10
213.7002478219
 20
153.241140378
 30
0.0
 11
139.6502478219
 21
153.241140378
 31
0.0
  0
MTEXT
  5
1B9
330
1B1
100
AcDbEntity
  8
VERMASSUNG
100
AcDbMText
 10
177.5005337902
 20
155.8192759739
 30
0.0
 40
2.0
 41
0.0
 71
     1
 72
     1
  1
74.05
  7
SLDTEXTSTYLE0
 73
     1
 44
1.0
  0
ENDBLK
  5
1B3
330
1B1
100
AcDbEntity
  8
0
100
AcDbBlockEnd
  0
BLOCK
  5
1BC
330
1BB
100
AcDbEntity
  8
0
100
AcDbBlockBegin
  2
_D_3
 70
     0
 10
0.0
 20
0.0
 30
0.0
  3
_D_3
  1

  0
SOLID
  5
1BE
330
1BB
100
AcDbEntity
  8
VERMASSUNG
100
AcDbTrace
 10
213.7002478219
 20
165.241140378
 30
0.0
 11
210.7002478219
 21
165.691140378
 31
0.0
 12
210.7002478219
 22
164.791140378
 32
0.0
 13
210.7002478219
 23
164.791140378
 33
0.0
  0
SOLID
  5
1BF
330
1BB
100
AcDbEntity
  8
VERMASSUNG
100
AcDbTrace
 10
81.8002478219
 20
165.241140378
 30
0.0
 11
84.8002478219
 21
164.791140378
 31
0.0
 12
84.8002478219
 22
165.691140378
 32
0.0
 13
84.8002478219
 23
165.691140378
 33
0.0
  0
LINE
  5
1C0
330
1BB
100
AcDbEntity
  8
VERMASSUNG
100
AcDbLine
 10
213.7002478219
 20
141.180526548
 30
0.0
 11
213.7002478219
 21
166.241140378
 31
0.0
  0
LINE
  5
1C1
330
1BB
100
AcDbEntity
  8
VERMASSUNG
100
AcDbLine
 10
81.8002478219
 20
133.7712042945
 30
0.0
 11
81.8002478219
 21
166.241140378
 31
0.0
  0
LINE
  5
1C2
330
1BB
100
AcDbEntity
  8
VERMASSUNG
100
AcDbLine
 10
213.7002478219
 20
165.241140378
 30
0.0
 11
81.8002478219
 21
165.241140378
 31
0.0
  0
MTEXT
  5
1C3
330
1BB
100
AcDbEntity
  8
VERMASSUNG
100
AcDbMText
 10
148.6654851446
 20
167.8192759739
 30
0.0
 40
2.0
 41
0.0
 71
     1
 72
     1
  1
131.9
  7
SLDTEXTSTYLE0
 73
     1
 44
1.0
  0
ENDBLK
  5
1BD
330
1BB
100
AcDbEntity
  8
0
100
AcDbBlockEnd
  0
BLOCK
  5
1C6
330
1C5
100
AcDbEntity
  8
0
100
AcDbBlockBegin
  2
_D_4
 70
     0
 10
0.0
 20
0.0
 30
0.0
  3
_D_4
  1

  0
SOLID
  5
1C8
330
1C5
100
AcDbEntity
  8
VERMASSUNG
100
AcDbTrace
 10
221.7792044692
 20
86.580526548
 30
0.0
 11
222.2292044692
 21
89.580526548
 31
0.0
 12
221.3292044692
 22
89.580526548
 32
0.0
 13
221.3292044692
 23
89.580526548
 33
0.0
  0
SOLID
  5
1C9
330
1C5
100
AcDbEntity
  8
VERMASSUNG
100
AcDbTrace
 10
221.7792044692
 20
141.580526548
 30
0.0
 11
221.3292044692
 21
138.580526548
 31
0.0
 12
222.2292044692
 22
138.580526548
 32
0.0
 13
222.2292044692
 23
138.580526548
 33
0.0
  0
LINE
  5
1CA
330
1C5
100
AcDbEntity
  8
VERMASSUNG
100
AcDbLine
 10
213.3002478219
 20
86.580526548
 30
0.0
 11
222.7792044692
 21
86.580526548
 31
0.0
  0
LINE
  5
1CB
330
1C5
100
AcDbEntity
  8
VERMASSUNG
100
AcDbLine
 10
213.3002478219
 20
141.580526548
 30
0.0
 11
222.7792044692
 21
141.580526548
 31
0.0
  0
LINE
  5
1CC
330
1C5
100
AcDbEntity
  8
VERMASSUNG
100
AcDbLine
 10
221.7792044692
 20
86.580526548
 30
0.0
 11
221.7792044692
 21
141.580526548
 31
0.0
  0
MTEXT
  5
1CD
330
1C5
100
AcDbEntity
  8
VERMASSUNG
100
AcDbMText
 10
219.001069213
 20
109.0718097725
 30
0.0
 40
2.0
 41
0.0
 71
     1
 72
     1
  1
MBM
  7
SLDTEXTSTYLE0
 11
6.123233995736766E-17
 21
1.0
 31
0.0
 73
     1
 44
1.0
  0
MTEXT
  5
1CE
330
1C5
100
AcDbEntity
  8
VERMASSUNG
100
AcDbMText
 10
219.2010691643
 20
115.4718096108
 30
0.0
 40
2.0
 41
0.0
 71
     1
 72
     1
  1
%%c
  7
SLDTEXTSTYLE0
 11
6.123233995736766E-17
 21
1.0
 31
0.0
 73
     1
 44
1.0
  0
MTEXT
  5
1CF
330
1C5
100
AcDbEntity
  8
VERMASSUNG
100
AcDbMText
 10
219.2010688732
 20
119.0803102874
 30
0.0
 40
2.0
 41
0.0
 71
     1
 72
     1
  1
55
  7
SLDTEXTSTYLE0
 11
6.123233995736766E-17
 21
1.0
 31
0.0
 73
     1
 44
1.0
  0
ENDBLK
  5
1C7
330
1C5
100
AcDbEntity
  8
0
100
AcDbBlockEnd
  0
BLOCK
  5
1D1
330
1D0
100
AcDbEntity
  8
0
100
AcDbBlockBegin
  2
SW_NOTE_0
 70
     0
 10
0.0
 20
0.0
 30
0.0
  3
SW_NOTE_0
  1

  0
CIRCLE
  5
1D3
330
1D0
100
AcDbEntity
  8
VERMASSUNG
 62
     0
100
AcDbCircle
 10
0.0
 20
-2.5028270988
 30
0.0
 40
2.502827098762126
  0
MTEXT
  5
1D4
330
1D0
100
AcDbEntity
  8
VERMASSUNG
 62
     0
100
AcDbMText
 10
-0.0000000237
 20
-1.8101961014
 30
0.0
 40
2.0
 41
0.0
 71
     2
 72
     1
  1
1
  7
SLDTEXTSTYLE0
 73
     1
 44
1.0
  0
ENDBLK
  5
1D2
330
1D0
100
AcDbEntity
  8
0
100
AcDbBlockEnd
  0
BLOCK
  5
1D8
330
1D7
100
AcDbEntity
  8
0
100
AcDbBlockBegin
  2
_DOT
 70
     0
 10
0.0
 20
0.0
 30
0.0
  3
_DOT
  1

  0
POLYLINE
  5
1DA
330
1D7
100
AcDbEntity
  8
0
  6
ByBlock
 62
     0
100
AcDb2dPolyline
 66
     1
 10
0.0
 20
0.0
 30
0.0
 70
     1
 40
0.5
 41
0.5
  0
VERTEX
  5
1DC
330
1DA
100
AcDbEntity
  8
0
  6
ByBlock
 62
     0
100
AcDbVertex
100
AcDb2dVertex
 10
-0.25
 20
0.0
 30
0.0
 42
1.0
  0
VERTEX
  5
1DD
330
1DA
100
AcDbEntity
  8
0
  6
ByBlock
 62
     0
100
AcDbVertex
100
AcDb2dVertex
 10
0.25
 20
0.0
 30
0.0
 42
1.0
  0
SEQEND
  5
1DE
330
1DA
100
AcDbEntity
  8
0
  6
ByBlock
 62
     0
  0
LINE
  5
1DB
330
1D7
100
AcDbEntity
  8
0
  6
ByBlock
 62
     0
370
    -2
100
AcDbLine
 10
-0.5
 20
0.0
 30
0.0
 11
-1.0
 21
0.0
 31
0.0
  0
ENDBLK
  5
1D9
330
1D7
100
AcDbEntity
  8
0
100
AcDbBlockEnd
  0
BLOCK
  5
1E1
330
1E0
100
AcDbEntity
  8
0
100
AcDbBlockBegin
  2
SW_NOTE_1
 70
     0
 10
0.0
 20
0.0
 30
0.0
  3
SW_NOTE_1
  1

  0
CIRCLE
  5
1E3
330
1E0
100
AcDbEntity
  8
VERMASSUNG
 62
     0
100
AcDbCircle
 10
0.0
 20
-2.5028270988
 30
0.0
 40
2.502827098762126
  0
MTEXT
  5
1E4
330
1E0
100
AcDbEntity
  8
VERMASSUNG
 62
     0
100
AcDbMText
 10
-0.012499975
 20
-1.8101961014
 30
0.0
 40
2.0
 41
0.0
 71
     2
 72
     1
  1
2
  7
SLDTEXTSTYLE0
 73
     1
 44
1.0
  0
ENDBLK
  5
1E2
330
1E0
100
AcDbEntity
  8
0
100
AcDbBlockEnd
  0
ENDSEC
  0
SECTION
  2
ENTITIES
  0
MTEXT
  5
78
330
1F
100
AcDbEntity
  8
KOPF_DÜNN
100
AcDbMText
 10
13.8892156294
 20
23.8442973028
 30
0.0
 40
3.0
 41
0.0
 71
     1
 72
     1
  1
102.063.552
  7
SLDTEXTSTYLE0
 73
     1
 44
1.0
  0
MTEXT
  5
79
330
1F
100
AcDbEntity
  8
VERMASSUNG
100
AcDbMText
 10
13.9329988022
 20
28.8834360957
 30
0.0
 40
3.0
 41
0.0
 71
     1
 72
     1
  1
Aufnahme
  7
SLDTEXTSTYLE0
 73
     1
 44
1.0
  0
MTEXT
  5
7A
330
1F
100
AcDbEntity
  8
VERMASSUNG
100
AcDbMText
 10
98.8601118557
 20
13.8365368761
 30
0.0
 40
2.0
 41
0.0
 71
     1
 72
     1
  1
Datum: 08.12.2006
  7
SLDTEXTSTYLE0
 73
     1
 44
1.0
  0
MTEXT
  5
7B
330
1F
100
AcDbEntity
  8
VERMASSUNG
100
AcDbMText
 10
13.933048693
 20
18.0482802738
 30
0.0
 40
2.0
 41
0.0
 71
     1
 72
     1
  1
HSK-A63 / MBM ø55
  7
SLDTEXTSTYLE0
 73
     1
 44
1.0
  0
MTEXT
  5
7C
330
1F
100
AcDbEntity
  8
VERMASSUNG
100
AcDbMText
 10
13.9808475933
 20
13.9090974274
 30
0.0
 40
2.0
 41
0.0
 71
     1
 72
     1
  1
Gewicht: 1774g
  7
SLDTEXTSTYLE0
 73
     1
 44
1.0
  0
INSERT
  5
98
330
1F
100
AcDbEntity
  8
0
  6
Continuous
 62
     7
370
     0
100
AcDbBlockReference
  2
SW_TABLEANNOTATION_0
 10
155.4069348624
 20
22.9491325334
 30
0.0
  0
LINE
  5
99
330
1F
100
AcDbEntity
  8
0
  6
Continuous
 62
     7
370
    15
100
AcDbLine
 10
114.0002478219
 20
82.580526548
 30
0.0
 11
118.6502478219
 21
82.580526548
 31
0.0
  0
LINE
  5
9A
330
1F
100
AcDbEntity
  8
0
  6
Continuous
 62
     7
370
    15
100
AcDbLine
 10
118.678236181
 20
145.580526548
 30
0.0
 11
114.0002478219
 21
145.580526548
 31
0.0
  0
ARC
  5
9B
330
1F
100
AcDbEntity
  8
0
  6
Continuous
 62
     7
370
    15
100
AcDbCircle
 10
114.0002478219
 20
82.880526548
 30
0.0
 40
0.3000000000000114
100
AcDbArc
 50
180.0
 51
270.0
  0
ARC
  5
9C
330
1F
100
AcDbEntity
  8
0
  6
Continuous
 62
     7
370
    15
100
AcDbCircle
 10
114.0002478219
 20
145.280526548
 30
0.0
 40
0.3000000000000114
100
AcDbArc
 50
90.0
 51
180.0
  0
LINE
  5
9D
330
1F
100
AcDbEntity
  8
0
  6
Continuous
 62
     7
370
    15
100
AcDbLine
 10
156.6684936585
 20
86.580526548
 30
0.0
 11
213.3002478219
 21
86.580526548
 31
0.0
  0
LINE
  5
9E
330
1F
100
AcDbEntity
  8
0
  6
Continuous
 62
     7
370
    15
100
AcDbLine
 10
213.3002478219
 20
141.580526548
 30
0.0
 11
156.6684936585
 21
141.580526548
 31
0.0
  0
ARC
  5
9F
330
1F
100
AcDbEntity
  8
0
  6
Continuous
 62
     7
370
    15
100
AcDbCircle
 10
213.3002478219
 20
86.980526548
 30
0.0
 40
0.4000000000000199
100
AcDbArc
 50
270.0
 51
0.0
  0
ARC
  5
A0
330
1F
100
AcDbEntity
  8
0
  6
Continuous
 62
     7
370
    15
100
AcDbCircle
 10
213.3002478219
 20
141.180526548
 30
0.0
 40
0.4000000000000057
100
AcDbArc
 50
0.0
 51
90.0
  0
ARC
  5
A1
330
1F
100
AcDbEntity
  8
0
  6
Continuous
 62
     7
370
    15
100
AcDbCircle
 10
156.6684936585
 20
87.580526548
 30
0.0
 40
1.000000000000008
100
AcDbArc
 50
194.4775121859
 51
270.0
  0
ARC
  5
A2
330
1F
100
AcDbEntity
  8
0
  6
Continuous
 62
     7
370
    15
100
AcDbCircle
 10
156.6684936585
 20
140.580526548
 30
0.0
 40
1.000000000000004
100
AcDbArc
 50
90.0
 51
165.5224878141
  0
ARC
  5
A3
330
1F
100
AcDbEntity
  8
0
  6
Continuous
 62
     7
370
    15
100
AcDbCircle
 10
140.6502478219
 20
87.080526548
 30
0.0
 40
1.0
100
AcDbArc
 50
90.0
 51
143.1139143113
  0
ARC
  5
A4
330
1F
100
AcDbEntity
  8
0
  6
Continuous
 62
     7
370
    15
100
AcDbCircle
 10
140.6502478219
 20
141.080526548
 30
0.0
 40
1.0
100
AcDbArc
 50
216.9027065592
 51
270.0
  0
ARC
  5
A5
330
1F
100
AcDbEntity
  8
0
  6
Continuous
 62
     7
370
    15
100
AcDbCircle
 10
154.7320019854
 20
87.080526548
 30
0.0
 40
1.0
100
AcDbArc
 50
14.4775121859
 51
90.0
  0
ARC
  5
A6
330
1F
100
AcDbEntity
  8
0
  6
Continuous
 62
     7
370
    15
100
AcDbCircle
 10
154.7320019854
 20
141.080526548
 30
0.0
 40
1.000000000000004
100
AcDbArc
 50
270.0
 51
345.5224878141
  0
LINE
  5
A7
330
1F
100
AcDbEntity
  8
0
  6
Continuous
 62
     7
370
    15
100
AcDbLine
 10
140.6502478219
 20
88.080526548
 30
0.0
 11
154.7320019854
 21
88.080526548
 31
0.0
  0
LINE
  5
A8
330
1F
100
AcDbEntity
  8
0
  6
Continuous
 62
     7
370
    15
100
AcDbLine
 10
154.7320019854
 20
140.080526548
 30
0.0
 11
140.6502478219
 21
140.080526548
 31
0.0
  0
ARC
  5
A9
330
1F
100
AcDbEntity
  8
0
  6
Continuous
 62
     7
370
    15
100
AcDbCircle
 10
113.2002410693
 20
89.5150989537
 30
0.0
 40
0.6000067526677164
100
AcDbArc
 50
33.5571153394
 51
90.0
  0
ARC
  5
AA
330
1F
100
AcDbEntity
  8
0
  6
Continuous
 62
     7
370
    15
100
AcDbCircle
 10
113.2002410693
 20
138.6459541424
 30
0.0
 40
0.6000067526677242
100
AcDbArc
 50
270.0
 51
326.4428846606
  0
LINE
  5
AB
330
1F
100
AcDbEntity
  8
0
  6
Continuous
 62
     7
370
    15
100
AcDbLine
 10
111.6844954886
 20
89.8608848813
 30
0.0
 11
112.5569605953
 21
90.0946612021
 31
0.0
  0
LINE
  5
AC
330
1F
100
AcDbEntity
  8
0
  6
Continuous
 62
     7
370
    15
100
AcDbLine
 10
112.5569605953
 20
138.0663918939
 30
0.0
 11
111.6844954886
 21
138.3001682147
 31
0.0
  0
LINE
  5
AD
330
1F
100
AcDbEntity
  8
0
  6
Continuous
 62
     7
370
    15
100
AcDbLine
 10
100.4687379865
 20
137.7382565162
 30
0.0
 11
87.9002478219
 21
137.1085726402
 31
0.0
  0
LINE
  5
AE
330
1F
100
AcDbEntity
  8
0
  6
Continuous
 62
     7
370
    15
100
AcDbLine
 10
111.6844954886
 20
138.3001682147
 30
0.0
 11
108.883247271
 21
138.1598251176
 31
0.0
  0
LINE
  5
AF
330
1F
100
AcDbEntity
  8
0
  6
Continuous
 62
     7
370
    15
100
AcDbLine
 10
108.8833033511
 20
90.0012251688
 30
0.0
 11
111.6844954886
 21
89.8608848813
 31
0.0
  0
LINE
  5
B0
330
1F
100
AcDbEntity
  8
0
  6
Continuous
 62
     7
370
    15
100
AcDbLine
 10
91.9002478219
 20
90.8520796542
 30
0.0
 11
100.4691404944
 21
90.4227764141
 31
0.0
  0
ARC
  5
B1
330
1F
100
AcDbEntity
  8
0
  6
Continuous
 62
     7
370
    15
100
AcDbCircle
 10
112.7122520224
 20
89.5151057063
 30
0.0
 40
0.6000000000000109
100
AcDbArc
 50
90.0
 51
105.0
  0
ARC
  5
B2
330
1F
100
AcDbEntity
  8
0
  6
Continuous
 62
     7
370
    15
100
AcDbCircle
 10
112.7122520224
 20
138.6459473897
 30
0.0
 40
0.5999999999999971
100
AcDbArc
 50
255.0
 51
270.0
  0
LINE
  5
B3
330
1F
100
AcDbEntity
  8
0
  6
Continuous
 62
     7
370
    15
100
AcDbLine
 10
112.7122520224
 20
90.1151057063
 30
0.0
 11
113.2002410693
 21
90.1151057063
 31
0.0
  0
LINE
  5
B4
330
1F
100
AcDbEntity
  8
0
  6
Continuous
 62
     7
370
    15
100
AcDbLine
 10
113.2002410693
 20
138.0459473897
 30
0.0
 11
112.7122520224
 21
138.0459473897
 31
0.0
  0
LINE
  5
B5
330
1F
100
AcDbEntity
  8
0
  6
Continuous
 62
     7
370
    15
100
AcDbLine
 10
83.0835844619
 20
93.210526548
 30
0.0
 11
90.5002478219
 21
93.210526548
 31
0.0
  0
ARC
  5
B6
330
1F
100
AcDbEntity
  8
0
  6
Continuous
 62
     7
370
    15
100
AcDbCircle
 10
90.5002478219
 20
91.810526548
 30
0.0
 40
1.399999999999997
100
AcDbArc
 50
42.2465410162
 51
90.0
  0
LINE
  5
B7
330
1F
100
AcDbEntity
  8
0
  6
Continuous
 62
     7
370
    15
100
AcDbLine
 10
81.811408257
 20
94.3493661129
 30
0.0
 11
82.9414112801
 21
93.2193630898
 31
0.0
  0
LINE
  5
B8
330
1F
100
AcDbEntity
  8
0
  6
Continuous
 62
     7
370
    15
100
AcDbLine
 10
82.9414112801
 20
134.9416900062
 30
0.0
 11
81.8114154411
 21
133.8116941672
 31
0.0
  0
ARC
  5
B9
330
1F
100
AcDbEntity
  8
0
  6
Continuous
 62
     7
370
    15
100
AcDbCircle
 10
86.5002478219
 20
136.350526548
 30
0.0
 40
1.4
100
AcDbArc
 50
270.0
 51
302.5610026528
  0
LINE
  5
BA
330
1F
100
AcDbEntity
  8
0
  6
Continuous
 62
     7
370
    15
100
AcDbLine
 10
86.5002478219
 20
134.950526548
 30
0.0
 11
83.0911362233
 21
134.950526548
 31
0.0
  0
LINE
  5
BB
330
1F
100
AcDbEntity
  8
0
  6
Continuous
 62
     7
370
    15
100
AcDbLine
 10
118.6502478219
 20
133.930526548
 30
0.0
 11
128.3083149904
 21
133.930526548
 31
0.0
  0
LINE
  5
BC
330
1F
100
AcDbEntity
  8
0
  6
Continuous
 62
     7
370
    15
100
AcDbLine
 10
128.3083149904
 20
83.8936088518
 30
0.0
 11
128.3083149904
 21
133.930526548
 31
0.0
  0
LINE
  5
BD
330
1F
100
AcDbEntity
  8
0
  6
Continuous
 62
     7
370
    15
100
AcDbLine
 10
128.3083149904
 20
83.8936088518
 30
0.0
 11
126.6502478219
 21
83.8936088518
 31
0.0
  0
SPLINE
  5
BE
330
1F
100
AcDbEntity
  8
0
  6
Continuous
 62
     7
370
    15
100
AcDbSpline
210
0.0
220
0.0
230
1.0
 70
     8
 71
     3
 72
    28
 73
    24
 74
     0
 42
0.000000001
 43
0.00000001
 40
0.0
 40
0.0
 40
0.0
 40
0.0
 40
0.1249999999999999
 40
0.1249999999999999
 40
0.1874999999999998
 40
0.1874999999999998
 40
0.2499999999999997
 40
0.2499999999999997
 40
0.3749999999999993
 40
0.3749999999999993
 40
0.4374999999999993
 40
0.4374999999999993
 40
0.4999999999999992
 40
0.4999999999999992
 40
0.6249999999999992
 40
0.6249999999999992
 40
0.7499999999999992
 40
0.7499999999999992
 40
0.8124999999999993
 40
0.8124999999999993
 40
0.8749999999999996
 40
0.8749999999999996
 40
1.0
 40
1.0
 40
1.0
 40
1.0
 10
126.6502478219352
 20
83.89360885176586
 30
0.0
 10
126.1185400644422
 20
83.89360885176586
 30
0.0
 10
125.5963014991319
 20
83.87782413781564
 30
0.0
 10
124.8264310128569
 20
83.83282872373944
 30
0.0
 10
124.5720714406656
 20
83.81427372866371
 30
0.0
 10
124.067949859967
 20
83.77042100621722
 30
0.0
 10
123.8182270425391
 20
83.74507639926502
 30
0.0
 10
123.0926370910927
 20
83.66167432151491
 30
0.0
 10
122.6342768295112
 20
83.59580876236382
 30
0.0
 10
121.9837788861173
 20
83.48683842187205
 30
0.0
 10
121.7720968353248
 20
83.44859878610539
 30
0.0
 10
121.3680253461868
 20
83.37084004868603
 30
0.0
 10
121.175518832366
 20
83.3313390865107
 30
0.0
 10
120.6256838613447
 20
83.21243134414468
 30
0.0
 10
120.2957550830359
 20
83.13261366272005
 30
0.0
 10
119.7112838144672
 20
82.979270500924
 30
0.0
 10
119.4650066764538
 20
82.90793674765474
 30
0.0
 10
119.1651638837557
 20
82.81399324058013
 30
0.0
 10
119.0767070266835
 20
82.7847994472202
 30
0.0
 10
118.9233456733784
 20
82.7313328729568
 30
0.0
 10
118.8582574591521
 20
82.70697353868161
 30
0.0
 10
118.7026634432113
 20
82.64338339323687
 30
0.0
 10
118.6502478219351
 20
82.61328045814761
 30
0.0
 10
118.6502478219351
 20
82.5964035651507
 30
0.0
  0
LINE
  5
BF
330
1F
100
AcDbEntity
  8
0
  6
Continuous
 62
     7
370
    15
100
AcDbLine
 10
118.6502478219
 20
82.5964035652
 30
0.0
 11
118.6502478219
 21
82.580526548
 31
0.0
  0
SPLINE
  5
C0
330
1F
100
AcDbEntity
  8
0
  6
Continuous
 62
     7
370
    15
100
AcDbSpline
210
0.0
220
0.0
230
1.0
 70
     8
 71
     3
 72
    17
 73
    13
 74
     0
 42
0.000000001
 43
0.00000001
 40
0.0
 40
0.0
 40
0.0
 40
0.0
 40
0.1034796923964057
 40
0.210023918880785
 40
0.3134862136955584
 40
0.4198361274354883
 40
0.5254127712915682
 40
0.6339610695419791
 40
0.7409508756305032
 40
0.8511696089308174
 40
0.9558996534551938
 40
0.9999999999999999
 40
0.9999999999999999
 40
0.9999999999999999
 40
0.9999999999999999
 10
126.6502478219352
 20
144.5477220211773
 30
0.0
 10
126.2149994728251
 20
144.5531702177106
 30
0.0
 10
125.3316129662601
 20
144.5642279582224
 30
0.0
 10
124.0507853810315
 20
144.650586351124
 30
0.0
 10
122.8333688451574
 20
144.7784565276617
 30
0.0
 10
121.7255629929109
 20
144.9374018262549
 30
0.0
 10
120.7373241889627
 20
145.1118955139705
 30
0.0
 10
119.9126006314311
 20
145.2810613646104
 30
0.0
 10
119.2636471307718
 20
145.4289451471387
 30
0.0
 10
118.8466123153101
 20
145.5307357313695
 30
0.0
 10
118.6480156023456
 20
145.5810872539727
 30
0.0
 10
118.6713283237789
 20
145.5751815697503
 30
0.0
 10
118.6782361810164
 20
145.5734316400557
 30
0.0
  0
LINE
  5
C1
330
1F
100
AcDbEntity
  8
0
  6
Continuous
 62
     7
370
    15
100
AcDbLine
 10
128.3083149904
 20
144.5477220212
 30
0.0
 11
126.6502478219
 21
144.5477220212
 31
0.0
  0
LINE
  5
C2
330
1F
100
AcDbEntity
  8
0
  6
Continuous
 62
     7
370
    15
100
AcDbLine
 10
128.3083149904
 20
138.5392162104
 30
0.0
 11
128.3083149904
 21
144.5477220212
 31
0.0
  0
LINE
  5
C3
330
1F
100
AcDbEntity
  8
0
  6
Continuous
 62
     7
370
    15
100
AcDbLine
 10
125.8958681676
 20
138.5392162104
 30
0.0
 11
128.3083149904
 21
138.5392162104
 31
0.0
  0
SPLINE
  5
C4
330
1F
100
AcDbEntity
  8
0
  6
Continuous
 62
     7
370
    15
100
AcDbSpline
210
0.0
220
0.0
230
1.0
 70
     8
 71
     3
 72
    20
 73
    16
 74
     0
 42
0.000000001
 43
0.00000001
 40
0.0
 40
0.0
 40
0.0
 40
0.0
 40
0.2500000000000005
 40
0.2500000000000005
 40
0.3750000000000004
 40
0.3750000000000004
 40
0.5000000000000003
 40
0.5000000000000003
 40
0.6250000000000002
 40
0.6250000000000002
 40
0.7500000000000001
 40
0.7500000000000001
 40
0.8750000000000001
 40
0.8750000000000001
 40
1.0
 40
1.0
 40
1.0
 40
1.0
 10
118.6502478219351
 20
133.930526548013
 30
0.0
 10
118.8986215562232
 20
134.5843889763104
 30
0.0
 10
119.2181916485685
 20
135.1881747583076
 30
0.0
 10
119.8404978817732
 20
136.0150134944762
 30
0.0
 10
120.0719221422039
 20
136.2774421324291
 30
0.0
 10
120.5931364818536
 20
136.7741047865341
 30
0.0
 10
120.8797569644887
 20
137.0046916655556
 30
0.0
 10
121.4992417057963
 20
137.4212458901382
 30
0.0
 10
121.8335420852833
 20
137.6087436921057
 30
0.0
 10
122.5588025579081
 20
137.9401406697421
 30
0.0
 10
122.9407176152985
 20
138.0796446572374
 30
0.0
 10
123.7355057914702
 20
138.3050981647084
 30
0.0
 10
124.1496639856766
 20
138.391724276252
 30
0.0
 10
125.015210326258
 20
138.5097050651061
 30
0.0
 10
125.4530979412698
 20
138.5392162103805
 30
0.0
 10
125.8958681676244
 20
138.5392162103805
 30
0.0
  0
LINE
  5
C5
330
1F
100
AcDbEntity
  8
0
  6
Continuous
 62
     7
370
    15
100
AcDbLine
 10
135.0921806534
 20
83.8936088518
 30
0.0
 11
135.0921806534
 21
133.930526548
 31
0.0
  0
SPLINE
  5
C6
330
1F
100
AcDbEntity
  8
0
  6
Continuous
 62
     7
370
    15
100
AcDbSpline
210
0.0
220
0.0
230
1.0
 70
     8
 71
     3
 72
     8
 73
     4
 74
     0
 42
0.000000001
 43
0.00000001
 40
0.0
 40
0.0
 40
0.0
 40
0.0
 40
1.0
 40
1.0
 40
1.0
 40
1.0
 10
135.0921806534242
 20
83.89360885176586
 30
0.0
 10
134.5967009927585
 20
84.78913493969921
 30
0.0
 10
134.1025869447163
 20
85.68541935475146
 30
0.0
 10
133.6102478219351
 20
86.58268938895816
 30
0.0
  0
LINE
  5
C7
330
1F
100
AcDbEntity
  8
0
  6
Continuous
 62
     7
370
    15
100
AcDbLine
 10
133.6102478219
 20
86.582689389
 30
0.0
 11
133.6102478219
 21
133.930526548
 31
0.0
  0
SPLINE
  5
C8
330
1F
100
AcDbEntity
  8
0
  6
Continuous
 62
     7
370
    15
100
AcDbSpline
210
0.0
220
0.0
230
1.0
 70
    24
 71
     3
 72
     8
 73
     4
 74
     0
 42
0.000000001
 43
0.00000001
 40
0.0
 40
0.0
 40
0.0
 40
0.0
 40
1.0
 40
1.0
 40
1.0
 40
1.0
 10
133.6102478219351
 20
133.930526548013
 30
0.0
 10
134.0901998163
 20
133.930526548013
 30
0.0
 10
134.5855005452737
 20
133.930526548013
 30
0.0
 10
135.0921806534242
 20
133.930526548013
 30
0.0
  0
LINE
  5
C9
330
1F
100
AcDbEntity
  8
0
  6
Continuous
 62
     7
370
    15
100
AcDbLine
 10
139.6502478219
 20
84.5202491474
 30
0.0
 11
139.6502478219
 21
133.930526548
 31
0.0
  0
SPLINE
  5
CA
330
1F
100
AcDbEntity
  8
0
  6
Continuous
 62
     7
370
    15
100
AcDbSpline
210
0.0
220
0.0
230
1.0
 70
     8
 71
     3
 72
    10
 73
     6
 74
     0
 42
0.000000001
 43
0.00000001
 40
0.0
 40
0.0
 40
0.0
 40
0.0
 40
0.5
 40
0.5
 40
1.0
 40
1.0
 40
1.0
 40
1.0
 10
139.6502478219352
 20
84.52024914742017
 30
0.0
 10
139.6502478219352
 20
84.36036187922652
 30
0.0
 10
139.5889381706993
 20
84.19923462371192
 30
0.0
 10
139.3698385331642
 20
83.96513562535708
 30
0.0
 10
139.2117903268507
 20
83.89360885176586
 30
0.0
 10
139.0502478219352
 20
83.89360885176586
 30
0.0
  0
SPLINE
  5
CB
330
1F
100
AcDbEntity
  8
0
  6
Continuous
 62
     7
370
    15
100
AcDbSpline
210
0.0
220
0.0
230
1.0
 70
    24
 71
     3
 72
    12
 73
     8
 74
     0
 42
0.000000001
 43
0.00000001
 40
0.0
 40
0.0
 40
0.0
 40
0.0
 40
0.250000000000002
 40
0.250000000000002
 40
0.500000000000004
 40
0.500000000000004
 40
1.0
 40
1.0
 40
1.0
 40
1.0
 10
139.0502478219352
 20
133.930526548013
 30
0.0
 10
139.1404868896222
 20
133.930526548013
 30
0.0
 10
139.2313850037287
 20
133.930526548013
 30
0.0
 10
139.3859820402172
 20
133.930526548013
 30
0.0
 10
139.4509604563253
 20
133.930526548013
 30
0.0
 10
139.6027954842616
 20
133.930526548013
 30
0.0
 10
139.6502478219352
 20
133.930526548013
 30
0.0
 10
139.6502478219351
 20
133.930526548013
 30
0.0
  0
LINE
  5
CC
330
1F
100
AcDbEntity
  8
0
  6
Continuous
 62
     7
370
    15
100
AcDbLine
 10
139.0502478219
 20
83.8936088518
 30
0.0
 11
135.0921806534
 21
83.8936088518
 31
0.0
  0
LINE
  5
CD
330
1F
100
AcDbEntity
  8
0
  6
Continuous
 62
     7
370
    15
100
AcDbLine
 10
135.0921806534
 20
133.930526548
 30
0.0
 11
139.0502478219
 21
133.930526548
 31
0.0
  0
LINE
  5
CE
330
1F
100
AcDbEntity
  8
0
  6
Continuous
 62
     7
370
    15
100
AcDbLine
 10
129.7902478219
 20
86.582689389
 30
0.0
 11
129.7902478219
 21
133.930526548
 31
0.0
  0
SPLINE
  5
CF
330
1F
100
AcDbEntity
  8
0
  6
Continuous
 62
     7
370
    15
100
AcDbSpline
210
0.0
220
0.0
230
1.0
 70
     8
 71
     3
 72
     8
 73
     4
 74
     0
 42
0.000000001
 43
0.00000001
 40
0.0
 40
0.0
 40
0.0
 40
0.0
 40
1.0
 40
1.0
 40
1.0
 40
1.0
 10
129.7902478219352
 20
86.58268938895816
 30
0.0
 10
129.297908699154
 20
85.68541935475146
 30
0.0
 10
128.8037946511118
 20
84.78913493969922
 30
0.0
 10
128.3083149904461
 20
83.89360885176586
 30
0.0
  0
SPLINE
  5
D0
330
1F
100
AcDbEntity
  8
0
  6
Continuous
 62
     7
370
    15
100
AcDbSpline
210
0.0
220
0.0
230
1.0
 70
    24
 71
     3
 72
     8
 73
     4
 74
     0
 42
0.000000001
 43
0.00000001
 40
0.0
 40
0.0
 40
0.0
 40
0.0
 40
1.0
 40
1.0
 40
1.0
 40
1.0
 10
128.3083149904461
 20
133.930526548013
 30
0.0
 10
128.8149950985966
 20
133.930526548013
 30
0.0
 10
129.3102958275703
 20
133.930526548013
 30
0.0
 10
129.7902478219352
 20
133.930526548013
 30
0.0
  0
LINE
  5
D1
330
1F
100
AcDbEntity
  8
0
  6
Continuous
 62
     7
370
    15
100
AcDbLine
 10
113.7002478219
 20
82.880526548
 30
0.0
 11
113.7002478219
 21
145.2805265477
 31
0.0
  0
SPLINE
  5
D2
330
1F
100
AcDbEntity
  8
0
  6
Continuous
 62
     7
370
    15
100
AcDbSpline
210
0.0
220
0.0
230
1.0
 70
    24
 71
     3
 72
    14
 73
    10
 74
     0
 42
0.000000001
 43
0.00000001
 40
0.0
 40
0.0
 40
0.0
 40
0.0
 40
0.4999999999999954
 40
0.4999999999999954
 40
0.7499999999999947
 40
0.7499999999999947
 40
0.8749999999999973
 40
0.8749999999999973
 40
1.0
 40
1.0
 40
1.0
 40
1.0
 10
133.5125730196029
 20
87.68052654801303
 30
0.0
 10
133.4653628603731
 20
87.68052654801303
 30
0.0
 10
133.4021283868294
 20
87.68052654801303
 30
0.0
 10
133.2583164561015
 20
87.68052654801303
 30
0.0
 10
133.2029913816251
 20
87.68052654801302
 30
0.0
 10
133.0910802083901
 20
87.68052654801303
 30
0.0
 10
133.0482931219491
 20
87.68052654801302
 30
0.0
 10
132.9439277889155
 20
87.68052654801302
 30
0.0
 10
132.8797039946138
 20
87.68052654801302
 30
0.0
 10
132.8102478219906
 20
87.68052654801303
 30
0.0
  0
SPLINE
  5
D3
330
1F
100
AcDbEntity
  8
0
  6
Continuous
 62
     7
370
    15
100
AcDbSpline
210
0.0
220
0.0
230
1.0
 70
    24
 71
     3
 72
    12
 73
     8
 74
     0
 42
0.000000001
 43
0.00000001
 40
0.0
 40
0.0
 40
0.0
 40
0.0
 40
0.5
 40
0.5
 40
0.75
 40
0.75
 40
1.0
 40
1.0
 40
1.0
 40
1.0
 10
133.2159502902444
 20
140.480526548013
 30
0.0
 10
133.1725121024414
 20
140.480526548013
 30
0.0
 10
133.1233178541434
 20
140.480526548013
 30
0.0
 10
133.0265990967623
 20
140.480526548013
 30
0.0
 10
132.9904116152607
 20
140.480526548013
 30
0.0
 10
132.907533756736
 20
140.480526548013
 30
0.0
 10
132.8595803094293
 20
140.480526548013
 30
0.0
 10
132.8102478219351
 20
140.480526548013
 30
0.0
  0
SPLINE
  5
D4
330
1F
100
AcDbEntity
  8
0
  6
Continuous
 62
     7
370
    15
100
AcDbSpline
210
0.0
220
0.0
230
1.0
 70
     8
 71
     3
 72
    10
 73
     6
 74
     0
 42
0.000000001
 43
0.00000001
 40
0.0
 40
0.0
 40
0.0
 40
0.0
 40
0.5
 40
0.5
 40
1.0
 40
1.0
 40
1.0
 40
1.0
 10
133.6102478219351
 20
141.2001803990488
 30
0.0
 10
133.6102478219351
 20
141.056410341231
 30
0.0
 10
133.5741987632163
 20
140.9139909787361
 30
0.0
 10
133.4386899024427
 20
140.6640966853791
 30
0.0
 10
133.3388139093469
 20
140.556066349131
 30
0.0
 10
133.2159502902452
 20
140.4805265480136
 30
0.0
  0
SPLINE
  5
D5
330
1F
100
AcDbEntity
  8
0
  6
Continuous
 62
     7
370
    15
100
AcDbSpline
210
0.0
220
0.0
230
1.0
 70
     8
 71
     3
 72
     9
 73
     5
 74
     0
 42
0.000000001
 43
0.00000001
 40
0.0
 40
0.0
 40
0.0
 40
0.0
 40
0.5
 40
1.0
 40
1.0
 40
1.0
 40
1.0
 10
133.584100198775
 20
133.930526548013
 30
0.0
 10
133.5928387686573
 20
133.9776693483484
 30
0.0
 10
133.6058580549937
 20
134.0724654300189
 30
0.0
 10
133.6102478219351
 20
134.1682497015793
 30
0.0
 10
133.6102478219351
 20
134.2163931794744
 30
0.0
  0
SPLINE
  5
D6
330
1F
100
AcDbEntity
  8
0
  6
Continuous
 62
     7
370
    15
100
AcDbSpline
210
0.0
220
0.0
230
1.0
 70
     8
 71
     3
 72
    10
 73
     6
 74
     0
 42
0.000000001
 43
0.00000001
 40
0.0
 40
0.0
 40
0.0
 40
0.0
 40
0.5
 40
0.5
 40
1.0
 40
1.0
 40
1.0
 40
1.0
 10
130.1845453536261
 20
140.480526548013
 30
0.0
 10
130.0630050899576
 20
140.5552527152248
 30
0.0
 10
129.9616707296086
 20
140.6641977311416
 30
0.0
 10
129.8260317867202
 20
140.9146282119032
 30
0.0
 10
129.7902478219352
 20
141.0570475740021
 30
0.0
 10
129.7902478219352
 20
141.2001803990488
 30
0.0
  0
SPLINE
  5
D7
330
1F
100
AcDbEntity
  8
0
  6
Continuous
 62
     7
370
    15
100
AcDbSpline
210
0.0
220
0.0
230
1.0
 70
    24
 71
     3
 72
    12
 73
     8
 74
     0
 42
0.000000001
 43
0.00000001
 40
0.0
 40
0.0
 40
0.0
 40
0.0
 40
0.2500000000000008
 40
0.2500000000000008
 40
0.5000000000000017
 40
0.5000000000000017
 40
1.0
 40
1.0
 40
1.0
 40
1.0
 10
130.5902478219352
 20
140.480526548013
 30
0.0
 10
130.5403711396177
 20
140.480526548013
 30
0.0
 10
130.4923679462141
 20
140.480526548013
 30
0.0
 10
130.4093198435021
 20
140.480526548013
 30
0.0
 10
130.3731902640343
 20
140.480526548013
 30
0.0
 10
130.2772782330901
 20
140.480526548013
 30
0.0
 10
130.2275195651213
 20
140.480526548013
 30
0.0
 10
130.1845453536261
 20
140.480526548013
 30
0.0
  0
SPLINE
  5
D8
330
1F
100
AcDbEntity
  8
0
  6
Continuous
 62
     7
370
    15
100
AcDbSpline
210
0.0
220
0.0
230
1.0
 70
    24
 71
     3
 72
    14
 73
    10
 74
     0
 42
0.000000001
 43
0.00000001
 40
0.0
 40
0.0
 40
0.0
 40
0.0
 40
0.1250000000000006
 40
0.1250000000000006
 40
0.2500000000000012
 40
0.2500000000000012
 40
0.4999999999999998
 40
0.4999999999999998
 40
1.0
 40
1.0
 40
1.0
 40
1.0
 10
130.5902478219352
 20
87.68052654801303
 30
0.0
 10
130.5218099740487
 20
87.68052654801303
 30
0.0
 10
130.4562599352836
 20
87.68052654801303
 30
0.0
 10
130.3518332958757
 20
87.68052654801303
 30
0.0
 10
130.3092886861143
 20
87.68052654801303
 30
0.0
 10
130.196679225574
 20
87.68052654801303
 30
0.0
 10
130.1411401785545
 20
87.68052654801302
 30
0.0
 10
129.9985284830907
 20
87.68052654801303
 30
0.0
 10
129.935123128095
 20
87.68052654801302
 30
0.0
 10
129.8879226242674
 20
87.68052654801303
 30
0.0
  0
SPLINE
  5
D9
330
1F
100
AcDbEntity
  8
0
  6
Continuous
 62
     7
370
    15
100
AcDbSpline
210
0.0
220
0.0
230
1.0
 70
     8
 71
     3
 72
    10
 73
     6
 74
     0
 42
0.000000001
 43
0.00000001
 40
0.0
 40
0.0
 40
0.0
 40
0.0
 40
0.5
 40
0.5
 40
1.0
 40
1.0
 40
1.0
 40
1.0
 10
129.7902478219352
 20
134.2163931794744
 30
0.0
 10
129.7902478219352
 20
134.1686216714811
 30
0.0
 10
129.7924090655323
 20
134.1209119494195
 30
0.0
 10
129.8010804393925
 20
134.0256168318711
 30
0.0
 10
129.8076096223485
 20
133.9779242679045
 30
0.0
 10
129.8163954450953
 20
133.930526548013
 30
0.0
  0
SPLINE
  5
DA
330
1F
100
AcDbEntity
  8
0
  6
Continuous
 62
     7
370
    15
100
AcDbSpline
210
0.0
220
0.0
230
1.0
 70
     8
 71
     3
 72
    34
 73
    30
 74
     0
 42
0.000000001
 43
0.00000001
 40
0.0
 40
0.0
 40
0.0
 40
0.0
 40
0.0126393379143738
 40
0.0252377900923135
 40
0.0378146171501889
 40
0.0503891790752761
 40
0.0629808463030423
 40
0.0756089105548201
 40
0.0882924974736311
 40
0.101050483001028
 40
0.1139014152442633
 40
0.1268634433085102
 40
0.1901341723044834
 40
0.2526013507852483
 40
0.3145947177284921
 40
0.3767105706152364
 40
0.4387713562768522
 40
0.4997424824204386
 40
0.5607523438686101
 40
0.6229148923690534
 40
0.685156129860607
 40
0.747239960573276
 40
0.8097503397535614
 40
0.8728655786417775
 40
0.8986249896774637
 40
0.9240657894466475
 40
0.9493390990036463
 40
0.9745990456685747
 40
1.0
 40
1.0
 40
1.0
 40
1.0
 10
205.2763397579134
 20
114.080526548013
 30
0.0
 10
205.2757065303017
 20
113.9979842179327
 30
0.0
 10
205.2744421234433
 20
113.8331665657417
 30
0.0
 10
205.2603613841217
 20
113.5865652078697
 30
0.0
 10
205.2373455034729
 20
113.3411470075262
 30
0.0
 10
205.2045285619569
 20
113.0969294560566
 30
0.0
 10
205.1621424019166
 20
112.8539333546228
 30
0.0
 10
205.1101258251493
 20
112.6121782458288
 30
0.0
 10
205.0484951327792
 20
112.3716816715705
 30
0.0
 10
204.9772513560795
 20
112.1324664960268
 30
0.0
 10
204.8963799184703
 20
111.8945318836516
 30
0.0
 10
204.6892999407472
 20
111.3528254828174
 30
0.0
 10
204.2748783516979
 20
110.5452317673266
 30
0.0
 10
203.5123687388552
 20
109.5864756192143
 30
0.0
 10
202.5841907293629
 20
108.7977537663237
 30
0.0
 10
201.515728144373
 20
108.2143803177209
 30
0.0
 10
200.3594866560082
 20
107.843425974201
 30
0.0
 10
199.1552880149265
 20
107.7201701959844
 30
0.0
 10
197.9503929815726
 20
107.84281338391
 30
0.0
 10
196.7920341581245
 20
108.2126935572252
 30
0.0
 10
195.7206005006225
 20
108.7951343648624
 30
0.0
 10
194.7904223922928
 20
109.5841581597675
 30
0.0
 10
194.0267669654251
 20
110.5418514126704
 30
0.0
 10
193.573083805916
 20
111.4223714970484
 30
0.0
 10
193.3196543630464
 20
112.1227637708259
 30
0.0
 10
193.1861886865287
 20
112.6036507309777
 30
0.0
 10
193.0920241396767
 20
113.0906640663503
 30
0.0
 10
193.033696304813
 20
113.5836829792818
 30
0.0
 10
193.0273419210939
 20
113.9146049997571
 30
0.0
 10
193.0241558859568
 20
114.080526548013
 30
0.0
  0
SPLINE
  5
DB
330
1F
100
AcDbEntity
  8
0
  6
Continuous
 62
     7
370
    15
100
AcDbSpline
210
0.0
220
0.0
230
1.0
 70
     8
 71
     3
 72
    34
 73
    30
 74
     0
 42
0.000000001
 43
0.00000001
 40
0.0
 40
0.0
 40
0.0
 40
0.0
 40
0.0126393379132019
 40
0.025237790090211
 40
0.037814617147408
 40
0.0503891790720808
 40
0.0629808462997051
 40
0.075608910551623
 40
0.0882924974708624
 40
0.1010504829989817
 40
0.1139014152432375
 40
0.1268634433088062
 40
0.1901341723061307
 40
0.2526013507854786
 40
0.3145947177292153
 40
0.3767105706154715
 40
0.4387713562775405
 40
0.4997424824206374
 40
0.5607523438668696
 40
0.6229148923691562
 40
0.6851561298579
 40
0.7472399605734061
 40
0.8097503397539907
 40
0.8728655786419685
 40
0.8986249896767765
 40
0.9240657894455334
 40
0.9493390990025294
 40
0.9745990456678433
 40
1.0
 40
1.0
 40
1.0
 40
1.0
 10
193.0241558859568
 20
114.080526548013
 30
0.0
 10
193.024789113564
 20
114.1630688780857
 30
0.0
 10
193.0260535204133
 20
114.3278865302631
 30
0.0
 10
193.0401342597249
 20
114.5744878881176
 30
0.0
 10
193.0631501403664
 20
114.8199060884485
 30
0.0
 10
193.0959670818781
 20
115.0641236399107
 30
0.0
 10
193.1383532419171
 20
115.3071197413421
 30
0.0
 10
193.190369818686
 20
115.5488748501387
 30
0.0
 10
193.2520005110606
 20
115.7893714244046
 30
0.0
 10
193.3232442877676
 20
116.0285865999609
 30
0.0
 10
193.4041157253873
 20
116.2665212123537
 30
0.0
 10
193.6111957031283
 20
116.8082276132068
 30
0.0
 10
194.0256172921826
 20
117.6158213287034
 30
0.0
 10
194.7881269050232
 20
118.5745774768208
 30
0.0
 10
195.7163049145086
 20
119.3632993297063
 30
0.0
 10
196.784767499503
 20
119.946672778308
 30
0.0
 10
197.9410089878658
 20
120.3176271218217
 30
0.0
 10
199.1452076289347
 20
120.4408829000442
 30
0.0
 10
200.3501026622826
 20
120.3182397121059
 30
0.0
 10
201.5084614857176
 20
119.9483595388139
 30
0.0
 10
202.5798951432367
 20
119.3659187311799
 30
0.0
 10
203.5100732515639
 20
118.5768949362685
 30
0.0
 10
204.2737286784565
 20
117.6192016833614
 30
0.0
 10
204.7274118379559
 20
116.7386815989825
 30
0.0
 10
204.9808412808125
 20
116.0382893252111
 30
0.0
 10
205.1143069573239
 20
115.5574023650664
 30
0.0
 10
205.2084715041757
 20
115.0703890296941
 30
0.0
 10
205.2667993390445
 20
114.5773701167561
 30
0.0
 10
205.273153722772
 20
114.2464480962737
 30
0.0
 10
205.2763397579135
 20
114.080526548013
 30
0.0
  0
LINE
  5
DC
330
1F
100
AcDbEntity
  8
0
  6
Continuous
 62
     7
370
    15
100
AcDbLine
 10
213.7002478219
 20
86.980526548
 30
0.0
 11
213.7002478219
 21
141.1805265479
 31
0.0
  0
LINE
  5
DD
330
1F
100
AcDbEntity
  8
0
  6
Continuous
 62
     7
370
    15
100
AcDbLine
 10
132.8102478219
 20
140.480526548
 30
0.0
 11
130.5902478219
 21
140.480526548
 31
0.0
  0
LINE
  5
DE
330
1F
100
AcDbEntity
  8
0
  6
Continuous
 62
     7
370
    15
100
AcDbLine
 10
132.8102478219
 20
87.680526548
 30
0.0
 11
130.5902478219
 21
87.680526548
 31
0.0
  0
LINE
  5
DF
330
1F
100
AcDbEntity
  8
0
  6
Continuous
 62
     7
370
    15
100
AcDbLine
 10
139.8502466578
 20
140.480526548
 30
0.0
 11
139.822387888
 21
140.480526548
 31
0.0
  0
SPLINE
  5
E0
330
1F
100
AcDbEntity
  8
0
  6
Continuous
 62
     7
370
    15
100
AcDbSpline
210
0.0
220
0.0
230
1.0
 70
    24
 71
     3
 72
    10
 73
     6
 74
     0
 42
0.000000001
 43
0.00000001
 40
0.0
 40
0.0
 40
0.0
 40
0.0
 40
0.5000000000000001
 40
0.5000000000000001
 40
1.0
 40
1.0
 40
1.0
 40
1.0
 10
139.8502478219038
 20
87.68052654801303
 30
0.0
 10
139.8502465631591
 20
87.68052654801303
 30
0.0
 10
139.8070416426695
 20
87.68052654801302
 30
0.0
 10
139.7061146761135
 20
87.68052654801302
 30
0.0
 10
139.6502478219351
 20
87.68052654801303
 30
0.0
 10
139.6502478219351
 20
87.68052654801303
 30
0.0
  0
LINE
  5
E1
330
1F
100
AcDbEntity
  8
0
  6
Continuous
 62
     7
370
    15
100
AcDbLine
 10
111.6844954886
 20
89.8608848813
 30
0.0
 11
111.6844954886
 21
138.3001682147
 31
0.0
  0
LINE
  5
E2
330
1F
100
AcDbEntity
  8
0
  6
Continuous
 62
     7
370
    15
100
AcDbLine
 10
91.9002478219
 20
90.8520796542
 30
0.0
 11
91.9002478219
 21
92.1167890168
 31
0.0
  0
SPLINE
  5
E3
330
1F
100
AcDbEntity
  8
0
  6
Continuous
 62
     7
370
    15
100
AcDbSpline
210
0.0
220
0.0
230
1.0
 70
     8
 71
     3
 72
    14
 73
    10
 74
     0
 42
0.000000001
 43
0.00000001
 40
0.0
 40
0.0
 40
0.0
 40
0.0
 40
0.25
 40
0.25
 40
0.5
 40
0.5
 40
0.75
 40
0.75
 40
1.0
 40
1.0
 40
1.0
 40
1.0
 10
91.12196070401941
 20
93.2473752244531
 30
0.0
 10
91.1785873792215
 20
93.13967777061623
 30
0.0
 10
91.27311003951122
 20
93.03688818889691
 30
0.0
 10
91.45615501507348
 20
92.83853087667674
 30
0.0
 10
91.54778159202819
 20
92.74247136799852
 30
0.0
 10
91.70663490972139
 20
92.55494232528926
 30
0.0
 10
91.77452551734308
 20
92.4635333525057
 30
0.0
 10
91.87144254305068
 20
92.28515713159554
 30
0.0
 10
91.90024782193574
 20
92.19793522534937
 30
0.0
 10
91.90024782193572
 20
92.11678901681512
 30
0.0
  0
SPLINE
  5
E4
330
1F
100
AcDbEntity
  8
0
  6
Continuous
 62
     7
370
    15
100
AcDbSpline
210
0.0
220
0.0
230
1.0
 70
     8
 71
     3
 72
    14
 73
    10
 74
     0
 42
0.000000001
 43
0.00000001
 40
0.0
 40
0.0
 40
0.0
 40
0.0
 40
0.1250000000000006
 40
0.1250000000000006
 40
0.2500000000000012
 40
0.2500000000000012
 40
0.4999999999999997
 40
0.4999999999999997
 40
1.0
 40
1.0
 40
1.0
 40
1.0
 10
90.50024782193515
 20
93.69405708673239
 30
0.0
 10
90.54879223059231
 20
93.69980540001268
 30
0.0
 10
90.60170758537721
 20
93.69670451135642
 30
0.0
 10
90.69700293036024
 20
93.6745096671941
 30
0.0
 10
90.73725392764521
 20
93.65727744009824
 30
0.0
 10
90.84152394115819
 20
93.6009495236462
 30
0.0
 10
90.8918459163115
 20
93.5567631777004
 30
0.0
 10
91.01952886383688
 20
93.42575527884978
 30
0.0
 10
91.07561431089914
 20
93.3355207586195
 30
0.0
 10
91.12196070402086
 20
93.24737522445362
 30
0.0
  0
SPLINE
  5
E5
330
1F
100
AcDbEntity
  8
0
  6
Continuous
 62
     7
370
    15
100
AcDbSpline
210
0.0
220
0.0
230
1.0
 70
     8
 71
     3
 72
     8
 73
     4
 74
     0
 42
0.000000001
 43
0.00000001
 40
0.0
 40
0.0
 40
0.0
 40
0.0
 40
1.0
 40
1.0
 40
1.0
 40
1.0
 10
88.23172272898904
 20
93.38421180014961
 30
0.0
 10
88.96629975547197
 20
93.50283681121856
 30
0.0
 10
89.72977482486758
 20
93.60282268335483
 30
0.0
 10
90.50024782193515
 20
93.69405708673239
 30
0.0
  0
SPLINE
  5
E6
330
1F
100
AcDbEntity
  8
0
  6
Continuous
 62
     7
370
    15
100
AcDbSpline
210
0.0
220
0.0
230
1.0
 70
     8
 71
     3
 72
    14
 73
    10
 74
     0
 42
0.000000001
 43
0.00000001
 40
0.0
 40
0.0
 40
0.0
 40
0.0
 40
0.5
 40
0.5
 40
0.75
 40
0.75
 40
0.875
 40
0.875
 40
1.0
 40
1.0
 40
1.0
 40
1.0
 10
82.95024782193514
 20
93.21058878261795
 30
0.0
 10
83.84239395248875
 20
93.20986655641731
 30
0.0
 10
84.73237038828235
 20
93.21445276287477
 30
0.0
 10
86.05896555535799
 20
93.2421777672663
 30
0.0
 10
86.49981248385674
 20
93.25478430489048
 30
0.0
 10
87.15625272127916
 20
93.28580045289793
 30
0.0
 10
87.37426637787105
 20
93.2981436255247
 30
0.0
 10
87.80697523155384
 20
93.33116768068797
 30
0.0
 10
88.02225169671863
 20
93.35038484582641
 30
0.0
 10
88.23172272898904
 20
93.3842118001496
 30
0.0
  0
SPLINE
  5
E7
330
1F
100
AcDbEntity
  8
0
  6
Continuous
 62
     7
370
    15
100
AcDbSpline
210
0.0
220
0.0
230
1.0
 70
     8
 71
     3
 72
     8
 73
     4
 74
     0
 42
0.000000001
 43
0.00000001
 40
0.0000005163856998
 40
0.0000005163856998
 40
0.0000005163856998
 40
0.0000005163856998
 40
0.000026289209185
 40
0.000026289209185
 40
0.000026289209185
 40
0.000026289209185
 10
82.94020289152753
 20
93.22057265571472
 30
0.0
 10
82.94353062973536
 20
93.21723840884562
 30
0.0
 10
82.94687908271096
 20
93.2139104515703
 30
0.0
 10
82.95024782193512
 20
93.21058878261795
 30
0.0
  0
SPLINE
  5
E8
330
1F
100
AcDbEntity
  8
0
  6
Continuous
 62
     7
370
    15
100
AcDbSpline
210
0.0
220
0.0
230
1.0
 70
     8
 71
     3
 72
     8
 73
     4
 74
     0
 42
0.000000001
 43
0.00000001
 40
0.0000005099763573
 40
0.0000005099763573
 40
0.0000005099763573
 40
0.0000005099763573
 40
0.0000262827998699
 40
0.0000262827998699
 40
0.0000262827998699
 40
0.0000262827998699
 10
82.95024782193512
 20
134.9504643134081
 30
0.0
 10
82.94687908270738
 20
134.9471426444522
 30
0.0
 10
82.94353062972823
 20
134.9438146871733
 30
0.0
 10
82.9402028915169
 20
134.9404804403007
 30
0.0
  0
SPLINE
  5
E9
330
1F
100
AcDbEntity
  8
0
  6
Continuous
 62
     7
370
    15
100
AcDbSpline
210
0.0
220
0.0
230
1.0
 70
     8
 71
     3
 72
    10
 73
     6
 74
     0
 42
0.000000001
 43
0.00000001
 40
0.0
 40
0.0
 40
0.0
 40
0.0
 40
0.5
 40
0.5
 40
1.0
 40
1.0
 40
1.0
 40
1.0
 10
86.50024782193515
 20
134.9036139398408
 30
0.0
 10
85.91266227484455
 20
134.9246794600772
 30
0.0
 10
85.32191588138417
 20
134.9354379459494
 30
0.0
 10
84.13789671608531
 20
134.9488027264851
 30
0.0
 10
83.54448272787984
 20
134.9509453691497
 30
0.0
 10
82.95024782193514
 20
134.9504643134081
 30
0.0
  0
SPLINE
  5
EA
330
1F
100
AcDbEntity
  8
0
  6
Continuous
 62
     7
370
    15
100
AcDbSpline
210
0.0
220
0.0
230
1.0
 70
     8
 71
     3
 72
    18
 73
    14
 74
     0
 42
0.000000001
 43
0.00000001
 40
0.0
 40
0.0
 40
0.0
 40
0.0
 40
0.2500000000000001
 40
0.2500000000000001
 40
0.5000000000000002
 40
0.5000000000000002
 40
0.7500000000000003
 40
0.7500000000000003
 40
0.8750000000000002
 40
0.8750000000000002
 40
0.9375000000000002
 40
0.9375000000000002
 40
1.0
 40
1.0
 40
1.0
 40
1.0
 10
87.90024782193515
 20
135.924634220376
 30
0.0
 10
87.90024782193515
 20
135.8414273115188
 30
0.0
 10
87.86439872199689
 20
135.7526906562053
 30
0.0
 10
87.73952698596298
 20
135.570565465645
 30
0.0
 10
87.64912656831511
 20
135.4754354170184
 30
0.0
 10
87.42688391357292
 20
135.2862539078941
 30
0.0
 10
87.29711912712715
 20
135.1913087397994
 30
0.0
 10
87.05648166981564
 20
135.0530300322194
 30
0.0
 10
86.9687143716782
 20
135.007319598917
 30
0.0
 10
86.81419028447138
 20
134.9494962936956
 30
0.0
 10
86.75757939841664
 20
134.9317815296577
 30
0.0
 10
86.63353536751004
 20
134.9072422264248
 30
0.0
 10
86.56582069249174
 20
134.9012630878865
 30
0.0
 10
86.50024782193515
 20
134.9036139398408
 30
0.0
  0
LINE
  5
EB
330
1F
100
AcDbEntity
  8
0
  6
Continuous
 62
     7
370
    15
100
AcDbLine
 10
87.9002478219
 20
135.9246342204
 30
0.0
 11
87.9002478219
 21
137.1085726402
 31
0.0
  0
SPLINE
  5
EC
330
1F
100
AcDbEntity
  8
0
  6
Continuous
 62
     7
370
    15
100
AcDbSpline
210
0.0
220
0.0
230
1.0
 70
     8
 71
     3
 72
    24
 73
    20
 74
     0
 42
0.000000001
 43
0.00000001
 40
0.0
 40
0.0
 40
0.0
 40
0.0
 40
0.0010474631756071
 40
0.0637827998981074
 40
0.1272205495732247
 40
0.1903773877398719
 40
0.2526733668453194
 40
0.3146339239779662
 40
0.3770877128481475
 40
0.4393525473057938
 40
0.5008118422561124
 40
0.5621830267236717
 40
0.6248423587248042
 40
0.6874289851536017
 40
0.7496728210883014
 40
0.8119833405171992
 40
0.8750945456918685
 40
0.9384397421848834
 40
1.0
 40
1.0
 40
1.0
 40
1.0
 10
100.4691525893356
 20
90.42301782877831
 30
0.0
 10
100.4687067615516
 20
90.4229596255212
 30
0.0
 10
100.4415591300201
 20
90.4194154754373
 30
0.0
 10
100.5371688358598
 20
90.43224892679044
 30
0.0
 10
100.7707246550833
 20
90.46149509069868
 30
0.0
 10
101.1662756308083
 20
90.50810917972854
 30
0.0
 10
101.6933127960921
 20
90.55829229953332
 30
0.0
 10
102.3368406279795
 20
90.60266900857927
 30
0.0
 10
103.0755125125015
 20
90.62961428102768
 30
0.0
 10
103.873025714241
 20
90.63308679762397
 30
0.0
 10
104.6996040906616
 20
90.60546030137095
 30
0.0
 10
105.5251274005529
 20
90.54698212232967
 30
0.0
 10
106.3172550170574
 20
90.46153764847827
 30
0.0
 10
107.0498290125328
 20
90.35980373718785
 30
0.0
 10
107.6854715881986
 20
90.25196064796377
 30
0.0
 10
108.2073855080981
 20
90.15033023590081
 30
0.0
 10
108.5890177727307
 20
90.06784449697442
 30
0.0
 10
108.8398373071032
 20
90.01169420900739
 30
0.0
 10
108.8689615130915
 20
90.00484413322981
 30
0.0
 10
108.8833155190013
 20
90.00146804022204
 30
0.0
  0
SPLINE
  5
ED
330
1F
100
AcDbEntity
  8
0
  6
Continuous
 62
     7
370
    15
100
AcDbSpline
210
0.0
220
0.0
230
1.0
 70
     8
 71
     3
 72
    24
 73
    20
 74
     0
 42
0.000000001
 43
0.00000001
 40
0.0
 40
0.0
 40
0.0
 40
0.0
 40
0.0614395534382597
 40
0.1250751703317842
 40
0.1884268397120056
 40
0.2508638761272328
 40
0.3129680449658968
 40
0.3753466222196946
 40
0.4377343724680258
 40
0.4990942071706781
 40
0.560582235749624
 40
0.6229484722311761
 40
0.6854701164843754
 40
0.7475492776569196
 40
0.8098240089256987
 40
0.8730699162748239
 40
0.9364056957899927
 40
0.9991772321979605
 40
1.0
 40
1.0
 40
1.0
 40
1.0
 10
108.8832607581133
 20
138.1595559141235
 30
0.0
 10
108.8686582174076
 20
138.1561875304275
 30
0.0
 10
108.8389311903734
 20
138.1493303652799
 30
0.0
 10
108.5861906576607
 20
138.0929908270071
 30
0.0
 10
108.2031899589055
 20
138.01013297616
 30
0.0
 10
107.6808316949374
 20
137.9082256978297
 30
0.0
 10
107.0460448459404
 20
137.8003865913479
 30
0.0
 10
106.3158195397205
 20
137.6989199680472
 30
0.0
 10
105.5253498914389
 20
137.6138608094312
 30
0.0
 10
104.7008660850057
 20
137.5556572247884
 30
0.0
 10
103.8738301252601
 20
137.52807453427
 30
0.0
 10
103.0755071589879
 20
137.5315681791699
 30
0.0
 10
102.3356851680217
 20
137.5585245918438
 30
0.0
 10
101.6914335169504
 20
137.6028787795049
 30
0.0
 10
101.1640294120693
 20
137.6530842072607
 30
0.0
 10
100.769368119107
 20
137.6996938208558
 30
0.0
 10
100.5368433794939
 20
137.7288889134944
 30
0.0
 10
100.4414651778048
 20
137.7416666357302
 30
0.0
 10
100.46839904617
 20
137.7381124098545
 30
0.0
 10
100.4687475100765
 20
137.7380664261355
 30
0.0
  0
SPLINE
  5
EE
330
1F
100
AcDbEntity
  8
0
  6
Continuous
 62
     7
370
    15
100
AcDbSpline
210
0.0
220
0.0
230
1.0
 70
     8
 71
     3
 72
    10
 73
     6
 74
     0
 42
0.000000001
 43
0.00000001
 40
0.0
 40
0.0
 40
0.0
 40
0.0
 40
0.0840381716605812
 40
0.7011125076932597
 40
1.0
 40
1.0
 40
1.0
 40
1.0
 10
81.81379478447082
 20
94.35175264032969
 30
0.0
 10
81.81446934180573
 20
94.34954701349379
 30
0.0
 10
81.82009702950194
 20
94.33114594013158
 30
0.0
 10
81.84641850962878
 20
94.34538050285472
 30
0.0
 10
81.85885352647348
 20
94.39106627840572
 30
0.0
 10
81.86291119665854
 20
94.40597400323227
 30
0.0
  0
LINE
  5
EF
330
1F
100
AcDbEntity
  8
0
  6
Continuous
 62
     7
370
    15
100
AcDbLine
 10
81.8002478219
 20
94.3898488015
 30
0.0
 11
81.8002478219
 21
133.7712042945
 31
0.0
  0
SPLINE
  5
F0
330
1F
100
AcDbEntity
  8
0
  6
Continuous
 62
     7
370
    15
100
AcDbSpline
210
0.0
220
0.0
230
1.0
 70
     8
 71
     3
 72
    10
 73
     6
 74
     0
 42
0.000000001
 43
0.00000001
 40
0.0
 40
0.0
 40
0.0
 40
0.0
 40
0.5
 40
0.5
 40
1.0
 40
1.0
 40
1.0
 40
1.0
 10
81.86291119665856
 20
133.7550790927938
 30
0.0
 10
81.85400690754979
 20
133.800820612007
 30
0.0
 10
81.8374915273568
 20
133.818011451476
 30
0.0
 10
81.8103835812952
 20
133.8176881745402
 30
0.0
 10
81.80024782193514
 20
133.7998106322438
 30
0.0
 10
81.80024782193514
 20
133.7712042944912
 30
0.0
  0
SPLINE
  5
F1
330
1F
100
AcDbEntity
  8
0
  6
Continuous
 62
     7
370
    15
100
AcDbSpline
210
0.0
220
0.0
230
1.0
 70
     8
 71
     3
 72
    26
 73
    22
 74
     0
 42
0.000000001
 43
0.00000001
 40
0.0
 40
0.0
 40
0.0
 40
0.0
 40
0.2500000000000115
 40
0.2500000000000115
 40
0.3750000000000181
 40
0.3750000000000181
 40
0.4375000000000201
 40
0.4375000000000201
 40
0.4687500000000187
 40
0.4687500000000187
 40
0.5000000000000172
 40
0.5000000000000172
 40
0.5312500000000158
 40
0.5312500000000158
 40
0.5625000000000143
 40
0.5625000000000143
 40
0.625000000000013
 40
0.625000000000013
 40
0.7500000000000084
 40
0.7500000000000084
 40
1.0
 40
1.0
 40
1.0
 40
1.0
 10
82.62440146803965
 20
134.4706458816108
 30
0.0
 10
82.58580094517117
 20
134.3528711852554
 30
0.0
 10
82.53950394261693
 20
134.2284814990935
 30
0.0
 10
82.44556459418301
 20
134.02326216674
 30
0.0
 10
82.41025312726951
 20
133.9516893002936
 30
0.0
 10
82.34407315152384
 20
133.8357360676931
 30
0.0
 10
82.3195347848556
 20
133.7951515328828
 30
0.0
 10
82.27616203930181
 20
133.7310098510111
 30
0.0
 10
82.26065363787664
 20
133.7091434257261
 30
0.0
 10
82.22561099328962
 20
133.6635491573829
 30
0.0
 10
82.20606070256983
 20
133.6398788664155
 30
0.0
 10
82.1641334221992
 20
133.5952623070755
 30
0.0
 10
82.14148131196758
 20
133.5743822945576
 30
0.0
 10
82.10050759788093
 20
133.5435088808068
 30
0.0
 10
82.08290829798554
 20
133.5336700109744
 30
0.0
 10
82.0382813121294
 20
133.5146803952782
 30
0.0
 10
82.01772208947608
 20
133.5143560706248
 30
0.0
 10
81.96659664997941
 20
133.523579511501
 30
0.0
 10
81.94568523699088
 20
133.544826407718
 30
0.0
 10
81.89423532942993
 20
133.6187952865487
 30
0.0
 10
81.87657003012538
 20
133.6849133798635
 30
0.0
 10
81.86291119665856
 20
133.7550790927938
 30
0.0
  0
SPLINE
  5
F2
330
1F
100
AcDbEntity
  8
0
  6
Continuous
 62
     7
370
    15
100
AcDbSpline
210
0.0
220
0.0
230
1.0
 70
     8
 71
     3
 72
    10
 73
     6
 74
     0
 42
0.000000001
 43
0.00000001
 40
0.0
 40
0.0
 40
0.0
 40
0.0
 40
0.5
 40
0.5
 40
1.0
 40
1.0
 40
1.0
 40
1.0
 10
82.94020289151693
 20
134.9404804403007
 30
0.0
 10
82.87264363659868
 20
134.8727890474909
 30
0.0
 10
82.8090069812622
 20
134.7980818827373
 30
0.0
 10
82.69878622669033
 20
134.6391157503106
 30
0.0
 10
82.65196993346771
 20
134.5547604843026
 30
0.0
 10
82.62440146803965
 20
134.4706458816109
 30
0.0
  0
SPLINE
  5
F3
330
1F
100
AcDbEntity
  8
0
  6
Continuous
 62
     7
370
    15
100
AcDbSpline
210
0.0
220
0.0
230
1.0
 70
     8
 71
     3
 72
    10
 73
     6
 74
     0
 42
0.000000001
 43
0.00000001
 40
0.0
 40
0.0
 40
0.0
 40
0.0
 40
0.5
 40
0.5
 40
1.0
 40
1.0
 40
1.0
 40
1.0
 10
82.62440146803968
 20
93.69040721441507
 30
0.0
 10
82.65187888279365
 20
93.60657041794718
 30
0.0
 10
82.69858751308308
 20
93.52225993035803
 30
0.0
 10
82.80886597582905
 20
93.36313869987131
 30
0.0
 10
82.87275351444293
 20
93.28815395578167
 30
0.0
 10
82.94020289152756
 20
93.22057265571472
 30
0.0
  0
SPLINE
  5
F4
330
1F
100
AcDbEntity
  8
0
  6
Continuous
 62
     7
370
    15
100
AcDbSpline
210
0.0
220
0.0
230
1.0
 70
     8
 71
     3
 72
    24
 73
    20
 74
     0
 42
0.000000001
 43
0.00000001
 40
0.0
 40
0.0
 40
0.0
 40
0.0
 40
0.24999999999998
 40
0.24999999999998
 40
0.3749999999999705
 40
0.3749999999999705
 40
0.4374999999999656
 40
0.4374999999999656
 40
0.4687499999999649
 40
0.4687499999999649
 40
0.4999999999999643
 40
0.4999999999999643
 40
0.5624999999999676
 40
0.5624999999999676
 40
0.6249999999999709
 40
0.6249999999999709
 40
0.7499999999999798
 40
0.7499999999999798
 40
1.0
 40
1.0
 40
1.0
 40
1.0
 10
81.86291119665856
 20
94.40597400323227
 30
0.0
 10
81.87666431532877
 20
94.47662406122255
 30
0.0
 10
81.89443688273462
 20
94.54322217398747
 30
0.0
 10
81.94668797429001
 20
94.61732019422067
 30
0.0
 10
81.96772304987155
 20
94.63857800138223
 30
0.0
 10
82.02062345749998
 20
94.64672392752847
 30
0.0
 10
82.04172913037789
 20
94.64578412413272
 30
0.0
 10
82.08778129905586
 20
94.62476813255537
 30
0.0
 10
82.10615177103922
 20
94.61385932644778
 30
0.0
 10
82.14770340610491
 20
94.58122441550042
 30
0.0
 10
82.17027007886183
 20
94.55973243512906
 30
0.0
 10
82.2330510953219
 20
94.49126649154276
 30
0.0
 10
82.26618085628975
 20
94.44519203333765
 30
0.0
 10
82.32309854277479
 20
94.36018414500296
 30
0.0
 10
82.34728456827854
 20
94.31990384382158
 30
0.0
 10
82.41249251865833
 20
94.20496761735563
 30
0.0
 10
82.44720857884957
 20
94.13438463220864
 30
0.0
 10
82.54042384918047
 20
93.93017887313002
 30
0.0
 10
82.58609638454115
 20
93.80728049080265
 30
0.0
 10
82.62440146803968
 20
93.69040721441507
 30
0.0
  0
LINE
  5
F5
330
1F
100
AcDbEntity
  8
0
  6
Continuous
 62
     7
370
    15
100
AcDbLine
 10
133.6102478219
 20
134.2163931795
 30
0.0
 11
133.6102478219
 21
135.1306702156
 31
0.0
  0
SPLINE
  5
F6
330
1F
100
AcDbEntity
  8
0
  6
Continuous
 62
     7
370
    15
100
AcDbSpline
210
0.0
220
0.0
230
1.0
 70
     8
 71
     3
 72
     8
 73
     4
 74
     0
 42
0.000000001
 43
0.00000001
 40
0.0
 40
0.0
 40
0.0
 40
0.0
 40
1.0
 40
1.0
 40
1.0
 40
1.0
 10
133.6102478219351
 20
135.1306702155964
 30
0.0
 10
134.089525972525
 20
136.271681445449
 30
0.0
 10
134.5850938116649
 20
137.4080658562168
 30
0.0
 10
135.0921806534242
 20
138.5392162103805
 30
0.0
  0
LINE
  5
F7
330
1F
100
AcDbEntity
  8
0
  6
Continuous
 62
     7
370
    15
100
AcDbLine
 10
135.0921806534
 20
138.5392162104
 30
0.0
 11
139.0502478219
 21
138.5392162104
 31
0.0
  0
SPLINE
  5
F8
330
1F
100
AcDbEntity
  8
0
  6
Continuous
 62
     7
370
    15
100
AcDbSpline
210
0.0
220
0.0
230
1.0
 70
     8
 71
     3
 72
    12
 73
     8
 74
     0
 42
0.000000001
 43
0.00000001
 40
0.0
 40
0.0
 40
0.0
 40
0.0
 40
0.250000000000002
 40
0.250000000000002
 40
0.500000000000004
 40
0.500000000000004
 40
1.0
 40
1.0
 40
1.0
 40
1.0
 10
139.0502478219352
 20
138.5392162103805
 30
0.0
 10
139.1414475437608
 20
138.5392162103805
 30
0.0
 10
139.2320425528968
 20
138.5109965117926
 30
0.0
 10
139.3854552793435
 20
138.4165535045445
 30
0.0
 10
139.4506641466672
 20
138.3502665278392
 30
0.0
 10
139.6034486760071
 20
138.1246417045509
 30
0.0
 10
139.6502478219352
 20
137.9422154415183
 30
0.0
 10
139.6502478219351
 20
137.7614788092714
 30
0.0
  0
LINE
  5
F9
330
1F
100
AcDbEntity
  8
0
  6
Continuous
 62
     7
370
    15
100
AcDbLine
 10
139.6502478219
 20
137.7614788093
 30
0.0
 11
139.6502478219
 21
133.930526548
 31
0.0
  0
SPLINE
  5
FA
330
1F
100
AcDbEntity
  8
0
  6
Continuous
 62
     7
370
    15
100
AcDbSpline
210
0.0
220
0.0
230
1.0
 70
     8
 71
     3
 72
     8
 73
     4
 74
     0
 42
0.000000001
 43
0.00000001
 40
0.0
 40
0.0
 40
0.0
 40
0.0
 40
1.0
 40
1.0
 40
1.0
 40
1.0
 10
135.0921806534242
 20
144.5477220211773
 30
0.0
 10
134.5970406240599
 20
143.661042372997
 30
0.0
 10
134.1029579187809
 20
142.773779737311
 30
0.0
 10
133.6102478219351
 20
141.8857607391846
 30
0.0
  0
LINE
  5
FB
330
1F
100
AcDbEntity
  8
0
  6
Continuous
 62
     7
370
    15
100
AcDbLine
 10
135.0921806534
 20
138.5392162104
 30
0.0
 11
135.0921806534
 21
144.5477220212
 31
0.0
  0
LINE
  5
FC
330
1F
100
AcDbEntity
  8
0
  6
Continuous
 62
     7
370
    15
100
AcDbLine
 10
133.6102478219
 20
135.1306702156
 30
0.0
 11
133.6102478219
 21
141.8857607392
 31
0.0
  0
SPLINE
  5
FD
330
1F
100
AcDbEntity
  8
0
  6
Continuous
 62
     7
370
    15
100
AcDbSpline
210
0.0
220
0.0
230
1.0
 70
     8
 71
     3
 72
    10
 73
     6
 74
     0
 42
0.000000001
 43
0.00000001
 40
0.0
 40
0.0
 40
0.0
 40
0.0
 40
0.5
 40
0.5
 40
1.0
 40
1.0
 40
1.0
 40
1.0
 10
139.6502478219351
 20
143.9269668717769
 30
0.0
 10
139.6502478219351
 20
144.0873721381278
 30
0.0
 10
139.5880099908283
 20
144.2464339511163
 30
0.0
 10
139.3688750670857
 20
144.4773464167467
 30
0.0
 10
139.2112863720939
 20
144.5477220211773
 30
0.0
 10
139.0502478219352
 20
144.5477220211773
 30
0.0
  0
LINE
  5
FE
330
1F
100
AcDbEntity
  8
0
  6
Continuous
 62
     7
370
    15
100
AcDbLine
 10
139.6502478219
 20
137.7614788093
 30
0.0
 11
139.6502478219
 21
143.9269668718
 31
0.0
  0
SPLINE
  5
FF
330
1F
100
AcDbEntity
  8
0
  6
Continuous
 62
     7
370
    15
100
AcDbSpline
210
0.0
220
0.0
230
1.0
 70
     8
 71
     3
 72
     8
 73
     4
 74
     0
 42
0.000000001
 43
0.00000001
 40
0.0
 40
0.0
 40
0.0
 40
0.0
 40
1.0
 40
1.0
 40
1.0
 40
1.0
 10
128.3083149904461
 20
138.5392162103805
 30
0.0
 10
128.8154018322054
 20
137.4080658562168
 30
0.0
 10
129.3109696713453
 20
136.271681445449
 30
0.0
 10
129.7902478219351
 20
135.1306702155964
 30
0.0
  0
LINE
  5
100
330
1F
100
AcDbEntity
  8
0
  6
Continuous
 62
     7
370
    15
100
AcDbLine
 10
129.7902478219
 20
135.1306702156
 30
0.0
 11
129.7902478219
 21
134.2163931795
 31
0.0
  0
LINE
  5
101
330
1F
100
AcDbEntity
  8
0
  6
Continuous
 62
     7
370
    15
100
AcDbLine
 10
139.0502478219
 20
144.5477220212
 30
0.0
 11
135.0921806534
 21
144.5477220212
 31
0.0
  0
SPLINE
  5
102
330
1F
100
AcDbEntity
  8
0
  6
Continuous
 62
     7
370
    15
100
AcDbSpline
210
0.0
220
0.0
230
1.0
 70
     8
 71
     3
 72
     8
 73
     4
 74
     0
 42
0.000000001
 43
0.00000001
 40
0.0
 40
0.0
 40
0.0
 40
0.0
 40
1.0
 40
1.0
 40
1.0
 40
1.0
 10
129.7902478219352
 20
141.8857607391846
 30
0.0
 10
129.2975377250894
 20
142.773779737311
 30
0.0
 10
128.8034550198104
 20
143.661042372997
 30
0.0
 10
128.3083149904461
 20
144.5477220211773
 30
0.0
  0
LINE
  5
103
330
1F
100
AcDbEntity
  8
0
  6
Continuous
 62
     7
370
    15
100
AcDbLine
 10
129.7902478219
 20
135.1306702156
 30
0.0
 11
129.7902478219
 21
141.8857607392
 31
0.0
  0
SPLINE
  5
104
330
1F
100
AcDbEntity
  8
0
  6
Continuous
 62
     7
370
    15
100
AcDbSpline
210
0.0
220
0.0
230
1.0
 70
    24
 71
     3
 72
    11
 73
     7
 74
     0
 42
0.000000001
 43
0.00000001
 40
0.0
 40
0.0
 40
0.0
 40
0.0
 40
0.1336647920874057
 40
0.4825473608259797
 40
0.8156356561503854
 40
1.0
 40
1.0
 40
1.0
 40
1.0
 10
200.882298629504
 20
111.080526548013
 30
0.0
 10
200.7371769512761
 20
111.080526548013
 30
0.0
 10
200.2132687348048
 20
111.080526548013
 30
0.0
 10
199.2345447804351
 20
111.080526548013
 30
0.0
 10
198.1834056317186
 20
111.080526548013
 30
0.0
 10
197.6192140716031
 20
111.080526548013
 30
0.0
 10
197.4181970143663
 20
111.080526548013
 30
0.0
  0
SPLINE
  5
105
330
1F
100
AcDbEntity
  8
0
  6
Continuous
 62
     7
370
    15
100
AcDbSpline
210
0.0
220
0.0
230
1.0
 70
    24
 71
     3
 72
    11
 73
     7
 74
     0
 42
0.000000001
 43
0.00000001
 40
0.0
 40
0.0
 40
0.0
 40
0.0
 40
0.2164553779443441
 40
0.4403112895790577
 40
0.7519005688038767
 40
0.9999999999999999
 40
0.9999999999999999
 40
0.9999999999999999
 40
0.9999999999999999
 10
202.6143494370729
 20
114.080526548013
 30
0.0
 10
202.4957022785528
 20
113.8750236412825
 30
0.0
 10
202.2543514566467
 20
113.4569917552926
 30
0.0
 10
201.8064687919942
 20
112.6812362242853
 30
0.0
 10
201.3260342934114
 20
111.8490992630308
 30
0.0
 10
201.0185850642077
 20
111.3165815773021
 30
0.0
 10
200.882298629504
 20
111.080526548013
 30
0.0
  0
SPLINE
  5
106
330
1F
100
AcDbEntity
  8
0
  6
Continuous
 62
     7
370
    15
100
AcDbSpline
210
0.0
220
0.0
230
1.0
 70
    24
 71
     3
 72
    11
 73
     7
 74
     0
 42
0.000000001
 43
0.00000001
 40
0.0
 40
0.0
 40
0.0
 40
0.0
 40
0.2164553779443449
 40
0.4403112895790567
 40
0.7519005688038766
 40
0.9999999999999999
 40
0.9999999999999999
 40
0.9999999999999999
 40
0.9999999999999999
 10
200.882298629504
 20
117.080526548013
 30
0.0
 10
201.0009457880241
 20
116.8750236412825
 30
0.0
 10
201.2422966099303
 20
116.4569917552926
 30
0.0
 10
201.6901792745826
 20
115.6812362242853
 30
0.0
 10
202.1706137731655
 20
114.8490992630308
 30
0.0
 10
202.4780630023693
 20
114.3165815773021
 30
0.0
 10
202.6143494370729
 20
114.080526548013
 30
0.0
  0
SPLINE
  5
107
330
1F
100
AcDbEntity
  8
0
  6
Continuous
 62
     7
370
    15
100
AcDbSpline
210
0.0
220
0.0
230
1.0
 70
    24
 71
     3
 72
    11
 73
     7
 74
     0
 42
0.000000001
 43
0.00000001
 40
0.0
 40
0.0
 40
0.0
 40
0.0
 40
0.1843643438496109
 40
0.5174526391740203
 40
0.8663352079125943
 40
1.0
 40
1.0
 40
1.0
 40
1.0
 10
197.4181970143663
 20
117.080526548013
 30
0.0
 10
197.6192140716031
 20
117.080526548013
 30
0.0
 10
198.1834056317186
 20
117.080526548013
 30
0.0
 10
199.2345447804351
 20
117.080526548013
 30
0.0
 10
200.2132687348049
 20
117.080526548013
 30
0.0
 10
200.7371769512761
 20
117.080526548013
 30
0.0
 10
200.882298629504
 20
117.080526548013
 30
0.0
  0
SPLINE
  5
108
330
1F
100
AcDbEntity
  8
0
  6
Continuous
 62
     7
370
    15
100
AcDbSpline
210
0.0
220
0.0
230
1.0
 70
    24
 71
     3
 72
    11
 73
     7
 74
     0
 42
0.000000001
 43
0.00000001
 40
0.0
 40
0.0
 40
0.0
 40
0.0
 40
0.2164553779443451
 40
0.4403112895790583
 40
0.7519005688038776
 40
1.0
 40
1.0
 40
1.0
 40
1.0
 10
195.6861462067974
 20
114.080526548013
 30
0.0
 10
195.8047933653175
 20
114.2860294547435
 30
0.0
 10
196.0461441872236
 20
114.7040613407335
 30
0.0
 10
196.4940268518761
 20
115.4798168717408
 30
0.0
 10
196.9744613504589
 20
116.3119538329952
 30
0.0
 10
197.2819105796627
 20
116.844471518724
 30
0.0
 10
197.4181970143663
 20
117.080526548013
 30
0.0
  0
SPLINE
  5
109
330
1F
100
AcDbEntity
  8
0
  6
Continuous
 62
     7
370
    15
100
AcDbSpline
210
0.0
220
0.0
230
1.0
 70
    24
 71
     3
 72
    11
 73
     7
 74
     0
 42
0.000000001
 43
0.00000001
 40
0.0
 40
0.0
 40
0.0
 40
0.0
 40
0.216455377944345
 40
0.4403112895790565
 40
0.7519005688038782
 40
1.0
 40
1.0
 40
1.0
 40
1.0
 10
197.4181970143663
 20
111.080526548013
 30
0.0
 10
197.2995498558461
 20
111.2860294547435
 30
0.0
 10
197.05819903394
 20
111.7040613407335
 30
0.0
 10
196.6103163692876
 20
112.4798168717408
 30
0.0
 10
196.1298818707047
 20
113.3119538329952
 30
0.0
 10
195.822432641501
 20
113.844471518724
 30
0.0
 10
195.6861462067974
 20
114.080526548013
 30
0.0
  0
CIRCLE
  5
10A
330
1F
100
AcDbEntity
  8
0
  6
Continuous
 62
     7
370
    15
100
AcDbCircle
 10
199.1502478219
 20
114.080526548
 30
0.0
 40
3.499999999999986
  0
CIRCLE
  5
10B
330
1F
100
AcDbEntity
  8
0
  6
Continuous
 62
     7
370
    15
100
AcDbCircle
 10
199.1502478219
 20
114.080526548
 30
0.0
 40
5.499999999999986
  0
ARC
  5
10C
330
1F
100
AcDbEntity
  8
0
  6
Continuous
 62
     7
370
    15
100
AcDbCircle
 10
199.1502478219
 20
114.080526548
 30
0.0
 40
6.00000000000001
100
AcDbArc
 50
217.777725822
 51
270.0
  0
ARC
  5
10D
330
1F
100
AcDbEntity
  8
0
  6
Continuous
 62
     7
370
    15
100
AcDbCircle
 10
199.1502478219
 20
114.080526548
 30
0.0
 40
5.999999999999988
100
AcDbArc
 50
37.777725822
 51
142.1686385225
  0
ARC
  5
10E
330
1F
100
AcDbEntity
  8
0
  6
Continuous
 62
     7
370
    15
100
AcDbCircle
 10
199.1502478219
 20
114.080526548
 30
0.0
 40
6.000000000000009
100
AcDbArc
 50
270.0
 51
322.1686385225
  0
ARC
  5
10F
330
1F
100
AcDbEntity
  8
0
  6
Continuous
 62
     7
370
    15
100
AcDbCircle
 10
199.1502478219
 20
114.080526548
 30
0.0
 40
3.000000000000025
100
AcDbArc
 50
30.0
 51
90.0
  0
ARC
  5
110
330
1F
100
AcDbEntity
  8
0
  6
Continuous
 62
     7
370
    15
100
AcDbCircle
 10
199.1502478219
 20
114.080526548
 30
0.0
 40
3.000000000000025
100
AcDbArc
 50
270.0
 51
330.0
  0
ARC
  5
111
330
1F
100
AcDbEntity
  8
0
  6
Continuous
 62
     7
370
    15
100
AcDbCircle
 10
199.1502478219
 20
114.080526548
 30
0.0
 40
3.0
100
AcDbArc
 50
210.0
 51
270.0
  0
ARC
  5
112
330
1F
100
AcDbEntity
  8
0
  6
Continuous
 62
     7
370
    15
100
AcDbCircle
 10
199.1502478219
 20
114.080526548
 30
0.0
 40
3.0
100
AcDbArc
 50
90.0
 51
150.0
  0
ARC
  5
113
330
1F
100
AcDbEntity
  8
0
  6
Continuous
 62
     7
370
    15
100
AcDbCircle
 10
199.1502478219
 20
114.080526548
 30
0.0
 40
3.000000000000025
100
AcDbArc
 50
330.0
 51
30.0
  0
ARC
  5
114
330
1F
100
AcDbEntity
  8
0
  6
Continuous
 62
     7
370
    15
100
AcDbCircle
 10
199.1502478219
 20
114.080526548
 30
0.0
 40
3.0
100
AcDbArc
 50
150.0
 51
210.0
  0
LINE
  5
115
330
1F
100
AcDbEntity
  8
0
  6
Continuous
 62
     7
370
    15
100
AcDbLine
 10
154.7320019854
 20
140.080526548
 30
0.0
 11
154.7320019854
 21
88.080526548
 31
0.0
  0
LINE
  5
116
330
1F
100
AcDbEntity
  8
0
  6
Continuous
 62
     7
370
    15
100
AcDbLine
 10
155.7002478219
 20
87.330526548
 30
0.0
 11
155.7002478219
 21
140.830526548
 31
0.0
  0
LINE
  5
117
330
1F
100
AcDbEntity
  8
0
  6
Continuous
 62
     7
370
    15
100
AcDbLine
 10
156.6684936585
 20
86.580526548
 30
0.0
 11
156.6684936585
 21
141.580526548
 31
0.0
  0
LINE
  5
118
330
1F
100
AcDbEntity
  8
0
  6
Continuous
 62
     7
370
    15
100
AcDbLine
 10
140.6502478219
 20
88.080526548
 30
0.0
 11
140.6502478219
 21
140.080526548
 31
0.0
  0
LINE
  5
119
330
1F
100
AcDbEntity
  8
0
  6
HIDDEN
 62
     7
370
     0
100
AcDbLine
 10
128.3083149904
 20
138.5392162104
 30
0.0
 11
128.3083149904
 21
133.930526548
 31
0.0
  0
SPLINE
  5
11A
330
1F
100
AcDbEntity
  8
0
  6
HIDDEN
 62
     7
370
     0
100
AcDbSpline
210
0.0
220
0.0
230
1.0
 70
     8
 71
     3
 72
     9
 73
     5
 74
     0
 42
0.000000001
 43
0.00000001
 40
0.0
 40
0.0
 40
0.0
 40
0.0
 40
0.8225830668325238
 40
1.0
 40
1.0
 40
1.0
 40
1.0
 10
193.6502478219351
 20
114.080526548013
 30
0.0
 10
193.6531213823235
 20
113.7881838669066
 30
0.0
 10
193.6566147199624
 20
113.4327879283152
 30
0.0
 10
193.7488502350763
 20
113.0931180083688
 30
0.0
 10
193.7652143772969
 20
113.0328548128826
 30
0.0
  0
SPLINE
  5
11B
330
1F
100
AcDbEntity
  8
0
  6
HIDDEN
 62
     7
370
     0
100
AcDbSpline
210
0.0
220
0.0
230
1.0
 70
     8
 71
     3
 72
     9
 73
     5
 74
     0
 42
0.000000001
 43
0.00000001
 40
0.0
 40
0.0
 40
0.0
 40
0.0
 40
0.0068979166089793
 40
1.0
 40
1.0
 40
1.0
 40
1.0
 10
199.1476067767649
 20
108.58098095878
 30
0.0
 10
199.1495283833553
 20
108.5808287339513
 30
0.0
 10
199.4281062060934
 20
108.5587605012837
 30
0.0
 10
199.7066456094154
 20
108.6029117515845
 30
0.0
 10
199.9832636711609
 20
108.6467584502427
 30
0.0
  0
LINE
  5
11C
330
1F
100
AcDbEntity
  8
0
  6
HIDDEN
 62
     7
370
     0
100
AcDbLine
 10
204.6314178986
 20
113.8428172505
 30
0.0
 11
204.6502478219
 21
114.080526548
 31
0.0
  0
LINE
  5
11D
330
1F
100
AcDbEntity
  8
0
  6
HIDDEN
 62
     7
370
     0
100
AcDbLine
 10
101.6954125328
 20
90.5559279451
 30
0.0
 11
101.4437958745
 21
90.5324102965
 31
0.0
  0
LINE
  5
11E
330
1F
100
AcDbEntity
  8
0
  6
HIDDEN
 62
     7
370
     0
100
AcDbLine
 10
101.3208679875
 20
137.6399745312
 30
0.0
 11
101.6953198131
 21
137.6051085581
 31
0.0
  0
LINE
  5
11F
330
1F
100
AcDbEntity
  8
0
  6
HIDDEN
 62
     7
370
     0
100
AcDbLine
 10
213.1502478219
 20
133.2470678506
 30
0.0
 11
213.1502478219
 21
136.4010477417
 31
0.0
  0
SPLINE
  5
120
330
1F
100
AcDbEntity
  8
0
  6
HIDDEN
 62
     7
370
     0
100
AcDbSpline
210
0.0
220
0.0
230
1.0
 70
     8
 71
     3
 72
    18
 73
    14
 74
     0
 42
0.000000001
 43
0.00000001
 40
0.0
 40
0.0
 40
0.0
 40
0.0
 40
0.2499999999999989
 40
0.2499999999999989
 40
0.3749999999999991
 40
0.3749999999999991
 40
0.4999999999999992
 40
0.4999999999999992
 40
0.6249999999999994
 40
0.6249999999999994
 40
0.7499999999999996
 40
0.7499999999999996
 40
1.0
 40
1.0
 40
1.0
 40
1.0
 10
213.1502478219352
 20
129.9399535104875
 30
0.0
 10
213.2407808808061
 20
130.3801018262331
 30
0.0
 10
213.3089636761729
 20
130.7912107370024
 30
0.0
 10
213.3789934246653
 20
131.3632424954951
 30
0.0
 10
213.3967696578401
 20
131.5463394350282
 30
0.0
 10
213.4202021739239
 20
131.8852090029288
 30
0.0
 10
213.4260867248755
 20
132.0426374512666
 30
0.0
 10
213.4262287463814
 20
132.3334364320109
 30
0.0
 10
213.4203660142197
 20
132.4677442537705
 30
0.0
 10
213.3969031677218
 20
132.7055678174771
 30
0.0
 10
213.3794478246137
 20
132.8091312196532
 30
0.0
 10
213.310226475677
 20
133.0752827365249
 30
0.0
 10
213.2407966282122
 20
133.1936789687803
 30
0.0
 10
213.1502478219352
 20
133.2470678505821
 30
0.0
  0
LINE
  5
121
330
1F
100
AcDbEntity
  8
0
  6
HIDDEN
 62
     7
370
     0
100
AcDbLine
 10
213.1502478219
 20
98.2210995855
 30
0.0
 11
213.1502478219
 21
129.9399535105
 31
0.0
  0
SPLINE
  5
122
330
1F
100
AcDbEntity
  8
0
  6
HIDDEN
 62
     7
370
     0
100
AcDbSpline
210
0.0
220
0.0
230
1.0
 70
     8
 71
     3
 72
    18
 73
    14
 74
     0
 42
0.000000001
 43
0.00000001
 40
0.0
 40
0.0
 40
0.0
 40
0.0
 40
0.2500000000000005
 40
0.2500000000000005
 40
0.3750000000000004
 40
0.3750000000000004
 40
0.5000000000000003
 40
0.5000000000000003
 40
0.6250000000000002
 40
0.6250000000000002
 40
0.7500000000000001
 40
0.7500000000000001
 40
1.0
 40
1.0
 40
1.0
 40
1.0
 10
213.1502478219352
 20
94.91398524544401
 30
0.0
 10
213.2407808808061
 20
94.96736484234808
 30
0.0
 10
213.3089636761729
 20
95.08246566907047
 30
0.0
 10
213.3789934246653
 20
95.34941733213466
 30
0.0
 10
213.3967696578401
 20
95.45475442447092
 30
0.0
 10
213.4202021739239
 20
95.69103356727099
 30
0.0
 10
213.4260867248755
 20
95.8226351545544
 30
0.0
 10
213.4262287463814
 20
96.11281131759796
 30
0.0
 10
213.4203660142197
 20
96.27285078479014
 30
0.0
 10
213.3969031677218
 20
96.6133989956767
 30
0.0
 10
213.3794478246137
 20
96.79331952902051
 30
0.0
 10
213.310226475677
 20
97.36104996740305
 30
0.0
 10
213.2407966282122
 20
97.78087470997728
 30
0.0
 10
213.1502478219352
 20
98.22109958553851
 30
0.0
  0
LINE
  5
123
330
1F
100
AcDbEntity
  8
0
  6
HIDDEN
 62
     7
370
     0
100
AcDbLine
 10
213.1502478219
 20
91.7600053543
 30
0.0
 11
213.1502478219
 21
94.9139852454
 31
0.0
  0
SPLINE
  5
124
330
1F
100
AcDbEntity
  8
0
  6
HIDDEN
 62
     7
370
     0
100
AcDbSpline
210
0.0
220
0.0
230
1.0
 70
     8
 71
     3
 72
    15
 73
    11
 74
     0
 42
0.000000001
 43
0.00000001
 40
0.0
 40
0.0
 40
0.0
 40
0.0
 40
0.1409172169897704
 40
0.2818898291171902
 40
0.4212989265166053
 40
0.5593768372264383
 40
0.6988856205980563
 40
0.8403671979046401
 40
0.9813164454670257
 40
1.0
 40
1.0
 40
1.0
 40
1.0
 10
107.4552498235367
 20
94.24299807219656
 30
0.0
 10
107.1392081372642
 20
94.28335188951819
 30
0.0
 10
106.5070005274322
 20
94.36407538741301
 30
0.0
 10
105.2728374057549
 20
94.4406304850153
 30
0.0
 10
104.0021154048964
 20
94.43595443387625
 30
0.0
 10
102.813555999869
 20
94.35515842214403
 30
0.0
 10
101.8204333270879
 20
94.2307616256323
 30
0.0
 10
101.1810243207913
 20
94.1243580869702
 30
0.0
 10
100.9000042142078
 20
94.07127742629295
 30
0.0
 10
100.966564951901
 20
94.08353346630727
 30
0.0
 10
100.9743552754192
 20
94.0849679233171
 30
0.0
  0
SPLINE
  5
125
330
1F
100
AcDbEntity
  8
0
  6
HIDDEN
 62
     7
370
     0
100
AcDbSpline
210
0.0
220
0.0
230
1.0
 70
     8
 71
     3
 72
    15
 73
    11
 74
     0
 42
0.000000001
 43
0.00000001
 40
0.0
 40
0.0
 40
0.0
 40
0.0
 40
0.1201202395113815
 40
0.2584739316900678
 40
0.3987301965958622
 40
0.5404022890432683
 40
0.6807395403003625
 40
0.8190356063860856
 40
0.9577823106998823
 40
1.0
 40
1.0
 40
1.0
 40
1.0
 10
100.9743552754192
 20
134.076085172709
 30
0.0
 10
100.9950644118897
 20
134.0720605788553
 30
0.0
 10
101.0396261938775
 20
134.0634004845945
 30
0.0
 10
101.6020657997502
 20
133.9641093579858
 30
0.0
 10
102.4955280120715
 20
133.8401917680046
 30
0.0
 10
103.6545071662637
 20
133.7404813311831
 30
0.0
 10
104.927544046389
 20
133.7133428421075
 30
0.0
 10
106.1618293210326
 20
133.7686816762714
 30
0.0
 10
106.9897921177986
 20
133.8551602752556
 30
0.0
 10
107.3672026624626
 20
133.9061576935455
 30
0.0
 10
107.4552498235368
 20
133.9180550238295
 30
0.0
  0
SPLINE
  5
126
330
1F
100
AcDbEntity
  8
0
  6
HIDDEN
 62
     7
370
     0
100
AcDbSpline
210
0.0
220
0.0
230
1.0
 70
     8
 71
     3
 72
    10
 73
     6
 74
     0
 42
0.000000001
 43
0.00000001
 40
0.0
 40
0.0
 40
0.0
 40
0.0
 40
0.4476904961338042
 40
0.8953642292129909
 40
1.0
 40
1.0
 40
1.0
 40
1.0
 10
107.4552498235367
 20
133.9180550238295
 30
0.0
 10
107.7019492638601
 20
133.947567183131
 30
0.0
 10
108.1953389072407
 20
134.0065903966983
 30
0.0
 10
108.4843489561344
 20
134.0205285116239
 30
0.0
 10
108.4240347008428
 20
134.0166410067756
 30
0.0
 10
108.4126080848825
 20
134.0159045138068
 30
0.0
  0
SPLINE
  5
127
330
1F
100
AcDbEntity
  8
0
  6
HIDDEN
 62
     7
370
     0
100
AcDbSpline
210
0.0
220
0.0
230
1.0
 70
     8
 71
     3
 72
    10
 73
     6
 74
     0
 42
0.000000001
 43
0.00000001
 40
0.0
 40
0.0
 40
0.0
 40
0.0
 40
0.3457481527763783
 40
0.7967819327587805
 40
1.0
 40
1.0
 40
1.0
 40
1.0
 10
108.4126306207616
 20
94.14514705028567
 30
0.0
 10
108.4030712976169
 20
94.14570243764267
 30
0.0
 10
108.3810416904881
 20
94.146982336344
 30
0.0
 10
107.9639829137495
 20
94.17694809296557
 30
0.0
 10
107.5758181998619
 20
94.2273444044769
 30
0.0
 10
107.4552498235367
 20
94.24299807219656
 30
0.0
  0
LINE
  5
128
330
1F
100
AcDbEntity
  8
0
  6
HIDDEN
 62
     7
370
     0
100
AcDbLine
 10
94.7042224182
 20
97.080526548
 30
0.0
 11
94.7042224182
 21
131.080526548
 31
0.0
  0
LINE
  5
129
330
1F
100
AcDbEntity
  8
0
  6
HIDDEN
 62
     7
370
     0
100
AcDbLine
 10
209.1502478219
 20
104.8801189483
 30
0.0
 11
209.1502478219
 21
123.2809341477
 31
0.0
  0
LINE
  5
12A
330
1F
100
AcDbEntity
  8
0
  6
HIDDEN
 62
     7
370
     0
100
AcDbLine
 10
121.3600737905
 20
97.080526548
 30
0.0
 11
121.3600737905
 21
131.080526548
 31
0.0
  0
LINE
  5
12B
330
1F
100
AcDbEntity
  8
0
  6
HIDDEN
 62
     7
370
     0
100
AcDbLine
 10
123.6502478219
 20
98.355526548
 30
0.0
 11
123.6502478219
 21
129.805526548
 31
0.0
  0
SPLINE
  5
12C
330
1F
100
AcDbEntity
  8
0
  6
HIDDEN
 62
     7
370
     0
100
AcDbSpline
210
0.0
220
0.0
230
1.0
 70
     8
 71
     3
 72
    18
 73
    14
 74
     0
 42
0.000000001
 43
0.00000001
 40
0.0
 40
0.0
 40
0.0
 40
0.0
 40
0.2500000000000033
 40
0.2500000000000033
 40
0.3750000000000029
 40
0.3750000000000029
 40
0.5000000000000026
 40
0.5000000000000026
 40
0.6250000000000022
 40
0.6250000000000022
 40
0.7500000000000018
 40
0.7500000000000018
 40
1.0
 40
1.0
 40
1.0
 40
1.0
 10
87.90024782193514
 20
130.3680401704171
 30
0.0
 10
87.90024782193514
 20
130.313565649865
 30
0.0
 10
87.86533713054298
 20
130.2571845905125
 30
0.0
 10
87.76332782920993
 20
130.173107749659
 30
0.0
 10
87.72169147453182
 20
130.1457740456681
 30
0.0
 10
87.62328567904306
 20
130.0928201300691
 30
0.0
 10
87.56574246733878
 20
130.0669327763519
 30
0.0
 10
87.43844429376584
 20
130.0191552315187
 30
0.0
 10
87.36885698900836
 20
129.9972073133408
 30
0.0
 10
87.21742274385342
 20
129.9577747484281
 30
0.0
 10
87.13473884075947
 20
129.9402184992022
 30
0.0
 10
86.87862737872142
 20
129.8977797337817
 30
0.0
 10
86.69071237483342
 20
129.8820169840447
 30
0.0
 10
86.50024782193515
 20
129.8820169840447
 30
0.0
  0
LINE
  5
12D
330
1F
100
AcDbEntity
  8
0
  6
HIDDEN
 62
     7
370
     0
100
AcDbLine
 10
86.5002478219
 20
129.882016984
 30
0.0
 11
82.9502478219
 21
129.882016984
 31
0.0
  0
LINE
  5
12E
330
1F
100
AcDbEntity
  8
0
  6
HIDDEN
 62
     7
370
     0
100
AcDbLine
 10
82.9502478219
 20
98.279036112
 30
0.0
 11
90.5002478219
 21
98.279036112
 31
0.0
  0
SPLINE
  5
12F
330
1F
100
AcDbEntity
  8
0
  6
HIDDEN
 62
     7
370
     0
100
AcDbSpline
210
0.0
220
0.0
230
1.0
 70
     8
 71
     3
 72
    16
 73
    12
 74
     0
 42
0.000000001
 43
0.00000001
 40
0.0
 40
0.0
 40
0.0
 40
0.0
 40
0.124999999999998
 40
0.124999999999998
 40
0.249999999999996
 40
0.249999999999996
 40
0.4999999999999973
 40
0.4999999999999973
 40
0.7499999999999987
 40
0.7499999999999987
 40
1.0
 40
1.0
 40
1.0
 40
1.0
 10
90.50024782193515
 20
98.27903611198137
 30
0.0
 10
90.59536957660097
 20
98.27903611198137
 30
0.0
 10
90.68869964532905
 20
98.27522027858856
 30
0.0
 10
90.87196140606706
 20
98.26044972585876
 30
0.0
 10
90.96283912162406
 20
98.24929167788318
 30
0.0
 10
91.2196408191438
 20
98.20682040774145
 30
0.0
 10
91.3747081840158
 20
98.16577421053866
 30
0.0
 10
91.62845464557041
 20
98.07062809395677
 30
0.0
 10
91.72932509723827
 20
98.01586535987519
 30
0.0
 10
91.86457151193311
 20
97.9046042359713
 30
0.0
 10
91.90024782193515
 20
97.84743449864263
 30
0.0
 10
91.90024782193515
 20
97.7930129256089
 30
0.0
  0
LINE
  5
130
330
1F
100
AcDbEntity
  8
0
  6
HIDDEN
 62
     7
370
     0
100
AcDbLine
 10
82.9502478219
 20
98.279036112
 30
0.0
 11
82.9502478219
 21
129.882016984
 31
0.0
  0
LINE
  5
131
330
1F
100
AcDbEntity
  8
0
  6
HIDDEN
 62
     7
370
     0
100
AcDbLine
 10
209.1502478219
 20
128.080526548
 30
0.0
 11
209.1502478219
 21
123.2809341477
 31
0.0
  0
LINE
  5
132
330
1F
100
AcDbEntity
  8
0
  6
HIDDEN
 62
     7
370
     0
100
AcDbLine
 10
209.1502478219
 20
123.2809341477
 30
0.0
 11
213.1502478219
 21
123.2809341477
 31
0.0
  0
LINE
  5
133
330
1F
100
AcDbEntity
  8
0
  6
HIDDEN
 62
     7
370
     0
100
AcDbLine
 10
213.1502478219
 20
133.2470678506
 30
0.0
 11
213.1502478219
 21
133.1072642362
 31
0.0
  0
LINE
  5
134
330
1F
100
AcDbEntity
  8
0
  6
HIDDEN
 62
     7
370
     0
100
AcDbLine
 10
209.1502478219
 20
133.1072642362
 30
0.0
 11
213.1502478219
 21
133.1072642362
 31
0.0
  0
LINE
  5
135
330
1F
100
AcDbEntity
  8
0
  6
HIDDEN
 62
     7
370
     0
100
AcDbLine
 10
209.1502478219
 20
133.280526548
 30
0.0
 11
209.1502478219
 21
128.080526548
 31
0.0
  0
LINE
  5
136
330
1F
100
AcDbEntity
  8
0
  6
HIDDEN
 62
     7
370
     0
100
AcDbLine
 10
209.1502478219
 20
95.0537888598
 30
0.0
 11
213.1502478219
 21
95.0537888598
 31
0.0
  0
LINE
  5
137
330
1F
100
AcDbEntity
  8
0
  6
HIDDEN
 62
     7
370
     0
100
AcDbLine
 10
213.1502478219
 20
95.0537888598
 30
0.0
 11
213.1502478219
 21
94.9139852454
 31
0.0
  0
LINE
  5
138
330
1F
100
AcDbEntity
  8
0
  6
HIDDEN
 62
     7
370
     0
100
AcDbLine
 10
209.1502478219
 20
100.080526548
 30
0.0
 11
209.1502478219
 21
94.880526548
 31
0.0
  0
LINE
  5
139
330
1F
100
AcDbEntity
  8
0
  6
HIDDEN
 62
     7
370
     0
100
AcDbLine
 10
209.1502478219
 20
104.8801189483
 30
0.0
 11
209.1502478219
 21
100.080526548
 31
0.0
  0
LINE
  5
13A
330
1F
100
AcDbEntity
  8
0
  6
HIDDEN
 62
     7
370
     0
100
AcDbLine
 10
213.1502478219
 20
104.8801189483
 30
0.0
 11
209.1502478219
 21
104.8801189483
 31
0.0
  0
LINE
  5
13B
330
1F
100
AcDbEntity
  8
0
  6
HIDDEN
 62
     7
370
     0
100
AcDbLine
 10
207.9502478219
 20
99.080526548
 30
0.0
 11
207.9502478219
 21
129.080526548
 31
0.0
  0
LINE
  5
13C
330
1F
100
AcDbEntity
  8
0
  6
HIDDEN
 62
     7
370
     0
100
AcDbLine
 10
182.7002478219
 20
99.380526548
 30
0.0
 11
182.7002478219
 21
128.7805265312
 31
0.0
  0
LINE
  5
13D
330
1F
100
AcDbEntity
  8
0
  6
HIDDEN
 62
     7
370
     0
100
AcDbLine
 10
185.2002478219
 20
99.080526548
 30
0.0
 11
185.2002478219
 21
129.080526548
 31
0.0
  0
SPLINE
  5
13E
330
1F
100
AcDbEntity
  8
0
  6
HIDDEN
 62
     7
370
     0
100
AcDbSpline
210
0.0
220
0.0
230
1.0
 70
     8
 71
     3
 72
    21
 73
    17
 74
     0
 42
0.000000001
 43
0.00000001
 40
0.0
 40
0.0
 40
0.0
 40
0.0
 40
0.0764553814869869
 40
0.1547171097917496
 40
0.2313817905798196
 40
0.3075281837543639
 40
0.382659617091867
 40
0.4574327950149999
 40
0.5321998512911307
 40
0.605371501329899
 40
0.6785752573982152
 40
0.7535605412384911
 40
0.8285173831166742
 40
0.9037724743479718
 40
0.9799084551287759
 40
1.0
 40
1.0
 40
1.0
 40
1.0
 10
199.1502478219351
 20
107.8867701274185
 30
0.0
 10
199.5746223143168
 20
107.9097457739812
 30
0.0
 10
200.4333976373043
 20
107.9562398933308
 30
0.0
 10
201.6609999981394
 20
108.3338336988328
 30
0.0
 10
202.793488985551
 20
108.899502146766
 30
0.0
 10
203.7732764702106
 20
109.6660076787373
 30
0.0
 10
204.5811226798259
 20
110.5980138581916
 30
0.0
 10
205.1846559205976
 20
111.6740161110088
 30
0.0
 10
205.5707957874554
 20
112.8466924431766
 30
0.0
 10
205.7012655481533
 20
114.0741874991098
 30
0.0
 10
205.5733562405017
 20
115.3035624089876
 30
0.0
 10
205.1872773862296
 20
116.478212599697
 30
0.0
 10
204.5859762055876
 20
117.5609914533735
 30
0.0
 10
203.7704868821521
 20
118.4827480571423
 30
0.0
 10
203.0543768334663
 20
119.0943985652745
 30
0.0
 10
202.5811681490895
 20
119.3239928138653
 30
0.0
 10
202.482365925389
 20
119.3719302737187
 30
0.0
  0
SPLINE
  5
13F
330
1F
100
AcDbEntity
  8
0
  6
HIDDEN
 62
     7
370
     0
100
AcDbSpline
210
0.0
220
0.0
230
1.0
 70
     8
 71
     3
 72
    21
 73
    17
 74
     0
 42
0.000000001
 43
0.00000001
 40
0.0
 40
0.0
 40
0.0
 40
0.0
 40
0.0197200228077969
 40
0.0959694911675226
 40
0.1711776693379067
 40
0.2460574029725239
 40
0.3208468874296606
 40
0.3940638852070152
 40
0.4672855330936271
 40
0.5421908435400802
 40
0.6171535056697334
 40
0.692420813334547
 40
0.7686171112565825
 40
0.8453070972291458
 40
0.9235192450616626
 40
1.0
 40
1.0
 40
1.0
 40
1.0
 10
195.8122434037954
 20
119.3689276750397
 30
0.0
 10
195.715326277188
 20
119.3218685440211
 30
0.0
 10
195.2436692503893
 20
119.0928505097797
 30
0.0
 10
194.5294709598295
 20
118.4820424138926
 30
0.0
 10
193.7143021841178
 20
117.5608599590005
 30
0.0
 10
193.1138135870775
 20
116.4801849410472
 30
0.0
 10
192.7285346617141
 20
115.3074365656862
 30
0.0
 10
192.5993558500966
 20
114.0795890382335
 30
0.0
 10
192.727706227471
 20
112.8512164907778
 30
0.0
 10
193.1132682843893
 20
111.6766136321031
 30
0.0
 10
193.7170412894629
 20
110.5983224242816
 30
0.0
 10
194.5271072974153
 20
109.6659953368327
 30
0.0
 10
195.5085346262292
 20
108.9005291043623
 30
0.0
 10
196.640832160809
 20
108.3353700079625
 30
0.0
 10
197.8678064449306
 20
107.9579545800615
 30
0.0
 10
198.7259690107184
 20
107.910320564488
 30
0.0
 10
199.1502478219351
 20
107.8867701274185
 30
0.0
  0
LINE
  5
140
330
1F
100
AcDbEntity
  8
0
  6
HIDDEN
 62
     7
370
     0
100
AcDbLine
 10
82.9502478219
 20
96.090526548
 30
0.0
 11
82.9502478219
 21
93.2105887826
 31
0.0
  0
LINE
  5
141
330
1F
100
AcDbEntity
  8
0
  6
HIDDEN
 62
     7
370
     0
100
AcDbLine
 10
91.9002478219
 20
96.090526548
 30
0.0
 11
91.9002478219
 21
92.1167890168
 31
0.0
  0
LINE
  5
142
330
1F
100
AcDbEntity
  8
0
  6
HIDDEN
 62
     7
370
     0
100
AcDbLine
 10
82.9502478219
 20
132.070526548
 30
0.0
 11
82.9502478219
 21
134.9504643134
 31
0.0
  0
LINE
  5
143
330
1F
100
AcDbEntity
  8
0
  6
HIDDEN
 62
     7
370
     0
100
AcDbLine
 10
87.9002478219
 20
132.070526548
 30
0.0
 11
87.9002478219
 21
135.9246342204
 31
0.0
  0
LINE
  5
144
330
1F
100
AcDbEntity
  8
0
  6
HIDDEN
 62
     7
370
     0
100
AcDbLine
 10
209.1502478219
 20
135.355526548
 30
0.0
 11
209.1502478219
 21
133.280526548
 31
0.0
  0
LINE
  5
145
330
1F
100
AcDbEntity
  8
0
  6
HIDDEN
 62
     7
370
     0
100
AcDbLine
 10
209.1502478219
 20
94.880526548
 30
0.0
 11
209.1502478219
 21
92.805526548
 31
0.0
  0
LINE
  5
146
330
1F
100
AcDbEntity
  8
0
  6
HIDDEN
 62
     7
370
     0
100
AcDbLine
 10
135.5002478219
 20
104.580526548
 30
0.0
 11
135.5002478219
 21
123.580526548
 31
0.0
  0
LINE
  5
147
330
1F
100
AcDbEntity
  8
0
  6
HIDDEN
 62
     7
370
     0
100
AcDbLine
 10
133.0002478219
 20
104.580526548
 30
0.0
 11
133.0002478219
 21
123.580526548
 31
0.0
  0
LINE
  5
148
330
1F
100
AcDbEntity
  8
0
  6
HIDDEN
 62
     7
370
     0
100
AcDbLine
 10
124.1502478219
 20
105.580526548
 30
0.0
 11
124.1502478219
 21
122.580526548
 31
0.0
  0
LINE
  5
149
330
1F
100
AcDbEntity
  8
0
  6
HIDDEN
 62
     7
370
     0
100
AcDbLine
 10
139.6502478219
 20
87.680526548
 30
0.0
 11
133.5125730196
 21
87.680526548
 31
0.0
  0
LINE
  5
14A
330
1F
100
AcDbEntity
  8
0
  6
HIDDEN
 62
     7
370
     0
100
AcDbLine
 10
129.8879226243
 20
87.680526548
 30
0.0
 11
126.6502478219
 21
87.680526548
 31
0.0
  0
LINE
  5
14B
330
1F
100
AcDbEntity
  8
0
  6
HIDDEN
 62
     7
370
     0
100
AcDbLine
 10
118.6502478219
 20
82.5964035652
 30
0.0
 11
118.6502478219
 21
87.680526548
 31
0.0
  0
LINE
  5
14C
330
1F
100
AcDbEntity
  8
0
  6
HIDDEN
 62
     7
370
     0
100
AcDbLine
 10
126.6502478219
 20
87.680526548
 30
0.0
 11
118.6502478219
 21
87.680526548
 31
0.0
  0
LINE
  5
14D
330
1F
100
AcDbEntity
  8
0
  6
HIDDEN
 62
     7
370
     0
100
AcDbLine
 10
126.6502478219
 20
140.480526548
 30
0.0
 11
118.6502478219
 21
140.480526548
 31
0.0
  0
LINE
  5
14E
330
1F
100
AcDbEntity
  8
0
  6
HIDDEN
 62
     7
370
     0
100
AcDbLine
 10
139.6502478219
 20
140.480526548
 30
0.0
 11
133.2159502902
 21
140.480526548
 31
0.0
  0
LINE
  5
14F
330
1F
100
AcDbEntity
  8
0
  6
HIDDEN
 62
     7
370
     0
100
AcDbLine
 10
130.1845453536
 20
140.480526548
 30
0.0
 11
126.6502478219
 21
140.480526548
 31
0.0
  0
ELLIPSE
  5
150
330
1F
100
AcDbEntity
  8
0
  6
HIDDEN
 62
     7
370
     0
100
AcDbEllipse
 10
77.6328159576
 20
114.080526548
 30
0.0
 11
20.07002071827083
 21
-1.421085471520200E-14
 31
0.0
210
0.0
220
0.0
230
1.0
 40
0.8164965809
 41
4.921555463185716
 42
4.980534842098416
  0
ELLIPSE
  5
151
330
1F
100
AcDbEntity
  8
0
  6
HIDDEN
 62
     7
370
     0
100
AcDbEllipse
 10
77.6328159576
 20
114.080526548
 30
0.0
 11
20.07002071827083
 21
-1.421085471520200E-14
 31
0.0
210
0.0
220
0.0
230
1.0
 40
0.8164965809
 41
1.302650465081184
 42
1.361629843993883
  0
LINE
  5
152
330
1F
100
AcDbEntity
  8
0
  6
HIDDEN
 62
     7
370
     0
100
AcDbLine
 10
91.9002478219
 20
96.090526548
 30
0.0
 11
91.9002478219
 21
97.7930129256
 31
0.0
  0
LINE
  5
153
330
1F
100
AcDbEntity
  8
0
  6
HIDDEN
 62
     7
370
     0
100
AcDbLine
 10
82.9502478219
 20
96.090526548
 30
0.0
 11
82.9502478219
 21
98.279036112
 31
0.0
  0
LINE
  5
154
330
1F
100
AcDbEntity
  8
0
  6
HIDDEN
 62
     7
370
     0
100
AcDbLine
 10
82.9502478219
 20
132.070526548
 30
0.0
 11
82.9502478219
 21
129.882016984
 31
0.0
  0
LINE
  5
155
330
1F
100
AcDbEntity
  8
0
  6
HIDDEN
 62
     7
370
     0
100
AcDbLine
 10
87.9002478219
 20
132.070526548
 30
0.0
 11
87.9002478219
 21
130.3680401704
 31
0.0
  0
LWPOLYLINE
  5
156
330
1F
100
AcDbEntity
  8
0
  6
HIDDEN
 62
     7
370
     0
100
AcDbPolyline
 90
       17
 70
   128
 43
0.0
 10
108.4489699774
 20
90.4805640117
 10
108.2202178562
 20
90.5416426378
 10
107.8831022934
 20
90.6193268498
 10
107.3644066448
 20
90.7283285692
 10
106.6226312336
 20
90.8584330121
 10
105.8924220858
 20
90.9590113683
 10
104.7209954837
 20
91.0715898206
 10
103.3994188132
 20
91.0976717333
 10
102.7108767771
 20
91.0765066273
 10
102.0607513334
 20
91.0325374798
 10
101.4801112538
 20
90.9755620882
 10
101.1441369549
 20
90.9347992581
 10
100.9502675756
 20
90.901911282
 10
101.1392704732
 20
90.933961328
 10
101.4712610916
 20
90.9743775726
 10
102.0441174447
 20
91.0310546316
 10
102.0441174447
 20
91.0310546316
  0
SPLINE
  5
157
330
1F
100
AcDbEntity
  8
0
  6
HIDDEN
 62
     7
370
     0
100
AcDbSpline
210
0.0
220
0.0
230
1.0
 70
     8
 71
     3
 72
    27
 73
    23
 74
     0
 42
0.000000001
 43
0.00000001
 40
0.0
 40
0.0
 40
0.0
 40
0.0
 40
0.0007869029265363
 40
0.0456696144890364
 40
0.102251155428833
 40
0.1705287975300903
 40
0.2091201236116244
 40
0.2506469357009407
 40
0.3210925422208437
 40
0.3861860300590094
 40
0.4266649725453293
 40
0.4647959834431981
 40
0.500600023196361
 40
0.545191948318059
 40
0.6016860662451509
 40
0.6700916054033974
 40
0.7088286056010394
 40
0.7505569469469572
 40
0.8222214429610366
 40
0.8877608961733876
 40
0.9472347972705553
 40
1.0
 40
1.0
 40
1.0
 40
1.0
 10
100.9508986890607
 20
137.2589449140656
 30
0.0
 10
100.9506823840605
 20
137.2589915401493
 30
0.0
 10
100.9381286552125
 20
137.2616975858319
 30
0.0
 10
100.9872102086674
 20
137.2498644240762
 30
0.0
 10
101.1323046278618
 20
137.2264224814267
 30
0.0
 10
101.4053571970433
 20
137.1925179223728
 30
0.0
 10
101.7338802840306
 20
137.1589493627868
 30
0.0
 10
102.1266055615227
 20
137.1207660155189
 30
0.0
 10
102.6763314570384
 20
137.0817971586415
 30
0.0
 10
103.3023534797663
 20
137.0623356207843
 30
0.0
 10
103.8455441753411
 20
137.0601495031123
 30
0.0
 10
104.2906119717
 20
137.06866394862
 30
0.0
 10
104.7570603952981
 20
137.0884469435592
 30
0.0
 10
105.2943027535538
 20
137.1326088943264
 30
0.0
 10
105.942518150513
 20
137.2050241840093
 30
0.0
 10
106.5280571351225
 20
137.2859259937809
 30
0.0
 10
107.0090263705431
 20
137.3640916709989
 30
0.0
 10
107.4544426821739
 20
137.4488638248234
 30
0.0
 10
107.8929449540382
 20
137.542646976002
 30
0.0
 10
108.2319768300366
 20
137.62055194101
 30
0.0
 10
108.4193386989871
 20
137.6707490849991
 30
0.0
 10
108.4398298213166
 20
137.6774165749523
 30
0.0
 10
108.4494629900341
 20
137.6805510570275
 30
0.0
  0
LINE
  5
158
330
1F
100
AcDbEntity
  8
0
  6
HIDDEN
 62
     7
370
     0
100
AcDbLine
 10
129.7902478219
 20
134.2163931795
 30
0.0
 11
129.7902478219
 21
133.930526548
 31
0.0
  0
LINE
  5
159
330
1F
100
AcDbEntity
  8
0
  6
HIDDEN
 62
     7
370
     0
100
AcDbLine
 10
133.6102478219
 20
134.2163931795
 30
0.0
 11
133.6102478219
 21
133.930526548
 31
0.0
  0
LINE
  5
15A
330
1F
100
AcDbEntity
  8
0
  6
HIDDEN
 62
     7
370
     0
100
AcDbLine
 10
135.0921806534
 20
138.5392162104
 30
0.0
 11
135.0921806534
 21
133.930526548
 31
0.0
  0
CIRCLE
  5
15B
330
1F
100
AcDbEntity
  8
0
  6
HIDDEN
 62
     7
370
     0
100
AcDbCircle
 10
120.7002478219
 20
114.080526548
 30
0.0
 40
5.0
  0
ARC
  5
15C
330
1F
100
AcDbEntity
  8
0
  6
HIDDEN
 62
     7
370
     0
100
AcDbCircle
 10
199.1502478219
 20
114.080526548
 30
0.0
 40
6.00000000000001
100
AcDbArc
 50
142.1686385225
 51
217.777725822
  0
ARC
  5
15D
330
1F
100
AcDbEntity
  8
0
  6
HIDDEN
 62
     7
370
     0
100
AcDbCircle
 10
199.1502478219
 20
114.080526548
 30
0.0
 40
6.000000000000009
100
AcDbArc
 50
322.1686385225
 51
37.777725822
  0
CIRCLE
  5
15E
330
1F
100
AcDbEntity
  8
0
  6
HIDDEN
 62
     7
370
     0
100
AcDbCircle
 10
199.1502478219
 20
114.080526548
 30
0.0
 40
5.258613578496409
  0
CIRCLE
  5
15F
330
1F
100
AcDbEntity
  8
0
  6
HIDDEN
 62
     7
370
     0
100
AcDbCircle
 10
199.1502478219
 20
114.080526548
 30
0.0
 40
4.094716599621009
  0
CIRCLE
  5
160
330
1F
100
AcDbEntity
  8
0
  6
HIDDEN
 62
     7
370
     0
100
AcDbCircle
 10
199.1502478219
 20
114.080526548
 30
0.0
 40
3.694716599621003
  0
LINE
  5
161
330
1F
100
AcDbEntity
  8
0
  6
HIDDEN
 62
     7
370
     0
100
AcDbLine
 10
113.7002478219
 20
88.7616054221
 30
0.0
 11
113.7944085975
 21
89.4315941533
 31
0.0
  0
LINE
  5
162
330
1F
100
AcDbEntity
  8
0
  6
HIDDEN
 62
     7
370
     0
100
AcDbLine
 10
113.7944085975
 20
138.7294589427
 30
0.0
 11
113.7002478219
 21
139.399447674
 31
0.0
  0
ARC
  5
163
330
1F
100
AcDbEntity
  8
0
  6
HIDDEN
 62
     7
370
     0
100
AcDbCircle
 10
113.2002410693
 20
89.5150989537
 30
0.0
 40
0.6000067526677242
100
AcDbArc
 50
352.0
 51
0.0
  0
ARC
  5
164
330
1F
100
AcDbEntity
  8
0
  6
HIDDEN
 62
     7
370
     0
100
AcDbCircle
 10
113.2002410693
 20
89.5150989537
 30
0.0
 40
0.6000067526677242
100
AcDbArc
 50
0.0
 51
33.5571153394
  0
ARC
  5
165
330
1F
100
AcDbEntity
  8
0
  6
HIDDEN
 62
     7
370
     0
100
AcDbCircle
 10
113.2002410693
 20
138.6459541424
 30
0.0
 40
0.6000067526677121
100
AcDbArc
 50
348.75
 51
8.0
  0
LWPOLYLINE
  5
166
330
1F
100
AcDbEntity
  8
0
  6
HIDDEN
 62
     7
370
     0
100
AcDbPolyline
 90
        3
 70
   128
 43
0.0
 10
113.7887188604
 20
138.5288986318
 10
113.7545750274
 20
138.4163414988
 10
113.7002478219
 20
138.3142896273
  0
LINE
  5
167
330
1F
100
AcDbEntity
  8
0
  6
HIDDEN
 62
     7
370
     0
100
AcDbLine
 10
113.8002478219
 20
89.5150989537
 30
0.0
 11
113.8002478219
 21
138.6459541424
 31
0.0
  0
LINE
  5
168
330
1F
100
AcDbEntity
  8
0
  6
HIDDEN
 62
     7
370
     0
100
AcDbLine
 10
213.7002478219
 20
137.580526548
 30
0.0
 11
213.1502478219
 21
136.4010477417
 31
0.0
  0
LINE
  5
169
330
1F
100
AcDbEntity
  8
0
  6
HIDDEN
 62
     7
370
     0
100
AcDbLine
 10
213.1502478219
 20
91.7600053543
 30
0.0
 11
213.7002478219
 21
90.580526548
 31
0.0
  0
ARC
  5
16A
330
1F
100
AcDbEntity
  8
0
  6
HIDDEN
 62
     7
370
     0
100
AcDbCircle
 10
96.7826833872
 20
94.680526548
 30
0.0
 40
0.6000000000000084
100
AcDbArc
 50
210.0
 51
270.0
  0
ARC
  5
16B
330
1F
100
AcDbEntity
  8
0
  6
HIDDEN
 62
     7
370
     0
100
AcDbCircle
 10
96.7826833872
 20
133.480526548
 30
0.0
 40
0.6000000000000013
100
AcDbArc
 50
90.0
 51
150.0
  0
LINE
  5
16C
330
1F
100
AcDbEntity
  8
0
  6
HIDDEN
 62
     7
370
     0
100
AcDbLine
 10
96.7826833872
 20
94.080526548
 30
0.0
 11
100.9743552754
 21
94.080526548
 31
0.0
  0
LINE
  5
16D
330
1F
100
AcDbEntity
  8
0
  6
HIDDEN
 62
     7
370
     0
100
AcDbLine
 10
100.9743552754
 20
134.080526548
 30
0.0
 11
96.7826833872
 21
134.080526548
 31
0.0
  0
ARC
  5
16E
330
1F
100
AcDbEntity
  8
0
  6
HIDDEN
 62
     7
370
     0
100
AcDbCircle
 10
107.4552498235
 20
102.080526548
 30
0.0
 40
8.000000000000004
100
AcDbArc
 50
276.8737647156
 51
321.3178125465
  0
ARC
  5
16F
330
1F
100
AcDbEntity
  8
0
  6
HIDDEN
 62
     7
370
     0
100
AcDbCircle
 10
107.4552498235
 20
126.080526548
 30
0.0
 40
8.000000000000012
100
AcDbArc
 50
38.6821874535
 51
83.1168281217
  0
LINE
  5
170
330
1F
100
AcDbEntity
  8
0
  6
HIDDEN
 62
     7
370
     0
100
AcDbLine
 10
96.263068145
 20
133.780526548
 30
0.0
 11
94.7042224182
 21
131.080526548
 31
0.0
  0
LINE
  5
171
330
1F
100
AcDbEntity
  8
0
  6
HIDDEN
 62
     7
370
     0
100
AcDbLine
 10
94.7042224182
 20
97.080526548
 30
0.0
 11
96.263068145
 21
94.380526548
 31
0.0
  0
ARC
  5
172
330
1F
100
AcDbEntity
  8
0
  6
HIDDEN
 62
     7
370
     0
100
AcDbCircle
 10
122.1502478219
 20
98.355526548
 30
0.0
 40
1.5
100
AcDbArc
 50
238.2116693829
 51
0.0
  0
ARC
  5
173
330
1F
100
AcDbEntity
  8
0
  6
HIDDEN
 62
     7
370
     0
100
AcDbCircle
 10
122.1502478219
 20
129.805526548
 30
0.0
 40
1.500000000000001
100
AcDbArc
 50
0.0
 51
121.7883306171
  0
LINE
  5
174
330
1F
100
AcDbEntity
  8
0
  6
HIDDEN
 62
     7
370
     0
100
AcDbLine
 10
91.9002478219
 20
97.080526548
 30
0.0
 11
94.7042224182
 21
97.080526548
 31
0.0
  0
LINE
  5
175
330
1F
100
AcDbEntity
  8
0
  6
HIDDEN
 62
     7
370
     0
100
AcDbLine
 10
94.7042224182
 20
131.080526548
 30
0.0
 11
87.9002478219
 21
131.080526548
 31
0.0
  0
LINE
  5
176
330
1F
100
AcDbEntity
  8
0
  6
HIDDEN
 62
     7
370
     0
100
AcDbLine
 10
113.7002478219
 20
97.080526548
 30
0.0
 11
121.3600737905
 21
97.080526548
 31
0.0
  0
LINE
  5
177
330
1F
100
AcDbEntity
  8
0
  6
HIDDEN
 62
     7
370
     0
100
AcDbLine
 10
121.3600737905
 20
131.080526548
 30
0.0
 11
113.7002478219
 21
131.080526548
 31
0.0
  0
LINE
  5
178
330
1F
100
AcDbEntity
  8
0
  6
HIDDEN
 62
     7
370
     0
100
AcDbLine
 10
213.1502478219
 20
133.280526548
 30
0.0
 11
209.1502478219
 21
133.280526548
 31
0.0
  0
LINE
  5
179
330
1F
100
AcDbEntity
  8
0
  6
HIDDEN
 62
     7
370
     0
100
AcDbLine
 10
209.1502478219
 20
94.880526548
 30
0.0
 11
213.1502478219
 21
94.880526548
 31
0.0
  0
LINE
  5
17A
330
1F
100
AcDbEntity
  8
0
  6
HIDDEN
 62
     7
370
     0
100
AcDbLine
 10
209.1502478219
 20
129.773346871
 30
0.0
 11
207.9502478219
 21
129.080526548
 31
0.0
  0
LINE
  5
17B
330
1F
100
AcDbEntity
  8
0
  6
HIDDEN
 62
     7
370
     0
100
AcDbLine
 10
207.9502478219
 20
99.080526548
 30
0.0
 11
209.1502478219
 21
98.387706225
 31
0.0
  0
ARC
  5
17C
330
1F
100
AcDbEntity
  8
0
  6
HIDDEN
 62
     7
370
     0
100
AcDbCircle
 10
184.0016410811
 20
99.380526548
 30
0.0
 40
0.5999999999999943
100
AcDbArc
 50
270.0
 51
285.0
  0
ARC
  5
17D
330
1F
100
AcDbEntity
  8
0
  6
HIDDEN
 62
     7
370
     0
100
AcDbCircle
 10
184.0016410811
 20
128.780526548
 30
0.0
 40
0.5999999999999943
100
AcDbArc
 50
75.0
 51
90.0
  0
LINE
  5
17E
330
1F
100
AcDbEntity
  8
0
  6
HIDDEN
 62
     7
370
     0
100
AcDbLine
 10
183.3002478219
 20
98.780526548
 30
0.0
 11
184.0016410811
 21
98.780526548
 31
0.0
  0
LINE
  5
17F
330
1F
100
AcDbEntity
  8
0
  6
HIDDEN
 62
     7
370
     0
100
AcDbLine
 10
184.0016410811
 20
129.380526548
 30
0.0
 11
183.3002478219
 21
129.380526548
 31
0.0
  0
ARC
  5
180
330
1F
100
AcDbEntity
  8
0
  6
HIDDEN
 62
     7
370
     0
100
AcDbCircle
 10
183.3002478219
 20
99.380526548
 30
0.0
 40
0.5999999999999943
100
AcDbArc
 50
180.0
 51
270.0
  0
ARC
  5
181
330
1F
100
AcDbEntity
  8
0
  6
HIDDEN
 62
     7
370
     0
100
AcDbCircle
 10
183.3002478219
 20
128.780526548
 30
0.0
 40
0.5999999999999943
100
AcDbArc
 50
90.0
 51
180.0
  0
LINE
  5
182
330
1F
100
AcDbEntity
  8
0
  6
HIDDEN
 62
     7
370
     0
100
AcDbLine
 10
184.1569325082
 20
98.8009710522
 30
0.0
 11
185.2002478219
 21
99.080526548
 31
0.0
  0
LINE
  5
183
330
1F
100
AcDbEntity
  8
0
  6
HIDDEN
 62
     7
370
     0
100
AcDbLine
 10
185.2002478219
 20
129.080526548
 30
0.0
 11
184.1569325082
 21
129.3600820438
 31
0.0
  0
LINE
  5
184
330
1F
100
AcDbEntity
  8
0
  6
HIDDEN
 62
     7
370
     0
100
AcDbLine
 10
185.2002478219
 20
99.080526548
 30
0.0
 11
207.9502478219
 21
99.080526548
 31
0.0
  0
LINE
  5
185
330
1F
100
AcDbEntity
  8
0
  6
HIDDEN
 62
     7
370
     0
100
AcDbLine
 10
207.9502478219
 20
129.080526548
 30
0.0
 11
185.2002478219
 21
129.080526548
 31
0.0
  0
LINE
  5
186
330
1F
100
AcDbEntity
  8
0
  6
HIDDEN
 62
     7
370
     0
100
AcDbLine
 10
213.1502478219
 20
135.355526548
 30
0.0
 11
209.1502478219
 21
135.355526548
 31
0.0
  0
LINE
  5
187
330
1F
100
AcDbEntity
  8
0
  6
HIDDEN
 62
     7
370
     0
100
AcDbLine
 10
209.1502478219
 20
92.805526548
 30
0.0
 11
213.1502478219
 21
92.805526548
 31
0.0
  0
LINE
  5
188
330
1F
100
AcDbEntity
  8
0
  6
HIDDEN
 62
     7
370
     0
100
AcDbLine
 10
133.0002478219
 20
104.580526548
 30
0.0
 11
135.5002478219
 21
104.580526548
 31
0.0
  0
LINE
  5
189
330
1F
100
AcDbEntity
  8
0
  6
HIDDEN
 62
     7
370
     0
100
AcDbLine
 10
135.5002478219
 20
123.580526548
 30
0.0
 11
133.0002478219
 21
123.580526548
 31
0.0
  0
LINE
  5
18A
330
1F
100
AcDbEntity
  8
0
  6
HIDDEN
 62
     7
370
     0
100
AcDbLine
 10
123.6502478219
 20
105.080526548
 30
0.0
 11
124.1502478219
 21
105.580526548
 31
0.0
  0
LINE
  5
18B
330
1F
100
AcDbEntity
  8
0
  6
HIDDEN
 62
     7
370
     0
100
AcDbLine
 10
124.1502478219
 20
122.580526548
 30
0.0
 11
123.6502478219
 21
123.080526548
 31
0.0
  0
LINE
  5
18C
330
1F
100
AcDbEntity
  8
0
  6
HIDDEN
 62
     7
370
     0
100
AcDbLine
 10
124.1502478219
 20
105.580526548
 30
0.0
 11
133.0002478219
 21
105.580526548
 31
0.0
  0
LINE
  5
18D
330
1F
100
AcDbEntity
  8
0
  6
HIDDEN
 62
     7
370
     0
100
AcDbLine
 10
133.0002478219
 20
122.580526548
 30
0.0
 11
124.1502478219
 21
122.580526548
 31
0.0
  0
LINE
  5
18E
330
1F
100
AcDbEntity
  8
0
  6
HIDDEN
 62
     7
370
     0
100
AcDbLine
 10
118.6502478219
 20
145.580526548
 30
0.0
 11
118.6502478219
 21
140.480526548
 31
0.0
  0
LINE
  5
18F
330
1F
100
AcDbEntity
  8
0
  6
HIDDEN
 62
     7
370
     0
100
AcDbLine
 10
108.8846848415
 20
90.0011552562
 30
0.0
 11
108.4502534927
 21
90.4802208844
 31
0.0
  0
LINE
  5
190
330
1F
100
AcDbEntity
  8
0
  6
HIDDEN
 62
     7
370
     0
100
AcDbLine
 10
100.9502501711
 20
90.9019087587
 30
0.0
 11
100.4678172655
 21
90.4228431742
 31
0.0
  0
LINE
  5
191
330
1F
100
AcDbEntity
  8
0
  6
HIDDEN
 62
     7
370
     0
100
AcDbLine
 10
100.4676953533
 20
137.7382046299
 30
0.0
 11
100.9502452645
 21
137.2590847631
 31
0.0
  0
LINE
  5
192
330
1F
100
AcDbEntity
  8
0
  6
HIDDEN
 62
     7
370
     0
100
AcDbLine
 10
108.4502477053
 20
137.6807824597
 30
0.0
 11
108.8847892961
 21
138.1599023192
 31
0.0
  0
LINE
  5
193
330
1F
100
AcDbEntity
  8
0
  6
HIDDEN
 62
     7
370
     0
100
AcDbLine
 10
135.5002478219
 20
109.880526548
 30
0.0
 11
182.7002478219
 21
109.880526548
 31
0.0
  0
LINE
  5
194
330
1F
100
AcDbEntity
  8
0
  6
HIDDEN
 62
     7
370
     0
100
AcDbLine
 10
182.7002478219
 20
118.280526548
 30
0.0
 11
135.5002478219
 21
118.280526548
 31
0.0
  0
LINE
  5
195
330
1F
100
AcDbEntity
  8
0
  6
HIDDEN
 62
     7
370
     0
100
AcDbLine
 10
108.4502478219
 20
134.0159268863
 30
0.0
 11
108.4502478219
 21
137.6804911623
 31
0.0
  0
LINE
  5
196
330
1F
100
AcDbEntity
  8
0
  6
HIDDEN
 62
     7
370
     0
100
AcDbLine
 10
100.9502478219
 20
137.2589412438
 30
0.0
 11
100.9502478219
 21
134.07614878
 31
0.0
  0
LINE
  5
197
330
1F
100
AcDbEntity
  8
0
  6
HIDDEN
 62
     7
370
     0
100
AcDbLine
 10
108.4502478219
 20
90.4807047748
 30
0.0
 11
108.4502478219
 21
94.1451262098
 31
0.0
  0
LINE
  5
198
330
1F
100
AcDbEntity
  8
0
  6
HIDDEN
 62
     7
370
     0
100
AcDbLine
 10
100.9502478219
 20
94.0849043161
 30
0.0
 11
100.9502478219
 21
90.9022315337
 31
0.0
  0
DIMENSION
  5
199
330
1F
100
AcDbEntity
  8
VERMASSUNG
100
AcDbDimension
  2
_D
 10
76.2219672163
 20
82.580526548
 30
0.0
 11
76.2219672163
 21
113.4131028049
 31
0.0
 70
   160
  1
HSK A %%c<>
 71
     2
 42
-1.0
  3
SLDDIMSTYLE0
100
AcDbAlignedDimension
 13
114.0002478219
 23
145.580526548
 33
0.0
 14
114.0002478219
 24
82.580526548
 34
0.0
 50
90.0
100
AcDbRotatedDimension
  0
DIMENSION
  5
1A6
330
1F
100
AcDbEntity
  8
VERMASSUNG
100
AcDbDimension
  2
_D_1
 10
113.7002478219
 20
159.241140378
 30
0.0
 11
160.0487315311
 21
159.241140378
 31
0.0
 70
   160
  1
<>
 71
     2
 42
-1.0
  3
SLDDIMSTYLE0
100
AcDbAlignedDimension
 13
213.7002478219
 23
141.180526548
 33
0.0
 14
113.7002478219
 24
145.280526548
 34
0.0
100
AcDbRotatedDimension
  0
DIMENSION
  5
1B0
330
1F
100
AcDbEntity
  8
VERMASSUNG
100
AcDbDimension
  2
_D_2
 10
139.6502478219
 20
153.241140378
 30
0.0
 11
180.7002979509
 21
153.241140378
 31
0.0
 70
   160
  1
<>
 71
     2
 42
-1.0
  3
SLDDIMSTYLE0
100
AcDbAlignedDimension
 13
213.7002478219
 23
141.180526548
 33
0.0
 14
139.6502478219
 24
143.9269668718
 34
0.0
100
AcDbRotatedDimension
  0
DIMENSION
  5
1BA
330
1F
100
AcDbEntity
  8
VERMASSUNG
100
AcDbDimension
  2
_D_3
 10
81.8002478219
 20
165.241140378
 30
0.0
 11
151.3644933835
 21
165.241140378
 31
0.0
 70
   160
  1
<>
 71
     2
 42
-1.0
  3
SLDDIMSTYLE0
100
AcDbAlignedDimension
 13
213.7002478219
 23
141.180526548
 33
0.0
 14
81.8002478219
 24
133.7712042945
 34
0.0
100
AcDbRotatedDimension
  0
DIMENSION
  5
1C4
330
1F
100
AcDbEntity
  8
VERMASSUNG
100
AcDbDimension
  2
_D_4
 10
221.7792044692
 20
141.580526548
 30
0.0
 11
221.7792044692
 21
115.4757500403
 31
0.0
 70
   160
  1
MBM %%c<>
 71
     2
 42
-1.0
  3
SLDDIMSTYLE0
100
AcDbAlignedDimension
 13
213.3002478219
 23
86.580526548
 33
0.0
 14
213.3002478219
 24
141.580526548
 34
0.0
 50
90.0
100
AcDbRotatedDimension
  0
INSERT
  5
1D5
330
1F
100
AcDbEntity
  8
VERMASSUNG
100
AcDbBlockReference
  2
SW_NOTE_0
 10
116.013712047
 20
72.3033168147
 30
0.0
  0
LEADER
  5
1DF
330
1F
100
AcDbEntity
  8
VERMASSUNG
100
AcDbLeader
  3
SLDDIMSTYLE1
 76
     2
 10
117.2740571306
 20
89.5885100191
 30
0.0
 10
116.013712047
 20
72.3033168147
 30
0.0
  0
INSERT
  5
1E5
330
1F
100
AcDbEntity
  8
VERMASSUNG
100
AcDbBlockReference
  2
SW_NOTE_1
 10
196.5230166503
 20
72.4992032006
 30
0.0
  0
LEADER
  5
1E6
330
1F
100
AcDbEntity
  8
VERMASSUNG
100
AcDbLeader
  3
SLDDIMSTYLE1
 76
     2
 10
198.0335895513
 20
111.080526548
 30
0.0
 10
196.5230166503
 20
72.4992032006
 30
0.0
  0
LINE
  5
1E7
330
1F
100
AcDbEntity
  8
VERMASSUNG
  6
CENTERX2
 62
     7
370
     0
100
AcDbLine
 10
79.6549439796
 20
114.080526548
 30
0.0
 11
215.6894623842
 21
114.080526548
 31
0.0
  0
SPLINE
  5
1E8
330
1F
100
AcDbEntity
  8
0
  6
Continuous
 62
     7
370
    15
100
AcDbSpline
210
0.0
220
0.0
230
1.0
 70
     8
 71
     3
 72
    16
 73
    12
 74
     0
 42
0.000000001
 43
0.00000001
 40
0.0
 40
0.0
 40
0.0
 40
0.0
 40
0.0305717697324
 40
0.1656629079641066
 40
0.3007957250430957
 40
0.4359776780149037
 40
0.5712137327140056
 40
0.7065041150165979
 40
0.8418406559453495
 40
0.97719842580396
 40
1.0
 40
1.0
 40
1.0
 40
1.0
 10
290.323630917031
 20
46.7232229251507
 30
0.0
 10
290.3533493807952
 20
46.807637784425
 30
0.0
 10
290.5143883775721
 20
47.26506668648619
 30
0.0
 10
290.7376003617154
 20
48.09360911374216
 30
0.0
 10
290.9867028430628
 20
49.19769031428753
 30
0.0
 10
291.1546893358145
 20
50.28084363252326
 30
0.0
 10
291.246799814628
 20
51.33412231931341
 30
0.0
 10
291.2625081098912
 20
52.35124644205703
 30
0.0
 10
291.1929472516517
 20
53.31680998032927
 30
0.0
 10
291.1053553091395
 20
53.99188159411288
 30
0.0
 10
291.0180336128763
 20
54.32333958071674
 30
0.0
 10
291.0054445866119
 20
54.37112533703479
 30
0.0
  0
SPLINE
  5
1E9
330
1F
100
AcDbEntity
  8
0
  6
Continuous
 62
     7
370
    15
100
AcDbSpline
210
0.0
220
0.0
230
1.0
 70
     8
 71
     3
 72
    15
 73
    11
 74
     0
 42
0.000000001
 43
0.00000001
 40
0.0
 40
0.0
 40
0.0
 40
0.0
 40
0.0432569900617696
 40
0.1984473911950219
 40
0.3537738134027557
 40
0.5091515958960048
 40
0.6645166011009317
 40
0.819845956436767
 40
0.9751314497379532
 40
1.0
 40
1.0
 40
1.0
 40
1.0
 10
279.4643055460064
 20
34.31552091426364
 30
0.0
 10
279.543239047159
 20
34.33820440820143
 30
0.0
 10
279.9053573397002
 20
34.44226805638206
 30
0.0
 10
280.5650450543011
 20
34.72509438988969
 30
0.0
 10
281.4357145775929
 20
35.16318889332312
 30
0.0
 10
282.3073325348751
 20
35.69937153878944
 30
0.0
 10
283.1723512832341
 20
36.31760572836022
 30
0.0
 10
284.0208745819336
 20
37.02322774899749
 30
0.0
 10
284.6244848968871
 20
37.5684998614098
 30
0.0
 10
284.9340997391656
 20
37.89625661334002
 30
0.0
 10
284.9768391199465
 20
37.9415003119986
 30
0.0
  0
LINE
  5
1EA
330
1F
100
AcDbEntity
  8
0
  6
Continuous
 62
     7
370
    15
100
AcDbLine
 10
254.5741549896
 20
46.1442502192
 30
0.0
 11
274.5965036893
 21
34.5855943477
 31
0.0
  0
LINE
  5
1EB
330
1F
100
AcDbEntity
  8
0
  6
Continuous
 62
     7
370
    15
100
AcDbLine
 10
288.3453862631
 20
58.4019380632
 30
0.0
 11
268.3230375633
 21
69.9605939346
 31
0.0
  0
SPLINE
  5
1EC
330
1F
100
AcDbEntity
  8
0
  6
Continuous
 62
     7
370
    15
100
AcDbSpline
210
0.0
220
0.0
230
1.0
 70
     8
 71
     3
 72
    34
 73
    30
 74
     0
 42
0.000000001
 43
0.00000001
 40
0.0
 40
0.0
 40
0.0
 40
0.0
 40
0.0238959554472219
 40
0.060721053387295
 40
0.0975921369238445
 40
0.1346574396601831
 40
0.1720034063094239
 40
0.2096422798501321
 40
0.2475284874719381
 40
0.2855893558952606
 40
0.3237526117252458
 40
0.3619614387305142
 40
0.4001728507911221
 40
0.4383659102862998
 40
0.4765333272226869
 40
0.5146740577285522
 40
0.5527906985906917
 40
0.5908878509612878
 40
0.6289711632326895
 40
0.6670468081189187
 40
0.705121219221248
 40
0.7431999728971467
 40
0.7812885287876362
 40
0.8193935740384092
 40
0.8575217126708559
 40
0.8956792112621638
 40
0.9338714869089967
 40
0.9721021547603529
 40
1.0
 40
1.0
 40
1.0
 40
1.0
 10
268.367732054135
 20
69.91996219594196
 30
0.0
 10
268.2317116507859
 20
70.00125299624689
 30
0.0
 10
267.8860756626472
 20
70.20781778651501
 30
0.0
 10
267.2714414455489
 20
70.43067469160778
 30
0.0
 10
266.5394181243946
 20
70.59876148653478
 30
0.0
 10
265.7663106551782
 20
70.66353390193211
 30
0.0
 10
264.9596907235704
 20
70.62919529448432
 30
0.0
 10
264.1243209837324
 20
70.49408266667007
 30
0.0
 10
263.2668856067155
 20
70.25902437239898
 30
0.0
 10
262.3945223641886
 20
69.92554727799197
 30
0.0
 10
261.5147424672539
 20
69.49648953485595
 30
0.0
 10
260.6350315963113
 20
68.97570287748478
 30
0.0
 10
259.7626429099297
 20
68.36787061931341
 30
0.0
 10
258.9045192851567
 20
67.67830938914616
 30
0.0
 10
258.0672783171788
 20
66.9128246093311
 30
0.0
 10
257.257286371859
 20
66.07768353269627
 30
0.0
 10
256.4806846412043
 20
65.17960290644939
 30
0.0
 10
255.7433702766518
 20
64.22571664525825
 30
0.0
 10
255.0509660326962
 20
63.2235372813785
 30
0.0
 10
254.4087836014347
 20
62.18090933498482
 30
0.0
 10
253.8217918123775
 20
61.10596541132307
 30
0.0
 10
253.2945748690461
 20
60.00706760864017
 30
0.0
 10
252.8313047525428
 20
58.89273919992706
 30
0.0
 10
252.435660439485
 20
57.77155901821046
 30
0.0
 10
252.1110012224961
 20
56.65219567532936
 30
0.0
 10
251.8596502612772
 20
55.5429713680962
 30
0.0
 10
251.6855448359736
 20
54.45324725768299
 30
0.0
 10
251.5934723296784
 20
53.48432846972135
 30
0.0
 10
251.5835973954887
 20
52.89312937178634
 30
0.0
 10
251.5794314257292
 20
52.64371833607602
 30
0.0
  0
SPLINE
  5
1ED
330
1F
100
AcDbEntity
  8
0
  6
Continuous
 62
     7
370
    15
100
AcDbSpline
210
0.0
220
0.0
230
1.0
 70
     8
 71
     3
 72
    17
 73
    13
 74
     0
 42
0.000000001
 43
0.00000001
 40
0.0
 40
0.0
 40
0.0
 40
0.0
 40
0.0582143210632455
 40
0.1686024023168237
 40
0.2790487306972384
 40
0.3893721356135641
 40
0.499386030789212
 40
0.6088530770037306
 40
0.7175376347024323
 40
0.8253003507188537
 40
0.932196173848985
 40
1.0
 40
1.0
 40
1.0
 40
1.0
 10
251.5794314257292
 20
52.64371833607602
 30
0.0
 10
251.5816618311554
 20
52.46596181020742
 30
0.0
 10
251.5881216112599
 20
51.95113699147638
 30
0.0
 10
251.6600306550578
 20
51.13344851468678
 30
0.0
 10
251.8215024742479
 20
50.21435700937364
 30
0.0
 10
252.063710517427
 20
49.35703390176712
 30
0.0
 10
252.3836841535014
 20
48.56868040513503
 30
0.0
 10
252.7793139097154
 20
47.85738594267325
 30
0.0
 10
253.2457320709635
 20
47.22857855457944
 30
0.0
 10
253.7805617863965
 20
46.69309017754676
 30
0.0
 10
254.2970464829474
 20
46.29102215904008
 30
0.0
 10
254.6556465215296
 20
46.10906428694252
 30
0.0
 10
254.7948251333576
 20
46.0384434243519
 30
0.0
  0
LINE
  5
1EE
330
1F
100
AcDbEntity
  8
0
  6
Continuous
 62
     7
370
    15
100
AcDbLine
 10
249.2858193874
 20
50.0631433255
 30
0.0
 11
252.6534068455
 21
48.1190764666
 31
0.0
  0
LINE
  5
1EF
330
1F
100
AcDbEntity
  8
0
  6
Continuous
 62
     7
370
    15
100
AcDbLine
 10
265.6428486089
 20
70.6418321383
 30
0.0
 11
262.2847629117
 21
72.5804137474
 31
0.0
  0
LINE
  5
1F0
330
1F
100
AcDbEntity
  8
0
  6
Continuous
 62
     7
370
    15
100
AcDbLine
 10
238.4887332708
 20
53.120827999
 30
0.0
 11
243.547398931
 21
50.2005224737
 31
0.0
  0
LINE
  5
1F1
330
1F
100
AcDbEntity
  8
0
  6
Continuous
 62
     7
370
    15
100
AcDbLine
 10
256.4307538145
 20
79.1352017337
 30
0.0
 11
254.2374533098
 21
80.4013671639
 31
0.0
  0
SPLINE
  5
1F2
330
1F
100
AcDbEntity
  8
0
  6
Continuous
 62
     7
370
    15
100
AcDbSpline
210
0.0
220
0.0
230
1.0
 70
     8
 71
     3
 72
    11
 73
     7
 74
     0
 42
0.000000001
 43
0.00000001
 40
0.0
 40
0.0
 40
0.0
 40
0.0
 40
0.1577678437761776
 40
0.4920554011257139
 40
0.8275696701895828
 40
1.0
 40
1.0
 40
1.0
 40
1.0
 10
250.2962484137842
 20
47.25676666233395
 30
0.0
 10
250.4279424514657
 20
47.25328148305596
 30
0.0
 10
250.8386773704847
 20
47.24241170600521
 30
0.0
 10
251.5620052457942
 20
47.33580199785029
 30
0.0
 10
252.3093960829136
 20
47.48062234024295
 30
0.0
 10
252.771286519699
 20
47.63450796177455
 30
0.0
 10
252.9280829902742
 20
47.68674702196453
 30
0.0
  0
LINE
  5
1F3
330
1F
100
AcDbEntity
  8
0
  6
Continuous
 62
     7
370
    15
100
AcDbLine
 10
245.9458576375
 20
48.8159217345
 30
0.0
 11
247.3452457051
 21
48.0080721987
 31
0.0
  0
LINE
  5
1F4
330
1F
100
AcDbEntity
  8
0
  6
Continuous
 62
     7
370
    15
100
AcDbLine
 10
247.0611598481
 20
79.9906895257
 30
0.0
 11
240.8707770631
 21
83.0749089646
 31
0.0
  0
LINE
  5
1F5
330
1F
100
AcDbEntity
  8
0
  6
Continuous
 62
     7
370
    15
100
AcDbLine
 10
229.4890792499
 20
63.3590938262
 30
0.0
 11
239.2791965764
 21
56.876484752
 31
0.0
  0
SPLINE
  5
1F6
330
1F
100
AcDbEntity
  8
0
  6
Continuous
 62
     7
370
    15
100
AcDbSpline
210
0.0
220
0.0
230
1.0
 70
     8
 71
     3
 72
    10
 73
     6
 74
     0
 42
0.000000001
 43
0.00000001
 40
0.0
 40
0.0
 40
0.0
 40
0.0
 40
0.034863015214338
 40
0.6297955295303002
 40
1.0
 40
1.0
 40
1.0
 40
1.0
 10
264.8096636214798
 20
73.74612738801059
 30
0.0
 10
264.800737523519
 20
73.75963214316128
 30
0.0
 10
264.6394888031422
 20
74.00359366998313
 30
0.0
 10
264.3338972742382
 20
74.33381258806116
 30
0.0
 10
264.012742550509
 20
74.61280311343918
 30
0.0
 10
263.8895549446962
 20
74.71981749724351
 30
0.0
  0
SPLINE
  5
1F7
330
1F
100
AcDbEntity
  8
0
  6
Continuous
 62
     7
370
    15
100
AcDbSpline
210
0.0
220
0.0
230
1.0
 70
     8
 71
     3
 72
    11
 73
     7
 74
     0
 42
0.000000001
 43
0.00000001
 40
0.0
 40
0.0
 40
0.0
 40
0.0
 40
0.1526263877253729
 40
0.4412715536776607
 40
0.7294839293308676
 40
1.0
 40
1.0
 40
1.0
 40
1.0
 10
266.0839630073564
 20
70.99927661447761
 30
0.0
 10
266.0401143030226
 20
71.1588927295171
 30
0.0
 10
265.9133394629935
 20
71.62037289769223
 30
0.0
 10
265.6438202701301
 20
72.33127188700536
 30
0.0
 10
265.2670634929009
 20
73.09573739186837
 30
0.0
 10
264.9588765657996
 20
73.53395722281344
 30
0.0
 10
264.8096636214798
 20
73.74612738801059
 30
0.0
  0
SPLINE
  5
1F8
330
1F
100
AcDbEntity
  8
0
  6
Continuous
 62
     7
370
    15
100
AcDbSpline
210
0.0
220
0.0
230
1.0
 70
     8
 71
     3
 72
    27
 73
    23
 74
     0
 42
0.000000001
 43
0.00000001
 40
0.0
 40
0.0
 40
0.0
 40
0.0
 40
0.0013000211134403
 40
0.0538937227925979
 40
0.1065610308464724
 40
0.1596380518139682
 40
0.213320128199485
 40
0.2676286321680649
 40
0.3224488917854245
 40
0.3776074705783187
 40
0.4329412411903503
 40
0.4883265115172242
 40
0.5436826534602299
 40
0.598984590561354
 40
0.6542271010315209
 40
0.709416143446496
 40
0.7645635275411675
 40
0.819683943840281
 40
0.8747934456626372
 40
0.9299087456671099
 40
0.9850414025635996
 40
1.0
 40
1.0
 40
1.0
 40
1.0
 10
240.8071495249119
 20
83.10448745699229
 30
0.0
 10
240.802325598102
 20
83.10727621920657
 30
0.0
 10
240.6023447119653
 20
83.22288724748682
 30
0.0
 10
240.1591705637455
 20
83.36317363356208
 30
0.0
 10
239.4837437437297
 20
83.51448321685473
 30
0.0
 10
238.7653563811552
 20
83.55472747437571
 30
0.0
 10
238.0168237959053
 20
83.49783551161896
 30
0.0
 10
237.2417577432695
 20
83.33947879351959
 30
0.0
 10
236.4479523424606
 20
83.0813769762372
 30
0.0
 10
235.6434514728199
 20
82.72545084371657
 30
0.0
 10
234.8368598193559
 20
82.27557827754094
 30
0.0
 10
234.036564160727
 20
81.73682791201838
 30
0.0
 10
233.250470488325
 20
81.11517964750786
 30
0.0
 10
232.4859647663532
 20
80.41720777395751
 30
0.0
 10
231.7499643953822
 20
79.6499317912309
 30
0.0
 10
231.0491231744871
 20
78.82084582138427
 30
0.0
 10
230.3896222641819
 20
77.93790129044551
 30
0.0
 10
229.7779264574362
 20
77.00941125837403
 30
0.0
 10
229.2178243823358
 20
76.04419479782248
 30
0.0
 10
228.721293569591
 20
75.05079398932432
 30
0.0
 10
228.3780119415562
 20
74.28581753625737
 30
0.0
 10
228.2240525611678
 20
73.85387692818401
 30
0.0
 10
228.1911951609871
 20
73.76169387718713
 30
0.0
  0
LINE
  5
1F9
330
1F
100
AcDbEntity
  8
0
  6
Continuous
 62
     7
370
    15
100
AcDbLine
 10
228.3048935281
 20
71.9152339191
 30
0.0
 11
230.8584534267
 21
70.4410951676
 31
0.0
  0
LINE
  5
1FA
330
1F
100
AcDbEntity
  8
0
  6
Continuous
 62
     7
370
    15
100
AcDbLine
 10
228.0066012507
 20
73.0394093698
 30
0.0
 11
228.0066012507
 21
72.5781375526
 31
0.0
  0
SPLINE
  5
1FB
330
1F
100
AcDbEntity
  8
0
  6
Continuous
 62
     7
370
    15
100
AcDbSpline
210
0.0
220
0.0
230
1.0
 70
     8
 71
     3
 72
    10
 73
     6
 74
     0
 42
0.000000001
 43
0.00000001
 40
0.0
 40
0.0
 40
0.0
 40
0.0
 40
0.2152290475020421
 40
0.8957841904546404
 40
1.0
 40
1.0
 40
1.0
 40
1.0
 10
230.8880649662669
 20
63.20181415590442
 30
0.0
 10
230.8853536335278
 20
63.22356889893239
 30
0.0
 10
230.8740690553959
 20
63.31411222985378
 30
0.0
 10
230.8816196431088
 20
63.46287986327349
 30
0.0
 10
230.9148872992188
 20
63.58917254958089
 30
0.0
 10
230.9193051687923
 20
63.6059439330034
 30
0.0
  0
LINE
  5
1FC
330
1F
100
AcDbEntity
  8
0
  6
Continuous
 62
     7
370
    15
100
AcDbLine
 10
228.0066012507
 20
65.5680609411
 30
0.0
 11
228.0066012507
 21
65.1067891239
 31
0.0
  0
SPLINE
  5
1FD
330
1F
100
AcDbEntity
  8
0
  6
Continuous
 62
     7
370
    15
100
AcDbSpline
210
0.0
220
0.0
230
1.0
 70
     8
 71
     3
 72
    11
 73
     7
 74
     0
 42
0.000000001
 43
0.00000001
 40
0.0
 40
0.0
 40
0.0
 40
0.0
 40
0.2559621575051009
 40
0.6007766703699939
 40
0.9411930391302507
 40
1.0
 40
1.0
 40
1.0
 40
1.0
 10
228.1227542092087
 20
64.82020274401883
 30
0.0
 10
228.2178387302527
 20
64.66527438359846
 30
0.0
 10
228.4410145407448
 20
64.30163725291293
 30
0.0
 10
228.8825523075175
 20
63.83223420093002
 30
0.0
 10
229.2596385987785
 20
63.49370803534045
 30
0.0
 10
229.4932948503362
 20
63.36254316360395
 30
0.0
 10
229.5277132147515
 20
63.34322212971836
 30
0.0
  0
LINE
  5
1FE
330
1F
100
AcDbEntity
  8
0
  6
Continuous
 62
     7
370
    15
100
AcDbLine
 10
278.589829533
 20
61.6295240115
 30
0.0
 11
278.4130241136
 21
61.7316247853
 31
0.0
  0
LINE
  5
1FF
330
1F
100
AcDbEntity
  8
0
  6
Continuous
 62
     7
370
    15
100
AcDbLine
 10
274.523304885
 20
61.7316247853
 30
0.0
 11
274.3963179178
 21
61.6582929403
 31
0.0
  0
LINE
  5
200
330
1F
100
AcDbEntity
  8
0
  6
Continuous
 62
     7
370
    15
100
AcDbLine
 10
279.4681644993
 20
60.3593584579
 30
0.0
 11
279.4681644993
 21
60.4051108615
 31
0.0
  0
LINE
  5
201
330
1F
100
AcDbEntity
  8
0
  6
Continuous
 62
     7
370
    15
100
AcDbLine
 10
273.4681644993
 20
60.4051108615
 30
0.0
 11
273.4681644993
 21
60.3593584579
 31
0.0
  0
LWPOLYLINE
  5
202
330
1F
100
AcDbEntity
  8
0
  6
Continuous
 62
     7
370
    15
100
AcDbPolyline
 90
       19
 70
   128
 43
0.0
 10
272.0365803243
 20
41.2593462126
 10
272.0744543015
 20
41.9577182103
 10
272.204215964
 20
43.0748157851
 10
272.4191792931
 20
44.2221365525
 10
272.7173975476
 20
45.389290198
 10
273.0961700169
 20
46.5657067975
 10
273.5520664787
 20
47.7407325399
 10
274.0809582643
 20
48.9037262104
 10
274.6780556475
 20
50.044155558
 10
275.3379512221
 20
51.151692678
 10
276.0546688716
 20
52.2163075427
 10
276.8217178899
 20
53.2283588351
 10
277.6321517623
 20
54.178681262
 10
278.4786310743
 20
55.0586685562
 10
279.353489978
 20
55.8603514166
 10
280.2488056158
 20
56.576469679
 10
281.1564698706
 20
57.2005380656
 10
282.0682627943
 20
57.7269049165
 10
282.2007889512
 20
57.7950578832
  0
ARC
  5
203
330
1F
100
AcDbEntity
  8
0
  6
Continuous
 62
     7
370
    15
100
AcDbCircle
 10
268.7098340165
 20
53.8705934086
 30
0.0
 40
22.73072511643926
100
AcDbArc
 50
315.9539233908
 51
341.4676159402
  0
LWPOLYLINE
  5
204
330
1F
100
AcDbEntity
  8
0
  6
Continuous
 62
     7
370
    15
100
AcDbPolyline
 90
       14
 70
   128
 43
0.0
 10
283.6277452239
 20
58.6865665342
 10
284.3885833308
 20
58.8880755825
 10
285.2442527115
 20
59.0194879663
 10
286.066762128
 20
59.040823857
 10
286.8488833382
 20
58.9518957538
 10
287.5837430327
 20
58.7534851603
 10
288.2648832381
 20
58.4473357157
 10
288.8863180698
 20
58.0361378725
 10
289.4425863361
 20
57.5235052521
 10
289.9287995314
 20
56.9139428883
 10
290.3406847969
 20
56.2128076372
 10
290.6746224698
 20
55.4262611005
 10
290.9276778941
 20
54.5612154775
 10
290.9534394172
 20
54.4482294661
  0
LWPOLYLINE
  5
205
330
1F
100
AcDbEntity
  8
0
  6
Continuous
 62
     7
370
    15
100
AcDbPolyline
 90
       14
 70
   128
 43
0.0
 10
279.3700105535
 20
34.3187398026
 10
278.991235998
 20
34.2061183802
 10
278.1217908474
 20
34.0200406585
 10
277.2817781837
 20
33.9435824855
 10
276.4785800685
 20
33.9774157782
 10
275.7192550355
 20
34.1212432085
 10
275.0104760605
 20
34.3738008158
 10
274.3584719187
 20
34.7328691147
 10
273.7689724459
 20
35.1952926001
 10
273.2471581845
 20
35.7570074778
 10
272.7976148572
 20
36.4130773773
 10
272.4242930669
 20
37.1577367326
 10
272.1304735788
 20
37.9844414506
 10
271.9875030629
 20
38.5435911271
  0
SPLINE
  5
206
330
1F
100
AcDbEntity
  8
0
  6
Continuous
 62
     7
370
    15
100
AcDbSpline
210
0.0
220
0.0
230
1.0
 70
     8
 71
     3
 72
    14
 73
    10
 74
     0
 42
0.000000001
 43
0.00000001
 40
0.0
 40
0.0
 40
0.0
 40
0.0
 40
0.1327371203078774
 40
0.2673874325225958
 40
0.5315668016515027
 40
0.6624339894453123
 40
0.7935597434637369
 40
0.9245692512912498
 40
1.0
 40
1.0
 40
1.0
 40
1.0
 10
274.3022639242367
 20
61.8595938520323
 30
0.0
 10
274.4555194775475
 20
61.93686839256705
 30
0.0
 10
274.7642395162567
 20
62.09253126174054
 30
0.0
 10
275.4959230398064
 20
62.26991478920685
 30
0.0
 10
276.3110358190825
 20
62.29788412389613
 30
0.0
 10
277.122315377607
 20
62.18054857493008
 30
0.0
 10
277.7036356814283
 20
62.03064788024854
 30
0.0
 10
278.1789974217477
 20
61.86597352743436
 30
0.0
 10
278.4206241941474
 20
61.74042656725922
 30
0.0
 10
278.5089116660581
 20
61.69455324117926
 30
0.0
  0
SPLINE
  5
207
330
1F
100
AcDbEntity
  8
0
  6
Continuous
 62
     7
370
    15
100
AcDbSpline
210
0.0
220
0.0
230
1.0
 70
     8
 71
     3
 72
    16
 73
    12
 74
     0
 42
0.000000001
 43
0.00000001
 40
0.0
 40
0.0
 40
0.0
 40
0.0
 40
0.0280681550281697
 40
0.146643349534747
 40
0.2674588391122668
 40
0.3884272639965304
 40
0.5090897622926841
 40
0.6305812752106419
 40
0.75324835804063
 40
0.8771729576233454
 40
1.0
 40
1.0
 40
1.0
 40
1.0
 10
278.5909224963144
 20
61.6539720620196
 30
0.0
 10
278.628036610595
 20
61.63606984722505
 30
0.0
 10
278.821940984704
 20
61.54253891371949
 30
0.0
 10
279.0936476341031
 20
61.34337317376955
 30
0.0
 10
279.3776148854459
 20
61.06802996387538
 30
0.0
 10
279.5491148771762
 20
60.77979206432531
 30
0.0
 10
279.5993270040119
 20
60.48806001600034
 30
0.0
 10
279.5308838740514
 20
60.19501872489799
 30
0.0
 10
279.3411299634501
 20
59.90476783457106
 30
0.0
 10
279.0507593388898
 20
59.61952728432793
 30
0.0
 10
278.772550669584
 20
59.44551661148425
 30
0.0
 10
278.6340650743392
 20
59.3588982768801
 30
0.0
  0
SPLINE
  5
208
330
1F
100
AcDbEntity
  8
0
  6
Continuous
 62
     7
370
    15
100
AcDbSpline
210
0.0
220
0.0
230
1.0
 70
     8
 71
     3
 72
    34
 73
    30
 74
     0
 42
0.000000001
 43
0.00000001
 40
0.0
 40
0.0
 40
0.0
 40
0.0
 40
0.0126393379143738
 40
0.0252377900923135
 40
0.0378146171501889
 40
0.0503891790752761
 40
0.0629808463030423
 40
0.0756089105548201
 40
0.0882924974736311
 40
0.101050483001028
 40
0.1139014152442633
 40
0.1268634433085102
 40
0.1901341723044834
 40
0.2526013507852483
 40
0.3145947177284921
 40
0.3767105706152364
 40
0.4387713562768522
 40
0.4997424824204386
 40
0.5607523438686101
 40
0.6229148923690534
 40
0.685156129860607
 40
0.747239960573276
 40
0.8097503397535614
 40
0.8728655786417775
 40
0.8986249896774637
 40
0.9240657894466475
 40
0.9493390990036463
 40
0.9745990456685747
 40
1.0
 40
1.0
 40
1.0
 40
1.0
 10
278.6340650743392
 20
59.35889827688011
 30
0.0
 10
278.6046580739027
 20
59.34209284744988
 30
0.0
 10
278.545939198809
 20
59.30853635080072
 30
0.0
 10
278.4537741594793
 20
59.25966854401945
 30
0.0
 10
278.3588683799937
 20
59.2120406956874
 30
0.0
 10
278.2609218956873
 20
59.16576332436771
 30
0.0
 10
278.160024029528
 20
59.12082811625609
 30
0.0
 10
278.0561600540374
 20
59.07725840627371
 30
0.0
 10
277.9493419345303
 20
59.03506867718828
 30
0.0
 10
277.8395781193246
 20
58.99427616872736
 30
0.0
 10
277.726863159411
 20
58.95489491802024
 30
0.0
 10
277.4621271964421
 20
58.8680023875125
 30
0.0
 10
277.030079542165
 20
58.75129908982181
 30
0.0
 10
276.4215201962672
 20
58.65271864010845
 30
0.0
 10
275.8145044286127
 20
58.62226704421612
 30
0.0
 10
275.2304921982318
 20
58.67133252919268
 30
0.0
 10
274.690546933769
 20
58.79699658495792
 30
0.0
 10
274.2212209229681
 20
59.0056024468783
 30
0.0
 10
273.8385871135412
 20
59.28851320621868
 30
0.0
 10
273.5598178133762
 20
59.63495025412261
 30
0.0
 10
273.3869327333306
 20
60.02239525754328
 30
0.0
 10
273.3370271472224
 20
60.43225710075968
 30
0.0
 10
273.4056298785206
 20
60.84208007230865
 30
0.0
 10
273.5565395205384
 20
61.15419736040772
 30
0.0
 10
273.714564744875
 20
61.37177400749631
 30
0.0
 10
273.8373967176682
 20
61.5094797413789
 30
0.0
 10
273.9762897388401
 20
61.63698339442166
 30
0.0
 10
274.1299762433516
 20
61.75517841037806
 30
0.0
 10
274.2447282318036
 20
61.82472418111084
 30
0.0
 10
274.3022639242367
 20
61.8595938520323
 30
0.0
  0
LWPOLYLINE
  5
209
330
1F
100
AcDbEntity
  8
0
  6
Continuous
 62
     7
370
    15
100
AcDbPolyline
 90
       62
 70
   128
 43
0.0
 10
273.3038616535
 20
41.6157277373
 10
273.3478977617
 20
42.6276503422
 10
273.4795392928
 20
43.679689324
 10
273.6973908137
 20
44.760692808
 10
273.9991430441
 20
45.8592018882
 10
274.3815973353
 20
46.9635720951
 10
274.8406995767
 20
48.0620968298
 10
275.3715831703
 20
49.1431314568
 10
275.9686206179
 20
50.1952167402
 10
276.6254831741
 20
51.2072003141
 10
277.3352079324
 20
52.1683549011
 10
278.0902716337
 20
53.0684920233
 10
278.8826704151
 20
53.8980700033
 10
279.7040046522
 20
54.6482951082
 10
280.5455679979
 20
55.3112147652
 10
281.3984396713
 20
55.879801861
 10
282.2535790206
 20
56.348029231
 10
283.1019213558
 20
56.7109335486
 10
283.9344740373
 20
56.9646679376
 10
284.7424117994
 20
57.1065427506
 10
285.5171703009
 20
57.1350540791
 10
286.2505369089
 20
57.049899696
 10
286.9347377549
 20
56.851982259
 10
287.5625201399
 20
56.543399742
 10
288.1272294142
 20
56.1274231966
 10
288.6228795192
 20
55.6084620776
 10
289.0442164404
 20
54.992017502
 10
289.3867739016
 20
54.2846239357
 10
289.6469207085
 20
53.4937799263
 10
289.8218992403
 20
52.6278686172
 10
289.909854681
 20
51.6960688836
 10
289.909854681
 20
50.7082580345
 10
289.8218992403
 20
49.6749071107
 10
289.6469207085
 20
48.6069698891
 10
289.3867739016
 20
47.5157667697
 10
289.0442164404
 20
46.4128647773
 10
288.6228795192
 20
45.3099549472
 10
288.1272294142
 20
44.218728398
 10
287.5625201399
 20
43.1507524026
 10
286.9347377549
 20
42.1173477723
 10
286.2505369089
 20
41.1294688532
 10
285.5171703009
 20
40.1975874076
 10
284.7424117994
 20
39.3315816106
 10
283.9344740373
 20
38.5406313392
 10
283.1019213558
 20
37.833120863
 10
282.2535790206
 20
37.216549969
 10
281.3984396713
 20
36.6974544621
 10
280.5455679979
 20
36.2813368838
 10
279.7040046522
 20
35.972608184
 10
278.8826704151
 20
35.7745409636
 10
278.0902716337
 20
35.6892347846
 10
277.3352079324
 20
35.7175939135
 10
276.6254831741
 20
35.8593177366
 10
275.9686206179
 20
36.1129039461
 10
275.3715831703
 20
36.4756644652
 10
274.8406995767
 20
36.9437539419
 10
274.3815973353
 20
37.5122105115
 10
273.9991430441
 20
38.175008393
 10
273.6973908137
 20
38.9251217637
 10
273.4795392928
 20
39.7545992355
 10
273.3478977617
 20
40.6546481408
 10
273.3038616535
 20
41.6157277373
  0
SPLINE
  5
20A
330
1F
100
AcDbEntity
  8
0
  6
Continuous
 62
     7
370
    15
100
AcDbSpline
210
0.0
220
0.0
230
1.0
 70
     8
 71
     3
 72
    18
 73
    14
 74
     0
 42
0.000000001
 43
0.00000001
 40
0.0
 40
0.0
 40
0.0
 40
0.0
 40
0.25
 40
0.25
 40
0.375
 40
0.375
 40
0.5
 40
0.5
 40
0.625
 40
0.625
 40
0.75
 40
0.75
 40
1.0
 40
1.0
 40
1.0
 40
1.0
 10
275.8107577921446
 20
36.87506983676382
 30
0.0
 10
275.6871501326733
 20
36.83556341248661
 30
0.0
 10
275.5659074418498
 20
36.82951289145428
 30
0.0
 10
275.3884229291295
 20
36.87119015869084
 30
0.0
 10
275.3299732328613
 20
36.89386315661645
 30
0.0
 10
275.2184493936728
 20
36.95518059170249
 30
0.0
 10
275.1648705349281
 20
36.99389273150452
 30
0.0
 10
275.0621077814899
 20
37.08744155522137
 30
0.0
 10
275.0125500068897
 20
37.14282767431648
 30
0.0
 10
274.920171310646
 20
37.267671024567
 30
0.0
 10
274.8773847229253
 20
37.33684600126158
 30
0.0
 10
274.7588125091058
 20
37.56400810765162
 30
0.0
 10
274.6924059617789
 20
37.74346894679854
 30
0.0
 10
274.6415163041245
 20
37.94227065988845
 30
0.0
  0
LWPOLYLINE
  5
20B
330
1F
100
AcDbEntity
  8
0
  6
Continuous
 62
     7
370
    15
100
AcDbPolyline
 90
       16
 70
   128
 43
0.0
 10
287.025066143
 20
43.3489522473
 10
286.4099505066
 20
42.3484333497
 10
285.7394634457
 20
41.3942338458
 10
285.021041967
 20
40.4969376653
 10
284.2626547631
 20
39.6664975695
 10
283.4727138243
 20
38.9121247554
 10
282.6599811332
 20
38.2421866861
 10
281.8334714774
 20
37.6641142786
 10
281.0023524578
 20
37.1843194813
 10
280.175842802
 20
36.8081241523
 10
279.3631101109
 20
36.5397010302
 10
278.5731691721
 20
36.3820274497
 10
277.8147819682
 20
36.3368523179
 10
277.0963604895
 20
36.4046767149
 10
276.4258734286
 20
36.5847483361
 10
275.8107577921
 20
36.8750698368
  0
SPLINE
  5
20C
330
1F
100
AcDbEntity
  8
0
  6
Continuous
 62
     7
370
    15
100
AcDbSpline
210
0.0
220
0.0
230
1.0
 70
     8
 71
     3
 72
    18
 73
    14
 74
     0
 42
0.000000001
 43
0.00000001
 40
0.0
 40
0.0
 40
0.0
 40
0.0
 40
0.2500000000000002
 40
0.2500000000000002
 40
0.3749999999999999
 40
0.3749999999999999
 40
0.4999999999999997
 40
0.4999999999999997
 40
0.6249999999999994
 40
0.6249999999999994
 40
0.7499999999999991
 40
0.7499999999999991
 40
1.0
 40
1.0
 40
1.0
 40
1.0
 10
288.1943076310631
 20
45.76613055738961
 30
0.0
 10
288.2074433635137
 20
45.54557365008535
 30
0.0
 10
288.190855334448
 20
45.32273141396042
 30
0.0
 10
288.1212329238691
 20
44.9846992414295
 30
0.0
 10
288.0902754852293
 20
44.87129598279174
 30
0.0
 10
288.0150228386773
 20
44.65056368963122
 30
0.0
 10
287.9705751542269
 20
44.5422859699918
 30
0.0
 10
287.8680326000984
 20
44.32990390200378
 30
0.0
 10
287.8093773150101
 20
44.22497583408536
 30
0.0
 10
287.6806799714583
 20
44.02416632172019
 30
0.0
 10
287.6108970611174
 20
43.92841716737457
 30
0.0
 10
287.3857005970663
 20
43.65473695348254
 30
0.0
 10
287.2127229778947
 20
43.48914053093083
 30
0.0
 10
287.025066143043
 20
43.34895224727579
 30
0.0
  0
LWPOLYLINE
  5
20D
330
1F
100
AcDbEntity
  8
0
  6
Continuous
 62
     7
370
    15
100
AcDbPolyline
 90
       11
 70
   128
 43
0.0
 10
288.1943076311
 20
55.1064923594
 10
288.5894931095
 20
54.4671316942
 10
288.9017042052
 20
53.7358743076
 10
289.1273286711
 20
52.921180765
 10
289.2637560576
 20
52.0324769785
 10
289.3094079154
 20
51.0800451503
 10
289.2637560576
 20
50.0749048091
 10
289.1273286711
 20
49.0286853148
 10
288.9017042052
 20
47.9534913088
 10
288.5894931095
 20
46.861762664
 10
288.1943076311
 20
45.7661305574
  0
SPLINE
  5
20E
330
1F
100
AcDbEntity
  8
0
  6
Continuous
 62
     7
370
    15
100
AcDbSpline
210
0.0
220
0.0
230
1.0
 70
     8
 71
     3
 72
    18
 73
    14
 74
     0
 42
0.000000001
 43
0.00000001
 40
0.0
 40
0.0
 40
0.0
 40
0.0
 40
0.2499999999999989
 40
0.2499999999999989
 40
0.3749999999999991
 40
0.3749999999999991
 40
0.4999999999999992
 40
0.4999999999999992
 40
0.6249999999999994
 40
0.6249999999999994
 40
0.7499999999999996
 40
0.7499999999999996
 40
1.0
 40
1.0
 40
1.0
 40
1.0
 10
287.025066143043
 20
56.17369318253148
 30
0.0
 10
287.2126903423634
 20
56.17624364498353
 30
0.0
 10
287.3821455501511
 20
56.15446167240374
 30
0.0
 10
287.609148572915
 20
56.08419797779813
 30
0.0
 10
287.6801679642052
 20
56.05426864939176
 30
0.0
 10
287.8082610944169
 20
55.98338596620009
 30
0.0
 10
287.8660009590436
 20
55.9422717288324
 30
0.0
 10
287.9688641368517
 20
55.84866493136084
 30
0.0
 10
288.0142763337842
 20
55.79567200331282
 30
0.0
 10
288.0900642921633
 20
55.68040628216597
 30
0.0
 10
288.1205080884042
 20
55.61835664732546
 30
0.0
 10
288.1901334169877
 20
55.419450976327
 30
0.0
 10
288.2074456483555
 20
55.26833168251651
 30
0.0
 10
288.1943076310631
 20
55.10649235940686
 30
0.0
  0
LWPOLYLINE
  5
20F
330
1F
100
AcDbEntity
  8
0
  6
Continuous
 62
     7
370
    15
100
AcDbPolyline
 90
       16
 70
   128
 43
0.0
 10
275.8107577921
 20
49.699810772
 10
276.4258734286
 20
50.7003296695
 10
277.0963604895
 20
51.6545291735
 10
277.8147819682
 20
52.551825354
 10
278.5731691721
 20
53.3822654498
 10
279.3631101109
 20
54.1366382639
 10
280.175842802
 20
54.8065763332
 10
281.0023524578
 20
55.3846487407
 10
281.8334714774
 20
55.864443538
 10
282.6599811332
 20
56.240638867
 10
283.4727138243
 20
56.5090619891
 10
284.2626547631
 20
56.6667355696
 10
285.021041967
 20
56.7119107014
 10
285.7394634457
 20
56.6440863044
 10
286.4099505066
 20
56.4640146832
 10
287.025066143
 20
56.1736931825
  0
SPLINE
  5
210
330
1F
100
AcDbEntity
  8
0
  6
Continuous
 62
     7
370
    15
100
AcDbSpline
210
0.0
220
0.0
230
1.0
 70
     8
 71
     3
 72
    18
 73
    14
 74
     0
 42
0.000000001
 43
0.00000001
 40
0.0
 40
0.0
 40
0.0
 40
0.0
 40
0.2500000000000005
 40
0.2500000000000005
 40
0.3750000000000004
 40
0.3750000000000004
 40
0.5000000000000003
 40
0.5000000000000003
 40
0.6250000000000002
 40
0.6250000000000002
 40
0.7500000000000001
 40
0.7500000000000001
 40
1.0
 40
1.0
 40
1.0
 40
1.0
 10
274.6415163041245
 20
47.2826324619057
 30
0.0
 10
274.692397111523
 20
47.46623340738479
 30
0.0
 10
274.7571976575529
 20
47.6612431498976
 30
0.0
 10
274.8763385781755
 20
47.97068889505948
 30
0.0
 10
274.9198657118372
 20
48.07683582321646
 30
0.0
 10
275.0116876494122
 20
48.28800286827137
 30
0.0
 10
275.0602963397448
 20
48.39387849034512
 30
0.0
 10
275.1629393182431
 20
48.60620258457843
 30
0.0
 10
275.2174490256638
 20
48.71352384354395
 30
0.0
 10
275.3295556313509
 20
48.92391098501276
 30
0.0
 10
275.3869957502121
 20
49.02678548121246
 30
0.0
 10
275.5632453290273
 20
49.32872213049609
 30
0.0
 10
275.6871286322398
 20
49.52266009838425
 30
0.0
 10
275.8107577921446
 20
49.6998107720195
 30
0.0
  0
LWPOLYLINE
  5
211
330
1F
100
AcDbEntity
  8
0
  6
Continuous
 62
     7
370
    15
100
AcDbPolyline
 90
       11
 70
   128
 43
0.0
 10
274.6415163041
 20
37.9422706599
 10
274.2463308257
 20
38.5816313251
 10
273.93411973
 20
39.3128887117
 10
273.7084952641
 20
40.1275822543
 10
273.5720678775
 20
41.0162860408
 10
273.5264160197
 20
41.968717869
 10
273.5720678775
 20
42.9738582102
 10
273.7084952641
 20
44.0200777045
 10
273.93411973
 20
45.0952717105
 10
274.2463308257
 20
46.1870003553
 10
274.6415163041
 20
47.2826324619
  0
ARC
  5
212
330
1F
100
AcDbEntity
  8
0
  6
Continuous
 62
     7
370
    15
100
AcDbCircle
 10
287.3076191768
 20
54.3737729646
 30
0.0
 40
1.821962954515437
100
AcDbArc
 50
98.9215321124
 51
121.0579635503
  0
LINE
  5
213
330
1F
100
AcDbEntity
  8
0
  6
Continuous
 62
     7
370
    15
100
AcDbLine
 10
284.6707472693
 20
54.9549433741
 30
0.0
 11
286.3676594359
 21
55.9345499164
 31
0.0
  0
LWPOLYLINE
  5
214
330
1F
100
AcDbEntity
  8
0
  6
Continuous
 62
     7
370
    15
100
AcDbPolyline
 90
       10
 70
   128
 43
0.0
 10
278.1650766659
 20
51.1992996759
 10
278.841711762
 20
51.979637154
 10
279.5527756728
 20
52.6870695895
 10
280.2887656091
 20
53.312142725
 10
281.0398456655
 20
53.8465029677
 10
281.7959782697
 20
54.2830090288
 10
282.5470583261
 20
54.6158273608
 10
283.2830482624
 20
54.8405101182
 10
283.9941121732
 20
54.9540545991
 10
284.6707472693
 20
54.9549433741
  0
LINE
  5
215
330
1F
100
AcDbEntity
  8
0
  6
Continuous
 62
     7
370
    15
100
AcDbLine
 10
276.4681644993
 20
50.2196931337
 30
0.0
 11
278.1650766659
 21
51.1992996759
 31
0.0
  0
ARC
  5
216
330
1F
100
AcDbEntity
  8
0
  6
Continuous
 62
     7
370
    15
100
AcDbCircle
 10
278.0568890223
 20
47.5351073802
 30
0.0
 40
3.119462498235909
100
AcDbArc
 50
120.6168359905
 51
136.0576097217
  0
ARC
  5
217
330
1F
100
AcDbEntity
  8
0
  6
Continuous
 62
     7
370
    15
100
AcDbCircle
 10
286.2105592449
 20
43.6396578962
 30
0.0
 40
11.76566298432555
100
AcDbArc
 50
146.059097156
 51
177.5731904596
  0
LWPOLYLINE
  5
218
330
1F
100
AcDbEntity
  8
0
  6
Continuous
 62
     7
370
    15
100
AcDbPolyline
 90
       37
 70
   128
 43
0.0
 10
282.2486465583
 20
54.4957890876
 10
282.3660282886
 20
54.501682857
 10
282.9765993311
 20
54.4665453061
 10
283.54028595
 20
54.3190303314
 10
284.0481984707
 20
54.0614643321
 10
284.4923268093
 20
53.6979092779
 10
284.8656667966
 20
53.2340986491
 10
285.1623306379
 20
52.6773470165
 10
285.3776397674
 20
52.0364346858
 10
285.5081986313
 20
51.3214692274
 10
285.5519482384
 20
50.5437260737
 10
285.5081986313
 20
49.7154706989
 10
285.3776397674
 20
48.8497651848
 10
285.1623306379
 20
47.9602622247
 10
284.8656667966
 20
47.0609898116
 10
284.4923268093
 20
46.1661300087
 10
284.0481984707
 20
45.2897952895
 10
283.54028595
 20
44.4458059762
 10
282.9765993311
 20
43.6474722843
 10
282.3660282886
 20
42.9073844131
 10
281.7182018927
 20
42.2372139905
 10
281.0433367526
 20
41.6475300042
 10
280.3520758947
 20
41.1476321232
 10
279.6553209157
 20
40.7454040354
 10
278.9640600578
 20
40.4471891183
 10
278.2891949177
 20
40.2576903992
 10
277.6413685218
 20
40.179896386
 10
277.0307974794
 20
40.2150339368
 10
276.4671108604
 20
40.3625489115
 10
275.9591983397
 20
40.6201149108
 10
275.5150700011
 20
40.9836699651
 10
275.1417300139
 20
41.4474805939
 10
274.8450661725
 20
42.0042322265
 10
274.6297570431
 20
42.6451445571
 10
274.4991981792
 20
43.3601100155
 10
274.455448572
 20
44.1378531692
 10
274.455448572
 20
44.1378531692
  0
LINE
  5
219
330
1F
100
AcDbEntity
  8
0
  6
Continuous
 62
     7
370
    15
100
AcDbLine
 10
275.0539509369
 20
37.9306212147
 30
0.0
 11
276.7508631035
 21
38.910227757
 31
0.0
  0
LINE
  5
21A
330
1F
100
AcDbEntity
  8
0
  6
Continuous
 62
     7
370
    15
100
AcDbLine
 10
274.6937562213
 20
37.7638293808
 30
0.0
 11
275.0539509369
 21
37.9306212147
 31
0.0
  0
ARC
  5
21B
330
1F
100
AcDbEntity
  8
0
  6
Continuous
 62
     7
370
    15
100
AcDbCircle
 10
284.402291037
 20
55.6583654757
 30
0.0
 40
2.391972527133136
100
AcDbArc
 50
346.7582111183
 51
10.8666152616
  0
LWPOLYLINE
  5
21C
330
1F
100
AcDbEntity
  8
0
  6
Continuous
 62
     7
370
    15
100
AcDbPolyline
 90
        9
 70
   128
 43
0.0
 10
286.7306660268
 20
47.3379126244
 10
287.0748948533
 20
48.4615767106
 10
287.3241298701
 20
49.570184245
 10
287.4750228767
 20
50.6488422949
 10
287.5255467901
 20
51.6830602662
 10
287.4750228767
 20
52.6589445688
 10
287.3241298701
 20
53.5633852616
 10
287.0748948533
 20
54.3842321708
 10
286.7306660268
 20
55.1104581136
  0
ARC
  5
21D
330
1F
100
AcDbEntity
  8
0
  6
Continuous
 62
     7
370
    15
100
AcDbCircle
 10
282.9902620832
 20
46.8643033718
 30
0.0
 40
3.770268874395389
100
AcDbArc
 50
301.3793030507
 51
7.2163787538
  0
LINE
  5
21E
330
1F
100
AcDbEntity
  8
0
  6
Continuous
 62
     7
370
    15
100
AcDbLine
 10
283.2565337069
 20
42.6658714552
 30
0.0
 11
284.9534458735
 21
43.6454779975
 31
0.0
  0
LWPOLYLINE
  5
21F
330
1F
100
AcDbEntity
  8
0
  6
Continuous
 62
     7
370
    15
100
AcDbPolyline
 90
       10
 70
   128
 43
0.0
 10
283.2565337069
 20
42.6658714552
 10
282.5798986108
 20
41.8855339771
 10
281.8688347
 20
41.1781015416
 10
281.1328447637
 20
40.5530284061
 10
280.3817647073
 20
40.0186681634
 10
279.6256321031
 20
39.5821621023
 10
278.8745520467
 20
39.2493437703
 10
278.1385621105
 20
39.0246610129
 10
277.4274981996
 20
38.911116532
 10
276.7508631035
 20
38.910227757
  0
ARC
  5
220
330
1F
100
AcDbEntity
  8
0
  6
Continuous
 62
     7
370
    15
100
AcDbCircle
 10
277.3395128486
 20
38.1858524597
 30
0.0
 40
2.708969812927697
100
AcDbArc
 50
167.8781475344
 51
185.1588186135
  0
LWPOLYLINE
  5
221
330
1F
100
AcDbEntity
  8
0
  6
Continuous
 62
     7
370
    15
100
AcDbPolyline
 90
        9
 70
   128
 43
0.0
 10
274.690944346
 20
38.7547130175
 10
274.3467155195
 20
39.4809389603
 10
274.0974805027
 20
40.3017858695
 10
273.9465874961
 20
41.2062265624
 10
273.8960635827
 20
42.1821108649
 10
273.9465874961
 20
43.2163288362
 10
274.0974805027
 20
44.2949868861
 10
274.3467155195
 20
45.4035944205
 10
274.690944346
 20
46.5272585067
  0
ARC
  5
222
330
1F
100
AcDbEntity
  8
0
  6
Continuous
 62
     7
370
    15
100
AcDbCircle
 10
276.8114807822
 20
47.0453203658
 30
0.0
 40
2.182902395197718
100
AcDbArc
 50
173.7588101909
 51
193.7288361877
  0
LWPOLYLINE
  5
223
330
1F
100
AcDbEntity
  8
0
  6
Continuous
 62
     7
370
    15
100
AcDbPolyline
 90
       31
 70
   128
 43
0.0
 10
282.0979874679
 20
54.4290450264
 10
282.6135411115
 20
54.3600455033
 10
283.1448482253
 20
54.1774856571
 10
283.6176113415
 20
53.8866890707
 10
284.024067703
 20
53.4924306158
 10
284.3575433075
 20
53.0011840055
 10
284.6125624948
 20
52.4210154955
 10
284.7849378568
 20
51.7614514366
 10
284.871838995
 20
51.0333218526
 10
284.871838995
 20
50.248582611
 10
284.7849378568
 20
49.4201191084
 10
284.6125624948
 20
48.5615346928
 10
284.3575433075
 20
47.6869272965
 10
284.024067703
 20
46.8106579486
 10
283.6176113415
 20
45.9471149678
 10
283.1448482253
 20
45.1104777059
 10
282.6135411115
 20
44.3144837235
 10
282.0324140484
 20
43.5722032199
 10
281.4110091263
 20
42.8958244204
 10
280.7595297967
 20
42.2964534462
 10
280.0886733323
 20
41.7839319521
 10
279.4094551776
 20
41.366675527
 10
278.7330280761
 20
41.0515355096
 10
278.0704989419
 20
40.8436864906
 10
277.4327464853
 20
40.7465413448
 10
276.8302425837
 20
40.7616951931
 10
276.2728803348
 20
40.8888992096
 10
275.7698116111
 20
41.1260647078
 10
275.3292967873
 20
41.469297437
 10
274.9585691046
 20
41.912961525
 10
274.7284002881
 20
42.3106071081
  0
ARC
  5
224
330
1F
100
AcDbEntity
  8
0
  6
Continuous
 62
     7
370
    15
100
AcDbCircle
 10
275.5282047584
 20
38.6749900547
 30
0.0
 40
1.821962954515379
100
AcDbArc
 50
278.9215321124
 51
301.0579635503
  0
ARC
  5
225
330
1F
100
AcDbEntity
  8
0
  6
Continuous
 62
     7
370
    15
100
AcDbCircle
 10
285.4963110866
 20
54.8629105596
 30
0.0
 40
2.708969812922894
100
AcDbArc
 50
347.8781475344
 51
5.1588186135
  0
LINE
  5
226
330
1F
100
AcDbEntity
  8
0
  6
Continuous
 62
     7
370
    15
100
AcDbLine
 10
286.7306660268
 20
55.1104581136
 30
0.0
 11
288.1448795892
 21
54.2940500018
 31
0.0
  0
LWPOLYLINE
  5
227
330
1F
100
AcDbEntity
  8
0
  6
Continuous
 62
     7
370
    15
100
AcDbPolyline
 90
       10
 70
   128
 43
0.0
 10
284.6707472693
 20
41.8494633434
 10
283.9941121732
 20
41.0691258653
 10
283.2830482624
 20
40.3616934298
 10
282.5470583261
 20
39.7366202943
 10
281.7959782697
 20
39.2022600516
 10
281.0398456655
 20
38.7657539905
 10
280.2887656091
 20
38.4329356585
 10
279.5527756728
 20
38.2082529011
 10
278.841711762
 20
38.0947084202
 10
278.1650766659
 20
38.0938196452
  0
LINE
  5
228
330
1F
100
AcDbEntity
  8
0
  6
Continuous
 62
     7
370
    15
100
AcDbLine
 10
286.3676594359
 20
42.8290698856
 30
0.0
 11
284.6707472693
 21
41.8494633434
 31
0.0
  0
ARC
  5
229
330
1F
100
AcDbEntity
  8
0
  6
Continuous
 62
     7
370
    15
100
AcDbCircle
 10
284.7789349129
 20
45.5136556391
 30
0.0
 40
3.119462498237171
100
AcDbArc
 50
300.6168359905
 51
316.0576097217
  0
LINE
  5
22A
330
1F
100
AcDbEntity
  8
0
  6
Continuous
 62
     7
370
    15
100
AcDbLine
 10
278.1650766659
 20
38.0938196452
 30
0.0
 11
276.4681644993
 21
37.1142131029
 31
0.0
  0
LINE
  5
22B
330
1F
100
AcDbEntity
  8
0
  6
Continuous
 62
     7
370
    15
100
AcDbLine
 10
276.7508631035
 20
38.910227757
 30
0.0
 11
278.1650766659
 21
38.0938196452
 31
0.0
  0
LINE
  5
22C
330
1F
100
AcDbEntity
  8
0
  6
Continuous
 62
     7
370
    15
100
AcDbLine
 10
262.1576937024
 20
72.6509558628
 30
0.0
 11
262.2847629117
 21
72.5804137474
 31
0.0
  0
LINE
  5
22D
330
1F
100
AcDbEntity
  8
0
  6
Continuous
 62
     7
370
    15
100
AcDbLine
 10
284.6707472693
 20
41.8494633434
 30
0.0
 11
283.2565337069
 21
42.6658714552
 31
0.0
  0
ARC
  5
22E
330
1F
100
AcDbEntity
  8
0
  6
Continuous
 62
     7
370
    15
100
AcDbCircle
 10
286.024343153
 20
46.0034426535
 30
0.0
 40
2.18290239519654
100
AcDbArc
 50
353.7588101909
 51
13.7288361877
  0
LWPOLYLINE
  5
22F
330
1F
100
AcDbEntity
  8
0
  6
Continuous
 62
     7
370
    15
100
AcDbPolyline
 90
        9
 70
   128
 43
0.0
 10
288.1448795892
 20
54.2940500018
 10
288.4891084157
 20
53.567824059
 10
288.7383434325
 20
52.7469771498
 10
288.8892364391
 20
51.8425364569
 10
288.9397603525
 20
50.8666521544
 10
288.8892364391
 20
49.8324341831
 10
288.7383434325
 20
48.7537761332
 10
288.4891084157
 20
47.6451685988
 10
288.1448795892
 20
46.5215045126
  0
LINE
  5
230
330
1F
100
AcDbEntity
  8
0
  6
Continuous
 62
     7
370
    15
100
AcDbLine
 10
286.7306660268
 20
47.3379126244
 30
0.0
 11
288.1448795892
 21
46.5215045126
 31
0.0
  0
SPLINE
  5
231
330
1F
100
AcDbEntity
  8
0
  6
Continuous
 62
     7
370
    15
100
AcDbSpline
210
0.0
220
0.0
230
1.0
 70
     8
 71
     3
 72
    10
 73
     6
 74
     0
 42
0.000000001
 43
0.00000001
 40
0.0
 40
0.0
 40
0.0
 40
0.0
 40
0.5
 40
0.5
 40
1.0
 40
1.0
 40
1.0
 40
1.0
 10
244.9806014571309
 20
59.16700165348246
 30
0.0
 10
244.9240727713483
 20
59.13436833779984
 30
0.0
 10
244.8454294487736
 20
59.11399536234087
 30
0.0
 10
244.6851995344425
 20
59.11093396237952
 30
0.0
 10
244.6040325219018
 20
59.12859316225976
 30
0.0
 10
244.5469186215639
 20
59.16156431511408
 30
0.0
  0
SPLINE
  5
232
330
1F
100
AcDbEntity
  8
0
  6
Continuous
 62
     7
370
    15
100
AcDbSpline
210
0.0
220
0.0
230
1.0
 70
     8
 71
     3
 72
    12
 73
     8
 74
     0
 42
0.000000001
 43
0.00000001
 40
0.0
 40
0.0
 40
0.0
 40
0.0
 40
0.250000000000002
 40
0.250000000000002
 40
0.500000000000004
 40
0.500000000000004
 40
1.0
 40
1.0
 40
1.0
 40
1.0
 10
262.2376405279087
 20
75.68552619336918
 30
0.0
 10
262.2695448562535
 20
75.66710821665343
 30
0.0
 10
262.3016821926943
 20
75.63719367602137
 30
0.0
 10
262.3563404991206
 20
75.56679625607846
 30
0.0
 10
262.3793138384509
 20
75.52641555940262
 30
0.0
 10
262.4329956273887
 20
75.40389172936725
 30
0.0
 10
262.4497725622647
 20
75.31909040776156
 30
0.0
 10
262.4497725622647
 20
75.24553781212795
 30
0.0
  0
LINE
  5
233
330
1F
100
AcDbEntity
  8
0
  6
Continuous
 62
     7
370
    15
100
AcDbLine
 10
244.5469186216
 20
59.1615643151
 30
0.0
 11
243.1475305539
 21
59.969413851
 31
0.0
  0
LWPOLYLINE
  5
234
330
1F
100
AcDbEntity
  8
0
  6
Continuous
 62
     7
370
    15
100
AcDbPolyline
 90
       23
 70
   128
 43
0.0
 10
243.1475305539
 20
59.969413851
 10
243.4734935252
 20
61.2410798055
 10
243.8817607923
 20
62.5224115147
 10
244.3690847428
 20
63.8032164672
 10
244.931588898
 20
65.0733063416
 10
245.5647987491
 20
66.3225780512
 10
246.2636773502
 20
67.5410941096
 10
247.022665385
 20
68.7191616804
 10
247.8357253895
 20
69.8474096794
 10
248.6963897772
 20
70.9168633185
 10
249.5978122871
 20
71.9190154966
 10
250.5328224423
 20
72.8458944703
 10
251.4939825889
 20
73.6901272663
 10
252.47364706
 20
74.4449983305
 10
253.4640229932
 20
75.1045029476
 10
254.4572323209
 20
75.6633950068
 10
255.4453744368
 20
76.117228732
 10
256.4205890422
 20
76.4623940468
 10
257.375118672
 20
76.6961452911
 10
258.3013704024
 20
76.8166230617
 10
259.1919762495
 20
76.8228690032
 10
260.039851779
 20
76.7148334317
 10
260.8382524603
 20
76.4933757292
  0
LINE
  5
235
330
1F
100
AcDbEntity
  8
0
  6
Continuous
 62
     7
370
    15
100
AcDbLine
 10
260.8382524603
 20
76.4933757292
 30
0.0
 11
262.2376405279
 21
75.6855261934
 31
0.0
  0
LINE
  5
236
330
1F
100
AcDbEntity
  8
0
  6
Continuous
 62
     7
370
    15
100
AcDbLine
 10
265.6039074595
 20
70.6643123853
 30
0.0
 11
265.9840479326
 21
70.8837628093
 31
0.0
  0
LINE
  5
237
330
1F
100
AcDbEntity
  8
0
  6
Continuous
 62
     7
370
    15
100
AcDbLine
 10
246.0979282473
 20
58.4485562102
 30
0.0
 11
246.0979282473
 21
59.8120206798
 31
0.0
  0
LINE
  5
238
330
1F
100
AcDbEntity
  8
0
  6
Continuous
 62
     7
370
    15
100
AcDbLine
 10
246.0979282473
 20
59.8120206798
 30
0.0
 11
244.9806014571
 21
59.1670016535
 31
0.0
  0
LINE
  5
239
330
1F
100
AcDbEntity
  8
0
  6
Continuous
 62
     7
370
    15
100
AcDbLine
 10
262.4497725623
 20
75.2455378121
 30
0.0
 11
262.4497725623
 21
73.6814733773
 31
0.0
  0
LINE
  5
23A
330
1F
100
AcDbEntity
  8
0
  6
Continuous
 62
     7
370
    15
100
AcDbLine
 10
263.8042187234
 20
74.4633785028
 30
0.0
 11
262.4497725623
 21
73.6814733773
 31
0.0
  0
SPLINE
  5
23B
330
1F
100
AcDbEntity
  8
0
  6
Continuous
 62
     7
370
    15
100
AcDbSpline
210
0.0
220
0.0
230
1.0
 70
     8
 71
     3
 72
    20
 73
    16
 74
     0
 42
0.000000001
 43
0.00000001
 40
0.0
 40
0.0
 40
0.0
 40
0.0
 40
0.25
 40
0.25
 40
0.3750000000000001
 40
0.3750000000000001
 40
0.4375000000000001
 40
0.4375000000000001
 40
0.4687500000000001
 40
0.4687500000000001
 40
0.5000000000000001
 40
0.5000000000000001
 40
0.7500000000000001
 40
0.7500000000000001
 40
1.0
 40
1.0
 40
1.0
 40
1.0
 10
246.0979282473258
 20
53.82661784249478
 30
0.0
 10
246.0979282473258
 20
54.21900001901533
 30
0.0
 10
246.1183740266358
 20
54.59917665348136
 30
0.0
 10
246.1455476023552
 20
55.17152807529956
 30
0.0
 10
246.1541279821492
 20
55.36259692366716
 30
0.0
 10
246.162984359893
 20
55.65159655332886
 30
0.0
 10
246.1652761668155
 20
55.74832395465802
 30
0.0
 10
246.167470400503
 20
55.89415737646648
 30
0.0
 10
246.1679961423315
 20
55.9428912957847
 30
0.0
 10
246.16861587483
 20
56.04061687744197
 30
0.0
 10
246.1687049828782
 20
56.08986193045237
 30
0.0
 10
246.1676663769613
 20
56.51652462233508
 30
0.0
 10
246.1521531366893
 20
56.90378096871775
 30
0.0
 10
246.1170156577669
 20
57.68046323141935
 30
0.0
 10
246.0979282473258
 20
58.06961708803711
 30
0.0
 10
246.0979282473258
 20
58.44855621022538
 30
0.0
  0
LWPOLYLINE
  5
23C
330
1F
100
AcDbEntity
  8
0
  6
Continuous
 62
     7
370
    15
100
AcDbPolyline
 90
       20
 70
   128
 43
0.0
 10
242.2237477662
 20
61.600395885
 10
242.5724498033
 20
62.8580641774
 10
243.0070037165
 20
64.1219631574
 10
243.5234293213
 20
65.3805164688
 10
244.116996551
 20
66.6221967176
 10
244.7822687797
 20
67.8356310543
 10
245.5131526184
 20
69.0097053406
 10
246.3029537253
 20
70.1336659463
 10
247.1444381213
 20
71.1972182446
 10
248.0298984473
 20
72.190620903
 10
248.9512245583
 20
73.1047751064
 10
249.8999778057
 20
73.9313078956
 10
250.8674683292
 20
74.6626488569
 10
251.8448346494
 20
75.2920994619
 10
252.8231248319
 20
75.8138944202
 10
253.7933784804
 20
76.2232544857
 10
254.7467088073
 20
76.5164302307
 10
255.6743840298
 20
76.6907363876
 10
256.5679073463
 20
76.7445764442
 10
257.3388138139
 20
76.6892273911
  0
SPLINE
  5
23D
330
1F
100
AcDbEntity
  8
0
  6
Continuous
 62
     7
370
    15
100
AcDbSpline
210
0.0
220
0.0
230
1.0
 70
     8
 71
     3
 72
     8
 73
     4
 74
     0
 42
0.000000001
 43
0.00000001
 40
0.0
 40
0.0
 40
0.0
 40
0.0
 40
1.0
 40
1.0
 40
1.0
 40
1.0
 10
242.2237477661729
 20
61.60039588496074
 30
0.0
 10
241.7324467371204
 20
61.51774866475686
 30
0.0
 10
241.2408666462177
 20
61.43566487726641
 30
0.0
 10
240.7490718474658
 20
61.35401459018467
 30
0.0
  0
LWPOLYLINE
  5
23E
330
1F
100
AcDbEntity
  8
0
  6
Continuous
 62
     7
370
    15
100
AcDbPolyline
 90
       23
 70
   128
 43
0.0
 10
240.7490718475
 20
61.3540145902
 10
241.0750348188
 20
62.6256805447
 10
241.4833020858
 20
63.9070122539
 10
241.9706260363
 20
65.1878172064
 10
242.5331301915
 20
66.4579070808
 10
243.1663400426
 20
67.7071787904
 10
243.8652186437
 20
68.9256948488
 10
244.6242066786
 20
70.1037624196
 10
245.437266683
 20
71.2320104186
 10
246.2979310707
 20
72.3014640577
 10
247.1993535806
 20
73.3036162358
 10
248.1343637358
 20
74.2304952095
 10
249.0955238825
 20
75.0747280055
 10
250.0751883535
 20
75.8295990696
 10
251.0655642867
 20
76.4891036868
 10
252.0587736144
 20
77.047995746
 10
253.0469157303
 20
77.5018294712
 10
254.0221303357
 20
77.846994786
 10
254.9766599655
 20
78.0807460303
 10
255.902911696
 20
78.2012238009
 10
256.793517543
 20
78.2074697424
 10
257.6413930726
 20
78.0994341708
 10
258.4397937538
 20
77.8779764684
  0
LINE
  5
23F
330
1F
100
AcDbEntity
  8
0
  6
Continuous
 62
     7
370
    15
100
AcDbLine
 10
258.4397937538
 20
77.8779764684
 30
0.0
 11
258.7667546786
 21
76.8216090504
 31
0.0
  0
LINE
  5
240
330
1F
100
AcDbEntity
  8
0
  6
Continuous
 62
     7
370
    15
100
AcDbLine
 10
255.0251513598
 20
79.8492075637
 30
0.0
 11
258.4397937538
 21
77.8779764684
 31
0.0
  0
LINE
  5
241
330
1F
100
AcDbEntity
  8
0
  6
Continuous
 62
     7
370
    15
100
AcDbLine
 10
240.7490718475
 20
61.3540145902
 30
0.0
 11
240.1628565782
 21
61.6924294618
 31
0.0
  0
SPLINE
  5
242
330
1F
100
AcDbEntity
  8
0
  6
Continuous
 62
     7
370
    15
100
AcDbSpline
210
0.0
220
0.0
230
1.0
 70
     8
 71
     3
 72
    28
 73
    24
 74
     0
 42
0.000000001
 43
0.00000001
 40
0.0
 40
0.0
 40
0.0
 40
0.0
 40
0.1249999999999999
 40
0.1249999999999999
 40
0.1874999999999998
 40
0.1874999999999998
 40
0.2499999999999997
 40
0.2499999999999997
 40
0.3749999999999993
 40
0.3749999999999993
 40
0.4374999999999993
 40
0.4374999999999993
 40
0.4999999999999992
 40
0.4999999999999992
 40
0.6249999999999992
 40
0.6249999999999992
 40
0.7499999999999992
 40
0.7499999999999992
 40
0.8124999999999993
 40
0.8124999999999993
 40
0.8749999999999996
 40
0.8749999999999996
 40
1.0
 40
1.0
 40
1.0
 40
1.0
 10
240.1628565782073
 20
61.69242946176448
 30
0.0
 10
239.974869497741
 20
61.80095209334856
 30
0.0
 10
239.7846495431403
 20
61.88289581389646
 30
0.0
 10
239.4965509411923
 20
61.96805354393493
 30
0.0
 10
239.4000610705927
 20
61.99010347433872
 30
0.0
 10
239.2063228977578
 20
62.02137729779769
 30
0.0
 10
239.1090718772265
 20
62.03050454912113
 30
0.0
 10
238.8230500023411
 20
62.03828739122952
 30
0.0
 10
238.6377081859845
 20
62.01798084759245
 30
0.0
 10
238.3691955991687
 20
61.95076019445932
 30
0.0
 10
238.2808349395029
 20
61.92197383685373
 30
0.0
 10
238.1104822292133
 20
61.85296194675857
 30
0.0
 10
238.0284551994318
 20
61.81282205684845
 30
0.0
 10
237.7920189456792
 20
61.67620228908523
 30
0.0
 10
237.6471516955569
 20
61.56368779939616
 30
0.0
 10
237.3862949020727
 20
61.2954308343967
 30
0.0
 10
237.2740024945704
 20
61.14327744801941
 30
0.0
 10
237.1347780131166
 20
60.89136106032111
 30
0.0
 10
237.0931822267508
 20
60.80331877464473
 30
0.0
 10
237.0200575116896
 20
60.61897771959291
 30
0.0
 10
236.9884330276367
 20
60.52218895691112
 30
0.0
 10
236.9109397242144
 20
60.22417387801431
 30
0.0
 10
236.8817650088246
 20
60.01470100087779
 30
0.0
 10
236.8757981260828
 20
59.79432020819392
 30
0.0
  0
ARC
  5
243
330
1F
100
AcDbEntity
  8
0
  6
Continuous
 62
     7
370
    15
100
AcDbCircle
 10
251.7191645885
 20
59.3860498023
 30
0.0
 40
14.8489801893034
100
AcDbArc
 50
178.4244628824
 51
181.5755371176
  0
SPLINE
  5
244
330
1F
100
AcDbEntity
  8
0
  6
Continuous
 62
     7
370
    15
100
AcDbSpline
210
0.0
220
0.0
230
1.0
 70
     8
 71
     3
 72
    30
 73
    26
 74
     0
 42
0.000000001
 43
0.00000001
 40
0.0
 40
0.0
 40
0.0
 40
0.0
 40
0.1250000000000001
 40
0.1250000000000001
 40
0.1875000000000002
 40
0.1875000000000002
 40
0.2500000000000003
 40
0.2500000000000003
 40
0.3750000000000004
 40
0.3750000000000004
 40
0.4375000000000004
 40
0.4375000000000004
 40
0.5000000000000004
 40
0.5000000000000004
 40
0.6250000000000007
 40
0.6250000000000007
 40
0.6875000000000006
 40
0.6875000000000006
 40
0.7500000000000004
 40
0.7500000000000004
 40
0.8125000000000004
 40
0.8125000000000004
 40
0.8750000000000003
 40
0.8750000000000003
 40
1.0
 40
1.0
 40
1.0
 40
1.0
 10
236.8757981260828
 20
58.97777939630817
 30
0.0
 10
236.8817657247743
 20
58.76426220353346
 30
0.0
 10
236.9109109447738
 20
58.54671230551433
 30
0.0
 10
236.9873456060326
 20
58.21441327597874
 30
0.0
 10
237.01831158961
 20
58.10263897467917
 30
0.0
 10
237.0912815304256
 20
57.87693710114417
 30
0.0
 10
237.1334177289842
 20
57.76284932857165
 30
0.0
 10
237.2733095183487
 20
57.42468660121047
 30
0.0
 10
237.3851534428909
 20
57.2021763819377
 30
0.0
 10
237.5789400400355
 20
56.87156612598813
 30
0.0
 10
237.6482806776388
 20
56.76133948628198
 30
0.0
 10
237.7937730620854
 20
56.54460948582845
 30
0.0
 10
237.8696603528045
 20
56.43841255019772
 30
0.0
 10
238.1060483012759
 20
56.12577437694812
 30
0.0
 10
238.2751938035268
 20
55.92523182911295
 30
0.0
 10
238.5450598008609
 20
55.6351269896906
 30
0.0
 10
238.6372513069117
 20
55.54078357331815
 30
0.0
 10
238.8228499019464
 20
55.35947854525776
 30
0.0
 10
238.9166787822332
 20
55.2720592117636
 30
0.0
 10
239.1061288326986
 20
55.10345166143896
 30
0.0
 10
239.2017502479043
 20
55.02226347566962
 30
0.0
 10
239.3946119373307
 20
54.86610079612147
 30
0.0
 10
239.4923468462291
 20
54.79077381642477
 30
0.0
 10
239.7836028013494
 20
54.57748358298093
 30
0.0
 10
239.9748601923226
 20
54.4520901582805
 30
0.0
 10
240.1628565782073
 20
54.34356215479274
 30
0.0
  0
LINE
  5
245
330
1F
100
AcDbEntity
  8
0
  6
Continuous
 62
     7
370
    15
100
AcDbLine
 10
240.1628565782
 20
54.3435621548
 30
0.0
 11
240.7490718475
 21
54.0051472832
 31
0.0
  0
ARC
  5
246
330
1F
100
AcDbEntity
  8
0
  6
Continuous
 62
     7
370
    15
100
AcDbCircle
 10
246.5404275781
 20
55.3682632214
 30
0.0
 40
5.949612278125916
100
AcDbArc
 50
193.2446820632
 51
253.3774892935
  0
LINE
  5
247
330
1F
100
AcDbEntity
  8
0
  6
Continuous
 62
     7
370
    15
100
AcDbLine
 10
260.0692116101
 20
76.9370277754
 30
0.0
 11
260.4035240139
 21
76.6296996652
 31
0.0
  0
LINE
  5
248
330
1F
100
AcDbEntity
  8
0
  6
Continuous
 62
     7
370
    15
100
AcDbLine
 10
259.2162828563
 20
77.4294130643
 30
0.0
 11
260.0692116101
 21
76.9370277754
 31
0.0
  0
SPLINE
  5
249
330
1F
100
AcDbEntity
  8
0
  6
Continuous
 62
     7
370
    15
100
AcDbSpline
210
0.0
220
0.0
230
1.0
 70
     8
 71
     3
 72
    20
 73
    16
 74
     0
 42
0.000000001
 43
0.00000001
 40
0.0
 40
0.0
 40
0.0
 40
0.0
 40
0.2500000000000005
 40
0.2500000000000005
 40
0.3750000000000004
 40
0.3750000000000004
 40
0.5000000000000003
 40
0.5000000000000003
 40
0.6250000000000002
 40
0.6250000000000002
 40
0.7500000000000001
 40
0.7500000000000001
 40
0.8750000000000001
 40
0.8750000000000001
 40
1.0
 40
1.0
 40
1.0
 40
1.0
 10
255.025151359806
 20
79.84920756366492
 30
0.0
 10
255.3441400142039
 20
79.71531717440514
 30
0.0
 10
255.6705956143019
 20
79.55542082734313
 30
0.0
 10
256.182945731685
 20
79.27750189987363
 30
0.0
 10
256.3575490983629
 20
79.17850288706332
 30
0.0
 10
256.7174229607117
 20
78.96756218216463
 30
0.0
 10
256.9002833770652
 20
78.85700636495459
 30
0.0
 10
257.2665784662424
 20
78.63158849594375
 30
0.0
 10
257.4510619825011
 20
78.51610789456429
 30
0.0
 10
257.8246468067366
 20
78.28127555026852
 30
0.0
 10
258.0089962779759
 20
78.16494562499327
 30
0.0
 10
258.3697061844522
 20
77.93925093819387
 30
0.0
 10
258.5467601737061
 20
77.82944096409719
 30
0.0
 10
258.8944895250585
 20
77.61804620056128
 30
0.0
 10
259.0597399415167
 20
77.51978336541828
 30
0.0
 10
259.2162828562982
 20
77.4294130643009
 30
0.0
  0
LINE
  5
24A
330
1F
100
AcDbEntity
  8
0
  6
Continuous
 62
     7
370
    15
100
AcDbLine
 10
243.358362321
 20
60.8261371166
 30
0.0
 11
242.8947345286
 21
61.0937837441
 31
0.0
  0
LINE
  5
24B
330
1F
100
AcDbEntity
  8
0
  6
Continuous
 62
     7
370
    15
100
AcDbLine
 10
242.4689163705
 20
61.7419287077
 30
0.0
 11
242.2237477662
 21
61.600395885
 31
0.0
  0
SPLINE
  5
24C
330
1F
100
AcDbEntity
  8
0
  6
Continuous
 62
     7
370
    15
100
AcDbSpline
210
0.0
220
0.0
230
1.0
 70
     8
 71
     3
 72
    14
 73
    10
 74
     0
 42
0.000000001
 43
0.00000001
 40
0.0
 40
0.0
 40
0.0
 40
0.0
 40
0.1250000000000006
 40
0.1250000000000006
 40
0.2500000000000012
 40
0.2500000000000012
 40
0.4999999999999998
 40
0.4999999999999998
 40
1.0
 40
1.0
 40
1.0
 40
1.0
 10
242.8947345285507
 20
61.09378374413875
 30
0.0
 10
242.8705380953855
 20
61.10775204768129
 30
0.0
 10
242.8473626569266
 20
61.13511722367885
 30
0.0
 10
242.8104422644957
 20
61.19291899280437
 30
0.0
 10
242.7954004734631
 20
61.22388947192074
 30
0.0
 10
242.7555870168762
 20
61.31691594484993
 30
0.0
 10
242.7359509984921
 20
61.37952699913473
 30
0.0
 10
242.6855301500227
 20
61.56385775004972
 30
0.0
 10
242.6631129717821
 20
61.68540198495039
 30
0.0
 10
242.6464250736162
 20
61.80453105025275
 30
0.0
  0
SPLINE
  5
24D
330
1F
100
AcDbEntity
  8
0
  6
Continuous
 62
     7
370
    15
100
AcDbSpline
210
0.0
220
0.0
230
1.0
 70
     8
 71
     3
 72
    10
 73
     6
 74
     0
 42
0.000000001
 43
0.00000001
 40
0.0
 40
0.0
 40
0.0
 40
0.0
 40
0.5
 40
0.5
 40
1.0
 40
1.0
 40
1.0
 40
1.0
 10
242.6464250736162
 20
61.80453105025275
 30
0.0
 10
242.6130350554284
 20
61.79838128105252
 30
0.0
 10
242.5807957040003
 20
61.78983467320445
 30
0.0
 10
242.520807809738
 20
61.76859869943555
 30
0.0
 10
242.493545936489
 20
61.75614705342737
 30
0.0
 10
242.4689163705391
 20
61.74192870765052
 30
0.0
  0
LWPOLYLINE
  5
24E
330
1F
100
AcDbEntity
  8
0
  6
Continuous
 62
     7
370
    15
100
AcDbPolyline
 90
       21
 70
   128
 43
0.0
 10
235.2261614866
 20
60.4543449176
 10
235.2693272271
 20
61.605052982
 10
235.3984866181
 20
62.7965932988
 10
235.6126288123
 20
64.0196404494
 10
235.9100778567
 20
65.2646224316
 10
236.2885058091
 20
66.5217955733
 10
236.7449509579
 20
67.7813207903
 10
237.2758410007
 20
69.0333405899
 10
237.8770210033
 20
70.2680562196
 10
238.543785917
 20
71.4758043557
 10
239.2709174023
 20
72.6471327313
 10
240.0527246694
 20
73.7728741139
 10
240.8830890165
 20
74.8442180506
 10
241.7555117168
 20
75.8527798228
 10
242.6631648796
 20
76.7906660669
 10
243.5989448884
 20
77.6505365517
 10
244.5555279958
 20
78.4256616245
 10
245.5254276421
 20
79.1099748809
 10
246.5010530474
 20
79.6981206416
 10
247.4747686202
 20
80.1854958688
 10
248.3392933515
 20
80.5334252429
  0
LINE
  5
24F
330
1F
100
AcDbEntity
  8
0
  6
Continuous
 62
     7
370
    15
100
AcDbLine
 10
243.9279325106
 20
53.715865247
 30
0.0
 11
246.0979282473
 21
52.4631533729
 31
0.0
  0
SPLINE
  5
250
330
1F
100
AcDbEntity
  8
0
  6
Continuous
 62
     7
370
    15
100
AcDbSpline
210
0.0
220
0.0
230
1.0
 70
     8
 71
     3
 72
    14
 73
    10
 74
     0
 42
0.000000001
 43
0.00000001
 40
0.0
 40
0.0
 40
0.0
 40
0.0
 40
0.1249999999999999
 40
0.1249999999999999
 40
0.2499999999999998
 40
0.2499999999999998
 40
0.4999999999999996
 40
0.4999999999999996
 40
1.0
 40
1.0
 40
1.0
 40
1.0
 10
243.6796230556677
 20
54.42661255307684
 30
0.0
 10
243.7038516336205
 20
54.41262569274344
 30
0.0
 10
243.7269374749864
 20
54.38532692292671
 30
0.0
 10
243.7636798490495
 20
54.32788771461929
 30
0.0
 10
243.7788381487333
 20
54.2967372396169
 30
0.0
 10
243.818401075621
 20
54.20443769941114
 30
0.0
 10
243.8380109488638
 20
54.1421999186556
 30
0.0
 10
243.8888337978187
 20
53.95674415245903
 30
0.0
 10
243.9112654819428
 20
53.83484533216132
 30
0.0
 10
243.9279325106023
 20
53.71586524696273
 30
0.0
  0
LINE
  5
251
330
1F
100
AcDbEntity
  8
0
  6
Continuous
 62
     7
370
    15
100
AcDbLine
 10
242.8947345286
 20
54.8797190551
 30
0.0
 11
243.6796230557
 21
54.4266125531
 31
0.0
  0
SPLINE
  5
252
330
1F
100
AcDbEntity
  8
0
  6
Continuous
 62
     7
370
    15
100
AcDbSpline
210
0.0
220
0.0
230
1.0
 70
     8
 71
     3
 72
    14
 73
    10
 74
     0
 42
0.000000001
 43
0.00000001
 40
0.0
 40
0.0
 40
0.0
 40
0.0
 40
0.5
 40
0.5
 40
0.75
 40
0.75
 40
0.875
 40
0.875
 40
1.0
 40
1.0
 40
1.0
 40
1.0
 10
242.6464250736161
 20
54.45566374328076
 30
0.0
 10
242.6630491550699
 20
54.55514348751087
 30
0.0
 10
242.6854665566742
 20
54.65097862090687
 30
0.0
 10
242.7358976145229
 20
54.77719457048051
 30
0.0
 10
242.7554323084541
 20
54.81702811917477
 30
0.0
 10
242.7953754657896
 20
54.86428845064661
 30
0.0
 10
242.8103924329552
 20
54.87789106425188
 30
0.0
 10
242.8474538004769
 20
54.89311146582759
 30
0.0
 10
242.8704374628253
 20
54.89374545262146
 30
0.0
 10
242.8947345285507
 20
54.87971905513843
 30
0.0
  0
LINE
  5
253
330
1F
100
AcDbEntity
  8
0
  6
Continuous
 62
     7
370
    15
100
AcDbLine
 10
241.5017341696
 20
55.1164797363
 30
0.0
 11
242.6464250736
 21
54.4556637433
 31
0.0
  0
ARC
  5
254
330
1F
100
AcDbEntity
  8
0
  6
Continuous
 62
     7
370
    15
100
AcDbCircle
 10
244.7881989595
 20
60.2799073919
 30
0.0
 40
6.120607483709517
100
AcDbArc
 50
182.476303705
 51
237.5236964406
  0
LINE
  5
255
330
1F
100
AcDbEntity
  8
0
  6
Continuous
 62
     7
370
    15
100
AcDbLine
 10
238.6733070449
 20
60.8320000194
 30
0.0
 11
238.6733070449
 21
60.0154592075
 31
0.0
  0
ARC
  5
256
330
1F
100
AcDbEntity
  8
0
  6
Continuous
 62
     7
370
    15
100
AcDbCircle
 10
241.2464642503
 20
60.918432522
 30
0.0
 40
2.574608432656895
100
AcDbArc
 50
153.5829153032
 51
181.9238452842
  0
LINE
  5
257
330
1F
100
AcDbEntity
  8
0
  6
Continuous
 62
     7
370
    15
100
AcDbLine
 10
246.0979282473
 20
52.4631533729
 30
0.0
 11
246.0979282473
 21
53.8266178425
 31
0.0
  0
LINE
  5
258
330
1F
100
AcDbEntity
  8
0
  6
Continuous
 62
     7
370
    15
100
AcDbLine
 10
244.9806014571
 20
51.8181343465
 30
0.0
 11
246.0979282473
 21
52.4631533729
 31
0.0
  0
ARC
  5
259
330
1F
100
AcDbEntity
  8
0
  6
Continuous
 62
     7
370
    15
100
AcDbCircle
 10
250.1459331891
 20
52.8593413946
 30
0.0
 40
5.58913606874347
100
AcDbArc
 50
209.5403304489
 51
270.5279406684
  0
SPLINE
  5
25A
330
1F
100
AcDbEntity
  8
0
  6
Continuous
 62
     7
370
    15
100
AcDbSpline
210
0.0
220
0.0
230
1.0
 70
     8
 71
     3
 72
    12
 73
     8
 74
     0
 42
0.000000001
 43
0.00000001
 40
0.0
 40
0.0
 40
0.0
 40
0.0
 40
0.2499999999999999
 40
0.2499999999999999
 40
0.4999999999999998
 40
0.4999999999999998
 40
1.0
 40
1.0
 40
1.0
 40
1.0
 10
244.5469186215639
 20
51.81269700814233
 30
0.0
 10
244.5751608216363
 20
51.79639313307831
 30
0.0
 10
244.6097069535417
 20
51.78343733966831
 30
0.0
 10
244.6844310132394
 20
51.76672560147577
 30
0.0
 10
244.7247214045411
 20
51.76283869268831
 30
0.0
 10
244.8458344219773
 20
51.76510209057761
 30
0.0
 10
244.9239519843953
 20
51.78543130200435
 30
0.0
 10
244.9806014571308
 20
51.8181343465107
 30
0.0
  0
ARC
  5
25B
330
1F
100
AcDbEntity
  8
0
  6
Continuous
 62
     7
370
    15
100
AcDbCircle
 10
249.2882971352
 20
54.2057149999
 30
0.0
 40
6.342063799654852
100
AcDbArc
 50
194.4742699055
 51
238.1951928029
  0
LINE
  5
25C
330
1F
100
AcDbEntity
  8
0
  6
Continuous
 62
     7
370
    15
100
AcDbLine
 10
243.1475305539
 20
52.620546544
 30
0.0
 11
244.5469186216
 21
51.8126970081
 31
0.0
  0
SPLINE
  5
25D
330
1F
100
AcDbEntity
  8
0
  6
Continuous
 62
     7
370
    15
100
AcDbSpline
210
0.0
220
0.0
230
1.0
 70
     8
 71
     3
 72
     8
 73
     4
 74
     0
 42
0.000000001
 43
0.00000001
 40
0.0
 40
0.0
 40
0.0
 40
0.0
 40
1.0
 40
1.0
 40
1.0
 40
1.0
 10
243.5743217182392
 20
53.4718588311983
 30
0.0
 10
243.4311570215487
 20
53.1882367841913
 30
0.0
 10
243.2889683246962
 20
52.90445363820729
 30
0.0
 10
243.147530553941
 20
52.6205465440202
 30
0.0
  0
LINE
  5
25E
330
1F
100
AcDbEntity
  8
0
  6
Continuous
 62
     7
370
    15
100
AcDbLine
 10
243.8194903226
 20
53.6133916539
 30
0.0
 11
243.5743217182
 21
53.4718588312
 31
0.0
  0
SPLINE
  5
25F
330
1F
100
AcDbEntity
  8
0
  6
Continuous
 62
     7
370
    15
100
AcDbSpline
210
0.0
220
0.0
230
1.0
 70
     8
 71
     3
 72
    10
 73
     6
 74
     0
 42
0.000000001
 43
0.00000001
 40
0.0
 40
0.0
 40
0.0
 40
0.0
 40
0.5
 40
0.5
 40
1.0
 40
1.0
 40
1.0
 40
1.0
 10
243.9279325106023
 20
53.71586524696283
 30
0.0
 10
243.9172796436324
 20
53.69658959975668
 30
0.0
 10
243.9024748804802
 20
53.6779782183316
 30
0.0
 10
243.8656891091493
 20
53.64334794410001
 30
0.0
 10
243.8441198885553
 20
53.6276099996649
 30
0.0
 10
243.8194903226054
 20
53.61339165388803
 30
0.0
  0
SPLINE
  5
260
330
1F
100
AcDbEntity
  8
0
  6
Continuous
 62
     7
370
    15
100
AcDbSpline
210
0.0
220
0.0
230
1.0
 70
     8
 71
     3
 72
    14
 73
    10
 74
     0
 42
0.000000001
 43
0.00000001
 40
0.0
 40
0.0
 40
0.0
 40
0.0
 40
0.5
 40
0.5
 40
0.75
 40
0.75
 40
0.875
 40
0.875
 40
1.0
 40
1.0
 40
1.0
 40
1.0
 10
228.0066232539236
 20
65.1109245940995
 30
0.0
 10
228.3217891977635
 20
64.88383660320363
 30
0.0
 10
228.6380648530294
 20
64.65399022815551
 30
0.0
 10
229.1168893416005
 20
64.29868162616638
 30
0.0
 10
229.2772093520245
 20
64.17854331197083
 30
0.0
 10
229.5202618879782
 20
63.99227447772703
 30
0.0
 10
229.6017053259948
 20
63.9291812365
 30
0.0
 10
229.7663667750282
 20
63.79883599408787
 30
0.0
 10
229.8492727930944
 20
63.73231155211062
 30
0.0
 10
229.9352916211791
 20
63.65851808078705
 30
0.0
  0
SPLINE
  5
261
330
1F
100
AcDbEntity
  8
0
  6
Continuous
 62
     7
370
    15
100
AcDbSpline
210
0.0
220
0.0
230
1.0
 70
     8
 71
     3
 72
     8
 73
     4
 74
     0
 42
0.000000001
 43
0.00000001
 40
0.0
 40
0.0
 40
0.0
 40
0.0
 40
1.0
 40
1.0
 40
1.0
 40
1.0
 10
229.9352916211791
 20
63.65851808078705
 30
0.0
 10
230.2369440944166
 20
63.39973772270524
 30
0.0
 10
230.54222363794
 20
63.15216270730059
 30
0.0
 10
230.8468832110666
 20
62.91118985073408
 30
0.0
  0
SPLINE
  5
262
330
1F
100
AcDbEntity
  8
0
  6
Continuous
 62
     7
370
    15
100
AcDbSpline
210
0.0
220
0.0
230
1.0
 70
     8
 71
     3
 72
    14
 73
    10
 74
     0
 42
0.000000001
 43
0.00000001
 40
0.0
 40
0.0
 40
0.0
 40
0.0
 40
0.1250000000000009
 40
0.1250000000000009
 40
0.2500000000000018
 40
0.2500000000000018
 40
0.5000000000000037
 40
0.5000000000000037
 40
1.0
 40
1.0
 40
1.0
 40
1.0
 10
230.8468832110667
 20
62.91118985073403
 30
0.0
 10
230.8660785869923
 20
62.89600711899783
 30
0.0
 10
230.8836906603926
 20
62.88463930050105
 30
0.0
 10
230.9095355903119
 20
62.87337083128859
 30
0.0
 10
230.9176739545595
 20
62.87298736105154
 30
0.0
 10
230.9346240455276
 20
62.87876315374594
 30
0.0
 10
230.9367933180374
 20
62.89142857936396
 30
0.0
 10
230.9356177702228
 20
62.93586540640774
 30
0.0
 10
230.9235442496186
 20
62.97634867718117
 30
0.0
 10
230.9087660215786
 20
63.02035234706367
 30
0.0
  0
SPLINE
  5
263
330
1F
100
AcDbEntity
  8
0
  6
Continuous
 62
     7
370
    15
100
AcDbSpline
210
0.0
220
0.0
230
1.0
 70
     8
 71
     3
 72
    14
 73
    10
 74
     0
 42
0.000000001
 43
0.00000001
 40
0.0
 40
0.0
 40
0.0
 40
0.0
 40
0.25
 40
0.25
 40
0.5
 40
0.5
 40
0.75
 40
0.75
 40
1.0
 40
1.0
 40
1.0
 40
1.0
 10
230.9087660215778
 20
63.02035234706437
 30
0.0
 10
230.8907097746313
 20
63.07411665005114
 30
0.0
 10
230.8877869765301
 20
63.11866725914819
 30
0.0
 10
230.8823732479868
 20
63.21092860899289
 30
0.0
 10
230.8808059699456
 20
63.25822301191315
 30
0.0
 10
230.8706675701385
 20
63.36298406674093
 30
0.0
 10
230.8623525723943
 20
63.42024527377595
 30
0.0
 10
230.8335523977354
 20
63.54986663115037
 30
0.0
 10
230.8128990010649
 20
63.62266083076342
 30
0.0
 10
230.7842094839038
 20
63.70234752972318
 30
0.0
  0
ARC
  5
264
330
1F
100
AcDbEntity
  8
0
  6
Continuous
 62
     7
370
    15
100
AcDbCircle
 10
241.1391767613
 20
66.7889090277
 30
0.0
 40
10.80519362138104
100
AcDbArc
 50
163.4019732888
 51
196.5980267112
  0
SPLINE
  5
265
330
1F
100
AcDbEntity
  8
0
  6
Continuous
 62
     7
370
    15
100
AcDbSpline
210
0.0
220
0.0
230
1.0
 70
     8
 71
     3
 72
    14
 73
    10
 74
     0
 42
0.000000001
 43
0.00000001
 40
0.0
 40
0.0
 40
0.0
 40
0.0
 40
0.25
 40
0.25
 40
0.5
 40
0.5
 40
0.75
 40
0.75
 40
1.0
 40
1.0
 40
1.0
 40
1.0
 10
230.9087660215778
 20
71.33667554198736
 30
0.0
 10
230.8907097746313
 20
71.21583346304278
 30
0.0
 10
230.8877869765301
 20
71.09073919647668
 30
0.0
 10
230.8823732479868
 20
70.84278788582532
 30
0.0
 10
230.8808059699456
 20
70.71887926151157
 30
0.0
 10
230.8706675701385
 20
70.47272352227137
 30
0.0
 10
230.8623525723943
 20
70.35043558040996
 30
0.0
 10
230.8335523977354
 20
70.10843840320116
 30
0.0
 10
230.8128990010649
 20
69.98828143602158
 30
0.0
 10
230.7842094839038
 20
69.8754705256163
 30
0.0
  0
SPLINE
  5
266
330
1F
100
AcDbEntity
  8
0
  6
Continuous
 62
     7
370
    15
100
AcDbSpline
210
0.0
220
0.0
230
1.0
 70
     8
 71
     3
 72
    14
 73
    10
 74
     0
 42
0.000000001
 43
0.00000001
 40
0.0
 40
0.0
 40
0.0
 40
0.0
 40
0.1250000000000006
 40
0.1250000000000006
 40
0.2500000000000012
 40
0.2500000000000012
 40
0.4999999999999997
 40
0.4999999999999997
 40
1.0
 40
1.0
 40
1.0
 40
1.0
 10
230.8468832110668
 20
71.88196110628135
 30
0.0
 10
230.8660785869923
 20
71.87967429830752
 30
0.0
 10
230.8836906603927
 20
71.8681760590347
 30
0.0
 10
230.9095355903119
 20
71.83148455650819
 30
0.0
 10
230.9176739545596
 20
71.80840314140612
 30
0.0
 10
230.9346240455276
 20
71.73707062232903
 30
0.0
 10
230.9367933180374
 20
71.68582651672095
 30
0.0
 10
230.9356177702228
 20
71.53579103695937
 30
0.0
 10
230.9235442496186
 20
71.4355793620763
 30
0.0
 10
230.9087660215786
 20
71.33667554198767
 30
0.0
  0
SPLINE
  5
267
330
1F
100
AcDbEntity
  8
0
  6
Continuous
 62
     7
370
    15
100
AcDbSpline
210
0.0
220
0.0
230
1.0
 70
     8
 71
     3
 72
     8
 73
     4
 74
     0
 42
0.000000001
 43
0.00000001
 40
0.0
 40
0.0
 40
0.0
 40
0.0
 40
1.0
 40
1.0
 40
1.0
 40
1.0
 10
229.9352916211791
 20
71.93417391741744
 30
0.0
 10
230.2369440944167
 20
71.94152016456054
 30
0.0
 10
230.5422236379401
 20
71.9182561985906
 30
0.0
 10
230.8468832110668
 20
71.88196110628135
 30
0.0
  0
SPLINE
  5
268
330
1F
100
AcDbEntity
  8
0
  6
Continuous
 62
     7
370
    15
100
AcDbSpline
210
0.0
220
0.0
230
1.0
 70
     8
 71
     3
 72
    14
 73
    10
 74
     0
 42
0.000000001
 43
0.00000001
 40
0.0
 40
0.0
 40
0.0
 40
0.0
 40
0.5
 40
0.5
 40
0.75
 40
0.75
 40
0.875
 40
0.875
 40
1.0
 40
1.0
 40
1.0
 40
1.0
 10
228.0066232539236
 20
72.56681326240243
 30
0.0
 10
228.3217891977635
 20
72.4294287686763
 30
0.0
 10
228.6380648530294
 20
72.29785526104516
 30
0.0
 10
229.1168893416005
 20
72.12295979452439
 30
0.0
 10
229.2772093520245
 20
72.06828864425987
 30
0.0
 10
229.5202618879782
 20
71.9992568285398
 30
0.0
 10
229.6017053259948
 20
71.97839454403102
 30
0.0
 10
229.7663667750282
 20
71.94558683060139
 30
0.0
 10
229.8492727930944
 20
71.93207907110875
 30
0.0
 10
229.9352916211791
 20
71.93417391741743
 30
0.0
  0
SPLINE
  5
269
330
1F
100
AcDbEntity
  8
0
  6
Continuous
 62
     7
370
    15
100
AcDbSpline
210
0.0
220
0.0
230
1.0
 70
     8
 71
     3
 72
     8
 73
     4
 74
     0
 42
0.000000001
 43
0.00000001
 40
0.0000005163856998
 40
0.0000005163856998
 40
0.0000005163856998
 40
0.0000005163856998
 40
0.000026289209185
 40
0.000026289209185
 40
0.000026289209185
 40
0.000026289209185
 10
228.0066016669043
 20
72.57969237359362
 30
0.0
 10
228.006599365745
 20
72.57539953856708
 30
0.0
 10
228.0066066120693
 20
72.57110647089156
 30
0.0
 10
228.0066232539236
 20
72.56681326240243
 30
0.0
  0
LINE
  5
26A
330
1F
100
AcDbEntity
  8
0
  6
Continuous
 62
     7
370
    15
100
AcDbLine
 10
240.8133761668
 20
83.1029102639
 30
0.0
 11
240.8707770631
 21
83.0749089646
 31
0.0
  0
SPLINE
  5
26B
330
1F
100
AcDbEntity
  8
0
  6
Continuous
 62
     7
370
    15
100
AcDbSpline
210
0.0
220
0.0
230
1.0
 70
     8
 71
     3
 72
     8
 73
     4
 74
     0
 42
0.000000001
 43
0.00000001
 40
0.0000005163857002
 40
0.0000005163857002
 40
0.0000005163857002
 40
0.0000005163857002
 40
0.0000262892091854
 40
0.0000262892091854
 40
0.0000262892091854
 40
0.0000262892091854
 10
228.0066016669043
 20
65.10622132173387
 30
0.0
 10
228.006599365745
 20
65.10779470743157
 30
0.0
 10
228.0066066120693
 20
65.10936243736374
 30
0.0
 10
228.0066232539236
 20
65.11092459409952
 30
0.0
  0
SPLINE
  5
26C
330
1F
100
AcDbEntity
  8
0
  6
Continuous
 62
     7
370
    15
100
AcDbSpline
210
0.0
220
0.0
230
1.0
 70
     8
 71
     3
 72
    18
 73
    14
 74
     0
 42
0.000000001
 43
0.00000001
 40
0.0
 40
0.0
 40
0.0
 40
0.0
 40
0.1239922115124782
 40
0.2486615632457745
 40
0.3733081619993674
 40
0.4972455424154159
 40
0.6201256145517727
 40
0.6819354920938854
 40
0.7429457160476292
 40
0.8038684733246046
 40
0.8660699658941392
 40
0.9893859145852069
 40
1.0
 40
1.0
 40
1.0
 40
1.0
 10
233.6954754546772
 20
63.23324190200662
 30
0.0
 10
233.5624279491626
 20
63.47817636914024
 30
0.0
 10
233.2956063455824
 20
63.9693829275787
 30
0.0
 10
233.1709086203855
 20
64.72140466262333
 30
0.0
 10
233.3067311885607
 20
65.3460935919959
 30
0.0
 10
233.6738053272711
 20
65.76296197225072
 30
0.0
 10
234.1164415973745
 20
65.85694738121703
 30
0.0
 10
234.4926713721225
 20
65.77500822549729
 30
0.0
 10
234.774880676192
 20
65.63272960995187
 30
0.0
 10
235.0473127086229
 20
65.41606251673299
 30
0.0
 10
235.373310893869
 20
65.03817466663253
 30
0.0
 10
235.6245140959429
 20
64.66464365357291
 30
0.0
 10
235.7140681494506
 20
64.37945298135338
 30
0.0
 10
235.721165395259
 20
64.3568513433067
 30
0.0
  0
SPLINE
  5
26D
330
1F
100
AcDbEntity
  8
0
  6
Continuous
 62
     7
370
    15
100
AcDbSpline
210
0.0
220
0.0
230
1.0
 70
     8
 71
     3
 72
    13
 73
     9
 74
     0
 42
0.000000001
 43
0.00000001
 40
0.0
 40
0.0
 40
0.0
 40
0.0
 40
0.038284504378762
 40
0.1999037635893677
 40
0.3588589673839904
 40
0.5179326870424095
 40
0.6793027174455561
 40
1.0
 40
1.0
 40
1.0
 40
1.0
 10
235.3322625524367
 20
61.90373344978838
 30
0.0
 10
235.3163302852676
 20
61.9007419952266
 30
0.0
 10
235.2331394428814
 20
61.88512201959386
 30
0.0
 10
235.0343093487922
 20
61.97086886243472
 30
0.0
 10
234.7672243452273
 20
62.10675723634699
 30
0.0
 10
234.4841185998859
 20
62.31800128219034
 30
0.0
 10
234.1044823733485
 20
62.66593632847753
 30
0.0
 10
233.8588700638779
 20
63.00660839471707
 30
0.0
 10
233.6954754546772
 20
63.23324190200662
 30
0.0
  0
ARC
  5
26E
330
1F
100
AcDbEntity
  8
0
  6
Continuous
 62
     7
370
    15
100
AcDbCircle
 10
248.4652989768
 20
56.2822721033
 30
0.0
 40
6.563602728730284
100
AcDbArc
 50
198.0227526841
 51
217.4462785396
  0
SPLINE
  5
26F
330
1F
100
AcDbEntity
  8
0
  6
Continuous
 62
     7
370
    15
100
AcDbSpline
210
0.0
220
0.0
230
1.0
 70
     8
 71
     3
 72
     8
 73
     4
 74
     0
 42
0.000000001
 43
0.00000001
 40
0.0
 40
0.0
 40
0.0
 40
0.0
 40
1.0
 40
1.0
 40
1.0
 40
1.0
 10
240.7490718474658
 20
54.00514728321292
 30
0.0
 10
241.2408666462177
 20
54.08679757029466
 30
0.0
 10
241.7324467371204
 20
54.1688813577851
 30
0.0
 10
242.2237477661729
 20
54.251528577989
 30
0.0
  0
LINE
  5
270
330
1F
100
AcDbEntity
  8
0
  6
Continuous
 62
     7
370
    15
100
AcDbLine
 10
242.2237477662
 20
54.251528578
 30
0.0
 11
242.4689163705
 21
54.3930614007
 31
0.0
  0
SPLINE
  5
271
330
1F
100
AcDbEntity
  8
0
  6
Continuous
 62
     7
370
    15
100
AcDbSpline
210
0.0
220
0.0
230
1.0
 70
     8
 71
     3
 72
    10
 73
     6
 74
     0
 42
0.000000001
 43
0.00000001
 40
0.0
 40
0.0
 40
0.0
 40
0.0
 40
0.5
 40
0.5
 40
1.0
 40
1.0
 40
1.0
 40
1.0
 10
242.4689163705391
 20
54.39306140067877
 30
0.0
 10
242.4937486738911
 20
54.40739678426661
 30
0.0
 10
242.5214236713845
 20
54.41999222440271
 30
0.0
 10
242.581548680839
 20
54.44119012254297
 30
0.0
 10
242.6132430810337
 20
54.44955228820964
 30
0.0
 10
242.6464250736154
 20
54.45566374328087
 30
0.0
  0
SPLINE
  5
272
330
1F
100
AcDbEntity
  8
0
  6
Continuous
 62
     7
370
    15
100
AcDbSpline
210
0.0
220
0.0
230
1.0
 70
     8
 71
     3
 72
    16
 73
    12
 74
     0
 42
0.000000001
 43
0.00000001
 40
0.0
 40
0.0
 40
0.0
 40
0.0
 40
0.093156305641458
 40
0.2183341041715577
 40
0.3471703141563867
 40
0.4719831431775064
 40
0.6003221912985426
 40
0.7268452596974757
 40
0.8569621219041793
 40
0.9847114578519233
 40
1.0
 40
1.0
 40
1.0
 40
1.0
 10
234.7046143204975
 20
65.58529061011758
 30
0.0
 10
234.6943451857832
 20
65.52775571681448
 30
0.0
 10
234.6702770101184
 20
65.39290892033151
 30
0.0
 10
234.6835012825791
 20
65.1538996361428
 30
0.0
 10
234.7353184232493
 20
64.88438229557323
 30
0.0
 10
234.8301991853997
 20
64.60723758931181
 30
0.0
 10
234.9610993731853
 20
64.33453332313037
 30
0.0
 10
235.126067323188
 20
64.0662966806012
 30
0.0
 10
235.318173625665
 20
63.81669229513744
 30
0.0
 10
235.46597381755
 20
63.64662611533458
 30
0.0
 10
235.548692273463
 20
63.57165781939224
 30
0.0
 10
235.5575336000856
 20
63.56364486528845
 30
0.0
  0
LINE
  5
273
330
1F
100
AcDbEntity
  8
0
  6
Continuous
 62
     7
370
    15
100
AcDbLine
 10
262.3726620013
 20
75.5313785149
 30
0.0
 11
262.4676703166
 21
75.5524270362
 31
0.0
  0
LINE
  5
274
330
1F
100
AcDbEntity
  8
0
  6
Continuous
 62
     7
370
    15
100
AcDbLine
 10
262.4676703166
 20
75.5524270362
 30
0.0
 11
263.8670583842
 21
74.7445775004
 31
0.0
  0
SPLINE
  5
275
330
1F
100
AcDbEntity
  8
0
  6
Continuous
 62
     7
370
    15
100
AcDbSpline
210
0.0
220
0.0
230
1.0
 70
     8
 71
     3
 72
    12
 73
     8
 74
     0
 42
0.000000001
 43
0.00000001
 40
0.0
 40
0.0
 40
0.0
 40
0.0
 40
0.250000000000002
 40
0.250000000000002
 40
0.500000000000004
 40
0.500000000000004
 40
1.0
 40
1.0
 40
1.0
 40
1.0
 10
263.8670583842309
 20
74.74457750035718
 30
0.0
 10
263.8993023551035
 20
74.72596345218356
 30
0.0
 10
263.9213553576371
 20
74.70171312938616
 30
0.0
 10
263.9422043018022
 20
74.65112527149861
 30
0.0
 10
263.9418231325748
 20
74.62428670306456
 30
0.0
 10
263.9160701996776
 20
74.54705258679573
 30
0.0
 10
263.8681187725689
 20
74.50026721596791
 30
0.0
 10
263.8042187234336
 20
74.46337850280044
 30
0.0
  0
SPLINE
  5
276
330
1F
100
AcDbEntity
  8
0
  6
Continuous
 62
     7
370
    15
100
AcDbSpline
210
0.0
220
0.0
230
1.0
 70
     8
 71
     3
 72
    12
 73
     8
 74
     0
 42
0.000000001
 43
0.00000001
 40
0.0
 40
0.0
 40
0.0
 40
0.0
 40
0.1944276151072279
 40
0.3737626608255834
 40
0.6863657648066965
 40
0.9660617356420005
 40
1.0
 40
1.0
 40
1.0
 40
1.0
 10
233.9867439095868
 20
63.41616580472844
 30
0.0
 10
234.0662976340924
 20
63.30176685503228
 30
0.0
 10
234.2192296737793
 20
63.0818492481095
 30
0.0
 10
234.5440913649671
 20
62.72789772476857
 30
0.0
 10
234.9285890399311
 20
62.4244674577695
 30
0.0
 10
235.2209870201399
 20
62.25898647836136
 30
0.0
 10
235.3436494797395
 20
62.24239790036942
 30
0.0
 10
235.3569227468563
 20
62.24060285543477
 30
0.0
  0
SPLINE
  5
277
330
1F
100
AcDbEntity
  8
0
  6
Continuous
 62
     7
370
    15
100
AcDbSpline
210
0.0
220
0.0
230
1.0
 70
     8
 71
     3
 72
    16
 73
    12
 74
     0
 42
0.000000001
 43
0.00000001
 40
0.0
 40
0.0
 40
0.0
 40
0.0
 40
0.1460149097440288
 40
0.2335496506116393
 40
0.328285161093515
 40
0.4359413419875039
 40
0.5278786884716087
 40
0.6640997790107459
 40
0.8013217489075855
 40
0.8930409125757831
 40
1.0
 40
1.0
 40
1.0
 40
1.0
 10
234.926342967034
 20
65.4981449270167
 30
0.0
 10
234.7794817972771
 20
65.57161517386156
 30
0.0
 10
234.5445785607153
 20
65.68913023113244
 30
0.0
 10
234.2277271962091
 20
65.67915841813777
 30
0.0
 10
233.974599008786
 20
65.59142139378531
 30
0.0
 10
233.7658771031432
 20
65.40962807808341
 30
0.0
 10
233.6028472780227
 20
65.11776164580836
 30
0.0
 10
233.5258212132119
 20
64.70787736782515
 30
0.0
 10
233.601222291766
 20
64.24330765283156
 30
0.0
 10
233.7599659326048
 20
63.80136292324094
 30
0.0
 10
233.9073819913617
 20
63.55096717577327
 30
0.0
 10
233.9867439095868
 20
63.41616580472844
 30
0.0
  0
SPLINE
  5
278
330
1F
100
AcDbEntity
  8
0
  6
Continuous
 62
     7
370
    15
100
AcDbSpline
210
0.0
220
0.0
230
1.0
 70
     8
 71
     3
 72
    10
 73
     6
 74
     0
 42
0.000000001
 43
0.00000001
 40
0.0
 40
0.0
 40
0.0
 40
0.0
 40
0.3338925824292236
 40
0.7038858844675137
 40
1.0
 40
1.0
 40
1.0
 40
1.0
 10
265.9840479325948
 20
70.88376280927125
 30
0.0
 10
266.0048105208627
 20
70.89819145753404
 30
0.0
 10
266.0485805642116
 20
70.92860879046859
 30
0.0
 10
266.0805593628651
 20
70.983918812506
 30
0.0
 10
266.0740175476174
 20
71.02126087501759
 30
0.0
 10
266.0711094223137
 20
71.03786106820128
 30
0.0
  0
SPLINE
  5
279
330
1F
100
AcDbEntity
  8
0
  6
Continuous
 62
     7
370
    15
100
AcDbSpline
210
0.0
220
0.0
230
1.0
 70
     8
 71
     3
 72
     9
 73
     5
 74
     0
 42
0.000000001
 43
0.00000001
 40
0.0
 40
0.0
 40
0.0
 40
0.0
 40
0.935201517307945
 40
0.9999999999999999
 40
0.9999999999999999
 40
0.9999999999999999
 40
0.9999999999999999
 10
260.0692116101328
 20
76.93702777542777
 30
0.0
 10
260.0174680283392
 20
76.85843688550752
 30
0.0
 10
259.9621392239736
 20
76.77440056984105
 30
0.0
 10
259.9053122435571
 20
76.69069958337799
 30
0.0
 10
259.9016299414503
 20
76.68527588645534
 30
0.0
  0
LINE
  5
27A
330
1F
100
AcDbEntity
  8
0
  6
Continuous
 62
     7
370
    15
100
AcDbLine
 10
229.7985899923
 20
67.3134938615
 30
0.0
 11
230.3467619345
 21
66.9970409351
 31
0.0
  0
SPLINE
  5
27B
330
1F
100
AcDbEntity
  8
0
  6
Continuous
 62
     7
370
    15
100
AcDbSpline
210
0.0
220
0.0
230
1.0
 70
     8
 71
     3
 72
    10
 73
     6
 74
     0
 42
0.000000001
 43
0.00000001
 40
0.0
 40
0.0
 40
0.0
 40
0.0
 40
0.0840381716605291
 40
0.7011125076932428
 40
1.0
 40
1.0
 40
1.0
 40
1.0
 10
228.0082887803945
 20
73.03948474188515
 30
0.0
 10
228.0077474655812
 20
73.04593071534899
 30
0.0
 10
228.0032313917696
 20
73.09970809449057
 30
0.0
 10
228.0175701182283
 20
73.18250809673161
 30
0.0
 10
228.0381189214438
 20
73.2641366811201
 30
0.0
 10
228.0448242011541
 20
73.29077290343155
 30
0.0
  0
SPLINE
  5
27C
330
1F
100
AcDbEntity
  8
0
  6
Continuous
 62
     7
370
    15
100
AcDbSpline
210
0.0
220
0.0
230
1.0
 70
     8
 71
     3
 72
    10
 73
     6
 74
     0
 42
0.000000001
 43
0.00000001
 40
0.0
 40
0.0
 40
0.0
 40
0.0
 40
0.5
 40
0.5
 40
1.0
 40
1.0
 40
1.0
 40
1.0
 10
228.0610606041224
 20
73.09563455271528
 30
0.0
 10
228.0411345536257
 20
73.01167407869727
 30
0.0
 10
228.0278402894847
 20
72.9262282161835
 30
0.0
 10
228.010571763344
 20
72.75381474524622
 30
0.0
 10
228.006648308722
 20
72.66670313897991
 30
0.0
 10
228.0066016669043
 20
72.57969237359362
 30
0.0
  0
SPLINE
  5
27D
330
1F
100
AcDbEntity
  8
0
  6
Continuous
 62
     7
370
    15
100
AcDbSpline
210
0.0
220
0.0
230
1.0
 70
     8
 71
     3
 72
    24
 73
    20
 74
     0
 42
0.000000001
 43
0.00000001
 40
0.0
 40
0.0
 40
0.0
 40
0.0
 40
0.24999999999998
 40
0.24999999999998
 40
0.3749999999999705
 40
0.3749999999999705
 40
0.4374999999999656
 40
0.4374999999999656
 40
0.4687499999999649
 40
0.4687499999999649
 40
0.4999999999999643
 40
0.4999999999999643
 40
0.5624999999999676
 40
0.5624999999999676
 40
0.6249999999999709
 40
0.6249999999999709
 40
0.7499999999999798
 40
0.7499999999999798
 40
1.0
 40
1.0
 40
1.0
 40
1.0
 10
228.0448242011541
 20
73.29077290343153
 30
0.0
 10
228.0746652304392
 20
73.39805195998778
 30
0.0
 10
228.1044947704802
 20
73.50393653335844
 30
0.0
 10
228.1491659273516
 20
73.6538845766087
 30
0.0
 10
228.1641187194433
 20
73.70288483937165
 30
0.0
 10
228.1857018577327
 20
73.76603512127438
 30
0.0
 10
228.1928315692624
 20
73.7856753055029
 30
0.0
 10
228.2016831945638
 20
73.80338523499091
 30
0.0
 10
228.2043212918336
 20
73.80710160147659
 30
0.0
 10
228.2074738298786
 20
73.8049532530944
 30
0.0
 10
228.2078537910154
 20
73.79879084402783
 30
0.0
 10
228.2058438657546
 20
73.7701457606751
 30
0.0
 10
228.2012672241562
 20
73.7418447556869
 30
0.0
 10
228.1913358380498
 20
73.68546574553763
 30
0.0
 10
228.1856456523148
 20
73.65599599758157
 30
0.0
 10
228.1680640516962
 20
73.56814157701524
 30
0.0
 10
228.1553831787679
 20
73.50891658396591
 30
0.0
 10
228.1161421151476
 20
73.33042327683611
 30
0.0
 10
228.0888386551111
 20
73.2126802426624
 30
0.0
 10
228.0610606041224
 20
73.09563455271531
 30
0.0
  0
ARC
  5
27E
330
1F
100
AcDbEntity
  8
0
  6
Continuous
 62
     7
370
    15
100
AcDbCircle
 10
228.7237386411
 20
72.5010251188
 30
0.0
 40
0.7201267655271043
100
AcDbArc
 50
174.7583590299
 51
234.4349468916
  0
ARC
  5
27F
330
1F
100
AcDbEntity
  8
0
  6
Continuous
 62
     7
370
    15
100
AcDbCircle
 10
230.2190725862
 20
65.0011287415
 30
0.0
 40
2.215172042338778
100
AcDbArc
 50
122.6235698332
 51
177.1589486026
  0
LINE
  5
280
330
1F
100
AcDbEntity
  8
0
  6
Continuous
 62
     7
370
    15
100
AcDbLine
 10
229.0248350156
 20
66.8668146213
 30
0.0
 11
229.7985899923
 21
67.3134938615
 31
0.0
  0
SPLINE
  5
281
330
1F
100
AcDbEntity
  8
0
  6
Continuous
 62
     7
370
    15
100
AcDbSpline
210
0.0
220
0.0
230
1.0
 70
     8
 71
     3
 72
    10
 73
     6
 74
     0
 42
0.000000001
 43
0.00000001
 40
0.0
 40
0.0
 40
0.0
 40
0.0
 40
0.5
 40
0.5
 40
1.0
 40
1.0
 40
1.0
 40
1.0
 10
228.0610606041224
 20
64.91097893701132
 30
0.0
 10
228.0411345536257
 20
64.949500498528
 30
0.0
 10
228.0278402894847
 20
64.9814638257218
 30
0.0
 10
228.010571763344
 20
65.04390724922024
 30
0.0
 10
228.006648308722
 20
65.0743306264333
 30
0.0
 10
228.0066016669043
 20
65.10622132173386
 30
0.0
  0
LINE
  5
282
330
1F
100
AcDbEntity
  8
0
  6
Continuous
 62
     7
370
    15
100
AcDbLine
 10
228.0169682328
 20
65.7080914982
 30
0.0
 11
228.0082887804
 21
65.567985569
 31
0.0
  0
ARC
  5
283
330
1F
100
AcDbEntity
  8
0
  6
Continuous
 62
     7
370
    15
100
AcDbCircle
 10
229.3536938315
 20
65.4957863563
 30
0.0
 40
1.353480254557736
100
AcDbArc
 50
122.9135798094
 51
170.9753897871
  0
LINE
  5
284
330
1F
100
AcDbEntity
  8
0
  6
Continuous
 62
     7
370
    15
100
AcDbLine
 10
229.0248350156
 20
66.8668146213
 30
0.0
 11
228.6182486164
 21
66.6320209866
 31
0.0
  0
LINE
  5
285
330
1F
100
AcDbEntity
  8
0
  6
Continuous
 62
     7
370
    15
100
AcDbLine
 10
228.116220191
 20
64.8152548103
 30
0.0
 11
228.0610606041
 21
64.910978937
 31
0.0
  0
LWPOLYLINE
  5
286
330
1F
100
AcDbEntity
  8
0
  6
Continuous
 62
     7
370
    15
100
AcDbPolyline
 90
       30
 70
   128
 43
0.0
 10
274.523620851
 20
59.4866849107
 10
274.1510637968
 20
59.754247232
 10
273.8868517962
 20
60.0617883485
 10
273.7433391087
 20
60.3949279794
 10
273.727236228
 20
60.7380888856
 10
273.8392961069
 20
61.0752252448
 10
274.0742789501
 20
61.3905729354
 10
274.421197221
 20
61.6693866499
 10
274.8638294067
 20
61.8986293689
 10
275.3814785183
 20
62.0675819576
 10
275.9499398586
 20
62.1683443807
 10
276.5426328071
 20
62.1962050995
 10
277.1318437004
 20
62.1498613775
 10
277.6900216918
 20
62.0314801957
 10
278.1910669988
 20
61.8465969267
 10
278.6115512999
 20
61.6038565066
 10
278.9318132164
 20
61.3146092076
 10
279.136877657
 20
60.992379912
 10
279.2171560364
 20
60.6522357035
 10
279.1688946268
 20
60.3100813473
 10
278.9943500781
 20
59.9819156008
 10
278.7016838994
 20
59.6830831295
 10
278.304580836
 20
59.4275570077
 10
277.8216089856
 20
59.2272853528
 10
277.2753515753
 20
59.0916326449
 10
276.6913509945
 20
59.0269418537
 10
276.0969144612
 20
59.0362378489
 10
275.5198371671
 20
59.1190859599
 10
274.987102605
 20
59.2716123013
 10
274.523620851
 20
59.4866849107
  0
ARC
  5
287
330
1F
100
AcDbEntity
  8
0
  6
Continuous
 62
     7
370
    15
100
AcDbCircle
 10
274.8488373379
 20
60.4525445493
 30
0.0
 40
1.367515196860976
100
AcDbArc
 50
172.846486588
 51
248.464097448
  0
ARC
  5
288
330
1F
100
AcDbEntity
  8
0
  6
Continuous
 62
     7
370
    15
100
AcDbCircle
 10
278.0333697384
 20
60.3255520238
 30
0.0
 40
1.417741319035923
100
AcDbArc
 50
354.4072357547
 51
66.8900149869
  0
ARC
  5
289
330
1F
100
AcDbEntity
  8
0
  6
Continuous
 62
     7
370
    15
100
AcDbCircle
 10
276.4118749804
 20
63.1037595864
 30
0.0
 40
4.433545797464987
100
AcDbArc
 50
242.239667712
 51
272.9524715167
  0
LWPOLYLINE
  5
28A
330
1F
100
AcDbEntity
  8
0
  6
Continuous
 62
     7
370
    15
100
AcDbPolyline
 90
       24
 70
   128
 43
0.0
 10
275.2307276322
 20
59.8948889666
 10
274.9427586767
 20
60.1141105041
 10
274.7679220928
 20
60.3700539809
 10
274.7191847101
 20
60.6437372404
 10
274.8001611574
 20
60.9148624471
 10
275.0048457818
 20
61.1633214849
 10
275.3180580614
 20
61.3706872834
 10
275.716568474
 20
61.5215804701
 10
276.1708213255
 20
61.6048099875
 10
276.6471267599
 20
61.6142030832
 10
277.1101593822
 20
61.5490631142
 10
277.5255781809
 20
61.414221214
 10
277.8625734443
 20
61.2196779895
 10
278.0961517751
 20
60.9798618216
 10
278.2089897373
 20
60.7125587785
 10
278.1927186553
 20
60.4375935039
 10
278.0485452809
 20
60.1753589146
 10
277.7871622936
 20
59.9453037502
 10
277.427955274
 20
59.76449015
 10
276.9975649633
 20
59.6463282314
 10
276.5279114421
 20
59.5995815235
 10
276.0538267635
 20
59.6277170156
 10
275.6104716192
 20
59.7286480272
 10
275.2307276322
 20
59.8948889666
  0
SPLINE
  5
28B
330
1F
100
AcDbEntity
  8
0
  6
Continuous
 62
     7
370
    15
100
AcDbSpline
210
0.0
220
0.0
230
1.0
 70
     8
 71
     3
 72
     9
 73
     5
 74
     0
 42
0.000000001
 43
0.00000001
 40
0.0
 40
0.0
 40
0.0
 40
0.0
 40
0.6311775999676998
 40
1.0
 40
1.0
 40
1.0
 40
1.0
 10
275.4076728456835
 20
59.79732788433742
 30
0.0
 10
275.272705001531
 20
59.8902628155132
 30
0.0
 10
275.0588700299486
 20
60.03750335633808
 30
0.0
 10
274.8661948237786
 20
60.25542458441758
 30
0.0
 10
274.7951318918123
 20
60.33579881477586
 30
0.0
  0
SPLINE
  5
28C
330
1F
100
AcDbEntity
  8
0
  6
Continuous
 62
     7
370
    15
100
AcDbSpline
210
0.0
220
0.0
230
1.0
 70
     8
 71
     3
 72
    11
 73
     7
 74
     0
 42
0.000000001
 43
0.00000001
 40
0.0
 40
0.0
 40
0.0
 40
0.0
 40
0.216455377944345
 40
0.4403112895790569
 40
0.7519005688038767
 40
1.0
 40
1.0
 40
1.0
 40
1.0
 10
278.1411971067636
 20
60.85338081781576
 30
0.0
 10
278.1104889624912
 20
60.74285921685306
 30
0.0
 10
278.0480227732308
 20
60.51803732003356
 30
0.0
 10
277.9321022096475
 20
60.19307465678666
 30
0.0
 10
277.8077566114899
 20
59.97052516445421
 30
0.0
 10
277.7281828955699
 20
59.91304120485448
 30
0.0
 10
277.6929093706796
 20
59.88755965160166
 30
0.0
  0
SPLINE
  5
28D
330
1F
100
AcDbEntity
  8
0
  6
Continuous
 62
     7
370
    15
100
AcDbSpline
210
0.0
220
0.0
230
1.0
 70
     8
 71
     3
 72
    11
 73
     7
 74
     0
 42
0.000000001
 43
0.00000001
 40
0.0
 40
0.0
 40
0.0
 40
0.0
 40
0.1843643438496109
 40
0.5174526391740203
 40
0.8663352079125943
 40
1.0
 40
1.0
 40
1.0
 40
1.0
 10
276.916452235372
 20
61.56041098250991
 30
0.0
 10
276.9875224975251
 20
61.48127706994677
 30
0.0
 10
277.1869943365481
 20
61.25917310423977
 30
0.0
 10
277.5586281465621
 20
60.9650506464903
 30
0.0
 10
277.9046593190844
 20
60.86072485570987
 30
0.0
 10
278.0898888453775
 20
60.85497383946189
 30
0.0
 10
278.1411971067636
 20
60.85338081781576
 30
0.0
  0
SPLINE
  5
28E
330
1F
100
AcDbEntity
  8
0
  6
Continuous
 62
     7
370
    15
100
AcDbSpline
210
0.0
220
0.0
230
1.0
 70
     8
 71
     3
 72
    11
 73
     7
 74
     0
 42
0.000000001
 43
0.00000001
 40
0.0
 40
0.0
 40
0.0
 40
0.0
 40
0.2164553779443451
 40
0.4403112895790583
 40
0.7519005688038776
 40
1.0
 40
1.0
 40
1.0
 40
1.0
 10
275.2434196278963
 20
61.30161998098996
 30
0.0
 10
275.3580239825267
 20
61.27498550005622
 30
0.0
 10
275.591150974602
 20
61.2208059145981
 30
0.0
 10
276.0237724075369
 20
61.21250980550403
 30
0.0
 10
276.4878364975584
 20
61.3296419958294
 30
0.0
 10
276.7848096483189
 20
61.48953391538867
 30
0.0
 10
276.916452235372
 20
61.56041098250991
 30
0.0
  0
SPLINE
  5
28F
330
1F
100
AcDbEntity
  8
0
  6
Continuous
 62
     7
370
    15
100
AcDbSpline
210
0.0
220
0.0
230
1.0
 70
     8
 71
     3
 72
    11
 73
     7
 74
     0
 42
0.000000001
 43
0.00000001
 40
0.0
 40
0.0
 40
0.0
 40
0.0
 40
0.216455377944345
 40
0.4403112895790565
 40
0.7519005688038782
 40
1.0
 40
1.0
 40
1.0
 40
1.0
 10
274.7951318918123
 20
60.33579881477586
 30
0.0
 10
274.8258400360846
 20
60.35759658517237
 30
0.0
 10
274.8883062253451
 20
60.40193738411389
 30
0.0
 10
275.0042267889284
 20
60.57646879530332
 30
0.0
 10
275.1285723870859
 20
60.88971629654996
 30
0.0
 10
275.2081461030059
 20
61.17511023845701
 30
0.0
 10
275.2434196278963
 20
61.30161998098996
 30
0.0
  0
LINE
  5
290
330
1F
100
AcDbEntity
  8
0
  6
Continuous
 62
     7
370
    15
100
AcDbLine
 10
275.2434196279
 20
59.9244980772
 30
0.0
 11
275.2434196279
 21
61.301619981
 31
0.0
  0
LINE
  5
291
330
1F
100
AcDbEntity
  8
0
  6
Continuous
 62
     7
370
    15
100
AcDbLine
 10
276.9164522354
 20
59.6327014705
 30
0.0
 11
276.9164522354
 21
61.5604109825
 31
0.0
  0
LINE
  5
292
330
1F
100
AcDbEntity
  8
0
  6
Continuous
 62
     7
370
     0
100
AcDbLine
 10
272.0310694473
 20
40.8809604367
 30
0.0
 11
272.0365803243
 21
41.2593462126
 31
0.0
  0
LWPOLYLINE
  5
293
330
1F
100
AcDbEntity
  8
0
  6
Continuous
 62
     7
370
     0
100
AcDbPolyline
 90
       22
 70
   128
 43
0.0
 10
282.2007889512
 20
57.7950578832
 10
282.9759270491
 20
58.1508033718
 10
283.8712426868
 20
58.4683945416
 10
284.7461015906
 20
58.6768022711
 10
285.5925809025
 20
58.7741391875
 10
286.403014775
 20
58.7595237927
 10
287.1700637933
 20
58.633088446
 10
287.8867814427
 20
58.3959781654
 10
288.5466770173
 20
58.0503402583
 10
289.1437744006
 20
57.5993048753
 10
289.6726661861
 20
57.0469566624
 10
290.128562648
 20
56.3982977708
 10
290.5073351172
 20
55.6592025557
 10
290.8055533718
 20
54.8363643779
 10
291.0205167009
 20
53.9372349874
 10
291.1502783634
 20
52.9699570391
 10
291.1936632175
 20
51.9432903519
 10
291.1502783634
 20
50.8665325783
 10
291.0205167009
 20
49.7494350035
 10
290.8055533718
 20
48.602114236
 10
290.5073351172
 20
47.4349605905
 10
290.2618382986
 20
46.645845957
  0
LWPOLYLINE
  5
294
330
1F
100
AcDbEntity
  8
0
  6
Continuous
 62
     7
370
     0
100
AcDbPolyline
 90
       22
 70
   128
 43
0.0
 10
285.0482457892
 20
38.0673606676
 10
284.7461015906
 20
37.7655822324
 10
283.8712426868
 20
36.963899372
 10
282.9759270491
 20
36.2477811095
 10
282.0682627943
 20
35.6237127229
 10
281.1564698706
 20
35.0973458721
 10
280.2488056158
 20
34.6734474167
 10
279.353489978
 20
34.3558562469
 10
278.4786310743
 20
34.1474485175
 10
277.6321517623
 20
34.050111601
 10
276.8217178899
 20
34.0647269958
 10
276.0546688716
 20
34.1911623426
 10
275.3379512221
 20
34.4282726232
 10
274.6780556475
 20
34.7739105302
 10
274.0809582643
 20
35.2249459133
 10
273.5520664787
 20
35.7772941261
 10
273.0961700169
 20
36.4259530177
 10
272.7173975476
 20
37.1650482328
 10
272.4191792931
 20
37.9878864106
 10
272.204215964
 20
38.8870158012
 10
272.0744543015
 20
39.8542937495
 10
272.0310694473
 20
40.8809604367
  0
LWPOLYLINE
  5
295
330
1F
100
AcDbEntity
  8
0
  6
Continuous
 62
     7
370
     0
100
AcDbPolyline
 90
       21
 70
   128
 43
0.0
 10
271.7482267349
 20
40.8809604367
 10
271.7909485336
 20
41.9569770521
 10
271.9187384892
 20
43.0728631338
 10
272.1304735788
 20
44.2188122346
 10
272.4242930669
 20
45.3847537128
 10
272.7976148572
 20
46.5604412326
 10
273.2471581845
 20
47.7355428099
 10
273.7689724459
 20
48.8997316097
 10
274.3584719187
 20
50.042776699
 10
275.0104760605
 20
51.1546329565
 10
275.7192550355
 20
52.2255293495
 10
276.4785800685
 20
53.2460548018
 10
277.2817781837
 20
54.2072408991
 10
278.1217908474
 20
55.1006407035
 10
278.991235998
 20
55.9184029853
 10
279.8824729202
 20
56.6533412203
 10
280.787669392
 20
57.2989967447
 10
281.6988705142
 20
57.8496955146
 10
282.6080686185
 20
58.3005979694
 10
283.5072736394
 20
58.6477415622
 10
283.6277452239
 20
58.6865665342
  0
ARC
  5
296
330
1F
100
AcDbEntity
  8
0
  6
Continuous
 62
     7
370
     0
100
AcDbCircle
 10
282.4449894484
 20
40.795055261
 30
0.0
 40
10.69710765806905
100
AcDbArc
 50
179.5398703027
 51
192.1501373029
  0
LWPOLYLINE
  5
297
330
1F
100
AcDbEntity
  8
0
  6
Continuous
 62
     7
370
     0
100
AcDbPolyline
 90
       27
 70
   128
 43
0.0
 10
251.7258780351
 20
52.4396163081
 10
251.7685998339
 20
53.5156329236
 10
251.8963897894
 20
54.6315190052
 10
252.108124879
 20
55.7774681061
 10
252.4019443671
 20
56.9434095842
 10
252.7752661575
 20
58.119097104
 10
253.2248094848
 20
59.2941986813
 10
253.7466237461
 20
60.4583874811
 10
254.336123219
 20
61.6014325705
 10
254.9881273608
 20
62.713288828
 10
255.6969063358
 20
63.7841852209
 10
256.4562313687
 20
64.8047106732
 10
257.259429484
 20
65.7658967706
 10
258.0994421477
 20
66.659296575
 10
258.9688872982
 20
67.4770588568
 10
259.8601242205
 20
68.2119970917
 10
260.7653206923
 20
68.8576526161
 10
261.6765218144
 20
69.408351386
 10
262.5857199188
 20
69.8592538409
 10
263.4849249397
 20
70.2063974336
 10
264.3662346311
 20
70.4467314539
 10
265.2219040117
 20
70.5781438378
 10
266.0444134283
 20
70.5994797284
 10
266.8265346385
 20
70.5105516253
 10
267.561394333
 20
70.3121410317
 10
268.2425345384
 20
70.0059915872
 10
268.3230375633
 20
69.9605939346
  0
LWPOLYLINE
  5
298
330
1F
100
AcDbEntity
  8
0
  6
Continuous
 62
     7
370
     0
100
AcDbPolyline
 90
       10
 70
   128
 43
0.0
 10
254.5741549896
 20
46.1442502192
 10
254.336123219
 20
46.2915249861
 10
253.7466237461
 20
46.7539484715
 10
253.2248094848
 20
47.3156633492
 10
252.7752661575
 20
47.9717332487
 10
252.4019443671
 20
48.716392604
 10
252.108124879
 20
49.5430973221
 10
251.8963897894
 20
50.444582292
 10
251.7685998339
 20
51.4129252316
 10
251.7258780351
 20
52.4396163081
  0
LINE
  5
299
330
1F
100
AcDbEntity
  8
0
  6
Continuous
 62
     7
370
     0
100
AcDbLine
 10
274.3022639242
 20
61.859593852
 30
0.0
 11
274.3775309231
 21
61.6992319641
 31
0.0
  0
LINE
  5
29A
330
1F
100
AcDbEntity
  8
0
  6
Continuous
 62
     7
370
     0
100
AcDbLine
 10
275.0539509369
 20
37.9306212147
 30
0.0
 11
276.4681644993
 21
37.1142131029
 31
0.0
  0
LINE
  5
29B
330
1F
100
AcDbEntity
  8
0
  6
Continuous
 62
     7
370
     0
100
AcDbLine
 10
251.5715549241
 20
53.1410112277
 30
0.0
 11
251.5731684543
 21
52.9430624982
 31
0.0
  0
ARC
  5
29C
330
1F
100
AcDbEntity
  8
0
  6
Continuous
 62
     7
370
     0
100
AcDbCircle
 10
271.629468623
 20
52.1966798425
 30
0.0
 40
20.0801310682164
100
AcDbArc
 50
123.9397873038
 51
177.3044913656
  0
LWPOLYLINE
  5
29D
330
1F
100
AcDbEntity
  8
0
  6
Continuous
 62
     7
370
     0
100
AcDbPolyline
 90
       26
 70
   128
 43
0.0
 10
246.5929029942
 20
56.0151258096
 10
246.6358164199
 20
57.0643974224
 10
246.764156026
 20
58.1534190556
 10
246.9767235401
 20
59.2720228075
 10
247.2715342766
 20
60.4097645765
 10
247.6458356672
 20
61.556021574
 10
248.0961329606
 20
62.7000915075
 10
248.6182218522
 20
63.831292504
 10
249.2072277388
 20
64.9390628449
 10
249.8576512311
 20
66.0130595767
 10
250.5634195002
 20
67.0432550815
 10
251.317942978
 20
68.0200307013
 10
252.1141768819
 20
68.9342665455
 10
252.9446869907
 20
69.7774266401
 10
253.8017190551
 20
70.5416386267
 10
254.6772711977
 20
71.2197672638
 10
255.5631686241
 20
71.8054810469
 10
256.4511399486
 20
72.2933113245
 10
257.3328944223
 20
72.6787033565
 10
258.2001993413
 20
72.9580588414
 10
259.0449569131
 20
73.1287695123
 10
259.8592798639
 20
73.1892414897
 10
260.6355650798
 20
73.138910163
 10
261.3665645949
 20
72.9782454623
 10
262.0454532635
 20
72.7087474705
 10
262.1576937024
 20
72.6509558628
  0
LWPOLYLINE
  5
29E
330
1F
100
AcDbEntity
  8
0
  6
Continuous
 62
     7
370
     0
100
AcDbPolyline
 90
       10
 70
   128
 43
0.0
 10
249.2858193874
 20
50.0631433255
 10
249.2072277388
 20
50.1096238753
 10
248.6182218522
 20
50.5373424947
 10
248.0961329606
 20
51.0657524878
 10
247.6458356672
 20
51.6899202328
 10
247.2715342766
 20
52.4040180435
 10
246.9767235401
 20
53.2013785813
 10
246.764156026
 20
54.0745571055
 10
246.6358164199
 20
55.0154009835
 10
246.5929029942
 20
56.0151258096
  0
LWPOLYLINE
  5
29F
330
1F
100
AcDbEntity
  8
0
  6
Continuous
 62
     7
370
     0
100
AcDbPolyline
 90
       23
 70
   128
 43
0.0
 10
244.9806014571
 20
59.1670016535
 10
245.3075607162
 20
60.4217978602
 10
245.7158816758
 20
61.6854668914
 10
246.2022829149
 20
62.9478534268
 10
246.7628555298
 20
64.1988124526
 10
247.3930945479
 20
65.4282907909
 10
248.087935131
 20
66.6264078905
 10
248.8417932784
 20
67.7835352312
 10
249.6486107021
 20
68.8903737017
 10
250.5019035133
 20
69.9380283312
 10
251.3948143296
 20
70.9180797723
 10
252.3201673833
 20
71.8226519626
 10
253.2705261886
 20
72.6444754191
 10
254.2382533043
 20
73.376945659
 10
255.2155717106
 20
74.0141762755
 10
256.1946273088
 20
74.5510462433
 10
257.1675520391
 20
74.9832410731
 10
258.126527112
 20
75.3072874845
 10
259.0638458425
 20
75.5205813184
 10
259.9719755842
 20
75.6214084653
 10
260.8436182645
 20
75.6089586401
 10
261.6717690343
 20
75.4833318945
 10
262.4497725623
 20
75.2455378121
  0
LWPOLYLINE
  5
2A0
330
1F
100
AcDbEntity
  8
0
  6
Continuous
 62
     7
370
     0
100
AcDbPolyline
 90
       23
 70
   128
 43
0.0
 10
244.5469186216
 20
59.1615643151
 10
244.8728815929
 20
60.4332302696
 10
245.2811488599
 20
61.7145619788
 10
245.7684728104
 20
62.9953669313
 10
246.3309769656
 20
64.2654568057
 10
246.9641868167
 20
65.5147285153
 10
247.6630654178
 20
66.7332445737
 10
248.4220534527
 20
67.9113121445
 10
249.2351134571
 20
69.0395601435
 10
250.0957778448
 20
70.1090137826
 10
250.9972003547
 20
71.1111659607
 10
251.9322105099
 20
72.0380449344
 10
252.8933706566
 20
72.8822777304
 10
253.8730351276
 20
73.6371487946
 10
254.8634110608
 20
74.2966534117
 10
255.8566203885
 20
74.8555454709
 10
256.8447625044
 20
75.3093791961
 10
257.8199771098
 20
75.6545445109
 10
258.7745067396
 20
75.8882957552
 10
259.70075847
 20
76.0087735258
 10
260.5913643171
 20
76.0150194674
 10
261.4392398467
 20
75.9069838958
 10
262.2376405279
 20
75.6855261934
  0
LWPOLYLINE
  5
2A1
330
1F
100
AcDbEntity
  8
0
  6
Continuous
 62
     7
370
     0
100
AcDbPolyline
 90
       26
 70
   128
 43
0.0
 10
246.0979282473
 20
58.4485562102
 10
246.3359496729
 20
59.6201492324
 10
246.6596859212
 20
60.8097010528
 10
247.06608624
 20
62.0060018431
 10
247.5513208862
 20
63.1977781755
 10
248.1108172157
 20
64.3737992588
 10
248.7393027742
 20
65.5229827725
 10
249.4308549819
 20
66.6344993019
 10
250.1789569464
 20
67.6978743899
 10
250.9765588741
 20
68.7030872438
 10
251.816144505
 20
69.6406651669
 10
252.6898019428
 20
70.5017728252
 10
253.5892982128
 20
71.278295508
 10
254.5061568463
 20
71.962915597
 10
255.431737759
 20
72.5491815248
 10
256.3573186717
 20
73.0315685719
 10
257.2741773052
 20
73.4055309285
 10
258.1736735752
 20
73.6675445332
 10
259.0473310129
 20
73.8151402817
 10
259.8869166439
 20
73.8469272946
 10
260.6845185716
 20
73.7626060247
 10
261.432620536
 20
73.5629710796
 10
262.1241727438
 20
73.2499037338
 10
262.7526583022
 20
72.8263542004
 10
263.3121546318
 20
72.2963138291
 10
263.7513848903
 20
71.7337509009
  0
ARC
  5
2A2
330
1F
100
AcDbEntity
  8
0
  6
Continuous
 62
     7
370
     0
100
AcDbCircle
 10
259.4575960745
 20
69.3629575298
 30
0.0
 40
6.701300064527849
100
AcDbArc
 50
13.1170908933
 51
49.5620782406
  0
LWPOLYLINE
  5
2A3
330
1F
100
AcDbEntity
  8
0
  6
Continuous
 62
     7
370
     0
100
AcDbPolyline
 90
       10
 70
   128
 43
0.0
 10
250.752441366
 20
49.216480479
 10
250.1789569464
 20
49.2891551041
 10
249.4308549819
 20
49.4887900492
 10
248.7393027742
 20
49.801857395
 10
248.1108172157
 20
50.2254069284
 10
247.5513208862
 20
50.7554472997
 10
247.06608624
 20
51.3869836346
 10
246.6596859212
 20
52.1140646045
 10
246.3359496729
 20
52.9298385088
 10
246.0979282473
 20
53.8266178425
  0
LWPOLYLINE
  5
2A4
330
1F
100
AcDbEntity
  8
0
  6
Continuous
 62
     7
370
     0
100
AcDbPolyline
 90
       28
 70
   128
 43
0.0
 10
235.2261614866
 20
60.3318837008
 10
235.2697422823
 20
61.4936562659
 10
235.4001435905
 20
62.6966537011
 10
235.6163448443
 20
63.9314609204
 10
235.9166539756
 20
65.1884138832
 10
236.2987206584
 20
66.4576752282
 10
236.7595547028
 20
67.7293112646
 10
237.2955494576
 20
68.9933697161
 10
237.9025100371
 20
70.2399576115
 10
238.5756861519
 20
71.4593187104
 10
239.3098092861
 20
72.6419098589
 10
240.0991339308
 20
73.7784756778
 10
240.9374825505
 20
74.8601209986
 10
241.8182939305
 20
75.8783804801
 10
242.7346745276
 20
76.8252848612
 10
243.6794524211
 20
77.6934233314
 10
244.645233443
 20
78.4760015299
 10
245.6244590474
 20
79.1668947214
 10
246.6094654663
 20
79.7606957299
 10
247.5925436887
 20
80.2527572574
 10
248.5659997949
 20
80.6392282552
 10
249.5222151709
 20
80.9170840638
 10
250.4537061348
 20
81.0841500849
 10
251.353182507
 20
81.1391188001
 10
252.2136046653
 20
81.0815600049
 10
253.0282386396
 20
80.9119241749
 10
253.7907088147
 20
80.6315389403
 10
254.2374533098
 20
80.4013671639
  0
LWPOLYLINE
  5
2A5
330
1F
100
AcDbEntity
  8
0
  6
Continuous
 62
     7
370
     0
100
AcDbPolyline
 90
       10
 70
   128
 43
0.0
 10
238.4887332708
 20
53.120827999
 10
237.9025100371
 20
53.5138560531
 10
237.2955494576
 20
54.05966218
 10
236.7595547028
 20
54.7048742601
 10
236.2987206584
 20
55.4444426342
 10
235.9166539756
 20
56.2725791769
 10
235.6163448443
 20
57.182802597
 10
235.4001435905
 20
58.1679891621
 10
235.2697422823
 20
59.2204284515
 10
235.2261614866
 20
60.3318837008
  0
LINE
  5
2A6
330
1F
100
AcDbEntity
  8
0
  6
Continuous
 62
     7
370
     0
100
AcDbLine
 10
284.9534458735
 20
43.6454779975
 30
0.0
 11
286.3676594359
 21
42.8290698856
 31
0.0
  0
LWPOLYLINE
  5
2A7
330
1F
100
AcDbEntity
  8
0
  6
Continuous
 62
     7
370
     0
100
AcDbPolyline
 90
       17
 70
   128
 43
0.0
 10
242.8947345286
 20
61.0937837441
 10
243.1940645918
 20
62.2808799266
 10
243.5758422367
 20
63.4779613283
 10
244.0365834062
 20
64.6741035274
 10
244.5720834313
 20
65.8583906728
 10
245.1774554025
 20
67.0200151012
 10
245.8471747676
 20
68.1483759666
 10
246.5751297475
 20
69.2331759825
 10
247.3546771118
 20
70.2645153933
 10
248.1787028044
 20
71.2329823185
 10
249.039686865
 20
72.1297386445
 10
249.9297720558
 20
72.94660068
 10
250.8408355655
 20
73.6761138396
 10
251.7645631372
 20
74.3116206731
 10
252.6925249433
 20
74.847321621
 10
253.616252515
 20
75.2783279404
 10
254.0407976825
 20
75.4415245036
  0
LWPOLYLINE
  5
2A8
330
1F
100
AcDbEntity
  8
0
  6
Continuous
 62
     7
370
     0
100
AcDbPolyline
 90
       19
 70
   128
 43
0.0
 10
242.4689163705
 20
61.7419287077
 10
242.8193214102
 20
62.9808227747
 10
243.254531051
 20
64.2248973061
 10
243.7705012161
 20
65.4625920507
 10
244.362437382
 20
66.6824060399
 10
245.0248391301
 20
67.8730044575
 10
245.7515512578
 20
69.0233239657
 10
246.5358209746
 20
70.1226755084
 10
247.3703606506
 20
71.1608436366
 10
248.2474155345
 20
72.1281814327
 10
249.1588358136
 20
73.0157001525
 10
250.0961523428
 20
73.8151527504
 10
251.0506553431
 20
74.5191105131
 10
252.0134753341
 20
75.1210320895
 10
252.9756655521
 20
75.615324274
 10
253.9282850854
 20
75.99739398
 10
254.8624819554
 20
76.2636909205
 10
255.7695753715
 20
76.4117405979
 10
256.3601938384
 20
76.4440702748
  0
LINE
  5
2A9
330
1F
100
AcDbEntity
  8
0
  6
Continuous
 62
     7
370
     0
100
AcDbLine
 10
236.8757981261
 20
59.7943202082
 30
0.0
 11
238.6733070449
 21
60.8320000194
 31
0.0
  0
LWPOLYLINE
  5
2AA
330
1F
100
AcDbEntity
  8
0
  6
Continuous
 62
     7
370
     0
100
AcDbPolyline
 90
       13
 70
   128
 43
0.0
 10
252.8295167805
 20
47.7712006245
 10
252.2549370868
 20
47.6215465972
 10
251.3373417517
 20
47.4661805283
 10
250.4522361808
 20
47.4223806925
 10
249.606643845
 20
47.4904946491
 10
248.8072746707
 20
47.6699819019
 10
248.0604717952
 20
47.9594181874
 10
247.3721612327
 20
48.3565067768
 10
246.7478048506
 20
48.8580967013
 10
246.1923570284
 20
49.4602077552
 10
245.7102253439
 20
50.1580620796
 10
245.3052355981
 20
50.9461220757
 10
244.9806014571
 20
51.8181343465
  0
LWPOLYLINE
  5
2AB
330
1F
100
AcDbEntity
  8
0
  6
Continuous
 62
     7
370
     0
100
AcDbPolyline
 90
        3
 70
   128
 43
0.0
 10
245.2833352681
 20
50.1036956529
 10
244.8739802068
 20
50.9148295578
 10
244.5469186216
 20
51.8126970081
  0
LWPOLYLINE
  5
2AC
330
1F
100
AcDbEntity
  8
0
  6
Continuous
 62
     7
370
     0
100
AcDbPolyline
 90
       20
 70
   128
 43
0.0
 10
228.0066016669
 20
72.5796923736
 10
228.3872123891
 20
73.6731324086
 10
228.8451768606
 20
74.7602397441
 10
229.3754303469
 20
75.8289918097
 10
229.9721086526
 20
76.8675690303
 10
230.6286129749
 20
77.8644855413
 10
231.3376828815
 20
78.8087162135
 10
232.091476605
 20
79.6898185825
 10
232.8816577671
 20
80.4980483345
 10
233.6994875723
 20
81.2244670704
 10
234.5359214526
 20
81.8610411582
 10
235.3817090931
 20
82.4007305786
 10
236.2274967337
 20
82.8375667821
 10
237.063930614
 20
83.1667186963
 10
237.8817604192
 20
83.3845461547
 10
238.6719415813
 20
83.4886401531
 10
239.4257353047
 20
83.4778494921
 10
240.1348052113
 20
83.3522935081
 10
240.7913095337
 20
83.1133607536
 10
240.8133761668
 20
83.1029102639
  0
ARC
  5
2AD
330
1F
100
AcDbEntity
  8
0
  6
Continuous
 62
     7
370
     0
100
AcDbCircle
 10
231.8831599829
 20
66.8930477988
 30
0.0
 40
4.268542284736408
100
AcDbArc
 50
204.7464480705
 51
235.884283369
  0
LINE
  5
2AE
330
1F
100
AcDbEntity
  8
0
  6
Continuous
 62
     7
370
     0
100
AcDbLine
 10
236.8757981261
 20
58.9777793963
 30
0.0
 11
238.6733070449
 21
60.0154592075
 31
0.0
  0
LINE
  5
2AF
330
1F
100
AcDbEntity
  8
0
  6
Continuous
 62
     7
370
     0
100
AcDbLine
 10
240.1628565782
 20
54.3435621548
 30
0.0
 11
241.5017341696
 21
55.1164797363
 31
0.0
  0
LINE
  5
2B0
330
1F
100
AcDbEntity
  8
0
  6
Continuous
 62
     7
370
     0
100
AcDbLine
 10
243.8848214407
 20
53.8173314669
 30
0.0
 11
243.6796230557
 21
54.4266125531
 31
0.0
  0
LWPOLYLINE
  5
2B1
330
1F
100
AcDbEntity
  8
0
  6
Continuous
 62
     7
370
     0
100
AcDbPolyline
 90
        3
 70
   128
 43
0.0
 10
243.5188155439
 20
53.380190752
 10
243.1940645918
 20
54.0382220074
 10
242.8947345286
 20
54.8797190551
  0
ARC
  5
2B2
330
1F
100
AcDbEntity
  8
0
  6
Continuous
 62
     7
370
     0
100
AcDbCircle
 10
248.6230564296
 20
56.4768745939
 30
0.0
 40
6.497362333318675
100
AcDbArc
 50
198.7062788578
 51
214.0955078751
  0
LINE
  5
2B3
330
1F
100
AcDbEntity
  8
0
  6
Continuous
 62
     7
370
     0
100
AcDbLine
 10
259.2162828563
 20
77.4294130643
 30
0.0
 11
258.6752938784
 21
77.117106775
 31
0.0
  0
ARC
  5
2B4
330
1F
100
AcDbEntity
  8
0
  6
Continuous
 62
     7
370
     0
100
AcDbCircle
 10
231.769039396
 20
71.0836017622
 30
0.0
 40
1.102095792745961
100
AcDbArc
 50
159.4111972489
 51
213.1915491986
  0
ARC
  5
2B5
330
1F
100
AcDbEntity
  8
0
  6
Continuous
 62
     7
370
     0
100
AcDbCircle
 10
230.4372285871
 20
70.9121169394
 30
0.0
 40
0.6345057597332026
100
AcDbArc
 50
41.9989524423
 51
61.7721687695
  0
LINE
  5
2B6
330
1F
100
AcDbEntity
  8
0
  6
Continuous
 62
     7
370
     0
100
AcDbLine
 10
230.7373363594
 20
71.4711633455
 30
0.0
 11
230.8468832111
 21
71.8819611063
 31
0.0
  0
LINE
  5
2B7
330
1F
100
AcDbEntity
  8
0
  6
Continuous
 62
     7
370
     0
100
AcDbLine
 10
230.7373363594
 20
71.4711633455
 30
0.0
 11
229.9352916212
 21
71.9341739174
 31
0.0
  0
LINE
  5
2B8
330
1F
100
AcDbEntity
  8
0
  6
Continuous
 62
     7
370
     0
100
AcDbLine
 10
228.0610606041
 20
73.0956345527
 30
0.0
 11
228.0448242012
 21
73.2907729034
 31
0.0
  0
ARC
  5
2B9
330
1F
100
AcDbEntity
  8
0
  6
Continuous
 62
     7
370
     0
100
AcDbCircle
 10
230.527376378
 20
62.8185440332
 30
0.0
 40
0.4314912001448203
100
AcDbArc
 50
27.8850837496
 51
60.8831993912
  0
ARC
  5
2BA
330
1F
100
AcDbEntity
  8
0
  6
Continuous
 62
     7
370
     0
100
AcDbCircle
 10
231.9770750547
 20
63.5906022288
 30
0.0
 40
1.301173266866904
100
AcDbArc
 50
165.9701785416
 51
197.6766607319
  0
LINE
  5
2BB
330
1F
100
AcDbEntity
  8
0
  6
Continuous
 62
     7
370
     0
100
AcDbLine
 10
230.3455651937
 20
66.1043733185
 30
0.0
 11
229.0248350156
 21
66.8668146213
 31
0.0
  0
LINE
  5
2BC
330
1F
100
AcDbEntity
  8
0
  6
Continuous
 62
     7
370
     0
100
AcDbLine
 10
230.7373363594
 20
63.1955075088
 30
0.0
 11
229.9352916212
 21
63.6585180808
 31
0.0
  0
LINE
  5
2BD
330
1F
100
AcDbEntity
  8
0
  6
Continuous
 62
     7
370
     0
100
AcDbLine
 10
230.7373363594
 20
63.1955075088
 30
0.0
 11
230.8468832111
 21
62.9111898507
 31
0.0
  0
OLE2FRAME
  5
2BE
330
1F
100
AcDbEntity
  8
0
100
AcDbOle2Frame
 70
     2
  3
Paintbrush-Bild
 10
13.8511154363
 20
38.264191557
 30
0.0
 11
51.6290888628
 21
31.9806341108
 31
0.0
 71
     2
 72
     0
 73
     1
 90
    12928
310
80552BED0767C5B32B40DDAF6807D121434000000000000000006FFBDDFB85D0
310
4940DDAF6807D121434000000000000000006FFBDDFB85D04940416F4BD60AFB
310
3F4000000000000000002BED0767C5B32B40416F4BD60AFB3F40000000000000
310
0000000000000100000000010000010000000100000000000100000000320000
310
D0CF11E0A1B11AE1000000000000000000000000000000003E000300FEFF0900
310
0600000000000000000000000100000001000000000000000010000002000000
310
01000000FEFFFFFF0000000000000000FFFFFFFFFFFFFFFFFFFFFFFFFFFFFFFF
310
FFFFFFFFFFFFFFFFFFFFFFFFFFFFFFFFFFFFFFFFFFFFFFFFFFFFFFFFFFFFFFFF
310
FFFFFFFFFFFFFFFFFFFFFFFFFFFFFFFFFFFFFFFFFFFFFFFFFFFFFFFFFFFFFFFF
310
FFFFFFFFFFFFFFFFFFFFFFFFFFFFFFFFFFFFFFFFFFFFFFFFFFFFFFFFFFFFFFFF
310
FFFFFFFFFFFFFFFFFFFFFFFFFFFFFFFFFFFFFFFFFFFFFFFFFFFFFFFFFFFFFFFF
310
FFFFFFFFFFFFFFFFFFFFFFFFFFFFFFFFFFFFFFFFFFFFFFFFFFFFFFFFFFFFFFFF
310
FFFFFFFFFFFFFFFFFFFFFFFFFFFFFFFFFFFFFFFFFFFFFFFFFFFFFFFFFFFFFFFF
310
FFFFFFFFFFFFFFFFFFFFFFFFFFFFFFFFFFFFFFFFFFFFFFFFFFFFFFFFFFFFFFFF
310
FFFFFFFFFFFFFFFFFFFFFFFFFFFFFFFFFFFFFFFFFFFFFFFFFFFFFFFFFFFFFFFF
310
FFFFFFFFFFFFFFFFFFFFFFFFFFFFFFFFFFFFFFFFFFFFFFFFFFFFFFFFFFFFFFFF
310
FFFFFFFFFFFFFFFFFFFFFFFFFFFFFFFFFFFFFFFFFFFFFFFFFFFFFFFFFFFFFFFF
310
FFFFFFFFFFFFFFFFFFFFFFFFFFFFFFFFFFFFFFFFFFFFFFFFFFFFFFFFFFFFFFFF
310
FFFFFFFFFFFFFFFFFFFFFFFFFFFFFFFFFFFFFFFFFFFFFFFFFFFFFFFFFFFFFFFF
310
FFFFFFFFFFFFFFFFFFFFFFFFFFFFFFFFFFFFFFFFFFFFFFFFFFFFFFFFFFFFFFFF
310
FDFFFFFFFEFFFFFFFEFFFFFFFEFFFFFF05000000060000000700000008000000
310
090000000A0000000B0000000C0000000D0000000E0000000F00000010000000
310
11000000120000001300000014000000150000001600000017000000FEFFFFFF
310
FFFFFFFFFFFFFFFFFFFFFFFFFFFFFFFFFFFFFFFFFFFFFFFFFFFFFFFFFFFFFFFF
310
FFFFFFFFFFFFFFFFFFFFFFFFFFFFFFFFFFFFFFFFFFFFFFFFFFFFFFFFFFFFFFFF
310
FFFFFFFFFFFFFFFFFFFFFFFFFFFFFFFFFFFFFFFFFFFFFFFFFFFFFFFFFFFFFFFF
310
FFFFFFFFFFFFFFFFFFFFFFFFFFFFFFFFFFFFFFFFFFFFFFFFFFFFFFFFFFFFFFFF
310
FFFFFFFFFFFFFFFFFFFFFFFFFFFFFFFFFFFFFFFFFFFFFFFFFFFFFFFFFFFFFFFF
310
FFFFFFFFFFFFFFFFFFFFFFFFFFFFFFFFFFFFFFFFFFFFFFFFFFFFFFFFFFFFFFFF
310
FFFFFFFFFFFFFFFFFFFFFFFFFFFFFFFFFFFFFFFFFFFFFFFFFFFFFFFFFFFFFFFF
310
FFFFFFFFFFFFFFFFFFFFFFFFFFFFFFFFFFFFFFFFFFFFFFFFFFFFFFFFFFFFFFFF
310
FFFFFFFFFFFFFFFFFFFFFFFFFFFFFFFFFFFFFFFFFFFFFFFFFFFFFFFFFFFFFFFF
310
FFFFFFFFFFFFFFFFFFFFFFFFFFFFFFFFFFFFFFFFFFFFFFFFFFFFFFFFFFFFFFFF
310
FFFFFFFFFFFFFFFFFFFFFFFFFFFFFFFFFFFFFFFFFFFFFFFFFFFFFFFFFFFFFFFF
310
FFFFFFFFFFFFFFFFFFFFFFFFFFFFFFFFFFFFFFFFFFFFFFFFFFFFFFFFFFFFFFFF
310
FFFFFFFFFFFFFFFFFFFFFFFFFFFFFFFFFFFFFFFFFFFFFFFFFFFFFFFFFFFFFFFF
310
52006F006F007400200045006E00740072007900000000000000000000000000
310
0000000000000000000000000000000000000000000000000000000000000000
310
16000500FFFFFFFFFFFFFFFF020000000A00030000000000C000000000000046
310
00000000000000000000000000DAAA338E03D20103000000C000000000000000
310
01004F006C006500000000000000000000000000000000000000000000000000
310
0000000000000000000000000000000000000000000000000000000000000000
310
0A000200FFFFFFFFFFFFFFFFFFFFFFFF00000000000000000000000000000000
310
0000000000000000000000000000000000000000000000001400000000000000
310
010043006F006D0070004F0062006A0000000000000000000000000000000000
310
0000000000000000000000000000000000000000000000000000000000000000
310
120002010100000003000000FFFFFFFF00000000000000000000000000000000
310
0000000000000000000000000000000000000000010000004D00000000000000
310
01004F006C006500310030004E00610074006900760065000000000000000000
310
0000000000000000000000000000000000000000000000000000000000000000
310
1A000200FFFFFFFFFFFFFFFFFFFFFFFF00000000000000000000000000000000
310
0000000000000000000000000000000000000000040000002426000000000000
310
FEFFFFFF02000000FEFFFFFFFFFFFFFFFFFFFFFFFFFFFFFFFFFFFFFFFFFFFFFF
310
FFFFFFFFFFFFFFFFFFFFFFFFFFFFFFFFFFFFFFFFFFFFFFFFFFFFFFFFFFFFFFFF
310
FFFFFFFFFFFFFFFFFFFFFFFFFFFFFFFFFFFFFFFFFFFFFFFFFFFFFFFFFFFFFFFF
310
FFFFFFFFFFFFFFFFFFFFFFFFFFFFFFFFFFFFFFFFFFFFFFFFFFFFFFFFFFFFFFFF
310
FFFFFFFFFFFFFFFFFFFFFFFFFFFFFFFFFFFFFFFFFFFFFFFFFFFFFFFFFFFFFFFF
310
FFFFFFFFFFFFFFFFFFFFFFFFFFFFFFFFFFFFFFFFFFFFFFFFFFFFFFFFFFFFFFFF
310
FFFFFFFFFFFFFFFFFFFFFFFFFFFFFFFFFFFFFFFFFFFFFFFFFFFFFFFFFFFFFFFF
310
FFFFFFFFFFFFFFFFFFFFFFFFFFFFFFFFFFFFFFFFFFFFFFFFFFFFFFFFFFFFFFFF
310
FFFFFFFFFFFFFFFFFFFFFFFFFFFFFFFFFFFFFFFFFFFFFFFFFFFFFFFFFFFFFFFF
310
FFFFFFFFFFFFFFFFFFFFFFFFFFFFFFFFFFFFFFFFFFFFFFFFFFFFFFFFFFFFFFFF
310
FFFFFFFFFFFFFFFFFFFFFFFFFFFFFFFFFFFFFFFFFFFFFFFFFFFFFFFFFFFFFFFF
310
FFFFFFFFFFFFFFFFFFFFFFFFFFFFFFFFFFFFFFFFFFFFFFFFFFFFFFFFFFFFFFFF
310
FFFFFFFFFFFFFFFFFFFFFFFFFFFFFFFFFFFFFFFFFFFFFFFFFFFFFFFFFFFFFFFF
310
FFFFFFFFFFFFFFFFFFFFFFFFFFFFFFFFFFFFFFFFFFFFFFFFFFFFFFFFFFFFFFFF
310
FFFFFFFFFFFFFFFFFFFFFFFFFFFFFFFFFFFFFFFFFFFFFFFFFFFFFFFFFFFFFFFF
310
FFFFFFFFFFFFFFFFFFFFFFFFFFFFFFFFFFFFFFFFFFFFFFFFFFFFFFFFFFFFFFFF
310
0100000200000000000000000000000000000000000000000000000000000000
310
0000000000000000000000000000000000000000000000000000000000000000
310
0100FEFF030A0000FFFFFFFF0A00030000000000C00000000000004607000000
310
5042727573680007000000504272757368000700000050427275736800F439B2
310
7100000000000000000000000000000000000000000000000000000000000000
310
0000000000000000000000000000000000000000000000000000000000000000
310
0000000000000000000000000000000000000000000000000000000000000000
310
0000000000000000000000000000000000000000000000000000000000000000
310
0000000000000000000000000000000000000000000000000000000000000000
310
0000000000000000000000000000000000000000000000000000000000000000
310
0000000000000000000000000000000000000000000000000000000000000000
310
0000000000000000000000000000000000000000000000000000000000000000
310
0000000000000000000000000000000000000000000000000000000000000000
310
0000000000000000000000000000000000000000000000000000000000000000
310
0000000000000000000000000000000000000000000000000000000000000000
310
0000000000000000000000000000000000000000000000000000000000000000
310
20260000424D0E260000000000003E00000028000000B40200006E0000000100
310
01000000000000000000130B0000130B00000200000002000000000000FFFFFF
310
FFFFFFFFFFFFFFFFFFFFFFFFFFFFFFFFFFFFFFFFFFFFFFFFFFFFFFFFFFFFFFFF
310
FFFFFFFFFFFFFFFFFFFFFFFFFFFFFFFFFFFFFFFFFFFFFFFFFFFFFFFFFFFFFFFF
310
FFFFFFFFFFFFFFFFFFFFFFFFFFFFFFFFFFFFFFFFFFFFFFFFF000FFFFFFFFFFFF
310
FFFFFFFFFFFFFFFFFFFFFFFFFFFFFFFFFFFFFFFFFFFFFFFFFFFFFFFFFFFFFFFF
310
FFFFFFFFFFFFFFFFFFFFFFFFFFFFFFFFFFFFFFFFFFFFFFFFFFFFFFFFFFFFFFFF
310
FFFFFFFFFFFFFFFFFFFFFFFFFFFFFFFFF000FFFFFFFFFFFFFFFFFFFFFFFFFFFF
310
FFFFFFFFFFFFFFFFFFFFFFFFFFFFFFFFFFFFFFFFFFFFFFFFFFFFFFFFFFFFFFFF
310
FFFFFFFFFFFFFFFFFFFFFFFFFFFFFFFFFFFFFFFFFFFFFFFFFFFFFFFFFFFFFFFF
310
FFFFFFFFFFFFFFFFF000FFFFFFFFFFFFFFFFFFFFFFFFFFFFFFFFFFFFFFFFFFFF
310
FFFFFFFFFFFFFFFFFFFFFFFFFFFFFFFFFFFFFFFFFFFFFFFFFFFFFFFFFFFFFFFF
310
FFFFFFFFFFFFFFFFFFFFFFFFFFFFFFFFFFFFFFFFFFFFFFFFFFFFFFFFFFFFFFFF
310
F000FFFFFFFFFFFFFFFFFFFFFFFFFFFFFFFFFFFFFFFFFFFFFFFFFFFFFFFFFFFF
310
FFFFFFFFFFFFFFFFFFFFFFFFFFFFFFFFFFFFFFFFFFFFFFFFFFFFFFFFFFFFFFFF
310
FFFFFFFFFFFFFFFFFFFFFFFFFFFFFFFFFFFFFFFFFFFFFFFFF000FFFFFFFFFFFF
310
FFFFFFFFFFFFFFFFFFFFFFFFFFFFFFFFFFFFFFFFFFFFFFFFFFFFFFFFFFFFFFFF
310
FFFFFFFFFFFFFFFFFFFFFFFFFFFFFFFFFFFFFFFFFFFFFFFFFFFFFFFFFFFFFFFF
310
FFFFFFFFFFFFFFFFFFFFFFFFFFFFFFFFF000FFFFFFFFFFFFFFFFFFFFFFFFFFFF
310
FFFFFFFFFFFFFFFFFFFFFFFFFFFFFFFFFFFFFFFFFFFFFFFFFFFFFFFFFFFFFFFF
310
FFFFFFFFFFFFFFFFFFFFFFFFFFFFFFFFFFFFFFFFFFFFFFFFFFFFFFFFFFFFFFFF
310
FFFFFFFFFFFFFFFFF000FFFFFFFFFFFFFFFFFFFFFFFFFFFFFFFFFFFFFFFFFFFF
310
FFFFFFFFFFFFFFFFFFFFFFFFFFFFFFFFFFFFFFFFFFFFFFFFFFFFFFFFFFFFFFFF
310
FFFFFFFFFFFFFFFFFFFFFFFFFFFFFFFFFFFFFFFFFFFFFFFFFFFFFFFFFFFFFFFF
310
F000FFFFFFFFFFFFFFFFFFFFFFFFFFFFFFFFFFFFFFFFFFFFFFFFFFFFFFFFFFFF
310
FFFFFFFFFFFFFFFFFFFFFFFFFFFFFFFFFFFFFFFFFFFFFFFFFFFFFFFFFFFFFFFF
310
FFFFFFFFFFFFFFFFFFFFFFFFFFFFFFFFFFFFFFFFFFFFFFFFF000FFFFFFFFFFFF
310
FFFFFFFFFFFFFFFFFFFFFFFFFFFFFFFFFFFFFFFFFFFFFFFFFFFFFFFFFFFFFFFF
310
FFFFFFFFFFFFFFFFFFFFFFFFFFFFFFFFFFFFFFFFFFFFFFFFFFFFFFFFFFFFFFFF
310
FFFFFFFFFFFFFFFFFFFFFFFFFFFFFFFFF000FFFFFFFFFFFFFFFFFFFFFFFFFFFF
310
FFFFFFFFFFFFFFFFFFFFFFFFFFFFFFFFFFFFFFFFFFFFFFFFFFFFFFFFFFFFFFFF
310
FFFFFFFFFFFFFFFFFFFFFFFFFFFFFFFFFFFFFFFFFFFFFFFFFFFFFFFFFFFFFFFF
310
FFFFFFFFFFFFFFFFF000FFFFFFFFFFFFFFFFFFFFFFFFFFFFFFFFFFFFFFFFFFFF
310
FFFFFFFFFFFFFFFFFFFFFFFFFFFFFFFFFFFFFFFFFFFFFFFFFFFFFFFFFFFFFFFF
310
FFFFFFFFFFFFFFFFFFFFFFFFFFFFFFFFFFFFFFFFFFFFFFFFFFFFFFFFFFFFFFFF
310
F000FFFFFFFFFFFFFFFFFFFFFFFFFFFFFFFFFFFFFFFFFFFFFFFFFFFFFFFFFFFF
310
FFFFFFFFFFFFFFFFFFFFFFFFFFFFFFFFFFFFFFFFFFFFFFFFFFFFFFFFFFFFFFFF
310
FFFFFFFFFFFFFFFFFFFFFFFFFFFFFFFFFFFFFFFFFFFFFFFFF000FFFFFFFFFFFF
310
FFFFFFFFFFFFFFFFFFFFFFFFFFFFFFFFFFFFFFFFFFFFFFFFFFFFFFFFFFFFFFFF
310
FFFFFFFFFFFFFFFFFFFFFFFFFFFFFFFFFFFFFFFFFFFFFFFFFFFFFFFFFFFFFFFF
310
FFFFFFFFFFFFFFFFFFFFFFFFFFFFFFFFF000FFFFFFFFFFFFFFFFFFFFFFFFFFFF
310
FFFFFFFFFFFFFFFFFFFFFFFFFFFFFFFFFFFFFFFFFFFFFFFFFFFFFFFFFFFFFFFF
310
FFFFFFFFFFFFFFFFFFFFFFFFFFFFFFFFFFFFFFFFFFFFFFFFFFFFFFFFFFFFFFFF
310
FFFFFFFFFFFFFFFFF000FFFFFFFFFFFFFFFFFFFFFFFFFFFFFFFFFFFFFFFFFFFF
310
FFFFFFFFFFFFFFFFFFFFFFFFFFFFFFFFFFFFFFFFFFFFFFFFFFFFFFFFFFFFFFFF
310
FFFFFFFFFFFFFFFFFFFFFFFFFFFFFFFFFFFFFFFFFFFFFFFFFFFFFFFFFFFFFFFF
310
F000FFFFFFFFFFFFFFFFFFFFFFFFFFFFFFFFFFFFFFFFFFFFFFFFFFFFFFFFFFFF
310
FFFFFFFFFFFFFFFFFFFFFFFFFFFFFFFFFFFFFFFFFFFFFFFFFFFFFFFFFFFFFFFF
310
FFFFFFFFFFFFFFFFFFFFFFFFFFFFFFFFFFFFFFFFFFFFFFFFF000FFFFFFFFFFFF
310
FFFFFFFFFFFFFFFFFFFFFFFFFFFFFFFFFFFFFFFFFFFFFFFFFFFFFFFFFFFFFFFF
310
FFFFFFFFFFFFFFFFFFFFFFFFFFFFFFFFFFFFFFFFFFFFFFFFFFFFFFFFFFFFFFFF
310
FFFFFFFFFFFFFFFFFFFFFFFFFFFFFFFFF000FFFFFFFFFFFFFFFFFFFFFFFFFFFF
310
FFFFFFFFFFFFFFFFFFFFFFFFFFFFFFFFFFFFFFFFFFFFFFFFFFFFFFFFFFFFFFFF
310
FFFFFFFFFFFFFFFFFFFFFFFFFFFFFFFFFFFFFFFFFFFFFFFFFFFFFFFFFFFFFFFF
310
FFFFFFFFFFFFFFFFF000FFFFF80003FFFFFFFFFFFFFFFFFFFFFFFFFFFFFFFFFF
310
FFFFF00007FFFFFFFFFF00007FFFFFF800000000000000007FFFFFFFFFFFFFFF
310
FFFFFFFC001FFFFFFFFFFFFFFC001FFFFFFFFFFFFFFFFFFFFFFFFFFE0007FFFF
310
F000FFFF8000007FFFFFFFF8000FFFFFC0007FFFFF80007FFFFF0000007FFFFF
310
FFF8000007FFFFF800000000000000007FFFFFF0001FFFFFFFFFFFC00001FFFF
310
FFFFFFFFC00001FFFFFFFF000000000003FFFFE000007FFFF000FFFE0000000F
310
FFFFFFF0000FFFFF80007FFFFF80007FFFFC0000001FFFFFFFC0000001FFFFF8
310
00000000000000007FFFFFF0001FFFFFFFFFFE0000003FFFFFFFFFFE0000003F
310
FFFFFF000000000003FFFF0000000FFFF000FFF800000003FFFFFFF00007FFFF
310
80007FFFFF80007FFFF000000007FFFFFF000000003FFFF80000000000000000
310
7FFFFFF0001FFFFFFFFFF80000000FFFFFFFFFF80000000FFFFFFF0000000000
310
03FFFC00000003FFF000FFE000000000FFFFFFF00007FFFF80003FFFFF80007F
310
FFC000000001FFFFFC000000001FFFF800000000000000007FFFFFF0001FFFFF
310
FFFFE000000003FFFFFFFFE000000003FFFFFF000000000003FFF000000000FF
310
F000FF80000000007FFFFFF00007FFFF80003FFFFF80007FFF8000000000FFFF
310
F80000000007FFF800000000000000007FFFFFF0001FFFFFFFFFC000000001FF
310
FFFFFFC000000001FFFFFF000000000003FFC0000000007FF000FF0000000000
310
3FFFFFE00007FFFF00003FFFFF80007FFE00000000003FFFF00000000003FFF8
310
00000000000000007FFFFFF0001FFFFFFFFF8000000000FFFFFFFF8000000000
310
FFFFFF000000000003FF80000000003FF000FE00000000001FFFFFE00003FFFF
310
00003FFFFF80007FFC00000000001FFFE00000000001FFF8000001FFFE000000
310
7FFFFFF0001FFFFFFFFE00000000003FFFFFFE00000000003FFFFF0000000000
310
03FF00000000001FF000FC00000000000FFFFFE00003FFFF00001FFFFF80007F
310
F800000000001FFFC00000000000FFF8000001FFFE0000007FFFFFF0001FFFFF
310
FFFC00000000001FFFFFFC00000000001FFFFF000000000003FE00000000000F
310
F000F8000000000007FFFFE00003FFFF00001FFFFF80007FF800000000000FFF
310
800000000000FFF8000001FFFE0000007FFFFFF0001FFFFFFFF800000000000F
310
FFFFF800000000000FFFFF000000000003FC000000000007F000F80000000000
310
03FFFFC00003FFFE00001FFFFF80007FF0000000000007FF0000000000007FF8
310
000001FFFE0000007FFFFFF0001FFFFFFFF0000000000007FFFFF00000000000
310
07FFFF000000000003F8000000000003F000F0000000000003FFFFC00001FFFE
310
00001FFFFF80007FE0000000000007FE0000000000003FF8000001FFFE000000
310
7FFFFFF0001FFFFFFFF0000000000007FFFFF0000000000007FFFF0000000000
310
03F800001F800003F000E00001FFF00001FFFFC00001FFFE00000FFFFF80007F
310
E00001FFE00003FE00001FFF00003FF8000001FFFE0000007FFFFFF0001FFFFF
310
FFE000003E000003FFFFE000003E000003FFFF000000000003F00001FFF80001
310
F000E00007FFFC0001FFFFC00001FFFE00000FFFFF80007FC0000FFFFC0003FC
310
0000FFFFC0001FF8000001FFFE0000007FFFFFF0001FFFFFFFC00003FFE00001
310
FFFFC00003FFE00001FFFF0001FFFFFFFFF00007FFFE0001F000E0000FFFFF00
310
00FFFF800001FFFC00000FFFFF80007FC0001FFFFE0001FC0001FFFFE0001FF8
310
000001FFFE0000007FFFFFF0001FFFFFFF80000FFFF80000FFFF80000FFFF800
310
00FFFF0003FFFFFFFFE0000FFFFF8000F000C0003FFFFF8000FFFF800000FFFC
310
000007FFFF80007F80003FFFFF0001FC0003FFFFF0001FF8000001FFFE000000
310
7FFFFFF0001FFFFFFF80003FFFFE0000FFFF80003FFFFE0000FFFF0003FFFFFF
310
FFE0003FFFFF8000F000C0003FFFFF8000FFFF800000FFFC000007FFFF80007F
310
80007FFFFF8001F80007FFFFF8000FF8000001FFFE0000007FFFFFF0001FFFFF
310
FF00007FFFFF00007FFF00007FFFFF00007FFF0003FFFFFFFFE0003FFFFFC000
310
F000C0007FFFFFC000FFFF000000FFFC000007FFFF80007F8000FFFFFF8000F8
310
000FFFFFF8000FF8000001FFFE0000007FFFFFF0001FFFFFFF0000FFFFFF8000
310
7FFF0000FFFFFF80007FFF0003FFFFFFFFC0007FFFFFC00070008000FFFFFFC0
310
00FFFF000000FFF8000007FFFF80007F8000FFFFFF8000F8000FFFFFF8000FF8
310
000001FFFE0000007FFFFFF0001FFFFFFE0001FFFFFFC0003FFE0001FFFFFFC0
310
003FFF0003FFFFFFFFC0007FFFFFE00070008000FFFFFFC0007FFF0000007FF8
310
000003FFFF80007F0001FFFFFF8000F8000FFFFFF8000FF8000001FFFE000000
310
7FFFFFF0001FFFFFFE0001FFFFFFC0003FFE0001FFFFFFC0003FFF0003FFFFFF
310
FFC000FFFFFFE00070008000FFFFFFC0007FFF0000007FF8000003FFFF80007F
310
0001FFFFFF8000F8001FFFFFF8000FF8000001FFFE0000007FFFFFF0001FFFFF
310
FE0003FFFFFFE0003FFE0003FFFFFFE0003FFF0003FFFFFFFFC000FFFFFFE000
310
70008000FFFFFFC0007FFE0000007FF8000003FFFF80007F0001FFFFFF8000F0
310
001FFFFFF8000FF8000001FFFE0000007FFFFFF0001FFFFFFC0003FFFFFFE000
310
1FFC0003FFFFFFE0001FFF0003FFFFFFFFC000FFFFFFC00070008000FFFFFF80
310
007FFE0000007FF0000003FFFF80007F0001FFFFFF0000F0001FFFFFF8000FF8
310
000001FFFE0000007FFFFFF0001FFFFFFC0007FFFFFFF0001FFC0007FFFFFFF0
310
001FFF0003FFFFFFFFC000FFFFFFC00070008001FFFFFF0000FFFE0000003FF0
310
000001FFFF80007F0001FFFFFF0000F8001FFFFFF0000FF8000001FFFE000000
310
7FFFFFF0001FFFFFFC0007FFFFFFF0001FFC0007FFFFFFF0001FFF0003FFFFFF
310
FFC001FFFFFF80007000FFFFFFFFFE0000FFFE0008003FF0008001FFFF80007F
310
FFFFFFFFFC0000FFFFFFFFFFE0000FF8000001FFFE0000007FFFFFF0001FFFFF
310
F8000FFFFFFFF8000FF8000FFFFFFFF8000FFF0003FFFFFFFFFFFFFFFFFF0000
310
7000FFFFFFFFFC0000FFFC0008003FF0008001FFFF80007FFFFFFFFFF80001FF
310
FFFFFFFF80000FF8000001FFFE0000007FFFFFF0001FFFFFF8000FFFFFFFF800
310
0FF8000FFFFFFFF8000FFF0003FFFFFFFFFFFFFFFFFE0000F000FFFFFFFFE000
310
00FFFC000C003FE000C001FFFF80007FFFFFFFFFC00001FFFFFFFFFE00001FF8
310
000001FFFE0000007FFFFFF0001FFFFFF8000FFFFFFFF8000FF8000FFFFFFFF8
310
000FFF0003FFFFFFFFFFFFFFFFF00000F000FFFFFFFE000001FFFC000C001FE0
310
00C000FFFF80007FFFFFFFFE000001FFFFFFFFE000001FF80FFFFFFFFFFFFFC0
310
7FFFFFF0001FFFFFF8000FFFFFFFF8000FF8000FFFFFFFF8000FFF0003FFFFFF
310
FFFFFFFFFF800000F000FFFFFFC0000001FFFC001C001FE001C000FFFF80007F
310
FFFFFF80000003FFFFFFF80000001FF80FFFFFFFFFFFFFC07FFFFFF0001FFFFF
310
F8001FFFFFFFFC000FF8001FFFFFFFFC000FFF0003FFFFFFFFFFFFFFF0000001
310
F000FFFFF800000001FFF8001C001FE001C000FFFF80007FFFFFF800000003FF
310
FFFF800000003FF80FFFFFFFFFFFFFC07FFFFFF0001FFFFFF8001FFFFFFFFC00
310
0FF8001FFFFFFFFC000FFF0003FFFFFFFFFFFFFE00000001F000FFFFC0000000
310
03FFF8001E001FC001E000FFFF80007FFFFF8000000007FFFFFC000000003FF8
310
0FFFFFFFFFFFFFC07FFFFFF0001FFFFFF8001FFFFFFFFC000FF8001FFFFFFFFC
310
000FFF0003FFFFFFFFFFFFE000000003F000FFFE0000000007FFF8001E000FC0
310
01E0007FFF80007FFFFE0000000007FFFFE0000000007FF80FFFFFFFFFFFFFC0
310
7FFFFFF0001FFFFFF0001FFFFFFFFC0007F0001FFFFFFFFC0007FF0003FFFFFF
310
FFFFFF0000000003F000FFF80000000007FFF8001E000FC003E0007FFF80007F
310
FFF0000000000FFFFF8000000000FFF80FFFFFFFFFFFFFC07FFFFFF0001FFFFF
310
F0001FFFFFFFFC0007F0001FFFFFFFFC0007FF0003FFFFFFFFFFFC0000000007
310
F000FFE0000000000FFFF0003E000FC003E0007FFF80007FFFC0000000001FFF
310
FE0000000001FFF80FFFFFFFFFFFFFC07FFFFFF0001FFFFFF0001FFFFFFFFC00
310
07F0001FFFFFFFFC0007FF0003FFFFFFFFFFF0000000000FF000FFC000000000
310
1FFFF0003F000F8003F0003FFF80007FFF80000000003FFFF80000000003FFF8
310
0FFFFFFFFFFFFFC07FFFFFF0001FFFFFF0001FFFFFFFFC0007F0001FFFFFFFFC
310
0007FF0003FFFFFFFFFFE0000000001FF000FF00000000007FFFF0003F000780
310
03F0003FFF80007FFF00000000007FFFF00000000007FFF80FFFFFFFFFFFFFC0
310
7FFFFFF0001FFFFFF0001FFFFFFFFC0007F0001FFFFFFFFC0007FF0003FFFFFF
310
FFFF80000000007FF000FE0000000000FFFFE0003F00078007F0003FFF80007F
310
FE0000000001FFFFE0000000001FFFF80FFFFFFFFFFFFFC07FFFFFF0001FFFFF
310
F0001FFFFFFFFC0007F0001FFFFFFFFC0007FF0003FFFFFFFFFF0000000000FF
310
F000FC0000000003FFFFE0007F00078007F0003FFF80007FFC0000000007FFFF
310
C0000000007FFFF80FFFFFFFFFFFFFC07FFFFFF0001FFFFFF8001FFFFFFFFC00
310
0FF8001FFFFFFFFC000FFF0003FFFFFFFFFE0000000003FFF000FC000000000F
310
FFFFE0007F80070007F8001FFF80007FF8000000001FFFFF8000000001FFFFF8
310
0FFFFFFFFFFFFFC07FFFFFF0001FFFFFF8001FFFFFFFFC000FF8001FFFFFFFFC
310
000FFF0003FFFFFFFFFC000000000FFFF000F8000000007FFFFFE0007F800700
310
07F8001FFF80007FF000000000FFFFFF800000000FFFFFF80FFFFFFFFFFFFFC0
310
7FFFFFF0001FFFFFF8000FFFFFFFF8000FF8000FFFFFFFF8000FFF0003FFFFFF
310
FFFC000000007FFFF000F800000007FFFFFFC0007F8003000FF8001FFF80007F
310
F000000007FFFFFF000000007FFFFFF80FFFFFFFFFFFFFC07FFFFFF0001FFFFF
310
F8000FFFFFFFF8000FF8000FFFFFFFF8000FFF0003FFFFFFFFF80000000FFFFF
310
F000F0000000FFFFFFFFC000FF8003000FF8001FFF80007FE0000000FFFFFFFF
310
0000000FFFFFFFF8000001FFFE0000007FFFFFF0001FFFFFF8000FFFFFFFF800
310
0FF8000FFFFFFFF8000FFF0003FFFFFFFFF8000000FFFFFFF000F000000FFFFF
310
FFFFC000FFC002000FF8000FFF80007FE000001FFFFFFFFE000001FFFFFFFFF8
310
000001FFFE0000007FFFFFF0001FFFFFF8000FFFFFFFF8000FF8000FFFFFFFF8
310
000FFF0003FFFFFFFFF000001FFFFFFFF000E00000FFFFFFFFFFC000FFC00200
310
0FFC000FFF80007FE00001FFFFFFFFFE00001FFFFFFFFFF8000001FFFE000000
310
7FFFFFF0001FFFFFFC000FFFFFFFF8001FFC000FFFFFFFF8001FFF0003FFFFFF
310
FFF00001FFFFFFFFF000E00007FFFFFFFFFF8000FFC000001FFC000FFF80007F
310
C0000FFFFFFFFFFE0000FFFFFFFFFFF8000001FFFE0000007FFFFFF0001FFFFF
310
FC0007FFFFFFF0001FFC0007FFFFFFF0001FFF0003FFFFFFFFF00007FFFFFFFF
310
F000E0001FFFFFFFFFFF8000FFC000001FFC000FFF80007FC0003FFFFFFFFFFE
310
0001FFFFFFFFFFF8000001FFFE0000007FFFFFF0001FFFFFFC0007FFFFFFF000
310
1FFC0007FFFFFFF0001FFF0003FFFFFFFFF0001FFFFFFFFFF000E0003FFFFF00
310
03FF8001FFE000001FFC0007FF80007FC0007FFFFF0007FC0003FFFFF0003FF8
310
000001FFFE0000007FFFFFF0001FFFFFFC0003FFFFFFE0001FFC0003FFFFFFE0
310
001FFF0003FFFFFFFFF0003FFFFFFFFFF000E0003FFFFF0001FF8001FFE00000
310
1FFE0007FF80007FC0007FFFFE0003FC0007FFFFE0003FF8000001FFFE000000
310
7FFFFFF0001FFFFFFE0003FFFFFFE0003FFE0003FFFFFFE0003FFF0003FFFFFF
310
FFF0003FFFFF8001F000E0003FFFFF0001FF0001FFE000001FFE0007FF80007F
310
C0007FFFFE0003FC0007FFFFE0003FF8000001FFFE0000007FFFFFF0001FFFFF
310
FE0001FFFFFFC0003FFE0001FFFFFFC0003FFF0003FFFFFFFFF0003FFFFF0001
310
F000E0003FFFFF0003FF0001FFE000003FFE0007FF80007FC0007FFFFE0003FC
310
0007FFFFE0003FF8000001FFFE0000007FFFFFF0001FFFFFFF0001FFFFFFC000
310
7FFF0001FFFFFFC0007FFF0003FFFFFFFFF0003FFFFF0001F000E0003FFFFE00
310
03FF0003FFF000003FFE0003FF80007FC0007FFFFC0003FE0007FFFFE0003FF8
310
000001FFFE0000007FFFFFF0001FFFFFFF0000FFFFFF80007FFF0000FFFFFF80
310
007FFF0003FFFFFFFFF0003FFFFF0001F000E0003FFFFE0003FF0003FFF00000
310
3FFF0003FF80007FC0007FFFFC0007FE0007FFFFC0003FF8000001FFFE000000
310
7FFFFFF0001FFFFFFF80007FFFFF0000FFFF80007FFFFF0000FFFF0003FFFFFF
310
FFF0003FFFFF0003F000E0003FFFFC0003FE0003FFF000003FFF0003FF80007F
310
E0003FFFF80007FE0003FFFFC0007FF8000001FFFE0000007FFFFFF0001FFFFF
310
FF80003FFFFE0000FFFF80003FFFFE0000FFFF0003FFFFFFFFF0001FFFFE0003
310
F000F0001FFFF80003FE0003FFF000007FFF0001FF80007FE0003FFFF00007FE
310
0001FFFF80007FF8000001FFFE0000007FFFFFF0001FFFFFFFC0000FFFF80001
310
FFFFC0000FFFF80001FFFF0003FFFFFFFFF0001FFFFC0003F000F0000FFFF000
310
07FE0007FFF800007FFF0001FF80007FE0001FFFE00007FF0000FFFE00007FF8
310
000001FFFE0000007FFFFFF0001FFFFFFFC00003FFE00001FFFFC00003FFE000
310
01FFFF0003FFFFFFFFF8000FFFF80003F000F00003FFC00007FC0007FFF80000
310
7FFF8001FF80007FF00007FF80000FFF00007FF80000FFF8000001FFFE000000
310
7F80000000000001FFE000003E000003FFFFE000003E000003FFFF0003FFFFFF
310
FFF80003FFE00007F000F800000000000FFC0007FFF800007FFF8001FF80007F
310
F000000000000FFF000000000000FFF8000001FFFE0000007F80000000000001
310
FFF0000000000007FFFFF0000000000007FFFF0003FFFFFFFFFC00007E000007
310
F000F800000000000FFC0007FFF80000FFFF8000FF80007FF800000000001FFF
310
800000000001FFF8000001FFFE0000007F80000000000001FFF800000000000F
310
FFFFF800000000000FFFFF0003FFFFFFFFFC00000000000FF000FC0000000000
310
1FFC0007FFFC0000FFFF8000FF80007FF800000000003FFFC00000000001FFF8
310
000001FFFE0000007F80000000000001FFF800000000000FFFFFF80000000000
310
0FFFFF0003FFFFFFFFFE00000000001FF000FE00000000003FF8000FFFFC0000
310
FFFF8000FF80007FFC00000000003FFFC00000000003FFF8000001FFFE000000
310
7F80000000000001FFFC00000000001FFFFFFC00000000001FFFFF0003FFFFFF
310
FFFF00000000001FF000FF00000000003FF8000FFFFC0000FFFFC000FF80007F
310
FE00000000007FFFE00000000007FFF8000001FFFE0000007F80000000000001
310
FFFE00000000003FFFFFFE00000000003FFFFF0003FFFFFFFFFF80000000003F
310
F000FF80000000007FF8000FFFFC0001FFFFC0007F80007FFF0000000000FFFF
310
F0000000000FFFF800000000000000007F80000000000001FFFF8000000000FF
310
FFFFFF8000000000FFFFFF0003FFFFFFFFFFC0000000007FF000FFC000000000
310
FFF8000FFFFE0001FFFFC0007F80007FFF8000000001FFFFF8000000001FFFF8
310
00000000000000007F80000000000001FFFFC000000001FFFFFFFFC000000001
310
FFFFFF0003FFFFFFFFFFE000000000FFF000FFE000000003FFF0001FFFFE0001
310
FFFFC0007F80007FFFC000000007FFFFFE000000003FFFF80000000000000000
310
7F80000000000001FFFFE000000003FFFFFFFFE000000003FFFFFF0003FFFFFF
310
FFFFF000000003FFF000FFF80000000FFFF0001FFFFE0001FFFFE0007F80007F
310
FFF00000000FFFFFFF00000000FFFFF800000000000000007F80000000000001
310
FFFFF80000000FFFFFFFFFF80000000FFFFFFF0003FFFFFFFFFFFC0000000FFF
310
F000FFFE0000003FFFF0001FFFFE0003FFFFE0003F80007FFFFC0000003FFFFF
310
FFC0000003FFFFF800000000000000007F80000000000001FFFFFE0000003FFF
310
FFFFFFFE0000003FFFFFFF0003FFFFFFFFFFFF0000003FFFF000FFFF800000FF
310
FFF0001FFFFF0003FFFFE0003F80007FFFFF000001FFFFFFFFF800001FFFFFF8
310
00000000000000007F80000000000001FFFFFFC00001FFFFFFFFFFFFC00001FF
310
FFFFFF0003FFFFFFFFFFFFC00000FFFFF000FFFFF8000FFFFFFFFFFFFFFFFFFF
310
FFFFFFFFFFFFFFFFFFFFF0001FFFFFFFFFFF0000FFFFFFF80000000000000000
310
7FFFFFFFFFFFFFFFFFFFFFFC001FFFFFFFFFFFFFFC001FFFFFFFFFFFFFFFFFFF
310
FFFFFFFC001FFFFFF000FFFFFFFFFFFFFFFFFFFFFFFFFFFFFFFFFFFFFFFFFFFF
310
FFFFFFFFFFFFFFFFFFFFFFFFFFFFFFFFFFFFFFFFFFFFFFFFFFFFFFFFFFFFFFFF
310
FFFFFFFFFFFFFFFFFFFFFFFFFFFFFFFFFFFFFFFFFFFFFFFFFFFFFFFFFFFFFFFF
310
F000FFFFFFFFFFFFFFFFFFFFFFFFFFFFFFFFFFFFFFFFFFFFFFFFFFFFFFFFFFFF
310
FFFFFFFFFFFFFFFFFFFFFFFFFFFFFFFFFFFFFFFFFFFFFFFFFFFFFFFFFFFFFFFF
310
FFFFFFFFFFFFFFFFFFFFFFFFFFFFFFFFFFFFFFFFFFFFFFFFF000FFFFFFFFFFFF
310
FFFFFFFFFFFFFFFFFFFFFFFFFFFFFFFFFFFFFFFFFFFFFFFFFFFFFFFFFFFFFFFF
310
FFFFFFFFFFFFFFFFFFFFFFFFFFFFFFFFFFFFFFFFFFFFFFFFFFFFFFFFFFFFFFFF
310
FFFFFFFFFFFFFFFFFFFFFFFFFFFFFFFFF000FFFFFFFFFFFFFFFFFFFFFFFFFFFF
310
FFFFFFFFFFFFFFFFFFFFFFFFFFFFFFFFFFFFFFFFFFFFFFFFFFFFFFFFFFFFFFFF
310
FFFFFFFFFFFFFFFFFFFFFFFFFFFFFFFFFFFFFFFFFFFFFFFFFFFFFFFFFFFFFFFF
310
FFFFFFFFFFFFFFFFF000FFFFFFFFFFFFFFFFFFFFFFFFFFFFFFFFFFFFFFFFFFFF
310
FFFFFFFFFFFFFFFFFFFFFFFFFFFFFFFFFFFFFFFFFFFFFFFFFFFFFFFFFFFFFFFF
310
FFFFFFFFFFFFFFFFFFFFFFFFFFFFFFFFFFFFFFFFFFFFFFFFFFFFFFFFFFFFFFFF
310
F000FFFFFFFFFFFFFFFFFFFFFFFFFFFFFFFFFFFFFFFFFFFFFFFFFFFFFFFFFFFF
310
FFFFFFFFFFFFFFFFFFFFFFFFFFFFFFFFFFFFFFFFFFFFFFFFFFFFFFFFFFFFFFFF
310
FFFFFFFFFFFFFFFFFFFFFFFFFFFFFFFFFFFFFFFFFFFFFFFFF000FFFFFFFFFFFF
310
FFFFFFFFFFFFFFFFFFFFFFFFFFFFFFFFFFFFFFFFFFFFFFFFFFFFFFFFFFFFFFFF
310
FFFFFFFFFFFFFFFFFFFFFFFFFFFFFFFFFFFFFFFFFFFFFFFFFFFFFFFFFFFFFFFF
310
FFFFFFFFFFFFFFFFFFFFFFFFFFFFFFFFF000FFFFFFFFFFFFFFFFFFFFFFFFFFFF
310
FFFFFFFFFFFFFFFFFFFFFFFFFFFFFFFFFFFFFFFFFFFFFFFFFFFFFFFFFFFFFFFF
310
FFFFFFFFFFFFFFFFFFFFFFFFFFFFFFFFFFFFFFFFFFFFFFFFFFFFFFFFFFFFFFFF
310
FFFFFFFFFFFFFFFFF000FFFFFFFFFFFFFFFFFFFFFFFFFFFFFFFFFFFFFFFFFFFF
310
FFFFFFFFFFFFFFFFFFFFFFFFFFFFFFFFFFFFFFFFFFFFFFFFFFFFFFFFFFFFFFFF
310
FFFFFFFFFFFFFFFFFFFFFFFFFFFFFFFFFFFFFFFFFFFFFFFFFFFFFFFFFFFFFFFF
310
F000FFFFFFFFFFFFFFFFFFFFFFFFFFFFFFFFFFFFFFFFFFFFFFFFFFFFFFFFFFFF
310
FFFFFFFFFFFFFFFFFFFFFFFFFFFFFFFFFFFFFFFFFFFFFFFFFFFFFFFFFFFFFFFF
310
FFFFFFFFFFFFFFFFFFFFFFFFFFFFFFFFFFFFFFFFFFFFFFFFF000FFFFFFFFFFFF
310
FFFFFFFFFFFFFFFFFFFFFFFFFFFFFFFFFFFFFFFFFFFFFFFFFFFFFFFFFFFFFFFF
310
FFFFFFFFFFFFFFFFFFFFFFFFFFFFFFFFFFFFFFFFFFFFFFFFFFFFFFFFFFFFFFFF
310
FFFFFFFFFFFFFFFFFFFFFFFFFFFFFFFFF000FFFFFFFFFFFFFFFFFFFFFFFFFFFF
310
FFFFFFFFFFFFFFFFFFFFFFFFFFFFFFFFFFFFFFFFFFFFFFFFFFFFFFFFFFFFFFFF
310
FFFFFFFFFFFFFFFFFFFFFFFFFFFFFFFFFFFFFFFFFFFFFFFFFFFFFFFFFFFFFFFF
310
FFFFFFFFFFFFFFFFF000FFFFFFFFFFFFFFFFFFFFFFFFFFFFFFFFFFFFFFFFFFFF
310
FFFFFFFFFFFFFFFFFFFFFFFFFFFFFFFFFFFFFFFFFFFFFFFFFFFFFFFFFFFFFFFF
310
FFFFFFFFFFFFFFFFFFFFFFFFFFFFFFFFFFFFFFFFFFFFFFFFFFFFFFFFFFFFFFFF
310
F000FFFFFFFFFFFFFFFFFFFFFFFFFFFFFFFFFFFFFFFFFFFFFFFFFFFFFFFFFFFF
310
FFFFFFFFFFFFFFFFFFFFFFFFFFFFFFFFFFFFFFFFFFFFFFFFFFFFFFFFFFFFFFFF
310
FFFFFFFFFFFFFFFFFFFFFFFFFFFFFFFFFFFFFFFFFFFFFFFFF000FFFFFFFFFFFF
310
FFFFFFFFFFFFFFFFFFFFFFFFFFFFFFFFFFFFFFFFFFFFFFFFFFFFFFFFFFFFFFFF
310
FFFFFFFFFFFFFFFFFFFFFFFFFFFFFFFFFFFFFFFFFFFFFFFFFFFFFFFFFFFFFFFF
310
FFFFFFFFFFFFFFFFFFFFFFFFFFFFFFFFF000FFFFFFFFFFFFFFFFFFFFFFFFFFFF
310
FFFFFFFFFFFFFFFFFFFFFFFFFFFFFFFFFFFFFFFFFFFFFFFFFFFFFFFFFFFFFFFF
310
FFFFFFFFFFFFFFFFFFFFFFFFFFFFFFFFFFFFFFFFFFFFFFFFFFFFFFFFFFFFFFFF
310
FFFFFFFFFFFFFFFFF000FFFFFFFFFFFFFFFFFFFFFFFFFFFFFFFFFFFFFFFFFFFF
310
FFFFFFFFFFFFFFFFFFFFFFFFFFFFFFFFFFFFFFFFFFFFFFFFFFFFFFFFFFFFFFFF
310
FFFFFFFFFFFFFFFFFFFFFFFFFFFFFFFFFFFFFFFFFFFFFFFFFFFFFFFFFFFFFFFF
310
F000FFFFFFFFFFFFFFFFFFFFFFFFFFFFFFFFFFFFFFFFFFFFFFFFFFFFFFFFFFFF
310
FFFFFFFFFFFFFFFFFFFFFFFFFFFFFFFFFFFFFFFFFFFFFFFFFFFFFFFFFFFFFFFF
310
FFFFFFFFFFFFFFFFFFFFFFFFFFFFFFFFFFFFFFFFFFFFFFFFF000FFFFFFFFFFFF
310
FFFFFFFFFFFFFFFFFFFFFFFFFFFFFFFFFFFFFFFFFFFFFFFFFFFFFFFFFFFFFFFF
310
FFFFFFFFFFFFFFFFFFFFFFFFFFFFFFFFFFFFFFFFFFFFFFFFFFFFFFFFFFFFFFFF
310
FFFFFFFFFFFFFFFFFFFFFFFFFFFFFFFFF000FFFFFFFFFFFFFFFFFFFFFFFFFFFF
310
FFFFFFFFFFFFFFFFFFFFFFFFFFFFFFFFFFFFFFFFFFFFFFFFFFFFFFFFFFFFFFFF
310
FFFFFFFFFFFFFFFFFFFFFFFFFFFFFFFFFFFFFFFFFFFFFFFFFFFFFFFFFFFFFFFF
310
FFFFFFFFFFFFFFFFF000FFFFFFFFFFFFFFFFFFFFFFFFFFFFFFFFFFFFFFFFFFFF
310
FFFFFFFFFFFFFFFFFFFFFFFFFFFFFFFFFFFFFFFFFFFFFFFFFFFFFFFFFFFFFFFF
310
FFFFFFFFFFFFFFFFFFFFFFFFFFFFFFFFFFFFFFFFFFFFFFFFFFFFFFFFFFFFFFFF
310
F000FFFFFFFFFFFFFFFFFFFFFFFFFFFFFFFFFFFFFFFFFFFFFFFFFFFFFFFFFFFF
310
FFFFFFFFFFFFFFFFFFFFFFFFFFFFFFFFFFFFFFFFFFFFFFFFFFFFFFFFFFFFFFFF
310
FFFFFFFFFFFFFFFFFFFFFFFFFFFFFFFFFFFFFFFFFFFFFFFFF000FFFFFFFFFFFF
310
FFFFFFFFFFFFFFFFFFFFFFFFFFFFFFFFFFFFFFFFFFFFFFFFFFFFFFFFFFFFFFFF
310
FFFFFFFFFFFFFFFFFFFFFFFFFFFFFFFFFFFFFFFFFFFFFFFFFFFFFFFFFFFFFFFF
310
FFFFFFFFFFFFFFFFFFFFFFFFFFFFFFFFF0000000000000000000000000000000
310
0000000000000000000000000000000000000000000000000000000000000000
310
0000000000000000000000000000000000000000000000000000000000000000
310
0000000000000000000000000000000000000000000000000000000000000000
310
0000000000000000000000000000000000000000000000000000000000000000
310
0000000000000000000000000000000000000000000000000000000000000000
310
0000000000000000000000000000000000000000000000000000000000000000
310
0000000000000000000000000000000000000000000000000000000000000000
310
0000000000000000000000000000000000000000000000000000000000000000
310
0000000000000000000000000000000000000000000000000000000000000000
310
0000000000000000000000000000000000000000000000000000000000000000
310
0000000000000000000000000000000000000000000000000000000000000000
310
0000000000000000000000000000000000000000000000000000000000000000
310
0000000000000000000000000000000000000000000000000000000000000000
310
0000000000000000000000000000000000000000000000000000000000000000
310
0000000000000000000000000000000000000000000000000000000000000000
  1
OLE
  0
ENDSEC
  0
SECTION
  2
OBJECTS
  0
DICTIONARY
  5
C
330
0
100
AcDbDictionary
281
     1
  3
ACAD_GROUP
350
D
  3
ACAD_LAYOUT
350
1A
  3
ACAD_MLINESTYLE
350
17
  3
ACAD_PLOTSETTINGS
350
19
  3
ACAD_PLOTSTYLENAME
350
E
  3
ACAD_SCALELIST
350
47
  0
DICTIONARY
  5
D
102
{ACAD_REACTORS
330
C
102
}
330
C
100
AcDbDictionary
281
     1
  0
DICTIONARY
  5
1A
102
{ACAD_REACTORS
330
C
102
}
330
C
100
AcDbDictionary
281
     1
  3
Layout1
350
1E
  3
Layout2
350
26
  3
Model
350
22
  0
DICTIONARY
  5
17
102
{ACAD_REACTORS
330
C
102
}
330
C
100
AcDbDictionary
281
     1
  3
Standard
350
18
  0
DICTIONARY
  5
19
102
{ACAD_REACTORS
330
C
102
}
330
C
100
AcDbDictionary
281
     1
  0
ACDBDICTIONARYWDFLT
  5
E
102
{ACAD_REACTORS
330
C
102
}
330
C
100
AcDbDictionary
281
     1
  3
Normal
350
F
100
AcDbDictionaryWithDefault
340
F
  0
DICTIONARY
  5
47
102
{ACAD_REACTORS
330
C
102
}
330
C
100
AcDbDictionary
281
     1
  3
A0
350
48
  3
A1
350
49
  3
A2
350
4A
  3
A3
350
4B
  3
A4
350
4C
  3
A5
350
4D
  3
A6
350
4E
  3
A7
350
4F
  3
A8
350
50
  3
A9
350
51
  3
B0
350
52
  3
B1
350
53
  3
B2
350
54
  3
B3
350
55
  3
B4
350
56
  3
B5
350
57
  3
B6
350
58
  3
B7
350
59
  3
B8
350
5A
  3
B9
350
5B
  3
C0
350
5C
  3
C1
350
5D
  3
C2
350
5E
  3
C3
350
5F
  3
C4
350
60
  3
C5
350
61
  3
C6
350
62
  3
C7
350
63
  3
C8
350
64
  3
C9
350
65
  3
D0
350
66
  3
D1
350
67
  3
D2
350
68
  0
LAYOUT
  5
1E
102
{ACAD_REACTORS
330
1A
102
}
330
1A
100
AcDbPlotSettings
  1

  2
none_device
  4

  6

 40
0.0
 41
0.0
 42
0.0
 43
0.0
 44
0.0
 45
0.0
 46
0.0
 47
0.0
 48
0.0
 49
0.0
140
0.0
141
0.0
142
1.0
143
1.0
 70
   688
 72
     1
 73
     0
 74
     5
  7

 75
    16
147
1.0
148
0.0
149
0.0
100
AcDbLayout
  1
Layout1
 70
     1
 71
     1
 10
0.0
 20
0.0
 11
420.0
 21
297.0
 12
0.0
 22
0.0
 32
0.0
 14
1.0000000000E+20
 24
1.0000000000E+20
 34
1.0000000000E+20
 15
-1.0000000000E+20
 25
-1.0000000000E+20
 35
-1.0000000000E+20
146
0.0
 13
0.0
 23
0.0
 33
0.0
 16
1.0
 26
0.0
 36
0.0
 17
0.0
 27
1.0
 37
0.0
 76
     0
330
1B
  0
LAYOUT
  5
26
102
{ACAD_REACTORS
330
1A
102
}
330
1A
100
AcDbPlotSettings
  1

  2
none_device
  4

  6

 40
0.0
 41
0.0
 42
0.0
 43
0.0
 44
0.0
 45
0.0
 46
0.0
 47
0.0
 48
0.0
 49
0.0
140
0.0
141
0.0
142
1.0
143
1.0
 70
   688
 72
     1
 73
     0
 74
     5
  7

 75
    16
147
1.0
148
0.0
149
0.0
100
AcDbLayout
  1
Layout2
 70
     1
 71
     2
 10
0.0
 20
0.0
 11
0.0
 21
0.0
 12
0.0
 22
0.0
 32
0.0
 14
0.0
 24
0.0
 34
0.0
 15
0.0
 25
0.0
 35
0.0
146
0.0
 13
0.0
 23
0.0
 33
0.0
 16
1.0
 26
0.0
 36
0.0
 17
0.0
 27
1.0
 37
0.0
 76
     0
330
23
  0
LAYOUT
  5
22
102
{ACAD_REACTORS
330
1A
102
}
330
1A
100
AcDbPlotSettings
  1

  2
none_device
  4
Letter_(8.50_x_11.00_Inches)
  6

 40
6.35
 41
6.35
 42
6.35000508
 43
6.35000508
 44
215.9
 45
279.4
 46
0.0
 47
0.0
 48
0.0
 49
0.0
140
0.0
141
0.0
142
1.0
143
1.0
 70
  1712
 72
     1
 73
     0
 74
     0
  7

 75
     0
147
1.0
148
0.0
149
0.0
100
AcDbLayout
  1
Model
 70
     1
 71
     0
 10
0.0
 20
0.0
 11
297.0
 21
210.0
 12
0.0
 22
0.0
 32
0.0
 14
0.0
 24
0.0
 34
0.0
 15
297.0
 25
210.0
 35
0.0
146
0.0
 13
0.0
 23
0.0
 33
0.0
 16
1.0
 26
0.0
 36
0.0
 17
0.0
 27
1.0
 37
0.0
 76
     0
330
1F
331
29
  0
MLINESTYLE
  5
18
102
{ACAD_REACTORS
330
17
102
}
330
17
100
AcDbMlineStyle
  2
Standard
 70
     0
  3

 62
   256
 51
90.0
 52
90.0
 71
     2
 49
0.5
 62
   256
  6
BYLAYER
 49
-0.5
 62
   256
  6
BYLAYER
  0
ACDBPLACEHOLDER
  5
F
102
{ACAD_REACTORS
330
E
102
}
330
E
  0
SCALE
  5
48
102
{ACAD_REACTORS
330
47
102
}
330
47
100
AcDbScale
 70
     0
300
1:1
140
1.0
141
1.0
290
     1
  0
SCALE
  5
49
102
{ACAD_REACTORS
330
47
102
}
330
47
100
AcDbScale
 70
     0
300
1:2
140
1.0
141
2.0
290
     0
  0
SCALE
  5
4A
102
{ACAD_REACTORS
330
47
102
}
330
47
100
AcDbScale
 70
     0
300
1:4
140
1.0
141
4.0
290
     0
  0
SCALE
  5
4B
102
{ACAD_REACTORS
330
47
102
}
330
47
100
AcDbScale
 70
     0
300
1:5
140
1.0
141
5.0
290
     0
  0
SCALE
  5
4C
102
{ACAD_REACTORS
330
47
102
}
330
47
100
AcDbScale
 70
     0
300
1:8
140
1.0
141
8.0
290
     0
  0
SCALE
  5
4D
102
{ACAD_REACTORS
330
47
102
}
330
47
100
AcDbScale
 70
     0
300
1:10
140
1.0
141
10.0
290
     0
  0
SCALE
  5
4E
102
{ACAD_REACTORS
330
47
102
}
330
47
100
AcDbScale
 70
     0
300
1:16
140
1.0
141
16.0
290
     0
  0
SCALE
  5
4F
102
{ACAD_REACTORS
330
47
102
}
330
47
100
AcDbScale
 70
     0
300
1:20
140
1.0
141
20.0
290
     0
  0
SCALE
  5
50
102
{ACAD_REACTORS
330
47
102
}
330
47
100
AcDbScale
 70
     0
300
1:30
140
1.0
141
30.0
290
     0
  0
SCALE
  5
51
102
{ACAD_REACTORS
330
47
102
}
330
47
100
AcDbScale
 70
     0
300
1:40
140
1.0
141
40.0
290
     0
  0
SCALE
  5
52
102
{ACAD_REACTORS
330
47
102
}
330
47
100
AcDbScale
 70
     0
300
1:50
140
1.0
141
50.0
290
     0
  0
SCALE
  5
53
102
{ACAD_REACTORS
330
47
102
}
330
47
100
AcDbScale
 70
     0
300
1:100
140
1.0
141
100.0
290
     0
  0
SCALE
  5
54
102
{ACAD_REACTORS
330
47
102
}
330
47
100
AcDbScale
 70
     0
300
2:1
140
2.0
141
1.0
290
     0
  0
SCALE
  5
55
102
{ACAD_REACTORS
330
47
102
}
330
47
100
AcDbScale
 70
     0
300
4:1
140
4.0
141
1.0
290
     0
  0
SCALE
  5
56
102
{ACAD_REACTORS
330
47
102
}
330
47
100
AcDbScale
 70
     0
300
8:1
140
8.0
141
1.0
290
     0
  0
SCALE
  5
57
102
{ACAD_REACTORS
330
47
102
}
330
47
100
AcDbScale
 70
     0
300
10:1
140
10.0
141
1.0
290
     0
  0
SCALE
  5
58
102
{ACAD_REACTORS
330
47
102
}
330
47
100
AcDbScale
 70
     0
300
100:1
140
100.0
141
1.0
290
     0
  0
SCALE
  5
59
102
{ACAD_REACTORS
330
47
102
}
330
47
100
AcDbScale
 70
     0
300
1/128" = 1'-0"
140
0.0078125
141
12.0
290
     0
  0
SCALE
  5
5A
102
{ACAD_REACTORS
330
47
102
}
330
47
100
AcDbScale
 70
     0
300
1/64" = 1'-0"
140
0.015625
141
12.0
290
     0
  0
SCALE
  5
5B
102
{ACAD_REACTORS
330
47
102
}
330
47
100
AcDbScale
 70
     0
300
1/32" = 1'-0"
140
0.03125
141
12.0
290
     0
  0
SCALE
  5
5C
102
{ACAD_REACTORS
330
47
102
}
330
47
100
AcDbScale
 70
     0
300
1/16" = 1'-0"
140
0.0625
141
12.0
290
     0
  0
SCALE
  5
5D
102
{ACAD_REACTORS
330
47
102
}
330
47
100
AcDbScale
 70
     0
300
3/32" = 1'-0"
140
0.09375
141
12.0
290
     0
  0
SCALE
  5
5E
102
{ACAD_REACTORS
330
47
102
}
330
47
100
AcDbScale
 70
     0
300
1/8" = 1'-0"
140
0.125
141
12.0
290
     0
  0
SCALE
  5
5F
102
{ACAD_REACTORS
330
47
102
}
330
47
100
AcDbScale
 70
     0
300
3/16" = 1'-0"
140
0.1875
141
12.0
290
     0
  0
SCALE
  5
60
102
{ACAD_REACTORS
330
47
102
}
330
47
100
AcDbScale
 70
     0
300
1/4" = 1'-0"
140
0.25
141
12.0
290
     0
  0
SCALE
  5
61
102
{ACAD_REACTORS
330
47
102
}
330
47
100
AcDbScale
 70
     0
300
3/8" = 1'-0"
140
0.375
141
12.0
290
     0
  0
SCALE
  5
62
102
{ACAD_REACTORS
330
47
102
}
330
47
100
AcDbScale
 70
     0
300
1/2" = 1'-0"
140
0.5
141
12.0
290
     0
  0
SCALE
  5
63
102
{ACAD_REACTORS
330
47
102
}
330
47
100
AcDbScale
 70
     0
300
3/4" = 1'-0"
140
0.75
141
12.0
290
     0
  0
SCALE
  5
64
102
{ACAD_REACTORS
330
47
102
}
330
47
100
AcDbScale
 70
     0
300
1" = 1'-0"
140
1.0
141
12.0
290
     0
  0
SCALE
  5
65
102
{ACAD_REACTORS
330
47
102
}
330
47
100
AcDbScale
 70
     0
300
1-1/2" = 1'-0"
140
1.5
141
12.0
290
     0
  0
SCALE
  5
66
102
{ACAD_REACTORS
330
47
102
}
330
47
100
AcDbScale
 70
     0
300
3" = 1'-0"
140
3.0
141
12.0
290
     0
  0
SCALE
  5
67
102
{ACAD_REACTORS
330
47
102
}
330
47
100
AcDbScale
 70
     0
300
6" = 1'-0"
140
6.0
141
12.0
290
     0
  0
SCALE
  5
68
102
{ACAD_REACTORS
330
47
102
}
330
47
100
AcDbScale
 70
     0
300
1'-0" = 1'-0"
140
12.0
141
12.0
290
     0
  0
ENDSEC
  0
EOF
