  0
SECTION
  2
HEADER
  9
$ACADVER
  1
AC1015
  9
$ACADMAINTVER
 70
     6
  9
$DWGCODEPAGE
  3
ANSI_1252
  9
$INSBASE
 10
0.0
 20
0.0
 30
0.0
  9
$EXTMIN
 10
0.0
 20
0.0
 30
0.0
  9
$EXTMAX
 10
297.0
 20
210.0
 30
0.0
  9
$LIMMIN
 10
0.0
 20
0.0
  9
$LIMMAX
 10
297.0
 20
210.0
  9
$ORTHOMODE
 70
     0
  9
$REGENMODE
 70
     1
  9
$FILLMODE
 70
     1
  9
$QTEXTMODE
 70
     0
  9
$MIRRTEXT
 70
     1
  9
$LTSCALE
 40
1.0
  9
$ATTMODE
 70
     1
  9
$TEXTSIZE
 40
2.0
  9
$TRACEWID
 40
1.0
  9
$TEXTSTYLE
  7
Standard
  9
$CLAYER
  8
0
  9
$CELTYPE
  6
ByLayer
  9
$CECOLOR
 62
   256
  9
$CELTSCALE
 40
1.0
  9
$DISPSILH
 70
     0
  9
$DIMSCALE
 40
1.0
  9
$DIMASZ
 40
3.0
  9
$DIMEXO
 40
0.0
  9
$DIMDLI
 40
3.75
  9
$DIMRND
 40
0.0
  9
$DIMDLE
 40
0.0
  9
$DIMEXE
 40
1.0
  9
$DIMTP
 40
0.0
  9
$DIMTM
 40
0.0
  9
$DIMTXT
 40
2.0
  9
$DIMCEN
 40
2.5
  9
$DIMTSZ
 40
0.0
  9
$DIMTOL
 70
     0
  9
$DIMLIM
 70
     0
  9
$DIMTIH
 70
     1
  9
$DIMTOH
 70
     1
  9
$DIMSE1
 70
     0
  9
$DIMSE2
 70
     0
  9
$DIMTAD
 70
     1
  9
$DIMZIN
 70
     0
  9
$DIMBLK
  1

  9
$DIMASO
 70
     1
  9
$DIMSHO
 70
     1
  9
$DIMPOST
  1

  9
$DIMAPOST
  1

  9
$DIMALT
 70
     0
  9
$DIMALTD
 70
     3
  9
$DIMALTF
 40
0.0393700787
  9
$DIMLFAC
 40
1.0
  9
$DIMTOFL
 70
     1
  9
$DIMTVP
 40
0.0
  9
$DIMTIX
 70
     0
  9
$DIMSOXD
 70
     0
  9
$DIMSAH
 70
     0
  9
$DIMBLK1
  1

  9
$DIMBLK2
  1

  9
$DIMSTYLE
  2
ISO-25
  9
$DIMCLRD
 70
     0
  9
$DIMCLRE
 70
     0
  9
$DIMCLRT
 70
     0
  9
$DIMTFAC
 40
1.0
  9
$DIMGAP
 40
1.524
  9
$DIMJUST
 70
     0
  9
$DIMSD1
 70
     0
  9
$DIMSD2
 70
     0
  9
$DIMTOLJ
 70
     0
  9
$DIMTZIN
 70
     0
  9
$DIMALTZ
 70
     0
  9
$DIMALTTZ
 70
     0
  9
$DIMUPT
 70
     0
  9
$DIMDEC
 70
     2
  9
$DIMTDEC
 70
     3
  9
$DIMALTU
 70
     2
  9
$DIMALTTD
 70
     3
  9
$DIMTXSTY
  7
Standard
  9
$DIMAUNIT
 70
     0
  9
$DIMADEC
 70
     2
  9
$DIMALTRND
 40
0.0
  9
$DIMAZIN
 70
     0
  9
$DIMDSEP
 70
    44
  9
$DIMATFIT
 70
     3
  9
$DIMFRAC
 70
     0
  9
$DIMLDRBLK
  1

  9
$DIMLUNIT
 70
     2
  9
$DIMLWD
 70
    -2
  9
$DIMLWE
 70
    -2
  9
$DIMTMOVE
 70
     0
  9
$LUNITS
 70
     2
  9
$LUPREC
 70
     2
  9
$SKETCHINC
 40
1.0
  9
$FILLETRAD
 40
10.0
  9
$AUNITS
 70
     0
  9
$AUPREC
 70
     2
  9
$MENU
  1
.
  9
$ELEVATION
 40
0.0
  9
$PELEVATION
 40
0.0
  9
$THICKNESS
 40
0.0
  9
$LIMCHECK
 70
     0
  9
$CHAMFERA
 40
0.0
  9
$CHAMFERB
 40
0.0
  9
$CHAMFERC
 40
0.0
  9
$CHAMFERD
 40
0.0
  9
$SKPOLY
 70
     0
  9
$TDCREATE
 40
2457632.713972442
  9
$TDUCREATE
 40
2457632.630639109
  9
$TDUPDATE
 40
2457632.713973808
  9
$TDUUPDATE
 40
2457632.630640475
  9
$TDINDWG
 40
0.0000000116
  9
$TDUSRTIMER
 40
0.0000000116
  9
$USRTIMER
 70
     1
  9
$ANGBASE
 50
0.0
  9
$ANGDIR
 70
     0
  9
$PDMODE
 70
     0
  9
$PDSIZE
 40
-1.0
  9
$PLINEWID
 40
0.0
  9
$SPLFRAME
 70
     0
  9
$SPLINETYPE
 70
     6
  9
$SPLINESEGS
 70
     8
  9
$HANDSEED
  5
27E
  9
$SURFTAB1
 70
     6
  9
$SURFTAB2
 70
     6
  9
$SURFTYPE
 70
     6
  9
$SURFU
 70
     6
  9
$SURFV
 70
     6
  9
$UCSBASE
  2

  9
$UCSNAME
  2

  9
$UCSORG
 10
0.0
 20
0.0
 30
0.0
  9
$UCSXDIR
 10
1.0
 20
0.0
 30
0.0
  9
$UCSYDIR
 10
0.0
 20
1.0
 30
0.0
  9
$UCSORTHOREF
  2

  9
$UCSORTHOVIEW
 70
     0
  9
$UCSORGTOP
 10
0.0
 20
0.0
 30
0.0
  9
$UCSORGBOTTOM
 10
0.0
 20
0.0
 30
0.0
  9
$UCSORGLEFT
 10
0.0
 20
0.0
 30
0.0
  9
$UCSORGRIGHT
 10
0.0
 20
0.0
 30
0.0
  9
$UCSORGFRONT
 10
0.0
 20
0.0
 30
0.0
  9
$UCSORGBACK
 10
0.0
 20
0.0
 30
0.0
  9
$PUCSBASE
  2

  9
$PUCSNAME
  2

  9
$PUCSORG
 10
0.0
 20
0.0
 30
0.0
  9
$PUCSXDIR
 10
1.0
 20
0.0
 30
0.0
  9
$PUCSYDIR
 10
0.0
 20
1.0
 30
0.0
  9
$PUCSORTHOREF
  2

  9
$PUCSORTHOVIEW
 70
     0
  9
$PUCSORGTOP
 10
0.0
 20
0.0
 30
0.0
  9
$PUCSORGBOTTOM
 10
0.0
 20
0.0
 30
0.0
  9
$PUCSORGLEFT
 10
0.0
 20
0.0
 30
0.0
  9
$PUCSORGRIGHT
 10
0.0
 20
0.0
 30
0.0
  9
$PUCSORGFRONT
 10
0.0
 20
0.0
 30
0.0
  9
$PUCSORGBACK
 10
0.0
 20
0.0
 30
0.0
  9
$USERI1
 70
     0
  9
$USERI2
 70
     0
  9
$USERI3
 70
     0
  9
$USERI4
 70
     0
  9
$USERI5
 70
     0
  9
$USERR1
 40
0.0
  9
$USERR2
 40
0.0
  9
$USERR3
 40
0.0
  9
$USERR4
 40
0.0
  9
$USERR5
 40
0.0
  9
$WORLDVIEW
 70
     1
  9
$SHADEDGE
 70
     3
  9
$SHADEDIF
 70
    70
  9
$TILEMODE
 70
     1
  9
$MAXACTVP
 70
    64
  9
$PINSBASE
 10
0.0
 20
0.0
 30
0.0
  9
$PLIMCHECK
 70
     0
  9
$PEXTMIN
 10
1.0000000000E+20
 20
1.0000000000E+20
 30
1.0000000000E+20
  9
$PEXTMAX
 10
-1.0000000000E+20
 20
-1.0000000000E+20
 30
-1.0000000000E+20
  9
$PLIMMIN
 10
0.0
 20
0.0
  9
$PLIMMAX
 10
420.0
 20
297.0
  9
$UNITMODE
 70
     0
  9
$VISRETAIN
 70
     1
  9
$PLINEGEN
 70
     0
  9
$PSLTSCALE
 70
     1
  9
$TREEDEPTH
 70
  3020
  9
$CMLSTYLE
  2
Standard
  9
$CMLJUST
 70
     0
  9
$CMLSCALE
 40
20.0
  9
$PROXYGRAPHICS
 70
     1
  9
$MEASUREMENT
 70
     1
  9
$CELWEIGHT
370
    -1
  9
$ENDCAPS
280
     0
  9
$JOINSTYLE
280
     0
  9
$LWDISPLAY
290
     1
  9
$INSUNITS
 70
     4
  9
$HYPERLINKBASE
  1

  9
$STYLESHEET
  1

  9
$XEDIT
290
     1
  9
$CEPSNTYPE
380
     0
  9
$PSTYLEMODE
290
     1
  9
$FINGERPRINTGUID
  2
{FB5EF14D-26D6-41A3-936C-C3AAA3D57CEE}
  9
$VERSIONGUID
  2
{FAEB1C32-E019-11D5-929B-00C0DF256EC4}
  9
$EXTNAMES
290
     1
  9
$PSVPSCALE
 40
0.0
  9
$OLESTARTUP
290
     0
  0
ENDSEC
  0
SECTION
  2
CLASSES
  0
CLASS
  1
ACDBDICTIONARYWDFLT
  2
AcDbDictionaryWithDefault
  3
ObjectDBX Classes
 90
        0
280
     0
281
     0
  0
CLASS
  1
VISUALSTYLE
  2
AcDbVisualStyle
  3
ObjectDBX Classes
 90
     4095
280
     0
281
     0
  0
CLASS
  1
MATERIAL
  2
AcDbMaterial
  3
ObjectDBX Classes
 90
     1153
280
     0
281
     0
  0
CLASS
  1
SCALE
  2
AcDbScale
  3
ObjectDBX Classes
 90
     1153
280
     0
281
     0
  0
CLASS
  1
TABLESTYLE
  2
AcDbTableStyle
  3
ObjectDBX Classes
 90
     4095
280
     0
281
     0
  0
CLASS
  1
MLEADERSTYLE
  2
AcDbMLeaderStyle
  3
ACDB_MLEADERSTYLE_CLASS
 90
     4095
280
     0
281
     0
  0
CLASS
  1
SUN
  2
AcDbSun
  3
SCENEOE
 90
     1153
280
     0
281
     0
  0
CLASS
  1
ACDBPLACEHOLDER
  2
AcDbPlaceHolder
  3
ObjectDBX Classes
 90
        0
280
     0
281
     0
  0
CLASS
  1
LAYOUT
  2
AcDbLayout
  3
ObjectDBX Classes
 90
        0
280
     0
281
     0
  0
ENDSEC
  0
SECTION
  2
TABLES
  0
TABLE
  2
VPORT
  5
8
330
0
100
AcDbSymbolTable
 70
     1
  0
VPORT
  5
29
330
8
100
AcDbSymbolTableRecord
100
AcDbViewportTableRecord
  2
*Active
 70
     0
 10
0.0
 20
0.0
 11
1.0
 21
1.0
 12
148.5
 22
105.0
 13
0.0
 23
0.0
 14
10.0
 24
10.0
 15
10.0
 25
10.0
 16
0.0
 26
0.0
 36
1.0
 17
0.0
 27
0.0
 37
0.0
 40
210.0
 41
1.4142857143
 42
50.0
 43
0.0
 44
0.0
 50
0.0
 51
0.0
 71
     0
 72
  2000
 73
     1
 74
     3
 75
     0
 76
     0
 77
     0
 78
     0
281
     0
 65
     1
110
0.0
120
0.0
130
0.0
111
1.0
121
0.0
131
0.0
112
0.0
122
1.0
132
0.0
 79
     0
146
0.0
  0
ENDTAB
  0
TABLE
  2
LTYPE
  5
5
330
0
100
AcDbSymbolTable
 70
     6
  0
LTYPE
  5
14
330
5
100
AcDbSymbolTableRecord
100
AcDbLinetypeTableRecord
  2
ByBlock
 70
     0
  3

 72
    65
 73
     0
 40
0.0
  0
LTYPE
  5
15
330
5
100
AcDbSymbolTableRecord
100
AcDbLinetypeTableRecord
  2
ByLayer
 70
     0
  3

 72
    65
 73
     0
 40
0.0
  0
LTYPE
  5
16
330
5
100
AcDbSymbolTableRecord
100
AcDbLinetypeTableRecord
  2
Continuous
 70
     0
  3
Solid line
 72
    65
 73
     0
 40
0.0
  0
LTYPE
  5
6E
330
5
100
AcDbSymbolTableRecord
100
AcDbLinetypeTableRecord
  2
HIDDEN
 70
     0
  3
Hidden __ __ __ __ __ __ __ __ __ __ __ __ __ __
 72
    65
 73
     2
 40
1.905
 49
1.27
 74
     0
 49
-0.635
 74
     0
  0
LTYPE
  5
6F
330
5
100
AcDbSymbolTableRecord
100
AcDbLinetypeTableRecord
  2
PHANTOM
 70
     0
  3
Phantom ______  __  __  ______  __  __  ______
 72
    65
 73
     6
 40
12.7
 49
6.35
 74
     0
 49
-1.27
 74
     0
 49
1.27
 74
     0
 49
-1.27
 74
     0
 49
1.27
 74
     0
 49
-1.27
 74
     0
  0
LTYPE
  5
70
330
5
100
AcDbSymbolTableRecord
100
AcDbLinetypeTableRecord
  2
CENTER
 70
     0
  3
Center ____ _ ____ _ ____ _ ____ _ ____ _ ____
 72
    65
 73
     4
 40
10.16
 49
6.35
 74
     0
 49
-1.27
 74
     0
 49
1.27
 74
     0
 49
-1.27
 74
     0
  0
LTYPE
  5
71
330
5
100
AcDbSymbolTableRecord
100
AcDbLinetypeTableRecord
  2
CENTERX2
 70
     0
  3
Center (2x) ________  __  ________  __  _____
 72
    65
 73
     4
 40
20.32
 49
12.7
 74
     0
 49
-2.54
 74
     0
 49
2.54
 74
     0
 49
-2.54
 74
     0
  0
LTYPE
  5
72
330
5
100
AcDbSymbolTableRecord
100
AcDbLinetypeTableRecord
  2
DOT2
 70
     0
  3
Dot (.5x) ........................................
 72
    65
 73
     2
 40
0.635
 49
0.0
 74
     0
 49
-0.635
 74
     0
  0
ENDTAB
  0
TABLE
  2
LAYER
  5
2
330
0
100
AcDbSymbolTable
 70
     5
  0
LAYER
  5
10
330
2
100
AcDbSymbolTableRecord
100
AcDbLayerTableRecord
  2
0
 70
     0
 62
     7
  6
Continuous
370
    -3
390
F
  0
LAYER
  5
73
330
2
100
AcDbSymbolTableRecord
100
AcDbLayerTableRecord
  2
FORMAT
 70
     0
 62
     7
  6
Continuous
370
    -3
390
F
  0
LAYER
  5
74
330
2
100
AcDbSymbolTableRecord
100
AcDbLayerTableRecord
  2
VERMASSUNG
 70
     0
 62
     7
  6
Continuous
370
    -3
390
F
  0
LAYER
  5
75
330
2
100
AcDbSymbolTableRecord
100
AcDbLayerTableRecord
  2
KOPF_DÜNN
 70
     0
 62
     7
  6
Continuous
370
    -3
390
F
  0
LAYER
  5
76
330
2
100
AcDbSymbolTableRecord
100
AcDbLayerTableRecord
  2
KOPF_DICK
 70
     0
 62
     7
  6
Continuous
370
    15
390
F
  0
ENDTAB
  0
TABLE
  2
STYLE
  5
3
330
0
100
AcDbSymbolTable
 70
     3
  0
STYLE
  5
11
330
3
100
AcDbSymbolTableRecord
100
AcDbTextStyleTableRecord
  2
Standard
 70
     0
 40
0.0
 41
1.0
 50
0.0
 71
     0
 42
2.0
  3
txt
  4

  0
STYLE
  5
77
330
3
100
AcDbSymbolTableRecord
100
AcDbTextStyleTableRecord
  2
SLDTEXTSTYLE0
 70
     0
 40
0.0
 41
0.7
 50
0.0
 71
     0
 42
2.0
  3
TXT
  4

  0
STYLE
  5
7B
330
3
100
AcDbSymbolTableRecord
100
AcDbTextStyleTableRecord
  2
SLDTEXTSTYLE1
 70
     0
 40
0.0
 41
0.6411764706
 50
0.0
 71
     0
 42
2.0
  3
TXT
  4

  0
ENDTAB
  0
TABLE
  2
VIEW
  5
6
330
0
100
AcDbSymbolTable
 70
     0
  0
ENDTAB
  0
TABLE
  2
UCS
  5
7
330
0
100
AcDbSymbolTable
 70
     0
  0
ENDTAB
  0
TABLE
  2
APPID
  5
9
330
0
100
AcDbSymbolTable
 70
     1
  0
APPID
  5
12
330
9
100
AcDbSymbolTableRecord
100
AcDbRegAppTableRecord
  2
ACAD
 70
     0
  0
ENDTAB
  0
TABLE
  2
DIMSTYLE
  5
A
330
0
100
AcDbSymbolTable
 70
     2
100
AcDbDimStyleTable
  0
DIMSTYLE
105
27
330
A
100
AcDbSymbolTableRecord
100
AcDbDimStyleTableRecord
  2
ISO-25
 70
     0
 41
2.5
 42
0.625
 43
3.75
 44
1.25
 73
     0
 74
     0
 77
     1
 78
     8
140
2.5
141
2.5
143
0.0393700787
147
0.625
171
     3
172
     1
178
     0
271
     2
272
     2
274
     3
278
    44
283
     0
284
     8
340
11
  0
DIMSTYLE
105
174
102
{ACAD_REACTORS
330
173
330
180
330
18A
330
194
330
19E
102
}
330
A
100
AcDbSymbolTableRecord
100
AcDbDimStyleTableRecord
  2
SLDDIMSTYLE0
 70
     0
 41
3.0
 44
0.0
 45
0.000000001
 73
     0
 74
     0
 77
     1
 78
    12
 79
     3
140
2.0
147
0.5
173
     1
178
     0
271
     2
272
     3
276
     2
284
    12
340
77
  0
ENDTAB
  0
TABLE
  2
BLOCK_RECORD
  5
1
330
0
100
AcDbSymbolTable
 70
     6
  0
BLOCK_RECORD
  5
1F
330
1
100
AcDbSymbolTableRecord
100
AcDbBlockTableRecord
  2
*Model_Space
340
22
  0
BLOCK_RECORD
  5
1B
330
1
100
AcDbSymbolTableRecord
100
AcDbBlockTableRecord
  2
*Paper_Space
340
1E
  0
BLOCK_RECORD
  5
23
330
1
100
AcDbSymbolTableRecord
100
AcDbBlockTableRecord
  2
*Paper_Space0
340
26
  0
BLOCK_RECORD
  5
175
330
1
100
AcDbSymbolTableRecord
100
AcDbBlockTableRecord
  2
_D
340
0
  0
BLOCK_RECORD
  5
181
330
1
100
AcDbSymbolTableRecord
100
AcDbBlockTableRecord
  2
_D_1
340
0
  0
BLOCK_RECORD
  5
18B
330
1
100
AcDbSymbolTableRecord
100
AcDbBlockTableRecord
  2
_D_2
340
0
  0
BLOCK_RECORD
  5
195
330
1
100
AcDbSymbolTableRecord
100
AcDbBlockTableRecord
  2
_D_3
340
0
  0
BLOCK_RECORD
  5
19F
330
1
100
AcDbSymbolTableRecord
100
AcDbBlockTableRecord
  2
_D_4
340
0
  0
ENDTAB
  0
ENDSEC
  0
SECTION
  2
BLOCKS
  0
BLOCK
  5
20
330
1F
100
AcDbEntity
  8
0
100
AcDbBlockBegin
  2
*Model_Space
 70
     0
 10
0.0
 20
0.0
 30
0.0
  3
*Model_Space
  1

  0
ENDBLK
  5
21
330
1F
100
AcDbEntity
  8
0
100
AcDbBlockEnd
  0
BLOCK
  5
1C
330
1B
100
AcDbEntity
 67
     1
  8
0
100
AcDbBlockBegin
  2
*Paper_Space
 70
     0
 10
0.0
 20
0.0
 30
0.0
  3
*Paper_Space
  1

  0
ENDBLK
  5
1D
330
1B
100
AcDbEntity
 67
     1
  8
0
100
AcDbBlockEnd
  0
BLOCK
  5
24
330
23
100
AcDbEntity
  8
0
100
AcDbBlockBegin
  2
*Paper_Space0
 70
     0
 10
0.0
 20
0.0
 30
0.0
  3
*Paper_Space0
  1

  0
ENDBLK
  5
25
330
23
100
AcDbEntity
  8
0
100
AcDbBlockEnd
  0
BLOCK
  5
176
330
175
100
AcDbEntity
  8
0
100
AcDbBlockBegin
  2
_D
 70
     0
 10
0.0
 20
0.0
 30
0.0
  3
_D
  1

  0
SOLID
  5
178
330
175
100
AcDbEntity
  8
VERMASSUNG
100
AcDbTrace
 10
89.7159548255
 20
151.5315605749
 30
0.0
 11
89.2659548255
 21
148.5315605749
 31
0.0
 12
90.1659548255
 22
148.5315605749
 32
0.0
 13
90.1659548255
 23
148.5315605749
 33
0.0
  0
SOLID
  5
179
330
175
100
AcDbEntity
  8
VERMASSUNG
100
AcDbTrace
 10
89.7159548255
 20
71.5315605749
 30
0.0
 11
90.1659548255
 21
74.5315605749
 31
0.0
 12
89.2659548255
 22
74.5315605749
 32
0.0
 13
89.2659548255
 23
74.5315605749
 33
0.0
  0
LINE
  5
17A
330
175
100
AcDbEntity
  8
VERMASSUNG
100
AcDbLine
 10
135.6625462012
 20
151.5315605749
 30
0.0
 11
88.7159548255
 21
151.5315605749
 31
0.0
  0
LINE
  5
17B
330
175
100
AcDbEntity
  8
VERMASSUNG
100
AcDbLine
 10
135.6625462012
 20
71.5315605749
 30
0.0
 11
88.7159548255
 21
71.5315605749
 31
0.0
  0
LINE
  5
17C
330
175
100
AcDbEntity
  8
VERMASSUNG
100
AcDbLine
 10
89.7159548255
 20
151.5315605749
 30
0.0
 11
89.7159548255
 21
71.5315605749
 31
0.0
  0
MTEXT
  5
17D
330
175
100
AcDbEntity
  8
VERMASSUNG
100
AcDbMText
 10
86.9378195692
 20
103.8271990919
 30
0.0
 40
2.0
 41
0.0
 71
     1
 72
     1
  1
HSK A
  7
SLDTEXTSTYLE0
 11
-7.044195017643634E-15
 21
1.0
 31
0.0
 73
     1
 44
1.0
  0
MTEXT
  5
17E
330
175
100
AcDbEntity
  8
VERMASSUNG
100
AcDbMText
 10
87.1378195205
 20
112.8271987045
 30
0.0
 40
2.0
 41
0.0
 71
     1
 72
     1
  1
%%c
  7
SLDTEXTSTYLE0
 11
-7.044195017643634E-15
 21
1.0
 31
0.0
 73
     1
 44
1.0
  0
MTEXT
  5
17F
330
175
100
AcDbEntity
  8
VERMASSUNG
100
AcDbMText
 10
87.1378192295
 20
116.4365420374
 30
0.0
 40
2.0
 41
0.0
 71
     1
 72
     1
  1
80
  7
SLDTEXTSTYLE0
 11
-7.044195017643634E-15
 21
1.0
 31
0.0
 73
     1
 44
1.0
  0
ENDBLK
  5
177
330
175
100
AcDbEntity
  8
0
100
AcDbBlockEnd
  0
BLOCK
  5
182
330
181
100
AcDbEntity
  8
0
100
AcDbBlockBegin
  2
_D_1
 70
     0
 10
0.0
 20
0.0
 30
0.0
  3
_D_1
  1

  0
SOLID
  5
184
330
181
100
AcDbEntity
  8
VERMASSUNG
100
AcDbTrace
 10
95.2625462012
 20
165.8955668709
 30
0.0
 11
98.2625462012
 21
165.4455668709
 31
0.0
 12
98.2625462012
 22
166.3455668709
 32
0.0
 13
98.2625462012
 23
166.3455668709
 33
0.0
  0
SOLID
  5
185
330
181
100
AcDbEntity
  8
VERMASSUNG
100
AcDbTrace
 10
191.1625462012
 20
165.8955668709
 30
0.0
 11
188.1625462012
 21
166.3455668709
 31
0.0
 12
188.1625462012
 22
165.4455668709
 32
0.0
 13
188.1625462012
 23
165.4455668709
 33
0.0
  0
LINE
  5
186
330
181
100
AcDbEntity
  8
VERMASSUNG
100
AcDbLine
 10
95.2625462012
 20
135.6984390106
 30
0.0
 11
95.2625462012
 21
166.8955668709
 31
0.0
  0
LINE
  5
187
330
181
100
AcDbEntity
  8
VERMASSUNG
100
AcDbLine
 10
191.1625462012
 20
132.1315605749
 30
0.0
 11
191.1625462012
 21
166.8955668709
 31
0.0
  0
LINE
  5
188
330
181
100
AcDbEntity
  8
VERMASSUNG
100
AcDbLine
 10
95.2625462012
 20
165.8955668709
 30
0.0
 11
191.1625462012
 21
165.8955668709
 31
0.0
  0
MTEXT
  5
189
330
181
100
AcDbEntity
  8
VERMASSUNG
100
AcDbMText
 10
140.8135503207
 20
168.4737024668
 30
0.0
 40
2.0
 41
0.0
 71
     1
 72
     1
  1
95.9
  7
SLDTEXTSTYLE0
 73
     1
 44
1.0
  0
ENDBLK
  5
183
330
181
100
AcDbEntity
  8
0
100
AcDbBlockEnd
  0
BLOCK
  5
18C
330
18B
100
AcDbEntity
  8
0
100
AcDbBlockBegin
  2
_D_2
 70
     0
 10
0.0
 20
0.0
 30
0.0
  3
_D_2
  1

  0
SOLID
  5
18E
330
18B
100
AcDbEntity
  8
VERMASSUNG
100
AcDbTrace
 10
135.1625462012
 20
159.8955668709
 30
0.0
 11
138.1625462012
 21
159.4455668709
 31
0.0
 12
138.1625462012
 22
160.3455668709
 32
0.0
 13
138.1625462012
 23
160.3455668709
 33
0.0
  0
SOLID
  5
18F
330
18B
100
AcDbEntity
  8
VERMASSUNG
100
AcDbTrace
 10
191.1625462012
 20
159.8955668709
 30
0.0
 11
188.1625462012
 21
160.3455668709
 31
0.0
 12
188.1625462012
 22
159.4455668709
 32
0.0
 13
188.1625462012
 23
159.4455668709
 33
0.0
  0
LINE
  5
190
330
18B
100
AcDbEntity
  8
VERMASSUNG
100
AcDbLine
 10
135.1625462012
 20
151.0315605749
 30
0.0
 11
135.1625462012
 21
160.8955668709
 31
0.0
  0
LINE
  5
191
330
18B
100
AcDbEntity
  8
VERMASSUNG
100
AcDbLine
 10
191.1625462012
 20
132.1315605749
 30
0.0
 11
191.1625462012
 21
160.8955668709
 31
0.0
  0
LINE
  5
192
330
18B
100
AcDbEntity
  8
VERMASSUNG
100
AcDbLine
 10
135.1625462012
 20
159.8955668709
 30
0.0
 11
191.1625462012
 21
159.8955668709
 31
0.0
  0
MTEXT
  5
193
330
18B
100
AcDbEntity
  8
VERMASSUNG
100
AcDbMText
 10
161.7628561909
 20
162.4737024668
 30
0.0
 40
2.0
 41
0.0
 71
     1
 72
     1
  1
56
  7
SLDTEXTSTYLE0
 73
     1
 44
1.0
  0
ENDBLK
  5
18D
330
18B
100
AcDbEntity
  8
0
100
AcDbBlockEnd
  0
BLOCK
  5
196
330
195
100
AcDbEntity
  8
0
100
AcDbBlockBegin
  2
_D_3
 70
     0
 10
0.0
 20
0.0
 30
0.0
  3
_D_3
  1

  0
SOLID
  5
198
330
195
100
AcDbEntity
  8
VERMASSUNG
100
AcDbTrace
 10
161.1125462012
 20
153.8955668709
 30
0.0
 11
164.1125462012
 21
153.4455668709
 31
0.0
 12
164.1125462012
 22
154.3455668709
 32
0.0
 13
164.1125462012
 23
154.3455668709
 33
0.0
  0
SOLID
  5
199
330
195
100
AcDbEntity
  8
VERMASSUNG
100
AcDbTrace
 10
191.1625462012
 20
153.8955668709
 30
0.0
 11
188.1625462012
 21
154.3455668709
 31
0.0
 12
188.1625462012
 22
153.4455668709
 32
0.0
 13
188.1625462012
 23
153.4455668709
 33
0.0
  0
LINE
  5
19A
330
195
100
AcDbEntity
  8
VERMASSUNG
100
AcDbLine
 10
161.1125462012
 20
149.478892497
 30
0.0
 11
161.1125462012
 21
154.8955668709
 31
0.0
  0
LINE
  5
19B
330
195
100
AcDbEntity
  8
VERMASSUNG
100
AcDbLine
 10
191.1625462012
 20
132.1315605749
 30
0.0
 11
191.1625462012
 21
154.8955668709
 31
0.0
  0
LINE
  5
19C
330
195
100
AcDbEntity
  8
VERMASSUNG
100
AcDbLine
 10
161.1125462012
 20
153.8955668709
 30
0.0
 11
191.1625462012
 21
153.8955668709
 31
0.0
  0
MTEXT
  5
19D
330
195
100
AcDbEntity
  8
VERMASSUNG
100
AcDbMText
 10
173.0381538222
 20
156.4737024668
 30
0.0
 40
2.0
 41
0.0
 71
     1
 72
     1
  1
30.05
  7
SLDTEXTSTYLE0
 73
     1
 44
1.0
  0
ENDBLK
  5
197
330
195
100
AcDbEntity
  8
0
100
AcDbBlockEnd
  0
BLOCK
  5
1A0
330
19F
100
AcDbEntity
  8
0
100
AcDbBlockBegin
  2
_D_4
 70
     0
 10
0.0
 20
0.0
 30
0.0
  3
_D_4
  1

  0
SOLID
  5
1A2
330
19F
100
AcDbEntity
  8
VERMASSUNG
100
AcDbTrace
 10
199.1973511294
 20
132.5315605749
 30
0.0
 11
198.7473511294
 21
129.5315605749
 31
0.0
 12
199.6473511294
 22
129.5315605749
 32
0.0
 13
199.6473511294
 23
129.5315605749
 33
0.0
  0
SOLID
  5
1A3
330
19F
100
AcDbEntity
  8
VERMASSUNG
100
AcDbTrace
 10
199.1973511294
 20
90.5315605749
 30
0.0
 11
199.6473511294
 21
93.5315605749
 31
0.0
 12
198.7473511294
 22
93.5315605749
 32
0.0
 13
198.7473511294
 23
93.5315605749
 33
0.0
  0
LINE
  5
1A4
330
19F
100
AcDbEntity
  8
VERMASSUNG
100
AcDbLine
 10
190.7625462012
 20
132.5315605749
 30
0.0
 11
200.1973511294
 21
132.5315605749
 31
0.0
  0
LINE
  5
1A5
330
19F
100
AcDbEntity
  8
VERMASSUNG
100
AcDbLine
 10
190.7625462012
 20
90.5315605749
 30
0.0
 11
200.1973511294
 21
90.5315605749
 31
0.0
  0
LINE
  5
1A6
330
19F
100
AcDbEntity
  8
VERMASSUNG
100
AcDbLine
 10
199.1973511294
 20
132.5315605749
 30
0.0
 11
199.1973511294
 21
90.5315605749
 31
0.0
  0
MTEXT
  5
1A7
330
19F
100
AcDbEntity
  8
VERMASSUNG
100
AcDbMText
 10
196.4192158732
 20
105.0265611013
 30
0.0
 40
2.0
 41
0.0
 71
     1
 72
     1
  1
MBM
  7
SLDTEXTSTYLE0
 11
-7.044195017643634E-15
 21
1.0
 31
0.0
 73
     1
 44
1.0
  0
MTEXT
  5
1A8
330
19F
100
AcDbEntity
  8
VERMASSUNG
100
AcDbMText
 10
196.6192158244
 20
111.4265609396
 30
0.0
 40
2.0
 41
0.0
 71
     1
 72
     1
  1
%%c
  7
SLDTEXTSTYLE0
 11
-7.044195017643634E-15
 21
1.0
 31
0.0
 73
     1
 44
1.0
  0
MTEXT
  5
1A9
330
19F
100
AcDbEntity
  8
VERMASSUNG
100
AcDbMText
 10
196.4192158732
 20
115.0365614195
 30
0.0
 40
2.0
 41
0.0
 71
     1
 72
     1
  1
42
  7
SLDTEXTSTYLE0
 11
-7.044195017643634E-15
 21
1.0
 31
0.0
 73
     1
 44
1.0
  0
ENDBLK
  5
1A1
330
19F
100
AcDbEntity
  8
0
100
AcDbBlockEnd
  0
ENDSEC
  0
SECTION
  2
ENTITIES
  0
MTEXT
  5
78
330
1F
100
AcDbEntity
  8
KOPF_DÜNN
100
AcDbMText
 10
13.8892156294
 20
23.8442973028
 30
0.0
 40
3.0
 41
0.0
 71
     1
 72
     1
  1
102.080.421
  7
SLDTEXTSTYLE0
 73
     1
 44
1.0
  0
MTEXT
  5
79
330
1F
100
AcDbEntity
  8
VERMASSUNG
100
AcDbMText
 10
13.9329988022
 20
28.8834360957
 30
0.0
 40
3.0
 41
0.0
 71
     1
 72
     1
  1
Aufnahme_Master shank MBM 42
  7
SLDTEXTSTYLE0
 73
     1
 44
1.0
  0
MTEXT
  5
7A
330
1F
100
AcDbEntity
  8
VERMASSUNG
100
AcDbMText
 10
98.8601118557
 20
13.8365368761
 30
0.0
 40
2.0
 41
0.0
 71
     1
 72
     1
  1
Datum: 20.11.2007
  7
SLDTEXTSTYLE0
 73
     1
 44
1.0
  0
MTEXT
  5
7C
330
1F
100
AcDbEntity
  8
VERMASSUNG
100
AcDbMText
 10
13.933048693
 20
18.0482802738
 30
0.0
 40
2.0
 41
0.0
 71
     1
 72
     1
  1
HSK A 80 / MBM 42
  7
SLDTEXTSTYLE1
 73
     1
 44
1.0
  0
MTEXT
  5
7D
330
1F
100
AcDbEntity
  8
VERMASSUNG
100
AcDbMText
 10
13.9808475933
 20
13.9090974274
 30
0.0
 40
2.0
 41
0.0
 71
     1
 72
     1
  1
Gewicht: 1302g
  7
SLDTEXTSTYLE0
 73
     1
 44
1.0
  0
ARC
  5
7E
330
1F
100
AcDbEntity
  8
0
  6
Continuous
 62
     7
370
    15
100
AcDbCircle
 10
135.6625462012
 20
72.0315605749
 30
0.0
 40
0.5
100
AcDbArc
 50
180.0
 51
270.0
  0
ARC
  5
7F
330
1F
100
AcDbEntity
  8
0
  6
Continuous
 62
     7
370
    15
100
AcDbCircle
 10
135.6625462012
 20
151.0315605749
 30
0.0
 40
0.5
100
AcDbArc
 50
90.0
 51
180.0
  0
LINE
  5
80
330
1F
100
AcDbEntity
  8
0
  6
Continuous
 62
     7
370
    15
100
AcDbLine
 10
135.6625462012
 20
71.5315605749
 30
0.0
 11
139.1125462012
 21
71.5315605749
 31
0.0
  0
LINE
  5
81
330
1F
100
AcDbEntity
  8
0
  6
Continuous
 62
     7
370
    15
100
AcDbLine
 10
139.1436006189
 20
151.5315605749
 30
0.0
 11
135.6625462012
 21
151.5315605749
 31
0.0
  0
ARC
  5
82
330
1F
100
AcDbEntity
  8
0
  6
Continuous
 62
     7
370
    15
100
AcDbCircle
 10
134.2656092828
 20
80.5037756513
 30
0.0
 40
0.9962338214386983
100
AcDbArc
 50
25.7988228126
 51
90.0
  0
ARC
  5
83
330
1F
100
AcDbEntity
  8
0
  6
Continuous
 62
     7
370
    15
100
AcDbCircle
 10
134.2656092828
 20
142.5593454986
 30
0.0
 40
0.9962338214387216
100
AcDbArc
 50
270.0
 51
334.2011771874
  0
LINE
  5
84
330
1F
100
AcDbEntity
  8
0
  6
Continuous
 62
     7
370
    15
100
AcDbLine
 10
118.4236815442
 20
141.0997417044
 30
0.0
 11
103.3625462012
 21
140.3451758054
 31
0.0
  0
LINE
  5
85
330
1F
100
AcDbEntity
  8
0
  6
Continuous
 62
     7
370
    15
100
AcDbLine
 10
132.6625462012
 20
141.8131116772
 30
0.0
 11
127.852524623
 21
141.5721286322
 31
0.0
  0
LINE
  5
86
330
1F
100
AcDbEntity
  8
0
  6
Continuous
 62
     7
370
    15
100
AcDbLine
 10
127.8525659995
 20
81.4909904448
 30
0.0
 11
132.6625462012
 21
81.2500094727
 31
0.0
  0
LINE
  5
87
330
1F
100
AcDbEntity
  8
0
  6
Continuous
 62
     7
370
    15
100
AcDbLine
 10
107.3625462012
 20
82.5175445429
 30
0.0
 11
118.4241065507
 21
81.9633581526
 31
0.0
  0
LINE
  5
88
330
1F
100
AcDbEntity
  8
0
  6
Continuous
 62
     7
370
    15
100
AcDbLine
 10
132.6625462012
 20
81.2500094727
 30
0.0
 11
133.4683923556
 21
81.465935299
 31
0.0
  0
LINE
  5
89
330
1F
100
AcDbEntity
  8
0
  6
Continuous
 62
     7
370
    15
100
AcDbLine
 10
133.4683923556
 20
141.5971858509
 30
0.0
 11
132.6625462012
 21
141.8131116772
 31
0.0
  0
ARC
  5
8A
330
1F
100
AcDbEntity
  8
0
  6
Continuous
 62
     7
370
    15
100
AcDbCircle
 10
133.7272114007
 20
80.5000094727
 30
0.0
 40
1.000000000000003
100
AcDbArc
 50
90.0
 51
105.0
  0
ARC
  5
8B
330
1F
100
AcDbEntity
  8
0
  6
Continuous
 62
     7
370
    15
100
AcDbCircle
 10
133.7272114007
 20
142.5631116772
 30
0.0
 40
1.000000000000003
100
AcDbArc
 50
255.0
 51
270.0
  0
LINE
  5
8C
330
1F
100
AcDbEntity
  8
0
  6
Continuous
 62
     7
370
    15
100
AcDbLine
 10
133.7272114007
 20
81.5000094727
 30
0.0
 11
134.2656092828
 21
81.5000094727
 31
0.0
  0
LINE
  5
8D
330
1F
100
AcDbEntity
  8
0
  6
Continuous
 62
     7
370
    15
100
AcDbLine
 10
134.2656092828
 20
141.5631116772
 30
0.0
 11
133.7272114007
 21
141.5631116772
 31
0.0
  0
ARC
  5
8E
330
1F
100
AcDbEntity
  8
0
  6
Continuous
 62
     7
370
    15
100
AcDbCircle
 10
165.1125462012
 20
86.5315605749
 30
0.0
 40
4.0
100
AcDbArc
 50
90.0
 51
180.0
  0
ARC
  5
8F
330
1F
100
AcDbEntity
  8
0
  6
Continuous
 62
     7
370
    15
100
AcDbCircle
 10
165.1125462012
 20
136.5315605749
 30
0.0
 40
4.0
100
AcDbArc
 50
180.0
 51
270.0
  0
LINE
  5
90
330
1F
100
AcDbEntity
  8
0
  6
Continuous
 62
     7
370
    15
100
AcDbLine
 10
165.1125462012
 20
90.5315605749
 30
0.0
 11
190.7625462012
 21
90.5315605749
 31
0.0
  0
LINE
  5
91
330
1F
100
AcDbEntity
  8
0
  6
Continuous
 62
     7
370
    15
100
AcDbLine
 10
190.7625462012
 20
132.5315605749
 30
0.0
 11
165.1125462012
 21
132.5315605749
 31
0.0
  0
LINE
  5
92
330
1F
100
AcDbEntity
  8
0
  6
Continuous
 62
     7
370
    15
100
AcDbLine
 10
190.7625462012
 20
90.5315605749
 30
0.0
 11
191.1625462012
 21
90.9315605749
 31
0.0
  0
LINE
  5
93
330
1F
100
AcDbEntity
  8
0
  6
Continuous
 62
     7
370
    15
100
AcDbLine
 10
191.1625462012
 20
132.1315605749
 30
0.0
 11
190.7625462012
 21
132.5315605749
 31
0.0
  0
LINE
  5
94
330
1F
100
AcDbEntity
  8
0
  6
Continuous
 62
     7
370
    15
100
AcDbLine
 10
96.9125462012
 20
85.7115605749
 30
0.0
 11
105.4625462012
 21
85.7115605749
 31
0.0
  0
ARC
  5
95
330
1F
100
AcDbEntity
  8
0
  6
Continuous
 62
     7
370
    15
100
AcDbCircle
 10
105.4625462012
 20
83.8115605749
 30
0.0
 40
1.899999999999997
100
AcDbArc
 50
42.9692748872
 51
90.0
  0
LINE
  5
96
330
1F
100
AcDbEntity
  8
0
  6
Continuous
 62
     7
370
    15
100
AcDbLine
 10
96.9125462012
 20
137.3515605749
 30
0.0
 11
95.2610298644
 21
135.7000442381
 31
0.0
  0
LINE
  5
97
330
1F
100
AcDbEntity
  8
0
  6
Continuous
 62
     7
370
    15
100
AcDbLine
 10
95.2589421776
 20
87.3651645986
 30
0.0
 11
96.9125462012
 21
85.7115605749
 31
0.0
  0
ARC
  5
98
330
1F
100
AcDbEntity
  8
0
  6
Continuous
 62
     7
370
    15
100
AcDbCircle
 10
101.4625462012
 20
139.2515605749
 30
0.0
 40
1.899999999999993
100
AcDbArc
 50
270.0
 51
306.6115952788
  0
LINE
  5
99
330
1F
100
AcDbEntity
  8
0
  6
Continuous
 62
     7
370
    15
100
AcDbLine
 10
101.4625462012
 20
137.3515605749
 30
0.0
 11
96.9125462012
 21
137.3515605749
 31
0.0
  0
SPLINE
  5
9A
330
1F
100
AcDbEntity
  8
0
  6
Continuous
 62
     7
370
    15
100
AcDbSpline
210
0.0
220
0.0
230
1.0
 70
    24
 71
     3
 72
    11
 73
     7
 74
     0
 42
0.000000001
 43
0.00000001
 40
0.0
 40
0.0
 40
0.0
 40
0.0
 40
0.1336647920874024
 40
0.4825473608259724
 40
0.8156356561503769
 40
1.0
 40
1.0
 40
1.0
 40
1.0
 10
180.3445970088009
 20
108.5315605749487
 30
0.0
 10
180.199475330573
 20
108.5315605749487
 30
0.0
 10
179.6755671141017
 20
108.5315605749487
 30
0.0
 10
178.6968431597321
 20
108.5315605749487
 30
0.0
 10
177.6457040110155
 20
108.5315605749487
 30
0.0
 10
177.0815124509
 20
108.5315605749487
 30
0.0
 10
176.8804953936631
 20
108.5315605749487
 30
0.0
  0
SPLINE
  5
9B
330
1F
100
AcDbEntity
  8
0
  6
Continuous
 62
     7
370
    15
100
AcDbSpline
210
0.0
220
0.0
230
1.0
 70
    24
 71
     3
 72
    11
 73
     7
 74
     0
 42
0.000000001
 43
0.00000001
 40
0.0
 40
0.0
 40
0.0
 40
0.0
 40
0.216455377944342
 40
0.4403112895790516
 40
0.7519005688038628
 40
1.0
 40
1.0
 40
1.0
 40
1.0
 10
182.0766478163698
 20
111.5315605749487
 30
0.0
 10
181.9580006578497
 20
111.3260576682182
 30
0.0
 10
181.7166498359435
 20
110.9080257822282
 30
0.0
 10
181.2687671712911
 20
110.132270251221
 30
0.0
 10
180.7883326727082
 20
109.3001332899665
 30
0.0
 10
180.4808834435045
 20
108.7676156042378
 30
0.0
 10
180.3445970088009
 20
108.5315605749487
 30
0.0
  0
SPLINE
  5
9C
330
1F
100
AcDbEntity
  8
0
  6
Continuous
 62
     7
370
    15
100
AcDbSpline
210
0.0
220
0.0
230
1.0
 70
    24
 71
     3
 72
    11
 73
     7
 74
     0
 42
0.000000001
 43
0.00000001
 40
0.0
 40
0.0
 40
0.0
 40
0.0
 40
0.2164553779443427
 40
0.4403112895790512
 40
0.7519005688038626
 40
1.0
 40
1.0
 40
1.0
 40
1.0
 10
180.3445970088009
 20
114.5315605749487
 30
0.0
 10
180.463244167321
 20
114.3260576682182
 30
0.0
 10
180.7045949892272
 20
113.9080257822282
 30
0.0
 10
181.1524776538795
 20
113.132270251221
 30
0.0
 10
181.6329121524624
 20
112.3001332899665
 30
0.0
 10
181.9403613816662
 20
111.7676156042378
 30
0.0
 10
182.0766478163698
 20
111.5315605749487
 30
0.0
  0
SPLINE
  5
9D
330
1F
100
AcDbEntity
  8
0
  6
Continuous
 62
     7
370
    15
100
AcDbSpline
210
0.0
220
0.0
230
1.0
 70
    24
 71
     3
 72
    11
 73
     7
 74
     0
 42
0.000000001
 43
0.00000001
 40
0.0
 40
0.0
 40
0.0
 40
0.0
 40
0.1843643438496199
 40
0.5174526391740257
 40
0.8663352079125972
 40
1.0
 40
1.0
 40
1.0
 40
1.0
 10
176.8804953936632
 20
114.5315605749487
 30
0.0
 10
177.0815124509
 20
114.5315605749487
 30
0.0
 10
177.6457040110156
 20
114.5315605749487
 30
0.0
 10
178.696843159732
 20
114.5315605749487
 30
0.0
 10
179.6755671141017
 20
114.5315605749487
 30
0.0
 10
180.199475330573
 20
114.5315605749487
 30
0.0
 10
180.3445970088009
 20
114.5315605749487
 30
0.0
  0
SPLINE
  5
9E
330
1F
100
AcDbEntity
  8
0
  6
Continuous
 62
     7
370
    15
100
AcDbSpline
210
0.0
220
0.0
230
1.0
 70
    24
 71
     3
 72
    11
 73
     7
 74
     0
 42
0.000000001
 43
0.00000001
 40
0.0
 40
0.0
 40
0.0
 40
0.0
 40
0.2164553779443425
 40
0.4403112895790518
 40
0.7519005688038635
 40
1.0
 40
1.0
 40
1.0
 40
1.0
 10
175.1484445860943
 20
111.5315605749487
 30
0.0
 10
175.2670917446144
 20
111.7370634816792
 30
0.0
 10
175.5084425665205
 20
112.1550953676691
 30
0.0
 10
175.9563252311729
 20
112.9308508986764
 30
0.0
 10
176.4367597297558
 20
113.7629878599309
 30
0.0
 10
176.7442089589595
 20
114.2955055456596
 30
0.0
 10
176.8804953936632
 20
114.5315605749487
 30
0.0
  0
SPLINE
  5
9F
330
1F
100
AcDbEntity
  8
0
  6
Continuous
 62
     7
370
    15
100
AcDbSpline
210
0.0
220
0.0
230
1.0
 70
    24
 71
     3
 72
    11
 73
     7
 74
     0
 42
0.000000001
 43
0.00000001
 40
0.0
 40
0.0
 40
0.0
 40
0.0
 40
0.216455377944342
 40
0.4403112895790501
 40
0.7519005688038638
 40
1.0
 40
1.0
 40
1.0
 40
1.0
 10
176.8804953936631
 20
108.5315605749487
 30
0.0
 10
176.761848235143
 20
108.7370634816792
 30
0.0
 10
176.5204974132369
 20
109.1550953676691
 30
0.0
 10
176.0726147485845
 20
109.9308508986764
 30
0.0
 10
175.5921802500016
 20
110.7629878599308
 30
0.0
 10
175.2847310207979
 20
111.2955055456596
 30
0.0
 10
175.1484445860943
 20
111.5315605749487
 30
0.0
  0
CIRCLE
  5
A0
330
1F
100
AcDbEntity
  8
0
  6
Continuous
 62
     7
370
    15
100
AcDbCircle
 10
178.6125462012
 20
111.5315605749
 30
0.0
 40
3.5
  0
CIRCLE
  5
A1
330
1F
100
AcDbEntity
  8
0
  6
Continuous
 62
     7
370
    15
100
AcDbCircle
 10
178.6125462012
 20
111.5315605749
 30
0.0
 40
5.5
  0
CIRCLE
  5
A2
330
1F
100
AcDbEntity
  8
0
  6
Continuous
 62
     7
370
    15
100
AcDbCircle
 10
178.6125462012
 20
111.5315605749
 30
0.0
 40
6.0
  0
ARC
  5
A3
330
1F
100
AcDbEntity
  8
0
  6
Continuous
 62
     7
370
    15
100
AcDbCircle
 10
178.6125462012
 20
111.5315605749
 30
0.0
 40
3.0
100
AcDbArc
 50
270.0
 51
330.0
  0
ARC
  5
A4
330
1F
100
AcDbEntity
  8
0
  6
Continuous
 62
     7
370
    15
100
AcDbCircle
 10
178.6125462012
 20
111.5315605749
 30
0.0
 40
3.0
100
AcDbArc
 50
30.0
 51
90.0
  0
ARC
  5
A5
330
1F
100
AcDbEntity
  8
0
  6
Continuous
 62
     7
370
    15
100
AcDbCircle
 10
178.6125462012
 20
111.5315605749
 30
0.0
 40
3.0
100
AcDbArc
 50
150.0
 51
210.0
  0
ARC
  5
A6
330
1F
100
AcDbEntity
  8
0
  6
Continuous
 62
     7
370
    15
100
AcDbCircle
 10
178.6125462012
 20
111.5315605749
 30
0.0
 40
3.0
100
AcDbArc
 50
210.0
 51
270.0
  0
ARC
  5
A7
330
1F
100
AcDbEntity
  8
0
  6
Continuous
 62
     7
370
    15
100
AcDbCircle
 10
178.6125462012
 20
111.5315605749
 30
0.0
 40
3.0
100
AcDbArc
 50
330.0
 51
30.0
  0
ARC
  5
A8
330
1F
100
AcDbEntity
  8
0
  6
Continuous
 62
     7
370
    15
100
AcDbCircle
 10
178.6125462012
 20
111.5315605749
 30
0.0
 40
3.0
100
AcDbArc
 50
90.0
 51
150.0
  0
LINE
  5
A9
330
1F
100
AcDbEntity
  8
0
  6
Continuous
 62
     7
370
    15
100
AcDbLine
 10
151.2525462012
 20
75.7182721246
 30
0.0
 11
151.2525462012
 21
136.3815605749
 31
0.0
  0
SPLINE
  5
AA
330
1F
100
AcDbEntity
  8
0
  6
Continuous
 62
     7
370
    15
100
AcDbSpline
210
0.0
220
0.0
230
1.0
 70
     8
 71
     3
 72
     8
 73
     4
 74
     0
 42
0.000000001
 43
0.00000001
 40
0.0
 40
0.0
 40
0.0
 40
0.0
 40
1.0
 40
1.0
 40
1.0
 40
1.0
 10
151.252546201232
 20
75.71827212462019
 30
0.0
 10
150.7115865551217
 20
74.74546160635687
 30
0.0
 10
150.1694135883369
 20
73.77332152119598
 30
0.0
 10
149.6262758024455
 20
72.8017271128745
 30
0.0
  0
LINE
  5
AB
330
1F
100
AcDbEntity
  8
0
  6
Continuous
 62
     7
370
    15
100
AcDbLine
 10
149.6262758024
 20
72.8017271129
 30
0.0
 11
149.6262758024
 21
136.3815605749
 31
0.0
  0
SPLINE
  5
AC
330
1F
100
AcDbEntity
  8
0
  6
Continuous
 62
     7
370
    15
100
AcDbSpline
210
0.0
220
0.0
230
1.0
 70
    24
 71
     3
 72
     8
 73
     4
 74
     0
 42
0.000000001
 43
0.00000001
 40
0.0
 40
0.0
 40
0.0
 40
0.0
 40
1.0
 40
1.0
 40
1.0
 40
1.0
 10
149.6262758024455
 20
136.3815605749487
 30
0.0
 10
150.1795700172631
 20
136.3815605749487
 30
0.0
 10
150.7227929148507
 20
136.3815605749487
 30
0.0
 10
151.252546201232
 20
136.3815605749487
 30
0.0
  0
LINE
  5
AD
330
1F
100
AcDbEntity
  8
0
  6
Continuous
 62
     7
370
    15
100
AcDbLine
 10
156.6988166
 20
72.8017271129
 30
0.0
 11
156.6988166
 21
136.3815605749
 31
0.0
  0
SPLINE
  5
AE
330
1F
100
AcDbEntity
  8
0
  6
Continuous
 62
     7
370
    15
100
AcDbSpline
210
0.0
220
0.0
230
1.0
 70
     8
 71
     3
 72
     8
 73
     4
 74
     0
 42
0.000000001
 43
0.00000001
 40
0.0
 40
0.0
 40
0.0
 40
0.0
 40
1.0
 40
1.0
 40
1.0
 40
1.0
 10
156.6988166000185
 20
72.8017271128745
 30
0.0
 10
156.1556788141271
 20
73.77332152119598
 30
0.0
 10
155.6135058473423
 20
74.74546160635687
 30
0.0
 10
155.072546201232
 20
75.71827212462019
 30
0.0
  0
LINE
  5
AF
330
1F
100
AcDbEntity
  8
0
  6
Continuous
 62
     7
370
    15
100
AcDbLine
 10
155.0725462012
 20
75.7182721246
 30
0.0
 11
155.0725462012
 21
136.3815605749
 31
0.0
  0
SPLINE
  5
B0
330
1F
100
AcDbEntity
  8
0
  6
Continuous
 62
     7
370
    15
100
AcDbSpline
210
0.0
220
0.0
230
1.0
 70
    24
 71
     3
 72
     8
 73
     4
 74
     0
 42
0.000000001
 43
0.00000001
 40
0.0
 40
0.0
 40
0.0
 40
0.0
 40
1.0
 40
1.0
 40
1.0
 40
1.0
 10
155.072546201232
 20
136.3815605749487
 30
0.0
 10
155.6022994876134
 20
136.3815605749487
 30
0.0
 10
156.1455223852009
 20
136.3815605749487
 30
0.0
 10
156.6988166000185
 20
136.3815605749487
 30
0.0
  0
LINE
  5
B1
330
1F
100
AcDbEntity
  8
0
  6
Continuous
 62
     7
370
    15
100
AcDbLine
 10
135.1625462012
 20
72.0315605749
 30
0.0
 11
135.1625462012
 21
151.0315605749
 31
0.0
  0
LINE
  5
B2
330
1F
100
AcDbEntity
  8
0
  6
Continuous
 62
     7
370
    15
100
AcDbLine
 10
139.1125462012
 20
136.3815605749
 30
0.0
 11
149.6262758024
 21
136.3815605749
 31
0.0
  0
LINE
  5
B3
330
1F
100
AcDbEntity
  8
0
  6
Continuous
 62
     7
370
    15
100
AcDbLine
 10
149.6262758024
 20
72.8017271129
 30
0.0
 11
148.1125462012
 21
72.8017271129
 31
0.0
  0
SPLINE
  5
B4
330
1F
100
AcDbEntity
  8
0
  6
Continuous
 62
     7
370
    15
100
AcDbSpline
210
0.0
220
0.0
230
1.0
 70
     8
 71
     3
 72
    30
 73
    26
 74
     0
 42
0.000000001
 43
0.00000001
 40
0.0
 40
0.0
 40
0.0
 40
0.0
 40
0.1250000000000005
 40
0.1250000000000005
 40
0.1875000000000008
 40
0.1875000000000008
 40
0.2500000000000011
 40
0.2500000000000011
 40
0.3750000000000012
 40
0.3750000000000012
 40
0.4375000000000013
 40
0.4375000000000013
 40
0.5000000000000013
 40
0.5000000000000013
 40
0.6250000000000011
 40
0.6250000000000011
 40
0.6875000000000009
 40
0.6875000000000009
 40
0.7500000000000007
 40
0.7500000000000007
 40
0.8125000000000006
 40
0.8125000000000006
 40
0.8750000000000003
 40
0.8750000000000003
 40
1.0
 40
1.0
 40
1.0
 40
1.0
 10
148.112546201232
 20
72.8017271128745
 30
0.0
 10
147.515370324358
 20
72.8017271128745
 30
0.0
 10
146.9286642413362
 20
72.78639979791298
 30
0.0
 10
146.0635544110605
 20
72.74266717982088
 30
0.0
 10
145.7776939572104
 20
72.72462927152093
 30
0.0
 10
145.2110782698799
 20
72.68198573907947
 30
0.0
 10
144.9301385121504
 20
72.65731542771015
 30
0.0
 10
144.1136876129409
 20
72.57608784790047
 30
0.0
 10
143.5977865083128
 20
72.51189641400637
 30
0.0
 10
142.8655840300976
 20
72.40566174261647
 30
0.0
 10
142.6273138506149
 20
72.36838133533655
 30
0.0
 10
142.1717925222005
 20
72.2924497394529
 30
0.0
 10
141.9548285910109
 20
72.25388378574151
 30
0.0
 10
141.3353066564169
 20
72.13784174761676
 30
0.0
 10
140.9638019703777
 20
72.06001448980251
 30
0.0
 10
140.4705410293263
 20
71.94812444920233
 30
0.0
 10
140.3183182485735
 20
71.91195828274266
 30
0.0
 10
140.0413018643321
 20
71.84350525560868
 30
0.0
 10
139.9158899149573
 20
71.81107720527744
 30
0.0
 10
139.6910499380315
 20
71.75048877990034
 30
0.0
 10
139.5916211411304
 20
71.7223271989835
 30
0.0
 10
139.4193192555161
 20
71.67094402461238
 30
0.0
 10
139.3462151314793
 20
71.64763432673773
 30
0.0
 10
139.1713481772504
 20
71.58709138197439
 30
0.0
 10
139.112546201232
 20
71.55899017579841
 30
0.0
 10
139.112546201232
 20
71.54406252868425
 30
0.0
  0
LINE
  5
B5
330
1F
100
AcDbEntity
  8
0
  6
Continuous
 62
     7
370
    15
100
AcDbLine
 10
139.1125462012
 20
71.5440625287
 30
0.0
 11
139.1125462012
 21
71.5315605749
 31
0.0
  0
SPLINE
  5
B6
330
1F
100
AcDbEntity
  8
0
  6
Continuous
 62
     7
370
    15
100
AcDbSpline
210
0.0
220
0.0
230
1.0
 70
     8
 71
     3
 72
    17
 73
    13
 74
     0
 42
0.000000001
 43
0.00000001
 40
0.0
 40
0.0
 40
0.0
 40
0.0
 40
0.1039928027398835
 40
0.2110507583651516
 40
0.3150299276010272
 40
0.421935157767337
 40
0.5275775719343997
 40
0.6362134668260427
 40
0.7429488749763674
 40
0.8528788158890155
 40
0.9578277250161848
 40
1.0
 40
1.0
 40
1.0
 40
1.0
 10
148.112546201232
 20
150.5059111147588
 30
0.0
 10
147.6209121724076
 20
150.5113440697922
 30
0.0
 10
146.6231533671081
 20
150.5223701143815
 30
0.0
 10
145.1761865906351
 20
150.6085370679201
 30
0.0
 10
143.8005961120149
 20
150.7362696678174
 30
0.0
 10
142.5511048701953
 20
150.8949394343904
 30
0.0
 10
141.4392027347924
 20
151.0688152682846
 30
0.0
 10
140.5152296346115
 20
151.2367386419645
 30
0.0
 10
139.7907002189086
 20
151.3830616257335
 30
0.0
 10
139.3271416789459
 20
151.4833373368672
 30
0.0
 10
139.1080108039653
 20
151.5325745246792
 30
0.0
 10
139.1356716420381
 20
151.5263666083672
 30
0.0
 10
139.1436006189324
 20
151.5245871096813
 30
0.0
  0
LINE
  5
B7
330
1F
100
AcDbEntity
  8
0
  6
Continuous
 62
     7
370
    15
100
AcDbLine
 10
149.6262758024
 20
150.5059111148
 30
0.0
 11
148.1125462012
 21
150.5059111148
 31
0.0
  0
LINE
  5
B8
330
1F
100
AcDbEntity
  8
0
  6
Continuous
 62
     7
370
    15
100
AcDbLine
 10
149.6262758024
 20
142.8760576996
 30
0.0
 11
149.6262758024
 21
150.5059111148
 31
0.0
  0
LINE
  5
B9
330
1F
100
AcDbEntity
  8
0
  6
Continuous
 62
     7
370
    15
100
AcDbLine
 10
147.7567613386
 20
142.8760576996
 30
0.0
 11
149.6262758024
 21
142.8760576996
 31
0.0
  0
SPLINE
  5
BA
330
1F
100
AcDbEntity
  8
0
  6
Continuous
 62
     7
370
    15
100
AcDbSpline
210
0.0
220
0.0
230
1.0
 70
     8
 71
     3
 72
    26
 73
    22
 74
     0
 42
0.000000001
 43
0.00000001
 40
0.0
 40
0.0
 40
0.0
 40
0.0
 40
0.2499999999999984
 40
0.2499999999999984
 40
0.3124999999999984
 40
0.3124999999999984
 40
0.3749999999999983
 40
0.3749999999999983
 40
0.4999999999999983
 40
0.4999999999999983
 40
0.6249999999999984
 40
0.6249999999999984
 40
0.7499999999999986
 40
0.7499999999999986
 40
0.812499999999999
 40
0.812499999999999
 40
0.8749999999999993
 40
0.8749999999999993
 40
0.9374999999999998
 40
0.9374999999999998
 40
1.0
 40
1.0
 40
1.0
 40
1.0
 10
139.112546201232
 20
136.3815605749487
 30
0.0
 10
139.3164144831709
 20
137.2687477153232
 30
0.0
 10
139.6159390062272
 20
138.09919316232
 30
0.0
 10
140.1597442014581
 20
139.0617918431057
 30
0.0
 10
140.2771197497417
 20
139.2505120830854
 30
0.0
 10
140.531128957463
 20
139.6200967134427
 30
0.0
 10
140.6678839265152
 20
139.8009335007358
 30
0.0
 10
141.1030412436284
 20
140.3227535546328
 30
0.0
 10
141.4280377424907
 20
140.6460987064358
 30
0.0
 10
142.1591634885929
 20
141.2422090175142
 30
0.0
 10
142.5699113100626
 20
141.5169496021695
 30
0.0
 10
143.4546357729227
 20
141.9927797039286
 30
0.0
 10
143.9301302359817
 20
142.1963952153322
 30
0.0
 10
144.6997812089921
 20
142.4482767135369
 30
0.0
 10
144.9648875391237
 20
142.5227622396142
 30
0.0
 10
145.5004037707572
 20
142.6497888017682
 30
0.0
 10
145.7724377203898
 20
142.7028921470858
 30
0.0
 10
146.3251648478785
 20
142.7885041322565
 30
0.0
 10
146.6058562711404
 20
142.8210167712768
 30
0.0
 10
147.1762869579889
 20
142.8648389653775
 30
0.0
 10
147.4668059775519
 20
142.8760576996436
 30
0.0
 10
147.7567613386425
 20
142.8760576996436
 30
0.0
  0
LINE
  5
BB
330
1F
100
AcDbEntity
  8
0
  6
Continuous
 62
     7
370
    15
100
AcDbLine
 10
160.1125462012
 20
72.8017271129
 30
0.0
 11
156.6988166
 21
72.8017271129
 31
0.0
  0
LINE
  5
BC
330
1F
100
AcDbEntity
  8
0
  6
Continuous
 62
     7
370
    15
100
AcDbLine
 10
156.6988166
 20
136.3815605749
 30
0.0
 11
160.1125462012
 21
136.3815605749
 31
0.0
  0
LINE
  5
BD
330
1F
100
AcDbEntity
  8
0
  6
Continuous
 62
     7
370
    15
100
AcDbLine
 10
161.1125462012
 20
73.835406925
 30
0.0
 11
161.1125462012
 21
136.3815605749
 31
0.0
  0
SPLINE
  5
BE
330
1F
100
AcDbEntity
  8
0
  6
Continuous
 62
     7
370
    15
100
AcDbSpline
210
0.0
220
0.0
230
1.0
 70
     8
 71
     3
 72
    14
 73
    10
 74
     0
 42
0.000000001
 43
0.00000001
 40
0.0
 40
0.0
 40
0.0
 40
0.0
 40
0.25
 40
0.25
 40
0.5
 40
0.5
 40
0.75
 40
0.75
 40
1.0
 40
1.0
 40
1.0
 40
1.0
 10
161.112546201232
 20
73.83540692500715
 30
0.0
 10
161.112546201232
 20
73.70128048776984
 30
0.0
 10
161.0875286502045
 20
73.56922679901525
 30
0.0
 10
160.9896739119518
 20
73.32096699210413
 30
0.0
 10
160.9170720199407
 20
73.20658291562837
 30
0.0
 10
160.7338039829679
 20
73.01407183678037
 30
0.0
 10
160.6222478895076
 20
72.93558605822774
 30
0.0
 10
160.379126940586
 20
72.82982129498541
 30
0.0
 10
160.2452026696283
 20
72.80172711287452
 30
0.0
 10
160.112546201232
 20
72.80172711287452
 30
0.0
  0
SPLINE
  5
BF
330
1F
100
AcDbEntity
  8
0
  6
Continuous
 62
     7
370
    15
100
AcDbSpline
210
0.0
220
0.0
230
1.0
 70
    24
 71
     3
 72
    12
 73
     8
 74
     0
 42
0.000000001
 43
0.00000001
 40
0.0
 40
0.0
 40
0.0
 40
0.0
 40
0.249999999999998
 40
0.249999999999998
 40
0.499999999999996
 40
0.499999999999996
 40
1.0
 40
1.0
 40
1.0
 40
1.0
 10
160.112546201232
 20
136.3815605749487
 30
0.0
 10
160.2637867567869
 20
136.3815605749487
 30
0.0
 10
160.4121619139011
 20
136.3815605749487
 30
0.0
 10
160.6697038696119
 20
136.3815605749487
 30
0.0
 10
160.7789488679587
 20
136.3815605749487
 30
0.0
 10
161.0332914764238
 20
136.3815605749487
 30
0.0
 10
161.112546201232
 20
136.3815605749487
 30
0.0
 10
161.112546201232
 20
136.3815605749487
 30
0.0
  0
SPLINE
  5
C0
330
1F
100
AcDbEntity
  8
0
  6
Continuous
 62
     7
370
    15
100
AcDbSpline
210
0.0
220
0.0
230
1.0
 70
     8
 71
     3
 72
    10
 73
     6
 74
     0
 42
0.000000001
 43
0.00000001
 40
0.0
 40
0.0
 40
0.0
 40
0.0
 40
0.5
 40
0.5
 40
1.0
 40
1.0
 40
1.0
 40
1.0
 10
151.6664257281719
 20
145.4315605749487
 30
0.0
 10
151.5403049926913
 20
145.5034719974086
 30
0.0
 10
151.4336493645879
 20
145.611842609929
 30
0.0
 10
151.2904052890628
 20
145.8650336032227
 30
0.0
 10
151.252546201232
 20
146.0101661210292
 30
0.0
 10
151.252546201232
 20
146.1559829528021
 30
0.0
  0
SPLINE
  5
C1
330
1F
100
AcDbEntity
  8
0
  6
Continuous
 62
     7
370
    15
100
AcDbSpline
210
0.0
220
0.0
230
1.0
 70
    24
 71
     3
 72
    12
 73
     8
 74
     0
 42
0.000000001
 43
0.00000001
 40
0.0
 40
0.0
 40
0.0
 40
0.0
 40
0.2499999999999972
 40
0.2499999999999972
 40
0.4999999999999944
 40
0.4999999999999944
 40
1.0
 40
1.0
 40
1.0
 40
1.0
 10
152.0525462012342
 20
145.4315605749487
 30
0.0
 10
152.004267023101
 20
145.4315605749487
 30
0.0
 10
151.9565660629834
 20
145.4315605749487
 30
0.0
 10
151.8771497831258
 20
145.4315605749487
 30
0.0
 10
151.8431010446016
 20
145.4315605749487
 30
0.0
 10
151.7531429419007
 20
145.4315605749487
 30
0.0
 10
151.7070502422285
 20
145.4315605749487
 30
0.0
 10
151.6664257281719
 20
145.4315605749487
 30
0.0
  0
SPLINE
  5
C2
330
1F
100
AcDbEntity
  8
0
  6
Continuous
 62
     7
370
    15
100
AcDbSpline
210
0.0
220
0.0
230
1.0
 70
    24
 71
     3
 72
    14
 73
    10
 74
     0
 42
0.000000001
 43
0.00000001
 40
0.0
 40
0.0
 40
0.0
 40
0.0
 40
0.1250000000000003
 40
0.1250000000000003
 40
0.2500000000000007
 40
0.2500000000000007
 40
0.5000000000000008
 40
0.5000000000000008
 40
1.0
 40
1.0
 40
1.0
 40
1.0
 10
152.0525462012319
 20
77.63156057494868
 30
0.0
 10
151.9833697696033
 20
77.63156057494868
 30
0.0
 10
151.920248536957
 20
77.6315605749487
 30
0.0
 10
151.8196717402785
 20
77.6315605749487
 30
0.0
 10
151.7804777083893
 20
77.63156057494868
 30
0.0
 10
151.675585593742
 20
77.63156057494868
 30
0.0
 10
151.6227981566041
 20
77.63156057494868
 30
0.0
 10
151.4872110301168
 20
77.63156057494868
 30
0.0
 10
151.4263859142435
 20
77.6315605749487
 30
0.0
 10
151.3784681580544
 20
77.63156057494868
 30
0.0
  0
SPLINE
  5
C3
330
1F
100
AcDbEntity
  8
0
  6
Continuous
 62
     7
370
    15
100
AcDbSpline
210
0.0
220
0.0
230
1.0
 70
     8
 71
     3
 72
    10
 73
     6
 74
     0
 42
0.000000001
 43
0.00000001
 40
0.0
 40
0.0
 40
0.0
 40
0.0
 40
0.5
 40
0.5
 40
1.0
 40
1.0
 40
1.0
 40
1.0
 10
151.3784681580544
 20
77.6315605749487
 30
0.0
 10
151.3372843405134
 20
77.5643799809602
 30
0.0
 10
151.3053532776076
 20
77.49070608069412
 30
0.0
 10
151.2631049872019
 20
77.33895989679465
 30
0.0
 10
151.252546201232
 20
77.26155085078442
 30
0.0
 10
151.252546201232
 20
77.18260680631111
 30
0.0
  0
SPLINE
  5
C4
330
1F
100
AcDbEntity
  8
0
  6
Continuous
 62
     7
370
    15
100
AcDbSpline
210
0.0
220
0.0
230
1.0
 70
    24
 71
     3
 72
    10
 73
     6
 74
     0
 42
0.000000001
 43
0.00000001
 40
0.0
 40
0.0
 40
0.0
 40
0.0
 40
0.5
 40
0.5
 40
1.0
 40
1.0
 40
1.0
 40
1.0
 10
151.252546201232
 20
136.3815605749487
 30
0.0
 10
151.252546201232
 20
136.3815605749487
 30
0.0
 10
151.2771568191685
 20
136.3815605749487
 30
0.0
 10
151.3768482074835
 20
136.3815605749487
 30
0.0
 10
151.4544416718682
 20
136.3815605749487
 30
0.0
 10
151.561794087936
 20
136.3815605749487
 30
0.0
  0
SPLINE
  5
C5
330
1F
100
AcDbEntity
  8
0
  6
Continuous
 62
     7
370
    15
100
AcDbSpline
210
0.0
220
0.0
230
1.0
 70
     8
 71
     3
 72
    10
 73
     6
 74
     0
 42
0.000000001
 43
0.00000001
 40
0.0
 40
0.0
 40
0.0
 40
0.0
 40
0.5
 40
0.5
 40
1.0
 40
1.0
 40
1.0
 40
1.0
 10
151.252546201232
 20
137.267296915687
 30
0.0
 10
151.252546201232
 20
137.1078648083839
 30
0.0
 10
151.2770985916486
 20
136.9471090032024
 30
0.0
 10
151.3773974627318
 20
136.6448195396997
 30
0.0
 10
151.454138548986
 20
136.499820816882
 30
0.0
 10
151.561794087936
 20
136.3815605749487
 30
0.0
  0
SPLINE
  5
C6
330
1F
100
AcDbEntity
  8
0
  6
Continuous
 62
     7
370
    15
100
AcDbSpline
210
0.0
220
0.0
230
1.0
 70
     8
 71
     3
 72
    10
 73
     6
 74
     0
 42
0.000000001
 43
0.00000001
 40
0.0
 40
0.0
 40
0.0
 40
0.0
 40
0.5
 40
0.5
 40
1.0
 40
1.0
 40
1.0
 40
1.0
 10
155.072546201232
 20
77.1826068063113
 30
0.0
 10
155.072546201232
 20
77.2610102863491
 30
0.0
 10
155.0617776516924
 20
77.340217878568
 30
0.0
 10
155.0191473789086
 20
77.49231733134398
 30
0.0
 10
154.9875762644424
 20
77.56475809778408
 30
0.0
 10
154.9466242444097
 20
77.63156057494867
 30
0.0
  0
SPLINE
  5
C7
330
1F
100
AcDbEntity
  8
0
  6
Continuous
 62
     7
370
    15
100
AcDbSpline
210
0.0
220
0.0
230
1.0
 70
    24
 71
     3
 72
    14
 73
    10
 74
     0
 42
0.000000001
 43
0.00000001
 40
0.0
 40
0.0
 40
0.0
 40
0.0
 40
0.4999999999999984
 40
0.4999999999999984
 40
0.7499999999999992
 40
0.7499999999999992
 40
0.8749999999999996
 40
0.8749999999999996
 40
1.0
 40
1.0
 40
1.0
 40
1.0
 10
154.9466242444097
 20
77.63156057494868
 30
0.0
 10
154.8988998698759
 20
77.63156057494867
 30
0.0
 10
154.8383531133547
 20
77.6315605749487
 30
0.0
 10
154.7025724141758
 20
77.6315605749487
 30
0.0
 10
154.6499582406605
 20
77.63156057494868
 30
0.0
 10
154.5445745271764
 20
77.6315605749487
 30
0.0
 10
154.5043030308396
 20
77.63156057494868
 30
0.0
 10
154.404836910262
 20
77.6315605749487
 30
0.0
 10
154.3416598732632
 20
77.6315605749487
 30
0.0
 10
154.272546201232
 20
77.63156057494868
 30
0.0
  0
SPLINE
  5
C8
330
1F
100
AcDbEntity
  8
0
  6
Continuous
 62
     7
370
    15
100
AcDbSpline
210
0.0
220
0.0
230
1.0
 70
    24
 71
     3
 72
    12
 73
     8
 74
     0
 42
0.000000001
 43
0.00000001
 40
0.0
 40
0.0
 40
0.0
 40
0.0
 40
0.5
 40
0.5
 40
0.75
 40
0.75
 40
1.0
 40
1.0
 40
1.0
 40
1.0
 10
154.6586666742922
 20
145.4315605749487
 30
0.0
 10
154.618371926286
 20
145.4315605749487
 30
0.0
 10
154.5718058943513
 20
145.4315605749487
 30
0.0
 10
154.4817049430204
 20
145.4315605749487
 30
0.0
 10
154.4476863825865
 20
145.4315605749487
 30
0.0
 10
154.3680534604293
 20
145.4315605749487
 30
0.0
 10
154.3209412642951
 20
145.4315605749487
 30
0.0
 10
154.272546201232
 20
145.4315605749487
 30
0.0
  0
SPLINE
  5
C9
330
1F
100
AcDbEntity
  8
0
  6
Continuous
 62
     7
370
    15
100
AcDbSpline
210
0.0
220
0.0
230
1.0
 70
     8
 71
     3
 72
    10
 73
     6
 74
     0
 42
0.000000001
 43
0.00000001
 40
0.0
 40
0.0
 40
0.0
 40
0.0
 40
0.5
 40
0.5
 40
1.0
 40
1.0
 40
1.0
 40
1.0
 10
155.072546201232
 20
146.1559829528021
 30
0.0
 10
155.072546201232
 20
146.009332830366
 30
0.0
 10
155.0343481274416
 20
145.8643381366152
 30
0.0
 10
154.8915127760082
 20
145.6120623494107
 30
0.0
 10
154.785713950302
 20
145.504000291564
 30
0.0
 10
154.6586666742922
 20
145.4315605749487
 30
0.0
  0
SPLINE
  5
CA
330
1F
100
AcDbEntity
  8
0
  6
Continuous
 62
     7
370
    15
100
AcDbSpline
210
0.0
220
0.0
230
1.0
 70
     8
 71
     3
 72
    10
 73
     6
 74
     0
 42
0.000000001
 43
0.00000001
 40
0.0
 40
0.0
 40
0.0
 40
0.0
 40
0.5
 40
0.5
 40
1.0
 40
1.0
 40
1.0
 40
1.0
 10
154.7632983145281
 20
136.3815605749487
 30
0.0
 10
154.8719742330471
 20
136.5009417098327
 30
0.0
 10
154.9478917505851
 20
136.6452446968474
 30
0.0
 10
155.0480865819235
 20
136.947557099416
 30
0.0
 10
155.072546201232
 20
137.1080050087099
 30
0.0
 10
155.072546201232
 20
137.2672969156866
 30
0.0
  0
SPLINE
  5
CB
330
1F
100
AcDbEntity
  8
0
  6
Continuous
 62
     7
370
    15
100
AcDbSpline
210
0.0
220
0.0
230
1.0
 70
    24
 71
     3
 72
    10
 73
     6
 74
     0
 42
0.000000001
 43
0.00000001
 40
0.0
 40
0.0
 40
0.0
 40
0.0
 40
0.5
 40
0.5
 40
1.0
 40
1.0
 40
1.0
 40
1.0
 10
154.7632983145282
 20
136.3815605749487
 30
0.0
 10
154.8707458703824
 20
136.3815605749487
 30
0.0
 10
154.9476550502124
 20
136.3815605749487
 30
0.0
 10
155.0479105761319
 20
136.3815605749487
 30
0.0
 10
155.072546201232
 20
136.3815605749487
 30
0.0
 10
155.072546201232
 20
136.3815605749487
 30
0.0
  0
LINE
  5
CC
330
1F
100
AcDbEntity
  8
0
  6
Continuous
 62
     7
370
    15
100
AcDbLine
 10
154.2725462012
 20
145.4315605749
 30
0.0
 11
152.0525462012
 21
145.4315605749
 31
0.0
  0
LINE
  5
CD
330
1F
100
AcDbEntity
  8
0
  6
Continuous
 62
     7
370
    15
100
AcDbLine
 10
154.2725462012
 20
77.6315605749
 30
0.0
 11
152.0525462012
 21
77.6315605749
 31
0.0
  0
LINE
  5
CE
330
1F
100
AcDbEntity
  8
0
  6
Continuous
 62
     7
370
    15
100
AcDbLine
 10
107.3625462012
 20
82.5175445429
 30
0.0
 11
107.3625462012
 21
84.2149936506
 31
0.0
  0
SPLINE
  5
CF
330
1F
100
AcDbEntity
  8
0
  6
Continuous
 62
     7
370
    15
100
AcDbSpline
210
0.0
220
0.0
230
1.0
 70
     8
 71
     3
 72
    16
 73
    12
 74
     0
 42
0.000000001
 43
0.00000001
 40
0.0
 40
0.0
 40
0.0
 40
0.0
 40
0.1249999999999996
 40
0.1249999999999996
 40
0.2499999999999992
 40
0.2499999999999992
 40
0.4999999999999994
 40
0.4999999999999994
 40
0.7499999999999997
 40
0.7499999999999997
 40
1.0
 40
1.0
 40
1.0
 40
1.0
 10
106.2141877683295
 20
85.79990353038346
 30
0.0
 10
106.2672305064966
 20
85.72457264111289
 30
0.0
 10
106.3316945411671
 20
85.65133934924366
 30
0.0
 10
106.4646779457464
 20
85.50800099968235
 30
0.0
 10
106.5337051378878
 20
85.43774415688648
 30
0.0
 10
106.7372131877863
 20
85.22987502412721
 30
0.0
 10
106.8679672345989
 20
85.09512405087433
 30
0.0
 10
107.0932340027522
 20
84.83116592396034
 30
0.0
 10
107.1885761186421
 20
84.70184759408578
 30
0.0
 10
107.3238760158723
 20
84.44930618782571
 30
0.0
 10
107.362546201232
 20
84.32896476234059
 30
0.0
 10
107.362546201232
 20
84.21499365062876
 30
0.0
  0
SPLINE
  5
D0
330
1F
100
AcDbEntity
  8
0
  6
Continuous
 62
     7
370
    15
100
AcDbSpline
210
0.0
220
0.0
230
1.0
 70
     8
 71
     3
 72
    14
 73
    10
 74
     0
 42
0.000000001
 43
0.00000001
 40
0.0
 40
0.0
 40
0.0
 40
0.0
 40
0.1250000000000001
 40
0.1250000000000001
 40
0.2500000000000002
 40
0.2500000000000002
 40
0.5000000000000023
 40
0.5000000000000023
 40
1.0
 40
1.0
 40
1.0
 40
1.0
 10
105.462546201232
 20
86.22582558055045
 30
0.0
 10
105.5120707781661
 20
86.23128170832423
 30
0.0
 10
105.5648129324966
 20
86.23059654825092
 30
0.0
 10
105.6653455015958
 20
86.21648898869867
 30
0.0
 10
105.7129698512081
 20
86.20334740146609
 30
0.0
 10
105.8394275261443
 20
86.15559771682545
 30
0.0
 10
105.9051175886342
 20
86.11369738199346
 30
0.0
 10
106.0744269105431
 20
85.98347459013964
 30
0.0
 10
106.1496231361292
 20
85.8915977250482
 30
0.0
 10
106.2141877683291
 20
85.79990353038345
 30
0.0
  0
SPLINE
  5
D1
330
1F
100
AcDbEntity
  8
0
  6
Continuous
 62
     7
370
    15
100
AcDbSpline
210
0.0
220
0.0
230
1.0
 70
     8
 71
     3
 72
     8
 73
     4
 74
     0
 42
0.000000001
 43
0.00000001
 40
0.0
 40
0.0
 40
0.0
 40
0.0
 40
1.0
 40
1.0
 40
1.0
 40
1.0
 10
103.1456428993135
 20
85.94555320629948
 30
0.0
 10
103.9098161081845
 20
86.04808428847379
 30
0.0
 10
104.6834683695063
 20
86.1399944950818
 30
0.0
 10
105.462546201232
 20
86.22582558055045
 30
0.0
  0
SPLINE
  5
D2
330
1F
100
AcDbEntity
  8
0
  6
Continuous
 62
     7
370
    15
100
AcDbSpline
210
0.0
220
0.0
230
1.0
 70
     8
 71
     3
 72
    14
 73
    10
 74
     0
 42
0.000000001
 43
0.00000001
 40
0.0
 40
0.0
 40
0.0
 40
0.0
 40
0.4999999999999968
 40
0.4999999999999968
 40
0.7499999999999967
 40
0.7499999999999967
 40
0.8749999999999983
 40
0.8749999999999983
 40
1.0
 40
1.0
 40
1.0
 40
1.0
 10
96.91254620123205
 20
85.71442920122936
 30
0.0
 10
97.9640739753402
 20
85.71965249267322
 30
0.0
 10
99.01300546902779
 20
85.73159111943227
 30
0.0
 10
100.5769874214723
 20
85.77422480542
 30
0.0
 10
101.0967665159916
 20
85.79250130275912
 30
0.0
 10
101.871423788736
 20
85.83315009009186
 30
0.0
 10
102.1288015606495
 20
85.84892152513181
 30
0.0
 10
102.6404822981759
 20
85.88860241838091
 30
0.0
 10
102.8950065526201
 20
85.91192468391672
 30
0.0
 10
103.1456428993137
 20
85.94555320629934
 30
0.0
  0
SPLINE
  5
D3
330
1F
100
AcDbEntity
  8
0
  6
Continuous
 62
     7
370
    15
100
AcDbSpline
210
0.0
220
0.0
230
1.0
 70
     8
 71
     3
 72
     8
 73
     4
 74
     0
 42
0.000000001
 43
0.00000001
 40
0.0
 40
0.0
 40
0.0
 40
0.0
 40
1.0
 40
1.0
 40
1.0
 40
1.0
 10
96.78248629401381
 20
85.87026029195772
 30
0.0
 10
96.82209079139665
 20
85.81723848769232
 30
0.0
 10
96.86565864627053
 20
85.76533425617164
 30
0.0
 10
96.91254620123205
 20
85.71442920122936
 30
0.0
  0
SPLINE
  5
D4
330
1F
100
AcDbEntity
  8
0
  6
Continuous
 62
     7
370
    15
100
AcDbSpline
210
0.0
220
0.0
230
1.0
 70
     8
 71
     3
 72
     8
 73
     4
 74
     0
 42
0.000000001
 43
0.00000001
 40
0.0
 40
0.0
 40
0.0
 40
0.0
 40
1.0
 40
1.0
 40
1.0
 40
1.0
 10
96.91254620123205
 20
137.348691948668
 30
0.0
 10
96.86565864626814
 20
137.2977868937231
 30
0.0
 10
96.8220907913922
 20
137.2458826621997
 30
0.0
 10
96.78248629400774
 20
137.1928608579315
 30
0.0
  0
SPLINE
  5
D5
330
1F
100
AcDbEntity
  8
0
  6
Continuous
 62
     7
370
    15
100
AcDbSpline
210
0.0
220
0.0
230
1.0
 70
     8
 71
     3
 72
    10
 73
     6
 74
     0
 42
0.000000001
 43
0.00000001
 40
0.0
 40
0.0
 40
0.0
 40
0.0
 40
0.5
 40
0.5
 40
1.0
 40
1.0
 40
1.0
 40
1.0
 10
101.462546201232
 20
137.2511621966176
 30
0.0
 10
100.7106642633209
 20
137.2880219457506
 30
0.0
 10
99.95364529924078
 20
137.3084189923182
 30
0.0
 10
98.43584936999675
 20
137.3372891153956
 30
0.0
 10
97.67480659921071
 20
137.3449055453862
 30
0.0
 10
96.91254620123205
 20
137.348691948668
 30
0.0
  0
SPLINE
  5
D6
330
1F
100
AcDbEntity
  8
0
  6
Continuous
 62
     7
370
    15
100
AcDbSpline
210
0.0
220
0.0
230
1.0
 70
     8
 71
     3
 72
    20
 73
    16
 74
     0
 42
0.000000001
 43
0.00000001
 40
0.0
 40
0.0
 40
0.0
 40
0.0
 40
0.1249999999999991
 40
0.1249999999999991
 40
0.2499999999999982
 40
0.2499999999999982
 40
0.4999999999999986
 40
0.4999999999999986
 40
0.7499999999999989
 40
0.7499999999999989
 40
0.8749999999999991
 40
0.8749999999999991
 40
0.9374999999999996
 40
0.9374999999999996
 40
1.0
 40
1.0
 40
1.0
 40
1.0
 10
103.3625462012321
 20
138.7321673912395
 30
0.0
 10
103.3625462012321
 20
138.6725118682475
 30
0.0
 10
103.3500499945011
 20
138.6101314984935
 30
0.0
 10
103.3040013992273
 20
138.4838011214409
 30
0.0
 10
103.2704862849336
 20
138.4194105764004
 30
0.0
 10
103.142281156098
 20
138.2227773218801
 30
0.0
 10
103.01881069732
 20
138.0857491439035
 30
0.0
 10
102.7158655513548
 20
137.8120770067658
 30
0.0
 10
102.5393302262587
 20
137.6745875451406
 30
0.0
 10
102.2164044853824
 20
137.4734977406561
 30
0.0
 10
102.0986590541211
 20
137.406327365026
 30
0.0
 10
101.8908442950774
 20
137.3199469696225
 30
0.0
 10
101.8152987387428
 20
137.2933102887199
 30
0.0
 10
101.646023783768
 20
137.2557575765799
 30
0.0
 10
101.552587754168
 20
137.2467480607202
 30
0.0
 10
101.462546201232
 20
137.2511621966176
 30
0.0
  0
LINE
  5
D7
330
1F
100
AcDbEntity
  8
0
  6
Continuous
 62
     7
370
    15
100
AcDbLine
 10
103.3625462012
 20
138.7321673912
 30
0.0
 11
103.3625462012
 21
140.3451758054
 31
0.0
  0
LINE
  5
D8
330
1F
100
AcDbEntity
  8
0
  6
Continuous
 62
     7
370
    15
100
AcDbLine
 10
132.6625462012
 20
81.2500094727
 30
0.0
 11
132.6625462012
 21
141.8131116772
 31
0.0
  0
SPLINE
  5
D9
330
1F
100
AcDbEntity
  8
0
  6
Continuous
 62
     7
370
    15
100
AcDbSpline
210
0.0
220
0.0
230
1.0
 70
     8
 71
     3
 72
    24
 73
    20
 74
     0
 42
0.000000001
 43
0.00000001
 40
0.0
 40
0.0
 40
0.0
 40
0.0
 40
0.0006675883159946
 40
0.0632907201584545
 40
0.1266235196374192
 40
0.1897225217837372
 40
0.2519902853093296
 40
0.313969371088098
 40
0.376507313282058
 40
0.4388698633074125
 40
0.500459875800236
 40
0.5619749718344432
 40
0.6247082698745162
 40
0.6873839318222156
 40
0.7496296591638434
 40
0.8119076813147827
 40
0.8749614520961194
 40
0.9381947704106505
 40
1.0
 40
1.0
 40
1.0
 40
1.0
 10
118.424114285725
 20
81.96351254336146
 30
0.0
 10
118.4237936817609
 20
81.96347706392879
 30
0.0
 10
118.3933988182078
 20
81.96011343579138
 30
0.0
 10
118.4999842773365
 20
81.97222960891415
 30
0.0
 10
118.7604127049806
 20
81.99978534985225
 30
0.0
 10
119.2026585403585
 20
82.04370263445357
 30
0.0
 10
119.7923581067948
 20
82.09038444078068
 30
0.0
 10
120.5127126982295
 20
82.13058645846483
 30
0.0
 10
121.3395454009188
 20
82.15289309329964
 30
0.0
 10
122.2323176584451
 20
82.15153477335949
 30
0.0
 10
123.1577871792799
 20
82.11915035356849
 30
0.0
 10
124.0824881419915
 20
82.05612049382941
 30
0.0
 10
124.9705759342304
 20
81.96636403398897
 30
0.0
 10
125.7923290381244
 20
81.86061697733
 30
0.0
 10
126.505869156406
 20
81.74917797976185
 30
0.0
 10
127.091848789639
 20
81.64449930224954
 30
0.0
 10
127.5204962891682
 20
81.55969152662665
 30
0.0
 10
127.8027986590076
 20
81.501856564011
 30
0.0
 10
127.8361091988564
 20
81.49469495045821
 30
0.0
 10
127.8525742458168
 20
81.49115504074811
 30
0.0
  0
SPLINE
  5
DA
330
1F
100
AcDbEntity
  8
0
  6
Continuous
 62
     7
370
    15
100
AcDbSpline
210
0.0
220
0.0
230
1.0
 70
     8
 71
     3
 72
    24
 73
    20
 74
     0
 42
0.000000001
 43
0.00000001
 40
0.0
 40
0.0
 40
0.0
 40
0.0
 40
0.0617087493743627
 40
0.1252372755574937
 40
0.1885309805132148
 40
0.2509305509555709
 40
0.3130409675235134
 40
0.3755023914560307
 40
0.4379589352476554
 40
0.4994688322562049
 40
0.5610824013278728
 40
0.623544369984506
 40
0.6861429606818762
 40
0.7482311544071525
 40
0.8104792077812242
 40
0.8736616521711077
 40
0.9368990575724673
 40
0.9995527319596672
 40
1.0
 40
1.0
 40
1.0
 40
1.0
 10
127.8525339129148
 20
141.5719432061134
 30
0.0
 10
127.8357487660902
 20
141.5684030611195
 30
0.0
 10
127.8016834823266
 20
141.5612183730711
 30
0.0
 10
127.5171162920421
 20
141.5031624869304
 30
0.0
 10
127.0868938113227
 20
141.4179634425087
 30
0.0
 10
126.5003529633135
 20
141.313001291738
 30
0.0
 10
125.7877532430827
 20
141.2015759876139
 30
0.0
 10
124.9686386213472
 20
141.096115901832
 30
0.0
 10
124.0824036121378
 20
141.0067719704186
 30
0.0
 10
123.1588926840546
 20
140.9440314970641
 30
0.0
 10
122.2329200490102
 20
140.9116907456676
 30
0.0
 10
121.3393353019554
 20
140.9103608387211
 30
0.0
 10
120.5113270388147
 20
140.932674600603
 30
0.0
 10
119.7902425854313
 20
140.9728478110133
 30
0.0
 10
119.2001666359266
 20
141.0195441157967
 30
0.0
 10
118.7588976566041
 20
141.0634617664309
 30
0.0
 10
118.499606081488
 20
141.0909714676343
 30
0.0
 10
118.3933035043761
 20
141.1030352066163
 30
0.0
 10
118.4234728938098
 20
141.0996619365408
 30
0.0
 10
118.423686738535
 20
141.0996380263448
 30
0.0
  0
SPLINE
  5
DB
330
1F
100
AcDbEntity
  8
0
  6
Continuous
 62
     7
370
    15
100
AcDbSpline
210
0.0
220
0.0
230
1.0
 70
     8
 71
     3
 72
     9
 73
     5
 74
     0
 42
0.000000001
 43
0.00000001
 40
0.0
 40
0.0
 40
0.0
 40
0.0
 40
0.7140681271130342
 40
1.0
 40
1.0
 40
1.0
 40
1.0
 10
95.26630786894601
 20
87.37253028996584
 30
0.0
 10
95.27174364307653
 20
87.37235277883389
 30
0.0
 10
95.27935604576486
 20
87.37210418752275
 30
0.0
 10
95.29008299482403
 20
87.4461232861168
 30
0.0
 10
95.29315017145886
 20
87.4672877056072
 30
0.0
  0
LINE
  5
DC
330
1F
100
AcDbEntity
  8
0
  6
Continuous
 62
     7
370
    15
100
AcDbLine
 10
95.2625462012
 20
87.3646821393
 30
0.0
 11
95.2625462012
 21
135.6984390106
 31
0.0
  0
SPLINE
  5
DD
330
1F
100
AcDbEntity
  8
0
  6
Continuous
 62
     7
370
    15
100
AcDbSpline
210
0.0
220
0.0
230
1.0
 70
     8
 71
     3
 72
     8
 73
     4
 74
     0
 42
0.000000001
 43
0.00000001
 40
0.0
 40
0.0
 40
0.0
 40
0.0
 40
1.0
 40
1.0
 40
1.0
 40
1.0
 10
95.2931501714587
 20
135.59583344429
 30
0.0
 10
95.28305383448394
 20
135.689706828465
 30
0.0
 10
95.26254620123204
 20
135.7143901752061
 30
0.0
 10
95.26254620123204
 20
135.6984390106257
 30
0.0
  0
SPLINE
  5
DE
330
1F
100
AcDbEntity
  8
0
  6
Continuous
 62
     7
370
    15
100
AcDbSpline
210
0.0
220
0.0
230
1.0
 70
     8
 71
     3
 72
    26
 73
    22
 74
     0
 42
0.000000001
 43
0.00000001
 40
0.0
 40
0.0
 40
0.0
 40
0.0
 40
0.2500000000000056
 40
0.2500000000000056
 40
0.3750000000000083
 40
0.3750000000000083
 40
0.4375000000000094
 40
0.4375000000000094
 40
0.5000000000000105
 40
0.5000000000000105
 40
0.5312500000000097
 40
0.5312500000000097
 40
0.5625000000000088
 40
0.5625000000000088
 40
0.6250000000000071
 40
0.6250000000000071
 40
0.7500000000000048
 40
0.7500000000000048
 40
0.8750000000000024
 40
0.8750000000000024
 40
1.0
 40
1.0
 40
1.0
 40
1.0
 10
96.56495549939149
 20
136.7909395260247
 30
0.0
 10
96.49884256352365
 20
136.5884593004264
 30
0.0
 10
96.4183507247472
 20
136.3736975712849
 30
0.0
 10
96.25396500067126
 20
136.018032241857
 30
0.0
 10
96.19251506942567
 20
135.8947009239084
 30
0.0
 10
96.07663168937958
 20
135.6926878797836
 30
0.0
 10
96.03456611307796
 20
135.6233748278441
 30
0.0
 10
95.93564461976747
 20
135.4763596649604
 30
0.0
 10
95.87838156948447
 20
135.3968780537652
 30
0.0
 10
95.77090334059241
 20
135.278487242543
 30
0.0
 10
95.73183708757539
 20
135.240569758571
 30
0.0
 10
95.65878603063133
 20
135.1824757593298
 30
0.0
 10
95.62723091245293
 20
135.1638104073516
 30
0.0
 10
95.54860366114274
 20
135.1290510436507
 30
0.0
 10
95.51436514535536
 20
135.1302275860992
 30
0.0
 10
95.43039219906065
 20
135.1526026916001
 30
0.0
 10
95.40038426625745
 20
135.1948085368868
 30
0.0
 10
95.35156056100539
 20
135.2909790519275
 30
0.0
 10
95.33503970635371
 20
135.3473586195286
 30
0.0
 10
95.30927040267102
 20
135.4668755316047
 30
0.0
 10
95.30019219533489
 20
135.5303583502696
 30
0.0
 10
95.29315017145885
 20
135.5958334442902
 30
0.0
  0
SPLINE
  5
DF
330
1F
100
AcDbEntity
  8
0
  6
Continuous
 62
     7
370
    15
100
AcDbSpline
210
0.0
220
0.0
230
1.0
 70
     8
 71
     3
 72
     8
 73
     4
 74
     0
 42
0.000000001
 43
0.00000001
 40
0.0
 40
0.0
 40
0.0
 40
0.0
 40
1.0
 40
1.0
 40
1.0
 40
1.0
 10
96.78248629400774
 20
137.1928608579315
 30
0.0
 10
96.6893934913182
 20
137.0682298516326
 30
0.0
 10
96.61088376432532
 20
136.9316013393682
 30
0.0
 10
96.56495549939528
 20
136.7909395260279
 30
0.0
  0
SPLINE
  5
E0
330
1F
100
AcDbEntity
  8
0
  6
Continuous
 62
     7
370
    15
100
AcDbSpline
210
0.0
220
0.0
230
1.0
 70
     8
 71
     3
 72
     8
 73
     4
 74
     0
 42
0.000000001
 43
0.00000001
 40
0.0
 40
0.0
 40
0.0
 40
0.0
 40
1.0
 40
1.0
 40
1.0
 40
1.0
 10
96.56495549939514
 20
86.27218162386984
 30
0.0
 10
96.61088376432618
 20
86.13151981052636
 30
0.0
 10
96.6893934913215
 20
85.9948912982589
 30
0.0
 10
96.78248629401381
 20
85.87026029195772
 30
0.0
  0
SPLINE
  5
E1
330
1F
100
AcDbEntity
  8
0
  6
Continuous
 62
     7
370
    15
100
AcDbSpline
210
0.0
220
0.0
230
1.0
 70
     8
 71
     3
 72
    26
 73
    22
 74
     0
 42
0.000000001
 43
0.00000001
 40
0.0
 40
0.0
 40
0.0
 40
0.0
 40
0.2500000000000008
 40
0.2500000000000008
 40
0.3750000000000012
 40
0.3750000000000012
 40
0.4375000000000003
 40
0.4375000000000003
 40
0.4687500000000004
 40
0.4687500000000004
 40
0.5000000000000004
 40
0.5000000000000004
 40
0.5312500000000004
 40
0.5312500000000004
 40
0.5625000000000004
 40
0.5625000000000004
 40
0.6250000000000004
 40
0.6250000000000004
 40
0.7500000000000006
 40
0.7500000000000006
 40
1.0
 40
1.0
 40
1.0
 40
1.0
 10
95.29315017145886
 20
87.4672877056072
 30
0.0
 10
95.3072425294015
 20
87.59831515985996
 30
0.0
 10
95.32697483973534
 20
87.72377743456818
 30
0.0
 10
95.4005397496926
 20
87.8685872964928
 30
0.0
 10
95.43100114941522
 20
87.91081240349737
 30
0.0
 10
95.51447044993566
 20
87.93285529329223
 30
0.0
 10
95.54936403827136
 20
87.93393048296558
 30
0.0
 10
95.62811535521374
 20
87.89881910117128
 30
0.0
 10
95.65994496673802
 20
87.87982971833057
 30
0.0
 10
95.7325483828228
 20
87.82187699155728
 30
0.0
 10
95.7724880020493
 20
87.78301081007977
 30
0.0
 10
95.84386379924098
 20
87.70413802967728
 30
0.0
 10
95.87657891760132
 20
87.66346132062799
 30
0.0
 10
95.93542982535402
 20
87.58550518620373
 30
0.0
 10
95.96239405177064
 20
87.54710477363047
 30
0.0
 10
96.0367293768113
 20
87.43632302519403
 30
0.0
 10
96.0785972519203
 20
87.36713734922445
 30
0.0
 10
96.19381259301097
 20
87.16588816475453
 30
0.0
 10
96.2558239385603
 20
87.04125939618407
 30
0.0
 10
96.41900164966307
 20
86.68762242324705
 30
0.0
 10
96.4989014678802
 20
86.47448144654399
 30
0.0
 10
96.56495549939304
 20
86.27218162387177
 30
0.0
  0
LINE
  5
E2
330
1F
100
AcDbEntity
  8
0
  6
Continuous
 62
     7
370
    15
100
AcDbLine
 10
155.0725462012
 20
137.2672969157
 30
0.0
 11
155.0725462012
 21
139.1914436121
 31
0.0
  0
SPLINE
  5
E3
330
1F
100
AcDbEntity
  8
0
  6
Continuous
 62
     7
370
    15
100
AcDbSpline
210
0.0
220
0.0
230
1.0
 70
     8
 71
     3
 72
     8
 73
     4
 74
     0
 42
0.000000001
 43
0.00000001
 40
0.0
 40
0.0
 40
0.0
 40
0.0
 40
1.0
 40
1.0
 40
1.0
 40
1.0
 10
155.072546201232
 20
139.1914436120555
 30
0.0
 10
155.6023457909615
 20
140.4250280084049
 30
0.0
 10
156.1455115089217
 20
141.6530646797795
 30
0.0
 10
156.6988166000185
 20
142.8760576996435
 30
0.0
  0
LINE
  5
E4
330
1F
100
AcDbEntity
  8
0
  6
Continuous
 62
     7
370
    15
100
AcDbLine
 10
156.6988166
 20
142.8760576996
 30
0.0
 11
160.1125462012
 21
142.8760576996
 31
0.0
  0
SPLINE
  5
E5
330
1F
100
AcDbEntity
  8
0
  6
Continuous
 62
     7
370
    15
100
AcDbSpline
210
0.0
220
0.0
230
1.0
 70
     8
 71
     3
 72
    12
 73
     8
 74
     0
 42
0.000000001
 43
0.00000001
 40
0.0
 40
0.0
 40
0.0
 40
0.0
 40
0.2500000000000019
 40
0.2500000000000019
 40
0.5000000000000008
 40
0.5000000000000008
 40
1.0
 40
1.0
 40
1.0
 40
1.0
 10
160.112546201232
 20
142.8760576996435
 30
0.0
 10
160.2631222746488
 20
142.8760576996435
 30
0.0
 10
160.4121240449323
 20
142.8309466979707
 30
0.0
 10
160.6693770508633
 20
142.67515105858
 30
0.0
 10
160.7786608033338
 20
142.5652735545992
 30
0.0
 10
161.0334325591796
 20
142.1934307384136
 30
0.0
 10
161.112546201232
 20
141.8895879551827
 30
0.0
 10
161.112546201232
 20
141.5894630300436
 30
0.0
  0
LINE
  5
E6
330
1F
100
AcDbEntity
  8
0
  6
Continuous
 62
     7
370
    15
100
AcDbLine
 10
161.1125462012
 20
141.58946303
 30
0.0
 11
161.1125462012
 21
136.3815605749
 31
0.0
  0
SPLINE
  5
E7
330
1F
100
AcDbEntity
  8
0
  6
Continuous
 62
     7
370
    15
100
AcDbSpline
210
0.0
220
0.0
230
1.0
 70
     8
 71
     3
 72
     8
 73
     4
 74
     0
 42
0.000000001
 43
0.00000001
 40
0.0
 40
0.0
 40
0.0
 40
0.0
 40
1.0
 40
1.0
 40
1.0
 40
1.0
 10
151.252546201232
 20
147.6091385095389
 30
0.0
 10
150.7113574190603
 20
148.5752316564154
 30
0.0
 10
150.1692027053821
 20
149.540787162562
 30
0.0
 10
149.6262758024455
 20
150.5059111147588
 30
0.0
  0
LINE
  5
E8
330
1F
100
AcDbEntity
  8
0
  6
Continuous
 62
     7
370
    15
100
AcDbLine
 10
151.2525462012
 20
139.1914436121
 30
0.0
 11
151.2525462012
 21
147.6091385095
 31
0.0
  0
SPLINE
  5
E9
330
1F
100
AcDbEntity
  8
0
  6
Continuous
 62
     7
370
    15
100
AcDbSpline
210
0.0
220
0.0
230
1.0
 70
     8
 71
     3
 72
     8
 73
     4
 74
     0
 42
0.000000001
 43
0.00000001
 40
0.0
 40
0.0
 40
0.0
 40
0.0
 40
1.0
 40
1.0
 40
1.0
 40
1.0
 10
149.6262758024455
 20
142.8760576996435
 30
0.0
 10
150.1798088013856
 20
141.6525609256917
 30
0.0
 10
150.7232216190537
 20
140.4239220016912
 30
0.0
 10
151.252546201232
 20
139.1914436120555
 30
0.0
  0
LINE
  5
EA
330
1F
100
AcDbEntity
  8
0
  6
Continuous
 62
     7
370
    15
100
AcDbLine
 10
151.2525462012
 20
139.1914436121
 30
0.0
 11
151.2525462012
 21
137.2672969157
 31
0.0
  0
SPLINE
  5
EB
330
1F
100
AcDbEntity
  8
0
  6
Continuous
 62
     7
370
    15
100
AcDbSpline
210
0.0
220
0.0
230
1.0
 70
     8
 71
     3
 72
    12
 73
     8
 74
     0
 42
0.000000001
 43
0.00000001
 40
0.0
 40
0.0
 40
0.0
 40
0.0
 40
0.5000000000000022
 40
0.5000000000000022
 40
0.7500000000000011
 40
0.7500000000000011
 40
1.0
 40
1.0
 40
1.0
 40
1.0
 10
161.112546201232
 20
149.4788924969692
 30
0.0
 10
161.112546201232
 20
149.7450342652222
 30
0.0
 10
161.0088295056642
 20
150.0083211834491
 30
0.0
 10
160.7324475205483
 20
150.2960826290442
 30
0.0
 10
160.622149935586
 20
150.3730621985014
 30
0.0
 10
160.3776541552161
 20
150.4785032773383
 30
0.0
 10
160.2454411278151
 20
150.5059111147588
 30
0.0
 10
160.112546201232
 20
150.5059111147588
 30
0.0
  0
LINE
  5
EC
330
1F
100
AcDbEntity
  8
0
  6
Continuous
 62
     7
370
    15
100
AcDbLine
 10
161.1125462012
 20
141.58946303
 30
0.0
 11
161.1125462012
 21
149.478892497
 31
0.0
  0
SPLINE
  5
ED
330
1F
100
AcDbEntity
  8
0
  6
Continuous
 62
     7
370
    15
100
AcDbSpline
210
0.0
220
0.0
230
1.0
 70
     8
 71
     3
 72
     8
 73
     4
 74
     0
 42
0.000000001
 43
0.00000001
 40
0.0
 40
0.0
 40
0.0
 40
0.0
 40
1.0
 40
1.0
 40
1.0
 40
1.0
 10
156.6988166000185
 20
150.5059111147588
 30
0.0
 10
156.1558896970819
 20
149.540787162562
 30
0.0
 10
155.6137349834038
 20
148.5752316564154
 30
0.0
 10
155.072546201232
 20
147.6091385095389
 30
0.0
  0
LINE
  5
EE
330
1F
100
AcDbEntity
  8
0
  6
Continuous
 62
     7
370
    15
100
AcDbLine
 10
156.6988166
 20
142.8760576996
 30
0.0
 11
156.6988166
 21
150.5059111148
 31
0.0
  0
LINE
  5
EF
330
1F
100
AcDbEntity
  8
0
  6
Continuous
 62
     7
370
    15
100
AcDbLine
 10
155.0725462012
 20
139.1914436121
 30
0.0
 11
155.0725462012
 21
147.6091385095
 31
0.0
  0
LINE
  5
F0
330
1F
100
AcDbEntity
  8
0
  6
Continuous
 62
     7
370
    15
100
AcDbLine
 10
160.1125462012
 20
150.5059111148
 30
0.0
 11
156.6988166
 21
150.5059111148
 31
0.0
  0
LINE
  5
F1
330
1F
100
AcDbEntity
  8
0
  6
Continuous
 62
     7
370
    15
100
AcDbLine
 10
190.7625462012
 20
90.5315605749
 30
0.0
 11
190.7625462012
 21
132.5315605749
 31
0.0
  0
SPLINE
  5
F2
330
1F
100
AcDbEntity
  8
0
  6
Continuous
 62
     7
370
    15
100
AcDbSpline
210
0.0
220
0.0
230
1.0
 70
     8
 71
     3
 72
    54
 73
    50
 74
     0
 42
0.000000001
 43
0.00000001
 40
0.0
 40
0.0
 40
0.0
 40
0.0
 40
0.0312500000000001
 40
0.0312500000000001
 40
0.0625000000000001
 40
0.0625000000000001
 40
0.1250000000000002
 40
0.1250000000000002
 40
0.1875000000000003
 40
0.1875000000000003
 40
0.2187500000000003
 40
0.2187500000000003
 40
0.2500000000000003
 40
0.2500000000000003
 40
0.3124999999999996
 40
0.3124999999999996
 40
0.3749999999999988
 40
0.3749999999999988
 40
0.4062499999999984
 40
0.4062499999999984
 40
0.4374999999999981
 40
0.4374999999999981
 40
0.4999999999999973
 40
0.4999999999999973
 40
0.5312499999999973
 40
0.5312499999999973
 40
0.5624999999999974
 40
0.5624999999999974
 40
0.6249999999999977
 40
0.6249999999999977
 40
0.6562499999999973
 40
0.6562499999999973
 40
0.687499999999997
 40
0.687499999999997
 40
0.7499999999999964
 40
0.7499999999999964
 40
0.7812499999999966
 40
0.7812499999999966
 40
0.8124999999999968
 40
0.8124999999999968
 40
0.8749999999999976
 40
0.8749999999999976
 40
0.9062499999999981
 40
0.9062499999999981
 40
0.9374999999999988
 40
0.9374999999999988
 40
0.9687499999999993
 40
0.9687499999999993
 40
1.0
 40
1.0
 40
1.0
 40
1.0
 10
186.112546201232
 20
111.5315605749487
 30
0.0
 10
186.112546201232
 20
111.3026904109261
 30
0.0
 10
186.0983680683105
 20
111.0736356721287
 30
0.0
 10
186.0410447825033
 20
110.6151494505841
 30
0.0
 10
185.9976903010914
 20
110.3861369908794
 30
0.0
 10
185.8286153494196
 20
109.7180937349335
 30
0.0
 10
185.663079947779
 20
109.2899882026959
 30
0.0
 10
185.2349250423228
 20
108.4730083816488
 30
0.0
 10
184.9789308828415
 20
108.09597188204
 30
0.0
 10
184.5389368363536
 20
107.5716633854899
 30
0.0
 10
184.3820223152634
 20
107.4030933107205
 30
0.0
 10
184.0541673822616
 20
107.0840349634689
 30
0.0
 10
183.8833795635191
 20
106.9334903583403
 30
0.0
 10
183.3515419615094
 20
106.5070477295516
 30
0.0
 10
182.9697135873802
 20
106.2553111817707
 30
0.0
 10
182.1615353051951
 20
105.8193976805676
 30
0.0
 10
181.7428896759301
 20
105.6390431035209
 30
0.0
 10
181.0941840045934
 20
105.4209105398405
 30
0.0
 10
180.8744673977545
 20
105.357002140119
 30
0.0
 10
180.4279772112526
 20
105.2468787827074
 30
0.0
 10
180.2004430644045
 20
105.2006104861524
 30
0.0
 10
179.5189445101917
 20
105.0907297374235
 30
0.0
 10
179.0628528710265
 20
105.0547689319832
 30
0.0
 10
178.3761290650938
 20
105.0553702281117
 30
0.0
 10
178.146787726481
 20
105.0647166531373
 30
0.0
 10
177.687218481651
 20
105.1021436922487
 30
0.0
 10
177.456493171979
 20
105.1303959859391
 30
0.0
 10
176.7758653140569
 20
105.241986595467
 30
0.0
 10
176.3332770486771
 20
105.3520772561111
 30
0.0
 10
175.6859497054745
 20
105.5709420423768
 30
0.0
 10
175.4729489696167
 20
105.6529073493556
 30
0.0
 10
175.0526775866836
 20
105.8356358792438
 30
0.0
 10
174.8449924330421
 20
105.9367390674992
 30
0.0
 10
174.2431309804581
 20
106.2630766875354
 30
0.0
 10
173.865816157247
 20
106.5126563422557
 30
0.0
 10
173.3368075267607
 20
106.9377274896793
 30
0.0
 10
173.1666752656013
 20
107.087928226271
 30
0.0
 10
172.8396309365022
 20
107.4066884200764
 30
0.0
 10
172.6825128067747
 20
107.5757170109477
 30
0.0
 10
172.2429362973805
 20
108.1003999259779
 30
0.0
 10
171.9880411878437
 20
108.476779421585
 30
0.0
 10
171.6688853651644
 20
109.0862034727745
 30
0.0
 10
171.5728403810767
 20
109.2980467614258
 30
0.0
 10
171.4083884596922
 20
109.7263548917909
 30
0.0
 10
171.3392570356335
 20
109.9439249952884
 30
0.0
 10
171.227498602636
 20
110.3860119919273
 30
0.0
 10
171.1848678817061
 20
110.6105278822822
 30
0.0
 10
171.1273364703115
 20
111.0668484375897
 30
0.0
 10
171.112546201232
 20
111.3004825313261
 30
0.0
 10
171.112546201232
 20
111.5315605749487
 30
0.0
  0
SPLINE
  5
F3
330
1F
100
AcDbEntity
  8
0
  6
Continuous
 62
     7
370
    15
100
AcDbSpline
210
0.0
220
0.0
230
1.0
 70
     8
 71
     3
 72
    44
 73
    40
 74
     0
 42
0.000000001
 43
0.00000001
 40
0.0
 40
0.0
 40
0.0
 40
0.0
 40
0.0624999999999998
 40
0.0624999999999998
 40
0.0937499999999997
 40
0.0937499999999997
 40
0.1249999999999996
 40
0.1249999999999996
 40
0.1874999999999997
 40
0.1874999999999997
 40
0.2499999999999998
 40
0.2499999999999998
 40
0.3124999999999999
 40
0.3124999999999999
 40
0.375
 40
0.375
 40
0.4375000000000001
 40
0.4375000000000001
 40
0.5000000000000002
 40
0.5000000000000002
 40
0.5625000000000003
 40
0.5625000000000003
 40
0.6250000000000004
 40
0.6250000000000004
 40
0.6875000000000006
 40
0.6875000000000006
 40
0.7500000000000006
 40
0.7500000000000006
 40
0.8125000000000007
 40
0.8125000000000007
 40
0.8437500000000008
 40
0.8437500000000008
 40
0.8750000000000009
 40
0.8750000000000009
 40
0.9375000000000006
 40
0.9375000000000006
 40
0.9687500000000002
 40
0.9687500000000002
 40
1.0
 40
1.0
 40
1.0
 40
1.0
 10
171.112546201232
 20
111.5315605749487
 30
0.0
 10
171.112546201232
 20
111.9942144667319
 30
0.0
 10
171.170002797139
 20
112.4495801917696
 30
0.0
 10
171.3399650897532
 20
113.1220423238572
 30
0.0
 10
171.4108706500874
 20
113.3441165449573
 30
0.0
 10
171.5762696441518
 20
113.773087946851
 30
0.0
 10
171.6711117464768
 20
113.981556232545
 30
0.0
 10
171.9903126759532
 20
114.5898921112985
 30
0.0
 10
172.251728152697
 20
114.9747767113606
 30
0.0
 10
172.8393839535833
 20
115.673033896617
 30
0.0
 10
173.1680771585638
 20
115.9912880029292
 30
0.0
 10
173.8871243278961
 20
116.5660526548965
 30
0.0
 10
174.2682304212764
 20
116.8153480203187
 30
0.0
 10
175.0670844234089
 20
117.2450072889736
 30
0.0
 10
175.4853312713877
 20
117.425626465845
 30
0.0
 10
176.360101375834
 20
117.7187729786934
 30
0.0
 10
176.8049732139633
 20
117.8273237946689
 30
0.0
 10
177.707119711386
 20
117.972313517983
 30
0.0
 10
178.1662982884837
 20
118.0088249292793
 30
0.0
 10
179.0916402607339
 20
118.0070529033615
 30
0.0
 10
179.5480427252831
 20
117.9690468469593
 30
0.0
 10
180.4487561940318
 20
117.821049808486
 30
0.0
 10
180.8947316585838
 20
117.7105171408352
 30
0.0
 10
181.7668696004549
 20
117.4147162813794
 30
0.0
 10
182.1838283051721
 20
117.2328961711226
 30
0.0
 10
182.980094050586
 20
116.8009638146806
 30
0.0
 10
183.3610728970219
 20
116.5496211033958
 30
0.0
 10
184.074489411777
 20
115.9751640064055
 30
0.0
 10
184.3983497743087
 20
115.6594190404112
 30
0.0
 10
184.8332136197914
 20
115.140569786021
 30
0.0
 10
184.9696162554008
 20
114.9600255599787
 30
0.0
 10
185.2241182939684
 20
114.5825197935508
 30
0.0
 10
185.3429246992933
 20
114.3841479762987
 30
0.0
 10
185.6631095218602
 20
113.7728479644958
 30
0.0
 10
185.8281692045741
 20
113.3466354462354
 30
0.0
 10
185.9977412077584
 20
112.6768602811132
 30
0.0
 10
186.0411697183042
 20
112.4470984846445
 30
0.0
 10
186.0983368423937
 20
111.9896089702034
 30
0.0
 10
186.112546201232
 20
111.7606772630557
 30
0.0
 10
186.112546201232
 20
111.5315605749487
 30
0.0
  0
LINE
  5
F4
330
1F
100
AcDbEntity
  8
0
  6
Continuous
 62
     7
370
    15
100
AcDbLine
 10
191.1625462012
 20
90.9315605749
 30
0.0
 11
191.1625462012
 21
132.1315605749
 31
0.0
  0
LINE
  5
F5
330
1F
100
AcDbEntity
  8
0
  6
Continuous
 62
     7
370
    15
100
AcDbLine
 10
96.9125462012
 20
85.7115605749
 30
0.0
 11
96.9125462012
 21
85.7144292012
 31
0.0
  0
LINE
  5
F6
330
1F
100
AcDbEntity
  8
0
  6
Continuous
 62
     7
370
    15
100
AcDbLine
 10
96.9125462012
 20
137.3515605749
 30
0.0
 11
96.9125462012
 21
137.3486919487
 31
0.0
  0
CIRCLE
  5
F7
330
1F
100
AcDbEntity
  8
0
  6
HIDDEN
 62
     7
370
     0
100
AcDbCircle
 10
178.6125462012
 20
111.5315605749
 30
0.0
 40
5.18125784838206
  0
CIRCLE
  5
F8
330
1F
100
AcDbEntity
  8
0
  6
HIDDEN
 62
     7
370
     0
100
AcDbCircle
 10
178.6125462012
 20
111.5315605749
 30
0.0
 40
4.172547133356716
  0
CIRCLE
  5
F9
330
1F
100
AcDbEntity
  8
0
  6
HIDDEN
 62
     7
370
     0
100
AcDbCircle
 10
178.6125462012
 20
111.5315605749
 30
0.0
 40
3.872547133356719
  0
LINE
  5
FA
330
1F
100
AcDbEntity
  8
0
  6
HIDDEN
 62
     7
370
     0
100
AcDbLine
 10
149.6262758024
 20
142.8760576996
 30
0.0
 11
149.6262758024
 21
136.3815605749
 31
0.0
  0
LINE
  5
FB
330
1F
100
AcDbEntity
  8
0
  6
HIDDEN
 62
     7
370
     0
100
AcDbLine
 10
119.8019606453
 20
82.0885037267
 30
0.0
 11
119.5158441463
 21
82.0663757036
 31
0.0
  0
SPLINE
  5
FC
330
1F
100
AcDbEntity
  8
0
  6
HIDDEN
 62
     7
370
     0
100
AcDbSpline
210
0.0
220
0.0
230
1.0
 70
     8
 71
     3
 72
    16
 73
    12
 74
     0
 42
0.000000001
 43
0.00000001
 40
0.0
 40
0.0
 40
0.0
 40
0.0
 40
0.1207890620525803
 40
0.2415497483578687
 40
0.3627156554088992
 40
0.482650831561514
 40
0.6013668649821652
 40
0.7207737519208062
 40
0.8416969752194023
 40
0.9626181524108507
 40
1.0
 40
1.0
 40
1.0
 40
1.0
 10
127.162546201232
 20
86.57284466246631
 30
0.0
 10
126.9564572660848
 20
86.60512529734824
 30
0.0
 10
126.5443278101705
 20
86.66967898375046
 30
0.0
 10
125.4243518913993
 20
86.8024380560937
 30
0.0
 10
124.0811123366627
 20
86.89202236537957
 30
0.0
 10
122.6302225489064
 20
86.90368263817867
 30
0.0
 10
121.252991426137
 20
86.8328406396868
 30
0.0
 10
120.0764643835724
 20
86.70945710699678
 30
0.0
 10
119.2706770692993
 20
86.59253338926452
 30
0.0
 10
118.8877351034391
 20
86.5273958015288
 30
0.0
 10
118.9490762055236
 20
86.5377129873796
 30
0.0
 10
118.9635613597539
 20
86.54014929881183
 30
0.0
  0
SPLINE
  5
FD
330
1F
100
AcDbEntity
  8
0
  6
HIDDEN
 62
     7
370
     0
100
AcDbSpline
210
0.0
220
0.0
230
1.0
 70
     8
 71
     3
 72
    16
 73
    12
 74
     0
 42
0.000000001
 43
0.00000001
 40
0.0
 40
0.0
 40
0.0
 40
0.0
 40
0.0820474354355434
 40
0.200821373618754
 40
0.3207518615499501
 40
0.4419152178021523
 40
0.5624556841820475
 40
0.6814503605902122
 40
0.800403876141144
 40
0.9208629866838697
 40
1.0
 40
1.0
 40
1.0
 40
1.0
 10
118.9635613597539
 20
136.5229718510855
 30
0.0
 10
118.9652343448403
 20
136.5226167293418
 30
0.0
 10
118.9693291853592
 20
136.5217475243998
 30
0.0
 10
119.5143316907186
 20
136.43239401985
 30
0.0
 10
120.4625946108423
 20
136.3068363007127
 30
0.0
 10
121.7381954223385
 20
136.1958582698658
 30
0.0
 10
123.169707357718
 20
136.1533323518505
 30
0.0
 10
124.593790205624
 20
136.1968533031259
 30
0.0
 10
125.8483423848238
 20
136.3050440874957
 30
0.0
 10
126.722463106615
 20
136.4210131380933
 30
0.0
 10
127.0375992283967
 20
136.4706114606803
 30
0.0
 10
127.162546201232
 20
136.490276487431
 30
0.0
  0
SPLINE
  5
FE
330
1F
100
AcDbEntity
  8
0
  6
HIDDEN
 62
     7
370
     0
100
AcDbSpline
210
0.0
220
0.0
230
1.0
 70
    24
 71
     3
 72
     9
 73
     5
 74
     0
 42
0.000000001
 43
0.00000001
 40
0.0
 40
0.0
 40
0.0
 40
0.0
 40
0.9655153938869723
 40
1.0
 40
1.0
 40
1.0
 40
1.0
 10
127.162546201232
 20
136.490276487431
 30
0.0
 10
127.323628982789
 20
136.5148646000246
 30
0.0
 10
127.4904650400666
 20
136.5403309082257
 30
0.0
 10
127.4068010740332
 20
136.5275602135743
 30
0.0
 10
127.4039159551186
 20
136.5271198211994
 30
0.0
  0
LINE
  5
FF
330
1F
100
AcDbEntity
  8
0
  6
HIDDEN
 62
     7
370
     0
100
AcDbLine
 10
127.4038311845
 20
86.5360142683
 30
0.0
 11
127.1625462012
 21
86.5728446625
 31
0.0
  0
LINE
  5
100
330
1F
100
AcDbEntity
  8
0
  6
HIDDEN
 62
     7
370
     0
100
AcDbLine
 10
111.1578456629
 20
90.5315605749
 30
0.0
 11
111.1578456629
 21
132.5315605749
 31
0.0
  0
LINE
  5
101
330
1F
100
AcDbEntity
  8
0
  6
HIDDEN
 62
     7
370
     0
100
AcDbLine
 10
144.6909307717
 20
90.5315605749
 30
0.0
 11
144.6909307717
 21
132.5315605749
 31
0.0
  0
LINE
  5
102
330
1F
100
AcDbEntity
  8
0
  6
HIDDEN
 62
     7
370
     0
100
AcDbLine
 10
147.6125462012
 20
92.3065605749
 30
0.0
 11
147.6125462012
 21
130.756560561
 31
0.0
  0
SPLINE
  5
103
330
1F
100
AcDbEntity
  8
0
  6
HIDDEN
 62
     7
370
     0
100
AcDbSpline
210
0.0
220
0.0
230
1.0
 70
     8
 71
     3
 72
    18
 73
    14
 74
     0
 42
0.000000001
 43
0.00000001
 40
0.0
 40
0.0
 40
0.0
 40
0.0
 40
0.2499999999999984
 40
0.2499999999999984
 40
0.3749999999999984
 40
0.3749999999999984
 40
0.4999999999999986
 40
0.4999999999999986
 40
0.6249999999999987
 40
0.6249999999999987
 40
0.7499999999999987
 40
0.7499999999999987
 40
1.0
 40
1.0
 40
1.0
 40
1.0
 10
103.362546201232
 20
131.6200050144766
 30
0.0
 10
103.362546201232
 20
131.5446688109867
 30
0.0
 10
103.3151850023056
 20
131.4663733760268
 30
0.0
 10
103.1768987378024
 20
131.3491317985064
 30
0.0
 10
103.1204655646053
 20
131.3109426675341
 30
0.0
 10
102.9871127120256
 20
131.2368375367686
 30
0.0
 10
102.9091503348663
 20
131.2005454409533
 30
0.0
 10
102.7365582282497
 20
131.1334231208504
 30
0.0
 10
102.6422051729396
 20
131.1025357186304
 30
0.0
 10
102.4368422756864
 20
131.0469709513898
 30
0.0
 10
102.3246181240836
 20
131.02217202701
 30
0.0
 10
101.9768037707026
 20
130.9621610937706
 30
0.0
 10
101.7214959395418
 20
130.9397959403805
 30
0.0
 10
101.462546201232
 20
130.9397959403805
 30
0.0
  0
LINE
  5
104
330
1F
100
AcDbEntity
  8
0
  6
HIDDEN
 62
     7
370
     0
100
AcDbLine
 10
101.4625462012
 20
130.9397959404
 30
0.0
 11
96.9125462012
 21
130.9397959404
 31
0.0
  0
LINE
  5
105
330
1F
100
AcDbEntity
  8
0
  6
HIDDEN
 62
     7
370
     0
100
AcDbLine
 10
96.9125462012
 20
92.1233252095
 30
0.0
 11
105.4625462012
 21
92.1233252095
 31
0.0
  0
SPLINE
  5
106
330
1F
100
AcDbEntity
  8
0
  6
HIDDEN
 62
     7
370
     0
100
AcDbSpline
210
0.0
220
0.0
230
1.0
 70
     8
 71
     3
 72
    18
 73
    14
 74
     0
 42
0.000000001
 43
0.00000001
 40
0.0
 40
0.0
 40
0.0
 40
0.0
 40
0.1249999999999988
 40
0.1249999999999988
 40
0.2499999999999976
 40
0.2499999999999976
 40
0.4999999999999982
 40
0.4999999999999982
 40
0.7499999999999989
 40
0.7499999999999989
 40
0.8749999999999994
 40
0.8749999999999994
 40
1.0
 40
1.0
 40
1.0
 40
1.0
 10
105.462546201232
 20
92.1233252095168
 30
0.0
 10
105.5918602734481
 20
92.12332520951679
 30
0.0
 10
105.718716150851
 20
92.11791299621699
 30
0.0
 10
105.9677705589191
 20
92.09698346177663
 30
0.0
 10
106.0912389890497
 20
92.08117813573254
 30
0.0
 10
106.4398844967078
 20
92.0211359522104
 30
0.0
 10
106.650207406156
 20
91.96322131044276
 30
0.0
 10
106.9941927333203
 20
91.82956105825416
 30
0.0
 10
107.1308218642606
 20
91.75291368653151
 30
0.0
 10
107.2683297534318
 20
91.63654215376005
 30
0.0
 10
107.303725296591
 20
91.59683106090175
 30
0.0
 10
107.3506168759803
 20
91.51904084556556
 30
0.0
 10
107.362546201232
 20
91.48074564785789
 30
0.0
 10
107.362546201232
 20
91.44311613542077
 30
0.0
  0
LINE
  5
107
330
1F
100
AcDbEntity
  8
0
  6
HIDDEN
 62
     7
370
     0
100
AcDbLine
 10
96.9125462012
 20
92.1233252095
 30
0.0
 11
96.9125462012
 21
130.9397959404
 31
0.0
  0
LINE
  5
108
330
1F
100
AcDbEntity
  8
0
  6
HIDDEN
 62
     7
370
     0
100
AcDbLine
 10
190.6125462012
 20
100.3132667029
 30
0.0
 11
190.6125462012
 21
122.749854447
 31
0.0
  0
LINE
  5
109
330
1F
100
AcDbEntity
  8
0
  6
HIDDEN
 62
     7
370
     0
100
AcDbLine
 10
187.3125462012
 20
103.4999044568
 30
0.0
 11
187.3125462012
 21
119.5632166931
 31
0.0
  0
LINE
  5
10A
330
1F
100
AcDbEntity
  8
0
  6
HIDDEN
 62
     7
370
     0
100
AcDbLine
 10
96.9125462012
 20
89.5915605749
 30
0.0
 11
96.9125462012
 21
85.7144292012
 31
0.0
  0
LINE
  5
10B
330
1F
100
AcDbEntity
  8
0
  6
HIDDEN
 62
     7
370
     0
100
AcDbLine
 10
107.3625462012
 20
89.5915605749
 30
0.0
 11
107.3625462012
 21
84.2149936506
 31
0.0
  0
LINE
  5
10C
330
1F
100
AcDbEntity
  8
0
  6
HIDDEN
 62
     7
370
     0
100
AcDbLine
 10
96.9125462012
 20
133.4715605749
 30
0.0
 11
96.9125462012
 21
137.3486919487
 31
0.0
  0
LINE
  5
10D
330
1F
100
AcDbEntity
  8
0
  6
HIDDEN
 62
     7
370
     0
100
AcDbLine
 10
103.3625462012
 20
133.4715605749
 30
0.0
 11
103.3625462012
 21
138.7321673912
 31
0.0
  0
LINE
  5
10E
330
1F
100
AcDbEntity
  8
0
  6
HIDDEN
 62
     7
370
     0
100
AcDbLine
 10
186.3125462012
 20
99.5315605749
 30
0.0
 11
186.3125462012
 21
123.5315605749
 31
0.0
  0
SPLINE
  5
10F
330
1F
100
AcDbEntity
  8
0
  6
HIDDEN
 62
     7
370
     0
100
AcDbSpline
210
0.0
220
0.0
230
1.0
 70
     8
 71
     3
 72
    12
 73
     8
 74
     0
 42
0.000000001
 43
0.00000001
 40
0.0
 40
0.0
 40
0.0
 40
0.0
 40
0.5000000000000004
 40
0.5000000000000004
 40
0.7500000000000002
 40
0.7500000000000002
 40
1.0
 40
1.0
 40
1.0
 40
1.0
 10
191.162546201232
 20
127.4061542015495
 30
0.0
 10
191.1056382897304
 20
127.5057402499212
 30
0.0
 10
191.0312659034217
 20
127.5448869324506
 30
0.0
 10
190.8931935697188
 20
127.5190832700516
 30
0.0
 10
190.8423715966824
 20
127.4959223970441
 30
0.0
 10
190.733278534543
 20
127.4218278925637
 30
0.0
 10
190.6749150205052
 20
127.3710218325414
 30
0.0
 10
190.612546201232
 20
127.3066968874494
 30
0.0
  0
LINE
  5
110
330
1F
100
AcDbEntity
  8
0
  6
HIDDEN
 62
     7
370
     0
100
AcDbLine
 10
190.6125462012
 20
127.3066968874
 30
0.0
 11
190.6125462012
 21
127.1506163304
 31
0.0
  0
LINE
  5
111
330
1F
100
AcDbEntity
  8
0
  6
HIDDEN
 62
     7
370
     0
100
AcDbLine
 10
187.3125462012
 20
127.1506163304
 30
0.0
 11
190.6125462012
 21
127.1506163304
 31
0.0
  0
LINE
  5
112
330
1F
100
AcDbEntity
  8
0
  6
HIDDEN
 62
     7
370
     0
100
AcDbLine
 10
187.3125462012
 20
127.5315605749
 30
0.0
 11
187.3125462012
 21
122.3315605749
 31
0.0
  0
SPLINE
  5
113
330
1F
100
AcDbEntity
  8
0
  6
HIDDEN
 62
     7
370
     0
100
AcDbSpline
210
0.0
220
0.0
230
1.0
 70
     8
 71
     3
 72
    12
 73
     8
 74
     0
 42
0.000000001
 43
0.00000001
 40
0.0
 40
0.0
 40
0.0
 40
0.0
 40
0.5
 40
0.5
 40
0.75
 40
0.75
 40
1.0
 40
1.0
 40
1.0
 40
1.0
 10
190.612546201232
 20
122.7498544469728
 30
0.0
 10
190.7369040365525
 20
123.1893443887961
 30
0.0
 10
190.8450699919605
 20
123.6217109191574
 30
0.0
 10
190.9845596479239
 20
124.2582211671313
 30
0.0
 10
191.026910054268
 20
124.4672352603817
 30
0.0
 10
191.1016479737172
 20
124.8686123531558
 30
0.0
 10
191.1343742082315
 20
125.062489785892
 30
0.0
 10
191.162546201232
 20
125.2494257486116
 30
0.0
  0
LINE
  5
114
330
1F
100
AcDbEntity
  8
0
  6
HIDDEN
 62
     7
370
     0
100
AcDbLine
 10
187.3125462012
 20
119.5632166931
 30
0.0
 11
190.6125462012
 21
119.5632166931
 31
0.0
  0
LINE
  5
115
330
1F
100
AcDbEntity
  8
0
  6
HIDDEN
 62
     7
370
     0
100
AcDbLine
 10
187.3125462012
 20
122.3315605749
 30
0.0
 11
187.3125462012
 21
119.5632166931
 31
0.0
  0
LINE
  5
116
330
1F
100
AcDbEntity
  8
0
  6
HIDDEN
 62
     7
370
     0
100
AcDbLine
 10
190.6125462012
 20
103.4999044568
 30
0.0
 11
187.3125462012
 21
103.4999044568
 31
0.0
  0
LINE
  5
117
330
1F
100
AcDbEntity
  8
0
  6
HIDDEN
 62
     7
370
     0
100
AcDbLine
 10
187.3125462012
 20
103.4999044568
 30
0.0
 11
187.3125462012
 21
100.7315605749
 31
0.0
  0
LINE
  5
118
330
1F
100
AcDbEntity
  8
0
  6
HIDDEN
 62
     7
370
     0
100
AcDbLine
 10
187.3125462012
 20
95.9125048195
 30
0.0
 11
190.6125462012
 21
95.9125048195
 31
0.0
  0
LINE
  5
119
330
1F
100
AcDbEntity
  8
0
  6
HIDDEN
 62
     7
370
     0
100
AcDbLine
 10
190.6125462012
 20
95.9125048195
 30
0.0
 11
190.6125462012
 21
95.7564242624
 31
0.0
  0
SPLINE
  5
11A
330
1F
100
AcDbEntity
  8
0
  6
HIDDEN
 62
     7
370
     0
100
AcDbSpline
210
0.0
220
0.0
230
1.0
 70
     8
 71
     3
 72
    12
 73
     8
 74
     0
 42
0.000000001
 43
0.00000001
 40
0.0
 40
0.0
 40
0.0
 40
0.0
 40
0.2499999999999998
 40
0.2499999999999998
 40
0.4999999999999997
 40
0.4999999999999997
 40
1.0
 40
1.0
 40
1.0
 40
1.0
 10
190.612546201232
 20
95.756424262448
 30
0.0
 10
190.674430498649
 20
95.69259903567927
 30
0.0
 10
190.7324550633386
 20
95.64199695517267
 30
0.0
 10
190.8410951277918
 20
95.5679240713695
 30
0.0
 10
190.8919591026085
 20
95.54440971674467
 30
0.0
 10
191.0316052978592
 20
95.51789172837861
 30
0.0
 10
191.105939136229
 20
95.5579073665635
 30
0.0
 10
191.162546201232
 20
95.6569669483479
 30
0.0
  0
LINE
  5
11B
330
1F
100
AcDbEntity
  8
0
  6
HIDDEN
 62
     7
370
     0
100
AcDbLine
 10
187.3125462012
 20
100.7315605749
 30
0.0
 11
187.3125462012
 21
95.5315605749
 31
0.0
  0
SPLINE
  5
11C
330
1F
100
AcDbEntity
  8
0
  6
HIDDEN
 62
     7
370
     0
100
AcDbSpline
210
0.0
220
0.0
230
1.0
 70
     8
 71
     3
 72
    12
 73
     8
 74
     0
 42
0.000000001
 43
0.00000001
 40
0.0
 40
0.0
 40
0.0
 40
0.0
 40
0.5
 40
0.5
 40
0.75
 40
0.75
 40
1.0
 40
1.0
 40
1.0
 40
1.0
 10
191.162546201232
 20
97.81369540128576
 30
0.0
 10
191.1056382897304
 20
98.19130926845938
 30
0.0
 10
191.0312659034217
 20
98.59125783876522
 30
0.0
 10
190.8931935697188
 20
99.22206857362853
 30
0.0
 10
190.8423715966824
 20
99.43873207325574
 30
0.0
 10
190.733278534543
 20
99.87382534707073
 30
0.0
 10
190.6749150205052
 20
100.092850605432
 30
0.0
 10
190.612546201232
 20
100.3132667029245
 30
0.0
  0
LINE
  5
11D
330
1F
100
AcDbEntity
  8
0
  6
HIDDEN
 62
     7
370
     0
100
AcDbLine
 10
166.1625462012
 20
99.8315605749
 30
0.0
 11
166.1625462012
 21
123.2315605607
 31
0.0
  0
LINE
  5
11E
330
1F
100
AcDbEntity
  8
0
  6
HIDDEN
 62
     7
370
     0
100
AcDbLine
 10
168.6625462012
 20
99.5315605749
 30
0.0
 11
168.6625462012
 21
123.5315605749
 31
0.0
  0
LINE
  5
11F
330
1F
100
AcDbEntity
  8
0
  6
HIDDEN
 62
     7
370
     0
100
AcDbLine
 10
157.4625462012
 20
100.5315605749
 30
0.0
 11
157.4625462012
 21
122.5315605749
 31
0.0
  0
LINE
  5
120
330
1F
100
AcDbEntity
  8
0
  6
HIDDEN
 62
     7
370
     0
100
AcDbLine
 10
161.4625462012
 20
100.5315605749
 30
0.0
 11
161.4625462012
 21
122.5315605749
 31
0.0
  0
LINE
  5
121
330
1F
100
AcDbEntity
  8
0
  6
HIDDEN
 62
     7
370
     0
100
AcDbLine
 10
139.1125462012
 20
71.5440625287
 30
0.0
 11
139.1125462012
 21
77.6315605749
 31
0.0
  0
LINE
  5
122
330
1F
100
AcDbEntity
  8
0
  6
HIDDEN
 62
     7
370
     0
100
AcDbLine
 10
148.1125462012
 20
77.6315605749
 30
0.0
 11
139.1125462012
 21
77.6315605749
 31
0.0
  0
LINE
  5
123
330
1F
100
AcDbEntity
  8
0
  6
HIDDEN
 62
     7
370
     0
100
AcDbLine
 10
151.3784681581
 20
77.6315605749
 30
0.0
 11
148.1125462012
 21
77.6315605749
 31
0.0
  0
LINE
  5
124
330
1F
100
AcDbEntity
  8
0
  6
HIDDEN
 62
     7
370
     0
100
AcDbLine
 10
161.1125462012
 20
77.6315605749
 30
0.0
 11
154.9466242444
 21
77.6315605749
 31
0.0
  0
LINE
  5
125
330
1F
100
AcDbEntity
  8
0
  6
HIDDEN
 62
     7
370
     0
100
AcDbLine
 10
148.3625462012
 20
102.2815605749
 30
0.0
 11
148.3625462012
 21
120.7815605749
 31
0.0
  0
ELLIPSE
  5
126
330
1F
100
AcDbEntity
  8
0
  6
HIDDEN
 62
     7
370
     0
100
AcDbEllipse
 10
90.7560127218
 20
111.5315605749
 30
0.0
 11
24.55447626164852
 21
-1.421085471520200E-14
 31
0.0
210
0.0
220
0.0
230
1.0
 40
0.8164965809
 41
4.896967322800383
 42
4.965822814181952
  0
ELLIPSE
  5
127
330
1F
100
AcDbEntity
  8
0
  6
HIDDEN
 62
     7
370
     0
100
AcDbEllipse
 10
90.7560127218
 20
111.5315605749
 30
0.0
 11
24.55447626164852
 21
0.0
 31
0.0
210
0.0
220
0.0
230
1.0
 40
0.8164965809
 41
1.317362492997646
 42
1.386217984379215
  0
LINE
  5
128
330
1F
100
AcDbEntity
  8
0
  6
HIDDEN
 62
     7
370
     0
100
AcDbLine
 10
161.1125462012
 20
145.4315605749
 30
0.0
 11
154.6586666743
 21
145.4315605749
 31
0.0
  0
LINE
  5
129
330
1F
100
AcDbEntity
  8
0
  6
HIDDEN
 62
     7
370
     0
100
AcDbLine
 10
148.1125462012
 20
145.4315605749
 30
0.0
 11
139.1125462012
 21
145.4315605749
 31
0.0
  0
LINE
  5
12A
330
1F
100
AcDbEntity
  8
0
  6
HIDDEN
 62
     7
370
     0
100
AcDbLine
 10
151.6664257282
 20
145.4315605749
 30
0.0
 11
148.1125462012
 21
145.4315605749
 31
0.0
  0
LINE
  5
12B
330
1F
100
AcDbEntity
  8
0
  6
HIDDEN
 62
     7
370
     0
100
AcDbLine
 10
190.6125462012
 20
127.3066968874
 30
0.0
 11
190.6125462012
 21
128.3520817687
 31
0.0
  0
LINE
  5
12C
330
1F
100
AcDbEntity
  8
0
  6
HIDDEN
 62
     7
370
     0
100
AcDbLine
 10
190.6125462012
 20
94.7110393812
 30
0.0
 11
190.6125462012
 21
95.7564242624
 31
0.0
  0
LINE
  5
12D
330
1F
100
AcDbEntity
  8
0
  6
HIDDEN
 62
     7
370
     0
100
AcDbLine
 10
96.9125462012
 20
89.5915605749
 30
0.0
 11
96.9125462012
 21
92.1233252095
 31
0.0
  0
LINE
  5
12E
330
1F
100
AcDbEntity
  8
0
  6
HIDDEN
 62
     7
370
     0
100
AcDbLine
 10
107.3625462012
 20
89.5915605749
 30
0.0
 11
107.3625462012
 21
91.4431161354
 31
0.0
  0
LINE
  5
12F
330
1F
100
AcDbEntity
  8
0
  6
HIDDEN
 62
     7
370
     0
100
AcDbLine
 10
103.3625462012
 20
133.4715605749
 30
0.0
 11
103.3625462012
 21
131.6200050145
 31
0.0
  0
LINE
  5
130
330
1F
100
AcDbEntity
  8
0
  6
HIDDEN
 62
     7
370
     0
100
AcDbLine
 10
96.9125462012
 20
133.4715605749
 30
0.0
 11
96.9125462012
 21
130.9397959404
 31
0.0
  0
LINE
  5
131
330
1F
100
AcDbEntity
  8
0
  6
HIDDEN
 62
     7
370
     0
100
AcDbLine
 10
187.3125462012
 20
128.0565605749
 30
0.0
 11
187.3125462012
 21
127.5315605749
 31
0.0
  0
LINE
  5
132
330
1F
100
AcDbEntity
  8
0
  6
HIDDEN
 62
     7
370
     0
100
AcDbLine
 10
187.3125462012
 20
95.5315605749
 30
0.0
 11
187.3125462012
 21
95.0065605749
 31
0.0
  0
SPLINE
  5
133
330
1F
100
AcDbEntity
  8
0
  6
HIDDEN
 62
     7
370
     0
100
AcDbSpline
210
0.0
220
0.0
230
1.0
 70
     8
 71
     3
 72
    27
 73
    23
 74
     0
 42
0.000000001
 43
0.00000001
 40
0.0
 40
0.0
 40
0.0
 40
0.0
 40
0.0529668569552582
 40
0.1124094131841921
 40
0.1777616066787065
 40
0.2127218436890528
 40
0.2491832796954466
 40
0.3302914731760154
 40
0.3991030541522245
 40
0.4381689644618226
 40
0.4717519233003553
 40
0.4998581572487986
 40
0.5547280233560509
 40
0.6146049662552403
 40
0.6795360374200269
 40
0.7139591652000391
 40
0.7496641900126316
 40
0.830786306879858
 40
0.8994865745106182
 40
0.9557445040954583
 40
0.9995493405112107
 40
1.0
 40
1.0
 40
1.0
 40
1.0
 10
127.4118418687382
 20
81.97344848356857
 30
0.0
 10
127.4006015601385
 20
81.97671645455797
 30
0.0
 10
127.3767467088912
 20
81.98365193690184
 30
0.0
 10
127.1638687999103
 20
82.03513828900823
 30
0.0
 10
126.8512876331103
 20
82.1009518673747
 30
0.0
 10
126.5016612791108
 20
82.16898496697765
 30
0.0
 10
126.0540402776934
 20
82.25451526898168
 30
0.0
 10
125.3968994397714
 20
82.36103291297647
 30
0.0
 10
124.6298045366014
 20
82.45803140791516
 30
0.0
 10
124.02241790821
 20
82.52287729026
 30
0.0
 10
123.579180669669
 20
82.56332666683353
 30
0.0
 10
123.0612297518672
 20
82.59998214543204
 30
0.0
 10
122.4237942198429
 20
82.62310651733829
 30
0.0
 10
121.6463363517839
 20
82.62843767854538
 30
0.0
 10
121.0057106110179
 20
82.61384873345223
 30
0.0
 10
120.5140804754805
 20
82.5918873888995
 30
0.0
 10
120.0096790891066
 20
82.55867883826514
 30
0.0
 10
119.4977596864543
 20
82.51607995236238
 30
0.0
 10
119.1128271275267
 20
82.47668346490279
 30
0.0
 10
118.9526243731585
 20
82.45455407686838
 30
0.0
 10
118.8994072899476
 20
82.44324733303998
 30
0.0
 10
118.9128247632683
 20
82.44578068372289
 30
0.0
 10
118.9129613951498
 20
82.44580648116342
 30
0.0
  0
SPLINE
  5
134
330
1F
100
AcDbEntity
  8
0
  6
HIDDEN
 62
     7
370
     0
100
AcDbSpline
210
0.0
220
0.0
230
1.0
 70
     8
 71
     3
 72
    31
 73
    27
 74
     0
 42
0.000000001
 43
0.00000001
 40
0.0
 40
0.0
 40
0.0
 40
0.0
 40
0.000393891051367
 40
0.0369482763842861
 40
0.0839111327627876
 40
0.1412734394844949
 40
0.1739103521257073
 40
0.2091560611047752
 40
0.2676893653295166
 40
0.3219695085119859
 40
0.3558370499043723
 40
0.3878339247246473
 40
0.4179739448770973
 40
0.4547831009266078
 40
0.5018297686537678
 40
0.5591146830548457
 40
0.591652438148142
 40
0.6267600142016979
 40
0.6864850936710075
 40
0.7412047380530667
 40
0.7909598385200861
 40
0.8358485606308994
 40
0.8837305886199892
 40
0.9358919402798022
 40
0.9731155569306091
 40
1.0
 40
1.0
 40
1.0
 40
1.0
 10
118.912978077777
 20
140.6172538205263
 30
0.0
 10
118.9128340905225
 20
140.6172810104839
 30
0.0
 10
118.8993276123849
 20
140.61983151795
 30
0.0
 10
118.9521518371165
 20
140.6085137808863
 30
0.0
 10
119.1115907039722
 20
140.5865569419214
 30
0.0
 10
119.4183160517509
 20
140.5546913473418
 30
0.0
 10
119.7922257659465
 20
140.5231945863522
 30
0.0
 10
120.2385073315252
 20
140.4875358817046
 30
0.0
 10
120.8611386292347
 20
140.4521096675443
 30
0.0
 10
121.5676540647978
 20
140.436659821171
 30
0.0
 10
122.1828816079909
 20
140.4379087556382
 30
0.0
 10
122.6889830587227
 20
140.4493231340703
 30
0.0
 10
123.2168822765883
 20
140.4719916608333
 30
0.0
 10
123.8236977215574
 20
140.5194490020181
 30
0.0
 10
124.5567249459217
 20
140.5956899923451
 30
0.0
 10
125.2226585497202
 20
140.6803059961112
 30
0.0
 10
125.7716998179578
 20
140.7619149205906
 30
0.0
 10
126.2791204622513
 20
140.849989177588
 30
0.0
 10
126.7769227761978
 20
140.9468329569436
 30
0.0
 10
127.1648333133675
 20
141.0279924638343
 30
0.0
 10
127.3712887095354
 20
141.0777753165985
 30
0.0
 10
127.4341121817964
 20
141.0958945032711
 30
0.0
 10
127.3628291139806
 20
141.0762688109329
 30
0.0
 10
127.1566752514139
 20
141.0287815581222
 30
0.0
 10
126.8923456249399
 20
140.9727118127192
 30
0.0
 10
126.700213921308
 20
140.9340365602677
 30
0.0
 10
126.6196413088992
 20
140.9178176538265
 30
0.0
  0
LINE
  5
135
330
1F
100
AcDbEntity
  8
0
  6
HIDDEN
 62
     7
370
     0
100
AcDbLine
 10
151.2525462012
 20
137.2672969157
 30
0.0
 11
151.2525462012
 21
136.3815605749
 31
0.0
  0
LINE
  5
136
330
1F
100
AcDbEntity
  8
0
  6
HIDDEN
 62
     7
370
     0
100
AcDbLine
 10
155.0725462012
 20
137.2672969157
 30
0.0
 11
155.0725462012
 21
136.3815605749
 31
0.0
  0
LINE
  5
137
330
1F
100
AcDbEntity
  8
0
  6
HIDDEN
 62
     7
370
     0
100
AcDbLine
 10
156.6988166
 20
142.8760576996
 30
0.0
 11
156.6988166
 21
136.3815605749
 31
0.0
  0
CIRCLE
  5
138
330
1F
100
AcDbEntity
  8
0
  6
HIDDEN
 62
     7
370
     0
100
AcDbCircle
 10
142.1625462012
 20
111.5315605749
 30
0.0
 40
5.0
  0
LINE
  5
139
330
1F
100
AcDbEntity
  8
0
  6
HIDDEN
 62
     7
370
     0
100
AcDbLine
 10
135.1625462012
 20
79.7275780192
 30
0.0
 11
135.2521478252
 21
80.3651267011
 31
0.0
  0
LINE
  5
13A
330
1F
100
AcDbEntity
  8
0
  6
HIDDEN
 62
     7
370
     0
100
AcDbLine
 10
135.2521478252
 20
142.6979944488
 30
0.0
 11
135.1625462012
 21
143.3355431307
 31
0.0
  0
ARC
  5
13B
330
1F
100
AcDbEntity
  8
0
  6
HIDDEN
 62
     7
370
     0
100
AcDbCircle
 10
134.2656092828
 20
80.5037756513
 30
0.0
 40
0.9962338214386983
100
AcDbArc
 50
352.0
 51
0.0
  0
ARC
  5
13C
330
1F
100
AcDbEntity
  8
0
  6
HIDDEN
 62
     7
370
     0
100
AcDbCircle
 10
134.2656092828
 20
80.5037756513
 30
0.0
 40
0.9962338214386983
100
AcDbArc
 50
0.0
 51
25.7988228126
  0
ARC
  5
13D
330
1F
100
AcDbEntity
  8
0
  6
HIDDEN
 62
     7
370
     0
100
AcDbCircle
 10
134.2656092828
 20
142.5593454986
 30
0.0
 40
0.9962338214386963
100
AcDbArc
 50
348.75
 51
8.0
  0
LWPOLYLINE
  5
13E
330
1F
100
AcDbEntity
  8
0
  6
HIDDEN
 62
     7
370
     0
100
AcDbPolyline
 90
        3
 70
   128
 43
0.0
 10
135.2427007507
 20
142.3649899216
 10
135.18600932
 20
142.1781033204
 10
135.1625462012
 20
142.1257719854
  0
LINE
  5
13F
330
1F
100
AcDbEntity
  8
0
  6
HIDDEN
 62
     7
370
     0
100
AcDbLine
 10
135.2618431042
 20
80.5037756513
 30
0.0
 11
135.2618431042
 21
142.5593454986
 31
0.0
  0
LINE
  5
140
330
1F
100
AcDbEntity
  8
0
  6
HIDDEN
 62
     7
370
     0
100
AcDbLine
 10
113.929126955
 20
86.5315605749
 30
0.0
 11
118.9635613598
 21
86.5315605749
 31
0.0
  0
LINE
  5
141
330
1F
100
AcDbEntity
  8
0
  6
HIDDEN
 62
     7
370
     0
100
AcDbLine
 10
118.9635613598
 20
136.5315605749
 30
0.0
 11
113.929126955
 21
136.5315605749
 31
0.0
  0
ARC
  5
142
330
1F
100
AcDbEntity
  8
0
  6
HIDDEN
 62
     7
370
     0
100
AcDbCircle
 10
127.1625462012
 20
96.5315605749
 30
0.0
 40
10.00000000000001
100
AcDbArc
 50
271.3841254551
 51
323.1301023542
  0
ARC
  5
143
330
1F
100
AcDbEntity
  8
0
  6
HIDDEN
 62
     7
370
     0
100
AcDbCircle
 10
127.1625462012
 20
126.5315605749
 30
0.0
 40
10.00000000000001
100
AcDbArc
 50
36.8698976458
 51
88.6121323008
  0
ARC
  5
144
330
1F
100
AcDbEntity
  8
0
  6
HIDDEN
 62
     7
370
     0
100
AcDbCircle
 10
113.929126955
 20
87.3315605749
 30
0.0
 40
0.8000000000000048
100
AcDbArc
 50
210.0
 51
270.0
  0
ARC
  5
145
330
1F
100
AcDbEntity
  8
0
  6
HIDDEN
 62
     7
370
     0
100
AcDbCircle
 10
113.929126955
 20
135.7315605749
 30
0.0
 40
0.8000000000000119
100
AcDbArc
 50
90.0
 51
150.0
  0
LINE
  5
146
330
1F
100
AcDbEntity
  8
0
  6
HIDDEN
 62
     7
370
     0
100
AcDbLine
 10
113.2363066319
 20
136.1315605749
 30
0.0
 11
111.1578456629
 21
132.5315605749
 31
0.0
  0
LINE
  5
147
330
1F
100
AcDbEntity
  8
0
  6
HIDDEN
 62
     7
370
     0
100
AcDbLine
 10
111.1578456629
 20
90.5315605749
 30
0.0
 11
113.2363066319
 21
86.9315605749
 31
0.0
  0
ARC
  5
148
330
1F
100
AcDbEntity
  8
0
  6
HIDDEN
 62
     7
370
     0
100
AcDbCircle
 10
145.6125462012
 20
92.3065605749
 30
0.0
 40
2.000000000000001
100
AcDbArc
 50
242.5607598493
 51
0.0
  0
ARC
  5
149
330
1F
100
AcDbEntity
  8
0
  6
HIDDEN
 62
     7
370
     0
100
AcDbCircle
 10
145.6125462012
 20
130.7565605749
 30
0.0
 40
2.0
100
AcDbArc
 50
0.0
 51
117.4392401507
  0
LINE
  5
14A
330
1F
100
AcDbEntity
  8
0
  6
HIDDEN
 62
     7
370
     0
100
AcDbLine
 10
135.1625462012
 20
90.5315605749
 30
0.0
 11
144.6909307717
 21
90.5315605749
 31
0.0
  0
LINE
  5
14B
330
1F
100
AcDbEntity
  8
0
  6
HIDDEN
 62
     7
370
     0
100
AcDbLine
 10
144.6909307717
 20
132.5315605749
 30
0.0
 11
135.1625462012
 21
132.5315605749
 31
0.0
  0
LINE
  5
14C
330
1F
100
AcDbEntity
  8
0
  6
HIDDEN
 62
     7
370
     0
100
AcDbLine
 10
107.3625462012
 20
90.5315605749
 30
0.0
 11
111.1578456629
 21
90.5315605749
 31
0.0
  0
LINE
  5
14D
330
1F
100
AcDbEntity
  8
0
  6
HIDDEN
 62
     7
370
     0
100
AcDbLine
 10
111.1578456629
 20
132.5315605749
 30
0.0
 11
103.3625462012
 21
132.5315605749
 31
0.0
  0
LINE
  5
14E
330
1F
100
AcDbEntity
  8
0
  6
HIDDEN
 62
     7
370
     0
100
AcDbLine
 10
187.3125462012
 20
124.1089108441
 30
0.0
 11
186.3125462012
 21
123.5315605749
 31
0.0
  0
LINE
  5
14F
330
1F
100
AcDbEntity
  8
0
  6
HIDDEN
 62
     7
370
     0
100
AcDbLine
 10
186.3125462012
 20
99.5315605749
 30
0.0
 11
187.3125462012
 21
98.9542103058
 31
0.0
  0
LINE
  5
150
330
1F
100
AcDbEntity
  8
0
  6
HIDDEN
 62
     7
370
     0
100
AcDbLine
 10
190.974523909
 20
127.5315605749
 30
0.0
 11
187.3125462012
 21
127.5315605749
 31
0.0
  0
LINE
  5
151
330
1F
100
AcDbEntity
  8
0
  6
HIDDEN
 62
     7
370
     0
100
AcDbLine
 10
187.3125462012
 20
95.5315605749
 30
0.0
 11
190.9687493004
 21
95.5315605749
 31
0.0
  0
LINE
  5
152
330
1F
100
AcDbEntity
  8
0
  6
HIDDEN
 62
     7
370
     0
100
AcDbLine
 10
166.7625462012
 20
99.2315605749
 30
0.0
 11
167.4639394604
 21
99.2315605749
 31
0.0
  0
LINE
  5
153
330
1F
100
AcDbEntity
  8
0
  6
HIDDEN
 62
     7
370
     0
100
AcDbLine
 10
167.4639394604
 20
123.8315605749
 30
0.0
 11
166.7625462012
 21
123.8315605749
 31
0.0
  0
ARC
  5
154
330
1F
100
AcDbEntity
  8
0
  6
HIDDEN
 62
     7
370
     0
100
AcDbCircle
 10
166.7625462012
 20
99.8315605749
 30
0.0
 40
0.6000000000000227
100
AcDbArc
 50
180.0
 51
270.0
  0
ARC
  5
155
330
1F
100
AcDbEntity
  8
0
  6
HIDDEN
 62
     7
370
     0
100
AcDbCircle
 10
166.7625462012
 20
123.2315605749
 30
0.0
 40
0.6000000000000227
100
AcDbArc
 50
90.0
 51
180.0
  0
ARC
  5
156
330
1F
100
AcDbEntity
  8
0
  6
HIDDEN
 62
     7
370
     0
100
AcDbCircle
 10
167.4639394604
 20
99.8315605749
 30
0.0
 40
0.6000000000000008
100
AcDbArc
 50
270.0
 51
285.0
  0
ARC
  5
157
330
1F
100
AcDbEntity
  8
0
  6
HIDDEN
 62
     7
370
     0
100
AcDbCircle
 10
167.4639394604
 20
123.2315605749
 30
0.0
 40
0.6000000000000085
100
AcDbArc
 50
75.0
 51
90.0
  0
LINE
  5
158
330
1F
100
AcDbEntity
  8
0
  6
HIDDEN
 62
     7
370
     0
100
AcDbLine
 10
167.6192308875
 20
99.2520050792
 30
0.0
 11
168.6625462012
 21
99.5315605749
 31
0.0
  0
LINE
  5
159
330
1F
100
AcDbEntity
  8
0
  6
HIDDEN
 62
     7
370
     0
100
AcDbLine
 10
168.6625462012
 20
123.5315605749
 30
0.0
 11
167.6192308875
 21
123.8111160707
 31
0.0
  0
LINE
  5
15A
330
1F
100
AcDbEntity
  8
0
  6
HIDDEN
 62
     7
370
     0
100
AcDbLine
 10
168.6625462012
 20
99.5315605749
 30
0.0
 11
186.3125462012
 21
99.5315605749
 31
0.0
  0
LINE
  5
15B
330
1F
100
AcDbEntity
  8
0
  6
HIDDEN
 62
     7
370
     0
100
AcDbLine
 10
186.3125462012
 20
123.5315605749
 30
0.0
 11
168.6625462012
 21
123.5315605749
 31
0.0
  0
LINE
  5
15C
330
1F
100
AcDbEntity
  8
0
  6
HIDDEN
 62
     7
370
     0
100
AcDbLine
 10
157.4625462012
 20
100.5315605749
 30
0.0
 11
161.4625462012
 21
100.5315605749
 31
0.0
  0
LINE
  5
15D
330
1F
100
AcDbEntity
  8
0
  6
HIDDEN
 62
     7
370
     0
100
AcDbLine
 10
161.4625462012
 20
122.5315605749
 30
0.0
 11
157.4625462012
 21
122.5315605749
 31
0.0
  0
LINE
  5
15E
330
1F
100
AcDbEntity
  8
0
  6
HIDDEN
 62
     7
370
     0
100
AcDbLine
 10
147.6125462012
 20
101.5315605749
 30
0.0
 11
148.3625462012
 21
102.2815605749
 31
0.0
  0
LINE
  5
15F
330
1F
100
AcDbEntity
  8
0
  6
HIDDEN
 62
     7
370
     0
100
AcDbLine
 10
148.3625462012
 20
120.7815605749
 30
0.0
 11
147.6125462012
 21
121.5315605749
 31
0.0
  0
LINE
  5
160
330
1F
100
AcDbEntity
  8
0
  6
HIDDEN
 62
     7
370
     0
100
AcDbLine
 10
148.3625462012
 20
102.2815605749
 30
0.0
 11
157.4625462012
 21
102.2815605749
 31
0.0
  0
LINE
  5
161
330
1F
100
AcDbEntity
  8
0
  6
HIDDEN
 62
     7
370
     0
100
AcDbLine
 10
157.4625462012
 20
120.7815605749
 30
0.0
 11
148.3625462012
 21
120.7815605749
 31
0.0
  0
LINE
  5
162
330
1F
100
AcDbEntity
  8
0
  6
HIDDEN
 62
     7
370
     0
100
AcDbLine
 10
139.1125462012
 20
151.5315605749
 30
0.0
 11
139.1125462012
 21
145.4315605749
 31
0.0
  0
LINE
  5
163
330
1F
100
AcDbEntity
  8
0
  6
HIDDEN
 62
     7
370
     0
100
AcDbLine
 10
191.1625462012
 20
129.5315605749
 30
0.0
 11
190.6125462012
 21
128.3520817687
 31
0.0
  0
LINE
  5
164
330
1F
100
AcDbEntity
  8
0
  6
HIDDEN
 62
     7
370
     0
100
AcDbLine
 10
190.6125462012
 20
94.7110393812
 30
0.0
 11
191.1625462012
 21
93.5315605749
 31
0.0
  0
LINE
  5
165
330
1F
100
AcDbEntity
  8
0
  6
HIDDEN
 62
     7
370
     0
100
AcDbLine
 10
190.6125462012
 20
128.0565605749
 30
0.0
 11
187.3125462012
 21
128.0565605749
 31
0.0
  0
LINE
  5
166
330
1F
100
AcDbEntity
  8
0
  6
HIDDEN
 62
     7
370
     0
100
AcDbLine
 10
187.3125462012
 20
95.0065605749
 30
0.0
 11
190.6125462012
 21
95.0065605749
 31
0.0
  0
LINE
  5
167
330
1F
100
AcDbEntity
  8
0
  6
HIDDEN
 62
     7
370
     0
100
AcDbLine
 10
161.4625462012
 20
106.4315605749
 30
0.0
 11
166.1625462012
 21
106.4315605749
 31
0.0
  0
LINE
  5
168
330
1F
100
AcDbEntity
  8
0
  6
HIDDEN
 62
     7
370
     0
100
AcDbLine
 10
166.1625462012
 20
116.6315605749
 30
0.0
 11
161.4625462012
 21
116.6315605749
 31
0.0
  0
LINE
  5
169
330
1F
100
AcDbEntity
  8
0
  6
HIDDEN
 62
     7
370
     0
100
AcDbLine
 10
127.8536160172
 20
81.4909373447
 30
0.0
 11
127.4125505786
 21
81.9732601596
 31
0.0
  0
LINE
  5
16A
330
1F
100
AcDbEntity
  8
0
  6
HIDDEN
 62
     7
370
     0
100
AcDbLine
 10
118.9125471137
 20
82.4457288561
 30
0.0
 11
118.4231533415
 21
81.963406067
 31
0.0
  0
LINE
  5
16B
330
1F
100
AcDbEntity
  8
0
  6
HIDDEN
 62
     7
370
     0
100
AcDbLine
 10
118.4230406534
 20
141.0997097937
 30
0.0
 11
118.9125445752
 21
140.6173353816
 31
0.0
  0
LINE
  5
16C
330
1F
100
AcDbEntity
  8
0
  6
HIDDEN
 62
     7
370
     0
100
AcDbLine
 10
127.412545698
 20
141.0898138219
 30
0.0
 11
127.8537152815
 21
141.5721882286
 31
0.0
  0
LINE
  5
16D
330
1F
100
AcDbEntity
  8
0
  6
HIDDEN
 62
     7
370
     0
100
AcDbLine
 10
127.4125462012
 20
81.9734367481
 30
0.0
 11
127.4125462012
 21
86.5359270436
 31
0.0
  0
LINE
  5
16E
330
1F
100
AcDbEntity
  8
0
  6
HIDDEN
 62
     7
370
     0
100
AcDbLine
 10
118.9125462012
 20
86.5401163443
 30
0.0
 11
118.9125462012
 21
82.4458416039
 31
0.0
  0
LINE
  5
16F
330
1F
100
AcDbEntity
  8
0
  6
HIDDEN
 62
     7
370
     0
100
AcDbLine
 10
127.4125462012
 20
136.5271941063
 30
0.0
 11
127.4125462012
 21
141.0896074037
 31
0.0
  0
LINE
  5
170
330
1F
100
AcDbEntity
  8
0
  6
HIDDEN
 62
     7
370
     0
100
AcDbLine
 10
118.9125462012
 20
140.6172591978
 30
0.0
 11
118.9125462012
 21
136.5230048056
 31
0.0
  0
LINE
  5
171
330
1F
100
AcDbEntity
  8
0
  6
HIDDEN
 62
     7
370
     0
100
AcDbLine
 10
190.9687493004
 20
95.5315605749
 30
0.0
 11
190.978240681
 21
95.5315605749
 31
0.0
  0
LINE
  5
172
330
1F
100
AcDbEntity
  8
0
  6
HIDDEN
 62
     7
370
     0
100
AcDbLine
 10
190.9757494191
 20
127.5315605749
 30
0.0
 11
190.974523909
 21
127.5315605749
 31
0.0
  0
DIMENSION
  5
173
330
1F
100
AcDbEntity
  8
VERMASSUNG
100
AcDbDimension
  2
_D
 10
89.7159548255
 20
71.5315605749
 30
0.0
 11
89.7159548255
 21
111.5315605749
 31
0.0
 70
   160
  1
HSK A %%c<>
 71
     2
 42
-1.0
  3
SLDDIMSTYLE0
100
AcDbAlignedDimension
 13
135.6625462012
 23
151.5315605749
 33
0.0
 14
135.6625462012
 24
71.5315605749
 34
0.0
 50
90.0
100
AcDbRotatedDimension
  0
DIMENSION
  5
180
330
1F
100
AcDbEntity
  8
VERMASSUNG
100
AcDbDimension
  2
_D_1
 10
191.1625462012
 20
165.8955668709
 30
0.0
 11
143.2125462012
 21
165.8955668709
 31
0.0
 70
   160
  1
<>
 71
     2
 42
-1.0
  3
SLDDIMSTYLE0
100
AcDbAlignedDimension
 13
95.2625462012
 23
135.6984390106
 33
0.0
 14
191.1625462012
 24
132.1315605749
 34
0.0
100
AcDbRotatedDimension
  0
DIMENSION
  5
18A
330
1F
100
AcDbEntity
  8
VERMASSUNG
100
AcDbDimension
  2
_D_2
 10
191.1625462012
 20
159.8955668709
 30
0.0
 11
163.1625462012
 21
159.8955668709
 31
0.0
 70
   160
  1
<>
 71
     2
 42
-1.0
  3
SLDDIMSTYLE0
100
AcDbAlignedDimension
 13
135.1625462012
 23
151.0315605749
 33
0.0
 14
191.1625462012
 24
132.1315605749
 34
0.0
100
AcDbRotatedDimension
  0
DIMENSION
  5
194
330
1F
100
AcDbEntity
  8
VERMASSUNG
100
AcDbDimension
  2
_D_3
 10
191.1625462012
 20
153.8955668709
 30
0.0
 11
176.1375462012
 21
153.8955668709
 31
0.0
 70
   160
  1
<>
 71
     2
 42
-1.0
  3
SLDDIMSTYLE0
100
AcDbAlignedDimension
 13
161.1125462012
 23
149.478892497
 33
0.0
 14
191.1625462012
 24
132.1315605749
 34
0.0
100
AcDbRotatedDimension
  0
DIMENSION
  5
19E
330
1F
100
AcDbEntity
  8
VERMASSUNG
100
AcDbDimension
  2
_D_4
 10
199.1973511294
 20
90.5315605749
 30
0.0
 11
199.1973511294
 21
111.5315605749
 31
0.0
 70
   160
  1
MBM %%c<>
 71
     2
 42
-1.0
  3
SLDDIMSTYLE0
100
AcDbAlignedDimension
 13
190.7625462012
 23
132.5315605749
 33
0.0
 14
190.7625462012
 24
90.5315605749
 34
0.0
 50
90.0
100
AcDbRotatedDimension
  0
LINE
  5
1AA
330
1F
100
AcDbEntity
  8
VERMASSUNG
  6
CENTERX2
 62
     7
370
     0
100
AcDbLine
 10
93.0274922099
 20
111.5315605749
 30
0.0
 11
193.1625462012
 21
111.5315605749
 31
0.0
  0
LINE
  5
1AB
330
1F
100
AcDbEntity
  8
0
  6
Continuous
 62
     7
370
    15
100
AcDbLine
 10
274.1394602696
 20
44.1436243313
 30
0.0
 11
273.9626548502
 21
44.2457251051
 31
0.0
  0
LINE
  5
1AC
330
1F
100
AcDbEntity
  8
0
  6
Continuous
 62
     7
370
    15
100
AcDbLine
 10
270.0729356216
 20
44.2457251051
 30
0.0
 11
269.8961302021
 21
44.1436243313
 31
0.0
  0
LINE
  5
1AD
330
1F
100
AcDbEntity
  8
0
  6
Continuous
 62
     7
370
    15
100
AcDbLine
 10
275.0177952359
 20
42.5109407754
 30
0.0
 11
275.0177952359
 21
42.9192111813
 31
0.0
  0
LINE
  5
1AE
330
1F
100
AcDbEntity
  8
0
  6
Continuous
 62
     7
370
    15
100
AcDbLine
 10
269.0177952359
 20
42.9192111813
 30
0.0
 11
269.0177952359
 21
42.5109407754
 31
0.0
  0
LINE
  5
1AF
330
1F
100
AcDbEntity
  8
0
  6
Continuous
 62
     7
370
    15
100
AcDbLine
 10
276.3146756413
 20
23.496846427
 30
0.0
 11
276.4560740126
 21
23.5785005071
 31
0.0
  0
LINE
  5
1B0
330
1F
100
AcDbEntity
  8
0
  6
Continuous
 62
     7
370
    15
100
AcDbLine
 10
283.7380901341
 20
36.1926891845
 30
0.0
 11
283.7380901341
 21
36.3559708069
 31
0.0
  0
LINE
  5
1B1
330
1F
100
AcDbEntity
  8
0
  6
Continuous
 62
     7
370
    15
100
AcDbLine
 10
261.9952511165
 20
28.2115321819
 30
0.0
 11
271.0638955853
 21
22.9763151648
 31
0.0
  0
LINE
  5
1B2
330
1F
100
AcDbEntity
  8
0
  6
Continuous
 62
     7
370
    15
100
AcDbLine
 10
281.5630422779
 20
41.1633412748
 30
0.0
 11
272.4943978092
 21
46.3985582919
 31
0.0
  0
LINE
  5
1B3
330
1F
100
AcDbEntity
  8
0
  6
Continuous
 62
     7
370
    15
100
AcDbLine
 10
246.8334897835
 20
25.9948727126
 30
0.0
 11
251.7704137294
 21
23.1448471831
 31
0.0
  0
LINE
  5
1B4
330
1F
100
AcDbEntity
  8
0
  6
Continuous
 62
     7
370
    15
100
AcDbLine
 10
268.6138956092
 20
59.6080825091
 30
0.0
 11
266.8318644363
 21
60.6368272078
 31
0.0
  0
SPLINE
  5
1B5
330
1F
100
AcDbEntity
  8
0
  6
Continuous
 62
     7
370
    15
100
AcDbSpline
210
0.0
220
0.0
230
1.0
 70
     8
 71
     3
 72
    35
 73
    31
 74
     0
 42
0.000000001
 43
0.00000001
 40
0.0
 40
0.0
 40
0.0
 40
0.0
 40
0.0181582117752727
 40
0.0554651450414726
 40
0.0928340607224638
 40
0.1302457121784072
 40
0.1676831518564794
 40
0.2051332520849081
 40
0.2425860202927536
 40
0.2800349589039617
 40
0.3174773471920798
 40
0.3549120268751825
 40
0.3923388745996343
 40
0.429758426017996
 40
0.4671716211631544
 40
0.5045796391097204
 40
0.5419837949600227
 40
0.5793854786700774
 40
0.6167861208899326
 40
0.6541871752075359
 40
0.6915896510558492
 40
0.7289949954342628
 40
0.7664046849742625
 40
0.8038201797269524
 40
0.8412428902868708
 40
0.8786741182871974
 40
0.9161149552357887
 40
0.9535661187323755
 40
0.9890574865751305
 40
1.0
 40
1.0
 40
1.0
 40
1.0
 10
262.1560346393285
 20
61.53742217607035
 30
0.0
 10
261.9998522868729
 20
61.52446352830978
 30
0.0
 10
261.5227856605401
 20
61.48488070559152
 30
0.0
 10
260.6969390204887
 20
61.31313603208984
 30
0.0
 10
259.6859550766834
 20
61.02885736833416
 30
0.0
 10
258.6582541201598
 20
60.64393850052339
 30
0.0
 10
257.6213401869946
 20
60.16722223580691
 30
0.0
 10
256.5804020868316
 20
59.59961003806455
 30
0.0
 10
255.5412148212251
 20
58.94478515687213
 30
0.0
 10
254.5093139242687
 20
58.20627499689174
 30
0.0
 10
253.4901868840332
 20
57.38818556835182
 30
0.0
 10
252.4892065070289
 20
56.49496618566551
 30
0.0
 10
251.511643222322
 20
55.53145242763222
 30
0.0
 10
250.5626410509217
 20
54.50282925278722
 30
0.0
 10
249.6471964893177
 20
53.41461135206778
 30
0.0
 10
248.7701346580783
 20
52.27261621776413
 30
0.0
 10
247.9360853109702
 20
51.08293621888139
 30
0.0
 10
247.1494589415962
 20
49.85190808268023
 30
0.0
 10
246.4144236557451
 20
48.58608047962073
 30
0.0
 10
245.7348860428841
 20
47.29218520361054
 30
0.0
 10
245.1144669331445
 20
45.97709708205728
 30
0.0
 10
244.5564828879894
 20
44.6477970677081
 30
0.0
 10
244.0639259542326
 20
43.31132814368405
 30
0.0
 10
243.6394594004226
 20
41.97476733332758
 30
0.0
 10
243.2853785483647
 20
40.64517263321522
 30
0.0
 10
243.003703640334
 20
39.32960815589399
 30
0.0
 10
242.7957906497588
 20
38.03488089085743
 30
0.0
 10
242.6660681920021
 20
36.79057196793477
 30
0.0
 10
242.6208700218518
 20
35.86914811866925
 30
0.0
 10
242.6179955691211
 20
35.37117191006529
 30
0.0
 10
242.6173181814737
 20
35.2538198559368
 30
0.0
  0
SPLINE
  5
1B6
330
1F
100
AcDbEntity
  8
0
  6
Continuous
 62
     7
370
    15
100
AcDbSpline
210
0.0
220
0.0
230
1.0
 70
     8
 71
     3
 72
    13
 73
     9
 74
     0
 42
0.000000001
 43
0.00000001
 40
0.0
 40
0.0
 40
0.0
 40
0.0
 40
0.0980071104964928
 40
0.2841626052788822
 40
0.470371001884649
 40
0.6565473283564879
 40
0.8426310362323138
 40
1.0
 40
1.0
 40
1.0
 40
1.0
 10
242.6173181814737
 20
35.2538198559368
 30
0.0
 10
242.6194488467219
 20
35.04412862110282
 30
0.0
 10
242.6256265146976
 20
34.43614816649387
 30
0.0
 10
242.6945040534349
 20
33.46447286109325
 30
0.0
 10
242.8482745594326
 20
32.36026622177605
 30
0.0
 10
243.0808723044622
 20
31.31674135985173
 30
0.0
 10
243.3651999256885
 20
30.38015185974468
 30
0.0
 10
243.6070657495924
 20
29.82757127865296
 30
0.0
 10
243.7178879304082
 20
29.57438054635082
 30
0.0
  0
LINE
  5
1B7
330
1F
100
AcDbEntity
  8
0
  6
Continuous
 62
     7
370
    15
100
AcDbLine
 10
257.3808528723
 20
60.0213171359
 30
0.0
 11
249.9501288939
 21
63.723508767
 31
0.0
  0
LINE
  5
1B8
330
1F
100
AcDbEntity
  8
0
  6
Continuous
 62
     7
370
    15
100
AcDbLine
 10
235.7182503264
 20
39.0705007962
 30
0.0
 11
242.637335404
 21
34.4889700327
 31
0.0
  0
SPLINE
  5
1B9
330
1F
100
AcDbEntity
  8
0
  6
Continuous
 62
     7
370
    15
100
AcDbSpline
210
0.0
220
0.0
230
1.0
 70
     8
 71
     3
 72
    19
 73
    15
 74
     0
 42
0.000000001
 43
0.00000001
 40
0.0
 40
0.0
 40
0.0
 40
0.0
 40
0.0499666462210961
 40
0.1357196942144986
 40
0.2218582570248763
 40
0.3084003377016163
 40
0.3953040142036363
 40
0.4824930148895679
 40
0.5698818109321565
 40
0.6573929517724164
 40
0.7449652643018565
 40
0.832551911850356
 40
0.9201215667990341
 40
1.0
 40
1.0
 40
1.0
 40
1.0
 10
257.4191486368936
 20
20.25125327196021
 30
0.0
 10
257.5868250243599
 20
20.20994411706594
 30
0.0
 10
258.0422686003249
 20
20.09773995099681
 30
0.0
 10
258.829437172955
 20
20.02341134338874
 30
0.0
 10
259.7714464434845
 20
20.01880203305639
 30
0.0
 10
260.7463813523424
 20
20.1171903902839
 30
0.0
 10
261.7467654286859
 20
20.31276300493602
 30
0.0
 10
262.7676525355618
 20
20.60622552930836
 30
0.0
 10
263.8030671177434
 20
20.99555542410448
 30
0.0
 10
264.847126211544
 20
21.47876961653243
 30
0.0
 10
265.8941080712414
 20
22.05235826603482
 30
0.0
 10
266.9377085155161
 20
22.71521296525755
 30
0.0
 10
267.9441182311673
 20
23.43339561310643
 30
0.0
 10
268.5928797120706
 20
23.9687569512495
 30
0.0
 10
268.9023610037852
 20
24.2241425179633
 30
0.0
  0
LINE
  5
1BA
330
1F
100
AcDbEntity
  8
0
  6
Continuous
 62
     7
370
    15
100
AcDbLine
 10
254.2709345085
 20
21.7013272636
 30
0.0
 11
255.4778701836
 21
21.0045781291
 31
0.0
  0
SPLINE
  5
1BB
330
1F
100
AcDbEntity
  8
0
  6
Continuous
 62
     7
370
    15
100
AcDbSpline
210
0.0
220
0.0
230
1.0
 70
     8
 71
     3
 72
    14
 73
    10
 74
     0
 42
0.000000001
 43
0.00000001
 40
0.0
 40
0.0
 40
0.0
 40
0.0
 40
0.0870380060441753
 40
0.2514960997879019
 40
0.4157305970140462
 40
0.579468898987318
 40
0.7425404531949478
 40
0.9048249016870281
 40
1.0
 40
1.0
 40
1.0
 40
1.0
 10
279.4086967994498
 20
49.73451259506493
 30
0.0
 10
279.3651683436439
 20
49.91848395733526
 30
0.0
 10
279.2393929799547
 20
50.45006874640051
 30
0.0
 10
278.9729245448207
 20
51.28155359678559
 30
0.0
 10
278.5858118895134
 20
52.20146502664284
 30
0.0
 10
278.1258319428193
 20
53.04637565786224
 30
0.0
 10
277.5942965261131
 20
53.80758176284894
 30
0.0
 10
277.0859370241718
 20
54.40248476971232
 30
0.0
 10
276.7335727617894
 20
54.71083469690785
 30
0.0
 10
276.6033142270782
 20
54.82482244760428
 30
0.0
  0
SPLINE
  5
1BC
330
1F
100
AcDbEntity
  8
0
  6
Continuous
 62
     7
370
    15
100
AcDbSpline
210
0.0
220
0.0
230
1.0
 70
     8
 71
     3
 72
    28
 73
    24
 74
     0
 42
0.000000001
 43
0.00000001
 40
0.0
 40
0.0
 40
0.0
 40
0.0
 40
0.034964209875244
 40
0.0829857558690702
 40
0.131292980905318
 40
0.1800724812618611
 40
0.2293980708893942
 40
0.2792343101973543
 40
0.3294720841322701
 40
0.3799764881591088
 40
0.4306250630985366
 40
0.4813247513505589
 40
0.532005538153061
 40
0.5826426548672199
 40
0.6332273406744554
 40
0.6837607048048797
 40
0.734249562770033
 40
0.7847038550740709
 40
0.8351351542465618
 40
0.8855558595778251
 40
0.9359787962679164
 40
0.9864135400977581
 40
1.0
 40
1.0
 40
1.0
 40
1.0
 10
249.7868430703236
 20
63.78984521533842
 30
0.0
 10
249.619889944955
 20
63.86484282811114
 30
0.0
 10
249.2236352790308
 20
64.04284580906013
 30
0.0
 10
248.5455090152047
 20
64.2115863280635
 30
0.0
 10
247.7680546161136
 20
64.3119104443158
 30
0.0
 10
246.9547597818817
 20
64.31065148171349
 30
0.0
 10
246.1123720600091
 20
64.21136899142651
 30
0.0
 10
245.2460237077338
 20
64.01271855016168
 30
0.0
 10
244.3626224405957
 20
63.71589747926387
 30
0.0
 10
243.4695035453102
 20
63.32300873273864
 30
0.0
 10
242.5741939480026
 20
62.83748800124938
 30
0.0
 10
241.6840453631764
 20
62.26374391528638
 30
0.0
 10
240.8059911909243
 20
61.60688324169224
 30
0.0
 10
239.9465389513902
 20
60.87249543373104
 30
0.0
 10
239.1117898015901
 20
60.06648998039726
 30
0.0
 10
238.3075913713307
 20
59.19514733980773
 30
0.0
 10
237.5396081627407
 20
58.26509328512892
 30
0.0
 10
236.8131138995936
 20
57.28330662982594
 30
0.0
 10
236.1337205952698
 20
56.2569851547586
 30
0.0
 10
235.5045510454735
 20
55.19390058288802
 30
0.0
 10
234.9366633796825
 20
54.10091092243131
 30
0.0
 10
234.538358270775
 20
53.26022362531834
 30
0.0
 10
234.3520076939673
 20
52.78384840006142
 30
0.0
 10
234.3124607237142
 20
52.68275294232121
 30
0.0
  0
LINE
  5
1BD
330
1F
100
AcDbEntity
  8
0
  6
Continuous
 62
     7
370
    15
100
AcDbLine
 10
234.4056006641
 20
49.9250880878
 30
0.0
 11
237.2771682938
 21
48.2673673808
 31
0.0
  0
LINE
  5
1BE
330
1F
100
AcDbEntity
  8
0
  6
Continuous
 62
     7
370
    15
100
AcDbLine
 10
234.0037346793
 20
51.4883148817
 30
0.0
 11
234.0037346793
 21
50.8133070124
 31
0.0
  0
LINE
  5
1BF
330
1F
100
AcDbEntity
  8
0
  6
Continuous
 62
     7
370
    15
100
AcDbLine
 10
234.0037346793
 20
41.7714792203
 30
0.0
 11
234.0037346793
 21
41.0964713509
 31
0.0
  0
SPLINE
  5
1C0
330
1F
100
AcDbEntity
  8
0
  6
Continuous
 62
     7
370
    15
100
AcDbSpline
210
0.0
220
0.0
230
1.0
 70
     8
 71
     3
 72
    11
 73
     7
 74
     0
 42
0.000000001
 43
0.00000001
 40
0.0
 40
0.0
 40
0.0
 40
0.0
 40
0.2033861332161134
 40
0.5722827250255221
 40
0.9369074558537762
 40
1.0
 40
1.0
 40
1.0
 40
1.0
 10
234.2240344525835
 20
40.56304539363073
 30
0.0
 10
234.3068396957768
 20
40.44035770742278
 30
0.0
 10
234.5398349815011
 20
40.09514221863841
 30
0.0
 10
235.0052987510513
 20
39.62355132441476
 30
0.0
 10
235.4250645451415
 20
39.25117596837298
 30
0.0
 10
235.6818792259443
 20
39.10095536540236
 30
0.0
 10
235.7197619408449
 20
39.07879633517577
 30
0.0
  0
LWPOLYLINE
  5
1C1
330
1F
100
AcDbEntity
  8
0
  6
Continuous
 62
     7
370
    15
100
AcDbPolyline
 90
       31
 70
   128
 43
0.0
 10
270.0732515876
 20
42.0007852305
 10
269.711451174
 20
42.2587094726
 10
269.450449063
 20
42.5544224967
 10
269.3016522993
 20
42.8750002247
 10
269.2715640153
 20
43.2064318715
 10
269.3614992136
 20
43.5342322839
 10
269.5675272944
 20
43.8440750108
 10
269.8806438419
 20
44.1224184383
 10
270.2871641605
 20
44.3570976229
 10
270.7693213616
 20
44.5378559582
 10
271.3060428619
 20
44.6567934376
 10
271.8738713562
 20
44.7087119225
 10
272.4479900147
 20
44.6913423259
 10
273.0033070971
 20
44.6054437826
 10
273.5155525822
 20
44.454770471
 10
273.9623388842
 20
44.245907538
 10
274.3241392977
 20
43.987983296
 10
274.5851414088
 20
43.6922702719
 10
274.7339381725
 20
43.3716925439
 10
274.7640264565
 20
43.0402608971
 10
274.6740912582
 20
42.7124604847
 10
274.4680631774
 20
42.4026177578
 10
274.1549466299
 20
42.1242743303
 10
273.7484263113
 20
41.8895951457
 10
273.2662691102
 20
41.7088368103
 10
272.7295476099
 20
41.589899331
 10
272.1617191156
 20
41.5379808461
 10
271.587600457
 20
41.5553504427
 10
271.0322833746
 20
41.641248986
 10
270.5200378896
 20
41.7919222975
 10
270.0732515876
 20
42.0007852305
  0
ARC
  5
1C2
330
1F
100
AcDbEntity
  8
0
  6
Continuous
 62
     7
370
    15
100
AcDbCircle
 10
270.3647816985
 20
42.9191776089
 30
0.0
 40
1.311069792532533
100
AcDbArc
 50
110.944123305
 51
249.0720049829
  0
LWPOLYLINE
  5
1C3
330
1F
100
AcDbEntity
  8
0
  6
Continuous
 62
     7
370
    15
100
AcDbPolyline
 90
       17
 70
   128
 43
0.0
 10
274.1394602696
 20
44.1436243313
 10
274.3428421903
 20
44.013648302
 10
274.676875334
 20
43.7210580015
 10
274.9020454259
 20
43.3956399979
 10
275.0091339762
 20
43.0507169427
 10
274.993756767
 20
42.7004100261
 10
274.8565433431
 20
42.3590608545
 10
274.6031112381
 20
42.0406443031
 10
274.2438359922
 20
41.758196383
 10
273.7934263763
 20
41.5232805451
 10
273.2703222127
 20
41.3455142714
 10
272.6959394476
 20
41.2321753342
 10
272.0937933788
 20
41.1879038427
 10
271.4885359371
 20
41.2145122771
 10
270.9049464333
 20
41.310911285
 10
270.3669170902
 20
41.4731542796
 10
269.8964748923
 20
41.6945990136
  0
LWPOLYLINE
  5
1C4
330
1F
100
AcDbEntity
  8
0
  6
Continuous
 62
     7
370
    15
100
AcDbPolyline
 90
       25
 70
   128
 43
0.0
 10
270.7803583688
 20
42.4089892864
 10
270.5022507793
 20
42.6182196362
 10
270.3274250399
 20
42.8618735391
 10
270.2677952359
 20
43.1233463843
 10
270.3274250399
 20
43.3848192295
 10
270.5022507793
 20
43.6284731324
 10
270.7803583688
 20
43.8377034821
 10
271.1427952359
 20
43.9982515762
 10
271.564861907
 20
44.0991763273
 10
272.0177952359
 20
44.1335998804
 10
272.4707285648
 20
44.0991763273
 10
272.8927952359
 20
43.9982515762
 10
273.255232103
 20
43.8377034821
 10
273.5333396925
 20
43.6284731324
 10
273.7081654319
 20
43.3848192295
 10
273.7677952359
 20
43.1233463843
 10
273.7081654319
 20
42.8618735391
 10
273.5333396925
 20
42.6182196362
 10
273.255232103
 20
42.4089892864
 10
272.8927952359
 20
42.2484411924
 10
272.4707285648
 20
42.1475164413
 10
272.0177952359
 20
42.1130928881
 10
271.564861907
 20
42.1475164413
 10
271.1427952359
 20
42.2484411924
 10
270.7803583688
 20
42.4089892864
  0
SPLINE
  5
1C5
330
1F
100
AcDbEntity
  8
0
  6
Continuous
 62
     7
370
    15
100
AcDbSpline
210
0.0
220
0.0
230
1.0
 70
     8
 71
     3
 72
     9
 73
     5
 74
     0
 42
0.000000001
 43
0.00000001
 40
0.0
 40
0.0
 40
0.0
 40
0.0
 40
0.6311775999676728
 40
0.9999999999999999
 40
0.9999999999999999
 40
0.9999999999999999
 40
0.9999999999999999
 10
270.9573035822846
 20
42.31142820417127
 30
0.0
 10
270.8223357381322
 20
42.40436313534705
 30
0.0
 10
270.6085007665498
 20
42.55160367617191
 30
0.0
 10
270.4158255603798
 20
42.76952490425142
 30
0.0
 10
270.3447626284134
 20
42.8498991346097
 30
0.0
  0
SPLINE
  5
1C6
330
1F
100
AcDbEntity
  8
0
  6
Continuous
 62
     7
370
    15
100
AcDbSpline
210
0.0
220
0.0
230
1.0
 70
     8
 71
     3
 72
    11
 73
     7
 74
     0
 42
0.000000001
 43
0.00000001
 40
0.0
 40
0.0
 40
0.0
 40
0.0
 40
0.2164553779443427
 40
0.4403112895790512
 40
0.7519005688038626
 40
1.0
 40
1.0
 40
1.0
 40
1.0
 10
273.6908278433647
 20
43.36748113764961
 30
0.0
 10
273.6601196990924
 20
43.2569595366869
 30
0.0
 10
273.597653509832
 20
43.03213763986741
 30
0.0
 10
273.4817329462487
 20
42.70717497662051
 30
0.0
 10
273.3573873480911
 20
42.48462548428805
 30
0.0
 10
273.277813632171
 20
42.42714152468832
 30
0.0
 10
273.2425401072807
 20
42.40165997143549
 30
0.0
  0
SPLINE
  5
1C7
330
1F
100
AcDbEntity
  8
0
  6
Continuous
 62
     7
370
    15
100
AcDbSpline
210
0.0
220
0.0
230
1.0
 70
     8
 71
     3
 72
    11
 73
     7
 74
     0
 42
0.000000001
 43
0.00000001
 40
0.0
 40
0.0
 40
0.0
 40
0.0
 40
0.1843643438496199
 40
0.5174526391740258
 40
0.8663352079125972
 40
1.0
 40
1.0
 40
1.0
 40
1.0
 10
272.4660829719731
 20
44.07451130234376
 30
0.0
 10
272.5371532341263
 20
43.99537738978061
 30
0.0
 10
272.7366250731493
 20
43.7732734240736
 30
0.0
 10
273.1082588831633
 20
43.47915096632413
 30
0.0
 10
273.4542900556855
 20
43.37482517554371
 30
0.0
 10
273.6395195819786
 20
43.36907415929574
 30
0.0
 10
273.6908278433647
 20
43.36748113764961
 30
0.0
  0
SPLINE
  5
1C8
330
1F
100
AcDbEntity
  8
0
  6
Continuous
 62
     7
370
    15
100
AcDbSpline
210
0.0
220
0.0
230
1.0
 70
     8
 71
     3
 72
    11
 73
     7
 74
     0
 42
0.000000001
 43
0.00000001
 40
0.0
 40
0.0
 40
0.0
 40
0.0
 40
0.2164553779443425
 40
0.4403112895790518
 40
0.7519005688038635
 40
1.0
 40
1.0
 40
1.0
 40
1.0
 10
270.7930503644975
 20
43.81572030082381
 30
0.0
 10
270.9076547191279
 20
43.78908581989006
 30
0.0
 10
271.1407817112031
 20
43.73490623443195
 30
0.0
 10
271.573403144138
 20
43.72661012533786
 30
0.0
 10
272.0374672341595
 20
43.84374231566323
 30
0.0
 10
272.3344403849201
 20
44.0036342352225
 30
0.0
 10
272.4660829719731
 20
44.07451130234376
 30
0.0
  0
SPLINE
  5
1C9
330
1F
100
AcDbEntity
  8
0
  6
Continuous
 62
     7
370
    15
100
AcDbSpline
210
0.0
220
0.0
230
1.0
 70
     8
 71
     3
 72
    11
 73
     7
 74
     0
 42
0.000000001
 43
0.00000001
 40
0.0
 40
0.0
 40
0.0
 40
0.0
 40
0.216455377944342
 40
0.4403112895790501
 40
0.7519005688038638
 40
1.0
 40
1.0
 40
1.0
 40
1.0
 10
270.3447626284134
 20
42.8498991346097
 30
0.0
 10
270.3754707726857
 20
42.87169690500622
 30
0.0
 10
270.4379369619462
 20
42.91603770394772
 30
0.0
 10
270.5538575255295
 20
43.09056911513714
 30
0.0
 10
270.6782031236871
 20
43.40381661638378
 30
0.0
 10
270.7577768396071
 20
43.68921055829084
 30
0.0
 10
270.7930503644975
 20
43.81572030082381
 30
0.0
  0
LINE
  5
1CA
330
1F
100
AcDbEntity
  8
0
  6
Continuous
 62
     7
370
    15
100
AcDbLine
 10
270.7930503645
 20
42.4385983971
 30
0.0
 11
270.7930503645
 21
43.8157203008
 31
0.0
  0
LINE
  5
1CB
330
1F
100
AcDbEntity
  8
0
  6
Continuous
 62
     7
370
    15
100
AcDbLine
 10
272.466082972
 20
42.1468017903
 30
0.0
 11
272.466082972
 21
44.0745113023
 31
0.0
  0
SPLINE
  5
1CC
330
1F
100
AcDbEntity
  8
0
  6
Continuous
 62
     7
370
    15
100
AcDbSpline
210
0.0
220
0.0
230
1.0
 70
     8
 71
     3
 72
    14
 73
    10
 74
     0
 42
0.000000001
 43
0.00000001
 40
0.0
 40
0.0
 40
0.0
 40
0.0
 40
0.25
 40
0.25
 40
0.5
 40
0.5
 40
0.75
 40
0.75
 40
1.0
 40
1.0
 40
1.0
 40
1.0
 10
252.5030079652449
 20
34.51029600206094
 30
0.0
 10
252.4555871085915
 20
34.48292052421833
 30
0.0
 10
252.4000540392018
 20
34.46107423144369
 30
0.0
 10
252.2776840682255
 20
34.43037625191571
 30
0.0
 10
252.2115745450737
 20
34.42184842333405
 30
0.0
 10
252.078716564561
 20
34.41996189974285
 30
0.0
 10
252.0115266163562
 20
34.42671161808062
 30
0.0
 10
251.8881768898911
 20
34.45474629413002
 30
0.0
 10
251.83089471647
 20
34.47634642988238
 30
0.0
 10
251.7839935722844
 20
34.5034218841035
 30
0.0
  0
SPLINE
  5
1CD
330
1F
100
AcDbEntity
  8
0
  6
Continuous
 62
     7
370
    15
100
AcDbSpline
210
0.0
220
0.0
230
1.0
 70
     8
 71
     3
 72
    12
 73
     8
 74
     0
 42
0.000000001
 43
0.00000001
 40
0.0
 40
0.0
 40
0.0
 40
0.0
 40
0.249999999999998
 40
0.249999999999998
 40
0.499999999999996
 40
0.499999999999996
 40
1.0
 40
1.0
 40
1.0
 40
1.0
 10
274.2628592661564
 20
56.19452133654271
 30
0.0
 10
274.316330877368
 20
56.16365283244482
 30
0.0
 10
274.3687894172456
 20
56.1149589484273
 30
0.0
 10
274.4598442489072
 20
55.99868262326967
 30
0.0
 10
274.4984681884781
 20
55.93147408173918
 30
0.0
 10
274.5883918800732
 20
55.72793798052965
 30
0.0
 10
274.6164126567497
 20
55.58750230831218
 30
0.0
 10
274.6164126567497
 20
55.46514078054555
 30
0.0
  0
LINE
  5
1CE
330
1F
100
AcDbEntity
  8
0
  6
Continuous
 62
     7
370
    15
100
AcDbLine
 10
251.7839935723
 20
34.5034218841
 30
0.0
 11
250.5770578972
 21
35.2001710186
 31
0.0
  0
LWPOLYLINE
  5
1CF
330
1F
100
AcDbEntity
  8
0
  6
Continuous
 62
     7
370
    15
100
AcDbPolyline
 90
       26
 70
   128
 43
0.0
 10
250.5770578972
 20
35.2001710186
 10
250.9012616687
 20
36.6307729844
 10
251.3099964449
 20
38.0764965507
 10
251.8006778049
 20
39.5282004396
 10
252.3702031814
 20
40.9767055599
 10
253.0149714782
 20
42.4128530459
 10
253.7309058396
 20
43.8275621692
 10
254.5134794288
 20
45.2118877554
 10
255.3577440502
 20
46.5570767449
 10
256.2583614376
 20
47.8546235375
 10
257.2096370074
 20
49.0963237739
 10
258.2055558652
 20
50.2743262113
 10
259.2398208384
 20
51.3811823663
 10
260.3058922926
 20
52.4098936123
 10
261.3970294818
 20
53.353955431
 10
262.5063331699
 20
54.2073985406
 10
263.6267892543
 20
54.9648266392
 10
264.7513131163
 20
55.6214505261
 10
265.8727944166
 20
56.1731183828
 10
266.9841420539
 20
56.616342026
 10
268.0783290019
 20
56.9483189624
 10
269.1484367409
 20
57.1669501091
 10
270.1876990035
 20
57.2708530665
 10
271.1895445577
 20
57.2593708583
 10
272.1476387563
 20
57.1325760863
 10
273.0559235911
 20
56.891270471
  0
LINE
  5
1D0
330
1F
100
AcDbEntity
  8
0
  6
Continuous
 62
     7
370
    15
100
AcDbLine
 10
273.0559235911
 20
56.891270471
 30
0.0
 11
274.2628592662
 21
56.1945213365
 31
0.0
  0
LINE
  5
1D1
330
1F
100
AcDbEntity
  8
0
  6
Continuous
 62
     7
370
    15
100
AcDbLine
 10
277.8160708416
 20
48.7149457499
 30
0.0
 11
279.2470187655
 21
49.541014403
 31
0.0
  0
LINE
  5
1D2
330
1F
100
AcDbEntity
  8
0
  6
Continuous
 62
     7
370
    15
100
AcDbLine
 10
277.8160708416
 20
43.3264218425
 30
0.0
 11
277.8160708416
 21
48.7149457499
 31
0.0
  0
LINE
  5
1D3
330
1F
100
AcDbEntity
  8
0
  6
Continuous
 62
     7
370
    15
100
AcDbLine
 10
252.5030079652
 20
26.3448878832
 30
0.0
 11
253.8451509594
 21
27.1196905416
 31
0.0
  0
LINE
  5
1D4
330
1F
100
AcDbEntity
  8
0
  6
Continuous
 62
     7
370
    15
100
AcDbLine
 10
253.8451509594
 20
27.1196905416
 30
0.0
 11
253.8451509594
 21
35.2850986604
 31
0.0
  0
LINE
  5
1D5
330
1F
100
AcDbEntity
  8
0
  6
Continuous
 62
     7
370
    15
100
AcDbLine
 10
253.8451509594
 20
35.2850986604
 30
0.0
 11
252.5030079652
 21
34.5102960021
 31
0.0
  0
LINE
  5
1D6
330
1F
100
AcDbEntity
  8
0
  6
Continuous
 62
     7
370
    15
100
AcDbLine
 10
274.6164126567
 20
55.4651407805
 30
0.0
 11
274.6164126567
 21
53.3389083311
 31
0.0
  0
LINE
  5
1D7
330
1F
100
AcDbEntity
  8
0
  6
Continuous
 62
     7
370
    15
100
AcDbLine
 10
276.4576842276
 20
54.4018517836
 30
0.0
 11
274.6164126567
 21
53.3389083311
 31
0.0
  0
LWPOLYLINE
  5
1D8
330
1F
100
AcDbEntity
  8
0
  6
Continuous
 62
     7
370
    15
100
AcDbPolyline
 90
       59
 70
   128
 43
0.0
 10
269.1716904416
 20
27.7836856328
 10
269.2143848712
 20
28.7176535905
 10
269.3419676067
 20
29.6899655669
 10
269.5529428572
 20
30.6892220932
 10
269.8448371309
 20
31.7037078002
 10
270.2142282341
 20
32.7215287704
 10
270.6567853941
 20
33.7307519837
 10
271.1673200327
 20
34.7195452206
 10
271.7398465981
 20
35.6763157844
 10
272.3676527397
 20
36.5898464151
 10
273.0433780046
 20
37.4494268013
 10
273.7591001318
 20
38.2449791489
 10
274.5064279338
 20
38.967176334
 10
275.2765996754
 20
39.6075512549
 10
276.0605857972
 20
40.1585961011
 10
276.8491947785
 20
40.6138503757
 10
277.6331809002
 20
40.9679766385
 10
278.4033526419
 20
41.2168230829
 10
279.1506804439
 20
41.3574722118
 10
279.8664025711
 20
41.3882750429
 10
280.542127836
 20
41.308870441
 10
281.1699339776
 20
41.1201893525
 10
281.742460543
 20
40.8244438907
 10
282.2529951816
 20
40.4251014007
 10
282.6955523415
 20
39.9268438082
 10
283.0649434448
 20
39.3355127277
 10
283.3568377185
 20
38.6580409755
 10
283.567812969
 20
37.9023712886
 10
283.6953957045
 20
37.0773632031
 10
283.7380901341
 20
36.1926891845
 10
283.6953957045
 20
35.2587212268
 10
283.567812969
 20
34.2864092503
 10
283.3568377185
 20
33.2871527241
 10
283.0649434448
 20
32.2726670171
 10
282.6955523415
 20
31.2548460469
 10
282.2529951816
 20
30.2456228336
 10
281.742460543
 20
29.2568295967
 10
281.1699339776
 20
28.3000590329
 10
280.542127836
 20
27.3865284022
 10
279.8664025711
 20
26.526948016
 10
279.1506804439
 20
25.7313956684
 10
278.4033526419
 20
25.0091984833
 10
277.6331809002
 20
24.3688235624
 10
276.8491947785
 20
23.8177787162
 10
276.0605857972
 20
23.3625244416
 10
275.2765996754
 20
23.0083981788
 10
274.5064279338
 20
22.7595517344
 10
273.7591001318
 20
22.6189026055
 10
273.0433780046
 20
22.5880997744
 10
272.3676527397
 20
22.6675043763
 10
271.7398465981
 20
22.8561854648
 10
271.1673200327
 20
23.1519309266
 10
270.6567853941
 20
23.5512734165
 10
270.2142282341
 20
24.0495310091
 10
269.8448371309
 20
24.6408620896
 10
269.5529428572
 20
25.3183338418
 10
269.3419676067
 20
26.0740035286
 10
269.2143848712
 20
26.8990116141
 10
269.1716904416
 20
27.7836856328
  0
LWPOLYLINE
  5
1D9
330
1F
100
AcDbEntity
  8
0
  6
Continuous
 62
     7
370
    15
100
AcDbPolyline
 90
       31
 70
   128
 43
0.0
 10
268.8888477291
 20
27.7836856328
 10
268.9309096916
 20
28.7192936621
 10
269.0566190002
 20
29.6928645867
 10
269.2645513182
 20
30.6933674591
 10
269.5523506894
 20
31.7094661819
 10
269.9167562318
 20
32.7296479506
 10
270.3536390852
 20
33.7423536981
 10
270.8580491921
 20
34.7361090637
 10
271.4242713845
 20
35.6996544019
 10
272.0458901388
 20
36.622072359
 10
272.7158622661
 20
37.492911571
 10
273.4265967143
 20
38.3023050818
 10
274.1700405784
 20
39.0410821393
 10
274.9377703422
 20
39.7008721043
 10
275.7210873206
 20
40.2741992929
 10
276.5111162195
 20
40.754567679
 10
277.2989056956
 20
41.1365344967
 10
278.0755297794
 20
41.4157719094
 10
278.8321890097
 20
41.5891160457
 10
279.5603101351
 20
41.6546028472
 10
280.2516432523
 20
41.6114903223
 10
280.8983552808
 20
41.4602669531
 10
281.4931187149
 20
41.2026461609
 10
282.0291946473
 20
40.8415468921
 10
282.5005091235
 20
40.3810605457
 10
282.9017219621
 20
39.8264046161
 10
283.2282872613
 20
39.1838635765
 10
283.4765049058
 20
38.4607176737
 10
283.6435624906
 20
37.6651604398
 10
283.7275671863
 20
36.806205856
 10
283.7380901341
 20
36.3559708069
  0
LWPOLYLINE
  5
1DA
330
1F
100
AcDbEntity
  8
0
  6
Continuous
 62
     7
370
    15
100
AcDbPolyline
 90
       16
 70
   128
 43
0.0
 10
276.3146756413
 20
23.496846427
 10
275.7210873206
 20
23.181507897
 10
274.9377703422
 20
22.8504365529
 10
274.1700405784
 20
22.6238246003
 10
273.4265967143
 20
22.5042396431
 10
272.7158622661
 20
22.4930366268
 10
272.0458901388
 20
22.5903424858
 10
271.4242713845
 20
22.795054706
 10
270.8580491921
 20
23.1048538162
 10
270.3536390852
 20
23.5162296686
 10
269.9167562318
 20
24.0245212104
 10
269.5523506894
 20
24.6239692953
 10
269.2645513182
 20
25.3077819371
 10
269.0566190002
 20
26.0682112653
 10
268.9309096916
 20
26.8966413116
 10
268.8888477291
 20
27.7836856328
  0
SPLINE
  5
1DB
330
1F
100
AcDbEntity
  8
0
  6
Continuous
 62
     7
370
    15
100
AcDbSpline
210
0.0
220
0.0
230
1.0
 70
     8
 71
     3
 72
    54
 73
    50
 74
     0
 42
0.000000001
 43
0.00000001
 40
0.0
 40
0.0
 40
0.0
 40
0.0
 40
0.0312500000000001
 40
0.0312500000000001
 40
0.0625000000000001
 40
0.0625000000000001
 40
0.1250000000000002
 40
0.1250000000000002
 40
0.1875000000000003
 40
0.1875000000000003
 40
0.2187500000000003
 40
0.2187500000000003
 40
0.2500000000000003
 40
0.2500000000000003
 40
0.3124999999999996
 40
0.3124999999999996
 40
0.3749999999999988
 40
0.3749999999999988
 40
0.4062499999999984
 40
0.4062499999999984
 40
0.4374999999999981
 40
0.4374999999999981
 40
0.4999999999999973
 40
0.4999999999999973
 40
0.5312499999999973
 40
0.5312499999999973
 40
0.5624999999999974
 40
0.5624999999999974
 40
0.6249999999999977
 40
0.6249999999999977
 40
0.6562499999999973
 40
0.6562499999999973
 40
0.687499999999997
 40
0.687499999999997
 40
0.7499999999999964
 40
0.7499999999999964
 40
0.7812499999999966
 40
0.7812499999999966
 40
0.8124999999999968
 40
0.8124999999999968
 40
0.8749999999999976
 40
0.8749999999999976
 40
0.9062499999999981
 40
0.9062499999999981
 40
0.9374999999999988
 40
0.9374999999999988
 40
0.9687499999999993
 40
0.9687499999999993
 40
1.0
 40
1.0
 40
1.0
 40
1.0
 10
274.6694456653386
 20
41.59258117462247
 30
0.0
 10
274.5885278428428
 20
41.54586831000692
 30
0.0
 10
274.5025320363428
 20
41.50048442865356
 30
0.0
 10
274.3201658361183
 20
41.41247781250156
 30
0.0
 10
274.2238695806011
 20
41.36996196034048
 30
0.0
 10
273.9279035999705
 20
41.25031511851002
 30
0.0
 10
273.7180198350029
 20
41.17948315029032
 30
0.0
 10
273.2777982307023
 20
41.0576923330258
 30
0.0
 10
273.0539880948314
 20
41.00847344911722
 30
0.0
 10
272.7130556611826
 20
40.95203925669535
 30
0.0
 10
272.5979794787306
 20
40.93610441087966
 30
0.0
 10
272.3692610950772
 20
40.91072910375004
 30
0.0
 10
272.25565292711
 20
40.90125319066241
 30
0.0
 10
271.9168497023728
 20
40.88242382727459
 30
0.0
 10
271.6928506760704
 20
40.88263416285355
 30
0.0
 10
271.2529978078443
 20
40.91037155882618
 30
0.0
 10
271.0412192539367
 20
40.93755620855725
 30
0.0
 10
270.7347456568506
 20
40.99870239475339
 30
0.0
 10
270.6344690741241
 20
41.02249733395555
 30
0.0
 10
270.4376764684233
 20
41.07718447798239
 30
0.0
 10
270.3408726862054
 20
41.10821367283155
 30
0.0
 10
270.0610778504051
 20
41.21060731205922
 30
0.0
 10
269.8871110402651
 20
41.29155093668657
 30
0.0
 10
269.6445301005614
 20
41.43191497273298
 30
0.0
 10
269.5667501529494
 20
41.48187166368147
 30
0.0
 10
269.417500344805
 20
41.58823966400823
 30
0.0
 10
269.3459153235011
 20
41.64480972490988
 30
0.0
 10
269.1447302749575
 20
41.8209909161087
 30
0.0
 10
269.0271746194391
 20
41.94794171800956
 30
0.0
 10
268.8756902296918
 20
42.15153654767266
 30
0.0
 10
268.8293622095238
 20
42.22160418137388
 30
0.0
 10
268.7453781284185
 20
42.36606527095893
 30
0.0
 10
268.7076957131802
 20
42.44064707635388
 30
0.0
 10
268.6102833279936
 20
42.66615261562617
 30
0.0
 10
268.5651221260757
 20
42.82018273319684
 30
0.0
 10
268.5283746765291
 20
43.05508134632281
 30
0.0
 10
268.5213278184386
 20
43.13402671455113
 30
0.0
 10
268.5183989343174
 20
43.29295731244568
 30
0.0
 10
268.5226099182382
 20
43.37310481512244
 30
0.0
 10
268.5526995765121
 20
43.60912078817428
 30
0.0
 10
268.5956507931114
 20
43.76238635114309
 30
0.0
 10
268.6982761094826
 20
43.98354360315706
 30
0.0
 10
268.7392169926861
 20
44.05612188098645
 30
0.0
 10
268.8325042500003
 20
44.19399876296072
 30
0.0
 10
268.884985248411
 20
44.25974110460049
 30
0.0
 10
269.0017740320963
 20
44.38455263081367
 30
0.0
 10
269.0660801504451
 20
44.44362293779576
 30
0.0
 10
269.2070734044073
 20
44.55465135473627
 30
0.0
 10
269.2844463806251
 20
44.60694809663824
 30
0.0
 10
269.3661448064395
 20
44.65411159395764
 30
0.0
  0
SPLINE
  5
1DC
330
1F
100
AcDbEntity
  8
0
  6
Continuous
 62
     7
370
    15
100
AcDbSpline
210
0.0
220
0.0
230
1.0
 70
     8
 71
     3
 72
    12
 73
     8
 74
     0
 42
0.000000001
 43
0.00000001
 40
0.0
 40
0.0
 40
0.0
 40
0.0
 40
0.197180520015328
 40
0.4219833872824255
 40
0.669057897969292
 40
0.7018385718199318
 40
1.0
 40
1.0
 40
1.0
 40
1.0
 10
269.3661448064395
 20
44.65411159395764
 30
0.0
 10
269.5705447133432
 20
44.74854078923226
 30
0.0
 10
270.0079782137149
 20
44.95062744402574
 30
0.0
 10
270.8765821576416
 20
45.03523396947386
 30
0.0
 10
271.555423334119
 20
44.97118146223423
 30
0.0
 10
272.3213732107806
 20
44.83085776103472
 30
0.0
 10
272.7364838925806
 20
44.69282861511785
 30
0.0
 10
273.1104767843246
 20
44.56847161422702
 30
0.0
  0
SPLINE
  5
1DD
330
1F
100
AcDbEntity
  8
0
  6
Continuous
 62
     7
370
    15
100
AcDbSpline
210
0.0
220
0.0
230
1.0
 70
     8
 71
     3
 72
    16
 73
    12
 74
     0
 42
0.000000001
 43
0.00000001
 40
0.0
 40
0.0
 40
0.0
 40
0.0
 40
0.0008919989390571
 40
0.1244238270962047
 40
0.2479521088041042
 40
0.3716658603053188
 40
0.4953290459581108
 40
0.6151839884612874
 40
0.734892734097205
 40
0.9071945978630156
 40
1.0
 40
1.0
 40
1.0
 40
1.0
 10
274.2765593987037
 20
44.04462588566695
 30
0.0
 10
274.2779009488412
 20
44.0440032881583
 30
0.0
 10
274.4650321157377
 20
43.9571579328848
 30
0.0
 10
274.7339814747658
 20
43.75499424104474
 30
0.0
 10
275.1090711305973
 20
43.46174884966942
 30
0.0
 10
275.3637670467733
 20
43.15799789363118
 30
0.0
 10
275.5095285161511
 20
42.85374136252615
 30
0.0
 10
275.5293262761352
 20
42.54818090508648
 30
0.0
 10
275.4051917537453
 20
42.19945960617363
 30
0.0
 10
275.112000506164
 20
41.87045521006038
 30
0.0
 10
274.7841984629845
 20
41.66463286182169
 30
0.0
 10
274.6694456653386
 20
41.59258117462247
 30
0.0
  0
ARC
  5
1DE
330
1F
100
AcDbEntity
  8
0
  6
Continuous
 62
     7
370
    15
100
AcDbCircle
 10
271.8521159737
 20
25.4184968066
 30
0.0
 40
1.018669791599245
100
AcDbArc
 50
187.5911665598
 51
255.9544965879
  0
LWPOLYLINE
  5
1DF
330
1F
100
AcDbEntity
  8
0
  6
Continuous
 62
     7
370
    15
100
AcDbPolyline
 90
       16
 70
   128
 43
0.0
 10
281.3048880317
 20
30.029970093
 10
280.7975377428
 20
29.1231481643
 10
280.2322789811
 20
28.2545310517
 10
279.616649377
 20
27.4357016182
 10
278.9588582477
 20
26.6775788164
 10
278.2676771271
 20
25.9902720862
 10
277.5523227991
 20
25.3829465473
 10
276.8223343934
 20
24.8637007833
 10
276.0874461823
 20
24.4394588493
 10
275.3574577765
 20
24.11587794
 10
274.6421034486
 20
23.8972729523
 10
273.950922328
 20
23.786558947
 10
273.2931311987
 20
23.7852122767
 10
272.6775015946
 20
23.893250899
 10
272.1122428329
 20
24.109234137
 10
271.604892544
 20
24.4302818906
  0
ARC
  5
1E0
330
1F
100
AcDbEntity
  8
0
  6
Continuous
 62
     7
370
    15
100
AcDbCircle
 10
277.912972148
 20
32.5561929828
 30
0.0
 40
4.229290182855501
100
AcDbArc
 50
323.3220855209
 51
349.2041011418
  0
LWPOLYLINE
  5
1E1
330
1F
100
AcDbEntity
  8
0
  6
Continuous
 62
     7
370
    15
100
AcDbPolyline
 90
        9
 70
   128
 43
0.0
 10
282.0674066888
 20
38.6924479272
 10
282.3924223018
 20
38.0606659617
 10
282.628132372
 20
37.3375487425
 10
282.7709916192
 20
36.533972569
 10
282.8188513185
 20
35.6620239118
 10
282.7709916192
 20
34.7348176221
 10
282.628132372
 20
33.7662996727
 10
282.3924223018
 20
32.7710373991
 10
282.0674066888
 20
31.7640003944
  0
ARC
  5
1E2
330
1F
100
AcDbEntity
  8
0
  6
Continuous
 62
     7
370
    15
100
AcDbCircle
 10
281.057664602
 20
38.5578780107
 30
0.0
 40
1.018669791599331
100
AcDbArc
 50
7.5911665598
 51
75.9544965879
  0
LWPOLYLINE
  5
1E3
330
1F
100
AcDbEntity
  8
0
  6
Continuous
 62
     7
370
    15
100
AcDbPolyline
 90
       16
 70
   128
 43
0.0
 10
271.604892544
 20
33.9464047243
 10
272.1122428329
 20
34.853226653
 10
272.6775015946
 20
35.7218437655
 10
273.2931311987
 20
36.5406731991
 10
273.950922328
 20
37.2987960009
 10
274.6421034486
 20
37.9861027311
 10
275.3574577765
 20
38.59342827
 10
276.0874461823
 20
39.1126740339
 10
276.8223343934
 20
39.5369159679
 10
277.5523227991
 20
39.8604968773
 10
278.2676771271
 20
40.0791018649
 10
278.9588582477
 20
40.1898158703
 10
279.616649377
 20
40.1911625406
 10
280.2322789811
 20
40.0831239183
 10
280.7975377428
 20
39.8671406803
 10
281.3048880317
 20
39.5460929267
  0
ARC
  5
1E4
330
1F
100
AcDbEntity
  8
0
  6
Continuous
 62
     7
370
    15
100
AcDbCircle
 10
274.9968084277
 20
31.4201818345
 30
0.0
 40
4.229290182856679
100
AcDbArc
 50
143.3220855209
 51
169.2041011418
  0
LWPOLYLINE
  5
1E5
330
1F
100
AcDbEntity
  8
0
  6
Continuous
 62
     7
370
    15
100
AcDbPolyline
 90
        9
 70
   128
 43
0.0
 10
270.8423738869
 20
25.2839268901
 10
270.5173582739
 20
25.9157088556
 10
270.2816482037
 20
26.6388260748
 10
270.1387889564
 20
27.4424022483
 10
270.0909292572
 20
28.3143509054
 10
270.1387889564
 20
29.2415571952
 10
270.2816482037
 20
30.2100751446
 10
270.5173582739
 20
31.2053374182
 10
270.8423738869
 20
32.2123744229
  0
LWPOLYLINE
  5
1E6
330
1F
100
AcDbEntity
  8
0
  6
Continuous
 62
     7
370
    15
100
AcDbPolyline
 90
       24
 70
   128
 43
0.0
 10
249.6826649093
 20
36.9070386033
 10
250.0112354021
 20
38.2694806505
 10
250.4211158256
 20
39.6442142398
 10
250.9096039637
 20
41.022176173
 10
251.4734793634
 20
42.394281969
 10
252.109024567
 20
43.7514857539
 10
252.8120496192
 20
45.0848398985
 10
253.577919691
 20
46.3855540069
 10
254.4015856353
 20
47.645052869
 10
255.2776172747
 20
48.8550329941
 10
256.2002392006
 20
50.0075173535
 10
257.1633688489
 20
51.0949079705
 10
258.1606566005
 20
52.1100360114
 10
259.1855276424
 20
53.0462090477
 10
260.2312253134
 20
53.8972551769
 10
261.2908556489
 20
54.6575637124
 10
262.3574328301
 20
55.3221221726
 10
263.42392524
 20
55.886549327
 10
264.4833018206
 20
56.3471240799
 10
265.5285784261
 20
56.700810003
 10
266.5528638678
 20
56.9452753532
 10
267.5494053451
 20
57.0789084453
 10
268.511632965
 20
57.1008282771
 10
268.7123415321
 20
57.090988598
  0
SPLINE
  5
1E7
330
1F
100
AcDbEntity
  8
0
  6
Continuous
 62
     7
370
    15
100
AcDbSpline
210
0.0
220
0.0
230
1.0
 70
     8
 71
     3
 72
     8
 73
     4
 74
     0
 42
0.000000001
 43
0.00000001
 40
0.0
 40
0.0
 40
0.0
 40
0.0
 40
1.0
 40
1.0
 40
1.0
 40
1.0
 10
249.6826649093485
 20
36.9070386033121
 30
0.0
 10
249.1474663351553
 20
36.81889696453124
 30
0.0
 10
248.6120758212203
 20
36.73113980371642
 30
0.0
 10
248.0765371181155
 20
36.6436909381874
 30
0.0
  0
LWPOLYLINE
  5
1E8
330
1F
100
AcDbEntity
  8
0
  6
Continuous
 62
     7
370
    15
100
AcDbPolyline
 90
       26
 70
   128
 43
0.0
 10
248.0765371181
 20
36.6436909382
 10
248.4007408896
 20
38.074292904
 10
248.8094756659
 20
39.5200164703
 10
249.3001570259
 20
40.9717203592
 10
249.8696824024
 20
42.4202254795
 10
250.5144506991
 20
43.8563729655
 10
251.2303850605
 20
45.2710820888
 10
252.0129586497
 20
46.655407675
 10
252.8572232711
 20
48.0005966644
 10
253.7578406585
 20
49.2981434571
 10
254.7091162283
 20
50.5398436935
 10
255.7050350861
 20
51.7178461308
 10
256.7393000593
 20
52.8247022859
 10
257.8053715135
 20
53.8534135319
 10
258.8965087027
 20
54.7974753506
 10
260.0058123908
 20
55.6509184601
 10
261.1262684752
 20
56.4083465588
 10
262.2507923372
 20
57.0649704456
 10
263.3722736375
 20
57.6166383024
 10
264.4836212748
 20
58.0598619456
 10
265.5778082228
 20
58.3918388819
 10
266.6479159618
 20
58.6104700287
 10
267.6871782244
 20
58.714372986
 10
268.6890237786
 20
58.7028907778
 10
269.6471179772
 20
58.5760960059
 10
270.555402812
 20
58.3347903906
  0
LINE
  5
1E9
330
1F
100
AcDbEntity
  8
0
  6
Continuous
 62
     7
370
    15
100
AcDbLine
 10
270.555402812
 20
58.3347903906
 30
0.0
 11
270.9022970944
 21
57.2319631499
 31
0.0
  0
LINE
  5
1EA
330
1F
100
AcDbEntity
  8
0
  6
Continuous
 62
     7
370
    15
100
AcDbLine
 10
266.8382380637
 20
60.4806639236
 30
0.0
 11
270.555402812
 21
58.3347903906
 31
0.0
  0
LINE
  5
1EB
330
1F
100
AcDbEntity
  8
0
  6
Continuous
 62
     7
370
    15
100
AcDbLine
 10
248.0765371181
 20
36.6436909382
 30
0.0
 11
247.5413528852
 21
36.9526462196
 31
0.0
  0
SPLINE
  5
1EC
330
1F
100
AcDbEntity
  8
0
  6
Continuous
 62
     7
370
    15
100
AcDbSpline
210
0.0
220
0.0
230
1.0
 70
     8
 71
     3
 72
    30
 73
    26
 74
     0
 42
0.000000001
 43
0.00000001
 40
0.0
 40
0.0
 40
0.0
 40
0.0
 40
0.1250000000000005
 40
0.1250000000000005
 40
0.1875000000000008
 40
0.1875000000000008
 40
0.2500000000000011
 40
0.2500000000000011
 40
0.3750000000000012
 40
0.3750000000000012
 40
0.4375000000000013
 40
0.4375000000000013
 40
0.5000000000000013
 40
0.5000000000000013
 40
0.6250000000000011
 40
0.6250000000000011
 40
0.6875000000000009
 40
0.6875000000000009
 40
0.7500000000000007
 40
0.7500000000000007
 40
0.8125000000000006
 40
0.8125000000000006
 40
0.8750000000000003
 40
0.8750000000000003
 40
1.0
 40
1.0
 40
1.0
 40
1.0
 10
247.5413528851651
 20
36.95264621957163
 30
0.0
 10
247.3302193291158
 20
37.07453102708783
 30
0.0
 10
247.1173683800084
 20
37.16712673242305
 30
0.0
 10
246.7960440508729
 20
37.26431582222639
 30
0.0
 10
246.6885997545389
 20
37.28971356853118
 30
0.0
 10
246.4731940916384
 20
37.32631917845825
 30
0.0
 10
246.365144615509
 20
37.33743138742985
 30
0.0
 10
246.0477673455892
 20
37.34893184905887
 30
0.0
 10
245.8426736617368
 20
37.32822363411845
 30
0.0
 10
245.5462413646946
 20
37.25608219234342
 30
0.0
 10
245.4488195204647
 20
37.22492131115256
 30
0.0
 10
245.2609225371384
 20
37.14961529828299
 30
0.0
 10
245.1705790799337
 20
37.1056263103474
 30
0.0
 10
244.9105179433808
 20
36.95543412878025
 30
0.0
 10
244.7516551111295
 20
36.83118824529515
 30
0.0
 10
244.5377019297457
 20
36.60836889700641
 30
0.0
 10
244.4710963787085
 20
36.52854054892518
 30
0.0
 10
244.3489544969705
 20
36.36006286502844
 30
0.0
 10
244.2931496299032
 20
36.27113878996507
 30
0.0
 10
244.1922354504973
 20
36.08410518745013
 30
0.0
 10
244.1471254398127
 20
35.98599576156618
 30
0.0
 10
244.0680408284298
 20
35.78048062893895
 30
0.0
 10
244.033953394793
 20
35.67251401458439
 30
0.0
 10
243.950723426825
 20
35.33951845917099
 30
0.0
 10
243.9199985121069
 20
35.10519015713309
 30
0.0
 10
243.9147207918561
 20
34.85843892556559
 30
0.0
  0
ARC
  5
1ED
330
1F
100
AcDbEntity
  8
0
  6
Continuous
 62
     7
370
    15
100
AcDbCircle
 10
262.7670509024
 20
34.4501685196
 30
0.0
 40
18.8567503913684
100
AcDbArc
 50
178.7593833157
 51
181.2406166843
  0
SPLINE
  5
1EE
330
1F
100
AcDbEntity
  8
0
  6
Continuous
 62
     7
370
    15
100
AcDbSpline
210
0.0
220
0.0
230
1.0
 70
     8
 71
     3
 72
    30
 73
    26
 74
     0
 42
0.000000001
 43
0.00000001
 40
0.0
 40
0.0
 40
0.0
 40
0.0
 40
0.1250000000000001
 40
0.1250000000000001
 40
0.1875000000000002
 40
0.1875000000000002
 40
0.2500000000000003
 40
0.2500000000000003
 40
0.3750000000000004
 40
0.3750000000000004
 40
0.4375000000000003
 40
0.4375000000000003
 40
0.5000000000000003
 40
0.5000000000000003
 40
0.625
 40
0.625
 40
0.6875
 40
0.6875
 40
0.75
 40
0.75
 40
0.8125000000000001
 40
0.8125000000000001
 40
0.8750000000000001
 40
0.8750000000000001
 40
1.0
 40
1.0
 40
1.0
 40
1.0
 10
243.9147207918561
 20
34.04189811367984
 30
0.0
 10
243.919999005482
 20
33.80121791089655
 30
0.0
 10
243.9506955298624
 20
33.55557839147176
 30
0.0
 10
244.0327235185344
 20
33.17980352921406
 30
0.0
 10
244.0661020937816
 20
33.05331214962958
 30
0.0
 10
244.1450235308564
 20
32.797715197595
 30
0.0
 10
244.1907264704902
 20
32.66838150409549
 30
0.0
 10
244.3428118644671
 20
32.28476788831909
 30
0.0
 10
244.4648012085685
 20
32.03203977464114
 30
0.0
 10
244.676797426987
 20
31.65625541952301
 30
0.0
 10
244.7527297343152
 20
31.53094392033547
 30
0.0
 10
244.9124138519592
 20
31.28426627114643
 30
0.0
 10
244.9957900690256
 20
31.16338565278371
 30
0.0
 10
245.2557758164398
 20
30.80754877028331
 30
0.0
 10
245.4421504479812
 20
30.57933488246218
 30
0.0
 10
245.7401177869197
 20
30.24950034767333
 30
0.0
 10
245.8421107042557
 20
30.14217950848663
 30
0.0
 10
246.0476050045158
 20
29.93613095622417
 30
0.0
 10
246.1515991470771
 20
29.83685096861509
 30
0.0
 10
246.3618090340495
 20
29.6455315599385
 30
0.0
 10
246.468025041741
 20
29.55349220075769
 30
0.0
 10
246.682513345188
 20
29.37665188559683
 30
0.0
 10
246.7913239704547
 20
29.29146227427681
 30
0.0
 10
247.1161911649806
 20
29.05044746145747
 30
0.0
 10
247.3302135763491
 20
28.90912622923181
 30
0.0
 10
247.5413528851651
 20
28.78723810071413
 30
0.0
  0
LINE
  5
1EF
330
1F
100
AcDbEntity
  8
0
  6
Continuous
 62
     7
370
    15
100
AcDbLine
 10
247.5413528852
 20
28.7872381007
 30
0.0
 11
248.0765371181
 21
28.4782828193
 31
0.0
  0
ARC
  5
1F0
330
1F
100
AcDbEntity
  8
0
  6
Continuous
 62
     7
370
    15
100
AcDbCircle
 10
255.7832185807
 20
29.9269612782
 30
0.0
 40
7.841658526259499
100
AcDbArc
 50
190.6460519988
 51
249.983724452
  0
LINE
  5
1F1
330
1F
100
AcDbEntity
  8
0
  6
Continuous
 62
     7
370
    15
100
AcDbLine
 10
272.8515542906
 20
57.0088194468
 30
0.0
 11
272.9406025555
 21
56.9291541628
 31
0.0
  0
LINE
  5
1F2
330
1F
100
AcDbEntity
  8
0
  6
Continuous
 62
     7
370
    15
100
AcDbLine
 10
272.1905811132
 20
57.3903911402
 30
0.0
 11
272.8515542906
 21
57.0088194468
 31
0.0
  0
SPLINE
  5
1F3
330
1F
100
AcDbEntity
  8
0
  6
Continuous
 62
     7
370
    15
100
AcDbSpline
210
0.0
220
0.0
230
1.0
 70
     8
 71
     3
 72
    26
 73
    22
 74
     0
 42
0.000000001
 43
0.00000001
 40
0.0
 40
0.0
 40
0.0
 40
0.0
 40
0.2499999999999984
 40
0.2499999999999984
 40
0.3124999999999984
 40
0.3124999999999984
 40
0.3749999999999983
 40
0.3749999999999983
 40
0.4999999999999983
 40
0.4999999999999983
 40
0.6249999999999984
 40
0.6249999999999984
 40
0.7499999999999986
 40
0.7499999999999986
 40
0.812499999999999
 40
0.812499999999999
 40
0.8749999999999993
 40
0.8749999999999993
 40
0.9374999999999998
 40
0.9374999999999998
 40
1.0
 40
1.0
 40
1.0
 40
1.0
 10
266.8382380636976
 20
60.48066392361194
 30
0.0
 10
267.2239844075818
 20
60.33296785799677
 30
0.0
 10
267.6234891217626
 20
60.14737190561191
 30
0.0
 10
268.1560833197311
 20
59.86491440421533
 30
0.0
 10
268.2643045235179
 20
59.80588187078893
 30
0.0
 10
268.4847782393237
 20
59.68256085523124
 30
0.0
 10
268.597063881604
 20
59.61823842796917
 30
0.0
 10
268.9354064758458
 20
59.42046646735309
 30
0.0
 10
269.1646298647013
 20
59.28127861786049
 30
0.0
 10
269.6338786728351
 20
58.98966698358195
 30
0.0
 10
269.876235423033
 20
58.83571833936327
 30
0.0
 10
270.3572641024413
 20
58.52818115230613
 30
0.0
 10
270.5973657364982
 20
58.3737440219866
 30
0.0
 10
270.9585320052975
 20
58.14363767319458
 30
0.0
 10
271.078595857478
 20
58.06751864487014
 30
0.0
 10
271.3128401086347
 20
57.92026337723419
 30
0.0
 10
271.4277935016727
 20
57.84863288425402
 30
0.0
 10
271.6534804593017
 20
57.70967646445943
 30
0.0
 10
271.7642148174692
 20
57.64234957258348
 30
0.0
 10
271.9813860062105
 20
57.51236219654427
 30
0.0
 10
272.0880664121467
 20
57.44957161740507
 30
0.0
 10
272.190581113181
 20
57.39039114018986
 30
0.0
  0
ARC
  5
1F4
330
1F
100
AcDbEntity
  8
0
  6
Continuous
 62
     7
370
    15
100
AcDbCircle
 10
263.1665996521
 20
54.0191666249
 30
0.0
 40
7.564892433404623
100
AcDbArc
 50
61.0196368799
 51
96.9526520909
  0
ARC
  5
1F5
330
1F
100
AcDbEntity
  8
0
  6
Continuous
 62
     7
370
    15
100
AcDbCircle
 10
250.6928720668
 20
32.4439598781
 30
0.0
 40
7.515687385536043
100
AcDbArc
 50
203.0515675441
 51
239.1020720849
  0
LINE
  5
1F6
330
1F
100
AcDbEntity
  8
0
  6
Continuous
 62
     7
370
    15
100
AcDbLine
 10
250.200385401
 20
37.2059122815
 30
0.0
 11
249.6826649093
 21
36.9070386033
 31
0.0
  0
LINE
  5
1F7
330
1F
100
AcDbEntity
  8
0
  6
Continuous
 62
     7
370
    15
100
AcDbLine
 10
250.8539128409
 20
36.4422383481
 30
0.0
 11
250.6419572406
 21
36.5645977117
 31
0.0
  0
SPLINE
  5
1F8
330
1F
100
AcDbEntity
  8
0
  6
Continuous
 62
     7
370
    15
100
AcDbSpline
210
0.0
220
0.0
230
1.0
 70
     8
 71
     3
 72
    12
 73
     8
 74
     0
 42
0.000000001
 43
0.00000001
 40
0.0
 40
0.0
 40
0.0
 40
0.0
 40
0.5
 40
0.5
 40
0.75
 40
0.75
 40
1.0
 40
1.0
 40
1.0
 40
1.0
 10
280.2267017581343
 20
39.50703375273758
 30
0.0
 10
280.4260520515219
 20
39.55687231746175
 30
0.0
 10
280.6171591445915
 20
39.58619323013761
 30
0.0
 10
280.8915165417285
 20
39.59688018004761
 30
0.0
 10
280.980387312835
 20
39.59471547767909
 30
0.0
 10
281.1487193897188
 20
39.57896919968804
 30
0.0
 10
281.2288358845962
 20
39.56542744759791
 30
0.0
 10
281.3048880316846
 20
39.54609292665722
 30
0.0
  0
LWPOLYLINE
  5
1F9
330
1F
100
AcDbEntity
  8
0
  6
Continuous
 62
     7
370
    15
100
AcDbPolyline
 90
       13
 70
   128
 43
0.0
 10
272.2941700879
 20
34.9276806938
 10
272.8613601688
 20
35.7732209725
 10
273.4788171315
 20
36.5644467599
 10
274.1374097774
 20
37.289657095
 10
274.827398577
 20
37.9381272795
 10
275.5385797018
 20
38.5002674786
 10
276.260435923
 20
38.96776454
 10
276.9822921442
 20
39.3337049314
 10
277.693473269
 20
39.5926769811
 10
278.3834620686
 20
39.7408509076
 10
279.0420547145
 20
39.776035456
 10
279.6595116773
 20
39.6977103032
 10
280.2267017581
 20
39.5070337527
  0
SPLINE
  5
1FA
330
1F
100
AcDbEntity
  8
0
  6
Continuous
 62
     7
370
    15
100
AcDbSpline
210
0.0
220
0.0
230
1.0
 70
     8
 71
     3
 72
    12
 73
     8
 74
     0
 42
0.000000001
 43
0.00000001
 40
0.0
 40
0.0
 40
0.0
 40
0.0
 40
0.5
 40
0.5
 40
0.75
 40
0.75
 40
1.0
 40
1.0
 40
1.0
 40
1.0
 10
271.6048925439848
 20
33.9464047243229
 30
0.0
 10
271.7182792219961
 20
34.13960430206827
 30
0.0
 10
271.8333877857446
 20
34.31799791938703
 30
0.0
 10
272.0075971181504
 20
34.56518228113691
 30
0.0
 10
272.0662309521778
 20
34.64450076639793
 30
0.0
 10
272.1814894323498
 20
34.793114153608
 30
0.0
 10
272.238291936794
 20
34.86270133752251
 30
0.0
 10
272.2941700878825
 20
34.92768069377179
 30
0.0
  0
SPLINE
  5
1FB
330
1F
100
AcDbEntity
  8
0
  6
Continuous
 62
     7
370
    15
100
AcDbSpline
210
0.0
220
0.0
230
1.0
 70
     8
 71
     3
 72
    14
 73
    10
 74
     0
 42
0.000000001
 43
0.00000001
 40
0.0
 40
0.0
 40
0.0
 40
0.0
 40
0.1250000000000003
 40
0.1250000000000003
 40
0.2500000000000007
 40
0.2500000000000007
 40
0.5000000000000008
 40
0.5000000000000008
 40
1.0
 40
1.0
 40
1.0
 40
1.0
 10
250.6419572406197
 20
36.56459771165844
 30
0.0
 10
250.6174996786683
 20
36.57871676164059
 30
0.0
 10
250.5951829528478
 20
36.60709441737264
 30
0.0
 10
250.5596236853671
 20
36.66638685352278
 30
0.0
 10
250.5457665025016
 20
36.69696337154192
 30
0.0
 10
250.5086815397216
 20
36.78883165706402
 30
0.0
 10
250.4900183623407
 20
36.85132899012811
 30
0.0
 10
250.4420810740503
 20
37.03462898787015
 30
0.0
 10
250.4205761481001
 20
37.15388004769813
 30
0.0
 10
250.4036346629298
 20
37.27184372933673
 30
0.0
  0
SPLINE
  5
1FC
330
1F
100
AcDbEntity
  8
0
  6
Continuous
 62
     7
370
    15
100
AcDbSpline
210
0.0
220
0.0
230
1.0
 70
     8
 71
     3
 72
    10
 73
     6
 74
     0
 42
0.000000001
 43
0.00000001
 40
0.0
 40
0.0
 40
0.0
 40
0.0
 40
0.5
 40
0.5
 40
1.0
 40
1.0
 40
1.0
 40
1.0
 10
250.4036346629298
 20
37.27184372933674
 30
0.0
 10
250.3653220578139
 20
37.26653773454348
 30
0.0
 10
250.327985065021
 20
37.25801793678565
 30
0.0
 10
250.2593976608741
 20
37.23566919466668
 30
0.0
 10
250.2282963356144
 20
37.22202492102308
 30
0.0
 10
250.2003854010237
 20
37.20591228145106
 30
0.0
  0
LINE
  5
1FD
330
1F
100
AcDbEntity
  8
0
  6
Continuous
 62
     7
370
    15
100
AcDbLine
 10
271.2753331156
 20
25.4458847198
 30
0.0
 11
272.2540904814
 21
26.0109093201
 31
0.0
  0
LWPOLYLINE
  5
1FE
330
1F
100
AcDbEntity
  8
0
  6
Continuous
 62
     7
370
    15
100
AcDbPolyline
 90
        3
 70
   128
 43
0.0
 10
270.8483708001
 20
25.2574491863
 10
270.878919087
 20
25.2669788791
 10
271.2753331156
 20
25.4458847198
  0
ARC
  5
1FF
330
1F
100
AcDbEntity
  8
0
  6
Continuous
 62
     7
370
    15
100
AcDbCircle
 10
278.2732127629
 20
38.9804143115
 30
0.0
 40
2.48051018981696
100
AcDbArc
 50
340.8092650547
 51
14.2703419286
  0
ARC
  5
200
330
1F
100
AcDbEntity
  8
0
  6
Continuous
 62
     7
370
    15
100
AcDbCircle
 10
273.2521597398
 20
35.9618611707
 30
0.0
 40
7.686244433718
100
AcDbArc
 50
343.3431752853
 51
16.6568247147
  0
ARC
  5
201
330
1F
100
AcDbEntity
  8
0
  6
Continuous
 62
     7
370
    15
100
AcDbCircle
 10
277.1280579343
 20
32.9569062277
 30
0.0
 40
3.578792115761172
100
AcDbArc
 50
299.9008204488
 51
12.9462273543
  0
LINE
  5
202
330
1F
100
AcDbEntity
  8
0
  6
Continuous
 62
     7
370
    15
100
AcDbLine
 10
277.9333289867
 20
29.2894639232
 30
0.0
 11
278.9120863525
 21
29.8544885236
 31
0.0
  0
LWPOLYLINE
  5
203
330
1F
100
AcDbEntity
  8
0
  6
Continuous
 62
     7
370
    15
100
AcDbPolyline
 90
       10
 70
   128
 43
0.0
 10
277.9333289867
 20
29.2894639232
 10
277.3507961099
 20
28.5803918302
 10
276.7321873742
 20
27.9383474346
 10
276.0873902352
 20
27.3735927732
 10
275.4267107277
 20
26.8951545317
 10
274.7607087404
 20
26.5106797682
 10
274.1000292329
 20
26.2263136871
 10
273.4552320939
 20
26.0466014183
 10
272.8366233582
 20
25.9744153704
 10
272.2540904814
 20
26.0109093201
  0
LINE
  5
204
330
1F
100
AcDbEntity
  8
0
  6
Continuous
 62
     7
370
    15
100
AcDbLine
 10
270.6469449017
 20
30.20691752
 30
0.0
 11
270.684791257
 21
30.8972881559
 31
0.0
  0
ARC
  5
205
330
1F
100
AcDbEntity
  8
0
  6
Continuous
 62
     7
370
    15
100
AcDbCircle
 10
280.316130017
 20
29.6404277008
 30
0.0
 40
9.71804682688295
100
AcDbArc
 50
151.4206763184
 51
170.981207034
  0
LWPOLYLINE
  5
206
330
1F
100
AcDbEntity
  8
0
  6
Continuous
 62
     7
370
    15
100
AcDbPolyline
 90
       33
 70
   128
 43
0.0
 10
276.9029032882
 20
38.5091514809
 10
277.3170921502
 20
38.5045172853
 10
277.8314115312
 20
38.4008254437
 10
278.2924446607
 20
38.1876134602
 10
278.6912180534
 20
37.8690312636
 10
279.0199700388
 20
37.4512796938
 10
279.2723018334
 20
36.94248981
 10
279.4433020858
 20
36.3525646287
 10
279.5296424708
 20
35.6929863723
 10
279.5296424708
 20
34.9765929814
 10
279.4433020858
 20
34.2173282384
 10
279.2723018334
 20
33.429970368
 10
279.0199700388
 20
32.6298443955
 10
278.6912180534
 20
31.8325238628
 10
278.2924446607
 20
31.0535277071
 10
277.8314115312
 20
30.3080182025
 10
277.3170921502
 20
29.6105058435
 10
276.7594971596
 20
28.9745669148
 10
276.1694795116
 20
28.4125792442
 10
275.5585232285
 20
27.9354812826
 10
274.9385198794
 20
27.5525591989
 10
274.3215371244
 20
27.2712661361
 10
273.7195838309
 20
27.0970771436
 10
273.144376335
 20
27.0333826121
 10
272.6071103964
 20
27.081422283
 10
272.1182432854
 20
27.240261119
 10
271.6872902444
 20
27.5068075027
 10
271.3226392839
 20
27.8758734119
 10
271.0313879203
 20
28.3402753985
 10
270.8192050299
 20
28.8909744062
 10
270.6902205114
 20
29.5172517051
 10
270.6469449017
 20
30.20691752
 10
270.6469449017
 20
30.20691752
  0
ARC
  5
207
330
1F
100
AcDbEntity
  8
0
  6
Continuous
 62
     7
370
    15
100
AcDbCircle
 10
281.2322993772
 20
37.4338581226
 30
0.0
 40
2.304188309333667
100
AcDbArc
 50
115.8757889868
 51
120.039995697
  0
LINE
  5
208
330
1F
100
AcDbEntity
  8
0
  6
Continuous
 62
     7
370
    15
100
AcDbLine
 10
279.1000551757
 20
38.8635144202
 30
0.0
 11
280.0788125414
 21
39.4285390205
 31
0.0
  0
LWPOLYLINE
  5
209
330
1F
100
AcDbEntity
  8
0
  6
Continuous
 62
     7
370
    15
100
AcDbPolyline
 90
       10
 70
   128
 43
0.0
 10
273.4208166704
 20
35.5849598171
 10
274.0033495472
 20
36.2940319101
 10
274.6219582829
 20
36.9360763057
 10
275.2667554219
 20
37.5008309671
 10
275.9274349293
 20
37.9792692086
 10
276.5934369167
 20
38.3637439721
 10
277.2541164242
 20
38.6481100532
 10
277.8989135631
 20
38.827822322
 10
278.5175222988
 20
38.9000083699
 10
279.1000551757
 20
38.8635144202
  0
LINE
  5
20A
330
1F
100
AcDbEntity
  8
0
  6
Continuous
 62
     7
370
    15
100
AcDbLine
 10
272.4420593046
 20
35.0199352167
 30
0.0
 11
273.4208166704
 21
35.5849598171
 31
0.0
  0
ARC
  5
20B
330
1F
100
AcDbEntity
  8
0
  6
Continuous
 62
     7
370
    15
100
AcDbCircle
 10
273.743310155
 20
32.769291875
 30
0.0
 40
2.599740223072541
100
AcDbArc
 50
120.0351439476
 51
123.8773714499
  0
SPLINE
  5
20C
330
1F
100
AcDbEntity
  8
0
  6
Continuous
 62
     7
370
    15
100
AcDbSpline
210
0.0
220
0.0
230
1.0
 70
     8
 71
     3
 72
    12
 73
     8
 74
     0
 42
0.000000001
 43
0.00000001
 40
0.0
 40
0.0
 40
0.0
 40
0.0
 40
0.5000000000000004
 40
0.5000000000000004
 40
0.7500000000000002
 40
0.7500000000000002
 40
1.0
 40
1.0
 40
1.0
 40
1.0
 10
270.8423738868596
 20
25.28392689007385
 30
0.0
 10
270.787044916739
 20
25.45697921942498
 30
0.0
 10
270.7469098650543
 20
25.64600165970471
 30
0.0
 10
270.7072168956574
 20
25.95214361630641
 30
0.0
 10
270.6974372199546
 20
26.05860319117849
 30
0.0
 10
270.6850633612284
 20
26.27501417451039
 30
0.0
 10
270.682391397737
 20
26.38524029769086
 30
0.0
 10
270.6830829926527
 20
26.49747662917793
 30
0.0
  0
ARC
  5
20D
330
1F
100
AcDbEntity
  8
0
  6
Continuous
 62
     7
370
    15
100
AcDbCircle
 10
278.1203925978
 20
28.8807062114
 30
0.0
 40
7.809824415698638
100
AcDbArc
 50
162.2323364785
 51
197.7676635215
  0
SPLINE
  5
20E
330
1F
100
AcDbEntity
  8
0
  6
Continuous
 62
     7
370
    15
100
AcDbSpline
210
0.0
220
0.0
230
1.0
 70
     8
 71
     3
 72
    12
 73
     8
 74
     0
 42
0.000000001
 43
0.00000001
 40
0.0
 40
0.0
 40
0.0
 40
0.0
 40
0.2499999999999998
 40
0.2499999999999998
 40
0.4999999999999997
 40
0.4999999999999997
 40
1.0
 40
1.0
 40
1.0
 40
1.0
 10
270.6830829926527
 20
31.26393579354792
 30
0.0
 10
270.6823967704995
 20
31.32398506202827
 30
0.0
 10
270.685021014949
 20
31.38917959825371
 30
0.0
 10
270.6972423588711
 20
31.52996543142447
 30
0.0
 10
270.7069119098213
 20
31.60599336413914
 30
0.0
 10
270.7469087709372
 20
31.84760444579102
 30
0.0
 10
270.7873374160856
 20
32.02290765373807
 30
0.0
 10
270.8423738868595
 20
32.21237442289504
 30
0.0
  0
ARC
  5
20F
330
1F
100
AcDbEntity
  8
0
  6
Continuous
 62
     7
370
    15
100
AcDbCircle
 10
274.2830676591
 20
25.6731612083
 30
0.0
 40
3.693153870579929
100
AcDbArc
 50
163.7051539948
 51
167.102890429
  0
ARC
  5
210
330
1F
100
AcDbEntity
  8
0
  6
Continuous
 62
     7
370
    15
100
AcDbCircle
 10
278.1019859172
 20
28.9125625696
 30
0.0
 40
7.68624443372078
100
AcDbArc
 50
163.3431752853
 51
196.6568247147
  0
ARC
  5
211
330
1F
100
AcDbEntity
  8
0
  6
Continuous
 62
     7
370
    15
100
AcDbCircle
 10
272.0128466846
 20
31.6747106534
 30
0.0
 40
1.391764154555774
100
AcDbArc
 50
197.1663456623
 51
203.6800706086
  0
LWPOLYLINE
  5
212
330
1F
100
AcDbEntity
  8
0
  6
Continuous
 62
     7
370
    15
100
AcDbPolyline
 90
       29
 70
   128
 43
0.0
 10
276.7752255029
 20
38.4517389448
 10
277.0339010727
 20
38.4237399473
 10
277.5184951377
 20
38.2845853163
 10
277.9465302369
 20
38.0374055855
 10
278.30929281
 20
37.6872326213
 10
278.5993980573
 20
37.2411949355
 10
278.8109402723
 20
36.7083725691
 10
278.9396130658
 20
36.099612249
 10
278.9827970306
 20
35.4273065797
 10
278.9396130658
 20
34.7051417659
 10
278.8109402723
 20
33.9478190007
 10
278.5993980573
 20
33.1707551917
 10
278.30929281
 20
32.389769117
 10
277.9465302369
 20
31.6207594011
 10
277.5184951377
 20
30.879380864
 10
277.0339010727
 20
30.1807258349
 10
276.5026129797
 20
29.5390169154
 10
275.935446352
 20
28.9673174485
 10
275.3439470667
 20
28.4772655868
 10
274.7401563435
 20
28.0788373729
 10
274.1363656202
 20
27.7801436564
 10
273.5448663349
 20
27.5872649799
 10
272.9776997073
 20
27.504127797
 10
272.4464116142
 20
27.5324245412
 10
271.9618175492
 20
27.6715791722
 10
271.53378245
 20
27.918758903
 10
271.1710198769
 20
28.2689318672
 10
270.8809146297
 20
28.714969553
 10
270.8629469473
 20
28.7506566818
  0
LINE
  5
213
330
1F
100
AcDbEntity
  8
0
  6
Continuous
 62
     7
370
    15
100
AcDbLine
 10
251.6651683454
 20
28.3781677172
 30
0.0
 11
253.8451509594
 21
27.1196905416
 31
0.0
  0
SPLINE
  5
214
330
1F
100
AcDbEntity
  8
0
  6
Continuous
 62
     7
370
    15
100
AcDbSpline
210
0.0
220
0.0
230
1.0
 70
     8
 71
     3
 72
    16
 73
    12
 74
     0
 42
0.000000001
 43
0.00000001
 40
0.0
 40
0.0
 40
0.0
 40
0.0
 40
0.1250000000000011
 40
0.1250000000000011
 40
0.2500000000000021
 40
0.2500000000000021
 40
0.5000000000000014
 40
0.5000000000000014
 40
0.7500000000000008
 40
0.7500000000000008
 40
1.0
 40
1.0
 40
1.0
 40
1.0
 10
251.4268457677368
 20
29.08541373487003
 30
0.0
 10
251.4511500261212
 20
29.07138318515334
 30
0.0
 10
251.4736157620912
 20
29.04285433728004
 30
0.0
 10
251.5087317973064
 20
28.98443976661709
 30
0.0
 10
251.5230022528612
 20
28.95314253574913
 30
0.0
 10
251.5603084698884
 20
28.86069728109496
 30
0.0
 10
251.5787542990777
 20
28.7988385868214
 30
0.0
 10
251.6109563920584
 20
28.67562556214224
 30
0.0
 10
251.6242115648032
 20
28.61471112216866
 30
0.0
 10
251.6470883455305
 20
28.49548160935801
 30
0.0
 10
251.6567817375285
 20
28.43656372758827
 30
0.0
 10
251.6651683454267
 20
28.37816771719173
 30
0.0
  0
LINE
  5
215
330
1F
100
AcDbEntity
  8
0
  6
Continuous
 62
     7
370
    15
100
AcDbLine
 10
250.6419572406
 20
29.5385202369
 30
0.0
 11
251.4268457677
 21
29.0854137349
 31
0.0
  0
SPLINE
  5
216
330
1F
100
AcDbEntity
  8
0
  6
Continuous
 62
     7
370
    15
100
AcDbSpline
210
0.0
220
0.0
230
1.0
 70
     8
 71
     3
 72
    14
 73
    10
 74
     0
 42
0.000000001
 43
0.00000001
 40
0.0
 40
0.0
 40
0.0
 40
0.0
 40
0.5000000000000013
 40
0.5000000000000013
 40
0.7500000000000009
 40
0.7500000000000009
 40
0.8750000000000004
 40
0.8750000000000004
 40
1.0
 40
1.0
 40
1.0
 40
1.0
 10
250.4036346629298
 20
29.10643561047906
 30
0.0
 10
250.4205247527454
 20
29.20454054328491
 30
0.0
 10
250.4422513764836
 20
29.2998153903985
 30
0.0
 10
250.4901057240313
 20
29.42739688943945
 30
0.0
 10
250.5083850016624
 20
29.46780134283079
 30
0.0
 10
250.5460077660372
 20
29.51751788200795
 30
0.0
 10
250.5599472385127
 20
29.5320206471624
 30
0.0
 10
250.5952715662674
 20
29.5500093582973
 30
0.0
 10
250.6177997305023
 20
29.552466070677
 30
0.0
 10
250.6419572406198
 20
29.53852023693161
 30
0.0
  0
LINE
  5
217
330
1F
100
AcDbEntity
  8
0
  6
Continuous
 62
     7
370
    15
100
AcDbLine
 10
249.2489568817
 20
29.773016905
 30
0.0
 11
250.4036346629
 21
29.1064356105
 31
0.0
  0
ARC
  5
218
330
1F
100
AcDbEntity
  8
0
  6
Continuous
 62
     7
370
    15
100
AcDbCircle
 10
252.9462297703
 20
35.5818730176
 30
0.0
 40
6.885683419173381
100
AcDbArc
 50
182.476303705
 51
237.5236964406
  0
LINE
  5
219
330
1F
100
AcDbEntity
  8
0
  6
Continuous
 62
     7
370
    15
100
AcDbLine
 10
246.0669763663
 20
36.100909622
 30
0.0
 11
246.0669763663
 21
35.2843688101
 31
0.0
  0
ARC
  5
21A
330
1F
100
AcDbEntity
  8
0
  6
Continuous
 62
     7
370
    15
100
AcDbCircle
 10
249.0395335172
 20
36.188747724
 30
0.0
 40
2.973854661463762
100
AcDbArc
 50
156.6956808441
 51
181.6925792168
  0
ARC
  5
21B
330
1F
100
AcDbEntity
  8
0
  6
Continuous
 62
     7
370
    15
100
AcDbCircle
 10
271.2885724689
 20
26.7670289254
 30
0.0
 40
2.304188309322596
100
AcDbArc
 50
295.8757889868
 51
300.039995697
  0
SPLINE
  5
21C
330
1F
100
AcDbEntity
  8
0
  6
Continuous
 62
     7
370
    15
100
AcDbSpline
210
0.0
220
0.0
230
1.0
 70
     8
 71
     3
 72
    12
 73
     8
 74
     0
 42
0.000000001
 43
0.00000001
 40
0.0
 40
0.0
 40
0.0
 40
0.0
 40
0.4999999999999991
 40
0.4999999999999991
 40
0.7499999999999996
 40
0.7499999999999996
 40
1.0
 40
1.0
 40
1.0
 40
1.0
 10
272.2941700878825
 20
24.69385329530551
 30
0.0
 10
272.1827540631436
 20
24.59325135781917
 30
0.0
 10
272.0681318506366
 20
24.51977666343424
 30
0.0
 10
271.8924085351366
 20
24.45214947020228
 30
0.0
 10
271.8334840235422
 20
24.43702656493166
 30
0.0
 10
271.7179996363125
 20
24.42226452107318
 30
0.0
 10
271.6610240837829
 20
24.42244729149987
 30
0.0
 10
271.6048925439848
 20
24.43028189063464
 30
0.0
  0
SPLINE
  5
21D
330
1F
100
AcDbEntity
  8
0
  6
Continuous
 62
     7
370
    15
100
AcDbSpline
210
0.0
220
0.0
230
1.0
 70
     8
 71
     3
 72
    12
 73
     8
 74
     0
 42
0.000000001
 43
0.00000001
 40
0.0
 40
0.0
 40
0.0
 40
0.0
 40
0.4999999999999991
 40
0.4999999999999991
 40
0.7499999999999996
 40
0.7499999999999996
 40
1.0
 40
1.0
 40
1.0
 40
1.0
 10
281.3048880316846
 20
30.02997009296893
 30
0.0
 10
281.1512613835474
 20
29.86000055551198
 30
0.0
 10
280.9835636011068
 20
29.71196604793225
 30
0.0
 10
280.7117223852454
 20
29.52114337280904
 30
0.0
 10
280.6171519894508
 20
29.46257062307087
 30
0.0
 10
280.4247530652596
 20
29.35848946629792
 30
0.0
 10
280.3266813242654
 20
29.31272650553088
 30
0.0
 10
280.2267017581343
 20
29.27320635427131
 30
0.0
  0
LWPOLYLINE
  5
21E
330
1F
100
AcDbEntity
  8
0
  6
Continuous
 62
     7
370
    15
100
AcDbPolyline
 90
       13
 70
   128
 43
0.0
 10
280.2267017581
 20
29.2732063543
 10
279.6595116773
 20
28.4276660756
 10
279.0420547145
 20
27.6364402881
 10
278.3834620686
 20
26.911229953
 10
277.693473269
 20
26.2627597686
 10
276.9822921442
 20
25.7006195695
 10
276.260435923
 20
25.2331225081
 10
275.5385797018
 20
24.8671821166
 10
274.827398577
 20
24.6082100669
 10
274.1374097774
 20
24.4600361405
 10
273.4788171315
 20
24.4248515921
 10
272.8613601688
 20
24.5031767448
 10
272.2941700879
 20
24.6938532953
  0
SPLINE
  5
21F
330
1F
100
AcDbEntity
  8
0
  6
Continuous
 62
     7
370
    15
100
AcDbSpline
210
0.0
220
0.0
230
1.0
 70
     8
 71
     3
 72
    14
 73
    10
 74
     0
 42
0.000000001
 43
0.00000001
 40
0.0
 40
0.0
 40
0.0
 40
0.0
 40
0.5000000000000016
 40
0.5000000000000016
 40
0.7500000000000023
 40
0.7500000000000023
 40
0.8750000000000011
 40
0.8750000000000011
 40
1.0
 40
1.0
 40
1.0
 40
1.0
 10
234.0047488918482
 20
41.03615429570564
 30
0.0
 10
234.3783668140872
 20
40.76717522738399
 30
0.0
 10
234.7534410421502
 20
40.49502584852284
 30
0.0
 10
235.3214654484981
 20
40.07541078629576
 30
0.0
 10
235.5116968273273
 20
39.93366583677835
 30
0.0
 10
235.7999510492388
 20
39.71500636091783
 30
0.0
 10
235.8965238774951
 20
39.64110553987359
 30
0.0
 10
236.0914596514988
 20
39.48960183371061
 30
0.0
 10
236.1896932307023
 20
39.41226495031144
 30
0.0
 10
236.2901960389907
 20
39.33025163830171
 30
0.0
  0
SPLINE
  5
220
330
1F
100
AcDbEntity
  8
0
  6
Continuous
 62
     7
370
    15
100
AcDbSpline
210
0.0
220
0.0
230
1.0
 70
     8
 71
     3
 72
     8
 73
     4
 74
     0
 42
0.000000001
 43
0.00000001
 40
0.0
 40
0.0
 40
0.0
 40
0.0
 40
1.0
 40
1.0
 40
1.0
 40
1.0
 10
236.2901960389907
 20
39.3302516383016
 30
0.0
 10
236.5966222797315
 20
39.08019861672118
 30
0.0
 10
236.9026448250384
 20
38.83795674092622
 30
0.0
 10
237.2084363052667
 20
38.60018576785211
 30
0.0
  0
SPLINE
  5
221
330
1F
100
AcDbEntity
  8
0
  6
Continuous
 62
     7
370
    15
100
AcDbSpline
210
0.0
220
0.0
230
1.0
 70
     8
 71
     3
 72
    14
 73
    10
 74
     0
 42
0.000000001
 43
0.00000001
 40
0.0
 40
0.0
 40
0.0
 40
0.0
 40
0.1249999999999967
 40
0.1249999999999967
 40
0.2499999999999933
 40
0.2499999999999933
 40
0.4999999999999956
 40
0.4999999999999956
 40
1.0
 40
1.0
 40
1.0
 40
1.0
 10
237.2084363052668
 20
38.60018576785209
 30
0.0
 10
237.2278749198334
 20
38.58507109462027
 30
0.0
 10
237.2462798466572
 20
38.57244717904711
 30
0.0
 10
237.2768357018145
 20
38.55520819602992
 30
0.0
 10
237.2890271993709
 20
38.5504905356546
 30
0.0
 10
237.3168546762067
 20
38.54497049043357
 30
0.0
 10
237.3252656150815
 20
38.55146401837439
 30
0.0
 10
237.339084790309
 20
38.58139044465763
 30
0.0
 10
237.3331872936546
 20
38.61482034260586
 30
0.0
 10
237.3235955448598
 20
38.65258472279879
 30
0.0
  0
SPLINE
  5
222
330
1F
100
AcDbEntity
  8
0
  6
Continuous
 62
     7
370
    15
100
AcDbSpline
210
0.0
220
0.0
230
1.0
 70
     8
 71
     3
 72
    16
 73
    12
 74
     0
 42
0.000000001
 43
0.00000001
 40
0.0
 40
0.0
 40
0.0
 40
0.0
 40
0.1249999999999996
 40
0.1249999999999996
 40
0.2499999999999992
 40
0.2499999999999992
 40
0.4999999999999994
 40
0.4999999999999994
 40
0.7499999999999997
 40
0.7499999999999997
 40
1.0
 40
1.0
 40
1.0
 40
1.0
 10
237.32359554486
 20
38.65258472279869
 30
0.0
 10
237.3157154934673
 20
38.6836098531582
 30
0.0
 10
237.3126150928517
 20
38.71172117749431
 30
0.0
 10
237.3089540669439
 20
38.76724894585476
 30
0.0
 10
237.3085193197858
 20
38.79463523069706
 30
0.0
 10
237.3069774441537
 20
38.87927821180869
 30
0.0
 10
237.3055643172588
 20
38.93905993957358
 30
0.0
 10
237.2918848561823
 20
39.07428766472569
 30
0.0
 10
237.2798724505284
 20
39.14962896455906
 30
0.0
 10
237.2384213174927
 20
39.32228724512765
 30
0.0
 10
237.2095461736324
 20
39.41758966039988
 30
0.0
 10
237.169251300657
 20
39.52431443986782
 30
0.0
  0
ARC
  5
223
330
1F
100
AcDbEntity
  8
0
  6
Continuous
 62
     7
370
    15
100
AcDbCircle
 10
250.0478537373
 20
43.5165706453
 30
0.0
 40
13.48319362501715
100
AcDbArc
 50
162.7770125163
 51
197.2229874838
  0
SPLINE
  5
224
330
1F
100
AcDbEntity
  8
0
  6
Continuous
 62
     7
370
    15
100
AcDbSpline
210
0.0
220
0.0
230
1.0
 70
     8
 71
     3
 72
    16
 73
    12
 74
     0
 42
0.000000001
 43
0.00000001
 40
0.0
 40
0.0
 40
0.0
 40
0.0
 40
0.1249999999999996
 40
0.1249999999999996
 40
0.2499999999999992
 40
0.2499999999999992
 40
0.4999999999999994
 40
0.4999999999999994
 40
0.7499999999999997
 40
0.7499999999999997
 40
1.0
 40
1.0
 40
1.0
 40
1.0
 10
237.32359554486
 20
49.49628777890409
 30
0.0
 10
237.3157154934673
 20
49.41286001315247
 30
0.0
 10
237.3126150928517
 20
49.32854008163467
 30
0.0
 10
237.3089540669439
 20
49.16021665249747
 30
0.0
 10
237.3085193197858
 20
49.0759740596701
 30
0.0
 10
237.3069774441537
 20
48.82340524408818
 30
0.0
 10
237.3055643172588
 20
48.65524329026771
 30
0.0
 10
237.2918848561823
 20
48.32031197869635
 30
0.0
 10
237.2798724505284
 20
48.15326337369908
 30
0.0
 10
237.2384213174927
 20
47.82228669999581
 30
0.0
 10
237.2095461736324
 20
47.6620751002397
 30
0.0
 10
237.169251300657
 20
47.50882685071427
 30
0.0
  0
SPLINE
  5
225
330
1F
100
AcDbEntity
  8
0
  6
Continuous
 62
     7
370
    15
100
AcDbSpline
210
0.0
220
0.0
230
1.0
 70
     8
 71
     3
 72
    14
 73
    10
 74
     0
 42
0.000000001
 43
0.00000001
 40
0.0
 40
0.0
 40
0.0
 40
0.0
 40
0.1250000000000001
 40
0.1250000000000001
 40
0.2500000000000002
 40
0.2500000000000002
 40
0.5000000000000023
 40
0.5000000000000023
 40
1.0
 40
1.0
 40
1.0
 40
1.0
 10
237.2084363052668
 20
50.02937297851169
 30
0.0
 10
237.2278749198335
 20
50.02649873205857
 30
0.0
 10
237.2462798466572
 20
50.01731340119562
 30
0.0
 10
237.2768357018146
 20
49.98775581872709
 30
0.0
 10
237.289027199371
 20
49.96766857722108
 30
0.0
 10
237.3168546762067
 20
49.90207647169319
 30
0.0
 10
237.3252656150815
 20
49.85166410718849
 30
0.0
 10
237.339084790309
 20
49.6994674571916
 30
0.0
 10
237.3331872936546
 20
49.59783764599517
 30
0.0
 10
237.3235955448598
 20
49.49628777890413
 30
0.0
  0
SPLINE
  5
226
330
1F
100
AcDbEntity
  8
0
  6
Continuous
 62
     7
370
    15
100
AcDbSpline
210
0.0
220
0.0
230
1.0
 70
     8
 71
     3
 72
     8
 73
     4
 74
     0
 42
0.000000001
 43
0.00000001
 40
0.0
 40
0.0
 40
0.0
 40
0.0
 40
1.0
 40
1.0
 40
1.0
 40
1.0
 10
236.2901960389907
 20
50.13066811313054
 30
0.0
 10
236.5966222797315
 20
50.1106361350316
 30
0.0
 10
236.9026448250384
 20
50.07458813900706
 30
0.0
 10
237.2084363052668
 20
50.02937297851169
 30
0.0
  0
SPLINE
  5
227
330
1F
100
AcDbEntity
  8
0
  6
Continuous
 62
     7
370
    15
100
AcDbSpline
210
0.0
220
0.0
230
1.0
 70
     8
 71
     3
 72
    14
 73
    10
 74
     0
 42
0.000000001
 43
0.00000001
 40
0.0
 40
0.0
 40
0.0
 40
0.0
 40
0.4999999999999968
 40
0.4999999999999968
 40
0.7499999999999967
 40
0.7499999999999967
 40
0.8749999999999983
 40
0.8749999999999983
 40
1.0
 40
1.0
 40
1.0
 40
1.0
 10
234.0047488918482
 20
50.87479505248295
 30
0.0
 10
234.3783668140872
 20
50.7166683872628
 30
0.0
 10
234.7534410421502
 20
50.56551307189257
 30
0.0
 10
235.3214654484981
 20
50.36410760129831
 30
0.0
 10
235.5116968273273
 20
50.30113715659666
 30
0.0
 10
235.7999510492388
 20
50.2201713916388
 30
0.0
 10
235.8965238774951
 20
50.1954475260374
 30
0.0
 10
236.0914596514988
 20
50.15427898137685
 30
0.0
 10
236.1896932307023
 20
50.13723827516881
 30
0.0
 10
236.2901960389907
 20
50.13066811313031
 30
0.0
  0
SPLINE
  5
228
330
1F
100
AcDbEntity
  8
0
  6
Continuous
 62
     7
370
    15
100
AcDbSpline
210
0.0
220
0.0
230
1.0
 70
     8
 71
     3
 72
     8
 73
     4
 74
     0
 42
0.000000001
 43
0.00000001
 40
0.0
 40
0.0
 40
0.0
 40
0.0
 40
1.0
 40
1.0
 40
1.0
 40
1.0
 10
234.0138603811579
 20
51.06109879931254
 30
0.0
 10
234.0091166468169
 20
50.99912636604879
 30
0.0
 10
234.0061692925881
 20
50.93701772024673
 30
0.0
 10
234.0047488918482
 20
50.87479505248295
 30
0.0
  0
LWPOLYLINE
  5
229
330
1F
100
AcDbEntity
  8
0
  6
Continuous
 62
     7
370
    15
100
AcDbPolyline
 90
        3
 70
   128
 43
0.0
 10
249.80753326
 20
63.7916309594
 10
249.9355079724
 20
63.7307620934
 10
249.9501288939
 20
63.723508767
  0
SPLINE
  5
22A
330
1F
100
AcDbEntity
  8
0
  6
Continuous
 62
     7
370
    15
100
AcDbSpline
210
0.0
220
0.0
230
1.0
 70
     8
 71
     3
 72
     8
 73
     4
 74
     0
 42
0.000000001
 43
0.00000001
 40
0.0
 40
0.0
 40
0.0
 40
0.0
 40
1.0
 40
1.0
 40
1.0
 40
1.0
 10
234.0138603811579
 20
40.9665524137864
 30
0.0
 10
234.0091166468169
 20
40.99071441503326
 30
0.0
 10
234.0061692925881
 20
41.01385096794274
 30
0.0
 10
234.0047488918482
 20
41.03615429570564
 30
0.0
  0
SPLINE
  5
22B
330
1F
100
AcDbEntity
  8
0
  6
Continuous
 62
     7
370
    15
100
AcDbSpline
210
0.0
220
0.0
230
1.0
 70
     8
 71
     3
 72
    18
 73
    14
 74
     0
 42
0.000000001
 43
0.00000001
 40
0.0
 40
0.0
 40
0.0
 40
0.0
 40
0.1188539154228343
 40
0.2382447507361908
 40
0.3576262177476978
 40
0.476450931661571
 40
0.5944445255849857
 40
0.6538393718623033
 40
0.7124984440577485
 40
0.771086164912664
 40
0.8308341160795809
 40
0.9492321437265523
 40
1.0
 40
1.0
 40
1.0
 40
1.0
 10
240.8154207316864
 20
39.16081456857109
 30
0.0
 10
240.6684375657174
 20
39.43561221709922
 30
0.0
 10
240.3738072406319
 20
39.98644890635395
 30
0.0
 10
240.2358790179141
 20
40.82784198378538
 30
0.0
 10
240.3845176139262
 20
41.52368596959464
 30
0.0
 10
240.7885775874541
 20
41.98526356305868
 30
0.0
 10
241.2784305557043
 20
42.08655943261674
 30
0.0
 10
241.6969490674699
 20
41.99350739682343
 30
0.0
 10
242.0125680535346
 20
41.8343672625873
 30
0.0
 10
242.3179957582772
 20
41.59271686470618
 30
0.0
 10
242.6892724029821
 20
41.17342238733467
 30
0.0
 10
243.0181806412777
 20
40.66175700450186
 30
0.0
 10
243.1450734290096
 20
40.24024206116577
 30
0.0
 10
243.1831548356172
 20
40.11374250011678
 30
0.0
  0
SPLINE
  5
22C
330
1F
100
AcDbEntity
  8
0
  6
Continuous
 62
     7
370
    15
100
AcDbSpline
210
0.0
220
0.0
230
1.0
 70
     8
 71
     3
 72
    12
 73
     8
 74
     0
 42
0.000000001
 43
0.00000001
 40
0.0
 40
0.0
 40
0.0
 40
0.0
 40
0.1164814823987762
 40
0.4101185270849316
 40
0.5566130644249108
 40
0.7051175575021872
 40
1.0
 40
1.0
 40
1.0
 40
1.0
 10
242.7718039892327
 20
37.68948406965174
 30
0.0
 10
242.7130104558373
 20
37.67564265690254
 30
0.0
 10
242.5060048715875
 20
37.62690856035285
 30
0.0
 10
242.1085399525382
 20
37.82737221631821
 30
0.0
 10
241.6918163489586
 20
38.13192300435018
 30
0.0
 10
241.2681214885475
 20
38.52456541335676
 30
0.0
 10
240.9962402385881
 20
38.90668144250738
 30
0.0
 10
240.8154207316864
 20
39.16081456857109
 30
0.0
  0
SPLINE
  5
22D
330
1F
100
AcDbEntity
  8
0
  6
Continuous
 62
     7
370
    15
100
AcDbSpline
210
0.0
220
0.0
230
1.0
 70
     8
 71
     3
 72
    12
 73
     8
 74
     0
 42
0.000000001
 43
0.00000001
 40
0.0
 40
0.0
 40
0.0
 40
0.0
 40
0.5000000000000004
 40
0.5000000000000004
 40
0.7500000000000002
 40
0.7500000000000002
 40
1.0
 40
1.0
 40
1.0
 40
1.0
 10
282.0674066888097
 20
38.69244792721801
 30
0.0
 10
282.0824956888044
 20
38.54262563815529
 30
0.0
 10
282.0700415217972
 20
38.38396230761459
 30
0.0
 10
282.0121026077385
 20
38.13418203763955
 30
0.0
 10
281.9859457216739
 20
38.04846819829032
 30
0.0
 10
281.921179136381
 20
37.87658944539553
 30
0.0
 10
281.8825818633225
 20
37.79018754536254
 30
0.0
 10
281.8377888533641
 20
37.70341041886517
 30
0.0
  0
ARC
  5
22E
330
1F
100
AcDbEntity
  8
0
  6
Continuous
 62
     7
370
    15
100
AcDbCircle
 10
278.237804187
 20
38.5277258397
 30
0.0
 40
3.693153870491078
100
AcDbArc
 50
343.7051539947
 51
347.102890429
  0
LINE
  5
22F
330
1F
100
AcDbEntity
  8
0
  6
Continuous
 62
     7
370
    15
100
AcDbLine
 10
280.6158798543
 20
38.1650360551
 30
0.0
 11
281.7826060432
 21
37.4914993629
 31
0.0
  0
SPLINE
  5
230
330
1F
100
AcDbEntity
  8
0
  6
Continuous
 62
     7
370
    15
100
AcDbSpline
210
0.0
220
0.0
230
1.0
 70
     8
 71
     3
 72
    11
 73
     7
 74
     0
 42
0.000000001
 43
0.00000001
 40
0.0
 40
0.0
 40
0.0
 40
0.0
 40
0.1104762423043778
 40
0.3772387510090691
 40
0.8334752587646617
 40
1.0
 40
1.0
 40
1.0
 40
1.0
 10
279.2565712894342
 20
42.60586570661452
 30
0.0
 10
279.2658854810251
 20
42.60021979717384
 30
0.0
 10
279.2976902738845
 20
42.58094093883028
 30
0.0
 10
279.353835734294
 20
42.53195953398573
 30
0.0
 10
279.3976808551348
 20
42.47163207013848
 30
0.0
 10
279.3943569812609
 20
42.42758721773777
 30
0.0
 10
279.3934681860162
 20
42.41580973855025
 30
0.0
  0
ARC
  5
231
330
1F
100
AcDbEntity
  8
0
  6
Continuous
 62
     7
370
    15
100
AcDbCircle
 10
258.8785506412
 20
26.8955381196
 30
0.0
 40
6.800481230553233
100
AcDbArc
 50
223.0438635251
 51
256.8033113569
  0
SPLINE
  5
232
330
1F
100
AcDbEntity
  8
0
  6
Continuous
 62
     7
370
    15
100
AcDbSpline
210
0.0
220
0.0
230
1.0
 70
     8
 71
     3
 72
    14
 73
    10
 74
     0
 42
0.000000001
 43
0.00000001
 40
0.0
 40
0.0
 40
0.0
 40
0.0
 40
0.25
 40
0.25
 40
0.5
 40
0.5
 40
0.75
 40
0.75
 40
1.0
 40
1.0
 40
1.0
 40
1.0
 10
251.7839935722844
 20
26.338013765246
 30
0.0
 10
251.8315222695405
 20
26.31057603234858
 30
0.0
 10
251.8881120886652
 20
26.2893332774103
 30
0.0
 10
252.0120266552634
 20
26.26120954620812
 30
0.0
 10
252.0791490266039
 20
26.25453825928599
 30
0.0
 10
252.2117188580821
 20
26.25646411047504
 30
0.0
 10
252.2782594062202
 20
26.26509528738043
 30
0.0
 10
252.3998769739724
 20
26.29563892611484
 30
0.0
 10
252.4560125540316
 20
26.31775800978552
 30
0.0
 10
252.503007965245
 20
26.34488788320346
 30
0.0
  0
LINE
  5
233
330
1F
100
AcDbEntity
  8
0
  6
Continuous
 62
     7
370
    15
100
AcDbLine
 10
250.5770578972
 20
27.0347628997
 30
0.0
 11
251.7839935723
 21
26.3380137652
 31
0.0
  0
SPLINE
  5
234
330
1F
100
AcDbEntity
  8
0
  6
Continuous
 62
     7
370
    15
100
AcDbSpline
210
0.0
220
0.0
230
1.0
 70
     8
 71
     3
 72
     8
 73
     4
 74
     0
 42
0.000000001
 43
0.00000001
 40
0.0
 40
0.0
 40
0.0
 40
0.0
 40
1.0
 40
1.0
 40
1.0
 40
1.0
 10
251.0332388614149
 20
27.96196073766392
 30
0.0
 10
250.8805565213345
 20
27.65299717725647
 30
0.0
 10
250.728540188789
 20
27.3439228123946
 30
0.0
 10
250.5770578972067
 20
27.03476289974601
 30
0.0
  0
LINE
  5
235
330
1F
100
AcDbEntity
  8
0
  6
Continuous
 62
     7
370
    15
100
AcDbLine
 10
251.5509593531
 20
28.2608344158
 30
0.0
 11
251.0332388614
 21
27.9619607377
 31
0.0
  0
SPLINE
  5
236
330
1F
100
AcDbEntity
  8
0
  6
Continuous
 62
     7
370
    15
100
AcDbSpline
210
0.0
220
0.0
230
1.0
 70
     8
 71
     3
 72
    10
 73
     6
 74
     0
 42
0.000000001
 43
0.00000001
 40
0.0
 40
0.0
 40
0.0
 40
0.0
 40
0.5
 40
0.5
 40
1.0
 40
1.0
 40
1.0
 40
1.0
 10
251.6651683454267
 20
28.37816771719173
 30
0.0
 10
251.6559770969693
 20
28.35605032104035
 30
0.0
 10
251.6412187752876
 20
28.33449613389477
 30
0.0
 10
251.60250542378
 20
28.29490146827689
 30
0.0
 10
251.5788702876807
 20
28.27694705537489
 30
0.0
 10
251.55095935309
 20
28.26083441580287
 30
0.0
  0
LINE
  5
237
330
1F
100
AcDbEntity
  8
0
  6
Continuous
 62
     7
370
    15
100
AcDbLine
 10
278.0496356144
 20
43.3026148411
 30
0.0
 11
279.2565712894
 21
42.6058657066
 31
0.0
  0
ARC
  5
238
330
1F
100
AcDbEntity
  8
0
  6
Continuous
 62
     7
370
    15
100
AcDbCircle
 10
258.8070251764
 20
28.7888580516
 30
0.0
 40
8.414820926135285
100
AcDbArc
 50
192.0317128644
 51
237.3803499557
  0
LWPOLYLINE
  5
239
330
1F
100
AcDbEntity
  8
0
  6
Continuous
 62
     7
370
    15
100
AcDbPolyline
 90
       10
 70
   128
 43
0.0
 10
279.1000551757
 20
28.615927231
 10
278.5175222988
 20
27.9068551379
 10
277.8989135631
 20
27.2648107423
 10
277.2541164242
 20
26.7000560809
 10
276.5934369167
 20
26.2216178395
 10
275.9274349293
 20
25.8371430759
 10
275.2667554219
 20
25.5527769948
 10
274.6219582829
 20
25.373064726
 10
274.0033495472
 20
25.3008786781
 10
273.4208166704
 20
25.3373726279
  0
LINE
  5
23A
330
1F
100
AcDbEntity
  8
0
  6
Continuous
 62
     7
370
    15
100
AcDbLine
 10
280.0788125414
 20
29.1809518314
 30
0.0
 11
279.1000551757
 21
28.615927231
 31
0.0
  0
ARC
  5
23B
330
1F
100
AcDbEntity
  8
0
  6
Continuous
 62
     7
370
    15
100
AcDbCircle
 10
278.777561691
 20
31.4315951731
 30
0.0
 40
2.599740223062903
100
AcDbArc
 50
300.0351439476
 51
303.8773714499
  0
LINE
  5
23C
330
1F
100
AcDbEntity
  8
0
  6
Continuous
 62
     7
370
    15
100
AcDbLine
 10
273.4208166704
 20
25.3373726279
 30
0.0
 11
272.4420593046
 21
24.7723480275
 31
0.0
  0
LINE
  5
23D
330
1F
100
AcDbEntity
  8
0
  6
Continuous
 62
     7
370
    15
100
AcDbLine
 10
272.2540904814
 20
26.0109093201
 30
0.0
 11
273.4208166704
 21
25.3373726279
 31
0.0
  0
LINE
  5
23E
330
1F
100
AcDbEntity
  8
0
  6
Continuous
 62
     7
370
    15
100
AcDbLine
 10
279.1000551757
 20
28.615927231
 30
0.0
 11
277.9333289867
 21
29.2894639232
 31
0.0
  0
SPLINE
  5
23F
330
1F
100
AcDbEntity
  8
0
  6
Continuous
 62
     7
370
    15
100
AcDbSpline
210
0.0
220
0.0
230
1.0
 70
     8
 71
     3
 72
    12
 73
     8
 74
     0
 42
0.000000001
 43
0.00000001
 40
0.0
 40
0.0
 40
0.0
 40
0.0
 40
0.2499999999999998
 40
0.2499999999999998
 40
0.4999999999999996
 40
0.4999999999999996
 40
1.0
 40
1.0
 40
1.0
 40
1.0
 10
281.8377888533641
 20
32.93695125449519
 30
0.0
 10
281.8822338818699
 20
32.85164056481199
 30
0.0
 10
281.9206392005877
 20
32.76276016593776
 30
0.0
 10
281.985237982949
 20
32.57762701782276
 30
0.0
 10
282.0115346935098
 20
32.48083620428811
 30
0.0
 10
282.0702826040226
 20
32.18222097934231
 30
0.0
 10
282.082415920057
 20
31.97657439708129
 30
0.0
 10
282.0674066888097
 20
31.76400039439682
 30
0.0
  0
ARC
  5
240
330
1F
100
AcDbEntity
  8
0
  6
Continuous
 62
     7
370
    15
100
AcDbCircle
 10
274.4004792482
 20
35.3201808367
 30
0.0
 40
7.809824415697556
100
AcDbArc
 50
342.2323364785
 51
17.7676635215
  0
ARC
  5
241
330
1F
100
AcDbEntity
  8
0
  6
Continuous
 62
     7
370
    15
100
AcDbCircle
 10
258.521250249
 20
31.1278101348
 30
0.0
 40
9.155022890702515
100
AcDbArc
 50
195.1081347523
 51
213.0149245933
  0
SPLINE
  5
242
330
1F
100
AcDbEntity
  8
0
  6
Continuous
 62
     7
370
    15
100
AcDbSpline
210
0.0
220
0.0
230
1.0
 70
     8
 71
     3
 72
     8
 73
     4
 74
     0
 42
0.000000001
 43
0.00000001
 40
0.0
 40
0.0
 40
0.0
 40
0.0
 40
1.0
 40
1.0
 40
1.0
 40
1.0
 10
248.0765371181155
 20
28.4782828193299
 30
0.0
 10
248.6120758212203
 20
28.56573168485893
 30
0.0
 10
249.1474663351553
 20
28.65348884567375
 30
0.0
 10
249.6826649093485
 20
28.74163048445461
 30
0.0
  0
ARC
  5
243
330
1F
100
AcDbEntity
  8
0
  6
Continuous
 62
     7
370
    15
100
AcDbCircle
 10
280.5080251615
 20
32.5261763946
 30
0.0
 40
1.391764154532728
100
AcDbArc
 50
17.1663456622
 51
23.6800706087
  0
ARC
  5
244
330
1F
100
AcDbEntity
  8
0
  6
Continuous
 62
     7
370
    15
100
AcDbCircle
 10
274.4188859288
 20
35.2883244785
 30
0.0
 40
7.686244433718055
100
AcDbArc
 50
343.3431752853
 51
16.6568247147
  0
LINE
  5
245
330
1F
100
AcDbEntity
  8
0
  6
Continuous
 62
     7
370
    15
100
AcDbLine
 10
280.6158798543
 20
33.7586862863
 30
0.0
 11
281.7826060432
 21
33.085149594
 31
0.0
  0
LINE
  5
246
330
1F
100
AcDbEntity
  8
0
  6
Continuous
 62
     7
370
    15
100
AcDbLine
 10
249.6826649093
 20
28.7416304845
 30
0.0
 11
250.200385401
 21
29.0405041626
 31
0.0
  0
SPLINE
  5
247
330
1F
100
AcDbEntity
  8
0
  6
Continuous
 62
     7
370
    15
100
AcDbSpline
210
0.0
220
0.0
230
1.0
 70
     8
 71
     3
 72
    10
 73
     6
 74
     0
 42
0.000000001
 43
0.00000001
 40
0.0
 40
0.0
 40
0.0
 40
0.0
 40
0.5
 40
0.5
 40
1.0
 40
1.0
 40
1.0
 40
1.0
 10
250.2003854010237
 20
29.04050416259356
 30
0.0
 10
250.2281052172253
 20
29.05650647186802
 30
0.0
 10
250.2599165872164
 20
29.07047501927019
 30
0.0
 10
250.3287639419372
 20
29.09281790090521
 30
0.0
 10
250.3655376950935
 20
29.10115947975494
 30
0.0
 10
250.4036346629292
 20
29.10643561047915
 30
0.0
  0
SPLINE
  5
248
330
1F
100
AcDbEntity
  8
0
  6
Continuous
 62
     7
370
    15
100
AcDbSpline
210
0.0
220
0.0
230
1.0
 70
     8
 71
     3
 72
    11
 73
     7
 74
     0
 42
0.000000001
 43
0.00000001
 40
0.0
 40
0.0
 40
0.0
 40
0.0
 40
0.2397467865292241
 40
0.513967519976855
 40
0.7908584513232205
 40
1.0
 40
1.0
 40
1.0
 40
1.0
 10
242.0861763803076
 20
41.73142201285222
 30
0.0
 10
242.0857128208875
 20
41.56242900414536
 30
0.0
 10
242.0847190453757
 20
41.20014294877874
 30
0.0
 10
242.319441685401
 20
40.58777028171811
 30
0.0
 10
242.663280096435
 20
40.02093210437471
 30
0.0
 10
242.9509214650277
 20
39.73168693520147
 30
0.0
 10
243.0746945949389
 20
39.60722368405149
 30
0.0
  0
SPLINE
  5
249
330
1F
100
AcDbEntity
  8
0
  6
Continuous
 62
     7
370
    15
100
AcDbSpline
210
0.0
220
0.0
230
1.0
 70
     8
 71
     3
 72
    12
 73
     8
 74
     0
 42
0.000000001
 43
0.00000001
 40
0.0
 40
0.0
 40
0.0
 40
0.0
 40
0.1743886236903522
 40
0.3359256817851057
 40
0.619631656500308
 40
0.8698731465155229
 40
1.0
 40
1.0
 40
1.0
 40
1.0
 10
241.1097563445648
 20
39.34321132288206
 30
0.0
 10
241.1981444008886
 20
39.21364138985144
 30
0.0
 10
241.3684067577666
 20
38.96405017701265
 30
0.0
 10
241.7325927862541
 20
38.56182040232931
 30
0.0
 10
242.167455885446
 20
38.2114466629918
 30
0.0
 10
242.5523431653506
 20
38.01096324284072
 30
0.0
 10
242.7391556302443
 20
37.99401161368014
 30
0.0
 10
242.8030655708683
 20
37.98821233463445
 30
0.0
  0
SPLINE
  5
24A
330
1F
100
AcDbEntity
  8
0
  6
Continuous
 62
     7
370
    15
100
AcDbSpline
210
0.0
220
0.0
230
1.0
 70
     8
 71
     3
 72
    16
 73
    12
 74
     0
 42
0.000000001
 43
0.00000001
 40
0.0
 40
0.0
 40
0.0
 40
0.0
 40
0.1459864684481103
 40
0.2334311620492773
 40
0.3277305155893269
 40
0.4369801941558453
 40
0.5295009819008033
 40
0.6638428915734506
 40
0.7988945757073643
 40
0.8912546655120578
 40
1.0
 40
1.0
 40
1.0
 40
1.0
 10
242.1604286547992
 20
41.70218567970453
 30
0.0
 10
241.9945867863351
 20
41.78510756555942
 30
0.0
 10
241.7294070030063
 20
41.91769897886088
 30
0.0
 10
241.3751580588481
 20
41.90696613195779
 30
0.0
 10
241.0916052659138
 20
41.80867430144171
 30
0.0
 10
240.8585154578116
 20
41.60252434638758
 30
0.0
 10
240.6791798168446
 20
41.27154782932284
 30
0.0
 10
240.5967117484602
 20
40.81235805963905
 30
0.0
 10
240.6783989082246
 20
40.2908205887625
 30
0.0
 10
240.8534865541008
 20
39.78799194485474
 30
0.0
 10
241.0198158061171
 20
39.49931169100937
 30
0.0
 10
241.1097563445648
 20
39.34321132288206
 30
0.0
  0
SPLINE
  5
24B
330
1F
100
AcDbEntity
  8
0
  6
Continuous
 62
     7
370
    15
100
AcDbSpline
210
0.0
220
0.0
230
1.0
 70
     8
 71
     3
 72
     9
 73
     5
 74
     0
 42
0.000000001
 43
0.00000001
 40
0.0
 40
0.0
 40
0.0
 40
0.0
 40
0.0950624230754662
 40
1.0
 40
1.0
 40
1.0
 40
1.0
 10
274.6164126567497
 20
55.40324814789317
 30
0.0
 10
274.6396428583106
 20
55.40850441727496
 30
0.0
 10
274.8840107253325
 20
55.46379723657986
 30
0.0
 10
275.1297218447152
 20
55.51708102493122
 30
0.0
 10
275.3520750697129
 20
55.56529952725126
 30
0.0
  0
LINE
  5
24C
330
1F
100
AcDbEntity
  8
0
  6
Continuous
 62
     7
370
    15
100
AcDbLine
 10
275.3520750697
 20
55.5652995273
 30
0.0
 11
276.5590107448
 21
54.8685503928
 31
0.0
  0
SPLINE
  5
24D
330
1F
100
AcDbEntity
  8
0
  6
Continuous
 62
     7
370
    15
100
AcDbSpline
210
0.0
220
0.0
230
1.0
 70
     8
 71
     3
 72
    12
 73
     8
 74
     0
 42
0.000000001
 43
0.00000001
 40
0.0
 40
0.0
 40
0.0
 40
0.0
 40
0.2500000000000019
 40
0.2500000000000019
 40
0.5000000000000008
 40
0.5000000000000008
 40
1.0
 40
1.0
 40
1.0
 40
1.0
 10
276.5590107447906
 20
54.86855039275127
 30
0.0
 10
276.6122474260893
 20
54.83781751080529
 30
0.0
 10
276.6489783595829
 20
54.79819870039692
 30
0.0
 10
276.6848489555239
 20
54.71389463424241
 30
0.0
 10
276.6846390326643
 20
54.66916337735138
 30
0.0
 10
276.6432481623407
 20
54.5412700724532
 30
0.0
 10
276.563794412512
 20
54.46310788943421
 30
0.0
 10
276.4576842276275
 20
54.40185178357328
 30
0.0
  0
SPLINE
  5
24E
330
1F
100
AcDbEntity
  8
0
  6
Continuous
 62
     7
370
    15
100
AcDbSpline
210
0.0
220
0.0
230
1.0
 70
     8
 71
     3
 72
    11
 73
     7
 74
     0
 42
0.000000001
 43
0.00000001
 40
0.0
 40
0.0
 40
0.0
 40
0.0
 40
0.0433935346492024
 40
0.4195153400362254
 40
0.7944940344504319
 40
1.0
 40
1.0
 40
1.0
 40
1.0
 10
279.2470187655056
 20
49.5410144029915
 30
0.0
 10
279.2517764851934
 20
49.54382801129097
 30
0.0
 10
279.2977726551018
 20
49.57102911053356
 30
0.0
 10
279.3651912517462
 20
49.63267028400788
 30
0.0
 10
279.4087417557535
 20
49.71894462377288
 30
0.0
 10
279.3940022754446
 20
49.77120561762963
 30
0.0
 10
279.3887841338787
 20
49.78970730551882
 30
0.0
  0
LINE
  5
24F
330
1F
100
AcDbEntity
  8
0
  6
Continuous
 62
     7
370
    15
100
AcDbLine
 10
236.2706358055
 20
43.9892146907
 30
0.0
 11
236.5836317313
 21
43.8085259888
 31
0.0
  0
SPLINE
  5
250
330
1F
100
AcDbEntity
  8
0
  6
Continuous
 62
     7
370
    15
100
AcDbSpline
210
0.0
220
0.0
230
1.0
 70
     8
 71
     3
 72
    10
 73
     6
 74
     0
 42
0.000000001
 43
0.00000001
 40
0.0
 40
0.0
 40
0.0
 40
0.0
 40
0.5
 40
0.5
 40
1.0
 40
1.0
 40
1.0
 40
1.0
 10
234.0048383189507
 20
51.43932492942272
 30
0.0
 10
234.0020233313465
 20
51.49907103449335
 30
0.0
 10
234.0045823108997
 20
51.55964804196345
 30
0.0
 10
234.0203007148503
 20
51.68531860347846
 30
0.0
 10
234.0336950756875
 20
51.75112493010386
 30
0.0
 10
234.0519350022617
 20
51.81783977865753
 30
0.0
  0
SPLINE
  5
251
330
1F
100
AcDbEntity
  8
0
  6
Continuous
 62
     7
370
    15
100
AcDbSpline
210
0.0
220
0.0
230
1.0
 70
     8
 71
     3
 72
     8
 73
     4
 74
     0
 42
0.000000001
 43
0.00000001
 40
0.0
 40
0.0
 40
0.0
 40
0.0
 40
1.0
 40
1.0
 40
1.0
 40
1.0
 10
234.0790522808113
 20
51.4919288596978
 30
0.0
 10
234.0455589135671
 20
51.3508878591039
 30
0.0
 10
234.025010819977
 20
51.20676880861565
 30
0.0
 10
234.0138603811579
 20
51.06109879931254
 30
0.0
  0
SPLINE
  5
252
330
1F
100
AcDbEntity
  8
0
  6
Continuous
 62
     7
370
    15
100
AcDbSpline
210
0.0
220
0.0
230
1.0
 70
     8
 71
     3
 72
    26
 73
    22
 74
     0
 42
0.000000001
 43
0.00000001
 40
0.0
 40
0.0
 40
0.0
 40
0.0
 40
0.2500000000000008
 40
0.2500000000000008
 40
0.3750000000000012
 40
0.3750000000000012
 40
0.4375000000000003
 40
0.4375000000000003
 40
0.4687500000000004
 40
0.4687500000000004
 40
0.5000000000000004
 40
0.5000000000000004
 40
0.5312500000000004
 40
0.5312500000000004
 40
0.5625000000000004
 40
0.5625000000000004
 40
0.6250000000000004
 40
0.6250000000000004
 40
0.7500000000000006
 40
0.7500000000000006
 40
1.0
 40
1.0
 40
1.0
 40
1.0
 10
234.0519350022617
 20
51.81783977865753
 30
0.0
 10
234.1032426039056
 20
52.00550384953033
 30
0.0
 10
234.154576641743
 20
52.19137081900851
 30
0.0
 10
234.2317837827619
 20
52.45616190698141
 30
0.0
 10
234.2574823436657
 20
52.54228924383256
 30
0.0
 10
234.2947865363006
 20
52.6541153393006
 30
0.0
 10
234.3075034197212
 20
52.69007156498577
 30
0.0
 10
234.322932466758
 20
52.72145270680485
 30
0.0
 10
234.3274721731451
 20
52.72777489240084
 30
0.0
 10
234.3326519740257
 20
52.72278865181859
 30
0.0
 10
234.3330314915815
 20
52.71078353469519
 30
0.0
 10
234.330380907748
 20
52.67684630491897
 30
0.0
 10
234.3275660603655
 20
52.65529139012397
 30
0.0
 10
234.3208113426977
 20
52.61017482364653
 30
0.0
 10
234.3167680403066
 20
52.58594677140831
 30
0.0
 10
234.30388228374
 20
52.51263288034019
 30
0.0
 10
234.2942239826222
 20
52.462337903436
 30
0.0
 10
234.2638064255897
 20
52.30953575670108
 30
0.0
 10
234.2416678233703
 20
52.20566744852367
 30
0.0
 10
234.1743303055789
 20
51.89829077067739
 30
0.0
 10
234.1272224422297
 20
51.6947740294811
 30
0.0
 10
234.0790522808112
 20
51.49192885969806
 30
0.0
  0
ARC
  5
253
330
1F
100
AcDbEntity
  8
0
  6
Continuous
 62
     7
370
    15
100
AcDbCircle
 10
234.9826770501
 20
50.7281092843
 30
0.0
 40
0.9888681395005202
100
AcDbArc
 50
171.4694323953
 51
234.2977828938
  0
ARC
  5
254
330
1F
100
AcDbEntity
  8
0
  6
Continuous
 62
     7
370
    15
100
AcDbCircle
 10
236.9669399582
 20
40.9732933748
 30
0.0
 40
2.962857979912916
100
AcDbArc
 50
122.487978997
 51
178.78430362
  0
LINE
  5
255
330
1F
100
AcDbEntity
  8
0
  6
Continuous
 62
     7
370
    15
100
AcDbLine
 10
235.3755218348
 20
43.4724763945
 30
0.0
 11
236.2706358055
 21
43.9892146907
 31
0.0
  0
SPLINE
  5
256
330
1F
100
AcDbEntity
  8
0
  6
Continuous
 62
     7
370
    15
100
AcDbSpline
210
0.0
220
0.0
230
1.0
 70
     8
 71
     3
 72
     9
 73
     5
 74
     0
 42
0.000000001
 43
0.00000001
 40
0.0
 40
0.0
 40
0.0
 40
0.0
 40
0.4568991975329588
 40
1.0
 40
1.0
 40
1.0
 40
1.0
 10
277.8994323964513
 20
43.27829824128209
 30
0.0
 10
277.922304007081
 20
43.28201050193154
 30
0.0
 10
277.9723623366937
 20
43.29013540271817
 30
0.0
 10
278.0224389600351
 20
43.29822265040569
 30
0.0
 10
278.0496356143566
 20
43.30261484111453
 30
0.0
  0
SPLINE
  5
257
330
1F
100
AcDbEntity
  8
0
  6
Continuous
 62
     7
370
    15
100
AcDbSpline
210
0.0
220
0.0
230
1.0
 70
     8
 71
     3
 72
     8
 73
     4
 74
     0
 42
0.000000001
 43
0.00000001
 40
0.0
 40
0.0
 40
0.0
 40
0.0
 40
1.0
 40
1.0
 40
1.0
 40
1.0
 10
234.0790522808113
 20
40.78858522389391
 30
0.0
 10
234.0455589135671
 20
40.85345939774334
 30
0.0
 10
234.025010819977
 20
40.90975814638291
 30
0.0
 10
234.0138603811579
 20
40.9665524137864
 30
0.0
  0
ARC
  5
258
330
1F
100
AcDbEntity
  8
0
  6
Continuous
 62
     7
370
    15
100
AcDbCircle
 10
235.7254562117
 20
41.6838045728
 30
0.0
 40
1.725905554404365
100
AcDbArc
 50
122.7352634073
 51
175.5138696649
  0
LINE
  5
259
330
1F
100
AcDbEntity
  8
0
  6
Continuous
 62
     7
370
    15
100
AcDbLine
 10
235.3755218348
 20
43.4724763945
 30
0.0
 11
234.7921587403
 21
43.1355985708
 31
0.0
  0
SPLINE
  5
25A
330
1F
100
AcDbEntity
  8
0
  6
Continuous
 62
     7
370
    15
100
AcDbSpline
210
0.0
220
0.0
230
1.0
 70
     8
 71
     3
 72
     9
 73
     5
 74
     0
 42
0.000000001
 43
0.00000001
 40
0.0
 40
0.0
 40
0.0
 40
0.0
 40
0.2988732678664355
 40
1.0
 40
1.0
 40
1.0
 40
1.0
 10
234.216308085378
 20
40.55767232675161
 30
0.0
 10
234.2033080053469
 20
40.57484995784639
 30
0.0
 10
234.1598110404831
 20
40.63232458987822
 30
0.0
 10
234.112337352517
 20
40.72418172848386
 30
0.0
 10
234.0790522808109
 20
40.78858522389759
 30
0.0
  0
LWPOLYLINE
  5
25B
330
1F
100
AcDbEntity
  8
0
  6
Continuous
 62
     7
370
     0
100
AcDbPolyline
 90
       26
 70
   128
 43
0.0
 10
252.5030079652
 20
34.5102960021
 10
252.8286011523
 20
35.9164994279
 10
253.2375560379
 20
37.3368397993
 10
253.7272506294
 20
38.762210679
 10
254.2945452758
 20
40.1834733769
 10
254.9358027975
 20
41.5915155423
 10
255.6469118057
 20
42.9773095874
 10
256.4233130627
 20
44.3319705667
 10
257.2600287127
 20
45.646813143
 10
258.1516941976
 20
46.9134072726
 10
259.0925926512
 20
48.1236322541
 10
260.0766915528
 20
49.269728794
 10
261.0976814044
 20
50.3443487549
 10
262.1490161833
 20
51.3406022676
 10
263.2239553123
 20
52.2521019055
 10
264.3156068758
 20
53.0730036367
 10
265.4169718076
 20
53.7980442932
 10
266.5209887646
 20
54.4225753151
 10
267.6205794004
 20
54.9425925548
 10
268.7086937478
 20
55.3547619492
 10
269.778355419
 20
55.6564408959
 10
270.8227063348
 20
55.8456951965
 10
271.8350506945
 20
55.9213114568
 10
272.8088979056
 20
55.8828048674
 10
273.7380041984
 20
55.730422311
 10
274.6164126567
 20
55.4651407805
  0
LWPOLYLINE
  5
25C
330
1F
100
AcDbEntity
  8
0
  6
Continuous
 62
     7
370
     0
100
AcDbPolyline
 90
       26
 70
   128
 43
0.0
 10
251.7839935723
 20
34.5034218841
 10
252.1081973438
 20
35.9340238499
 10
252.51693212
 20
37.3797474162
 10
253.00761348
 20
38.8314513051
 10
253.5771388565
 20
40.2799564254
 10
254.2219071533
 20
41.7161039114
 10
254.9378415147
 20
43.1308130347
 10
255.7204151038
 20
44.5151386209
 10
256.5646797253
 20
45.8603276104
 10
257.4652971127
 20
47.157874403
 10
258.4165726824
 20
48.3995746394
 10
259.4124915403
 20
49.5775770768
 10
260.4467565135
 20
50.6844332318
 10
261.5128279677
 20
51.7131444778
 10
262.6039651569
 20
52.6572062965
 10
263.7132688449
 20
53.5106494061
 10
264.8337249294
 20
54.2680775047
 10
265.9582487914
 20
54.9247013916
 10
267.0797300917
 20
55.4763692483
 10
268.191077729
 20
55.9195928915
 10
269.2852646769
 20
56.2515698279
 10
270.3553724159
 20
56.4702009746
 10
271.3946346786
 20
56.574103932
 10
272.3964802327
 20
56.5626217238
 10
273.3545744313
 20
56.4358269518
 10
274.2628592662
 20
56.1945213365
  0
LWPOLYLINE
  5
25D
330
1F
100
AcDbEntity
  8
0
  6
Continuous
 62
     7
370
     0
100
AcDbPolyline
 90
       21
 70
   128
 43
0.0
 10
268.797543542
 20
24.2846523507
 10
268.7579890549
 20
24.2518243262
 10
267.667935725
 20
23.4015619574
 10
266.5660458286
 20
22.6461292949
 10
265.4594180523
 20
21.9903930497
 10
264.3551816053
 20
21.4385776603
 10
263.2604502915
 20
20.9942380776
 10
262.1822766796
 20
20.6602368629
 10
261.1276066694
 20
20.4387257465
 10
260.1032347434
 20
20.3311317659
 10
259.1157601956
 20
20.3381480718
 10
258.1715446164
 20
20.4597294633
 10
257.2766709099
 20
20.6950926785
 10
256.4369041056
 20
21.0427214411
 10
255.6576542191
 20
21.5003762282
 10
254.9439413986
 20
22.065108698
 10
254.3003635841
 20
22.7332806844
 10
253.7310668861
 20
23.500587634
 10
253.239718875
 20
24.3620863386
 10
252.8294849537
 20
25.3122267795
 10
252.5030079652
 20
26.3448878832
  0
ARC
  5
25E
330
1F
100
AcDbEntity
  8
0
  6
Continuous
 62
     7
370
     0
100
AcDbCircle
 10
270.7211249457
 20
47.8792623502
 30
0.0
 40
8.686327492719688
100
AcDbArc
 50
11.0290475412
 51
48.66865979
  0
LWPOLYLINE
  5
25F
330
1F
100
AcDbEntity
  8
0
  6
Continuous
 62
     7
370
     0
100
AcDbPolyline
 90
       31
 70
   128
 43
0.0
 10
256.9917761357
 20
33.0189026498
 10
257.034337541
 20
34.0439102679
 10
257.1616118672
 20
35.1081868549
 10
257.3723733932
 20
36.2014828454
 10
257.66459237
 20
37.3132692014
 10
258.0354545693
 20
38.4328388125
 10
258.4813883854
 20
39.5494096115
 10
258.9980992317
 20
40.652228411
 10
259.5806109005
 20
41.7306744632
 10
260.2233134859
 20
42.774361743
 10
260.9200174106
 20
43.7732389715
 10
261.664013035
 20
44.7176864149
 10
262.4481352746
 20
45.598608528
 10
263.2648326035
 20
46.4075215492
 10
264.10623978
 20
47.1366352041
 10
264.964253593
 20
47.7789277295
 10
265.8306109005
 20
48.3282134973
 10
266.696968208
 20
48.7792025853
 10
267.554982021
 20
49.127551722
 10
268.3963891975
 20
49.3699061148
 10
269.2130865264
 20
49.5039317585
 10
269.997208766
 20
49.5283379128
 10
270.7412043904
 20
49.4428895331
 10
271.4379083151
 20
49.248409534
 10
272.0806109005
 20
48.9467708642
 10
272.6631225693
 20
48.5408784691
 10
273.1798334156
 20
48.0346413142
 10
273.6257672317
 20
47.4329347401
 10
273.996629431
 20
46.74155351
 10
274.2888484078
 20
45.9671560031
 10
274.4716248071
 20
45.257129442
  0
LWPOLYLINE
  5
260
330
1F
100
AcDbEntity
  8
0
  6
Continuous
 62
     7
370
     0
100
AcDbPolyline
 90
       15
 70
   128
 43
0.0
 10
263.9724781144
 20
27.070103332
 10
263.2648326035
 20
26.8730005826
 10
262.4481352746
 20
26.7389749389
 10
261.664013035
 20
26.7145687846
 10
260.9200174106
 20
26.8000171643
 10
260.2233134859
 20
26.9944971634
 10
259.5806109005
 20
27.2961358332
 10
258.9980992317
 20
27.7020282283
 10
258.4813883854
 20
28.2082653832
 10
258.0354545693
 20
28.8099719573
 10
257.66459237
 20
29.5013531874
 10
257.3723733932
 20
30.2757506943
 10
257.1616118672
 20
31.1257066066
 10
257.034337541
 20
32.0430353843
 10
256.9917761357
 20
33.0189026498
  0
LWPOLYLINE
  5
261
330
1F
100
AcDbEntity
  8
0
  6
Continuous
 62
     7
370
     0
100
AcDbPolyline
 90
       24
 70
   128
 43
0.0
 10
259.8202032604
 20
33.0189026498
 10
259.8622652229
 20
33.9545106791
 10
259.9879745315
 20
34.9280816038
 10
260.1959068495
 20
35.9285844762
 10
260.4837062206
 20
36.944683199
 10
260.8481117631
 20
37.9648649677
 10
261.2849946164
 20
38.9775707152
 10
261.7894047234
 20
39.9713260807
 10
262.3556269158
 20
40.9348714189
 10
262.9772456701
 20
41.857289376
 10
263.6472177973
 20
42.7281285881
 10
264.3579522456
 20
43.5375220988
 10
265.1013961097
 20
44.2762991563
 10
265.8691258734
 20
44.9360891214
 10
266.6524428519
 20
45.50941631
 10
267.4424717508
 20
45.989784696
 10
268.2302612269
 20
46.3717515137
 10
269.0068853107
 20
46.6509889265
 10
269.763544541
 20
46.8243330628
 10
270.4916656663
 20
46.8898198643
 10
271.1829987835
 20
46.8467073394
 10
271.829710812
 20
46.6954839702
 10
272.4244742462
 20
46.437863178
 10
272.4943978092
 20
46.3985582919
  0
LWPOLYLINE
  5
262
330
1F
100
AcDbEntity
  8
0
  6
Continuous
 62
     7
370
     0
100
AcDbPolyline
 90
        9
 70
   128
 43
0.0
 10
261.9952511165
 20
28.2115321819
 10
261.7894047234
 20
28.3400708333
 10
261.2849946164
 20
28.7514466856
 10
260.8481117631
 20
29.2597382274
 10
260.4837062206
 20
29.8591863124
 10
260.1959068495
 20
30.5429989542
 10
259.9879745315
 20
31.3034282823
 10
259.8622652229
 20
32.1318583287
 10
259.8202032604
 20
33.0189026498
  0
LWPOLYLINE
  5
263
330
1F
100
AcDbEntity
  8
0
  6
Continuous
 62
     7
370
     0
100
AcDbPolyline
 90
       27
 70
   128
 43
0.0
 10
242.6905414862
 20
35.151768842
 10
242.73306772
 20
36.441833196
 10
242.8603906637
 20
37.7732386957
 10
243.0717445822
 20
39.1379781117
 10
243.365858368
 20
40.5278437406
 10
243.7409631864
 20
41.9344767669
 10
244.1948031127
 20
43.3494175342
 10
244.7246487002
 20
44.7641564221
 10
245.3273133953
 20
46.1701850246
 10
245.9991727015
 20
47.5590473201
 10
246.736185978
 20
48.9223905274
 10
247.5339207401
 20
50.25201534
 10
248.3875793172
 20
51.539925238
 10
249.2920277061
 20
52.7783745795
 10
250.2418264477
 20
53.9599151846
 10
251.2312633408
 20
55.0774411289
 10
252.2543877953
 20
56.1242314801
 10
253.3050466205
 20
57.0939907177
 10
254.3769210305
 20
57.9808865956
 10
255.4635646466
 20
58.7795852176
 10
256.5584422661
 20
59.4852831163
 10
257.6549691662
 20
60.0937361414
 10
258.7465507051
 20
60.6012849848
 10
259.826621983
 20
61.0048771881
 10
260.8886873242
 20
61.3020855003
 10
261.9263593427
 20
61.4911224756
 10
262.2508763474
 20
61.5284307938
  0
ARC
  5
264
330
1F
100
AcDbEntity
  8
0
  6
Continuous
 62
     7
370
     0
100
AcDbCircle
 10
256.1143615008
 20
34.8036515609
 30
0.0
 40
13.42833308443233
100
AcDbArc
 50
178.5144927792
 51
203.2582575238
  0
LWPOLYLINE
  5
265
330
1F
100
AcDbEntity
  8
0
  6
Continuous
 62
     7
370
     0
100
AcDbPolyline
 90
       21
 70
   128
 43
0.0
 10
250.200385401
 20
37.2059122815
 10
250.5317542697
 20
38.5350808252
 10
250.9429256138
 20
39.8750503186
 10
251.4311217314
 20
41.2167684878
 10
251.9930445737
 20
42.5511712457
 10
252.6248980248
 20
43.8692439251
 10
253.322413547
 20
45.162082178
 10
254.080879017
 20
46.4209521295
 10
254.8951705591
 20
47.6373493805
 10
255.75978716
 20
48.8030564596
 10
256.6688878315
 20
49.9101983371
 10
257.6163310693
 20
50.9512956252
 10
258.595716343
 20
51.919315106
 10
259.6004273352
 20
52.8077172444
 10
260.6236766383
 20
53.6105003669
 10
261.6585516078
 20
54.3222412063
 10
262.6980610609
 20
54.9381315392
 10
263.7351825064
 20
55.4540106677
 10
264.7629095853
 20
55.8663935282
 10
265.7742994031
 20
56.1724942344
 10
265.9884554417
 20
56.2240965908
  0
LWPOLYLINE
  5
266
330
1F
100
AcDbEntity
  8
0
  6
Continuous
 62
     7
370
     0
100
AcDbPolyline
 90
       17
 70
   128
 43
0.0
 10
250.6419572406
 20
36.5645977117
 10
250.9339782618
 20
37.8636387055
 10
251.3058102958
 20
39.1770604243
 10
251.754915484
 20
40.4958983951
 10
252.2782285574
 20
41.8111511774
 10
252.8721777567
 20
43.1138418007
 10
253.5327092114
 20
44.3950790348
 10
254.2553146086
 20
45.6461180748
 10
255.0350619627
 20
46.858420227
 10
255.8666292788
 20
48.023711188
 10
256.7443408756
 20
49.1340375189
 10
257.6622061245
 20
50.18182093
 10
258.6139603367
 20
51.1599100043
 10
259.5931075218
 20
52.0616290087
 10
260.5929647246
 20
52.8808234571
 10
261.6067076382
 20
53.6119021167
 10
262.2947120502
 20
54.0526390946
  0
LINE
  5
267
330
1F
100
AcDbEntity
  8
0
  6
Continuous
 62
     7
370
     0
100
AcDbLine
 10
271.2753331156
 20
25.4458847198
 30
0.0
 11
272.4420593046
 21
24.7723480275
 31
0.0
  0
LINE
  5
268
330
1F
100
AcDbEntity
  8
0
  6
Continuous
 62
     7
370
     0
100
AcDbLine
 10
243.9147207919
 20
34.8584389256
 30
0.0
 11
246.0669763663
 21
36.100909622
 31
0.0
  0
LWPOLYLINE
  5
269
330
1F
100
AcDbEntity
  8
0
  6
Continuous
 62
     7
370
     0
100
AcDbPolyline
 90
       21
 70
   128
 43
0.0
 10
234.0138603812
 20
51.0610987993
 10
234.4615004196
 20
52.2754924126
 10
234.9844669587
 20
53.4809416619
 10
235.5781926662
 20
54.6669187469
 10
236.2374922341
 20
55.8230659278
 10
236.9566076646
 20
56.9392859841
 10
237.7292585576
 20
58.0058303997
 10
238.5486969606
 20
59.0133845006
 10
239.4077663021
 20
59.9531488054
 10
240.2989638933
 20
60.8169158753
 10
241.2145064533
 20
61.5971419942
 10
242.1463980842
 20
62.2870130511
 10
243.0865001032
 20
62.8805040519
 10
244.0266021223
 20
63.3724317385
 10
244.9584937532
 20
63.7584998566
 10
245.8740363132
 20
64.0353366773
 10
246.7652339044
 20
64.2005244443
 10
247.6243032458
 20
64.2526204888
 10
248.4437416488
 20
64.1911698296
 10
249.2163925418
 20
64.0167091466
 10
249.80753326
 20
63.7916309594
  0
ARC
  5
26A
330
1F
100
AcDbEntity
  8
0
  6
Continuous
 62
     7
370
     0
100
AcDbCircle
 10
238.6466926167
 20
43.4169995568
 30
0.0
 40
5.240975646114435
100
AcDbArc
 50
207.8757373032
 51
236.0299825723
  0
ARC
  5
26B
330
1F
100
AcDbEntity
  8
0
  6
Continuous
 62
     7
370
     0
100
AcDbCircle
 10
260.8003728514
 20
28.4335448703
 30
0.0
 40
9.256691953204491
100
AcDbArc
 50
193.0840479022
 51
221.8817887179
  0
LINE
  5
26C
330
1F
100
AcDbEntity
  8
0
  6
Continuous
 62
     7
370
     0
100
AcDbLine
 10
243.9147207919
 20
34.0418981137
 30
0.0
 11
246.0669763663
 21
35.2843688101
 31
0.0
  0
LINE
  5
26D
330
1F
100
AcDbEntity
  8
0
  6
Continuous
 62
     7
370
     0
100
AcDbLine
 10
247.5413528852
 20
28.7872381007
 30
0.0
 11
249.2489568817
 21
29.773016905
 31
0.0
  0
LINE
  5
26E
330
1F
100
AcDbEntity
  8
0
  6
Continuous
 62
     7
370
     0
100
AcDbLine
 10
251.6208809745
 20
28.4100583419
 30
0.0
 11
251.4268457677
 21
29.0854137349
 31
0.0
  0
LWPOLYLINE
  5
26F
330
1F
100
AcDbEntity
  8
0
  6
Continuous
 62
     7
370
     0
100
AcDbPolyline
 90
        3
 70
   128
 43
0.0
 10
251.1505763432
 20
28.0296982241
 10
250.9339782618
 20
28.5766395375
 10
250.6419572406
 20
29.5385202369
  0
LWPOLYLINE
  5
270
330
1F
100
AcDbEntity
  8
0
  6
Continuous
 62
     7
370
     0
100
AcDbPolyline
 90
        3
 70
   128
 43
0.0
 10
250.7986844587
 20
27.5046358056
 10
250.5398390205
 20
28.0742639859
 10
250.200385401
 20
29.0405041626
  0
LINE
  5
271
330
1F
100
AcDbEntity
  8
0
  6
Continuous
 62
     7
370
     0
100
AcDbLine
 10
278.9120863525
 20
29.8544885236
 30
0.0
 11
280.0788125414
 21
29.1809518314
 31
0.0
  0
LINE
  5
272
330
1F
100
AcDbEntity
  8
0
  6
Continuous
 62
     7
370
     0
100
AcDbLine
 10
272.1905811132
 20
57.3903911402
 30
0.0
 11
271.8381071472
 21
57.1869122508
 31
0.0
  0
ARC
  5
273
330
1F
100
AcDbEntity
  8
0
  6
Continuous
 62
     7
370
     0
100
AcDbCircle
 10
238.4962645258
 20
49.1359347692
 30
0.0
 40
1.481847380531392
100
AcDbArc
 50
159.3804585659
 51
213.4234454268
  0
ARC
  5
274
330
1F
100
AcDbEntity
  8
0
  6
Continuous
 62
     7
370
     0
100
AcDbCircle
 10
236.6630042539
 20
48.8427721555
 30
0.0
 40
0.9292273799871819
100
AcDbArc
 50
44.6915000058
 51
61.2926903386
  0
LINE
  5
275
330
1F
100
AcDbEntity
  8
0
  6
Continuous
 62
     7
370
     0
100
AcDbLine
 10
237.1093450571
 20
49.6577834506
 30
0.0
 11
237.2084363053
 21
50.0293729785
 31
0.0
  0
LINE
  5
276
330
1F
100
AcDbEntity
  8
0
  6
Continuous
 62
     7
370
     0
100
AcDbLine
 10
237.1093450571
 20
49.6577834506
 30
0.0
 11
236.290196039
 21
50.1306681131
 31
0.0
  0
LINE
  5
277
330
1F
100
AcDbEntity
  8
0
  6
Continuous
 62
     7
370
     0
100
AcDbLine
 10
234.0790522808
 20
51.4919288597
 30
0.0
 11
234.0519350023
 21
51.8178397787
 31
0.0
  0
ARC
  5
278
330
1F
100
AcDbEntity
  8
0
  6
Continuous
 62
     7
370
     0
100
AcDbCircle
 10
236.8182522895
 20
38.3383459805
 30
0.0
 40
0.5950779720696701
100
AcDbArc
 50
31.8746821496
 51
60.714125574
  0
ARC
  5
279
330
1F
100
AcDbEntity
  8
0
  6
Continuous
 62
     7
370
     0
100
AcDbCircle
 10
238.7685578975
 20
39.387866723
 30
0.0
 40
1.741957873065365
100
AcDbArc
 50
166.6109710952
 51
197.7306259078
  0
LINE
  5
27A
330
1F
100
AcDbEntity
  8
0
  6
Continuous
 62
     7
370
     0
100
AcDbLine
 10
236.5747656658
 20
42.780167667
 30
0.0
 11
235.3755218348
 21
43.4724763945
 31
0.0
  0
LINE
  5
27B
330
1F
100
AcDbEntity
  8
0
  6
Continuous
 62
     7
370
     0
100
AcDbLine
 10
237.1093450571
 20
38.8573669758
 30
0.0
 11
236.290196039
 21
39.3302516383
 31
0.0
  0
LINE
  5
27C
330
1F
100
AcDbEntity
  8
0
  6
Continuous
 62
     7
370
     0
100
AcDbLine
 10
237.1093450571
 20
38.8573669758
 30
0.0
 11
237.2084363053
 21
38.6001857679
 31
0.0
  0
OLE2FRAME
  5
27D
330
1F
100
AcDbEntity
  8
0
100
AcDbOle2Frame
 70
     2
  3
Paintbrush-Bild
 10
13.8511154363
 20
38.264191557
 30
0.0
 11
51.6290888628
 21
31.9806341108
 31
0.0
 71
     2
 72
     0
 73
     1
 90
    12928
310
80552BED0767C5B32B40DDAF6807D121434000000000000000006FFBDDFB85D0
310
4940DDAF6807D121434000000000000000006FFBDDFB85D04940416F4BD60AFB
310
3F4000000000000000002BED0767C5B32B40416F4BD60AFB3F40000000000000
310
0000000000000100000000010000010000000100000000000100000000320000
310
D0CF11E0A1B11AE1000000000000000000000000000000003E000300FEFF0900
310
0600000000000000000000000100000001000000000000000010000002000000
310
01000000FEFFFFFF0000000000000000FFFFFFFFFFFFFFFFFFFFFFFFFFFFFFFF
310
FFFFFFFFFFFFFFFFFFFFFFFFFFFFFFFFFFFFFFFFFFFFFFFFFFFFFFFFFFFFFFFF
310
FFFFFFFFFFFFFFFFFFFFFFFFFFFFFFFFFFFFFFFFFFFFFFFFFFFFFFFFFFFFFFFF
310
FFFFFFFFFFFFFFFFFFFFFFFFFFFFFFFFFFFFFFFFFFFFFFFFFFFFFFFFFFFFFFFF
310
FFFFFFFFFFFFFFFFFFFFFFFFFFFFFFFFFFFFFFFFFFFFFFFFFFFFFFFFFFFFFFFF
310
FFFFFFFFFFFFFFFFFFFFFFFFFFFFFFFFFFFFFFFFFFFFFFFFFFFFFFFFFFFFFFFF
310
FFFFFFFFFFFFFFFFFFFFFFFFFFFFFFFFFFFFFFFFFFFFFFFFFFFFFFFFFFFFFFFF
310
FFFFFFFFFFFFFFFFFFFFFFFFFFFFFFFFFFFFFFFFFFFFFFFFFFFFFFFFFFFFFFFF
310
FFFFFFFFFFFFFFFFFFFFFFFFFFFFFFFFFFFFFFFFFFFFFFFFFFFFFFFFFFFFFFFF
310
FFFFFFFFFFFFFFFFFFFFFFFFFFFFFFFFFFFFFFFFFFFFFFFFFFFFFFFFFFFFFFFF
310
FFFFFFFFFFFFFFFFFFFFFFFFFFFFFFFFFFFFFFFFFFFFFFFFFFFFFFFFFFFFFFFF
310
FFFFFFFFFFFFFFFFFFFFFFFFFFFFFFFFFFFFFFFFFFFFFFFFFFFFFFFFFFFFFFFF
310
FFFFFFFFFFFFFFFFFFFFFFFFFFFFFFFFFFFFFFFFFFFFFFFFFFFFFFFFFFFFFFFF
310
FFFFFFFFFFFFFFFFFFFFFFFFFFFFFFFFFFFFFFFFFFFFFFFFFFFFFFFFFFFFFFFF
310
FDFFFFFFFEFFFFFFFEFFFFFFFEFFFFFF05000000060000000700000008000000
310
090000000A0000000B0000000C0000000D0000000E0000000F00000010000000
310
11000000120000001300000014000000150000001600000017000000FEFFFFFF
310
FFFFFFFFFFFFFFFFFFFFFFFFFFFFFFFFFFFFFFFFFFFFFFFFFFFFFFFFFFFFFFFF
310
FFFFFFFFFFFFFFFFFFFFFFFFFFFFFFFFFFFFFFFFFFFFFFFFFFFFFFFFFFFFFFFF
310
FFFFFFFFFFFFFFFFFFFFFFFFFFFFFFFFFFFFFFFFFFFFFFFFFFFFFFFFFFFFFFFF
310
FFFFFFFFFFFFFFFFFFFFFFFFFFFFFFFFFFFFFFFFFFFFFFFFFFFFFFFFFFFFFFFF
310
FFFFFFFFFFFFFFFFFFFFFFFFFFFFFFFFFFFFFFFFFFFFFFFFFFFFFFFFFFFFFFFF
310
FFFFFFFFFFFFFFFFFFFFFFFFFFFFFFFFFFFFFFFFFFFFFFFFFFFFFFFFFFFFFFFF
310
FFFFFFFFFFFFFFFFFFFFFFFFFFFFFFFFFFFFFFFFFFFFFFFFFFFFFFFFFFFFFFFF
310
FFFFFFFFFFFFFFFFFFFFFFFFFFFFFFFFFFFFFFFFFFFFFFFFFFFFFFFFFFFFFFFF
310
FFFFFFFFFFFFFFFFFFFFFFFFFFFFFFFFFFFFFFFFFFFFFFFFFFFFFFFFFFFFFFFF
310
FFFFFFFFFFFFFFFFFFFFFFFFFFFFFFFFFFFFFFFFFFFFFFFFFFFFFFFFFFFFFFFF
310
FFFFFFFFFFFFFFFFFFFFFFFFFFFFFFFFFFFFFFFFFFFFFFFFFFFFFFFFFFFFFFFF
310
FFFFFFFFFFFFFFFFFFFFFFFFFFFFFFFFFFFFFFFFFFFFFFFFFFFFFFFFFFFFFFFF
310
FFFFFFFFFFFFFFFFFFFFFFFFFFFFFFFFFFFFFFFFFFFFFFFFFFFFFFFFFFFFFFFF
310
52006F006F007400200045006E00740072007900000000000000000000000000
310
0000000000000000000000000000000000000000000000000000000000000000
310
16000500FFFFFFFFFFFFFFFF020000000A00030000000000C000000000000046
310
000000000000000000000000802ADD7A9903D20103000000C000000000000000
310
01004F006C006500000000000000000000000000000000000000000000000000
310
0000000000000000000000000000000000000000000000000000000000000000
310
0A000200FFFFFFFFFFFFFFFFFFFFFFFF00000000000000000000000000000000
310
0000000000000000000000000000000000000000000000001400000000000000
310
010043006F006D0070004F0062006A0000000000000000000000000000000000
310
0000000000000000000000000000000000000000000000000000000000000000
310
120002010100000003000000FFFFFFFF00000000000000000000000000000000
310
0000000000000000000000000000000000000000010000004D00000000000000
310
01004F006C006500310030004E00610074006900760065000000000000000000
310
0000000000000000000000000000000000000000000000000000000000000000
310
1A000200FFFFFFFFFFFFFFFFFFFFFFFF00000000000000000000000000000000
310
0000000000000000000000000000000000000000040000002426000000000000
310
FEFFFFFF02000000FEFFFFFFFFFFFFFFFFFFFFFFFFFFFFFFFFFFFFFFFFFFFFFF
310
FFFFFFFFFFFFFFFFFFFFFFFFFFFFFFFFFFFFFFFFFFFFFFFFFFFFFFFFFFFFFFFF
310
FFFFFFFFFFFFFFFFFFFFFFFFFFFFFFFFFFFFFFFFFFFFFFFFFFFFFFFFFFFFFFFF
310
FFFFFFFFFFFFFFFFFFFFFFFFFFFFFFFFFFFFFFFFFFFFFFFFFFFFFFFFFFFFFFFF
310
FFFFFFFFFFFFFFFFFFFFFFFFFFFFFFFFFFFFFFFFFFFFFFFFFFFFFFFFFFFFFFFF
310
FFFFFFFFFFFFFFFFFFFFFFFFFFFFFFFFFFFFFFFFFFFFFFFFFFFFFFFFFFFFFFFF
310
FFFFFFFFFFFFFFFFFFFFFFFFFFFFFFFFFFFFFFFFFFFFFFFFFFFFFFFFFFFFFFFF
310
FFFFFFFFFFFFFFFFFFFFFFFFFFFFFFFFFFFFFFFFFFFFFFFFFFFFFFFFFFFFFFFF
310
FFFFFFFFFFFFFFFFFFFFFFFFFFFFFFFFFFFFFFFFFFFFFFFFFFFFFFFFFFFFFFFF
310
FFFFFFFFFFFFFFFFFFFFFFFFFFFFFFFFFFFFFFFFFFFFFFFFFFFFFFFFFFFFFFFF
310
FFFFFFFFFFFFFFFFFFFFFFFFFFFFFFFFFFFFFFFFFFFFFFFFFFFFFFFFFFFFFFFF
310
FFFFFFFFFFFFFFFFFFFFFFFFFFFFFFFFFFFFFFFFFFFFFFFFFFFFFFFFFFFFFFFF
310
FFFFFFFFFFFFFFFFFFFFFFFFFFFFFFFFFFFFFFFFFFFFFFFFFFFFFFFFFFFFFFFF
310
FFFFFFFFFFFFFFFFFFFFFFFFFFFFFFFFFFFFFFFFFFFFFFFFFFFFFFFFFFFFFFFF
310
FFFFFFFFFFFFFFFFFFFFFFFFFFFFFFFFFFFFFFFFFFFFFFFFFFFFFFFFFFFFFFFF
310
FFFFFFFFFFFFFFFFFFFFFFFFFFFFFFFFFFFFFFFFFFFFFFFFFFFFFFFFFFFFFFFF
310
0100000200000000000000000000000000000000000000000000000000000000
310
0000000000000000000000000000000000000000000000000000000000000000
310
0100FEFF030A0000FFFFFFFF0A00030000000000C00000000000004607000000
310
5042727573680007000000504272757368000700000050427275736800F439B2
310
7100000000000000000000000000000000000000000000000000000000000000
310
0000000000000000000000000000000000000000000000000000000000000000
310
0000000000000000000000000000000000000000000000000000000000000000
310
0000000000000000000000000000000000000000000000000000000000000000
310
0000000000000000000000000000000000000000000000000000000000000000
310
0000000000000000000000000000000000000000000000000000000000000000
310
0000000000000000000000000000000000000000000000000000000000000000
310
0000000000000000000000000000000000000000000000000000000000000000
310
0000000000000000000000000000000000000000000000000000000000000000
310
0000000000000000000000000000000000000000000000000000000000000000
310
0000000000000000000000000000000000000000000000000000000000000000
310
0000000000000000000000000000000000000000000000000000000000000000
310
20260000424D0E260000000000003E00000028000000B40200006E0000000100
310
01000000000000000000130B0000130B00000200000002000000000000FFFFFF
310
FFFFFFFFFFFFFFFFFFFFFFFFFFFFFFFFFFFFFFFFFFFFFFFFFFFFFFFFFFFFFFFF
310
FFFFFFFFFFFFFFFFFFFFFFFFFFFFFFFFFFFFFFFFFFFFFFFFFFFFFFFFFFFFFFFF
310
FFFFFFFFFFFFFFFFFFFFFFFFFFFFFFFFFFFFFFFFFFFFFFFFF000FFFFFFFFFFFF
310
FFFFFFFFFFFFFFFFFFFFFFFFFFFFFFFFFFFFFFFFFFFFFFFFFFFFFFFFFFFFFFFF
310
FFFFFFFFFFFFFFFFFFFFFFFFFFFFFFFFFFFFFFFFFFFFFFFFFFFFFFFFFFFFFFFF
310
FFFFFFFFFFFFFFFFFFFFFFFFFFFFFFFFF000FFFFFFFFFFFFFFFFFFFFFFFFFFFF
310
FFFFFFFFFFFFFFFFFFFFFFFFFFFFFFFFFFFFFFFFFFFFFFFFFFFFFFFFFFFFFFFF
310
FFFFFFFFFFFFFFFFFFFFFFFFFFFFFFFFFFFFFFFFFFFFFFFFFFFFFFFFFFFFFFFF
310
FFFFFFFFFFFFFFFFF000FFFFFFFFFFFFFFFFFFFFFFFFFFFFFFFFFFFFFFFFFFFF
310
FFFFFFFFFFFFFFFFFFFFFFFFFFFFFFFFFFFFFFFFFFFFFFFFFFFFFFFFFFFFFFFF
310
FFFFFFFFFFFFFFFFFFFFFFFFFFFFFFFFFFFFFFFFFFFFFFFFFFFFFFFFFFFFFFFF
310
F000FFFFFFFFFFFFFFFFFFFFFFFFFFFFFFFFFFFFFFFFFFFFFFFFFFFFFFFFFFFF
310
FFFFFFFFFFFFFFFFFFFFFFFFFFFFFFFFFFFFFFFFFFFFFFFFFFFFFFFFFFFFFFFF
310
FFFFFFFFFFFFFFFFFFFFFFFFFFFFFFFFFFFFFFFFFFFFFFFFF000FFFFFFFFFFFF
310
FFFFFFFFFFFFFFFFFFFFFFFFFFFFFFFFFFFFFFFFFFFFFFFFFFFFFFFFFFFFFFFF
310
FFFFFFFFFFFFFFFFFFFFFFFFFFFFFFFFFFFFFFFFFFFFFFFFFFFFFFFFFFFFFFFF
310
FFFFFFFFFFFFFFFFFFFFFFFFFFFFFFFFF000FFFFFFFFFFFFFFFFFFFFFFFFFFFF
310
FFFFFFFFFFFFFFFFFFFFFFFFFFFFFFFFFFFFFFFFFFFFFFFFFFFFFFFFFFFFFFFF
310
FFFFFFFFFFFFFFFFFFFFFFFFFFFFFFFFFFFFFFFFFFFFFFFFFFFFFFFFFFFFFFFF
310
FFFFFFFFFFFFFFFFF000FFFFFFFFFFFFFFFFFFFFFFFFFFFFFFFFFFFFFFFFFFFF
310
FFFFFFFFFFFFFFFFFFFFFFFFFFFFFFFFFFFFFFFFFFFFFFFFFFFFFFFFFFFFFFFF
310
FFFFFFFFFFFFFFFFFFFFFFFFFFFFFFFFFFFFFFFFFFFFFFFFFFFFFFFFFFFFFFFF
310
F000FFFFFFFFFFFFFFFFFFFFFFFFFFFFFFFFFFFFFFFFFFFFFFFFFFFFFFFFFFFF
310
FFFFFFFFFFFFFFFFFFFFFFFFFFFFFFFFFFFFFFFFFFFFFFFFFFFFFFFFFFFFFFFF
310
FFFFFFFFFFFFFFFFFFFFFFFFFFFFFFFFFFFFFFFFFFFFFFFFF000FFFFFFFFFFFF
310
FFFFFFFFFFFFFFFFFFFFFFFFFFFFFFFFFFFFFFFFFFFFFFFFFFFFFFFFFFFFFFFF
310
FFFFFFFFFFFFFFFFFFFFFFFFFFFFFFFFFFFFFFFFFFFFFFFFFFFFFFFFFFFFFFFF
310
FFFFFFFFFFFFFFFFFFFFFFFFFFFFFFFFF000FFFFFFFFFFFFFFFFFFFFFFFFFFFF
310
FFFFFFFFFFFFFFFFFFFFFFFFFFFFFFFFFFFFFFFFFFFFFFFFFFFFFFFFFFFFFFFF
310
FFFFFFFFFFFFFFFFFFFFFFFFFFFFFFFFFFFFFFFFFFFFFFFFFFFFFFFFFFFFFFFF
310
FFFFFFFFFFFFFFFFF000FFFFFFFFFFFFFFFFFFFFFFFFFFFFFFFFFFFFFFFFFFFF
310
FFFFFFFFFFFFFFFFFFFFFFFFFFFFFFFFFFFFFFFFFFFFFFFFFFFFFFFFFFFFFFFF
310
FFFFFFFFFFFFFFFFFFFFFFFFFFFFFFFFFFFFFFFFFFFFFFFFFFFFFFFFFFFFFFFF
310
F000FFFFFFFFFFFFFFFFFFFFFFFFFFFFFFFFFFFFFFFFFFFFFFFFFFFFFFFFFFFF
310
FFFFFFFFFFFFFFFFFFFFFFFFFFFFFFFFFFFFFFFFFFFFFFFFFFFFFFFFFFFFFFFF
310
FFFFFFFFFFFFFFFFFFFFFFFFFFFFFFFFFFFFFFFFFFFFFFFFF000FFFFFFFFFFFF
310
FFFFFFFFFFFFFFFFFFFFFFFFFFFFFFFFFFFFFFFFFFFFFFFFFFFFFFFFFFFFFFFF
310
FFFFFFFFFFFFFFFFFFFFFFFFFFFFFFFFFFFFFFFFFFFFFFFFFFFFFFFFFFFFFFFF
310
FFFFFFFFFFFFFFFFFFFFFFFFFFFFFFFFF000FFFFFFFFFFFFFFFFFFFFFFFFFFFF
310
FFFFFFFFFFFFFFFFFFFFFFFFFFFFFFFFFFFFFFFFFFFFFFFFFFFFFFFFFFFFFFFF
310
FFFFFFFFFFFFFFFFFFFFFFFFFFFFFFFFFFFFFFFFFFFFFFFFFFFFFFFFFFFFFFFF
310
FFFFFFFFFFFFFFFFF000FFFFFFFFFFFFFFFFFFFFFFFFFFFFFFFFFFFFFFFFFFFF
310
FFFFFFFFFFFFFFFFFFFFFFFFFFFFFFFFFFFFFFFFFFFFFFFFFFFFFFFFFFFFFFFF
310
FFFFFFFFFFFFFFFFFFFFFFFFFFFFFFFFFFFFFFFFFFFFFFFFFFFFFFFFFFFFFFFF
310
F000FFFFFFFFFFFFFFFFFFFFFFFFFFFFFFFFFFFFFFFFFFFFFFFFFFFFFFFFFFFF
310
FFFFFFFFFFFFFFFFFFFFFFFFFFFFFFFFFFFFFFFFFFFFFFFFFFFFFFFFFFFFFFFF
310
FFFFFFFFFFFFFFFFFFFFFFFFFFFFFFFFFFFFFFFFFFFFFFFFF000FFFFFFFFFFFF
310
FFFFFFFFFFFFFFFFFFFFFFFFFFFFFFFFFFFFFFFFFFFFFFFFFFFFFFFFFFFFFFFF
310
FFFFFFFFFFFFFFFFFFFFFFFFFFFFFFFFFFFFFFFFFFFFFFFFFFFFFFFFFFFFFFFF
310
FFFFFFFFFFFFFFFFFFFFFFFFFFFFFFFFF000FFFFFFFFFFFFFFFFFFFFFFFFFFFF
310
FFFFFFFFFFFFFFFFFFFFFFFFFFFFFFFFFFFFFFFFFFFFFFFFFFFFFFFFFFFFFFFF
310
FFFFFFFFFFFFFFFFFFFFFFFFFFFFFFFFFFFFFFFFFFFFFFFFFFFFFFFFFFFFFFFF
310
FFFFFFFFFFFFFFFFF000FFFFF80003FFFFFFFFFFFFFFFFFFFFFFFFFFFFFFFFFF
310
FFFFF00007FFFFFFFFFF00007FFFFFF800000000000000007FFFFFFFFFFFFFFF
310
FFFFFFFC001FFFFFFFFFFFFFFC001FFFFFFFFFFFFFFFFFFFFFFFFFFE0007FFFF
310
F000FFFF8000007FFFFFFFF8000FFFFFC0007FFFFF80007FFFFF0000007FFFFF
310
FFF8000007FFFFF800000000000000007FFFFFF0001FFFFFFFFFFFC00001FFFF
310
FFFFFFFFC00001FFFFFFFF000000000003FFFFE000007FFFF000FFFE0000000F
310
FFFFFFF0000FFFFF80007FFFFF80007FFFFC0000001FFFFFFFC0000001FFFFF8
310
00000000000000007FFFFFF0001FFFFFFFFFFE0000003FFFFFFFFFFE0000003F
310
FFFFFF000000000003FFFF0000000FFFF000FFF800000003FFFFFFF00007FFFF
310
80007FFFFF80007FFFF000000007FFFFFF000000003FFFF80000000000000000
310
7FFFFFF0001FFFFFFFFFF80000000FFFFFFFFFF80000000FFFFFFF0000000000
310
03FFFC00000003FFF000FFE000000000FFFFFFF00007FFFF80003FFFFF80007F
310
FFC000000001FFFFFC000000001FFFF800000000000000007FFFFFF0001FFFFF
310
FFFFE000000003FFFFFFFFE000000003FFFFFF000000000003FFF000000000FF
310
F000FF80000000007FFFFFF00007FFFF80003FFFFF80007FFF8000000000FFFF
310
F80000000007FFF800000000000000007FFFFFF0001FFFFFFFFFC000000001FF
310
FFFFFFC000000001FFFFFF000000000003FFC0000000007FF000FF0000000000
310
3FFFFFE00007FFFF00003FFFFF80007FFE00000000003FFFF00000000003FFF8
310
00000000000000007FFFFFF0001FFFFFFFFF8000000000FFFFFFFF8000000000
310
FFFFFF000000000003FF80000000003FF000FE00000000001FFFFFE00003FFFF
310
00003FFFFF80007FFC00000000001FFFE00000000001FFF8000001FFFE000000
310
7FFFFFF0001FFFFFFFFE00000000003FFFFFFE00000000003FFFFF0000000000
310
03FF00000000001FF000FC00000000000FFFFFE00003FFFF00001FFFFF80007F
310
F800000000001FFFC00000000000FFF8000001FFFE0000007FFFFFF0001FFFFF
310
FFFC00000000001FFFFFFC00000000001FFFFF000000000003FE00000000000F
310
F000F8000000000007FFFFE00003FFFF00001FFFFF80007FF800000000000FFF
310
800000000000FFF8000001FFFE0000007FFFFFF0001FFFFFFFF800000000000F
310
FFFFF800000000000FFFFF000000000003FC000000000007F000F80000000000
310
03FFFFC00003FFFE00001FFFFF80007FF0000000000007FF0000000000007FF8
310
000001FFFE0000007FFFFFF0001FFFFFFFF0000000000007FFFFF00000000000
310
07FFFF000000000003F8000000000003F000F0000000000003FFFFC00001FFFE
310
00001FFFFF80007FE0000000000007FE0000000000003FF8000001FFFE000000
310
7FFFFFF0001FFFFFFFF0000000000007FFFFF0000000000007FFFF0000000000
310
03F800001F800003F000E00001FFF00001FFFFC00001FFFE00000FFFFF80007F
310
E00001FFE00003FE00001FFF00003FF8000001FFFE0000007FFFFFF0001FFFFF
310
FFE000003E000003FFFFE000003E000003FFFF000000000003F00001FFF80001
310
F000E00007FFFC0001FFFFC00001FFFE00000FFFFF80007FC0000FFFFC0003FC
310
0000FFFFC0001FF8000001FFFE0000007FFFFFF0001FFFFFFFC00003FFE00001
310
FFFFC00003FFE00001FFFF0001FFFFFFFFF00007FFFE0001F000E0000FFFFF00
310
00FFFF800001FFFC00000FFFFF80007FC0001FFFFE0001FC0001FFFFE0001FF8
310
000001FFFE0000007FFFFFF0001FFFFFFF80000FFFF80000FFFF80000FFFF800
310
00FFFF0003FFFFFFFFE0000FFFFF8000F000C0003FFFFF8000FFFF800000FFFC
310
000007FFFF80007F80003FFFFF0001FC0003FFFFF0001FF8000001FFFE000000
310
7FFFFFF0001FFFFFFF80003FFFFE0000FFFF80003FFFFE0000FFFF0003FFFFFF
310
FFE0003FFFFF8000F000C0003FFFFF8000FFFF800000FFFC000007FFFF80007F
310
80007FFFFF8001F80007FFFFF8000FF8000001FFFE0000007FFFFFF0001FFFFF
310
FF00007FFFFF00007FFF00007FFFFF00007FFF0003FFFFFFFFE0003FFFFFC000
310
F000C0007FFFFFC000FFFF000000FFFC000007FFFF80007F8000FFFFFF8000F8
310
000FFFFFF8000FF8000001FFFE0000007FFFFFF0001FFFFFFF0000FFFFFF8000
310
7FFF0000FFFFFF80007FFF0003FFFFFFFFC0007FFFFFC00070008000FFFFFFC0
310
00FFFF000000FFF8000007FFFF80007F8000FFFFFF8000F8000FFFFFF8000FF8
310
000001FFFE0000007FFFFFF0001FFFFFFE0001FFFFFFC0003FFE0001FFFFFFC0
310
003FFF0003FFFFFFFFC0007FFFFFE00070008000FFFFFFC0007FFF0000007FF8
310
000003FFFF80007F0001FFFFFF8000F8000FFFFFF8000FF8000001FFFE000000
310
7FFFFFF0001FFFFFFE0001FFFFFFC0003FFE0001FFFFFFC0003FFF0003FFFFFF
310
FFC000FFFFFFE00070008000FFFFFFC0007FFF0000007FF8000003FFFF80007F
310
0001FFFFFF8000F8001FFFFFF8000FF8000001FFFE0000007FFFFFF0001FFFFF
310
FE0003FFFFFFE0003FFE0003FFFFFFE0003FFF0003FFFFFFFFC000FFFFFFE000
310
70008000FFFFFFC0007FFE0000007FF8000003FFFF80007F0001FFFFFF8000F0
310
001FFFFFF8000FF8000001FFFE0000007FFFFFF0001FFFFFFC0003FFFFFFE000
310
1FFC0003FFFFFFE0001FFF0003FFFFFFFFC000FFFFFFC00070008000FFFFFF80
310
007FFE0000007FF0000003FFFF80007F0001FFFFFF0000F0001FFFFFF8000FF8
310
000001FFFE0000007FFFFFF0001FFFFFFC0007FFFFFFF0001FFC0007FFFFFFF0
310
001FFF0003FFFFFFFFC000FFFFFFC00070008001FFFFFF0000FFFE0000003FF0
310
000001FFFF80007F0001FFFFFF0000F8001FFFFFF0000FF8000001FFFE000000
310
7FFFFFF0001FFFFFFC0007FFFFFFF0001FFC0007FFFFFFF0001FFF0003FFFFFF
310
FFC001FFFFFF80007000FFFFFFFFFE0000FFFE0008003FF0008001FFFF80007F
310
FFFFFFFFFC0000FFFFFFFFFFE0000FF8000001FFFE0000007FFFFFF0001FFFFF
310
F8000FFFFFFFF8000FF8000FFFFFFFF8000FFF0003FFFFFFFFFFFFFFFFFF0000
310
7000FFFFFFFFFC0000FFFC0008003FF0008001FFFF80007FFFFFFFFFF80001FF
310
FFFFFFFF80000FF8000001FFFE0000007FFFFFF0001FFFFFF8000FFFFFFFF800
310
0FF8000FFFFFFFF8000FFF0003FFFFFFFFFFFFFFFFFE0000F000FFFFFFFFE000
310
00FFFC000C003FE000C001FFFF80007FFFFFFFFFC00001FFFFFFFFFE00001FF8
310
000001FFFE0000007FFFFFF0001FFFFFF8000FFFFFFFF8000FF8000FFFFFFFF8
310
000FFF0003FFFFFFFFFFFFFFFFF00000F000FFFFFFFE000001FFFC000C001FE0
310
00C000FFFF80007FFFFFFFFE000001FFFFFFFFE000001FF80FFFFFFFFFFFFFC0
310
7FFFFFF0001FFFFFF8000FFFFFFFF8000FF8000FFFFFFFF8000FFF0003FFFFFF
310
FFFFFFFFFF800000F000FFFFFFC0000001FFFC001C001FE001C000FFFF80007F
310
FFFFFF80000003FFFFFFF80000001FF80FFFFFFFFFFFFFC07FFFFFF0001FFFFF
310
F8001FFFFFFFFC000FF8001FFFFFFFFC000FFF0003FFFFFFFFFFFFFFF0000001
310
F000FFFFF800000001FFF8001C001FE001C000FFFF80007FFFFFF800000003FF
310
FFFF800000003FF80FFFFFFFFFFFFFC07FFFFFF0001FFFFFF8001FFFFFFFFC00
310
0FF8001FFFFFFFFC000FFF0003FFFFFFFFFFFFFE00000001F000FFFFC0000000
310
03FFF8001E001FC001E000FFFF80007FFFFF8000000007FFFFFC000000003FF8
310
0FFFFFFFFFFFFFC07FFFFFF0001FFFFFF8001FFFFFFFFC000FF8001FFFFFFFFC
310
000FFF0003FFFFFFFFFFFFE000000003F000FFFE0000000007FFF8001E000FC0
310
01E0007FFF80007FFFFE0000000007FFFFE0000000007FF80FFFFFFFFFFFFFC0
310
7FFFFFF0001FFFFFF0001FFFFFFFFC0007F0001FFFFFFFFC0007FF0003FFFFFF
310
FFFFFF0000000003F000FFF80000000007FFF8001E000FC003E0007FFF80007F
310
FFF0000000000FFFFF8000000000FFF80FFFFFFFFFFFFFC07FFFFFF0001FFFFF
310
F0001FFFFFFFFC0007F0001FFFFFFFFC0007FF0003FFFFFFFFFFFC0000000007
310
F000FFE0000000000FFFF0003E000FC003E0007FFF80007FFFC0000000001FFF
310
FE0000000001FFF80FFFFFFFFFFFFFC07FFFFFF0001FFFFFF0001FFFFFFFFC00
310
07F0001FFFFFFFFC0007FF0003FFFFFFFFFFF0000000000FF000FFC000000000
310
1FFFF0003F000F8003F0003FFF80007FFF80000000003FFFF80000000003FFF8
310
0FFFFFFFFFFFFFC07FFFFFF0001FFFFFF0001FFFFFFFFC0007F0001FFFFFFFFC
310
0007FF0003FFFFFFFFFFE0000000001FF000FF00000000007FFFF0003F000780
310
03F0003FFF80007FFF00000000007FFFF00000000007FFF80FFFFFFFFFFFFFC0
310
7FFFFFF0001FFFFFF0001FFFFFFFFC0007F0001FFFFFFFFC0007FF0003FFFFFF
310
FFFF80000000007FF000FE0000000000FFFFE0003F00078007F0003FFF80007F
310
FE0000000001FFFFE0000000001FFFF80FFFFFFFFFFFFFC07FFFFFF0001FFFFF
310
F0001FFFFFFFFC0007F0001FFFFFFFFC0007FF0003FFFFFFFFFF0000000000FF
310
F000FC0000000003FFFFE0007F00078007F0003FFF80007FFC0000000007FFFF
310
C0000000007FFFF80FFFFFFFFFFFFFC07FFFFFF0001FFFFFF8001FFFFFFFFC00
310
0FF8001FFFFFFFFC000FFF0003FFFFFFFFFE0000000003FFF000FC000000000F
310
FFFFE0007F80070007F8001FFF80007FF8000000001FFFFF8000000001FFFFF8
310
0FFFFFFFFFFFFFC07FFFFFF0001FFFFFF8001FFFFFFFFC000FF8001FFFFFFFFC
310
000FFF0003FFFFFFFFFC000000000FFFF000F8000000007FFFFFE0007F800700
310
07F8001FFF80007FF000000000FFFFFF800000000FFFFFF80FFFFFFFFFFFFFC0
310
7FFFFFF0001FFFFFF8000FFFFFFFF8000FF8000FFFFFFFF8000FFF0003FFFFFF
310
FFFC000000007FFFF000F800000007FFFFFFC0007F8003000FF8001FFF80007F
310
F000000007FFFFFF000000007FFFFFF80FFFFFFFFFFFFFC07FFFFFF0001FFFFF
310
F8000FFFFFFFF8000FF8000FFFFFFFF8000FFF0003FFFFFFFFF80000000FFFFF
310
F000F0000000FFFFFFFFC000FF8003000FF8001FFF80007FE0000000FFFFFFFF
310
0000000FFFFFFFF8000001FFFE0000007FFFFFF0001FFFFFF8000FFFFFFFF800
310
0FF8000FFFFFFFF8000FFF0003FFFFFFFFF8000000FFFFFFF000F000000FFFFF
310
FFFFC000FFC002000FF8000FFF80007FE000001FFFFFFFFE000001FFFFFFFFF8
310
000001FFFE0000007FFFFFF0001FFFFFF8000FFFFFFFF8000FF8000FFFFFFFF8
310
000FFF0003FFFFFFFFF000001FFFFFFFF000E00000FFFFFFFFFFC000FFC00200
310
0FFC000FFF80007FE00001FFFFFFFFFE00001FFFFFFFFFF8000001FFFE000000
310
7FFFFFF0001FFFFFFC000FFFFFFFF8001FFC000FFFFFFFF8001FFF0003FFFFFF
310
FFF00001FFFFFFFFF000E00007FFFFFFFFFF8000FFC000001FFC000FFF80007F
310
C0000FFFFFFFFFFE0000FFFFFFFFFFF8000001FFFE0000007FFFFFF0001FFFFF
310
FC0007FFFFFFF0001FFC0007FFFFFFF0001FFF0003FFFFFFFFF00007FFFFFFFF
310
F000E0001FFFFFFFFFFF8000FFC000001FFC000FFF80007FC0003FFFFFFFFFFE
310
0001FFFFFFFFFFF8000001FFFE0000007FFFFFF0001FFFFFFC0007FFFFFFF000
310
1FFC0007FFFFFFF0001FFF0003FFFFFFFFF0001FFFFFFFFFF000E0003FFFFF00
310
03FF8001FFE000001FFC0007FF80007FC0007FFFFF0007FC0003FFFFF0003FF8
310
000001FFFE0000007FFFFFF0001FFFFFFC0003FFFFFFE0001FFC0003FFFFFFE0
310
001FFF0003FFFFFFFFF0003FFFFFFFFFF000E0003FFFFF0001FF8001FFE00000
310
1FFE0007FF80007FC0007FFFFE0003FC0007FFFFE0003FF8000001FFFE000000
310
7FFFFFF0001FFFFFFE0003FFFFFFE0003FFE0003FFFFFFE0003FFF0003FFFFFF
310
FFF0003FFFFF8001F000E0003FFFFF0001FF0001FFE000001FFE0007FF80007F
310
C0007FFFFE0003FC0007FFFFE0003FF8000001FFFE0000007FFFFFF0001FFFFF
310
FE0001FFFFFFC0003FFE0001FFFFFFC0003FFF0003FFFFFFFFF0003FFFFF0001
310
F000E0003FFFFF0003FF0001FFE000003FFE0007FF80007FC0007FFFFE0003FC
310
0007FFFFE0003FF8000001FFFE0000007FFFFFF0001FFFFFFF0001FFFFFFC000
310
7FFF0001FFFFFFC0007FFF0003FFFFFFFFF0003FFFFF0001F000E0003FFFFE00
310
03FF0003FFF000003FFE0003FF80007FC0007FFFFC0003FE0007FFFFE0003FF8
310
000001FFFE0000007FFFFFF0001FFFFFFF0000FFFFFF80007FFF0000FFFFFF80
310
007FFF0003FFFFFFFFF0003FFFFF0001F000E0003FFFFE0003FF0003FFF00000
310
3FFF0003FF80007FC0007FFFFC0007FE0007FFFFC0003FF8000001FFFE000000
310
7FFFFFF0001FFFFFFF80007FFFFF0000FFFF80007FFFFF0000FFFF0003FFFFFF
310
FFF0003FFFFF0003F000E0003FFFFC0003FE0003FFF000003FFF0003FF80007F
310
E0003FFFF80007FE0003FFFFC0007FF8000001FFFE0000007FFFFFF0001FFFFF
310
FF80003FFFFE0000FFFF80003FFFFE0000FFFF0003FFFFFFFFF0001FFFFE0003
310
F000F0001FFFF80003FE0003FFF000007FFF0001FF80007FE0003FFFF00007FE
310
0001FFFF80007FF8000001FFFE0000007FFFFFF0001FFFFFFFC0000FFFF80001
310
FFFFC0000FFFF80001FFFF0003FFFFFFFFF0001FFFFC0003F000F0000FFFF000
310
07FE0007FFF800007FFF0001FF80007FE0001FFFE00007FF0000FFFE00007FF8
310
000001FFFE0000007FFFFFF0001FFFFFFFC00003FFE00001FFFFC00003FFE000
310
01FFFF0003FFFFFFFFF8000FFFF80003F000F00003FFC00007FC0007FFF80000
310
7FFF8001FF80007FF00007FF80000FFF00007FF80000FFF8000001FFFE000000
310
7F80000000000001FFE000003E000003FFFFE000003E000003FFFF0003FFFFFF
310
FFF80003FFE00007F000F800000000000FFC0007FFF800007FFF8001FF80007F
310
F000000000000FFF000000000000FFF8000001FFFE0000007F80000000000001
310
FFF0000000000007FFFFF0000000000007FFFF0003FFFFFFFFFC00007E000007
310
F000F800000000000FFC0007FFF80000FFFF8000FF80007FF800000000001FFF
310
800000000001FFF8000001FFFE0000007F80000000000001FFF800000000000F
310
FFFFF800000000000FFFFF0003FFFFFFFFFC00000000000FF000FC0000000000
310
1FFC0007FFFC0000FFFF8000FF80007FF800000000003FFFC00000000001FFF8
310
000001FFFE0000007F80000000000001FFF800000000000FFFFFF80000000000
310
0FFFFF0003FFFFFFFFFE00000000001FF000FE00000000003FF8000FFFFC0000
310
FFFF8000FF80007FFC00000000003FFFC00000000003FFF8000001FFFE000000
310
7F80000000000001FFFC00000000001FFFFFFC00000000001FFFFF0003FFFFFF
310
FFFF00000000001FF000FF00000000003FF8000FFFFC0000FFFFC000FF80007F
310
FE00000000007FFFE00000000007FFF8000001FFFE0000007F80000000000001
310
FFFE00000000003FFFFFFE00000000003FFFFF0003FFFFFFFFFF80000000003F
310
F000FF80000000007FF8000FFFFC0001FFFFC0007F80007FFF0000000000FFFF
310
F0000000000FFFF800000000000000007F80000000000001FFFF8000000000FF
310
FFFFFF8000000000FFFFFF0003FFFFFFFFFFC0000000007FF000FFC000000000
310
FFF8000FFFFE0001FFFFC0007F80007FFF8000000001FFFFF8000000001FFFF8
310
00000000000000007F80000000000001FFFFC000000001FFFFFFFFC000000001
310
FFFFFF0003FFFFFFFFFFE000000000FFF000FFE000000003FFF0001FFFFE0001
310
FFFFC0007F80007FFFC000000007FFFFFE000000003FFFF80000000000000000
310
7F80000000000001FFFFE000000003FFFFFFFFE000000003FFFFFF0003FFFFFF
310
FFFFF000000003FFF000FFF80000000FFFF0001FFFFE0001FFFFE0007F80007F
310
FFF00000000FFFFFFF00000000FFFFF800000000000000007F80000000000001
310
FFFFF80000000FFFFFFFFFF80000000FFFFFFF0003FFFFFFFFFFFC0000000FFF
310
F000FFFE0000003FFFF0001FFFFE0003FFFFE0003F80007FFFFC0000003FFFFF
310
FFC0000003FFFFF800000000000000007F80000000000001FFFFFE0000003FFF
310
FFFFFFFE0000003FFFFFFF0003FFFFFFFFFFFF0000003FFFF000FFFF800000FF
310
FFF0001FFFFF0003FFFFE0003F80007FFFFF000001FFFFFFFFF800001FFFFFF8
310
00000000000000007F80000000000001FFFFFFC00001FFFFFFFFFFFFC00001FF
310
FFFFFF0003FFFFFFFFFFFFC00000FFFFF000FFFFF8000FFFFFFFFFFFFFFFFFFF
310
FFFFFFFFFFFFFFFFFFFFF0001FFFFFFFFFFF0000FFFFFFF80000000000000000
310
7FFFFFFFFFFFFFFFFFFFFFFC001FFFFFFFFFFFFFFC001FFFFFFFFFFFFFFFFFFF
310
FFFFFFFC001FFFFFF000FFFFFFFFFFFFFFFFFFFFFFFFFFFFFFFFFFFFFFFFFFFF
310
FFFFFFFFFFFFFFFFFFFFFFFFFFFFFFFFFFFFFFFFFFFFFFFFFFFFFFFFFFFFFFFF
310
FFFFFFFFFFFFFFFFFFFFFFFFFFFFFFFFFFFFFFFFFFFFFFFFFFFFFFFFFFFFFFFF
310
F000FFFFFFFFFFFFFFFFFFFFFFFFFFFFFFFFFFFFFFFFFFFFFFFFFFFFFFFFFFFF
310
FFFFFFFFFFFFFFFFFFFFFFFFFFFFFFFFFFFFFFFFFFFFFFFFFFFFFFFFFFFFFFFF
310
FFFFFFFFFFFFFFFFFFFFFFFFFFFFFFFFFFFFFFFFFFFFFFFFF000FFFFFFFFFFFF
310
FFFFFFFFFFFFFFFFFFFFFFFFFFFFFFFFFFFFFFFFFFFFFFFFFFFFFFFFFFFFFFFF
310
FFFFFFFFFFFFFFFFFFFFFFFFFFFFFFFFFFFFFFFFFFFFFFFFFFFFFFFFFFFFFFFF
310
FFFFFFFFFFFFFFFFFFFFFFFFFFFFFFFFF000FFFFFFFFFFFFFFFFFFFFFFFFFFFF
310
FFFFFFFFFFFFFFFFFFFFFFFFFFFFFFFFFFFFFFFFFFFFFFFFFFFFFFFFFFFFFFFF
310
FFFFFFFFFFFFFFFFFFFFFFFFFFFFFFFFFFFFFFFFFFFFFFFFFFFFFFFFFFFFFFFF
310
FFFFFFFFFFFFFFFFF000FFFFFFFFFFFFFFFFFFFFFFFFFFFFFFFFFFFFFFFFFFFF
310
FFFFFFFFFFFFFFFFFFFFFFFFFFFFFFFFFFFFFFFFFFFFFFFFFFFFFFFFFFFFFFFF
310
FFFFFFFFFFFFFFFFFFFFFFFFFFFFFFFFFFFFFFFFFFFFFFFFFFFFFFFFFFFFFFFF
310
F000FFFFFFFFFFFFFFFFFFFFFFFFFFFFFFFFFFFFFFFFFFFFFFFFFFFFFFFFFFFF
310
FFFFFFFFFFFFFFFFFFFFFFFFFFFFFFFFFFFFFFFFFFFFFFFFFFFFFFFFFFFFFFFF
310
FFFFFFFFFFFFFFFFFFFFFFFFFFFFFFFFFFFFFFFFFFFFFFFFF000FFFFFFFFFFFF
310
FFFFFFFFFFFFFFFFFFFFFFFFFFFFFFFFFFFFFFFFFFFFFFFFFFFFFFFFFFFFFFFF
310
FFFFFFFFFFFFFFFFFFFFFFFFFFFFFFFFFFFFFFFFFFFFFFFFFFFFFFFFFFFFFFFF
310
FFFFFFFFFFFFFFFFFFFFFFFFFFFFFFFFF000FFFFFFFFFFFFFFFFFFFFFFFFFFFF
310
FFFFFFFFFFFFFFFFFFFFFFFFFFFFFFFFFFFFFFFFFFFFFFFFFFFFFFFFFFFFFFFF
310
FFFFFFFFFFFFFFFFFFFFFFFFFFFFFFFFFFFFFFFFFFFFFFFFFFFFFFFFFFFFFFFF
310
FFFFFFFFFFFFFFFFF000FFFFFFFFFFFFFFFFFFFFFFFFFFFFFFFFFFFFFFFFFFFF
310
FFFFFFFFFFFFFFFFFFFFFFFFFFFFFFFFFFFFFFFFFFFFFFFFFFFFFFFFFFFFFFFF
310
FFFFFFFFFFFFFFFFFFFFFFFFFFFFFFFFFFFFFFFFFFFFFFFFFFFFFFFFFFFFFFFF
310
F000FFFFFFFFFFFFFFFFFFFFFFFFFFFFFFFFFFFFFFFFFFFFFFFFFFFFFFFFFFFF
310
FFFFFFFFFFFFFFFFFFFFFFFFFFFFFFFFFFFFFFFFFFFFFFFFFFFFFFFFFFFFFFFF
310
FFFFFFFFFFFFFFFFFFFFFFFFFFFFFFFFFFFFFFFFFFFFFFFFF000FFFFFFFFFFFF
310
FFFFFFFFFFFFFFFFFFFFFFFFFFFFFFFFFFFFFFFFFFFFFFFFFFFFFFFFFFFFFFFF
310
FFFFFFFFFFFFFFFFFFFFFFFFFFFFFFFFFFFFFFFFFFFFFFFFFFFFFFFFFFFFFFFF
310
FFFFFFFFFFFFFFFFFFFFFFFFFFFFFFFFF000FFFFFFFFFFFFFFFFFFFFFFFFFFFF
310
FFFFFFFFFFFFFFFFFFFFFFFFFFFFFFFFFFFFFFFFFFFFFFFFFFFFFFFFFFFFFFFF
310
FFFFFFFFFFFFFFFFFFFFFFFFFFFFFFFFFFFFFFFFFFFFFFFFFFFFFFFFFFFFFFFF
310
FFFFFFFFFFFFFFFFF000FFFFFFFFFFFFFFFFFFFFFFFFFFFFFFFFFFFFFFFFFFFF
310
FFFFFFFFFFFFFFFFFFFFFFFFFFFFFFFFFFFFFFFFFFFFFFFFFFFFFFFFFFFFFFFF
310
FFFFFFFFFFFFFFFFFFFFFFFFFFFFFFFFFFFFFFFFFFFFFFFFFFFFFFFFFFFFFFFF
310
F000FFFFFFFFFFFFFFFFFFFFFFFFFFFFFFFFFFFFFFFFFFFFFFFFFFFFFFFFFFFF
310
FFFFFFFFFFFFFFFFFFFFFFFFFFFFFFFFFFFFFFFFFFFFFFFFFFFFFFFFFFFFFFFF
310
FFFFFFFFFFFFFFFFFFFFFFFFFFFFFFFFFFFFFFFFFFFFFFFFF000FFFFFFFFFFFF
310
FFFFFFFFFFFFFFFFFFFFFFFFFFFFFFFFFFFFFFFFFFFFFFFFFFFFFFFFFFFFFFFF
310
FFFFFFFFFFFFFFFFFFFFFFFFFFFFFFFFFFFFFFFFFFFFFFFFFFFFFFFFFFFFFFFF
310
FFFFFFFFFFFFFFFFFFFFFFFFFFFFFFFFF000FFFFFFFFFFFFFFFFFFFFFFFFFFFF
310
FFFFFFFFFFFFFFFFFFFFFFFFFFFFFFFFFFFFFFFFFFFFFFFFFFFFFFFFFFFFFFFF
310
FFFFFFFFFFFFFFFFFFFFFFFFFFFFFFFFFFFFFFFFFFFFFFFFFFFFFFFFFFFFFFFF
310
FFFFFFFFFFFFFFFFF000FFFFFFFFFFFFFFFFFFFFFFFFFFFFFFFFFFFFFFFFFFFF
310
FFFFFFFFFFFFFFFFFFFFFFFFFFFFFFFFFFFFFFFFFFFFFFFFFFFFFFFFFFFFFFFF
310
FFFFFFFFFFFFFFFFFFFFFFFFFFFFFFFFFFFFFFFFFFFFFFFFFFFFFFFFFFFFFFFF
310
F000FFFFFFFFFFFFFFFFFFFFFFFFFFFFFFFFFFFFFFFFFFFFFFFFFFFFFFFFFFFF
310
FFFFFFFFFFFFFFFFFFFFFFFFFFFFFFFFFFFFFFFFFFFFFFFFFFFFFFFFFFFFFFFF
310
FFFFFFFFFFFFFFFFFFFFFFFFFFFFFFFFFFFFFFFFFFFFFFFFF000FFFFFFFFFFFF
310
FFFFFFFFFFFFFFFFFFFFFFFFFFFFFFFFFFFFFFFFFFFFFFFFFFFFFFFFFFFFFFFF
310
FFFFFFFFFFFFFFFFFFFFFFFFFFFFFFFFFFFFFFFFFFFFFFFFFFFFFFFFFFFFFFFF
310
FFFFFFFFFFFFFFFFFFFFFFFFFFFFFFFFF000FFFFFFFFFFFFFFFFFFFFFFFFFFFF
310
FFFFFFFFFFFFFFFFFFFFFFFFFFFFFFFFFFFFFFFFFFFFFFFFFFFFFFFFFFFFFFFF
310
FFFFFFFFFFFFFFFFFFFFFFFFFFFFFFFFFFFFFFFFFFFFFFFFFFFFFFFFFFFFFFFF
310
FFFFFFFFFFFFFFFFF000FFFFFFFFFFFFFFFFFFFFFFFFFFFFFFFFFFFFFFFFFFFF
310
FFFFFFFFFFFFFFFFFFFFFFFFFFFFFFFFFFFFFFFFFFFFFFFFFFFFFFFFFFFFFFFF
310
FFFFFFFFFFFFFFFFFFFFFFFFFFFFFFFFFFFFFFFFFFFFFFFFFFFFFFFFFFFFFFFF
310
F000FFFFFFFFFFFFFFFFFFFFFFFFFFFFFFFFFFFFFFFFFFFFFFFFFFFFFFFFFFFF
310
FFFFFFFFFFFFFFFFFFFFFFFFFFFFFFFFFFFFFFFFFFFFFFFFFFFFFFFFFFFFFFFF
310
FFFFFFFFFFFFFFFFFFFFFFFFFFFFFFFFFFFFFFFFFFFFFFFFF000FFFFFFFFFFFF
310
FFFFFFFFFFFFFFFFFFFFFFFFFFFFFFFFFFFFFFFFFFFFFFFFFFFFFFFFFFFFFFFF
310
FFFFFFFFFFFFFFFFFFFFFFFFFFFFFFFFFFFFFFFFFFFFFFFFFFFFFFFFFFFFFFFF
310
FFFFFFFFFFFFFFFFFFFFFFFFFFFFFFFFF0000000000000000000000000000000
310
0000000000000000000000000000000000000000000000000000000000000000
310
0000000000000000000000000000000000000000000000000000000000000000
310
0000000000000000000000000000000000000000000000000000000000000000
310
0000000000000000000000000000000000000000000000000000000000000000
310
0000000000000000000000000000000000000000000000000000000000000000
310
0000000000000000000000000000000000000000000000000000000000000000
310
0000000000000000000000000000000000000000000000000000000000000000
310
0000000000000000000000000000000000000000000000000000000000000000
310
0000000000000000000000000000000000000000000000000000000000000000
310
0000000000000000000000000000000000000000000000000000000000000000
310
0000000000000000000000000000000000000000000000000000000000000000
310
0000000000000000000000000000000000000000000000000000000000000000
310
0000000000000000000000000000000000000000000000000000000000000000
310
0000000000000000000000000000000000000000000000000000000000000000
310
0000000000000000000000000000000000000000000000000000000000000000
  1
OLE
  0
ENDSEC
  0
SECTION
  2
OBJECTS
  0
DICTIONARY
  5
C
330
0
100
AcDbDictionary
281
     1
  3
ACAD_GROUP
350
D
  3
ACAD_LAYOUT
350
1A
  3
ACAD_MLINESTYLE
350
17
  3
ACAD_PLOTSETTINGS
350
19
  3
ACAD_PLOTSTYLENAME
350
E
  3
ACAD_SCALELIST
350
47
  0
DICTIONARY
  5
D
102
{ACAD_REACTORS
330
C
102
}
330
C
100
AcDbDictionary
281
     1
  0
DICTIONARY
  5
1A
102
{ACAD_REACTORS
330
C
102
}
330
C
100
AcDbDictionary
281
     1
  3
Layout1
350
1E
  3
Layout2
350
26
  3
Model
350
22
  0
DICTIONARY
  5
17
102
{ACAD_REACTORS
330
C
102
}
330
C
100
AcDbDictionary
281
     1
  3
Standard
350
18
  0
DICTIONARY
  5
19
102
{ACAD_REACTORS
330
C
102
}
330
C
100
AcDbDictionary
281
     1
  0
ACDBDICTIONARYWDFLT
  5
E
102
{ACAD_REACTORS
330
C
102
}
330
C
100
AcDbDictionary
281
     1
  3
Normal
350
F
100
AcDbDictionaryWithDefault
340
F
  0
DICTIONARY
  5
47
102
{ACAD_REACTORS
330
C
102
}
330
C
100
AcDbDictionary
281
     1
  3
A0
350
48
  3
A1
350
49
  3
A2
350
4A
  3
A3
350
4B
  3
A4
350
4C
  3
A5
350
4D
  3
A6
350
4E
  3
A7
350
4F
  3
A8
350
50
  3
A9
350
51
  3
B0
350
52
  3
B1
350
53
  3
B2
350
54
  3
B3
350
55
  3
B4
350
56
  3
B5
350
57
  3
B6
350
58
  3
B7
350
59
  3
B8
350
5A
  3
B9
350
5B
  3
C0
350
5C
  3
C1
350
5D
  3
C2
350
5E
  3
C3
350
5F
  3
C4
350
60
  3
C5
350
61
  3
C6
350
62
  3
C7
350
63
  3
C8
350
64
  3
C9
350
65
  3
D0
350
66
  3
D1
350
67
  3
D2
350
68
  0
LAYOUT
  5
1E
102
{ACAD_REACTORS
330
1A
102
}
330
1A
100
AcDbPlotSettings
  1

  2
none_device
  4

  6

 40
0.0
 41
0.0
 42
0.0
 43
0.0
 44
0.0
 45
0.0
 46
0.0
 47
0.0
 48
0.0
 49
0.0
140
0.0
141
0.0
142
1.0
143
1.0
 70
   688
 72
     1
 73
     0
 74
     5
  7

 75
    16
147
1.0
148
0.0
149
0.0
100
AcDbLayout
  1
Layout1
 70
     1
 71
     1
 10
0.0
 20
0.0
 11
420.0
 21
297.0
 12
0.0
 22
0.0
 32
0.0
 14
1.0000000000E+20
 24
1.0000000000E+20
 34
1.0000000000E+20
 15
-1.0000000000E+20
 25
-1.0000000000E+20
 35
-1.0000000000E+20
146
0.0
 13
0.0
 23
0.0
 33
0.0
 16
1.0
 26
0.0
 36
0.0
 17
0.0
 27
1.0
 37
0.0
 76
     0
330
1B
  0
LAYOUT
  5
26
102
{ACAD_REACTORS
330
1A
102
}
330
1A
100
AcDbPlotSettings
  1

  2
none_device
  4

  6

 40
0.0
 41
0.0
 42
0.0
 43
0.0
 44
0.0
 45
0.0
 46
0.0
 47
0.0
 48
0.0
 49
0.0
140
0.0
141
0.0
142
1.0
143
1.0
 70
   688
 72
     1
 73
     0
 74
     5
  7

 75
    16
147
1.0
148
0.0
149
0.0
100
AcDbLayout
  1
Layout2
 70
     1
 71
     2
 10
0.0
 20
0.0
 11
0.0
 21
0.0
 12
0.0
 22
0.0
 32
0.0
 14
0.0
 24
0.0
 34
0.0
 15
0.0
 25
0.0
 35
0.0
146
0.0
 13
0.0
 23
0.0
 33
0.0
 16
1.0
 26
0.0
 36
0.0
 17
0.0
 27
1.0
 37
0.0
 76
     0
330
23
  0
LAYOUT
  5
22
102
{ACAD_REACTORS
330
1A
102
}
330
1A
100
AcDbPlotSettings
  1

  2
none_device
  4
Letter_(8.50_x_11.00_Inches)
  6

 40
6.35
 41
6.35
 42
6.35000508
 43
6.35000508
 44
215.9
 45
279.4
 46
0.0
 47
0.0
 48
0.0
 49
0.0
140
0.0
141
0.0
142
1.0
143
1.0
 70
  1712
 72
     1
 73
     0
 74
     0
  7

 75
     0
147
1.0
148
0.0
149
0.0
100
AcDbLayout
  1
Model
 70
     1
 71
     0
 10
0.0
 20
0.0
 11
297.0
 21
210.0
 12
0.0
 22
0.0
 32
0.0
 14
0.0
 24
0.0
 34
0.0
 15
297.0
 25
210.0
 35
0.0
146
0.0
 13
0.0
 23
0.0
 33
0.0
 16
1.0
 26
0.0
 36
0.0
 17
0.0
 27
1.0
 37
0.0
 76
     0
330
1F
331
29
  0
MLINESTYLE
  5
18
102
{ACAD_REACTORS
330
17
102
}
330
17
100
AcDbMlineStyle
  2
Standard
 70
     0
  3

 62
   256
 51
90.0
 52
90.0
 71
     2
 49
0.5
 62
   256
  6
BYLAYER
 49
-0.5
 62
   256
  6
BYLAYER
  0
ACDBPLACEHOLDER
  5
F
102
{ACAD_REACTORS
330
E
102
}
330
E
  0
SCALE
  5
48
102
{ACAD_REACTORS
330
47
102
}
330
47
100
AcDbScale
 70
     0
300
1:1
140
1.0
141
1.0
290
     1
  0
SCALE
  5
49
102
{ACAD_REACTORS
330
47
102
}
330
47
100
AcDbScale
 70
     0
300
1:2
140
1.0
141
2.0
290
     0
  0
SCALE
  5
4A
102
{ACAD_REACTORS
330
47
102
}
330
47
100
AcDbScale
 70
     0
300
1:4
140
1.0
141
4.0
290
     0
  0
SCALE
  5
4B
102
{ACAD_REACTORS
330
47
102
}
330
47
100
AcDbScale
 70
     0
300
1:5
140
1.0
141
5.0
290
     0
  0
SCALE
  5
4C
102
{ACAD_REACTORS
330
47
102
}
330
47
100
AcDbScale
 70
     0
300
1:8
140
1.0
141
8.0
290
     0
  0
SCALE
  5
4D
102
{ACAD_REACTORS
330
47
102
}
330
47
100
AcDbScale
 70
     0
300
1:10
140
1.0
141
10.0
290
     0
  0
SCALE
  5
4E
102
{ACAD_REACTORS
330
47
102
}
330
47
100
AcDbScale
 70
     0
300
1:16
140
1.0
141
16.0
290
     0
  0
SCALE
  5
4F
102
{ACAD_REACTORS
330
47
102
}
330
47
100
AcDbScale
 70
     0
300
1:20
140
1.0
141
20.0
290
     0
  0
SCALE
  5
50
102
{ACAD_REACTORS
330
47
102
}
330
47
100
AcDbScale
 70
     0
300
1:30
140
1.0
141
30.0
290
     0
  0
SCALE
  5
51
102
{ACAD_REACTORS
330
47
102
}
330
47
100
AcDbScale
 70
     0
300
1:40
140
1.0
141
40.0
290
     0
  0
SCALE
  5
52
102
{ACAD_REACTORS
330
47
102
}
330
47
100
AcDbScale
 70
     0
300
1:50
140
1.0
141
50.0
290
     0
  0
SCALE
  5
53
102
{ACAD_REACTORS
330
47
102
}
330
47
100
AcDbScale
 70
     0
300
1:100
140
1.0
141
100.0
290
     0
  0
SCALE
  5
54
102
{ACAD_REACTORS
330
47
102
}
330
47
100
AcDbScale
 70
     0
300
2:1
140
2.0
141
1.0
290
     0
  0
SCALE
  5
55
102
{ACAD_REACTORS
330
47
102
}
330
47
100
AcDbScale
 70
     0
300
4:1
140
4.0
141
1.0
290
     0
  0
SCALE
  5
56
102
{ACAD_REACTORS
330
47
102
}
330
47
100
AcDbScale
 70
     0
300
8:1
140
8.0
141
1.0
290
     0
  0
SCALE
  5
57
102
{ACAD_REACTORS
330
47
102
}
330
47
100
AcDbScale
 70
     0
300
10:1
140
10.0
141
1.0
290
     0
  0
SCALE
  5
58
102
{ACAD_REACTORS
330
47
102
}
330
47
100
AcDbScale
 70
     0
300
100:1
140
100.0
141
1.0
290
     0
  0
SCALE
  5
59
102
{ACAD_REACTORS
330
47
102
}
330
47
100
AcDbScale
 70
     0
300
1/128" = 1'-0"
140
0.0078125
141
12.0
290
     0
  0
SCALE
  5
5A
102
{ACAD_REACTORS
330
47
102
}
330
47
100
AcDbScale
 70
     0
300
1/64" = 1'-0"
140
0.015625
141
12.0
290
     0
  0
SCALE
  5
5B
102
{ACAD_REACTORS
330
47
102
}
330
47
100
AcDbScale
 70
     0
300
1/32" = 1'-0"
140
0.03125
141
12.0
290
     0
  0
SCALE
  5
5C
102
{ACAD_REACTORS
330
47
102
}
330
47
100
AcDbScale
 70
     0
300
1/16" = 1'-0"
140
0.0625
141
12.0
290
     0
  0
SCALE
  5
5D
102
{ACAD_REACTORS
330
47
102
}
330
47
100
AcDbScale
 70
     0
300
3/32" = 1'-0"
140
0.09375
141
12.0
290
     0
  0
SCALE
  5
5E
102
{ACAD_REACTORS
330
47
102
}
330
47
100
AcDbScale
 70
     0
300
1/8" = 1'-0"
140
0.125
141
12.0
290
     0
  0
SCALE
  5
5F
102
{ACAD_REACTORS
330
47
102
}
330
47
100
AcDbScale
 70
     0
300
3/16" = 1'-0"
140
0.1875
141
12.0
290
     0
  0
SCALE
  5
60
102
{ACAD_REACTORS
330
47
102
}
330
47
100
AcDbScale
 70
     0
300
1/4" = 1'-0"
140
0.25
141
12.0
290
     0
  0
SCALE
  5
61
102
{ACAD_REACTORS
330
47
102
}
330
47
100
AcDbScale
 70
     0
300
3/8" = 1'-0"
140
0.375
141
12.0
290
     0
  0
SCALE
  5
62
102
{ACAD_REACTORS
330
47
102
}
330
47
100
AcDbScale
 70
     0
300
1/2" = 1'-0"
140
0.5
141
12.0
290
     0
  0
SCALE
  5
63
102
{ACAD_REACTORS
330
47
102
}
330
47
100
AcDbScale
 70
     0
300
3/4" = 1'-0"
140
0.75
141
12.0
290
     0
  0
SCALE
  5
64
102
{ACAD_REACTORS
330
47
102
}
330
47
100
AcDbScale
 70
     0
300
1" = 1'-0"
140
1.0
141
12.0
290
     0
  0
SCALE
  5
65
102
{ACAD_REACTORS
330
47
102
}
330
47
100
AcDbScale
 70
     0
300
1-1/2" = 1'-0"
140
1.5
141
12.0
290
     0
  0
SCALE
  5
66
102
{ACAD_REACTORS
330
47
102
}
330
47
100
AcDbScale
 70
     0
300
3" = 1'-0"
140
3.0
141
12.0
290
     0
  0
SCALE
  5
67
102
{ACAD_REACTORS
330
47
102
}
330
47
100
AcDbScale
 70
     0
300
6" = 1'-0"
140
6.0
141
12.0
290
     0
  0
SCALE
  5
68
102
{ACAD_REACTORS
330
47
102
}
330
47
100
AcDbScale
 70
     0
300
1'-0" = 1'-0"
140
12.0
141
12.0
290
     0
  0
ENDSEC
  0
EOF
