  0
SECTION
  2
HEADER
  9
$ACADVER
  1
AC1015
  9
$ACADMAINTVER
 70
     6
  9
$DWGCODEPAGE
  3
ANSI_1252
  9
$INSBASE
 10
0.0
 20
0.0
 30
0.0
  9
$EXTMIN
 10
0.0
 20
0.0
 30
0.0
  9
$EXTMAX
 10
297.0
 20
210.0
 30
0.0
  9
$LIMMIN
 10
0.0
 20
0.0
  9
$LIMMAX
 10
297.0
 20
210.0
  9
$ORTHOMODE
 70
     0
  9
$REGENMODE
 70
     1
  9
$FILLMODE
 70
     1
  9
$QTEXTMODE
 70
     0
  9
$MIRRTEXT
 70
     1
  9
$LTSCALE
 40
1.0
  9
$ATTMODE
 70
     1
  9
$TEXTSIZE
 40
2.0
  9
$TRACEWID
 40
1.0
  9
$TEXTSTYLE
  7
Standard
  9
$CLAYER
  8
0
  9
$CELTYPE
  6
ByLayer
  9
$CECOLOR
 62
   256
  9
$CELTSCALE
 40
1.0
  9
$DISPSILH
 70
     0
  9
$DIMSCALE
 40
1.0
  9
$DIMASZ
 40
3.0
  9
$DIMEXO
 40
0.0
  9
$DIMDLI
 40
3.75
  9
$DIMRND
 40
0.0
  9
$DIMDLE
 40
0.0
  9
$DIMEXE
 40
1.0
  9
$DIMTP
 40
0.0
  9
$DIMTM
 40
0.0
  9
$DIMTXT
 40
2.0
  9
$DIMCEN
 40
2.5
  9
$DIMTSZ
 40
0.0
  9
$DIMTOL
 70
     0
  9
$DIMLIM
 70
     0
  9
$DIMTIH
 70
     1
  9
$DIMTOH
 70
     1
  9
$DIMSE1
 70
     0
  9
$DIMSE2
 70
     0
  9
$DIMTAD
 70
     1
  9
$DIMZIN
 70
     0
  9
$DIMBLK
  1

  9
$DIMASO
 70
     1
  9
$DIMSHO
 70
     1
  9
$DIMPOST
  1

  9
$DIMAPOST
  1

  9
$DIMALT
 70
     0
  9
$DIMALTD
 70
     3
  9
$DIMALTF
 40
0.0393700787
  9
$DIMLFAC
 40
1.0
  9
$DIMTOFL
 70
     1
  9
$DIMTVP
 40
0.0
  9
$DIMTIX
 70
     0
  9
$DIMSOXD
 70
     0
  9
$DIMSAH
 70
     0
  9
$DIMBLK1
  1

  9
$DIMBLK2
  1

  9
$DIMSTYLE
  2
ISO-25
  9
$DIMCLRD
 70
     0
  9
$DIMCLRE
 70
     0
  9
$DIMCLRT
 70
     0
  9
$DIMTFAC
 40
1.0
  9
$DIMGAP
 40
1.524
  9
$DIMJUST
 70
     0
  9
$DIMSD1
 70
     0
  9
$DIMSD2
 70
     0
  9
$DIMTOLJ
 70
     0
  9
$DIMTZIN
 70
     0
  9
$DIMALTZ
 70
     0
  9
$DIMALTTZ
 70
     0
  9
$DIMUPT
 70
     0
  9
$DIMDEC
 70
     2
  9
$DIMTDEC
 70
     3
  9
$DIMALTU
 70
     2
  9
$DIMALTTD
 70
     3
  9
$DIMTXSTY
  7
Standard
  9
$DIMAUNIT
 70
     0
  9
$DIMADEC
 70
     2
  9
$DIMALTRND
 40
0.0
  9
$DIMAZIN
 70
     0
  9
$DIMDSEP
 70
    44
  9
$DIMATFIT
 70
     3
  9
$DIMFRAC
 70
     0
  9
$DIMLDRBLK
  1

  9
$DIMLUNIT
 70
     2
  9
$DIMLWD
 70
    -2
  9
$DIMLWE
 70
    -2
  9
$DIMTMOVE
 70
     0
  9
$LUNITS
 70
     2
  9
$LUPREC
 70
     2
  9
$SKETCHINC
 40
1.0
  9
$FILLETRAD
 40
10.0
  9
$AUNITS
 70
     0
  9
$AUPREC
 70
     2
  9
$MENU
  1
.
  9
$ELEVATION
 40
0.0
  9
$PELEVATION
 40
0.0
  9
$THICKNESS
 40
0.0
  9
$LIMCHECK
 70
     0
  9
$CHAMFERA
 40
0.0
  9
$CHAMFERB
 40
0.0
  9
$CHAMFERC
 40
0.0
  9
$CHAMFERD
 40
0.0
  9
$SKPOLY
 70
     0
  9
$TDCREATE
 40
2457632.711058137
  9
$TDUCREATE
 40
2457632.627724803
  9
$TDUPDATE
 40
2457632.711059502
  9
$TDUUPDATE
 40
2457632.627726169
  9
$TDINDWG
 40
0.0000000116
  9
$TDUSRTIMER
 40
0.0000000116
  9
$USRTIMER
 70
     1
  9
$ANGBASE
 50
0.0
  9
$ANGDIR
 70
     0
  9
$PDMODE
 70
     0
  9
$PDSIZE
 40
-1.0
  9
$PLINEWID
 40
0.0
  9
$SPLFRAME
 70
     0
  9
$SPLINETYPE
 70
     6
  9
$SPLINESEGS
 70
     8
  9
$HANDSEED
  5
27C
  9
$SURFTAB1
 70
     6
  9
$SURFTAB2
 70
     6
  9
$SURFTYPE
 70
     6
  9
$SURFU
 70
     6
  9
$SURFV
 70
     6
  9
$UCSBASE
  2

  9
$UCSNAME
  2

  9
$UCSORG
 10
0.0
 20
0.0
 30
0.0
  9
$UCSXDIR
 10
1.0
 20
0.0
 30
0.0
  9
$UCSYDIR
 10
0.0
 20
1.0
 30
0.0
  9
$UCSORTHOREF
  2

  9
$UCSORTHOVIEW
 70
     0
  9
$UCSORGTOP
 10
0.0
 20
0.0
 30
0.0
  9
$UCSORGBOTTOM
 10
0.0
 20
0.0
 30
0.0
  9
$UCSORGLEFT
 10
0.0
 20
0.0
 30
0.0
  9
$UCSORGRIGHT
 10
0.0
 20
0.0
 30
0.0
  9
$UCSORGFRONT
 10
0.0
 20
0.0
 30
0.0
  9
$UCSORGBACK
 10
0.0
 20
0.0
 30
0.0
  9
$PUCSBASE
  2

  9
$PUCSNAME
  2

  9
$PUCSORG
 10
0.0
 20
0.0
 30
0.0
  9
$PUCSXDIR
 10
1.0
 20
0.0
 30
0.0
  9
$PUCSYDIR
 10
0.0
 20
1.0
 30
0.0
  9
$PUCSORTHOREF
  2

  9
$PUCSORTHOVIEW
 70
     0
  9
$PUCSORGTOP
 10
0.0
 20
0.0
 30
0.0
  9
$PUCSORGBOTTOM
 10
0.0
 20
0.0
 30
0.0
  9
$PUCSORGLEFT
 10
0.0
 20
0.0
 30
0.0
  9
$PUCSORGRIGHT
 10
0.0
 20
0.0
 30
0.0
  9
$PUCSORGFRONT
 10
0.0
 20
0.0
 30
0.0
  9
$PUCSORGBACK
 10
0.0
 20
0.0
 30
0.0
  9
$USERI1
 70
     0
  9
$USERI2
 70
     0
  9
$USERI3
 70
     0
  9
$USERI4
 70
     0
  9
$USERI5
 70
     0
  9
$USERR1
 40
0.0
  9
$USERR2
 40
0.0
  9
$USERR3
 40
0.0
  9
$USERR4
 40
0.0
  9
$USERR5
 40
0.0
  9
$WORLDVIEW
 70
     1
  9
$SHADEDGE
 70
     3
  9
$SHADEDIF
 70
    70
  9
$TILEMODE
 70
     1
  9
$MAXACTVP
 70
    64
  9
$PINSBASE
 10
0.0
 20
0.0
 30
0.0
  9
$PLIMCHECK
 70
     0
  9
$PEXTMIN
 10
1.0000000000E+20
 20
1.0000000000E+20
 30
1.0000000000E+20
  9
$PEXTMAX
 10
-1.0000000000E+20
 20
-1.0000000000E+20
 30
-1.0000000000E+20
  9
$PLIMMIN
 10
0.0
 20
0.0
  9
$PLIMMAX
 10
420.0
 20
297.0
  9
$UNITMODE
 70
     0
  9
$VISRETAIN
 70
     1
  9
$PLINEGEN
 70
     0
  9
$PSLTSCALE
 70
     1
  9
$TREEDEPTH
 70
  3020
  9
$CMLSTYLE
  2
Standard
  9
$CMLJUST
 70
     0
  9
$CMLSCALE
 40
20.0
  9
$PROXYGRAPHICS
 70
     1
  9
$MEASUREMENT
 70
     1
  9
$CELWEIGHT
370
    -1
  9
$ENDCAPS
280
     0
  9
$JOINSTYLE
280
     0
  9
$LWDISPLAY
290
     1
  9
$INSUNITS
 70
     4
  9
$HYPERLINKBASE
  1

  9
$STYLESHEET
  1

  9
$XEDIT
290
     1
  9
$CEPSNTYPE
380
     0
  9
$PSTYLEMODE
290
     1
  9
$FINGERPRINTGUID
  2
{267AA19A-EBD9-4159-BD2D-4548FC756A6B}
  9
$VERSIONGUID
  2
{FAEB1C32-E019-11D5-929B-00C0DF256EC4}
  9
$EXTNAMES
290
     1
  9
$PSVPSCALE
 40
0.0
  9
$OLESTARTUP
290
     0
  0
ENDSEC
  0
SECTION
  2
CLASSES
  0
CLASS
  1
ACDBDICTIONARYWDFLT
  2
AcDbDictionaryWithDefault
  3
ObjectDBX Classes
 90
        0
280
     0
281
     0
  0
CLASS
  1
VISUALSTYLE
  2
AcDbVisualStyle
  3
ObjectDBX Classes
 90
     4095
280
     0
281
     0
  0
CLASS
  1
MATERIAL
  2
AcDbMaterial
  3
ObjectDBX Classes
 90
     1153
280
     0
281
     0
  0
CLASS
  1
SCALE
  2
AcDbScale
  3
ObjectDBX Classes
 90
     1153
280
     0
281
     0
  0
CLASS
  1
TABLESTYLE
  2
AcDbTableStyle
  3
ObjectDBX Classes
 90
     4095
280
     0
281
     0
  0
CLASS
  1
MLEADERSTYLE
  2
AcDbMLeaderStyle
  3
ACDB_MLEADERSTYLE_CLASS
 90
     4095
280
     0
281
     0
  0
CLASS
  1
SUN
  2
AcDbSun
  3
SCENEOE
 90
     1153
280
     0
281
     0
  0
CLASS
  1
ACDBPLACEHOLDER
  2
AcDbPlaceHolder
  3
ObjectDBX Classes
 90
        0
280
     0
281
     0
  0
CLASS
  1
LAYOUT
  2
AcDbLayout
  3
ObjectDBX Classes
 90
        0
280
     0
281
     0
  0
ENDSEC
  0
SECTION
  2
TABLES
  0
TABLE
  2
VPORT
  5
8
330
0
100
AcDbSymbolTable
 70
     1
  0
VPORT
  5
29
330
8
100
AcDbSymbolTableRecord
100
AcDbViewportTableRecord
  2
*Active
 70
     0
 10
0.0
 20
0.0
 11
1.0
 21
1.0
 12
148.5
 22
105.0
 13
0.0
 23
0.0
 14
10.0
 24
10.0
 15
10.0
 25
10.0
 16
0.0
 26
0.0
 36
1.0
 17
0.0
 27
0.0
 37
0.0
 40
210.0
 41
1.4142857143
 42
50.0
 43
0.0
 44
0.0
 50
0.0
 51
0.0
 71
     0
 72
  2000
 73
     1
 74
     3
 75
     0
 76
     0
 77
     0
 78
     0
281
     0
 65
     1
110
0.0
120
0.0
130
0.0
111
1.0
121
0.0
131
0.0
112
0.0
122
1.0
132
0.0
 79
     0
146
0.0
  0
ENDTAB
  0
TABLE
  2
LTYPE
  5
5
330
0
100
AcDbSymbolTable
 70
     6
  0
LTYPE
  5
14
330
5
100
AcDbSymbolTableRecord
100
AcDbLinetypeTableRecord
  2
ByBlock
 70
     0
  3

 72
    65
 73
     0
 40
0.0
  0
LTYPE
  5
15
330
5
100
AcDbSymbolTableRecord
100
AcDbLinetypeTableRecord
  2
ByLayer
 70
     0
  3

 72
    65
 73
     0
 40
0.0
  0
LTYPE
  5
16
330
5
100
AcDbSymbolTableRecord
100
AcDbLinetypeTableRecord
  2
Continuous
 70
     0
  3
Solid line
 72
    65
 73
     0
 40
0.0
  0
LTYPE
  5
6E
330
5
100
AcDbSymbolTableRecord
100
AcDbLinetypeTableRecord
  2
HIDDEN
 70
     0
  3
Hidden __ __ __ __ __ __ __ __ __ __ __ __ __ __
 72
    65
 73
     2
 40
1.905
 49
1.27
 74
     0
 49
-0.635
 74
     0
  0
LTYPE
  5
6F
330
5
100
AcDbSymbolTableRecord
100
AcDbLinetypeTableRecord
  2
PHANTOM
 70
     0
  3
Phantom ______  __  __  ______  __  __  ______
 72
    65
 73
     6
 40
12.7
 49
6.35
 74
     0
 49
-1.27
 74
     0
 49
1.27
 74
     0
 49
-1.27
 74
     0
 49
1.27
 74
     0
 49
-1.27
 74
     0
  0
LTYPE
  5
70
330
5
100
AcDbSymbolTableRecord
100
AcDbLinetypeTableRecord
  2
CENTER
 70
     0
  3
Center ____ _ ____ _ ____ _ ____ _ ____ _ ____
 72
    65
 73
     4
 40
10.16
 49
6.35
 74
     0
 49
-1.27
 74
     0
 49
1.27
 74
     0
 49
-1.27
 74
     0
  0
LTYPE
  5
71
330
5
100
AcDbSymbolTableRecord
100
AcDbLinetypeTableRecord
  2
CENTERX2
 70
     0
  3
Center (2x) ________  __  ________  __  _____
 72
    65
 73
     4
 40
20.32
 49
12.7
 74
     0
 49
-2.54
 74
     0
 49
2.54
 74
     0
 49
-2.54
 74
     0
  0
LTYPE
  5
72
330
5
100
AcDbSymbolTableRecord
100
AcDbLinetypeTableRecord
  2
DOT2
 70
     0
  3
Dot (.5x) ........................................
 72
    65
 73
     2
 40
0.635
 49
0.0
 74
     0
 49
-0.635
 74
     0
  0
ENDTAB
  0
TABLE
  2
LAYER
  5
2
330
0
100
AcDbSymbolTable
 70
     5
  0
LAYER
  5
10
330
2
100
AcDbSymbolTableRecord
100
AcDbLayerTableRecord
  2
0
 70
     0
 62
     7
  6
Continuous
370
    -3
390
F
  0
LAYER
  5
73
330
2
100
AcDbSymbolTableRecord
100
AcDbLayerTableRecord
  2
FORMAT
 70
     0
 62
     7
  6
Continuous
370
    -3
390
F
  0
LAYER
  5
74
330
2
100
AcDbSymbolTableRecord
100
AcDbLayerTableRecord
  2
VERMASSUNG
 70
     0
 62
     7
  6
Continuous
370
    -3
390
F
  0
LAYER
  5
75
330
2
100
AcDbSymbolTableRecord
100
AcDbLayerTableRecord
  2
KOPF_DÜNN
 70
     0
 62
     7
  6
Continuous
370
    -3
390
F
  0
LAYER
  5
76
330
2
100
AcDbSymbolTableRecord
100
AcDbLayerTableRecord
  2
KOPF_DICK
 70
     0
 62
     7
  6
Continuous
370
    15
390
F
  0
ENDTAB
  0
TABLE
  2
STYLE
  5
3
330
0
100
AcDbSymbolTable
 70
     3
  0
STYLE
  5
11
330
3
100
AcDbSymbolTableRecord
100
AcDbTextStyleTableRecord
  2
Standard
 70
     0
 40
0.0
 41
1.0
 50
0.0
 71
     0
 42
2.0
  3
txt
  4

  0
STYLE
  5
77
330
3
100
AcDbSymbolTableRecord
100
AcDbTextStyleTableRecord
  2
SLDTEXTSTYLE0
 70
     0
 40
0.0
 41
0.7
 50
0.0
 71
     0
 42
2.0
  3
TXT
  4

  0
STYLE
  5
7B
330
3
100
AcDbSymbolTableRecord
100
AcDbTextStyleTableRecord
  2
SLDTEXTSTYLE1
 70
     0
 40
0.0
 41
0.6411764706
 50
0.0
 71
     0
 42
2.0
  3
TXT
  4

  0
ENDTAB
  0
TABLE
  2
VIEW
  5
6
330
0
100
AcDbSymbolTable
 70
     0
  0
ENDTAB
  0
TABLE
  2
UCS
  5
7
330
0
100
AcDbSymbolTable
 70
     0
  0
ENDTAB
  0
TABLE
  2
APPID
  5
9
330
0
100
AcDbSymbolTable
 70
     1
  0
APPID
  5
12
330
9
100
AcDbSymbolTableRecord
100
AcDbRegAppTableRecord
  2
ACAD
 70
     0
  0
ENDTAB
  0
TABLE
  2
DIMSTYLE
  5
A
330
0
100
AcDbSymbolTable
 70
     2
100
AcDbDimStyleTable
  0
DIMSTYLE
105
27
330
A
100
AcDbSymbolTableRecord
100
AcDbDimStyleTableRecord
  2
ISO-25
 70
     0
 41
2.5
 42
0.625
 43
3.75
 44
1.25
 73
     0
 74
     0
 77
     1
 78
     8
140
2.5
141
2.5
143
0.0393700787
147
0.625
171
     3
172
     1
178
     0
271
     2
272
     2
274
     3
278
    44
283
     0
284
     8
340
11
  0
DIMSTYLE
105
178
102
{ACAD_REACTORS
330
177
330
184
330
18E
330
198
330
1A2
102
}
330
A
100
AcDbSymbolTableRecord
100
AcDbDimStyleTableRecord
  2
SLDDIMSTYLE0
 70
     0
 41
3.0
 44
0.0
 45
0.000000001
 73
     0
 74
     0
 77
     1
 78
    12
 79
     3
140
2.0
147
0.5
173
     1
178
     0
271
     2
272
     3
276
     2
284
    12
340
77
  0
ENDTAB
  0
TABLE
  2
BLOCK_RECORD
  5
1
330
0
100
AcDbSymbolTable
 70
     6
  0
BLOCK_RECORD
  5
1F
330
1
100
AcDbSymbolTableRecord
100
AcDbBlockTableRecord
  2
*Model_Space
340
22
  0
BLOCK_RECORD
  5
1B
330
1
100
AcDbSymbolTableRecord
100
AcDbBlockTableRecord
  2
*Paper_Space
340
1E
  0
BLOCK_RECORD
  5
23
330
1
100
AcDbSymbolTableRecord
100
AcDbBlockTableRecord
  2
*Paper_Space0
340
26
  0
BLOCK_RECORD
  5
179
330
1
100
AcDbSymbolTableRecord
100
AcDbBlockTableRecord
  2
_D
340
0
  0
BLOCK_RECORD
  5
185
330
1
100
AcDbSymbolTableRecord
100
AcDbBlockTableRecord
  2
_D_1
340
0
  0
BLOCK_RECORD
  5
18F
330
1
100
AcDbSymbolTableRecord
100
AcDbBlockTableRecord
  2
_D_2
340
0
  0
BLOCK_RECORD
  5
199
330
1
100
AcDbSymbolTableRecord
100
AcDbBlockTableRecord
  2
_D_3
340
0
  0
BLOCK_RECORD
  5
1A3
330
1
100
AcDbSymbolTableRecord
100
AcDbBlockTableRecord
  2
_D_4
340
0
  0
ENDTAB
  0
ENDSEC
  0
SECTION
  2
BLOCKS
  0
BLOCK
  5
20
330
1F
100
AcDbEntity
  8
0
100
AcDbBlockBegin
  2
*Model_Space
 70
     0
 10
0.0
 20
0.0
 30
0.0
  3
*Model_Space
  1

  0
ENDBLK
  5
21
330
1F
100
AcDbEntity
  8
0
100
AcDbBlockEnd
  0
BLOCK
  5
1C
330
1B
100
AcDbEntity
 67
     1
  8
0
100
AcDbBlockBegin
  2
*Paper_Space
 70
     0
 10
0.0
 20
0.0
 30
0.0
  3
*Paper_Space
  1

  0
ENDBLK
  5
1D
330
1B
100
AcDbEntity
 67
     1
  8
0
100
AcDbBlockEnd
  0
BLOCK
  5
24
330
23
100
AcDbEntity
  8
0
100
AcDbBlockBegin
  2
*Paper_Space0
 70
     0
 10
0.0
 20
0.0
 30
0.0
  3
*Paper_Space0
  1

  0
ENDBLK
  5
25
330
23
100
AcDbEntity
  8
0
100
AcDbBlockEnd
  0
BLOCK
  5
17A
330
179
100
AcDbEntity
  8
0
100
AcDbBlockBegin
  2
_D
 70
     0
 10
0.0
 20
0.0
 30
0.0
  3
_D
  1

  0
SOLID
  5
17C
330
179
100
AcDbEntity
  8
VERMASSUNG
100
AcDbTrace
 10
82.5623408624
 20
152.153613963
 30
0.0
 11
82.1123408624
 21
149.153613963
 31
0.0
 12
83.0123408624
 22
149.153613963
 32
0.0
 13
83.0123408624
 23
149.153613963
 33
0.0
  0
SOLID
  5
17D
330
179
100
AcDbEntity
  8
VERMASSUNG
100
AcDbTrace
 10
82.5623408624
 20
72.153613963
 30
0.0
 11
83.0123408624
 21
75.153613963
 31
0.0
 12
82.1123408624
 22
75.153613963
 32
0.0
 13
82.1123408624
 23
75.153613963
 33
0.0
  0
LINE
  5
17E
330
179
100
AcDbEntity
  8
VERMASSUNG
100
AcDbLine
 10
130.0169199179
 20
152.153613963
 30
0.0
 11
81.5623408624
 21
152.153613963
 31
0.0
  0
LINE
  5
17F
330
179
100
AcDbEntity
  8
VERMASSUNG
100
AcDbLine
 10
130.0169199179
 20
72.153613963
 30
0.0
 11
81.5623408624
 21
72.153613963
 31
0.0
  0
LINE
  5
180
330
179
100
AcDbEntity
  8
VERMASSUNG
100
AcDbLine
 10
82.5623408624
 20
152.153613963
 30
0.0
 11
82.5623408624
 21
72.153613963
 31
0.0
  0
MTEXT
  5
181
330
179
100
AcDbEntity
  8
VERMASSUNG
100
AcDbMText
 10
79.7842056062
 20
104.44925248
 30
0.0
 40
2.0
 41
0.0
 71
     1
 72
     1
  1
HSK A
  7
SLDTEXTSTYLE0
 11
-7.044195017643634E-15
 21
1.0
 31
0.0
 73
     1
 44
1.0
  0
MTEXT
  5
182
330
179
100
AcDbEntity
  8
VERMASSUNG
100
AcDbMText
 10
79.9842055575
 20
113.4492520926
 30
0.0
 40
2.0
 41
0.0
 71
     1
 72
     1
  1
%%c
  7
SLDTEXTSTYLE0
 11
-7.044195017643634E-15
 21
1.0
 31
0.0
 73
     1
 44
1.0
  0
MTEXT
  5
183
330
179
100
AcDbEntity
  8
VERMASSUNG
100
AcDbMText
 10
79.9842052665
 20
117.0585954254
 30
0.0
 40
2.0
 41
0.0
 71
     1
 72
     1
  1
80
  7
SLDTEXTSTYLE0
 11
-7.044195017643634E-15
 21
1.0
 31
0.0
 73
     1
 44
1.0
  0
ENDBLK
  5
17B
330
179
100
AcDbEntity
  8
0
100
AcDbBlockEnd
  0
BLOCK
  5
186
330
185
100
AcDbEntity
  8
0
100
AcDbBlockBegin
  2
_D_1
 70
     0
 10
0.0
 20
0.0
 30
0.0
  3
_D_1
  1

  0
SOLID
  5
188
330
185
100
AcDbEntity
  8
VERMASSUNG
100
AcDbTrace
 10
89.6169199179
 20
166.8458425867
 30
0.0
 11
92.6169199179
 21
166.3958425867
 31
0.0
 12
92.6169199179
 22
167.2958425867
 32
0.0
 13
92.6169199179
 23
167.2958425867
 33
0.0
  0
SOLID
  5
189
330
185
100
AcDbEntity
  8
VERMASSUNG
100
AcDbTrace
 10
205.5169199179
 20
166.8458425867
 30
0.0
 11
202.5169199179
 21
167.2958425867
 31
0.0
 12
202.5169199179
 22
166.3958425867
 32
0.0
 13
202.5169199179
 23
166.3958425867
 33
0.0
  0
LINE
  5
18A
330
185
100
AcDbEntity
  8
VERMASSUNG
100
AcDbLine
 10
89.6169199179
 20
136.3204923987
 30
0.0
 11
89.6169199179
 21
167.8458425867
 31
0.0
  0
LINE
  5
18B
330
185
100
AcDbEntity
  8
VERMASSUNG
100
AcDbLine
 10
205.5169199179
 20
147.453613963
 30
0.0
 11
205.5169199179
 21
167.8458425867
 31
0.0
  0
LINE
  5
18C
330
185
100
AcDbEntity
  8
VERMASSUNG
100
AcDbLine
 10
89.6169199179
 20
166.8458425867
 30
0.0
 11
205.5169199179
 21
166.8458425867
 31
0.0
  0
MTEXT
  5
18D
330
185
100
AcDbEntity
  8
VERMASSUNG
100
AcDbMText
 10
144.8679116789
 20
169.4239781827
 30
0.0
 40
2.0
 41
0.0
 71
     1
 72
     1
  1
115.9
  7
SLDTEXTSTYLE0
 73
     1
 44
1.0
  0
ENDBLK
  5
187
330
185
100
AcDbEntity
  8
0
100
AcDbBlockEnd
  0
BLOCK
  5
190
330
18F
100
AcDbEntity
  8
0
100
AcDbBlockBegin
  2
_D_2
 70
     0
 10
0.0
 20
0.0
 30
0.0
  3
_D_2
  1

  0
SOLID
  5
192
330
18F
100
AcDbEntity
  8
VERMASSUNG
100
AcDbTrace
 10
129.5169199179
 20
160.8458425867
 30
0.0
 11
132.5169199179
 21
160.3958425867
 31
0.0
 12
132.5169199179
 22
161.2958425867
 32
0.0
 13
132.5169199179
 23
161.2958425867
 33
0.0
  0
SOLID
  5
193
330
18F
100
AcDbEntity
  8
VERMASSUNG
100
AcDbTrace
 10
205.5169199179
 20
160.8458425867
 30
0.0
 11
202.5169199179
 21
161.2958425867
 31
0.0
 12
202.5169199179
 22
160.3958425867
 32
0.0
 13
202.5169199179
 23
160.3958425867
 33
0.0
  0
LINE
  5
194
330
18F
100
AcDbEntity
  8
VERMASSUNG
100
AcDbLine
 10
129.5169199179
 20
151.653613963
 30
0.0
 11
129.5169199179
 21
161.8458425867
 31
0.0
  0
LINE
  5
195
330
18F
100
AcDbEntity
  8
VERMASSUNG
100
AcDbLine
 10
205.5169199179
 20
147.453613963
 30
0.0
 11
205.5169199179
 21
161.8458425867
 31
0.0
  0
LINE
  5
196
330
18F
100
AcDbEntity
  8
VERMASSUNG
100
AcDbLine
 10
129.5169199179
 20
160.8458425867
 30
0.0
 11
205.5169199179
 21
160.8458425867
 31
0.0
  0
MTEXT
  5
197
330
18F
100
AcDbEntity
  8
VERMASSUNG
100
AcDbMText
 10
166.1172299076
 20
163.4239781827
 30
0.0
 40
2.0
 41
0.0
 71
     1
 72
     1
  1
76
  7
SLDTEXTSTYLE0
 73
     1
 44
1.0
  0
ENDBLK
  5
191
330
18F
100
AcDbEntity
  8
0
100
AcDbBlockEnd
  0
BLOCK
  5
19A
330
199
100
AcDbEntity
  8
0
100
AcDbBlockBegin
  2
_D_3
 70
     0
 10
0.0
 20
0.0
 30
0.0
  3
_D_3
  1

  0
SOLID
  5
19C
330
199
100
AcDbEntity
  8
VERMASSUNG
100
AcDbTrace
 10
155.4669199179
 20
154.8458425867
 30
0.0
 11
158.4669199179
 21
154.3958425867
 31
0.0
 12
158.4669199179
 22
155.2958425867
 32
0.0
 13
158.4669199179
 23
155.2958425867
 33
0.0
  0
SOLID
  5
19D
330
199
100
AcDbEntity
  8
VERMASSUNG
100
AcDbTrace
 10
205.5169199179
 20
154.8458425867
 30
0.0
 11
202.5169199179
 21
155.2958425867
 31
0.0
 12
202.5169199179
 22
154.3958425867
 32
0.0
 13
202.5169199179
 23
154.3958425867
 33
0.0
  0
LINE
  5
19E
330
199
100
AcDbEntity
  8
VERMASSUNG
100
AcDbLine
 10
155.4669199179
 20
150.1009458851
 30
0.0
 11
155.4669199179
 21
155.8458425867
 31
0.0
  0
LINE
  5
19F
330
199
100
AcDbEntity
  8
VERMASSUNG
100
AcDbLine
 10
205.5169199179
 20
147.453613963
 30
0.0
 11
205.5169199179
 21
155.8458425867
 31
0.0
  0
LINE
  5
1A0
330
199
100
AcDbEntity
  8
VERMASSUNG
100
AcDbLine
 10
155.4669199179
 20
154.8458425867
 30
0.0
 11
205.5169199179
 21
154.8458425867
 31
0.0
  0
MTEXT
  5
1A1
330
199
100
AcDbEntity
  8
VERMASSUNG
100
AcDbMText
 10
177.3925275389
 20
157.4239781827
 30
0.0
 40
2.0
 41
0.0
 71
     1
 72
     1
  1
50.05
  7
SLDTEXTSTYLE0
 73
     1
 44
1.0
  0
ENDBLK
  5
19B
330
199
100
AcDbEntity
  8
0
100
AcDbBlockEnd
  0
BLOCK
  5
1A4
330
1A3
100
AcDbEntity
  8
0
100
AcDbBlockBegin
  2
_D_4
 70
     0
 10
0.0
 20
0.0
 30
0.0
  3
_D_4
  1

  0
SOLID
  5
1A6
330
1A3
100
AcDbEntity
  8
VERMASSUNG
100
AcDbTrace
 10
216.6148459959
 20
148.153613963
 30
0.0
 11
216.1648459959
 21
145.153613963
 31
0.0
 12
217.0648459959
 22
145.153613963
 32
0.0
 13
217.0648459959
 23
145.153613963
 33
0.0
  0
SOLID
  5
1A7
330
1A3
100
AcDbEntity
  8
VERMASSUNG
100
AcDbTrace
 10
216.6148459959
 20
76.153613963
 30
0.0
 11
217.0648459959
 21
79.153613963
 31
0.0
 12
216.1648459959
 22
79.153613963
 32
0.0
 13
216.1648459959
 23
79.153613963
 33
0.0
  0
LINE
  5
1A8
330
1A3
100
AcDbEntity
  8
VERMASSUNG
100
AcDbLine
 10
204.8169199179
 20
148.153613963
 30
0.0
 11
217.6148459959
 21
148.153613963
 31
0.0
  0
LINE
  5
1A9
330
1A3
100
AcDbEntity
  8
VERMASSUNG
100
AcDbLine
 10
204.8169199179
 20
76.153613963
 30
0.0
 11
217.6148459959
 21
76.153613963
 31
0.0
  0
LINE
  5
1AA
330
1A3
100
AcDbEntity
  8
VERMASSUNG
100
AcDbLine
 10
216.6148459959
 20
148.153613963
 30
0.0
 11
216.6148459959
 21
76.153613963
 31
0.0
  0
MTEXT
  5
1AB
330
1A3
100
AcDbEntity
  8
VERMASSUNG
100
AcDbMText
 10
213.8367107397
 20
105.7486143195
 30
0.0
 40
2.0
 41
0.0
 71
     1
 72
     1
  1
MBM
  7
SLDTEXTSTYLE0
 11
-7.044195017643634E-15
 21
1.0
 31
0.0
 73
     1
 44
1.0
  0
MTEXT
  5
1AC
330
1A3
100
AcDbEntity
  8
VERMASSUNG
100
AcDbMText
 10
214.036710691
 20
112.1486141578
 30
0.0
 40
2.0
 41
0.0
 71
     1
 72
     1
  1
%%c
  7
SLDTEXTSTYLE0
 11
-7.044195017643634E-15
 21
1.0
 31
0.0
 73
     1
 44
1.0
  0
MTEXT
  5
1AD
330
1A3
100
AcDbEntity
  8
VERMASSUNG
100
AcDbMText
 10
213.8367107397
 20
115.7586146378
 30
0.0
 40
2.0
 41
0.0
 71
     1
 72
     1
  1
72
  7
SLDTEXTSTYLE0
 11
-7.044195017643634E-15
 21
1.0
 31
0.0
 73
     1
 44
1.0
  0
ENDBLK
  5
1A5
330
1A3
100
AcDbEntity
  8
0
100
AcDbBlockEnd
  0
ENDSEC
  0
SECTION
  2
ENTITIES
  0
MTEXT
  5
78
330
1F
100
AcDbEntity
  8
KOPF_DÜNN
100
AcDbMText
 10
13.8892156294
 20
23.8442973028
 30
0.0
 40
3.0
 41
0.0
 71
     1
 72
     1
  1
102.080.721
  7
SLDTEXTSTYLE0
 73
     1
 44
1.0
  0
MTEXT
  5
79
330
1F
100
AcDbEntity
  8
VERMASSUNG
100
AcDbMText
 10
13.9329988022
 20
28.8834360957
 30
0.0
 40
3.0
 41
0.0
 71
     1
 72
     1
  1
Aufnahme_Master shank MBM 72
  7
SLDTEXTSTYLE0
 73
     1
 44
1.0
  0
MTEXT
  5
7A
330
1F
100
AcDbEntity
  8
VERMASSUNG
100
AcDbMText
 10
98.8601118557
 20
13.8365368761
 30
0.0
 40
2.0
 41
0.0
 71
     1
 72
     1
  1
Datum: 20.11.2007
  7
SLDTEXTSTYLE0
 73
     1
 44
1.0
  0
MTEXT
  5
7C
330
1F
100
AcDbEntity
  8
VERMASSUNG
100
AcDbMText
 10
13.933048693
 20
18.0482802738
 30
0.0
 40
2.0
 41
0.0
 71
     1
 72
     1
  1
HSK A 80 / MBM 72
  7
SLDTEXTSTYLE1
 73
     1
 44
1.0
  0
MTEXT
  5
7D
330
1F
100
AcDbEntity
  8
VERMASSUNG
100
AcDbMText
 10
13.9808475933
 20
13.9090974274
 30
0.0
 40
2.0
 41
0.0
 71
     1
 72
     1
  1
Gewicht: 2155g
  7
SLDTEXTSTYLE0
 73
     1
 44
1.0
  0
LINE
  5
7E
330
1F
100
AcDbEntity
  8
0
  6
Continuous
 62
     7
370
    15
100
AcDbLine
 10
130.0169199179
 20
72.153613963
 30
0.0
 11
133.4669199179
 21
72.153613963
 31
0.0
  0
LINE
  5
7F
330
1F
100
AcDbEntity
  8
0
  6
Continuous
 62
     7
370
    15
100
AcDbLine
 10
133.4979743356
 20
152.153613963
 30
0.0
 11
130.0169199179
 21
152.153613963
 31
0.0
  0
ARC
  5
80
330
1F
100
AcDbEntity
  8
0
  6
Continuous
 62
     7
370
    15
100
AcDbCircle
 10
130.0169199179
 20
72.653613963
 30
0.0
 40
0.5
100
AcDbArc
 50
180.0
 51
270.0
  0
ARC
  5
81
330
1F
100
AcDbEntity
  8
0
  6
Continuous
 62
     7
370
    15
100
AcDbCircle
 10
130.0169199179
 20
151.653613963
 30
0.0
 40
0.5
100
AcDbArc
 50
90.0
 51
180.0
  0
LINE
  5
82
330
1F
100
AcDbEntity
  8
0
  6
Continuous
 62
     7
370
    15
100
AcDbLine
 10
204.8169199179
 20
76.153613963
 30
0.0
 11
205.5169199179
 21
76.853613963
 31
0.0
  0
LINE
  5
83
330
1F
100
AcDbEntity
  8
0
  6
Continuous
 62
     7
370
    15
100
AcDbLine
 10
205.5169199179
 20
147.453613963
 30
0.0
 11
204.8169199179
 21
148.153613963
 31
0.0
  0
ARC
  5
84
330
1F
100
AcDbEntity
  8
0
  6
Continuous
 62
     7
370
    15
100
AcDbCircle
 10
172.5169199179
 20
77.153613963
 30
0.0
 40
1.0
100
AcDbArc
 50
180.0
 51
270.0
  0
ARC
  5
85
330
1F
100
AcDbEntity
  8
0
  6
Continuous
 62
     7
370
    15
100
AcDbCircle
 10
172.5169199179
 20
147.153613963
 30
0.0
 40
1.0
100
AcDbArc
 50
90.0
 51
180.0
  0
LINE
  5
86
330
1F
100
AcDbEntity
  8
0
  6
Continuous
 62
     7
370
    15
100
AcDbLine
 10
172.5169199179
 20
76.153613963
 30
0.0
 11
204.8169199179
 21
76.153613963
 31
0.0
  0
LINE
  5
87
330
1F
100
AcDbEntity
  8
0
  6
Continuous
 62
     7
370
    15
100
AcDbLine
 10
204.8169199179
 20
148.153613963
 30
0.0
 11
172.5169199179
 21
148.153613963
 31
0.0
  0
ARC
  5
88
330
1F
100
AcDbEntity
  8
0
  6
Continuous
 62
     7
370
    15
100
AcDbCircle
 10
170.5169199179
 20
77.653613963
 30
0.0
 40
1.0
100
AcDbArc
 50
0.0
 51
90.0
  0
ARC
  5
89
330
1F
100
AcDbEntity
  8
0
  6
Continuous
 62
     7
370
    15
100
AcDbCircle
 10
170.5169199179
 20
146.653613963
 30
0.0
 40
1.0
100
AcDbArc
 50
270.0
 51
0.0
  0
ARC
  5
8A
330
1F
100
AcDbEntity
  8
0
  6
Continuous
 62
     7
370
    15
100
AcDbCircle
 10
156.4669199179
 20
77.653613963
 30
0.0
 40
1.0
100
AcDbArc
 50
90.0
 51
143.1140388679
  0
ARC
  5
8B
330
1F
100
AcDbEntity
  8
0
  6
Continuous
 62
     7
370
    15
100
AcDbCircle
 10
156.4669199179
 20
146.653613963
 30
0.0
 40
1.000000000000006
100
AcDbArc
 50
216.9033117432
 51
270.0
  0
LINE
  5
8C
330
1F
100
AcDbEntity
  8
0
  6
Continuous
 62
     7
370
    15
100
AcDbLine
 10
156.4669199179
 20
78.653613963
 30
0.0
 11
170.5169199179
 21
78.653613963
 31
0.0
  0
LINE
  5
8D
330
1F
100
AcDbEntity
  8
0
  6
Continuous
 62
     7
370
    15
100
AcDbLine
 10
170.5169199179
 20
145.653613963
 30
0.0
 11
156.4669199179
 21
145.653613963
 31
0.0
  0
ARC
  5
8E
330
1F
100
AcDbEntity
  8
0
  6
Continuous
 62
     7
370
    15
100
AcDbCircle
 10
128.6199829994
 20
81.1258290394
 30
0.0
 40
0.9962338214386983
100
AcDbArc
 50
25.7988228126
 51
90.0
  0
ARC
  5
8F
330
1F
100
AcDbEntity
  8
0
  6
Continuous
 62
     7
370
    15
100
AcDbCircle
 10
128.6199829994
 20
143.1813988867
 30
0.0
 40
0.9962338214387216
100
AcDbArc
 50
270.0
 51
334.2011771874
  0
LINE
  5
90
330
1F
100
AcDbEntity
  8
0
  6
Continuous
 62
     7
370
    15
100
AcDbLine
 10
127.0169199179
 20
81.8720628608
 30
0.0
 11
127.8227660722
 21
82.0879886871
 31
0.0
  0
LINE
  5
91
330
1F
100
AcDbEntity
  8
0
  6
Continuous
 62
     7
370
    15
100
AcDbLine
 10
127.8227660722
 20
142.219239239
 30
0.0
 11
127.0169199179
 21
142.4351650652
 31
0.0
  0
LINE
  5
92
330
1F
100
AcDbEntity
  8
0
  6
Continuous
 62
     7
370
    15
100
AcDbLine
 10
112.7780552609
 20
141.7217950924
 30
0.0
 11
97.7169199179
 21
140.9672291935
 31
0.0
  0
LINE
  5
93
330
1F
100
AcDbEntity
  8
0
  6
Continuous
 62
     7
370
    15
100
AcDbLine
 10
127.0169199179
 20
142.4351650652
 30
0.0
 11
122.2068983397
 21
142.1941820202
 31
0.0
  0
LINE
  5
94
330
1F
100
AcDbEntity
  8
0
  6
Continuous
 62
     7
370
    15
100
AcDbLine
 10
122.2069397162
 20
82.1130438329
 30
0.0
 11
127.0169199179
 21
81.8720628608
 31
0.0
  0
LINE
  5
95
330
1F
100
AcDbEntity
  8
0
  6
Continuous
 62
     7
370
    15
100
AcDbLine
 10
101.7169199179
 20
83.139597931
 30
0.0
 11
112.7784802674
 21
82.5854115407
 31
0.0
  0
ARC
  5
96
330
1F
100
AcDbEntity
  8
0
  6
Continuous
 62
     7
370
    15
100
AcDbCircle
 10
128.0815851173
 20
81.1220628608
 30
0.0
 40
1.000000000000007
100
AcDbArc
 50
90.0
 51
105.0
  0
ARC
  5
97
330
1F
100
AcDbEntity
  8
0
  6
Continuous
 62
     7
370
    15
100
AcDbCircle
 10
128.0815851173
 20
143.1851650652
 30
0.0
 40
1.000000000000034
100
AcDbArc
 50
255.0
 51
270.0
  0
LINE
  5
98
330
1F
100
AcDbEntity
  8
0
  6
Continuous
 62
     7
370
    15
100
AcDbLine
 10
128.0815851173
 20
82.1220628608
 30
0.0
 11
128.6199829994
 21
82.1220628608
 31
0.0
  0
LINE
  5
99
330
1F
100
AcDbEntity
  8
0
  6
Continuous
 62
     7
370
    15
100
AcDbLine
 10
128.6199829994
 20
142.1851650652
 30
0.0
 11
128.0815851173
 21
142.1851650652
 31
0.0
  0
LINE
  5
9A
330
1F
100
AcDbEntity
  8
0
  6
Continuous
 62
     7
370
    15
100
AcDbLine
 10
91.2669199179
 20
86.333613963
 30
0.0
 11
99.8169199179
 21
86.333613963
 31
0.0
  0
ARC
  5
9B
330
1F
100
AcDbEntity
  8
0
  6
Continuous
 62
     7
370
    15
100
AcDbCircle
 10
99.8169199179
 20
84.433613963
 30
0.0
 40
1.900000000000007
100
AcDbArc
 50
42.9692748872
 51
90.0
  0
LINE
  5
9C
330
1F
100
AcDbEntity
  8
0
  6
Continuous
 62
     7
370
    15
100
AcDbLine
 10
91.2669199179
 20
137.973613963
 30
0.0
 11
89.6169304228
 21
136.323624468
 31
0.0
  0
LINE
  5
9D
330
1F
100
AcDbEntity
  8
0
  6
Continuous
 62
     7
370
    15
100
AcDbLine
 10
89.6133158942
 20
87.9872179867
 30
0.0
 11
91.2669199179
 21
86.333613963
 31
0.0
  0
ARC
  5
9E
330
1F
100
AcDbEntity
  8
0
  6
Continuous
 62
     7
370
    15
100
AcDbCircle
 10
95.8169199179
 20
139.873613963
 30
0.0
 40
1.900000000000016
100
AcDbArc
 50
270.0
 51
304.9134135452
  0
LINE
  5
9F
330
1F
100
AcDbEntity
  8
0
  6
Continuous
 62
     7
370
    15
100
AcDbLine
 10
95.8169199179
 20
137.973613963
 30
0.0
 11
91.2669199179
 21
137.973613963
 31
0.0
  0
SPLINE
  5
A0
330
1F
100
AcDbEntity
  8
0
  6
Continuous
 62
     7
370
    15
100
AcDbSpline
210
0.0
220
0.0
230
1.0
 70
    24
 71
     3
 72
    13
 73
     9
 74
     0
 42
0.000000001
 43
0.00000001
 40
0.0
 40
0.0
 40
0.0
 40
0.0
 40
0.1301201910016562
 40
0.3058399681546553
 40
0.4811172548045937
 40
0.6482794157520975
 40
0.8157704970829809
 40
1.0
 40
1.0
 40
1.0
 40
1.0
 10
181.3947960792032
 20
111.498620117817
 30
0.0
 10
181.4651333415637
 20
111.6740549063552
 30
0.0
 10
181.6304570005193
 20
112.0864042099237
 30
0.0
 10
181.906040292713
 20
112.7737624460592
 30
0.0
 10
182.2151550378016
 20
113.5447546359564
 30
0.0
 10
182.5209189846256
 20
114.3073892844134
 30
0.0
 10
182.8225658282747
 20
115.059755078203
 30
0.0
 10
183.0135697693493
 20
115.5361559912877
 30
0.0
 10
183.1136166892491
 20
115.7856924339571
 30
0.0
  0
SPLINE
  5
A1
330
1F
100
AcDbEntity
  8
0
  6
Continuous
 62
     7
370
    15
100
AcDbSpline
210
0.0
220
0.0
230
1.0
 70
    24
 71
     3
 72
    11
 73
     7
 74
     0
 42
0.000000001
 43
0.00000001
 40
0.0
 40
0.0
 40
0.0
 40
0.0
 40
0.2164567244934134
 40
0.4403141600939093
 40
0.7519028444798561
 40
1.0
 40
1.0
 40
1.0
 40
1.0
 10
184.2480993078185
 20
107.8665416468989
 30
0.0
 10
184.0526440326018
 20
108.1153441190731
 30
0.0
 10
183.6550508160159
 20
108.6214556839647
 30
0.0
 10
182.9172261219541
 20
109.560660868937
 30
0.0
 10
182.1257815897464
 20
110.5681207903111
 30
0.0
 10
181.6193061603996
 20
111.2128326753049
 30
0.0
 10
181.3947960792032
 20
111.498620117817
 30
0.0
  0
SPLINE
  5
A2
330
1F
100
AcDbEntity
  8
0
  6
Continuous
 62
     7
370
    15
100
AcDbSpline
210
0.0
220
0.0
230
1.0
 70
    24
 71
     3
 72
    11
 73
     7
 74
     0
 42
0.000000001
 43
0.00000001
 40
0.0
 40
0.0
 40
0.0
 40
0.0
 40
0.2164567244934123
 40
0.4403141600939067
 40
0.7519028444798544
 40
0.9999999999999999
 40
0.9999999999999999
 40
0.9999999999999999
 40
0.9999999999999999
 10
188.8202231464798
 20
108.5215354921209
 30
0.0
 10
188.5070262474442
 20
108.4766674945666
 30
0.0
 10
187.869924166806
 20
108.3853974510767
 30
0.0
 10
186.6876362702231
 20
108.2160251149658
 30
0.0
 10
185.4194281189145
 20
108.0343440050747
 30
0.0
 10
184.6078535337148
 20
107.9180793593646
 30
0.0
 10
184.2480993078185
 20
107.8665416468989
 30
0.0
  0
SPLINE
  5
A3
330
1F
100
AcDbEntity
  8
0
  6
Continuous
 62
     7
370
    15
100
AcDbSpline
210
0.0
220
0.0
230
1.0
 70
    24
 71
     3
 72
    13
 73
     9
 74
     0
 42
0.000000001
 43
0.00000001
 40
0.0
 40
0.0
 40
0.0
 40
0.0
 40
0.1842295029170189
 40
0.3517205842479024
 40
0.5188827451954061
 40
0.6941600318453445
 40
0.8698798089983435
 40
1.0
 40
1.0
 40
1.0
 40
1.0
 10
190.5390437565258
 20
112.808607808261
 30
0.0
 10
190.4389968366259
 20
112.5590713655916
 30
0.0
 10
190.2479928955513
 20
112.0826704525069
 30
0.0
 10
189.9463460519022
 20
111.3303046587173
 30
0.0
 10
189.6405821050782
 20
110.5676700102603
 30
0.0
 10
189.3314673599896
 20
109.7966778203631
 30
0.0
 10
189.0558840677959
 20
109.1093195842276
 30
0.0
 10
188.8905604088403
 20
108.6969702806591
 30
0.0
 10
188.8202231464798
 20
108.5215354921209
 30
0.0
  0
SPLINE
  5
A4
330
1F
100
AcDbEntity
  8
0
  6
Continuous
 62
     7
370
    15
100
AcDbSpline
210
0.0
220
0.0
230
1.0
 70
    24
 71
     3
 72
    11
 73
     7
 74
     0
 42
0.000000001
 43
0.00000001
 40
0.0
 40
0.0
 40
0.0
 40
0.0
 40
0.2164567244934124
 40
0.4403141600939122
 40
0.751902844479854
 40
1.0
 40
1.0
 40
1.0
 40
1.0
 10
183.1136166892491
 20
115.7856924339571
 30
0.0
 10
183.4268135882847
 20
115.8305604315114
 30
0.0
 10
184.0639156689229
 20
115.9218304750013
 30
0.0
 10
185.2462035655059
 20
116.0912028111122
 30
0.0
 10
186.5144117168144
 20
116.2728839210033
 30
0.0
 10
187.3259863020142
 20
116.3891485667133
 30
0.0
 10
187.6857405279104
 20
116.4406862791791
 30
0.0
  0
CIRCLE
  5
A5
330
1F
100
AcDbEntity
  8
0
  6
Continuous
 62
     7
370
    15
100
AcDbCircle
 10
185.9669199179
 20
112.153613963
 30
0.0
 40
4.749999999999971
  0
SPLINE
  5
A6
330
1F
100
AcDbEntity
  8
0
  6
Continuous
 62
     7
370
    15
100
AcDbSpline
210
0.0
220
0.0
230
1.0
 70
    24
 71
     3
 72
    11
 73
     7
 74
     0
 42
0.000000001
 43
0.00000001
 40
0.0
 40
0.0
 40
0.0
 40
0.0
 40
0.2164567244934154
 40
0.4403141600939113
 40
0.7519028444798551
 40
1.0
 40
1.0
 40
1.0
 40
1.0
 10
187.6857405279104
 20
116.4406862791791
 30
0.0
 10
187.8811958031272
 20
116.1918838070049
 30
0.0
 10
188.2787890197131
 20
115.6857722421133
 30
0.0
 10
189.0166137137749
 20
114.746567057141
 30
0.0
 10
189.8080582459826
 20
113.7391071357668
 30
0.0
 10
190.3145336753294
 20
113.0943952507731
 30
0.0
 10
190.5390437565258
 20
112.808607808261
 30
0.0
  0
CIRCLE
  5
A7
330
1F
100
AcDbEntity
  8
0
  6
Continuous
 62
     7
370
    15
100
AcDbCircle
 10
185.9669199179
 20
112.153613963
 30
0.0
 40
7.199999999999972
  0
CIRCLE
  5
A8
330
1F
100
AcDbEntity
  8
0
  6
Continuous
 62
     7
370
    15
100
AcDbCircle
 10
185.9669199179
 20
112.153613963
 30
0.0
 40
7.999999999999984
  0
ARC
  5
A9
330
1F
100
AcDbEntity
  8
0
  6
Continuous
 62
     7
370
    15
100
AcDbCircle
 10
185.9669199179
 20
112.153613963
 30
0.0
 40
4.000000000000021
100
AcDbArc
 50
38.1526156517
 51
98.1526156517
  0
ARC
  5
AA
330
1F
100
AcDbEntity
  8
0
  6
Continuous
 62
     7
370
    15
100
AcDbCircle
 10
185.9669199179
 20
112.153613963
 30
0.0
 40
4.000000000000007
100
AcDbArc
 50
98.1526156517
 51
158.1526156517
  0
ARC
  5
AB
330
1F
100
AcDbEntity
  8
0
  6
Continuous
 62
     7
370
    15
100
AcDbCircle
 10
185.9669199179
 20
112.153613963
 30
0.0
 40
4.000000000000021
100
AcDbArc
 50
338.1526156517
 51
38.1526156517
  0
ARC
  5
AC
330
1F
100
AcDbEntity
  8
0
  6
Continuous
 62
     7
370
    15
100
AcDbCircle
 10
185.9669199179
 20
112.153613963
 30
0.0
 40
3.999999999999971
100
AcDbArc
 50
158.1526156517
 51
218.1526156517
  0
ARC
  5
AD
330
1F
100
AcDbEntity
  8
0
  6
Continuous
 62
     7
370
    15
100
AcDbCircle
 10
185.9669199179
 20
112.153613963
 30
0.0
 40
3.999999999999997
100
AcDbArc
 50
278.1526156517
 51
338.1526156517
  0
ARC
  5
AE
330
1F
100
AcDbEntity
  8
0
  6
Continuous
 62
     7
370
    15
100
AcDbCircle
 10
185.9669199179
 20
112.153613963
 30
0.0
 40
3.999999999999997
100
AcDbArc
 50
218.1526156517
 51
278.1526156517
  0
LINE
  5
AF
330
1F
100
AcDbEntity
  8
0
  6
Continuous
 62
     7
370
    15
100
AcDbLine
 10
151.0531903167
 20
73.423780501
 30
0.0
 11
151.0531903167
 21
137.003613963
 31
0.0
  0
SPLINE
  5
B0
330
1F
100
AcDbEntity
  8
0
  6
Continuous
 62
     7
370
    15
100
AcDbSpline
210
0.0
220
0.0
230
1.0
 70
     8
 71
     3
 72
     8
 73
     4
 74
     0
 42
0.000000001
 43
0.00000001
 40
0.0
 40
0.0
 40
0.0
 40
0.0
 40
1.0
 40
1.0
 40
1.0
 40
1.0
 10
151.0531903166509
 20
73.42378050096485
 30
0.0
 10
150.5100525307596
 20
74.39537490928633
 30
0.0
 10
149.9678795639747
 20
75.36751499444722
 30
0.0
 10
149.4269199178644
 20
76.34032551271052
 30
0.0
  0
LINE
  5
B1
330
1F
100
AcDbEntity
  8
0
  6
Continuous
 62
     7
370
    15
100
AcDbLine
 10
149.4269199179
 20
76.3403255127
 30
0.0
 11
149.4269199179
 21
137.003613963
 31
0.0
  0
SPLINE
  5
B2
330
1F
100
AcDbEntity
  8
0
  6
Continuous
 62
     7
370
    15
100
AcDbSpline
210
0.0
220
0.0
230
1.0
 70
    24
 71
     3
 72
     8
 73
     4
 74
     0
 42
0.000000001
 43
0.00000001
 40
0.0
 40
0.0
 40
0.0
 40
0.0
 40
1.0
 40
1.0
 40
1.0
 40
1.0
 10
149.4269199178644
 20
137.003613963039
 30
0.0
 10
149.9566732042458
 20
137.003613963039
 30
0.0
 10
150.4998961018334
 20
137.003613963039
 30
0.0
 10
151.0531903166509
 20
137.003613963039
 30
0.0
  0
LINE
  5
B3
330
1F
100
AcDbEntity
  8
0
  6
Continuous
 62
     7
370
    15
100
AcDbLine
 10
133.4669199179
 20
137.003613963
 30
0.0
 11
143.9806495191
 21
137.003613963
 31
0.0
  0
LINE
  5
B4
330
1F
100
AcDbEntity
  8
0
  6
Continuous
 62
     7
370
    15
100
AcDbLine
 10
143.9806495191
 20
73.423780501
 30
0.0
 11
143.9806495191
 21
137.003613963
 31
0.0
  0
LINE
  5
B5
330
1F
100
AcDbEntity
  8
0
  6
Continuous
 62
     7
370
    15
100
AcDbLine
 10
143.9806495191
 20
73.423780501
 30
0.0
 11
142.4669199179
 21
73.423780501
 31
0.0
  0
SPLINE
  5
B6
330
1F
100
AcDbEntity
  8
0
  6
Continuous
 62
     7
370
    15
100
AcDbSpline
210
0.0
220
0.0
230
1.0
 70
     8
 71
     3
 72
    30
 73
    26
 74
     0
 42
0.000000001
 43
0.00000001
 40
0.0
 40
0.0
 40
0.0
 40
0.0
 40
0.1250000000000005
 40
0.1250000000000005
 40
0.1875000000000008
 40
0.1875000000000008
 40
0.2500000000000011
 40
0.2500000000000011
 40
0.3750000000000012
 40
0.3750000000000012
 40
0.4375000000000013
 40
0.4375000000000013
 40
0.5000000000000013
 40
0.5000000000000013
 40
0.6250000000000011
 40
0.6250000000000011
 40
0.6875000000000009
 40
0.6875000000000009
 40
0.7500000000000007
 40
0.7500000000000007
 40
0.8125000000000006
 40
0.8125000000000006
 40
0.8750000000000003
 40
0.8750000000000003
 40
1.0
 40
1.0
 40
1.0
 40
1.0
 10
142.4669199178645
 20
73.42378050096485
 30
0.0
 10
141.8697440409904
 20
73.42378050096485
 30
0.0
 10
141.2830379579687
 20
73.40845318600333
 30
0.0
 10
140.417928127693
 20
73.36472056791123
 30
0.0
 10
140.1320676738428
 20
73.34668265961128
 30
0.0
 10
139.5654519865123
 20
73.30403912716982
 30
0.0
 10
139.2845122287828
 20
73.2793688158005
 30
0.0
 10
138.4680613295733
 20
73.19814123599082
 30
0.0
 10
137.9521602249453
 20
73.13394980209672
 30
0.0
 10
137.21995774673
 20
73.02771513070682
 30
0.0
 10
136.9816875672474
 20
72.9904347234269
 30
0.0
 10
136.5261662388329
 20
72.91450312754326
 30
0.0
 10
136.3092023076434
 20
72.87593717383186
 30
0.0
 10
135.6896803730494
 20
72.75989513570711
 30
0.0
 10
135.3181756870101
 20
72.68206787789286
 30
0.0
 10
134.8249147459588
 20
72.57017783729268
 30
0.0
 10
134.6726919652059
 20
72.53401167083301
 30
0.0
 10
134.3956755809646
 20
72.46555864369903
 30
0.0
 10
134.2702636315897
 20
72.43313059336779
 30
0.0
 10
134.0454236546639
 20
72.37254216799069
 30
0.0
 10
133.9459948577628
 20
72.34438058707386
 30
0.0
 10
133.7736929721485
 20
72.29299741270273
 30
0.0
 10
133.7005888481117
 20
72.26968771482808
 30
0.0
 10
133.5257218938828
 20
72.20914477006474
 30
0.0
 10
133.4669199178644
 20
72.18104356388876
 30
0.0
 10
133.4669199178645
 20
72.1661159167746
 30
0.0
  0
LINE
  5
B7
330
1F
100
AcDbEntity
  8
0
  6
Continuous
 62
     7
370
    15
100
AcDbLine
 10
133.4669199179
 20
72.1661159168
 30
0.0
 11
133.4669199179
 21
72.153613963
 31
0.0
  0
SPLINE
  5
B8
330
1F
100
AcDbEntity
  8
0
  6
Continuous
 62
     7
370
    15
100
AcDbSpline
210
0.0
220
0.0
230
1.0
 70
     8
 71
     3
 72
    17
 73
    13
 74
     0
 42
0.000000001
 43
0.00000001
 40
0.0
 40
0.0
 40
0.0
 40
0.0
 40
0.1039928027398835
 40
0.2110507583651516
 40
0.3150299276010272
 40
0.421935157767337
 40
0.5275775719343997
 40
0.6362134668260427
 40
0.7429488749763674
 40
0.8528788158890155
 40
0.9578277250161848
 40
1.0
 40
1.0
 40
1.0
 40
1.0
 10
142.4669199178645
 20
151.1279645028492
 30
0.0
 10
141.9752858890401
 20
151.1333974578826
 30
0.0
 10
140.9775270837405
 20
151.1444235024719
 30
0.0
 10
139.5305603072676
 20
151.2305904560105
 30
0.0
 10
138.1549698286473
 20
151.3583230559078
 30
0.0
 10
136.9054785868278
 20
151.5169928224807
 30
0.0
 10
135.7935764514249
 20
151.690868656375
 30
0.0
 10
134.8696033512439
 20
151.8587920300548
 30
0.0
 10
134.1450739355411
 20
152.0051150138238
 30
0.0
 10
133.6815153955783
 20
152.1053907249575
 30
0.0
 10
133.4623845205977
 20
152.1546279127696
 30
0.0
 10
133.4900453586705
 20
152.1484199964575
 30
0.0
 10
133.4979743355648
 20
152.1466404977717
 30
0.0
  0
LINE
  5
B9
330
1F
100
AcDbEntity
  8
0
  6
Continuous
 62
     7
370
    15
100
AcDbLine
 10
143.9806495191
 20
151.1279645028
 30
0.0
 11
142.4669199179
 21
151.1279645028
 31
0.0
  0
LINE
  5
BA
330
1F
100
AcDbEntity
  8
0
  6
Continuous
 62
     7
370
    15
100
AcDbLine
 10
143.9806495191
 20
143.4981110877
 30
0.0
 11
143.9806495191
 21
151.1279645028
 31
0.0
  0
LINE
  5
BB
330
1F
100
AcDbEntity
  8
0
  6
Continuous
 62
     7
370
    15
100
AcDbLine
 10
142.1111350553
 20
143.4981110877
 30
0.0
 11
143.9806495191
 21
143.4981110877
 31
0.0
  0
SPLINE
  5
BC
330
1F
100
AcDbEntity
  8
0
  6
Continuous
 62
     7
370
    15
100
AcDbSpline
210
0.0
220
0.0
230
1.0
 70
     8
 71
     3
 72
    26
 73
    22
 74
     0
 42
0.000000001
 43
0.00000001
 40
0.0
 40
0.0
 40
0.0
 40
0.0
 40
0.2499999999999984
 40
0.2499999999999984
 40
0.3124999999999984
 40
0.3124999999999984
 40
0.3749999999999983
 40
0.3749999999999983
 40
0.4999999999999983
 40
0.4999999999999983
 40
0.6249999999999984
 40
0.6249999999999984
 40
0.7499999999999986
 40
0.7499999999999986
 40
0.812499999999999
 40
0.812499999999999
 40
0.8749999999999993
 40
0.8749999999999993
 40
0.9374999999999998
 40
0.9374999999999998
 40
1.0
 40
1.0
 40
1.0
 40
1.0
 10
133.4669199178644
 20
137.003613963039
 30
0.0
 10
133.6707881998034
 20
137.8908011034136
 30
0.0
 10
133.9703127228596
 20
138.7212465504103
 30
0.0
 10
134.5141179180905
 20
139.683845231196
 30
0.0
 10
134.6314934663741
 20
139.8725654711757
 30
0.0
 10
134.8855026740955
 20
140.242150101533
 30
0.0
 10
135.0222576431476
 20
140.4229868888262
 30
0.0
 10
135.4574149602608
 20
140.9448069427231
 30
0.0
 10
135.7824114591232
 20
141.2681520945262
 30
0.0
 10
136.5135372052253
 20
141.8642624056045
 30
0.0
 10
136.924285026695
 20
142.1390029902599
 30
0.0
 10
137.8090094895551
 20
142.614833092019
 30
0.0
 10
138.2845039526141
 20
142.8184486034226
 30
0.0
 10
139.0541549256246
 20
143.0703301016273
 30
0.0
 10
139.3192612557561
 20
143.1448156277045
 30
0.0
 10
139.8547774873896
 20
143.2718421898585
 30
0.0
 10
140.1268114370223
 20
143.3249455351761
 30
0.0
 10
140.6795385645109
 20
143.4105575203469
 30
0.0
 10
140.9602299877728
 20
143.4430701593671
 30
0.0
 10
141.5306606746214
 20
143.4868923534679
 30
0.0
 10
141.8211796941843
 20
143.4981110877339
 30
0.0
 10
142.111135055275
 20
143.498111087734
 30
0.0
  0
LINE
  5
BD
330
1F
100
AcDbEntity
  8
0
  6
Continuous
 62
     7
370
    15
100
AcDbLine
 10
129.5169199179
 20
72.653613963
 30
0.0
 11
129.5169199179
 21
151.653613963
 31
0.0
  0
LINE
  5
BE
330
1F
100
AcDbEntity
  8
0
  6
Continuous
 62
     7
370
    15
100
AcDbLine
 10
145.6069199179
 20
76.3403255127
 30
0.0
 11
145.6069199179
 21
137.003613963
 31
0.0
  0
SPLINE
  5
BF
330
1F
100
AcDbEntity
  8
0
  6
Continuous
 62
     7
370
    15
100
AcDbSpline
210
0.0
220
0.0
230
1.0
 70
     8
 71
     3
 72
     8
 73
     4
 74
     0
 42
0.000000001
 43
0.00000001
 40
0.0
 40
0.0
 40
0.0
 40
0.0
 40
1.0
 40
1.0
 40
1.0
 40
1.0
 10
145.6069199178644
 20
76.34032551271052
 30
0.0
 10
145.0659602717542
 20
75.36751499444722
 30
0.0
 10
144.5237873049694
 20
74.39537490928633
 30
0.0
 10
143.980649519078
 20
73.42378050096485
 30
0.0
  0
SPLINE
  5
C0
330
1F
100
AcDbEntity
  8
0
  6
Continuous
 62
     7
370
    15
100
AcDbSpline
210
0.0
220
0.0
230
1.0
 70
    24
 71
     3
 72
     8
 73
     4
 74
     0
 42
0.000000001
 43
0.00000001
 40
0.0
 40
0.0
 40
0.0
 40
0.0
 40
1.0
 40
1.0
 40
1.0
 40
1.0
 10
143.980649519078
 20
137.003613963039
 30
0.0
 10
144.5339437338955
 20
137.003613963039
 30
0.0
 10
145.0771666314832
 20
137.003613963039
 30
0.0
 10
145.6069199178644
 20
137.003613963039
 30
0.0
  0
LINE
  5
C1
330
1F
100
AcDbEntity
  8
0
  6
Continuous
 62
     7
370
    15
100
AcDbLine
 10
154.4669199179
 20
73.423780501
 30
0.0
 11
151.0531903167
 21
73.423780501
 31
0.0
  0
LINE
  5
C2
330
1F
100
AcDbEntity
  8
0
  6
Continuous
 62
     7
370
    15
100
AcDbLine
 10
151.0531903167
 20
137.003613963
 30
0.0
 11
154.4669199179
 21
137.003613963
 31
0.0
  0
LINE
  5
C3
330
1F
100
AcDbEntity
  8
0
  6
Continuous
 62
     7
370
    15
100
AcDbLine
 10
155.4669199179
 20
74.4574603131
 30
0.0
 11
155.4669199179
 21
137.003613963
 31
0.0
  0
SPLINE
  5
C4
330
1F
100
AcDbEntity
  8
0
  6
Continuous
 62
     7
370
    15
100
AcDbSpline
210
0.0
220
0.0
230
1.0
 70
     8
 71
     3
 72
    14
 73
    10
 74
     0
 42
0.000000001
 43
0.00000001
 40
0.0
 40
0.0
 40
0.0
 40
0.0
 40
0.25
 40
0.25
 40
0.5
 40
0.5
 40
0.75
 40
0.75
 40
1.0
 40
1.0
 40
1.0
 40
1.0
 10
155.4669199178645
 20
74.4574603130975
 30
0.0
 10
155.4669199178645
 20
74.32333387586019
 30
0.0
 10
155.441902366837
 20
74.1912801871056
 30
0.0
 10
155.3440476285842
 20
73.94302038019448
 30
0.0
 10
155.2714457365731
 20
73.82863630371872
 30
0.0
 10
155.0881776996003
 20
73.63612522487072
 30
0.0
 10
154.97662160614
 20
73.55763944631809
 30
0.0
 10
154.7335006572184
 20
73.45187468307576
 30
0.0
 10
154.5995763862607
 20
73.42378050096487
 30
0.0
 10
154.4669199178645
 20
73.42378050096487
 30
0.0
  0
SPLINE
  5
C5
330
1F
100
AcDbEntity
  8
0
  6
Continuous
 62
     7
370
    15
100
AcDbSpline
210
0.0
220
0.0
230
1.0
 70
    24
 71
     3
 72
    12
 73
     8
 74
     0
 42
0.000000001
 43
0.00000001
 40
0.0
 40
0.0
 40
0.0
 40
0.0
 40
0.249999999999998
 40
0.249999999999998
 40
0.499999999999996
 40
0.499999999999996
 40
1.0
 40
1.0
 40
1.0
 40
1.0
 10
154.4669199178645
 20
137.003613963039
 30
0.0
 10
154.6181604734193
 20
137.003613963039
 30
0.0
 10
154.7665356305335
 20
137.003613963039
 30
0.0
 10
155.0240775862444
 20
137.003613963039
 30
0.0
 10
155.1333225845912
 20
137.003613963039
 30
0.0
 10
155.3876651930563
 20
137.003613963039
 30
0.0
 10
155.4669199178645
 20
137.003613963039
 30
0.0
 10
155.4669199178645
 20
137.003613963039
 30
0.0
  0
LINE
  5
C6
330
1F
100
AcDbEntity
  8
0
  6
Continuous
 62
     7
370
    15
100
AcDbLine
 10
205.5169199179
 20
76.853613963
 30
0.0
 11
205.5169199179
 21
147.453613963
 31
0.0
  0
LINE
  5
C7
330
1F
100
AcDbEntity
  8
0
  6
Continuous
 62
     7
370
    15
100
AcDbLine
 10
204.8169199179
 20
76.153613963
 30
0.0
 11
204.8169199179
 21
148.153613963
 31
0.0
  0
LINE
  5
C8
330
1F
100
AcDbEntity
  8
0
  6
Continuous
 62
     7
370
    15
100
AcDbLine
 10
171.5169199179
 20
77.153613963
 30
0.0
 11
171.5169199179
 21
147.1536139604
 31
0.0
  0
SPLINE
  5
C9
330
1F
100
AcDbEntity
  8
0
  6
Continuous
 62
     7
370
    15
100
AcDbSpline
210
0.0
220
0.0
230
1.0
 70
     8
 71
     3
 72
    52
 73
    48
 74
     0
 42
0.000000001
 43
0.00000001
 40
0.0
 40
0.0
 40
0.0
 40
0.0
 40
0.0312499999999995
 40
0.0312499999999995
 40
0.062499999999999
 40
0.062499999999999
 40
0.1249999999999983
 40
0.1249999999999983
 40
0.1562499999999979
 40
0.1562499999999979
 40
0.1874999999999976
 40
0.1874999999999976
 40
0.2187499999999974
 40
0.2187499999999974
 40
0.2499999999999971
 40
0.2499999999999971
 40
0.3124999999999964
 40
0.3124999999999964
 40
0.3437499999999962
 40
0.3437499999999962
 40
0.3749999999999959
 40
0.3749999999999959
 40
0.4374999999999959
 40
0.4374999999999959
 40
0.4687499999999962
 40
0.4687499999999962
 40
0.4999999999999966
 40
0.4999999999999966
 40
0.5624999999999966
 40
0.5624999999999966
 40
0.5937499999999968
 40
0.5937499999999968
 40
0.624999999999997
 40
0.624999999999997
 40
0.6874999999999976
 40
0.6874999999999976
 40
0.749999999999998
 40
0.749999999999998
 40
0.8124999999999986
 40
0.8124999999999986
 40
0.8749999999999991
 40
0.8749999999999991
 40
0.9062499999999993
 40
0.9062499999999993
 40
0.9374999999999996
 40
0.9374999999999996
 40
1.0
 40
1.0
 40
1.0
 40
1.0
 10
195.9669199178645
 20
112.153613963039
 30
0.0
 10
195.9669199178645
 20
111.8448252046101
 30
0.0
 10
195.9486929927222
 20
111.5364440268166
 30
0.0
 10
195.8754933684872
 20
110.9205028141308
 30
0.0
 10
195.819930111364
 20
110.6108585207614
 30
0.0
 10
195.6010489995026
 20
109.7024349327962
 30
0.0
 10
195.3873098432211
 20
109.123052183339
 30
0.0
 10
194.9713394893772
 20
108.2905748726668
 30
0.0
 10
194.8160146312613
 20
108.0185888085002
 30
0.0
 10
194.4808912697908
 20
107.4983228936434
 30
0.0
 10
194.3004376887938
 20
107.2485094110774
 30
0.0
 10
193.9149824383287
 20
106.7684002468364
 30
0.0
 10
193.7099764613133
 20
106.5381082453023
 30
0.0
 10
193.275799620174
 20
106.09659649357
 30
0.0
 10
193.0463517628522
 20
105.8853826377805
 30
0.0
 10
192.3358760470597
 20
105.2914422728417
 30
0.0
 10
191.8287893406007
 20
104.94351317746
 30
0.0
 10
191.0202106107982
 20
104.4893979209017
 30
0.0
 10
190.7413028854914
 20
104.3488738990803
 30
0.0
 10
190.175546497552
 20
104.0945325247084
 30
0.0
 10
189.8885054641368
 20
103.9804336171574
 30
0.0
 10
189.0152895191798
 20
103.6758628738143
 30
0.0
 10
188.4171196573287
 20
103.5227974118875
 30
0.0
 10
187.4954931495805
 20
103.3685033826901
 30
0.0
 10
187.1846498087246
 20
103.3299348267267
 30
0.0
 10
186.5663695238664
 20
103.2793471249246
 30
0.0
 10
186.2575017966531
 20
103.2670611870826
 30
0.0
 10
185.331702473347
 20
103.2685573063842
 30
0.0
 10
184.7155682286941
 20
103.3203607035077
 30
0.0
 10
183.7930262545017
 20
103.4774717213538
 30
0.0
 10
183.4879106263162
 20
103.5429022740078
 30
0.0
 10
182.8892441704111
 20
103.69802196772
 30
0.0
 10
182.5946195247074
 20
103.7878861087009
 30
0.0
 10
181.724773412648
 20
104.0943320265172
 30
0.0
 10
181.1634384327295
 20
104.3473749033868
 30
0.0
 10
180.0804470249865
 20
104.9591277943146
 30
0.0
 10
179.5738068179871
 20
105.3096537647526
 30
0.0
 10
178.6370791103374
 20
106.0967830100817
 30
0.0
 10
178.2047627788182
 20
106.535103719084
 30
0.0
 10
177.4274595488504
 20
107.5068089435388
 30
0.0
 10
177.0955365930223
 20
108.0235569338709
 30
0.0
 10
176.6848019705469
 20
108.8467212997418
 30
0.0
 10
176.5625250507229
 20
109.1291751312487
 30
0.0
 10
176.349102118522
 20
109.7113186131331
 30
0.0
 10
176.2576846057293
 20
110.0129485521321
 30
0.0
 10
176.0401147386482
 20
110.919573569094
 30
0.0
 10
175.9669199178645
 20
111.5323330790101
 30
0.0
 10
175.9669199178645
 20
112.153613963039
 30
0.0
  0
SPLINE
  5
CA
330
1F
100
AcDbEntity
  8
0
  6
Continuous
 62
     7
370
    15
100
AcDbSpline
210
0.0
220
0.0
230
1.0
 70
     8
 71
     3
 72
    54
 73
    50
 74
     0
 42
0.000000001
 43
0.00000001
 40
0.0
 40
0.0
 40
0.0
 40
0.0
 40
0.03125
 40
0.03125
 40
0.0624999999999999
 40
0.0624999999999999
 40
0.0937499999999999
 40
0.0937499999999999
 40
0.1249999999999999
 40
0.1249999999999999
 40
0.1874999999999997
 40
0.1874999999999997
 40
0.2187499999999995
 40
0.2187499999999995
 40
0.2499999999999993
 40
0.2499999999999993
 40
0.3124999999999988
 40
0.3124999999999988
 40
0.3749999999999984
 40
0.3749999999999984
 40
0.437499999999998
 40
0.437499999999998
 40
0.4687499999999978
 40
0.4687499999999978
 40
0.4999999999999976
 40
0.4999999999999976
 40
0.5624999999999971
 40
0.5624999999999971
 40
0.593749999999997
 40
0.593749999999997
 40
0.6249999999999968
 40
0.6249999999999968
 40
0.6874999999999964
 40
0.6874999999999964
 40
0.7187499999999963
 40
0.7187499999999963
 40
0.7499999999999968
 40
0.7499999999999968
 40
0.8124999999999976
 40
0.8124999999999976
 40
0.8437499999999979
 40
0.8437499999999979
 40
0.8749999999999983
 40
0.8749999999999983
 40
0.9374999999999992
 40
0.9374999999999992
 40
0.9687499999999996
 40
0.9687499999999996
 40
1.0
 40
1.0
 40
1.0
 40
1.0
 10
175.9669199178645
 20
112.153613963039
 30
0.0
 10
175.9669199178645
 20
112.464326784035
 30
0.0
 10
175.9857607065839
 20
112.7794026844832
 30
0.0
 10
176.0602132875794
 20
113.3988624652438
 30
0.0
 10
176.1155264758606
 20
113.7040311114241
 30
0.0
 10
176.2609384178822
 20
114.3056137498313
 30
0.0
 10
176.3510409794167
 20
114.6020267569668
 30
0.0
 10
176.5658163515379
 20
115.1861809506549
 30
0.0
 10
176.6910026081438
 20
115.474435716356
 30
0.0
 10
177.10834861547
 20
116.3062027535904
 30
0.0
 10
177.4440484123845
 20
116.8241920568479
 30
0.0
 10
178.0286300378823
 20
117.5503175618033
 30
0.0
 10
178.236665281456
 20
117.7830282880158
 30
0.0
 10
178.6725866681265
 20
118.2244754615244
 30
0.0
 10
178.9012177948848
 20
118.4341622742109
 30
0.0
 10
179.6184077548703
 20
119.0311106801206
 30
0.0
 10
180.1281862157615
 20
119.3782017980514
 30
0.0
 10
181.1989254409856
 20
119.9765096724545
 30
0.0
 10
181.7622043158763
 20
120.2289376601939
 30
0.0
 10
182.9386148382325
 20
120.6374449304423
 30
0.0
 10
183.5370408650548
 20
120.7886303977859
 30
0.0
 10
184.4493109306698
 20
120.9401471515193
 30
0.0
 10
184.7558555893536
 20
120.9780204814863
 30
0.0
 10
185.373920548901
 20
121.0282226500813
 30
0.0
 10
185.6869448037691
 20
121.0405097012495
 30
0.0
 10
186.6204689332709
 20
121.0378974124916
 30
0.0
 10
187.2351457736603
 20
120.9845082666281
 30
0.0
 10
188.1459379986661
 20
120.8286203369127
 30
0.0
 10
188.4476538814154
 20
120.7639444825941
 30
0.0
 10
189.0472330684424
 20
120.6084563963996
 30
0.0
 10
189.346466221579
 20
120.5170893319761
 30
0.0
 10
190.2228612113954
 20
120.2074207546355
 30
0.0
 10
190.7817781400527
 20
119.9536964342101
 30
0.0
 10
191.5821282139756
 20
119.5011940250584
 30
0.0
 10
191.8425327817197
 20
119.3382939989048
 30
0.0
 10
192.3500246586152
 20
118.9871031321328
 30
0.0
 10
192.5980776239396
 20
118.7978441874303
 30
0.0
 10
193.3057126053733
 20
118.2023157505686
 30
0.0
 10
193.733771589608
 20
117.7660019721143
 30
0.0
 10
194.3075206164309
 20
117.0491391425304
 30
0.0
 10
194.4872972996745
 20
116.799711130149
 30
0.0
 10
194.822222986811
 20
116.2782208764995
 30
0.0
 10
194.9768756558014
 20
116.0063700550583
 30
0.0
 10
195.3894686466248
 20
115.1782235108159
 30
0.0
 10
195.6014657226998
 20
114.6023900425238
 30
0.0
 10
195.8190069397501
 20
113.7005359032375
 30
0.0
 10
195.8748636971849
 20
113.3911147463269
 30
0.0
 10
195.9486860682869
 20
112.7717431114615
 30
0.0
 10
195.9669199178645
 20
112.4624746690086
 30
0.0
 10
195.9669199178645
 20
112.153613963039
 30
0.0
  0
SPLINE
  5
CB
330
1F
100
AcDbEntity
  8
0
  6
Continuous
 62
     7
370
    15
100
AcDbSpline
210
0.0
220
0.0
230
1.0
 70
     8
 71
     3
 72
    10
 73
     6
 74
     0
 42
0.000000001
 43
0.00000001
 40
0.0
 40
0.0
 40
0.0
 40
0.0
 40
0.5
 40
0.5
 40
1.0
 40
1.0
 40
1.0
 40
1.0
 10
146.0207994448044
 20
146.053613963039
 30
0.0
 10
145.8946787093238
 20
146.1255253854989
 30
0.0
 10
145.7880230812203
 20
146.2338959980193
 30
0.0
 10
145.6447790056952
 20
146.4870869913131
 30
0.0
 10
145.6069199178644
 20
146.6322195091195
 30
0.0
 10
145.6069199178644
 20
146.7780363408925
 30
0.0
  0
SPLINE
  5
CC
330
1F
100
AcDbEntity
  8
0
  6
Continuous
 62
     7
370
    15
100
AcDbSpline
210
0.0
220
0.0
230
1.0
 70
    24
 71
     3
 72
    12
 73
     8
 74
     0
 42
0.000000001
 43
0.00000001
 40
0.0
 40
0.0
 40
0.0
 40
0.0
 40
0.2499999999999972
 40
0.2499999999999972
 40
0.4999999999999944
 40
0.4999999999999944
 40
1.0
 40
1.0
 40
1.0
 40
1.0
 10
146.4069199178667
 20
146.053613963039
 30
0.0
 10
146.3586407397334
 20
146.053613963039
 30
0.0
 10
146.3109397796158
 20
146.053613963039
 30
0.0
 10
146.2315234997582
 20
146.053613963039
 30
0.0
 10
146.1974747612341
 20
146.053613963039
 30
0.0
 10
146.1075166585331
 20
146.053613963039
 30
0.0
 10
146.0614239588609
 20
146.053613963039
 30
0.0
 10
146.0207994448044
 20
146.053613963039
 30
0.0
  0
SPLINE
  5
CD
330
1F
100
AcDbEntity
  8
0
  6
Continuous
 62
     7
370
    15
100
AcDbSpline
210
0.0
220
0.0
230
1.0
 70
    24
 71
     3
 72
    14
 73
    10
 74
     0
 42
0.000000001
 43
0.00000001
 40
0.0
 40
0.0
 40
0.0
 40
0.0
 40
0.1250000000000003
 40
0.1250000000000003
 40
0.2500000000000007
 40
0.2500000000000007
 40
0.5000000000000008
 40
0.5000000000000008
 40
1.0
 40
1.0
 40
1.0
 40
1.0
 10
146.4069199178644
 20
78.25361396303903
 30
0.0
 10
146.3377434862358
 20
78.25361396303903
 30
0.0
 10
146.2746222535895
 20
78.25361396303904
 30
0.0
 10
146.174045456911
 20
78.25361396303904
 30
0.0
 10
146.1348514250217
 20
78.25361396303903
 30
0.0
 10
146.0299593103745
 20
78.25361396303903
 30
0.0
 10
145.9771718732365
 20
78.25361396303903
 30
0.0
 10
145.8415847467492
 20
78.25361396303903
 30
0.0
 10
145.7807596308759
 20
78.25361396303904
 30
0.0
 10
145.7328418746868
 20
78.25361396303903
 30
0.0
  0
SPLINE
  5
CE
330
1F
100
AcDbEntity
  8
0
  6
Continuous
 62
     7
370
    15
100
AcDbSpline
210
0.0
220
0.0
230
1.0
 70
    24
 71
     3
 72
    10
 73
     6
 74
     0
 42
0.000000001
 43
0.00000001
 40
0.0
 40
0.0
 40
0.0
 40
0.0
 40
0.5
 40
0.5
 40
1.0
 40
1.0
 40
1.0
 40
1.0
 10
145.6069199178644
 20
137.003613963039
 30
0.0
 10
145.6069199178644
 20
137.003613963039
 30
0.0
 10
145.6315305358009
 20
137.003613963039
 30
0.0
 10
145.731221924116
 20
137.003613963039
 30
0.0
 10
145.8088153885006
 20
137.003613963039
 30
0.0
 10
145.9161678045684
 20
137.003613963039
 30
0.0
  0
SPLINE
  5
CF
330
1F
100
AcDbEntity
  8
0
  6
Continuous
 62
     7
370
    15
100
AcDbSpline
210
0.0
220
0.0
230
1.0
 70
     8
 71
     3
 72
    10
 73
     6
 74
     0
 42
0.000000001
 43
0.00000001
 40
0.0
 40
0.0
 40
0.0
 40
0.0
 40
0.5
 40
0.5
 40
1.0
 40
1.0
 40
1.0
 40
1.0
 10
145.6069199178644
 20
137.8893503037773
 30
0.0
 10
145.6069199178644
 20
137.7299181964743
 30
0.0
 10
145.631472308281
 20
137.5691623912927
 30
0.0
 10
145.7317711793642
 20
137.26687292779
 30
0.0
 10
145.8085122656185
 20
137.1218742049724
 30
0.0
 10
145.9161678045684
 20
137.003613963039
 30
0.0
  0
SPLINE
  5
D0
330
1F
100
AcDbEntity
  8
0
  6
Continuous
 62
     7
370
    15
100
AcDbSpline
210
0.0
220
0.0
230
1.0
 70
    24
 71
     3
 72
    14
 73
    10
 74
     0
 42
0.000000001
 43
0.00000001
 40
0.0
 40
0.0
 40
0.0
 40
0.0
 40
0.4999999999999984
 40
0.4999999999999984
 40
0.7499999999999992
 40
0.7499999999999992
 40
0.8749999999999996
 40
0.8749999999999996
 40
1.0
 40
1.0
 40
1.0
 40
1.0
 10
149.3009979610421
 20
78.25361396303903
 30
0.0
 10
149.2532735865083
 20
78.25361396303902
 30
0.0
 10
149.1927268299871
 20
78.25361396303904
 30
0.0
 10
149.0569461308082
 20
78.25361396303904
 30
0.0
 10
149.004331957293
 20
78.25361396303903
 30
0.0
 10
148.8989482438088
 20
78.25361396303904
 30
0.0
 10
148.858676747472
 20
78.25361396303903
 30
0.0
 10
148.7592106268945
 20
78.25361396303904
 30
0.0
 10
148.6960335898956
 20
78.25361396303904
 30
0.0
 10
148.6269199178645
 20
78.25361396303903
 30
0.0
  0
SPLINE
  5
D1
330
1F
100
AcDbEntity
  8
0
  6
Continuous
 62
     7
370
    15
100
AcDbSpline
210
0.0
220
0.0
230
1.0
 70
    24
 71
     3
 72
    12
 73
     8
 74
     0
 42
0.000000001
 43
0.00000001
 40
0.0
 40
0.0
 40
0.0
 40
0.0
 40
0.5
 40
0.5
 40
0.75
 40
0.75
 40
1.0
 40
1.0
 40
1.0
 40
1.0
 10
149.0130403909246
 20
146.053613963039
 30
0.0
 10
148.9727456429185
 20
146.053613963039
 30
0.0
 10
148.9261796109838
 20
146.053613963039
 30
0.0
 10
148.8360786596529
 20
146.053613963039
 30
0.0
 10
148.802060099219
 20
146.053613963039
 30
0.0
 10
148.7224271770617
 20
146.053613963039
 30
0.0
 10
148.6753149809275
 20
146.053613963039
 30
0.0
 10
148.6269199178645
 20
146.053613963039
 30
0.0
  0
SPLINE
  5
D2
330
1F
100
AcDbEntity
  8
0
  6
Continuous
 62
     7
370
    15
100
AcDbSpline
210
0.0
220
0.0
230
1.0
 70
     8
 71
     3
 72
    10
 73
     6
 74
     0
 42
0.000000001
 43
0.00000001
 40
0.0
 40
0.0
 40
0.0
 40
0.0
 40
0.5
 40
0.5
 40
1.0
 40
1.0
 40
1.0
 40
1.0
 10
149.4269199178644
 20
146.7780363408925
 30
0.0
 10
149.4269199178644
 20
146.6313862184564
 30
0.0
 10
149.388721844074
 20
146.4863915247056
 30
0.0
 10
149.2458864926407
 20
146.2341157375011
 30
0.0
 10
149.1400876669345
 20
146.1260536796544
 30
0.0
 10
149.0130403909247
 20
146.0536139630391
 30
0.0
  0
SPLINE
  5
D3
330
1F
100
AcDbEntity
  8
0
  6
Continuous
 62
     7
370
    15
100
AcDbSpline
210
0.0
220
0.0
230
1.0
 70
     8
 71
     3
 72
    10
 73
     6
 74
     0
 42
0.000000001
 43
0.00000001
 40
0.0
 40
0.0
 40
0.0
 40
0.0
 40
0.5
 40
0.5
 40
1.0
 40
1.0
 40
1.0
 40
1.0
 10
149.1176720311605
 20
137.0036139630391
 30
0.0
 10
149.2263479496796
 20
137.1229950979231
 30
0.0
 10
149.3022654672175
 20
137.2672980849377
 30
0.0
 10
149.402460298556
 20
137.5696104875064
 30
0.0
 10
149.4269199178644
 20
137.7300583968002
 30
0.0
 10
149.4269199178644
 20
137.889350303777
 30
0.0
  0
SPLINE
  5
D4
330
1F
100
AcDbEntity
  8
0
  6
Continuous
 62
     7
370
    15
100
AcDbSpline
210
0.0
220
0.0
230
1.0
 70
    24
 71
     3
 72
    10
 73
     6
 74
     0
 42
0.000000001
 43
0.00000001
 40
0.0
 40
0.0
 40
0.0
 40
0.0
 40
0.5
 40
0.5
 40
1.0
 40
1.0
 40
1.0
 40
1.0
 10
149.1176720311606
 20
137.003613963039
 30
0.0
 10
149.2251195870148
 20
137.003613963039
 30
0.0
 10
149.3020287668448
 20
137.003613963039
 30
0.0
 10
149.4022842927643
 20
137.003613963039
 30
0.0
 10
149.4269199178644
 20
137.003613963039
 30
0.0
 10
149.4269199178644
 20
137.003613963039
 30
0.0
  0
LINE
  5
D5
330
1F
100
AcDbEntity
  8
0
  6
Continuous
 62
     7
370
    15
100
AcDbLine
 10
148.6269199179
 20
146.053613963
 30
0.0
 11
146.4069199179
 21
146.053613963
 31
0.0
  0
LINE
  5
D6
330
1F
100
AcDbEntity
  8
0
  6
Continuous
 62
     7
370
    15
100
AcDbLine
 10
148.6269199179
 20
78.253613963
 30
0.0
 11
146.4069199179
 21
78.253613963
 31
0.0
  0
LINE
  5
D7
330
1F
100
AcDbEntity
  8
0
  6
Continuous
 62
     7
370
    15
100
AcDbLine
 10
155.6669190143
 20
146.053613963
 30
0.0
 11
155.6388238342
 21
146.053613963
 31
0.0
  0
LINE
  5
D8
330
1F
100
AcDbEntity
  8
0
  6
Continuous
 62
     7
370
    15
100
AcDbLine
 10
155.6669189793
 20
78.253613963
 30
0.0
 11
155.640177953
 21
78.253613963
 31
0.0
  0
LINE
  5
D9
330
1F
100
AcDbEntity
  8
0
  6
Continuous
 62
     7
370
    15
100
AcDbLine
 10
127.0169199179
 20
81.8720628608
 30
0.0
 11
127.0169199179
 21
142.4351650652
 31
0.0
  0
LINE
  5
DA
330
1F
100
AcDbEntity
  8
0
  6
Continuous
 62
     7
370
    15
100
AcDbLine
 10
101.7169199179
 20
83.139597931
 30
0.0
 11
101.7169199179
 21
84.8370470387
 31
0.0
  0
SPLINE
  5
DB
330
1F
100
AcDbEntity
  8
0
  6
Continuous
 62
     7
370
    15
100
AcDbSpline
210
0.0
220
0.0
230
1.0
 70
     8
 71
     3
 72
    16
 73
    12
 74
     0
 42
0.000000001
 43
0.00000001
 40
0.0
 40
0.0
 40
0.0
 40
0.0
 40
0.1249999999999996
 40
0.1249999999999996
 40
0.2499999999999992
 40
0.2499999999999992
 40
0.4999999999999994
 40
0.4999999999999994
 40
0.7499999999999997
 40
0.7499999999999997
 40
1.0
 40
1.0
 40
1.0
 40
1.0
 10
100.5685614849619
 20
86.42195691847381
 30
0.0
 10
100.621604223129
 20
86.34662602920324
 30
0.0
 10
100.6860682577996
 20
86.273392737334
 30
0.0
 10
100.8190516623789
 20
86.1300543877727
 30
0.0
 10
100.8880788545202
 20
86.05979754497683
 30
0.0
 10
101.0915869044187
 20
85.85192841221756
 30
0.0
 10
101.2223409512314
 20
85.71717743896468
 30
0.0
 10
101.4476077193846
 20
85.45321931205069
 30
0.0
 10
101.5429498352745
 20
85.32390098217613
 30
0.0
 10
101.6782497325048
 20
85.07135957591606
 30
0.0
 10
101.7169199178645
 20
84.95101815043094
 30
0.0
 10
101.7169199178645
 20
84.8370470387191
 30
0.0
  0
SPLINE
  5
DC
330
1F
100
AcDbEntity
  8
0
  6
Continuous
 62
     7
370
    15
100
AcDbSpline
210
0.0
220
0.0
230
1.0
 70
     8
 71
     3
 72
    14
 73
    10
 74
     0
 42
0.000000001
 43
0.00000001
 40
0.0
 40
0.0
 40
0.0
 40
0.0
 40
0.1250000000000001
 40
0.1250000000000001
 40
0.2500000000000002
 40
0.2500000000000002
 40
0.5000000000000023
 40
0.5000000000000023
 40
1.0
 40
1.0
 40
1.0
 40
1.0
 10
99.81691991786447
 20
86.8478789686408
 30
0.0
 10
99.8664444947985
 20
86.85333509641457
 30
0.0
 10
99.91918664912905
 20
86.85264993634127
 30
0.0
 10
100.0197192182282
 20
86.83854237678902
 30
0.0
 10
100.0673435678405
 20
86.82540078955644
 30
0.0
 10
100.1938012427768
 20
86.7776511049158
 30
0.0
 10
100.2594913052666
 20
86.73575077008381
 30
0.0
 10
100.4288006271756
 20
86.60552797822999
 30
0.0
 10
100.5039968527616
 20
86.51365111313855
 30
0.0
 10
100.5685614849615
 20
86.4219569184738
 30
0.0
  0
SPLINE
  5
DD
330
1F
100
AcDbEntity
  8
0
  6
Continuous
 62
     7
370
    15
100
AcDbSpline
210
0.0
220
0.0
230
1.0
 70
     8
 71
     3
 72
     8
 73
     4
 74
     0
 42
0.000000001
 43
0.00000001
 40
0.0
 40
0.0
 40
0.0
 40
0.0
 40
1.0
 40
1.0
 40
1.0
 40
1.0
 10
97.50001661594598
 20
86.56760659438983
 30
0.0
 10
98.26418982481691
 20
86.67013767656414
 30
0.0
 10
99.03784208613875
 20
86.76204788317214
 30
0.0
 10
99.81691991786447
 20
86.8478789686408
 30
0.0
  0
SPLINE
  5
DE
330
1F
100
AcDbEntity
  8
0
  6
Continuous
 62
     7
370
    15
100
AcDbSpline
210
0.0
220
0.0
230
1.0
 70
     8
 71
     3
 72
    14
 73
    10
 74
     0
 42
0.000000001
 43
0.00000001
 40
0.0
 40
0.0
 40
0.0
 40
0.0
 40
0.4999999999999968
 40
0.4999999999999968
 40
0.7499999999999967
 40
0.7499999999999967
 40
0.8749999999999983
 40
0.8749999999999983
 40
1.0
 40
1.0
 40
1.0
 40
1.0
 10
91.26691991786448
 20
86.33648258931971
 30
0.0
 10
92.31844769197264
 20
86.34170588076357
 30
0.0
 10
93.36737918566023
 20
86.35364450752262
 30
0.0
 10
94.9313611381047
 20
86.39627819351035
 30
0.0
 10
95.45114023262406
 20
86.41455469084947
 30
0.0
 10
96.22579750536846
 20
86.45520347818221
 30
0.0
 10
96.4831752772819
 20
86.47097491322215
 30
0.0
 10
96.99485601480829
 20
86.51065580647126
 30
0.0
 10
97.24938026925257
 20
86.53397807200707
 30
0.0
 10
97.50001661594612
 20
86.56760659438969
 30
0.0
  0
SPLINE
  5
DF
330
1F
100
AcDbEntity
  8
0
  6
Continuous
 62
     7
370
    15
100
AcDbSpline
210
0.0
220
0.0
230
1.0
 70
     8
 71
     3
 72
     8
 73
     4
 74
     0
 42
0.000000001
 43
0.00000001
 40
0.0
 40
0.0
 40
0.0
 40
0.0
 40
1.0
 40
1.0
 40
1.0
 40
1.0
 10
91.13686001064625
 20
86.49231368004807
 30
0.0
 10
91.17646450802907
 20
86.43929187578267
 30
0.0
 10
91.22003236290297
 20
86.38738764426199
 30
0.0
 10
91.26691991786448
 20
86.33648258931971
 30
0.0
  0
SPLINE
  5
E0
330
1F
100
AcDbEntity
  8
0
  6
Continuous
 62
     7
370
    15
100
AcDbSpline
210
0.0
220
0.0
230
1.0
 70
     8
 71
     3
 72
     8
 73
     4
 74
     0
 42
0.000000001
 43
0.00000001
 40
0.0
 40
0.0
 40
0.0
 40
0.0
 40
1.0
 40
1.0
 40
1.0
 40
1.0
 10
91.26691991786448
 20
137.9707453367583
 30
0.0
 10
91.22003236290058
 20
137.9198402818134
 30
0.0
 10
91.17646450802464
 20
137.8679360502901
 30
0.0
 10
91.13686001064016
 20
137.8149142460218
 30
0.0
  0
SPLINE
  5
E1
330
1F
100
AcDbEntity
  8
0
  6
Continuous
 62
     7
370
    15
100
AcDbSpline
210
0.0
220
0.0
230
1.0
 70
     8
 71
     3
 72
    10
 73
     6
 74
     0
 42
0.000000001
 43
0.00000001
 40
0.0
 40
0.0
 40
0.0
 40
0.0
 40
0.5
 40
0.5
 40
1.0
 40
1.0
 40
1.0
 40
1.0
 10
95.81691991786447
 20
137.8732155847079
 30
0.0
 10
95.06503797995329
 20
137.910075333841
 30
0.0
 10
94.30801901587321
 20
137.9304723804085
 30
0.0
 10
92.79022308662918
 20
137.959342503486
 30
0.0
 10
92.02918031584315
 20
137.9669589334766
 30
0.0
 10
91.26691991786448
 20
137.9707453367583
 30
0.0
  0
SPLINE
  5
E2
330
1F
100
AcDbEntity
  8
0
  6
Continuous
 62
     7
370
    15
100
AcDbSpline
210
0.0
220
0.0
230
1.0
 70
     8
 71
     3
 72
    20
 73
    16
 74
     0
 42
0.000000001
 43
0.00000001
 40
0.0
 40
0.0
 40
0.0
 40
0.0
 40
0.1249999999999991
 40
0.1249999999999991
 40
0.2499999999999982
 40
0.2499999999999982
 40
0.4999999999999986
 40
0.4999999999999986
 40
0.7499999999999989
 40
0.7499999999999989
 40
0.8749999999999991
 40
0.8749999999999991
 40
0.9374999999999996
 40
0.9374999999999996
 40
1.0
 40
1.0
 40
1.0
 40
1.0
 10
97.7169199178645
 20
139.3542207793299
 30
0.0
 10
97.71691991786452
 20
139.2945652563379
 30
0.0
 10
97.70442371113353
 20
139.2321848865839
 30
0.0
 10
97.65837511585978
 20
139.1058545095312
 30
0.0
 10
97.62486000156603
 20
139.0414639644907
 30
0.0
 10
97.4966548727304
 20
138.8448307099704
 30
0.0
 10
97.3731844139524
 20
138.7078025319938
 30
0.0
 10
97.07023926798719
 20
138.4341303948562
 30
0.0
 10
96.8937039428911
 20
138.2966409332309
 30
0.0
 10
96.57077820201488
 20
138.0955511287465
 30
0.0
 10
96.45303277075354
 20
138.0283807531163
 30
0.0
 10
96.2452180117098
 20
137.9420003577129
 30
0.0
 10
96.16967245537528
 20
137.9153636768103
 30
0.0
 10
96.00039750040042
 20
137.8778109646703
 30
0.0
 10
95.90696147080048
 20
137.8688014488105
 30
0.0
 10
95.81691991786447
 20
137.8732155847079
 30
0.0
  0
LINE
  5
E3
330
1F
100
AcDbEntity
  8
0
  6
Continuous
 62
     7
370
    15
100
AcDbLine
 10
97.7169199179
 20
139.3542207793
 30
0.0
 11
97.7169199179
 21
140.9672291935
 31
0.0
  0
SPLINE
  5
E4
330
1F
100
AcDbEntity
  8
0
  6
Continuous
 62
     7
370
    15
100
AcDbSpline
210
0.0
220
0.0
230
1.0
 70
     8
 71
     3
 72
    24
 73
    20
 74
     0
 42
0.000000001
 43
0.00000001
 40
0.0
 40
0.0
 40
0.0
 40
0.0
 40
0.0006675883159946
 40
0.0632907201584545
 40
0.1266235196374192
 40
0.1897225217837372
 40
0.2519902853093296
 40
0.313969371088098
 40
0.376507313282058
 40
0.4388698633074125
 40
0.500459875800236
 40
0.5619749718344432
 40
0.6247082698745162
 40
0.6873839318222156
 40
0.7496296591638434
 40
0.8119076813147827
 40
0.8749614520961194
 40
0.9381947704106505
 40
1.0
 40
1.0
 40
1.0
 40
1.0
 10
112.7784880023574
 20
82.58556593145181
 30
0.0
 10
112.7781673983933
 20
82.58553045201913
 30
0.0
 10
112.7477725348403
 20
82.58216682388174
 30
0.0
 10
112.8543579939689
 20
82.5942829970045
 30
0.0
 10
113.114786421613
 20
82.6218387379426
 30
0.0
 10
113.5570322569909
 20
82.66575602254392
 30
0.0
 10
114.1467318234272
 20
82.71243782887103
 30
0.0
 10
114.867086414862
 20
82.75263984655517
 30
0.0
 10
115.6939191175512
 20
82.77494648138999
 30
0.0
 10
116.5866913750775
 20
82.77358816144984
 30
0.0
 10
117.5121608959123
 20
82.74120374165884
 30
0.0
 10
118.436861858624
 20
82.67817388191975
 30
0.0
 10
119.3249496508629
 20
82.58841742207932
 30
0.0
 10
120.1467027547569
 20
82.48267036542035
 30
0.0
 10
120.8602428730385
 20
82.37123136785219
 30
0.0
 10
121.4462225062714
 20
82.26655269033989
 30
0.0
 10
121.8748700058006
 20
82.181744914717
 30
0.0
 10
122.15717237564
 20
82.12390995210136
 30
0.0
 10
122.1904829154888
 20
82.11674833854855
 30
0.0
 10
122.2069479624492
 20
82.11320842883846
 30
0.0
  0
SPLINE
  5
E5
330
1F
100
AcDbEntity
  8
0
  6
Continuous
 62
     7
370
    15
100
AcDbSpline
210
0.0
220
0.0
230
1.0
 70
     8
 71
     3
 72
    24
 73
    20
 74
     0
 42
0.000000001
 43
0.00000001
 40
0.0
 40
0.0
 40
0.0
 40
0.0
 40
0.0617087493743627
 40
0.1252372755574937
 40
0.1885309805132148
 40
0.2509305509555709
 40
0.3130409675235134
 40
0.3755023914560307
 40
0.4379589352476554
 40
0.4994688322562049
 40
0.5610824013278728
 40
0.623544369984506
 40
0.6861429606818762
 40
0.7482311544071525
 40
0.8104792077812242
 40
0.8736616521711077
 40
0.9368990575724673
 40
0.9995527319596672
 40
1.0
 40
1.0
 40
1.0
 40
1.0
 10
122.2069076295472
 20
142.1939965942037
 30
0.0
 10
122.1901224827227
 20
142.1904564492098
 30
0.0
 10
122.156057198959
 20
142.1832717611615
 30
0.0
 10
121.8714900086745
 20
142.1252158750208
 30
0.0
 10
121.4412675279552
 20
142.0400168305991
 30
0.0
 10
120.8547266799459
 20
141.9350546798284
 30
0.0
 10
120.1421269597151
 20
141.8236293757043
 30
0.0
 10
119.3230123379796
 20
141.7181692899223
 30
0.0
 10
118.4367773287703
 20
141.6288253585089
 30
0.0
 10
117.513266400687
 20
141.5660848851545
 30
0.0
 10
116.5872937656427
 20
141.533744133758
 30
0.0
 10
115.6937090185878
 20
141.5324142268115
 30
0.0
 10
114.8657007554472
 20
141.5547279886934
 30
0.0
 10
114.1446163020637
 20
141.5949011991037
 30
0.0
 10
113.5545403525591
 20
141.6415975038871
 30
0.0
 10
113.1132713732366
 20
141.6855151545213
 30
0.0
 10
112.8539797981204
 20
141.7130248557247
 30
0.0
 10
112.7476772210085
 20
141.7250885947067
 30
0.0
 10
112.7778466104423
 20
141.7217153246311
 30
0.0
 10
112.7780604551674
 20
141.7216914144352
 30
0.0
  0
SPLINE
  5
E6
330
1F
100
AcDbEntity
  8
0
  6
Continuous
 62
     7
370
    15
100
AcDbSpline
210
0.0
220
0.0
230
1.0
 70
     8
 71
     3
 72
     9
 73
     5
 74
     0
 42
0.000000001
 43
0.00000001
 40
0.0
 40
0.0
 40
0.0
 40
0.0
 40
0.7140681271130342
 40
1.0
 40
1.0
 40
1.0
 40
1.0
 10
89.62068158557845
 20
87.99458367805619
 30
0.0
 10
89.62611735970896
 20
87.99440616692424
 30
0.0
 10
89.6337297623973
 20
87.9941575756131
 30
0.0
 10
89.64445671145646
 20
88.06817667420715
 30
0.0
 10
89.6475238880913
 20
88.08934109369756
 30
0.0
  0
LINE
  5
E7
330
1F
100
AcDbEntity
  8
0
  6
Continuous
 62
     7
370
    15
100
AcDbLine
 10
89.6169199179
 20
87.9867355274
 30
0.0
 11
89.6169199179
 21
136.3204923987
 31
0.0
  0
SPLINE
  5
E8
330
1F
100
AcDbEntity
  8
0
  6
Continuous
 62
     7
370
    15
100
AcDbSpline
210
0.0
220
0.0
230
1.0
 70
     8
 71
     3
 72
     8
 73
     4
 74
     0
 42
0.000000001
 43
0.00000001
 40
0.0
 40
0.0
 40
0.0
 40
0.0
 40
1.0
 40
1.0
 40
1.0
 40
1.0
 10
89.64752388809113
 20
136.2178868323803
 30
0.0
 10
89.63742755111636
 20
136.3117602165553
 30
0.0
 10
89.61691991786446
 20
136.3364435632964
 30
0.0
 10
89.61691991786446
 20
136.3204923987161
 30
0.0
  0
SPLINE
  5
E9
330
1F
100
AcDbEntity
  8
0
  6
Continuous
 62
     7
370
    15
100
AcDbSpline
210
0.0
220
0.0
230
1.0
 70
     8
 71
     3
 72
    26
 73
    22
 74
     0
 42
0.000000001
 43
0.00000001
 40
0.0
 40
0.0
 40
0.0
 40
0.0
 40
0.2500000000000056
 40
0.2500000000000056
 40
0.3750000000000083
 40
0.3750000000000083
 40
0.4375000000000094
 40
0.4375000000000094
 40
0.5000000000000105
 40
0.5000000000000105
 40
0.5312500000000097
 40
0.5312500000000097
 40
0.5625000000000088
 40
0.5625000000000088
 40
0.6250000000000071
 40
0.6250000000000071
 40
0.7500000000000048
 40
0.7500000000000048
 40
0.8750000000000024
 40
0.8750000000000024
 40
1.0
 40
1.0
 40
1.0
 40
1.0
 10
90.91932921602393
 20
137.4129929141151
 30
0.0
 10
90.85321628015608
 20
137.2105126885168
 30
0.0
 10
90.77272444137962
 20
136.9957509593752
 30
0.0
 10
90.60833871730368
 20
136.6400856299474
 30
0.0
 10
90.5468887860581
 20
136.5167543119987
 30
0.0
 10
90.431005406012
 20
136.3147412678739
 30
0.0
 10
90.38893982971038
 20
136.2454282159345
 30
0.0
 10
90.29001833639991
 20
136.0984130530507
 30
0.0
 10
90.23275528611691
 20
136.0189314418555
 30
0.0
 10
90.12527705722484
 20
135.9005406306333
 30
0.0
 10
90.08621080420782
 20
135.8626231466614
 30
0.0
 10
90.01315974726376
 20
135.8045291474201
 30
0.0
 10
89.98160462908535
 20
135.7858637954419
 30
0.0
 10
89.90297737777517
 20
135.7511044317411
 30
0.0
 10
89.8687388619878
 20
135.7522809741896
 30
0.0
 10
89.78476591569309
 20
135.7746560796904
 30
0.0
 10
89.75475798288988
 20
135.8168619249771
 30
0.0
 10
89.70593427763782
 20
135.9130324400178
 30
0.0
 10
89.68941342298614
 20
135.9694120076189
 30
0.0
 10
89.66364411930346
 20
136.088928919695
 30
0.0
 10
89.65456591196732
 20
136.15241173836
 30
0.0
 10
89.64752388809129
 20
136.2178868323805
 30
0.0
  0
SPLINE
  5
EA
330
1F
100
AcDbEntity
  8
0
  6
Continuous
 62
     7
370
    15
100
AcDbSpline
210
0.0
220
0.0
230
1.0
 70
     8
 71
     3
 72
     8
 73
     4
 74
     0
 42
0.000000001
 43
0.00000001
 40
0.0
 40
0.0
 40
0.0
 40
0.0
 40
1.0
 40
1.0
 40
1.0
 40
1.0
 10
91.13686001064016
 20
137.8149142460218
 30
0.0
 10
91.04376720795062
 20
137.690283239723
 30
0.0
 10
90.96525748095776
 20
137.5536547274585
 30
0.0
 10
90.91932921602772
 20
137.4129929141182
 30
0.0
  0
SPLINE
  5
EB
330
1F
100
AcDbEntity
  8
0
  6
Continuous
 62
     7
370
    15
100
AcDbSpline
210
0.0
220
0.0
230
1.0
 70
     8
 71
     3
 72
     8
 73
     4
 74
     0
 42
0.000000001
 43
0.00000001
 40
0.0
 40
0.0
 40
0.0
 40
0.0
 40
1.0
 40
1.0
 40
1.0
 40
1.0
 10
90.91932921602758
 20
86.89423501196018
 30
0.0
 10
90.96525748095861
 20
86.7535731986167
 30
0.0
 10
91.04376720795393
 20
86.61694468634926
 30
0.0
 10
91.13686001064625
 20
86.49231368004807
 30
0.0
  0
SPLINE
  5
EC
330
1F
100
AcDbEntity
  8
0
  6
Continuous
 62
     7
370
    15
100
AcDbSpline
210
0.0
220
0.0
230
1.0
 70
     8
 71
     3
 72
    26
 73
    22
 74
     0
 42
0.000000001
 43
0.00000001
 40
0.0
 40
0.0
 40
0.0
 40
0.0
 40
0.2500000000000008
 40
0.2500000000000008
 40
0.3750000000000012
 40
0.3750000000000012
 40
0.4375000000000003
 40
0.4375000000000003
 40
0.4687500000000004
 40
0.4687500000000004
 40
0.5000000000000004
 40
0.5000000000000004
 40
0.5312500000000004
 40
0.5312500000000004
 40
0.5625000000000004
 40
0.5625000000000004
 40
0.6250000000000004
 40
0.6250000000000004
 40
0.7500000000000006
 40
0.7500000000000006
 40
1.0
 40
1.0
 40
1.0
 40
1.0
 10
89.6475238880913
 20
88.08934109369756
 30
0.0
 10
89.66161624603394
 20
88.22036854795032
 30
0.0
 10
89.68134855636778
 20
88.34583082265853
 30
0.0
 10
89.75491346632502
 20
88.49064068458316
 30
0.0
 10
89.78537486604765
 20
88.53286579158772
 30
0.0
 10
89.8688441665681
 20
88.55490868138257
 30
0.0
 10
89.9037377549038
 20
88.55598387105593
 30
0.0
 10
89.98248907184616
 20
88.52087248926163
 30
0.0
 10
90.01431868337045
 20
88.50188310642092
 30
0.0
 10
90.08692209945524
 20
88.44393037964763
 30
0.0
 10
90.12686171868172
 20
88.40506419817012
 30
0.0
 10
90.19823751587342
 20
88.32619141776762
 30
0.0
 10
90.23095263423374
 20
88.28551470871834
 30
0.0
 10
90.28980354198646
 20
88.20755857429407
 30
0.0
 10
90.31676776840308
 20
88.16915816172082
 30
0.0
 10
90.39110309344373
 20
88.05837641328438
 30
0.0
 10
90.43297096855274
 20
87.9891907373148
 30
0.0
 10
90.54818630964341
 20
87.78794155284488
 30
0.0
 10
90.61019765519274
 20
87.66331278427441
 30
0.0
 10
90.77337536629551
 20
87.3096758113374
 30
0.0
 10
90.85327518451264
 20
87.09653483463434
 30
0.0
 10
90.91932921602547
 20
86.89423501196212
 30
0.0
  0
LINE
  5
ED
330
1F
100
AcDbEntity
  8
0
  6
Continuous
 62
     7
370
    15
100
AcDbLine
 10
149.4269199179
 20
137.8893503038
 30
0.0
 11
149.4269199179
 21
139.8134970001
 31
0.0
  0
SPLINE
  5
EE
330
1F
100
AcDbEntity
  8
0
  6
Continuous
 62
     7
370
    15
100
AcDbSpline
210
0.0
220
0.0
230
1.0
 70
     8
 71
     3
 72
     8
 73
     4
 74
     0
 42
0.000000001
 43
0.00000001
 40
0.0
 40
0.0
 40
0.0
 40
0.0
 40
1.0
 40
1.0
 40
1.0
 40
1.0
 10
149.4269199178644
 20
139.8134970001459
 30
0.0
 10
149.9567195075939
 20
141.0470813964952
 30
0.0
 10
150.4998852255541
 20
142.2751180678699
 30
0.0
 10
151.0531903166509
 20
143.4981110877338
 30
0.0
  0
LINE
  5
EF
330
1F
100
AcDbEntity
  8
0
  6
Continuous
 62
     7
370
    15
100
AcDbLine
 10
151.0531903167
 20
143.4981110877
 30
0.0
 11
154.4669199179
 21
143.4981110877
 31
0.0
  0
SPLINE
  5
F0
330
1F
100
AcDbEntity
  8
0
  6
Continuous
 62
     7
370
    15
100
AcDbSpline
210
0.0
220
0.0
230
1.0
 70
     8
 71
     3
 72
    12
 73
     8
 74
     0
 42
0.000000001
 43
0.00000001
 40
0.0
 40
0.0
 40
0.0
 40
0.0
 40
0.2500000000000019
 40
0.2500000000000019
 40
0.5000000000000008
 40
0.5000000000000008
 40
1.0
 40
1.0
 40
1.0
 40
1.0
 10
154.4669199178645
 20
143.4981110877339
 30
0.0
 10
154.6174959912812
 20
143.4981110877339
 30
0.0
 10
154.7664977615647
 20
143.4530000860611
 30
0.0
 10
155.0237507674958
 20
143.2972044466703
 30
0.0
 10
155.1330345199663
 20
143.1873269426896
 30
0.0
 10
155.387806275812
 20
142.8154841265039
 30
0.0
 10
155.4669199178645
 20
142.5116413432731
 30
0.0
 10
155.4669199178645
 20
142.2115164181339
 30
0.0
  0
LINE
  5
F1
330
1F
100
AcDbEntity
  8
0
  6
Continuous
 62
     7
370
    15
100
AcDbLine
 10
155.4669199179
 20
142.2115164181
 30
0.0
 11
155.4669199179
 21
137.003613963
 31
0.0
  0
SPLINE
  5
F2
330
1F
100
AcDbEntity
  8
0
  6
Continuous
 62
     7
370
    15
100
AcDbSpline
210
0.0
220
0.0
230
1.0
 70
     8
 71
     3
 72
     8
 73
     4
 74
     0
 42
0.000000001
 43
0.00000001
 40
0.0
 40
0.0
 40
0.0
 40
0.0
 40
1.0
 40
1.0
 40
1.0
 40
1.0
 10
151.0531903166509
 20
151.1279645028492
 30
0.0
 10
150.5102634137143
 20
150.1628405506523
 30
0.0
 10
149.9681087000362
 20
149.1972850445057
 30
0.0
 10
149.4269199178644
 20
148.2311918976292
 30
0.0
  0
LINE
  5
F3
330
1F
100
AcDbEntity
  8
0
  6
Continuous
 62
     7
370
    15
100
AcDbLine
 10
151.0531903167
 20
143.4981110877
 30
0.0
 11
151.0531903167
 21
151.1279645028
 31
0.0
  0
LINE
  5
F4
330
1F
100
AcDbEntity
  8
0
  6
Continuous
 62
     7
370
    15
100
AcDbLine
 10
149.4269199179
 20
139.8134970001
 30
0.0
 11
149.4269199179
 21
148.2311918976
 31
0.0
  0
SPLINE
  5
F5
330
1F
100
AcDbEntity
  8
0
  6
Continuous
 62
     7
370
    15
100
AcDbSpline
210
0.0
220
0.0
230
1.0
 70
     8
 71
     3
 72
     8
 73
     4
 74
     0
 42
0.000000001
 43
0.00000001
 40
0.0
 40
0.0
 40
0.0
 40
0.0
 40
1.0
 40
1.0
 40
1.0
 40
1.0
 10
145.6069199178644
 20
148.2311918976292
 30
0.0
 10
145.0657311356927
 20
149.1972850445057
 30
0.0
 10
144.5235764220146
 20
150.1628405506523
 30
0.0
 10
143.980649519078
 20
151.1279645028492
 30
0.0
  0
SPLINE
  5
F6
330
1F
100
AcDbEntity
  8
0
  6
Continuous
 62
     7
370
    15
100
AcDbSpline
210
0.0
220
0.0
230
1.0
 70
     8
 71
     3
 72
     8
 73
     4
 74
     0
 42
0.000000001
 43
0.00000001
 40
0.0
 40
0.0
 40
0.0
 40
0.0
 40
1.0
 40
1.0
 40
1.0
 40
1.0
 10
143.980649519078
 20
143.4981110877338
 30
0.0
 10
144.534182518018
 20
142.2746143137821
 30
0.0
 10
145.0775953356861
 20
141.0459753897815
 30
0.0
 10
145.6069199178644
 20
139.8134970001459
 30
0.0
  0
LINE
  5
F7
330
1F
100
AcDbEntity
  8
0
  6
Continuous
 62
     7
370
    15
100
AcDbLine
 10
145.6069199179
 20
139.8134970001
 30
0.0
 11
145.6069199179
 21
148.2311918976
 31
0.0
  0
LINE
  5
F8
330
1F
100
AcDbEntity
  8
0
  6
Continuous
 62
     7
370
    15
100
AcDbLine
 10
154.4669199179
 20
151.1279645028
 30
0.0
 11
151.0531903167
 21
151.1279645028
 31
0.0
  0
SPLINE
  5
F9
330
1F
100
AcDbEntity
  8
0
  6
Continuous
 62
     7
370
    15
100
AcDbSpline
210
0.0
220
0.0
230
1.0
 70
     8
 71
     3
 72
    12
 73
     8
 74
     0
 42
0.000000001
 43
0.00000001
 40
0.0
 40
0.0
 40
0.0
 40
0.0
 40
0.5000000000000022
 40
0.5000000000000022
 40
0.7500000000000011
 40
0.7500000000000011
 40
1.0
 40
1.0
 40
1.0
 40
1.0
 10
155.4669199178645
 20
150.1009458850596
 30
0.0
 10
155.4669199178645
 20
150.3670876533125
 30
0.0
 10
155.3632032222966
 20
150.6303745715395
 30
0.0
 10
155.0868212371807
 20
150.9181360171346
 30
0.0
 10
154.9765236522184
 20
150.9951155865917
 30
0.0
 10
154.7320278718485
 20
151.1005566654286
 30
0.0
 10
154.5998148444475
 20
151.1279645028492
 30
0.0
 10
154.4669199178645
 20
151.1279645028492
 30
0.0
  0
LINE
  5
FA
330
1F
100
AcDbEntity
  8
0
  6
Continuous
 62
     7
370
    15
100
AcDbLine
 10
155.4669199179
 20
142.2115164181
 30
0.0
 11
155.4669199179
 21
150.1009458851
 31
0.0
  0
LINE
  5
FB
330
1F
100
AcDbEntity
  8
0
  6
Continuous
 62
     7
370
    15
100
AcDbLine
 10
145.6069199179
 20
139.8134970001
 30
0.0
 11
145.6069199179
 21
137.8893503038
 31
0.0
  0
LINE
  5
FC
330
1F
100
AcDbEntity
  8
0
  6
Continuous
 62
     7
370
    15
100
AcDbLine
 10
91.2669199179
 20
86.333613963
 30
0.0
 11
91.2669199179
 21
86.3364825893
 31
0.0
  0
LINE
  5
FD
330
1F
100
AcDbEntity
  8
0
  6
Continuous
 62
     7
370
    15
100
AcDbLine
 10
91.2669199179
 20
137.973613963
 30
0.0
 11
91.2669199179
 21
137.9707453368
 31
0.0
  0
CIRCLE
  5
FE
330
1F
100
AcDbEntity
  8
0
  6
HIDDEN
 62
     7
370
     0
100
AcDbCircle
 10
185.9669199179
 20
112.153613963
 30
0.0
 40
7.012850235103736
  0
CIRCLE
  5
FF
330
1F
100
AcDbEntity
  8
0
  6
HIDDEN
 62
     7
370
     0
100
AcDbCircle
 10
185.9669199179
 20
112.153613963
 30
0.0
 40
5.294716599621013
  0
CIRCLE
  5
100
330
1F
100
AcDbEntity
  8
0
  6
HIDDEN
 62
     7
370
     0
100
AcDbCircle
 10
185.9669199179
 20
112.153613963
 30
0.0
 40
4.894716599620994
  0
LINE
  5
101
330
1F
100
AcDbEntity
  8
0
  6
HIDDEN
 62
     7
370
     0
100
AcDbLine
 10
143.9806495191
 20
143.4981110877
 30
0.0
 11
143.9806495191
 21
137.003613963
 31
0.0
  0
CIRCLE
  5
102
330
1F
100
AcDbEntity
  8
0
  6
HIDDEN
 62
     7
370
     0
100
AcDbCircle
 10
185.9669199179
 20
112.153613963
 30
0.0
 40
7.249999999999986
  0
LINE
  5
103
330
1F
100
AcDbEntity
  8
0
  6
HIDDEN
 62
     7
370
     0
100
AcDbLine
 10
204.7669199179
 20
136.1479116493
 30
0.0
 11
204.7669199179
 21
141.0452337727
 31
0.0
  0
SPLINE
  5
104
330
1F
100
AcDbEntity
  8
0
  6
HIDDEN
 62
     7
370
     0
100
AcDbSpline
210
0.0
220
0.0
230
1.0
 70
     8
 71
     3
 72
    16
 73
    12
 74
     0
 42
0.000000001
 43
0.00000001
 40
0.0
 40
0.0
 40
0.0
 40
0.0
 40
0.2499999999999993
 40
0.2499999999999993
 40
0.4999999999999986
 40
0.4999999999999986
 40
0.6249999999999988
 40
0.6249999999999988
 40
0.7499999999999989
 40
0.7499999999999989
 40
1.0
 40
1.0
 40
1.0
 40
1.0
 10
204.7669199178644
 20
132.0716575749089
 30
0.0
 10
204.9024244645569
 20
132.6200149412014
 30
0.0
 10
205.006232241237
 20
133.1421604169851
 30
0.0
 10
205.1498320506726
 20
134.1241143076398
 30
0.0
 10
205.1858544318274
 20
134.5584031190077
 30
0.0
 10
205.1857552257916
 20
135.1161435278821
 30
0.0
 10
205.17655289523
 20
135.2811765961262
 30
0.0
 10
205.1404911642459
 20
135.5712679714835
 30
0.0
 10
205.1133796911989
 20
135.696997594765
 30
0.0
 10
205.0057624092886
 20
136.0073112298144
 30
0.0
 10
204.9024126585076
 20
136.1216257112917
 30
0.0
 10
204.7669199178644
 20
136.1479116493344
 30
0.0
  0
LINE
  5
105
330
1F
100
AcDbEntity
  8
0
  6
HIDDEN
 62
     7
370
     0
100
AcDbLine
 10
204.7669199179
 20
92.2355703512
 30
0.0
 11
204.7669199179
 21
132.0716575749
 31
0.0
  0
SPLINE
  5
106
330
1F
100
AcDbEntity
  8
0
  6
HIDDEN
 62
     7
370
     0
100
AcDbSpline
210
0.0
220
0.0
230
1.0
 70
     8
 71
     3
 72
    16
 73
    12
 74
     0
 42
0.000000001
 43
0.00000001
 40
0.0
 40
0.0
 40
0.0
 40
0.0
 40
0.2499999999999998
 40
0.2499999999999998
 40
0.4999999999999997
 40
0.4999999999999997
 40
0.625
 40
0.625
 40
0.7500000000000003
 40
0.7500000000000003
 40
1.0
 40
1.0
 40
1.0
 40
1.0
 10
204.7669199178644
 20
88.15931627674368
 30
0.0
 10
204.9024244645568
 20
88.18560450519007
 30
0.0
 10
205.006232241237
 20
88.30034966349886
 30
0.0
 10
205.1498320506726
 20
88.71626898476079
 30
0.0
 10
205.1858544318274
 20
89.0069042424235
 30
0.0
 10
205.1857552257916
 20
89.56503875380518
 30
0.0
 10
205.17655289523
 20
89.76666297726526
 30
0.0
 10
205.140491164246
 20
90.19973076136618
 30
0.0
 10
205.1133796911989
 20
90.43284371024912
 30
0.0
 10
205.0057624092886
 20
91.16734162791555
 30
0.0
 10
204.9024126585076
 20
91.68726076138483
 30
0.0
 10
204.7669199178644
 20
92.2355703511691
 30
0.0
  0
LINE
  5
107
330
1F
100
AcDbEntity
  8
0
  6
HIDDEN
 62
     7
370
     0
100
AcDbLine
 10
204.7669199179
 20
83.2619941534
 30
0.0
 11
204.7669199179
 21
88.1593162767
 31
0.0
  0
LINE
  5
108
330
1F
100
AcDbEntity
  8
0
  6
HIDDEN
 62
     7
370
     0
100
AcDbLine
 10
114.1563343619
 20
82.7105571148
 30
0.0
 11
113.8702178629
 21
82.6884290917
 31
0.0
  0
SPLINE
  5
109
330
1F
100
AcDbEntity
  8
0
  6
HIDDEN
 62
     7
370
     0
100
AcDbSpline
210
0.0
220
0.0
230
1.0
 70
     8
 71
     3
 72
    24
 73
    20
 74
     0
 42
0.000000001
 43
0.00000001
 40
0.0
 40
0.0
 40
0.0
 40
0.0
 40
0.0595370949379792
 40
0.1208126116616081
 40
0.1803454131236863
 40
0.2415919018467099
 40
0.301307676231502
 40
0.3627887741767182
 40
0.4218966067046792
 40
0.4827545513882366
 40
0.5412807091099368
 40
0.6014867151310413
 40
0.6603627197932919
 40
0.7209039658167989
 40
0.7805131136233134
 40
0.8418488855574523
 40
0.9014407220638349
 40
0.9628030331916677
 40
1.0
 40
1.0
 40
1.0
 40
1.0
 10
121.5169199178645
 20
87.19489805055666
 30
0.0
 10
121.4264709217788
 20
87.20918732027371
 30
0.0
 10
121.2429319121804
 20
87.23818309165043
 30
0.0
 10
120.833825109394
 20
87.29658886201626
 30
0.0
 10
120.3349239785484
 20
87.35878367774706
 30
0.0
 10
119.7581143136409
 20
87.41830650775934
 30
0.0
 10
119.1110901486446
 20
87.46901046501456
 30
0.0
 10
118.4249629833546
 20
87.5041416094102
 30
0.0
 10
117.7083454940485
 20
87.52024770700852
 30
0.0
 10
116.9975088055972
 20
87.51543327438094
 30
0.0
 10
116.2977153240974
 20
87.49048259341689
 30
0.0
 10
115.6396370548042
 20
87.44881580643843
 30
0.0
 10
115.0273447725818
 20
87.39427292322274
 30
0.0
 10
114.4862205236736
 20
87.3334642734209
 30
0.0
 10
114.0237796162435
 20
87.27223190402297
 30
0.0
 10
113.6608326537587
 20
87.21815483671394
 30
0.0
 10
113.4095757639915
 20
87.1777236604511
 30
0.0
 10
113.2774661508693
 20
87.15541240643532
 30
0.0
 10
113.2795646668596
 20
87.15576178941832
 30
0.0
 10
113.2803566615989
 20
87.15589364902094
 30
0.0
  0
SPLINE
  5
10A
330
1F
100
AcDbEntity
  8
0
  6
HIDDEN
 62
     7
370
     0
100
AcDbSpline
210
0.0
220
0.0
230
1.0
 70
     8
 71
     3
 72
    24
 73
    20
 74
     0
 42
0.000000001
 43
0.00000001
 40
0.0
 40
0.0
 40
0.0
 40
0.0
 40
0.0216634350240443
 40
0.0822522493359183
 40
0.1408073464403032
 40
0.2010298253365713
 40
0.2601569393004936
 40
0.3209635727104779
 40
0.3806800987260039
 40
0.4421439624408165
 40
0.501542643069721
 40
0.5627083768109247
 40
0.6213598671252839
 40
0.6817154354669668
 40
0.7403628543158376
 40
0.8006701258503865
 40
0.8600531164425621
 40
0.9211362185472697
 40
1.0
 40
1.0
 40
1.0
 40
1.0
 10
113.2803566615989
 20
137.1513342770571
 30
0.0
 10
113.2768301530162
 20
137.1519324323842
 30
0.0
 10
113.2634406207045
 20
137.1542035228667
 30
0.0
 10
113.3629171265166
 20
137.137300510615
 30
0.0
 10
113.5762217285364
 20
137.1024400438754
 30
0.0
 10
113.9034636308921
 20
137.0523610151448
 30
0.0
 10
114.3330973551858
 20
136.9931157259218
 30
0.0
 10
114.8510363509484
 20
136.9314404482243
 30
0.0
 10
115.4514851135198
 20
136.8734743737798
 30
0.0
 10
116.1070582279404
 20
136.8268910398764
 30
0.0
 10
116.8087755135483
 20
136.7964755695871
 30
0.0
 10
117.5205593966463
 20
136.7862371625655
 30
0.0
 10
118.2355534881954
 20
136.7968651987909
 30
0.0
 10
118.9205324720179
 20
136.826641428858
 30
0.0
 10
119.5715638647538
 20
136.8726455140005
 30
0.0
 10
120.1626445690273
 20
136.9293123791086
 30
0.0
 10
120.684692841494
 20
136.9909912905231
 30
0.0
 10
121.1722138899538
 20
137.0580443377109
 30
0.0
 10
121.3926809057975
 20
137.0927642716705
 30
0.0
 10
121.5169199178645
 20
137.1123298755214
 30
0.0
  0
SPLINE
  5
10B
330
1F
100
AcDbEntity
  8
0
  6
HIDDEN
 62
     7
370
     0
100
AcDbSpline
210
0.0
220
0.0
230
1.0
 70
     8
 71
     3
 72
    10
 73
     6
 74
     0
 42
0.000000001
 43
0.00000001
 40
0.0
 40
0.0
 40
0.0
 40
0.0
 40
0.4765666696074355
 40
0.9669538707195549
 40
1.0
 40
1.0
 40
1.0
 40
1.0
 10
121.5169199178645
 20
137.1123298755214
 30
0.0
 10
121.5826525249046
 20
137.1225894319993
 30
0.0
 10
121.716023998118
 20
137.1434060742046
 30
0.0
 10
121.7849195542614
 20
137.1531258111522
 30
0.0
 10
121.7642652454163
 20
137.1500990824918
 30
0.0
 10
121.7629612685377
 20
137.1499079948007
 30
0.0
  0
SPLINE
  5
10C
330
1F
100
AcDbEntity
  8
0
  6
HIDDEN
 62
     7
370
     0
100
AcDbSpline
210
0.0
220
0.0
230
1.0
 70
     8
 71
     3
 72
     9
 73
     5
 74
     0
 42
0.000000001
 43
0.00000001
 40
0.0
 40
0.0
 40
0.0
 40
0.0
 40
0.4746899077572534
 40
0.9999999999999999
 40
0.9999999999999999
 40
0.9999999999999999
 40
0.9999999999999999
 10
121.7628846986875
 20
87.15733116830698
 30
0.0
 10
121.7548787871415
 20
87.15840096784363
 30
0.0
 10
121.7380132262457
 20
87.16065464865541
 30
0.0
 10
121.5930634815966
 20
87.18310477343685
 30
0.0
 10
121.5169199178645
 20
87.19489805055666
 30
0.0
  0
LINE
  5
10D
330
1F
100
AcDbEntity
  8
0
  6
HIDDEN
 62
     7
370
     0
100
AcDbLine
 10
105.5122193795
 20
91.153613963
 30
0.0
 11
105.5122193795
 21
133.153613963
 31
0.0
  0
LINE
  5
10E
330
1F
100
AcDbEntity
  8
0
  6
HIDDEN
 62
     7
370
     0
100
AcDbLine
 10
200.4669199179
 20
101.1554322951
 30
0.0
 11
200.4669199179
 21
123.1517956309
 31
0.0
  0
LINE
  5
10F
330
1F
100
AcDbEntity
  8
0
  6
HIDDEN
 62
     7
370
     0
100
AcDbLine
 10
139.0453044883
 20
91.153613963
 30
0.0
 11
139.0453044883
 21
133.153613963
 31
0.0
  0
LINE
  5
110
330
1F
100
AcDbEntity
  8
0
  6
HIDDEN
 62
     7
370
     0
100
AcDbLine
 10
141.9669199179
 20
92.928613963
 30
0.0
 11
141.9669199179
 21
131.3786139499
 31
0.0
  0
LINE
  5
111
330
1F
100
AcDbEntity
  8
0
  6
HIDDEN
 62
     7
370
     0
100
AcDbLine
 10
204.7669199179
 20
136.1479116493
 30
0.0
 11
204.7669199179
 21
136.0218795805
 31
0.0
  0
LINE
  5
112
330
1F
100
AcDbEntity
  8
0
  6
HIDDEN
 62
     7
370
     0
100
AcDbLine
 10
200.4669199179
 20
136.0218795805
 30
0.0
 11
204.7669199179
 21
136.0218795805
 31
0.0
  0
LINE
  5
113
330
1F
100
AcDbEntity
  8
0
  6
HIDDEN
 62
     7
370
     0
100
AcDbLine
 10
200.4669199179
 20
136.153613963
 30
0.0
 11
200.4669199179
 21
130.953613963
 31
0.0
  0
LINE
  5
114
330
1F
100
AcDbEntity
  8
0
  6
HIDDEN
 62
     7
370
     0
100
AcDbLine
 10
200.4669199179
 20
123.1517956309
 30
0.0
 11
204.7669199179
 21
123.1517956309
 31
0.0
  0
LINE
  5
115
330
1F
100
AcDbEntity
  8
0
  6
HIDDEN
 62
     7
370
     0
100
AcDbLine
 10
200.4669199179
 20
130.953613963
 30
0.0
 11
200.4669199179
 21
123.1517956309
 31
0.0
  0
LINE
  5
116
330
1F
100
AcDbEntity
  8
0
  6
HIDDEN
 62
     7
370
     0
100
AcDbLine
 10
204.7669199179
 20
101.1554322951
 30
0.0
 11
200.4669199179
 21
101.1554322951
 31
0.0
  0
LINE
  5
117
330
1F
100
AcDbEntity
  8
0
  6
HIDDEN
 62
     7
370
     0
100
AcDbLine
 10
200.4669199179
 20
101.1554322951
 30
0.0
 11
200.4669199179
 21
93.353613963
 31
0.0
  0
LINE
  5
118
330
1F
100
AcDbEntity
  8
0
  6
HIDDEN
 62
     7
370
     0
100
AcDbLine
 10
200.4669199179
 20
88.2853483456
 30
0.0
 11
204.7669199179
 21
88.2853483456
 31
0.0
  0
LINE
  5
119
330
1F
100
AcDbEntity
  8
0
  6
HIDDEN
 62
     7
370
     0
100
AcDbLine
 10
204.7669199179
 20
88.2853483456
 30
0.0
 11
204.7669199179
 21
88.1593162767
 31
0.0
  0
LINE
  5
11A
330
1F
100
AcDbEntity
  8
0
  6
HIDDEN
 62
     7
370
     0
100
AcDbLine
 10
200.4669199179
 20
93.353613963
 30
0.0
 11
200.4669199179
 21
88.153613963
 31
0.0
  0
SPLINE
  5
11B
330
1F
100
AcDbEntity
  8
0
  6
HIDDEN
 62
     7
370
     0
100
AcDbSpline
210
0.0
220
0.0
230
1.0
 70
     8
 71
     3
 72
    18
 73
    14
 74
     0
 42
0.000000001
 43
0.00000001
 40
0.0
 40
0.0
 40
0.0
 40
0.0
 40
0.2499999999999984
 40
0.2499999999999984
 40
0.3749999999999984
 40
0.3749999999999984
 40
0.4999999999999986
 40
0.4999999999999986
 40
0.6249999999999987
 40
0.6249999999999987
 40
0.7499999999999987
 40
0.7499999999999987
 40
1.0
 40
1.0
 40
1.0
 40
1.0
 10
97.71691991786446
 20
132.242058402567
 30
0.0
 10
97.71691991786446
 20
132.1667221990771
 30
0.0
 10
97.669558718938
 20
132.0884267641172
 30
0.0
 10
97.5312724544348
 20
131.9711851865968
 30
0.0
 10
97.4748392812377
 20
131.9329960556245
 30
0.0
 10
97.34148642865803
 20
131.858890924859
 30
0.0
 10
97.26352405149868
 20
131.8225988290436
 30
0.0
 10
97.09093194488212
 20
131.7554765089408
 30
0.0
 10
96.99657888957206
 20
131.7245891067207
 30
0.0
 10
96.79121599231883
 20
131.6690243394801
 30
0.0
 10
96.67899184071601
 20
131.6442254151004
 30
0.0
 10
96.33117748733503
 20
131.5842144818609
 30
0.0
 10
96.0758696561742
 20
131.5618493284709
 30
0.0
 10
95.81691991786448
 20
131.5618493284709
 30
0.0
  0
LINE
  5
11C
330
1F
100
AcDbEntity
  8
0
  6
HIDDEN
 62
     7
370
     0
100
AcDbLine
 10
95.8169199179
 20
131.5618493285
 30
0.0
 11
91.2669199179
 21
131.5618493285
 31
0.0
  0
LINE
  5
11D
330
1F
100
AcDbEntity
  8
0
  6
HIDDEN
 62
     7
370
     0
100
AcDbLine
 10
91.2669199179
 20
92.7453785976
 30
0.0
 11
99.8169199179
 21
92.7453785976
 31
0.0
  0
SPLINE
  5
11E
330
1F
100
AcDbEntity
  8
0
  6
HIDDEN
 62
     7
370
     0
100
AcDbSpline
210
0.0
220
0.0
230
1.0
 70
     8
 71
     3
 72
    18
 73
    14
 74
     0
 42
0.000000001
 43
0.00000001
 40
0.0
 40
0.0
 40
0.0
 40
0.0
 40
0.1249999999999988
 40
0.1249999999999988
 40
0.2499999999999976
 40
0.2499999999999976
 40
0.4999999999999982
 40
0.4999999999999982
 40
0.7499999999999989
 40
0.7499999999999989
 40
0.8749999999999994
 40
0.8749999999999994
 40
1.0
 40
1.0
 40
1.0
 40
1.0
 10
99.81691991786447
 20
92.74537859760716
 30
0.0
 10
99.94623399008051
 20
92.74537859760714
 30
0.0
 10
100.0730898674834
 20
92.73996638430732
 30
0.0
 10
100.3221442755516
 20
92.71903684986697
 30
0.0
 10
100.4456127056822
 20
92.7032315238229
 30
0.0
 10
100.7942582133402
 20
92.64318934030075
 30
0.0
 10
101.0045811227885
 20
92.58527469853311
 30
0.0
 10
101.3485664499527
 20
92.45161444634451
 30
0.0
 10
101.485195580893
 20
92.37496707462186
 30
0.0
 10
101.6227034700642
 20
92.2585955418504
 30
0.0
 10
101.6580990132234
 20
92.2188844489921
 30
0.0
 10
101.7049905926128
 20
92.1410942336559
 30
0.0
 10
101.7169199178645
 20
92.10279903594822
 30
0.0
 10
101.7169199178645
 20
92.06516952351112
 30
0.0
  0
LINE
  5
11F
330
1F
100
AcDbEntity
  8
0
  6
HIDDEN
 62
     7
370
     0
100
AcDbLine
 10
91.2669199179
 20
92.7453785976
 30
0.0
 11
91.2669199179
 21
131.5618493285
 31
0.0
  0
LINE
  5
120
330
1F
100
AcDbEntity
  8
0
  6
HIDDEN
 62
     7
370
     0
100
AcDbLine
 10
198.9669199179
 20
92.153613963
 30
0.0
 11
198.9669199179
 21
132.153613963
 31
0.0
  0
LINE
  5
121
330
1F
100
AcDbEntity
  8
0
  6
HIDDEN
 62
     7
370
     0
100
AcDbLine
 10
164.5169199179
 20
92.453613963
 30
0.0
 11
164.5169199179
 21
131.8536139467
 31
0.0
  0
LINE
  5
122
330
1F
100
AcDbEntity
  8
0
  6
HIDDEN
 62
     7
370
     0
100
AcDbLine
 10
167.0169199179
 20
92.153613963
 30
0.0
 11
167.0169199179
 21
132.153613963
 31
0.0
  0
LINE
  5
123
330
1F
100
AcDbEntity
  8
0
  6
HIDDEN
 62
     7
370
     0
100
AcDbLine
 10
200.4669199179
 20
140.178613963
 30
0.0
 11
200.4669199179
 21
136.153613963
 31
0.0
  0
LINE
  5
124
330
1F
100
AcDbEntity
  8
0
  6
HIDDEN
 62
     7
370
     0
100
AcDbLine
 10
200.4669199179
 20
88.153613963
 30
0.0
 11
200.4669199179
 21
84.128613963
 31
0.0
  0
LINE
  5
125
330
1F
100
AcDbEntity
  8
0
  6
HIDDEN
 62
     7
370
     0
100
AcDbLine
 10
91.2669199179
 20
90.213613963
 30
0.0
 11
91.2669199179
 21
86.3364825893
 31
0.0
  0
LINE
  5
126
330
1F
100
AcDbEntity
  8
0
  6
HIDDEN
 62
     7
370
     0
100
AcDbLine
 10
101.7169199179
 20
90.213613963
 30
0.0
 11
101.7169199179
 21
84.8370470387
 31
0.0
  0
LINE
  5
127
330
1F
100
AcDbEntity
  8
0
  6
HIDDEN
 62
     7
370
     0
100
AcDbLine
 10
91.2669199179
 20
134.093613963
 30
0.0
 11
91.2669199179
 21
137.9707453368
 31
0.0
  0
LINE
  5
128
330
1F
100
AcDbEntity
  8
0
  6
HIDDEN
 62
     7
370
     0
100
AcDbLine
 10
97.7169199179
 20
134.093613963
 30
0.0
 11
97.7169199179
 21
139.3542207793
 31
0.0
  0
LINE
  5
129
330
1F
100
AcDbEntity
  8
0
  6
HIDDEN
 62
     7
370
     0
100
AcDbLine
 10
151.8169199179
 20
101.153613963
 30
0.0
 11
151.8169199179
 21
123.153613963
 31
0.0
  0
LINE
  5
12A
330
1F
100
AcDbEntity
  8
0
  6
HIDDEN
 62
     7
370
     0
100
AcDbLine
 10
155.8169199179
 20
101.153613963
 30
0.0
 11
155.8169199179
 21
123.153613963
 31
0.0
  0
LINE
  5
12B
330
1F
100
AcDbEntity
  8
0
  6
HIDDEN
 62
     7
370
     0
100
AcDbLine
 10
145.7328418747
 20
78.253613963
 30
0.0
 11
142.4669199179
 21
78.253613963
 31
0.0
  0
LINE
  5
12C
330
1F
100
AcDbEntity
  8
0
  6
HIDDEN
 62
     7
370
     0
100
AcDbLine
 10
133.4669199179
 20
72.1661159168
 30
0.0
 11
133.4669199179
 21
78.253613963
 31
0.0
  0
LINE
  5
12D
330
1F
100
AcDbEntity
  8
0
  6
HIDDEN
 62
     7
370
     0
100
AcDbLine
 10
142.4669199179
 20
78.253613963
 30
0.0
 11
133.4669199179
 21
78.253613963
 31
0.0
  0
LINE
  5
12E
330
1F
100
AcDbEntity
  8
0
  6
HIDDEN
 62
     7
370
     0
100
AcDbLine
 10
155.4669199179
 20
78.253613963
 30
0.0
 11
149.300997961
 21
78.253613963
 31
0.0
  0
LINE
  5
12F
330
1F
100
AcDbEntity
  8
0
  6
HIDDEN
 62
     7
370
     0
100
AcDbLine
 10
142.7169199179
 20
102.903613963
 30
0.0
 11
142.7169199179
 21
121.403613963
 31
0.0
  0
ELLIPSE
  5
130
330
1F
100
AcDbEntity
  8
0
  6
HIDDEN
 62
     7
370
     0
100
AcDbEllipse
 10
85.1103864384
 20
112.153613963
 30
0.0
 11
24.55447626164852
 21
-1.421085471520200E-14
 31
0.0
210
0.0
220
0.0
230
1.0
 40
0.8164965809
 41
4.896967322800382
 42
4.965822814181953
  0
ELLIPSE
  5
131
330
1F
100
AcDbEntity
  8
0
  6
HIDDEN
 62
     7
370
     0
100
AcDbEllipse
 10
85.1103864384
 20
112.153613963
 30
0.0
 11
24.55447626164852
 21
0.0
 31
0.0
210
0.0
220
0.0
230
1.0
 40
0.8164965809
 41
1.317362492997646
 42
1.386217984379216
  0
LINE
  5
132
330
1F
100
AcDbEntity
  8
0
  6
HIDDEN
 62
     7
370
     0
100
AcDbLine
 10
146.0207994448
 20
146.053613963
 30
0.0
 11
142.4669199179
 21
146.053613963
 31
0.0
  0
LINE
  5
133
330
1F
100
AcDbEntity
  8
0
  6
HIDDEN
 62
     7
370
     0
100
AcDbLine
 10
142.4669199179
 20
146.053613963
 30
0.0
 11
133.4669199179
 21
146.053613963
 31
0.0
  0
LINE
  5
134
330
1F
100
AcDbEntity
  8
0
  6
HIDDEN
 62
     7
370
     0
100
AcDbLine
 10
155.4669199179
 20
146.053613963
 30
0.0
 11
149.0130403909
 21
146.053613963
 31
0.0
  0
LINE
  5
135
330
1F
100
AcDbEntity
  8
0
  6
HIDDEN
 62
     7
370
     0
100
AcDbLine
 10
101.7169199179
 20
90.213613963
 30
0.0
 11
101.7169199179
 21
92.0651695235
 31
0.0
  0
LINE
  5
136
330
1F
100
AcDbEntity
  8
0
  6
HIDDEN
 62
     7
370
     0
100
AcDbLine
 10
91.2669199179
 20
90.213613963
 30
0.0
 11
91.2669199179
 21
92.7453785976
 31
0.0
  0
LINE
  5
137
330
1F
100
AcDbEntity
  8
0
  6
HIDDEN
 62
     7
370
     0
100
AcDbLine
 10
91.2669199179
 20
134.093613963
 30
0.0
 11
91.2669199179
 21
131.5618493285
 31
0.0
  0
LINE
  5
138
330
1F
100
AcDbEntity
  8
0
  6
HIDDEN
 62
     7
370
     0
100
AcDbLine
 10
97.7169199179
 20
134.093613963
 30
0.0
 11
97.7169199179
 21
132.2420584026
 31
0.0
  0
LWPOLYLINE
  5
139
330
1F
100
AcDbEntity
  8
0
  6
HIDDEN
 62
     7
370
     0
100
AcDbPolyline
 90
       17
 70
   128
 43
0.0
 10
121.7659552112
 20
82.595548232
 10
121.503827084
 20
82.6589436196
 10
121.1206666278
 20
82.7391637093
 10
120.5327519238
 20
82.8516548936
 10
119.6845199219
 20
82.9875580192
 10
118.8531397647
 20
83.0929442559
 10
117.5343563148
 20
83.2121660623
 10
116.0313034437
 20
83.246856865
 10
115.2536016136
 20
83.2300947737
 10
114.5217945728
 20
83.1905943539
 10
113.8570115975
 20
83.1369695632
 10
113.4786560286
 20
83.0986261166
 10
113.2669290372
 20
83.0677832559
 10
113.4754071072
 20
83.098123761
 10
113.850896062
 20
83.136262457
 10
114.5096848595
 20
83.1897134484
 10
114.5096848595
 20
83.1897134484
  0
SPLINE
  5
13A
330
1F
100
AcDbEntity
  8
0
  6
HIDDEN
 62
     7
370
     0
100
AcDbSpline
210
0.0
220
0.0
230
1.0
 70
     8
 71
     3
 72
    27
 73
    23
 74
     0
 42
0.000000001
 43
0.00000001
 40
0.0
 40
0.0
 40
0.0
 40
0.0
 40
0.0004568720239808
 40
0.0442115694345923
 40
0.1004249498994759
 40
0.1690862158604365
 40
0.2081517951070067
 40
0.2503400392084002
 40
0.3204029602908244
 40
0.3853749525353443
 40
0.4259135640362396
 40
0.4642130338015147
 40
0.500289894339847
 40
0.5443495460127726
 40
0.6006632465942917
 40
0.669231875856804
 40
0.7081787659648334
 40
0.7502016683622653
 40
0.8216911150101618
 40
0.8871891793476611
 40
0.9467448070990733
 40
1.0
 40
1.0
 40
1.0
 40
1.0
 10
113.26733854217
 20
141.2393097090333
 30
0.0
 10
113.2671990567986
 20
141.2393360482094
 30
0.0
 10
113.2537010379732
 20
141.2418848939548
 30
0.0
 10
113.3065302962325
 20
141.2305661971674
 30
0.0
 10
113.4659626446901
 20
141.2086106939262
 30
0.0
 10
113.7726900434121
 20
141.1767446790675
 30
0.0
 10
114.146599422575
 20
141.1452479867525
 30
0.0
 10
114.5928810771832
 20
141.1095892637715
 30
0.0
 10
115.215512338053
 20
141.0741630577159
 30
0.0
 10
115.922027779971
 20
141.0587132081955
 30
0.0
 10
116.5372553304358
 20
141.0599621454902
 30
0.0
 10
117.0433567543111
 20
141.0713765162272
 30
0.0
 10
117.571256073992
 20
141.0940450715849
 30
0.0
 10
118.1780710153323
 20
141.1415022715214
 30
0.0
 10
118.9111009148121
 20
141.2177440120445
 30
0.0
 10
119.5770238341375
 20
141.3023570195297
 30
0.0
 10
120.1260907906601
 20
141.3839731478529
 30
0.0
 10
120.633401491048
 20
141.4720165729478
 30
0.0
 10
121.1318967319618
 20
141.5690546719118
 30
0.0
 10
121.5172837586916
 20
141.6495065031259
 30
0.0
 10
121.7312938607532
 20
141.7014295253296
 30
0.0
 10
121.7551326154318
 20
141.7084233801899
 30
0.0
 10
121.766386300775
 20
141.711725005757
 30
0.0
  0
LINE
  5
13B
330
1F
100
AcDbEntity
  8
0
  6
HIDDEN
 62
     7
370
     0
100
AcDbLine
 10
145.6069199179
 20
137.8893503038
 30
0.0
 11
145.6069199179
 21
137.003613963
 31
0.0
  0
LINE
  5
13C
330
1F
100
AcDbEntity
  8
0
  6
HIDDEN
 62
     7
370
     0
100
AcDbLine
 10
149.4269199179
 20
137.8893503038
 30
0.0
 11
149.4269199179
 21
137.003613963
 31
0.0
  0
LINE
  5
13D
330
1F
100
AcDbEntity
  8
0
  6
HIDDEN
 62
     7
370
     0
100
AcDbLine
 10
151.0531903167
 20
143.4981110877
 30
0.0
 11
151.0531903167
 21
137.003613963
 31
0.0
  0
CIRCLE
  5
13E
330
1F
100
AcDbEntity
  8
0
  6
HIDDEN
 62
     7
370
     0
100
AcDbCircle
 10
136.5169199179
 20
112.153613963
 30
0.0
 40
5.0
  0
LINE
  5
13F
330
1F
100
AcDbEntity
  8
0
  6
HIDDEN
 62
     7
370
     0
100
AcDbLine
 10
129.5169199179
 20
80.3496314073
 30
0.0
 11
129.6065215418
 21
80.9871800892
 31
0.0
  0
LINE
  5
140
330
1F
100
AcDbEntity
  8
0
  6
HIDDEN
 62
     7
370
     0
100
AcDbLine
 10
129.6065215418
 20
143.3200478369
 30
0.0
 11
129.5169199179
 21
143.9575965188
 31
0.0
  0
ARC
  5
141
330
1F
100
AcDbEntity
  8
0
  6
HIDDEN
 62
     7
370
     0
100
AcDbCircle
 10
128.6199829994
 20
81.1258290394
 30
0.0
 40
0.9962338214386983
100
AcDbArc
 50
352.0
 51
0.0
  0
ARC
  5
142
330
1F
100
AcDbEntity
  8
0
  6
HIDDEN
 62
     7
370
     0
100
AcDbCircle
 10
128.6199829994
 20
81.1258290394
 30
0.0
 40
0.9962338214386983
100
AcDbArc
 50
0.0
 51
25.7988228126
  0
ARC
  5
143
330
1F
100
AcDbEntity
  8
0
  6
HIDDEN
 62
     7
370
     0
100
AcDbCircle
 10
128.6199829994
 20
143.1813988867
 30
0.0
 40
0.9962338214386963
100
AcDbArc
 50
348.75
 51
8.0
  0
LWPOLYLINE
  5
144
330
1F
100
AcDbEntity
  8
0
  6
HIDDEN
 62
     7
370
     0
100
AcDbPolyline
 90
        3
 70
   128
 43
0.0
 10
129.5970744673
 20
142.9870433097
 10
129.5403830366
 20
142.8001567085
 10
129.5169199179
 20
142.7478253735
  0
LINE
  5
145
330
1F
100
AcDbEntity
  8
0
  6
HIDDEN
 62
     7
370
     0
100
AcDbLine
 10
129.6162168209
 20
81.1258290394
 30
0.0
 11
129.6162168209
 21
143.1813988867
 31
0.0
  0
LINE
  5
146
330
1F
100
AcDbEntity
  8
0
  6
HIDDEN
 62
     7
370
     0
100
AcDbLine
 10
205.5169199179
 20
142.653613963
 30
0.0
 11
204.7669199179
 21
141.0452337727
 31
0.0
  0
LINE
  5
147
330
1F
100
AcDbEntity
  8
0
  6
HIDDEN
 62
     7
370
     0
100
AcDbLine
 10
204.7669199179
 20
83.2619941534
 30
0.0
 11
205.5169199179
 21
81.653613963
 31
0.0
  0
LINE
  5
148
330
1F
100
AcDbEntity
  8
0
  6
HIDDEN
 62
     7
370
     0
100
AcDbLine
 10
108.2835006716
 20
87.153613963
 30
0.0
 11
113.2803566616
 21
87.153613963
 31
0.0
  0
LINE
  5
149
330
1F
100
AcDbEntity
  8
0
  6
HIDDEN
 62
     7
370
     0
100
AcDbLine
 10
113.2803566616
 20
137.153613963
 30
0.0
 11
108.2835006716
 21
137.153613963
 31
0.0
  0
ARC
  5
14A
330
1F
100
AcDbEntity
  8
0
  6
HIDDEN
 62
     7
370
     0
100
AcDbCircle
 10
121.5169199179
 20
97.153613963
 30
0.0
 40
10.00000000000001
100
AcDbArc
 50
271.4024524893
 51
323.1301023542
  0
ARC
  5
14B
330
1F
100
AcDbEntity
  8
0
  6
HIDDEN
 62
     7
370
     0
100
AcDbCircle
 10
121.5169199179
 20
127.153613963
 30
0.0
 40
10.00000000000002
100
AcDbArc
 50
36.8698976458
 51
88.5861755673
  0
ARC
  5
14C
330
1F
100
AcDbEntity
  8
0
  6
HIDDEN
 62
     7
370
     0
100
AcDbCircle
 10
108.2835006716
 20
87.953613963
 30
0.0
 40
0.8000000000000048
100
AcDbArc
 50
210.0
 51
270.0
  0
ARC
  5
14D
330
1F
100
AcDbEntity
  8
0
  6
HIDDEN
 62
     7
370
     0
100
AcDbCircle
 10
108.2835006716
 20
136.353613963
 30
0.0
 40
0.8000000000000261
100
AcDbArc
 50
90.0
 51
150.0
  0
LINE
  5
14E
330
1F
100
AcDbEntity
  8
0
  6
HIDDEN
 62
     7
370
     0
100
AcDbLine
 10
107.5906803486
 20
136.753613963
 30
0.0
 11
105.5122193795
 21
133.153613963
 31
0.0
  0
LINE
  5
14F
330
1F
100
AcDbEntity
  8
0
  6
HIDDEN
 62
     7
370
     0
100
AcDbLine
 10
105.5122193795
 20
91.153613963
 30
0.0
 11
107.5906803486
 21
87.553613963
 31
0.0
  0
ARC
  5
150
330
1F
100
AcDbEntity
  8
0
  6
HIDDEN
 62
     7
370
     0
100
AcDbCircle
 10
139.9669199179
 20
92.928613963
 30
0.0
 40
2.000000000000001
100
AcDbArc
 50
242.5607598493
 51
0.0
  0
ARC
  5
151
330
1F
100
AcDbEntity
  8
0
  6
HIDDEN
 62
     7
370
     0
100
AcDbCircle
 10
139.9669199179
 20
131.378613963
 30
0.0
 40
2.000000000000014
100
AcDbArc
 50
0.0
 51
117.4392401507
  0
LINE
  5
152
330
1F
100
AcDbEntity
  8
0
  6
HIDDEN
 62
     7
370
     0
100
AcDbLine
 10
204.7669199179
 20
136.153613963
 30
0.0
 11
200.4669199179
 21
136.153613963
 31
0.0
  0
LINE
  5
153
330
1F
100
AcDbEntity
  8
0
  6
HIDDEN
 62
     7
370
     0
100
AcDbLine
 10
200.4669199179
 20
88.153613963
 30
0.0
 11
204.7669199179
 21
88.153613963
 31
0.0
  0
LINE
  5
154
330
1F
100
AcDbEntity
  8
0
  6
HIDDEN
 62
     7
370
     0
100
AcDbLine
 10
129.5169199179
 20
91.153613963
 30
0.0
 11
139.0453044883
 21
91.153613963
 31
0.0
  0
LINE
  5
155
330
1F
100
AcDbEntity
  8
0
  6
HIDDEN
 62
     7
370
     0
100
AcDbLine
 10
139.0453044883
 20
133.153613963
 30
0.0
 11
129.5169199179
 21
133.153613963
 31
0.0
  0
LINE
  5
156
330
1F
100
AcDbEntity
  8
0
  6
HIDDEN
 62
     7
370
     0
100
AcDbLine
 10
101.7169199179
 20
91.153613963
 30
0.0
 11
105.5122193795
 21
91.153613963
 31
0.0
  0
LINE
  5
157
330
1F
100
AcDbEntity
  8
0
  6
HIDDEN
 62
     7
370
     0
100
AcDbLine
 10
105.5122193795
 20
133.153613963
 30
0.0
 11
97.7169199179
 21
133.153613963
 31
0.0
  0
LINE
  5
158
330
1F
100
AcDbEntity
  8
0
  6
HIDDEN
 62
     7
370
     0
100
AcDbLine
 10
200.4669199179
 20
133.0196393668
 30
0.0
 11
198.9669199179
 21
132.153613963
 31
0.0
  0
LINE
  5
159
330
1F
100
AcDbEntity
  8
0
  6
HIDDEN
 62
     7
370
     0
100
AcDbLine
 10
198.9669199179
 20
92.153613963
 30
0.0
 11
200.4669199179
 21
91.2875885593
 31
0.0
  0
LINE
  5
15A
330
1F
100
AcDbEntity
  8
0
  6
HIDDEN
 62
     7
370
     0
100
AcDbLine
 10
165.1169199179
 20
91.853613963
 30
0.0
 11
165.818313177
 21
91.853613963
 31
0.0
  0
LINE
  5
15B
330
1F
100
AcDbEntity
  8
0
  6
HIDDEN
 62
     7
370
     0
100
AcDbLine
 10
165.818313177
 20
132.453613963
 30
0.0
 11
165.1169199179
 21
132.453613963
 31
0.0
  0
ARC
  5
15C
330
1F
100
AcDbEntity
  8
0
  6
HIDDEN
 62
     7
370
     0
100
AcDbCircle
 10
165.1169199179
 20
92.453613963
 30
0.0
 40
0.6000000000000227
100
AcDbArc
 50
180.0
 51
270.0
  0
ARC
  5
15D
330
1F
100
AcDbEntity
  8
0
  6
HIDDEN
 62
     7
370
     0
100
AcDbCircle
 10
165.1169199179
 20
131.853613963
 30
0.0
 40
0.6000000000000227
100
AcDbArc
 50
90.0
 51
180.0
  0
ARC
  5
15E
330
1F
100
AcDbEntity
  8
0
  6
HIDDEN
 62
     7
370
     0
100
AcDbCircle
 10
165.818313177
 20
92.453613963
 30
0.0
 40
0.6000000000000208
100
AcDbArc
 50
270.0
 51
285.0
  0
ARC
  5
15F
330
1F
100
AcDbEntity
  8
0
  6
HIDDEN
 62
     7
370
     0
100
AcDbCircle
 10
165.818313177
 20
131.853613963
 30
0.0
 40
0.6000000000000227
100
AcDbArc
 50
75.0
 51
90.0
  0
LINE
  5
160
330
1F
100
AcDbEntity
  8
0
  6
HIDDEN
 62
     7
370
     0
100
AcDbLine
 10
165.9736046041
 20
91.8740584673
 30
0.0
 11
167.0169199179
 21
92.153613963
 31
0.0
  0
LINE
  5
161
330
1F
100
AcDbEntity
  8
0
  6
HIDDEN
 62
     7
370
     0
100
AcDbLine
 10
167.0169199179
 20
132.153613963
 30
0.0
 11
165.9736046041
 21
132.4331694588
 31
0.0
  0
LINE
  5
162
330
1F
100
AcDbEntity
  8
0
  6
HIDDEN
 62
     7
370
     0
100
AcDbLine
 10
167.0169199179
 20
92.153613963
 30
0.0
 11
198.9669199179
 21
92.153613963
 31
0.0
  0
LINE
  5
163
330
1F
100
AcDbEntity
  8
0
  6
HIDDEN
 62
     7
370
     0
100
AcDbLine
 10
198.9669199179
 20
132.153613963
 30
0.0
 11
167.0169199179
 21
132.153613963
 31
0.0
  0
LINE
  5
164
330
1F
100
AcDbEntity
  8
0
  6
HIDDEN
 62
     7
370
     0
100
AcDbLine
 10
204.7669199179
 20
140.178613963
 30
0.0
 11
200.4669199179
 21
140.178613963
 31
0.0
  0
LINE
  5
165
330
1F
100
AcDbEntity
  8
0
  6
HIDDEN
 62
     7
370
     0
100
AcDbLine
 10
200.4669199179
 20
84.128613963
 30
0.0
 11
204.7669199179
 21
84.128613963
 31
0.0
  0
LINE
  5
166
330
1F
100
AcDbEntity
  8
0
  6
HIDDEN
 62
     7
370
     0
100
AcDbLine
 10
151.8169199179
 20
101.153613963
 30
0.0
 11
155.8169199179
 21
101.153613963
 31
0.0
  0
LINE
  5
167
330
1F
100
AcDbEntity
  8
0
  6
HIDDEN
 62
     7
370
     0
100
AcDbLine
 10
155.8169199179
 20
123.153613963
 30
0.0
 11
151.8169199179
 21
123.153613963
 31
0.0
  0
LINE
  5
168
330
1F
100
AcDbEntity
  8
0
  6
HIDDEN
 62
     7
370
     0
100
AcDbLine
 10
141.9669199179
 20
102.153613963
 30
0.0
 11
142.7169199179
 21
102.903613963
 31
0.0
  0
LINE
  5
169
330
1F
100
AcDbEntity
  8
0
  6
HIDDEN
 62
     7
370
     0
100
AcDbLine
 10
142.7169199179
 20
121.403613963
 30
0.0
 11
141.9669199179
 21
122.153613963
 31
0.0
  0
LINE
  5
16A
330
1F
100
AcDbEntity
  8
0
  6
HIDDEN
 62
     7
370
     0
100
AcDbLine
 10
142.7169199179
 20
102.903613963
 30
0.0
 11
151.8169199179
 21
102.903613963
 31
0.0
  0
LINE
  5
16B
330
1F
100
AcDbEntity
  8
0
  6
HIDDEN
 62
     7
370
     0
100
AcDbLine
 10
151.8169199179
 20
121.403613963
 30
0.0
 11
142.7169199179
 21
121.403613963
 31
0.0
  0
LINE
  5
16C
330
1F
100
AcDbEntity
  8
0
  6
HIDDEN
 62
     7
370
     0
100
AcDbLine
 10
133.4669199179
 20
152.153613963
 30
0.0
 11
133.4669199179
 21
146.053613963
 31
0.0
  0
LINE
  5
16D
330
1F
100
AcDbEntity
  8
0
  6
HIDDEN
 62
     7
370
     0
100
AcDbLine
 10
155.8169199179
 20
107.053613963
 30
0.0
 11
164.5169199179
 21
107.053613963
 31
0.0
  0
LINE
  5
16E
330
1F
100
AcDbEntity
  8
0
  6
HIDDEN
 62
     7
370
     0
100
AcDbLine
 10
164.5169199179
 20
117.253613963
 30
0.0
 11
155.8169199179
 21
117.253613963
 31
0.0
  0
LINE
  5
16F
330
1F
100
AcDbEntity
  8
0
  6
HIDDEN
 62
     7
370
     0
100
AcDbLine
 10
122.2079897339
 20
82.1129907328
 30
0.0
 11
121.7669242953
 21
82.5953135477
 31
0.0
  0
LINE
  5
170
330
1F
100
AcDbEntity
  8
0
  6
HIDDEN
 62
     7
370
     0
100
AcDbLine
 10
113.2669208304
 20
83.0677822442
 30
0.0
 11
112.7775270581
 21
82.5854594551
 31
0.0
  0
LINE
  5
171
330
1F
100
AcDbEntity
  8
0
  6
HIDDEN
 62
     7
370
     0
100
AcDbLine
 10
112.77741437
 20
141.7217631818
 30
0.0
 11
113.2669182918
 21
141.2393887697
 31
0.0
  0
LINE
  5
172
330
1F
100
AcDbEntity
  8
0
  6
HIDDEN
 62
     7
370
     0
100
AcDbLine
 10
121.7669194146
 20
141.71186721
 30
0.0
 11
122.2080889982
 21
142.1942416167
 31
0.0
  0
LINE
  5
173
330
1F
100
AcDbEntity
  8
0
  6
HIDDEN
 62
     7
370
     0
100
AcDbLine
 10
121.7669199179
 20
82.4952343399
 30
0.0
 11
121.7669199179
 21
87.1573155424
 31
0.0
  0
LINE
  5
174
330
1F
100
AcDbEntity
  8
0
  6
HIDDEN
 62
     7
370
     0
100
AcDbLine
 10
113.2669199179
 20
87.1558925977
 30
0.0
 11
113.2669199179
 21
83.0679801554
 31
0.0
  0
LINE
  5
175
330
1F
100
AcDbEntity
  8
0
  6
HIDDEN
 62
     7
370
     0
100
AcDbLine
 10
121.7669199179
 20
137.1499123837
 30
0.0
 11
121.7669199179
 21
141.8118960835
 31
0.0
  0
LINE
  5
176
330
1F
100
AcDbEntity
  8
0
  6
HIDDEN
 62
     7
370
     0
100
AcDbLine
 10
113.2669199179
 20
141.2393125859
 30
0.0
 11
113.2669199179
 21
137.1513353284
 31
0.0
  0
DIMENSION
  5
177
330
1F
100
AcDbEntity
  8
VERMASSUNG
100
AcDbDimension
  2
_D
 10
82.5623408624
 20
72.153613963
 30
0.0
 11
82.5623408624
 21
112.153613963
 31
0.0
 70
   160
  1
HSK A %%c<>
 71
     2
 42
-1.0
  3
SLDDIMSTYLE0
100
AcDbAlignedDimension
 13
130.0169199179
 23
152.153613963
 33
0.0
 14
130.0169199179
 24
72.153613963
 34
0.0
 50
90.0
100
AcDbRotatedDimension
  0
DIMENSION
  5
184
330
1F
100
AcDbEntity
  8
VERMASSUNG
100
AcDbDimension
  2
_D_1
 10
205.5169199179
 20
166.8458425867
 30
0.0
 11
147.5669199179
 21
166.8458425867
 31
0.0
 70
   160
  1
<>
 71
     2
 42
-1.0
  3
SLDDIMSTYLE0
100
AcDbAlignedDimension
 13
89.6169199179
 23
136.3204923987
 33
0.0
 14
205.5169199179
 24
147.453613963
 34
0.0
100
AcDbRotatedDimension
  0
DIMENSION
  5
18E
330
1F
100
AcDbEntity
  8
VERMASSUNG
100
AcDbDimension
  2
_D_2
 10
205.5169199179
 20
160.8458425867
 30
0.0
 11
167.5169199179
 21
160.8458425867
 31
0.0
 70
   160
  1
<>
 71
     2
 42
-1.0
  3
SLDDIMSTYLE0
100
AcDbAlignedDimension
 13
129.5169199179
 23
151.653613963
 33
0.0
 14
205.5169199179
 24
147.453613963
 34
0.0
100
AcDbRotatedDimension
  0
DIMENSION
  5
198
330
1F
100
AcDbEntity
  8
VERMASSUNG
100
AcDbDimension
  2
_D_3
 10
205.5169199179
 20
154.8458425867
 30
0.0
 11
180.4919199179
 21
154.8458425867
 31
0.0
 70
   160
  1
<>
 71
     2
 42
-1.0
  3
SLDDIMSTYLE0
100
AcDbAlignedDimension
 13
155.4669199179
 23
150.1009458851
 33
0.0
 14
205.5169199179
 24
147.453613963
 34
0.0
100
AcDbRotatedDimension
  0
DIMENSION
  5
1A2
330
1F
100
AcDbEntity
  8
VERMASSUNG
100
AcDbDimension
  2
_D_4
 10
216.6148459959
 20
76.153613963
 30
0.0
 11
216.6148459959
 21
112.153613963
 31
0.0
 70
   160
  1
MBM %%c<>
 71
     2
 42
-1.0
  3
SLDDIMSTYLE0
100
AcDbAlignedDimension
 13
204.8169199179
 23
148.153613963
 33
0.0
 14
204.8169199179
 24
76.153613963
 34
0.0
 50
90.0
100
AcDbRotatedDimension
  0
LINE
  5
1AE
330
1F
100
AcDbEntity
  8
VERMASSUNG
  6
CENTERX2
 62
     7
370
     0
100
AcDbLine
 10
87.3818659266
 20
112.153613963
 30
0.0
 11
207.5169199179
 21
112.153613963
 31
0.0
  0
LINE
  5
1AF
330
1F
100
AcDbEntity
  8
VERMASSUNG
  6
CENTERX2
 62
     7
370
     0
100
AcDbLine
 10
117.5169199179
 20
143.4544491497
 30
0.0
 11
117.5169199179
 21
135.1123298755
 31
0.0
  0
LINE
  5
1B0
330
1F
100
AcDbEntity
  8
VERMASSUNG
  6
CENTERX2
 62
     7
370
     0
100
AcDbLine
 10
117.5169199179
 20
89.1948980506
 30
0.0
 11
117.5169199179
 21
80.8516548936
 31
0.0
  0
LINE
  5
1B1
330
1F
100
AcDbEntity
  8
0
  6
Continuous
 62
     7
370
    15
100
AcDbLine
 10
271.9365903171
 20
51.7058095102
 30
0.0
 11
271.6537016459
 21
51.8691707483
 31
0.0
  0
LINE
  5
1B2
330
1F
100
AcDbEntity
  8
0
  6
Continuous
 62
     7
370
    15
100
AcDbLine
 10
266.5617055649
 20
51.8691707483
 30
0.0
 11
266.2788168937
 21
51.7058095102
 31
0.0
  0
LINE
  5
1B3
330
1F
100
AcDbEntity
  8
0
  6
Continuous
 62
     7
370
    15
100
AcDbLine
 10
273.1077036054
 20
49.5833341565
 30
0.0
 11
273.1077036054
 21
50.0732586436
 31
0.0
  0
LINE
  5
1B4
330
1F
100
AcDbEntity
  8
0
  6
Continuous
 62
     7
370
    15
100
AcDbLine
 10
265.1077036054
 20
50.0732586436
 30
0.0
 11
265.1077036054
 21
49.5833341565
 31
0.0
  0
LINE
  5
1B5
330
1F
100
AcDbEntity
  8
0
  6
Continuous
 62
     7
370
    15
100
AcDbLine
 10
275.7742536634
 20
17.1582769111
 30
0.0
 11
276.0217008131
 21
17.3011715513
 31
0.0
  0
LINE
  5
1B6
330
1F
100
AcDbEntity
  8
0
  6
Continuous
 62
     7
370
    15
100
AcDbLine
 10
288.5001070794
 20
38.9167472947
 30
0.0
 11
288.5001070794
 21
39.2024901338
 31
0.0
  0
LINE
  5
1B7
330
1F
100
AcDbEntity
  8
0
  6
Continuous
 62
     7
370
    15
100
AcDbLine
 10
255.3531419082
 20
22.8584331076
 30
0.0
 11
266.7729164244
 21
16.2659376046
 31
0.0
  0
LINE
  5
1B8
330
1F
100
AcDbEntity
  8
0
  6
Continuous
 62
     7
370
    15
100
AcDbLine
 10
284.7714536118
 20
47.4436966503
 30
0.0
 11
273.3516790956
 21
54.0361921533
 31
0.0
  0
SPLINE
  5
1B9
330
1F
100
AcDbEntity
  8
0
  6
Continuous
 62
     7
370
    15
100
AcDbSpline
210
0.0
220
0.0
230
1.0
 70
     8
 71
     3
 72
    35
 73
    31
 74
     0
 42
0.000000001
 43
0.00000001
 40
0.0
 40
0.0
 40
0.0
 40
0.0
 40
0.0092149298038789
 40
0.0457627784792504
 40
0.082505248492875
 40
0.1194547660293201
 40
0.156587276050303
 40
0.1938589213546184
 40
0.2312221423383171
 40
0.2686359790133008
 40
0.3060700700618069
 40
0.3435003281747804
 40
0.3809168731267504
 40
0.4183155727540186
 40
0.4556956781511285
 40
0.4930585211110463
 40
0.5304066553476917
 40
0.5677433210901928
 40
0.6050721283806785
 40
0.6423968807515185
 40
0.6797214842005074
 40
0.7170490965245429
 40
0.7543832050519994
 40
0.7917278214218498
 40
0.8290869155578605
 40
0.8664643060682188
 40
0.9038634509770521
 40
0.9412870750495278
 40
0.9787365430239732
 40
1.0
 40
1.0
 40
1.0
 40
1.0
 10
271.3984431474804
 20
54.76220032385661
 30
0.0
 10
271.3268565476699
 20
54.78020953263567
 30
0.0
 10
270.9713463290423
 20
54.86964607197815
 30
0.0
 10
270.2891109666784
 20
54.9253856553892
 30
0.0
 10
269.3566047372143
 20
54.92492145508159
 30
0.0
 10
268.3878607587745
 20
54.80934140603829
 30
0.0
 10
267.3933469635803
 20
54.5897289586268
 30
0.0
 10
266.3785464071653
 20
54.26431771110253
 30
0.0
 10
265.3507514052237
 20
53.83602564095262
 30
0.0
 10
264.3169054089048
 20
53.30765949738854
 30
0.0
 10
263.2839943710651
 20
52.68307353750848
 30
0.0
 10
262.2587832414769
 20
51.9666828053597
 30
0.0
 10
261.247837021782
 20
51.16345589435717
 30
0.0
 10
260.2574849037171
 20
50.2787925220274
 30
0.0
 10
259.2938845192114
 20
49.31853340454298
 30
0.0
 10
258.363015433045
 20
48.28893551428495
 30
0.0
 10
257.4706593128055
 20
47.19664518649964
 30
0.0
 10
256.6223733748334
 20
46.04866669895372
 30
0.0
 10
255.8234603046221
 20
44.8523261457002
 30
0.0
 10
255.0789370747796
 20
43.61523060262912
 30
0.0
 10
254.3935090394283
 20
42.34523219308131
 30
0.0
 10
253.7715380610621
 20
41.05037802126675
 30
0.0
 10
253.2170088345219
 20
39.73885132711226
 30
0.0
 10
252.733516244206
 20
38.41891598320428
 30
0.0
 10
252.3242047547232
 20
37.09884105895179
 30
0.0
 10
251.9919322670622
 20
35.78695460564148
 30
0.0
 10
251.7386131352636
 20
34.4912297236671
 30
0.0
 10
251.5676387974304
 20
33.22061398085708
 30
0.0
 10
251.4882133141546
 20
32.15890595832047
 30
0.0
 10
251.4807461406796
 20
31.53110564365186
 30
0.0
 10
251.4780418311591
 20
31.30374165196259
 30
0.0
  0
SPLINE
  5
1BA
330
1F
100
AcDbEntity
  8
0
  6
Continuous
 62
     7
370
    15
100
AcDbSpline
210
0.0
220
0.0
230
1.0
 70
     8
 71
     3
 72
    16
 73
    12
 74
     0
 42
0.000000001
 43
0.00000001
 40
0.0
 40
0.0
 40
0.0
 40
0.0
 40
0.0699387184673456
 40
0.2026298168201184
 40
0.3353795862147524
 40
0.4680521245603998
 40
0.6005205346420464
 40
0.7326170930917469
 40
0.8641535355769746
 40
0.9949679924284172
 40
1.0
 40
1.0
 40
1.0
 40
1.0
 10
251.4780418311591
 20
31.30374165196259
 30
0.0
 10
251.4803881014941
 20
31.09510256924514
 30
0.0
 10
251.4871858286843
 20
30.49062339034377
 30
0.0
 10
251.5627943820595
 20
29.52686395962191
 30
0.0
 10
251.7325248651462
 20
28.43685936854316
 30
0.0
 10
251.9869023787656
 20
27.41066737535256
 30
0.0
 10
252.3239535498967
 20
26.45595873520372
 30
0.0
 10
252.7391613645817
 20
25.57621571706563
 30
0.0
 10
253.2397807838888
 20
24.79185534700772
 30
0.0
 10
253.6100939500039
 20
24.2913510266216
 30
0.0
 10
253.8315684757247
 20
24.08071941273114
 30
0.0
 10
253.8397723071242
 20
24.07291722310174
 30
0.0
  0
LINE
  5
1BB
330
1F
100
AcDbEntity
  8
0
  6
Continuous
 62
     7
370
    15
100
AcDbLine
 10
250.3035591971
 20
27.2168317342
 30
0.0
 11
252.6156854452
 21
25.8820696624
 31
0.0
  0
LINE
  5
1BC
330
1F
100
AcDbEntity
  8
0
  6
Continuous
 62
     7
370
    15
100
AcDbLine
 10
269.3463368935
 20
54.9050904129
 30
0.0
 11
267.0521979687
 21
56.229468624
 31
0.0
  0
LINE
  5
1BD
330
1F
100
AcDbEntity
  8
0
  6
Continuous
 62
     7
370
    15
100
AcDbLine
 10
239.3272040753
 20
29.8006715709
 30
0.0
 11
244.2641280212
 21
26.9506460415
 31
0.0
  0
LINE
  5
1BE
330
1F
100
AcDbEntity
  8
0
  6
Continuous
 62
     7
370
    15
100
AcDbLine
 10
261.107609901
 20
63.4138813675
 30
0.0
 11
259.3255787281
 21
64.4426260661
 31
0.0
  0
SPLINE
  5
1BF
330
1F
100
AcDbEntity
  8
0
  6
Continuous
 62
     7
370
    15
100
AcDbSpline
210
0.0
220
0.0
230
1.0
 70
     8
 71
     3
 72
    33
 73
    29
 74
     0
 42
0.000000001
 43
0.00000001
 40
0.0
 40
0.0
 40
0.0
 40
0.0
 40
0.0148301435862223
 40
0.0542482836842108
 40
0.0937280673221235
 40
0.1332480743816083
 40
0.1727904487568565
 40
0.2123420398157351
 40
0.2518923974922668
 40
0.2914368206457704
 40
0.3309732357462991
 40
0.3705010554129857
 40
0.4100206381339769
 40
0.4495329204731973
 40
0.4890391785243453
 40
0.5285408798895943
 40
0.5680395962118278
 40
0.6075369545922876
 40
0.6470346125851104
 40
0.6865337796844301
 40
0.7260360524214009
 40
0.765543119497336
 40
0.8050566506090825
 40
0.8445782553988325
 40
0.884109407634101
 40
0.923651314097816
 40
0.9632046993078228
 40
1.0
 40
1.0
 40
1.0
 40
1.0
 10
254.2571867272714
 20
65.29666032236649
 30
0.0
 10
254.1304871780767
 20
65.28231357274268
 30
0.0
 10
253.667023486885
 20
65.22983353173613
 30
0.0
 10
252.8394552582215
 20
65.0294991373868
 30
0.0
 10
251.7815895181951
 20
64.6980837055934
 30
0.0
 10
250.7077921112525
 20
64.25744838616507
 30
0.0
 10
249.6266956787155
 20
63.71898971031941
 30
0.0
 10
248.5440860738657
 20
63.08366127537685
 30
0.0
 10
247.466442458024
 20
62.35594846907674
 30
0.0
 10
246.3999457207852
 20
61.54005312684034
 30
0.0
 10
245.3507076210949
 20
60.64085183915997
 30
0.0
 10
244.3247059524018
 20
59.66361040910289
 30
0.0
 10
243.3277839146026
 20
58.61403226876792
 30
0.0
 10
242.3656190862346
 20
57.4982110274353
 30
0.0
 10
241.4436966012417
 20
56.32260503989957
 30
0.0
 10
240.5672796709916
 20
55.09400244343506
 30
0.0
 10
239.7413805422771
 20
53.8194850721548
 30
0.0
 10
238.9707322338728
 20
52.50638937049084
 30
0.0
 10
238.2597641078492
 20
51.16227029091458
 30
0.0
 10
237.612574552722
 20
49.79485510917559
 30
0.0
 10
237.0329029212273
 20
48.41199521379942
 30
0.0
 10
236.5241237137855
 20
47.02162411387707
 30
0.0
 10
236.0891715058196
 20
45.63168228309294
 30
0.0
 10
235.7307519685315
 20
44.25019972514034
 30
0.0
 10
235.450491115898
 20
42.88477967470468
 30
0.0
 10
235.2520612650257
 20
41.5443206536066
 30
0.0
 10
235.1323346843792
 20
40.26301247470212
 30
0.0
 10
235.1179601173028
 20
39.45097168493714
 30
0.0
 10
235.1110324732753
 20
39.05961871427834
 30
0.0
  0
SPLINE
  5
1C0
330
1F
100
AcDbEntity
  8
0
  6
Continuous
 62
     7
370
    15
100
AcDbSpline
210
0.0
220
0.0
230
1.0
 70
     8
 71
     3
 72
    13
 73
     9
 74
     0
 42
0.000000001
 43
0.00000001
 40
0.0
 40
0.0
 40
0.0
 40
0.0
 40
0.1101136218170959
 40
0.319277292025115
 40
0.5285033197025929
 40
0.7376879690095769
 40
0.9467552274277867
 40
0.9999999999999999
 40
0.9999999999999999
 40
0.9999999999999999
 40
0.9999999999999999
 10
235.1110324732753
 20
39.05961871427834
 30
0.0
 10
235.1133315798986
 20
38.84157149798624
 30
0.0
 10
235.1199978989663
 20
38.20933795955088
 30
0.0
 10
235.1947224622386
 20
37.20065490750276
 30
0.0
 10
235.3601841329589
 20
36.05585377013056
 30
0.0
 10
235.614967720581
 20
34.98138922123371
 30
0.0
 10
235.8493729714303
 20
34.20878545072427
 30
0.0
 10
236.0234910278139
 20
33.82135398799787
 30
0.0
 10
236.0588339599618
 20
33.74271215047979
 30
0.0
  0
LINE
  5
1C1
330
1F
100
AcDbEntity
  8
0
  6
Continuous
 62
     7
370
    15
100
AcDbLine
 10
249.8751848624
 20
63.8268082399
 30
0.0
 11
242.4438431857
 21
67.5293076253
 31
0.0
  0
LINE
  5
1C2
330
1F
100
AcDbEntity
  8
0
  6
Continuous
 62
     7
370
    15
100
AcDbLine
 10
228.2119646182
 20
42.8762996545
 30
0.0
 11
235.1305248408
 21
38.2951164283
 31
0.0
  0
SPLINE
  5
1C3
330
1F
100
AcDbEntity
  8
0
  6
Continuous
 62
     7
370
    15
100
AcDbSpline
210
0.0
220
0.0
230
1.0
 70
     8
 71
     3
 72
    12
 73
     8
 74
     0
 42
0.000000001
 43
0.00000001
 40
0.0
 40
0.0
 40
0.0
 40
0.0
 40
0.1902778816097464
 40
0.4547547928229919
 40
0.7205155750605362
 40
0.9875252005029794
 40
1.0
 40
1.0
 40
1.0
 40
1.0
 10
250.1351852984423
 20
24.00644867436115
 30
0.0
 10
250.3546530906796
 20
23.96258085752576
 30
0.0
 10
250.8791703364352
 20
23.85773892956331
 30
0.0
 10
251.7551924377056
 20
23.81272863168067
 30
0.0
 10
252.7531046994945
 20
23.86746332156713
 30
0.0
 10
253.4491304888761
 20
23.94966232622548
 30
0.0
 10
253.8150839868437
 20
24.04098940249503
 30
0.0
 10
253.8314183371868
 20
24.04506579052759
 30
0.0
  0
LINE
  5
1C4
330
1F
100
AcDbEntity
  8
0
  6
Continuous
 62
     7
370
    15
100
AcDbLine
 10
246.7646488003
 20
25.5071261219
 30
0.0
 11
247.9715844754
 21
24.8103769874
 31
0.0
  0
SPLINE
  5
1C5
330
1F
100
AcDbEntity
  8
0
  6
Continuous
 62
     7
370
    15
100
AcDbSpline
210
0.0
220
0.0
230
1.0
 70
     8
 71
     3
 72
    13
 73
     9
 74
     0
 42
0.000000001
 43
0.00000001
 40
0.0
 40
0.0
 40
0.0
 40
0.0
 40
0.0910288571032073
 40
0.3012942431020086
 40
0.5108823227437971
 40
0.719560011238168
 40
0.9271751722136802
 40
1.0
 40
1.0
 40
1.0
 40
1.0
 10
271.5750488940488
 20
54.69229656245255
 30
0.0
 10
271.5292116392795
 20
54.84137155918256
 30
0.0
 10
271.3774960029302
 20
55.33479133544405
 30
0.0
 10
271.0338731194175
 20
56.0948006009405
 30
0.0
 10
270.5504113476405
 20
56.96735510012343
 30
0.0
 10
269.9849509030824
 20
57.74426115441915
 30
0.0
 10
269.4939689027535
 20
58.29291465073837
 30
0.0
 10
269.1806411190835
 20
58.56345373987509
 30
0.0
 10
269.0992759686027
 20
58.63370749599181
 30
0.0
  0
SPLINE
  5
1C6
330
1F
100
AcDbEntity
  8
0
  6
Continuous
 62
     7
370
    15
100
AcDbSpline
210
0.0
220
0.0
230
1.0
 70
     8
 71
     3
 72
    28
 73
    24
 74
     0
 42
0.000000001
 43
0.00000001
 40
0.0
 40
0.0
 40
0.0
 40
0.0
 40
0.0128825233150318
 40
0.0619402435858324
 40
0.1110713501158305
 40
0.160556678447407
 40
0.2105749636585786
 40
0.2611726463211554
 40
0.3122800915988386
 40
0.3637613636977567
 40
0.4154693927592149
 40
0.4672826433005591
 40
0.5191077507485753
 40
0.5708964040405067
 40
0.6226321348836765
 40
0.6743124759996377
 40
0.7259430888215782
 40
0.7775340722789321
 40
0.8290978220655821
 40
0.8806478774147979
 40
0.9321983496044172
 40
0.9837604904887465
 40
1.0
 40
1.0
 40
1.0
 40
1.0
 10
242.5235073534
 20
67.47610544694905
 30
0.0
 10
242.4644365675344
 20
67.51065477563887
 30
0.0
 10
242.1804193159569
 20
67.67677082157518
 30
0.0
 10
241.6163043461588
 20
67.87274436954507
 30
0.0
 10
240.8394385080616
 20
68.05741675954738
 30
0.0
 10
240.0181684601504
 20
68.12836558036534
 30
0.0
 10
239.1627516198303
 20
68.09505575426797
 30
0.0
 10
238.2771048713126
 20
67.95408056369936
 30
0.0
 10
237.3684190288674
 20
67.70634590165328
 30
0.0
 10
236.4444476116003
 20
67.35317297547307
 30
0.0
 10
235.5136186398187
 20
66.89766350139104
 30
0.0
 10
234.5843492041541
 20
66.34419554797437
 30
0.0
 10
233.6647029418764
 20
65.69816565315826
 30
0.0
 10
232.7622392463642
 20
64.96564790810595
 30
0.0
 10
231.8840173489829
 20
64.1531622684218
 30
0.0
 10
231.0367244190969
 20
63.26763474665266
 30
0.0
 10
230.2268185260332
 20
62.31640294708775
 30
0.0
 10
229.4603286700497
 20
61.30722147279645
 30
0.0
 10
228.7435848681942
 20
60.24812221408264
 30
0.0
 10
228.0803854268233
 20
59.14777318347068
 30
0.0
 10
227.4824183780293
 20
58.01394616730286
 30
0.0
 10
227.0563951461498
 20
57.12293068211408
 30
0.0
 10
226.8549712079415
 20
56.60971652142672
 30
0.0
 10
226.80672716165
 20
56.48679405279702
 30
0.0
  0
LINE
  5
1C7
330
1F
100
AcDbEntity
  8
0
  6
Continuous
 62
     7
370
    15
100
AcDbLine
 10
226.8993149559
 20
53.7308869462
 30
0.0
 11
229.7708825856
 21
52.0731662392
 31
0.0
  0
LINE
  5
1C8
330
1F
100
AcDbEntity
  8
0
  6
Continuous
 62
     7
370
    15
100
AcDbLine
 10
226.4974489711
 20
55.3309122422
 30
0.0
 11
226.4974489711
 21
54.6191058707
 31
0.0
  0
LINE
  5
1C9
330
1F
100
AcDbEntity
  8
0
  6
Continuous
 62
     7
370
    15
100
AcDbLine
 10
226.4974489711
 20
45.6140765807
 30
0.0
 11
226.4974489711
 21
44.9022702093
 31
0.0
  0
SPLINE
  5
1CA
330
1F
100
AcDbEntity
  8
0
  6
Continuous
 62
     7
370
    15
100
AcDbSpline
210
0.0
220
0.0
230
1.0
 70
     8
 71
     3
 72
    11
 73
     7
 74
     0
 42
0.000000001
 43
0.00000001
 40
0.0
 40
0.0
 40
0.0
 40
0.0
 40
0.2085501193305752
 40
0.5618511972647172
 40
0.9109355026509992
 40
1.0
 40
1.0
 40
1.0
 40
1.0
 10
226.718409610168
 20
44.36927639325386
 30
0.0
 10
226.8110325983202
 20
44.2331754808239
 30
0.0
 10
227.060566556654
 20
43.86650841372727
 30
0.0
 10
227.5561984647366
 20
43.37399699495519
 30
0.0
 10
228.0165887296393
 20
42.9828846127204
 30
0.0
 10
228.306693277371
 20
42.82369720072578
 30
0.0
 10
228.3656641465394
 20
42.79133845240769
 30
0.0
  0
LWPOLYLINE
  5
1CB
330
1F
100
AcDbEntity
  8
0
  6
Continuous
 62
     7
370
    15
100
AcDbPolyline
 90
       34
 70
   128
 43
0.0
 10
267.6922497079
 20
52.3107313275
 10
268.3442615794
 20
52.4308414244
 10
269.0238662347
 20
52.477547102
 10
269.7065009911
 20
52.4491602953
 10
270.3674936498
 20
52.3467069776
 10
270.982954214
 20
52.1738900786
 10
271.5306383352
 20
51.9369556514
 10
271.9907512824
 20
51.6444671235
 10
272.3466633749
 20
51.3069957923
 10
272.5855110222
 20
50.9367387511
 10
272.6986616482
 20
50.547078054
 10
272.6820256944
 20
50.1520970538
 10
272.5362044274
 20
49.7660713931
 10
272.2664682079
 20
49.4029530449
 10
271.8825660056
 20
49.0758660525
 10
271.3983730463
 20
48.796632192
 10
270.8313893251
 20
48.5753437026
 10
270.202107111
 20
48.4199985269
 10
269.5332703027
 20
48.3362112444
 10
268.8490524052
 20
48.3270101456
 10
268.174182836
 20
48.3927277824
 10
267.5330531397
 20
48.530988948
 10
266.9488354139
 20
48.7367965237
 10
266.4426448094
 20
49.0027120876
 10
266.0327763736
 20
49.3191247582
 10
265.7340438195
 20
49.6745985572
 10
265.5572441201
 20
50.0562857355
 10
265.5087672772
 20
50.4503911239
 10
265.59036537
 20
50.8426707267
 10
265.7990892311
 20
51.2189465372
 10
266.1273950361
 20
51.5656189671
 10
266.5634169579
 20
51.8701583716
 10
267.0913960283
 20
52.1215579031
 10
267.6922497079
 20
52.3107313275
  0
LWPOLYLINE
  5
1CC
330
1F
100
AcDbEntity
  8
0
  6
Continuous
 62
     7
370
    15
100
AcDbPolyline
 90
       28
 70
   128
 43
0.0
 10
271.9365903171
 20
51.7058095102
 10
272.1195411902
 20
51.5928345644
 10
272.5411493059
 20
51.2579580475
 10
272.8524036517
 20
50.8850043169
 10
273.0433002568
 20
50.4859604126
 10
273.1077035474
 20
50.0736519338
 10
273.0435435486
 20
49.6613308143
 10
272.8528824156
 20
49.2622493943
 10
272.5418481541
 20
48.8892344787
 10
272.1204376612
 20
48.5542750741
 10
271.6021954169
 20
48.2681370512
 10
271.0037781533
 20
48.0400171216
 10
270.3444194936
 20
47.8772472474
 10
269.6453117676
 20
47.7850589864
 10
268.928924873
 20
47.7664153451
 10
268.218284074
 20
47.8219155455
 10
267.5362299505
 20
47.9497757654
 10
266.9046842833
 20
48.1458864723
 10
266.3439454698
 20
48.4039445066
 10
265.8720361167
 20
48.7156556708
 10
265.5041237791
 20
49.0710013116
 10
265.2520334621
 20
49.4585603277
 10
265.123867556
 20
49.8658762535
 10
265.1237454184
 20
50.2798576199
 10
265.251670975
 20
50.6871987252
 10
265.503532593
 20
51.0748072911
 10
265.8712352329
 20
51.4302252594
 10
266.2788168937
 20
51.7058095102
  0
LWPOLYLINE
  5
1CD
330
1F
100
AcDbEntity
  8
0
  6
Continuous
 62
     7
370
    15
100
AcDbPolyline
 90
       27
 70
   128
 43
0.0
 10
268.1738972147
 20
51.6605093719
 10
268.7236302015
 20
51.7528867082
 10
269.2956841384
 20
51.7666319201
 10
269.85681333
 20
51.700946186
 10
270.3744069874
 20
51.5596469219
 10
270.8183844484
 20
51.3509459274
 10
271.162943357
 20
51.0869721458
 10
271.3880592017
 20
50.7830667738
 10
271.4806490678
 20
50.4568916868
 10
271.435331969
 20
50.1274029955
 10
271.2547415703
 20
49.8137493848
 10
270.9493731293
 20
49.5341592625
 10
270.5369735497
 20
49.3048813903
 10
270.0415099961
 20
49.1392405648
 10
269.4917770093
 20
49.0468632285
 10
268.9197230724
 20
49.0331180166
 10
268.3585938808
 20
49.0988037507
 10
267.8410002234
 20
49.2401030148
 10
267.3970227624
 20
49.4488040093
 10
267.0524638538
 20
49.7127777909
 10
266.8273480091
 20
50.0166831629
 10
266.734758143
 20
50.3428582499
 10
266.7800752418
 20
50.6723469412
 10
266.9606656405
 20
50.9860005519
 10
267.2660340816
 20
51.2655906742
 10
267.6784336611
 20
51.4948685464
 10
268.1738972147
 20
51.6605093719
  0
SPLINE
  5
1CE
330
1F
100
AcDbEntity
  8
0
  6
Continuous
 62
     7
370
    15
100
AcDbSpline
210
0.0
220
0.0
230
1.0
 70
     8
 71
     3
 72
    11
 73
     7
 74
     0
 42
0.000000001
 43
0.00000001
 40
0.0
 40
0.0
 40
0.0
 40
0.0
 40
0.1304720089085518
 40
0.4810444721667613
 40
0.8152723788616201
 40
1.0
 40
1.0
 40
1.0
 40
1.0
 10
267.2596384252363
 20
51.14580494573543
 30
0.0
 10
267.3464438470133
 20
51.13072418897286
 30
0.0
 10
267.6664915618395
 20
51.0751221120415
 30
0.0
 10
268.2657995106212
 20
51.09435512385058
 30
0.0
 10
268.9127519138197
 20
51.35999141712974
 30
0.0
 10
269.2595838098134
 20
51.58861085794516
 30
0.0
 10
269.3830422328295
 20
51.66999032724988
 30
0.0
  0
SPLINE
  5
1CF
330
1F
100
AcDbEntity
  8
0
  6
Continuous
 62
     7
370
    15
100
AcDbSpline
210
0.0
220
0.0
230
1.0
 70
     8
 71
     3
 72
    11
 73
     7
 74
     0
 42
0.000000001
 43
0.00000001
 40
0.0
 40
0.0
 40
0.0
 40
0.0
 40
0.2164567244934129
 40
0.4403141600939101
 40
0.751902844479856
 40
1.0
 40
1.0
 40
1.0
 40
1.0
 10
266.98429979781
 20
49.82212538879403
 30
0.0
 10
267.003160880173
 20
49.85364972862433
 30
0.0
 10
267.041527910158
 20
49.91777623357528
 30
0.0
 10
267.1127266655188
 20
50.15977472208924
 30
0.0
 10
267.1890996387789
 20
50.58740168232821
 30
0.0
 10
267.2379736063765
 20
50.97430064065731
 30
0.0
 10
267.2596384252363
 20
51.14580494573543
 30
0.0
  0
SPLINE
  5
1D0
330
1F
100
AcDbEntity
  8
0
  6
Continuous
 62
     7
370
    15
100
AcDbSpline
210
0.0
220
0.0
230
1.0
 70
     8
 71
     3
 72
     9
 73
     5
 74
     0
 42
0.000000001
 43
0.00000001
 40
0.0
 40
0.0
 40
0.0
 40
0.0
 40
0.3452172457828226
 40
1.0
 40
1.0
 40
1.0
 40
1.0
 10
267.6783744002071
 20
49.31276928905042
 30
0.0
 10
267.5939831983965
 20
49.35489967249862
 30
0.0
 10
267.3495249540833
 20
49.47693987750827
 30
0.0
 10
267.1288161297119
 20
49.68553856540615
 30
0.0
 10
266.98429979781
 20
49.82212538879403
 30
0.0
  0
LINE
  5
1D1
330
1F
100
AcDbEntity
  8
0
  6
Continuous
 62
     7
370
    15
100
AcDbLine
 10
270.9557687856
 20
49.5468165949
 30
0.0
 11
270.7411278923
 21
49.4122869385
 31
0.0
  0
SPLINE
  5
1D2
330
1F
100
AcDbEntity
  8
0
  6
Continuous
 62
     7
370
    15
100
AcDbSpline
210
0.0
220
0.0
230
1.0
 70
     8
 71
     3
 72
    11
 73
     7
 74
     0
 42
0.000000001
 43
0.00000001
 40
0.0
 40
0.0
 40
0.0
 40
0.0
 40
0.2164567244934142
 40
0.4403141600939107
 40
0.7519028444798549
 40
0.9999999999999999
 40
0.9999999999999999
 40
0.9999999999999999
 40
0.9999999999999999
 10
271.2311074129965
 20
50.87049615182291
 30
0.0
 10
271.2122463306335
 20
50.72067267729818
 30
0.0
 10
271.1738793006485
 20
50.41590322510353
 30
0.0
 10
271.1026805452877
 20
49.97333131511125
 30
0.0
 10
271.0263075720276
 20
49.66663818120111
 30
0.0
 10
270.9774336044301
 20
49.5836178087027
 30
0.0
 10
270.9557687855703
 20
49.5468165948815
 30
0.0
  0
SPLINE
  5
1D3
330
1F
100
AcDbEntity
  8
0
  6
Continuous
 62
     7
370
    15
100
AcDbSpline
210
0.0
220
0.0
230
1.0
 70
     8
 71
     3
 72
    11
 73
     7
 74
     0
 42
0.000000001
 43
0.00000001
 40
0.0
 40
0.0
 40
0.0
 40
0.0
 40
0.2164567244934125
 40
0.4403141600939109
 40
0.7519028444798541
 40
1.0
 40
1.0
 40
1.0
 40
1.0
 10
269.3830422328295
 20
51.66999032724988
 30
0.0
 10
269.5096372910713
 20
51.55607428695121
 30
0.0
 10
269.7671557251704
 20
51.32434738762423
 30
0.0
 10
270.2450397833695
 20
51.01732255684487
 30
0.0
 10
270.7576530476513
 20
50.85602709742728
 30
0.0
 10
271.0856937536649
 20
50.86605222163504
 30
0.0
 10
271.2311074129965
 20
50.87049615182292
 30
0.0
  0
LINE
  5
1D4
330
1F
100
AcDbEntity
  8
0
  6
Continuous
 62
     7
370
    15
100
AcDbLine
 10
267.2596384252
 20
49.590893668
 30
0.0
 11
267.2596384252
 21
51.1458049457
 31
0.0
  0
LINE
  5
1D5
330
1F
100
AcDbEntity
  8
0
  6
Continuous
 62
     7
370
    15
100
AcDbLine
 10
269.3830422328
 20
49.0380614976
 30
0.0
 11
269.3830422328
 21
51.6699903272
 31
0.0
  0
LWPOLYLINE
  5
1D6
330
1F
100
AcDbEntity
  8
0
  6
Continuous
 62
     7
370
    15
100
AcDbPolyline
 90
       74
 70
   128
 43
0.0
 10
263.5392377036
 20
24.507144121
 10
263.5854380895
 20
25.7727350158
 10
263.7236971959
 20
27.0822977486
 10
263.9529914006
 20
28.4261367752
 10
264.2716230897
 20
29.7943027814
 10
264.6772332254
 20
31.176666345
 10
265.1668188124
 20
32.5629929297
 10
265.7367551303
 20
33.9430186585
 10
266.3828225698
 20
35.3065263038
 10
267.1002378738
 20
36.643420932
 10
267.8836895503
 20
37.943804643
 10
268.7273771972
 20
39.1980498507
 10
269.6250544465
 20
40.3968705626
 10
270.5700752097
 20
41.5313911294
 10
271.5554428838
 20
42.5932119578
 10
272.5738621512
 20
43.574471698
 10
273.6177929921
 20
44.467905446
 10
274.6795065078
 20
45.2668985311
 10
275.7511421427
 20
45.9655354879
 10
276.8247658817
 20
46.5586438529
 10
277.8924289901
 20
47.0418324592
 10
278.9462268639
 20
47.4115239475
 10
279.9783575523
 20
47.6649812512
 10
280.9811795208
 20
47.8003278613
 10
281.9472682264
 20
47.8165617188
 10
282.8694710863
 20
47.7135626338
 10
283.7409604332
 20
47.4920931756
 10
284.5552840649
 20
47.1537930265
 10
285.3064130141
 20
46.7011668425
 10
285.9887861849
 20
46.1375657095
 10
286.597351525
 20
45.467162333
 10
287.1276034297
 20
44.6949201452
 10
287.5756160992
 20
43.826556557
 10
287.9380726046
 20
42.8685006286
 10
288.2122894447
 20
41.827845471
 10
288.396236414
 20
40.7122957307
 10
288.4885516334
 20
39.5301105478
 10
288.4885516334
 20
38.2900424077
 10
288.396236414
 20
37.0012723412
 10
288.2122894447
 20
35.6733419508
 10
287.9380726046
 20
34.3160827686
 10
287.5756160992
 20
32.9395434667
 10
287.1276034297
 20
31.5539154606
 10
286.597351525
 20
30.1694574551
 10
285.9887861849
 20
28.7964194929
 10
285.3064130141
 20
27.4449670668
 10
284.5552840649
 20
26.1251058576
 10
283.7409604332
 20
24.8466076561
 10
282.8694710863
 20
23.6189380155
 10
281.9472682264
 20
22.4511861724
 10
280.9811795208
 20
21.3519977528
 10
279.9783575523
 20
20.3295107632
 10
278.9462268639
 20
19.3912953396
 10
277.8924289901
 20
18.5442977008
 10
276.8247658817
 20
17.7947887208
 10
275.7511421427
 20
17.1483175019
 10
274.6795065078
 20
16.609670291
 10
273.6177929921
 20
16.1828350434
 10
272.5738621512
 20
15.870971898
 10
271.5554428838
 20
15.6763897804
 10
270.5700752097
 20
15.6005293086
 10
269.6250544465
 20
15.6439521269
 10
268.7273771972
 20
15.8063367479
 10
267.8836895503
 20
16.0864809329
 10
267.1002378738
 20
16.4823105921
 10
266.3828225698
 20
16.9908951414
 10
265.7367551303
 20
17.6084691986
 10
265.1668188124
 20
18.3304604615
 10
264.6772332254
 20
19.1515235594
 10
264.2716230897
 20
20.0655796284
 10
263.9529914006
 20
21.0658613172
 10
263.7236971959
 20
22.14496289
 10
263.5854380895
 20
23.2948950565
 10
263.5392377036
 20
24.507144121
  0
LWPOLYLINE
  5
1D7
330
1F
100
AcDbEntity
  8
0
  6
Continuous
 62
     7
370
    15
100
AcDbPolyline
 90
       38
 70
   128
 43
0.0
 10
263.0442629567
 20
24.507144121
 10
263.0901154418
 20
25.7800691689
 10
263.2273425287
 20
27.0967629149
 10
263.4549554933
 20
28.4477385506
 10
263.7713143788
 20
29.8232622655
 10
264.1741398123
 20
31.2134233798
 10
264.6605294273
 20
32.6082057507
 10
265.2269787754
 20
33.9975599393
 10
265.8694065762
 20
35.3714756168
 10
266.5831841225
 20
36.7200536894
 10
267.3631686309
 20
38.033577621
 10
268.203740295
 20
39.3025834417
 10
269.0988427768
 20
40.5179279354
 10
270.0420268423
 20
41.6708545173
 10
271.0264968288
 20
42.7530563248
 10
272.0451596075
 20
43.7567360692
 10
273.0906756896
 20
44.6746622148
 10
274.1555121079
 20
45.5002210828
 10
275.2319966916
 20
46.2274645027
 10
276.3123733446
 20
46.8511526689
 10
277.3888579282
 20
47.3667918938
 10
278.4536943465
 20
47.7706669851
 10
279.4992104287
 20
48.0598680135
 10
280.5178732073
 20
48.2323112789
 10
281.5023431939
 20
48.2867543236
 10
282.4455272594
 20
48.2228048843
 10
283.3406297412
 20
48.0409237182
 10
284.1812014053
 20
47.7424212832
 10
284.9611859137
 20
47.3294482961
 10
285.67496346
 20
46.8049802369
 10
286.3173912607
 20
46.1727959099
 10
286.8838406089
 20
45.4374502177
 10
287.3702302238
 20
44.6042413428
 10
287.7730556573
 20
43.6791725743
 10
288.0894145429
 20
42.6689090538
 10
288.3170275074
 20
41.5807297532
 10
288.4542545944
 20
40.4224750293
 10
288.5001070794
 20
39.2024901338
  0
LWPOLYLINE
  5
1D8
330
1F
100
AcDbEntity
  8
0
  6
Continuous
 62
     7
370
    15
100
AcDbPolyline
 90
       20
 70
   128
 43
0.0
 10
275.7742536634
 20
17.1582769111
 10
275.2319966916
 20
16.858481586
 10
274.1555121079
 20
16.3428423611
 10
273.0906756896
 20
15.9389672698
 10
272.0451596075
 20
15.6497662414
 10
271.0264968288
 20
15.477322976
 10
270.0420268423
 20
15.4228799313
 10
269.0988427768
 20
15.4868293705
 10
268.203740295
 20
15.6687105367
 10
267.3631686309
 20
15.9672129717
 10
266.5831841225
 20
16.3801859588
 10
265.8694065762
 20
16.904654018
 10
265.2269787754
 20
17.536838345
 10
264.6605294273
 20
18.2721840372
 10
264.1741398123
 20
19.1053929121
 10
263.7713143788
 20
20.0304616806
 10
263.4549554933
 20
21.0407252011
 10
263.2273425287
 20
22.1289045017
 10
263.0901154418
 20
23.2871592256
 10
263.0442629567
 20
24.507144121
  0
ARC
  5
1D9
330
1F
100
AcDbEntity
  8
0
  6
Continuous
 62
     7
370
    15
100
AcDbCircle
 10
270.2629393276
 20
48.6534417694
 30
0.0
 40
6.20599025536763
100
AcDbArc
 50
60.1518544246
 51
78.5078411287
  0
ARC
  5
1DA
330
1F
100
AcDbEntity
  8
0
  6
Continuous
 62
     7
370
    15
100
AcDbCircle
 10
258.4318535251
 20
28.1759174794
 30
0.0
 40
6.14443693633349
100
AcDbArc
 50
222.6828295157
 51
239.9300611587
  0
SPLINE
  5
1DB
330
1F
100
AcDbEntity
  8
0
  6
Continuous
 62
     7
370
    15
100
AcDbSpline
210
0.0
220
0.0
230
1.0
 70
     8
 71
     3
 72
    52
 73
    48
 74
     0
 42
0.000000001
 43
0.00000001
 40
0.0
 40
0.0
 40
0.0
 40
0.0
 40
0.0312499999999995
 40
0.0312499999999995
 40
0.062499999999999
 40
0.062499999999999
 40
0.1249999999999983
 40
0.1249999999999983
 40
0.1562499999999979
 40
0.1562499999999979
 40
0.1874999999999976
 40
0.1874999999999976
 40
0.2187499999999974
 40
0.2187499999999974
 40
0.2499999999999971
 40
0.2499999999999971
 40
0.3124999999999964
 40
0.3124999999999964
 40
0.3437499999999962
 40
0.3437499999999962
 40
0.3749999999999959
 40
0.3749999999999959
 40
0.4374999999999959
 40
0.4374999999999959
 40
0.4687499999999962
 40
0.4687499999999962
 40
0.4999999999999966
 40
0.4999999999999966
 40
0.5624999999999966
 40
0.5624999999999966
 40
0.5937499999999968
 40
0.5937499999999968
 40
0.624999999999997
 40
0.624999999999997
 40
0.6874999999999976
 40
0.6874999999999976
 40
0.749999999999998
 40
0.749999999999998
 40
0.8124999999999986
 40
0.8124999999999986
 40
0.8749999999999991
 40
0.8749999999999991
 40
0.9062499999999993
 40
0.9062499999999993
 40
0.9374999999999996
 40
0.9374999999999996
 40
1.0
 40
1.0
 40
1.0
 40
1.0
 10
272.643237511336
 20
48.35885468879413
 30
0.0
 10
272.5340641988164
 20
48.29583027698887
 30
0.0
 10
272.4185907966282
 20
48.23498743115886
 30
0.0
 10
272.1749427171385
 20
48.11774825905472
 30
0.0
 10
272.0458223493916
 20
48.06099552570815
 30
0.0
 10
271.6472599505362
 20
47.90121994348815
 30
0.0
 10
271.3668490116085
 20
47.80820920709632
 30
0.0
 10
270.9254561068406
 20
47.68917900268529
 30
0.0
 10
270.77437888143
 20
47.65290462891404
 30
0.0
 10
270.4719531025074
 20
47.58898864969217
 30
0.0
 10
270.3198307233241
 20
47.56111222148073
 30
0.0
 10
270.0138074897279
 20
47.51348800147669
 30
0.0
 10
269.8599064134933
 20
47.49374094618621
 30
0.0
 10
269.5503037423797
 20
47.46262927407557
 30
0.0
 10
269.3945062996046
 20
47.45131337169072
 30
0.0
 10
268.9333255715176
 20
47.43082339822257
 30
0.0
 10
268.631031835766
 20
47.43461701076458
 30
0.0
 10
268.1846020956064
 20
47.4674010994285
 30
0.0
 10
268.0363105792868
 20
47.48298430542511
 30
0.0
 10
267.7463622348037
 20
47.52308915658062
 30
0.0
 10
267.6045378485727
 20
47.54757183323494
 30
0.0
 10
267.1881273715285
 20
47.63426559063336
 30
0.0
 10
266.9225255756734
 20
47.70963680757676
 30
0.0
 10
266.5421302218274
 20
47.85049790783979
 30
0.0
 10
266.4185944609933
 20
47.90208564001966
 30
0.0
 10
266.1821139164502
 20
48.01271544031538
 30
0.0
 10
266.0685689492685
 20
48.07196761310421
 30
0.0
 10
265.7417784175565
 20
48.26138607962837
 30
0.0
 10
265.5422573329961
 20
48.40315151798718
 30
0.0
 10
265.2716366231148
 20
48.63954142285798
 30
0.0
 10
265.186895151986
 20
48.72179785746063
 30
0.0
 10
265.0300776903261
 20
48.89109890738367
 30
0.0
 10
264.9576839196217
 20
48.97841645534629
 30
0.0
 10
264.7584918706861
 20
49.24800679992968
 30
0.0
 10
264.6494941523601
 20
49.4378733651701
 30
0.0
 10
264.4828861769619
 20
49.8369775989695
 30
0.0
 10
264.4276914593058
 20
50.04073483276743
 30
0.0
 10
264.3748004157247
 20
50.45110552035997
 30
0.0
 10
264.3769232837423
 20
50.65867537211895
 30
0.0
 10
264.4456547680313
 20
51.07279700413518
 30
0.0
 10
264.5110002856467
 20
51.27228252377399
 30
0.0
 10
264.6568162198058
 20
51.5577230908324
 30
0.0
 10
264.713447310026
 20
51.65056133340919
 30
0.0
 10
264.843809710548
 20
51.83103597973487
 30
0.0
 10
264.9181310265781
 20
51.91914815072369
 30
0.0
 10
265.1617488111242
 20
52.16752612335199
 30
0.0
 10
265.3525137364113
 20
52.31409055954728
 30
0.0
 10
265.5721696994706
 20
52.44089524790768
 30
0.0
  0
SPLINE
  5
1DC
330
1F
100
AcDbEntity
  8
0
  6
Continuous
 62
     7
370
    15
100
AcDbSpline
210
0.0
220
0.0
230
1.0
 70
     8
 71
     3
 72
    54
 73
    50
 74
     0
 42
0.000000001
 43
0.00000001
 40
0.0
 40
0.0
 40
0.0
 40
0.0
 40
0.03125
 40
0.03125
 40
0.0624999999999999
 40
0.0624999999999999
 40
0.0937499999999999
 40
0.0937499999999999
 40
0.1249999999999999
 40
0.1249999999999999
 40
0.1874999999999997
 40
0.1874999999999997
 40
0.2187499999999995
 40
0.2187499999999995
 40
0.2499999999999993
 40
0.2499999999999993
 40
0.3124999999999988
 40
0.3124999999999988
 40
0.3749999999999984
 40
0.3749999999999984
 40
0.437499999999998
 40
0.437499999999998
 40
0.4687499999999978
 40
0.4687499999999978
 40
0.4999999999999976
 40
0.4999999999999976
 40
0.5624999999999971
 40
0.5624999999999971
 40
0.593749999999997
 40
0.593749999999997
 40
0.6249999999999968
 40
0.6249999999999968
 40
0.6874999999999964
 40
0.6874999999999964
 40
0.7187499999999963
 40
0.7187499999999963
 40
0.7499999999999968
 40
0.7499999999999968
 40
0.8124999999999976
 40
0.8124999999999976
 40
0.8437499999999979
 40
0.8437499999999979
 40
0.8749999999999983
 40
0.8749999999999983
 40
0.9374999999999992
 40
0.9374999999999992
 40
0.9687499999999996
 40
0.9687499999999996
 40
1.0
 40
1.0
 40
1.0
 40
1.0
 10
265.5721696994706
 20
52.44089524790768
 30
0.0
 10
265.6820232708345
 20
52.50431236478478
 30
0.0
 10
265.8000806484654
 20
52.56309819950476
 30
0.0
 10
266.0454157167388
 20
52.66776085132929
 30
0.0
 10
266.17286529156
 20
52.71388564531372
 30
0.0
 10
266.4369677582254
 20
52.79434449119638
 30
0.0
 10
266.5736216480457
 20
52.82867703226581
 30
0.0
 10
266.8560859048828
 20
52.8858599618959
 30
0.0
 10
267.0022593801298
 20
52.90867092213278
 30
0.0
 10
267.4438875322685
 20
52.95914384187444
 30
0.0
 10
267.7457122081469
 20
52.96983165550638
 30
0.0
 10
268.2091171581934
 20
52.95583110441423
 30
0.0
 10
268.3649443902015
 20
52.94608821386326
 30
0.0
 10
268.6751410194528
 20
52.91753345907205
 30
0.0
 10
268.8301098131014
 20
52.89870762664168
 30
0.0
 10
269.2947278880724
 20
52.8295720441686
 30
0.0
 10
269.5976770329611
 20
52.76765975131277
 30
0.0
 10
270.1877742940942
 20
52.61903177740428
 30
0.0
 10
270.4761702211073
 20
52.53196681877829
 30
0.0
 10
271.0365232804942
 20
52.33582187304231
 30
0.0
 10
271.3015509658842
 20
52.22923642761192
 30
0.0
 10
271.6776564027334
 20
52.05849125192069
 30
0.0
 10
271.7994265504021
 20
51.99974239590505
 30
0.0
 10
272.0356946593789
 20
51.87864262203435
 30
0.0
 10
272.1507095746263
 20
51.81598067250526
 30
0.0
 10
272.4798366122648
 20
51.62518499031091
 30
0.0
 10
272.6782817797626
 20
51.49443164051993
 30
0.0
 10
272.945180752936
 20
51.29262281344571
 30
0.0
 10
273.028987058694
 20
51.22439234991538
 30
0.0
 10
273.1859969731257
 20
51.08576896535316
 30
0.0
 10
273.2594887335795
 20
51.01503619660966
 30
0.0
 10
273.4598567782491
 20
50.80276260247049
 30
0.0
 10
273.5677586596735
 20
50.66057513208655
 30
0.0
 10
273.6907413809633
 20
50.44420835657479
 30
0.0
 10
273.7252144422409
 20
50.37156446758304
 30
0.0
 10
273.7804751943232
 20
50.22476600130691
 30
0.0
 10
273.8012620196607
 20
50.15028386310777
 30
0.0
 10
273.8408976686019
 20
49.92855367905184
 30
0.0
 10
273.8379791581168
 20
49.78177213372138
 30
0.0
 10
273.78738078791
 20
49.56052922709626
 30
0.0
 10
273.762755324334
 20
49.48660418883402
 30
0.0
 10
273.6967947892788
 20
49.33793814134116
 30
0.0
 10
273.6553589851085
 20
49.26330637134356
 30
0.0
 10
273.5084386173241
 20
49.04382795705676
 30
0.0
 10
273.3798030272346
 20
48.90126247113574
 30
0.0
 10
273.1378618733512
 20
48.69171278921401
 30
0.0
 10
273.0482133201828
 20
48.62207816841008
 30
0.0
 10
272.8553325282436
 20
48.4871151870783
 30
0.0
 10
272.7524362611526
 20
48.42189378523834
 30
0.0
 10
272.643237511336
 20
48.35885468879414
 30
0.0
  0
LWPOLYLINE
  5
1DD
330
1F
100
AcDbEntity
  8
0
  6
Continuous
 62
     7
370
    15
100
AcDbPolyline
 90
       69
 70
   128
 43
0.0
 10
265.2362939784
 20
25.4868338552
 10
265.2822939697
 20
26.6623375224
 10
265.4199014877
 20
27.8809226662
 10
265.6479425138
 20
29.1321927479
 10
265.9644714821
 20
30.4054723721
 10
266.3667878793
 20
31.6898983662
 10
266.8514592836
 20
32.9745124605
 10
267.4143506496
 20
34.2483547804
 10
268.0506595865
 20
35.5005573524
 10
268.7549573308
 20
36.7204368257
 10
269.5212350626
 20
37.8975856187
 10
270.3429551704
 20
39.021960713
 10
271.2131070279
 20
40.0839693367
 10
272.1242668064
 20
41.0745508067
 10
273.0686608119
 20
41.9852538312
 10
274.0382318077
 20
42.808308613
 10
275.0247077559
 20
43.536693139
 10
276.0196723915
 20
44.1641930891
 10
277.0146370272
 20
44.6854548552
 10
278.0011129753
 20
45.0960312155
 10
278.9706839711
 20
45.3924192774
 10
279.9150779766
 20
45.5720903624
 10
280.8262377551
 20
45.6335115802
 10
281.6963896126
 20
45.5761589065
 10
282.5181097204
 20
45.4005216542
 10
283.2843874522
 20
45.1080982984
 10
283.9886851965
 20
44.701383692
 10
284.6249941334
 20
44.1838477807
 10
285.1878854994
 20
43.5599059984
 10
285.6725569037
 20
42.8348815964
 10
286.0748733009
 20
42.0149602272
 10
286.3914022693
 20
41.1071371708
 10
286.6194432953
 20
40.1191576536
 10
286.7570508133
 20
39.0594507683
 10
286.8030508046
 20
37.9370575605
 10
286.7570508133
 20
36.7615538933
 10
286.6194432953
 20
35.5429687495
 10
286.3914022693
 20
34.2916986679
 10
286.0748733009
 20
33.0184190436
 10
285.6725569037
 20
31.7339930495
 10
285.1878854994
 20
30.4493789552
 10
284.6249941334
 20
29.1755366353
 10
283.9886851965
 20
27.9233340633
 10
283.2843874522
 20
26.70345459
 10
282.5181097204
 20
25.526305797
 10
281.6963896126
 20
24.4019307027
 10
280.8262377551
 20
23.339922079
 10
279.9150779766
 20
22.349340609
 10
278.9706839711
 20
21.4386375846
 10
278.0011129753
 20
20.6155828028
 10
277.0146370271
 20
19.8871982768
 10
276.0196723915
 20
19.2596983266
 10
275.0247077559
 20
18.7384365606
 10
274.0382318077
 20
18.3278602002
 10
273.0686608119
 20
18.0314721383
 10
272.1242668064
 20
17.8518010533
 10
271.2131070279
 20
17.7903798356
 10
270.3429551704
 20
17.8477325092
 10
269.5212350626
 20
18.0233697615
 10
268.7549573308
 20
18.3157931173
 10
268.0506595865
 20
18.7225077237
 10
267.4143506496
 20
19.240043635
 10
266.8514592836
 20
19.8639854173
 10
266.3667878793
 20
20.5890098194
 10
265.9644714821
 20
21.4089311886
 10
265.6479425138
 20
22.3167542449
 10
265.4199014877
 20
23.3047337622
 10
265.2822939697
 20
24.3644406474
 10
265.2362939784
 20
25.4868338552
  0
SPLINE
  5
1DE
330
1F
100
AcDbEntity
  8
0
  6
Continuous
 62
     7
370
    15
100
AcDbSpline
210
0.0
220
0.0
230
1.0
 70
     8
 71
     3
 72
    16
 73
    12
 74
     0
 42
0.000000001
 43
0.00000001
 40
0.0
 40
0.0
 40
0.0
 40
0.0
 40
0.2499999999999996
 40
0.2499999999999996
 40
0.4999999999999991
 40
0.4999999999999991
 40
0.6249999999999989
 40
0.6249999999999989
 40
0.7499999999999987
 40
0.7499999999999987
 40
1.0
 40
1.0
 40
1.0
 40
1.0
 10
268.7124154955955
 20
19.25526952721656
 30
0.0
 10
268.5664499814099
 20
19.16498033719427
 30
0.0
 10
268.4185452694788
 20
19.12131662827188
 30
0.0
 10
268.1221423415461
 20
19.1326377832652
 30
0.0
 10
267.9813338947848
 20
19.18744806765431
 30
0.0
 10
267.784107807526
 20
19.34388567268196
 30
0.0
 10
267.7225062915169
 20
19.40715606129215
 30
0.0
 10
267.6071937549174
 20
19.55501248934477
 30
0.0
 10
267.5531562670885
 20
19.64025148387614
 30
0.0
 10
267.4053953743636
 20
19.92486327253072
 30
0.0
 10
267.3284394470378
 20
20.1459975054108
 30
0.0
 10
267.2712420466627
 20
20.39725499198764
 30
0.0
  0
LWPOLYLINE
  5
1DF
330
1F
100
AcDbEntity
  8
0
  6
Continuous
 62
     7
370
    15
100
AcDbPolyline
 90
       17
 70
   128
 43
0.0
 10
282.7965992015
 20
27.3858957154
 10
282.0622979413
 20
26.2285385193
 10
281.271011688
 20
25.1221016859
 10
280.4298889734
 20
24.0765808381
 10
279.5465285552
 20
23.1014212796
 10
278.6289107692
 20
22.2054326657
 10
277.6853254346
 20
21.3967094161
 10
276.724296963
 20
20.6825575897
 10
275.7545073486
 20
20.0694288808
 10
274.7847177341
 20
19.5628623343
 10
273.8236892625
 20
19.1674343054
 10
272.8801039279
 20
18.886717117
 10
271.9624861419
 20
18.7232467865
 10
271.0791257237
 20
18.6785001154
 10
270.2380030091
 20
18.7528813483
 10
269.4467167558
 20
18.9457185201
 10
268.7124154956
 20
19.2552695272
  0
SPLINE
  5
1E0
330
1F
100
AcDbEntity
  8
0
  6
Continuous
 62
     7
370
    15
100
AcDbSpline
210
0.0
220
0.0
230
1.0
 70
     8
 71
     3
 72
    16
 73
    12
 74
     0
 42
0.000000001
 43
0.00000001
 40
0.0
 40
0.0
 40
0.0
 40
0.0
 40
0.2499999999999993
 40
0.2499999999999993
 40
0.4999999999999987
 40
0.4999999999999987
 40
0.6249999999999988
 40
0.6249999999999988
 40
0.7499999999999989
 40
0.7499999999999989
 40
1.0
 40
1.0
 40
1.0
 40
1.0
 10
284.2377726504508
 20
30.19182462627782
 30
0.0
 10
284.2763864500749
 20
29.92981428511058
 30
0.0
 10
284.2725195017159
 20
29.66088265025496
 30
0.0
 10
284.1762400149849
 20
29.11080182280519
 30
0.0
 10
284.0862207692069
 20
28.84388206825514
 30
0.0
 10
283.8888553456704
 20
28.45986827808744
 30
0.0
 10
283.814316902669
 20
28.33811374207067
 30
0.0
 10
283.6484545719833
 20
28.10659304552401
 30
0.0
 10
283.5564513452948
 20
27.99614262754949
 30
0.0
 10
283.2587186612143
 20
27.68821956464526
 30
0.0
 10
283.0383598339363
 20
27.51943659041321
 30
0.0
 10
282.7965992015181
 20
27.3858957154011
 30
0.0
  0
LWPOLYLINE
  5
1E1
330
1F
100
AcDbEntity
  8
0
  6
Continuous
 62
     7
370
    15
100
AcDbPolyline
 90
       13
 70
   128
 43
0.0
 10
284.2377726505
 20
43.3327894657
 10
284.7560434284
 20
42.6371102908
 10
285.1871075935
 20
41.8370714482
 10
285.5267890089
 20
40.9404236903
 10
285.7717968511
 20
39.9558537139
 10
285.9197574916
 20
38.8929000035
 10
285.969237492
 20
37.7618604229
 10
285.9197574916
 20
36.5736924499
 10
285.7717968511
 20
35.3399070202
 10
285.5267890089
 20
34.0724570104
 10
285.1871075935
 20
32.7836214383
 10
284.7560434284
 20
31.4858865045
 10
284.2377726505
 20
30.1918246263
  0
SPLINE
  5
1E2
330
1F
100
AcDbEntity
  8
0
  6
Continuous
 62
     7
370
    15
100
AcDbSpline
210
0.0
220
0.0
230
1.0
 70
     8
 71
     3
 72
    16
 73
    12
 74
     0
 42
0.000000001
 43
0.00000001
 40
0.0
 40
0.0
 40
0.0
 40
0.0
 40
0.2499999999999993
 40
0.2499999999999993
 40
0.4999999999999986
 40
0.4999999999999986
 40
0.6249999999999988
 40
0.6249999999999988
 40
0.7499999999999989
 40
0.7499999999999989
 40
1.0
 40
1.0
 40
1.0
 40
1.0
 10
282.7965992015181
 20
44.4747749304648
 30
0.0
 10
283.0383808995515
 20
44.50975061493281
 30
0.0
 10
283.259688794313
 20
44.51103956837921
 30
0.0
 10
283.6576321212747
 20
44.44110038874622
 30
0.0
 10
283.8239122380251
 20
44.37158562226613
 30
0.0
 10
284.0210681760232
 20
44.21518851354465
 30
0.0
 10
284.0761626616895
 20
44.15567455359353
 30
0.0
 10
284.1659757037688
 20
44.02253867039178
 30
0.0
 10
284.2008424851583
 20
43.94836668911996
 30
0.0
 10
284.2725064680715
 20
43.70768471142733
 30
0.0
 10
284.2763830857861
 20
43.52873826599348
 30
0.0
 10
284.2377726504508
 20
43.33278946569371
 30
0.0
  0
LWPOLYLINE
  5
1E3
330
1F
100
AcDbEntity
  8
0
  6
Continuous
 62
     7
370
    15
100
AcDbPolyline
 90
       17
 70
   128
 43
0.0
 10
268.7124154956
 20
36.3441487423
 10
269.4467167558
 20
37.5015059384
 10
270.2380030091
 20
38.6079427717
 10
271.0791257237
 20
39.6534636196
 10
271.9624861419
 20
40.6286231781
 10
272.8801039279
 20
41.524611792
 10
273.8236892625
 20
42.3333350415
 10
274.7847177341
 20
43.0474868679
 10
275.7545073486
 20
43.6606155769
 10
276.724296963
 20
44.1671821234
 10
277.6853254346
 20
44.5626101522
 10
278.6289107692
 20
44.8433273407
 10
279.5465285552
 20
45.0067976712
 10
280.4298889734
 20
45.0515443423
 10
281.271011688
 20
44.9771631094
 10
282.0622979413
 20
44.7843259376
 10
282.7965992015
 20
44.4747749305
  0
SPLINE
  5
1E4
330
1F
100
AcDbEntity
  8
0
  6
Continuous
 62
     7
370
    15
100
AcDbSpline
210
0.0
220
0.0
230
1.0
 70
     8
 71
     3
 72
    16
 73
    12
 74
     0
 42
0.000000001
 43
0.00000001
 40
0.0
 40
0.0
 40
0.0
 40
0.0
 40
0.2499999999999998
 40
0.2499999999999998
 40
0.4999999999999997
 40
0.4999999999999997
 40
0.625
 40
0.625
 40
0.7500000000000003
 40
0.7500000000000003
 40
1.0
 40
1.0
 40
1.0
 40
1.0
 10
267.2712420466627
 20
33.53821983140355
 30
0.0
 10
267.3284444308865
 20
33.74491666701653
 30
0.0
 10
267.405714562076
 20
33.97147354639615
 30
0.0
 10
267.6035344478359
 20
34.46293634920623
 30
0.0
 10
267.719025363603
 20
34.71515162166531
 30
0.0
 10
267.9163206378789
 20
35.09920590813918
 30
0.0
 10
267.9843520505374
 20
35.22471687281503
 30
0.0
 10
268.124714886703
 20
35.47095811421256
 30
0.0
 10
268.197547406952
 20
35.59247554544663
 30
0.0
 10
268.4191831812208
 20
35.94432841931279
 30
0.0
 10
268.5664626988876
 20
36.15529918099109
 30
0.0
 10
268.7124154955955
 20
36.34414874228028
 30
0.0
  0
LWPOLYLINE
  5
1E5
330
1F
100
AcDbEntity
  8
0
  6
Continuous
 62
     7
370
    15
100
AcDbPolyline
 90
       13
 70
   128
 43
0.0
 10
267.2712420467
 20
20.397254992
 10
266.7529712687
 20
21.0929341669
 10
266.3219071036
 20
21.8929730095
 10
265.9822256882
 20
22.7896207674
 10
265.737217846
 20
23.7741907438
 10
265.5892572055
 20
24.8371444542
 10
265.5397772051
 20
25.9681840348
 10
265.5892572055
 20
27.1563520078
 10
265.737217846
 20
28.3901374374
 10
265.9822256882
 20
29.6575874472
 10
266.3219071036
 20
30.9464230193
 10
266.7529712687
 20
32.2441579532
 10
267.2712420467
 20
33.5382198314
  0
ARC
  5
1E6
330
1F
100
AcDbEntity
  8
0
  6
Continuous
 62
     7
370
    15
100
AcDbCircle
 10
283.4441363159
 20
42.5142964794
 30
0.0
 40
2.064650108741984
100
AcDbArc
 50
108.2781542706
 51
120.3370408027
  0
LINE
  5
1E7
330
1F
100
AcDbEntity
  8
0
  6
Continuous
 62
     7
370
    15
100
AcDbLine
 10
279.6429517676
 20
42.7038654562
 30
0.0
 11
282.4013110917
 21
44.2962323995
 31
0.0
  0
LWPOLYLINE
  5
1E8
330
1F
100
AcDbEntity
  8
0
  6
Continuous
 62
     7
370
    15
100
AcDbPolyline
 90
       10
 70
   128
 43
0.0
 10
271.8660629295
 20
38.2143630917
 10
272.6830539258
 20
39.1163658309
 10
273.5351718797
 20
39.9354379166
 10
274.4126714664
 20
40.6622119561
 10
275.3055170818
 20
41.2883761315
 10
276.2034976153
 20
41.8067692593
 10
277.0963432307
 20
42.2114626889
 10
277.9738428175
 20
42.497828107
 10
278.8259607714
 20
42.6625904694
 10
279.6429517676
 20
42.7038654562
  0
LINE
  5
1E9
330
1F
100
AcDbEntity
  8
0
  6
Continuous
 62
     7
370
    15
100
AcDbLine
 10
269.1077036054
 20
36.6219961484
 30
0.0
 11
271.8660629295
 21
38.2143630917
 31
0.0
  0
ARC
  5
1EA
330
1F
100
AcDbEntity
  8
0
  6
Continuous
 62
     7
370
    15
100
AcDbCircle
 10
270.5439308831
 20
34.1585954246
 30
0.0
 40
2.85150695578513
100
AcDbArc
 50
120.2433076991
 51
129.9633418827
  0
ARC
  5
1EB
330
1F
100
AcDbEntity
  8
0
  6
Continuous
 62
     7
370
    15
100
AcDbCircle
 10
282.6469000208
 20
27.7861460287
 30
0.0
 40
15.80533393313338
100
AcDbArc
 50
144.1533848984
 51
177.4698905796
  0
LWPOLYLINE
  5
1EC
330
1F
100
AcDbEntity
  8
0
  6
Continuous
 62
     7
370
    15
100
AcDbPolyline
 90
       41
 70
   128
 43
0.0
 10
277.2126537379
 20
42.2558955303
 10
277.4350983318
 20
42.2658205557
 10
278.1591635494
 20
42.2217052251
 10
278.8338704223
 20
42.0583854129
 10
279.45073412
 20
41.7779149604
 10
280.0019972236
 20
41.3838209463
 10
280.4807272798
 20
40.8810593316
 10
280.8809039804
 20
40.2759526352
 10
281.1974948711
 20
39.5761104249
 10
281.4265186378
 20
38.7903336226
 10
281.5650951738
 20
37.9285038275
 10
281.6114817987
 20
37.0014590493
 10
281.5650951738
 20
36.020857414
 10
281.4265186378
 20
34.9990305561
 10
281.1974948711
 20
33.9488285412
 10
280.8809039804
 20
32.883458269
 10
280.4807272798
 20
31.8163173888
 10
280.0019972236
 20
30.7608258163
 10
279.45073412
 20
29.7302569706
 10
278.8338704223
 20
28.7375708527
 10
278.1591635494
 20
27.7952510665
 10
277.4350983318
 20
26.9151478302
 10
276.6707803097
 20
26.1083289526
 10
275.8758212257
 20
25.3849406491
 10
275.0602181515
 20
24.7540799475
 10
274.234227769
 20
24.223680287
 10
273.4082373865
 20
23.8004117512
 10
272.5926343123
 20
23.4895971875
 10
271.7976752283
 20
23.2951452693
 10
271.0333572062
 20
23.2195013424
 10
270.3092919886
 20
23.263616673
 10
269.6345851158
 20
23.4269364852
 10
269.0177214181
 20
23.7074069377
 10
268.4664583144
 20
24.1015009518
 10
267.9877282582
 20
24.6042625665
 10
267.5875515576
 20
25.2093692629
 10
267.2709606669
 20
25.9092114732
 10
267.0419369002
 20
26.6949882755
 10
266.9033603642
 20
27.5568180706
 10
266.8569737393
 20
28.4838628488
 10
266.8569737393
 20
28.4838628488
  0
LINE
  5
1ED
330
1F
100
AcDbEntity
  8
0
  6
Continuous
 62
     7
370
    15
100
AcDbLine
 10
267.5874240259
 20
20.3114507784
 30
0.0
 11
270.34578335
 21
21.9038177217
 31
0.0
  0
LINE
  5
1EE
330
1F
100
AcDbEntity
  8
0
  6
Continuous
 62
     7
370
    15
100
AcDbLine
 10
267.3300608566
 20
20.1837827321
 30
0.0
 11
267.5874240259
 21
20.3114507784
 31
0.0
  0
LWPOLYLINE
  5
1EF
330
1F
100
AcDbEntity
  8
0
  6
Continuous
 62
     7
370
    15
100
AcDbPolyline
 90
        3
 70
   128
 43
0.0
 10
282.6729340056
 20
43.6104696974
 10
282.7195081767
 20
44.110017993
 10
282.691114119
 20
44.4674882346
  0
LWPOLYLINE
  5
1F0
330
1F
100
AcDbEntity
  8
0
  6
Continuous
 62
     7
370
    15
100
AcDbPolyline
 90
       12
 70
   128
 43
0.0
 10
282.6729340056
 20
31.6179750334
 10
283.1504445626
 20
32.8994685693
 10
283.5383426954
 20
34.1793861105
 10
283.8327298343
 20
35.4448638474
 10
284.0306472419
 20
36.683183098
 10
284.1301057495
 20
37.8818981363
 10
284.1301057495
 20
39.0289612786
 10
284.0306472419
 20
40.1128439684
 10
283.8327298343
 20
41.1226526441
 10
283.5383426954
 20
42.0482382253
 10
283.1504445626
 20
42.8802981153
 10
282.6729340056
 20
43.6104696974
  0
ARC
  5
1F1
330
1F
100
AcDbEntity
  8
0
  6
Continuous
 62
     7
370
    15
100
AcDbCircle
 10
278.8865505419
 20
31.227756699
 30
0.0
 40
3.806437978296939
100
AcDbArc
 50
301.5993128453
 51
5.8840342133
  0
LINE
  5
1F2
330
1F
100
AcDbEntity
  8
0
  6
Continuous
 62
     7
370
    15
100
AcDbLine
 10
278.1226721881
 20
26.3933200862
 30
0.0
 11
280.8810315122
 21
27.9856870295
 31
0.0
  0
LWPOLYLINE
  5
1F3
330
1F
100
AcDbEntity
  8
0
  6
Continuous
 62
     7
370
    15
100
AcDbPolyline
 90
       10
 70
   128
 43
0.0
 10
278.1226721881
 20
26.3933200862
 10
277.3056811918
 20
25.491317347
 10
276.4535632379
 20
24.6722452613
 10
275.5760636512
 20
23.9454712218
 10
274.6832180358
 20
23.3193070464
 10
273.7852375022
 20
22.8009139186
 10
272.8923918868
 20
22.396220489
 10
272.0148923001
 20
22.1098550709
 10
271.1627743462
 20
21.9450927085
 10
270.34578335
 20
21.9038177217
  0
ARC
  5
1F4
330
1F
100
AcDbEntity
  8
0
  6
Continuous
 62
     7
370
    15
100
AcDbCircle
 10
270.047453324
 20
20.4926990448
 30
0.0
 40
2.777851440162387
100
AcDbArc
 50
169.5358433675
 51
181.9690102461
  0
LWPOLYLINE
  5
1F5
330
1F
100
AcDbEntity
  8
0
  6
Continuous
 62
     7
370
    15
100
AcDbPolyline
 90
       12
 70
   128
 43
0.0
 10
267.3158011119
 20
20.9972134805
 10
266.8382905549
 20
21.7273850626
 10
266.4503924222
 20
22.5594449526
 10
266.1560052832
 20
23.4850305337
 10
265.9580878757
 20
24.4948392095
 10
265.8586293681
 20
25.5787218993
 10
265.8586293681
 20
26.7257850416
 10
265.9580878757
 20
27.9245000799
 10
266.1560052832
 20
29.1628193305
 10
266.4503924222
 20
30.4282970674
 10
266.8382905549
 20
31.7082146086
 10
267.3158011119
 20
32.9897081445
  0
ARC
  5
1F6
330
1F
100
AcDbEntity
  8
0
  6
Continuous
 62
     7
370
    15
100
AcDbCircle
 10
269.3973428109
 20
33.434870661
 30
0.0
 40
2.128611169437019
100
AcDbArc
 50
177.2170585604
 51
192.0715397823
  0
LWPOLYLINE
  5
1F7
330
1F
100
AcDbEntity
  8
0
  6
Continuous
 62
     7
370
    15
100
AcDbPolyline
 90
       35
 70
   128
 43
0.0
 10
277.0056260669
 20
42.1754637633
 10
277.6951139597
 20
42.0932090331
 10
278.3344623402
 20
41.8929857778
 10
278.9134442288
 20
41.5774652178
 10
279.4245117113
 20
41.1507606462
 10
279.8610022413
 20
40.6184348097
 10
280.2172254974
 20
39.9874273895
 10
280.4885375646
 20
39.2659645324
 10
280.6714014751
 20
38.4634516102
 10
280.7634333182
 20
37.5903506059
 10
280.7634333182
 20
36.6580437265
 10
280.6714014751
 20
35.6786850178
 10
280.4885375646
 20
34.6650419185
 10
280.2172254974
 20
33.6303288164
 10
279.8610022413
 20
32.5880347793
 10
279.4245117113
 20
31.5517477038
 10
278.9134442288
 20
30.5349771769
 10
278.3344623402
 20
29.5509783573
 10
277.6951139597
 20
28.6125791744
 10
277.0037339712
 20
27.7320130966
 10
276.2693355703
 20
26.9207596496
 10
275.5014927632
 20
26.1893947625
 10
274.7102155552
 20
25.5474528952
 10
273.9058194547
 20
25.0033027417
 10
273.0987909952
 20
24.5640381313
 10
272.2996510267
 20
24.23538555
 10
271.5188175609
 20
24.0216294868
 10
270.7664699561
 20
23.925556579
 10
270.052416214
 20
23.9484192838
 10
269.385965117
 20
24.0899195508
 10
268.7758048745
 20
24.3482127077
 10
268.2298898583
 20
24.7199315082
 10
267.7553369055
 20
25.2002300292
 10
267.3583325396
 20
25.7828468451
 10
267.2268522874
 20
26.0337720143
  0
ARC
  5
1F8
330
1F
100
AcDbEntity
  8
0
  6
Continuous
 62
     7
370
    15
100
AcDbCircle
 10
264.1959339477
 20
51.2605159471
 30
0.0
 40
5.731381584156154
100
AcDbArc
 50
60.1087571929
 51
75.6367651584
  0
LWPOLYLINE
  5
1F9
330
1F
100
AcDbEntity
  8
0
  6
Continuous
 62
     7
370
    15
100
AcDbPolyline
 90
        3
 70
   128
 43
0.0
 10
250.3035591971
 20
27.2168317342
 10
249.6801154407
 20
27.6348139506
 10
249.0604874995
 20
28.1884825726
  0
SPLINE
  5
1FA
330
1F
100
AcDbEntity
  8
0
  6
Continuous
 62
     7
370
    15
100
AcDbSpline
210
0.0
220
0.0
230
1.0
 70
     8
 71
     3
 72
    14
 73
    10
 74
     0
 42
0.000000001
 43
0.00000001
 40
0.0
 40
0.0
 40
0.0
 40
0.0
 40
0.25
 40
0.25
 40
0.5
 40
0.5
 40
0.75
 40
0.75
 40
1.0
 40
1.0
 40
1.0
 40
1.0
 10
244.9967222570466
 20
38.31609486040248
 30
0.0
 10
244.9493014003931
 20
38.28871938255987
 30
0.0
 10
244.8937683310035
 20
38.26687308978524
 30
0.0
 10
244.7713983600271
 20
38.23617511025725
 30
0.0
 10
244.7052888368753
 20
38.22764728167559
 30
0.0
 10
244.5724308563626
 20
38.22576075808439
 30
0.0
 10
244.5052409081578
 20
38.23251047642216
 30
0.0
 10
244.3818911816927
 20
38.26054515247156
 30
0.0
 10
244.3246090082716
 20
38.28214528822392
 30
0.0
 10
244.277707864086
 20
38.30922074244504
 30
0.0
  0
SPLINE
  5
1FB
330
1F
100
AcDbEntity
  8
0
  6
Continuous
 62
     7
370
    15
100
AcDbSpline
210
0.0
220
0.0
230
1.0
 70
     8
 71
     3
 72
    12
 73
     8
 74
     0
 42
0.000000001
 43
0.00000001
 40
0.0
 40
0.0
 40
0.0
 40
0.0
 40
0.249999999999998
 40
0.249999999999998
 40
0.499999999999996
 40
0.499999999999996
 40
1.0
 40
1.0
 40
1.0
 40
1.0
 10
266.7565735579581
 20
60.00032019488425
 30
0.0
 10
266.8100451691697
 20
59.96945169078636
 30
0.0
 10
266.8625037090472
 20
59.92075780676885
 30
0.0
 10
266.9535585407088
 20
59.80448148161121
 30
0.0
 10
266.9921824802797
 20
59.73727294008071
 30
0.0
 10
267.0821061718748
 20
59.5337368388712
 30
0.0
 10
267.1101269485513
 20
59.39330116665371
 30
0.0
 10
267.1101269485513
 20
59.27093963888709
 30
0.0
  0
LINE
  5
1FC
330
1F
100
AcDbEntity
  8
0
  6
Continuous
 62
     7
370
    15
100
AcDbLine
 10
244.2777078641
 20
38.3092207424
 30
0.0
 11
243.070772189
 21
39.0059698769
 31
0.0
  0
LWPOLYLINE
  5
1FD
330
1F
100
AcDbEntity
  8
0
  6
Continuous
 62
     7
370
    15
100
AcDbPolyline
 90
       25
 70
   128
 43
0.0
 10
243.070772189
 20
39.0059698769
 10
243.4103350138
 20
40.4965715439
 10
243.8415103631
 20
42.0031688299
 10
244.3613401319
 20
43.5154256306
 10
244.9662579955
 20
45.0229670141
 10
245.6521138773
 20
46.5154503992
 10
246.4142024206
 20
47.9826365108
 10
247.2472952693
 20
49.4144596272
 10
248.1456769383
 20
50.801096637
 10
249.1031840243
 20
52.1330344308
 10
250.1132474902
 20
53.4011351665
 10
251.1689377331
 20
54.5966989603
 10
252.2630121242
 20
55.7115235722
 10
253.3879646982
 20
56.7379606789
 10
254.536077648
 20
57.6689683446
 10
255.6994742734
 20
58.4981593334
 10
256.8701730194
 20
59.2198449291
 10
258.0401422346
 20
59.8290739626
 10
259.2013552724
 20
60.3216667803
 10
260.3458455585
 20
60.6942439187
 10
261.4657612463
 20
60.9442492889
 10
262.5534190844
 20
61.0699677137
 10
263.6013571286
 20
61.0705366941
 10
264.6023859349
 20
60.9459523263
 10
265.5496378829
 20
60.6970693294
  0
LINE
  5
1FE
330
1F
100
AcDbEntity
  8
0
  6
Continuous
 62
     7
370
    15
100
AcDbLine
 10
265.5496378829
 20
60.6970693294
 30
0.0
 11
266.756573558
 21
60.0003201949
 31
0.0
  0
LINE
  5
1FF
330
1F
100
AcDbEntity
  8
0
  6
Continuous
 62
     7
370
    15
100
AcDbLine
 10
246.3388652512
 20
37.6236745027
 30
0.0
 11
246.3388652512
 21
39.0908975188
 31
0.0
  0
LINE
  5
200
330
1F
100
AcDbEntity
  8
0
  6
Continuous
 62
     7
370
    15
100
AcDbLine
 10
246.3388652512
 20
39.0908975188
 30
0.0
 11
244.996722257
 21
38.3160948604
 31
0.0
  0
LINE
  5
201
330
1F
100
AcDbEntity
  8
0
  6
Continuous
 62
     7
370
    15
100
AcDbLine
 10
267.1101269486
 20
59.2709396389
 30
0.0
 11
267.1101269486
 21
57.1447071894
 31
0.0
  0
LINE
  5
202
330
1F
100
AcDbEntity
  8
0
  6
Continuous
 62
     7
370
    15
100
AcDbLine
 10
268.9513985194
 20
58.2076506419
 30
0.0
 11
267.1101269486
 21
57.1447071894
 31
0.0
  0
SPLINE
  5
203
330
1F
100
AcDbEntity
  8
0
  6
Continuous
 62
     7
370
    15
100
AcDbSpline
210
0.0
220
0.0
230
1.0
 70
     8
 71
     3
 72
    18
 73
    14
 74
     0
 42
0.000000001
 43
0.00000001
 40
0.0
 40
0.0
 40
0.0
 40
0.0
 40
0.25
 40
0.25
 40
0.5
 40
0.5
 40
0.5625
 40
0.5625
 40
0.625
 40
0.625
 40
0.75
 40
0.75
 40
1.0
 40
1.0
 40
1.0
 40
1.0
 10
246.3388652511964
 20
32.39271241601373
 30
0.0
 10
246.3388652511964
 20
32.82756818625919
 30
0.0
 10
246.3585499842773
 20
33.25057316368489
 30
0.0
 10
246.3941322873704
 20
34.09886310296476
 30
0.0
 10
246.4094091874498
 20
34.5245217265166
 30
0.0
 10
246.4096156924511
 20
35.06796711719132
 30
0.0
 10
246.4088054605
 20
35.17842901860446
 30
0.0
 10
246.4055990848939
 20
35.39897967584835
 30
0.0
 10
246.4032053679914
 20
35.50969265889434
 30
0.0
 10
246.3941609911787
 20
35.84286313128501
 30
0.0
 10
246.3856159321079
 20
36.06637077002295
 30
0.0
 10
246.3587871886711
 20
36.73756147379801
 30
0.0
 10
246.3388652511964
 20
37.18615343672214
 30
0.0
 10
246.3388652511964
 20
37.62367450270254
 30
0.0
  0
LWPOLYLINE
  5
204
330
1F
100
AcDbEntity
  8
0
  6
Continuous
 62
     7
370
    15
100
AcDbPolyline
 90
       23
 70
   128
 43
0.0
 10
242.1763792012
 20
40.7128374617
 10
242.5204216053
 20
42.1323773082
 10
242.9525761312
 20
43.5648452759
 10
243.4697514926
 20
44.9999946401
 10
244.0682482328
 20
46.4275594958
 10
244.7437851869
 20
47.8373281913
 10
245.4915301067
 20
49.2192163744
 10
246.3061342259
 20
50.5633391276
 10
247.1817705213
 20
51.8600816771
 10
248.1121753946
 20
53.1001681689
 10
249.0906934772
 20
54.2747280208
 10
250.110325237
 20
55.3753593757
 10
251.163777048
 20
56.3941892014
 10
252.2435133627
 20
57.3239296083
 10
253.341810615
 20
58.1579299806
 10
254.4508124694
 20
58.89022455
 10
255.5625860177
 20
59.5155750696
 10
256.6691785255
 20
60.0295082846
 10
257.7626743195
 20
60.4283479296
 10
258.8352514095
 20
60.7092410265
 10
259.8792374411
 20
60.8701782917
 10
260.8871645772
 20
60.9100085094
 10
261.2060558239
 20
60.8967874563
  0
SPLINE
  5
205
330
1F
100
AcDbEntity
  8
0
  6
Continuous
 62
     7
370
    15
100
AcDbSpline
210
0.0
220
0.0
230
1.0
 70
     8
 71
     3
 72
     8
 73
     4
 74
     0
 42
0.000000001
 43
0.00000001
 40
0.0
 40
0.0
 40
0.0
 40
0.0
 40
1.0
 40
1.0
 40
1.0
 40
1.0
 10
242.1763792011502
 20
40.71283746165365
 30
0.0
 10
241.641180626957
 20
40.62469582287279
 30
0.0
 10
241.1057901130219
 20
40.53693866205796
 30
0.0
 10
240.5702514099172
 20
40.44948979652894
 30
0.0
  0
LWPOLYLINE
  5
206
330
1F
100
AcDbEntity
  8
0
  6
Continuous
 62
     7
370
    15
100
AcDbPolyline
 90
       25
 70
   128
 43
0.0
 10
240.5702514099
 20
40.4494897965
 10
240.9098142347
 20
41.9400914635
 10
241.3409895841
 20
43.4466887495
 10
241.8608193528
 20
44.9589455501
 10
242.4657372164
 20
46.4664869337
 10
243.1515930983
 20
47.9589703188
 10
243.9136816415
 20
49.4261564303
 10
244.7467744903
 20
50.8579795468
 10
245.6451561592
 20
52.2446165566
 10
246.6026632452
 20
53.5765543504
 10
247.6127267112
 20
54.8446550861
 10
248.668416954
 20
56.0402188798
 10
249.7624913451
 20
57.1550434918
 10
250.8874439191
 20
58.1814805984
 10
252.0355568689
 20
59.1124882642
 10
253.1989534943
 20
59.941679253
 10
254.3696522403
 20
60.6633648487
 10
255.5396214555
 20
61.2725938822
 10
256.7008344933
 20
61.7651866999
 10
257.8453247795
 20
62.1377638382
 10
258.9652404672
 20
62.3877692085
 10
260.0528983053
 20
62.5134876333
 10
261.1008363495
 20
62.5140566136
 10
262.1018651558
 20
62.3894722459
 10
263.0491171038
 20
62.140589249
  0
LINE
  5
207
330
1F
100
AcDbEntity
  8
0
  6
Continuous
 62
     7
370
    15
100
AcDbLine
 10
263.0491171038
 20
62.140589249
 30
0.0
 11
263.3978167637
 21
61.0320224513
 31
0.0
  0
LINE
  5
208
330
1F
100
AcDbEntity
  8
0
  6
Continuous
 62
     7
370
    15
100
AcDbLine
 10
259.3319523555
 20
64.286462782
 30
0.0
 11
263.0491171038
 21
62.140589249
 31
0.0
  0
LINE
  5
209
330
1F
100
AcDbEntity
  8
0
  6
Continuous
 62
     7
370
    15
100
AcDbLine
 10
240.5702514099
 20
40.4494897965
 30
0.0
 11
240.035067177
 21
40.7584450779
 31
0.0
  0
SPLINE
  5
20A
330
1F
100
AcDbEntity
  8
0
  6
Continuous
 62
     7
370
    15
100
AcDbSpline
210
0.0
220
0.0
230
1.0
 70
     8
 71
     3
 72
    30
 73
    26
 74
     0
 42
0.000000001
 43
0.00000001
 40
0.0
 40
0.0
 40
0.0
 40
0.0
 40
0.1250000000000005
 40
0.1250000000000005
 40
0.1875000000000008
 40
0.1875000000000008
 40
0.2500000000000011
 40
0.2500000000000011
 40
0.3750000000000012
 40
0.3750000000000012
 40
0.4375000000000013
 40
0.4375000000000013
 40
0.5000000000000013
 40
0.5000000000000013
 40
0.6250000000000011
 40
0.6250000000000011
 40
0.6875000000000009
 40
0.6875000000000009
 40
0.7500000000000007
 40
0.7500000000000007
 40
0.8125000000000006
 40
0.8125000000000006
 40
0.8750000000000003
 40
0.8750000000000003
 40
1.0
 40
1.0
 40
1.0
 40
1.0
 10
240.0350671769667
 20
40.75844507791317
 30
0.0
 10
239.8239336209174
 20
40.88032988542936
 30
0.0
 10
239.61108267181
 20
40.97292559076459
 30
0.0
 10
239.2897583426745
 20
41.07011468056793
 30
0.0
 10
239.1823140463406
 20
41.09551242687272
 30
0.0
 10
238.96690838344
 20
41.1321180367998
 30
0.0
 10
238.8588589073107
 20
41.14323024577138
 30
0.0
 10
238.5414816373908
 20
41.15473070740042
 30
0.0
 10
238.3363879535384
 20
41.13402249246
 30
0.0
 10
238.0399556564962
 20
41.06188105068497
 30
0.0
 10
237.9425338122663
 20
41.0307201694941
 30
0.0
 10
237.75463682894
 20
40.95541415662453
 30
0.0
 10
237.6642933717354
 20
40.91142516868894
 30
0.0
 10
237.4042322351824
 20
40.76123298712179
 30
0.0
 10
237.2453694029311
 20
40.63698710363669
 30
0.0
 10
237.0314162215474
 20
40.41416775534795
 30
0.0
 10
236.9648106705101
 20
40.33433940726673
 30
0.0
 10
236.8426687887721
 20
40.16586172336998
 30
0.0
 10
236.7868639217048
 20
40.07693764830662
 30
0.0
 10
236.685949742299
 20
39.88990404579167
 30
0.0
 10
236.6408397316143
 20
39.79179461990772
 30
0.0
 10
236.5617551202314
 20
39.58627948728049
 30
0.0
 10
236.5276676865946
 20
39.47831287292593
 30
0.0
 10
236.4444377186267
 20
39.14531731751253
 30
0.0
 10
236.4137128039085
 20
38.91098901547463
 30
0.0
 10
236.4084350836577
 20
38.66423778390713
 30
0.0
  0
ARC
  5
20B
330
1F
100
AcDbEntity
  8
0
  6
Continuous
 62
     7
370
    15
100
AcDbCircle
 10
255.2607651942
 20
38.255967378
 30
0.0
 40
18.85675039136914
100
AcDbArc
 50
178.7593833157
 51
181.2406166843
  0
SPLINE
  5
20C
330
1F
100
AcDbEntity
  8
0
  6
Continuous
 62
     7
370
    15
100
AcDbSpline
210
0.0
220
0.0
230
1.0
 70
     8
 71
     3
 72
    30
 73
    26
 74
     0
 42
0.000000001
 43
0.00000001
 40
0.0
 40
0.0
 40
0.0
 40
0.0
 40
0.1250000000000001
 40
0.1250000000000001
 40
0.1875000000000002
 40
0.1875000000000002
 40
0.2500000000000003
 40
0.2500000000000003
 40
0.3750000000000004
 40
0.3750000000000004
 40
0.4375000000000003
 40
0.4375000000000003
 40
0.5000000000000003
 40
0.5000000000000003
 40
0.625
 40
0.625
 40
0.6875
 40
0.6875
 40
0.75
 40
0.75
 40
0.8125000000000001
 40
0.8125000000000001
 40
0.8750000000000001
 40
0.8750000000000001
 40
1.0
 40
1.0
 40
1.0
 40
1.0
 10
236.4084350836577
 20
37.84769697202138
 30
0.0
 10
236.4137132972836
 20
37.60701676923809
 30
0.0
 10
236.4444098216641
 20
37.36137724981329
 30
0.0
 10
236.526437810336
 20
36.9856023875556
 30
0.0
 10
236.5598163855832
 20
36.85911100797112
 30
0.0
 10
236.6387378226581
 20
36.60351405593654
 30
0.0
 10
236.6844407622919
 20
36.47418036243702
 30
0.0
 10
236.8365261562688
 20
36.09056674666063
 30
0.0
 10
236.9585155003701
 20
35.83783863298268
 30
0.0
 10
237.1705117187886
 20
35.46205427786455
 30
0.0
 10
237.2464440261168
 20
35.33674277867701
 30
0.0
 10
237.4061281437608
 20
35.09006512948798
 30
0.0
 10
237.4895043608272
 20
34.96918451112526
 30
0.0
 10
237.7494901082414
 20
34.61334762862485
 30
0.0
 10
237.9358647397828
 20
34.38513374080372
 30
0.0
 10
238.2338320787213
 20
34.05529920601487
 30
0.0
 10
238.3358249960573
 20
33.94797836682817
 30
0.0
 10
238.5413192963175
 20
33.74192981456571
 30
0.0
 10
238.6453134388787
 20
33.64264982695664
 30
0.0
 10
238.8555233258511
 20
33.45133041828004
 30
0.0
 10
238.9617393335426
 20
33.35929105909924
 30
0.0
 10
239.1762276369896
 20
33.18245074393837
 30
0.0
 10
239.2850382622563
 20
33.09726113261836
 30
0.0
 10
239.6099054567822
 20
32.85624631979901
 30
0.0
 10
239.8239278681508
 20
32.71492508757336
 30
0.0
 10
240.0350671769667
 20
32.59303695905567
 30
0.0
  0
LINE
  5
20D
330
1F
100
AcDbEntity
  8
0
  6
Continuous
 62
     7
370
    15
100
AcDbLine
 10
240.035067177
 20
32.5930369591
 30
0.0
 11
240.5702514099
 21
32.2840816777
 31
0.0
  0
LWPOLYLINE
  5
20E
330
1F
100
AcDbEntity
  8
0
  6
Continuous
 62
     7
370
    15
100
AcDbPolyline
 90
       10
 70
   128
 43
0.0
 10
245.5928346269
 20
26.3647736375
 10
245.4503527813
 20
26.4119061434
 10
244.587784733
 20
26.7755233209
 10
243.7881408567
 20
27.2529252248
 10
243.0566215834
 20
27.8410071034
 10
242.3979843001
 20
28.5359444054
 10
241.8165124107
 20
29.3332176518
 10
241.3159874792
 20
30.2276418291
 10
240.8996646363
 20
31.213400109
 10
240.5702514099
 20
32.2840816777
  0
LINE
  5
20F
330
1F
100
AcDbEntity
  8
0
  6
Continuous
 62
     7
370
    15
100
AcDbLine
 10
265.3452685824
 20
60.8146183052
 30
0.0
 11
265.4343168473
 21
60.7349530211
 31
0.0
  0
LINE
  5
210
330
1F
100
AcDbEntity
  8
0
  6
Continuous
 62
     7
370
    15
100
AcDbLine
 10
264.684295405
 20
61.1961899985
 30
0.0
 11
265.3452685824
 21
60.8146183052
 31
0.0
  0
SPLINE
  5
211
330
1F
100
AcDbEntity
  8
0
  6
Continuous
 62
     7
370
    15
100
AcDbSpline
210
0.0
220
0.0
230
1.0
 70
     8
 71
     3
 72
    26
 73
    22
 74
     0
 42
0.000000001
 43
0.00000001
 40
0.0
 40
0.0
 40
0.0
 40
0.0
 40
0.2499999999999984
 40
0.2499999999999984
 40
0.3124999999999984
 40
0.3124999999999984
 40
0.3749999999999983
 40
0.3749999999999983
 40
0.4999999999999983
 40
0.4999999999999983
 40
0.6249999999999984
 40
0.6249999999999984
 40
0.7499999999999986
 40
0.7499999999999986
 40
0.812499999999999
 40
0.812499999999999
 40
0.8749999999999993
 40
0.8749999999999993
 40
0.9374999999999998
 40
0.9374999999999998
 40
1.0
 40
1.0
 40
1.0
 40
1.0
 10
259.3319523554993
 20
64.28646278195347
 30
0.0
 10
259.7176986993834
 20
64.13876671633832
 30
0.0
 10
260.1172034135643
 20
63.95317076395344
 30
0.0
 10
260.6497976115327
 20
63.67071326255687
 30
0.0
 10
260.7580188153196
 20
63.61168072913048
 30
0.0
 10
260.9784925311253
 20
63.48835971357278
 30
0.0
 10
261.0907781734057
 20
63.42403728631071
 30
0.0
 10
261.4291207676474
 20
63.22626532569463
 30
0.0
 10
261.6583441565029
 20
63.08707747620203
 30
0.0
 10
262.1275929646368
 20
62.79546584192349
 30
0.0
 10
262.3699497148347
 20
62.64151719770481
 30
0.0
 10
262.8509783942429
 20
62.33398001064767
 30
0.0
 10
263.0910800282999
 20
62.17954288032815
 30
0.0
 10
263.4522462970991
 20
61.94943653153612
 30
0.0
 10
263.5723101492796
 20
61.87331750321169
 30
0.0
 10
263.8065544004363
 20
61.72606223557574
 30
0.0
 10
263.9215077934743
 20
61.65443174259555
 30
0.0
 10
264.1471947511033
 20
61.51547532280097
 30
0.0
 10
264.2579291092708
 20
61.44814843092502
 30
0.0
 10
264.4751002980121
 20
61.31816105488581
 30
0.0
 10
264.5817807039483
 20
61.25537047574661
 30
0.0
 10
264.6842954049827
 20
61.19618999853139
 30
0.0
  0
ARC
  5
212
330
1F
100
AcDbEntity
  8
0
  6
Continuous
 62
     7
370
    15
100
AcDbCircle
 10
255.6284904695
 20
57.7404808714
 30
0.0
 40
7.654228361065877
100
AcDbArc
 50
61.1176589031
 51
99.5452284152
  0
ARC
  5
213
330
1F
100
AcDbEntity
  8
0
  6
Continuous
 62
     7
370
    15
100
AcDbCircle
 10
243.3648611765
 20
36.4214041142
 30
0.0
 40
7.754790408236715
100
AcDbArc
 50
200.8589606688
 51
238.6230518282
  0
LINE
  5
214
330
1F
100
AcDbEntity
  8
0
  6
Continuous
 62
     7
370
    15
100
AcDbLine
 10
242.6940996928
 20
41.0117111398
 30
0.0
 11
242.1763792012
 21
40.7128374617
 31
0.0
  0
LINE
  5
215
330
1F
100
AcDbEntity
  8
0
  6
Continuous
 62
     7
370
    15
100
AcDbLine
 10
243.3476271327
 20
40.2480372065
 30
0.0
 11
243.1356715324
 21
40.37039657
 31
0.0
  0
SPLINE
  5
216
330
1F
100
AcDbEntity
  8
0
  6
Continuous
 62
     7
370
    15
100
AcDbSpline
210
0.0
220
0.0
230
1.0
 70
     8
 71
     3
 72
    14
 73
    10
 74
     0
 42
0.000000001
 43
0.00000001
 40
0.0
 40
0.0
 40
0.0
 40
0.0
 40
0.1250000000000003
 40
0.1250000000000003
 40
0.2500000000000007
 40
0.2500000000000007
 40
0.5000000000000008
 40
0.5000000000000008
 40
1.0
 40
1.0
 40
1.0
 40
1.0
 10
243.1356715324214
 20
40.37039656999999
 30
0.0
 10
243.1112139704699
 20
40.38451561998214
 30
0.0
 10
243.0888972446494
 20
40.41289327571418
 30
0.0
 10
243.0533379771687
 20
40.47218571186433
 30
0.0
 10
243.0394807943032
 20
40.50276222988347
 30
0.0
 10
243.0023958315232
 20
40.59463051540556
 30
0.0
 10
242.9837326541424
 20
40.65712784846964
 30
0.0
 10
242.935795365852
 20
40.84042784621169
 30
0.0
 10
242.9142904399017
 20
40.95967890603967
 30
0.0
 10
242.8973489547315
 20
41.07764258767827
 30
0.0
  0
SPLINE
  5
217
330
1F
100
AcDbEntity
  8
0
  6
Continuous
 62
     7
370
    15
100
AcDbSpline
210
0.0
220
0.0
230
1.0
 70
     8
 71
     3
 72
    10
 73
     6
 74
     0
 42
0.000000001
 43
0.00000001
 40
0.0
 40
0.0
 40
0.0
 40
0.0
 40
0.5
 40
0.5
 40
1.0
 40
1.0
 40
1.0
 40
1.0
 10
242.8973489547315
 20
41.07764258767828
 30
0.0
 10
242.8590363496156
 20
41.07233659288502
 30
0.0
 10
242.8216993568226
 20
41.06381679512719
 30
0.0
 10
242.7531119526757
 20
41.04146805300823
 30
0.0
 10
242.722010627416
 20
41.02782377936462
 30
0.0
 10
242.6940996928253
 20
41.0117111397926
 30
0.0
  0
ARC
  5
218
330
1F
100
AcDbEntity
  8
0
  6
Continuous
 62
     7
370
    15
100
AcDbCircle
 10
268.0648783812
 20
21.2157479783
 30
0.0
 40
2.064650108738069
100
AcDbArc
 50
288.2781542706
 51
300.3370408027
  0
ARC
  5
219
330
1F
100
AcDbEntity
  8
0
  6
Continuous
 62
     7
370
    15
100
AcDbCircle
 10
281.4615613731
 20
43.2373454129
 30
0.0
 40
2.777851440160642
100
AcDbArc
 50
349.5358433675
 51
1.9690102461
  0
LINE
  5
21A
330
1F
100
AcDbEntity
  8
0
  6
Continuous
 62
     7
370
    15
100
AcDbLine
 10
282.6729340056
 20
43.6104696974
 30
0.0
 11
284.1932135852
 21
42.7328309771
 31
0.0
  0
LWPOLYLINE
  5
21B
330
1F
100
AcDbEntity
  8
0
  6
Continuous
 62
     7
370
    15
100
AcDbPolyline
 90
       10
 70
   128
 43
0.0
 10
279.6429517676
 20
25.515681366
 10
278.8259607714
 20
24.6136786268
 10
277.9738428175
 20
23.7946065411
 10
277.0963432307
 20
23.0678325016
 10
276.2034976153
 20
22.4416683262
 10
275.3055170818
 20
21.9232751984
 10
274.4126714664
 20
21.5185817688
 10
273.5351718797
 20
21.2322163507
 10
272.6830539258
 20
21.0674539883
 10
271.8660629295
 20
21.0261790015
  0
LINE
  5
21C
330
1F
100
AcDbEntity
  8
0
  6
Continuous
 62
     7
370
    15
100
AcDbLine
 10
282.4013110917
 20
27.1080483093
 30
0.0
 11
279.6429517676
 21
25.515681366
 31
0.0
  0
ARC
  5
21D
330
1F
100
AcDbEntity
  8
0
  6
Continuous
 62
     7
370
    15
100
AcDbCircle
 10
280.965083814
 20
29.5714490331
 30
0.0
 40
2.851506955781479
100
AcDbArc
 50
300.2433076991
 51
309.9633418827
  0
LINE
  5
21E
330
1F
100
AcDbEntity
  8
0
  6
Continuous
 62
     7
370
    15
100
AcDbLine
 10
271.8660629295
 20
21.0261790015
 30
0.0
 11
269.1077036054
 21
19.4338120582
 31
0.0
  0
LINE
  5
21F
330
1F
100
AcDbEntity
  8
0
  6
Continuous
 62
     7
370
    15
100
AcDbLine
 10
270.34578335
 20
21.9038177217
 30
0.0
 11
271.8660629295
 21
21.0261790015
 31
0.0
  0
LINE
  5
220
330
1F
100
AcDbEntity
  8
0
  6
Continuous
 62
     7
370
    15
100
AcDbLine
 10
244.1588826372
 20
32.1839665755
 30
0.0
 11
246.3388652512
 21
30.9254893999
 31
0.0
  0
SPLINE
  5
221
330
1F
100
AcDbEntity
  8
0
  6
Continuous
 62
     7
370
    15
100
AcDbSpline
210
0.0
220
0.0
230
1.0
 70
     8
 71
     3
 72
    16
 73
    12
 74
     0
 42
0.000000001
 43
0.00000001
 40
0.0
 40
0.0
 40
0.0
 40
0.0
 40
0.1250000000000011
 40
0.1250000000000011
 40
0.2500000000000021
 40
0.2500000000000021
 40
0.5000000000000014
 40
0.5000000000000014
 40
0.7500000000000008
 40
0.7500000000000008
 40
1.0
 40
1.0
 40
1.0
 40
1.0
 10
243.9205600595385
 20
32.89121259321156
 30
0.0
 10
243.9448643179229
 20
32.87718204349488
 30
0.0
 10
243.9673300538929
 20
32.84865319562158
 30
0.0
 10
244.002446089108
 20
32.79023862495863
 30
0.0
 10
244.0167165446628
 20
32.75894139409068
 30
0.0
 10
244.0540227616901
 20
32.6664961394365
 30
0.0
 10
244.0724685908794
 20
32.60463744516295
 30
0.0
 10
244.10467068386
 20
32.48142442048378
 30
0.0
 10
244.1179258566049
 20
32.4205099805102
 30
0.0
 10
244.1408026373321
 20
32.30128046769956
 30
0.0
 10
244.1504960293302
 20
32.24236258592982
 30
0.0
 10
244.1588826372284
 20
32.18396657553328
 30
0.0
  0
LINE
  5
222
330
1F
100
AcDbEntity
  8
0
  6
Continuous
 62
     7
370
    15
100
AcDbLine
 10
243.1356715324
 20
33.3443190953
 30
0.0
 11
243.9205600595
 21
32.8912125932
 31
0.0
  0
SPLINE
  5
223
330
1F
100
AcDbEntity
  8
0
  6
Continuous
 62
     7
370
    15
100
AcDbSpline
210
0.0
220
0.0
230
1.0
 70
     8
 71
     3
 72
    14
 73
    10
 74
     0
 42
0.000000001
 43
0.00000001
 40
0.0
 40
0.0
 40
0.0
 40
0.0
 40
0.5000000000000013
 40
0.5000000000000013
 40
0.7500000000000009
 40
0.7500000000000009
 40
0.8750000000000004
 40
0.8750000000000004
 40
1.0
 40
1.0
 40
1.0
 40
1.0
 10
242.8973489547314
 20
32.9122344688206
 30
0.0
 10
242.914239044547
 20
33.01033940162645
 30
0.0
 10
242.9359656682852
 20
33.10561424874004
 30
0.0
 10
242.983820015833
 20
33.233195747781
 30
0.0
 10
243.0020992934641
 20
33.27360020117233
 30
0.0
 10
243.0397220578388
 20
33.32331674034949
 30
0.0
 10
243.0536615303143
 20
33.33781950550395
 30
0.0
 10
243.088985858069
 20
33.35580821663885
 30
0.0
 10
243.1115140223039
 20
33.35826492901854
 30
0.0
 10
243.1356715324214
 20
33.34431909527316
 30
0.0
  0
LINE
  5
224
330
1F
100
AcDbEntity
  8
0
  6
Continuous
 62
     7
370
    15
100
AcDbLine
 10
241.7426711735
 20
33.5788157634
 30
0.0
 11
242.8973489547
 21
32.9122344688
 31
0.0
  0
ARC
  5
225
330
1F
100
AcDbEntity
  8
0
  6
Continuous
 62
     7
370
    15
100
AcDbCircle
 10
245.4399440621
 20
39.3876718759
 30
0.0
 40
6.885683419173207
100
AcDbArc
 50
182.476303705
 51
237.5236964406
  0
LINE
  5
226
330
1F
100
AcDbEntity
  8
0
  6
Continuous
 62
     7
370
    15
100
AcDbLine
 10
238.5606906581
 20
39.9067084803
 30
0.0
 11
238.5606906581
 21
39.0901676684
 31
0.0
  0
ARC
  5
227
330
1F
100
AcDbEntity
  8
0
  6
Continuous
 62
     7
370
    15
100
AcDbCircle
 10
241.5385639954
 20
39.9939036616
 30
0.0
 40
2.979149645866013
100
AcDbArc
 50
156.9024675207
 51
181.6771998841
  0
LINE
  5
228
330
1F
100
AcDbEntity
  8
0
  6
Continuous
 62
     7
370
    15
100
AcDbLine
 10
246.3388652512
 20
30.9254893999
 30
0.0
 11
246.3388652512
 21
32.392712416
 31
0.0
  0
ARC
  5
229
330
1F
100
AcDbEntity
  8
0
  6
Continuous
 62
     7
370
    15
100
AcDbCircle
 10
282.1116718862
 20
30.2951737967
 30
0.0
 40
2.128611169435616
100
AcDbArc
 50
357.2170585604
 51
12.0715397823
  0
LWPOLYLINE
  5
22A
330
1F
100
AcDbEntity
  8
0
  6
Continuous
 62
     7
370
    15
100
AcDbPolyline
 90
       12
 70
   128
 43
0.0
 10
284.1932135852
 20
42.7328309771
 10
284.6707241422
 20
42.0026593951
 10
285.0586222749
 20
41.1705995051
 10
285.3530094139
 20
40.2450139239
 10
285.5509268214
 20
39.2352052481
 10
285.650385329
 20
38.1513225584
 10
285.650385329
 20
37.0042594161
 10
285.5509268214
 20
35.8055443778
 10
285.3530094139
 20
34.5672251272
 10
285.0586222749
 20
33.3017473903
 10
284.6707241422
 20
32.0218298491
 10
284.1932135852
 20
30.7403363132
  0
LINE
  5
22B
330
1F
100
AcDbEntity
  8
0
  6
Continuous
 62
     7
370
    15
100
AcDbLine
 10
282.6729340056
 20
31.6179750334
 30
0.0
 11
284.1932135852
 21
30.7403363132
 31
0.0
  0
LINE
  5
22C
330
1F
100
AcDbEntity
  8
0
  6
Continuous
 62
     7
370
    15
100
AcDbLine
 10
279.6429517676
 20
25.515681366
 30
0.0
 11
278.1226721881
 21
26.3933200862
 31
0.0
  0
SPLINE
  5
22D
330
1F
100
AcDbEntity
  8
0
  6
Continuous
 62
     7
370
    15
100
AcDbSpline
210
0.0
220
0.0
230
1.0
 70
     8
 71
     3
 72
    14
 73
    10
 74
     0
 42
0.000000001
 43
0.00000001
 40
0.0
 40
0.0
 40
0.0
 40
0.0
 40
0.5000000000000016
 40
0.5000000000000016
 40
0.7500000000000023
 40
0.7500000000000023
 40
0.8750000000000011
 40
0.8750000000000011
 40
1.0
 40
1.0
 40
1.0
 40
1.0
 10
226.4984631836498
 20
44.84195315404719
 30
0.0
 10
226.8720811058888
 20
44.57297408572554
 30
0.0
 10
227.2471553339518
 20
44.30082470686439
 30
0.0
 10
227.8151797402997
 20
43.8812096446373
 30
0.0
 10
228.0054111191289
 20
43.7394646951199
 30
0.0
 10
228.2936653410405
 20
43.52080521925937
 30
0.0
 10
228.3902381692967
 20
43.44690439821512
 30
0.0
 10
228.5851739433004
 20
43.29540069205215
 30
0.0
 10
228.6834075225039
 20
43.21806380865298
 30
0.0
 10
228.7839103307923
 20
43.13605049664326
 30
0.0
  0
SPLINE
  5
22E
330
1F
100
AcDbEntity
  8
0
  6
Continuous
 62
     7
370
    15
100
AcDbSpline
210
0.0
220
0.0
230
1.0
 70
     8
 71
     3
 72
     8
 73
     4
 74
     0
 42
0.000000001
 43
0.00000001
 40
0.0
 40
0.0
 40
0.0
 40
0.0
 40
1.0
 40
1.0
 40
1.0
 40
1.0
 10
228.7839103307923
 20
43.13605049664314
 30
0.0
 10
229.0903365715331
 20
42.88599747506273
 30
0.0
 10
229.39635911684
 20
42.64375559926776
 30
0.0
 10
229.7021505970684
 20
42.40598462619365
 30
0.0
  0
SPLINE
  5
22F
330
1F
100
AcDbEntity
  8
0
  6
Continuous
 62
     7
370
    15
100
AcDbSpline
210
0.0
220
0.0
230
1.0
 70
     8
 71
     3
 72
    14
 73
    10
 74
     0
 42
0.000000001
 43
0.00000001
 40
0.0
 40
0.0
 40
0.0
 40
0.0
 40
0.1249999999999967
 40
0.1249999999999967
 40
0.2499999999999933
 40
0.2499999999999933
 40
0.4999999999999956
 40
0.4999999999999956
 40
1.0
 40
1.0
 40
1.0
 40
1.0
 10
229.7021505970684
 20
42.40598462619364
 30
0.0
 10
229.721589211635
 20
42.39086995296181
 30
0.0
 10
229.7399941384588
 20
42.37824603738866
 30
0.0
 10
229.7705499936162
 20
42.36100705437146
 30
0.0
 10
229.7827414911726
 20
42.35628939399614
 30
0.0
 10
229.8105689680084
 20
42.35076934877512
 30
0.0
 10
229.8189799068831
 20
42.35726287671593
 30
0.0
 10
229.8327990821106
 20
42.38718930299918
 30
0.0
 10
229.8269015854562
 20
42.42061920094741
 30
0.0
 10
229.8173098366615
 20
42.45838358114032
 30
0.0
  0
SPLINE
  5
230
330
1F
100
AcDbEntity
  8
0
  6
Continuous
 62
     7
370
    15
100
AcDbSpline
210
0.0
220
0.0
230
1.0
 70
     8
 71
     3
 72
    16
 73
    12
 74
     0
 42
0.000000001
 43
0.00000001
 40
0.0
 40
0.0
 40
0.0
 40
0.0
 40
0.1249999999999996
 40
0.1249999999999996
 40
0.2499999999999992
 40
0.2499999999999992
 40
0.4999999999999994
 40
0.4999999999999994
 40
0.7499999999999997
 40
0.7499999999999997
 40
1.0
 40
1.0
 40
1.0
 40
1.0
 10
229.8173098366616
 20
42.45838358114022
 30
0.0
 10
229.8094297852689
 20
42.48940871149974
 30
0.0
 10
229.8063293846533
 20
42.51752003583585
 30
0.0
 10
229.8026683587455
 20
42.5730478041963
 30
0.0
 10
229.8022336115874
 20
42.6004340890386
 30
0.0
 10
229.8006917359553
 20
42.68507707015024
 30
0.0
 10
229.7992786090604
 20
42.74485879791513
 30
0.0
 10
229.7855991479839
 20
42.88008652306723
 30
0.0
 10
229.7735867423301
 20
42.9554278229006
 30
0.0
 10
229.7321356092943
 20
43.12808610346919
 30
0.0
 10
229.703260465434
 20
43.22338851874142
 30
0.0
 10
229.6629655924586
 20
43.33011329820936
 30
0.0
  0
ARC
  5
231
330
1F
100
AcDbEntity
  8
0
  6
Continuous
 62
     7
370
    15
100
AcDbCircle
 10
242.5415680291
 20
47.3223695036
 30
0.0
 40
13.48319362501718
100
AcDbArc
 50
162.7770125163
 51
197.2229874838
  0
SPLINE
  5
232
330
1F
100
AcDbEntity
  8
0
  6
Continuous
 62
     7
370
    15
100
AcDbSpline
210
0.0
220
0.0
230
1.0
 70
     8
 71
     3
 72
    16
 73
    12
 74
     0
 42
0.000000001
 43
0.00000001
 40
0.0
 40
0.0
 40
0.0
 40
0.0
 40
0.1249999999999996
 40
0.1249999999999996
 40
0.2499999999999992
 40
0.2499999999999992
 40
0.4999999999999994
 40
0.4999999999999994
 40
0.7499999999999997
 40
0.7499999999999997
 40
1.0
 40
1.0
 40
1.0
 40
1.0
 10
229.8173098366616
 20
53.30208663724563
 30
0.0
 10
229.8094297852689
 20
53.21865887149401
 30
0.0
 10
229.8063293846533
 20
53.13433893997621
 30
0.0
 10
229.8026683587455
 20
52.96601551083901
 30
0.0
 10
229.8022336115874
 20
52.88177291801164
 30
0.0
 10
229.8006917359553
 20
52.62920410242972
 30
0.0
 10
229.7992786090604
 20
52.46104214860927
 30
0.0
 10
229.7855991479839
 20
52.12611083703788
 30
0.0
 10
229.7735867423301
 20
51.95906223204062
 30
0.0
 10
229.7321356092943
 20
51.62808555833735
 30
0.0
 10
229.703260465434
 20
51.46787395858125
 30
0.0
 10
229.6629655924586
 20
51.31462570905582
 30
0.0
  0
SPLINE
  5
233
330
1F
100
AcDbEntity
  8
0
  6
Continuous
 62
     7
370
    15
100
AcDbSpline
210
0.0
220
0.0
230
1.0
 70
     8
 71
     3
 72
    14
 73
    10
 74
     0
 42
0.000000001
 43
0.00000001
 40
0.0
 40
0.0
 40
0.0
 40
0.0
 40
0.1250000000000001
 40
0.1250000000000001
 40
0.2500000000000002
 40
0.2500000000000002
 40
0.5000000000000023
 40
0.5000000000000023
 40
1.0
 40
1.0
 40
1.0
 40
1.0
 10
229.7021505970684
 20
53.83517183685323
 30
0.0
 10
229.7215892116351
 20
53.83229759040012
 30
0.0
 10
229.7399941384588
 20
53.82311225953715
 30
0.0
 10
229.7705499936162
 20
53.79355467706863
 30
0.0
 10
229.7827414911726
 20
53.77346743556262
 30
0.0
 10
229.8105689680084
 20
53.70787533003474
 30
0.0
 10
229.8189799068831
 20
53.65746296553004
 30
0.0
 10
229.8327990821106
 20
53.50526631553313
 30
0.0
 10
229.8269015854562
 20
53.40363650433672
 30
0.0
 10
229.8173098366615
 20
53.30208663724568
 30
0.0
  0
SPLINE
  5
234
330
1F
100
AcDbEntity
  8
0
  6
Continuous
 62
     7
370
    15
100
AcDbSpline
210
0.0
220
0.0
230
1.0
 70
     8
 71
     3
 72
     8
 73
     4
 74
     0
 42
0.000000001
 43
0.00000001
 40
0.0
 40
0.0
 40
0.0
 40
0.0
 40
1.0
 40
1.0
 40
1.0
 40
1.0
 10
228.7839103307923
 20
53.93646697147209
 30
0.0
 10
229.0903365715331
 20
53.91643499337314
 30
0.0
 10
229.39635911684
 20
53.88038699734859
 30
0.0
 10
229.7021505970685
 20
53.83517183685323
 30
0.0
  0
SPLINE
  5
235
330
1F
100
AcDbEntity
  8
0
  6
Continuous
 62
     7
370
    15
100
AcDbSpline
210
0.0
220
0.0
230
1.0
 70
     8
 71
     3
 72
    14
 73
    10
 74
     0
 42
0.000000001
 43
0.00000001
 40
0.0
 40
0.0
 40
0.0
 40
0.0
 40
0.4999999999999968
 40
0.4999999999999968
 40
0.7499999999999967
 40
0.7499999999999967
 40
0.8749999999999983
 40
0.8749999999999983
 40
1.0
 40
1.0
 40
1.0
 40
1.0
 10
226.4984631836498
 20
54.68059391082449
 30
0.0
 10
226.8720811058888
 20
54.52246724560434
 30
0.0
 10
227.2471553339518
 20
54.37131193023411
 30
0.0
 10
227.8151797402997
 20
54.16990645963985
 30
0.0
 10
228.005411119129
 20
54.10693601493821
 30
0.0
 10
228.2936653410405
 20
54.02597024998035
 30
0.0
 10
228.3902381692967
 20
54.00124638437894
 30
0.0
 10
228.5851739433004
 20
53.96007783971839
 30
0.0
 10
228.6834075225039
 20
53.94303713351035
 30
0.0
 10
228.7839103307923
 20
53.93646697147186
 30
0.0
  0
SPLINE
  5
236
330
1F
100
AcDbEntity
  8
0
  6
Continuous
 62
     7
370
    15
100
AcDbSpline
210
0.0
220
0.0
230
1.0
 70
     8
 71
     3
 72
     8
 73
     4
 74
     0
 42
0.000000001
 43
0.00000001
 40
0.0
 40
0.0
 40
0.0
 40
0.0
 40
1.0
 40
1.0
 40
1.0
 40
1.0
 10
226.5075746729595
 20
54.86689765765408
 30
0.0
 10
226.5028309386185
 20
54.80492522439034
 30
0.0
 10
226.4998835843898
 20
54.74281657858828
 30
0.0
 10
226.4984631836498
 20
54.68059391082449
 30
0.0
  0
SPLINE
  5
237
330
1F
100
AcDbEntity
  8
0
  6
Continuous
 62
     7
370
    15
100
AcDbSpline
210
0.0
220
0.0
230
1.0
 70
     8
 71
     3
 72
     8
 73
     4
 74
     0
 42
0.000000001
 43
0.00000001
 40
0.0
 40
0.0
 40
0.0
 40
0.0
 40
1.0
 40
1.0
 40
1.0
 40
1.0
 10
226.5075746729595
 20
44.77235127212795
 30
0.0
 10
226.5028309386185
 20
44.79651327337481
 30
0.0
 10
226.4998835843898
 20
44.81964982628428
 30
0.0
 10
226.4984631836498
 20
44.84195315404719
 30
0.0
  0
SPLINE
  5
238
330
1F
100
AcDbEntity
  8
0
  6
Continuous
 62
     7
370
    15
100
AcDbSpline
210
0.0
220
0.0
230
1.0
 70
     8
 71
     3
 72
    18
 73
    14
 74
     0
 42
0.000000001
 43
0.00000001
 40
0.0
 40
0.0
 40
0.0
 40
0.0
 40
0.1188967852262408
 40
0.2383306840063766
 40
0.3577552111055799
 40
0.4766227842900728
 40
0.594658937704748
 40
0.6540752073013918
 40
0.7127554374274283
 40
0.7713642904769892
 40
0.8311337923257776
 40
0.9495745253405181
 40
1.0
 40
1.0
 40
1.0
 40
1.0
 10
233.309135023488
 20
42.96661342691263
 30
0.0
 10
233.1621518572521
 20
43.24141107534103
 30
0.0
 10
232.8675215316315
 20
43.79224776439585
 30
0.0
 10
232.7295933129409
 20
44.63364084333177
 30
0.0
 10
232.8782318936601
 20
45.32948482342798
 30
0.0
 10
233.2822919239421
 20
45.79106243809385
 30
0.0
 10
233.7721447167165
 20
45.89235824209879
 30
0.0
 10
234.1906635864015
 20
45.79930634001479
 30
0.0
 10
234.5062814911017
 20
45.6401658018092
 30
0.0
 10
234.8117132668604
 20
45.39851692475301
 30
0.0
 10
235.1829693211056
 20
44.97921475532532
 30
0.0
 10
235.5114795901034
 20
44.4684001634116
 30
0.0
 10
235.638156261976
 20
44.04780394667422
 30
0.0
 10
235.675983435307
 20
43.92220887255566
 30
0.0
  0
SPLINE
  5
239
330
1F
100
AcDbEntity
  8
0
  6
Continuous
 62
     7
370
    15
100
AcDbSpline
210
0.0
220
0.0
230
1.0
 70
     8
 71
     3
 72
    12
 73
     8
 74
     0
 42
0.000000001
 43
0.00000001
 40
0.0
 40
0.0
 40
0.0
 40
0.0
 40
0.1132512602852686
 40
0.4079618680673798
 40
0.5549920024374115
 40
0.7040394411213017
 40
1.0
 40
1.0
 40
1.0
 40
1.0
 10
235.2597856841601
 20
41.49447988320218
 30
0.0
 10
235.2027830996256
 20
41.48118053711212
 30
0.0
 10
234.9974442732605
 20
41.43327267223447
 30
0.0
 10
234.6021985845286
 20
41.63329843150512
 30
0.0
 10
234.1855410156138
 20
41.93769812368537
 30
0.0
 10
233.7618300330273
 20
42.33037742231379
 30
0.0
 10
233.489952234772
 20
42.7124855535192
 30
0.0
 10
233.309135023488
 20
42.96661342691263
 30
0.0
  0
LINE
  5
23A
330
1F
100
AcDbEntity
  8
0
  6
Continuous
 62
     7
370
    15
100
AcDbLine
 10
244.996722257
 20
30.1506867415
 30
0.0
 11
246.3388652512
 21
30.9254893999
 31
0.0
  0
ARC
  5
23B
330
1F
100
AcDbEntity
  8
0
  6
Continuous
 62
     7
370
    15
100
AcDbCircle
 10
251.3801103483
 20
30.7137098534
 30
0.0
 40
6.814949970531536
100
AcDbArc
 50
222.1630628305
 51
258.595491036
  0
SPLINE
  5
23C
330
1F
100
AcDbEntity
  8
0
  6
Continuous
 62
     7
370
    15
100
AcDbSpline
210
0.0
220
0.0
230
1.0
 70
     8
 71
     3
 72
    14
 73
    10
 74
     0
 42
0.000000001
 43
0.00000001
 40
0.0
 40
0.0
 40
0.0
 40
0.0
 40
0.25
 40
0.25
 40
0.5
 40
0.5
 40
0.75
 40
0.75
 40
1.0
 40
1.0
 40
1.0
 40
1.0
 10
244.277707864086
 20
30.14381262358754
 30
0.0
 10
244.3252365613422
 20
30.11637489069012
 30
0.0
 10
244.3818263804668
 20
30.09513213575185
 30
0.0
 10
244.505740947065
 20
30.06700840454966
 30
0.0
 10
244.5728633184056
 20
30.06033711762753
 30
0.0
 10
244.7054331498838
 20
30.06226296881658
 30
0.0
 10
244.7719736980219
 20
30.07089414572197
 30
0.0
 10
244.893591265774
 20
30.10143778445638
 30
0.0
 10
244.9497268458332
 20
30.12355686812706
 30
0.0
 10
244.9967222570466
 20
30.150686741545
 30
0.0
  0
LINE
  5
23D
330
1F
100
AcDbEntity
  8
0
  6
Continuous
 62
     7
370
    15
100
AcDbLine
 10
243.070772189
 20
30.8405617581
 30
0.0
 11
244.2777078641
 21
30.1438126236
 31
0.0
  0
SPLINE
  5
23E
330
1F
100
AcDbEntity
  8
0
  6
Continuous
 62
     7
370
    15
100
AcDbSpline
210
0.0
220
0.0
230
1.0
 70
     8
 71
     3
 72
     8
 73
     4
 74
     0
 42
0.000000001
 43
0.00000001
 40
0.0
 40
0.0
 40
0.0
 40
0.0
 40
1.0
 40
1.0
 40
1.0
 40
1.0
 10
243.5269531532165
 20
31.76775959600546
 30
0.0
 10
243.3742708131361
 20
31.45879603559801
 30
0.0
 10
243.2222544805906
 20
31.14972167073615
 30
0.0
 10
243.0707721890083
 20
30.84056175808755
 30
0.0
  0
LINE
  5
23F
330
1F
100
AcDbEntity
  8
0
  6
Continuous
 62
     7
370
    15
100
AcDbLine
 10
244.0446736449
 20
32.0666332741
 30
0.0
 11
243.5269531532
 21
31.767759596
 31
0.0
  0
SPLINE
  5
240
330
1F
100
AcDbEntity
  8
0
  6
Continuous
 62
     7
370
    15
100
AcDbSpline
210
0.0
220
0.0
230
1.0
 70
     8
 71
     3
 72
    10
 73
     6
 74
     0
 42
0.000000001
 43
0.00000001
 40
0.0
 40
0.0
 40
0.0
 40
0.0
 40
0.5
 40
0.5
 40
1.0
 40
1.0
 40
1.0
 40
1.0
 10
244.1588826372284
 20
32.18396657553328
 30
0.0
 10
244.1496913887709
 20
32.16184917938189
 30
0.0
 10
244.1349330670892
 20
32.14029499223631
 30
0.0
 10
244.0962197155816
 20
32.10070032661844
 30
0.0
 10
244.0725845794823
 20
32.08274591371643
 30
0.0
 10
244.0446736448916
 20
32.06663327414442
 30
0.0
  0
ARC
  5
241
330
1F
100
AcDbEntity
  8
0
  6
Continuous
 62
     7
370
    15
100
AcDbCircle
 10
251.2812697598
 20
32.5811724122
 30
0.0
 40
8.392973001816303
100
AcDbArc
 50
191.9693873291
 51
237.442675491
  0
ARC
  5
242
330
1F
100
AcDbEntity
  8
0
  6
Continuous
 62
     7
370
    15
100
AcDbCircle
 10
250.9971529348
 20
34.9256558248
 30
0.0
 40
9.13575450965676
100
AcDbArc
 50
195.0890952656
 51
213.03396408
  0
SPLINE
  5
243
330
1F
100
AcDbEntity
  8
0
  6
Continuous
 62
     7
370
    15
100
AcDbSpline
210
0.0
220
0.0
230
1.0
 70
     8
 71
     3
 72
     8
 73
     4
 74
     0
 42
0.000000001
 43
0.00000001
 40
0.0
 40
0.0
 40
0.0
 40
0.0
 40
1.0
 40
1.0
 40
1.0
 40
1.0
 10
240.5702514099172
 20
32.28408167767144
 30
0.0
 10
241.1057901130219
 20
32.37153054320047
 30
0.0
 10
241.641180626957
 20
32.45928770401529
 30
0.0
 10
242.1763792011502
 20
32.54742934279616
 30
0.0
  0
LINE
  5
244
330
1F
100
AcDbEntity
  8
0
  6
Continuous
 62
     7
370
    15
100
AcDbLine
 10
242.1763792012
 20
32.5474293428
 30
0.0
 11
242.6940996928
 21
32.8463030209
 31
0.0
  0
SPLINE
  5
245
330
1F
100
AcDbEntity
  8
0
  6
Continuous
 62
     7
370
    15
100
AcDbSpline
210
0.0
220
0.0
230
1.0
 70
     8
 71
     3
 72
    10
 73
     6
 74
     0
 42
0.000000001
 43
0.00000001
 40
0.0
 40
0.0
 40
0.0
 40
0.0
 40
0.5
 40
0.5
 40
1.0
 40
1.0
 40
1.0
 40
1.0
 10
242.6940996928253
 20
32.8463030209351
 30
0.0
 10
242.7218195090269
 20
32.86230533020957
 30
0.0
 10
242.7536308790181
 20
32.87627387761174
 30
0.0
 10
242.8224782337388
 20
32.89861675924676
 30
0.0
 10
242.8592519868951
 20
32.90695833809649
 30
0.0
 10
242.8973489547308
 20
32.9122344688207
 30
0.0
  0
SPLINE
  5
246
330
1F
100
AcDbEntity
  8
0
  6
Continuous
 62
     7
370
    15
100
AcDbSpline
210
0.0
220
0.0
230
1.0
 70
     8
 71
     3
 72
    15
 73
    11
 74
     0
 42
0.000000001
 43
0.00000001
 40
0.0
 40
0.0
 40
0.0
 40
0.0
 40
0.0964112735641134
 40
0.2363901831158798
 40
0.3716705766086317
 40
0.5108031379921909
 40
0.6474050674343198
 40
0.7878872065042622
 40
0.9258508601721779
 40
1.0
 40
1.0
 40
1.0
 40
1.0
 10
234.5732462545297
 20
45.53208148764942
 30
0.0
 10
234.5697580638887
 20
45.46591735160768
 30
0.0
 10
234.5612053916346
 20
45.30368993092942
 30
0.0
 10
234.6043651714666
 20
45.02691475881503
 30
0.0
 10
234.693217653813
 20
44.71286029980505
 30
0.0
 10
234.8263529984991
 20
44.40024042043372
 30
0.0
 10
234.999143119922
 20
44.09101663418511
 30
0.0
 10
235.204562024991
 20
43.7990005338826
 30
0.0
 10
235.3981716281885
 20
43.56448440303604
 30
0.0
 10
235.5248271004394
 20
43.44329816958685
 30
0.0
 10
235.5691025737247
 20
43.40093460055767
 30
0.0
  0
SPLINE
  5
247
330
1F
100
AcDbEntity
  8
0
  6
Continuous
 62
     7
370
    15
100
AcDbSpline
210
0.0
220
0.0
230
1.0
 70
     8
 71
     3
 72
    12
 73
     8
 74
     0
 42
0.000000001
 43
0.00000001
 40
0.0
 40
0.0
 40
0.0
 40
0.0
 40
0.1738935409063176
 40
0.3349720013313728
 40
0.6178725453892485
 40
0.8674036091683022
 40
1.0
 40
1.0
 40
1.0
 40
1.0
 10
233.6034706363664
 20
43.1490101812236
 30
0.0
 10
233.6918590863425
 20
43.01943910290399
 30
0.0
 10
233.8621222015151
 20
42.76984568388929
 30
0.0
 10
234.2263015456768
 20
42.36763535652965
 30
0.0
 10
234.6612071553349
 20
42.01713793758192
 30
0.0
 10
235.0476126549742
 20
41.81617869935629
 30
0.0
 10
235.2357708711126
 20
41.79925303056533
 30
0.0
 10
235.3010608681129
 20
41.79337990481366
 30
0.0
  0
SPLINE
  5
248
330
1F
100
AcDbEntity
  8
0
  6
Continuous
 62
     7
370
    15
100
AcDbSpline
210
0.0
220
0.0
230
1.0
 70
     8
 71
     3
 72
    16
 73
    12
 74
     0
 42
0.000000001
 43
0.00000001
 40
0.0
 40
0.0
 40
0.0
 40
0.0
 40
0.1459864684481103
 40
0.2334311620492773
 40
0.3277305155893269
 40
0.4369801941558453
 40
0.5295009819008033
 40
0.6638428915734506
 40
0.7988945757073643
 40
0.8912546655120578
 40
1.0
 40
1.0
 40
1.0
 40
1.0
 10
234.6541429466008
 20
45.50798453804607
 30
0.0
 10
234.4883010781367
 20
45.59090642390096
 30
0.0
 10
234.2231212948079
 20
45.72349783720243
 30
0.0
 10
233.8688723506498
 20
45.71276499029934
 30
0.0
 10
233.5853195577155
 20
45.61447315978325
 30
0.0
 10
233.3522297496132
 20
45.40832320472912
 30
0.0
 10
233.1728941086462
 20
45.07734668766438
 30
0.0
 10
233.0904260402618
 20
44.61815691798058
 30
0.0
 10
233.1721132000262
 20
44.09661944710405
 30
0.0
 10
233.3472008459025
 20
43.59379080319628
 30
0.0
 10
233.5135300979187
 20
43.30511054935091
 30
0.0
 10
233.6034706363664
 20
43.1490101812236
 30
0.0
  0
SPLINE
  5
249
330
1F
100
AcDbEntity
  8
0
  6
Continuous
 62
     7
370
    15
100
AcDbSpline
210
0.0
220
0.0
230
1.0
 70
     8
 71
     3
 72
     9
 73
     5
 74
     0
 42
0.000000001
 43
0.00000001
 40
0.0
 40
0.0
 40
0.0
 40
0.0
 40
0.0950624230754662
 40
1.0
 40
1.0
 40
1.0
 40
1.0
 10
267.1101269485513
 20
59.20904700623471
 30
0.0
 10
267.1333571501122
 20
59.2143032756165
 30
0.0
 10
267.3777250171341
 20
59.2695960949214
 30
0.0
 10
267.6234361365168
 20
59.32287988327276
 30
0.0
 10
267.8457893615145
 20
59.3710983855928
 30
0.0
  0
LINE
  5
24A
330
1F
100
AcDbEntity
  8
0
  6
Continuous
 62
     7
370
    15
100
AcDbLine
 10
267.8457893615
 20
59.3710983856
 30
0.0
 11
269.0527250366
 21
58.6743492511
 31
0.0
  0
SPLINE
  5
24B
330
1F
100
AcDbEntity
  8
0
  6
Continuous
 62
     7
370
    15
100
AcDbSpline
210
0.0
220
0.0
230
1.0
 70
     8
 71
     3
 72
    12
 73
     8
 74
     0
 42
0.000000001
 43
0.00000001
 40
0.0
 40
0.0
 40
0.0
 40
0.0
 40
0.2500000000000019
 40
0.2500000000000019
 40
0.5000000000000008
 40
0.5000000000000008
 40
1.0
 40
1.0
 40
1.0
 40
1.0
 10
269.0527250365922
 20
58.67434925109281
 30
0.0
 10
269.1059617178909
 20
58.64361636914685
 30
0.0
 10
269.1426926513845
 20
58.60399755873846
 30
0.0
 10
269.1785632473255
 20
58.51969349258395
 30
0.0
 10
269.1783533244659
 20
58.47496223569293
 30
0.0
 10
269.1369624541423
 20
58.34706893079474
 30
0.0
 10
269.0575087043136
 20
58.26890674777575
 30
0.0
 10
268.9513985194292
 20
58.20765064191481
 30
0.0
  0
LINE
  5
24C
330
1F
100
AcDbEntity
  8
0
  6
Continuous
 62
     7
370
    15
100
AcDbLine
 10
228.7643500973
 20
47.795013549
 30
0.0
 11
229.0773460231
 21
47.6143248472
 31
0.0
  0
SPLINE
  5
24D
330
1F
100
AcDbEntity
  8
0
  6
Continuous
 62
     7
370
    15
100
AcDbSpline
210
0.0
220
0.0
230
1.0
 70
     8
 71
     3
 72
    10
 73
     6
 74
     0
 42
0.000000001
 43
0.00000001
 40
0.0
 40
0.0
 40
0.0
 40
0.0
 40
0.5
 40
0.5
 40
1.0
 40
1.0
 40
1.0
 40
1.0
 10
226.4985526107523
 20
55.24512378776426
 30
0.0
 10
226.4957376231481
 20
55.30486989283489
 30
0.0
 10
226.4982966027013
 20
55.36544690030499
 30
0.0
 10
226.5140150066519
 20
55.49111746181999
 30
0.0
 10
226.5274093674891
 20
55.5569237884454
 30
0.0
 10
226.5456492940633
 20
55.62363863699908
 30
0.0
  0
SPLINE
  5
24E
330
1F
100
AcDbEntity
  8
0
  6
Continuous
 62
     7
370
    15
100
AcDbSpline
210
0.0
220
0.0
230
1.0
 70
     8
 71
     3
 72
     8
 73
     4
 74
     0
 42
0.000000001
 43
0.00000001
 40
0.0
 40
0.0
 40
0.0
 40
0.0
 40
1.0
 40
1.0
 40
1.0
 40
1.0
 10
226.5727665726129
 20
55.29772771803934
 30
0.0
 10
226.5392732053687
 20
55.15668671744543
 30
0.0
 10
226.5187251117786
 20
55.01256766695719
 30
0.0
 10
226.5075746729595
 20
54.86689765765408
 30
0.0
  0
SPLINE
  5
24F
330
1F
100
AcDbEntity
  8
0
  6
Continuous
 62
     7
370
    15
100
AcDbSpline
210
0.0
220
0.0
230
1.0
 70
     8
 71
     3
 72
    26
 73
    22
 74
     0
 42
0.000000001
 43
0.00000001
 40
0.0
 40
0.0
 40
0.0
 40
0.0
 40
0.2500000000000008
 40
0.2500000000000008
 40
0.3750000000000012
 40
0.3750000000000012
 40
0.4375000000000003
 40
0.4375000000000003
 40
0.4687500000000004
 40
0.4687500000000004
 40
0.5000000000000004
 40
0.5000000000000004
 40
0.5312500000000004
 40
0.5312500000000004
 40
0.5625000000000004
 40
0.5625000000000004
 40
0.6250000000000004
 40
0.6250000000000004
 40
0.7500000000000006
 40
0.7500000000000006
 40
1.0
 40
1.0
 40
1.0
 40
1.0
 10
226.5456492940633
 20
55.62363863699908
 30
0.0
 10
226.5969568957073
 20
55.81130270787187
 30
0.0
 10
226.6482909335446
 20
55.99716967735006
 30
0.0
 10
226.7254980745635
 20
56.26196076532295
 30
0.0
 10
226.7511966354673
 20
56.3480881021741
 30
0.0
 10
226.7885008281022
 20
56.45991419764215
 30
0.0
 10
226.8012177115228
 20
56.49587042332731
 30
0.0
 10
226.8166467585597
 20
56.52725156514639
 30
0.0
 10
226.8211864649467
 20
56.53357375074238
 30
0.0
 10
226.8263662658273
 20
56.52858751016014
 30
0.0
 10
226.8267457833831
 20
56.51658239303673
 30
0.0
 10
226.8240951995497
 20
56.48264516326051
 30
0.0
 10
226.8212803521671
 20
56.46109024846551
 30
0.0
 10
226.8145256344993
 20
56.41597368198807
 30
0.0
 10
226.8104823321082
 20
56.39174562974985
 30
0.0
 10
226.7975965755416
 20
56.31843173868173
 30
0.0
 10
226.7879382744238
 20
56.26813676177755
 30
0.0
 10
226.7575207173913
 20
56.11533461504263
 30
0.0
 10
226.7353821151719
 20
56.01146630686521
 30
0.0
 10
226.6680445973805
 20
55.70408962901893
 30
0.0
 10
226.6209367340313
 20
55.50057288782264
 30
0.0
 10
226.5727665726128
 20
55.2977277180396
 30
0.0
  0
ARC
  5
250
330
1F
100
AcDbEntity
  8
0
  6
Continuous
 62
     7
370
    15
100
AcDbCircle
 10
227.4763913419
 20
54.5339081427
 30
0.0
 40
0.9888681395006691
100
AcDbArc
 50
171.4694323953
 51
234.2977828938
  0
ARC
  5
251
330
1F
100
AcDbEntity
  8
0
  6
Continuous
 62
     7
370
    15
100
AcDbCircle
 10
229.46065425
 20
44.7790922332
 30
0.0
 40
2.962857979912974
100
AcDbArc
 50
122.487978997
 51
178.78430362
  0
LINE
  5
252
330
1F
100
AcDbEntity
  8
0
  6
Continuous
 62
     7
370
    15
100
AcDbLine
 10
227.8692361266
 20
47.2782752528
 30
0.0
 11
228.7643500973
 21
47.795013549
 31
0.0
  0
SPLINE
  5
253
330
1F
100
AcDbEntity
  8
0
  6
Continuous
 62
     7
370
    15
100
AcDbSpline
210
0.0
220
0.0
230
1.0
 70
     8
 71
     3
 72
     8
 73
     4
 74
     0
 42
0.000000001
 43
0.00000001
 40
0.0
 40
0.0
 40
0.0
 40
0.0
 40
1.0
 40
1.0
 40
1.0
 40
1.0
 10
226.5727665726129
 20
44.59438408223546
 30
0.0
 10
226.5392732053687
 20
44.65925825608488
 30
0.0
 10
226.5187251117786
 20
44.71555700472445
 30
0.0
 10
226.5075746729595
 20
44.77235127212795
 30
0.0
  0
ARC
  5
254
330
1F
100
AcDbEntity
  8
0
  6
Continuous
 62
     7
370
    15
100
AcDbCircle
 10
228.2191705035
 20
45.4896034311
 30
0.0
 40
1.725905554404435
100
AcDbArc
 50
122.7352634073
 51
175.5138696649
  0
LINE
  5
255
330
1F
100
AcDbEntity
  8
0
  6
Continuous
 62
     7
370
    15
100
AcDbLine
 10
227.8692361266
 20
47.2782752528
 30
0.0
 11
227.2858730321
 21
46.9413974291
 31
0.0
  0
SPLINE
  5
256
330
1F
100
AcDbEntity
  8
0
  6
Continuous
 62
     7
370
    15
100
AcDbSpline
210
0.0
220
0.0
230
1.0
 70
     8
 71
     3
 72
     9
 73
     5
 74
     0
 42
0.000000001
 43
0.00000001
 40
0.0
 40
0.0
 40
0.0
 40
0.0
 40
0.2992525258105334
 40
1.0
 40
1.0
 40
1.0
 40
1.0
 10
226.7100936446077
 20
44.36337230440629
 30
0.0
 10
226.6970701737128
 20
44.38057974043301
 30
0.0
 10
226.6535501704658
 20
44.43808112987026
 30
0.0
 10
226.6060512918379
 20
44.52998363435192
 30
0.0
 10
226.5727665726126
 20
44.59438408223913
 30
0.0
  0
LWPOLYLINE
  5
257
330
1F
100
AcDbEntity
  8
0
  6
Continuous
 62
     7
370
     0
100
AcDbPolyline
 90
       27
 70
   128
 43
0.0
 10
251.6244884406
 20
31.099639624
 10
251.6703409256
 20
32.3725646718
 10
251.8075680126
 20
33.6892584179
 10
252.0351809771
 20
35.0402340536
 10
252.3515398627
 20
36.4157577685
 10
252.7543652962
 20
37.8059188828
 10
253.2407549111
 20
39.2007012537
 10
253.8072042593
 20
40.5900554423
 10
254.44963206
 20
41.9639711198
 10
255.1634096063
 20
43.3125491924
 10
255.9433941147
 20
44.626073124
 10
256.7839657788
 20
45.8950789447
 10
257.6790682606
 20
47.1104234384
 10
258.6222523262
 20
48.2633500202
 10
259.6067223127
 20
49.3455518278
 10
260.6253850913
 20
50.3492315721
 10
261.6709011735
 20
51.2671577178
 10
262.7357375918
 20
52.0927165858
 10
263.8122221755
 20
52.8199600057
 10
264.8925988284
 20
53.4436481718
 10
265.9690834121
 20
53.9592873968
 10
267.0339198304
 20
54.3631624881
 10
268.0794359125
 20
54.6523635165
 10
269.0980986912
 20
54.8248067819
 10
270.0825686777
 20
54.8792498266
 10
271.0257527432
 20
54.8153003873
 10
271.4993825129
 20
54.7350142058
  0
LWPOLYLINE
  5
258
330
1F
100
AcDbEntity
  8
0
  6
Continuous
 62
     7
370
     0
100
AcDbPolyline
 90
        9
 70
   128
 43
0.0
 10
253.9149685989
 20
24.0103615948
 10
253.8072042593
 20
24.129333848
 10
253.2407549111
 20
24.8646795402
 10
252.7543652962
 20
25.6978884151
 10
252.3515398627
 20
26.6229571836
 10
252.0351809771
 20
27.633220704
 10
251.8075680126
 20
28.7214000046
 10
251.6703409256
 20
29.8796547286
 10
251.6244884406
 20
31.099639624
  0
LWPOLYLINE
  5
259
330
1F
100
AcDbEntity
  8
0
  6
Continuous
 62
     7
370
     0
100
AcDbPolyline
 90
       26
 70
   128
 43
0.0
 10
246.833839998
 20
34.8857322426
 10
246.8801878284
 20
36.1212681451
 10
247.0188685847
 20
37.4006463698
 10
247.2487969022
 20
38.7138540475
 10
247.56817328
 20
40.0506135476
 10
247.9744981649
 20
41.4004629146
 10
248.4645915137
 20
42.7528377469
 10
249.0346176815
 20
44.0971538779
 10
249.6801154407
 20
45.4228902111
 10
250.3960328961
 20
46.7196710623
 10
251.1767670229
 20
47.9773473631
 10
252.016207518
 20
49.1860760911
 10
252.9077846215
 20
50.3363973053
 10
253.8445205336
 20
51.4193081824
 10
254.8190840258
 20
52.4263334766
 10
255.8238478173
 20
53.3495918496
 10
256.8509482692
 20
54.1818575529
 10
257.8923469278
 20
54.9166169788
 10
258.9398934367
 20
55.5481196386
 10
259.9853893241
 20
56.0714231678
 10
261.0206521672
 20
56.4824320067
 10
262.0375796305
 20
56.777929454
 10
263.0282128779
 20
56.9556028415
 10
263.9847988611
 20
57.0140616339
 10
264.8998509976
 20
56.952848312
 10
265.6177081617
 20
56.8127490967
  0
LWPOLYLINE
  5
25A
330
1F
100
AcDbEntity
  8
0
  6
Continuous
 62
     7
370
     0
100
AcDbPolyline
 90
        9
 70
   128
 43
0.0
 10
249.0604874995
 20
28.1884825726
 10
249.0346176815
 20
28.2152744347
 10
248.4645915137
 20
28.9014523612
 10
247.9744981649
 20
29.6879774574
 10
247.56817328
 20
30.5686940981
 10
247.2487969022
 20
31.5367094813
 10
247.0188685847
 20
32.5844475743
 10
246.8801878284
 20
33.7037084059
 10
246.833839998
 20
34.8857322426
  0
LWPOLYLINE
  5
25B
330
1F
100
AcDbEntity
  8
0
  6
Continuous
 62
     7
370
     0
100
AcDbPolyline
 90
       25
 70
   128
 43
0.0
 10
244.996722257
 20
38.3160948604
 10
245.3377072752
 20
39.7812597893
 10
245.7690343374
 20
41.2613534197
 10
246.287702896
 20
42.7460794077
 10
246.8901048075
 20
44.225109184
 10
247.5720494336
 20
45.6881538057
 10
248.3287927931
 20
47.1250355311
 10
249.1550705637
 20
48.525758622
 10
250.0451347036
 20
49.8805788795
 10
250.9927934379
 20
51.1800714302
 10
251.9914543323
 20
52.4151962905
 10
253.0341701532
 20
53.5773612536
 10
254.1136871969
 20
54.6584816621
 10
255.2224957503
 20
55.6510366488
 10
256.3528823322
 20
56.5481214563
 10
257.4969833531
 20
57.3434954702
 10
258.6468398179
 20
58.0316256322
 10
259.794452694
 20
58.6077249311
 10
260.9318385561
 20
59.0677857038
 10
262.0510851236
 20
59.408607515
 10
263.144406303
 20
59.6278194212
 10
264.2041963518
 20
59.7238964639
 10
265.2230827888
 20
59.6961702784
 10
266.1939776803
 20
59.5448337434
 10
267.1101269486
 20
59.2709396389
  0
LWPOLYLINE
  5
25C
330
1F
100
AcDbEntity
  8
0
  6
Continuous
 62
     7
370
     0
100
AcDbPolyline
 90
       25
 70
   128
 43
0.0
 10
244.2777078641
 20
38.3092207424
 10
244.6172706888
 20
39.7998224094
 10
245.0484460382
 20
41.3064196954
 10
245.5682758069
 20
42.8186764961
 10
246.1731936705
 20
44.3262178796
 10
246.8590495524
 20
45.8187012647
 10
247.6211380957
 20
47.2858873763
 10
248.4542309444
 20
48.7177104927
 10
249.3526126134
 20
50.1043475025
 10
250.3101196993
 20
51.4362852963
 10
251.3201831653
 20
52.704386032
 10
252.3758734081
 20
53.8999498258
 10
253.4699477992
 20
55.0147744377
 10
254.5949003732
 20
56.0412115444
 10
255.7430133231
 20
56.9722192101
 10
256.9064099485
 20
57.8014101989
 10
258.0771086945
 20
58.5230957946
 10
259.2470779097
 20
59.1323248281
 10
260.4082909475
 20
59.6249176458
 10
261.5527812336
 20
59.9974947842
 10
262.6726969213
 20
60.2475001544
 10
263.7603547594
 20
60.3732185792
 10
264.8082928037
 20
60.3737875596
 10
265.80932161
 20
60.2492031918
 10
266.756573558
 20
60.0003201949
  0
LWPOLYLINE
  5
25D
330
1F
100
AcDbEntity
  8
0
  6
Continuous
 62
     7
370
     0
100
AcDbPolyline
 90
       29
 70
   128
 43
0.0
 10
246.3388652512
 20
37.6236745027
 10
246.5793553208
 20
38.9484474112
 10
246.9076724561
 20
40.2954953606
 10
247.3213615522
 20
41.654745335
 10
247.8173291064
 20
43.0160330735
 10
248.3918663499
 20
44.3691790774
 10
249.0406769823
 20
45.7040647303
 10
249.7589092982
 20
47.0107079642
 10
250.5411924675
 20
48.2793379032
 10
251.3816766979
 20
49.5004679292
 10
252.2740769784
 20
50.664966621
 10
253.211720078
 20
51.7641260377
 10
254.1875944469
 20
52.7897268354
 10
255.1944026475
 20
53.7340997303
 10
256.2246159241
 20
54.590182848
 10
257.2705305015
 20
55.3515745316
 10
258.3243251923
 20
56.0125812121
 10
259.3781198831
 20
56.5682599838
 10
260.4240344605
 20
57.0144555669
 10
261.4542477371
 20
57.3478313801
 10
262.4610559378
 20
57.5658944905
 10
263.4369303066
 20
57.6670142561
 10
264.3745734062
 20
57.6504345189
 10
265.2669736867
 20
57.5162792595
 10
266.1074579171
 20
57.2655516703
 10
266.8897410864
 20
56.9001266533
 10
267.6079734023
 20
56.4227368002
 10
268.2567840347
 20
55.8369519584
 10
268.7603649143
 20
55.2433648361
  0
ARC
  5
25E
330
1F
100
AcDbEntity
  8
0
  6
Continuous
 62
     7
370
     0
100
AcDbCircle
 10
263.5941658303
 20
51.9987040818
 30
0.0
 40
8.200668233246436
100
AcDbArc
 50
20.0069615319
 51
49.2115627004
  0
LWPOLYLINE
  5
25F
330
1F
100
AcDbEntity
  8
0
  6
Continuous
 62
     7
370
     0
100
AcDbPolyline
 90
       11
 70
   128
 43
0.0
 10
252.0117261426
 20
26.2307279464
 10
251.3816766979
 20
26.3382251546
 10
250.5411924675
 20
26.5889527438
 10
249.7589092982
 20
26.9543777608
 10
249.0406769823
 20
27.4317676139
 10
248.3918663499
 20
28.0175524557
 10
247.8173291064
 20
28.7073518779
 10
247.3213615522
 20
29.4960076673
 10
246.9076724561
 20
30.3776223779
 10
246.5793553208
 20
31.3456034316
 10
246.3388652512
 20
32.392712416
  0
LWPOLYLINE
  5
260
330
1F
100
AcDbEntity
  8
0
  6
Continuous
 62
     7
370
     0
100
AcDbPolyline
 90
       26
 70
   128
 43
0.0
 10
235.184255778
 20
38.9575677003
 10
235.2301143661
 20
40.2981260467
 10
235.36739272
 20
41.6829375567
 10
235.5952005369
 20
43.1030211963
 10
235.9120603956
 20
44.549167178
 10
236.3159173384
 20
46.0119966903
 10
236.8041521981
 20
47.4820227225
 10
237.3735985841
 20
48.9497115917
 10
238.0205634182
 20
50.4055447722
 10
238.7408508853
 20
51.8400806274
 10
239.5297896445
 20
53.2440156417
 10
240.3822631254
 20
54.6082447577
 10
241.2927427104
 20
55.9239204263
 10
242.2553235898
 20
57.1825099858
 10
243.2637630575
 20
58.375851
 10
244.3115209963
 20
59.4962041944
 10
245.3918022941
 20
60.5363036487
 10
246.4976009121
 20
61.4894039187
 10
247.6217453219
 20
62.3493237836
 10
248.7569450157
 20
63.1104863331
 10
249.8958377878
 20
63.7679551358
 10
251.0310374815
 20
64.3174662543
 10
252.1551818913
 20
64.7554558982
 10
253.2609805093
 20
65.0790835365
 10
254.3412618071
 20
65.2862503198
 10
254.359219531
 20
65.2887365035
  0
ARC
  5
261
330
1F
100
AcDbEntity
  8
0
  6
Continuous
 62
     7
370
     0
100
AcDbCircle
 10
249.1696562413
 20
38.692496319
 30
0.0
 40
13.98791224440082
100
AcDbArc
 50
178.9141781646
 51
201.0856310777
  0
LWPOLYLINE
  5
262
330
1F
100
AcDbEntity
  8
0
  6
Continuous
 62
     7
370
     0
100
AcDbPolyline
 90
       20
 70
   128
 43
0.0
 10
242.6940996928
 20
41.0117111398
 10
243.0410248722
 20
42.3965586926
 10
243.4744231029
 20
43.7927173412
 10
243.9911176086
 20
45.1899533484
 10
244.5873210578
 20
46.5780250801
 10
245.2586633243
 20
47.9467580754
 10
246.0002235201
 20
49.2861196252
 10
246.8065660651
 20
50.5862923107
 10
247.6717805294
 20
51.8377459644
 10
248.5895249567
 20
53.031307526
 10
249.5530723496
 20
54.1582282794
 10
250.5553599787
 20
55.2102479809
 10
251.5890411516
 20
56.1796554056
 10
252.6465390635
 20
57.0593448706
 10
253.7201023348
 20
57.8428683186
 10
254.8018618279
 20
58.5244825821
 10
255.8838883277
 20
59.0991914801
 10
256.9582506619
 20
59.5627824399
 10
258.0170738358
 20
59.9118573749
 10
258.4821697335
 20
60.0298954491
  0
LWPOLYLINE
  5
263
330
1F
100
AcDbEntity
  8
0
  6
Continuous
 62
     7
370
     0
100
AcDbPolyline
 90
       16
 70
   128
 43
0.0
 10
243.1356715324
 20
40.37039657
 10
243.4500235416
 20
41.7566503839
 10
243.8550022257
 20
43.1585877726
 10
244.347462907
 20
44.5653226297
 10
244.9235816064
 20
45.965931596
 10
245.5788847364
 20
47.3495388803
 10
246.3082838389
 20
48.7054007102
 10
247.1061150973
 20
50.022988758
 10
247.9661833161
 20
51.2920718936
 10
248.8818100273
 20
52.5027956297
 10
249.8458853484
 20
53.6457586423
 10
250.8509231915
 20
54.7120857726
 10
251.8891193929
 20
55.6934969428
 10
252.9524123125
 20
56.5823714512
 10
254.0325454334
 20
57.3718071474
 10
254.788426342
 20
57.858437953
  0
LINE
  5
264
330
1F
100
AcDbEntity
  8
0
  6
Continuous
 62
     7
370
     0
100
AcDbLine
 10
267.5874240259
 20
20.3114507784
 30
0.0
 11
269.1077036054
 21
19.4338120582
 31
0.0
  0
LINE
  5
265
330
1F
100
AcDbEntity
  8
0
  6
Continuous
 62
     7
370
     0
100
AcDbLine
 10
236.4084350837
 20
38.6642377839
 30
0.0
 11
238.5606906581
 21
39.9067084803
 31
0.0
  0
LWPOLYLINE
  5
266
330
1F
100
AcDbEntity
  8
0
  6
Continuous
 62
     7
370
     0
100
AcDbPolyline
 90
       21
 70
   128
 43
0.0
 10
226.507574673
 20
54.8668976577
 10
226.9764168118
 20
56.1339646508
 10
227.5270710607
 20
57.3907923687
 10
228.1543013379
 20
58.6254298414
 10
228.852143413
 20
59.8261371022
 10
229.6139616193
 20
60.9814968213
 10
230.4325119516
 20
62.0805228712
 10
231.300010948
 20
63.1127647924
 10
232.208209702
 20
64.0684071644
 10
233.1484722993
 20
64.9383629396
 10
234.1118579363
 20
65.7143598502
 10
235.0892059356
 20
66.3890190679
 10
236.0712228545
 20
66.9559253682
 10
237.0485708538
 20
67.4096881314
 10
238.0119564907
 20
67.7459926012
 10
238.9522190881
 20
67.9616409132
 10
239.860417842
 20
68.0545825027
 10
240.7279168385
 20
68.0239336034
 10
241.5464671708
 20
67.8699856505
 10
242.3082853771
 20
67.5942025101
 10
242.4438431857
 20
67.5293076253
  0
ARC
  5
267
330
1F
100
AcDbEntity
  8
0
  6
Continuous
 62
     7
370
     0
100
AcDbCircle
 10
231.1316740732
 20
47.2149483353
 30
0.0
 40
5.22958656839971
100
AcDbArc
 50
207.8444456331
 51
236.0612742424
  0
LWPOLYLINE
  5
268
330
1F
100
AcDbEntity
  8
0
  6
Continuous
 62
     7
370
     0
100
AcDbPolyline
 90
       13
 70
   128
 43
0.0
 10
253.6341823978
 20
24.2465688611
 10
252.9452439667
 20
24.1610084173
 10
251.9137071436
 20
24.1294307583
 10
250.9260893582
 20
24.219785678
 10
249.9891567635
 20
24.4314541566
 10
249.1093282691
 20
24.7629860567
 10
248.2926315653
 20
25.2121100587
 10
247.5446618279
 20
25.7757492218
 10
246.8705433849
 20
26.4500420632
 10
246.2748946106
 20
27.230369014
 10
245.7617962849
 20
28.1113840672
 10
245.3347636358
 20
29.0870514032
 10
244.996722257
 20
30.1506867415
  0
ARC
  5
269
330
1F
100
AcDbEntity
  8
0
  6
Continuous
 62
     7
370
     0
100
AcDbCircle
 10
253.3105138905
 20
32.24239514
 30
0.0
 40
9.27338305523749
100
AcDbArc
 50
193.0794356655
 51
221.1580702486
  0
LINE
  5
26A
330
1F
100
AcDbEntity
  8
0
  6
Continuous
 62
     7
370
     0
100
AcDbLine
 10
236.4084350837
 20
37.847696972
 30
0.0
 11
238.5606906581
 21
39.0901676684
 31
0.0
  0
LINE
  5
26B
330
1F
100
AcDbEntity
  8
0
  6
Continuous
 62
     7
370
     0
100
AcDbLine
 10
240.035067177
 20
32.5930369591
 30
0.0
 11
241.7426711735
 21
33.5788157634
 31
0.0
  0
LINE
  5
26C
330
1F
100
AcDbEntity
  8
0
  6
Continuous
 62
     7
370
     0
100
AcDbLine
 10
244.1276830112
 20
32.175849396
 30
0.0
 11
243.9205600595
 21
32.8912125932
 31
0.0
  0
LWPOLYLINE
  5
26D
330
1F
100
AcDbEntity
  8
0
  6
Continuous
 62
     7
370
     0
100
AcDbPolyline
 90
        3
 70
   128
 43
0.0
 10
243.644290635
 20
31.8354970824
 10
243.4500235416
 20
32.3210083857
 10
243.1356715324
 20
33.3443190953
  0
LINE
  5
26E
330
1F
100
AcDbEntity
  8
0
  6
Continuous
 62
     7
370
     0
100
AcDbLine
 10
280.8810315122
 20
27.9856870295
 30
0.0
 11
282.4013110917
 21
27.1080483093
 31
0.0
  0
LWPOLYLINE
  5
26F
330
1F
100
AcDbEntity
  8
0
  6
Continuous
 62
     7
370
     0
100
AcDbPolyline
 90
        3
 70
   128
 43
0.0
 10
243.2877565219
 20
31.3197533234
 10
243.0463170499
 20
31.8492832801
 10
242.6940996928
 20
32.8463030209
  0
LINE
  5
270
330
1F
100
AcDbEntity
  8
0
  6
Continuous
 62
     7
370
     0
100
AcDbLine
 10
264.684295405
 20
61.1961899985
 30
0.0
 11
264.331821439
 21
60.9927111091
 31
0.0
  0
ARC
  5
271
330
1F
100
AcDbEntity
  8
0
  6
Continuous
 62
     7
370
     0
100
AcDbCircle
 10
230.9899788176
 20
52.9417336275
 30
0.0
 40
1.481847380531216
100
AcDbArc
 50
159.3804585659
 51
213.4234454268
  0
ARC
  5
272
330
1F
100
AcDbEntity
  8
0
  6
Continuous
 62
     7
370
     0
100
AcDbCircle
 10
229.1567185457
 20
52.6485710139
 30
0.0
 40
0.9292273799873637
100
AcDbArc
 50
44.6915000058
 51
61.2926903386
  0
LINE
  5
273
330
1F
100
AcDbEntity
  8
0
  6
Continuous
 62
     7
370
     0
100
AcDbLine
 10
229.6030593489
 20
53.463582309
 30
0.0
 11
229.7021505971
 21
53.8351718369
 31
0.0
  0
LINE
  5
274
330
1F
100
AcDbEntity
  8
0
  6
Continuous
 62
     7
370
     0
100
AcDbLine
 10
229.6030593489
 20
53.463582309
 30
0.0
 11
228.7839103308
 21
53.9364669715
 31
0.0
  0
LINE
  5
275
330
1F
100
AcDbEntity
  8
0
  6
Continuous
 62
     7
370
     0
100
AcDbLine
 10
226.5727665726
 20
55.297727718
 30
0.0
 11
226.5456492941
 21
55.623638637
 31
0.0
  0
ARC
  5
276
330
1F
100
AcDbEntity
  8
0
  6
Continuous
 62
     7
370
     0
100
AcDbCircle
 10
229.3119665813
 20
42.1441448389
 30
0.0
 40
0.5950779720696902
100
AcDbArc
 50
31.8746821496
 51
60.714125574
  0
ARC
  5
277
330
1F
100
AcDbEntity
  8
0
  6
Continuous
 62
     7
370
     0
100
AcDbCircle
 10
231.2622721893
 20
43.1936655813
 30
0.0
 40
1.74195787306495
100
AcDbArc
 50
166.6109710952
 51
197.7306259078
  0
LINE
  5
278
330
1F
100
AcDbEntity
  8
0
  6
Continuous
 62
     7
370
     0
100
AcDbLine
 10
229.0684799576
 20
46.5859665253
 30
0.0
 11
227.8692361266
 21
47.2782752528
 31
0.0
  0
LINE
  5
279
330
1F
100
AcDbEntity
  8
0
  6
Continuous
 62
     7
370
     0
100
AcDbLine
 10
229.6030593489
 20
42.6631658341
 30
0.0
 11
228.7839103308
 21
43.1360504966
 31
0.0
  0
LINE
  5
27A
330
1F
100
AcDbEntity
  8
0
  6
Continuous
 62
     7
370
     0
100
AcDbLine
 10
229.6030593489
 20
42.6631658341
 30
0.0
 11
229.7021505971
 21
42.4059846262
 31
0.0
  0
OLE2FRAME
  5
27B
330
1F
100
AcDbEntity
  8
0
100
AcDbOle2Frame
 70
     2
  3
Paintbrush-Bild
 10
13.8511154363
 20
38.264191557
 30
0.0
 11
51.6290888628
 21
31.9806341108
 31
0.0
 71
     2
 72
     0
 73
     1
 90
    12928
310
80552BED0767C5B32B40DDAF6807D121434000000000000000006FFBDDFB85D0
310
4940DDAF6807D121434000000000000000006FFBDDFB85D04940416F4BD60AFB
310
3F4000000000000000002BED0767C5B32B40416F4BD60AFB3F40000000000000
310
0000000000000100000000010000010000000100000000000100000000320000
310
D0CF11E0A1B11AE1000000000000000000000000000000003E000300FEFF0900
310
0600000000000000000000000100000001000000000000000010000002000000
310
01000000FEFFFFFF0000000000000000FFFFFFFFFFFFFFFFFFFFFFFFFFFFFFFF
310
FFFFFFFFFFFFFFFFFFFFFFFFFFFFFFFFFFFFFFFFFFFFFFFFFFFFFFFFFFFFFFFF
310
FFFFFFFFFFFFFFFFFFFFFFFFFFFFFFFFFFFFFFFFFFFFFFFFFFFFFFFFFFFFFFFF
310
FFFFFFFFFFFFFFFFFFFFFFFFFFFFFFFFFFFFFFFFFFFFFFFFFFFFFFFFFFFFFFFF
310
FFFFFFFFFFFFFFFFFFFFFFFFFFFFFFFFFFFFFFFFFFFFFFFFFFFFFFFFFFFFFFFF
310
FFFFFFFFFFFFFFFFFFFFFFFFFFFFFFFFFFFFFFFFFFFFFFFFFFFFFFFFFFFFFFFF
310
FFFFFFFFFFFFFFFFFFFFFFFFFFFFFFFFFFFFFFFFFFFFFFFFFFFFFFFFFFFFFFFF
310
FFFFFFFFFFFFFFFFFFFFFFFFFFFFFFFFFFFFFFFFFFFFFFFFFFFFFFFFFFFFFFFF
310
FFFFFFFFFFFFFFFFFFFFFFFFFFFFFFFFFFFFFFFFFFFFFFFFFFFFFFFFFFFFFFFF
310
FFFFFFFFFFFFFFFFFFFFFFFFFFFFFFFFFFFFFFFFFFFFFFFFFFFFFFFFFFFFFFFF
310
FFFFFFFFFFFFFFFFFFFFFFFFFFFFFFFFFFFFFFFFFFFFFFFFFFFFFFFFFFFFFFFF
310
FFFFFFFFFFFFFFFFFFFFFFFFFFFFFFFFFFFFFFFFFFFFFFFFFFFFFFFFFFFFFFFF
310
FFFFFFFFFFFFFFFFFFFFFFFFFFFFFFFFFFFFFFFFFFFFFFFFFFFFFFFFFFFFFFFF
310
FFFFFFFFFFFFFFFFFFFFFFFFFFFFFFFFFFFFFFFFFFFFFFFFFFFFFFFFFFFFFFFF
310
FDFFFFFFFEFFFFFFFEFFFFFFFEFFFFFF05000000060000000700000008000000
310
090000000A0000000B0000000C0000000D0000000E0000000F00000010000000
310
11000000120000001300000014000000150000001600000017000000FEFFFFFF
310
FFFFFFFFFFFFFFFFFFFFFFFFFFFFFFFFFFFFFFFFFFFFFFFFFFFFFFFFFFFFFFFF
310
FFFFFFFFFFFFFFFFFFFFFFFFFFFFFFFFFFFFFFFFFFFFFFFFFFFFFFFFFFFFFFFF
310
FFFFFFFFFFFFFFFFFFFFFFFFFFFFFFFFFFFFFFFFFFFFFFFFFFFFFFFFFFFFFFFF
310
FFFFFFFFFFFFFFFFFFFFFFFFFFFFFFFFFFFFFFFFFFFFFFFFFFFFFFFFFFFFFFFF
310
FFFFFFFFFFFFFFFFFFFFFFFFFFFFFFFFFFFFFFFFFFFFFFFFFFFFFFFFFFFFFFFF
310
FFFFFFFFFFFFFFFFFFFFFFFFFFFFFFFFFFFFFFFFFFFFFFFFFFFFFFFFFFFFFFFF
310
FFFFFFFFFFFFFFFFFFFFFFFFFFFFFFFFFFFFFFFFFFFFFFFFFFFFFFFFFFFFFFFF
310
FFFFFFFFFFFFFFFFFFFFFFFFFFFFFFFFFFFFFFFFFFFFFFFFFFFFFFFFFFFFFFFF
310
FFFFFFFFFFFFFFFFFFFFFFFFFFFFFFFFFFFFFFFFFFFFFFFFFFFFFFFFFFFFFFFF
310
FFFFFFFFFFFFFFFFFFFFFFFFFFFFFFFFFFFFFFFFFFFFFFFFFFFFFFFFFFFFFFFF
310
FFFFFFFFFFFFFFFFFFFFFFFFFFFFFFFFFFFFFFFFFFFFFFFFFFFFFFFFFFFFFFFF
310
FFFFFFFFFFFFFFFFFFFFFFFFFFFFFFFFFFFFFFFFFFFFFFFFFFFFFFFFFFFFFFFF
310
FFFFFFFFFFFFFFFFFFFFFFFFFFFFFFFFFFFFFFFFFFFFFFFFFFFFFFFFFFFFFFFF
310
52006F006F007400200045006E00740072007900000000000000000000000000
310
0000000000000000000000000000000000000000000000000000000000000000
310
16000500FFFFFFFFFFFFFFFF020000000A00030000000000C000000000000046
310
00000000000000000000000030FEC7E49803D20103000000C000000000000000
310
01004F006C006500000000000000000000000000000000000000000000000000
310
0000000000000000000000000000000000000000000000000000000000000000
310
0A000200FFFFFFFFFFFFFFFFFFFFFFFF00000000000000000000000000000000
310
0000000000000000000000000000000000000000000000001400000000000000
310
010043006F006D0070004F0062006A0000000000000000000000000000000000
310
0000000000000000000000000000000000000000000000000000000000000000
310
120002010100000003000000FFFFFFFF00000000000000000000000000000000
310
0000000000000000000000000000000000000000010000004D00000000000000
310
01004F006C006500310030004E00610074006900760065000000000000000000
310
0000000000000000000000000000000000000000000000000000000000000000
310
1A000200FFFFFFFFFFFFFFFFFFFFFFFF00000000000000000000000000000000
310
0000000000000000000000000000000000000000040000002426000000000000
310
FEFFFFFF02000000FEFFFFFFFFFFFFFFFFFFFFFFFFFFFFFFFFFFFFFFFFFFFFFF
310
FFFFFFFFFFFFFFFFFFFFFFFFFFFFFFFFFFFFFFFFFFFFFFFFFFFFFFFFFFFFFFFF
310
FFFFFFFFFFFFFFFFFFFFFFFFFFFFFFFFFFFFFFFFFFFFFFFFFFFFFFFFFFFFFFFF
310
FFFFFFFFFFFFFFFFFFFFFFFFFFFFFFFFFFFFFFFFFFFFFFFFFFFFFFFFFFFFFFFF
310
FFFFFFFFFFFFFFFFFFFFFFFFFFFFFFFFFFFFFFFFFFFFFFFFFFFFFFFFFFFFFFFF
310
FFFFFFFFFFFFFFFFFFFFFFFFFFFFFFFFFFFFFFFFFFFFFFFFFFFFFFFFFFFFFFFF
310
FFFFFFFFFFFFFFFFFFFFFFFFFFFFFFFFFFFFFFFFFFFFFFFFFFFFFFFFFFFFFFFF
310
FFFFFFFFFFFFFFFFFFFFFFFFFFFFFFFFFFFFFFFFFFFFFFFFFFFFFFFFFFFFFFFF
310
FFFFFFFFFFFFFFFFFFFFFFFFFFFFFFFFFFFFFFFFFFFFFFFFFFFFFFFFFFFFFFFF
310
FFFFFFFFFFFFFFFFFFFFFFFFFFFFFFFFFFFFFFFFFFFFFFFFFFFFFFFFFFFFFFFF
310
FFFFFFFFFFFFFFFFFFFFFFFFFFFFFFFFFFFFFFFFFFFFFFFFFFFFFFFFFFFFFFFF
310
FFFFFFFFFFFFFFFFFFFFFFFFFFFFFFFFFFFFFFFFFFFFFFFFFFFFFFFFFFFFFFFF
310
FFFFFFFFFFFFFFFFFFFFFFFFFFFFFFFFFFFFFFFFFFFFFFFFFFFFFFFFFFFFFFFF
310
FFFFFFFFFFFFFFFFFFFFFFFFFFFFFFFFFFFFFFFFFFFFFFFFFFFFFFFFFFFFFFFF
310
FFFFFFFFFFFFFFFFFFFFFFFFFFFFFFFFFFFFFFFFFFFFFFFFFFFFFFFFFFFFFFFF
310
FFFFFFFFFFFFFFFFFFFFFFFFFFFFFFFFFFFFFFFFFFFFFFFFFFFFFFFFFFFFFFFF
310
0100000200000000000000000000000000000000000000000000000000000000
310
0000000000000000000000000000000000000000000000000000000000000000
310
0100FEFF030A0000FFFFFFFF0A00030000000000C00000000000004607000000
310
5042727573680007000000504272757368000700000050427275736800F439B2
310
7100000000000000000000000000000000000000000000000000000000000000
310
0000000000000000000000000000000000000000000000000000000000000000
310
0000000000000000000000000000000000000000000000000000000000000000
310
0000000000000000000000000000000000000000000000000000000000000000
310
0000000000000000000000000000000000000000000000000000000000000000
310
0000000000000000000000000000000000000000000000000000000000000000
310
0000000000000000000000000000000000000000000000000000000000000000
310
0000000000000000000000000000000000000000000000000000000000000000
310
0000000000000000000000000000000000000000000000000000000000000000
310
0000000000000000000000000000000000000000000000000000000000000000
310
0000000000000000000000000000000000000000000000000000000000000000
310
0000000000000000000000000000000000000000000000000000000000000000
310
20260000424D0E260000000000003E00000028000000B40200006E0000000100
310
01000000000000000000130B0000130B00000200000002000000000000FFFFFF
310
FFFFFFFFFFFFFFFFFFFFFFFFFFFFFFFFFFFFFFFFFFFFFFFFFFFFFFFFFFFFFFFF
310
FFFFFFFFFFFFFFFFFFFFFFFFFFFFFFFFFFFFFFFFFFFFFFFFFFFFFFFFFFFFFFFF
310
FFFFFFFFFFFFFFFFFFFFFFFFFFFFFFFFFFFFFFFFFFFFFFFFF000FFFFFFFFFFFF
310
FFFFFFFFFFFFFFFFFFFFFFFFFFFFFFFFFFFFFFFFFFFFFFFFFFFFFFFFFFFFFFFF
310
FFFFFFFFFFFFFFFFFFFFFFFFFFFFFFFFFFFFFFFFFFFFFFFFFFFFFFFFFFFFFFFF
310
FFFFFFFFFFFFFFFFFFFFFFFFFFFFFFFFF000FFFFFFFFFFFFFFFFFFFFFFFFFFFF
310
FFFFFFFFFFFFFFFFFFFFFFFFFFFFFFFFFFFFFFFFFFFFFFFFFFFFFFFFFFFFFFFF
310
FFFFFFFFFFFFFFFFFFFFFFFFFFFFFFFFFFFFFFFFFFFFFFFFFFFFFFFFFFFFFFFF
310
FFFFFFFFFFFFFFFFF000FFFFFFFFFFFFFFFFFFFFFFFFFFFFFFFFFFFFFFFFFFFF
310
FFFFFFFFFFFFFFFFFFFFFFFFFFFFFFFFFFFFFFFFFFFFFFFFFFFFFFFFFFFFFFFF
310
FFFFFFFFFFFFFFFFFFFFFFFFFFFFFFFFFFFFFFFFFFFFFFFFFFFFFFFFFFFFFFFF
310
F000FFFFFFFFFFFFFFFFFFFFFFFFFFFFFFFFFFFFFFFFFFFFFFFFFFFFFFFFFFFF
310
FFFFFFFFFFFFFFFFFFFFFFFFFFFFFFFFFFFFFFFFFFFFFFFFFFFFFFFFFFFFFFFF
310
FFFFFFFFFFFFFFFFFFFFFFFFFFFFFFFFFFFFFFFFFFFFFFFFF000FFFFFFFFFFFF
310
FFFFFFFFFFFFFFFFFFFFFFFFFFFFFFFFFFFFFFFFFFFFFFFFFFFFFFFFFFFFFFFF
310
FFFFFFFFFFFFFFFFFFFFFFFFFFFFFFFFFFFFFFFFFFFFFFFFFFFFFFFFFFFFFFFF
310
FFFFFFFFFFFFFFFFFFFFFFFFFFFFFFFFF000FFFFFFFFFFFFFFFFFFFFFFFFFFFF
310
FFFFFFFFFFFFFFFFFFFFFFFFFFFFFFFFFFFFFFFFFFFFFFFFFFFFFFFFFFFFFFFF
310
FFFFFFFFFFFFFFFFFFFFFFFFFFFFFFFFFFFFFFFFFFFFFFFFFFFFFFFFFFFFFFFF
310
FFFFFFFFFFFFFFFFF000FFFFFFFFFFFFFFFFFFFFFFFFFFFFFFFFFFFFFFFFFFFF
310
FFFFFFFFFFFFFFFFFFFFFFFFFFFFFFFFFFFFFFFFFFFFFFFFFFFFFFFFFFFFFFFF
310
FFFFFFFFFFFFFFFFFFFFFFFFFFFFFFFFFFFFFFFFFFFFFFFFFFFFFFFFFFFFFFFF
310
F000FFFFFFFFFFFFFFFFFFFFFFFFFFFFFFFFFFFFFFFFFFFFFFFFFFFFFFFFFFFF
310
FFFFFFFFFFFFFFFFFFFFFFFFFFFFFFFFFFFFFFFFFFFFFFFFFFFFFFFFFFFFFFFF
310
FFFFFFFFFFFFFFFFFFFFFFFFFFFFFFFFFFFFFFFFFFFFFFFFF000FFFFFFFFFFFF
310
FFFFFFFFFFFFFFFFFFFFFFFFFFFFFFFFFFFFFFFFFFFFFFFFFFFFFFFFFFFFFFFF
310
FFFFFFFFFFFFFFFFFFFFFFFFFFFFFFFFFFFFFFFFFFFFFFFFFFFFFFFFFFFFFFFF
310
FFFFFFFFFFFFFFFFFFFFFFFFFFFFFFFFF000FFFFFFFFFFFFFFFFFFFFFFFFFFFF
310
FFFFFFFFFFFFFFFFFFFFFFFFFFFFFFFFFFFFFFFFFFFFFFFFFFFFFFFFFFFFFFFF
310
FFFFFFFFFFFFFFFFFFFFFFFFFFFFFFFFFFFFFFFFFFFFFFFFFFFFFFFFFFFFFFFF
310
FFFFFFFFFFFFFFFFF000FFFFFFFFFFFFFFFFFFFFFFFFFFFFFFFFFFFFFFFFFFFF
310
FFFFFFFFFFFFFFFFFFFFFFFFFFFFFFFFFFFFFFFFFFFFFFFFFFFFFFFFFFFFFFFF
310
FFFFFFFFFFFFFFFFFFFFFFFFFFFFFFFFFFFFFFFFFFFFFFFFFFFFFFFFFFFFFFFF
310
F000FFFFFFFFFFFFFFFFFFFFFFFFFFFFFFFFFFFFFFFFFFFFFFFFFFFFFFFFFFFF
310
FFFFFFFFFFFFFFFFFFFFFFFFFFFFFFFFFFFFFFFFFFFFFFFFFFFFFFFFFFFFFFFF
310
FFFFFFFFFFFFFFFFFFFFFFFFFFFFFFFFFFFFFFFFFFFFFFFFF000FFFFFFFFFFFF
310
FFFFFFFFFFFFFFFFFFFFFFFFFFFFFFFFFFFFFFFFFFFFFFFFFFFFFFFFFFFFFFFF
310
FFFFFFFFFFFFFFFFFFFFFFFFFFFFFFFFFFFFFFFFFFFFFFFFFFFFFFFFFFFFFFFF
310
FFFFFFFFFFFFFFFFFFFFFFFFFFFFFFFFF000FFFFFFFFFFFFFFFFFFFFFFFFFFFF
310
FFFFFFFFFFFFFFFFFFFFFFFFFFFFFFFFFFFFFFFFFFFFFFFFFFFFFFFFFFFFFFFF
310
FFFFFFFFFFFFFFFFFFFFFFFFFFFFFFFFFFFFFFFFFFFFFFFFFFFFFFFFFFFFFFFF
310
FFFFFFFFFFFFFFFFF000FFFFFFFFFFFFFFFFFFFFFFFFFFFFFFFFFFFFFFFFFFFF
310
FFFFFFFFFFFFFFFFFFFFFFFFFFFFFFFFFFFFFFFFFFFFFFFFFFFFFFFFFFFFFFFF
310
FFFFFFFFFFFFFFFFFFFFFFFFFFFFFFFFFFFFFFFFFFFFFFFFFFFFFFFFFFFFFFFF
310
F000FFFFFFFFFFFFFFFFFFFFFFFFFFFFFFFFFFFFFFFFFFFFFFFFFFFFFFFFFFFF
310
FFFFFFFFFFFFFFFFFFFFFFFFFFFFFFFFFFFFFFFFFFFFFFFFFFFFFFFFFFFFFFFF
310
FFFFFFFFFFFFFFFFFFFFFFFFFFFFFFFFFFFFFFFFFFFFFFFFF000FFFFFFFFFFFF
310
FFFFFFFFFFFFFFFFFFFFFFFFFFFFFFFFFFFFFFFFFFFFFFFFFFFFFFFFFFFFFFFF
310
FFFFFFFFFFFFFFFFFFFFFFFFFFFFFFFFFFFFFFFFFFFFFFFFFFFFFFFFFFFFFFFF
310
FFFFFFFFFFFFFFFFFFFFFFFFFFFFFFFFF000FFFFFFFFFFFFFFFFFFFFFFFFFFFF
310
FFFFFFFFFFFFFFFFFFFFFFFFFFFFFFFFFFFFFFFFFFFFFFFFFFFFFFFFFFFFFFFF
310
FFFFFFFFFFFFFFFFFFFFFFFFFFFFFFFFFFFFFFFFFFFFFFFFFFFFFFFFFFFFFFFF
310
FFFFFFFFFFFFFFFFF000FFFFF80003FFFFFFFFFFFFFFFFFFFFFFFFFFFFFFFFFF
310
FFFFF00007FFFFFFFFFF00007FFFFFF800000000000000007FFFFFFFFFFFFFFF
310
FFFFFFFC001FFFFFFFFFFFFFFC001FFFFFFFFFFFFFFFFFFFFFFFFFFE0007FFFF
310
F000FFFF8000007FFFFFFFF8000FFFFFC0007FFFFF80007FFFFF0000007FFFFF
310
FFF8000007FFFFF800000000000000007FFFFFF0001FFFFFFFFFFFC00001FFFF
310
FFFFFFFFC00001FFFFFFFF000000000003FFFFE000007FFFF000FFFE0000000F
310
FFFFFFF0000FFFFF80007FFFFF80007FFFFC0000001FFFFFFFC0000001FFFFF8
310
00000000000000007FFFFFF0001FFFFFFFFFFE0000003FFFFFFFFFFE0000003F
310
FFFFFF000000000003FFFF0000000FFFF000FFF800000003FFFFFFF00007FFFF
310
80007FFFFF80007FFFF000000007FFFFFF000000003FFFF80000000000000000
310
7FFFFFF0001FFFFFFFFFF80000000FFFFFFFFFF80000000FFFFFFF0000000000
310
03FFFC00000003FFF000FFE000000000FFFFFFF00007FFFF80003FFFFF80007F
310
FFC000000001FFFFFC000000001FFFF800000000000000007FFFFFF0001FFFFF
310
FFFFE000000003FFFFFFFFE000000003FFFFFF000000000003FFF000000000FF
310
F000FF80000000007FFFFFF00007FFFF80003FFFFF80007FFF8000000000FFFF
310
F80000000007FFF800000000000000007FFFFFF0001FFFFFFFFFC000000001FF
310
FFFFFFC000000001FFFFFF000000000003FFC0000000007FF000FF0000000000
310
3FFFFFE00007FFFF00003FFFFF80007FFE00000000003FFFF00000000003FFF8
310
00000000000000007FFFFFF0001FFFFFFFFF8000000000FFFFFFFF8000000000
310
FFFFFF000000000003FF80000000003FF000FE00000000001FFFFFE00003FFFF
310
00003FFFFF80007FFC00000000001FFFE00000000001FFF8000001FFFE000000
310
7FFFFFF0001FFFFFFFFE00000000003FFFFFFE00000000003FFFFF0000000000
310
03FF00000000001FF000FC00000000000FFFFFE00003FFFF00001FFFFF80007F
310
F800000000001FFFC00000000000FFF8000001FFFE0000007FFFFFF0001FFFFF
310
FFFC00000000001FFFFFFC00000000001FFFFF000000000003FE00000000000F
310
F000F8000000000007FFFFE00003FFFF00001FFFFF80007FF800000000000FFF
310
800000000000FFF8000001FFFE0000007FFFFFF0001FFFFFFFF800000000000F
310
FFFFF800000000000FFFFF000000000003FC000000000007F000F80000000000
310
03FFFFC00003FFFE00001FFFFF80007FF0000000000007FF0000000000007FF8
310
000001FFFE0000007FFFFFF0001FFFFFFFF0000000000007FFFFF00000000000
310
07FFFF000000000003F8000000000003F000F0000000000003FFFFC00001FFFE
310
00001FFFFF80007FE0000000000007FE0000000000003FF8000001FFFE000000
310
7FFFFFF0001FFFFFFFF0000000000007FFFFF0000000000007FFFF0000000000
310
03F800001F800003F000E00001FFF00001FFFFC00001FFFE00000FFFFF80007F
310
E00001FFE00003FE00001FFF00003FF8000001FFFE0000007FFFFFF0001FFFFF
310
FFE000003E000003FFFFE000003E000003FFFF000000000003F00001FFF80001
310
F000E00007FFFC0001FFFFC00001FFFE00000FFFFF80007FC0000FFFFC0003FC
310
0000FFFFC0001FF8000001FFFE0000007FFFFFF0001FFFFFFFC00003FFE00001
310
FFFFC00003FFE00001FFFF0001FFFFFFFFF00007FFFE0001F000E0000FFFFF00
310
00FFFF800001FFFC00000FFFFF80007FC0001FFFFE0001FC0001FFFFE0001FF8
310
000001FFFE0000007FFFFFF0001FFFFFFF80000FFFF80000FFFF80000FFFF800
310
00FFFF0003FFFFFFFFE0000FFFFF8000F000C0003FFFFF8000FFFF800000FFFC
310
000007FFFF80007F80003FFFFF0001FC0003FFFFF0001FF8000001FFFE000000
310
7FFFFFF0001FFFFFFF80003FFFFE0000FFFF80003FFFFE0000FFFF0003FFFFFF
310
FFE0003FFFFF8000F000C0003FFFFF8000FFFF800000FFFC000007FFFF80007F
310
80007FFFFF8001F80007FFFFF8000FF8000001FFFE0000007FFFFFF0001FFFFF
310
FF00007FFFFF00007FFF00007FFFFF00007FFF0003FFFFFFFFE0003FFFFFC000
310
F000C0007FFFFFC000FFFF000000FFFC000007FFFF80007F8000FFFFFF8000F8
310
000FFFFFF8000FF8000001FFFE0000007FFFFFF0001FFFFFFF0000FFFFFF8000
310
7FFF0000FFFFFF80007FFF0003FFFFFFFFC0007FFFFFC00070008000FFFFFFC0
310
00FFFF000000FFF8000007FFFF80007F8000FFFFFF8000F8000FFFFFF8000FF8
310
000001FFFE0000007FFFFFF0001FFFFFFE0001FFFFFFC0003FFE0001FFFFFFC0
310
003FFF0003FFFFFFFFC0007FFFFFE00070008000FFFFFFC0007FFF0000007FF8
310
000003FFFF80007F0001FFFFFF8000F8000FFFFFF8000FF8000001FFFE000000
310
7FFFFFF0001FFFFFFE0001FFFFFFC0003FFE0001FFFFFFC0003FFF0003FFFFFF
310
FFC000FFFFFFE00070008000FFFFFFC0007FFF0000007FF8000003FFFF80007F
310
0001FFFFFF8000F8001FFFFFF8000FF8000001FFFE0000007FFFFFF0001FFFFF
310
FE0003FFFFFFE0003FFE0003FFFFFFE0003FFF0003FFFFFFFFC000FFFFFFE000
310
70008000FFFFFFC0007FFE0000007FF8000003FFFF80007F0001FFFFFF8000F0
310
001FFFFFF8000FF8000001FFFE0000007FFFFFF0001FFFFFFC0003FFFFFFE000
310
1FFC0003FFFFFFE0001FFF0003FFFFFFFFC000FFFFFFC00070008000FFFFFF80
310
007FFE0000007FF0000003FFFF80007F0001FFFFFF0000F0001FFFFFF8000FF8
310
000001FFFE0000007FFFFFF0001FFFFFFC0007FFFFFFF0001FFC0007FFFFFFF0
310
001FFF0003FFFFFFFFC000FFFFFFC00070008001FFFFFF0000FFFE0000003FF0
310
000001FFFF80007F0001FFFFFF0000F8001FFFFFF0000FF8000001FFFE000000
310
7FFFFFF0001FFFFFFC0007FFFFFFF0001FFC0007FFFFFFF0001FFF0003FFFFFF
310
FFC001FFFFFF80007000FFFFFFFFFE0000FFFE0008003FF0008001FFFF80007F
310
FFFFFFFFFC0000FFFFFFFFFFE0000FF8000001FFFE0000007FFFFFF0001FFFFF
310
F8000FFFFFFFF8000FF8000FFFFFFFF8000FFF0003FFFFFFFFFFFFFFFFFF0000
310
7000FFFFFFFFFC0000FFFC0008003FF0008001FFFF80007FFFFFFFFFF80001FF
310
FFFFFFFF80000FF8000001FFFE0000007FFFFFF0001FFFFFF8000FFFFFFFF800
310
0FF8000FFFFFFFF8000FFF0003FFFFFFFFFFFFFFFFFE0000F000FFFFFFFFE000
310
00FFFC000C003FE000C001FFFF80007FFFFFFFFFC00001FFFFFFFFFE00001FF8
310
000001FFFE0000007FFFFFF0001FFFFFF8000FFFFFFFF8000FF8000FFFFFFFF8
310
000FFF0003FFFFFFFFFFFFFFFFF00000F000FFFFFFFE000001FFFC000C001FE0
310
00C000FFFF80007FFFFFFFFE000001FFFFFFFFE000001FF80FFFFFFFFFFFFFC0
310
7FFFFFF0001FFFFFF8000FFFFFFFF8000FF8000FFFFFFFF8000FFF0003FFFFFF
310
FFFFFFFFFF800000F000FFFFFFC0000001FFFC001C001FE001C000FFFF80007F
310
FFFFFF80000003FFFFFFF80000001FF80FFFFFFFFFFFFFC07FFFFFF0001FFFFF
310
F8001FFFFFFFFC000FF8001FFFFFFFFC000FFF0003FFFFFFFFFFFFFFF0000001
310
F000FFFFF800000001FFF8001C001FE001C000FFFF80007FFFFFF800000003FF
310
FFFF800000003FF80FFFFFFFFFFFFFC07FFFFFF0001FFFFFF8001FFFFFFFFC00
310
0FF8001FFFFFFFFC000FFF0003FFFFFFFFFFFFFE00000001F000FFFFC0000000
310
03FFF8001E001FC001E000FFFF80007FFFFF8000000007FFFFFC000000003FF8
310
0FFFFFFFFFFFFFC07FFFFFF0001FFFFFF8001FFFFFFFFC000FF8001FFFFFFFFC
310
000FFF0003FFFFFFFFFFFFE000000003F000FFFE0000000007FFF8001E000FC0
310
01E0007FFF80007FFFFE0000000007FFFFE0000000007FF80FFFFFFFFFFFFFC0
310
7FFFFFF0001FFFFFF0001FFFFFFFFC0007F0001FFFFFFFFC0007FF0003FFFFFF
310
FFFFFF0000000003F000FFF80000000007FFF8001E000FC003E0007FFF80007F
310
FFF0000000000FFFFF8000000000FFF80FFFFFFFFFFFFFC07FFFFFF0001FFFFF
310
F0001FFFFFFFFC0007F0001FFFFFFFFC0007FF0003FFFFFFFFFFFC0000000007
310
F000FFE0000000000FFFF0003E000FC003E0007FFF80007FFFC0000000001FFF
310
FE0000000001FFF80FFFFFFFFFFFFFC07FFFFFF0001FFFFFF0001FFFFFFFFC00
310
07F0001FFFFFFFFC0007FF0003FFFFFFFFFFF0000000000FF000FFC000000000
310
1FFFF0003F000F8003F0003FFF80007FFF80000000003FFFF80000000003FFF8
310
0FFFFFFFFFFFFFC07FFFFFF0001FFFFFF0001FFFFFFFFC0007F0001FFFFFFFFC
310
0007FF0003FFFFFFFFFFE0000000001FF000FF00000000007FFFF0003F000780
310
03F0003FFF80007FFF00000000007FFFF00000000007FFF80FFFFFFFFFFFFFC0
310
7FFFFFF0001FFFFFF0001FFFFFFFFC0007F0001FFFFFFFFC0007FF0003FFFFFF
310
FFFF80000000007FF000FE0000000000FFFFE0003F00078007F0003FFF80007F
310
FE0000000001FFFFE0000000001FFFF80FFFFFFFFFFFFFC07FFFFFF0001FFFFF
310
F0001FFFFFFFFC0007F0001FFFFFFFFC0007FF0003FFFFFFFFFF0000000000FF
310
F000FC0000000003FFFFE0007F00078007F0003FFF80007FFC0000000007FFFF
310
C0000000007FFFF80FFFFFFFFFFFFFC07FFFFFF0001FFFFFF8001FFFFFFFFC00
310
0FF8001FFFFFFFFC000FFF0003FFFFFFFFFE0000000003FFF000FC000000000F
310
FFFFE0007F80070007F8001FFF80007FF8000000001FFFFF8000000001FFFFF8
310
0FFFFFFFFFFFFFC07FFFFFF0001FFFFFF8001FFFFFFFFC000FF8001FFFFFFFFC
310
000FFF0003FFFFFFFFFC000000000FFFF000F8000000007FFFFFE0007F800700
310
07F8001FFF80007FF000000000FFFFFF800000000FFFFFF80FFFFFFFFFFFFFC0
310
7FFFFFF0001FFFFFF8000FFFFFFFF8000FF8000FFFFFFFF8000FFF0003FFFFFF
310
FFFC000000007FFFF000F800000007FFFFFFC0007F8003000FF8001FFF80007F
310
F000000007FFFFFF000000007FFFFFF80FFFFFFFFFFFFFC07FFFFFF0001FFFFF
310
F8000FFFFFFFF8000FF8000FFFFFFFF8000FFF0003FFFFFFFFF80000000FFFFF
310
F000F0000000FFFFFFFFC000FF8003000FF8001FFF80007FE0000000FFFFFFFF
310
0000000FFFFFFFF8000001FFFE0000007FFFFFF0001FFFFFF8000FFFFFFFF800
310
0FF8000FFFFFFFF8000FFF0003FFFFFFFFF8000000FFFFFFF000F000000FFFFF
310
FFFFC000FFC002000FF8000FFF80007FE000001FFFFFFFFE000001FFFFFFFFF8
310
000001FFFE0000007FFFFFF0001FFFFFF8000FFFFFFFF8000FF8000FFFFFFFF8
310
000FFF0003FFFFFFFFF000001FFFFFFFF000E00000FFFFFFFFFFC000FFC00200
310
0FFC000FFF80007FE00001FFFFFFFFFE00001FFFFFFFFFF8000001FFFE000000
310
7FFFFFF0001FFFFFFC000FFFFFFFF8001FFC000FFFFFFFF8001FFF0003FFFFFF
310
FFF00001FFFFFFFFF000E00007FFFFFFFFFF8000FFC000001FFC000FFF80007F
310
C0000FFFFFFFFFFE0000FFFFFFFFFFF8000001FFFE0000007FFFFFF0001FFFFF
310
FC0007FFFFFFF0001FFC0007FFFFFFF0001FFF0003FFFFFFFFF00007FFFFFFFF
310
F000E0001FFFFFFFFFFF8000FFC000001FFC000FFF80007FC0003FFFFFFFFFFE
310
0001FFFFFFFFFFF8000001FFFE0000007FFFFFF0001FFFFFFC0007FFFFFFF000
310
1FFC0007FFFFFFF0001FFF0003FFFFFFFFF0001FFFFFFFFFF000E0003FFFFF00
310
03FF8001FFE000001FFC0007FF80007FC0007FFFFF0007FC0003FFFFF0003FF8
310
000001FFFE0000007FFFFFF0001FFFFFFC0003FFFFFFE0001FFC0003FFFFFFE0
310
001FFF0003FFFFFFFFF0003FFFFFFFFFF000E0003FFFFF0001FF8001FFE00000
310
1FFE0007FF80007FC0007FFFFE0003FC0007FFFFE0003FF8000001FFFE000000
310
7FFFFFF0001FFFFFFE0003FFFFFFE0003FFE0003FFFFFFE0003FFF0003FFFFFF
310
FFF0003FFFFF8001F000E0003FFFFF0001FF0001FFE000001FFE0007FF80007F
310
C0007FFFFE0003FC0007FFFFE0003FF8000001FFFE0000007FFFFFF0001FFFFF
310
FE0001FFFFFFC0003FFE0001FFFFFFC0003FFF0003FFFFFFFFF0003FFFFF0001
310
F000E0003FFFFF0003FF0001FFE000003FFE0007FF80007FC0007FFFFE0003FC
310
0007FFFFE0003FF8000001FFFE0000007FFFFFF0001FFFFFFF0001FFFFFFC000
310
7FFF0001FFFFFFC0007FFF0003FFFFFFFFF0003FFFFF0001F000E0003FFFFE00
310
03FF0003FFF000003FFE0003FF80007FC0007FFFFC0003FE0007FFFFE0003FF8
310
000001FFFE0000007FFFFFF0001FFFFFFF0000FFFFFF80007FFF0000FFFFFF80
310
007FFF0003FFFFFFFFF0003FFFFF0001F000E0003FFFFE0003FF0003FFF00000
310
3FFF0003FF80007FC0007FFFFC0007FE0007FFFFC0003FF8000001FFFE000000
310
7FFFFFF0001FFFFFFF80007FFFFF0000FFFF80007FFFFF0000FFFF0003FFFFFF
310
FFF0003FFFFF0003F000E0003FFFFC0003FE0003FFF000003FFF0003FF80007F
310
E0003FFFF80007FE0003FFFFC0007FF8000001FFFE0000007FFFFFF0001FFFFF
310
FF80003FFFFE0000FFFF80003FFFFE0000FFFF0003FFFFFFFFF0001FFFFE0003
310
F000F0001FFFF80003FE0003FFF000007FFF0001FF80007FE0003FFFF00007FE
310
0001FFFF80007FF8000001FFFE0000007FFFFFF0001FFFFFFFC0000FFFF80001
310
FFFFC0000FFFF80001FFFF0003FFFFFFFFF0001FFFFC0003F000F0000FFFF000
310
07FE0007FFF800007FFF0001FF80007FE0001FFFE00007FF0000FFFE00007FF8
310
000001FFFE0000007FFFFFF0001FFFFFFFC00003FFE00001FFFFC00003FFE000
310
01FFFF0003FFFFFFFFF8000FFFF80003F000F00003FFC00007FC0007FFF80000
310
7FFF8001FF80007FF00007FF80000FFF00007FF80000FFF8000001FFFE000000
310
7F80000000000001FFE000003E000003FFFFE000003E000003FFFF0003FFFFFF
310
FFF80003FFE00007F000F800000000000FFC0007FFF800007FFF8001FF80007F
310
F000000000000FFF000000000000FFF8000001FFFE0000007F80000000000001
310
FFF0000000000007FFFFF0000000000007FFFF0003FFFFFFFFFC00007E000007
310
F000F800000000000FFC0007FFF80000FFFF8000FF80007FF800000000001FFF
310
800000000001FFF8000001FFFE0000007F80000000000001FFF800000000000F
310
FFFFF800000000000FFFFF0003FFFFFFFFFC00000000000FF000FC0000000000
310
1FFC0007FFFC0000FFFF8000FF80007FF800000000003FFFC00000000001FFF8
310
000001FFFE0000007F80000000000001FFF800000000000FFFFFF80000000000
310
0FFFFF0003FFFFFFFFFE00000000001FF000FE00000000003FF8000FFFFC0000
310
FFFF8000FF80007FFC00000000003FFFC00000000003FFF8000001FFFE000000
310
7F80000000000001FFFC00000000001FFFFFFC00000000001FFFFF0003FFFFFF
310
FFFF00000000001FF000FF00000000003FF8000FFFFC0000FFFFC000FF80007F
310
FE00000000007FFFE00000000007FFF8000001FFFE0000007F80000000000001
310
FFFE00000000003FFFFFFE00000000003FFFFF0003FFFFFFFFFF80000000003F
310
F000FF80000000007FF8000FFFFC0001FFFFC0007F80007FFF0000000000FFFF
310
F0000000000FFFF800000000000000007F80000000000001FFFF8000000000FF
310
FFFFFF8000000000FFFFFF0003FFFFFFFFFFC0000000007FF000FFC000000000
310
FFF8000FFFFE0001FFFFC0007F80007FFF8000000001FFFFF8000000001FFFF8
310
00000000000000007F80000000000001FFFFC000000001FFFFFFFFC000000001
310
FFFFFF0003FFFFFFFFFFE000000000FFF000FFE000000003FFF0001FFFFE0001
310
FFFFC0007F80007FFFC000000007FFFFFE000000003FFFF80000000000000000
310
7F80000000000001FFFFE000000003FFFFFFFFE000000003FFFFFF0003FFFFFF
310
FFFFF000000003FFF000FFF80000000FFFF0001FFFFE0001FFFFE0007F80007F
310
FFF00000000FFFFFFF00000000FFFFF800000000000000007F80000000000001
310
FFFFF80000000FFFFFFFFFF80000000FFFFFFF0003FFFFFFFFFFFC0000000FFF
310
F000FFFE0000003FFFF0001FFFFE0003FFFFE0003F80007FFFFC0000003FFFFF
310
FFC0000003FFFFF800000000000000007F80000000000001FFFFFE0000003FFF
310
FFFFFFFE0000003FFFFFFF0003FFFFFFFFFFFF0000003FFFF000FFFF800000FF
310
FFF0001FFFFF0003FFFFE0003F80007FFFFF000001FFFFFFFFF800001FFFFFF8
310
00000000000000007F80000000000001FFFFFFC00001FFFFFFFFFFFFC00001FF
310
FFFFFF0003FFFFFFFFFFFFC00000FFFFF000FFFFF8000FFFFFFFFFFFFFFFFFFF
310
FFFFFFFFFFFFFFFFFFFFF0001FFFFFFFFFFF0000FFFFFFF80000000000000000
310
7FFFFFFFFFFFFFFFFFFFFFFC001FFFFFFFFFFFFFFC001FFFFFFFFFFFFFFFFFFF
310
FFFFFFFC001FFFFFF000FFFFFFFFFFFFFFFFFFFFFFFFFFFFFFFFFFFFFFFFFFFF
310
FFFFFFFFFFFFFFFFFFFFFFFFFFFFFFFFFFFFFFFFFFFFFFFFFFFFFFFFFFFFFFFF
310
FFFFFFFFFFFFFFFFFFFFFFFFFFFFFFFFFFFFFFFFFFFFFFFFFFFFFFFFFFFFFFFF
310
F000FFFFFFFFFFFFFFFFFFFFFFFFFFFFFFFFFFFFFFFFFFFFFFFFFFFFFFFFFFFF
310
FFFFFFFFFFFFFFFFFFFFFFFFFFFFFFFFFFFFFFFFFFFFFFFFFFFFFFFFFFFFFFFF
310
FFFFFFFFFFFFFFFFFFFFFFFFFFFFFFFFFFFFFFFFFFFFFFFFF000FFFFFFFFFFFF
310
FFFFFFFFFFFFFFFFFFFFFFFFFFFFFFFFFFFFFFFFFFFFFFFFFFFFFFFFFFFFFFFF
310
FFFFFFFFFFFFFFFFFFFFFFFFFFFFFFFFFFFFFFFFFFFFFFFFFFFFFFFFFFFFFFFF
310
FFFFFFFFFFFFFFFFFFFFFFFFFFFFFFFFF000FFFFFFFFFFFFFFFFFFFFFFFFFFFF
310
FFFFFFFFFFFFFFFFFFFFFFFFFFFFFFFFFFFFFFFFFFFFFFFFFFFFFFFFFFFFFFFF
310
FFFFFFFFFFFFFFFFFFFFFFFFFFFFFFFFFFFFFFFFFFFFFFFFFFFFFFFFFFFFFFFF
310
FFFFFFFFFFFFFFFFF000FFFFFFFFFFFFFFFFFFFFFFFFFFFFFFFFFFFFFFFFFFFF
310
FFFFFFFFFFFFFFFFFFFFFFFFFFFFFFFFFFFFFFFFFFFFFFFFFFFFFFFFFFFFFFFF
310
FFFFFFFFFFFFFFFFFFFFFFFFFFFFFFFFFFFFFFFFFFFFFFFFFFFFFFFFFFFFFFFF
310
F000FFFFFFFFFFFFFFFFFFFFFFFFFFFFFFFFFFFFFFFFFFFFFFFFFFFFFFFFFFFF
310
FFFFFFFFFFFFFFFFFFFFFFFFFFFFFFFFFFFFFFFFFFFFFFFFFFFFFFFFFFFFFFFF
310
FFFFFFFFFFFFFFFFFFFFFFFFFFFFFFFFFFFFFFFFFFFFFFFFF000FFFFFFFFFFFF
310
FFFFFFFFFFFFFFFFFFFFFFFFFFFFFFFFFFFFFFFFFFFFFFFFFFFFFFFFFFFFFFFF
310
FFFFFFFFFFFFFFFFFFFFFFFFFFFFFFFFFFFFFFFFFFFFFFFFFFFFFFFFFFFFFFFF
310
FFFFFFFFFFFFFFFFFFFFFFFFFFFFFFFFF000FFFFFFFFFFFFFFFFFFFFFFFFFFFF
310
FFFFFFFFFFFFFFFFFFFFFFFFFFFFFFFFFFFFFFFFFFFFFFFFFFFFFFFFFFFFFFFF
310
FFFFFFFFFFFFFFFFFFFFFFFFFFFFFFFFFFFFFFFFFFFFFFFFFFFFFFFFFFFFFFFF
310
FFFFFFFFFFFFFFFFF000FFFFFFFFFFFFFFFFFFFFFFFFFFFFFFFFFFFFFFFFFFFF
310
FFFFFFFFFFFFFFFFFFFFFFFFFFFFFFFFFFFFFFFFFFFFFFFFFFFFFFFFFFFFFFFF
310
FFFFFFFFFFFFFFFFFFFFFFFFFFFFFFFFFFFFFFFFFFFFFFFFFFFFFFFFFFFFFFFF
310
F000FFFFFFFFFFFFFFFFFFFFFFFFFFFFFFFFFFFFFFFFFFFFFFFFFFFFFFFFFFFF
310
FFFFFFFFFFFFFFFFFFFFFFFFFFFFFFFFFFFFFFFFFFFFFFFFFFFFFFFFFFFFFFFF
310
FFFFFFFFFFFFFFFFFFFFFFFFFFFFFFFFFFFFFFFFFFFFFFFFF000FFFFFFFFFFFF
310
FFFFFFFFFFFFFFFFFFFFFFFFFFFFFFFFFFFFFFFFFFFFFFFFFFFFFFFFFFFFFFFF
310
FFFFFFFFFFFFFFFFFFFFFFFFFFFFFFFFFFFFFFFFFFFFFFFFFFFFFFFFFFFFFFFF
310
FFFFFFFFFFFFFFFFFFFFFFFFFFFFFFFFF000FFFFFFFFFFFFFFFFFFFFFFFFFFFF
310
FFFFFFFFFFFFFFFFFFFFFFFFFFFFFFFFFFFFFFFFFFFFFFFFFFFFFFFFFFFFFFFF
310
FFFFFFFFFFFFFFFFFFFFFFFFFFFFFFFFFFFFFFFFFFFFFFFFFFFFFFFFFFFFFFFF
310
FFFFFFFFFFFFFFFFF000FFFFFFFFFFFFFFFFFFFFFFFFFFFFFFFFFFFFFFFFFFFF
310
FFFFFFFFFFFFFFFFFFFFFFFFFFFFFFFFFFFFFFFFFFFFFFFFFFFFFFFFFFFFFFFF
310
FFFFFFFFFFFFFFFFFFFFFFFFFFFFFFFFFFFFFFFFFFFFFFFFFFFFFFFFFFFFFFFF
310
F000FFFFFFFFFFFFFFFFFFFFFFFFFFFFFFFFFFFFFFFFFFFFFFFFFFFFFFFFFFFF
310
FFFFFFFFFFFFFFFFFFFFFFFFFFFFFFFFFFFFFFFFFFFFFFFFFFFFFFFFFFFFFFFF
310
FFFFFFFFFFFFFFFFFFFFFFFFFFFFFFFFFFFFFFFFFFFFFFFFF000FFFFFFFFFFFF
310
FFFFFFFFFFFFFFFFFFFFFFFFFFFFFFFFFFFFFFFFFFFFFFFFFFFFFFFFFFFFFFFF
310
FFFFFFFFFFFFFFFFFFFFFFFFFFFFFFFFFFFFFFFFFFFFFFFFFFFFFFFFFFFFFFFF
310
FFFFFFFFFFFFFFFFFFFFFFFFFFFFFFFFF000FFFFFFFFFFFFFFFFFFFFFFFFFFFF
310
FFFFFFFFFFFFFFFFFFFFFFFFFFFFFFFFFFFFFFFFFFFFFFFFFFFFFFFFFFFFFFFF
310
FFFFFFFFFFFFFFFFFFFFFFFFFFFFFFFFFFFFFFFFFFFFFFFFFFFFFFFFFFFFFFFF
310
FFFFFFFFFFFFFFFFF000FFFFFFFFFFFFFFFFFFFFFFFFFFFFFFFFFFFFFFFFFFFF
310
FFFFFFFFFFFFFFFFFFFFFFFFFFFFFFFFFFFFFFFFFFFFFFFFFFFFFFFFFFFFFFFF
310
FFFFFFFFFFFFFFFFFFFFFFFFFFFFFFFFFFFFFFFFFFFFFFFFFFFFFFFFFFFFFFFF
310
F000FFFFFFFFFFFFFFFFFFFFFFFFFFFFFFFFFFFFFFFFFFFFFFFFFFFFFFFFFFFF
310
FFFFFFFFFFFFFFFFFFFFFFFFFFFFFFFFFFFFFFFFFFFFFFFFFFFFFFFFFFFFFFFF
310
FFFFFFFFFFFFFFFFFFFFFFFFFFFFFFFFFFFFFFFFFFFFFFFFF000FFFFFFFFFFFF
310
FFFFFFFFFFFFFFFFFFFFFFFFFFFFFFFFFFFFFFFFFFFFFFFFFFFFFFFFFFFFFFFF
310
FFFFFFFFFFFFFFFFFFFFFFFFFFFFFFFFFFFFFFFFFFFFFFFFFFFFFFFFFFFFFFFF
310
FFFFFFFFFFFFFFFFFFFFFFFFFFFFFFFFF000FFFFFFFFFFFFFFFFFFFFFFFFFFFF
310
FFFFFFFFFFFFFFFFFFFFFFFFFFFFFFFFFFFFFFFFFFFFFFFFFFFFFFFFFFFFFFFF
310
FFFFFFFFFFFFFFFFFFFFFFFFFFFFFFFFFFFFFFFFFFFFFFFFFFFFFFFFFFFFFFFF
310
FFFFFFFFFFFFFFFFF000FFFFFFFFFFFFFFFFFFFFFFFFFFFFFFFFFFFFFFFFFFFF
310
FFFFFFFFFFFFFFFFFFFFFFFFFFFFFFFFFFFFFFFFFFFFFFFFFFFFFFFFFFFFFFFF
310
FFFFFFFFFFFFFFFFFFFFFFFFFFFFFFFFFFFFFFFFFFFFFFFFFFFFFFFFFFFFFFFF
310
F000FFFFFFFFFFFFFFFFFFFFFFFFFFFFFFFFFFFFFFFFFFFFFFFFFFFFFFFFFFFF
310
FFFFFFFFFFFFFFFFFFFFFFFFFFFFFFFFFFFFFFFFFFFFFFFFFFFFFFFFFFFFFFFF
310
FFFFFFFFFFFFFFFFFFFFFFFFFFFFFFFFFFFFFFFFFFFFFFFFF000FFFFFFFFFFFF
310
FFFFFFFFFFFFFFFFFFFFFFFFFFFFFFFFFFFFFFFFFFFFFFFFFFFFFFFFFFFFFFFF
310
FFFFFFFFFFFFFFFFFFFFFFFFFFFFFFFFFFFFFFFFFFFFFFFFFFFFFFFFFFFFFFFF
310
FFFFFFFFFFFFFFFFFFFFFFFFFFFFFFFFF0000000000000000000000000000000
310
0000000000000000000000000000000000000000000000000000000000000000
310
0000000000000000000000000000000000000000000000000000000000000000
310
0000000000000000000000000000000000000000000000000000000000000000
310
0000000000000000000000000000000000000000000000000000000000000000
310
0000000000000000000000000000000000000000000000000000000000000000
310
0000000000000000000000000000000000000000000000000000000000000000
310
0000000000000000000000000000000000000000000000000000000000000000
310
0000000000000000000000000000000000000000000000000000000000000000
310
0000000000000000000000000000000000000000000000000000000000000000
310
0000000000000000000000000000000000000000000000000000000000000000
310
0000000000000000000000000000000000000000000000000000000000000000
310
0000000000000000000000000000000000000000000000000000000000000000
310
0000000000000000000000000000000000000000000000000000000000000000
310
0000000000000000000000000000000000000000000000000000000000000000
310
0000000000000000000000000000000000000000000000000000000000000000
  1
OLE
  0
ENDSEC
  0
SECTION
  2
OBJECTS
  0
DICTIONARY
  5
C
330
0
100
AcDbDictionary
281
     1
  3
ACAD_GROUP
350
D
  3
ACAD_LAYOUT
350
1A
  3
ACAD_MLINESTYLE
350
17
  3
ACAD_PLOTSETTINGS
350
19
  3
ACAD_PLOTSTYLENAME
350
E
  3
ACAD_SCALELIST
350
47
  0
DICTIONARY
  5
D
102
{ACAD_REACTORS
330
C
102
}
330
C
100
AcDbDictionary
281
     1
  0
DICTIONARY
  5
1A
102
{ACAD_REACTORS
330
C
102
}
330
C
100
AcDbDictionary
281
     1
  3
Layout1
350
1E
  3
Layout2
350
26
  3
Model
350
22
  0
DICTIONARY
  5
17
102
{ACAD_REACTORS
330
C
102
}
330
C
100
AcDbDictionary
281
     1
  3
Standard
350
18
  0
DICTIONARY
  5
19
102
{ACAD_REACTORS
330
C
102
}
330
C
100
AcDbDictionary
281
     1
  0
ACDBDICTIONARYWDFLT
  5
E
102
{ACAD_REACTORS
330
C
102
}
330
C
100
AcDbDictionary
281
     1
  3
Normal
350
F
100
AcDbDictionaryWithDefault
340
F
  0
DICTIONARY
  5
47
102
{ACAD_REACTORS
330
C
102
}
330
C
100
AcDbDictionary
281
     1
  3
A0
350
48
  3
A1
350
49
  3
A2
350
4A
  3
A3
350
4B
  3
A4
350
4C
  3
A5
350
4D
  3
A6
350
4E
  3
A7
350
4F
  3
A8
350
50
  3
A9
350
51
  3
B0
350
52
  3
B1
350
53
  3
B2
350
54
  3
B3
350
55
  3
B4
350
56
  3
B5
350
57
  3
B6
350
58
  3
B7
350
59
  3
B8
350
5A
  3
B9
350
5B
  3
C0
350
5C
  3
C1
350
5D
  3
C2
350
5E
  3
C3
350
5F
  3
C4
350
60
  3
C5
350
61
  3
C6
350
62
  3
C7
350
63
  3
C8
350
64
  3
C9
350
65
  3
D0
350
66
  3
D1
350
67
  3
D2
350
68
  0
LAYOUT
  5
1E
102
{ACAD_REACTORS
330
1A
102
}
330
1A
100
AcDbPlotSettings
  1

  2
none_device
  4

  6

 40
0.0
 41
0.0
 42
0.0
 43
0.0
 44
0.0
 45
0.0
 46
0.0
 47
0.0
 48
0.0
 49
0.0
140
0.0
141
0.0
142
1.0
143
1.0
 70
   688
 72
     1
 73
     0
 74
     5
  7

 75
    16
147
1.0
148
0.0
149
0.0
100
AcDbLayout
  1
Layout1
 70
     1
 71
     1
 10
0.0
 20
0.0
 11
420.0
 21
297.0
 12
0.0
 22
0.0
 32
0.0
 14
1.0000000000E+20
 24
1.0000000000E+20
 34
1.0000000000E+20
 15
-1.0000000000E+20
 25
-1.0000000000E+20
 35
-1.0000000000E+20
146
0.0
 13
0.0
 23
0.0
 33
0.0
 16
1.0
 26
0.0
 36
0.0
 17
0.0
 27
1.0
 37
0.0
 76
     0
330
1B
  0
LAYOUT
  5
26
102
{ACAD_REACTORS
330
1A
102
}
330
1A
100
AcDbPlotSettings
  1

  2
none_device
  4

  6

 40
0.0
 41
0.0
 42
0.0
 43
0.0
 44
0.0
 45
0.0
 46
0.0
 47
0.0
 48
0.0
 49
0.0
140
0.0
141
0.0
142
1.0
143
1.0
 70
   688
 72
     1
 73
     0
 74
     5
  7

 75
    16
147
1.0
148
0.0
149
0.0
100
AcDbLayout
  1
Layout2
 70
     1
 71
     2
 10
0.0
 20
0.0
 11
0.0
 21
0.0
 12
0.0
 22
0.0
 32
0.0
 14
0.0
 24
0.0
 34
0.0
 15
0.0
 25
0.0
 35
0.0
146
0.0
 13
0.0
 23
0.0
 33
0.0
 16
1.0
 26
0.0
 36
0.0
 17
0.0
 27
1.0
 37
0.0
 76
     0
330
23
  0
LAYOUT
  5
22
102
{ACAD_REACTORS
330
1A
102
}
330
1A
100
AcDbPlotSettings
  1

  2
none_device
  4
Letter_(8.50_x_11.00_Inches)
  6

 40
6.35
 41
6.35
 42
6.35000508
 43
6.35000508
 44
215.9
 45
279.4
 46
0.0
 47
0.0
 48
0.0
 49
0.0
140
0.0
141
0.0
142
1.0
143
1.0
 70
  1712
 72
     1
 73
     0
 74
     0
  7

 75
     0
147
1.0
148
0.0
149
0.0
100
AcDbLayout
  1
Model
 70
     1
 71
     0
 10
0.0
 20
0.0
 11
297.0
 21
210.0
 12
0.0
 22
0.0
 32
0.0
 14
0.0
 24
0.0
 34
0.0
 15
297.0
 25
210.0
 35
0.0
146
0.0
 13
0.0
 23
0.0
 33
0.0
 16
1.0
 26
0.0
 36
0.0
 17
0.0
 27
1.0
 37
0.0
 76
     0
330
1F
331
29
  0
MLINESTYLE
  5
18
102
{ACAD_REACTORS
330
17
102
}
330
17
100
AcDbMlineStyle
  2
Standard
 70
     0
  3

 62
   256
 51
90.0
 52
90.0
 71
     2
 49
0.5
 62
   256
  6
BYLAYER
 49
-0.5
 62
   256
  6
BYLAYER
  0
ACDBPLACEHOLDER
  5
F
102
{ACAD_REACTORS
330
E
102
}
330
E
  0
SCALE
  5
48
102
{ACAD_REACTORS
330
47
102
}
330
47
100
AcDbScale
 70
     0
300
1:1
140
1.0
141
1.0
290
     1
  0
SCALE
  5
49
102
{ACAD_REACTORS
330
47
102
}
330
47
100
AcDbScale
 70
     0
300
1:2
140
1.0
141
2.0
290
     0
  0
SCALE
  5
4A
102
{ACAD_REACTORS
330
47
102
}
330
47
100
AcDbScale
 70
     0
300
1:4
140
1.0
141
4.0
290
     0
  0
SCALE
  5
4B
102
{ACAD_REACTORS
330
47
102
}
330
47
100
AcDbScale
 70
     0
300
1:5
140
1.0
141
5.0
290
     0
  0
SCALE
  5
4C
102
{ACAD_REACTORS
330
47
102
}
330
47
100
AcDbScale
 70
     0
300
1:8
140
1.0
141
8.0
290
     0
  0
SCALE
  5
4D
102
{ACAD_REACTORS
330
47
102
}
330
47
100
AcDbScale
 70
     0
300
1:10
140
1.0
141
10.0
290
     0
  0
SCALE
  5
4E
102
{ACAD_REACTORS
330
47
102
}
330
47
100
AcDbScale
 70
     0
300
1:16
140
1.0
141
16.0
290
     0
  0
SCALE
  5
4F
102
{ACAD_REACTORS
330
47
102
}
330
47
100
AcDbScale
 70
     0
300
1:20
140
1.0
141
20.0
290
     0
  0
SCALE
  5
50
102
{ACAD_REACTORS
330
47
102
}
330
47
100
AcDbScale
 70
     0
300
1:30
140
1.0
141
30.0
290
     0
  0
SCALE
  5
51
102
{ACAD_REACTORS
330
47
102
}
330
47
100
AcDbScale
 70
     0
300
1:40
140
1.0
141
40.0
290
     0
  0
SCALE
  5
52
102
{ACAD_REACTORS
330
47
102
}
330
47
100
AcDbScale
 70
     0
300
1:50
140
1.0
141
50.0
290
     0
  0
SCALE
  5
53
102
{ACAD_REACTORS
330
47
102
}
330
47
100
AcDbScale
 70
     0
300
1:100
140
1.0
141
100.0
290
     0
  0
SCALE
  5
54
102
{ACAD_REACTORS
330
47
102
}
330
47
100
AcDbScale
 70
     0
300
2:1
140
2.0
141
1.0
290
     0
  0
SCALE
  5
55
102
{ACAD_REACTORS
330
47
102
}
330
47
100
AcDbScale
 70
     0
300
4:1
140
4.0
141
1.0
290
     0
  0
SCALE
  5
56
102
{ACAD_REACTORS
330
47
102
}
330
47
100
AcDbScale
 70
     0
300
8:1
140
8.0
141
1.0
290
     0
  0
SCALE
  5
57
102
{ACAD_REACTORS
330
47
102
}
330
47
100
AcDbScale
 70
     0
300
10:1
140
10.0
141
1.0
290
     0
  0
SCALE
  5
58
102
{ACAD_REACTORS
330
47
102
}
330
47
100
AcDbScale
 70
     0
300
100:1
140
100.0
141
1.0
290
     0
  0
SCALE
  5
59
102
{ACAD_REACTORS
330
47
102
}
330
47
100
AcDbScale
 70
     0
300
1/128" = 1'-0"
140
0.0078125
141
12.0
290
     0
  0
SCALE
  5
5A
102
{ACAD_REACTORS
330
47
102
}
330
47
100
AcDbScale
 70
     0
300
1/64" = 1'-0"
140
0.015625
141
12.0
290
     0
  0
SCALE
  5
5B
102
{ACAD_REACTORS
330
47
102
}
330
47
100
AcDbScale
 70
     0
300
1/32" = 1'-0"
140
0.03125
141
12.0
290
     0
  0
SCALE
  5
5C
102
{ACAD_REACTORS
330
47
102
}
330
47
100
AcDbScale
 70
     0
300
1/16" = 1'-0"
140
0.0625
141
12.0
290
     0
  0
SCALE
  5
5D
102
{ACAD_REACTORS
330
47
102
}
330
47
100
AcDbScale
 70
     0
300
3/32" = 1'-0"
140
0.09375
141
12.0
290
     0
  0
SCALE
  5
5E
102
{ACAD_REACTORS
330
47
102
}
330
47
100
AcDbScale
 70
     0
300
1/8" = 1'-0"
140
0.125
141
12.0
290
     0
  0
SCALE
  5
5F
102
{ACAD_REACTORS
330
47
102
}
330
47
100
AcDbScale
 70
     0
300
3/16" = 1'-0"
140
0.1875
141
12.0
290
     0
  0
SCALE
  5
60
102
{ACAD_REACTORS
330
47
102
}
330
47
100
AcDbScale
 70
     0
300
1/4" = 1'-0"
140
0.25
141
12.0
290
     0
  0
SCALE
  5
61
102
{ACAD_REACTORS
330
47
102
}
330
47
100
AcDbScale
 70
     0
300
3/8" = 1'-0"
140
0.375
141
12.0
290
     0
  0
SCALE
  5
62
102
{ACAD_REACTORS
330
47
102
}
330
47
100
AcDbScale
 70
     0
300
1/2" = 1'-0"
140
0.5
141
12.0
290
     0
  0
SCALE
  5
63
102
{ACAD_REACTORS
330
47
102
}
330
47
100
AcDbScale
 70
     0
300
3/4" = 1'-0"
140
0.75
141
12.0
290
     0
  0
SCALE
  5
64
102
{ACAD_REACTORS
330
47
102
}
330
47
100
AcDbScale
 70
     0
300
1" = 1'-0"
140
1.0
141
12.0
290
     0
  0
SCALE
  5
65
102
{ACAD_REACTORS
330
47
102
}
330
47
100
AcDbScale
 70
     0
300
1-1/2" = 1'-0"
140
1.5
141
12.0
290
     0
  0
SCALE
  5
66
102
{ACAD_REACTORS
330
47
102
}
330
47
100
AcDbScale
 70
     0
300
3" = 1'-0"
140
3.0
141
12.0
290
     0
  0
SCALE
  5
67
102
{ACAD_REACTORS
330
47
102
}
330
47
100
AcDbScale
 70
     0
300
6" = 1'-0"
140
6.0
141
12.0
290
     0
  0
SCALE
  5
68
102
{ACAD_REACTORS
330
47
102
}
330
47
100
AcDbScale
 70
     0
300
1'-0" = 1'-0"
140
12.0
141
12.0
290
     0
  0
ENDSEC
  0
EOF
