  0
SECTION
  2
HEADER
  9
$ACADVER
  1
AC1015
  9
$ACADMAINTVER
 70
     6
  9
$DWGCODEPAGE
  3
ANSI_1252
  9
$INSBASE
 10
0.0
 20
0.0
 30
0.0
  9
$EXTMIN
 10
0.0
 20
0.0
 30
0.0
  9
$EXTMAX
 10
297.0
 20
210.0
 30
0.0
  9
$LIMMIN
 10
0.0
 20
0.0
  9
$LIMMAX
 10
297.0
 20
210.0
  9
$ORTHOMODE
 70
     0
  9
$REGENMODE
 70
     1
  9
$FILLMODE
 70
     1
  9
$QTEXTMODE
 70
     0
  9
$MIRRTEXT
 70
     1
  9
$LTSCALE
 40
1.0
  9
$ATTMODE
 70
     1
  9
$TEXTSIZE
 40
2.0
  9
$TRACEWID
 40
1.0
  9
$TEXTSTYLE
  7
Standard
  9
$CLAYER
  8
0
  9
$CELTYPE
  6
ByLayer
  9
$CECOLOR
 62
   256
  9
$CELTSCALE
 40
1.0
  9
$DISPSILH
 70
     0
  9
$DIMSCALE
 40
1.0
  9
$DIMASZ
 40
3.0
  9
$DIMEXO
 40
0.0
  9
$DIMDLI
 40
3.75
  9
$DIMRND
 40
0.0
  9
$DIMDLE
 40
0.0
  9
$DIMEXE
 40
1.0
  9
$DIMTP
 40
0.0
  9
$DIMTM
 40
0.0
  9
$DIMTXT
 40
2.0
  9
$DIMCEN
 40
2.5
  9
$DIMTSZ
 40
0.0
  9
$DIMTOL
 70
     0
  9
$DIMLIM
 70
     0
  9
$DIMTIH
 70
     1
  9
$DIMTOH
 70
     1
  9
$DIMSE1
 70
     0
  9
$DIMSE2
 70
     0
  9
$DIMTAD
 70
     1
  9
$DIMZIN
 70
     0
  9
$DIMBLK
  1

  9
$DIMASO
 70
     1
  9
$DIMSHO
 70
     1
  9
$DIMPOST
  1

  9
$DIMAPOST
  1

  9
$DIMALT
 70
     0
  9
$DIMALTD
 70
     3
  9
$DIMALTF
 40
0.0393700787
  9
$DIMLFAC
 40
1.0
  9
$DIMTOFL
 70
     1
  9
$DIMTVP
 40
0.0
  9
$DIMTIX
 70
     0
  9
$DIMSOXD
 70
     0
  9
$DIMSAH
 70
     0
  9
$DIMBLK1
  1

  9
$DIMBLK2
  1

  9
$DIMSTYLE
  2
ISO-25
  9
$DIMCLRD
 70
     0
  9
$DIMCLRE
 70
     0
  9
$DIMCLRT
 70
     0
  9
$DIMTFAC
 40
1.0
  9
$DIMGAP
 40
1.524
  9
$DIMJUST
 70
     0
  9
$DIMSD1
 70
     0
  9
$DIMSD2
 70
     0
  9
$DIMTOLJ
 70
     0
  9
$DIMTZIN
 70
     0
  9
$DIMALTZ
 70
     0
  9
$DIMALTTZ
 70
     0
  9
$DIMUPT
 70
     0
  9
$DIMDEC
 70
     2
  9
$DIMTDEC
 70
     3
  9
$DIMALTU
 70
     2
  9
$DIMALTTD
 70
     3
  9
$DIMTXSTY
  7
Standard
  9
$DIMAUNIT
 70
     0
  9
$DIMADEC
 70
     2
  9
$DIMALTRND
 40
0.0
  9
$DIMAZIN
 70
     0
  9
$DIMDSEP
 70
    44
  9
$DIMATFIT
 70
     3
  9
$DIMFRAC
 70
     0
  9
$DIMLDRBLK
  1

  9
$DIMLUNIT
 70
     2
  9
$DIMLWD
 70
    -2
  9
$DIMLWE
 70
    -2
  9
$DIMTMOVE
 70
     0
  9
$LUNITS
 70
     2
  9
$LUPREC
 70
     2
  9
$SKETCHINC
 40
1.0
  9
$FILLETRAD
 40
10.0
  9
$AUNITS
 70
     0
  9
$AUPREC
 70
     2
  9
$MENU
  1
.
  9
$ELEVATION
 40
0.0
  9
$PELEVATION
 40
0.0
  9
$THICKNESS
 40
0.0
  9
$LIMCHECK
 70
     0
  9
$CHAMFERA
 40
0.0
  9
$CHAMFERB
 40
0.0
  9
$CHAMFERC
 40
0.0
  9
$CHAMFERD
 40
0.0
  9
$SKPOLY
 70
     0
  9
$TDCREATE
 40
2457632.709052072
  9
$TDUCREATE
 40
2457632.625718738
  9
$TDUPDATE
 40
2457632.709053426
  9
$TDUUPDATE
 40
2457632.625720093
  9
$TDINDWG
 40
0.0000000116
  9
$TDUSRTIMER
 40
0.0000000116
  9
$USRTIMER
 70
     1
  9
$ANGBASE
 50
0.0
  9
$ANGDIR
 70
     0
  9
$PDMODE
 70
     0
  9
$PDSIZE
 40
-1.0
  9
$PLINEWID
 40
0.0
  9
$SPLFRAME
 70
     0
  9
$SPLINETYPE
 70
     6
  9
$SPLINESEGS
 70
     8
  9
$HANDSEED
  5
25A
  9
$SURFTAB1
 70
     6
  9
$SURFTAB2
 70
     6
  9
$SURFTYPE
 70
     6
  9
$SURFU
 70
     6
  9
$SURFV
 70
     6
  9
$UCSBASE
  2

  9
$UCSNAME
  2

  9
$UCSORG
 10
0.0
 20
0.0
 30
0.0
  9
$UCSXDIR
 10
1.0
 20
0.0
 30
0.0
  9
$UCSYDIR
 10
0.0
 20
1.0
 30
0.0
  9
$UCSORTHOREF
  2

  9
$UCSORTHOVIEW
 70
     0
  9
$UCSORGTOP
 10
0.0
 20
0.0
 30
0.0
  9
$UCSORGBOTTOM
 10
0.0
 20
0.0
 30
0.0
  9
$UCSORGLEFT
 10
0.0
 20
0.0
 30
0.0
  9
$UCSORGRIGHT
 10
0.0
 20
0.0
 30
0.0
  9
$UCSORGFRONT
 10
0.0
 20
0.0
 30
0.0
  9
$UCSORGBACK
 10
0.0
 20
0.0
 30
0.0
  9
$PUCSBASE
  2

  9
$PUCSNAME
  2

  9
$PUCSORG
 10
0.0
 20
0.0
 30
0.0
  9
$PUCSXDIR
 10
1.0
 20
0.0
 30
0.0
  9
$PUCSYDIR
 10
0.0
 20
1.0
 30
0.0
  9
$PUCSORTHOREF
  2

  9
$PUCSORTHOVIEW
 70
     0
  9
$PUCSORGTOP
 10
0.0
 20
0.0
 30
0.0
  9
$PUCSORGBOTTOM
 10
0.0
 20
0.0
 30
0.0
  9
$PUCSORGLEFT
 10
0.0
 20
0.0
 30
0.0
  9
$PUCSORGRIGHT
 10
0.0
 20
0.0
 30
0.0
  9
$PUCSORGFRONT
 10
0.0
 20
0.0
 30
0.0
  9
$PUCSORGBACK
 10
0.0
 20
0.0
 30
0.0
  9
$USERI1
 70
     0
  9
$USERI2
 70
     0
  9
$USERI3
 70
     0
  9
$USERI4
 70
     0
  9
$USERI5
 70
     0
  9
$USERR1
 40
0.0
  9
$USERR2
 40
0.0
  9
$USERR3
 40
0.0
  9
$USERR4
 40
0.0
  9
$USERR5
 40
0.0
  9
$WORLDVIEW
 70
     1
  9
$SHADEDGE
 70
     3
  9
$SHADEDIF
 70
    70
  9
$TILEMODE
 70
     1
  9
$MAXACTVP
 70
    64
  9
$PINSBASE
 10
0.0
 20
0.0
 30
0.0
  9
$PLIMCHECK
 70
     0
  9
$PEXTMIN
 10
1.0000000000E+20
 20
1.0000000000E+20
 30
1.0000000000E+20
  9
$PEXTMAX
 10
-1.0000000000E+20
 20
-1.0000000000E+20
 30
-1.0000000000E+20
  9
$PLIMMIN
 10
0.0
 20
0.0
  9
$PLIMMAX
 10
420.0
 20
297.0
  9
$UNITMODE
 70
     0
  9
$VISRETAIN
 70
     1
  9
$PLINEGEN
 70
     0
  9
$PSLTSCALE
 70
     1
  9
$TREEDEPTH
 70
  3020
  9
$CMLSTYLE
  2
Standard
  9
$CMLJUST
 70
     0
  9
$CMLSCALE
 40
20.0
  9
$PROXYGRAPHICS
 70
     1
  9
$MEASUREMENT
 70
     1
  9
$CELWEIGHT
370
    -1
  9
$ENDCAPS
280
     0
  9
$JOINSTYLE
280
     0
  9
$LWDISPLAY
290
     1
  9
$INSUNITS
 70
     4
  9
$HYPERLINKBASE
  1

  9
$STYLESHEET
  1

  9
$XEDIT
290
     1
  9
$CEPSNTYPE
380
     0
  9
$PSTYLEMODE
290
     1
  9
$FINGERPRINTGUID
  2
{69A0917E-1C3B-43AC-B6D3-BF6FC2563FB8}
  9
$VERSIONGUID
  2
{FAEB1C32-E019-11D5-929B-00C0DF256EC4}
  9
$EXTNAMES
290
     1
  9
$PSVPSCALE
 40
0.0
  9
$OLESTARTUP
290
     0
  0
ENDSEC
  0
SECTION
  2
CLASSES
  0
CLASS
  1
ACDBDICTIONARYWDFLT
  2
AcDbDictionaryWithDefault
  3
ObjectDBX Classes
 90
        0
280
     0
281
     0
  0
CLASS
  1
VISUALSTYLE
  2
AcDbVisualStyle
  3
ObjectDBX Classes
 90
     4095
280
     0
281
     0
  0
CLASS
  1
MATERIAL
  2
AcDbMaterial
  3
ObjectDBX Classes
 90
     1153
280
     0
281
     0
  0
CLASS
  1
SCALE
  2
AcDbScale
  3
ObjectDBX Classes
 90
     1153
280
     0
281
     0
  0
CLASS
  1
TABLESTYLE
  2
AcDbTableStyle
  3
ObjectDBX Classes
 90
     4095
280
     0
281
     0
  0
CLASS
  1
MLEADERSTYLE
  2
AcDbMLeaderStyle
  3
ACDB_MLEADERSTYLE_CLASS
 90
     4095
280
     0
281
     0
  0
CLASS
  1
SUN
  2
AcDbSun
  3
SCENEOE
 90
     1153
280
     0
281
     0
  0
CLASS
  1
ACDBPLACEHOLDER
  2
AcDbPlaceHolder
  3
ObjectDBX Classes
 90
        0
280
     0
281
     0
  0
CLASS
  1
LAYOUT
  2
AcDbLayout
  3
ObjectDBX Classes
 90
        0
280
     0
281
     0
  0
ENDSEC
  0
SECTION
  2
TABLES
  0
TABLE
  2
VPORT
  5
8
330
0
100
AcDbSymbolTable
 70
     1
  0
VPORT
  5
29
330
8
100
AcDbSymbolTableRecord
100
AcDbViewportTableRecord
  2
*Active
 70
     0
 10
0.0
 20
0.0
 11
1.0
 21
1.0
 12
148.5
 22
105.0
 13
0.0
 23
0.0
 14
10.0
 24
10.0
 15
10.0
 25
10.0
 16
0.0
 26
0.0
 36
1.0
 17
0.0
 27
0.0
 37
0.0
 40
210.0
 41
1.4142857143
 42
50.0
 43
0.0
 44
0.0
 50
0.0
 51
0.0
 71
     0
 72
  2000
 73
     1
 74
     3
 75
     0
 76
     0
 77
     0
 78
     0
281
     0
 65
     1
110
0.0
120
0.0
130
0.0
111
1.0
121
0.0
131
0.0
112
0.0
122
1.0
132
0.0
 79
     0
146
0.0
  0
ENDTAB
  0
TABLE
  2
LTYPE
  5
5
330
0
100
AcDbSymbolTable
 70
     6
  0
LTYPE
  5
14
330
5
100
AcDbSymbolTableRecord
100
AcDbLinetypeTableRecord
  2
ByBlock
 70
     0
  3

 72
    65
 73
     0
 40
0.0
  0
LTYPE
  5
15
330
5
100
AcDbSymbolTableRecord
100
AcDbLinetypeTableRecord
  2
ByLayer
 70
     0
  3

 72
    65
 73
     0
 40
0.0
  0
LTYPE
  5
16
330
5
100
AcDbSymbolTableRecord
100
AcDbLinetypeTableRecord
  2
Continuous
 70
     0
  3
Solid line
 72
    65
 73
     0
 40
0.0
  0
LTYPE
  5
6E
330
5
100
AcDbSymbolTableRecord
100
AcDbLinetypeTableRecord
  2
HIDDEN
 70
     0
  3
Hidden __ __ __ __ __ __ __ __ __ __ __ __ __ __
 72
    65
 73
     2
 40
1.905
 49
1.27
 74
     0
 49
-0.635
 74
     0
  0
LTYPE
  5
6F
330
5
100
AcDbSymbolTableRecord
100
AcDbLinetypeTableRecord
  2
PHANTOM
 70
     0
  3
Phantom ______  __  __  ______  __  __  ______
 72
    65
 73
     6
 40
12.7
 49
6.35
 74
     0
 49
-1.27
 74
     0
 49
1.27
 74
     0
 49
-1.27
 74
     0
 49
1.27
 74
     0
 49
-1.27
 74
     0
  0
LTYPE
  5
70
330
5
100
AcDbSymbolTableRecord
100
AcDbLinetypeTableRecord
  2
CENTER
 70
     0
  3
Center ____ _ ____ _ ____ _ ____ _ ____ _ ____
 72
    65
 73
     4
 40
10.16
 49
6.35
 74
     0
 49
-1.27
 74
     0
 49
1.27
 74
     0
 49
-1.27
 74
     0
  0
LTYPE
  5
71
330
5
100
AcDbSymbolTableRecord
100
AcDbLinetypeTableRecord
  2
CENTERX2
 70
     0
  3
Center (2x) ________  __  ________  __  _____
 72
    65
 73
     4
 40
20.32
 49
12.7
 74
     0
 49
-2.54
 74
     0
 49
2.54
 74
     0
 49
-2.54
 74
     0
  0
LTYPE
  5
72
330
5
100
AcDbSymbolTableRecord
100
AcDbLinetypeTableRecord
  2
DOT2
 70
     0
  3
Dot (.5x) ........................................
 72
    65
 73
     2
 40
0.635
 49
0.0
 74
     0
 49
-0.635
 74
     0
  0
ENDTAB
  0
TABLE
  2
LAYER
  5
2
330
0
100
AcDbSymbolTable
 70
     5
  0
LAYER
  5
10
330
2
100
AcDbSymbolTableRecord
100
AcDbLayerTableRecord
  2
0
 70
     0
 62
     7
  6
Continuous
370
    -3
390
F
  0
LAYER
  5
73
330
2
100
AcDbSymbolTableRecord
100
AcDbLayerTableRecord
  2
FORMAT
 70
     0
 62
     7
  6
Continuous
370
    -3
390
F
  0
LAYER
  5
74
330
2
100
AcDbSymbolTableRecord
100
AcDbLayerTableRecord
  2
VERMASSUNG
 70
     0
 62
     7
  6
Continuous
370
    -3
390
F
  0
LAYER
  5
75
330
2
100
AcDbSymbolTableRecord
100
AcDbLayerTableRecord
  2
KOPF_DÜNN
 70
     0
 62
     7
  6
Continuous
370
    -3
390
F
  0
LAYER
  5
76
330
2
100
AcDbSymbolTableRecord
100
AcDbLayerTableRecord
  2
KOPF_DICK
 70
     0
 62
     7
  6
Continuous
370
    15
390
F
  0
ENDTAB
  0
TABLE
  2
STYLE
  5
3
330
0
100
AcDbSymbolTable
 70
     3
  0
STYLE
  5
11
330
3
100
AcDbSymbolTableRecord
100
AcDbTextStyleTableRecord
  2
Standard
 70
     0
 40
0.0
 41
1.0
 50
0.0
 71
     0
 42
2.0
  3
txt
  4

  0
STYLE
  5
77
330
3
100
AcDbSymbolTableRecord
100
AcDbTextStyleTableRecord
  2
SLDTEXTSTYLE0
 70
     0
 40
0.0
 41
0.7
 50
0.0
 71
     0
 42
2.0
  3
TXT
  4

  0
STYLE
  5
7B
330
3
100
AcDbSymbolTableRecord
100
AcDbTextStyleTableRecord
  2
SLDTEXTSTYLE1
 70
     0
 40
0.0
 41
0.6411764706
 50
0.0
 71
     0
 42
2.0
  3
TXT
  4

  0
ENDTAB
  0
TABLE
  2
VIEW
  5
6
330
0
100
AcDbSymbolTable
 70
     0
  0
ENDTAB
  0
TABLE
  2
UCS
  5
7
330
0
100
AcDbSymbolTable
 70
     0
  0
ENDTAB
  0
TABLE
  2
APPID
  5
9
330
0
100
AcDbSymbolTable
 70
     1
  0
APPID
  5
12
330
9
100
AcDbSymbolTableRecord
100
AcDbRegAppTableRecord
  2
ACAD
 70
     0
  0
ENDTAB
  0
TABLE
  2
DIMSTYLE
  5
A
330
0
100
AcDbSymbolTable
 70
     2
100
AcDbDimStyleTable
  0
DIMSTYLE
105
27
330
A
100
AcDbSymbolTableRecord
100
AcDbDimStyleTableRecord
  2
ISO-25
 70
     0
 41
2.5
 42
0.625
 43
3.75
 44
1.25
 73
     0
 74
     0
 77
     1
 78
     8
140
2.5
141
2.5
143
0.0393700787
147
0.625
171
     3
172
     1
178
     0
271
     2
272
     2
274
     3
278
    44
283
     0
284
     8
340
11
  0
DIMSTYLE
105
17F
102
{ACAD_REACTORS
330
17E
330
18B
330
195
330
19F
330
1A9
102
}
330
A
100
AcDbSymbolTableRecord
100
AcDbDimStyleTableRecord
  2
SLDDIMSTYLE0
 70
     0
 41
3.0
 44
0.0
 45
0.000000001
 73
     0
 74
     0
 77
     1
 78
    12
 79
     3
140
2.0
147
0.5
173
     1
178
     0
271
     2
272
     3
276
     2
284
    12
340
77
  0
ENDTAB
  0
TABLE
  2
BLOCK_RECORD
  5
1
330
0
100
AcDbSymbolTable
 70
     6
  0
BLOCK_RECORD
  5
1F
330
1
100
AcDbSymbolTableRecord
100
AcDbBlockTableRecord
  2
*Model_Space
340
22
  0
BLOCK_RECORD
  5
1B
330
1
100
AcDbSymbolTableRecord
100
AcDbBlockTableRecord
  2
*Paper_Space
340
1E
  0
BLOCK_RECORD
  5
23
330
1
100
AcDbSymbolTableRecord
100
AcDbBlockTableRecord
  2
*Paper_Space0
340
26
  0
BLOCK_RECORD
  5
180
330
1
100
AcDbSymbolTableRecord
100
AcDbBlockTableRecord
  2
_D
340
0
  0
BLOCK_RECORD
  5
18C
330
1
100
AcDbSymbolTableRecord
100
AcDbBlockTableRecord
  2
_D_1
340
0
  0
BLOCK_RECORD
  5
196
330
1
100
AcDbSymbolTableRecord
100
AcDbBlockTableRecord
  2
_D_2
340
0
  0
BLOCK_RECORD
  5
1A0
330
1
100
AcDbSymbolTableRecord
100
AcDbBlockTableRecord
  2
_D_3
340
0
  0
BLOCK_RECORD
  5
1AA
330
1
100
AcDbSymbolTableRecord
100
AcDbBlockTableRecord
  2
_D_4
340
0
  0
ENDTAB
  0
ENDSEC
  0
SECTION
  2
BLOCKS
  0
BLOCK
  5
20
330
1F
100
AcDbEntity
  8
0
100
AcDbBlockBegin
  2
*Model_Space
 70
     0
 10
0.0
 20
0.0
 30
0.0
  3
*Model_Space
  1

  0
ENDBLK
  5
21
330
1F
100
AcDbEntity
  8
0
100
AcDbBlockEnd
  0
BLOCK
  5
1C
330
1B
100
AcDbEntity
 67
     1
  8
0
100
AcDbBlockBegin
  2
*Paper_Space
 70
     0
 10
0.0
 20
0.0
 30
0.0
  3
*Paper_Space
  1

  0
ENDBLK
  5
1D
330
1B
100
AcDbEntity
 67
     1
  8
0
100
AcDbBlockEnd
  0
BLOCK
  5
24
330
23
100
AcDbEntity
  8
0
100
AcDbBlockBegin
  2
*Paper_Space0
 70
     0
 10
0.0
 20
0.0
 30
0.0
  3
*Paper_Space0
  1

  0
ENDBLK
  5
25
330
23
100
AcDbEntity
  8
0
100
AcDbBlockEnd
  0
BLOCK
  5
181
330
180
100
AcDbEntity
  8
0
100
AcDbBlockBegin
  2
_D
 70
     0
 10
0.0
 20
0.0
 30
0.0
  3
_D
  1

  0
SOLID
  5
183
330
180
100
AcDbEntity
  8
VERMASSUNG
100
AcDbTrace
 10
81.2398297913
 20
150.5299122095
 30
0.0
 11
80.7898297913
 21
147.5299122095
 31
0.0
 12
81.6898297913
 22
147.5299122095
 32
0.0
 13
81.6898297913
 23
147.5299122095
 33
0.0
  0
SOLID
  5
184
330
180
100
AcDbEntity
  8
VERMASSUNG
100
AcDbTrace
 10
81.2398297913
 20
70.5299122095
 30
0.0
 11
81.6898297913
 21
73.5299122095
 31
0.0
 12
80.7898297913
 22
73.5299122095
 32
0.0
 13
80.7898297913
 23
73.5299122095
 33
0.0
  0
LINE
  5
185
330
180
100
AcDbEntity
  8
VERMASSUNG
100
AcDbLine
 10
127.7007249924
 20
150.5299122095
 30
0.0
 11
80.2398297913
 21
150.5299122095
 31
0.0
  0
LINE
  5
186
330
180
100
AcDbEntity
  8
VERMASSUNG
100
AcDbLine
 10
127.7007249924
 20
70.5299122095
 30
0.0
 11
80.2398297913
 21
70.5299122095
 31
0.0
  0
LINE
  5
187
330
180
100
AcDbEntity
  8
VERMASSUNG
100
AcDbLine
 10
81.2398297913
 20
150.5299122095
 30
0.0
 11
81.2398297913
 21
70.5299122095
 31
0.0
  0
MTEXT
  5
188
330
180
100
AcDbEntity
  8
VERMASSUNG
100
AcDbMText
 10
78.4616945351
 20
102.8255507265
 30
0.0
 40
2.0
 41
0.0
 71
     1
 72
     1
  1
HSK A
  7
SLDTEXTSTYLE0
 11
-7.044195017643634E-15
 21
1.0
 31
0.0
 73
     1
 44
1.0
  0
MTEXT
  5
189
330
180
100
AcDbEntity
  8
VERMASSUNG
100
AcDbMText
 10
78.6616944864
 20
111.8255503391
 30
0.0
 40
2.0
 41
0.0
 71
     1
 72
     1
  1
%%c
  7
SLDTEXTSTYLE0
 11
-7.044195017643634E-15
 21
1.0
 31
0.0
 73
     1
 44
1.0
  0
MTEXT
  5
18A
330
180
100
AcDbEntity
  8
VERMASSUNG
100
AcDbMText
 10
78.6616941953
 20
115.4348936719
 30
0.0
 40
2.0
 41
0.0
 71
     1
 72
     1
  1
80
  7
SLDTEXTSTYLE0
 11
-7.044195017643634E-15
 21
1.0
 31
0.0
 73
     1
 44
1.0
  0
ENDBLK
  5
182
330
180
100
AcDbEntity
  8
0
100
AcDbBlockEnd
  0
BLOCK
  5
18D
330
18C
100
AcDbEntity
  8
0
100
AcDbBlockBegin
  2
_D_1
 70
     0
 10
0.0
 20
0.0
 30
0.0
  3
_D_1
  1

  0
SOLID
  5
18F
330
18C
100
AcDbEntity
  8
VERMASSUNG
100
AcDbTrace
 10
127.2007249924
 20
170.3549030922
 30
0.0
 11
130.2007249924
 21
169.9049030922
 31
0.0
 12
130.2007249924
 22
170.8049030922
 32
0.0
 13
130.2007249924
 23
170.8049030922
 33
0.0
  0
SOLID
  5
190
330
18C
100
AcDbEntity
  8
VERMASSUNG
100
AcDbTrace
 10
209.2007249924
 20
170.3549030922
 30
0.0
 11
206.2007249924
 21
170.8049030922
 31
0.0
 12
206.2007249924
 22
169.9049030922
 32
0.0
 13
206.2007249924
 23
169.9049030922
 33
0.0
  0
LINE
  5
191
330
18C
100
AcDbEntity
  8
VERMASSUNG
100
AcDbLine
 10
127.2007249924
 20
150.0299122095
 30
0.0
 11
127.2007249924
 21
171.3549030922
 31
0.0
  0
LINE
  5
192
330
18C
100
AcDbEntity
  8
VERMASSUNG
100
AcDbLine
 10
209.2007249924
 20
156.6299122095
 30
0.0
 11
209.2007249924
 21
171.3549030922
 31
0.0
  0
LINE
  5
193
330
18C
100
AcDbEntity
  8
VERMASSUNG
100
AcDbLine
 10
127.2007249924
 20
170.3549030922
 30
0.0
 11
209.2007249924
 21
170.3549030922
 31
0.0
  0
MTEXT
  5
194
330
18C
100
AcDbEntity
  8
VERMASSUNG
100
AcDbMText
 10
166.8010349821
 20
172.9330386882
 30
0.0
 40
2.0
 41
0.0
 71
     1
 72
     1
  1
82
  7
SLDTEXTSTYLE0
 73
     1
 44
1.0
  0
ENDBLK
  5
18E
330
18C
100
AcDbEntity
  8
0
100
AcDbBlockEnd
  0
BLOCK
  5
197
330
196
100
AcDbEntity
  8
0
100
AcDbBlockBegin
  2
_D_2
 70
     0
 10
0.0
 20
0.0
 30
0.0
  3
_D_2
  1

  0
SOLID
  5
199
330
196
100
AcDbEntity
  8
VERMASSUNG
100
AcDbTrace
 10
153.1507249924
 20
164.3549030922
 30
0.0
 11
156.1507249924
 21
163.9049030922
 31
0.0
 12
156.1507249924
 22
164.8049030922
 32
0.0
 13
156.1507249924
 23
164.8049030922
 33
0.0
  0
SOLID
  5
19A
330
196
100
AcDbEntity
  8
VERMASSUNG
100
AcDbTrace
 10
209.2007249924
 20
164.3549030922
 30
0.0
 11
206.2007249924
 21
164.8049030922
 31
0.0
 12
206.2007249924
 22
163.9049030922
 32
0.0
 13
206.2007249924
 23
163.9049030922
 33
0.0
  0
LINE
  5
19B
330
196
100
AcDbEntity
  8
VERMASSUNG
100
AcDbLine
 10
153.1507249924
 20
148.4772441315
 30
0.0
 11
153.1507249924
 21
165.3549030922
 31
0.0
  0
LINE
  5
19C
330
196
100
AcDbEntity
  8
VERMASSUNG
100
AcDbLine
 10
209.2007249924
 20
156.6299122095
 30
0.0
 11
209.2007249924
 21
165.3549030922
 31
0.0
  0
LINE
  5
19D
330
196
100
AcDbEntity
  8
VERMASSUNG
100
AcDbLine
 10
153.1507249924
 20
164.3549030922
 30
0.0
 11
209.2007249924
 21
164.3549030922
 31
0.0
  0
MTEXT
  5
19E
330
196
100
AcDbEntity
  8
VERMASSUNG
100
AcDbMText
 10
178.0763326134
 20
166.9330386882
 30
0.0
 40
2.0
 41
0.0
 71
     1
 72
     1
  1
56.05
  7
SLDTEXTSTYLE0
 73
     1
 44
1.0
  0
ENDBLK
  5
198
330
196
100
AcDbEntity
  8
0
100
AcDbBlockEnd
  0
BLOCK
  5
1A1
330
1A0
100
AcDbEntity
  8
0
100
AcDbBlockBegin
  2
_D_3
 70
     0
 10
0.0
 20
0.0
 30
0.0
  3
_D_3
  1

  0
SOLID
  5
1A3
330
1A0
100
AcDbEntity
  8
VERMASSUNG
100
AcDbTrace
 10
87.3007249924
 20
176.3549030922
 30
0.0
 11
90.3007249924
 21
175.9049030922
 31
0.0
 12
90.3007249924
 22
176.8049030922
 32
0.0
 13
90.3007249924
 23
176.8049030922
 33
0.0
  0
SOLID
  5
1A4
330
1A0
100
AcDbEntity
  8
VERMASSUNG
100
AcDbTrace
 10
209.2007249924
 20
176.3549030922
 30
0.0
 11
206.2007249924
 21
176.8049030922
 31
0.0
 12
206.2007249924
 22
175.9049030922
 32
0.0
 13
206.2007249924
 23
175.9049030922
 33
0.0
  0
LINE
  5
1A5
330
1A0
100
AcDbEntity
  8
VERMASSUNG
100
AcDbLine
 10
87.3007249924
 20
134.6967906452
 30
0.0
 11
87.3007249924
 21
177.3549030922
 31
0.0
  0
LINE
  5
1A6
330
1A0
100
AcDbEntity
  8
VERMASSUNG
100
AcDbLine
 10
209.2007249924
 20
156.6299122095
 30
0.0
 11
209.2007249924
 21
177.3549030922
 31
0.0
  0
LINE
  5
1A7
330
1A0
100
AcDbEntity
  8
VERMASSUNG
100
AcDbLine
 10
87.3007249924
 20
176.3549030922
 30
0.0
 11
209.2007249924
 21
176.3549030922
 31
0.0
  0
MTEXT
  5
1A8
330
1A0
100
AcDbEntity
  8
VERMASSUNG
100
AcDbMText
 10
145.5517167534
 20
178.9330386882
 30
0.0
 40
2.0
 41
0.0
 71
     1
 72
     1
  1
121.9
  7
SLDTEXTSTYLE0
 73
     1
 44
1.0
  0
ENDBLK
  5
1A2
330
1A0
100
AcDbEntity
  8
0
100
AcDbBlockEnd
  0
BLOCK
  5
1AB
330
1AA
100
AcDbEntity
  8
0
100
AcDbBlockBegin
  2
_D_4
 70
     0
 10
0.0
 20
0.0
 30
0.0
  3
_D_4
  1

  0
SOLID
  5
1AD
330
1AA
100
AcDbEntity
  8
VERMASSUNG
100
AcDbTrace
 10
219.4374515997
 20
157.5299122095
 30
0.0
 11
218.9874515997
 21
154.5299122095
 31
0.0
 12
219.8874515997
 22
154.5299122095
 32
0.0
 13
219.8874515997
 23
154.5299122095
 33
0.0
  0
SOLID
  5
1AE
330
1AA
100
AcDbEntity
  8
VERMASSUNG
100
AcDbTrace
 10
219.4374515997
 20
63.5299122095
 30
0.0
 11
219.8874515997
 21
66.5299122095
 31
0.0
 12
218.9874515997
 22
66.5299122095
 32
0.0
 13
218.9874515997
 23
66.5299122095
 33
0.0
  0
LINE
  5
1AF
330
1AA
100
AcDbEntity
  8
VERMASSUNG
100
AcDbLine
 10
208.3007249924
 20
157.5299122095
 30
0.0
 11
220.4374515997
 21
157.5299122095
 31
0.0
  0
LINE
  5
1B0
330
1AA
100
AcDbEntity
  8
VERMASSUNG
100
AcDbLine
 10
208.3007249924
 20
63.5299122095
 30
0.0
 11
220.4374515997
 21
63.5299122095
 31
0.0
  0
LINE
  5
1B1
330
1AA
100
AcDbEntity
  8
VERMASSUNG
100
AcDbLine
 10
219.4374515997
 20
157.5299122095
 30
0.0
 11
219.4374515997
 21
63.5299122095
 31
0.0
  0
MTEXT
  5
1B2
330
1AA
100
AcDbEntity
  8
VERMASSUNG
100
AcDbMText
 10
216.6593163435
 20
104.0249122702
 30
0.0
 40
2.0
 41
0.0
 71
     1
 72
     1
  1
MBM
  7
SLDTEXTSTYLE0
 11
-7.044195017643634E-15
 21
1.0
 31
0.0
 73
     1
 44
1.0
  0
MTEXT
  5
1B3
330
1AA
100
AcDbEntity
  8
VERMASSUNG
100
AcDbMText
 10
216.8593162948
 20
110.4249121085
 30
0.0
 40
2.0
 41
0.0
 71
     1
 72
     1
  1
%%c
  7
SLDTEXTSTYLE0
 11
-7.044195017643634E-15
 21
1.0
 31
0.0
 73
     1
 44
1.0
  0
MTEXT
  5
1B4
330
1AA
100
AcDbEntity
  8
VERMASSUNG
100
AcDbMText
 10
216.6593163435
 20
114.0349125884
 30
0.0
 40
2.0
 41
0.0
 71
     1
 72
     1
  1
94
  7
SLDTEXTSTYLE0
 11
-7.044195017643634E-15
 21
1.0
 31
0.0
 73
     1
 44
1.0
  0
ENDBLK
  5
1AC
330
1AA
100
AcDbEntity
  8
0
100
AcDbBlockEnd
  0
ENDSEC
  0
SECTION
  2
ENTITIES
  0
MTEXT
  5
78
330
1F
100
AcDbEntity
  8
KOPF_DÜNN
100
AcDbMText
 10
13.8892156294
 20
23.8442973028
 30
0.0
 40
3.0
 41
0.0
 71
     1
 72
     1
  1
102.080.941
  7
SLDTEXTSTYLE0
 73
     1
 44
1.0
  0
MTEXT
  5
79
330
1F
100
AcDbEntity
  8
VERMASSUNG
100
AcDbMText
 10
13.9329988022
 20
28.8834360957
 30
0.0
 40
3.0
 41
0.0
 71
     1
 72
     1
  1
Aufnahme_Master shank MBM 94
  7
SLDTEXTSTYLE0
 73
     1
 44
1.0
  0
MTEXT
  5
7A
330
1F
100
AcDbEntity
  8
VERMASSUNG
100
AcDbMText
 10
98.8601118557
 20
13.8365368761
 30
0.0
 40
2.0
 41
0.0
 71
     1
 72
     1
  1
Datum: 20.11.2007
  7
SLDTEXTSTYLE0
 73
     1
 44
1.0
  0
MTEXT
  5
7C
330
1F
100
AcDbEntity
  8
VERMASSUNG
100
AcDbMText
 10
13.933048693
 20
18.0482802738
 30
0.0
 40
2.0
 41
0.0
 71
     1
 72
     1
  1
HSK A 80 / MBM 94
  7
SLDTEXTSTYLE1
 73
     1
 44
1.0
  0
MTEXT
  5
7D
330
1F
100
AcDbEntity
  8
VERMASSUNG
100
AcDbMText
 10
13.9808475933
 20
13.9090974274
 30
0.0
 40
2.0
 41
0.0
 71
     1
 72
     1
  1
Gewicht: 2830g
  7
SLDTEXTSTYLE0
 73
     1
 44
1.0
  0
LINE
  5
7E
330
1F
100
AcDbEntity
  8
0
  6
Continuous
 62
     7
370
    15
100
AcDbLine
 10
208.3007249924
 20
63.5299122095
 30
0.0
 11
209.2007249924
 21
64.4299122095
 31
0.0
  0
LINE
  5
7F
330
1F
100
AcDbEntity
  8
0
  6
Continuous
 62
     7
370
    15
100
AcDbLine
 10
209.2007249924
 20
156.6299122095
 30
0.0
 11
208.3007249924
 21
157.5299122095
 31
0.0
  0
LINE
  5
80
330
1F
100
AcDbEntity
  8
0
  6
Continuous
 62
     7
370
    15
100
AcDbLine
 10
208.3007249924
 20
157.5299122095
 30
0.0
 11
170.2007249924
 21
157.5299122095
 31
0.0
  0
LINE
  5
81
330
1F
100
AcDbEntity
  8
0
  6
Continuous
 62
     7
370
    15
100
AcDbLine
 10
170.2007249924
 20
63.5299122095
 30
0.0
 11
208.3007249924
 21
63.5299122095
 31
0.0
  0
ARC
  5
82
330
1F
100
AcDbEntity
  8
0
  6
Continuous
 62
     7
370
    15
100
AcDbCircle
 10
170.2007249924
 20
156.5299122095
 30
0.0
 40
1.0
100
AcDbArc
 50
90.0
 51
180.0
  0
ARC
  5
83
330
1F
100
AcDbEntity
  8
0
  6
Continuous
 62
     7
370
    15
100
AcDbCircle
 10
170.2007249924
 20
64.5299122095
 30
0.0
 40
1.0
100
AcDbArc
 50
180.0
 51
270.0
  0
ARC
  5
84
330
1F
100
AcDbEntity
  8
0
  6
Continuous
 62
     7
370
    15
100
AcDbCircle
 10
127.7007249924
 20
71.0299122095
 30
0.0
 40
0.5
100
AcDbArc
 50
180.0
 51
270.0
  0
ARC
  5
85
330
1F
100
AcDbEntity
  8
0
  6
Continuous
 62
     7
370
    15
100
AcDbCircle
 10
127.7007249924
 20
150.0299122095
 30
0.0
 40
0.5
100
AcDbArc
 50
90.0
 51
180.0
  0
LINE
  5
86
330
1F
100
AcDbEntity
  8
0
  6
Continuous
 62
     7
370
    15
100
AcDbLine
 10
127.7007249924
 20
70.5299122095
 30
0.0
 11
131.1507249924
 21
70.5299122095
 31
0.0
  0
LINE
  5
87
330
1F
100
AcDbEntity
  8
0
  6
Continuous
 62
     7
370
    15
100
AcDbLine
 10
131.1817794101
 20
150.5299122095
 30
0.0
 11
127.7007249924
 21
150.5299122095
 31
0.0
  0
ARC
  5
88
330
1F
100
AcDbEntity
  8
0
  6
Continuous
 62
     7
370
    15
100
AcDbCircle
 10
168.2007249924
 20
145.0299122095
 30
0.0
 40
1.0
100
AcDbArc
 50
270.0
 51
0.0
  0
ARC
  5
89
330
1F
100
AcDbEntity
  8
0
  6
Continuous
 62
     7
370
    15
100
AcDbCircle
 10
168.2007249924
 20
76.0299122095
 30
0.0
 40
1.0
100
AcDbArc
 50
0.0
 51
90.0
  0
ARC
  5
8A
330
1F
100
AcDbEntity
  8
0
  6
Continuous
 62
     7
370
    15
100
AcDbCircle
 10
154.1507249924
 20
76.0299122095
 30
0.0
 40
1.0
100
AcDbArc
 50
90.0
 51
143.1144371975
  0
ARC
  5
8B
330
1F
100
AcDbEntity
  8
0
  6
Continuous
 62
     7
370
    15
100
AcDbCircle
 10
154.1507249924
 20
145.0299122095
 30
0.0
 40
1.0
100
AcDbArc
 50
216.9070850358
 51
270.0
  0
LINE
  5
8C
330
1F
100
AcDbEntity
  8
0
  6
Continuous
 62
     7
370
    15
100
AcDbLine
 10
154.1507249924
 20
77.0299122095
 30
0.0
 11
168.2007249924
 21
77.0299122095
 31
0.0
  0
LINE
  5
8D
330
1F
100
AcDbEntity
  8
0
  6
Continuous
 62
     7
370
    15
100
AcDbLine
 10
168.2007249924
 20
144.0299122095
 30
0.0
 11
154.1507249924
 21
144.0299122095
 31
0.0
  0
ARC
  5
8E
330
1F
100
AcDbEntity
  8
0
  6
Continuous
 62
     7
370
    15
100
AcDbCircle
 10
126.3037880739
 20
79.5021272859
 30
0.0
 40
0.9962338214386932
100
AcDbArc
 50
25.7988228126
 51
90.0
  0
ARC
  5
8F
330
1F
100
AcDbEntity
  8
0
  6
Continuous
 62
     7
370
    15
100
AcDbCircle
 10
126.3037880739
 20
141.5576971331
 30
0.0
 40
0.9962338214386932
100
AcDbArc
 50
270.0
 51
334.2011771874
  0
LINE
  5
90
330
1F
100
AcDbEntity
  8
0
  6
Continuous
 62
     7
370
    15
100
AcDbLine
 10
110.4618603354
 20
140.0980933389
 30
0.0
 11
95.4007249924
 21
139.34352744
 31
0.0
  0
LINE
  5
91
330
1F
100
AcDbEntity
  8
0
  6
Continuous
 62
     7
370
    15
100
AcDbLine
 10
124.7007249924
 20
140.8114633117
 30
0.0
 11
119.8907034142
 21
140.5704802667
 31
0.0
  0
LINE
  5
92
330
1F
100
AcDbEntity
  8
0
  6
Continuous
 62
     7
370
    15
100
AcDbLine
 10
119.8907447907
 20
80.4893420793
 30
0.0
 11
124.7007249924
 21
80.2483611073
 31
0.0
  0
LINE
  5
93
330
1F
100
AcDbEntity
  8
0
  6
Continuous
 62
     7
370
    15
100
AcDbLine
 10
99.4007249924
 20
81.5158961774
 30
0.0
 11
110.4622853418
 21
80.9617097872
 31
0.0
  0
LINE
  5
94
330
1F
100
AcDbEntity
  8
0
  6
Continuous
 62
     7
370
    15
100
AcDbLine
 10
124.7007249924
 20
80.2483611073
 30
0.0
 11
125.5065711467
 21
80.4642869336
 31
0.0
  0
LINE
  5
95
330
1F
100
AcDbEntity
  8
0
  6
Continuous
 62
     7
370
    15
100
AcDbLine
 10
125.5065711467
 20
140.5955374854
 30
0.0
 11
124.7007249924
 21
140.8114633117
 31
0.0
  0
ARC
  5
96
330
1F
100
AcDbEntity
  8
0
  6
Continuous
 62
     7
370
    15
100
AcDbCircle
 10
125.7653901918
 20
79.4983611073
 30
0.0
 40
0.9999999999999858
100
AcDbArc
 50
90.0
 51
105.0
  0
ARC
  5
97
330
1F
100
AcDbEntity
  8
0
  6
Continuous
 62
     7
370
    15
100
AcDbCircle
 10
125.7653901918
 20
141.5614633117
 30
0.0
 40
1.0
100
AcDbArc
 50
255.0
 51
270.0
  0
LINE
  5
98
330
1F
100
AcDbEntity
  8
0
  6
Continuous
 62
     7
370
    15
100
AcDbLine
 10
125.7653901918
 20
80.4983611073
 30
0.0
 11
126.3037880739
 21
80.4983611073
 31
0.0
  0
LINE
  5
99
330
1F
100
AcDbEntity
  8
0
  6
Continuous
 62
     7
370
    15
100
AcDbLine
 10
126.3037880739
 20
140.5614633117
 30
0.0
 11
125.7653901918
 21
140.5614633117
 31
0.0
  0
LINE
  5
9A
330
1F
100
AcDbEntity
  8
0
  6
Continuous
 62
     7
370
    15
100
AcDbLine
 10
88.9507249924
 20
84.7099122095
 30
0.0
 11
97.5007249924
 21
84.7099122095
 31
0.0
  0
ARC
  5
9B
330
1F
100
AcDbEntity
  8
0
  6
Continuous
 62
     7
370
    15
100
AcDbCircle
 10
97.5007249924
 20
82.8099122095
 30
0.0
 40
1.899999999999997
100
AcDbArc
 50
42.9692748872
 51
90.0
  0
LINE
  5
9C
330
1F
100
AcDbEntity
  8
0
  6
Continuous
 62
     7
370
    15
100
AcDbLine
 10
88.9507249924
 20
136.3499122095
 30
0.0
 11
87.3007354973
 21
134.6999227145
 31
0.0
  0
LINE
  5
9D
330
1F
100
AcDbEntity
  8
0
  6
Continuous
 62
     7
370
    15
100
AcDbLine
 10
87.2971209687
 20
86.3635162332
 30
0.0
 11
88.9507249924
 21
84.7099122095
 31
0.0
  0
ARC
  5
9E
330
1F
100
AcDbEntity
  8
0
  6
Continuous
 62
     7
370
    15
100
AcDbCircle
 10
93.5007249924
 20
138.2499122095
 30
0.0
 40
1.899999999999992
100
AcDbArc
 50
270.0
 51
304.9134135452
  0
LINE
  5
9F
330
1F
100
AcDbEntity
  8
0
  6
Continuous
 62
     7
370
    15
100
AcDbLine
 10
93.5007249924
 20
136.3499122095
 30
0.0
 11
88.9507249924
 21
136.3499122095
 31
0.0
  0
SPLINE
  5
A0
330
1F
100
AcDbEntity
  8
0
  6
Continuous
 62
     7
370
    15
100
AcDbSpline
210
0.0
220
0.0
230
1.0
 70
    24
 71
     3
 72
    15
 73
    11
 74
     0
 42
0.000000001
 43
0.00000001
 40
0.0
 40
0.0
 40
0.0
 40
0.0
 40
0.0640504367340804
 40
0.1282061551362667
 40
0.3015971188615299
 40
0.4801922626499474
 40
0.6449121499731941
 40
0.8155191712969913
 40
0.9075602129381515
 40
1.0
 40
1.0
 40
1.0
 40
1.0
 10
187.5374763383075
 20
105.5299122095049
 30
0.0
 10
187.4217789214806
 20
105.5299122095049
 30
0.0
 10
187.1901939124329
 20
105.5299122095049
 30
0.0
 10
186.6326380177411
 20
105.5299122095049
 30
0.0
 10
185.8352871493463
 20
105.5299122095049
 30
0.0
 10
184.7988930061783
 20
105.5299122095049
 30
0.0
 10
183.762675306611
 20
105.5299122095049
 30
0.0
 10
182.9304319476852
 20
105.5299122095049
 30
0.0
 10
182.2653816166132
 20
105.5299122095049
 30
0.0
 10
181.9313503000727
 20
105.5299122095049
 30
0.0
 10
181.7639736464113
 20
105.5299122095049
 30
0.0
  0
SPLINE
  5
A1
330
1F
100
AcDbEntity
  8
0
  6
Continuous
 62
     7
370
    15
100
AcDbSpline
210
0.0
220
0.0
230
1.0
 70
    24
 71
     3
 72
    12
 73
     8
 74
     0
 42
0.000000001
 43
0.00000001
 40
0.0
 40
0.0
 40
0.0
 40
0.0
 40
0.2161879022301688
 40
0.4397674032120193
 40
0.5934227156934578
 40
0.7522132509270757
 40
1.0
 40
1.0
 40
1.0
 40
1.0
 10
190.4242276842557
 20
110.5299122095049
 30
0.0
 10
190.2265693323421
 20
110.1875579014503
 30
0.0
 10
189.8244945666059
 20
109.4911439787538
 30
0.0
 10
189.233376060386
 20
108.4672966926867
 30
0.0
 10
188.6929386179688
 20
107.5312315841076
 30
0.0
 10
188.1378844208155
 20
106.5698495136835
 30
0.0
 10
187.7648316929614
 20
105.9237032351382
 30
0.0
 10
187.5374763383076
 20
105.5299122095049
 30
0.0
  0
SPLINE
  5
A2
330
1F
100
AcDbEntity
  8
0
  6
Continuous
 62
     7
370
    15
100
AcDbSpline
210
0.0
220
0.0
230
1.0
 70
    24
 71
     3
 72
    17
 73
    13
 74
     0
 42
0.000000001
 43
0.00000001
 40
0.0
 40
0.0
 40
0.0
 40
0.0
 40
0.1077551862791747
 40
0.2161064746156176
 40
0.3272186788913188
 40
0.4398304191878097
 40
0.5163269200707045
 40
0.593476774820561
 40
0.6725611375621943
 40
0.7522309417373497
 40
0.8755479949132635
 40
1.0
 40
1.0
 40
1.0
 40
1.0
 10
187.5374763383076
 20
115.5299122095049
 30
0.0
 10
187.6352067848539
 20
115.3606381106402
 30
0.0
 10
187.8312083231095
 20
115.0211534880199
 30
0.0
 10
188.1402337986765
 20
114.4859056635046
 30
0.0
 10
188.4632901604866
 20
113.9263556311413
 30
0.0
 10
188.7630154693524
 20
113.4072161678713
 30
0.0
 10
189.0308782197434
 20
112.9432642747391
 30
0.0
 10
189.2646002058117
 20
112.5384459200228
 30
0.0
 10
189.4990940761975
 20
112.1322906224512
 30
0.0
 10
189.7744804456196
 20
111.6553074389002
 30
0.0
 10
190.0861805046661
 20
111.1154270999094
 30
0.0
 10
190.3112017073395
 20
110.7256789440988
 30
0.0
 10
190.4242276842557
 20
110.5299122095049
 30
0.0
  0
SPLINE
  5
A3
330
1F
100
AcDbEntity
  8
0
  6
Continuous
 62
     7
370
    15
100
AcDbSpline
210
0.0
220
0.0
230
1.0
 70
    24
 71
     3
 72
    13
 73
     9
 74
     0
 42
0.000000001
 43
0.00000001
 40
0.0
 40
0.0
 40
0.0
 40
0.0
 40
0.1844291914898597
 40
0.3522661073098651
 40
0.5197722555606418
 40
0.6955582578112927
 40
0.8717925323418633
 40
0.9999999999999999
 40
0.9999999999999999
 40
0.9999999999999999
 40
0.9999999999999999
 10
181.7639736464113
 20
115.5299122095049
 30
0.0
 10
182.1003983982377
 20
115.5299122095049
 30
0.0
 10
182.7429812603714
 20
115.5299122095049
 30
0.0
 10
183.758071739487
 20
115.5299122095049
 30
0.0
 10
184.7876440771365
 20
115.5299122095049
 30
0.0
 10
185.8285310739685
 20
115.5299122095049
 30
0.0
 10
186.7520326839819
 20
115.5299122095049
 30
0.0
 10
187.3047248629382
 20
115.5299122095049
 30
0.0
 10
187.5374763383076
 20
115.5299122095049
 30
0.0
  0
SPLINE
  5
A4
330
1F
100
AcDbEntity
  8
0
  6
Continuous
 62
     7
370
    15
100
AcDbSpline
210
0.0
220
0.0
230
1.0
 70
    24
 71
     3
 72
    12
 73
     8
 74
     0
 42
0.000000001
 43
0.00000001
 40
0.0
 40
0.0
 40
0.0
 40
0.0
 40
0.2161879022301682
 40
0.4397674032120207
 40
0.5934227156934598
 40
0.7522132509270785
 40
1.0
 40
1.0
 40
1.0
 40
1.0
 10
178.8772223004632
 20
110.5299122095049
 30
0.0
 10
179.0748806523767
 20
110.8722665175595
 30
0.0
 10
179.4769554181129
 20
111.5686804402559
 30
0.0
 10
180.0680739243328
 20
112.592527726323
 30
0.0
 10
180.60851136675
 20
113.5285928349022
 30
0.0
 10
181.1635655639034
 20
114.4899749053262
 30
0.0
 10
181.5366182917574
 20
115.1361211838715
 30
0.0
 10
181.7639736464113
 20
115.5299122095049
 30
0.0
  0
SPLINE
  5
A5
330
1F
100
AcDbEntity
  8
0
  6
Continuous
 62
     7
370
    15
100
AcDbSpline
210
0.0
220
0.0
230
1.0
 70
    24
 71
     3
 72
    12
 73
     8
 74
     0
 42
0.000000001
 43
0.00000001
 40
0.0
 40
0.0
 40
0.0
 40
0.0
 40
0.2161879022301674
 40
0.4397674032120199
 40
0.5934227156934581
 40
0.7522132509270764
 40
1.0
 40
1.0
 40
1.0
 40
1.0
 10
181.7639736464113
 20
105.5299122095049
 30
0.0
 10
181.5663152944977
 20
105.8722665175595
 30
0.0
 10
181.1642405287615
 20
106.5686804402559
 30
0.0
 10
180.5731220225417
 20
107.592527726323
 30
0.0
 10
180.0326845801244
 20
108.5285928349022
 30
0.0
 10
179.4776303829711
 20
109.4899749053262
 30
0.0
 10
179.1045776551171
 20
110.1361211838715
 30
0.0
 10
178.8772223004632
 20
110.5299122095049
 30
0.0
  0
CIRCLE
  5
A6
330
1F
100
AcDbEntity
  8
0
  6
Continuous
 62
     7
370
    15
100
AcDbCircle
 10
184.6507249924
 20
110.5299122095
 30
0.0
 40
6.0
  0
CIRCLE
  5
A7
330
1F
100
AcDbEntity
  8
0
  6
Continuous
 62
     7
370
    15
100
AcDbCircle
 10
184.6507249924
 20
110.5299122095
 30
0.0
 40
9.000000000000014
  0
CIRCLE
  5
A8
330
1F
100
AcDbEntity
  8
0
  6
Continuous
 62
     7
370
    15
100
AcDbCircle
 10
184.6507249924
 20
110.5299122095
 30
0.0
 40
10.0
  0
ARC
  5
A9
330
1F
100
AcDbEntity
  8
0
  6
Continuous
 62
     7
370
    15
100
AcDbCircle
 10
184.6507249924
 20
110.5299122095
 30
0.0
 40
5.000000000000023
100
AcDbArc
 50
330.0
 51
30.0
  0
ARC
  5
AA
330
1F
100
AcDbEntity
  8
0
  6
Continuous
 62
     7
370
    15
100
AcDbCircle
 10
184.6507249924
 20
110.5299122095
 30
0.0
 40
4.999999999999999
100
AcDbArc
 50
150.0
 51
210.0
  0
ARC
  5
AB
330
1F
100
AcDbEntity
  8
0
  6
Continuous
 62
     7
370
    15
100
AcDbCircle
 10
184.6507249924
 20
110.5299122095
 30
0.0
 40
5.0
100
AcDbArc
 50
210.0
 51
270.0
  0
ARC
  5
AC
330
1F
100
AcDbEntity
  8
0
  6
Continuous
 62
     7
370
    15
100
AcDbCircle
 10
184.6507249924
 20
110.5299122095
 30
0.0
 40
5.000000000000023
100
AcDbArc
 50
270.0
 51
330.0
  0
ARC
  5
AD
330
1F
100
AcDbEntity
  8
0
  6
Continuous
 62
     7
370
    15
100
AcDbCircle
 10
184.6507249924
 20
110.5299122095
 30
0.0
 40
5.0
100
AcDbArc
 50
90.0
 51
150.0
  0
ARC
  5
AE
330
1F
100
AcDbEntity
  8
0
  6
Continuous
 62
     7
370
    15
100
AcDbCircle
 10
184.6507249924
 20
110.5299122095
 30
0.0
 40
5.000000000000023
100
AcDbArc
 50
30.0
 51
90.0
  0
LINE
  5
AF
330
1F
100
AcDbEntity
  8
0
  6
Continuous
 62
     7
370
    15
100
AcDbLine
 10
209.2007249924
 20
110.5299122095
 30
0.0
 11
209.2007249924
 21
64.4299122095
 31
0.0
  0
LINE
  5
B0
330
1F
100
AcDbEntity
  8
0
  6
Continuous
 62
     7
370
    15
100
AcDbLine
 10
209.2007249924
 20
156.6299122095
 30
0.0
 11
209.2007249924
 21
110.5299122095
 31
0.0
  0
LINE
  5
B1
330
1F
100
AcDbEntity
  8
0
  6
Continuous
 62
     7
370
    15
100
AcDbLine
 10
208.3007249924
 20
110.5299122095
 30
0.0
 11
208.3007249924
 21
63.5299122095
 31
0.0
  0
LINE
  5
B2
330
1F
100
AcDbEntity
  8
0
  6
Continuous
 62
     7
370
    15
100
AcDbLine
 10
208.3007249924
 20
157.5299122095
 30
0.0
 11
208.3007249924
 21
110.5299122095
 31
0.0
  0
SPLINE
  5
B3
330
1F
100
AcDbEntity
  8
0
  6
Continuous
 62
     7
370
    15
100
AcDbSpline
210
0.0
220
0.0
230
1.0
 70
     8
 71
     3
 72
    52
 73
    48
 74
     0
 42
0.000000001
 43
0.00000001
 40
0.0
 40
0.0
 40
0.0
 40
0.0
 40
0.0312500000000008
 40
0.0312500000000008
 40
0.0625000000000016
 40
0.0625000000000016
 40
0.1250000000000031
 40
0.1250000000000031
 40
0.1562500000000037
 40
0.1562500000000037
 40
0.1875000000000043
 40
0.1875000000000043
 40
0.2500000000000046
 40
0.2500000000000046
 40
0.312500000000005
 40
0.312500000000005
 40
0.3750000000000054
 40
0.3750000000000054
 40
0.4062500000000056
 40
0.4062500000000056
 40
0.4375000000000057
 40
0.4375000000000057
 40
0.5000000000000054
 40
0.5000000000000054
 40
0.5312500000000051
 40
0.5312500000000051
 40
0.5625000000000047
 40
0.5625000000000047
 40
0.6250000000000038
 40
0.6250000000000038
 40
0.687500000000003
 40
0.687500000000003
 40
0.7187500000000026
 40
0.7187500000000026
 40
0.7500000000000021
 40
0.7500000000000021
 40
0.8125000000000012
 40
0.8125000000000012
 40
0.843750000000001
 40
0.843750000000001
 40
0.8750000000000008
 40
0.8750000000000008
 40
0.9375000000000006
 40
0.9375000000000006
 40
0.9687500000000003
 40
0.9687500000000003
 40
1.0
 40
1.0
 40
1.0
 40
1.0
 10
196.9007249923594
 20
110.5299122095049
 30
0.0
 10
196.9007249923594
 20
110.9137423328986
 30
0.0
 10
196.8777709446698
 20
111.2980462137369
 30
0.0
 10
196.7881616358453
 20
112.0537954300762
 30
0.0
 10
196.7215266722064
 20
112.427378022384
 30
0.0
 10
196.4574330673183
 20
113.5355287590941
 30
0.0
 10
196.1917464334587
 20
114.2638013890477
 30
0.0
 10
195.6865746343611
 20
115.2836824704771
 30
0.0
 10
195.5001925337211
 20
115.6133624133437
 30
0.0
 10
195.0925839457036
 20
116.2529143179229
 30
0.0
 10
194.8705671481314
 20
116.563758425527
 30
0.0
 10
194.1575113471617
 20
117.4601992294307
 30
0.0
 10
193.6284075629868
 20
118.0004771413368
 30
0.0
 10
192.4716091674636
 20
118.9772683109478
 30
0.0
 10
191.8387864540806
 20
119.4153608541667
 30
0.0
 10
190.520844584876
 20
120.1613643217847
 30
0.0
 10
189.8316290774516
 20
120.4737646337763
 30
0.0
 10
188.7529528801536
 20
120.8535985997223
 30
0.0
 10
188.3848781866659
 20
120.9654144174285
 30
0.0
 10
187.6469559852257
 20
121.1553810772696
 30
0.0
 10
187.2755996650835
 20
121.2341545848116
 30
0.0
 10
186.1545079128706
 20
121.4231154548
 30
0.0
 10
185.3978058106081
 20
121.4863426416103
 30
0.0
 10
184.2484020834507
 20
121.4847187063924
 30
0.0
 10
183.8645331750505
 20
121.4678448489909
 30
0.0
 10
183.1061843581614
 20
121.4024850146903
 30
0.0
 10
182.7300987979202
 20
121.354014431301
 30
0.0
 10
181.6109957610502
 20
121.1617043436926
 30
0.0
 10
180.8770501674384
 20
120.9714105270072
 30
0.0
 10
179.4346515120617
 20
120.4591623959801
 30
0.0
 10
178.7436376581952
 20
120.1430216351034
 30
0.0
 10
177.7604395299164
 20
119.582520431464
 30
0.0
 10
177.4411630763233
 20
119.3810341778015
 30
0.0
 10
176.820095161139
 20
118.9475497196923
 30
0.0
 10
176.5168391829554
 20
118.7142633321192
 30
0.0
 10
175.6469522477607
 20
117.9756936055118
 30
0.0
 10
175.1207819761177
 20
117.4341347904415
 30
0.0
 10
174.4160014852808
 20
116.5434387127133
 30
0.0
 10
174.1941662952472
 20
116.2315914131637
 30
0.0
 10
173.7865698564303
 20
115.588445605697
 30
0.0
 10
173.6014957635547
 20
115.258691737917
 30
0.0
 10
173.1023933936913
 20
114.2447873017583
 30
0.0
 10
172.8437893698381
 20
113.5362948639233
 30
0.0
 10
172.5782383241739
 20
112.4194385063673
 30
0.0
 10
172.5112689944485
 20
112.0407798747316
 30
0.0
 10
172.4228037390702
 20
111.2865159133279
 30
0.0
 10
172.4007249923594
 20
110.9086032921984
 30
0.0
 10
172.4007249923594
 20
110.5299122095049
 30
0.0
  0
SPLINE
  5
B4
330
1F
100
AcDbEntity
  8
0
  6
Continuous
 62
     7
370
    15
100
AcDbSpline
210
0.0
220
0.0
230
1.0
 70
     8
 71
     3
 72
    52
 73
    48
 74
     0
 42
0.000000001
 43
0.00000001
 40
0.0
 40
0.0
 40
0.0
 40
0.0
 40
0.0312500000000006
 40
0.0312500000000006
 40
0.0625000000000012
 40
0.0625000000000012
 40
0.1250000000000021
 40
0.1250000000000021
 40
0.1875000000000031
 40
0.1875000000000031
 40
0.2500000000000041
 40
0.2500000000000041
 40
0.3125000000000051
 40
0.3125000000000051
 40
0.3437500000000055
 40
0.3437500000000055
 40
0.3750000000000059
 40
0.3750000000000059
 40
0.4062500000000063
 40
0.4062500000000063
 40
0.4375000000000067
 40
0.4375000000000067
 40
0.5000000000000075
 40
0.5000000000000075
 40
0.5312500000000078
 40
0.5312500000000078
 40
0.5625000000000079
 40
0.5625000000000079
 40
0.6250000000000077
 40
0.6250000000000077
 40
0.6562500000000072
 40
0.6562500000000072
 40
0.6875000000000068
 40
0.6875000000000068
 40
0.750000000000006
 40
0.750000000000006
 40
0.7812500000000053
 40
0.7812500000000053
 40
0.8125000000000046
 40
0.8125000000000046
 40
0.875000000000003
 40
0.875000000000003
 40
0.9062500000000022
 40
0.9062500000000022
 40
0.9375000000000016
 40
0.9375000000000016
 40
1.0
 40
1.0
 40
1.0
 40
1.0
 10
172.4007249923594
 20
110.5299122095049
 30
0.0
 10
172.4007249923594
 20
110.1507554730812
 30
0.0
 10
172.4228550081345
 20
109.7708184645614
 30
0.0
 10
172.5126518937716
 20
109.0093398575963
 30
0.0
 10
172.5803936954601
 20
108.6298996424825
 30
0.0
 10
172.8454921998601
 20
107.5192591765611
 30
0.0
 10
173.1050358146769
 20
106.8059560957053
 30
0.0
 10
173.7852149121365
 20
105.431739432642
 30
0.0
 10
174.1949843224577
 20
104.7930225107038
 30
0.0
 10
175.1377354254386
 20
103.6070363845943
 30
0.0
 10
175.6760677218864
 20
103.0564818106512
 30
0.0
 10
176.8325366412623
 20
102.0805922465365
 30
0.0
 10
177.4541445824632
 20
101.6495626489179
 30
0.0
 10
178.4501989841954
 20
101.0853448090795
 30
0.0
 10
178.7912618671897
 20
100.9121930547881
 30
0.0
 10
179.4824332586035
 20
100.5987976068862
 30
0.0
 10
179.8337924796854
 20
100.4578343763298
 30
0.0
 10
180.5478116591824
 20
100.2065276947937
 30
0.0
 10
180.9104723831426
 20
100.0961865860808
 30
0.0
 10
181.6471506977679
 20
99.90613110847077
 30
0.0
 10
182.0227749381831
 20
99.82616810288873
 30
0.0
 10
183.1551570480641
 20
99.63536455708146
 30
0.0
 10
183.9117546512042
 20
99.57348995551179
 30
0.0
 10
185.0490808144959
 20
99.5751017482971
 30
0.0
 10
185.4285969821005
 20
99.59147901911035
 30
0.0
 10
186.188459705184
 20
99.65654057929017
 30
0.0
 10
186.5706115113676
 20
99.7056067252773
 30
0.0
 10
187.6997851284524
 20
99.89987663226078
 30
0.0
 10
188.4321921243165
 20
100.091252233261
 30
0.0
 10
189.5006609502373
 20
100.4705978723423
 30
0.0
 10
189.8517626678256
 20
100.612525389202
 30
0.0
 10
190.5435250466514
 20
100.9285412786729
 30
0.0
 10
190.8855109761658
 20
101.1035305365817
 30
0.0
 10
191.8753263742363
 20
101.6680646634777
 30
0.0
 10
192.492927856365
 20
102.0987048197263
 30
0.0
 10
193.354531493
 20
102.8290573598687
 30
0.0
 10
193.6308581143218
 20
103.0866715264971
 30
0.0
 10
194.1604746550647
 20
103.6321182594244
 30
0.0
 10
194.4138881869101
 20
103.9205652217816
 30
0.0
 10
195.1192709473266
 20
104.8116224619607
 30
0.0
 10
195.5238256578314
 20
105.4461422213947
 30
0.0
 10
196.026376629841
 20
106.4628883764589
 30
0.0
 10
196.1764348145616
 20
106.8128497884373
 30
0.0
 10
196.4384373521144
 20
107.5359235790273
 30
0.0
 10
196.5475586896617
 20
107.9012495624212
 30
0.0
 10
196.8105369889062
 20
109.008410547748
 30
0.0
 10
196.9007249923594
 20
109.7613080169164
 30
0.0
 10
196.9007249923594
 20
110.5299122095049
 30
0.0
  0
LINE
  5
B5
330
1F
100
AcDbEntity
  8
0
  6
Continuous
 62
     7
370
    15
100
AcDbLine
 10
169.2007249924
 20
110.5299122095
 30
0.0
 11
169.2007249924
 21
64.5299122095
 31
0.0
  0
LINE
  5
B6
330
1F
100
AcDbEntity
  8
0
  6
Continuous
 62
     7
370
    15
100
AcDbLine
 10
169.2007249924
 20
156.5299122095
 30
0.0
 11
169.2007249924
 21
110.5299122095
 31
0.0
  0
LINE
  5
B7
330
1F
100
AcDbEntity
  8
0
  6
Continuous
 62
     7
370
    15
100
AcDbLine
 10
127.2007249924
 20
71.0299122095
 30
0.0
 11
127.2007249924
 21
150.0299122017
 31
0.0
  0
LINE
  5
B8
330
1F
100
AcDbEntity
  8
0
  6
Continuous
 62
     7
370
    15
100
AcDbLine
 10
148.7369953911
 20
71.8000787474
 30
0.0
 11
148.7369953911
 21
135.3799122095
 31
0.0
  0
SPLINE
  5
B9
330
1F
100
AcDbEntity
  8
0
  6
Continuous
 62
     7
370
    15
100
AcDbSpline
210
0.0
220
0.0
230
1.0
 70
     8
 71
     3
 72
     8
 73
     4
 74
     0
 42
0.000000001
 43
0.00000001
 40
0.0
 40
0.0
 40
0.0
 40
0.0
 40
1.0
 40
1.0
 40
1.0
 40
1.0
 10
148.7369953911459
 20
71.80007874743069
 30
0.0
 10
148.1938576052545
 20
72.77167315575217
 30
0.0
 10
147.6516846384697
 20
73.74381324091306
 30
0.0
 10
147.1107249923594
 20
74.71662375917637
 30
0.0
  0
LINE
  5
BA
330
1F
100
AcDbEntity
  8
0
  6
Continuous
 62
     7
370
    15
100
AcDbLine
 10
147.1107249924
 20
74.7166237592
 30
0.0
 11
147.1107249924
 21
135.3799122095
 31
0.0
  0
SPLINE
  5
BB
330
1F
100
AcDbEntity
  8
0
  6
Continuous
 62
     7
370
    15
100
AcDbSpline
210
0.0
220
0.0
230
1.0
 70
    24
 71
     3
 72
     8
 73
     4
 74
     0
 42
0.000000001
 43
0.00000001
 40
0.0
 40
0.0
 40
0.0
 40
0.0
 40
1.0
 40
1.0
 40
1.0
 40
1.0
 10
147.1107249923594
 20
135.3799122095049
 30
0.0
 10
147.6404782787407
 20
135.3799122095049
 30
0.0
 10
148.1837011763283
 20
135.3799122095049
 30
0.0
 10
148.7369953911459
 20
135.3799122095049
 30
0.0
  0
LINE
  5
BC
330
1F
100
AcDbEntity
  8
0
  6
Continuous
 62
     7
370
    15
100
AcDbLine
 10
152.1507249924
 20
71.8000787474
 30
0.0
 11
148.7369953911
 21
71.8000787474
 31
0.0
  0
LINE
  5
BD
330
1F
100
AcDbEntity
  8
0
  6
Continuous
 62
     7
370
    15
100
AcDbLine
 10
148.7369953911
 20
135.3799122095
 30
0.0
 11
152.1507249924
 21
135.3799122095
 31
0.0
  0
LINE
  5
BE
330
1F
100
AcDbEntity
  8
0
  6
Continuous
 62
     7
370
    15
100
AcDbLine
 10
131.1507249924
 20
135.3799122095
 30
0.0
 11
141.6644545936
 21
135.3799122095
 31
0.0
  0
LINE
  5
BF
330
1F
100
AcDbEntity
  8
0
  6
Continuous
 62
     7
370
    15
100
AcDbLine
 10
141.6644545936
 20
71.8000787474
 30
0.0
 11
141.6644545936
 21
135.3799122095
 31
0.0
  0
LINE
  5
C0
330
1F
100
AcDbEntity
  8
0
  6
Continuous
 62
     7
370
    15
100
AcDbLine
 10
141.6644545936
 20
71.8000787474
 30
0.0
 11
140.1507249924
 21
71.8000787474
 31
0.0
  0
SPLINE
  5
C1
330
1F
100
AcDbEntity
  8
0
  6
Continuous
 62
     7
370
    15
100
AcDbSpline
210
0.0
220
0.0
230
1.0
 70
     8
 71
     3
 72
    30
 73
    26
 74
     0
 42
0.000000001
 43
0.00000001
 40
0.0
 40
0.0
 40
0.0
 40
0.0
 40
0.1250000000000005
 40
0.1250000000000005
 40
0.1875000000000008
 40
0.1875000000000008
 40
0.2500000000000011
 40
0.2500000000000011
 40
0.3750000000000012
 40
0.3750000000000012
 40
0.4375000000000013
 40
0.4375000000000013
 40
0.5000000000000013
 40
0.5000000000000013
 40
0.6250000000000011
 40
0.6250000000000011
 40
0.6875000000000009
 40
0.6875000000000009
 40
0.7500000000000007
 40
0.7500000000000007
 40
0.8125000000000006
 40
0.8125000000000006
 40
0.8750000000000003
 40
0.8750000000000003
 40
1.0
 40
1.0
 40
1.0
 40
1.0
 10
140.1507249923594
 20
71.80007874743069
 30
0.0
 10
139.5535491154854
 20
71.80007874743069
 30
0.0
 10
138.9668430324637
 20
71.78475143246916
 30
0.0
 10
138.1017332021879
 20
71.74101881437709
 30
0.0
 10
137.8158727483378
 20
71.72298090607713
 30
0.0
 10
137.2492570610073
 20
71.68033737363567
 30
0.0
 10
136.9683173032777
 20
71.65566706226633
 30
0.0
 10
136.1518664040683
 20
71.57443948245667
 30
0.0
 10
135.6359652994402
 20
71.51024804856257
 30
0.0
 10
134.903762821225
 20
71.40401337717267
 30
0.0
 10
134.6654926417423
 20
71.36673296989274
 30
0.0
 10
134.2099713133279
 20
71.2908013740091
 30
0.0
 10
133.9930073821383
 20
71.2522354202977
 30
0.0
 10
133.3734854475443
 20
71.13619338217296
 30
0.0
 10
133.0019807615051
 20
71.0583661243587
 30
0.0
 10
132.5087198204537
 20
70.94647608375853
 30
0.0
 10
132.3564970397009
 20
70.91030991729885
 30
0.0
 10
132.0794806554595
 20
70.84185689016486
 30
0.0
 10
131.9540687060847
 20
70.80942883983364
 30
0.0
 10
131.7292287291589
 20
70.74884041445654
 30
0.0
 10
131.6297999322578
 20
70.72067883353971
 30
0.0
 10
131.4574980466435
 20
70.66929565916857
 30
0.0
 10
131.3843939226067
 20
70.64598596129393
 30
0.0
 10
131.2095269683778
 20
70.58544301653058
 30
0.0
 10
131.1507249923594
 20
70.55734181035461
 30
0.0
 10
131.1507249923594
 20
70.54241416324045
 30
0.0
  0
LINE
  5
C2
330
1F
100
AcDbEntity
  8
0
  6
Continuous
 62
     7
370
    15
100
AcDbLine
 10
131.1507249924
 20
70.5424141632
 30
0.0
 11
131.1507249924
 21
70.5299122095
 31
0.0
  0
SPLINE
  5
C3
330
1F
100
AcDbEntity
  8
0
  6
Continuous
 62
     7
370
    15
100
AcDbSpline
210
0.0
220
0.0
230
1.0
 70
     8
 71
     3
 72
    17
 73
    13
 74
     0
 42
0.000000001
 43
0.00000001
 40
0.0
 40
0.0
 40
0.0
 40
0.0
 40
0.1039928027398835
 40
0.2110507583651516
 40
0.3150299276010272
 40
0.421935157767337
 40
0.5275775719343997
 40
0.6362134668260427
 40
0.7429488749763674
 40
0.8528788158890155
 40
0.9578277250161848
 40
1.0
 40
1.0
 40
1.0
 40
1.0
 10
140.1507249923594
 20
149.504262749315
 30
0.0
 10
139.659090963535
 20
149.5096957043484
 30
0.0
 10
138.6613321582355
 20
149.5207217489377
 30
0.0
 10
137.2143653817625
 20
149.6068887024763
 30
0.0
 10
135.8387749031423
 20
149.7346213023736
 30
0.0
 10
134.5892836613227
 20
149.8932910689466
 30
0.0
 10
133.4773815259198
 20
150.0671669028408
 30
0.0
 10
132.5534084257388
 20
150.2350902765207
 30
0.0
 10
131.828879010036
 20
150.3814132602897
 30
0.0
 10
131.3653204700733
 20
150.4816889714234
 30
0.0
 10
131.1461895950927
 20
150.5309261592354
 30
0.0
 10
131.1738504331654
 20
150.5247182429234
 30
0.0
 10
131.1817794100598
 20
150.5229387442375
 30
0.0
  0
LINE
  5
C4
330
1F
100
AcDbEntity
  8
0
  6
Continuous
 62
     7
370
    15
100
AcDbLine
 10
141.6644545936
 20
149.5042627493
 30
0.0
 11
140.1507249924
 21
149.5042627493
 31
0.0
  0
LINE
  5
C5
330
1F
100
AcDbEntity
  8
0
  6
Continuous
 62
     7
370
    15
100
AcDbLine
 10
141.6644545936
 20
141.8744093342
 30
0.0
 11
141.6644545936
 21
149.5042627493
 31
0.0
  0
LINE
  5
C6
330
1F
100
AcDbEntity
  8
0
  6
Continuous
 62
     7
370
    15
100
AcDbLine
 10
139.7949401298
 20
141.8744093342
 30
0.0
 11
141.6644545936
 21
141.8744093342
 31
0.0
  0
SPLINE
  5
C7
330
1F
100
AcDbEntity
  8
0
  6
Continuous
 62
     7
370
    15
100
AcDbSpline
210
0.0
220
0.0
230
1.0
 70
     8
 71
     3
 72
    26
 73
    22
 74
     0
 42
0.000000001
 43
0.00000001
 40
0.0
 40
0.0
 40
0.0
 40
0.0
 40
0.2499999999999984
 40
0.2499999999999984
 40
0.3124999999999984
 40
0.3124999999999984
 40
0.3749999999999983
 40
0.3749999999999983
 40
0.4999999999999983
 40
0.4999999999999983
 40
0.6249999999999984
 40
0.6249999999999984
 40
0.7499999999999986
 40
0.7499999999999986
 40
0.812499999999999
 40
0.812499999999999
 40
0.8749999999999993
 40
0.8749999999999993
 40
0.9374999999999998
 40
0.9374999999999998
 40
1.0
 40
1.0
 40
1.0
 40
1.0
 10
131.1507249923594
 20
135.3799122095049
 30
0.0
 10
131.3545932742983
 20
136.2670993498794
 30
0.0
 10
131.6541177973546
 20
137.0975447968762
 30
0.0
 10
132.1979229925855
 20
138.0601434776619
 30
0.0
 10
132.3152985408691
 20
138.2488637176416
 30
0.0
 10
132.5693077485904
 20
138.6184483479989
 30
0.0
 10
132.7060627176426
 20
138.799285135292
 30
0.0
 10
133.1412200347557
 20
139.321105189189
 30
0.0
 10
133.4662165336181
 20
139.644450340992
 30
0.0
 10
134.1973422797203
 20
140.2405606520703
 30
0.0
 10
134.60809010119
 20
140.5153012367257
 30
0.0
 10
135.4928145640501
 20
140.9911313384848
 30
0.0
 10
135.9683090271091
 20
141.1947468498884
 30
0.0
 10
136.7379600001195
 20
141.4466283480931
 30
0.0
 10
137.0030663302511
 20
141.5211138741703
 30
0.0
 10
137.5385825618846
 20
141.6481404363244
 30
0.0
 10
137.8106165115173
 20
141.701243781642
 30
0.0
 10
138.3633436390058
 20
141.7868557668127
 30
0.0
 10
138.6440350622678
 20
141.819368405833
 30
0.0
 10
139.2144657491163
 20
141.8631905999337
 30
0.0
 10
139.5049847686793
 20
141.8744093341998
 30
0.0
 10
139.7949401297699
 20
141.8744093341998
 30
0.0
  0
LINE
  5
C8
330
1F
100
AcDbEntity
  8
0
  6
Continuous
 62
     7
370
    15
100
AcDbLine
 10
143.2907249924
 20
74.7166237592
 30
0.0
 11
143.2907249924
 21
135.3799122095
 31
0.0
  0
SPLINE
  5
C9
330
1F
100
AcDbEntity
  8
0
  6
Continuous
 62
     7
370
    15
100
AcDbSpline
210
0.0
220
0.0
230
1.0
 70
     8
 71
     3
 72
     8
 73
     4
 74
     0
 42
0.000000001
 43
0.00000001
 40
0.0
 40
0.0
 40
0.0
 40
0.0
 40
1.0
 40
1.0
 40
1.0
 40
1.0
 10
143.2907249923594
 20
74.71662375917637
 30
0.0
 10
142.7497653462491
 20
73.74381324091306
 30
0.0
 10
142.2075923794643
 20
72.77167315575217
 30
0.0
 10
141.664454593573
 20
71.80007874743069
 30
0.0
  0
SPLINE
  5
CA
330
1F
100
AcDbEntity
  8
0
  6
Continuous
 62
     7
370
    15
100
AcDbSpline
210
0.0
220
0.0
230
1.0
 70
    24
 71
     3
 72
     8
 73
     4
 74
     0
 42
0.000000001
 43
0.00000001
 40
0.0
 40
0.0
 40
0.0
 40
0.0
 40
1.0
 40
1.0
 40
1.0
 40
1.0
 10
141.664454593573
 20
135.3799122095049
 30
0.0
 10
142.2177488083905
 20
135.3799122095049
 30
0.0
 10
142.7609717059781
 20
135.3799122095049
 30
0.0
 10
143.2907249923594
 20
135.3799122095049
 30
0.0
  0
LINE
  5
CB
330
1F
100
AcDbEntity
  8
0
  6
Continuous
 62
     7
370
    15
100
AcDbLine
 10
153.1507249924
 20
72.8337585596
 30
0.0
 11
153.1507249924
 21
135.3799122095
 31
0.0
  0
SPLINE
  5
CC
330
1F
100
AcDbEntity
  8
0
  6
Continuous
 62
     7
370
    15
100
AcDbSpline
210
0.0
220
0.0
230
1.0
 70
     8
 71
     3
 72
    14
 73
    10
 74
     0
 42
0.000000001
 43
0.00000001
 40
0.0
 40
0.0
 40
0.0
 40
0.0
 40
0.25
 40
0.25
 40
0.5
 40
0.5
 40
0.75
 40
0.75
 40
1.0
 40
1.0
 40
1.0
 40
1.0
 10
153.1507249923594
 20
72.83375855956334
 30
0.0
 10
153.1507249923594
 20
72.69963212232602
 30
0.0
 10
153.1257074413319
 20
72.56757843357146
 30
0.0
 10
153.0278527030791
 20
72.31931862666033
 30
0.0
 10
152.9552508110681
 20
72.20493455018456
 30
0.0
 10
152.7719827740952
 20
72.01242347133658
 30
0.0
 10
152.660426680635
 20
71.93393769278393
 30
0.0
 10
152.4173057317134
 20
71.82817292954161
 30
0.0
 10
152.2833814607557
 20
71.8000787474307
 30
0.0
 10
152.1507249923594
 20
71.8000787474307
 30
0.0
  0
SPLINE
  5
CD
330
1F
100
AcDbEntity
  8
0
  6
Continuous
 62
     7
370
    15
100
AcDbSpline
210
0.0
220
0.0
230
1.0
 70
    24
 71
     3
 72
    12
 73
     8
 74
     0
 42
0.000000001
 43
0.00000001
 40
0.0
 40
0.0
 40
0.0
 40
0.0
 40
0.249999999999998
 40
0.249999999999998
 40
0.499999999999996
 40
0.499999999999996
 40
1.0
 40
1.0
 40
1.0
 40
1.0
 10
152.1507249923594
 20
135.3799122095049
 30
0.0
 10
152.3019655479143
 20
135.3799122095049
 30
0.0
 10
152.4503407050285
 20
135.3799122095049
 30
0.0
 10
152.7078826607393
 20
135.3799122095049
 30
0.0
 10
152.8171276590861
 20
135.3799122095049
 30
0.0
 10
153.0714702675512
 20
135.3799122095049
 30
0.0
 10
153.1507249923594
 20
135.3799122095049
 30
0.0
 10
153.1507249923594
 20
135.3799122095049
 30
0.0
  0
SPLINE
  5
CE
330
1F
100
AcDbEntity
  8
0
  6
Continuous
 62
     7
370
    15
100
AcDbSpline
210
0.0
220
0.0
230
1.0
 70
     8
 71
     3
 72
    10
 73
     6
 74
     0
 42
0.000000001
 43
0.00000001
 40
0.0
 40
0.0
 40
0.0
 40
0.0
 40
0.5
 40
0.5
 40
1.0
 40
1.0
 40
1.0
 40
1.0
 10
143.7046045192994
 20
144.4299122095049
 30
0.0
 10
143.5784837838187
 20
144.5018236319648
 30
0.0
 10
143.4718281557152
 20
144.6101942444852
 30
0.0
 10
143.3285840801902
 20
144.8633852377789
 30
0.0
 10
143.2907249923594
 20
145.0085177555854
 30
0.0
 10
143.2907249923594
 20
145.1543345873583
 30
0.0
  0
SPLINE
  5
CF
330
1F
100
AcDbEntity
  8
0
  6
Continuous
 62
     7
370
    15
100
AcDbSpline
210
0.0
220
0.0
230
1.0
 70
    24
 71
     3
 72
    12
 73
     8
 74
     0
 42
0.000000001
 43
0.00000001
 40
0.0
 40
0.0
 40
0.0
 40
0.0
 40
0.2499999999999972
 40
0.2499999999999972
 40
0.4999999999999944
 40
0.4999999999999944
 40
1.0
 40
1.0
 40
1.0
 40
1.0
 10
144.0907249923616
 20
144.4299122095049
 30
0.0
 10
144.0424458142284
 20
144.4299122095049
 30
0.0
 10
143.9947448541108
 20
144.4299122095049
 30
0.0
 10
143.9153285742532
 20
144.4299122095049
 30
0.0
 10
143.881279835729
 20
144.4299122095049
 30
0.0
 10
143.791321733028
 20
144.4299122095049
 30
0.0
 10
143.7452290333559
 20
144.4299122095049
 30
0.0
 10
143.7046045192993
 20
144.4299122095049
 30
0.0
  0
SPLINE
  5
D0
330
1F
100
AcDbEntity
  8
0
  6
Continuous
 62
     7
370
    15
100
AcDbSpline
210
0.0
220
0.0
230
1.0
 70
    24
 71
     3
 72
    14
 73
    10
 74
     0
 42
0.000000001
 43
0.00000001
 40
0.0
 40
0.0
 40
0.0
 40
0.0
 40
0.1250000000000003
 40
0.1250000000000003
 40
0.2500000000000007
 40
0.2500000000000007
 40
0.5000000000000008
 40
0.5000000000000008
 40
1.0
 40
1.0
 40
1.0
 40
1.0
 10
144.0907249923593
 20
76.62991220950487
 30
0.0
 10
144.0215485607307
 20
76.62991220950487
 30
0.0
 10
143.9584273280844
 20
76.62991220950488
 30
0.0
 10
143.8578505314059
 20
76.62991220950488
 30
0.0
 10
143.8186564995166
 20
76.62991220950487
 30
0.0
 10
143.7137643848694
 20
76.62991220950487
 30
0.0
 10
143.6609769477315
 20
76.62991220950487
 30
0.0
 10
143.5253898212442
 20
76.62991220950487
 30
0.0
 10
143.4645647053708
 20
76.62991220950488
 30
0.0
 10
143.4166469491818
 20
76.62991220950487
 30
0.0
  0
SPLINE
  5
D1
330
1F
100
AcDbEntity
  8
0
  6
Continuous
 62
     7
370
    15
100
AcDbSpline
210
0.0
220
0.0
230
1.0
 70
    24
 71
     3
 72
    10
 73
     6
 74
     0
 42
0.000000001
 43
0.00000001
 40
0.0
 40
0.0
 40
0.0
 40
0.0
 40
0.5
 40
0.5
 40
1.0
 40
1.0
 40
1.0
 40
1.0
 10
143.2907249923594
 20
135.3799122095049
 30
0.0
 10
143.2907249923594
 20
135.3799122095049
 30
0.0
 10
143.3153356102959
 20
135.3799122095049
 30
0.0
 10
143.415026998611
 20
135.3799122095049
 30
0.0
 10
143.4926204629955
 20
135.3799122095049
 30
0.0
 10
143.5999728790634
 20
135.3799122095049
 30
0.0
  0
SPLINE
  5
D2
330
1F
100
AcDbEntity
  8
0
  6
Continuous
 62
     7
370
    15
100
AcDbSpline
210
0.0
220
0.0
230
1.0
 70
     8
 71
     3
 72
    10
 73
     6
 74
     0
 42
0.000000001
 43
0.00000001
 40
0.0
 40
0.0
 40
0.0
 40
0.0
 40
0.5
 40
0.5
 40
1.0
 40
1.0
 40
1.0
 40
1.0
 10
143.2907249923594
 20
136.2656485502432
 30
0.0
 10
143.2907249923594
 20
136.1062164429401
 30
0.0
 10
143.315277382776
 20
135.9454606377586
 30
0.0
 10
143.4155762538592
 20
135.6431711742558
 30
0.0
 10
143.4923173401135
 20
135.4981724514383
 30
0.0
 10
143.5999728790634
 20
135.3799122095049
 30
0.0
  0
SPLINE
  5
D3
330
1F
100
AcDbEntity
  8
0
  6
Continuous
 62
     7
370
    15
100
AcDbSpline
210
0.0
220
0.0
230
1.0
 70
    24
 71
     3
 72
    14
 73
    10
 74
     0
 42
0.000000001
 43
0.00000001
 40
0.0
 40
0.0
 40
0.0
 40
0.0
 40
0.4999999999999984
 40
0.4999999999999984
 40
0.7499999999999992
 40
0.7499999999999992
 40
0.8749999999999996
 40
0.8749999999999996
 40
1.0
 40
1.0
 40
1.0
 40
1.0
 10
146.9848030355371
 20
76.62991220950487
 30
0.0
 10
146.9370786610033
 20
76.62991220950485
 30
0.0
 10
146.8765319044821
 20
76.62991220950488
 30
0.0
 10
146.7407512053032
 20
76.62991220950488
 30
0.0
 10
146.688137031788
 20
76.62991220950487
 30
0.0
 10
146.5827533183038
 20
76.62991220950488
 30
0.0
 10
146.542481821967
 20
76.62991220950487
 30
0.0
 10
146.4430157013895
 20
76.62991220950488
 30
0.0
 10
146.3798386643905
 20
76.62991220950488
 30
0.0
 10
146.3107249923594
 20
76.62991220950487
 30
0.0
  0
SPLINE
  5
D4
330
1F
100
AcDbEntity
  8
0
  6
Continuous
 62
     7
370
    15
100
AcDbSpline
210
0.0
220
0.0
230
1.0
 70
    24
 71
     3
 72
    12
 73
     8
 74
     0
 42
0.000000001
 43
0.00000001
 40
0.0
 40
0.0
 40
0.0
 40
0.0
 40
0.5
 40
0.5
 40
0.75
 40
0.75
 40
1.0
 40
1.0
 40
1.0
 40
1.0
 10
146.6968454654195
 20
144.4299122095049
 30
0.0
 10
146.6565507174134
 20
144.4299122095049
 30
0.0
 10
146.6099846854787
 20
144.4299122095049
 30
0.0
 10
146.5198837341478
 20
144.4299122095049
 30
0.0
 10
146.485865173714
 20
144.4299122095049
 30
0.0
 10
146.4062322515567
 20
144.4299122095049
 30
0.0
 10
146.3591200554225
 20
144.4299122095049
 30
0.0
 10
146.3107249923594
 20
144.4299122095049
 30
0.0
  0
SPLINE
  5
D5
330
1F
100
AcDbEntity
  8
0
  6
Continuous
 62
     7
370
    15
100
AcDbSpline
210
0.0
220
0.0
230
1.0
 70
     8
 71
     3
 72
    10
 73
     6
 74
     0
 42
0.000000001
 43
0.00000001
 40
0.0
 40
0.0
 40
0.0
 40
0.0
 40
0.5
 40
0.5
 40
1.0
 40
1.0
 40
1.0
 40
1.0
 10
147.1107249923594
 20
145.1543345873583
 30
0.0
 10
147.1107249923594
 20
145.0076844649222
 30
0.0
 10
147.072526918569
 20
144.8626897711714
 30
0.0
 10
146.9296915671356
 20
144.6104139839669
 30
0.0
 10
146.8238927414294
 20
144.5023519261202
 30
0.0
 10
146.6968454654196
 20
144.4299122095049
 30
0.0
  0
SPLINE
  5
D6
330
1F
100
AcDbEntity
  8
0
  6
Continuous
 62
     7
370
    15
100
AcDbSpline
210
0.0
220
0.0
230
1.0
 70
     8
 71
     3
 72
    10
 73
     6
 74
     0
 42
0.000000001
 43
0.00000001
 40
0.0
 40
0.0
 40
0.0
 40
0.0
 40
0.5
 40
0.5
 40
1.0
 40
1.0
 40
1.0
 40
1.0
 10
146.8014771056555
 20
135.3799122095049
 30
0.0
 10
146.9101530241745
 20
135.4992933443889
 30
0.0
 10
146.9860705417125
 20
135.6435963314036
 30
0.0
 10
147.0862653730509
 20
135.9459087339722
 30
0.0
 10
147.1107249923594
 20
136.106356643266
 30
0.0
 10
147.1107249923594
 20
136.2656485502428
 30
0.0
  0
SPLINE
  5
D7
330
1F
100
AcDbEntity
  8
0
  6
Continuous
 62
     7
370
    15
100
AcDbSpline
210
0.0
220
0.0
230
1.0
 70
    24
 71
     3
 72
    10
 73
     6
 74
     0
 42
0.000000001
 43
0.00000001
 40
0.0
 40
0.0
 40
0.0
 40
0.0
 40
0.5
 40
0.5
 40
1.0
 40
1.0
 40
1.0
 40
1.0
 10
146.8014771056556
 20
135.3799122095049
 30
0.0
 10
146.9089246615098
 20
135.3799122095049
 30
0.0
 10
146.9858338413398
 20
135.3799122095049
 30
0.0
 10
147.0860893672593
 20
135.3799122095049
 30
0.0
 10
147.1107249923594
 20
135.3799122095049
 30
0.0
 10
147.1107249923594
 20
135.3799122095049
 30
0.0
  0
LINE
  5
D8
330
1F
100
AcDbEntity
  8
0
  6
Continuous
 62
     7
370
    15
100
AcDbLine
 10
146.3107249924
 20
144.4299122095
 30
0.0
 11
144.0907249924
 21
144.4299122095
 31
0.0
  0
LINE
  5
D9
330
1F
100
AcDbEntity
  8
0
  6
Continuous
 62
     7
370
    15
100
AcDbLine
 10
146.3107249924
 20
76.6299122095
 30
0.0
 11
144.0907249924
 21
76.6299122095
 31
0.0
  0
SPLINE
  5
DA
330
1F
100
AcDbEntity
  8
0
  6
Continuous
 62
     7
370
    15
100
AcDbSpline
210
0.0
220
0.0
230
1.0
 70
    24
 71
     3
 72
    10
 73
     6
 74
     0
 42
0.000000001
 43
0.00000001
 40
0.0
 40
0.0
 40
0.0
 40
0.0
 40
0.5959262744551991
 40
0.8939293245836742
 40
1.0
 40
1.0
 40
1.0
 40
1.0
 10
153.3507249923594
 20
144.4299122095049
 30
0.0
 10
153.3497479740074
 20
144.4299122095049
 30
0.0
 10
153.3482823810423
 20
144.4299122095049
 30
0.0
 10
153.3417514835704
 20
144.4299122095049
 30
0.0
 10
153.3379669794682
 20
144.4299122095049
 30
0.0
 10
153.3369735347554
 20
144.4299122095049
 30
0.0
  0
SPLINE
  5
DB
330
1F
100
AcDbEntity
  8
0
  6
Continuous
 62
     7
370
    15
100
AcDbSpline
210
0.0
220
0.0
230
1.0
 70
    24
 71
     3
 72
    10
 73
     6
 74
     0
 42
0.000000001
 43
0.00000001
 40
0.0
 40
0.0
 40
0.0
 40
0.0
 40
0.6570230886491081
 40
0.9855786379093971
 40
1.0
 40
1.0
 40
1.0
 40
1.0
 10
153.3507249923594
 20
76.62991220950487
 30
0.0
 10
153.3497030025947
 20
76.62991220950485
 30
0.0
 10
153.3481699494987
 20
76.62991220950482
 30
0.0
 10
153.3424859416099
 20
76.62991220950491
 30
0.0
 10
153.3396369344928
 20
76.62991220950487
 30
0.0
 10
153.3395171405303
 20
76.62991220950487
 30
0.0
  0
LINE
  5
DC
330
1F
100
AcDbEntity
  8
0
  6
Continuous
 62
     7
370
    15
100
AcDbLine
 10
99.4007249924
 20
81.5158961774
 30
0.0
 11
99.4007249924
 21
83.2133452852
 31
0.0
  0
SPLINE
  5
DD
330
1F
100
AcDbEntity
  8
0
  6
Continuous
 62
     7
370
    15
100
AcDbSpline
210
0.0
220
0.0
230
1.0
 70
     8
 71
     3
 72
    16
 73
    12
 74
     0
 42
0.000000001
 43
0.00000001
 40
0.0
 40
0.0
 40
0.0
 40
0.0
 40
0.1249999999999996
 40
0.1249999999999996
 40
0.2499999999999992
 40
0.2499999999999992
 40
0.4999999999999994
 40
0.4999999999999994
 40
0.7499999999999997
 40
0.7499999999999997
 40
1.0
 40
1.0
 40
1.0
 40
1.0
 10
98.25236655945686
 20
84.79825516493965
 30
0.0
 10
98.30540929762395
 20
84.72292427566907
 30
0.0
 10
98.36987333229452
 20
84.64969098379984
 30
0.0
 10
98.50285673687384
 20
84.50635263423854
 30
0.0
 10
98.5718839290152
 20
84.43609579144268
 30
0.0
 10
98.77539197891366
 20
84.2282266586834
 30
0.0
 10
98.90614602572631
 20
84.09347568543052
 30
0.0
 10
99.1314127938796
 20
83.82951755851653
 30
0.0
 10
99.22675490976948
 20
83.70019922864196
 30
0.0
 10
99.36205480699971
 20
83.44765782238191
 30
0.0
 10
99.40072499235941
 20
83.32731639689678
 30
0.0
 10
99.40072499235943
 20
83.21334528518496
 30
0.0
  0
SPLINE
  5
DE
330
1F
100
AcDbEntity
  8
0
  6
Continuous
 62
     7
370
    15
100
AcDbSpline
210
0.0
220
0.0
230
1.0
 70
     8
 71
     3
 72
    14
 73
    10
 74
     0
 42
0.000000001
 43
0.00000001
 40
0.0
 40
0.0
 40
0.0
 40
0.0
 40
0.1250000000000001
 40
0.1250000000000001
 40
0.2500000000000002
 40
0.2500000000000002
 40
0.5000000000000023
 40
0.5000000000000023
 40
1.0
 40
1.0
 40
1.0
 40
1.0
 10
97.50072499235942
 20
85.22417721510664
 30
0.0
 10
97.55024956929346
 20
85.22963334288042
 30
0.0
 10
97.602991723624
 20
85.2289481828071
 30
0.0
 10
97.70352429272317
 20
85.21484062325486
 30
0.0
 10
97.75114864233547
 20
85.20169903602229
 30
0.0
 10
97.87760631727171
 20
85.15394935138166
 30
0.0
 10
97.9432963797616
 20
85.11204901654966
 30
0.0
 10
98.11260570167053
 20
84.98182622469582
 30
0.0
 10
98.18780192725656
 20
84.8899493596044
 30
0.0
 10
98.25236655945649
 20
84.79825516493963
 30
0.0
  0
SPLINE
  5
DF
330
1F
100
AcDbEntity
  8
0
  6
Continuous
 62
     7
370
    15
100
AcDbSpline
210
0.0
220
0.0
230
1.0
 70
     8
 71
     3
 72
     8
 73
     4
 74
     0
 42
0.000000001
 43
0.00000001
 40
0.0
 40
0.0
 40
0.0
 40
0.0
 40
1.0
 40
1.0
 40
1.0
 40
1.0
 10
95.18382169044095
 20
84.94390484085568
 30
0.0
 10
95.94799489931185
 20
85.04643592302997
 30
0.0
 10
96.72164716063371
 20
85.13834612963798
 30
0.0
 10
97.50072499235942
 20
85.22417721510664
 30
0.0
  0
SPLINE
  5
E0
330
1F
100
AcDbEntity
  8
0
  6
Continuous
 62
     7
370
    15
100
AcDbSpline
210
0.0
220
0.0
230
1.0
 70
     8
 71
     3
 72
    14
 73
    10
 74
     0
 42
0.000000001
 43
0.00000001
 40
0.0
 40
0.0
 40
0.0
 40
0.0
 40
0.4999999999999968
 40
0.4999999999999968
 40
0.7499999999999967
 40
0.7499999999999967
 40
0.8749999999999983
 40
0.8749999999999983
 40
1.0
 40
1.0
 40
1.0
 40
1.0
 10
88.95072499235943
 20
84.71278083578555
 30
0.0
 10
90.00225276646759
 20
84.7180041272294
 30
0.0
 10
91.05118426015518
 20
84.72994275398845
 30
0.0
 10
92.61516621259966
 20
84.77257643997619
 30
0.0
 10
93.13494530711901
 20
84.79085293731531
 30
0.0
 10
93.90960257986342
 20
84.83150172464805
 30
0.0
 10
94.16698035177686
 20
84.847273159688
 30
0.0
 10
94.67866108930326
 20
84.8869540529371
 30
0.0
 10
94.93318534374754
 20
84.91027631847292
 30
0.0
 10
95.18382169044108
 20
84.94390484085552
 30
0.0
  0
SPLINE
  5
E1
330
1F
100
AcDbEntity
  8
0
  6
Continuous
 62
     7
370
    15
100
AcDbSpline
210
0.0
220
0.0
230
1.0
 70
     8
 71
     3
 72
     8
 73
     4
 74
     0
 42
0.000000001
 43
0.00000001
 40
0.0
 40
0.0
 40
0.0
 40
0.0
 40
1.0
 40
1.0
 40
1.0
 40
1.0
 10
88.82066508514119
 20
84.86861192651392
 30
0.0
 10
88.86026958252405
 20
84.81559012224851
 30
0.0
 10
88.90383743739794
 20
84.76368589072783
 30
0.0
 10
88.95072499235943
 20
84.71278083578555
 30
0.0
  0
SPLINE
  5
E2
330
1F
100
AcDbEntity
  8
0
  6
Continuous
 62
     7
370
    15
100
AcDbSpline
210
0.0
220
0.0
230
1.0
 70
     8
 71
     3
 72
     8
 73
     4
 74
     0
 42
0.000000001
 43
0.00000001
 40
0.0
 40
0.0
 40
0.0
 40
0.0
 40
1.0
 40
1.0
 40
1.0
 40
1.0
 10
88.95072499235943
 20
136.3470435832242
 30
0.0
 10
88.90383743739554
 20
136.2961385282793
 30
0.0
 10
88.86026958251959
 20
136.2442342967559
 30
0.0
 10
88.82066508513515
 20
136.1912124924877
 30
0.0
  0
SPLINE
  5
E3
330
1F
100
AcDbEntity
  8
0
  6
Continuous
 62
     7
370
    15
100
AcDbSpline
210
0.0
220
0.0
230
1.0
 70
     8
 71
     3
 72
    10
 73
     6
 74
     0
 42
0.000000001
 43
0.00000001
 40
0.0
 40
0.0
 40
0.0
 40
0.0
 40
0.5
 40
0.5
 40
1.0
 40
1.0
 40
1.0
 40
1.0
 10
93.50072499235942
 20
136.2495138311737
 30
0.0
 10
92.74884305444824
 20
136.2863735803068
 30
0.0
 10
91.99182409036817
 20
136.3067706268743
 30
0.0
 10
90.47402816112412
 20
136.3356407499518
 30
0.0
 10
89.7129853903381
 20
136.3432571799424
 30
0.0
 10
88.95072499235943
 20
136.3470435832242
 30
0.0
  0
SPLINE
  5
E4
330
1F
100
AcDbEntity
  8
0
  6
Continuous
 62
     7
370
    15
100
AcDbSpline
210
0.0
220
0.0
230
1.0
 70
     8
 71
     3
 72
    20
 73
    16
 74
     0
 42
0.000000001
 43
0.00000001
 40
0.0
 40
0.0
 40
0.0
 40
0.0
 40
0.1249999999999991
 40
0.1249999999999991
 40
0.2499999999999982
 40
0.2499999999999982
 40
0.4999999999999986
 40
0.4999999999999986
 40
0.7499999999999989
 40
0.7499999999999989
 40
0.8749999999999991
 40
0.8749999999999991
 40
0.9374999999999996
 40
0.9374999999999996
 40
1.0
 40
1.0
 40
1.0
 40
1.0
 10
95.40072499235947
 20
137.7305190257957
 30
0.0
 10
95.40072499235947
 20
137.6708635028037
 30
0.0
 10
95.3882287856285
 20
137.6084831330497
 30
0.0
 10
95.34218019035475
 20
137.4821527559971
 30
0.0
 10
95.30866507606098
 20
137.4177622109566
 30
0.0
 10
95.18045994722534
 20
137.2211289564363
 30
0.0
 10
95.05698948844734
 20
137.0841007784597
 30
0.0
 10
94.75404434248213
 20
136.810428641322
 30
0.0
 10
94.57750901738606
 20
136.6729391796968
 30
0.0
 10
94.25458327650982
 20
136.4718493752123
 30
0.0
 10
94.13683784524851
 20
136.4046789995822
 30
0.0
 10
93.92902308620477
 20
136.3182986041788
 30
0.0
 10
93.85347752987023
 20
136.2916619232761
 30
0.0
 10
93.68420257489538
 20
136.2541092111361
 30
0.0
 10
93.59076654529544
 20
136.2450996952763
 30
0.0
 10
93.50072499235942
 20
136.2495138311737
 30
0.0
  0
LINE
  5
E5
330
1F
100
AcDbEntity
  8
0
  6
Continuous
 62
     7
370
    15
100
AcDbLine
 10
95.4007249924
 20
137.7305190258
 30
0.0
 11
95.4007249924
 21
139.34352744
 31
0.0
  0
LINE
  5
E6
330
1F
100
AcDbEntity
  8
0
  6
Continuous
 62
     7
370
    15
100
AcDbLine
 10
124.7007249924
 20
80.2483611073
 30
0.0
 11
124.7007249924
 21
140.8114633117
 31
0.0
  0
SPLINE
  5
E7
330
1F
100
AcDbEntity
  8
0
  6
Continuous
 62
     7
370
    15
100
AcDbSpline
210
0.0
220
0.0
230
1.0
 70
     8
 71
     3
 72
    24
 73
    20
 74
     0
 42
0.000000001
 43
0.00000001
 40
0.0
 40
0.0
 40
0.0
 40
0.0
 40
0.0006675883159946
 40
0.0632907201584545
 40
0.1266235196374192
 40
0.1897225217837372
 40
0.2519902853093296
 40
0.313969371088098
 40
0.376507313282058
 40
0.4388698633074125
 40
0.500459875800236
 40
0.5619749718344432
 40
0.6247082698745162
 40
0.6873839318222156
 40
0.7496296591638434
 40
0.8119076813147827
 40
0.8749614520961194
 40
0.9381947704106505
 40
1.0
 40
1.0
 40
1.0
 40
1.0
 10
110.4622930768524
 20
80.96186417791765
 30
0.0
 10
110.4619724728882
 20
80.96182869848498
 30
0.0
 10
110.4315776093352
 20
80.95846507034759
 30
0.0
 10
110.5381630684639
 20
80.97058124347033
 30
0.0
 10
110.798591496108
 20
80.99813698440845
 30
0.0
 10
111.2408373314859
 20
81.04205426900977
 30
0.0
 10
111.8305368979222
 20
81.08873607533687
 30
0.0
 10
112.5508914893569
 20
81.12893809302102
 30
0.0
 10
113.3777241920461
 20
81.15124472785583
 30
0.0
 10
114.2704964495725
 20
81.14988640791567
 30
0.0
 10
115.1959659704073
 20
81.11750198812467
 30
0.0
 10
116.120666933119
 20
81.0544721283856
 30
0.0
 10
117.0087547253578
 20
80.96471566854515
 30
0.0
 10
117.8305078292518
 20
80.85896861188618
 30
0.0
 10
118.5440479475334
 20
80.74752961431804
 30
0.0
 10
119.1300275807664
 20
80.64285093680573
 30
0.0
 10
119.5586750802956
 20
80.55804316118284
 30
0.0
 10
119.840977450135
 20
80.5002081985672
 30
0.0
 10
119.8742879899838
 20
80.4930465850144
 30
0.0
 10
119.8907530369442
 20
80.4895066753043
 30
0.0
  0
SPLINE
  5
E8
330
1F
100
AcDbEntity
  8
0
  6
Continuous
 62
     7
370
    15
100
AcDbSpline
210
0.0
220
0.0
230
1.0
 70
     8
 71
     3
 72
    24
 73
    20
 74
     0
 42
0.000000001
 43
0.00000001
 40
0.0
 40
0.0
 40
0.0
 40
0.0
 40
0.0617087493743627
 40
0.1252372755574937
 40
0.1885309805132148
 40
0.2509305509555709
 40
0.3130409675235134
 40
0.3755023914560307
 40
0.4379589352476554
 40
0.4994688322562049
 40
0.5610824013278728
 40
0.623544369984506
 40
0.6861429606818762
 40
0.7482311544071525
 40
0.8104792077812242
 40
0.8736616521711077
 40
0.9368990575724673
 40
0.9995527319596672
 40
1.0
 40
1.0
 40
1.0
 40
1.0
 10
119.8907127040422
 20
140.5702948406696
 30
0.0
 10
119.8739275572176
 20
140.5667546956757
 30
0.0
 10
119.8398622734539
 20
140.5595700076273
 30
0.0
 10
119.5552950831695
 20
140.5015141214867
 30
0.0
 10
119.1250726024501
 20
140.416315077065
 30
0.0
 10
118.5385317544409
 20
140.3113529262942
 30
0.0
 10
117.8259320342101
 20
140.1999276221702
 30
0.0
 10
117.0068174124746
 20
140.0944675363882
 30
0.0
 10
116.1205824032652
 20
140.0051236049748
 30
0.0
 10
115.197071475182
 20
139.9423831316203
 30
0.0
 10
114.2710988401376
 20
139.9100423802238
 30
0.0
 10
113.3775140930828
 20
139.9087124732773
 30
0.0
 10
112.5495058299421
 20
139.9310262351592
 30
0.0
 10
111.8284213765587
 20
139.9711994455695
 30
0.0
 10
111.238345427054
 20
140.0178957503529
 30
0.0
 10
110.7970764477315
 20
140.0618134009871
 30
0.0
 10
110.5377848726154
 20
140.0893231021905
 30
0.0
 10
110.4314822955035
 20
140.1013868411725
 30
0.0
 10
110.4616516849372
 20
140.098013571097
 30
0.0
 10
110.4618655296624
 20
140.097989660901
 30
0.0
  0
SPLINE
  5
E9
330
1F
100
AcDbEntity
  8
0
  6
Continuous
 62
     7
370
    15
100
AcDbSpline
210
0.0
220
0.0
230
1.0
 70
     8
 71
     3
 72
    10
 73
     6
 74
     0
 42
0.000000001
 43
0.00000001
 40
0.0
 40
0.0
 40
0.0
 40
0.0
 40
0.5
 40
0.5
 40
1.0
 40
1.0
 40
1.0
 40
1.0
 10
87.300724992359
 20
86.3630337738282
 30
0.0
 10
87.300724992359
 20
86.35507178653278
 30
0.0
 10
87.30575340257852
 20
86.35728126349322
 30
0.0
 10
87.31855888542344
 20
86.3889341407398
 30
0.0
 10
87.32631910896036
 20
86.41905889071353
 30
0.0
 10
87.33132896258624
 20
86.46563934016339
 30
0.0
  0
LINE
  5
EA
330
1F
100
AcDbEntity
  8
0
  6
Continuous
 62
     7
370
    15
100
AcDbLine
 10
87.3007249924
 20
86.3630337738
 30
0.0
 11
87.3007249924
 21
134.6967906452
 31
0.0
  0
SPLINE
  5
EB
330
1F
100
AcDbEntity
  8
0
  6
Continuous
 62
     7
370
    15
100
AcDbSpline
210
0.0
220
0.0
230
1.0
 70
     8
 71
     3
 72
     8
 73
     4
 74
     0
 42
0.000000001
 43
0.00000001
 40
0.0
 40
0.0
 40
0.0
 40
0.0
 40
1.0
 40
1.0
 40
1.0
 40
1.0
 10
87.33132896258608
 20
134.5941850788462
 30
0.0
 10
87.32123262561132
 20
134.6880584630212
 30
0.0
 10
87.30072499235942
 20
134.7127418097623
 30
0.0
 10
87.30072499235942
 20
134.6967906451819
 30
0.0
  0
SPLINE
  5
EC
330
1F
100
AcDbEntity
  8
0
  6
Continuous
 62
     7
370
    15
100
AcDbSpline
210
0.0
220
0.0
230
1.0
 70
     8
 71
     3
 72
    26
 73
    22
 74
     0
 42
0.000000001
 43
0.00000001
 40
0.0
 40
0.0
 40
0.0
 40
0.0
 40
0.2500000000000056
 40
0.2500000000000056
 40
0.3750000000000083
 40
0.3750000000000083
 40
0.4375000000000094
 40
0.4375000000000094
 40
0.5000000000000105
 40
0.5000000000000105
 40
0.5312500000000097
 40
0.5312500000000097
 40
0.5625000000000088
 40
0.5625000000000088
 40
0.6250000000000071
 40
0.6250000000000071
 40
0.7500000000000048
 40
0.7500000000000048
 40
0.8750000000000024
 40
0.8750000000000024
 40
1.0
 40
1.0
 40
1.0
 40
1.0
 10
88.60313429051888
 20
135.7892911605809
 30
0.0
 10
88.53702135465103
 20
135.5868109349826
 30
0.0
 10
88.45652951587458
 20
135.3720492058411
 30
0.0
 10
88.29214379179865
 20
135.0163838764132
 30
0.0
 10
88.23069386055305
 20
134.8930525584646
 30
0.0
 10
88.11481048050697
 20
134.6910395143398
 30
0.0
 10
88.07274490420535
 20
134.6217264624003
 30
0.0
 10
87.97382341089485
 20
134.4747112995166
 30
0.0
 10
87.91656036061185
 20
134.3952296883213
 30
0.0
 10
87.8090821317198
 20
134.2768388770992
 30
0.0
 10
87.77001587870278
 20
134.2389213931272
 30
0.0
 10
87.69696482175873
 20
134.180827393886
 30
0.0
 10
87.66540970358031
 20
134.1621620419077
 30
0.0
 10
87.58678245227013
 20
134.1274026782069
 30
0.0
 10
87.55254393648273
 20
134.1285792206554
 30
0.0
 10
87.46857099018804
 20
134.1509543261563
 30
0.0
 10
87.43856305738484
 20
134.1931601714429
 30
0.0
 10
87.38973935213279
 20
134.2893306864837
 30
0.0
 10
87.37321849748112
 20
134.3457102540848
 30
0.0
 10
87.34744919379841
 20
134.4652271661609
 30
0.0
 10
87.3383709864623
 20
134.5287099848258
 30
0.0
 10
87.33132896258624
 20
134.5941850788464
 30
0.0
  0
SPLINE
  5
ED
330
1F
100
AcDbEntity
  8
0
  6
Continuous
 62
     7
370
    15
100
AcDbSpline
210
0.0
220
0.0
230
1.0
 70
     8
 71
     3
 72
     8
 73
     4
 74
     0
 42
0.000000001
 43
0.00000001
 40
0.0
 40
0.0
 40
0.0
 40
0.0
 40
1.0
 40
1.0
 40
1.0
 40
1.0
 10
88.82066508513513
 20
136.1912124924877
 30
0.0
 10
88.72757228244558
 20
136.0665814861888
 30
0.0
 10
88.64906255545272
 20
135.9299529739243
 30
0.0
 10
88.60313429052268
 20
135.7892911605841
 30
0.0
  0
SPLINE
  5
EE
330
1F
100
AcDbEntity
  8
0
  6
Continuous
 62
     7
370
    15
100
AcDbSpline
210
0.0
220
0.0
230
1.0
 70
     8
 71
     3
 72
     8
 73
     4
 74
     0
 42
0.000000001
 43
0.00000001
 40
0.0
 40
0.0
 40
0.0
 40
0.0
 40
1.0
 40
1.0
 40
1.0
 40
1.0
 10
88.60313429052255
 20
85.27053325842603
 30
0.0
 10
88.64906255545357
 20
85.12987144508256
 30
0.0
 10
88.72757228244888
 20
84.9932429328151
 30
0.0
 10
88.82066508514119
 20
84.86861192651392
 30
0.0
  0
SPLINE
  5
EF
330
1F
100
AcDbEntity
  8
0
  6
Continuous
 62
     7
370
    15
100
AcDbSpline
210
0.0
220
0.0
230
1.0
 70
     8
 71
     3
 72
    26
 73
    22
 74
     0
 42
0.000000001
 43
0.00000001
 40
0.0
 40
0.0
 40
0.0
 40
0.0
 40
0.2500000000000008
 40
0.2500000000000008
 40
0.3750000000000012
 40
0.3750000000000012
 40
0.4375000000000003
 40
0.4375000000000003
 40
0.4687500000000004
 40
0.4687500000000004
 40
0.5000000000000004
 40
0.5000000000000004
 40
0.5312500000000004
 40
0.5312500000000004
 40
0.5625000000000004
 40
0.5625000000000004
 40
0.6250000000000004
 40
0.6250000000000004
 40
0.7500000000000006
 40
0.7500000000000006
 40
1.0
 40
1.0
 40
1.0
 40
1.0
 10
87.33132896258624
 20
86.46563934016339
 30
0.0
 10
87.34542132052891
 20
86.59666679441617
 30
0.0
 10
87.36515363086272
 20
86.72212906912436
 30
0.0
 10
87.43871854081999
 20
86.86693893104899
 30
0.0
 10
87.46917994054263
 20
86.90916403805358
 30
0.0
 10
87.55264924106304
 20
86.93120692784842
 30
0.0
 10
87.58754282939876
 20
86.93228211752177
 30
0.0
 10
87.66629414634112
 20
86.89717073572747
 30
0.0
 10
87.6981237578654
 20
86.87818135288676
 30
0.0
 10
87.77072717395018
 20
86.82022862611346
 30
0.0
 10
87.8106667931767
 20
86.78136244463597
 30
0.0
 10
87.88204259036839
 20
86.70248966423347
 30
0.0
 10
87.91475770872871
 20
86.66181295518419
 30
0.0
 10
87.97360861648143
 20
86.58385682075992
 30
0.0
 10
88.00057284289804
 20
86.54545640818665
 30
0.0
 10
88.0749081679387
 20
86.43467465975021
 30
0.0
 10
88.11677604304771
 20
86.36548898378065
 30
0.0
 10
88.23199138413837
 20
86.16423979931074
 30
0.0
 10
88.29400272968768
 20
86.03961103074026
 30
0.0
 10
88.45718044079048
 20
85.68597405780325
 30
0.0
 10
88.53708025900758
 20
85.47283308110018
 30
0.0
 10
88.60313429052043
 20
85.27053325842797
 30
0.0
  0
LINE
  5
F0
330
1F
100
AcDbEntity
  8
0
  6
Continuous
 62
     7
370
    15
100
AcDbLine
 10
147.1107249924
 20
136.2656485502
 30
0.0
 11
147.1107249924
 21
138.1897952466
 31
0.0
  0
SPLINE
  5
F1
330
1F
100
AcDbEntity
  8
0
  6
Continuous
 62
     7
370
    15
100
AcDbSpline
210
0.0
220
0.0
230
1.0
 70
     8
 71
     3
 72
     8
 73
     4
 74
     0
 42
0.000000001
 43
0.00000001
 40
0.0
 40
0.0
 40
0.0
 40
0.0
 40
1.0
 40
1.0
 40
1.0
 40
1.0
 10
147.1107249923594
 20
138.1897952466117
 30
0.0
 10
147.6405245820889
 20
139.4233796429611
 30
0.0
 10
148.1836903000491
 20
140.6514163143357
 30
0.0
 10
148.7369953911459
 20
141.8744093341996
 30
0.0
  0
LINE
  5
F2
330
1F
100
AcDbEntity
  8
0
  6
Continuous
 62
     7
370
    15
100
AcDbLine
 10
148.7369953911
 20
141.8744093342
 30
0.0
 11
152.1507249924
 21
141.8744093342
 31
0.0
  0
SPLINE
  5
F3
330
1F
100
AcDbEntity
  8
0
  6
Continuous
 62
     7
370
    15
100
AcDbSpline
210
0.0
220
0.0
230
1.0
 70
     8
 71
     3
 72
    12
 73
     8
 74
     0
 42
0.000000001
 43
0.00000001
 40
0.0
 40
0.0
 40
0.0
 40
0.0
 40
0.2500000000000019
 40
0.2500000000000019
 40
0.5000000000000008
 40
0.5000000000000008
 40
1.0
 40
1.0
 40
1.0
 40
1.0
 10
152.1507249923594
 20
141.8744093341997
 30
0.0
 10
152.3013010657762
 20
141.8744093341997
 30
0.0
 10
152.4503028360596
 20
141.8292983325269
 30
0.0
 10
152.7075558419907
 20
141.6735026931362
 30
0.0
 10
152.8168395944612
 20
141.5636251891554
 30
0.0
 10
153.0716113503069
 20
141.1917823729698
 30
0.0
 10
153.1507249923594
 20
140.8879395897389
 30
0.0
 10
153.1507249923594
 20
140.5878146645998
 30
0.0
  0
LINE
  5
F4
330
1F
100
AcDbEntity
  8
0
  6
Continuous
 62
     7
370
    15
100
AcDbLine
 10
153.1507249924
 20
140.5878146646
 30
0.0
 11
153.1507249924
 21
135.3799122095
 31
0.0
  0
SPLINE
  5
F5
330
1F
100
AcDbEntity
  8
0
  6
Continuous
 62
     7
370
    15
100
AcDbSpline
210
0.0
220
0.0
230
1.0
 70
     8
 71
     3
 72
     8
 73
     4
 74
     0
 42
0.000000001
 43
0.00000001
 40
0.0
 40
0.0
 40
0.0
 40
0.0
 40
1.0
 40
1.0
 40
1.0
 40
1.0
 10
148.7369953911459
 20
149.504262749315
 30
0.0
 10
148.1940684882093
 20
148.5391387971182
 30
0.0
 10
147.6519137745312
 20
147.5735832909715
 30
0.0
 10
147.1107249923594
 20
146.6074901440951
 30
0.0
  0
LINE
  5
F6
330
1F
100
AcDbEntity
  8
0
  6
Continuous
 62
     7
370
    15
100
AcDbLine
 10
148.7369953911
 20
141.8744093342
 30
0.0
 11
148.7369953911
 21
149.5042627493
 31
0.0
  0
LINE
  5
F7
330
1F
100
AcDbEntity
  8
0
  6
Continuous
 62
     7
370
    15
100
AcDbLine
 10
147.1107249924
 20
138.1897952466
 30
0.0
 11
147.1107249924
 21
146.6074901441
 31
0.0
  0
SPLINE
  5
F8
330
1F
100
AcDbEntity
  8
0
  6
Continuous
 62
     7
370
    15
100
AcDbSpline
210
0.0
220
0.0
230
1.0
 70
     8
 71
     3
 72
     8
 73
     4
 74
     0
 42
0.000000001
 43
0.00000001
 40
0.0
 40
0.0
 40
0.0
 40
0.0
 40
1.0
 40
1.0
 40
1.0
 40
1.0
 10
143.2907249923594
 20
146.6074901440951
 30
0.0
 10
142.7495362101876
 20
147.5735832909715
 30
0.0
 10
142.2073814965096
 20
148.5391387971182
 30
0.0
 10
141.664454593573
 20
149.504262749315
 30
0.0
  0
LINE
  5
F9
330
1F
100
AcDbEntity
  8
0
  6
Continuous
 62
     7
370
    15
100
AcDbLine
 10
143.2907249924
 20
138.1897952466
 30
0.0
 11
143.2907249924
 21
146.6074901441
 31
0.0
  0
SPLINE
  5
FA
330
1F
100
AcDbEntity
  8
0
  6
Continuous
 62
     7
370
    15
100
AcDbSpline
210
0.0
220
0.0
230
1.0
 70
     8
 71
     3
 72
     8
 73
     4
 74
     0
 42
0.000000001
 43
0.00000001
 40
0.0
 40
0.0
 40
0.0
 40
0.0
 40
1.0
 40
1.0
 40
1.0
 40
1.0
 10
141.664454593573
 20
141.8744093341996
 30
0.0
 10
142.217987592513
 20
140.6509125602479
 30
0.0
 10
142.7614004101811
 20
139.4222736362474
 30
0.0
 10
143.2907249923594
 20
138.1897952466117
 30
0.0
  0
SPLINE
  5
FB
330
1F
100
AcDbEntity
  8
0
  6
Continuous
 62
     7
370
    15
100
AcDbSpline
210
0.0
220
0.0
230
1.0
 70
     8
 71
     3
 72
    12
 73
     8
 74
     0
 42
0.000000001
 43
0.00000001
 40
0.0
 40
0.0
 40
0.0
 40
0.0
 40
0.5000000000000022
 40
0.5000000000000022
 40
0.7500000000000011
 40
0.7500000000000011
 40
1.0
 40
1.0
 40
1.0
 40
1.0
 10
153.1507249923594
 20
148.4772441315254
 30
0.0
 10
153.1507249923594
 20
148.7433858997784
 30
0.0
 10
153.0470082967916
 20
149.0066728180053
 30
0.0
 10
152.7706263116757
 20
149.2944342636004
 30
0.0
 10
152.6603287267134
 20
149.3714138330576
 30
0.0
 10
152.4158329463435
 20
149.4768549118944
 30
0.0
 10
152.2836199189425
 20
149.504262749315
 30
0.0
 10
152.1507249923594
 20
149.504262749315
 30
0.0
  0
LINE
  5
FC
330
1F
100
AcDbEntity
  8
0
  6
Continuous
 62
     7
370
    15
100
AcDbLine
 10
153.1507249924
 20
140.5878146646
 30
0.0
 11
153.1507249924
 21
148.4772441315
 31
0.0
  0
LINE
  5
FD
330
1F
100
AcDbEntity
  8
0
  6
Continuous
 62
     7
370
    15
100
AcDbLine
 10
143.2907249924
 20
138.1897952466
 30
0.0
 11
143.2907249924
 21
136.2656485502
 31
0.0
  0
LINE
  5
FE
330
1F
100
AcDbEntity
  8
0
  6
Continuous
 62
     7
370
    15
100
AcDbLine
 10
152.1507249924
 20
149.5042627493
 30
0.0
 11
148.7369953911
 21
149.5042627493
 31
0.0
  0
LINE
  5
FF
330
1F
100
AcDbEntity
  8
0
  6
Continuous
 62
     7
370
    15
100
AcDbLine
 10
88.9507249924
 20
84.7099122095
 30
0.0
 11
88.9507249924
 21
84.7127808358
 31
0.0
  0
LINE
  5
100
330
1F
100
AcDbEntity
  8
0
  6
Continuous
 62
     7
370
    15
100
AcDbLine
 10
88.9507249924
 20
136.3499122095
 30
0.0
 11
88.9507249924
 21
136.3470435832
 31
0.0
  0
CIRCLE
  5
101
330
1F
100
AcDbEntity
  8
0
  6
HIDDEN
 62
     7
370
     0
100
AcDbCircle
 10
184.6507249924
 20
110.5299122095
 30
0.0
 40
8.980667620239302
  0
CIRCLE
  5
102
330
1F
100
AcDbEntity
  8
0
  6
HIDDEN
 62
     7
370
     0
100
AcDbCircle
 10
184.6507249924
 20
110.5299122095
 30
0.0
 40
6.375755334184845
  0
CIRCLE
  5
103
330
1F
100
AcDbEntity
  8
0
  6
HIDDEN
 62
     7
370
     0
100
AcDbCircle
 10
184.6507249924
 20
110.5299122095
 30
0.0
 40
5.975755334184853
  0
CIRCLE
  5
104
330
1F
100
AcDbEntity
  8
0
  6
HIDDEN
 62
     7
370
     0
100
AcDbCircle
 10
184.6507249924
 20
110.5299122095
 30
0.0
 40
9.250000000000014
  0
LINE
  5
105
330
1F
100
AcDbEntity
  8
0
  6
HIDDEN
 62
     7
370
     0
100
AcDbLine
 10
141.6644545936
 20
141.8744093342
 30
0.0
 11
141.6644545936
 21
135.3799122095
 31
0.0
  0
LINE
  5
106
330
1F
100
AcDbEntity
  8
0
  6
HIDDEN
 62
     7
370
     0
100
AcDbLine
 10
208.4507249924
 20
137.8639026307
 30
0.0
 11
208.4507249924
 21
83.1959217883
 31
0.0
  0
SPLINE
  5
107
330
1F
100
AcDbEntity
  8
0
  6
HIDDEN
 62
     7
370
     0
100
AcDbSpline
210
0.0
220
0.0
230
1.0
 70
     8
 71
     3
 72
    22
 73
    18
 74
     0
 42
0.000000001
 43
0.00000001
 40
0.0
 40
0.0
 40
0.0
 40
0.0
 40
0.125
 40
0.125
 40
0.25
 40
0.25
 40
0.375
 40
0.375
 40
0.5
 40
0.5
 40
0.625
 40
0.625
 40
0.75
 40
0.75
 40
0.875
 40
0.875
 40
1.0
 40
1.0
 40
1.0
 40
1.0
 10
208.4507249923594
 20
83.19592178830953
 30
0.0
 10
208.5261153469362
 20
82.91203425387066
 30
0.0
 10
208.5927198611087
 20
82.63493693994025
 30
0.0
 10
208.7089318614374
 20
82.0944105339795
 30
0.0
 10
208.7587533071534
 20
81.8296429016643
 30
0.0
 10
208.8395026184403
 20
81.32081385264489
 30
0.0
 10
208.8697346201715
 20
81.08166685062693
 30
0.0
 10
208.9105062093379
 20
80.63347280797583
 30
0.0
 10
208.9210292716535
 20
80.42276030384366
 30
0.0
 10
208.921109073409
 20
80.04166788026203
 30
0.0
 10
208.9108674782443
 20
79.87303932406542
 30
0.0
 10
208.8703434615016
 20
79.57829435806886
 30
0.0
 10
208.8395781967779
 20
79.45129208696119
 30
0.0
 10
208.7593628279637
 20
79.24805510044557
 30
0.0
 10
208.7101439987706
 20
79.17109195004504
 30
0.0
 10
208.5937330000734
 20
79.0646464622285
 30
0.0
 10
208.526132227119
 20
79.03537246365715
 30
0.0
 10
208.4507249923594
 20
79.03061365225462
 30
0.0
  0
LINE
  5
108
330
1F
100
AcDbEntity
  8
0
  6
HIDDEN
 62
     7
370
     0
100
AcDbLine
 10
208.4507249924
 20
79.0306136523
 30
0.0
 11
208.4507249924
 21
72.1382923999
 31
0.0
  0
LINE
  5
109
330
1F
100
AcDbEntity
  8
0
  6
HIDDEN
 62
     7
370
     0
100
AcDbLine
 10
208.4507249924
 20
148.9215320191
 30
0.0
 11
208.4507249924
 21
142.0292107668
 31
0.0
  0
SPLINE
  5
10A
330
1F
100
AcDbEntity
  8
0
  6
HIDDEN
 62
     7
370
     0
100
AcDbSpline
210
0.0
220
0.0
230
1.0
 70
     8
 71
     3
 72
    22
 73
    18
 74
     0
 42
0.000000001
 43
0.00000001
 40
0.0
 40
0.0
 40
0.0
 40
0.0
 40
0.125
 40
0.125
 40
0.25
 40
0.25
 40
0.375
 40
0.375
 40
0.5
 40
0.5
 40
0.625
 40
0.625
 40
0.75
 40
0.75
 40
0.875
 40
0.875
 40
1.0
 40
1.0
 40
1.0
 40
1.0
 10
208.4507249923594
 20
142.0292107667551
 30
0.0
 10
208.5261153469362
 20
142.0244530206297
 30
0.0
 10
208.5927198611087
 20
141.9956920906488
 30
0.0
 10
208.7089318614375
 20
141.8902452867013
 30
0.0
 10
208.7587533071534
 20
141.8130373334846
 30
0.0
 10
208.8395026184403
 20
141.6089977769253
 30
0.0
 10
208.8697346201715
 20
141.4844344636725
 30
0.0
 10
208.9105062093379
 20
141.1909006621135
 30
0.0
 10
208.9210292716535
 20
141.0202044351681
 30
0.0
 10
208.921109073409
 20
140.6394152370548
 30
0.0
 10
208.9108674782443
 20
140.4318396486458
 30
0.0
 10
208.8703434615016
 20
139.9833695011339
 30
0.0
 10
208.8395781967779
 20
139.7397641363505
 30
0.0
 10
208.7593628279637
 20
139.2337473484842
 30
0.0
 10
208.7101439987706
 20
138.9714782775461
 30
0.0
 10
208.5937330000733
 20
138.4291813815385
 30
0.0
 10
208.526132227119
 20
138.1478537286214
 30
0.0
 10
208.4507249923594
 20
137.8639026307002
 30
0.0
  0
LINE
  5
10B
330
1F
100
AcDbEntity
  8
0
  6
HIDDEN
 62
     7
370
     0
100
AcDbLine
 10
111.8401394364
 20
81.0868553613
 30
0.0
 11
111.5540229374
 21
81.0647273382
 31
0.0
  0
SPLINE
  5
10C
330
1F
100
AcDbEntity
  8
0
  6
HIDDEN
 62
     7
370
     0
100
AcDbSpline
210
0.0
220
0.0
230
1.0
 70
     8
 71
     3
 72
    11
 73
     7
 74
     0
 42
0.000000001
 43
0.00000001
 40
0.0
 40
0.0
 40
0.0
 40
0.0
 40
0.2478129146756837
 40
0.5001032376723854
 40
0.751820744161994
 40
0.9999999999999999
 40
0.9999999999999999
 40
0.9999999999999999
 40
0.9999999999999999
 10
110.4618655296624
 20
140.097989660901
 30
0.0
 10
110.4785608227102
 20
140.0960118782766
 30
0.0
 10
110.5122530542796
 20
140.0920205790531
 30
0.0
 10
110.7983603043567
 20
140.0617374560556
 30
0.0
 10
111.2220476783744
 20
140.0184739033191
 30
0.0
 10
111.6350260457061
 20
139.9880561267652
 30
0.0
 10
111.8400537066262
 20
139.9729548864326
 30
0.0
  0
LINE
  5
10D
330
1F
100
AcDbEntity
  8
0
  6
HIDDEN
 62
     7
370
     0
100
AcDbLine
 10
203.6507249924
 20
123.4767687295
 30
0.0
 11
203.6507249924
 21
97.5830556895
 31
0.0
  0
LINE
  5
10E
330
1F
100
AcDbEntity
  8
0
  6
HIDDEN
 62
     7
370
     0
100
AcDbLine
 10
203.6507249924
 20
123.4767687295
 30
0.0
 11
203.6507249924
 21
136.8299122095
 31
0.0
  0
LINE
  5
10F
330
1F
100
AcDbEntity
  8
0
  6
HIDDEN
 62
     7
370
     0
100
AcDbLine
 10
208.4507249924
 20
123.4767687295
 30
0.0
 11
203.6507249924
 21
123.4767687295
 31
0.0
  0
LINE
  5
110
330
1F
100
AcDbEntity
  8
0
  6
HIDDEN
 62
     7
370
     0
100
AcDbLine
 10
203.6507249924
 20
141.8799727025
 30
0.0
 11
208.4507249924
 21
141.8799727025
 31
0.0
  0
LINE
  5
111
330
1F
100
AcDbEntity
  8
0
  6
HIDDEN
 62
     7
370
     0
100
AcDbLine
 10
208.4507249924
 20
141.8799727025
 30
0.0
 11
208.4507249924
 21
142.0292698453
 31
0.0
  0
LINE
  5
112
330
1F
100
AcDbEntity
  8
0
  6
HIDDEN
 62
     7
370
     0
100
AcDbLine
 10
203.6507249924
 20
136.8299122095
 30
0.0
 11
203.6507249924
 21
142.0299122095
 31
0.0
  0
LINE
  5
113
330
1F
100
AcDbEntity
  8
0
  6
HIDDEN
 62
     7
370
     0
100
AcDbLine
 10
203.6507249924
 20
84.2299122095
 30
0.0
 11
203.6507249924
 21
97.5830556895
 31
0.0
  0
LINE
  5
114
330
1F
100
AcDbEntity
  8
0
  6
HIDDEN
 62
     7
370
     0
100
AcDbLine
 10
203.6507249924
 20
97.5830556895
 30
0.0
 11
208.4507249924
 21
97.5830556895
 31
0.0
  0
LINE
  5
115
330
1F
100
AcDbEntity
  8
0
  6
HIDDEN
 62
     7
370
     0
100
AcDbLine
 10
203.6507249924
 20
79.1798517165
 30
0.0
 11
208.4507249924
 21
79.1798517165
 31
0.0
  0
LINE
  5
116
330
1F
100
AcDbEntity
  8
0
  6
HIDDEN
 62
     7
370
     0
100
AcDbLine
 10
208.4507249924
 20
79.1798517165
 30
0.0
 11
208.4507249924
 21
79.0305545737
 31
0.0
  0
LINE
  5
117
330
1F
100
AcDbEntity
  8
0
  6
HIDDEN
 62
     7
370
     0
100
AcDbLine
 10
203.6507249924
 20
79.0299122095
 30
0.0
 11
203.6507249924
 21
84.2299122095
 31
0.0
  0
LINE
  5
118
330
1F
100
AcDbEntity
  8
0
  6
HIDDEN
 62
     7
370
     0
100
AcDbLine
 10
202.1507249924
 20
110.5299122095
 30
0.0
 11
202.1507249924
 21
85.5299122095
 31
0.0
  0
LINE
  5
119
330
1F
100
AcDbEntity
  8
0
  6
HIDDEN
 62
     7
370
     0
100
AcDbLine
 10
202.1507249924
 20
135.5299122095
 30
0.0
 11
202.1507249924
 21
110.5299122095
 31
0.0
  0
LINE
  5
11A
330
1F
100
AcDbEntity
  8
0
  6
HIDDEN
 62
     7
370
     0
100
AcDbLine
 10
158.2007249924
 20
110.5299122095
 30
0.0
 11
158.2007249924
 21
85.8299122095
 31
0.0
  0
LINE
  5
11B
330
1F
100
AcDbEntity
  8
0
  6
HIDDEN
 62
     7
370
     0
100
AcDbLine
 10
158.2007249924
 20
135.2299122095
 30
0.0
 11
158.2007249924
 21
110.5299122095
 31
0.0
  0
LINE
  5
11C
330
1F
100
AcDbEntity
  8
0
  6
HIDDEN
 62
     7
370
     0
100
AcDbLine
 10
160.7007249924
 20
110.5299122095
 30
0.0
 11
160.7007249924
 21
85.5299122095
 31
0.0
  0
LINE
  5
11D
330
1F
100
AcDbEntity
  8
0
  6
HIDDEN
 62
     7
370
     0
100
AcDbLine
 10
160.7007249924
 20
135.5299122095
 30
0.0
 11
160.7007249924
 21
110.5299122095
 31
0.0
  0
SPLINE
  5
11E
330
1F
100
AcDbEntity
  8
0
  6
HIDDEN
 62
     7
370
     0
100
AcDbSpline
210
0.0
220
0.0
230
1.0
 70
     8
 71
     3
 72
    10
 73
     6
 74
     0
 42
0.000000001
 43
0.00000001
 40
0.0
 40
0.0
 40
0.0
 40
0.0
 40
0.4761969360559412
 40
0.9662036812674749
 40
1.0
 40
1.0
 40
1.0
 40
1.0
 10
119.2007249923594
 20
135.4886281219872
 30
0.0
 10
119.2664642773563
 20
135.4988886338719
 30
0.0
 10
119.3998493001452
 20
135.5197072145976
 30
0.0
 10
119.468727011211
 20
135.5294242920535
 30
0.0
 10
119.4480160359887
 20
135.5263893497874
 30
0.0
 10
119.4466797423164
 20
135.5261935321544
 30
0.0
  0
SPLINE
  5
11F
330
1F
100
AcDbEntity
  8
0
  6
HIDDEN
 62
     7
370
     0
100
AcDbSpline
210
0.0
220
0.0
230
1.0
 70
     8
 71
     3
 72
     9
 73
     5
 74
     0
 42
0.000000001
 43
0.00000001
 40
0.0
 40
0.0
 40
0.0
 40
0.0
 40
0.4750486950696127
 40
1.0
 40
1.0
 40
1.0
 40
1.0
 10
119.446765909412
 20
85.53361824137937
 30
0.0
 10
119.4387557527229
 20
85.53468843301303
 30
0.0
 10
119.4218939935555
 20
85.5369412370829
 30
0.0
 10
119.27686050922
 20
85.55940428874156
 30
0.0
 10
119.2007249923594
 20
85.57119629702251
 30
0.0
  0
SPLINE
  5
120
330
1F
100
AcDbEntity
  8
0
  6
HIDDEN
 62
     7
370
     0
100
AcDbSpline
210
0.0
220
0.0
230
1.0
 70
     8
 71
     3
 72
    24
 73
    20
 74
     0
 42
0.000000001
 43
0.00000001
 40
0.0
 40
0.0
 40
0.0
 40
0.0
 40
0.0595370949379792
 40
0.1208126116616081
 40
0.1803454131236863
 40
0.2415919018467099
 40
0.301307676231502
 40
0.3627887741767182
 40
0.4218966067046792
 40
0.4827545513882366
 40
0.5412807091099368
 40
0.6014867151310413
 40
0.6603627197932919
 40
0.7209039658167989
 40
0.7805131136233134
 40
0.8418488855574523
 40
0.9014407220638349
 40
0.9628030331916677
 40
1.0
 40
1.0
 40
1.0
 40
1.0
 10
119.2007249923594
 20
85.57119629702251
 30
0.0
 10
119.1102759962737
 20
85.58548556673956
 30
0.0
 10
118.9267369866753
 20
85.61448133811628
 30
0.0
 10
118.517630183889
 20
85.6728871084821
 30
0.0
 10
118.0187290530434
 20
85.7350819242129
 30
0.0
 10
117.4419193881359
 20
85.79460475422518
 30
0.0
 10
116.7948952231395
 20
85.84530871148041
 30
0.0
 10
116.1087680578495
 20
85.88043985587603
 30
0.0
 10
115.3921505685434
 20
85.89654595347436
 30
0.0
 10
114.6813138800922
 20
85.89173152084678
 30
0.0
 10
113.9815203985924
 20
85.86678083988272
 30
0.0
 10
113.3234421292992
 20
85.82511405290427
 30
0.0
 10
112.7111498470768
 20
85.77057116968858
 30
0.0
 10
112.1700255981686
 20
85.70976251988674
 30
0.0
 10
111.7075846907385
 20
85.64853015048881
 30
0.0
 10
111.3446377282537
 20
85.59445308317979
 30
0.0
 10
111.0933808384864
 20
85.55402190691694
 30
0.0
 10
110.9612712253642
 20
85.53171065290115
 30
0.0
 10
110.9633697413546
 20
85.53206003588416
 30
0.0
 10
110.9641617360939
 20
85.53219189548678
 30
0.0
  0
SPLINE
  5
121
330
1F
100
AcDbEntity
  8
0
  6
HIDDEN
 62
     7
370
     0
100
AcDbSpline
210
0.0
220
0.0
230
1.0
 70
     8
 71
     3
 72
    24
 73
    20
 74
     0
 42
0.000000001
 43
0.00000001
 40
0.0
 40
0.0
 40
0.0
 40
0.0
 40
0.0216634350240443
 40
0.0822522493359183
 40
0.1408073464403032
 40
0.2010298253365713
 40
0.2601569393004936
 40
0.3209635727104779
 40
0.3806800987260039
 40
0.4421439624408165
 40
0.501542643069721
 40
0.5627083768109247
 40
0.6213598671252839
 40
0.6817154354669668
 40
0.7403628543158376
 40
0.8006701258503865
 40
0.8600531164425621
 40
0.9211362185472697
 40
1.0
 40
1.0
 40
1.0
 40
1.0
 10
110.9641617360939
 20
135.527632523523
 30
0.0
 10
110.9606352275111
 20
135.52823067885
 30
0.0
 10
110.9472456951995
 20
135.5305017693325
 30
0.0
 10
111.0467222010116
 20
135.5135987570808
 30
0.0
 10
111.2600268030314
 20
135.4787382903412
 30
0.0
 10
111.587268705387
 20
135.4286592616106
 30
0.0
 10
112.0169024296808
 20
135.3694139723877
 30
0.0
 10
112.5348414254434
 20
135.3077386946902
 30
0.0
 10
113.1352901880148
 20
135.2497726202456
 30
0.0
 10
113.7908633024354
 20
135.2031892863422
 30
0.0
 10
114.4925805880433
 20
135.172773816053
 30
0.0
 10
115.2043644711412
 20
135.1625354090313
 30
0.0
 10
115.9193585626904
 20
135.1731634452567
 30
0.0
 10
116.6043375465128
 20
135.2029396753238
 30
0.0
 10
117.2553689392487
 20
135.2489437604663
 30
0.0
 10
117.8464496435222
 20
135.3056106255745
 30
0.0
 10
118.368497915989
 20
135.3672895369889
 30
0.0
 10
118.8560189644488
 20
135.4343425841768
 30
0.0
 10
119.0764859802924
 20
135.4690625181364
 30
0.0
 10
119.2007249923594
 20
135.4886281219872
 30
0.0
  0
LINE
  5
122
330
1F
100
AcDbEntity
  8
0
  6
HIDDEN
 62
     7
370
     0
100
AcDbLine
 10
103.196024454
 20
89.5299122095
 30
0.0
 11
103.196024454
 21
131.5299122095
 31
0.0
  0
LINE
  5
123
330
1F
100
AcDbEntity
  8
0
  6
HIDDEN
 62
     7
370
     0
100
AcDbLine
 10
136.7291095628
 20
89.5299122095
 30
0.0
 11
136.7291095628
 21
131.5299122095
 31
0.0
  0
LINE
  5
124
330
1F
100
AcDbEntity
  8
0
  6
HIDDEN
 62
     7
370
     0
100
AcDbLine
 10
139.6507249924
 20
91.3049122095
 30
0.0
 11
139.6507249924
 21
129.7549121768
 31
0.0
  0
SPLINE
  5
125
330
1F
100
AcDbEntity
  8
0
  6
HIDDEN
 62
     7
370
     0
100
AcDbSpline
210
0.0
220
0.0
230
1.0
 70
     8
 71
     3
 72
    18
 73
    14
 74
     0
 42
0.000000001
 43
0.00000001
 40
0.0
 40
0.0
 40
0.0
 40
0.0
 40
0.2499999999999984
 40
0.2499999999999984
 40
0.3749999999999984
 40
0.3749999999999984
 40
0.4999999999999986
 40
0.4999999999999986
 40
0.6249999999999987
 40
0.6249999999999987
 40
0.7499999999999987
 40
0.7499999999999987
 40
1.0
 40
1.0
 40
1.0
 40
1.0
 10
95.40072499235943
 20
130.6183566490328
 30
0.0
 10
95.40072499235944
 20
130.5430204455429
 30
0.0
 10
95.35336379343298
 20
130.464725010583
 30
0.0
 10
95.21507752892977
 20
130.3474834330626
 30
0.0
 10
95.15864435573266
 20
130.3092943020903
 30
0.0
 10
95.02529150315299
 20
130.2351891713248
 30
0.0
 10
94.94732912599363
 20
130.1988970755095
 30
0.0
 10
94.77473701937706
 20
130.1317747554066
 30
0.0
 10
94.68038396406703
 20
130.1008873531866
 30
0.0
 10
94.4750210668138
 20
130.0453225859459
 30
0.0
 10
94.36279691521096
 20
130.0205236615662
 30
0.0
 10
94.01498256182997
 20
129.9605127283268
 30
0.0
 10
93.75967473066916
 20
129.9381475749367
 30
0.0
 10
93.50072499235942
 20
129.9381475749367
 30
0.0
  0
LINE
  5
126
330
1F
100
AcDbEntity
  8
0
  6
HIDDEN
 62
     7
370
     0
100
AcDbLine
 10
93.5007249924
 20
129.9381475749
 30
0.0
 11
88.9507249924
 21
129.9381475749
 31
0.0
  0
LINE
  5
127
330
1F
100
AcDbEntity
  8
0
  6
HIDDEN
 62
     7
370
     0
100
AcDbLine
 10
88.9507249924
 20
91.1216768441
 30
0.0
 11
97.5007249924
 21
91.1216768441
 31
0.0
  0
SPLINE
  5
128
330
1F
100
AcDbEntity
  8
0
  6
HIDDEN
 62
     7
370
     0
100
AcDbSpline
210
0.0
220
0.0
230
1.0
 70
     8
 71
     3
 72
    18
 73
    14
 74
     0
 42
0.000000001
 43
0.00000001
 40
0.0
 40
0.0
 40
0.0
 40
0.0
 40
0.1249999999999988
 40
0.1249999999999988
 40
0.2499999999999976
 40
0.2499999999999976
 40
0.4999999999999982
 40
0.4999999999999982
 40
0.7499999999999989
 40
0.7499999999999989
 40
0.8749999999999994
 40
0.8749999999999994
 40
1.0
 40
1.0
 40
1.0
 40
1.0
 10
97.50072499235942
 20
91.12167684407301
 30
0.0
 10
97.63003906457546
 20
91.121676844073
 30
0.0
 10
97.75689494197837
 20
91.11626463077317
 30
0.0
 10
98.0059493500465
 20
91.09533509633282
 30
0.0
 10
98.12941778017712
 20
91.07952977028874
 30
0.0
 10
98.47806328783516
 20
91.01948758676659
 30
0.0
 10
98.68838619728344
 20
90.96157294499896
 30
0.0
 10
99.03237152444768
 20
90.82791269281034
 30
0.0
 10
99.16900065538799
 20
90.75126532108771
 30
0.0
 10
99.30650854455914
 20
90.63489378831623
 30
0.0
 10
99.34190408771838
 20
90.59518269545794
 30
0.0
 10
99.38879566710773
 20
90.51739248012176
 30
0.0
 10
99.40072499235941
 20
90.47909728241407
 30
0.0
 10
99.40072499235943
 20
90.44146776997695
 30
0.0
  0
LINE
  5
129
330
1F
100
AcDbEntity
  8
0
  6
HIDDEN
 62
     7
370
     0
100
AcDbLine
 10
88.9507249924
 20
91.1216768441
 30
0.0
 11
88.9507249924
 21
129.9381475749
 31
0.0
  0
LINE
  5
12A
330
1F
100
AcDbEntity
  8
0
  6
HIDDEN
 62
     7
370
     0
100
AcDbLine
 10
203.6507249924
 20
142.0299122095
 30
0.0
 11
203.6507249924
 21
148.0549122095
 31
0.0
  0
LINE
  5
12B
330
1F
100
AcDbEntity
  8
0
  6
HIDDEN
 62
     7
370
     0
100
AcDbLine
 10
203.6507249924
 20
73.0049122095
 30
0.0
 11
203.6507249924
 21
79.0299122095
 31
0.0
  0
LINE
  5
12C
330
1F
100
AcDbEntity
  8
0
  6
HIDDEN
 62
     7
370
     0
100
AcDbLine
 10
88.9507249924
 20
88.5899122095
 30
0.0
 11
88.9507249924
 21
84.7127808358
 31
0.0
  0
LINE
  5
12D
330
1F
100
AcDbEntity
  8
0
  6
HIDDEN
 62
     7
370
     0
100
AcDbLine
 10
99.4007249924
 20
88.5899122095
 30
0.0
 11
99.4007249924
 21
83.2133452852
 31
0.0
  0
LINE
  5
12E
330
1F
100
AcDbEntity
  8
0
  6
HIDDEN
 62
     7
370
     0
100
AcDbLine
 10
88.9507249924
 20
132.4699122095
 30
0.0
 11
88.9507249924
 21
136.3470435832
 31
0.0
  0
LINE
  5
12F
330
1F
100
AcDbEntity
  8
0
  6
HIDDEN
 62
     7
370
     0
100
AcDbLine
 10
95.4007249924
 20
132.4699122095
 30
0.0
 11
95.4007249924
 21
137.7305190258
 31
0.0
  0
LINE
  5
130
330
1F
100
AcDbEntity
  8
0
  6
HIDDEN
 62
     7
370
     0
100
AcDbLine
 10
149.5007249924
 20
99.5299122095
 30
0.0
 11
149.5007249924
 21
121.5299122095
 31
0.0
  0
LINE
  5
131
330
1F
100
AcDbEntity
  8
0
  6
HIDDEN
 62
     7
370
     0
100
AcDbLine
 10
153.5007249924
 20
99.5299122095
 30
0.0
 11
153.5007249924
 21
121.5299122095
 31
0.0
  0
LINE
  5
132
330
1F
100
AcDbEntity
  8
0
  6
HIDDEN
 62
     7
370
     0
100
AcDbLine
 10
131.1507249924
 20
70.5424141632
 30
0.0
 11
131.1507249924
 21
76.6299122095
 31
0.0
  0
LINE
  5
133
330
1F
100
AcDbEntity
  8
0
  6
HIDDEN
 62
     7
370
     0
100
AcDbLine
 10
140.1507249924
 20
76.6299122095
 30
0.0
 11
131.1507249924
 21
76.6299122095
 31
0.0
  0
LINE
  5
134
330
1F
100
AcDbEntity
  8
0
  6
HIDDEN
 62
     7
370
     0
100
AcDbLine
 10
153.1507249924
 20
76.6299122095
 30
0.0
 11
146.9848030355
 21
76.6299122095
 31
0.0
  0
LINE
  5
135
330
1F
100
AcDbEntity
  8
0
  6
HIDDEN
 62
     7
370
     0
100
AcDbLine
 10
143.4166469492
 20
76.6299122095
 30
0.0
 11
140.1507249924
 21
76.6299122095
 31
0.0
  0
LINE
  5
136
330
1F
100
AcDbEntity
  8
0
  6
HIDDEN
 62
     7
370
     0
100
AcDbLine
 10
140.4007249924
 20
101.2799122095
 30
0.0
 11
140.4007249924
 21
119.7799122095
 31
0.0
  0
ELLIPSE
  5
137
330
1F
100
AcDbEntity
  8
0
  6
HIDDEN
 62
     7
370
     0
100
AcDbEllipse
 10
82.7941915129
 20
110.5299122095
 30
0.0
 11
24.55447626164853
 21
-1.421085471520200E-14
 31
0.0
210
0.0
220
0.0
230
1.0
 40
0.8164965809
 41
4.896967322800383
 42
4.965822814181952
  0
ELLIPSE
  5
138
330
1F
100
AcDbEntity
  8
0
  6
HIDDEN
 62
     7
370
     0
100
AcDbEllipse
 10
82.7941915129
 20
110.5299122095
 30
0.0
 11
24.55447626164853
 21
0.0
 31
0.0
210
0.0
220
0.0
230
1.0
 40
0.8164965809
 41
1.317362492997646
 42
1.386217984379215
  0
LINE
  5
139
330
1F
100
AcDbEntity
  8
0
  6
HIDDEN
 62
     7
370
     0
100
AcDbLine
 10
143.7046045193
 20
144.4299122095
 30
0.0
 11
140.1507249924
 21
144.4299122095
 31
0.0
  0
LINE
  5
13A
330
1F
100
AcDbEntity
  8
0
  6
HIDDEN
 62
     7
370
     0
100
AcDbLine
 10
153.1507249924
 20
144.4299122095
 30
0.0
 11
146.6968454654
 21
144.4299122095
 31
0.0
  0
LINE
  5
13B
330
1F
100
AcDbEntity
  8
0
  6
HIDDEN
 62
     7
370
     0
100
AcDbLine
 10
140.1507249924
 20
144.4299122095
 30
0.0
 11
131.1507249924
 21
144.4299122095
 31
0.0
  0
LINE
  5
13C
330
1F
100
AcDbEntity
  8
0
  6
HIDDEN
 62
     7
370
     0
100
AcDbLine
 10
99.4007249924
 20
88.5899122095
 30
0.0
 11
99.4007249924
 21
90.44146777
 31
0.0
  0
LINE
  5
13D
330
1F
100
AcDbEntity
  8
0
  6
HIDDEN
 62
     7
370
     0
100
AcDbLine
 10
88.9507249924
 20
88.5899122095
 30
0.0
 11
88.9507249924
 21
91.1216768441
 31
0.0
  0
LINE
  5
13E
330
1F
100
AcDbEntity
  8
0
  6
HIDDEN
 62
     7
370
     0
100
AcDbLine
 10
88.9507249924
 20
132.4699122095
 30
0.0
 11
88.9507249924
 21
129.9381475749
 31
0.0
  0
LINE
  5
13F
330
1F
100
AcDbEntity
  8
0
  6
HIDDEN
 62
     7
370
     0
100
AcDbLine
 10
95.4007249924
 20
132.4699122095
 30
0.0
 11
95.4007249924
 21
130.618356649
 31
0.0
  0
LWPOLYLINE
  5
140
330
1F
100
AcDbEntity
  8
0
  6
HIDDEN
 62
     7
370
     0
100
AcDbPolyline
 90
       17
 70
   128
 43
0.0
 10
119.4497602857
 20
80.9718464785
 10
119.1876321585
 20
81.0352418661
 10
118.8044717023
 20
81.1154619557
 10
118.2165569983
 20
81.22795314
 10
117.3683249964
 20
81.3638562657
 10
116.5369448392
 20
81.4692425023
 10
115.2181613893
 20
81.5884643088
 10
113.7151085181
 20
81.6231551115
 10
112.9374066881
 20
81.6063930202
 10
112.2055996473
 20
81.5668926004
 10
111.540816672
 20
81.5132678096
 10
111.1624611031
 20
81.474924363
 10
110.9507341117
 20
81.4440815023
 10
111.1592121817
 20
81.4744220075
 10
111.5347011365
 20
81.5125607034
 10
112.193489934
 20
81.5660116949
 10
112.193489934
 20
81.5660116949
  0
SPLINE
  5
141
330
1F
100
AcDbEntity
  8
0
  6
HIDDEN
 62
     7
370
     0
100
AcDbSpline
210
0.0
220
0.0
230
1.0
 70
     8
 71
     3
 72
    31
 73
    27
 74
     0
 42
0.000000001
 43
0.00000001
 40
0.0
 40
0.0
 40
0.0
 40
0.0
 40
0.0003651186743589
 40
0.0369205561782748
 40
0.0838847643222337
 40
0.1412487221442097
 40
0.1738865741970028
 40
0.2091332976785008
 40
0.2676682867091689
 40
0.3219499922757909
 40
0.3558185085018249
 40
0.3878163043110147
 40
0.4179571920052044
 40
0.4547674075589593
 40
0.5018154294639788
 40
0.5591019927376868
 40
0.5916406843884412
 40
0.6267492709684486
 40
0.6864760695474034
 40
0.7411972889640925
 40
0.7909538215677264
 40
0.8358438357427083
 40
0.8837272419544289
 40
0.9358900950117041
 40
0.9731147830964711
 40
1.0
 40
1.0
 40
1.0
 40
1.0
 10
110.9511256094011
 20
139.6156113530881
 30
0.0
 10
110.9509922370429
 20
139.6156365370726
 30
0.0
 10
110.9375057133659
 20
139.6181831247428
 30
0.0
 10
110.9903418205453
 20
139.606863121965
 30
0.0
 10
111.1497653039179
 20
139.5849094353163
 30
0.0
 10
111.4564954919822
 20
139.5530428488864
 30
0.0
 10
111.8304044153947
 20
139.5215462499407
 30
0.0
 10
112.2766861915214
 20
139.4858875021486
 30
0.0
 10
112.8993173995868
 20
139.4504613063576
 30
0.0
 10
113.6058328591177
 20
139.435011455073
 30
0.0
 10
114.2210603984781
 20
139.4362603903256
 30
0.0
 10
114.7271618500055
 20
139.4476747685946
 30
0.0
 10
115.2550610676654
 20
139.4703432953998
 30
0.0
 10
115.8618765127038
 20
139.5178006365704
 30
0.0
 10
116.594903737042
 20
139.5940416269028
 30
0.0
 10
117.2608373408487
 20
139.6786576306672
 30
0.0
 10
117.8098786090849
 20
139.7602665551468
 30
0.0
 10
118.3172992533788
 20
139.8483408121442
 30
0.0
 10
118.8151015673252
 20
139.9451845914998
 30
0.0
 10
119.2030121044949
 20
140.0263440983905
 30
0.0
 10
119.4094675006628
 20
140.0761269511547
 30
0.0
 10
119.4722909729238
 20
140.0942461378273
 30
0.0
 10
119.401007905108
 20
140.0746204454891
 30
0.0
 10
119.1948540425413
 20
140.0271331926784
 30
0.0
 10
118.9305244160673
 20
139.9710634472754
 30
0.0
 10
118.7383927124354
 20
139.9323881948239
 30
0.0
 10
118.6578201000266
 20
139.9161692883827
 30
0.0
  0
LINE
  5
142
330
1F
100
AcDbEntity
  8
0
  6
HIDDEN
 62
     7
370
     0
100
AcDbLine
 10
143.2907249924
 20
136.2656485502
 30
0.0
 11
143.2907249924
 21
135.3799122095
 31
0.0
  0
LINE
  5
143
330
1F
100
AcDbEntity
  8
0
  6
HIDDEN
 62
     7
370
     0
100
AcDbLine
 10
147.1107249924
 20
136.2656485502
 30
0.0
 11
147.1107249924
 21
135.3799122095
 31
0.0
  0
LINE
  5
144
330
1F
100
AcDbEntity
  8
0
  6
HIDDEN
 62
     7
370
     0
100
AcDbLine
 10
148.7369953911
 20
141.8744093342
 30
0.0
 11
148.7369953911
 21
135.3799122095
 31
0.0
  0
CIRCLE
  5
145
330
1F
100
AcDbEntity
  8
0
  6
HIDDEN
 62
     7
370
     0
100
AcDbCircle
 10
134.2007249924
 20
110.5299122095
 30
0.0
 40
5.000000000000014
  0
LINE
  5
146
330
1F
100
AcDbEntity
  8
0
  6
HIDDEN
 62
     7
370
     0
100
AcDbLine
 10
209.2007249924
 20
150.5299122095
 30
0.0
 11
208.4507249924
 21
148.9215320191
 31
0.0
  0
LINE
  5
147
330
1F
100
AcDbEntity
  8
0
  6
HIDDEN
 62
     7
370
     0
100
AcDbLine
 10
208.4507249924
 20
72.1382923999
 30
0.0
 11
209.2007249924
 21
70.5299122095
 31
0.0
  0
LINE
  5
148
330
1F
100
AcDbEntity
  8
0
  6
HIDDEN
 62
     7
370
     0
100
AcDbLine
 10
127.2007249924
 20
78.7259296537
 30
0.0
 11
127.2903266163
 21
79.3634783357
 31
0.0
  0
LINE
  5
149
330
1F
100
AcDbEntity
  8
0
  6
HIDDEN
 62
     7
370
     0
100
AcDbLine
 10
127.2903266163
 20
141.6963460834
 30
0.0
 11
127.2007249924
 21
142.3338947653
 31
0.0
  0
ARC
  5
14A
330
1F
100
AcDbEntity
  8
0
  6
HIDDEN
 62
     7
370
     0
100
AcDbCircle
 10
126.3037880739
 20
79.5021272859
 30
0.0
 40
0.996233821438679
100
AcDbArc
 50
352.0
 51
0.0
  0
ARC
  5
14B
330
1F
100
AcDbEntity
  8
0
  6
HIDDEN
 62
     7
370
     0
100
AcDbCircle
 10
126.3037880739
 20
79.5021272859
 30
0.0
 40
0.996233821438679
100
AcDbArc
 50
0.0
 51
25.7988228126
  0
ARC
  5
14C
330
1F
100
AcDbEntity
  8
0
  6
HIDDEN
 62
     7
370
     0
100
AcDbCircle
 10
126.3037880739
 20
141.5576971331
 30
0.0
 40
0.9962338214386799
100
AcDbArc
 50
348.75
 51
8.0
  0
LWPOLYLINE
  5
14D
330
1F
100
AcDbEntity
  8
0
  6
HIDDEN
 62
     7
370
     0
100
AcDbPolyline
 90
        3
 70
   128
 43
0.0
 10
127.2808795418
 20
141.3633415561
 10
127.2241881111
 20
141.1764549549
 10
127.2007249924
 20
141.12412362
  0
LINE
  5
14E
330
1F
100
AcDbEntity
  8
0
  6
HIDDEN
 62
     7
370
     0
100
AcDbLine
 10
127.3000218953
 20
79.5021272859
 30
0.0
 11
127.3000218953
 21
141.5576971331
 31
0.0
  0
LINE
  5
14F
330
1F
100
AcDbEntity
  8
0
  6
HIDDEN
 62
     7
370
     0
100
AcDbLine
 10
208.4507249924
 20
142.0299122095
 30
0.0
 11
203.6507249924
 21
142.0299122095
 31
0.0
  0
LINE
  5
150
330
1F
100
AcDbEntity
  8
0
  6
HIDDEN
 62
     7
370
     0
100
AcDbLine
 10
203.6507249924
 20
79.0299122095
 30
0.0
 11
208.470946859
 21
79.0299122095
 31
0.0
  0
LINE
  5
151
330
1F
100
AcDbEntity
  8
0
  6
HIDDEN
 62
     7
370
     0
100
AcDbLine
 10
203.6507249924
 20
136.3959376133
 30
0.0
 11
202.1507249924
 21
135.5299122095
 31
0.0
  0
LINE
  5
152
330
1F
100
AcDbEntity
  8
0
  6
HIDDEN
 62
     7
370
     0
100
AcDbLine
 10
202.1507249924
 20
85.5299122095
 30
0.0
 11
203.6507249924
 21
84.6638868057
 31
0.0
  0
LINE
  5
153
330
1F
100
AcDbEntity
  8
0
  6
HIDDEN
 62
     7
370
     0
100
AcDbLine
 10
159.5021182515
 20
135.8299122095
 30
0.0
 11
158.8007249924
 21
135.8299122095
 31
0.0
  0
LINE
  5
154
330
1F
100
AcDbEntity
  8
0
  6
HIDDEN
 62
     7
370
     0
100
AcDbLine
 10
158.8007249924
 20
85.2299122095
 30
0.0
 11
159.5021182515
 21
85.2299122095
 31
0.0
  0
ARC
  5
155
330
1F
100
AcDbEntity
  8
0
  6
HIDDEN
 62
     7
370
     0
100
AcDbCircle
 10
158.8007249924
 20
135.2299122095
 30
0.0
 40
0.5999999999999943
100
AcDbArc
 50
90.0
 51
180.0
  0
ARC
  5
156
330
1F
100
AcDbEntity
  8
0
  6
HIDDEN
 62
     7
370
     0
100
AcDbCircle
 10
158.8007249924
 20
85.8299122095
 30
0.0
 40
0.6000000000000085
100
AcDbArc
 50
180.0
 51
270.0
  0
ARC
  5
157
330
1F
100
AcDbEntity
  8
0
  6
HIDDEN
 62
     7
370
     0
100
AcDbCircle
 10
159.5021182515
 20
135.2299122095
 30
0.0
 40
0.6000000000000008
100
AcDbArc
 50
75.0
 51
90.0
  0
ARC
  5
158
330
1F
100
AcDbEntity
  8
0
  6
HIDDEN
 62
     7
370
     0
100
AcDbCircle
 10
159.5021182515
 20
85.8299122095
 30
0.0
 40
0.5999999999999943
100
AcDbArc
 50
270.0
 51
285.0
  0
LINE
  5
159
330
1F
100
AcDbEntity
  8
0
  6
HIDDEN
 62
     7
370
     0
100
AcDbLine
 10
159.6574096786
 20
85.2503567137
 30
0.0
 11
160.7007249924
 21
85.5299122095
 31
0.0
  0
LINE
  5
15A
330
1F
100
AcDbEntity
  8
0
  6
HIDDEN
 62
     7
370
     0
100
AcDbLine
 10
160.7007249924
 20
135.5299122095
 30
0.0
 11
159.6574096786
 21
135.8094677053
 31
0.0
  0
LINE
  5
15B
330
1F
100
AcDbEntity
  8
0
  6
HIDDEN
 62
     7
370
     0
100
AcDbLine
 10
202.1507249924
 20
135.5299122095
 30
0.0
 11
160.7007249924
 21
135.5299122095
 31
0.0
  0
LINE
  5
15C
330
1F
100
AcDbEntity
  8
0
  6
HIDDEN
 62
     7
370
     0
100
AcDbLine
 10
160.7007249924
 20
85.5299122095
 30
0.0
 11
202.1507249924
 21
85.5299122095
 31
0.0
  0
ARC
  5
15D
330
1F
100
AcDbEntity
  8
0
  6
HIDDEN
 62
     7
370
     0
100
AcDbCircle
 10
119.2007249924
 20
95.5299122095
 30
0.0
 40
10.0
100
AcDbArc
 50
271.4147348929
 51
323.1301023542
  0
ARC
  5
15E
330
1F
100
AcDbEntity
  8
0
  6
HIDDEN
 62
     7
370
     0
100
AcDbCircle
 10
119.2007249924
 20
125.5299122095
 30
0.0
 40
9.99999999999999
100
AcDbArc
 50
36.8698976458
 51
88.5989743631
  0
LINE
  5
15F
330
1F
100
AcDbEntity
  8
0
  6
HIDDEN
 62
     7
370
     0
100
AcDbLine
 10
105.9673057461
 20
85.5299122095
 30
0.0
 11
110.9641617361
 21
85.5299122095
 31
0.0
  0
LINE
  5
160
330
1F
100
AcDbEntity
  8
0
  6
HIDDEN
 62
     7
370
     0
100
AcDbLine
 10
110.9641617361
 20
135.5299122095
 30
0.0
 11
105.9673057461
 21
135.5299122095
 31
0.0
  0
ARC
  5
161
330
1F
100
AcDbEntity
  8
0
  6
HIDDEN
 62
     7
370
     0
100
AcDbCircle
 10
105.9673057461
 20
86.3299122095
 30
0.0
 40
0.8000000000000119
100
AcDbArc
 50
210.0
 51
270.0
  0
ARC
  5
162
330
1F
100
AcDbEntity
  8
0
  6
HIDDEN
 62
     7
370
     0
100
AcDbCircle
 10
105.9673057461
 20
134.7299122095
 30
0.0
 40
0.8000000000000119
100
AcDbArc
 50
90.0
 51
150.0
  0
LINE
  5
163
330
1F
100
AcDbEntity
  8
0
  6
HIDDEN
 62
     7
370
     0
100
AcDbLine
 10
105.2744854231
 20
135.1299122095
 30
0.0
 11
103.196024454
 21
131.5299122095
 31
0.0
  0
LINE
  5
164
330
1F
100
AcDbEntity
  8
0
  6
HIDDEN
 62
     7
370
     0
100
AcDbLine
 10
103.196024454
 20
89.5299122095
 30
0.0
 11
105.2744854231
 21
85.9299122095
 31
0.0
  0
ARC
  5
165
330
1F
100
AcDbEntity
  8
0
  6
HIDDEN
 62
     7
370
     0
100
AcDbCircle
 10
137.6507249924
 20
91.3049122095
 30
0.0
 40
2.000000000000001
100
AcDbArc
 50
242.5607598493
 51
0.0
  0
ARC
  5
166
330
1F
100
AcDbEntity
  8
0
  6
HIDDEN
 62
     7
370
     0
100
AcDbCircle
 10
137.6507249924
 20
129.7549122095
 30
0.0
 40
2.000000000000001
100
AcDbArc
 50
0.0
 51
117.4392401507
  0
LINE
  5
167
330
1F
100
AcDbEntity
  8
0
  6
HIDDEN
 62
     7
370
     0
100
AcDbLine
 10
127.2007249924
 20
89.5299122095
 30
0.0
 11
136.7291095628
 21
89.5299122095
 31
0.0
  0
LINE
  5
168
330
1F
100
AcDbEntity
  8
0
  6
HIDDEN
 62
     7
370
     0
100
AcDbLine
 10
136.7291095628
 20
131.5299122095
 30
0.0
 11
127.2007249924
 21
131.5299122095
 31
0.0
  0
LINE
  5
169
330
1F
100
AcDbEntity
  8
0
  6
HIDDEN
 62
     7
370
     0
100
AcDbLine
 10
99.4007249924
 20
89.5299122095
 30
0.0
 11
103.196024454
 21
89.5299122095
 31
0.0
  0
LINE
  5
16A
330
1F
100
AcDbEntity
  8
0
  6
HIDDEN
 62
     7
370
     0
100
AcDbLine
 10
103.196024454
 20
131.5299122095
 30
0.0
 11
95.4007249924
 21
131.5299122095
 31
0.0
  0
LINE
  5
16B
330
1F
100
AcDbEntity
  8
0
  6
HIDDEN
 62
     7
370
     0
100
AcDbLine
 10
208.4507249924
 20
148.0549122095
 30
0.0
 11
203.6507249924
 21
148.0549122095
 31
0.0
  0
LINE
  5
16C
330
1F
100
AcDbEntity
  8
0
  6
HIDDEN
 62
     7
370
     0
100
AcDbLine
 10
203.6507249924
 20
73.0049122095
 30
0.0
 11
208.4507249924
 21
73.0049122095
 31
0.0
  0
LINE
  5
16D
330
1F
100
AcDbEntity
  8
0
  6
HIDDEN
 62
     7
370
     0
100
AcDbLine
 10
149.5007249924
 20
99.5299122095
 30
0.0
 11
153.5007249924
 21
99.5299122095
 31
0.0
  0
LINE
  5
16E
330
1F
100
AcDbEntity
  8
0
  6
HIDDEN
 62
     7
370
     0
100
AcDbLine
 10
153.5007249924
 20
121.5299122095
 30
0.0
 11
149.5007249924
 21
121.5299122095
 31
0.0
  0
LINE
  5
16F
330
1F
100
AcDbEntity
  8
0
  6
HIDDEN
 62
     7
370
     0
100
AcDbLine
 10
139.6507249924
 20
100.5299122095
 30
0.0
 11
140.4007249924
 21
101.2799122095
 31
0.0
  0
LINE
  5
170
330
1F
100
AcDbEntity
  8
0
  6
HIDDEN
 62
     7
370
     0
100
AcDbLine
 10
140.4007249924
 20
119.7799122095
 30
0.0
 11
139.6507249924
 21
120.5299122095
 31
0.0
  0
LINE
  5
171
330
1F
100
AcDbEntity
  8
0
  6
HIDDEN
 62
     7
370
     0
100
AcDbLine
 10
140.4007249924
 20
101.2799122095
 30
0.0
 11
149.5007249924
 21
101.2799122095
 31
0.0
  0
LINE
  5
172
330
1F
100
AcDbEntity
  8
0
  6
HIDDEN
 62
     7
370
     0
100
AcDbLine
 10
149.5007249924
 20
119.7799122095
 30
0.0
 11
140.4007249924
 21
119.7799122095
 31
0.0
  0
LINE
  5
173
330
1F
100
AcDbEntity
  8
0
  6
HIDDEN
 62
     7
370
     0
100
AcDbLine
 10
131.1507249924
 20
150.5299122095
 30
0.0
 11
131.1507249924
 21
144.4299122095
 31
0.0
  0
LINE
  5
174
330
1F
100
AcDbEntity
  8
0
  6
HIDDEN
 62
     7
370
     0
100
AcDbLine
 10
153.5007249924
 20
105.4299122095
 30
0.0
 11
158.2007249924
 21
105.4299122095
 31
0.0
  0
LINE
  5
175
330
1F
100
AcDbEntity
  8
0
  6
HIDDEN
 62
     7
370
     0
100
AcDbLine
 10
158.2007249924
 20
115.6299122095
 30
0.0
 11
153.5007249924
 21
115.6299122095
 31
0.0
  0
LINE
  5
176
330
1F
100
AcDbEntity
  8
0
  6
HIDDEN
 62
     7
370
     0
100
AcDbLine
 10
119.8917948084
 20
80.4892889792
 30
0.0
 11
119.4507293698
 21
80.9716117942
 31
0.0
  0
LINE
  5
177
330
1F
100
AcDbEntity
  8
0
  6
HIDDEN
 62
     7
370
     0
100
AcDbLine
 10
110.9507259049
 20
81.4440804907
 30
0.0
 11
110.4613321326
 21
80.9617577016
 31
0.0
  0
LINE
  5
178
330
1F
100
AcDbEntity
  8
0
  6
HIDDEN
 62
     7
370
     0
100
AcDbLine
 10
110.4612194445
 20
140.0980614283
 30
0.0
 11
110.9507233663
 21
139.6156870162
 31
0.0
  0
LINE
  5
179
330
1F
100
AcDbEntity
  8
0
  6
HIDDEN
 62
     7
370
     0
100
AcDbLine
 10
119.4507244891
 20
140.0881654564
 30
0.0
 11
119.8918940726
 21
140.5705398632
 31
0.0
  0
LINE
  5
17A
330
1F
100
AcDbEntity
  8
0
  6
HIDDEN
 62
     7
370
     0
100
AcDbLine
 10
119.4507249924
 20
135.5262106302
 30
0.0
 11
119.4507249924
 21
140.18819433
 31
0.0
  0
LINE
  5
17B
330
1F
100
AcDbEntity
  8
0
  6
HIDDEN
 62
     7
370
     0
100
AcDbLine
 10
110.9507249924
 20
139.6156108323
 30
0.0
 11
110.9507249924
 21
135.5276335749
 31
0.0
  0
LINE
  5
17C
330
1F
100
AcDbEntity
  8
0
  6
HIDDEN
 62
     7
370
     0
100
AcDbLine
 10
119.4507249924
 20
80.8715325864
 30
0.0
 11
119.4507249924
 21
85.5336137888
 31
0.0
  0
LINE
  5
17D
330
1F
100
AcDbEntity
  8
0
  6
HIDDEN
 62
     7
370
     0
100
AcDbLine
 10
110.9507249924
 20
85.5321908441
 30
0.0
 11
110.9507249924
 21
81.4442784019
 31
0.0
  0
DIMENSION
  5
17E
330
1F
100
AcDbEntity
  8
VERMASSUNG
100
AcDbDimension
  2
_D
 10
81.2398297913
 20
70.5299122095
 30
0.0
 11
81.2398297913
 21
110.5299122095
 31
0.0
 70
   160
  1
HSK A %%c<>
 71
     2
 42
-1.0
  3
SLDDIMSTYLE0
100
AcDbAlignedDimension
 13
127.7007249924
 23
150.5299122095
 33
0.0
 14
127.7007249924
 24
70.5299122095
 34
0.0
 50
90.0
100
AcDbRotatedDimension
  0
DIMENSION
  5
18B
330
1F
100
AcDbEntity
  8
VERMASSUNG
100
AcDbDimension
  2
_D_1
 10
209.2007249924
 20
170.3549030922
 30
0.0
 11
168.2007249924
 21
170.3549030922
 31
0.0
 70
   160
  1
<>
 71
     2
 42
-1.0
  3
SLDDIMSTYLE0
100
AcDbAlignedDimension
 13
127.2007249924
 23
150.0299122095
 33
0.0
 14
209.2007249924
 24
156.6299122095
 34
0.0
100
AcDbRotatedDimension
  0
DIMENSION
  5
195
330
1F
100
AcDbEntity
  8
VERMASSUNG
100
AcDbDimension
  2
_D_2
 10
209.2007249924
 20
164.3549030922
 30
0.0
 11
181.1757249924
 21
164.3549030922
 31
0.0
 70
   160
  1
<>
 71
     2
 42
-1.0
  3
SLDDIMSTYLE0
100
AcDbAlignedDimension
 13
153.1507249924
 23
148.4772441315
 33
0.0
 14
209.2007249924
 24
156.6299122095
 34
0.0
100
AcDbRotatedDimension
  0
DIMENSION
  5
19F
330
1F
100
AcDbEntity
  8
VERMASSUNG
100
AcDbDimension
  2
_D_3
 10
209.2007249924
 20
176.3549030922
 30
0.0
 11
148.2507249924
 21
176.3549030922
 31
0.0
 70
   160
  1
<>
 71
     2
 42
-1.0
  3
SLDDIMSTYLE0
100
AcDbAlignedDimension
 13
87.3007249924
 23
134.6967906452
 33
0.0
 14
209.2007249924
 24
156.6299122095
 34
0.0
100
AcDbRotatedDimension
  0
DIMENSION
  5
1A9
330
1F
100
AcDbEntity
  8
VERMASSUNG
100
AcDbDimension
  2
_D_4
 10
219.4374515997
 20
63.5299122095
 30
0.0
 11
219.4374515997
 21
110.5299122095
 31
0.0
 70
   160
  1
MBM %%c<>
 71
     2
 42
-1.0
  3
SLDDIMSTYLE0
100
AcDbAlignedDimension
 13
208.3007249924
 23
157.5299122095
 33
0.0
 14
208.3007249924
 24
63.5299122095
 34
0.0
 50
90.0
100
AcDbRotatedDimension
  0
LINE
  5
1B5
330
1F
100
AcDbEntity
  8
VERMASSUNG
  6
CENTERX2
 62
     7
370
     0
100
AcDbLine
 10
115.2007249924
 20
141.8307473961
 30
0.0
 11
115.2007249924
 21
133.488628122
 31
0.0
  0
LINE
  5
1B6
330
1F
100
AcDbEntity
  8
VERMASSUNG
  6
CENTERX2
 62
     7
370
     0
100
AcDbLine
 10
115.2007249924
 20
87.571196297
 30
0.0
 11
115.2007249924
 21
79.22795314
 31
0.0
  0
LINE
  5
1B7
330
1F
100
AcDbEntity
  8
VERMASSUNG
  6
CENTERX2
 62
     7
370
     0
100
AcDbLine
 10
201.6507249924
 20
136.8299122095
 30
0.0
 11
210.4507249924
 21
136.8299122095
 31
0.0
  0
LINE
  5
1B8
330
1F
100
AcDbEntity
  8
VERMASSUNG
  6
CENTERX2
 62
     7
370
     0
100
AcDbLine
 10
201.6507249924
 20
84.2299122095
 30
0.0
 11
210.4507249924
 21
84.2299122095
 31
0.0
  0
LINE
  5
1B9
330
1F
100
AcDbEntity
  8
VERMASSUNG
  6
CENTERX2
 62
     7
370
     0
100
AcDbLine
 10
85.0656710011
 20
110.5299122095
 30
0.0
 11
211.2007249924
 21
110.5299122095
 31
0.0
  0
LINE
  5
1BA
330
1F
100
AcDbEntity
  8
0
  6
Continuous
 62
     7
370
    15
100
AcDbLine
 10
269.8618298276
 20
55.4885736474
 30
0.0
 11
269.5082189886
 21
55.692775195
 31
0.0
  0
LINE
  5
1BB
330
1F
100
AcDbEntity
  8
0
  6
Continuous
 62
     7
370
    15
100
AcDbLine
 10
263.1432238874
 20
55.692775195
 30
0.0
 11
262.7896130484
 21
55.4885736474
 31
0.0
  0
LINE
  5
1BC
330
1F
100
AcDbEntity
  8
0
  6
Continuous
 62
     7
370
    15
100
AcDbLine
 10
271.325721438
 20
52.9375470567
 30
0.0
 11
271.325721438
 21
53.4478850641
 31
0.0
  0
LINE
  5
1BD
330
1F
100
AcDbEntity
  8
0
  6
Continuous
 62
     7
370
    15
100
AcDbLine
 10
261.325721438
 20
53.4478850641
 30
0.0
 11
261.325721438
 21
52.9375470567
 31
0.0
  0
LINE
  5
1BE
330
1F
100
AcDbEntity
  8
0
  6
Continuous
 62
     7
370
    15
100
AcDbLine
 10
274.6899598569
 20
10.6532837027
 30
0.0
 11
275.0081061923
 21
10.837005383
 31
0.0
  0
LINE
  5
1BF
330
1F
100
AcDbEntity
  8
0
  6
Continuous
 62
     7
370
    15
100
AcDbLine
 10
291.3042684834
 20
39.0658450932
 30
0.0
 11
291.3042684834
 21
39.4332287435
 31
0.0
  0
LINE
  5
1C0
330
1F
100
AcDbEntity
  8
0
  6
Continuous
 62
     7
370
    15
100
AcDbLine
 10
286.436304234
 20
50.1925816955
 30
0.0
 11
272.9659200524
 21
57.9688689607
 31
0.0
  0
LINE
  5
1C1
330
1F
100
AcDbEntity
  8
0
  6
Continuous
 62
     7
370
    15
100
AcDbLine
 10
249.4678298355
 20
17.2645724288
 30
0.0
 11
262.9382140171
 21
9.4882851637
 31
0.0
  0
SPLINE
  5
1C2
330
1F
100
AcDbEntity
  8
0
  6
Continuous
 62
     7
370
    15
100
AcDbSpline
210
0.0
220
0.0
230
1.0
 70
     8
 71
     3
 72
    16
 73
    12
 74
     0
 42
0.000000001
 43
0.00000001
 40
0.0
 40
0.0
 40
0.0
 40
0.0
 40
0.0104183301081517
 40
0.1362471017812344
 40
0.2625680797600571
 40
0.3894076929304923
 40
0.5167111926475474
 40
0.6443782710323163
 40
0.7722973277651647
 40
0.9003684260153869
 40
1.0
 40
1.0
 40
1.0
 40
1.0
 10
270.2626437760067
 20
58.9502647880286
 30
0.0
 10
270.2342431265099
 20
58.95709454902341
 30
0.0
 10
269.8628298441045
 20
59.04641165951441
 30
0.0
 10
269.102427930877
 20
59.10722542690766
 30
0.0
 10
267.9845638132431
 20
59.12305335219319
 30
0.0
 10
266.8234965670659
 20
59.00670979114229
 30
0.0
 10
265.6321970248403
 20
58.77447207894497
 30
0.0
 10
264.4156709111856
 20
58.42363804946624
 30
0.0
 10
263.1815677726227
 20
57.95504941827117
 30
0.0
 10
262.0290845237572
 20
57.42237381050552
 30
0.0
 10
261.2901965632357
 20
57.0104302097786
 30
0.0
 10
260.966895260785
 20
56.83018379927103
 30
0.0
  0
SPLINE
  5
1C3
330
1F
100
AcDbEntity
  8
0
  6
Continuous
 62
     7
370
    15
100
AcDbSpline
210
0.0
220
0.0
230
1.0
 70
     8
 71
     3
 72
    37
 73
    33
 74
     0
 42
0.000000001
 43
0.00000001
 40
0.0
 40
0.0
 40
0.0
 40
0.0
 40
0.0184163027668277
 40
0.0533474378557521
 40
0.0882726709751578
 40
0.1231864845935779
 40
0.1580877342127999
 40
0.1929767317875875
 40
0.2278546945971976
 40
0.262723381602137
 40
0.2975848635303181
 40
0.3324413840319437
 40
0.3672952803880967
 40
0.4021489412713591
 40
0.4370043380852531
 40
0.471863550123802
 40
0.5067290223783539
 40
0.5416031837483218
 40
0.5764884000864751
 40
0.6113868867076818
 40
0.6463005555855381
 40
0.6812307625246314
 40
0.7161779070662889
 40
0.7511408259141338
 40
0.7861159179337438
 40
0.8210944814312949
 40
0.8560604154753996
 40
0.8909927667050532
 40
0.9258636074743902
 40
0.9606401371393739
 40
0.9952904204629176
 40
0.9999999999999999
 40
0.9999999999999999
 40
0.9999999999999999
 40
0.9999999999999999
 10
260.966895260785
 20
56.83018379927103
 30
0.0
 10
260.7478448657465
 20
56.70071214337184
 30
0.0
 10
260.1133104814811
 20
56.32566503404625
 30
0.0
 10
259.0671441991673
 20
55.6248473024602
 30
0.0
 10
257.8378544837195
 20
54.69885436811813
 30
0.0
 10
256.6278491193344
 20
53.67720695789642
 30
0.0
 10
255.4436703847893
 20
52.56757184947799
 30
0.0
 10
254.2916838775276
 20
51.37567604233214
 30
0.0
 10
253.1780811706514
 20
50.10828426562774
 30
0.0
 10
252.1088558458869
 20
48.77237174524237
 30
0.0
 10
251.0897756770102
 20
47.37530675762883
 30
0.0
 10
250.1263537072456
 20
45.92475818584101
 30
0.0
 10
249.2238192552823
 20
44.42867239127303
 30
0.0
 10
248.3870935138214
 20
42.89523428008484
 30
0.0
 10
247.620761023868
 20
41.33282405391545
 30
0.0
 10
246.9290417615957
 20
39.74996588524135
 30
0.0
 10
246.315767643473
 20
38.1552737363227
 30
0.0
 10
245.7843668222106
 20
36.55740521875406
 30
0.0
 10
245.3378520362755
 20
34.9650206037878
 30
0.0
 10
244.9788099928583
 20
33.38673815248434
 30
0.0
 10
244.70939411064
 20
31.83109224906151
 30
0.0
 10
244.5313207501349
 20
30.30649691985663
 30
0.0
 10
244.4458650035965
 20
28.8212134719503
 30
0.0
 10
244.4538630523166
 20
27.38333666654776
 30
0.0
 10
244.5556791734977
 20
26.00077472968116
 30
0.0
 10
244.7512560032907
 20
24.68137972381486
 30
0.0
 10
245.0397455261561
 20
23.43252027736776
 30
0.0
 10
245.4205966785635
 20
22.26252996706181
 30
0.0
 10
245.8891386807254
 20
21.1751131722777
 30
0.0
 10
246.4525937279519
 20
20.18978536196813
 30
0.0
 10
246.8931287147277
 20
19.53036739126681
 30
0.0
 10
247.1681537714302
 20
19.23184848566272
 30
0.0
 10
247.2010617209273
 20
19.19612939451031
 30
0.0
  0
LINE
  5
1C4
330
1F
100
AcDbEntity
  8
0
  6
Continuous
 62
     7
370
    15
100
AcDbLine
 10
236.1916685174
 20
28.9700796352
 30
0.0
 11
241.1285924632
 21
26.1200541058
 31
0.0
  0
LINE
  5
1C5
330
1F
100
AcDbEntity
  8
0
  6
Continuous
 62
     7
370
    15
100
AcDbLine
 10
257.972074343
 20
62.5832894318
 30
0.0
 11
256.1900431701
 21
63.6120341304
 31
0.0
  0
SPLINE
  5
1C6
330
1F
100
AcDbEntity
  8
0
  6
Continuous
 62
     7
370
    15
100
AcDbSpline
210
0.0
220
0.0
230
1.0
 70
     8
 71
     3
 72
    19
 73
    15
 74
     0
 42
0.000000001
 43
0.00000001
 40
0.0
 40
0.0
 40
0.0
 40
0.0
 40
0.0207310072324783
 40
0.1155629313560664
 40
0.2103958238514931
 40
0.3052328923453679
 40
0.4000784966959049
 40
0.4949371890369547
 40
0.5898134536103108
 40
0.684711564582226
 40
0.7796353187919092
 40
0.8745875668713102
 40
0.9695694340701614
 40
1.0
 40
1.0
 40
1.0
 40
1.0
 10
236.8076181501667
 20
53.2788244645574
 30
0.0
 10
236.7434591859151
 20
53.18091696194934
 30
0.0
 10
236.3858114412326
 20
52.63514135750049
 30
0.0
 10
235.794387502568
 20
51.59706542580433
 30
0.0
 10
235.0429849105492
 20
50.17385676417908
 30
0.0
 10
234.3687228800165
 20
48.72156764468355
 30
0.0
 10
233.7695580409942
 20
47.25457720342286
 30
0.0
 10
233.25112162718
 20
45.78097560436527
 30
0.0
 10
232.8163356012891
 20
44.31057398321742
 30
0.0
 10
232.4682946617648
 20
42.85276053596721
 30
0.0
 10
232.2090200146529
 20
41.41671723158315
 30
0.0
 10
232.0414808523852
 20
40.01235346093361
 30
0.0
 10
231.9805500771689
 20
38.95569005369533
 30
0.0
 10
231.9764836171459
 20
38.37091813613335
 30
0.0
 10
231.9754969152956
 20
38.2290267785753
 30
0.0
  0
SPLINE
  5
1C7
330
1F
100
AcDbEntity
  8
0
  6
Continuous
 62
     7
370
    15
100
AcDbSpline
210
0.0
220
0.0
230
1.0
 70
     8
 71
     3
 72
    10
 73
     6
 74
     0
 42
0.000000001
 43
0.00000001
 40
0.0
 40
0.0
 40
0.0
 40
0.0
 40
0.1548363165026281
 40
0.6292914356172628
 40
1.0
 40
1.0
 40
1.0
 40
1.0
 10
238.7443468834577
 20
56.02983407748867
 30
0.0
 10
238.6369920495365
 20
55.89619552464457
 30
0.0
 10
238.2006765966461
 20
55.35305681744305
 30
0.0
 10
237.5478839688989
 20
54.43589985872917
 30
0.0
 10
237.0333185717384
 20
53.63160639457008
 30
0.0
 10
236.8076181501667
 20
53.2788244645574
 30
0.0
  0
SPLINE
  5
1C8
330
1F
100
AcDbEntity
  8
0
  6
Continuous
 62
     7
370
    15
100
AcDbSpline
210
0.0
220
0.0
230
1.0
 70
     8
 71
     3
 72
    18
 73
    14
 74
     0
 42
0.000000001
 43
0.00000001
 40
0.0
 40
0.0
 40
0.0
 40
0.0
 40
0.0755268699202476
 40
0.1710016091267962
 40
0.2665657786575524
 40
0.3621748378820407
 40
0.4577960366461201
 40
0.5534072632796219
 40
0.6490001467256533
 40
0.7445715150573734
 40
0.8401214871257671
 40
0.935652169292873
 40
1.0
 40
1.0
 40
1.0
 40
1.0
 10
250.2751539721139
 20
64.3173089542224
 30
0.0
 10
249.9842293426499
 20
64.25054826227458
 30
0.0
 10
249.3255421783933
 20
64.09939429863819
 30
0.0
 10
248.2740317165913
 20
63.72511484047133
 30
0.0
 10
247.1337268575156
 20
63.22261823125947
 30
0.0
 10
245.9868353762552
 20
62.60610307742512
 30
0.0
 10
244.8418805495191
 20
61.88434144117323
 30
0.0
 10
243.7060297934743
 20
61.06105739622814
 30
0.0
 10
242.5868466271192
 20
60.14186261704965
 30
0.0
 10
241.4908552108138
 20
59.13357520501675
 30
0.0
 10
240.4273971871808
 20
58.03971780936727
 30
0.0
 10
239.5068875751915
 20
57.00525335128007
 30
0.0
 10
238.9631786164078
 20
56.30975709320526
 30
0.0
 10
238.7443468834577
 20
56.02983407748867
 30
0.0
  0
SPLINE
  5
1C9
330
1F
100
AcDbEntity
  8
0
  6
Continuous
 62
     7
370
    15
100
AcDbSpline
210
0.0
220
0.0
230
1.0
 70
     8
 71
     3
 72
    11
 73
     7
 74
     0
 42
0.000000001
 43
0.00000001
 40
0.0
 40
0.0
 40
0.0
 40
0.0
 40
0.1590617519135374
 40
0.4612336750100292
 40
0.7635021968136846
 40
1.0
 40
1.0
 40
1.0
 40
1.0
 10
231.9754969152956
 20
38.2290267785753
 30
0.0
 10
231.978030958688
 20
37.99813863253588
 30
0.0
 10
231.9853789611616
 20
37.32862891802008
 30
0.0
 10
232.0708656430861
 20
36.26450244300133
 30
0.0
 10
232.2365935596629
 20
35.14145132337686
 30
0.0
 10
232.4130692426438
 20
34.47836477053195
 30
0.0
 10
232.4905353154195
 20
34.18729514387492
 30
0.0
  0
LINE
  5
1CA
330
1F
100
AcDbEntity
  8
0
  6
Continuous
 62
     7
370
    15
100
AcDbLine
 10
246.7431450866
 20
62.9944746091
 30
0.0
 11
239.3083076277
 21
66.6987156896
 31
0.0
  0
LINE
  5
1CB
330
1F
100
AcDbEntity
  8
0
  6
Continuous
 62
     7
370
    15
100
AcDbLine
 10
225.0764290602
 20
42.0457077188
 30
0.0
 11
231.9939645579
 21
37.4652030229
 31
0.0
  0
LINE
  5
1CC
330
1F
100
AcDbEntity
  8
0
  6
Continuous
 62
     7
370
    15
100
AcDbLine
 10
243.6291132423
 20
24.6765341862
 30
0.0
 11
244.8360489174
 21
23.9797850517
 31
0.0
  0
SPLINE
  5
1CD
330
1F
100
AcDbEntity
  8
0
  6
Continuous
 62
     7
370
    15
100
AcDbSpline
210
0.0
220
0.0
230
1.0
 70
     8
 71
     3
 72
    26
 73
    22
 74
     0
 42
0.000000001
 43
0.00000001
 40
0.0
 40
0.0
 40
0.0
 40
0.0
 40
0.0122716860098007
 40
0.0649839728338243
 40
0.1178676651367107
 40
0.1712323429806076
 40
0.2252392910981899
 40
0.2798832239499838
 40
0.3350357903257947
 40
0.3905201216051666
 40
0.4461741715763909
 40
0.501874609466157
 40
0.5575429957017989
 40
0.6131542953774204
 40
0.6687031975917678
 40
0.7241956460492891
 40
0.7796435678798322
 40
0.8350618885283261
 40
0.8904669760057309
 40
0.9458759019179538
 40
1.0
 40
1.0
 40
1.0
 40
1.0
 10
239.1864947561002
 20
66.74468705656565
 30
0.0
 10
239.1298915052597
 20
66.77509082080907
 30
0.0
 10
238.830152405678
 20
66.93609211990211
 30
0.0
 10
238.2283002592445
 20
67.11387570454936
 30
0.0
 10
237.3900450580992
 20
67.2700890029506
 30
0.0
 10
236.5042623962303
 20
67.29792235005009
 30
0.0
 10
235.5830294213478
 20
67.20876207145017
 30
0.0
 10
234.6316016811713
 20
66.99890269818829
 30
0.0
 10
233.6590833797342
 20
66.67018202888733
 30
0.0
 10
232.6750528719027
 20
66.22515238152342
 30
0.0
 10
231.6895824132645
 20
65.6684999178255
 30
0.0
 10
230.7124451026579
 20
65.00627718622508
 30
0.0
 10
229.7528194978418
 20
64.24553740053507
 30
0.0
 10
228.8192516628481
 20
63.39397805544083
 30
0.0
 10
227.9197714990241
 20
62.45977892239979
 30
0.0
 10
227.0620055957655
 20
61.45165495190741
 30
0.0
 10
226.2534212859356
 20
60.37878596733319
 30
0.0
 10
225.5004178508422
 20
59.25091786415449
 30
0.0
 10
224.8115786155382
 20
58.07776704981577
 30
0.0
 10
224.1902489028244
 20
56.88043160784334
 30
0.0
 10
223.8407281634477
 20
56.06756402750931
 30
0.0
 10
223.6680177416052
 20
55.66589772595613
 30
0.0
  0
LINE
  5
1CE
330
1F
100
AcDbEntity
  8
0
  6
Continuous
 62
     7
370
    15
100
AcDbLine
 10
223.763779398
 20
52.9002950105
 30
0.0
 11
226.6353470276
 21
51.2425743034
 31
0.0
  0
LINE
  5
1CF
330
1F
100
AcDbEntity
  8
0
  6
Continuous
 62
     7
370
    15
100
AcDbLine
 10
223.3619134131
 20
54.5003203065
 30
0.0
 11
223.3619134131
 21
53.788513935
 31
0.0
  0
LINE
  5
1D0
330
1F
100
AcDbEntity
  8
0
  6
Continuous
 62
     7
370
    15
100
AcDbLine
 10
223.3619134131
 20
44.783484645
 30
0.0
 11
223.3619134131
 21
44.0716782736
 31
0.0
  0
SPLINE
  5
1D1
330
1F
100
AcDbEntity
  8
0
  6
Continuous
 62
     7
370
    15
100
AcDbSpline
210
0.0
220
0.0
230
1.0
 70
     8
 71
     3
 72
    11
 73
     7
 74
     0
 42
0.000000001
 43
0.00000001
 40
0.0
 40
0.0
 40
0.0
 40
0.0
 40
0.2419809405174042
 40
0.6172402499349772
 40
0.9878323124118595
 40
1.0
 40
1.0
 40
1.0
 40
1.0
 10
223.583587878965
 20
43.5392929330413
 30
0.0
 10
223.691397903951
 20
43.38259375603617
 30
0.0
 10
223.966397606926
 20
42.98288856036066
 30
0.0
 10
224.5120192170024
 20
42.46412623949628
 30
0.0
 10
224.9549266041325
 20
42.09365347965117
 30
0.0
 10
225.210723445817
 20
41.9612925109338
 30
0.0
 10
225.2188550637709
 20
41.95708484041477
 30
0.0
  0
LWPOLYLINE
  5
1D2
330
1F
100
AcDbEntity
  8
0
  6
Continuous
 62
     7
370
    15
100
AcDbPolyline
 90
       36
 70
   128
 43
0.0
 10
263.1437409227
 20
52.0192372185
 10
262.6267120985
 20
52.3767516695
 10
262.2285724781
 20
52.7818153759
 10
261.9621185963
 20
53.2214092569
 10
261.8359145003
 20
53.6814044035
 10
261.8540164935
 20
54.1470161932
 10
262.0158427629
 20
54.6032794799
 10
262.3161920792
 20
55.0355295861
 10
262.745410968
 20
55.4298736379
 10
263.2897039813
 20
55.7736370929
 10
263.9315770937
 20
56.0557711109
 10
264.6503999752
 20
56.2672076723
 10
265.423069067
 20
56.4011510321
 10
266.2247501487
 20
56.4532961405
 10
267.0296765307
 20
56.4219670108
 10
267.8119772168
 20
56.3081705871
 10
268.5465084193
 20
56.11556438
 10
269.2096617009
 20
55.8503389114
 10
269.7801227696
 20
55.5210187462
 10
270.2395565372
 20
55.1381885055
 10
270.5731964244
 20
54.7141526682
 10
270.7703189707
 20
54.2625400949
 10
270.8245884953
 20
53.7978659855
 10
270.7342607309
 20
53.335065348
 10
270.5022388864
 20
52.8890129758
 10
270.1359803345
 20
52.4740453591
 10
269.6472569267
 20
52.1034998986
 10
269.0517766353
 20
51.7892862303
 10
268.3686786868
 20
51.54150344
 10
267.6199184115
 20
51.3681154704
 10
266.8295615805
 20
51.2746951535
 10
266.0230109128
 20
51.2642450953
 10
265.2261896104
 20
51.3371011691
 10
264.4647081657
 20
51.4909217209
 10
263.7630412188
 20
51.7207628315
 10
263.1437409227
 20
52.0192372185
  0
LWPOLYLINE
  5
1D3
330
1F
100
AcDbEntity
  8
0
  6
Continuous
 62
     7
370
    15
100
AcDbPolyline
 90
       10
 70
   128
 43
0.0
 10
262.7901875321
 20
51.4068647846
 10
262.2299612166
 20
51.7922919209
 10
261.7941825028
 20
52.2280234171
 10
261.4960923066
 20
52.7008197922
 10
261.3447479476
 20
53.1963153675
 10
261.3447479476
 20
53.6994547608
 10
261.4960923066
 20
54.1949503361
 10
261.7941825028
 20
54.6677467112
 10
262.2299612166
 20
55.1034782074
 10
262.7896130484
 20
55.4885736474
  0
LWPOLYLINE
  5
1D4
330
1F
100
AcDbEntity
  8
0
  6
Continuous
 62
     7
370
    15
100
AcDbPolyline
 90
       19
 70
   128
 43
0.0
 10
269.8618298276
 20
55.4885736474
 10
270.4214816595
 20
55.1034782074
 10
270.8572603732
 20
54.6677467112
 10
271.1553505695
 20
54.1949503361
 10
271.3066949285
 20
53.6994547608
 10
271.3066949285
 20
53.1963153675
 10
271.1553505695
 20
52.7008197922
 10
270.8572603732
 20
52.2280234171
 10
270.4214816595
 20
51.7922919209
 10
269.8612553439
 20
51.4068647846
 10
269.1936036198
 20
51.0834530166
 10
268.4388127467
 20
50.83188332
 10
267.6198166635
 20
50.6597995126
 10
266.7615001518
 20
50.5724302739
 10
265.8899427243
 20
50.5724302739
 10
265.0316262125
 20
50.6597995126
 10
264.2126301293
 20
50.83188332
 10
263.4578392563
 20
51.0834530166
 10
262.7901875321
 20
51.4068647846
  0
LWPOLYLINE
  5
1D5
330
1F
100
AcDbEntity
  8
0
  6
Continuous
 62
     7
370
    15
100
AcDbPolyline
 90
       29
 70
   128
 43
0.0
 10
264.2044010945
 20
52.6315433023
 10
263.7855488403
 20
52.9347487294
 10
263.4940714471
 20
53.284157338
 10
263.3445848083
 20
53.6622483213
 10
263.3445848083
 20
54.0500626188
 10
263.4940714471
 20
54.4281536021
 10
263.7855488403
 20
54.7775622107
 10
264.2044010945
 20
55.0807676378
 10
264.7296252085
 20
55.3225658973
 10
265.3348842522
 20
55.4908322148
 10
265.9898280097
 20
55.5771290144
 10
266.6616148663
 20
55.5771290144
 10
267.3165586239
 20
55.4908322148
 10
267.9218176676
 20
55.3225658973
 10
268.4470417816
 20
55.0807676378
 10
268.8658940357
 20
54.7775622107
 10
269.1573714289
 20
54.4281536021
 10
269.3068580677
 20
54.0500626188
 10
269.3068580677
 20
53.6622483213
 10
269.1573714289
 20
53.284157338
 10
268.8658940357
 20
52.9347487294
 10
268.4470417816
 20
52.6315433023
 10
267.9218176676
 20
52.3897450428
 10
267.3165586239
 20
52.2214787254
 10
266.6616148663
 20
52.1351819257
 10
265.9898280097
 20
52.1351819257
 10
265.3348842522
 20
52.2214787254
 10
264.7296252085
 20
52.3897450428
 10
264.2044010945
 20
52.6315433023
  0
SPLINE
  5
1D6
330
1F
100
AcDbEntity
  8
0
  6
Continuous
 62
     7
370
    15
100
AcDbSpline
210
0.0
220
0.0
230
1.0
 70
     8
 71
     3
 72
    11
 73
     7
 74
     0
 42
0.000000001
 43
0.00000001
 40
0.0
 40
0.0
 40
0.0
 40
0.0
 40
0.1247754874968934
 40
0.5452895857868103
 40
0.7721533768024175
 40
1.0
 40
1.0
 40
1.0
 40
1.0
 10
264.3577155634287
 20
52.56442373720528
 30
0.0
 10
264.3217654208773
 20
52.58745792703179
 30
0.0
 10
264.164657332309
 20
52.68812115890049
 30
0.0
 10
263.9498891386849
 20
52.89162531279213
 30
0.0
 10
263.7145804250022
 20
53.13113427861037
 30
0.0
 10
263.5965010550038
 20
53.26519149788801
 30
0.0
 10
263.5373337588908
 20
53.33236498627296
 30
0.0
  0
SPLINE
  5
1D7
330
1F
100
AcDbEntity
  8
0
  6
Continuous
 62
     7
370
    15
100
AcDbSpline
210
0.0
220
0.0
230
1.0
 70
     8
 71
     3
 72
    17
 73
    13
 74
     0
 42
0.000000001
 43
0.00000001
 40
0.0
 40
0.0
 40
0.0
 40
0.0
 40
0.1077551862791747
 40
0.2161064746156176
 40
0.3272186788913188
 40
0.4398304191878097
 40
0.5163269200707046
 40
0.593476774820561
 40
0.6725611375621943
 40
0.7522309417373497
 40
0.8755479949132635
 40
1.0
 40
1.0
 40
1.0
 40
1.0
 10
269.1141091171428
 20
54.19500165800613
 30
0.0
 10
269.0888146162903
 20
54.10232253103861
 30
0.0
 10
269.0380856853203
 20
53.91645157585774
 30
0.0
 10
268.9581040068217
 20
53.65100358480007
 30
0.0
 10
268.8744908677438
 20
53.40055537736124
 30
0.0
 10
268.79691624951
 20
53.19910777681279
 30
0.0
 10
268.7275882682353
 20
53.04392998001743
 30
0.0
 10
268.6670965669816
 20
52.92630152098954
 30
0.0
 10
268.606405087366
 20
52.82591503147069
 30
0.0
 10
268.5351298501979
 20
52.72813996146967
 30
0.0
 10
268.4544559385571
 20
52.64260033044564
 30
0.0
 10
268.3962161657533
 20
52.60445815877871
 30
0.0
 10
268.3669628903361
 20
52.58529971431596
 30
0.0
  0
SPLINE
  5
1D8
330
1F
100
AcDbEntity
  8
0
  6
Continuous
 62
     7
370
    15
100
AcDbSpline
210
0.0
220
0.0
230
1.0
 70
     8
 71
     3
 72
    11
 73
     7
 74
     0
 42
0.000000001
 43
0.00000001
 40
0.0
 40
0.0
 40
0.0
 40
0.0
 40
0.1849308168246109
 40
0.5198464202157757
 40
0.8714438233692647
 40
1.0
 40
1.0
 40
1.0
 40
1.0
 10
267.0728676648235
 20
55.37338526582973
 30
0.0
 10
267.191677891107
 20
55.24110353205879
 30
0.0
 10
267.5256572239139
 20
54.86925536234037
 30
0.0
 10
268.1490934272172
 20
54.37707015492391
 30
0.0
 10
268.7248622688219
 20
54.20667454817129
 30
0.0
 10
269.0319023083011
 20
54.19746690866796
 30
0.0
 10
269.1141091171428
 20
54.19500165800613
 30
0.0
  0
SPLINE
  5
1D9
330
1F
100
AcDbEntity
  8
0
  6
Continuous
 62
     7
370
    15
100
AcDbSpline
210
0.0
220
0.0
230
1.0
 70
     8
 71
     3
 72
    12
 73
     8
 74
     0
 42
0.000000001
 43
0.00000001
 40
0.0
 40
0.0
 40
0.0
 40
0.0
 40
0.2161879022301682
 40
0.4397674032120207
 40
0.5934227156934598
 40
0.7522132509270784
 40
1.0
 40
1.0
 40
1.0
 40
1.0
 10
264.2844799856975
 20
54.94206692996315
 30
0.0
 10
264.4754032925925
 20
54.89763925609378
 30
0.0
 10
264.8637776929162
 20
54.80726489857084
 30
0.0
 10
265.4347543244714
 20
54.79685147496534
 30
0.0
 10
265.9567768075958
 20
54.88686954232865
 30
0.0
 10
266.4929179916164
 20
55.06146992564836
 30
0.0
 10
266.8532592560182
 20
55.25527289383648
 30
0.0
 10
267.0728676648235
 20
55.37338526582973
 30
0.0
  0
SPLINE
  5
1DA
330
1F
100
AcDbEntity
  8
0
  6
Continuous
 62
     7
370
    15
100
AcDbSpline
210
0.0
220
0.0
230
1.0
 70
     8
 71
     3
 72
    12
 73
     8
 74
     0
 42
0.000000001
 43
0.00000001
 40
0.0
 40
0.0
 40
0.0
 40
0.0
 40
0.2161879022301674
 40
0.4397674032120197
 40
0.593422715693458
 40
0.7522132509270764
 40
1.0
 40
1.0
 40
1.0
 40
1.0
 10
263.5373337588908
 20
53.33236498627296
 30
0.0
 10
263.5884915047896
 20
53.36862225333946
 30
0.0
 10
263.6925561117172
 20
53.44237644596964
 30
0.0
 10
263.8455488390395
 20
53.67325999412738
 30
0.0
 10
263.9854243418236
 20
53.98388681745175
 30
0.0
 10
264.129082939111
 20
54.38506257530009
 30
0.0
 10
264.225636089907
 20
54.73114718006701
 30
0.0
 10
264.2844799856975
 20
54.94206692996315
 30
0.0
  0
LINE
  5
1DB
330
1F
100
AcDbEntity
  8
0
  6
Continuous
 62
     7
370
    15
100
AcDbLine
 10
264.2844799857
 20
52.6130066474
 30
0.0
 11
264.2844799857
 21
54.94206693
 31
0.0
  0
LINE
  5
1DC
330
1F
100
AcDbEntity
  8
0
  6
Continuous
 62
     7
370
    15
100
AcDbLine
 10
267.0728676648
 20
52.1788616926
 30
0.0
 11
267.0728676648
 21
55.3733852658
 31
0.0
  0
LWPOLYLINE
  5
1DD
330
1F
100
AcDbEntity
  8
0
  6
Continuous
 62
     7
370
    15
100
AcDbPolyline
 90
       80
 70
   128
 43
0.0
 10
275.0054571771
 20
48.4780073184
 10
273.7105138974
 20
47.6709554243
 10
272.423757666
 20
46.7500118704
 10
271.1533237701
 20
45.7209991583
 10
269.907244302
 20
44.5904230378
 10
268.6933973771
 20
43.365431375
 10
267.5194573265
 20
42.0537689617
 10
266.3928461773
 20
40.6637285499
 10
265.3206867278
 20
39.2040984228
 10
264.3097575154
 20
37.6841068319
 10
263.3664499598
 20
36.1133636535
 10
262.4967279554
 20
34.5017996316
 10
261.7060901645
 20
32.8596035929
 10
260.9995352539
 20
31.1971580295
 10
260.3815302911
 20
29.5249734575
 10
259.8559825026
 20
27.8536219661
 10
259.4262145707
 20
26.1936703776
 10
259.0949436266
 20
24.5556134405
 10
258.8642640719
 20
22.949807478
 10
258.735634337
 20
21.3864049125
 10
258.7098676605
 20
19.8752900783
 10
258.7871269476
 20
18.4260167301
 10
258.9669237403
 20
17.0477476404
 10
259.2481213053
 20
15.7491966704
 10
259.628941821
 20
14.5385736772
 10
260.1069776176
 20
13.4235326092
 10
260.6792063989
 20
12.4111231152
 10
261.3420103502
 20
11.5077459738
 10
262.0911990116
 20
10.7191126263
 10
262.9220357711
 20
10.0502090665
 10
263.8292678113
 20
9.5052643181
 10
264.807159319
 20
9.0877236973
 10
265.8495277494
 20
8.8002270304
 10
266.9497829135
 20
8.6445919637
 10
268.100968644
 20
8.6218024724
 10
269.2958067741
 20
8.732002639
 10
270.5267431523
 20
8.9744957424
 10
271.7859954026
 20
9.3477486632
 10
273.0656021269
 20
9.8494015763
 10
274.3574732393
 20
10.4762828704
 10
275.6534411148
 20
11.2244292002
 10
276.9453122273
 20
12.0891105437
 10
278.2249189515
 20
13.064860107
 10
279.4841712018
 20
14.1455088872
 10
280.7151075801
 20
15.3242246749
 10
281.9099457102
 20
16.5935552492
 10
283.0611314407
 20
17.9454754936
 10
284.1613866048
 20
19.371438133
 10
285.2037550351
 20
20.8624277726
 10
286.1816465429
 20
22.4090178957
 10
287.088878583
 20
24.0014304617
 10
287.9197153425
 20
25.6295977255
 10
288.6689040039
 20
27.2832258896
 10
289.3317079553
 20
28.9518601842
 10
289.9039367365
 20
30.6249509661
 10
290.3819725332
 20
32.2919204167
 10
290.7627930489
 20
33.9422294184
 10
291.0439906139
 20
35.5654441863
 10
291.2237874065
 20
37.1513022341
 10
291.3010466937
 20
38.6897772565
 10
291.2752800171
 20
40.1711425192
 10
291.1466502822
 20
41.586032354
 10
290.9159707275
 20
42.9255013717
 10
290.5846997834
 20
44.1810810181
 10
290.1549318515
 20
45.3448331143
 10
289.629384063
 20
46.4094000449
 10
289.0113791003
 20
47.3680512749
 10
288.3048241897
 20
48.2147259027
 10
287.5141863988
 20
48.9440709786
 10
286.6444643943
 20
49.5514753483
 10
285.7011568388
 20
50.0330988057
 10
284.6902276263
 20
50.3858963723
 10
283.6180681769
 20
50.6076375482
 10
282.4914570276
 20
50.6969204145
 10
281.3175169771
 20
50.653180496
 10
280.1036700522
 20
50.4766943306
 10
278.857590584
 20
50.1685777206
 10
277.5871566882
 20
49.7307786785
 10
276.3004004568
 20
49.1660651108
 10
275.0054571771
 20
48.4780073184
  0
LWPOLYLINE
  5
1DE
330
1F
100
AcDbEntity
  8
0
  6
Continuous
 62
     7
370
    15
100
AcDbPolyline
 90
       42
 70
   128
 43
0.0
 10
274.6872591255
 20
49.0291425089
 10
273.3835035976
 20
48.2173480769
 10
272.0877861561
 20
47.2922538551
 10
270.8080953298
 20
46.2595633571
 10
269.5523208383
 20
45.1256434632
 10
268.3282049488
 20
43.8974851666
 10
267.143294743
 20
42.5826604716
 10
266.0048955862
 20
41.1892757096
 10
264.9200260878
 20
39.7259215611
 10
263.895374829
 20
38.201620091
 10
262.9372591255
 20
36.6257691248
 10
262.0515860794
 20
35.0080843077
 10
261.2438161593
 20
33.3585392044
 10
260.5189295356
 20
31.6873038092
 10
259.8813953752
 20
30.004681844
 10
259.3351442883
 20
28.3210472326
 10
258.8835440944
 20
26.6467801424
 10
258.529379059
 20
24.9922029868
 10
258.2748327272
 20
23.367516784
 10
258.1214744619
 20
21.7827382647
 10
258.0702497677
 20
20.2476381157
 10
258.1214744619
 20
18.7716807397
 10
258.2748327272
 20
17.3639659047
 10
258.529379059
 20
16.0331726409
 10
258.8835440944
 20
14.7875057312
 10
259.3351442883
 20
13.6346451264
 10
259.8813953752
 20
12.5816985954
 10
260.5189295356
 20
11.6351579038
 10
261.2438161593
 20
10.8008587897
 10
262.0515860794
 20
10.0839449846
 10
262.9372591255
 20
9.4888365004
 10
263.895374829
 20
9.0192023789
 10
264.9200260878
 20
8.6779380705
 10
266.0048955862
 20
8.4671475833
 10
267.143294743
 20
8.3881305107
 10
268.3282049488
 20
8.4413740192
 10
269.5523208383
 20
8.6265498449
 10
270.8080953298
 20
8.9425163172
 10
272.0877861561
 20
9.3873253977
 10
273.3835035976
 20
9.9582346906
 10
274.6872591255
 20
10.6517243503
 10
274.6899598569
 20
10.6532837027
  0
LWPOLYLINE
  5
1DF
330
1F
100
AcDbEntity
  8
0
  6
Continuous
 62
     7
370
    15
100
AcDbPolyline
 90
       21
 70
   128
 43
0.0
 10
291.3042684834
 20
39.4332287435
 10
291.2530437892
 20
40.9091861195
 10
291.0996855239
 20
42.3169009545
 10
290.8451391921
 20
43.6476942183
 10
290.4909741567
 20
44.893361128
 10
290.0393739628
 20
46.0462217328
 10
289.4931228759
 20
47.0991682638
 10
288.8555887155
 20
48.0457089554
 10
288.1307020918
 20
48.8800080695
 10
287.3229321717
 20
49.5969218746
 10
286.4372591255
 20
50.1920303588
 10
285.4791434221
 20
50.6616644803
 10
284.4544921633
 20
51.0029287887
 10
283.3696226649
 20
51.2137192759
 10
282.2312235081
 20
51.2927363485
 10
281.0463133023
 20
51.23949284
 10
279.8221974128
 20
51.0543170143
 10
278.5664229213
 20
50.738350542
 10
277.286732095
 20
50.2935414615
 10
275.9910146535
 20
49.7226321686
 10
274.6872591255
 20
49.0291425089
  0
ARC
  5
1E0
330
1F
100
AcDbEntity
  8
0
  6
Continuous
 62
     7
370
    15
100
AcDbCircle
 10
253.5380380091
 20
24.2774896736
 30
0.0
 40
8.108489554739574
100
AcDbArc
 50
219.5275245089
 51
239.8696644191
  0
ARC
  5
1E1
330
1F
100
AcDbEntity
  8
0
  6
Continuous
 62
     7
370
    15
100
AcDbCircle
 10
268.9166304125
 20
50.9011981813
 30
0.0
 40
8.145472167593324
100
AcDbArc
 50
60.190255585
 51
79.7335369224
  0
SPLINE
  5
1E2
330
1F
100
AcDbEntity
  8
0
  6
Continuous
 62
     7
370
    15
100
AcDbSpline
210
0.0
220
0.0
230
1.0
 70
     8
 71
     3
 72
    52
 73
    48
 74
     0
 42
0.000000001
 43
0.00000001
 40
0.0
 40
0.0
 40
0.0
 40
0.0
 40
0.0312500000000008
 40
0.0312500000000008
 40
0.0625000000000016
 40
0.0625000000000016
 40
0.1250000000000031
 40
0.1250000000000031
 40
0.1562500000000037
 40
0.1562500000000037
 40
0.1875000000000043
 40
0.1875000000000043
 40
0.2500000000000046
 40
0.2500000000000046
 40
0.312500000000005
 40
0.312500000000005
 40
0.3750000000000054
 40
0.3750000000000054
 40
0.4062500000000056
 40
0.4062500000000056
 40
0.4375000000000057
 40
0.4375000000000057
 40
0.5000000000000054
 40
0.5000000000000054
 40
0.5312500000000051
 40
0.5312500000000051
 40
0.5625000000000047
 40
0.5625000000000047
 40
0.6250000000000038
 40
0.6250000000000038
 40
0.687500000000003
 40
0.687500000000003
 40
0.7187500000000026
 40
0.7187500000000026
 40
0.7500000000000021
 40
0.7500000000000021
 40
0.8125000000000012
 40
0.8125000000000012
 40
0.843750000000001
 40
0.843750000000001
 40
0.8750000000000008
 40
0.8750000000000008
 40
0.9375000000000006
 40
0.9375000000000006
 40
0.9687500000000003
 40
0.9687500000000003
 40
1.0
 40
1.0
 40
1.0
 40
1.0
 10
270.6567504727844
 20
51.35590562760697
 30
0.0
 10
270.7924549143221
 20
51.4342461341821
 30
0.0
 10
270.9202113730221
 20
51.51542607273669
 30
0.0
 10
271.1557273959335
 20
51.68043979900711
 30
0.0
 10
271.2642497707839
 20
51.76470756411891
 30
0.0
 10
271.562669031594
 20
52.02293914852389
 30
0.0
 10
271.726217878954
 20
52.20408614191507
 30
0.0
 10
271.9081950908923
 20
52.4760756664605
 30
0.0
 10
271.9588585288761
 20
52.56718489347532
 30
0.0
 10
272.040862874872
 20
52.75069431433252
 30
0.0
 10
272.0722680715111
 20
52.84339861151289
 30
0.0
 10
272.1371044610823
 20
53.12213373897741
 30
0.0
 10
272.1410551118286
 20
53.30568250983905
 30
0.0
 10
272.0774129467761
 20
53.67263109739106
 30
0.0
 10
272.0085654348637
 20
53.85720698231493
 30
0.0
 10
271.8063546737723
 20
54.21726637345992
 30
0.0
 10
271.6731303838
 20
54.39419865246866
 30
0.0
 10
271.4260523434157
 20
54.6574176652589
 30
0.0
 10
271.3354511490136
 20
54.74499478091705
 30
0.0
 10
271.1417196093868
 20
54.91654843723958
 30
0.0
 10
271.0382759639627
 20
55.00090402676736
 30
0.0
 10
270.7087179300755
 20
55.25013192084513
 30
0.0
 10
270.463537522426
 20
55.41123716935027
 30
0.0
 10
270.0565877897266
 20
55.64566027144735
 30
0.0
 10
269.9149038261216
 20
55.72221959628811
 30
0.0
 10
269.6236788396325
 20
55.8700252755586
 30
0.0
 10
269.4735755755547
 20
55.94160086974632
 30
0.0
 10
269.0099210189269
 20
56.14922641086417
 30
0.0
 10
268.6831530416964
 20
56.27828820547727
 30
0.0
 10
267.9920810429512
 20
56.51455888684526
 30
0.0
 10
267.635998114057
 20
56.61884289557438
 30
0.0
 10
267.0902179812007
 20
56.75099694297089
 30
0.0
 10
266.906100560356
 20
56.79105249540432
 30
0.0
 10
266.5332599932199
 20
56.86241441997942
 30
0.0
 10
266.3435636206096
 20
56.89384631020341
 30
0.0
 10
265.7748883142071
 20
56.97231930569809
 30
0.0
 10
265.3973890753646
 20
57.00381165089365
 30
0.0
 10
264.8333029249363
 20
57.01513656650063
 30
0.0
 10
264.6446176712439
 20
57.01282268505286
 30
0.0
 10
264.2731241874308
 20
56.99500279144825
 30
0.0
 10
264.0911050163688
 20
56.97961290528147
 30
0.0
 10
263.5561763301089
 20
56.91338220075114
 30
0.0
 10
263.2142560970483
 20
56.84270556062018
 30
0.0
 10
262.7255012724586
 20
56.69092126838815
 30
0.0
 10
262.5679479957761
 20
56.63291551250612
 30
0.0
 10
262.2699982238309
 20
56.50445503633263
 30
0.0
 10
262.1285799195229
 20
56.43369693046755
 30
0.0
 10
261.9946924032492
 20
56.35640531252108
 30
0.0
  0
SPLINE
  5
1E3
330
1F
100
AcDbEntity
  8
0
  6
Continuous
 62
     7
370
    15
100
AcDbSpline
210
0.0
220
0.0
230
1.0
 70
     8
 71
     3
 72
    52
 73
    48
 74
     0
 42
0.000000001
 43
0.00000001
 40
0.0
 40
0.0
 40
0.0
 40
0.0
 40
0.0312500000000006
 40
0.0312500000000006
 40
0.0625000000000012
 40
0.0625000000000012
 40
0.1250000000000021
 40
0.1250000000000021
 40
0.1875000000000031
 40
0.1875000000000031
 40
0.2500000000000041
 40
0.2500000000000041
 40
0.3125000000000051
 40
0.3125000000000051
 40
0.3437500000000055
 40
0.3437500000000055
 40
0.3750000000000059
 40
0.3750000000000059
 40
0.4062500000000063
 40
0.4062500000000063
 40
0.4375000000000067
 40
0.4375000000000067
 40
0.5000000000000075
 40
0.5000000000000075
 40
0.5312500000000078
 40
0.5312500000000078
 40
0.5625000000000079
 40
0.5625000000000079
 40
0.6250000000000077
 40
0.6250000000000077
 40
0.6562500000000072
 40
0.6562500000000072
 40
0.6875000000000068
 40
0.6875000000000068
 40
0.750000000000006
 40
0.750000000000006
 40
0.7812500000000053
 40
0.7812500000000053
 40
0.8125000000000046
 40
0.8125000000000046
 40
0.875000000000003
 40
0.875000000000003
 40
0.9062500000000022
 40
0.9062500000000022
 40
0.9375000000000016
 40
0.9375000000000016
 40
1.0
 40
1.0
 40
1.0
 40
1.0
 10
261.9946924032492
 20
56.35640531252108
 30
0.0
 10
261.8606402535203
 20
56.27901865370395
 30
0.0
 10
261.7341363780574
 20
56.19508314140686
 30
0.0
 10
261.4966610280824
 20
56.01379425688269
 30
0.0
 10
261.3864589971733
 20
55.91684936359822
 30
0.0
 10
261.0875147697886
 20
55.61413020712036
 30
0.0
 10
260.9270865720567
 20
55.39433514507105
 30
0.0
 10
260.6817072375384
 20
54.92213926008858
 30
0.0
 10
260.6007620685382
 20
54.67736688778919
 30
0.0
 10
260.5147655014002
 20
54.17707605095435
 30
0.0
 10
260.5104442737509
 20
53.91950137925744
 30
0.0
 10
260.5742887170746
 20
53.41580318314465
 30
0.0
 10
260.6416683366219
 20
53.16751760693196
 30
0.0
 10
260.7943456172616
 20
52.80278922097256
 30
0.0
 10
260.8537111661328
 20
52.68314767827326
 30
0.0
 10
260.987275131846
 20
52.45090945016444
 30
0.0
 10
261.0616613476635
 20
52.33785110389424
 30
0.0
 10
261.2252549201875
 20
52.1180212051887
 30
0.0
 10
261.3144633756713
 20
52.01124963306324
 30
0.0
 10
261.5077237330738
 20
51.80426579759934
 30
0.0
 10
261.6122557651161
 20
51.70365069667951
 30
0.0
 10
261.9451540589542
 20
51.41525205433836
 30
0.0
 10
262.1907757316827
 20
51.24208635341781
 30
0.0
 10
262.593451107729
 20
51.01044247787041
 30
0.0
 10
262.7334205751953
 20
50.93793142242686
 30
0.0
 10
263.0250753525257
 20
50.80245766945497
 30
0.0
 10
263.1775339216004
 20
50.73924127836214
 30
0.0
 10
263.6454418667935
 20
50.56707811042785
 30
0.0
 10
263.9720483360859
 20
50.47484207946528
 30
0.0
 10
264.4839280491374
 20
50.36857212969974
 30
0.0
 10
264.6582402066381
 20
50.33852279306131
 30
0.0
 10
265.0145436303606
 20
50.28921963053229
 30
0.0
 10
265.1973219607266
 20
50.26995023143852
 30
0.0
 10
265.7468675054456
 20
50.22935388859607
 30
0.0
 10
266.117476890855
 20
50.22452746382596
 30
0.0
 10
266.6803183948305
 20
50.24887556858501
 30
0.0
 10
266.8690949707864
 20
50.26229168665756
 30
0.0
 10
267.2491872362947
 20
50.29989957675135
 30
0.0
 10
267.4407638512487
 20
50.32420917544496
 30
0.0
 10
268.0051906263379
 20
50.41141149067609
 30
0.0
 10
268.3725589282637
 20
50.48876914583337
 30
0.0
 10
268.9097115788593
 20
50.63280311414594
 30
0.0
 10
269.0864952026353
 20
50.68554355031412
 30
0.0
 10
269.4347722784433
 20
50.80077929203841
 30
0.0
 10
269.60251473742
 20
50.86203091221338
 30
0.0
 10
270.0869321270653
 20
51.05608718955622
 30
0.0
 10
270.3850078544705
 20
51.19903195320443
 30
0.0
 10
270.6567504727844
 20
51.35590562760697
 30
0.0
  0
LWPOLYLINE
  5
1E4
330
1F
100
AcDbEntity
  8
0
  6
Continuous
 62
     7
370
    15
100
AcDbPolyline
 90
       75
 70
   128
 43
0.0
 10
275.0054571771
 20
45.9875578422
 10
273.8061202915
 20
45.2363634428
 10
272.6154246556
 20
44.3729175111
 10
271.4419492588
 20
43.4034411948
 10
270.2941490182
 20
42.334919593
 10
269.1802938608
 20
41.1750514282
 10
268.1084091387
 20
39.9321935772
 10
267.0862178057
 20
38.6153008592
 10
266.1210847738
 20
37.2338615166
 10
265.2199638487
 20
35.7978288513
 10
264.3893476272
 20
34.3175495117
 10
263.6352207183
 20
32.8036889444
 10
262.9630166237
 20
31.2671545493
 10
262.3775785892
 20
29.7190170921
 10
261.8831247093
 20
28.1704309385
 10
261.4832175355
 20
26.6325536874
 10
261.1807384082
 20
25.1164657795
 10
260.9778666964
 20
23.633090663
 10
260.8760640955
 20
22.1931160895
 10
260.8760640955
 20
20.8069171089
 10
260.9778666964
 20
19.4844813166
 10
261.1807384082
 20
18.2353368927
 10
261.4832175355
 20
17.0684839515
 10
261.8831247093
 20
15.9923296952
 10
262.3775785892
 20
15.0146278398
 10
262.9630166237
 20
14.1424227496
 10
263.6352207183
 20
13.3819986822
 10
264.3893476272
 20
12.7388345106
 10
265.2199638487
 20
12.2175642472
 10
266.1210847738
 20
11.8219436563
 10
267.0862178057
 20
11.5548231933
 10
268.1084091387
 20
11.4181274672
 10
269.1802938608
 20
11.412841374
 10
270.2941490182
 20
11.5390029999
 10
271.4419492588
 20
11.7957033477
 10
272.6154246556
 20
12.1810928854
 10
273.8061202915
 20
12.6923948726
 10
275.0054571771
 20
13.3259253667
 10
276.2047940627
 20
14.0771197661
 10
277.3954896986
 20
14.9405656977
 10
278.5689650954
 20
15.910042014
 10
279.716765336
 20
16.9785636159
 10
280.8306204933
 20
18.1384317807
 10
281.9025052155
 20
19.3812896317
 10
282.9246965485
 20
20.6981823497
 10
283.8898295804
 20
22.0796216923
 10
284.7909505055
 20
23.5156543576
 10
285.6215667269
 20
24.9959336971
 10
286.3756936358
 20
26.5097942645
 10
287.0478977305
 20
28.0463286596
 10
287.633335765
 20
29.5944661168
 10
288.1277896449
 20
31.1430522703
 10
288.5276968187
 20
32.6809295215
 10
288.830175946
 20
34.1970174294
 10
289.0330476578
 20
35.6803925459
 10
289.1348502587
 20
37.1203671194
 10
289.1348502587
 20
38.5065661
 10
289.0330476578
 20
39.8290018923
 10
288.830175946
 20
41.0781463161
 10
288.5276968187
 20
42.2449992573
 10
288.1277896449
 20
43.3211535137
 10
287.633335765
 20
44.2988553691
 10
287.0478977305
 20
45.1710604593
 10
286.3756936358
 20
45.9314845266
 10
285.6215667269
 20
46.5746486983
 10
284.7909505055
 20
47.0959189617
 10
283.8898295804
 20
47.4915395526
 10
282.9246965485
 20
47.7586600156
 10
281.9025052155
 20
47.8953557416
 10
280.8306204933
 20
47.9006418349
 10
279.716765336
 20
47.7744802089
 10
278.5689650954
 20
47.5177798612
 10
277.3954896986
 20
47.1323903234
 10
276.2047940627
 20
46.6210883363
 10
275.0054571771
 20
45.9875578422
  0
LWPOLYLINE
  5
1E5
330
1F
100
AcDbEntity
  8
0
  6
Continuous
 62
     7
370
    15
100
AcDbPolyline
 90
       19
 70
   128
 43
0.0
 10
284.404317126
 20
46.3951647479
 10
283.5288900111
 20
46.828335908
 10
282.5853944912
 20
47.1296972643
 10
281.5811380156
 20
47.2969147485
 10
280.5238986326
 20
47.3286932476
 10
279.421864747
 20
47.2247866346
 10
278.2835717009
 20
46.9859996747
 10
277.1178356665
 20
46.6141817922
 10
275.9336853641
 20
46.1122127469
 10
274.7402921341
 20
45.4839803299
 10
273.5468989042
 20
44.7343502522
 10
272.3627486018
 20
43.8691284599
 10
271.1970125674
 20
42.895016166
 10
270.0587195213
 20
41.8195579494
 10
268.9566856357
 20
40.6510833214
 10
267.8994462526
 20
39.3986422132
 10
266.8951897771
 20
38.0719348827
 10
265.9516942572
 20
36.6812367863
 10
265.0762671423
 20
35.2373189937
  0
SPLINE
  5
1E6
330
1F
100
AcDbEntity
  8
0
  6
Continuous
 62
     7
370
    15
100
AcDbSpline
210
0.0
220
0.0
230
1.0
 70
     8
 71
     3
 72
    22
 73
    18
 74
     0
 42
0.000000001
 43
0.00000001
 40
0.0
 40
0.0
 40
0.0
 40
0.0
 40
0.125
 40
0.125
 40
0.25
 40
0.25
 40
0.375
 40
0.375
 40
0.5
 40
0.5
 40
0.625
 40
0.625
 40
0.75
 40
0.75
 40
0.875
 40
0.875
 40
1.0
 40
1.0
 40
1.0
 40
1.0
 10
265.076267142279
 20
35.23731899369043
 30
0.0
 10
265.0025522574096
 20
35.14047342646795
 30
0.0
 10
264.9281318143597
 20
35.03735459013357
 30
0.0
 10
264.7781140175709
 20
34.81851148037078
 30
0.0
 10
264.7021190645037
 20
34.7021519748935
 30
0.0
 10
264.550770021784
 20
34.45847969999679
 30
0.0
 10
264.4769074150869
 20
34.3336268237994
 30
0.0
 10
264.3328618252536
 20
34.0779271029912
 30
0.0
 10
264.2620841693384
 20
33.94590070381719
 30
0.0
 10
264.1273758650329
 20
33.68105950206898
 30
0.0
 10
264.0641357165432
 20
33.54973925592253
 30
0.0
 10
263.9456002309349
 20
33.28925556068849
 30
0.0
 10
263.8898209837162
 20
33.15881694537695
 30
0.0
 10
263.7896054424177
 20
32.9081577453093
 30
0.0
 10
263.7449933757006
 20
32.78774512376238
 30
0.0
 10
263.666201709278
 20
32.55650737903719
 30
0.0
 10
263.6319513053421
 20
32.44528421480883
 30
0.0
 10
263.603608327911
 20
32.34142868624927
 30
0.0
  0
LWPOLYLINE
  5
1E7
330
1F
100
AcDbEntity
  8
0
  6
Continuous
 62
     7
370
    15
100
AcDbPolyline
 90
       15
 70
   128
 43
0.0
 10
263.6036083279
 20
32.3414286862
 10
262.9719080874
 20
30.8262946077
 10
262.4290974635
 20
29.3034828221
 10
261.9792764438
 20
27.7844955167
 10
261.6258426416
 20
26.2808059912
 10
261.3714656327
 20
24.8037719976
 10
261.218066792
 20
23.3645499517
 10
261.1668047801
 20
21.9740106658
 10
261.218066792
 20
20.642657239
 10
261.3714656327
 20
19.3805457246
 10
261.6258426416
 20
18.1972091739
 10
261.9792764438
 20
17.1015856306
 10
262.4290974635
 20
16.1019506198
 10
262.9719080874
 20
15.2058546405
 10
263.6036083279
 20
14.4200661351
  0
SPLINE
  5
1E8
330
1F
100
AcDbEntity
  8
0
  6
Continuous
 62
     7
370
    15
100
AcDbSpline
210
0.0
220
0.0
230
1.0
 70
     8
 71
     3
 72
    22
 73
    18
 74
     0
 42
0.000000001
 43
0.00000001
 40
0.0
 40
0.0
 40
0.0
 40
0.0
 40
0.125
 40
0.125
 40
0.25
 40
0.25
 40
0.375
 40
0.375
 40
0.5
 40
0.5
 40
0.625
 40
0.625
 40
0.75
 40
0.75
 40
0.875
 40
0.875
 40
1.0
 40
1.0
 40
1.0
 40
1.0
 10
263.603608327911
 20
14.4200661351257
 30
0.0
 10
263.6319449606639
 20
14.28740133775311
 30
0.0
 10
263.6656617367897
 20
14.16242727543562
 30
0.0
 10
263.7440299585965
 20
13.92776934455765
 30
0.0
 10
263.7889416332941
 20
13.81755290596725
 30
0.0
 10
263.8896297031243
 20
13.61593773658547
 30
0.0
 10
263.944358111585
 20
13.52643094801793
 30
0.0
 10
264.0625529159695
 20
13.36963009934009
 30
0.0
 10
264.1266236101286
 20
13.30186909234714
 30
0.0
 10
264.2612811364041
 20
13.192426564632
 30
0.0
 10
264.3310492387949
 20
13.15110836549016
 30
0.0
 10
264.4752799765078
 20
13.09448832248902
 30
0.0
 10
264.5505303155381
 20
13.07926475722381
 30
0.0
 10
264.7010738509634
 20
13.07612445542585
 30
0.0
 10
264.7763984862991
 20
13.08783977116271
 30
0.0
 10
264.926971889299
 20
13.13693286489545
 30
0.0
 10
265.0025357523708
 20
13.17464722532458
 30
0.0
 10
265.076267142279
 20
13.22447150294268
 30
0.0
  0
LWPOLYLINE
  5
1E9
330
1F
100
AcDbEntity
  8
0
  6
Continuous
 62
     7
370
    15
100
AcDbPolyline
 90
       19
 70
   128
 43
0.0
 10
265.0762671423
 20
13.2244715029
 10
265.9516942572
 20
12.7913003428
 10
266.8951897771
 20
12.4899389866
 10
267.8994462526
 20
12.3227215023
 10
268.9566856357
 20
12.2909430032
 10
270.0587195213
 20
12.3948496162
 10
271.1970125674
 20
12.6336365761
 10
272.3627486018
 20
13.0054544586
 10
273.5468989042
 20
13.5074235039
 10
274.7402921341
 20
14.1356559209
 10
275.9336853641
 20
14.8852859986
 10
277.1178356665
 20
15.7505077909
 10
278.2835717009
 20
16.7246200848
 10
279.421864747
 20
17.8000783014
 10
280.5238986326
 20
18.9685529294
 10
281.5811380156
 20
20.2209940376
 10
282.5853944912
 20
21.5477013681
 10
283.5288900111
 20
22.9383994645
 10
284.404317126
 20
24.3823172571
  0
SPLINE
  5
1EA
330
1F
100
AcDbEntity
  8
0
  6
Continuous
 62
     7
370
    15
100
AcDbSpline
210
0.0
220
0.0
230
1.0
 70
     8
 71
     3
 72
    22
 73
    18
 74
     0
 42
0.000000001
 43
0.00000001
 40
0.0
 40
0.0
 40
0.0
 40
0.0
 40
0.1249999999999999
 40
0.1249999999999999
 40
0.2499999999999998
 40
0.2499999999999998
 40
0.3749999999999997
 40
0.3749999999999997
 40
0.4999999999999996
 40
0.4999999999999996
 40
0.6249999999999994
 40
0.6249999999999994
 40
0.7499999999999993
 40
0.7499999999999993
 40
0.8749999999999997
 40
0.8749999999999997
 40
1.0
 40
1.0
 40
1.0
 40
1.0
 10
284.4043171259944
 20
24.38231725711672
 30
0.0
 10
284.5313410418211
 20
24.44838817582435
 30
0.0
 10
284.6528579885
 20
24.52431877933154
 30
0.0
 10
284.8850500787764
 20
24.69572367921455
 30
0.0
 10
284.996274113958
 20
24.79174586847921
 30
0.0
 10
285.2047215422647
 20
25.00245594699658
 30
0.0
 10
285.2999614023948
 20
25.11496799746897
 30
0.0
 10
285.4728368594075
 20
25.35402459021348
 30
0.0
 10
285.5510554440449
 20
25.48175543266965
 30
0.0
 10
285.6858201767129
 20
25.74656405901759
 30
0.0
 10
285.7418184238115
 20
25.88206496584928
 30
0.0
 10
285.8316991023801
 20
26.15909072907951
 30
0.0
 10
285.8657240222876
 20
26.30208785023246
 30
0.0
 10
285.9092187323422
 20
26.58549128919651
 30
0.0
 10
285.9190278311748
 20
26.72599523644725
 30
0.0
 10
285.915504491014
 20
27.00475242299333
 30
0.0
 10
285.9019539299803
 20
27.14357049692442
 30
0.0
 10
285.8769759403624
 20
27.2782075645579
 30
0.0
  0
LWPOLYLINE
  5
1EB
330
1F
100
AcDbEntity
  8
0
  6
Continuous
 62
     7
370
    15
100
AcDbPolyline
 90
       15
 70
   128
 43
0.0
 10
285.8769759404
 20
27.2782075646
 10
286.5086761809
 20
28.7933416431
 10
287.0514868048
 20
30.3161534287
 10
287.5013078245
 20
31.8351407341
 10
287.8547416267
 20
33.3388302596
 10
288.1091186355
 20
34.8158642532
 10
288.2625174763
 20
36.2550862991
 10
288.3137794882
 20
37.645625585
 10
288.2625174763
 20
38.9769790118
 10
288.1091186355
 20
40.2390905262
 10
287.8547416267
 20
41.4224270769
 10
287.5013078245
 20
42.5180506202
 10
287.0514868048
 20
43.517685631
 10
286.5086761809
 20
44.4137816103
 10
285.8769759404
 20
45.1995701157
  0
SPLINE
  5
1EC
330
1F
100
AcDbEntity
  8
0
  6
Continuous
 62
     7
370
    15
100
AcDbSpline
210
0.0
220
0.0
230
1.0
 70
     8
 71
     3
 72
    22
 73
    18
 74
     0
 42
0.000000001
 43
0.00000001
 40
0.0
 40
0.0
 40
0.0
 40
0.0
 40
0.125
 40
0.125
 40
0.25
 40
0.25
 40
0.375
 40
0.375
 40
0.5
 40
0.5
 40
0.625
 40
0.625
 40
0.75
 40
0.75
 40
0.875
 40
0.875
 40
1.0
 40
1.0
 40
1.0
 40
1.0
 10
285.8769759403624
 20
45.19957011568147
 30
0.0
 10
285.9019483385668
 20
45.30146026453922
 30
0.0
 10
285.9153280660699
 20
45.39924609402949
 30
0.0
 10
285.9191341377509
 20
45.58646581502768
 30
0.0
 10
285.9094515451675
 20
45.67634493740547
 30
0.0
 10
285.8658618609244
 20
45.84499791040789
 30
0.0
 10
285.8325107058968
 20
45.92216387325044
 30
0.0
 10
285.7431457686916
 20
46.06232159386458
 30
0.0
 10
285.6865160032547
 20
46.12578704413969
 30
0.0
 10
285.5519149053417
 20
46.23519699645455
 30
0.0
 10
285.4749049015596
 20
46.28069585628165
 30
0.0
 10
285.3020193568071
 20
46.35385796727897
 30
0.0
 10
285.2050146904656
 20
46.38164003838558
 30
0.0
 10
284.9977503237965
 20
46.41752457907994
 30
0.0
 10
284.8876227205763
 20
46.4259005890469
 30
0.0
 10
284.6547343109929
 20
46.42432693713506
 30
0.0
 10
284.5313694829516
 20
46.41420748640864
 30
0.0
 10
284.4043171259944
 20
46.39516474786447
 30
0.0
  0
LINE
  5
1ED
330
1F
100
AcDbEntity
  8
0
  6
Continuous
 62
     7
370
    15
100
AcDbLine
 10
284.0387463067
 20
46.2265193215
 30
0.0
 11
279.3176971543
 21
43.5011156576
 31
0.0
  0
LWPOLYLINE
  5
1EE
330
1F
100
AcDbEntity
  8
0
  6
Continuous
 62
     7
370
    15
100
AcDbPolyline
 90
       10
 70
   128
 43
0.0
 10
279.3176971543
 20
43.5011156576
 10
278.3479910854
 20
43.4103273058
 10
277.3428400795
 20
43.1859166099
 10
276.3121195488
 20
42.8300883612
 10
275.265956121
 20
42.3463385026
 10
274.2146281473
 20
41.7394197821
 10
273.1684647195
 20
41.0152950572
 10
272.1377441888
 20
40.181078712
 10
271.1325931829
 20
39.2449667589
 10
270.162887114
 20
38.2161563148
  0
LINE
  5
1EF
330
1F
100
AcDbEntity
  8
0
  6
Continuous
 62
     7
370
    15
100
AcDbLine
 10
270.162887114
 20
38.2161563148
 30
0.0
 11
265.4418379615
 21
35.490752651
 31
0.0
  0
ARC
  5
1F0
330
1F
100
AcDbEntity
  8
0
  6
Continuous
 62
     7
370
    15
100
AcDbCircle
 10
266.861356894
 20
33.0527575286
 30
0.0
 40
2.821144132527192
100
AcDbArc
 50
120.2100382904
 51
129.2535885358
  0
ARC
  5
1F1
330
1F
100
AcDbEntity
  8
0
  6
Continuous
 62
     7
370
    15
100
AcDbCircle
 10
285.0941948244
 20
44.4191798997
 30
0.0
 40
2.092951829078237
100
AcDbArc
 50
109.2456812522
 51
120.2840370279
  0
LWPOLYLINE
  5
1F2
330
1F
100
AcDbEntity
  8
0
  6
Continuous
 62
     7
370
    15
100
AcDbPolyline
 90
       53
 70
   128
 43
0.0
 10
268.3876259282
 20
37.1913198466
 10
267.5894438521
 20
36.1180027016
 10
266.8400598838
 20
34.9679500794
 10
266.160960378
 20
33.7705540373
 10
265.5598398034
 20
32.5393815508
 10
265.0435090964
 20
31.2883822961
 10
264.6178184901
 20
30.0317305947
 10
264.2875912292
 20
28.7836648126
 10
264.0565689205
 20
27.5583260336
 10
263.9273691392
 20
26.3695978359
 10
263.9014557703
 20
25.2309489848
 10
263.9791224227
 20
24.1552808269
 10
264.1594891022
 20
23.1547811122
 10
264.4405121822
 20
22.2407859022
 10
264.8190075589
 20
21.4236511278
 10
265.2906867285
 20
20.7126352527
 10
265.8502053775
 20
20.1157943706
 10
266.4912239361
 20
19.6398909275
 10
267.2064794078
 20
19.2903170993
 10
267.9878676623
 20
19.0710336973
 10
268.8265352586
 20
18.98452529
 10
269.7129797575
 20
19.0317720522
 10
270.6371573888
 20
19.2122386593
 10
271.5885968506
 20
19.5238803525
 10
272.5565179536
 20
19.9631661068
 10
273.529953765
 20
20.5251186392
 10
274.497874868
 20
21.2033708029
 10
275.4493143297
 20
21.9902377299
 10
276.373491961
 20
22.8768039035
 10
277.25993646
 20
23.8530241746
 10
278.0986040562
 20
24.9078375776
 10
278.8799923108
 20
26.0292926551
 10
279.5952477825
 20
27.2046828729
 10
280.2362663411
 20
28.4206905902
 10
280.7957849901
 20
29.6635379537
 10
281.2674641597
 20
30.9191430062
 10
281.6459595364
 20
32.1732792407
 10
281.9269826164
 20
33.4117367925
 10
282.1073492959
 20
34.6204834427
 10
282.1850159483
 20
35.7858236087
 10
282.1591025794
 20
36.8945535209
 10
282.029902798
 20
37.9341108263
 10
281.7988804894
 20
38.8927169253
 10
281.4686532285
 20
39.7595104276
 10
281.0429626222
 20
40.5246702166
 10
280.5266319152
 20
41.1795267262
 10
279.9255113406
 20
41.7166601703
 10
279.2464118348
 20
42.1299846125
 10
278.4970278665
 20
42.4148169217
 10
277.6858502556
 20
42.567929834
 10
276.8220699684
 20
42.5875885188
 10
275.9154739809
 20
42.4735702355
 10
275.1355339059
 20
42.2775917819
  0
LWPOLYLINE
  5
1F3
330
1F
100
AcDbEntity
  8
0
  6
Continuous
 62
     7
370
    15
100
AcDbPolyline
 90
        3
 70
   128
 43
0.0
 10
284.1750833022
 20
46.2993793773
 10
284.1799800986
 20
46.1141001869
 10
284.1271560419
 20
45.6077922885
  0
LWPOLYLINE
  5
1F4
330
1F
100
AcDbEntity
  8
0
  6
Continuous
 62
     7
370
    15
100
AcDbPolyline
 90
       14
 70
   128
 43
0.0
 10
284.1271560419
 20
45.6077922885
 10
284.7345910172
 20
44.7805308998
 10
285.2484040616
 20
43.8412323199
 10
285.6644806674
 20
42.7974182557
 10
285.97948898
 20
41.6574473523
 10
286.1909064788
 20
40.4304482586
 10
286.2970401764
 20
39.1262465272
 10
286.2970401764
 20
37.7552859332
 10
286.1909064788
 20
36.3285448429
 10
285.97948898
 20
34.857448301
 10
285.6644806674
 20
33.3537765413
 10
285.2484040616
 20
31.8295706535
 10
284.7345910172
 20
30.29703616
 10
284.1271560419
 20
28.768445277
  0
ARC
  5
1F5
330
1F
100
AcDbEntity
  8
0
  6
Continuous
 62
     7
370
    15
100
AcDbCircle
 10
280.3612112639
 20
28.3402036926
 30
0.0
 40
3.790215155514351
100
AcDbArc
 50
301.5017160265
 51
6.4874792992
  0
LINE
  5
1F6
330
1F
100
AcDbEntity
  8
0
  6
Continuous
 62
     7
370
    15
100
AcDbLine
 10
282.3416900319
 20
25.108573334
 30
0.0
 11
277.6206408795
 21
22.3831696701
 31
0.0
  0
LWPOLYLINE
  5
1F7
330
1F
100
AcDbEntity
  8
0
  6
Continuous
 62
     7
370
    15
100
AcDbPolyline
 90
       10
 70
   128
 43
0.0
 10
268.4658308391
 20
17.0982103274
 10
269.435536908
 20
17.1889986792
 10
270.4406879139
 20
17.4134093751
 10
271.4714084446
 20
17.7692376238
 10
272.5175718724
 20
18.2529874823
 10
273.5688998461
 20
18.8599062029
 10
274.6150632739
 20
19.5840309278
 10
275.6457838046
 20
20.418247273
 10
276.6509348105
 20
21.3543592261
 10
277.6206408795
 20
22.3831696701
  0
LINE
  5
1F8
330
1F
100
AcDbEntity
  8
0
  6
Continuous
 62
     7
370
    15
100
AcDbLine
 10
268.4658308391
 20
17.0982103274
 30
0.0
 11
263.7447816867
 21
14.3728066635
 31
0.0
  0
LINE
  5
1F9
330
1F
100
AcDbEntity
  8
0
  6
Continuous
 62
     7
370
    15
100
AcDbLine
 10
263.7447816867
 20
14.3728066635
 30
0.0
 11
263.6215603693
 21
14.3064463175
 31
0.0
  0
ARC
  5
1FA
330
1F
100
AcDbEntity
  8
0
  6
Continuous
 62
     7
370
    15
100
AcDbCircle
 10
265.6547340916
 20
32.2954059965
 30
0.0
 40
2.051642022014438
100
AcDbArc
 50
178.7146261105
 51
193.0861783432
  0
LWPOLYLINE
  5
1FB
330
1F
100
AcDbEntity
  8
0
  6
Continuous
 62
     7
370
    15
100
AcDbPolyline
 90
       14
 70
   128
 43
0.0
 10
263.6563719515
 20
31.830880708
 10
263.0489369762
 20
30.302289825
 10
262.5351239319
 20
28.7697553315
 10
262.1190473261
 20
27.2455494437
 10
261.8040390134
 20
25.741877684
 10
261.5926215147
 20
24.2707811421
 10
261.4864878171
 20
22.8440400517
 10
261.4864878171
 20
21.4730794578
 10
261.5926215147
 20
20.1688777264
 10
261.8040390134
 20
18.9418786327
 10
262.1190473261
 20
17.8019077293
 10
262.5351239319
 20
16.7580936651
 10
263.0489369762
 20
15.8187950852
 10
263.6563719515
 20
14.9915336965
  0
ARC
  5
1FC
330
1F
100
AcDbEntity
  8
0
  6
Continuous
 62
     7
370
    15
100
AcDbCircle
 10
266.4678175121
 20
14.4437831969
 30
0.0
 40
2.864307376944088
100
AcDbArc
 50
168.9752422931
 51
180.4744264118
  0
LWPOLYLINE
  5
1FD
330
1F
100
AcDbEntity
  8
0
  6
Continuous
 62
     7
370
    15
100
AcDbPolyline
 90
       38
 70
   128
 43
0.0
 10
264.3832528447
 20
22.3966752427
 10
264.7036887998
 20
21.8065632959
 10
265.197099482
 20
21.1444340509
 10
265.7762813041
 20
20.5989738422
 10
266.4344438887
 20
20.1765776921
 10
267.1638708814
 20
19.8821978092
 10
267.9560104174
 20
19.7192855285
 10
268.8015753852
 20
19.6897508476
 10
269.6906523084
 20
19.7939400335
 10
270.6128175731
 20
20.0306315633
 10
271.5572596346
 20
20.3970504452
 10
272.5129057734
 20
20.888900753
 10
273.4685519122
 20
21.5004159913
 10
274.4129939737
 20
22.2244267032
 10
275.3351592384
 20
23.052444525
 10
276.2242361616
 20
23.9747617048
 10
277.0698011294
 20
24.9805649171
 10
277.8619406654
 20
26.0580620386
 10
278.5913676581
 20
27.1946204009
 10
279.2495302427
 20
28.3769148963
 10
279.8287120648
 20
29.5910842029
 10
280.322122747
 20
30.8228932956
 10
280.7239775002
 20
32.0579003391
 10
281.0295649449
 20
33.281626005
 10
281.2353023477
 20
34.4797232286
 10
281.3387776256
 20
35.6381454156
 10
281.3387776256
 20
36.7433111249
 10
281.2353023477
 20
37.782263299
 10
281.0295649449
 20
38.7428211736
 10
280.7239775002
 20
39.6137230859
 10
280.322122747
 20
40.3847585072
 10
279.8287120648
 20
41.0468877522
 10
279.2495302427
 20
41.5923479608
 10
278.5913676581
 20
42.0147441109
 10
277.8619406654
 20
42.3091239938
 10
277.0698011294
 20
42.4720362745
 10
276.2242361616
 20
42.5015709555
 10
275.9805530462
 20
42.485965139
  0
SPLINE
  5
1FE
330
1F
100
AcDbEntity
  8
0
  6
Continuous
 62
     7
370
    15
100
AcDbSpline
210
0.0
220
0.0
230
1.0
 70
     8
 71
     3
 72
    14
 73
    10
 74
     0
 42
0.000000001
 43
0.00000001
 40
0.0
 40
0.0
 40
0.0
 40
0.0
 40
0.25
 40
0.25
 40
0.5
 40
0.5
 40
0.75
 40
0.75
 40
1.0
 40
1.0
 40
1.0
 40
1.0
 10
241.8611866990668
 20
37.48550292469943
 30
0.0
 10
241.8137658424134
 20
37.45812744685682
 30
0.0
 10
241.7582327730237
 20
37.4362811540822
 30
0.0
 10
241.6358628020474
 20
37.4055831745542
 30
0.0
 10
241.5697532788955
 20
37.39705534597255
 30
0.0
 10
241.4368952983829
 20
37.39516882238135
 30
0.0
 10
241.3697053501781
 20
37.40191854071912
 30
0.0
 10
241.246355623713
 20
37.42995321676852
 30
0.0
 10
241.1890734502919
 20
37.45155335252088
 30
0.0
 10
241.1421723061062
 20
37.47862880674199
 30
0.0
  0
SPLINE
  5
1FF
330
1F
100
AcDbEntity
  8
0
  6
Continuous
 62
     7
370
    15
100
AcDbSpline
210
0.0
220
0.0
230
1.0
 70
     8
 71
     3
 72
    12
 73
     8
 74
     0
 42
0.000000001
 43
0.00000001
 40
0.0
 40
0.0
 40
0.0
 40
0.0
 40
0.249999999999998
 40
0.249999999999998
 40
0.499999999999996
 40
0.499999999999996
 40
1.0
 40
1.0
 40
1.0
 40
1.0
 10
263.6210379999783
 20
59.16972825918121
 30
0.0
 10
263.6745096111899
 20
59.13885975508332
 30
0.0
 10
263.7269681510675
 20
59.0901658710658
 30
0.0
 10
263.8180229827291
 20
58.97388954590816
 30
0.0
 10
263.8566469222999
 20
58.90668100437767
 30
0.0
 10
263.9465706138951
 20
58.70314490316815
 30
0.0
 10
263.9745913905716
 20
58.56270923095067
 30
0.0
 10
263.9745913905716
 20
58.44034770318405
 30
0.0
  0
LINE
  5
200
330
1F
100
AcDbEntity
  8
0
  6
Continuous
 62
     7
370
    15
100
AcDbLine
 10
241.1421723061
 20
37.4786288067
 30
0.0
 11
239.935236631
 21
38.1753779412
 31
0.0
  0
LWPOLYLINE
  5
201
330
1F
100
AcDbEntity
  8
0
  6
Continuous
 62
     7
370
    15
100
AcDbPolyline
 90
       24
 70
   128
 43
0.0
 10
239.935236631
 20
38.1753779412
 10
240.2916604216
 20
39.7312256975
 10
240.7477052069
 20
41.3040019783
 10
241.299964459
 20
42.8819585819
 10
241.944312955
 20
44.4533086112
 10
242.6759375906
 20
46.0063145182
 10
243.4893733333
 20
47.5293757805
 10
244.378544044
 20
49.0111155539
 10
245.3368078648
 20
50.440465654
 10
246.3570068314
 20
51.806749233
 10
247.4315203409
 20
53.0997605324
 10
248.5523220762
 20
54.309841117
 10
249.7110399598
 20
55.4279520215
 10
250.8990186913
 20
56.445741268
 10
252.1073843998
 20
57.3556062539
 10
253.3271109293
 20
58.1507505405
 10
254.5490872617
 20
58.8252346212
 10
255.7641855734
 20
59.3740202873
 10
256.9633294179
 20
59.7930082625
 10
258.1375615238
 20
60.079068823
 10
259.278110704
 20
60.2300651759
 10
260.3764573728
 20
60.2448694205
 10
261.4243971862
 20
60.1233709733
 10
262.4141023249
 20
59.8664773937
  0
LINE
  5
202
330
1F
100
AcDbEntity
  8
0
  6
Continuous
 62
     7
370
    15
100
AcDbLine
 10
262.4141023249
 20
59.8664773937
 30
0.0
 11
263.621038
 21
59.1697282592
 31
0.0
  0
LINE
  5
203
330
1F
100
AcDbEntity
  8
0
  6
Continuous
 62
     7
370
    15
100
AcDbLine
 10
243.2033296932
 20
36.793082567
 30
0.0
 11
243.2033296932
 21
38.2603055831
 31
0.0
  0
LINE
  5
204
330
1F
100
AcDbEntity
  8
0
  6
Continuous
 62
     7
370
    15
100
AcDbLine
 10
243.2033296932
 20
38.2603055831
 30
0.0
 11
241.8611866991
 21
37.4855029247
 31
0.0
  0
LINE
  5
205
330
1F
100
AcDbEntity
  8
0
  6
Continuous
 62
     7
370
    15
100
AcDbLine
 10
263.9745913906
 20
58.4403477032
 30
0.0
 11
263.9745913906
 21
58.2381151411
 31
0.0
  0
SPLINE
  5
206
330
1F
100
AcDbEntity
  8
0
  6
Continuous
 62
     7
370
    15
100
AcDbSpline
210
0.0
220
0.0
230
1.0
 70
     8
 71
     3
 72
    18
 73
    14
 74
     0
 42
0.000000001
 43
0.00000001
 40
0.0
 40
0.0
 40
0.0
 40
0.0
 40
0.25
 40
0.25
 40
0.5
 40
0.5
 40
0.5625
 40
0.5625
 40
0.625
 40
0.625
 40
0.75
 40
0.75
 40
1.0
 40
1.0
 40
1.0
 40
1.0
 10
243.2033296932167
 20
31.56212048031068
 30
0.0
 10
243.2033296932167
 20
31.99697625055614
 30
0.0
 10
243.2230144262976
 20
32.41998122798185
 30
0.0
 10
243.2585967293906
 20
33.26827116726172
 30
0.0
 10
243.2738736294701
 20
33.69392979081356
 30
0.0
 10
243.2740801344714
 20
34.23737518148827
 30
0.0
 10
243.2732699025203
 20
34.34783708290142
 30
0.0
 10
243.2700635269141
 20
34.56838774014531
 30
0.0
 10
243.2676698100116
 20
34.6791007231913
 30
0.0
 10
243.2586254331989
 20
35.01227119558197
 30
0.0
 10
243.2500803741281
 20
35.2357788343199
 30
0.0
 10
243.2232516306914
 20
35.90696953809497
 30
0.0
 10
243.2033296932167
 20
36.35556150101909
 30
0.0
 10
243.2033296932167
 20
36.7930825669995
 30
0.0
  0
LWPOLYLINE
  5
207
330
1F
100
AcDbEntity
  8
0
  6
Continuous
 62
     7
370
    15
100
AcDbPolyline
 90
       22
 70
   128
 43
0.0
 10
239.0408436432
 20
39.882245526
 10
239.4018633327
 20
41.3638716515
 10
239.8586863219
 20
42.8590902275
 10
240.4077547259
 20
44.356256009
 10
241.0447922227
 20
45.8437085859
 10
241.7648373589
 20
47.3098631975
 10
242.5622821905
 20
48.7433009586
 10
243.4309159598
 20
50.1328577934
 10
244.3639734668
 20
51.4677113848
 10
245.3541877585
 20
52.7374654623
 10
246.3938467265
 20
53.9322307715
 10
247.4748531712
 20
55.0427020946
 10
248.5887878657
 20
56.0602307226
 10
249.726975127
 20
56.9768918141
 10
250.8805503856
 20
57.7855461169
 10
252.040529225
 20
58.4798955702
 10
253.1978773558
 20
59.0545323565
 10
254.3435809772
 20
59.504981019
 10
255.4687169798
 20
59.8277333182
 10
256.5645224412
 20
60.0202755551
 10
257.622462875
 20
60.0811081485
 10
258.070520266
 20
60.0661955206
  0
SPLINE
  5
208
330
1F
100
AcDbEntity
  8
0
  6
Continuous
 62
     7
370
    15
100
AcDbSpline
210
0.0
220
0.0
230
1.0
 70
     8
 71
     3
 72
     8
 73
     4
 74
     0
 42
0.000000001
 43
0.00000001
 40
0.0
 40
0.0
 40
0.0
 40
0.0
 40
1.0
 40
1.0
 40
1.0
 40
1.0
 10
239.0408436431704
 20
39.88224552595061
 30
0.0
 10
238.5056450689772
 20
39.79410388716974
 30
0.0
 10
237.9702545550422
 20
39.70634672635492
 30
0.0
 10
237.4347158519374
 20
39.6188978608259
 30
0.0
  0
LWPOLYLINE
  5
209
330
1F
100
AcDbEntity
  8
0
  6
Continuous
 62
     7
370
    15
100
AcDbPolyline
 90
       24
 70
   128
 43
0.0
 10
237.4347158519
 20
39.6188978608
 10
237.7911396425
 20
41.1747456171
 10
238.2471844278
 20
42.7475218979
 10
238.7994436799
 20
44.3254785015
 10
239.4437921759
 20
45.8968285308
 10
240.1754168115
 20
47.4498344378
 10
240.9888525542
 20
48.9728957001
 10
241.8780232649
 20
50.4546354734
 10
242.8362870858
 20
51.8839855736
 10
243.8564860523
 20
53.2502691526
 10
244.9309995618
 20
54.5432804519
 10
246.0518012971
 20
55.7533610366
 10
247.2105191807
 20
56.8714719411
 10
248.3984979123
 20
57.8892611876
 10
249.6068636207
 20
58.7991261735
 10
250.8265901502
 20
59.5942704601
 10
252.0485664826
 20
60.2687545408
 10
253.2636647943
 20
60.8175402069
 10
254.4628086388
 20
61.2365281821
 10
255.6370407448
 20
61.5225887426
 10
256.7775899249
 20
61.6735850955
 10
257.8759365937
 20
61.6883893401
 10
258.9238764071
 20
61.5668908928
 10
259.9135815458
 20
61.3099973133
  0
LINE
  5
20A
330
1F
100
AcDbEntity
  8
0
  6
Continuous
 62
     7
370
    15
100
AcDbLine
 10
259.9135815458
 20
61.3099973133
 30
0.0
 11
260.2659851468
 21
60.1896551497
 31
0.0
  0
LINE
  5
20B
330
1F
100
AcDbEntity
  8
0
  6
Continuous
 62
     7
370
    15
100
AcDbLine
 10
256.1964167975
 20
63.4558708463
 30
0.0
 11
259.9135815458
 21
61.3099973133
 31
0.0
  0
LINE
  5
20C
330
1F
100
AcDbEntity
  8
0
  6
Continuous
 62
     7
370
    15
100
AcDbLine
 10
237.4347158519
 20
39.6188978608
 30
0.0
 11
236.899531619
 21
39.9278531422
 31
0.0
  0
SPLINE
  5
20D
330
1F
100
AcDbEntity
  8
0
  6
Continuous
 62
     7
370
    15
100
AcDbSpline
210
0.0
220
0.0
230
1.0
 70
     8
 71
     3
 72
    30
 73
    26
 74
     0
 42
0.000000001
 43
0.00000001
 40
0.0
 40
0.0
 40
0.0
 40
0.0
 40
0.1250000000000005
 40
0.1250000000000005
 40
0.1875000000000008
 40
0.1875000000000008
 40
0.2500000000000011
 40
0.2500000000000011
 40
0.3750000000000012
 40
0.3750000000000012
 40
0.4375000000000013
 40
0.4375000000000013
 40
0.5000000000000013
 40
0.5000000000000013
 40
0.6250000000000011
 40
0.6250000000000011
 40
0.6875000000000009
 40
0.6875000000000009
 40
0.7500000000000007
 40
0.7500000000000007
 40
0.8125000000000006
 40
0.8125000000000006
 40
0.8750000000000003
 40
0.8750000000000003
 40
1.0
 40
1.0
 40
1.0
 40
1.0
 10
236.899531618987
 20
39.92785314221013
 30
0.0
 10
236.6883980629376
 20
40.04973794972632
 30
0.0
 10
236.4755471138303
 20
40.14233365506154
 30
0.0
 10
236.1542227846947
 20
40.23952274486489
 30
0.0
 10
236.0467784883608
 20
40.26492049116968
 30
0.0
 10
235.8313728254602
 20
40.30152610109675
 30
0.0
 10
235.7233233493309
 20
40.31263831006834
 30
0.0
 10
235.4059460794111
 20
40.32413877169737
 30
0.0
 10
235.2008523955587
 20
40.30343055675695
 30
0.0
 10
234.9044200985165
 20
40.23128911498192
 30
0.0
 10
234.8069982542866
 20
40.20012823379106
 30
0.0
 10
234.6191012709602
 20
40.12482222092149
 30
0.0
 10
234.5287578137556
 20
40.0808332329859
 30
0.0
 10
234.2686966772027
 20
39.93064105141875
 30
0.0
 10
234.1098338449514
 20
39.80639516793364
 30
0.0
 10
233.8958806635677
 20
39.58357581964491
 30
0.0
 10
233.8292751125304
 20
39.50374747156368
 30
0.0
 10
233.7071332307924
 20
39.33526978766693
 30
0.0
 10
233.651328363725
 20
39.24634571260358
 30
0.0
 10
233.5504141843192
 20
39.05931211008863
 30
0.0
 10
233.5053041736346
 20
38.96120268420468
 30
0.0
 10
233.4262195622517
 20
38.75568755157745
 30
0.0
 10
233.3921321286148
 20
38.64772093722289
 30
0.0
 10
233.3089021606469
 20
38.31472538180948
 30
0.0
 10
233.2781772459288
 20
38.08039707977159
 30
0.0
 10
233.272899525678
 20
37.83364584820409
 30
0.0
  0
ARC
  5
20E
330
1F
100
AcDbEntity
  8
0
  6
Continuous
 62
     7
370
    15
100
AcDbCircle
 10
252.1252296361
 20
37.4253754423
 30
0.0
 40
18.85675039126136
100
AcDbArc
 50
178.7593833157
 51
181.2406166843
  0
SPLINE
  5
20F
330
1F
100
AcDbEntity
  8
0
  6
Continuous
 62
     7
370
    15
100
AcDbSpline
210
0.0
220
0.0
230
1.0
 70
     8
 71
     3
 72
    30
 73
    26
 74
     0
 42
0.000000001
 43
0.00000001
 40
0.0
 40
0.0
 40
0.0
 40
0.0
 40
0.1250000000000001
 40
0.1250000000000001
 40
0.1875000000000002
 40
0.1875000000000002
 40
0.2500000000000003
 40
0.2500000000000003
 40
0.3750000000000004
 40
0.3750000000000004
 40
0.4375000000000003
 40
0.4375000000000003
 40
0.5000000000000003
 40
0.5000000000000003
 40
0.625
 40
0.625
 40
0.6875
 40
0.6875
 40
0.75
 40
0.75
 40
0.8125000000000001
 40
0.8125000000000001
 40
0.8750000000000001
 40
0.8750000000000001
 40
1.0
 40
1.0
 40
1.0
 40
1.0
 10
233.272899525678
 20
37.01710503631834
 30
0.0
 10
233.2781777393039
 20
36.77642483353504
 30
0.0
 10
233.3088742636843
 20
36.53078531411025
 30
0.0
 10
233.3909022523563
 20
36.15501045185255
 30
0.0
 10
233.4242808276034
 20
36.02851907226808
 30
0.0
 10
233.5032022646783
 20
35.7729221202335
 30
0.0
 10
233.5489052043121
 20
35.64358842673398
 30
0.0
 10
233.700990598289
 20
35.25997481095759
 30
0.0
 10
233.8229799423903
 20
35.00724669727963
 30
0.0
 10
234.0349761608089
 20
34.63146234216151
 30
0.0
 10
234.1109084681371
 20
34.50615084297397
 30
0.0
 10
234.270592585781
 20
34.25947319378493
 30
0.0
 10
234.3539688028475
 20
34.13859257542221
 30
0.0
 10
234.6139545502617
 20
33.7827556929218
 30
0.0
 10
234.8003291818031
 20
33.55454180510068
 30
0.0
 10
235.0982965207415
 20
33.22470727031183
 30
0.0
 10
235.2002894380776
 20
33.11738643112512
 30
0.0
 10
235.4057837383377
 20
32.91133787886266
 30
0.0
 10
235.509777880899
 20
32.81205789125359
 30
0.0
 10
235.7199877678713
 20
32.620738482577
 30
0.0
 10
235.8262037755628
 20
32.52869912339619
 30
0.0
 10
236.0406920790099
 20
32.35185880823533
 30
0.0
 10
236.1495027042766
 20
32.26666919691532
 30
0.0
 10
236.4743698988025
 20
32.02565438409597
 30
0.0
 10
236.688392310171
 20
31.88433315187031
 30
0.0
 10
236.899531618987
 20
31.76244502335263
 30
0.0
  0
LINE
  5
210
330
1F
100
AcDbEntity
  8
0
  6
Continuous
 62
     7
370
    15
100
AcDbLine
 10
236.899531619
 20
31.7624450234
 30
0.0
 11
237.4347158519
 21
31.453489742
 31
0.0
  0
ARC
  5
211
330
1F
100
AcDbEntity
  8
0
  6
Continuous
 62
     7
370
    15
100
AcDbCircle
 10
245.1175040675
 20
32.8818945775
 30
0.0
 40
7.814446566401054
100
AcDbArc
 50
190.5323277916
 51
250.0974486592
  0
LINE
  5
212
330
1F
100
AcDbEntity
  8
0
  6
Continuous
 62
     7
370
    15
100
AcDbLine
 10
262.2097330244
 20
59.9840263695
 30
0.0
 11
262.2987812893
 21
59.9043610854
 31
0.0
  0
LINE
  5
213
330
1F
100
AcDbEntity
  8
0
  6
Continuous
 62
     7
370
    15
100
AcDbLine
 10
261.548759847
 20
60.3655980628
 30
0.0
 11
262.2097330244
 21
59.9840263695
 31
0.0
  0
SPLINE
  5
214
330
1F
100
AcDbEntity
  8
0
  6
Continuous
 62
     7
370
    15
100
AcDbSpline
210
0.0
220
0.0
230
1.0
 70
     8
 71
     3
 72
    26
 73
    22
 74
     0
 42
0.000000001
 43
0.00000001
 40
0.0
 40
0.0
 40
0.0
 40
0.0
 40
0.2499999999999984
 40
0.2499999999999984
 40
0.3124999999999984
 40
0.3124999999999984
 40
0.3749999999999983
 40
0.3749999999999983
 40
0.4999999999999983
 40
0.4999999999999983
 40
0.6249999999999984
 40
0.6249999999999984
 40
0.7499999999999986
 40
0.7499999999999986
 40
0.812499999999999
 40
0.812499999999999
 40
0.8749999999999993
 40
0.8749999999999993
 40
0.9374999999999998
 40
0.9374999999999998
 40
1.0
 40
1.0
 40
1.0
 40
1.0
 10
256.1964167975195
 20
63.45587084625043
 30
0.0
 10
256.5821631414037
 20
63.30817478063528
 30
0.0
 10
256.9816678555845
 20
63.1225788282504
 30
0.0
 10
257.514262053553
 20
62.84012132685382
 30
0.0
 10
257.6224832573398
 20
62.78108879342744
 30
0.0
 10
257.8429569731456
 20
62.65776777786974
 30
0.0
 10
257.9552426154259
 20
62.59344535060768
 30
0.0
 10
258.2935852096676
 20
62.39567338999159
 30
0.0
 10
258.5228085985232
 20
62.25648554049899
 30
0.0
 10
258.992057406657
 20
61.96487390622044
 30
0.0
 10
259.2344141568549
 20
61.81092526200176
 30
0.0
 10
259.7154428362632
 20
61.50338807494462
 30
0.0
 10
259.9555444703201
 20
61.3489509446251
 30
0.0
 10
260.3167107391194
 20
61.11884459583308
 30
0.0
 10
260.4367745912999
 20
61.04272556750864
 30
0.0
 10
260.6710188424566
 20
60.89547029987269
 30
0.0
 10
260.7859722354946
 20
60.82383980689251
 30
0.0
 10
261.0116591931236
 20
60.68488338709793
 30
0.0
 10
261.122393551291
 20
60.61755649522198
 30
0.0
 10
261.3395647400324
 20
60.48756911918277
 30
0.0
 10
261.4462451459686
 20
60.42477854004356
 30
0.0
 10
261.5487598470029
 20
60.36559806282835
 30
0.0
  0
ARC
  5
215
330
1F
100
AcDbEntity
  8
0
  6
Continuous
 62
     7
370
    15
100
AcDbCircle
 10
252.3978221704
 20
56.5430903568
 30
0.0
 40
8.021901656421525
100
AcDbArc
 50
61.7881245076
 51
104.5263783942
  0
ARC
  5
216
330
1F
100
AcDbEntity
  8
0
  6
Continuous
 62
     7
370
    15
100
AcDbCircle
 10
240.6239506088
 20
35.9707122146
 30
0.0
 40
8.285769792161561
100
AcDbArc
 50
193.0854393647
 51
237.6610381998
  0
ARC
  5
217
330
1F
100
AcDbEntity
  8
0
  6
Continuous
 62
     7
370
    15
100
AcDbCircle
 10
264.3863894438
 20
15.2004563511
 30
0.0
 40
2.092951829078113
100
AcDbArc
 50
289.2456812522
 51
300.2840370279
  0
LINE
  5
218
330
1F
100
AcDbEntity
  8
0
  6
Continuous
 62
     7
370
    15
100
AcDbLine
 10
239.5585641348
 20
40.1811192041
 30
0.0
 11
239.0408436432
 21
39.882245526
 31
0.0
  0
LINE
  5
219
330
1F
100
AcDbEntity
  8
0
  6
Continuous
 62
     7
370
    15
100
AcDbLine
 10
240.2120915747
 20
39.4174452707
 30
0.0
 11
240.0001359744
 21
39.5398046343
 31
0.0
  0
SPLINE
  5
21A
330
1F
100
AcDbEntity
  8
0
  6
Continuous
 62
     7
370
    15
100
AcDbSpline
210
0.0
220
0.0
230
1.0
 70
     8
 71
     3
 72
    14
 73
    10
 74
     0
 42
0.000000001
 43
0.00000001
 40
0.0
 40
0.0
 40
0.0
 40
0.0
 40
0.1250000000000003
 40
0.1250000000000003
 40
0.2500000000000007
 40
0.2500000000000007
 40
0.5000000000000008
 40
0.5000000000000008
 40
1.0
 40
1.0
 40
1.0
 40
1.0
 10
240.0001359744416
 20
39.53980463429694
 30
0.0
 10
239.9756784124901
 20
39.5539236842791
 30
0.0
 10
239.9533616866696
 20
39.58230134001113
 30
0.0
 10
239.9178024191889
 20
39.64159377616128
 30
0.0
 10
239.9039452363235
 20
39.67217029418043
 30
0.0
 10
239.8668602735435
 20
39.76403857970251
 30
0.0
 10
239.8481970961626
 20
39.8265359127666
 30
0.0
 10
239.8002598078722
 20
40.00983591050865
 30
0.0
 10
239.778754881922
 20
40.12908697033662
 30
0.0
 10
239.7618133967517
 20
40.24705065197523
 30
0.0
  0
SPLINE
  5
21B
330
1F
100
AcDbEntity
  8
0
  6
Continuous
 62
     7
370
    15
100
AcDbSpline
210
0.0
220
0.0
230
1.0
 70
     8
 71
     3
 72
    10
 73
     6
 74
     0
 42
0.000000001
 43
0.00000001
 40
0.0
 40
0.0
 40
0.0
 40
0.0
 40
0.5
 40
0.5
 40
1.0
 40
1.0
 40
1.0
 40
1.0
 10
239.7618133967517
 20
40.24705065197523
 30
0.0
 10
239.7235007916358
 20
40.24174465718198
 30
0.0
 10
239.6861637988429
 20
40.23322485942414
 30
0.0
 10
239.617576394696
 20
40.21087611730518
 30
0.0
 10
239.5864750694363
 20
40.19723184366158
 30
0.0
 10
239.5585641348456
 20
40.18111920408955
 30
0.0
  0
LINE
  5
21C
330
1F
100
AcDbEntity
  8
0
  6
Continuous
 62
     7
370
    15
100
AcDbLine
 10
284.1271560419
 20
45.6077922885
 30
0.0
 11
285.8242123167
 21
44.6281025543
 31
0.0
  0
ARC
  5
21D
330
1F
100
AcDbEntity
  8
0
  6
Continuous
 62
     7
370
    15
100
AcDbCircle
 10
283.0127667562
 20
45.1758530539
 30
0.0
 40
2.864307376955956
100
AcDbArc
 50
348.9752422931
 51
0.4744264118
  0
LINE
  5
21E
330
1F
100
AcDbEntity
  8
0
  6
Continuous
 62
     7
370
    15
100
AcDbLine
 10
265.4418379615
 20
13.3931169293
 30
0.0
 11
270.162887114
 21
16.1185205932
 31
0.0
  0
LWPOLYLINE
  5
21F
330
1F
100
AcDbEntity
  8
0
  6
Continuous
 62
     7
370
    15
100
AcDbPolyline
 90
       10
 70
   128
 43
0.0
 10
270.162887114
 20
16.1185205932
 10
271.1325931829
 20
16.209308945
 10
272.1377441888
 20
16.4337196409
 10
273.1684647195
 20
16.7895478896
 10
274.2146281473
 20
17.2732977482
 10
275.265956121
 20
17.8802164687
 10
276.3121195488
 20
18.6043411936
 10
277.3428400795
 20
19.4385575388
 10
278.3479910854
 20
20.3746694919
 10
279.3176971543
 20
21.403479936
  0
LINE
  5
220
330
1F
100
AcDbEntity
  8
0
  6
Continuous
 62
     7
370
    15
100
AcDbLine
 10
279.3176971543
 20
21.403479936
 30
0.0
 11
284.0387463067
 21
24.1288835998
 31
0.0
  0
ARC
  5
221
330
1F
100
AcDbEntity
  8
0
  6
Continuous
 62
     7
370
    15
100
AcDbCircle
 10
282.6192273743
 20
26.5668787222
 30
0.0
 40
2.821144132525199
100
AcDbArc
 50
300.2100382904
 51
309.2535885358
  0
LINE
  5
222
330
1F
100
AcDbEntity
  8
0
  6
Continuous
 62
     7
370
    15
100
AcDbLine
 10
270.162887114
 20
16.1185205932
 30
0.0
 11
268.4658308391
 21
17.0982103274
 31
0.0
  0
ARC
  5
223
330
1F
100
AcDbEntity
  8
0
  6
Continuous
 62
     7
370
    15
100
AcDbCircle
 10
283.8258501767
 20
27.3242302544
 30
0.0
 40
2.051642022023055
100
AcDbArc
 50
358.7146261105
 51
13.0861783431
  0
LWPOLYLINE
  5
224
330
1F
100
AcDbEntity
  8
0
  6
Continuous
 62
     7
370
    15
100
AcDbPolyline
 90
       14
 70
   128
 43
0.0
 10
285.8242123167
 20
27.7887555428
 10
286.4316472921
 20
29.3173464258
 10
286.9454603364
 20
30.8498809193
 10
287.3615369422
 20
32.3740868071
 10
287.6765452549
 20
33.8777585668
 10
287.8879627536
 20
35.3488551087
 10
287.9940964512
 20
36.7755961991
 10
287.9940964512
 20
38.146556793
 10
287.8879627536
 20
39.4507585244
 10
287.6765452549
 20
40.6777576181
 10
287.3615369422
 20
41.8177285215
 10
286.9454603364
 20
42.8615425857
 10
286.4316472921
 20
43.8008411656
 10
285.8242123167
 20
44.6281025543
  0
LINE
  5
225
330
1F
100
AcDbEntity
  8
0
  6
Continuous
 62
     7
370
    15
100
AcDbLine
 10
284.1271560419
 20
28.768445277
 30
0.0
 11
285.8242123167
 21
27.7887555428
 31
0.0
  0
LINE
  5
226
330
1F
100
AcDbEntity
  8
0
  6
Continuous
 62
     7
370
    15
100
AcDbLine
 10
241.0233470792
 20
31.3533746398
 30
0.0
 11
243.2033296932
 21
30.0948974642
 31
0.0
  0
SPLINE
  5
227
330
1F
100
AcDbEntity
  8
0
  6
Continuous
 62
     7
370
    15
100
AcDbSpline
210
0.0
220
0.0
230
1.0
 70
     8
 71
     3
 72
    16
 73
    12
 74
     0
 42
0.000000001
 43
0.00000001
 40
0.0
 40
0.0
 40
0.0
 40
0.0
 40
0.1250000000000011
 40
0.1250000000000011
 40
0.2500000000000021
 40
0.2500000000000021
 40
0.5000000000000014
 40
0.5000000000000014
 40
0.7500000000000008
 40
0.7500000000000008
 40
1.0
 40
1.0
 40
1.0
 40
1.0
 10
240.7850245015587
 20
32.06062065750852
 30
0.0
 10
240.8093287599431
 20
32.04659010779184
 30
0.0
 10
240.8317944959131
 20
32.01806125991854
 30
0.0
 10
240.8669105311282
 20
31.95964668925559
 30
0.0
 10
240.8811809866831
 20
31.92834945838763
 30
0.0
 10
240.9184872037103
 20
31.83590420373346
 30
0.0
 10
240.9369330328996
 20
31.77404550945991
 30
0.0
 10
240.9691351258803
 20
31.65083248478073
 30
0.0
 10
240.9823902986251
 20
31.58991804480716
 30
0.0
 10
241.0052670793524
 20
31.47068853199651
 30
0.0
 10
241.0149604713504
 20
31.41177065022677
 30
0.0
 10
241.0233470792486
 20
31.35337463983024
 30
0.0
  0
LINE
  5
228
330
1F
100
AcDbEntity
  8
0
  6
Continuous
 62
     7
370
    15
100
AcDbLine
 10
240.0001359744
 20
32.5137271596
 30
0.0
 11
240.7850245016
 21
32.0606206575
 31
0.0
  0
SPLINE
  5
229
330
1F
100
AcDbEntity
  8
0
  6
Continuous
 62
     7
370
    15
100
AcDbSpline
210
0.0
220
0.0
230
1.0
 70
     8
 71
     3
 72
    14
 73
    10
 74
     0
 42
0.000000001
 43
0.00000001
 40
0.0
 40
0.0
 40
0.0
 40
0.0
 40
0.5000000000000013
 40
0.5000000000000013
 40
0.7500000000000009
 40
0.7500000000000009
 40
0.8750000000000004
 40
0.8750000000000004
 40
1.0
 40
1.0
 40
1.0
 40
1.0
 10
239.7618133967517
 20
32.08164253311756
 30
0.0
 10
239.7787034865673
 20
32.17974746592341
 30
0.0
 10
239.8004301103055
 20
32.275022313037
 30
0.0
 10
239.8482844578532
 20
32.40260381207796
 30
0.0
 10
239.8665637354843
 20
32.44300826546928
 30
0.0
 10
239.9041864998591
 20
32.49272480464645
 30
0.0
 10
239.9181259723346
 20
32.50722756980091
 30
0.0
 10
239.9534503000892
 20
32.5252162809358
 30
0.0
 10
239.9759784643242
 20
32.52767299331549
 30
0.0
 10
240.0001359744416
 20
32.51372715957012
 30
0.0
  0
LINE
  5
22A
330
1F
100
AcDbEntity
  8
0
  6
Continuous
 62
     7
370
    15
100
AcDbLine
 10
238.6071356155
 20
32.7482238277
 30
0.0
 11
239.7618133968
 21
32.0816425331
 31
0.0
  0
ARC
  5
22B
330
1F
100
AcDbEntity
  8
0
  6
Continuous
 62
     7
370
    15
100
AcDbCircle
 10
242.3336275563
 20
38.5739495679
 30
0.0
 40
6.915621634074371
100
AcDbArc
 50
182.6054784857
 51
237.39452166
  0
LINE
  5
22C
330
1F
100
AcDbEntity
  8
0
  6
Continuous
 62
     7
370
    15
100
AcDbLine
 10
235.4251551002
 20
39.0761165446
 30
0.0
 11
235.4251551002
 21
38.2595757327
 31
0.0
  0
ARC
  5
22D
330
1F
100
AcDbEntity
  8
0
  6
Continuous
 62
     7
370
    15
100
AcDbCircle
 10
238.3429276059
 20
39.1743405659
 30
0.0
 40
2.919425346497171
100
AcDbArc
 50
156.4116280382
 51
181.9280795049
  0
LINE
  5
22E
330
1F
100
AcDbEntity
  8
0
  6
Continuous
 62
     7
370
    15
100
AcDbLine
 10
243.2033296932
 20
30.0948974642
 30
0.0
 11
243.2033296932
 21
31.5621204803
 31
0.0
  0
LINE
  5
22F
330
1F
100
AcDbEntity
  8
0
  6
Continuous
 62
     7
370
    15
100
AcDbLine
 10
277.6206408795
 20
22.3831696701
 30
0.0
 11
279.3176971543
 21
21.403479936
 31
0.0
  0
SPLINE
  5
230
330
1F
100
AcDbEntity
  8
0
  6
Continuous
 62
     7
370
    15
100
AcDbSpline
210
0.0
220
0.0
230
1.0
 70
     8
 71
     3
 72
    14
 73
    10
 74
     0
 42
0.000000001
 43
0.00000001
 40
0.0
 40
0.0
 40
0.0
 40
0.0
 40
0.5000000000000016
 40
0.5000000000000016
 40
0.7500000000000023
 40
0.7500000000000023
 40
0.8750000000000011
 40
0.8750000000000011
 40
1.0
 40
1.0
 40
1.0
 40
1.0
 10
223.3629276256701
 20
44.01136121834415
 30
0.0
 10
223.7365455479091
 20
43.74238215002249
 30
0.0
 10
224.1116197759721
 20
43.47023277116134
 30
0.0
 10
224.6796441823199
 20
43.05061770893425
 30
0.0
 10
224.8698755611492
 20
42.90887275941685
 30
0.0
 10
225.1581297830607
 20
42.69021328355633
 30
0.0
 10
225.2547026113169
 20
42.61631246251208
 30
0.0
 10
225.4496383853206
 20
42.4648087563491
 30
0.0
 10
225.5478719645242
 20
42.38747187294994
 30
0.0
 10
225.6483747728126
 20
42.30545856094022
 30
0.0
  0
SPLINE
  5
231
330
1F
100
AcDbEntity
  8
0
  6
Continuous
 62
     7
370
    15
100
AcDbSpline
210
0.0
220
0.0
230
1.0
 70
     8
 71
     3
 72
     8
 73
     4
 74
     0
 42
0.000000001
 43
0.00000001
 40
0.0
 40
0.0
 40
0.0
 40
0.0
 40
1.0
 40
1.0
 40
1.0
 40
1.0
 10
225.6483747728126
 20
42.3054585609401
 30
0.0
 10
225.9548010135533
 20
42.05540553935968
 30
0.0
 10
226.2608235588602
 20
41.81316366356472
 30
0.0
 10
226.5666150390886
 20
41.57539269049061
 30
0.0
  0
SPLINE
  5
232
330
1F
100
AcDbEntity
  8
0
  6
Continuous
 62
     7
370
    15
100
AcDbSpline
210
0.0
220
0.0
230
1.0
 70
     8
 71
     3
 72
    14
 73
    10
 74
     0
 42
0.000000001
 43
0.00000001
 40
0.0
 40
0.0
 40
0.0
 40
0.0
 40
0.1249999999999967
 40
0.1249999999999967
 40
0.2499999999999933
 40
0.2499999999999933
 40
0.4999999999999956
 40
0.4999999999999956
 40
1.0
 40
1.0
 40
1.0
 40
1.0
 10
226.5666150390886
 20
41.57539269049058
 30
0.0
 10
226.5860536536553
 20
41.56027801725877
 30
0.0
 10
226.604458580479
 20
41.54765410168561
 30
0.0
 10
226.6350144356364
 20
41.53041511866842
 30
0.0
 10
226.6472059331928
 20
41.52569745829309
 30
0.0
 10
226.6750334100286
 20
41.52017741307208
 30
0.0
 10
226.6834443489033
 20
41.52667094101288
 30
0.0
 10
226.6972635241308
 20
41.55659736729613
 30
0.0
 10
226.6913660274765
 20
41.59002726524436
 30
0.0
 10
226.6817742786817
 20
41.62779164543728
 30
0.0
  0
SPLINE
  5
233
330
1F
100
AcDbEntity
  8
0
  6
Continuous
 62
     7
370
    15
100
AcDbSpline
210
0.0
220
0.0
230
1.0
 70
     8
 71
     3
 72
    16
 73
    12
 74
     0
 42
0.000000001
 43
0.00000001
 40
0.0
 40
0.0
 40
0.0
 40
0.0
 40
0.1249999999999996
 40
0.1249999999999996
 40
0.2499999999999992
 40
0.2499999999999992
 40
0.4999999999999994
 40
0.4999999999999994
 40
0.7499999999999997
 40
0.7499999999999997
 40
1.0
 40
1.0
 40
1.0
 40
1.0
 10
226.6817742786818
 20
41.62779164543718
 30
0.0
 10
226.6738942272891
 20
41.6588167757967
 30
0.0
 10
226.6707938266736
 20
41.6869281001328
 30
0.0
 10
226.6671328007658
 20
41.74245586849325
 30
0.0
 10
226.6666980536076
 20
41.76984215333555
 30
0.0
 10
226.6651561779755
 20
41.8544851344472
 30
0.0
 10
226.6637430510806
 20
41.91426686221208
 30
0.0
 10
226.6500635900042
 20
42.04949458736419
 30
0.0
 10
226.6380511843503
 20
42.12483588719756
 30
0.0
 10
226.5966000513146
 20
42.29749416776614
 30
0.0
 10
226.5677249074542
 20
42.39279658303838
 30
0.0
 10
226.5274300344789
 20
42.49952136250632
 30
0.0
  0
ARC
  5
234
330
1F
100
AcDbEntity
  8
0
  6
Continuous
 62
     7
370
    15
100
AcDbCircle
 10
239.4060324711
 20
46.4917775679
 30
0.0
 40
13.48319362501745
100
AcDbArc
 50
162.7770125163
 51
197.2229874838
  0
SPLINE
  5
235
330
1F
100
AcDbEntity
  8
0
  6
Continuous
 62
     7
370
    15
100
AcDbSpline
210
0.0
220
0.0
230
1.0
 70
     8
 71
     3
 72
    16
 73
    12
 74
     0
 42
0.000000001
 43
0.00000001
 40
0.0
 40
0.0
 40
0.0
 40
0.0
 40
0.1249999999999996
 40
0.1249999999999996
 40
0.2499999999999992
 40
0.2499999999999992
 40
0.4999999999999994
 40
0.4999999999999994
 40
0.7499999999999997
 40
0.7499999999999997
 40
1.0
 40
1.0
 40
1.0
 40
1.0
 10
226.6817742786818
 20
52.47149470154259
 30
0.0
 10
226.6738942272891
 20
52.38806693579097
 30
0.0
 10
226.6707938266736
 20
52.30374700427316
 30
0.0
 10
226.6671328007658
 20
52.13542357513597
 30
0.0
 10
226.6666980536076
 20
52.0511809823086
 30
0.0
 10
226.6651561779755
 20
51.79861216672668
 30
0.0
 10
226.6637430510806
 20
51.63045021290621
 30
0.0
 10
226.6500635900042
 20
51.29551890133484
 30
0.0
 10
226.6380511843503
 20
51.12847029633758
 30
0.0
 10
226.5966000513146
 20
50.79749362263431
 30
0.0
 10
226.5677249074542
 20
50.6372820228782
 30
0.0
 10
226.5274300344789
 20
50.48403377335277
 30
0.0
  0
SPLINE
  5
236
330
1F
100
AcDbEntity
  8
0
  6
Continuous
 62
     7
370
    15
100
AcDbSpline
210
0.0
220
0.0
230
1.0
 70
     8
 71
     3
 72
    14
 73
    10
 74
     0
 42
0.000000001
 43
0.00000001
 40
0.0
 40
0.0
 40
0.0
 40
0.0
 40
0.1250000000000001
 40
0.1250000000000001
 40
0.2500000000000002
 40
0.2500000000000002
 40
0.5000000000000023
 40
0.5000000000000023
 40
1.0
 40
1.0
 40
1.0
 40
1.0
 10
226.5666150390887
 20
53.00457990115019
 30
0.0
 10
226.5860536536553
 20
53.00170565469707
 30
0.0
 10
226.6044585804791
 20
52.99252032383411
 30
0.0
 10
226.6350144356364
 20
52.96296274136558
 30
0.0
 10
226.6472059331928
 20
52.94287549985957
 30
0.0
 10
226.6750334100286
 20
52.8772833943317
 30
0.0
 10
226.6834443489034
 20
52.82687102982698
 30
0.0
 10
226.6972635241308
 20
52.67467437983009
 30
0.0
 10
226.6913660274764
 20
52.57304456863367
 30
0.0
 10
226.6817742786817
 20
52.47149470154264
 30
0.0
  0
SPLINE
  5
237
330
1F
100
AcDbEntity
  8
0
  6
Continuous
 62
     7
370
    15
100
AcDbSpline
210
0.0
220
0.0
230
1.0
 70
     8
 71
     3
 72
     8
 73
     4
 74
     0
 42
0.000000001
 43
0.00000001
 40
0.0
 40
0.0
 40
0.0
 40
0.0
 40
1.0
 40
1.0
 40
1.0
 40
1.0
 10
225.6483747728126
 20
53.10587503576905
 30
0.0
 10
225.9548010135534
 20
53.0858430576701
 30
0.0
 10
226.2608235588602
 20
53.04979506164555
 30
0.0
 10
226.5666150390887
 20
53.00457990115019
 30
0.0
  0
SPLINE
  5
238
330
1F
100
AcDbEntity
  8
0
  6
Continuous
 62
     7
370
    15
100
AcDbSpline
210
0.0
220
0.0
230
1.0
 70
     8
 71
     3
 72
    14
 73
    10
 74
     0
 42
0.000000001
 43
0.00000001
 40
0.0
 40
0.0
 40
0.0
 40
0.0
 40
0.4999999999999968
 40
0.4999999999999968
 40
0.7499999999999967
 40
0.7499999999999967
 40
0.8749999999999983
 40
0.8749999999999983
 40
1.0
 40
1.0
 40
1.0
 40
1.0
 10
223.3629276256701
 20
53.85000197512145
 30
0.0
 10
223.7365455479091
 20
53.6918753099013
 30
0.0
 10
224.1116197759721
 20
53.54071999453107
 30
0.0
 10
224.6796441823199
 20
53.33931452393681
 30
0.0
 10
224.8698755611492
 20
53.27634407923517
 30
0.0
 10
225.1581297830607
 20
53.1953783142773
 30
0.0
 10
225.2547026113169
 20
53.17065444867589
 30
0.0
 10
225.4496383853206
 20
53.12948590401535
 30
0.0
 10
225.5478719645242
 20
53.1124451978073
 30
0.0
 10
225.6483747728126
 20
53.10587503576882
 30
0.0
  0
SPLINE
  5
239
330
1F
100
AcDbEntity
  8
0
  6
Continuous
 62
     7
370
    15
100
AcDbSpline
210
0.0
220
0.0
230
1.0
 70
     8
 71
     3
 72
     8
 73
     4
 74
     0
 42
0.000000001
 43
0.00000001
 40
0.0
 40
0.0
 40
0.0
 40
0.0
 40
1.0
 40
1.0
 40
1.0
 40
1.0
 10
223.3720391149797
 20
54.03630572195103
 30
0.0
 10
223.3672953806387
 20
53.9743332886873
 30
0.0
 10
223.36434802641
 20
53.91222464288523
 30
0.0
 10
223.3629276256701
 20
53.85000197512145
 30
0.0
  0
LINE
  5
23A
330
1F
100
AcDbEntity
  8
0
  6
Continuous
 62
     7
370
    15
100
AcDbLine
 10
239.2034061673
 20
66.7493913355
 30
0.0
 11
239.3083076277
 21
66.6987156896
 31
0.0
  0
SPLINE
  5
23B
330
1F
100
AcDbEntity
  8
0
  6
Continuous
 62
     7
370
    15
100
AcDbSpline
210
0.0
220
0.0
230
1.0
 70
     8
 71
     3
 72
     8
 73
     4
 74
     0
 42
0.000000001
 43
0.00000001
 40
0.0
 40
0.0
 40
0.0
 40
0.0
 40
1.0
 40
1.0
 40
1.0
 40
1.0
 10
223.3720391149797
 20
43.9417593364249
 30
0.0
 10
223.3672953806387
 20
43.96592133767176
 30
0.0
 10
223.36434802641
 20
43.98905789058124
 30
0.0
 10
223.3629276256701
 20
44.01136121834414
 30
0.0
  0
SPLINE
  5
23C
330
1F
100
AcDbEntity
  8
0
  6
Continuous
 62
     7
370
    15
100
AcDbSpline
210
0.0
220
0.0
230
1.0
 70
     8
 71
     3
 72
    18
 73
    14
 74
     0
 42
0.000000001
 43
0.00000001
 40
0.0
 40
0.0
 40
0.0
 40
0.0
 40
0.1189305819090729
 40
0.2383984300477957
 40
0.3578569038416642
 40
0.4767582654053996
 40
0.5948279708663483
 40
0.6542611296733674
 40
0.712958039788878
 40
0.7715835525388159
 40
0.8313700440050543
 40
0.9498444440687439
 40
1.0
 40
1.0
 40
1.0
 40
1.0
 10
230.1735994655083
 20
42.13602149120958
 30
0.0
 10
230.026616299061
 20
42.41081913955907
 30
0.0
 10
229.731985973017
 20
42.96165582845571
 30
0.0
 10
229.5940577575132
 20
43.80304890858209
 30
0.0
 10
229.7426963261314
 20
44.49889288415768
 30
0.0
 10
230.1467564013218
 20
44.96047051560017
 30
0.0
 10
230.6366090552455
 20
45.06176626773412
 30
0.0
 10
231.0551282081456
 20
44.96871447145185
 30
0.0
 10
231.3707452571818
 20
44.80957361359262
 30
0.0
 10
231.6761802542611
 20
44.5679259399374
 30
0.0
 10
232.047420015652
 20
44.14861768392625
 30
0.0
 10
232.3756168902388
 20
43.63847344024456
 30
0.0
 10
232.5021233184043
 20
43.21860104909125
 30
0.0
 10
232.5397500864129
 20
43.09371853296754
 30
0.0
  0
SPLINE
  5
23D
330
1F
100
AcDbEntity
  8
0
  6
Continuous
 62
     7
370
    15
100
AcDbSpline
210
0.0
220
0.0
230
1.0
 70
     8
 71
     3
 72
    12
 73
     8
 74
     0
 42
0.000000001
 43
0.00000001
 40
0.0
 40
0.0
 40
0.0
 40
0.0
 40
0.1185570729670816
 40
0.4115042959140047
 40
0.5576546835005224
 40
0.705810304970649
 40
1.0
 40
1.0
 40
1.0
 40
1.0
 10
232.1336883960092
 20
40.6652100975804
 30
0.0
 10
232.0737382554251
 20
40.65101576357608
 30
0.0
 10
231.8656550110129
 20
40.60174810476641
 30
0.0
 10
231.4667540687744
 20
40.80249817941743
 30
0.0
 10
231.0499884875845
 20
41.10714501764999
 30
0.0
 10
230.6263038758873
 20
41.49976397627366
 30
0.0
 10
230.3544204317125
 20
41.88188502607318
 30
0.0
 10
230.1735994655083
 20
42.13602149120958
 30
0.0
  0
LINE
  5
23E
330
1F
100
AcDbEntity
  8
0
  6
Continuous
 62
     7
370
    15
100
AcDbLine
 10
241.8611866991
 20
29.3200948058
 30
0.0
 11
243.2033296932
 21
30.0948974642
 31
0.0
  0
ARC
  5
23F
330
1F
100
AcDbEntity
  8
0
  6
Continuous
 62
     7
370
    15
100
AcDbCircle
 10
248.3284876059
 20
29.9830051711
 30
0.0
 40
6.945198326573073
100
AcDbArc
 50
219.0372726425
 51
239.8108294451
  0
SPLINE
  5
240
330
1F
100
AcDbEntity
  8
0
  6
Continuous
 62
     7
370
    15
100
AcDbSpline
210
0.0
220
0.0
230
1.0
 70
     8
 71
     3
 72
    14
 73
    10
 74
     0
 42
0.000000001
 43
0.00000001
 40
0.0
 40
0.0
 40
0.0
 40
0.0
 40
0.25
 40
0.25
 40
0.5
 40
0.5
 40
0.75
 40
0.75
 40
1.0
 40
1.0
 40
1.0
 40
1.0
 10
241.1421723061062
 20
29.3132206878845
 30
0.0
 10
241.1897010033624
 20
29.28578295498707
 30
0.0
 10
241.2462908224871
 20
29.2645402000488
 30
0.0
 10
241.3702053890853
 20
29.23641646884662
 30
0.0
 10
241.4373277604258
 20
29.22974518192449
 30
0.0
 10
241.569897591904
 20
29.23167103311354
 30
0.0
 10
241.6364381400421
 20
29.24030221001893
 30
0.0
 10
241.7580557077943
 20
29.27084584875334
 30
0.0
 10
241.8141912878534
 20
29.29296493242401
 30
0.0
 10
241.8611866990669
 20
29.32009480584195
 30
0.0
  0
LINE
  5
241
330
1F
100
AcDbEntity
  8
0
  6
Continuous
 62
     7
370
    15
100
AcDbLine
 10
239.935236631
 20
30.0099698224
 30
0.0
 11
241.1421723061
 21
29.3132206879
 31
0.0
  0
SPLINE
  5
242
330
1F
100
AcDbEntity
  8
0
  6
Continuous
 62
     7
370
    15
100
AcDbSpline
210
0.0
220
0.0
230
1.0
 70
     8
 71
     3
 72
     8
 73
     4
 74
     0
 42
0.000000001
 43
0.00000001
 40
0.0
 40
0.0
 40
0.0
 40
0.0
 40
1.0
 40
1.0
 40
1.0
 40
1.0
 10
240.3914175952367
 20
30.93716766030242
 30
0.0
 10
240.2387352551563
 20
30.62820409989497
 30
0.0
 10
240.0867189226109
 20
30.3191297350331
 30
0.0
 10
239.9352366310285
 20
30.00996982238451
 30
0.0
  0
LINE
  5
243
330
1F
100
AcDbEntity
  8
0
  6
Continuous
 62
     7
370
    15
100
AcDbLine
 10
240.9091380869
 20
31.2360413384
 30
0.0
 11
240.3914175952
 21
30.9371676603
 31
0.0
  0
SPLINE
  5
244
330
1F
100
AcDbEntity
  8
0
  6
Continuous
 62
     7
370
    15
100
AcDbSpline
210
0.0
220
0.0
230
1.0
 70
     8
 71
     3
 72
    10
 73
     6
 74
     0
 42
0.000000001
 43
0.00000001
 40
0.0
 40
0.0
 40
0.0
 40
0.0
 40
0.5
 40
0.5
 40
1.0
 40
1.0
 40
1.0
 40
1.0
 10
241.0233470792486
 20
31.35337463983024
 30
0.0
 10
241.0141558307911
 20
31.33125724367884
 30
0.0
 10
240.9993975091094
 20
31.30970305653327
 30
0.0
 10
240.9606841576019
 20
31.2701083909154
 30
0.0
 10
240.9370490215026
 20
31.25215397801339
 30
0.0
 10
240.9091380869119
 20
31.23604133844137
 30
0.0
  0
ARC
  5
245
330
1F
100
AcDbEntity
  8
0
  6
Continuous
 62
     7
370
    15
100
AcDbCircle
 10
248.1042376437
 20
31.7218404343
 30
0.0
 40
8.346441070128042
100
AcDbArc
 50
191.8354620679
 51
237.5766007521
  0
ARC
  5
246
330
1F
100
AcDbEntity
  8
0
  6
Continuous
 62
     7
370
    15
100
AcDbCircle
 10
247.8225995623
 20
34.0776418077
 30
0.0
 40
9.093549056419906
100
AcDbArc
 50
195.0471057225
 51
213.0759536232
  0
SPLINE
  5
247
330
1F
100
AcDbEntity
  8
0
  6
Continuous
 62
     7
370
    15
100
AcDbSpline
210
0.0
220
0.0
230
1.0
 70
     8
 71
     3
 72
     8
 73
     4
 74
     0
 42
0.000000001
 43
0.00000001
 40
0.0
 40
0.0
 40
0.0
 40
0.0
 40
1.0
 40
1.0
 40
1.0
 40
1.0
 10
237.4347158519374
 20
31.4534897419684
 30
0.0
 10
237.9702545550422
 20
31.54093860749742
 30
0.0
 10
238.5056450689772
 20
31.62869576831224
 30
0.0
 10
239.0408436431704
 20
31.71683740709311
 30
0.0
  0
LINE
  5
248
330
1F
100
AcDbEntity
  8
0
  6
Continuous
 62
     7
370
    15
100
AcDbLine
 10
239.0408436432
 20
31.7168374071
 30
0.0
 11
239.5585641348
 21
32.0157110852
 31
0.0
  0
SPLINE
  5
249
330
1F
100
AcDbEntity
  8
0
  6
Continuous
 62
     7
370
    15
100
AcDbSpline
210
0.0
220
0.0
230
1.0
 70
     8
 71
     3
 72
    10
 73
     6
 74
     0
 42
0.000000001
 43
0.00000001
 40
0.0
 40
0.0
 40
0.0
 40
0.0
 40
0.5
 40
0.5
 40
1.0
 40
1.0
 40
1.0
 40
1.0
 10
239.5585641348456
 20
32.01571108523206
 30
0.0
 10
239.5862839510472
 20
32.03171339450651
 30
0.0
 10
239.6180953210383
 20
32.04568194190869
 30
0.0
 10
239.6869426757591
 20
32.06802482354371
 30
0.0
 10
239.7237164289154
 20
32.07636640239344
 30
0.0
 10
239.7618133967511
 20
32.08164253311765
 30
0.0
  0
SPLINE
  5
24A
330
1F
100
AcDbEntity
  8
0
  6
Continuous
 62
     7
370
    15
100
AcDbSpline
210
0.0
220
0.0
230
1.0
 70
     8
 71
     3
 72
    15
 73
    11
 74
     0
 42
0.000000001
 43
0.00000001
 40
0.0
 40
0.0
 40
0.0
 40
0.0
 40
0.0998336671628884
 40
0.2394362261300783
 40
0.3743529015789067
 40
0.5131113878894568
 40
0.6493460461750633
 40
0.789450481665725
 40
0.9270432030133754
 40
1.0
 40
1.0
 40
1.0
 40
1.0
 10
231.4378820724037
 20
44.70917765208788
 30
0.0
 10
231.4342168967642
 20
44.64049677885243
 30
0.0
 10
231.4254265172444
 20
44.47577590299816
 30
0.0
 10
231.4687753105092
 20
44.19634372131518
 30
0.0
 10
231.5576967954665
 20
43.88226246345446
 30
0.0
 10
231.6908139397759
 20
43.56965083400365
 30
0.0
 10
231.8636070493892
 20
43.26042117301562
 30
0.0
 10
232.0690322648363
 20
42.96842060457382
 30
0.0
 10
232.2620715457884
 20
42.73451983182215
 30
0.0
 10
232.3881226279553
 20
42.61388323445902
 30
0.0
 10
232.4318001594185
 20
42.57208185769689
 30
0.0
  0
SPLINE
  5
24B
330
1F
100
AcDbEntity
  8
0
  6
Continuous
 62
     7
370
    15
100
AcDbSpline
210
0.0
220
0.0
230
1.0
 70
     8
 71
     3
 72
    12
 73
     8
 74
     0
 42
0.000000001
 43
0.00000001
 40
0.0
 40
0.0
 40
0.0
 40
0.0
 40
0.1734641338971328
 40
0.3341448324526285
 40
0.6163467911812992
 40
0.8652616711318011
 40
1.0
 40
1.0
 40
1.0
 40
1.0
 10
230.4679350783866
 20
42.31841824552055
 30
0.0
 10
230.5563238664398
 20
42.18884618360236
 30
0.0
 10
230.7265876328518
 20
41.93925086987675
 30
0.0
 10
231.0907612363722
 20
41.53705724429323
 30
0.0
 10
231.5257033549248
 20
41.1864536066599
 30
0.0
 10
231.9134335122934
 20
40.9850770821613
 30
0.0
 10
232.1027652362989
 20
40.9681738812973
 30
0.0
 10
232.1692582031446
 20
40.96223750702858
 30
0.0
  0
SPLINE
  5
24C
330
1F
100
AcDbEntity
  8
0
  6
Continuous
 62
     7
370
    15
100
AcDbSpline
210
0.0
220
0.0
230
1.0
 70
     8
 71
     3
 72
    17
 73
    13
 74
     0
 42
0.000000001
 43
0.00000001
 40
0.0
 40
0.0
 40
0.0
 40
0.0
 40
0.0250594488574927
 40
0.1739130585228644
 40
0.2584982750523102
 40
0.3497140013507143
 40
0.4553911709622731
 40
0.5448864912909812
 40
0.6748353658386812
 40
0.8054708049338782
 40
0.8948106822103743
 40
1.0
 40
1.0
 40
1.0
 40
1.0
 10
231.6265315482969
 20
44.59379449066807
 30
0.0
 10
231.599636791718
 20
44.6189696850461
 30
0.0
 10
231.4129866622013
 20
44.79368601971446
 30
0.0
 10
231.093236280245
 20
44.88011607404722
 30
0.0
 10
230.7339723755561
 20
44.88504483961328
 30
0.0
 10
230.4495762613942
 20
44.78294258984449
 30
0.0
 10
230.2167426570727
 20
44.57795025277365
 30
0.0
 10
230.0373402350928
 20
44.24667199581579
 30
0.0
 10
229.9548962352356
 20
43.78759097612678
 30
0.0
 10
230.0365766429595
 20
43.26602299717799
 30
0.0
 10
230.2116655418785
 20
42.76320001495424
 30
0.0
 10
230.3779946290674
 20
42.47451901636119
 30
0.0
 10
230.4679350783866
 20
42.31841824552055
 30
0.0
  0
SPLINE
  5
24D
330
1F
100
AcDbEntity
  8
0
  6
Continuous
 62
     7
370
    15
100
AcDbSpline
210
0.0
220
0.0
230
1.0
 70
     8
 71
     3
 72
     9
 73
     5
 74
     0
 42
0.000000001
 43
0.00000001
 40
0.0
 40
0.0
 40
0.0
 40
0.0
 40
0.0950624230754662
 40
1.0
 40
1.0
 40
1.0
 40
1.0
 10
263.9745913905716
 20
58.37845507053166
 30
0.0
 10
263.9978215921325
 20
58.38371133991345
 30
0.0
 10
264.2421894591544
 20
58.43900415921835
 30
0.0
 10
264.4879005785371
 20
58.49228794756972
 30
0.0
 10
264.7102538035347
 20
58.54050644988975
 30
0.0
  0
LINE
  5
24E
330
1F
100
AcDbEntity
  8
0
  6
Continuous
 62
     7
370
    15
100
AcDbLine
 10
225.6288145394
 20
46.9644216133
 30
0.0
 11
225.9418104651
 21
46.7837329115
 31
0.0
  0
SPLINE
  5
24F
330
1F
100
AcDbEntity
  8
0
  6
Continuous
 62
     7
370
    15
100
AcDbSpline
210
0.0
220
0.0
230
1.0
 70
     8
 71
     3
 72
    10
 73
     6
 74
     0
 42
0.000000001
 43
0.00000001
 40
0.0
 40
0.0
 40
0.0
 40
0.0
 40
0.5
 40
0.5
 40
1.0
 40
1.0
 40
1.0
 40
1.0
 10
223.3630170527725
 20
54.41453185206122
 30
0.0
 10
223.3602020651684
 20
54.47427795713185
 30
0.0
 10
223.3627610447216
 20
54.53485496460195
 30
0.0
 10
223.3784794486722
 20
54.66052552611695
 30
0.0
 10
223.3918738095094
 20
54.72633185274236
 30
0.0
 10
223.4101137360836
 20
54.79304670129603
 30
0.0
  0
SPLINE
  5
250
330
1F
100
AcDbEntity
  8
0
  6
Continuous
 62
     7
370
    15
100
AcDbSpline
210
0.0
220
0.0
230
1.0
 70
     8
 71
     3
 72
     8
 73
     4
 74
     0
 42
0.000000001
 43
0.00000001
 40
0.0
 40
0.0
 40
0.0
 40
0.0
 40
1.0
 40
1.0
 40
1.0
 40
1.0
 10
223.4372310146331
 20
54.46713578233629
 30
0.0
 10
223.403737647389
 20
54.32609478174239
 30
0.0
 10
223.3831895537988
 20
54.18197573125415
 30
0.0
 10
223.3720391149797
 20
54.03630572195103
 30
0.0
  0
SPLINE
  5
251
330
1F
100
AcDbEntity
  8
0
  6
Continuous
 62
     7
370
    15
100
AcDbSpline
210
0.0
220
0.0
230
1.0
 70
     8
 71
     3
 72
    26
 73
    22
 74
     0
 42
0.000000001
 43
0.00000001
 40
0.0
 40
0.0
 40
0.0
 40
0.0
 40
0.2500000000000008
 40
0.2500000000000008
 40
0.3750000000000012
 40
0.3750000000000012
 40
0.4375000000000003
 40
0.4375000000000003
 40
0.4687500000000004
 40
0.4687500000000004
 40
0.5000000000000004
 40
0.5000000000000004
 40
0.5312500000000004
 40
0.5312500000000004
 40
0.5625000000000004
 40
0.5625000000000004
 40
0.6250000000000004
 40
0.6250000000000004
 40
0.7500000000000006
 40
0.7500000000000006
 40
1.0
 40
1.0
 40
1.0
 40
1.0
 10
223.4101137360836
 20
54.79304670129603
 30
0.0
 10
223.4614213377275
 20
54.98071077216883
 30
0.0
 10
223.5127553755649
 20
55.16657774164702
 30
0.0
 10
223.5899625165837
 20
55.43136882961991
 30
0.0
 10
223.6156610774875
 20
55.51749616647106
 30
0.0
 10
223.6529652701224
 20
55.6293222619391
 30
0.0
 10
223.665682153543
 20
55.66527848762427
 30
0.0
 10
223.6811112005799
 20
55.69665962944335
 30
0.0
 10
223.685650906967
 20
55.70298181503934
 30
0.0
 10
223.6908307078476
 20
55.6979955744571
 30
0.0
 10
223.6912102254033
 20
55.68599045733369
 30
0.0
 10
223.6885596415699
 20
55.65205322755746
 30
0.0
 10
223.6857447941873
 20
55.63049831276247
 30
0.0
 10
223.6789900765196
 20
55.58538174628502
 30
0.0
 10
223.6749467741284
 20
55.56115369404681
 30
0.0
 10
223.6620610175618
 20
55.48783980297869
 30
0.0
 10
223.652402716444
 20
55.43754482607451
 30
0.0
 10
223.6219851594115
 20
55.28474267933958
 30
0.0
 10
223.5998465571922
 20
55.18087437116216
 30
0.0
 10
223.5325090394008
 20
54.87349769331589
 30
0.0
 10
223.4854011760515
 20
54.66998095211959
 30
0.0
 10
223.4372310146331
 20
54.46713578233656
 30
0.0
  0
ARC
  5
252
330
1F
100
AcDbEntity
  8
0
  6
Continuous
 62
     7
370
    15
100
AcDbCircle
 10
224.3408557839
 20
53.703316207
 30
0.0
 40
0.9888681395007023
100
AcDbArc
 50
171.4694323953
 51
234.2977828938
  0
ARC
  5
253
330
1F
100
AcDbEntity
  8
0
  6
Continuous
 62
     7
370
    15
100
AcDbCircle
 10
226.3251186921
 20
43.9485002975
 30
0.0
 40
2.962857979913001
100
AcDbArc
 50
122.487978997
 51
178.78430362
  0
LINE
  5
254
330
1F
100
AcDbEntity
  8
0
  6
Continuous
 62
     7
370
    15
100
AcDbLine
 10
224.7337005686
 20
46.4476833171
 30
0.0
 11
225.6288145394
 21
46.9644216133
 31
0.0
  0
SPLINE
  5
255
330
1F
100
AcDbEntity
  8
0
  6
Continuous
 62
     7
370
    15
100
AcDbSpline
210
0.0
220
0.0
230
1.0
 70
     8
 71
     3
 72
     8
 73
     4
 74
     0
 42
0.000000001
 43
0.00000001
 40
0.0
 40
0.0
 40
0.0
 40
0.0
 40
1.0
 40
1.0
 40
1.0
 40
1.0
 10
223.4372310146331
 20
43.76379214653242
 30
0.0
 10
223.403737647389
 20
43.82866632038184
 30
0.0
 10
223.3831895537988
 20
43.8849650690214
 30
0.0
 10
223.3720391149797
 20
43.9417593364249
 30
0.0
  0
ARC
  5
256
330
1F
100
AcDbEntity
  8
0
  6
Continuous
 62
     7
370
    15
100
AcDbCircle
 10
225.0836349455
 20
44.6590114954
 30
0.0
 40
1.725905554404521
100
AcDbArc
 50
122.7352634073
 51
175.5138696649
  0
LINE
  5
257
330
1F
100
AcDbEntity
  8
0
  6
Continuous
 62
     7
370
    15
100
AcDbLine
 10
224.7337005686
 20
46.4476833171
 30
0.0
 11
224.1503374741
 21
46.1108054934
 31
0.0
  0
SPLINE
  5
258
330
1F
100
AcDbEntity
  8
0
  6
Continuous
 62
     7
370
    15
100
AcDbSpline
210
0.0
220
0.0
230
1.0
 70
     8
 71
     3
 72
     9
 73
     5
 74
     0
 42
0.000000001
 43
0.00000001
 40
0.0
 40
0.0
 40
0.0
 40
0.0
 40
0.2995159857243082
 40
1.0
 40
1.0
 40
1.0
 40
1.0
 10
223.5746076395469
 20
43.53271161602341
 30
0.0
 10
223.5615679049871
 20
43.54993977375967
 30
0.0
 10
223.5180318829338
 20
43.60745976787482
 30
0.0
 10
223.4705154889997
 20
43.69939381568052
 30
0.0
 10
223.4372310146328
 20
43.76379214653608
 30
0.0
  0
OLE2FRAME
  5
259
330
1F
100
AcDbEntity
  8
0
100
AcDbOle2Frame
 70
     2
  3
Paintbrush-Bild
 10
13.8511154363
 20
38.264191557
 30
0.0
 11
51.6290888628
 21
31.9806341108
 31
0.0
 71
     2
 72
     0
 73
     1
 90
    12928
310
80552BED0767C5B32B40DDAF6807D121434000000000000000006FFBDDFB85D0
310
4940DDAF6807D121434000000000000000006FFBDDFB85D04940416F4BD60AFB
310
3F4000000000000000002BED0767C5B32B40416F4BD60AFB3F40000000000000
310
0000000000000100000000010000010000000100000000000100000000320000
310
D0CF11E0A1B11AE1000000000000000000000000000000003E000300FEFF0900
310
0600000000000000000000000100000001000000000000000010000002000000
310
01000000FEFFFFFF0000000000000000FFFFFFFFFFFFFFFFFFFFFFFFFFFFFFFF
310
FFFFFFFFFFFFFFFFFFFFFFFFFFFFFFFFFFFFFFFFFFFFFFFFFFFFFFFFFFFFFFFF
310
FFFFFFFFFFFFFFFFFFFFFFFFFFFFFFFFFFFFFFFFFFFFFFFFFFFFFFFFFFFFFFFF
310
FFFFFFFFFFFFFFFFFFFFFFFFFFFFFFFFFFFFFFFFFFFFFFFFFFFFFFFFFFFFFFFF
310
FFFFFFFFFFFFFFFFFFFFFFFFFFFFFFFFFFFFFFFFFFFFFFFFFFFFFFFFFFFFFFFF
310
FFFFFFFFFFFFFFFFFFFFFFFFFFFFFFFFFFFFFFFFFFFFFFFFFFFFFFFFFFFFFFFF
310
FFFFFFFFFFFFFFFFFFFFFFFFFFFFFFFFFFFFFFFFFFFFFFFFFFFFFFFFFFFFFFFF
310
FFFFFFFFFFFFFFFFFFFFFFFFFFFFFFFFFFFFFFFFFFFFFFFFFFFFFFFFFFFFFFFF
310
FFFFFFFFFFFFFFFFFFFFFFFFFFFFFFFFFFFFFFFFFFFFFFFFFFFFFFFFFFFFFFFF
310
FFFFFFFFFFFFFFFFFFFFFFFFFFFFFFFFFFFFFFFFFFFFFFFFFFFFFFFFFFFFFFFF
310
FFFFFFFFFFFFFFFFFFFFFFFFFFFFFFFFFFFFFFFFFFFFFFFFFFFFFFFFFFFFFFFF
310
FFFFFFFFFFFFFFFFFFFFFFFFFFFFFFFFFFFFFFFFFFFFFFFFFFFFFFFFFFFFFFFF
310
FFFFFFFFFFFFFFFFFFFFFFFFFFFFFFFFFFFFFFFFFFFFFFFFFFFFFFFFFFFFFFFF
310
FFFFFFFFFFFFFFFFFFFFFFFFFFFFFFFFFFFFFFFFFFFFFFFFFFFFFFFFFFFFFFFF
310
FDFFFFFFFEFFFFFFFEFFFFFFFEFFFFFF05000000060000000700000008000000
310
090000000A0000000B0000000C0000000D0000000E0000000F00000010000000
310
11000000120000001300000014000000150000001600000017000000FEFFFFFF
310
FFFFFFFFFFFFFFFFFFFFFFFFFFFFFFFFFFFFFFFFFFFFFFFFFFFFFFFFFFFFFFFF
310
FFFFFFFFFFFFFFFFFFFFFFFFFFFFFFFFFFFFFFFFFFFFFFFFFFFFFFFFFFFFFFFF
310
FFFFFFFFFFFFFFFFFFFFFFFFFFFFFFFFFFFFFFFFFFFFFFFFFFFFFFFFFFFFFFFF
310
FFFFFFFFFFFFFFFFFFFFFFFFFFFFFFFFFFFFFFFFFFFFFFFFFFFFFFFFFFFFFFFF
310
FFFFFFFFFFFFFFFFFFFFFFFFFFFFFFFFFFFFFFFFFFFFFFFFFFFFFFFFFFFFFFFF
310
FFFFFFFFFFFFFFFFFFFFFFFFFFFFFFFFFFFFFFFFFFFFFFFFFFFFFFFFFFFFFFFF
310
FFFFFFFFFFFFFFFFFFFFFFFFFFFFFFFFFFFFFFFFFFFFFFFFFFFFFFFFFFFFFFFF
310
FFFFFFFFFFFFFFFFFFFFFFFFFFFFFFFFFFFFFFFFFFFFFFFFFFFFFFFFFFFFFFFF
310
FFFFFFFFFFFFFFFFFFFFFFFFFFFFFFFFFFFFFFFFFFFFFFFFFFFFFFFFFFFFFFFF
310
FFFFFFFFFFFFFFFFFFFFFFFFFFFFFFFFFFFFFFFFFFFFFFFFFFFFFFFFFFFFFFFF
310
FFFFFFFFFFFFFFFFFFFFFFFFFFFFFFFFFFFFFFFFFFFFFFFFFFFFFFFFFFFFFFFF
310
FFFFFFFFFFFFFFFFFFFFFFFFFFFFFFFFFFFFFFFFFFFFFFFFFFFFFFFFFFFFFFFF
310
FFFFFFFFFFFFFFFFFFFFFFFFFFFFFFFFFFFFFFFFFFFFFFFFFFFFFFFFFFFFFFFF
310
52006F006F007400200045006E00740072007900000000000000000000000000
310
0000000000000000000000000000000000000000000000000000000000000000
310
16000500FFFFFFFFFFFFFFFF020000000A00030000000000C000000000000046
310
00000000000000000000000070D9787D9803D20103000000C000000000000000
310
01004F006C006500000000000000000000000000000000000000000000000000
310
0000000000000000000000000000000000000000000000000000000000000000
310
0A000200FFFFFFFFFFFFFFFFFFFFFFFF00000000000000000000000000000000
310
0000000000000000000000000000000000000000000000001400000000000000
310
010043006F006D0070004F0062006A0000000000000000000000000000000000
310
0000000000000000000000000000000000000000000000000000000000000000
310
120002010100000003000000FFFFFFFF00000000000000000000000000000000
310
0000000000000000000000000000000000000000010000004D00000000000000
310
01004F006C006500310030004E00610074006900760065000000000000000000
310
0000000000000000000000000000000000000000000000000000000000000000
310
1A000200FFFFFFFFFFFFFFFFFFFFFFFF00000000000000000000000000000000
310
0000000000000000000000000000000000000000040000002426000000000000
310
FEFFFFFF02000000FEFFFFFFFFFFFFFFFFFFFFFFFFFFFFFFFFFFFFFFFFFFFFFF
310
FFFFFFFFFFFFFFFFFFFFFFFFFFFFFFFFFFFFFFFFFFFFFFFFFFFFFFFFFFFFFFFF
310
FFFFFFFFFFFFFFFFFFFFFFFFFFFFFFFFFFFFFFFFFFFFFFFFFFFFFFFFFFFFFFFF
310
FFFFFFFFFFFFFFFFFFFFFFFFFFFFFFFFFFFFFFFFFFFFFFFFFFFFFFFFFFFFFFFF
310
FFFFFFFFFFFFFFFFFFFFFFFFFFFFFFFFFFFFFFFFFFFFFFFFFFFFFFFFFFFFFFFF
310
FFFFFFFFFFFFFFFFFFFFFFFFFFFFFFFFFFFFFFFFFFFFFFFFFFFFFFFFFFFFFFFF
310
FFFFFFFFFFFFFFFFFFFFFFFFFFFFFFFFFFFFFFFFFFFFFFFFFFFFFFFFFFFFFFFF
310
FFFFFFFFFFFFFFFFFFFFFFFFFFFFFFFFFFFFFFFFFFFFFFFFFFFFFFFFFFFFFFFF
310
FFFFFFFFFFFFFFFFFFFFFFFFFFFFFFFFFFFFFFFFFFFFFFFFFFFFFFFFFFFFFFFF
310
FFFFFFFFFFFFFFFFFFFFFFFFFFFFFFFFFFFFFFFFFFFFFFFFFFFFFFFFFFFFFFFF
310
FFFFFFFFFFFFFFFFFFFFFFFFFFFFFFFFFFFFFFFFFFFFFFFFFFFFFFFFFFFFFFFF
310
FFFFFFFFFFFFFFFFFFFFFFFFFFFFFFFFFFFFFFFFFFFFFFFFFFFFFFFFFFFFFFFF
310
FFFFFFFFFFFFFFFFFFFFFFFFFFFFFFFFFFFFFFFFFFFFFFFFFFFFFFFFFFFFFFFF
310
FFFFFFFFFFFFFFFFFFFFFFFFFFFFFFFFFFFFFFFFFFFFFFFFFFFFFFFFFFFFFFFF
310
FFFFFFFFFFFFFFFFFFFFFFFFFFFFFFFFFFFFFFFFFFFFFFFFFFFFFFFFFFFFFFFF
310
FFFFFFFFFFFFFFFFFFFFFFFFFFFFFFFFFFFFFFFFFFFFFFFFFFFFFFFFFFFFFFFF
310
0100000200000000000000000000000000000000000000000000000000000000
310
0000000000000000000000000000000000000000000000000000000000000000
310
0100FEFF030A0000FFFFFFFF0A00030000000000C00000000000004607000000
310
5042727573680007000000504272757368000700000050427275736800F439B2
310
7100000000000000000000000000000000000000000000000000000000000000
310
0000000000000000000000000000000000000000000000000000000000000000
310
0000000000000000000000000000000000000000000000000000000000000000
310
0000000000000000000000000000000000000000000000000000000000000000
310
0000000000000000000000000000000000000000000000000000000000000000
310
0000000000000000000000000000000000000000000000000000000000000000
310
0000000000000000000000000000000000000000000000000000000000000000
310
0000000000000000000000000000000000000000000000000000000000000000
310
0000000000000000000000000000000000000000000000000000000000000000
310
0000000000000000000000000000000000000000000000000000000000000000
310
0000000000000000000000000000000000000000000000000000000000000000
310
0000000000000000000000000000000000000000000000000000000000000000
310
20260000424D0E260000000000003E00000028000000B40200006E0000000100
310
01000000000000000000130B0000130B00000200000002000000000000FFFFFF
310
FFFFFFFFFFFFFFFFFFFFFFFFFFFFFFFFFFFFFFFFFFFFFFFFFFFFFFFFFFFFFFFF
310
FFFFFFFFFFFFFFFFFFFFFFFFFFFFFFFFFFFFFFFFFFFFFFFFFFFFFFFFFFFFFFFF
310
FFFFFFFFFFFFFFFFFFFFFFFFFFFFFFFFFFFFFFFFFFFFFFFFF000FFFFFFFFFFFF
310
FFFFFFFFFFFFFFFFFFFFFFFFFFFFFFFFFFFFFFFFFFFFFFFFFFFFFFFFFFFFFFFF
310
FFFFFFFFFFFFFFFFFFFFFFFFFFFFFFFFFFFFFFFFFFFFFFFFFFFFFFFFFFFFFFFF
310
FFFFFFFFFFFFFFFFFFFFFFFFFFFFFFFFF000FFFFFFFFFFFFFFFFFFFFFFFFFFFF
310
FFFFFFFFFFFFFFFFFFFFFFFFFFFFFFFFFFFFFFFFFFFFFFFFFFFFFFFFFFFFFFFF
310
FFFFFFFFFFFFFFFFFFFFFFFFFFFFFFFFFFFFFFFFFFFFFFFFFFFFFFFFFFFFFFFF
310
FFFFFFFFFFFFFFFFF000FFFFFFFFFFFFFFFFFFFFFFFFFFFFFFFFFFFFFFFFFFFF
310
FFFFFFFFFFFFFFFFFFFFFFFFFFFFFFFFFFFFFFFFFFFFFFFFFFFFFFFFFFFFFFFF
310
FFFFFFFFFFFFFFFFFFFFFFFFFFFFFFFFFFFFFFFFFFFFFFFFFFFFFFFFFFFFFFFF
310
F000FFFFFFFFFFFFFFFFFFFFFFFFFFFFFFFFFFFFFFFFFFFFFFFFFFFFFFFFFFFF
310
FFFFFFFFFFFFFFFFFFFFFFFFFFFFFFFFFFFFFFFFFFFFFFFFFFFFFFFFFFFFFFFF
310
FFFFFFFFFFFFFFFFFFFFFFFFFFFFFFFFFFFFFFFFFFFFFFFFF000FFFFFFFFFFFF
310
FFFFFFFFFFFFFFFFFFFFFFFFFFFFFFFFFFFFFFFFFFFFFFFFFFFFFFFFFFFFFFFF
310
FFFFFFFFFFFFFFFFFFFFFFFFFFFFFFFFFFFFFFFFFFFFFFFFFFFFFFFFFFFFFFFF
310
FFFFFFFFFFFFFFFFFFFFFFFFFFFFFFFFF000FFFFFFFFFFFFFFFFFFFFFFFFFFFF
310
FFFFFFFFFFFFFFFFFFFFFFFFFFFFFFFFFFFFFFFFFFFFFFFFFFFFFFFFFFFFFFFF
310
FFFFFFFFFFFFFFFFFFFFFFFFFFFFFFFFFFFFFFFFFFFFFFFFFFFFFFFFFFFFFFFF
310
FFFFFFFFFFFFFFFFF000FFFFFFFFFFFFFFFFFFFFFFFFFFFFFFFFFFFFFFFFFFFF
310
FFFFFFFFFFFFFFFFFFFFFFFFFFFFFFFFFFFFFFFFFFFFFFFFFFFFFFFFFFFFFFFF
310
FFFFFFFFFFFFFFFFFFFFFFFFFFFFFFFFFFFFFFFFFFFFFFFFFFFFFFFFFFFFFFFF
310
F000FFFFFFFFFFFFFFFFFFFFFFFFFFFFFFFFFFFFFFFFFFFFFFFFFFFFFFFFFFFF
310
FFFFFFFFFFFFFFFFFFFFFFFFFFFFFFFFFFFFFFFFFFFFFFFFFFFFFFFFFFFFFFFF
310
FFFFFFFFFFFFFFFFFFFFFFFFFFFFFFFFFFFFFFFFFFFFFFFFF000FFFFFFFFFFFF
310
FFFFFFFFFFFFFFFFFFFFFFFFFFFFFFFFFFFFFFFFFFFFFFFFFFFFFFFFFFFFFFFF
310
FFFFFFFFFFFFFFFFFFFFFFFFFFFFFFFFFFFFFFFFFFFFFFFFFFFFFFFFFFFFFFFF
310
FFFFFFFFFFFFFFFFFFFFFFFFFFFFFFFFF000FFFFFFFFFFFFFFFFFFFFFFFFFFFF
310
FFFFFFFFFFFFFFFFFFFFFFFFFFFFFFFFFFFFFFFFFFFFFFFFFFFFFFFFFFFFFFFF
310
FFFFFFFFFFFFFFFFFFFFFFFFFFFFFFFFFFFFFFFFFFFFFFFFFFFFFFFFFFFFFFFF
310
FFFFFFFFFFFFFFFFF000FFFFFFFFFFFFFFFFFFFFFFFFFFFFFFFFFFFFFFFFFFFF
310
FFFFFFFFFFFFFFFFFFFFFFFFFFFFFFFFFFFFFFFFFFFFFFFFFFFFFFFFFFFFFFFF
310
FFFFFFFFFFFFFFFFFFFFFFFFFFFFFFFFFFFFFFFFFFFFFFFFFFFFFFFFFFFFFFFF
310
F000FFFFFFFFFFFFFFFFFFFFFFFFFFFFFFFFFFFFFFFFFFFFFFFFFFFFFFFFFFFF
310
FFFFFFFFFFFFFFFFFFFFFFFFFFFFFFFFFFFFFFFFFFFFFFFFFFFFFFFFFFFFFFFF
310
FFFFFFFFFFFFFFFFFFFFFFFFFFFFFFFFFFFFFFFFFFFFFFFFF000FFFFFFFFFFFF
310
FFFFFFFFFFFFFFFFFFFFFFFFFFFFFFFFFFFFFFFFFFFFFFFFFFFFFFFFFFFFFFFF
310
FFFFFFFFFFFFFFFFFFFFFFFFFFFFFFFFFFFFFFFFFFFFFFFFFFFFFFFFFFFFFFFF
310
FFFFFFFFFFFFFFFFFFFFFFFFFFFFFFFFF000FFFFFFFFFFFFFFFFFFFFFFFFFFFF
310
FFFFFFFFFFFFFFFFFFFFFFFFFFFFFFFFFFFFFFFFFFFFFFFFFFFFFFFFFFFFFFFF
310
FFFFFFFFFFFFFFFFFFFFFFFFFFFFFFFFFFFFFFFFFFFFFFFFFFFFFFFFFFFFFFFF
310
FFFFFFFFFFFFFFFFF000FFFFFFFFFFFFFFFFFFFFFFFFFFFFFFFFFFFFFFFFFFFF
310
FFFFFFFFFFFFFFFFFFFFFFFFFFFFFFFFFFFFFFFFFFFFFFFFFFFFFFFFFFFFFFFF
310
FFFFFFFFFFFFFFFFFFFFFFFFFFFFFFFFFFFFFFFFFFFFFFFFFFFFFFFFFFFFFFFF
310
F000FFFFFFFFFFFFFFFFFFFFFFFFFFFFFFFFFFFFFFFFFFFFFFFFFFFFFFFFFFFF
310
FFFFFFFFFFFFFFFFFFFFFFFFFFFFFFFFFFFFFFFFFFFFFFFFFFFFFFFFFFFFFFFF
310
FFFFFFFFFFFFFFFFFFFFFFFFFFFFFFFFFFFFFFFFFFFFFFFFF000FFFFFFFFFFFF
310
FFFFFFFFFFFFFFFFFFFFFFFFFFFFFFFFFFFFFFFFFFFFFFFFFFFFFFFFFFFFFFFF
310
FFFFFFFFFFFFFFFFFFFFFFFFFFFFFFFFFFFFFFFFFFFFFFFFFFFFFFFFFFFFFFFF
310
FFFFFFFFFFFFFFFFFFFFFFFFFFFFFFFFF000FFFFFFFFFFFFFFFFFFFFFFFFFFFF
310
FFFFFFFFFFFFFFFFFFFFFFFFFFFFFFFFFFFFFFFFFFFFFFFFFFFFFFFFFFFFFFFF
310
FFFFFFFFFFFFFFFFFFFFFFFFFFFFFFFFFFFFFFFFFFFFFFFFFFFFFFFFFFFFFFFF
310
FFFFFFFFFFFFFFFFF000FFFFF80003FFFFFFFFFFFFFFFFFFFFFFFFFFFFFFFFFF
310
FFFFF00007FFFFFFFFFF00007FFFFFF800000000000000007FFFFFFFFFFFFFFF
310
FFFFFFFC001FFFFFFFFFFFFFFC001FFFFFFFFFFFFFFFFFFFFFFFFFFE0007FFFF
310
F000FFFF8000007FFFFFFFF8000FFFFFC0007FFFFF80007FFFFF0000007FFFFF
310
FFF8000007FFFFF800000000000000007FFFFFF0001FFFFFFFFFFFC00001FFFF
310
FFFFFFFFC00001FFFFFFFF000000000003FFFFE000007FFFF000FFFE0000000F
310
FFFFFFF0000FFFFF80007FFFFF80007FFFFC0000001FFFFFFFC0000001FFFFF8
310
00000000000000007FFFFFF0001FFFFFFFFFFE0000003FFFFFFFFFFE0000003F
310
FFFFFF000000000003FFFF0000000FFFF000FFF800000003FFFFFFF00007FFFF
310
80007FFFFF80007FFFF000000007FFFFFF000000003FFFF80000000000000000
310
7FFFFFF0001FFFFFFFFFF80000000FFFFFFFFFF80000000FFFFFFF0000000000
310
03FFFC00000003FFF000FFE000000000FFFFFFF00007FFFF80003FFFFF80007F
310
FFC000000001FFFFFC000000001FFFF800000000000000007FFFFFF0001FFFFF
310
FFFFE000000003FFFFFFFFE000000003FFFFFF000000000003FFF000000000FF
310
F000FF80000000007FFFFFF00007FFFF80003FFFFF80007FFF8000000000FFFF
310
F80000000007FFF800000000000000007FFFFFF0001FFFFFFFFFC000000001FF
310
FFFFFFC000000001FFFFFF000000000003FFC0000000007FF000FF0000000000
310
3FFFFFE00007FFFF00003FFFFF80007FFE00000000003FFFF00000000003FFF8
310
00000000000000007FFFFFF0001FFFFFFFFF8000000000FFFFFFFF8000000000
310
FFFFFF000000000003FF80000000003FF000FE00000000001FFFFFE00003FFFF
310
00003FFFFF80007FFC00000000001FFFE00000000001FFF8000001FFFE000000
310
7FFFFFF0001FFFFFFFFE00000000003FFFFFFE00000000003FFFFF0000000000
310
03FF00000000001FF000FC00000000000FFFFFE00003FFFF00001FFFFF80007F
310
F800000000001FFFC00000000000FFF8000001FFFE0000007FFFFFF0001FFFFF
310
FFFC00000000001FFFFFFC00000000001FFFFF000000000003FE00000000000F
310
F000F8000000000007FFFFE00003FFFF00001FFFFF80007FF800000000000FFF
310
800000000000FFF8000001FFFE0000007FFFFFF0001FFFFFFFF800000000000F
310
FFFFF800000000000FFFFF000000000003FC000000000007F000F80000000000
310
03FFFFC00003FFFE00001FFFFF80007FF0000000000007FF0000000000007FF8
310
000001FFFE0000007FFFFFF0001FFFFFFFF0000000000007FFFFF00000000000
310
07FFFF000000000003F8000000000003F000F0000000000003FFFFC00001FFFE
310
00001FFFFF80007FE0000000000007FE0000000000003FF8000001FFFE000000
310
7FFFFFF0001FFFFFFFF0000000000007FFFFF0000000000007FFFF0000000000
310
03F800001F800003F000E00001FFF00001FFFFC00001FFFE00000FFFFF80007F
310
E00001FFE00003FE00001FFF00003FF8000001FFFE0000007FFFFFF0001FFFFF
310
FFE000003E000003FFFFE000003E000003FFFF000000000003F00001FFF80001
310
F000E00007FFFC0001FFFFC00001FFFE00000FFFFF80007FC0000FFFFC0003FC
310
0000FFFFC0001FF8000001FFFE0000007FFFFFF0001FFFFFFFC00003FFE00001
310
FFFFC00003FFE00001FFFF0001FFFFFFFFF00007FFFE0001F000E0000FFFFF00
310
00FFFF800001FFFC00000FFFFF80007FC0001FFFFE0001FC0001FFFFE0001FF8
310
000001FFFE0000007FFFFFF0001FFFFFFF80000FFFF80000FFFF80000FFFF800
310
00FFFF0003FFFFFFFFE0000FFFFF8000F000C0003FFFFF8000FFFF800000FFFC
310
000007FFFF80007F80003FFFFF0001FC0003FFFFF0001FF8000001FFFE000000
310
7FFFFFF0001FFFFFFF80003FFFFE0000FFFF80003FFFFE0000FFFF0003FFFFFF
310
FFE0003FFFFF8000F000C0003FFFFF8000FFFF800000FFFC000007FFFF80007F
310
80007FFFFF8001F80007FFFFF8000FF8000001FFFE0000007FFFFFF0001FFFFF
310
FF00007FFFFF00007FFF00007FFFFF00007FFF0003FFFFFFFFE0003FFFFFC000
310
F000C0007FFFFFC000FFFF000000FFFC000007FFFF80007F8000FFFFFF8000F8
310
000FFFFFF8000FF8000001FFFE0000007FFFFFF0001FFFFFFF0000FFFFFF8000
310
7FFF0000FFFFFF80007FFF0003FFFFFFFFC0007FFFFFC00070008000FFFFFFC0
310
00FFFF000000FFF8000007FFFF80007F8000FFFFFF8000F8000FFFFFF8000FF8
310
000001FFFE0000007FFFFFF0001FFFFFFE0001FFFFFFC0003FFE0001FFFFFFC0
310
003FFF0003FFFFFFFFC0007FFFFFE00070008000FFFFFFC0007FFF0000007FF8
310
000003FFFF80007F0001FFFFFF8000F8000FFFFFF8000FF8000001FFFE000000
310
7FFFFFF0001FFFFFFE0001FFFFFFC0003FFE0001FFFFFFC0003FFF0003FFFFFF
310
FFC000FFFFFFE00070008000FFFFFFC0007FFF0000007FF8000003FFFF80007F
310
0001FFFFFF8000F8001FFFFFF8000FF8000001FFFE0000007FFFFFF0001FFFFF
310
FE0003FFFFFFE0003FFE0003FFFFFFE0003FFF0003FFFFFFFFC000FFFFFFE000
310
70008000FFFFFFC0007FFE0000007FF8000003FFFF80007F0001FFFFFF8000F0
310
001FFFFFF8000FF8000001FFFE0000007FFFFFF0001FFFFFFC0003FFFFFFE000
310
1FFC0003FFFFFFE0001FFF0003FFFFFFFFC000FFFFFFC00070008000FFFFFF80
310
007FFE0000007FF0000003FFFF80007F0001FFFFFF0000F0001FFFFFF8000FF8
310
000001FFFE0000007FFFFFF0001FFFFFFC0007FFFFFFF0001FFC0007FFFFFFF0
310
001FFF0003FFFFFFFFC000FFFFFFC00070008001FFFFFF0000FFFE0000003FF0
310
000001FFFF80007F0001FFFFFF0000F8001FFFFFF0000FF8000001FFFE000000
310
7FFFFFF0001FFFFFFC0007FFFFFFF0001FFC0007FFFFFFF0001FFF0003FFFFFF
310
FFC001FFFFFF80007000FFFFFFFFFE0000FFFE0008003FF0008001FFFF80007F
310
FFFFFFFFFC0000FFFFFFFFFFE0000FF8000001FFFE0000007FFFFFF0001FFFFF
310
F8000FFFFFFFF8000FF8000FFFFFFFF8000FFF0003FFFFFFFFFFFFFFFFFF0000
310
7000FFFFFFFFFC0000FFFC0008003FF0008001FFFF80007FFFFFFFFFF80001FF
310
FFFFFFFF80000FF8000001FFFE0000007FFFFFF0001FFFFFF8000FFFFFFFF800
310
0FF8000FFFFFFFF8000FFF0003FFFFFFFFFFFFFFFFFE0000F000FFFFFFFFE000
310
00FFFC000C003FE000C001FFFF80007FFFFFFFFFC00001FFFFFFFFFE00001FF8
310
000001FFFE0000007FFFFFF0001FFFFFF8000FFFFFFFF8000FF8000FFFFFFFF8
310
000FFF0003FFFFFFFFFFFFFFFFF00000F000FFFFFFFE000001FFFC000C001FE0
310
00C000FFFF80007FFFFFFFFE000001FFFFFFFFE000001FF80FFFFFFFFFFFFFC0
310
7FFFFFF0001FFFFFF8000FFFFFFFF8000FF8000FFFFFFFF8000FFF0003FFFFFF
310
FFFFFFFFFF800000F000FFFFFFC0000001FFFC001C001FE001C000FFFF80007F
310
FFFFFF80000003FFFFFFF80000001FF80FFFFFFFFFFFFFC07FFFFFF0001FFFFF
310
F8001FFFFFFFFC000FF8001FFFFFFFFC000FFF0003FFFFFFFFFFFFFFF0000001
310
F000FFFFF800000001FFF8001C001FE001C000FFFF80007FFFFFF800000003FF
310
FFFF800000003FF80FFFFFFFFFFFFFC07FFFFFF0001FFFFFF8001FFFFFFFFC00
310
0FF8001FFFFFFFFC000FFF0003FFFFFFFFFFFFFE00000001F000FFFFC0000000
310
03FFF8001E001FC001E000FFFF80007FFFFF8000000007FFFFFC000000003FF8
310
0FFFFFFFFFFFFFC07FFFFFF0001FFFFFF8001FFFFFFFFC000FF8001FFFFFFFFC
310
000FFF0003FFFFFFFFFFFFE000000003F000FFFE0000000007FFF8001E000FC0
310
01E0007FFF80007FFFFE0000000007FFFFE0000000007FF80FFFFFFFFFFFFFC0
310
7FFFFFF0001FFFFFF0001FFFFFFFFC0007F0001FFFFFFFFC0007FF0003FFFFFF
310
FFFFFF0000000003F000FFF80000000007FFF8001E000FC003E0007FFF80007F
310
FFF0000000000FFFFF8000000000FFF80FFFFFFFFFFFFFC07FFFFFF0001FFFFF
310
F0001FFFFFFFFC0007F0001FFFFFFFFC0007FF0003FFFFFFFFFFFC0000000007
310
F000FFE0000000000FFFF0003E000FC003E0007FFF80007FFFC0000000001FFF
310
FE0000000001FFF80FFFFFFFFFFFFFC07FFFFFF0001FFFFFF0001FFFFFFFFC00
310
07F0001FFFFFFFFC0007FF0003FFFFFFFFFFF0000000000FF000FFC000000000
310
1FFFF0003F000F8003F0003FFF80007FFF80000000003FFFF80000000003FFF8
310
0FFFFFFFFFFFFFC07FFFFFF0001FFFFFF0001FFFFFFFFC0007F0001FFFFFFFFC
310
0007FF0003FFFFFFFFFFE0000000001FF000FF00000000007FFFF0003F000780
310
03F0003FFF80007FFF00000000007FFFF00000000007FFF80FFFFFFFFFFFFFC0
310
7FFFFFF0001FFFFFF0001FFFFFFFFC0007F0001FFFFFFFFC0007FF0003FFFFFF
310
FFFF80000000007FF000FE0000000000FFFFE0003F00078007F0003FFF80007F
310
FE0000000001FFFFE0000000001FFFF80FFFFFFFFFFFFFC07FFFFFF0001FFFFF
310
F0001FFFFFFFFC0007F0001FFFFFFFFC0007FF0003FFFFFFFFFF0000000000FF
310
F000FC0000000003FFFFE0007F00078007F0003FFF80007FFC0000000007FFFF
310
C0000000007FFFF80FFFFFFFFFFFFFC07FFFFFF0001FFFFFF8001FFFFFFFFC00
310
0FF8001FFFFFFFFC000FFF0003FFFFFFFFFE0000000003FFF000FC000000000F
310
FFFFE0007F80070007F8001FFF80007FF8000000001FFFFF8000000001FFFFF8
310
0FFFFFFFFFFFFFC07FFFFFF0001FFFFFF8001FFFFFFFFC000FF8001FFFFFFFFC
310
000FFF0003FFFFFFFFFC000000000FFFF000F8000000007FFFFFE0007F800700
310
07F8001FFF80007FF000000000FFFFFF800000000FFFFFF80FFFFFFFFFFFFFC0
310
7FFFFFF0001FFFFFF8000FFFFFFFF8000FF8000FFFFFFFF8000FFF0003FFFFFF
310
FFFC000000007FFFF000F800000007FFFFFFC0007F8003000FF8001FFF80007F
310
F000000007FFFFFF000000007FFFFFF80FFFFFFFFFFFFFC07FFFFFF0001FFFFF
310
F8000FFFFFFFF8000FF8000FFFFFFFF8000FFF0003FFFFFFFFF80000000FFFFF
310
F000F0000000FFFFFFFFC000FF8003000FF8001FFF80007FE0000000FFFFFFFF
310
0000000FFFFFFFF8000001FFFE0000007FFFFFF0001FFFFFF8000FFFFFFFF800
310
0FF8000FFFFFFFF8000FFF0003FFFFFFFFF8000000FFFFFFF000F000000FFFFF
310
FFFFC000FFC002000FF8000FFF80007FE000001FFFFFFFFE000001FFFFFFFFF8
310
000001FFFE0000007FFFFFF0001FFFFFF8000FFFFFFFF8000FF8000FFFFFFFF8
310
000FFF0003FFFFFFFFF000001FFFFFFFF000E00000FFFFFFFFFFC000FFC00200
310
0FFC000FFF80007FE00001FFFFFFFFFE00001FFFFFFFFFF8000001FFFE000000
310
7FFFFFF0001FFFFFFC000FFFFFFFF8001FFC000FFFFFFFF8001FFF0003FFFFFF
310
FFF00001FFFFFFFFF000E00007FFFFFFFFFF8000FFC000001FFC000FFF80007F
310
C0000FFFFFFFFFFE0000FFFFFFFFFFF8000001FFFE0000007FFFFFF0001FFFFF
310
FC0007FFFFFFF0001FFC0007FFFFFFF0001FFF0003FFFFFFFFF00007FFFFFFFF
310
F000E0001FFFFFFFFFFF8000FFC000001FFC000FFF80007FC0003FFFFFFFFFFE
310
0001FFFFFFFFFFF8000001FFFE0000007FFFFFF0001FFFFFFC0007FFFFFFF000
310
1FFC0007FFFFFFF0001FFF0003FFFFFFFFF0001FFFFFFFFFF000E0003FFFFF00
310
03FF8001FFE000001FFC0007FF80007FC0007FFFFF0007FC0003FFFFF0003FF8
310
000001FFFE0000007FFFFFF0001FFFFFFC0003FFFFFFE0001FFC0003FFFFFFE0
310
001FFF0003FFFFFFFFF0003FFFFFFFFFF000E0003FFFFF0001FF8001FFE00000
310
1FFE0007FF80007FC0007FFFFE0003FC0007FFFFE0003FF8000001FFFE000000
310
7FFFFFF0001FFFFFFE0003FFFFFFE0003FFE0003FFFFFFE0003FFF0003FFFFFF
310
FFF0003FFFFF8001F000E0003FFFFF0001FF0001FFE000001FFE0007FF80007F
310
C0007FFFFE0003FC0007FFFFE0003FF8000001FFFE0000007FFFFFF0001FFFFF
310
FE0001FFFFFFC0003FFE0001FFFFFFC0003FFF0003FFFFFFFFF0003FFFFF0001
310
F000E0003FFFFF0003FF0001FFE000003FFE0007FF80007FC0007FFFFE0003FC
310
0007FFFFE0003FF8000001FFFE0000007FFFFFF0001FFFFFFF0001FFFFFFC000
310
7FFF0001FFFFFFC0007FFF0003FFFFFFFFF0003FFFFF0001F000E0003FFFFE00
310
03FF0003FFF000003FFE0003FF80007FC0007FFFFC0003FE0007FFFFE0003FF8
310
000001FFFE0000007FFFFFF0001FFFFFFF0000FFFFFF80007FFF0000FFFFFF80
310
007FFF0003FFFFFFFFF0003FFFFF0001F000E0003FFFFE0003FF0003FFF00000
310
3FFF0003FF80007FC0007FFFFC0007FE0007FFFFC0003FF8000001FFFE000000
310
7FFFFFF0001FFFFFFF80007FFFFF0000FFFF80007FFFFF0000FFFF0003FFFFFF
310
FFF0003FFFFF0003F000E0003FFFFC0003FE0003FFF000003FFF0003FF80007F
310
E0003FFFF80007FE0003FFFFC0007FF8000001FFFE0000007FFFFFF0001FFFFF
310
FF80003FFFFE0000FFFF80003FFFFE0000FFFF0003FFFFFFFFF0001FFFFE0003
310
F000F0001FFFF80003FE0003FFF000007FFF0001FF80007FE0003FFFF00007FE
310
0001FFFF80007FF8000001FFFE0000007FFFFFF0001FFFFFFFC0000FFFF80001
310
FFFFC0000FFFF80001FFFF0003FFFFFFFFF0001FFFFC0003F000F0000FFFF000
310
07FE0007FFF800007FFF0001FF80007FE0001FFFE00007FF0000FFFE00007FF8
310
000001FFFE0000007FFFFFF0001FFFFFFFC00003FFE00001FFFFC00003FFE000
310
01FFFF0003FFFFFFFFF8000FFFF80003F000F00003FFC00007FC0007FFF80000
310
7FFF8001FF80007FF00007FF80000FFF00007FF80000FFF8000001FFFE000000
310
7F80000000000001FFE000003E000003FFFFE000003E000003FFFF0003FFFFFF
310
FFF80003FFE00007F000F800000000000FFC0007FFF800007FFF8001FF80007F
310
F000000000000FFF000000000000FFF8000001FFFE0000007F80000000000001
310
FFF0000000000007FFFFF0000000000007FFFF0003FFFFFFFFFC00007E000007
310
F000F800000000000FFC0007FFF80000FFFF8000FF80007FF800000000001FFF
310
800000000001FFF8000001FFFE0000007F80000000000001FFF800000000000F
310
FFFFF800000000000FFFFF0003FFFFFFFFFC00000000000FF000FC0000000000
310
1FFC0007FFFC0000FFFF8000FF80007FF800000000003FFFC00000000001FFF8
310
000001FFFE0000007F80000000000001FFF800000000000FFFFFF80000000000
310
0FFFFF0003FFFFFFFFFE00000000001FF000FE00000000003FF8000FFFFC0000
310
FFFF8000FF80007FFC00000000003FFFC00000000003FFF8000001FFFE000000
310
7F80000000000001FFFC00000000001FFFFFFC00000000001FFFFF0003FFFFFF
310
FFFF00000000001FF000FF00000000003FF8000FFFFC0000FFFFC000FF80007F
310
FE00000000007FFFE00000000007FFF8000001FFFE0000007F80000000000001
310
FFFE00000000003FFFFFFE00000000003FFFFF0003FFFFFFFFFF80000000003F
310
F000FF80000000007FF8000FFFFC0001FFFFC0007F80007FFF0000000000FFFF
310
F0000000000FFFF800000000000000007F80000000000001FFFF8000000000FF
310
FFFFFF8000000000FFFFFF0003FFFFFFFFFFC0000000007FF000FFC000000000
310
FFF8000FFFFE0001FFFFC0007F80007FFF8000000001FFFFF8000000001FFFF8
310
00000000000000007F80000000000001FFFFC000000001FFFFFFFFC000000001
310
FFFFFF0003FFFFFFFFFFE000000000FFF000FFE000000003FFF0001FFFFE0001
310
FFFFC0007F80007FFFC000000007FFFFFE000000003FFFF80000000000000000
310
7F80000000000001FFFFE000000003FFFFFFFFE000000003FFFFFF0003FFFFFF
310
FFFFF000000003FFF000FFF80000000FFFF0001FFFFE0001FFFFE0007F80007F
310
FFF00000000FFFFFFF00000000FFFFF800000000000000007F80000000000001
310
FFFFF80000000FFFFFFFFFF80000000FFFFFFF0003FFFFFFFFFFFC0000000FFF
310
F000FFFE0000003FFFF0001FFFFE0003FFFFE0003F80007FFFFC0000003FFFFF
310
FFC0000003FFFFF800000000000000007F80000000000001FFFFFE0000003FFF
310
FFFFFFFE0000003FFFFFFF0003FFFFFFFFFFFF0000003FFFF000FFFF800000FF
310
FFF0001FFFFF0003FFFFE0003F80007FFFFF000001FFFFFFFFF800001FFFFFF8
310
00000000000000007F80000000000001FFFFFFC00001FFFFFFFFFFFFC00001FF
310
FFFFFF0003FFFFFFFFFFFFC00000FFFFF000FFFFF8000FFFFFFFFFFFFFFFFFFF
310
FFFFFFFFFFFFFFFFFFFFF0001FFFFFFFFFFF0000FFFFFFF80000000000000000
310
7FFFFFFFFFFFFFFFFFFFFFFC001FFFFFFFFFFFFFFC001FFFFFFFFFFFFFFFFFFF
310
FFFFFFFC001FFFFFF000FFFFFFFFFFFFFFFFFFFFFFFFFFFFFFFFFFFFFFFFFFFF
310
FFFFFFFFFFFFFFFFFFFFFFFFFFFFFFFFFFFFFFFFFFFFFFFFFFFFFFFFFFFFFFFF
310
FFFFFFFFFFFFFFFFFFFFFFFFFFFFFFFFFFFFFFFFFFFFFFFFFFFFFFFFFFFFFFFF
310
F000FFFFFFFFFFFFFFFFFFFFFFFFFFFFFFFFFFFFFFFFFFFFFFFFFFFFFFFFFFFF
310
FFFFFFFFFFFFFFFFFFFFFFFFFFFFFFFFFFFFFFFFFFFFFFFFFFFFFFFFFFFFFFFF
310
FFFFFFFFFFFFFFFFFFFFFFFFFFFFFFFFFFFFFFFFFFFFFFFFF000FFFFFFFFFFFF
310
FFFFFFFFFFFFFFFFFFFFFFFFFFFFFFFFFFFFFFFFFFFFFFFFFFFFFFFFFFFFFFFF
310
FFFFFFFFFFFFFFFFFFFFFFFFFFFFFFFFFFFFFFFFFFFFFFFFFFFFFFFFFFFFFFFF
310
FFFFFFFFFFFFFFFFFFFFFFFFFFFFFFFFF000FFFFFFFFFFFFFFFFFFFFFFFFFFFF
310
FFFFFFFFFFFFFFFFFFFFFFFFFFFFFFFFFFFFFFFFFFFFFFFFFFFFFFFFFFFFFFFF
310
FFFFFFFFFFFFFFFFFFFFFFFFFFFFFFFFFFFFFFFFFFFFFFFFFFFFFFFFFFFFFFFF
310
FFFFFFFFFFFFFFFFF000FFFFFFFFFFFFFFFFFFFFFFFFFFFFFFFFFFFFFFFFFFFF
310
FFFFFFFFFFFFFFFFFFFFFFFFFFFFFFFFFFFFFFFFFFFFFFFFFFFFFFFFFFFFFFFF
310
FFFFFFFFFFFFFFFFFFFFFFFFFFFFFFFFFFFFFFFFFFFFFFFFFFFFFFFFFFFFFFFF
310
F000FFFFFFFFFFFFFFFFFFFFFFFFFFFFFFFFFFFFFFFFFFFFFFFFFFFFFFFFFFFF
310
FFFFFFFFFFFFFFFFFFFFFFFFFFFFFFFFFFFFFFFFFFFFFFFFFFFFFFFFFFFFFFFF
310
FFFFFFFFFFFFFFFFFFFFFFFFFFFFFFFFFFFFFFFFFFFFFFFFF000FFFFFFFFFFFF
310
FFFFFFFFFFFFFFFFFFFFFFFFFFFFFFFFFFFFFFFFFFFFFFFFFFFFFFFFFFFFFFFF
310
FFFFFFFFFFFFFFFFFFFFFFFFFFFFFFFFFFFFFFFFFFFFFFFFFFFFFFFFFFFFFFFF
310
FFFFFFFFFFFFFFFFFFFFFFFFFFFFFFFFF000FFFFFFFFFFFFFFFFFFFFFFFFFFFF
310
FFFFFFFFFFFFFFFFFFFFFFFFFFFFFFFFFFFFFFFFFFFFFFFFFFFFFFFFFFFFFFFF
310
FFFFFFFFFFFFFFFFFFFFFFFFFFFFFFFFFFFFFFFFFFFFFFFFFFFFFFFFFFFFFFFF
310
FFFFFFFFFFFFFFFFF000FFFFFFFFFFFFFFFFFFFFFFFFFFFFFFFFFFFFFFFFFFFF
310
FFFFFFFFFFFFFFFFFFFFFFFFFFFFFFFFFFFFFFFFFFFFFFFFFFFFFFFFFFFFFFFF
310
FFFFFFFFFFFFFFFFFFFFFFFFFFFFFFFFFFFFFFFFFFFFFFFFFFFFFFFFFFFFFFFF
310
F000FFFFFFFFFFFFFFFFFFFFFFFFFFFFFFFFFFFFFFFFFFFFFFFFFFFFFFFFFFFF
310
FFFFFFFFFFFFFFFFFFFFFFFFFFFFFFFFFFFFFFFFFFFFFFFFFFFFFFFFFFFFFFFF
310
FFFFFFFFFFFFFFFFFFFFFFFFFFFFFFFFFFFFFFFFFFFFFFFFF000FFFFFFFFFFFF
310
FFFFFFFFFFFFFFFFFFFFFFFFFFFFFFFFFFFFFFFFFFFFFFFFFFFFFFFFFFFFFFFF
310
FFFFFFFFFFFFFFFFFFFFFFFFFFFFFFFFFFFFFFFFFFFFFFFFFFFFFFFFFFFFFFFF
310
FFFFFFFFFFFFFFFFFFFFFFFFFFFFFFFFF000FFFFFFFFFFFFFFFFFFFFFFFFFFFF
310
FFFFFFFFFFFFFFFFFFFFFFFFFFFFFFFFFFFFFFFFFFFFFFFFFFFFFFFFFFFFFFFF
310
FFFFFFFFFFFFFFFFFFFFFFFFFFFFFFFFFFFFFFFFFFFFFFFFFFFFFFFFFFFFFFFF
310
FFFFFFFFFFFFFFFFF000FFFFFFFFFFFFFFFFFFFFFFFFFFFFFFFFFFFFFFFFFFFF
310
FFFFFFFFFFFFFFFFFFFFFFFFFFFFFFFFFFFFFFFFFFFFFFFFFFFFFFFFFFFFFFFF
310
FFFFFFFFFFFFFFFFFFFFFFFFFFFFFFFFFFFFFFFFFFFFFFFFFFFFFFFFFFFFFFFF
310
F000FFFFFFFFFFFFFFFFFFFFFFFFFFFFFFFFFFFFFFFFFFFFFFFFFFFFFFFFFFFF
310
FFFFFFFFFFFFFFFFFFFFFFFFFFFFFFFFFFFFFFFFFFFFFFFFFFFFFFFFFFFFFFFF
310
FFFFFFFFFFFFFFFFFFFFFFFFFFFFFFFFFFFFFFFFFFFFFFFFF000FFFFFFFFFFFF
310
FFFFFFFFFFFFFFFFFFFFFFFFFFFFFFFFFFFFFFFFFFFFFFFFFFFFFFFFFFFFFFFF
310
FFFFFFFFFFFFFFFFFFFFFFFFFFFFFFFFFFFFFFFFFFFFFFFFFFFFFFFFFFFFFFFF
310
FFFFFFFFFFFFFFFFFFFFFFFFFFFFFFFFF000FFFFFFFFFFFFFFFFFFFFFFFFFFFF
310
FFFFFFFFFFFFFFFFFFFFFFFFFFFFFFFFFFFFFFFFFFFFFFFFFFFFFFFFFFFFFFFF
310
FFFFFFFFFFFFFFFFFFFFFFFFFFFFFFFFFFFFFFFFFFFFFFFFFFFFFFFFFFFFFFFF
310
FFFFFFFFFFFFFFFFF000FFFFFFFFFFFFFFFFFFFFFFFFFFFFFFFFFFFFFFFFFFFF
310
FFFFFFFFFFFFFFFFFFFFFFFFFFFFFFFFFFFFFFFFFFFFFFFFFFFFFFFFFFFFFFFF
310
FFFFFFFFFFFFFFFFFFFFFFFFFFFFFFFFFFFFFFFFFFFFFFFFFFFFFFFFFFFFFFFF
310
F000FFFFFFFFFFFFFFFFFFFFFFFFFFFFFFFFFFFFFFFFFFFFFFFFFFFFFFFFFFFF
310
FFFFFFFFFFFFFFFFFFFFFFFFFFFFFFFFFFFFFFFFFFFFFFFFFFFFFFFFFFFFFFFF
310
FFFFFFFFFFFFFFFFFFFFFFFFFFFFFFFFFFFFFFFFFFFFFFFFF000FFFFFFFFFFFF
310
FFFFFFFFFFFFFFFFFFFFFFFFFFFFFFFFFFFFFFFFFFFFFFFFFFFFFFFFFFFFFFFF
310
FFFFFFFFFFFFFFFFFFFFFFFFFFFFFFFFFFFFFFFFFFFFFFFFFFFFFFFFFFFFFFFF
310
FFFFFFFFFFFFFFFFFFFFFFFFFFFFFFFFF000FFFFFFFFFFFFFFFFFFFFFFFFFFFF
310
FFFFFFFFFFFFFFFFFFFFFFFFFFFFFFFFFFFFFFFFFFFFFFFFFFFFFFFFFFFFFFFF
310
FFFFFFFFFFFFFFFFFFFFFFFFFFFFFFFFFFFFFFFFFFFFFFFFFFFFFFFFFFFFFFFF
310
FFFFFFFFFFFFFFFFF000FFFFFFFFFFFFFFFFFFFFFFFFFFFFFFFFFFFFFFFFFFFF
310
FFFFFFFFFFFFFFFFFFFFFFFFFFFFFFFFFFFFFFFFFFFFFFFFFFFFFFFFFFFFFFFF
310
FFFFFFFFFFFFFFFFFFFFFFFFFFFFFFFFFFFFFFFFFFFFFFFFFFFFFFFFFFFFFFFF
310
F000FFFFFFFFFFFFFFFFFFFFFFFFFFFFFFFFFFFFFFFFFFFFFFFFFFFFFFFFFFFF
310
FFFFFFFFFFFFFFFFFFFFFFFFFFFFFFFFFFFFFFFFFFFFFFFFFFFFFFFFFFFFFFFF
310
FFFFFFFFFFFFFFFFFFFFFFFFFFFFFFFFFFFFFFFFFFFFFFFFF000FFFFFFFFFFFF
310
FFFFFFFFFFFFFFFFFFFFFFFFFFFFFFFFFFFFFFFFFFFFFFFFFFFFFFFFFFFFFFFF
310
FFFFFFFFFFFFFFFFFFFFFFFFFFFFFFFFFFFFFFFFFFFFFFFFFFFFFFFFFFFFFFFF
310
FFFFFFFFFFFFFFFFFFFFFFFFFFFFFFFFF0000000000000000000000000000000
310
0000000000000000000000000000000000000000000000000000000000000000
310
0000000000000000000000000000000000000000000000000000000000000000
310
0000000000000000000000000000000000000000000000000000000000000000
310
0000000000000000000000000000000000000000000000000000000000000000
310
0000000000000000000000000000000000000000000000000000000000000000
310
0000000000000000000000000000000000000000000000000000000000000000
310
0000000000000000000000000000000000000000000000000000000000000000
310
0000000000000000000000000000000000000000000000000000000000000000
310
0000000000000000000000000000000000000000000000000000000000000000
310
0000000000000000000000000000000000000000000000000000000000000000
310
0000000000000000000000000000000000000000000000000000000000000000
310
0000000000000000000000000000000000000000000000000000000000000000
310
0000000000000000000000000000000000000000000000000000000000000000
310
0000000000000000000000000000000000000000000000000000000000000000
310
0000000000000000000000000000000000000000000000000000000000000000
  1
OLE
  0
ENDSEC
  0
SECTION
  2
OBJECTS
  0
DICTIONARY
  5
C
330
0
100
AcDbDictionary
281
     1
  3
ACAD_GROUP
350
D
  3
ACAD_LAYOUT
350
1A
  3
ACAD_MLINESTYLE
350
17
  3
ACAD_PLOTSETTINGS
350
19
  3
ACAD_PLOTSTYLENAME
350
E
  3
ACAD_SCALELIST
350
47
  0
DICTIONARY
  5
D
102
{ACAD_REACTORS
330
C
102
}
330
C
100
AcDbDictionary
281
     1
  0
DICTIONARY
  5
1A
102
{ACAD_REACTORS
330
C
102
}
330
C
100
AcDbDictionary
281
     1
  3
Layout1
350
1E
  3
Layout2
350
26
  3
Model
350
22
  0
DICTIONARY
  5
17
102
{ACAD_REACTORS
330
C
102
}
330
C
100
AcDbDictionary
281
     1
  3
Standard
350
18
  0
DICTIONARY
  5
19
102
{ACAD_REACTORS
330
C
102
}
330
C
100
AcDbDictionary
281
     1
  0
ACDBDICTIONARYWDFLT
  5
E
102
{ACAD_REACTORS
330
C
102
}
330
C
100
AcDbDictionary
281
     1
  3
Normal
350
F
100
AcDbDictionaryWithDefault
340
F
  0
DICTIONARY
  5
47
102
{ACAD_REACTORS
330
C
102
}
330
C
100
AcDbDictionary
281
     1
  3
A0
350
48
  3
A1
350
49
  3
A2
350
4A
  3
A3
350
4B
  3
A4
350
4C
  3
A5
350
4D
  3
A6
350
4E
  3
A7
350
4F
  3
A8
350
50
  3
A9
350
51
  3
B0
350
52
  3
B1
350
53
  3
B2
350
54
  3
B3
350
55
  3
B4
350
56
  3
B5
350
57
  3
B6
350
58
  3
B7
350
59
  3
B8
350
5A
  3
B9
350
5B
  3
C0
350
5C
  3
C1
350
5D
  3
C2
350
5E
  3
C3
350
5F
  3
C4
350
60
  3
C5
350
61
  3
C6
350
62
  3
C7
350
63
  3
C8
350
64
  3
C9
350
65
  3
D0
350
66
  3
D1
350
67
  3
D2
350
68
  0
LAYOUT
  5
1E
102
{ACAD_REACTORS
330
1A
102
}
330
1A
100
AcDbPlotSettings
  1

  2
none_device
  4

  6

 40
0.0
 41
0.0
 42
0.0
 43
0.0
 44
0.0
 45
0.0
 46
0.0
 47
0.0
 48
0.0
 49
0.0
140
0.0
141
0.0
142
1.0
143
1.0
 70
   688
 72
     1
 73
     0
 74
     5
  7

 75
    16
147
1.0
148
0.0
149
0.0
100
AcDbLayout
  1
Layout1
 70
     1
 71
     1
 10
0.0
 20
0.0
 11
420.0
 21
297.0
 12
0.0
 22
0.0
 32
0.0
 14
1.0000000000E+20
 24
1.0000000000E+20
 34
1.0000000000E+20
 15
-1.0000000000E+20
 25
-1.0000000000E+20
 35
-1.0000000000E+20
146
0.0
 13
0.0
 23
0.0
 33
0.0
 16
1.0
 26
0.0
 36
0.0
 17
0.0
 27
1.0
 37
0.0
 76
     0
330
1B
  0
LAYOUT
  5
26
102
{ACAD_REACTORS
330
1A
102
}
330
1A
100
AcDbPlotSettings
  1

  2
none_device
  4

  6

 40
0.0
 41
0.0
 42
0.0
 43
0.0
 44
0.0
 45
0.0
 46
0.0
 47
0.0
 48
0.0
 49
0.0
140
0.0
141
0.0
142
1.0
143
1.0
 70
   688
 72
     1
 73
     0
 74
     5
  7

 75
    16
147
1.0
148
0.0
149
0.0
100
AcDbLayout
  1
Layout2
 70
     1
 71
     2
 10
0.0
 20
0.0
 11
0.0
 21
0.0
 12
0.0
 22
0.0
 32
0.0
 14
0.0
 24
0.0
 34
0.0
 15
0.0
 25
0.0
 35
0.0
146
0.0
 13
0.0
 23
0.0
 33
0.0
 16
1.0
 26
0.0
 36
0.0
 17
0.0
 27
1.0
 37
0.0
 76
     0
330
23
  0
LAYOUT
  5
22
102
{ACAD_REACTORS
330
1A
102
}
330
1A
100
AcDbPlotSettings
  1

  2
none_device
  4
Letter_(8.50_x_11.00_Inches)
  6

 40
6.35
 41
6.35
 42
6.35000508
 43
6.35000508
 44
215.9
 45
279.4
 46
0.0
 47
0.0
 48
0.0
 49
0.0
140
0.0
141
0.0
142
1.0
143
1.0
 70
  1712
 72
     1
 73
     0
 74
     0
  7

 75
     0
147
1.0
148
0.0
149
0.0
100
AcDbLayout
  1
Model
 70
     1
 71
     0
 10
0.0
 20
0.0
 11
297.0
 21
210.0
 12
0.0
 22
0.0
 32
0.0
 14
0.0
 24
0.0
 34
0.0
 15
297.0
 25
210.0
 35
0.0
146
0.0
 13
0.0
 23
0.0
 33
0.0
 16
1.0
 26
0.0
 36
0.0
 17
0.0
 27
1.0
 37
0.0
 76
     0
330
1F
331
29
  0
MLINESTYLE
  5
18
102
{ACAD_REACTORS
330
17
102
}
330
17
100
AcDbMlineStyle
  2
Standard
 70
     0
  3

 62
   256
 51
90.0
 52
90.0
 71
     2
 49
0.5
 62
   256
  6
BYLAYER
 49
-0.5
 62
   256
  6
BYLAYER
  0
ACDBPLACEHOLDER
  5
F
102
{ACAD_REACTORS
330
E
102
}
330
E
  0
SCALE
  5
48
102
{ACAD_REACTORS
330
47
102
}
330
47
100
AcDbScale
 70
     0
300
1:1
140
1.0
141
1.0
290
     1
  0
SCALE
  5
49
102
{ACAD_REACTORS
330
47
102
}
330
47
100
AcDbScale
 70
     0
300
1:2
140
1.0
141
2.0
290
     0
  0
SCALE
  5
4A
102
{ACAD_REACTORS
330
47
102
}
330
47
100
AcDbScale
 70
     0
300
1:4
140
1.0
141
4.0
290
     0
  0
SCALE
  5
4B
102
{ACAD_REACTORS
330
47
102
}
330
47
100
AcDbScale
 70
     0
300
1:5
140
1.0
141
5.0
290
     0
  0
SCALE
  5
4C
102
{ACAD_REACTORS
330
47
102
}
330
47
100
AcDbScale
 70
     0
300
1:8
140
1.0
141
8.0
290
     0
  0
SCALE
  5
4D
102
{ACAD_REACTORS
330
47
102
}
330
47
100
AcDbScale
 70
     0
300
1:10
140
1.0
141
10.0
290
     0
  0
SCALE
  5
4E
102
{ACAD_REACTORS
330
47
102
}
330
47
100
AcDbScale
 70
     0
300
1:16
140
1.0
141
16.0
290
     0
  0
SCALE
  5
4F
102
{ACAD_REACTORS
330
47
102
}
330
47
100
AcDbScale
 70
     0
300
1:20
140
1.0
141
20.0
290
     0
  0
SCALE
  5
50
102
{ACAD_REACTORS
330
47
102
}
330
47
100
AcDbScale
 70
     0
300
1:30
140
1.0
141
30.0
290
     0
  0
SCALE
  5
51
102
{ACAD_REACTORS
330
47
102
}
330
47
100
AcDbScale
 70
     0
300
1:40
140
1.0
141
40.0
290
     0
  0
SCALE
  5
52
102
{ACAD_REACTORS
330
47
102
}
330
47
100
AcDbScale
 70
     0
300
1:50
140
1.0
141
50.0
290
     0
  0
SCALE
  5
53
102
{ACAD_REACTORS
330
47
102
}
330
47
100
AcDbScale
 70
     0
300
1:100
140
1.0
141
100.0
290
     0
  0
SCALE
  5
54
102
{ACAD_REACTORS
330
47
102
}
330
47
100
AcDbScale
 70
     0
300
2:1
140
2.0
141
1.0
290
     0
  0
SCALE
  5
55
102
{ACAD_REACTORS
330
47
102
}
330
47
100
AcDbScale
 70
     0
300
4:1
140
4.0
141
1.0
290
     0
  0
SCALE
  5
56
102
{ACAD_REACTORS
330
47
102
}
330
47
100
AcDbScale
 70
     0
300
8:1
140
8.0
141
1.0
290
     0
  0
SCALE
  5
57
102
{ACAD_REACTORS
330
47
102
}
330
47
100
AcDbScale
 70
     0
300
10:1
140
10.0
141
1.0
290
     0
  0
SCALE
  5
58
102
{ACAD_REACTORS
330
47
102
}
330
47
100
AcDbScale
 70
     0
300
100:1
140
100.0
141
1.0
290
     0
  0
SCALE
  5
59
102
{ACAD_REACTORS
330
47
102
}
330
47
100
AcDbScale
 70
     0
300
1/128" = 1'-0"
140
0.0078125
141
12.0
290
     0
  0
SCALE
  5
5A
102
{ACAD_REACTORS
330
47
102
}
330
47
100
AcDbScale
 70
     0
300
1/64" = 1'-0"
140
0.015625
141
12.0
290
     0
  0
SCALE
  5
5B
102
{ACAD_REACTORS
330
47
102
}
330
47
100
AcDbScale
 70
     0
300
1/32" = 1'-0"
140
0.03125
141
12.0
290
     0
  0
SCALE
  5
5C
102
{ACAD_REACTORS
330
47
102
}
330
47
100
AcDbScale
 70
     0
300
1/16" = 1'-0"
140
0.0625
141
12.0
290
     0
  0
SCALE
  5
5D
102
{ACAD_REACTORS
330
47
102
}
330
47
100
AcDbScale
 70
     0
300
3/32" = 1'-0"
140
0.09375
141
12.0
290
     0
  0
SCALE
  5
5E
102
{ACAD_REACTORS
330
47
102
}
330
47
100
AcDbScale
 70
     0
300
1/8" = 1'-0"
140
0.125
141
12.0
290
     0
  0
SCALE
  5
5F
102
{ACAD_REACTORS
330
47
102
}
330
47
100
AcDbScale
 70
     0
300
3/16" = 1'-0"
140
0.1875
141
12.0
290
     0
  0
SCALE
  5
60
102
{ACAD_REACTORS
330
47
102
}
330
47
100
AcDbScale
 70
     0
300
1/4" = 1'-0"
140
0.25
141
12.0
290
     0
  0
SCALE
  5
61
102
{ACAD_REACTORS
330
47
102
}
330
47
100
AcDbScale
 70
     0
300
3/8" = 1'-0"
140
0.375
141
12.0
290
     0
  0
SCALE
  5
62
102
{ACAD_REACTORS
330
47
102
}
330
47
100
AcDbScale
 70
     0
300
1/2" = 1'-0"
140
0.5
141
12.0
290
     0
  0
SCALE
  5
63
102
{ACAD_REACTORS
330
47
102
}
330
47
100
AcDbScale
 70
     0
300
3/4" = 1'-0"
140
0.75
141
12.0
290
     0
  0
SCALE
  5
64
102
{ACAD_REACTORS
330
47
102
}
330
47
100
AcDbScale
 70
     0
300
1" = 1'-0"
140
1.0
141
12.0
290
     0
  0
SCALE
  5
65
102
{ACAD_REACTORS
330
47
102
}
330
47
100
AcDbScale
 70
     0
300
1-1/2" = 1'-0"
140
1.5
141
12.0
290
     0
  0
SCALE
  5
66
102
{ACAD_REACTORS
330
47
102
}
330
47
100
AcDbScale
 70
     0
300
3" = 1'-0"
140
3.0
141
12.0
290
     0
  0
SCALE
  5
67
102
{ACAD_REACTORS
330
47
102
}
330
47
100
AcDbScale
 70
     0
300
6" = 1'-0"
140
6.0
141
12.0
290
     0
  0
SCALE
  5
68
102
{ACAD_REACTORS
330
47
102
}
330
47
100
AcDbScale
 70
     0
300
1'-0" = 1'-0"
140
12.0
141
12.0
290
     0
  0
ENDSEC
  0
EOF
