  0
SECTION
  2
HEADER
  9
$ACADVER
  1
AC1015
  9
$ACADMAINTVER
 70
     6
  9
$DWGCODEPAGE
  3
ANSI_1252
  9
$INSBASE
 10
0.0
 20
0.0
 30
0.0
  9
$EXTMIN
 10
0.0
 20
0.0
 30
0.0
  9
$EXTMAX
 10
297.0
 20
210.0
 30
0.0
  9
$LIMMIN
 10
0.0
 20
0.0
  9
$LIMMAX
 10
297.0
 20
210.0
  9
$ORTHOMODE
 70
     0
  9
$REGENMODE
 70
     1
  9
$FILLMODE
 70
     1
  9
$QTEXTMODE
 70
     0
  9
$MIRRTEXT
 70
     1
  9
$LTSCALE
 40
1.0
  9
$ATTMODE
 70
     1
  9
$TEXTSIZE
 40
2.0
  9
$TRACEWID
 40
1.0
  9
$TEXTSTYLE
  7
Standard
  9
$CLAYER
  8
0
  9
$CELTYPE
  6
ByLayer
  9
$CECOLOR
 62
   256
  9
$CELTSCALE
 40
1.0
  9
$DISPSILH
 70
     0
  9
$DIMSCALE
 40
1.0
  9
$DIMASZ
 40
3.0
  9
$DIMEXO
 40
0.0
  9
$DIMDLI
 40
3.75
  9
$DIMRND
 40
0.0
  9
$DIMDLE
 40
0.0
  9
$DIMEXE
 40
1.0
  9
$DIMTP
 40
0.0
  9
$DIMTM
 40
0.0
  9
$DIMTXT
 40
2.0
  9
$DIMCEN
 40
2.5
  9
$DIMTSZ
 40
0.0
  9
$DIMTOL
 70
     0
  9
$DIMLIM
 70
     0
  9
$DIMTIH
 70
     1
  9
$DIMTOH
 70
     1
  9
$DIMSE1
 70
     0
  9
$DIMSE2
 70
     0
  9
$DIMTAD
 70
     1
  9
$DIMZIN
 70
     0
  9
$DIMBLK
  1

  9
$DIMASO
 70
     1
  9
$DIMSHO
 70
     1
  9
$DIMPOST
  1

  9
$DIMAPOST
  1

  9
$DIMALT
 70
     0
  9
$DIMALTD
 70
     3
  9
$DIMALTF
 40
0.0393700787
  9
$DIMLFAC
 40
1.0
  9
$DIMTOFL
 70
     1
  9
$DIMTVP
 40
0.0
  9
$DIMTIX
 70
     0
  9
$DIMSOXD
 70
     0
  9
$DIMSAH
 70
     0
  9
$DIMBLK1
  1

  9
$DIMBLK2
  1

  9
$DIMSTYLE
  2
ISO-25
  9
$DIMCLRD
 70
     0
  9
$DIMCLRE
 70
     0
  9
$DIMCLRT
 70
     0
  9
$DIMTFAC
 40
1.0
  9
$DIMGAP
 40
1.524
  9
$DIMJUST
 70
     0
  9
$DIMSD1
 70
     0
  9
$DIMSD2
 70
     0
  9
$DIMTOLJ
 70
     0
  9
$DIMTZIN
 70
     0
  9
$DIMALTZ
 70
     0
  9
$DIMALTTZ
 70
     0
  9
$DIMUPT
 70
     0
  9
$DIMDEC
 70
     2
  9
$DIMTDEC
 70
     3
  9
$DIMALTU
 70
     2
  9
$DIMALTTD
 70
     3
  9
$DIMTXSTY
  7
Standard
  9
$DIMAUNIT
 70
     0
  9
$DIMADEC
 70
     2
  9
$DIMALTRND
 40
0.0
  9
$DIMAZIN
 70
     0
  9
$DIMDSEP
 70
    44
  9
$DIMATFIT
 70
     3
  9
$DIMFRAC
 70
     0
  9
$DIMLDRBLK
  1

  9
$DIMLUNIT
 70
     2
  9
$DIMLWD
 70
    -2
  9
$DIMLWE
 70
    -2
  9
$DIMTMOVE
 70
     0
  9
$LUNITS
 70
     2
  9
$LUPREC
 70
     2
  9
$SKETCHINC
 40
1.0
  9
$FILLETRAD
 40
10.0
  9
$AUNITS
 70
     0
  9
$AUPREC
 70
     2
  9
$MENU
  1
.
  9
$ELEVATION
 40
0.0
  9
$PELEVATION
 40
0.0
  9
$THICKNESS
 40
0.0
  9
$LIMCHECK
 70
     0
  9
$CHAMFERA
 40
0.0
  9
$CHAMFERB
 40
0.0
  9
$CHAMFERC
 40
0.0
  9
$CHAMFERD
 40
0.0
  9
$SKPOLY
 70
     0
  9
$TDCREATE
 40
2457654.570264641
  9
$TDUCREATE
 40
2457654.486931308
  9
$TDUPDATE
 40
2457654.570265868
  9
$TDUUPDATE
 40
2457654.486932535
  9
$TDINDWG
 40
0.0000000116
  9
$TDUSRTIMER
 40
0.0000000116
  9
$USRTIMER
 70
     1
  9
$ANGBASE
 50
0.0
  9
$ANGDIR
 70
     0
  9
$PDMODE
 70
     0
  9
$PDSIZE
 40
-1.0
  9
$PLINEWID
 40
0.0
  9
$SPLFRAME
 70
     0
  9
$SPLINETYPE
 70
     6
  9
$SPLINESEGS
 70
     8
  9
$HANDSEED
  5
1DE
  9
$SURFTAB1
 70
     6
  9
$SURFTAB2
 70
     6
  9
$SURFTYPE
 70
     6
  9
$SURFU
 70
     6
  9
$SURFV
 70
     6
  9
$UCSBASE
  2

  9
$UCSNAME
  2

  9
$UCSORG
 10
0.0
 20
0.0
 30
0.0
  9
$UCSXDIR
 10
1.0
 20
0.0
 30
0.0
  9
$UCSYDIR
 10
0.0
 20
1.0
 30
0.0
  9
$UCSORTHOREF
  2

  9
$UCSORTHOVIEW
 70
     0
  9
$UCSORGTOP
 10
0.0
 20
0.0
 30
0.0
  9
$UCSORGBOTTOM
 10
0.0
 20
0.0
 30
0.0
  9
$UCSORGLEFT
 10
0.0
 20
0.0
 30
0.0
  9
$UCSORGRIGHT
 10
0.0
 20
0.0
 30
0.0
  9
$UCSORGFRONT
 10
0.0
 20
0.0
 30
0.0
  9
$UCSORGBACK
 10
0.0
 20
0.0
 30
0.0
  9
$PUCSBASE
  2

  9
$PUCSNAME
  2

  9
$PUCSORG
 10
0.0
 20
0.0
 30
0.0
  9
$PUCSXDIR
 10
1.0
 20
0.0
 30
0.0
  9
$PUCSYDIR
 10
0.0
 20
1.0
 30
0.0
  9
$PUCSORTHOREF
  2

  9
$PUCSORTHOVIEW
 70
     0
  9
$PUCSORGTOP
 10
0.0
 20
0.0
 30
0.0
  9
$PUCSORGBOTTOM
 10
0.0
 20
0.0
 30
0.0
  9
$PUCSORGLEFT
 10
0.0
 20
0.0
 30
0.0
  9
$PUCSORGRIGHT
 10
0.0
 20
0.0
 30
0.0
  9
$PUCSORGFRONT
 10
0.0
 20
0.0
 30
0.0
  9
$PUCSORGBACK
 10
0.0
 20
0.0
 30
0.0
  9
$USERI1
 70
     0
  9
$USERI2
 70
     0
  9
$USERI3
 70
     0
  9
$USERI4
 70
     0
  9
$USERI5
 70
     0
  9
$USERR1
 40
0.0
  9
$USERR2
 40
0.0
  9
$USERR3
 40
0.0
  9
$USERR4
 40
0.0
  9
$USERR5
 40
0.0
  9
$WORLDVIEW
 70
     1
  9
$SHADEDGE
 70
     3
  9
$SHADEDIF
 70
    70
  9
$TILEMODE
 70
     1
  9
$MAXACTVP
 70
    64
  9
$PINSBASE
 10
0.0
 20
0.0
 30
0.0
  9
$PLIMCHECK
 70
     0
  9
$PEXTMIN
 10
1.0000000000E+20
 20
1.0000000000E+20
 30
1.0000000000E+20
  9
$PEXTMAX
 10
-1.0000000000E+20
 20
-1.0000000000E+20
 30
-1.0000000000E+20
  9
$PLIMMIN
 10
0.0
 20
0.0
  9
$PLIMMAX
 10
420.0
 20
297.0
  9
$UNITMODE
 70
     0
  9
$VISRETAIN
 70
     1
  9
$PLINEGEN
 70
     0
  9
$PSLTSCALE
 70
     1
  9
$TREEDEPTH
 70
  3020
  9
$CMLSTYLE
  2
Standard
  9
$CMLJUST
 70
     0
  9
$CMLSCALE
 40
20.0
  9
$PROXYGRAPHICS
 70
     1
  9
$MEASUREMENT
 70
     1
  9
$CELWEIGHT
370
    -1
  9
$ENDCAPS
280
     0
  9
$JOINSTYLE
280
     0
  9
$LWDISPLAY
290
     1
  9
$INSUNITS
 70
     4
  9
$HYPERLINKBASE
  1

  9
$STYLESHEET
  1

  9
$XEDIT
290
     1
  9
$CEPSNTYPE
380
     0
  9
$PSTYLEMODE
290
     1
  9
$FINGERPRINTGUID
  2
{D5BB9AE3-A0B0-4B56-BEF7-C3462C4EE797}
  9
$VERSIONGUID
  2
{FAEB1C32-E019-11D5-929B-00C0DF256EC4}
  9
$EXTNAMES
290
     1
  9
$PSVPSCALE
 40
0.0
  9
$OLESTARTUP
290
     0
  0
ENDSEC
  0
SECTION
  2
CLASSES
  0
CLASS
  1
ACDBDICTIONARYWDFLT
  2
AcDbDictionaryWithDefault
  3
ObjectDBX Classes
 90
        0
280
     0
281
     0
  0
CLASS
  1
VISUALSTYLE
  2
AcDbVisualStyle
  3
ObjectDBX Classes
 90
     4095
280
     0
281
     0
  0
CLASS
  1
MATERIAL
  2
AcDbMaterial
  3
ObjectDBX Classes
 90
     1153
280
     0
281
     0
  0
CLASS
  1
SCALE
  2
AcDbScale
  3
ObjectDBX Classes
 90
     1153
280
     0
281
     0
  0
CLASS
  1
TABLESTYLE
  2
AcDbTableStyle
  3
ObjectDBX Classes
 90
     4095
280
     0
281
     0
  0
CLASS
  1
MLEADERSTYLE
  2
AcDbMLeaderStyle
  3
ACDB_MLEADERSTYLE_CLASS
 90
     4095
280
     0
281
     0
  0
CLASS
  1
SUN
  2
AcDbSun
  3
SCENEOE
 90
     1153
280
     0
281
     0
  0
CLASS
  1
ACDBPLACEHOLDER
  2
AcDbPlaceHolder
  3
ObjectDBX Classes
 90
        0
280
     0
281
     0
  0
CLASS
  1
LAYOUT
  2
AcDbLayout
  3
ObjectDBX Classes
 90
        0
280
     0
281
     0
  0
ENDSEC
  0
SECTION
  2
TABLES
  0
TABLE
  2
VPORT
  5
8
330
0
100
AcDbSymbolTable
 70
     1
  0
VPORT
  5
29
330
8
100
AcDbSymbolTableRecord
100
AcDbViewportTableRecord
  2
*Active
 70
     0
 10
0.0
 20
0.0
 11
1.0
 21
1.0
 12
148.5
 22
105.0
 13
0.0
 23
0.0
 14
10.0
 24
10.0
 15
10.0
 25
10.0
 16
0.0
 26
0.0
 36
1.0
 17
0.0
 27
0.0
 37
0.0
 40
210.0
 41
1.4142857143
 42
50.0
 43
0.0
 44
0.0
 50
0.0
 51
0.0
 71
     0
 72
  2000
 73
     1
 74
     3
 75
     0
 76
     0
 77
     0
 78
     0
281
     0
 65
     1
110
0.0
120
0.0
130
0.0
111
1.0
121
0.0
131
0.0
112
0.0
122
1.0
132
0.0
 79
     0
146
0.0
  0
ENDTAB
  0
TABLE
  2
LTYPE
  5
5
330
0
100
AcDbSymbolTable
 70
     6
  0
LTYPE
  5
14
330
5
100
AcDbSymbolTableRecord
100
AcDbLinetypeTableRecord
  2
ByBlock
 70
     0
  3

 72
    65
 73
     0
 40
0.0
  0
LTYPE
  5
15
330
5
100
AcDbSymbolTableRecord
100
AcDbLinetypeTableRecord
  2
ByLayer
 70
     0
  3

 72
    65
 73
     0
 40
0.0
  0
LTYPE
  5
16
330
5
100
AcDbSymbolTableRecord
100
AcDbLinetypeTableRecord
  2
Continuous
 70
     0
  3
Solid line
 72
    65
 73
     0
 40
0.0
  0
LTYPE
  5
6E
330
5
100
AcDbSymbolTableRecord
100
AcDbLinetypeTableRecord
  2
HIDDEN
 70
     0
  3
Hidden __ __ __ __ __ __ __ __ __ __ __ __ __ __
 72
    65
 73
     2
 40
1.905
 49
1.27
 74
     0
 49
-0.635
 74
     0
  0
LTYPE
  5
6F
330
5
100
AcDbSymbolTableRecord
100
AcDbLinetypeTableRecord
  2
PHANTOM
 70
     0
  3
Phantom ______  __  __  ______  __  __  ______
 72
    65
 73
     6
 40
12.7
 49
6.35
 74
     0
 49
-1.27
 74
     0
 49
1.27
 74
     0
 49
-1.27
 74
     0
 49
1.27
 74
     0
 49
-1.27
 74
     0
  0
LTYPE
  5
70
330
5
100
AcDbSymbolTableRecord
100
AcDbLinetypeTableRecord
  2
CENTER
 70
     0
  3
Center ____ _ ____ _ ____ _ ____ _ ____ _ ____
 72
    65
 73
     4
 40
10.16
 49
6.35
 74
     0
 49
-1.27
 74
     0
 49
1.27
 74
     0
 49
-1.27
 74
     0
  0
LTYPE
  5
71
330
5
100
AcDbSymbolTableRecord
100
AcDbLinetypeTableRecord
  2
CENTERX2
 70
     0
  3
Center (2x) ________  __  ________  __  _____
 72
    65
 73
     4
 40
20.32
 49
12.7
 74
     0
 49
-2.54
 74
     0
 49
2.54
 74
     0
 49
-2.54
 74
     0
  0
LTYPE
  5
72
330
5
100
AcDbSymbolTableRecord
100
AcDbLinetypeTableRecord
  2
DOT2
 70
     0
  3
Dot (.5x) ........................................
 72
    65
 73
     2
 40
0.635
 49
0.0
 74
     0
 49
-0.635
 74
     0
  0
ENDTAB
  0
TABLE
  2
LAYER
  5
2
330
0
100
AcDbSymbolTable
 70
     5
  0
LAYER
  5
10
330
2
100
AcDbSymbolTableRecord
100
AcDbLayerTableRecord
  2
0
 70
     0
 62
     7
  6
Continuous
370
    -3
390
F
  0
LAYER
  5
73
330
2
100
AcDbSymbolTableRecord
100
AcDbLayerTableRecord
  2
FORMAT
 70
     0
 62
     7
  6
Continuous
370
    -3
390
F
  0
LAYER
  5
74
330
2
100
AcDbSymbolTableRecord
100
AcDbLayerTableRecord
  2
VERMASSUNG
 70
     0
 62
     7
  6
Continuous
370
    -3
390
F
  0
LAYER
  5
75
330
2
100
AcDbSymbolTableRecord
100
AcDbLayerTableRecord
  2
KOPF_DÜNN
 70
     0
 62
     7
  6
Continuous
370
    -3
390
F
  0
LAYER
  5
76
330
2
100
AcDbSymbolTableRecord
100
AcDbLayerTableRecord
  2
KOPF_DICK
 70
     0
 62
     7
  6
Continuous
370
    15
390
F
  0
ENDTAB
  0
TABLE
  2
STYLE
  5
3
330
0
100
AcDbSymbolTable
 70
     2
  0
STYLE
  5
11
330
3
100
AcDbSymbolTableRecord
100
AcDbTextStyleTableRecord
  2
Standard
 70
     0
 40
0.0
 41
1.0
 50
0.0
 71
     0
 42
2.0
  3
txt
  4

  0
STYLE
  5
77
330
3
100
AcDbSymbolTableRecord
100
AcDbTextStyleTableRecord
  2
SLDTEXTSTYLE0
 70
     0
 40
0.0
 41
0.7
 50
0.0
 71
     0
 42
2.0
  3
TXT
  4

  0
ENDTAB
  0
TABLE
  2
VIEW
  5
6
330
0
100
AcDbSymbolTable
 70
     0
  0
ENDTAB
  0
TABLE
  2
UCS
  5
7
330
0
100
AcDbSymbolTable
 70
     0
  0
ENDTAB
  0
TABLE
  2
APPID
  5
9
330
0
100
AcDbSymbolTable
 70
     1
  0
APPID
  5
12
330
9
100
AcDbSymbolTableRecord
100
AcDbRegAppTableRecord
  2
ACAD
 70
     0
  0
ENDTAB
  0
TABLE
  2
DIMSTYLE
  5
A
330
0
100
AcDbSymbolTable
 70
     3
100
AcDbDimStyleTable
  0
DIMSTYLE
105
27
330
A
100
AcDbSymbolTableRecord
100
AcDbDimStyleTableRecord
  2
ISO-25
 70
     0
 41
2.5
 42
0.625
 43
3.75
 44
1.25
 73
     0
 74
     0
 77
     1
 78
     8
140
2.5
141
2.5
143
0.0393700787
147
0.625
171
     3
172
     1
178
     0
271
     2
272
     2
274
     3
278
    44
283
     0
284
     8
340
11
  0
DIMSTYLE
105
18C
102
{ACAD_REACTORS
330
18B
330
198
330
1A2
330
1AC
330
1B6
102
}
330
A
100
AcDbSymbolTableRecord
100
AcDbDimStyleTableRecord
  2
SLDDIMSTYLE0
 70
     0
 41
3.0
 44
0.0
 45
0.000000001
 73
     0
 74
     0
 77
     1
 78
    12
 79
     3
140
2.0
147
0.5
173
     1
178
     0
271
     2
272
     3
276
     2
284
    12
340
77
  0
DIMSTYLE
105
1C8
330
A
100
AcDbSymbolTableRecord
100
AcDbDimStyleTableRecord
  2
SLDDIMSTYLE1
 70
     0
 41
0.9
 44
0.0
 45
0.000000001
146
0.9
147
0.0
173
     1
178
     0
271
     0
272
     0
276
     2
340
11
341
1C9
343
1C9
344
1C9
  0
ENDTAB
  0
TABLE
  2
BLOCK_RECORD
  5
1
330
0
100
AcDbSymbolTable
 70
    10
  0
BLOCK_RECORD
  5
1F
330
1
100
AcDbSymbolTableRecord
100
AcDbBlockTableRecord
  2
*Model_Space
340
22
  0
BLOCK_RECORD
  5
1B
330
1
100
AcDbSymbolTableRecord
100
AcDbBlockTableRecord
  2
*Paper_Space
340
1E
  0
BLOCK_RECORD
  5
23
330
1
100
AcDbSymbolTableRecord
100
AcDbBlockTableRecord
  2
*Paper_Space0
340
26
  0
BLOCK_RECORD
  5
7D
330
1
100
AcDbSymbolTableRecord
100
AcDbBlockTableRecord
  2
SW_TABLEANNOTATION_0
340
0
102
{BLKREFS
331
98
102
}
  0
BLOCK_RECORD
  5
18D
330
1
100
AcDbSymbolTableRecord
100
AcDbBlockTableRecord
  2
_D
340
0
  0
BLOCK_RECORD
  5
199
330
1
100
AcDbSymbolTableRecord
100
AcDbBlockTableRecord
  2
_D_1
340
0
  0
BLOCK_RECORD
  5
1A3
330
1
100
AcDbSymbolTableRecord
100
AcDbBlockTableRecord
  2
_D_2
340
0
  0
BLOCK_RECORD
  5
1AD
330
1
100
AcDbSymbolTableRecord
100
AcDbBlockTableRecord
  2
_D_3
340
0
  0
BLOCK_RECORD
  5
1B7
330
1
100
AcDbSymbolTableRecord
100
AcDbBlockTableRecord
  2
_D_4
340
0
  0
BLOCK_RECORD
  5
1C2
330
1
100
AcDbSymbolTableRecord
100
AcDbBlockTableRecord
  2
SW_NOTE_0
340
0
102
{BLKREFS
331
1C7
102
}
  0
BLOCK_RECORD
  5
1C9
330
1
100
AcDbSymbolTableRecord
100
AcDbBlockTableRecord
  2
_DOT
340
0
  0
BLOCK_RECORD
  5
1D2
330
1
100
AcDbSymbolTableRecord
100
AcDbBlockTableRecord
  2
SW_NOTE_1
340
0
102
{BLKREFS
331
1D7
102
}
  0
ENDTAB
  0
ENDSEC
  0
SECTION
  2
BLOCKS
  0
BLOCK
  5
20
330
1F
100
AcDbEntity
  8
0
100
AcDbBlockBegin
  2
*Model_Space
 70
     0
 10
0.0
 20
0.0
 30
0.0
  3
*Model_Space
  1

  0
ENDBLK
  5
21
330
1F
100
AcDbEntity
  8
0
100
AcDbBlockEnd
  0
BLOCK
  5
1C
330
1B
100
AcDbEntity
 67
     1
  8
0
100
AcDbBlockBegin
  2
*Paper_Space
 70
     0
 10
0.0
 20
0.0
 30
0.0
  3
*Paper_Space
  1

  0
ENDBLK
  5
1D
330
1B
100
AcDbEntity
 67
     1
  8
0
100
AcDbBlockEnd
  0
BLOCK
  5
24
330
23
100
AcDbEntity
  8
0
100
AcDbBlockBegin
  2
*Paper_Space0
 70
     0
 10
0.0
 20
0.0
 30
0.0
  3
*Paper_Space0
  1

  0
ENDBLK
  5
25
330
23
100
AcDbEntity
  8
0
100
AcDbBlockEnd
  0
BLOCK
  5
7E
330
7D
100
AcDbEntity
  8
0
100
AcDbBlockBegin
  2
SW_TABLEANNOTATION_0
 70
     0
 10
0.0
 20
0.0
 30
0.0
  3
SW_TABLEANNOTATION_0
  1

  0
LINE
  5
80
330
7D
100
AcDbEntity
  8
0
  6
Continuous
 62
     0
370
     0
100
AcDbLine
 10
0.0
 20
0.0
 30
0.0
 11
0.0
 21
-10.9613963039
 31
0.0
  0
LINE
  5
81
330
7D
100
AcDbEntity
  8
0
  6
Continuous
 62
     0
370
     0
100
AcDbLine
 10
0.0
 20
-10.9613963039
 30
0.0
 11
125.0044361962
 21
-10.9613963039
 31
0.0
  0
LINE
  5
82
330
7D
100
AcDbEntity
  8
0
  6
Continuous
 62
     0
370
     0
100
AcDbLine
 10
125.0044361962
 20
-10.9613963039
 30
0.0
 11
125.0044361962
 21
0.0
 31
0.0
  0
LINE
  5
83
330
7D
100
AcDbEntity
  8
0
  6
Continuous
 62
     0
370
     0
100
AcDbLine
 10
125.0044361962
 20
0.0
 30
0.0
 11
0.0
 21
0.0
 31
0.0
  0
LINE
  5
84
330
7D
100
AcDbEntity
  8
0
  6
Continuous
 62
     0
370
     0
100
AcDbLine
 10
15.9651052694
 20
-7.3075975359
 30
0.0
 11
15.9651052694
 21
-10.9613963039
 31
0.0
  0
LINE
  5
85
330
7D
100
AcDbEntity
  8
0
  6
Continuous
 62
     0
370
     0
100
AcDbLine
 10
34.1012448998
 20
-7.3075975359
 30
0.0
 11
34.1012448998
 21
-10.9613963039
 31
0.0
  0
LINE
  5
86
330
7D
100
AcDbEntity
  8
0
  6
Continuous
 62
     0
370
     0
100
AcDbLine
 10
92.6586456418
 20
-7.3075975359
 30
0.0
 11
92.6586456418
 21
-10.9613963039
 31
0.0
  0
LINE
  5
87
330
7D
100
AcDbEntity
  8
0
  6
Continuous
 62
     0
370
     0
100
AcDbLine
 10
15.9651052694
 20
0.0
 30
0.0
 11
15.9651052694
 21
-7.3075975359
 31
0.0
  0
LINE
  5
88
330
7D
100
AcDbEntity
  8
0
  6
Continuous
 62
     0
370
     0
100
AcDbLine
 10
34.1012448998
 20
0.0
 30
0.0
 11
34.1012448998
 21
-7.3075975359
 31
0.0
  0
LINE
  5
89
330
7D
100
AcDbEntity
  8
0
  6
Continuous
 62
     0
370
     0
100
AcDbLine
 10
92.6586456418
 20
0.0
 30
0.0
 11
92.6586456418
 21
-7.3075975359
 31
0.0
  0
LINE
  5
8A
330
7D
100
AcDbEntity
  8
0
  6
Continuous
 62
     0
370
     0
100
AcDbLine
 10
0.0
 20
-3.653798768
 30
0.0
 11
125.0044361962
 21
-3.653798768
 31
0.0
  0
LINE
  5
8B
330
7D
100
AcDbEntity
  8
0
  6
Continuous
 62
     0
370
     0
100
AcDbLine
 10
0.0
 20
-7.3075975359
 30
0.0
 11
125.0044361962
 21
-7.3075975359
 31
0.0
  0
MTEXT
  5
8C
330
7D
100
AcDbEntity
  8
0
  6
Continuous
 62
     0
370
     0
100
AcDbMText
 10
5.2825527975
 20
-7.9563615651
 30
0.0
 40
2.0
 41
0.0
 71
     1
 72
     1
  1
POS.
  7
SLDTEXTSTYLE0
 73
     1
 44
1.0
  0
MTEXT
  5
8D
330
7D
100
AcDbEntity
  8
0
  6
Continuous
 62
     0
370
     0
100
AcDbMText
 10
21.1331751904
 20
-7.9563615651
 30
0.0
 40
2.0
 41
0.0
 71
     1
 72
     1
  1
MENGE
  7
SLDTEXTSTYLE0
 73
     1
 44
1.0
  0
MTEXT
  5
8E
330
7D
100
AcDbEntity
  8
0
  6
Continuous
 62
     0
370
     0
100
AcDbMText
 10
56.0799464956
 20
-7.9563615651
 30
0.0
 40
2.0
 41
0.0
 71
     1
 72
     1
  1
Bezeichnung
  7
SLDTEXTSTYLE0
 73
     1
 44
1.0
  0
MTEXT
  5
8F
330
7D
100
AcDbEntity
  8
0
  6
Continuous
 62
     0
370
     0
100
AcDbMText
 10
97.7315420798
 20
-7.9563615651
 30
0.0
 40
2.0
 41
0.0
 71
     1
 72
     1
  1
Zeichnungsnummer
  7
SLDTEXTSTYLE0
 73
     1
 44
1.0
  0
MTEXT
  5
90
330
7D
100
AcDbEntity
  8
0
  6
Continuous
 62
     0
370
     0
100
AcDbMText
 10
7.2825526596
 20
-0.9171773494
 30
0.0
 40
2.0
 41
0.0
 71
     1
 72
     1
  1
2
  7
SLDTEXTSTYLE0
 73
     1
 44
1.0
  0
MTEXT
  5
91
330
7D
100
AcDbEntity
  8
0
  6
Continuous
 62
     0
370
     0
100
AcDbMText
 10
24.5331750608
 20
-0.9171773494
 30
0.0
 40
2.0
 41
0.0
 71
     1
 72
     1
  1
1
  7
SLDTEXTSTYLE0
 73
     1
 44
1.0
  0
MTEXT
  5
92
330
7D
100
AcDbEntity
  8
0
  6
Continuous
 62
     0
370
     0
100
AcDbMText
 10
54.2799467594
 20
-0.9171773494
 30
0.0
 40
2.0
 41
0.0
 71
     1
 72
     1
  1
Klemmschraube
  7
SLDTEXTSTYLE0
 73
     1
 44
1.0
  0
MTEXT
  5
93
330
7D
100
AcDbEntity
  8
0
  6
Continuous
 62
     0
370
     0
100
AcDbMText
 10
99.2315413943
 20
-0.9171773494
 30
0.0
 40
2.0
 41
0.0
 71
     1
 72
     1
  1
MB4-ER1.001.013
  7
SLDTEXTSTYLE0
 73
     1
 44
1.0
  0
MTEXT
  5
94
330
7D
100
AcDbEntity
  8
0
  6
Continuous
 62
     0
370
     0
100
AcDbMText
 10
7.4825526109
 20
-4.5709761174
 30
0.0
 40
2.0
 41
0.0
 71
     1
 72
     1
  1
1
  7
SLDTEXTSTYLE0
 73
     1
 44
1.0
  0
MTEXT
  5
95
330
7D
100
AcDbEntity
  8
0
  6
Continuous
 62
     0
370
     0
100
AcDbMText
 10
24.5331750608
 20
-4.5709761174
 30
0.0
 40
2.0
 41
0.0
 71
     1
 72
     1
  1
1
  7
SLDTEXTSTYLE0
 73
     1
 44
1.0
  0
MTEXT
  5
96
330
7D
100
AcDbEntity
  8
0
  6
Continuous
 62
     0
370
     0
100
AcDbMText
 10
54.2799448967
 20
-4.5709761174
 30
0.0
 40
2.0
 41
0.0
 71
     1
 72
     1
  1
Aufnahme MBM
  7
SLDTEXTSTYLE0
 73
     1
 44
1.0
  0
MTEXT
  5
97
330
7D
100
AcDbEntity
  8
0
  6
Continuous
 62
     0
370
     0
100
AcDbMText
 10
98.5315416521
 20
-4.5709761174
 30
0.0
 40
2.0
 41
0.0
 71
     1
 72
     1
  1
HA0-MB4.K01.056
  7
SLDTEXTSTYLE0
 73
     1
 44
1.0
  0
ENDBLK
  5
7F
330
7D
100
AcDbEntity
  8
0
100
AcDbBlockEnd
  0
BLOCK
  5
18E
330
18D
100
AcDbEntity
  8
0
100
AcDbBlockBegin
  2
_D
 70
     0
 10
0.0
 20
0.0
 30
0.0
  3
_D
  1

  0
SOLID
  5
190
330
18D
100
AcDbEntity
  8
VERMASSUNG
100
AcDbTrace
 10
86.2511482581
 20
167.5158685397
 30
0.0
 11
85.8011482581
 21
164.5158685397
 31
0.0
 12
86.7011482581
 22
164.5158685397
 32
0.0
 13
86.7011482581
 23
164.5158685397
 33
0.0
  0
SOLID
  5
191
330
18D
100
AcDbEntity
  8
VERMASSUNG
100
AcDbTrace
 10
86.2511482581
 20
67.5158685397
 30
0.0
 11
86.7011482581
 21
70.5158685397
 31
0.0
 12
85.8011482581
 22
70.5158685397
 32
0.0
 13
85.8011482581
 23
70.5158685397
 33
0.0
  0
LINE
  5
192
330
18D
100
AcDbEntity
  8
VERMASSUNG
100
AcDbLine
 10
143.2442679488
 20
167.5158685397
 30
0.0
 11
85.2511482581
 21
167.5158685397
 31
0.0
  0
LINE
  5
193
330
18D
100
AcDbEntity
  8
VERMASSUNG
100
AcDbLine
 10
143.2442679488
 20
67.5158685397
 30
0.0
 11
85.2511482581
 21
67.5158685397
 31
0.0
  0
LINE
  5
194
330
18D
100
AcDbEntity
  8
VERMASSUNG
100
AcDbLine
 10
86.2511482581
 20
167.5158685397
 30
0.0
 11
86.2511482581
 21
67.5158685397
 31
0.0
  0
MTEXT
  5
195
330
18D
100
AcDbEntity
  8
VERMASSUNG
100
AcDbMText
 10
83.4730130019
 20
109.0008274275
 30
0.0
 40
2.0
 41
0.0
 71
     1
 72
     1
  1
HSK A
  7
SLDTEXTSTYLE0
 11
-7.044195017643634E-15
 21
1.0
 31
0.0
 73
     1
 44
1.0
  0
MTEXT
  5
196
330
18D
100
AcDbEntity
  8
VERMASSUNG
100
AcDbMText
 10
83.6730129532
 20
118.0008270401
 30
0.0
 40
2.0
 41
0.0
 71
     1
 72
     1
  1
%%c
  7
SLDTEXTSTYLE0
 11
-7.044195017643634E-15
 21
1.0
 31
0.0
 73
     1
 44
1.0
  0
MTEXT
  5
197
330
18D
100
AcDbEntity
  8
VERMASSUNG
100
AcDbMText
 10
83.6730126621
 20
121.6101703729
 30
0.0
 40
2.0
 41
0.0
 71
     1
 72
     1
  1
100
  7
SLDTEXTSTYLE0
 11
-7.044195017643634E-15
 21
1.0
 31
0.0
 73
     1
 44
1.0
  0
ENDBLK
  5
18F
330
18D
100
AcDbEntity
  8
0
100
AcDbBlockEnd
  0
BLOCK
  5
19A
330
199
100
AcDbEntity
  8
0
100
AcDbBlockBegin
  2
_D_1
 70
     0
 10
0.0
 20
0.0
 30
0.0
  3
_D_1
  1

  0
SOLID
  5
19C
330
199
100
AcDbEntity
  8
VERMASSUNG
100
AcDbTrace
 10
92.8442679488
 20
183.5158685397
 30
0.0
 11
95.8442679488
 21
183.0658685397
 31
0.0
 12
95.8442679488
 22
183.9658685397
 32
0.0
 13
95.8442679488
 23
183.9658685397
 33
0.0
  0
SOLID
  5
19D
330
199
100
AcDbEntity
  8
VERMASSUNG
100
AcDbTrace
 10
198.7442679488
 20
183.5158685397
 30
0.0
 11
195.7442679488
 21
183.9658685397
 31
0.0
 12
195.7442679488
 22
183.0658685397
 32
0.0
 13
195.7442679488
 23
183.0658685397
 33
0.0
  0
LINE
  5
19E
330
199
100
AcDbEntity
  8
VERMASSUNG
100
AcDbLine
 10
92.8442679488
 20
148.0185382823
 30
0.0
 11
92.8442679488
 21
184.5158685397
 31
0.0
  0
LINE
  5
19F
330
199
100
AcDbEntity
  8
VERMASSUNG
100
AcDbLine
 10
198.7442679488
 20
138.1158685397
 30
0.0
 11
198.7442679488
 21
184.5158685397
 31
0.0
  0
LINE
  5
1A0
330
199
100
AcDbEntity
  8
VERMASSUNG
100
AcDbLine
 10
92.8442679488
 20
183.5158685397
 30
0.0
 11
198.7442679488
 21
183.5158685397
 31
0.0
  0
MTEXT
  5
1A1
330
199
100
AcDbEntity
  8
VERMASSUNG
100
AcDbMText
 10
144.1803780193
 20
186.0940041356
 30
0.0
 40
2.0
 41
0.0
 71
     1
 72
     1
  1
105.9
  7
SLDTEXTSTYLE0
 73
     1
 44
1.0
  0
ENDBLK
  5
19B
330
199
100
AcDbEntity
  8
0
100
AcDbBlockEnd
  0
BLOCK
  5
1A4
330
1A3
100
AcDbEntity
  8
0
100
AcDbBlockBegin
  2
_D_2
 70
     0
 10
0.0
 20
0.0
 30
0.0
  3
_D_2
  1

  0
SOLID
  5
1A6
330
1A3
100
AcDbEntity
  8
VERMASSUNG
100
AcDbTrace
 10
142.7442679488
 20
177.5158685397
 30
0.0
 11
145.7442679488
 21
177.0658685397
 31
0.0
 12
145.7442679488
 22
177.9658685397
 32
0.0
 13
145.7442679488
 23
177.9658685397
 33
0.0
  0
SOLID
  5
1A7
330
1A3
100
AcDbEntity
  8
VERMASSUNG
100
AcDbTrace
 10
198.7442679488
 20
177.5158685397
 30
0.0
 11
195.7442679488
 21
177.9658685397
 31
0.0
 12
195.7442679488
 22
177.0658685397
 32
0.0
 13
195.7442679488
 23
177.0658685397
 33
0.0
  0
LINE
  5
1A8
330
1A3
100
AcDbEntity
  8
VERMASSUNG
100
AcDbLine
 10
142.7442679488
 20
167.0158685397
 30
0.0
 11
142.7442679488
 21
178.5158685397
 31
0.0
  0
LINE
  5
1A9
330
1A3
100
AcDbEntity
  8
VERMASSUNG
100
AcDbLine
 10
198.7442679488
 20
138.1158685397
 30
0.0
 11
198.7442679488
 21
178.5158685397
 31
0.0
  0
LINE
  5
1AA
330
1A3
100
AcDbEntity
  8
VERMASSUNG
100
AcDbLine
 10
142.7442679488
 20
177.5158685397
 30
0.0
 11
198.7442679488
 21
177.5158685397
 31
0.0
  0
MTEXT
  5
1AB
330
1A3
100
AcDbEntity
  8
VERMASSUNG
100
AcDbMText
 10
168.1231766572
 20
180.0940041356
 30
0.0
 40
2.0
 41
0.0
 71
     1
 72
     1
  1
56
  7
SLDTEXTSTYLE0
 73
     1
 44
1.0
  0
ENDBLK
  5
1A5
330
1A3
100
AcDbEntity
  8
0
100
AcDbBlockEnd
  0
BLOCK
  5
1AE
330
1AD
100
AcDbEntity
  8
0
100
AcDbBlockBegin
  2
_D_3
 70
     0
 10
0.0
 20
0.0
 30
0.0
  3
_D_3
  1

  0
SOLID
  5
1B0
330
1AD
100
AcDbEntity
  8
VERMASSUNG
100
AcDbTrace
 10
171.6942679488
 20
171.5158685397
 30
0.0
 11
174.6942679488
 21
171.0658685397
 31
0.0
 12
174.6942679488
 22
171.9658685397
 32
0.0
 13
174.6942679488
 23
171.9658685397
 33
0.0
  0
SOLID
  5
1B1
330
1AD
100
AcDbEntity
  8
VERMASSUNG
100
AcDbTrace
 10
198.7442679488
 20
171.5158685397
 30
0.0
 11
195.7442679488
 21
171.9658685397
 31
0.0
 12
195.7442679488
 22
171.0658685397
 32
0.0
 13
195.7442679488
 23
171.0658685397
 33
0.0
  0
LINE
  5
1B2
330
1AD
100
AcDbEntity
  8
VERMASSUNG
100
AcDbLine
 10
171.6942679488
 20
165.4846083605
 30
0.0
 11
171.6942679488
 21
172.5158685397
 31
0.0
  0
LINE
  5
1B3
330
1AD
100
AcDbEntity
  8
VERMASSUNG
100
AcDbLine
 10
198.7442679488
 20
138.1158685397
 30
0.0
 11
198.7442679488
 21
172.5158685397
 31
0.0
  0
LINE
  5
1B4
330
1AD
100
AcDbEntity
  8
VERMASSUNG
100
AcDbLine
 10
171.6942679488
 20
171.5158685397
 30
0.0
 11
198.7442679488
 21
171.5158685397
 31
0.0
  0
MTEXT
  5
1B5
330
1AD
100
AcDbEntity
  8
VERMASSUNG
100
AcDbMText
 10
181.5897826914
 20
174.0940041356
 30
0.0
 40
2.0
 41
0.0
 71
     1
 72
     1
  1
27.05
  7
SLDTEXTSTYLE0
 73
     1
 44
1.0
  0
ENDBLK
  5
1AF
330
1AD
100
AcDbEntity
  8
0
100
AcDbBlockEnd
  0
BLOCK
  5
1B8
330
1B7
100
AcDbEntity
  8
0
100
AcDbBlockBegin
  2
_D_4
 70
     0
 10
0.0
 20
0.0
 30
0.0
  3
_D_4
  1

  0
SOLID
  5
1BA
330
1B7
100
AcDbEntity
  8
VERMASSUNG
100
AcDbTrace
 10
207.2721774761
 20
138.5158685397
 30
0.0
 11
206.8221774761
 21
135.5158685397
 31
0.0
 12
207.7221774761
 22
135.5158685397
 32
0.0
 13
207.7221774761
 23
135.5158685397
 33
0.0
  0
SOLID
  5
1BB
330
1B7
100
AcDbEntity
  8
VERMASSUNG
100
AcDbTrace
 10
207.2721774761
 20
96.5158685397
 30
0.0
 11
207.7221774761
 21
99.5158685397
 31
0.0
 12
206.8221774761
 22
99.5158685397
 32
0.0
 13
206.8221774761
 23
99.5158685397
 33
0.0
  0
LINE
  5
1BC
330
1B7
100
AcDbEntity
  8
VERMASSUNG
100
AcDbLine
 10
198.3442679488
 20
138.5158685397
 30
0.0
 11
208.2721774761
 21
138.5158685397
 31
0.0
  0
LINE
  5
1BD
330
1B7
100
AcDbEntity
  8
VERMASSUNG
100
AcDbLine
 10
198.3442679488
 20
96.5158685397
 30
0.0
 11
208.2721774761
 21
96.5158685397
 31
0.0
  0
LINE
  5
1BE
330
1B7
100
AcDbEntity
  8
VERMASSUNG
100
AcDbLine
 10
207.2721774761
 20
138.5158685397
 30
0.0
 11
207.2721774761
 21
96.5158685397
 31
0.0
  0
MTEXT
  5
1BF
330
1B7
100
AcDbEntity
  8
VERMASSUNG
100
AcDbMText
 10
204.4940422199
 20
110.5771396332
 30
0.0
 40
2.0
 41
0.0
 71
     1
 72
     1
  1
MBM
  7
SLDTEXTSTYLE0
 11
-7.044195017643634E-15
 21
1.0
 31
0.0
 73
     1
 44
1.0
  0
MTEXT
  5
1C0
330
1B7
100
AcDbEntity
  8
VERMASSUNG
100
AcDbMText
 10
204.6940421711
 20
116.9771394715
 30
0.0
 40
2.0
 41
0.0
 71
     1
 72
     1
  1
%%c
  7
SLDTEXTSTYLE0
 11
-7.044195017643634E-15
 21
1.0
 31
0.0
 73
     1
 44
1.0
  0
MTEXT
  5
1C1
330
1B7
100
AcDbEntity
  8
VERMASSUNG
100
AcDbMText
 10
204.4940422199
 20
120.5871399515
 30
0.0
 40
2.0
 41
0.0
 71
     1
 72
     1
  1
42
  7
SLDTEXTSTYLE0
 11
-7.044195017643634E-15
 21
1.0
 31
0.0
 73
     1
 44
1.0
  0
ENDBLK
  5
1B9
330
1B7
100
AcDbEntity
  8
0
100
AcDbBlockEnd
  0
BLOCK
  5
1C3
330
1C2
100
AcDbEntity
  8
0
100
AcDbBlockBegin
  2
SW_NOTE_0
 70
     0
 10
0.0
 20
0.0
 30
0.0
  3
SW_NOTE_0
  1

  0
CIRCLE
  5
1C5
330
1C2
100
AcDbEntity
  8
VERMASSUNG
 62
     0
100
AcDbCircle
 10
0.0
 20
-2.5028270988
 30
0.0
 40
2.502827098762143
  0
MTEXT
  5
1C6
330
1C2
100
AcDbEntity
  8
VERMASSUNG
 62
     0
100
AcDbMText
 10
-0.0000000237
 20
-1.8101961014
 30
0.0
 40
2.0
 41
0.0
 71
     2
 72
     1
  1
1
  7
SLDTEXTSTYLE0
 73
     1
 44
1.0
  0
ENDBLK
  5
1C4
330
1C2
100
AcDbEntity
  8
0
100
AcDbBlockEnd
  0
BLOCK
  5
1CA
330
1C9
100
AcDbEntity
  8
0
100
AcDbBlockBegin
  2
_DOT
 70
     0
 10
0.0
 20
0.0
 30
0.0
  3
_DOT
  1

  0
POLYLINE
  5
1CC
330
1C9
100
AcDbEntity
  8
0
  6
ByBlock
 62
     0
100
AcDb2dPolyline
 66
     1
 10
0.0
 20
0.0
 30
0.0
 70
     1
 40
0.5
 41
0.5
  0
VERTEX
  5
1CE
330
1CC
100
AcDbEntity
  8
0
  6
ByBlock
 62
     0
100
AcDbVertex
100
AcDb2dVertex
 10
-0.25
 20
0.0
 30
0.0
 42
1.0
  0
VERTEX
  5
1CF
330
1CC
100
AcDbEntity
  8
0
  6
ByBlock
 62
     0
100
AcDbVertex
100
AcDb2dVertex
 10
0.25
 20
0.0
 30
0.0
 42
1.0
  0
SEQEND
  5
1D0
330
1CC
100
AcDbEntity
  8
0
  6
ByBlock
 62
     0
  0
LINE
  5
1CD
330
1C9
100
AcDbEntity
  8
0
  6
ByBlock
 62
     0
370
    -2
100
AcDbLine
 10
-0.5
 20
0.0
 30
0.0
 11
-1.0
 21
0.0
 31
0.0
  0
ENDBLK
  5
1CB
330
1C9
100
AcDbEntity
  8
0
100
AcDbBlockEnd
  0
BLOCK
  5
1D3
330
1D2
100
AcDbEntity
  8
0
100
AcDbBlockBegin
  2
SW_NOTE_1
 70
     0
 10
0.0
 20
0.0
 30
0.0
  3
SW_NOTE_1
  1

  0
CIRCLE
  5
1D5
330
1D2
100
AcDbEntity
  8
VERMASSUNG
 62
     0
100
AcDbCircle
 10
0.0
 20
-2.5028270988
 30
0.0
 40
2.50282709876215
  0
MTEXT
  5
1D6
330
1D2
100
AcDbEntity
  8
VERMASSUNG
 62
     0
100
AcDbMText
 10
-0.012499975
 20
-1.8101961014
 30
0.0
 40
2.0
 41
0.0
 71
     2
 72
     1
  1
2
  7
SLDTEXTSTYLE0
 73
     1
 44
1.0
  0
ENDBLK
  5
1D4
330
1D2
100
AcDbEntity
  8
0
100
AcDbBlockEnd
  0
ENDSEC
  0
SECTION
  2
ENTITIES
  0
MTEXT
  5
78
330
1F
100
AcDbEntity
  8
KOPF_DÜNN
100
AcDbMText
 10
13.8892156294
 20
23.8442973028
 30
0.0
 40
3.0
 41
0.0
 71
     1
 72
     1
  1
102.100.421
  7
SLDTEXTSTYLE0
 73
     1
 44
1.0
  0
MTEXT
  5
79
330
1F
100
AcDbEntity
  8
VERMASSUNG
100
AcDbMText
 10
13.9329988022
 20
28.8834360957
 30
0.0
 40
3.0
 41
0.0
 71
     1
 72
     1
  1
Aufnahme
  7
SLDTEXTSTYLE0
 73
     1
 44
1.0
  0
MTEXT
  5
7A
330
1F
100
AcDbEntity
  8
VERMASSUNG
100
AcDbMText
 10
98.8601118557
 20
13.8365368761
 30
0.0
 40
2.0
 41
0.0
 71
     1
 72
     1
  1
Datum: 08.12.2006
  7
SLDTEXTSTYLE0
 73
     1
 44
1.0
  0
MTEXT
  5
7B
330
1F
100
AcDbEntity
  8
VERMASSUNG
100
AcDbMText
 10
13.933048693
 20
18.0482802738
 30
0.0
 40
2.0
 41
0.0
 71
     1
 72
     1
  1
HSK-A100 / MBM ø42
  7
SLDTEXTSTYLE0
 73
     1
 44
1.0
  0
MTEXT
  5
7C
330
1F
100
AcDbEntity
  8
VERMASSUNG
100
AcDbMText
 10
13.9808475933
 20
13.9090974274
 30
0.0
 40
2.0
 41
0.0
 71
     1
 72
     1
  1
Gewicht: 2184g
  7
SLDTEXTSTYLE0
 73
     1
 44
1.0
  0
INSERT
  5
98
330
1F
100
AcDbEntity
  8
0
  6
Continuous
 62
     7
370
     0
100
AcDbBlockReference
  2
SW_TABLEANNOTATION_0
 10
155.4069348624
 20
22.9491325334
 30
0.0
  0
ARC
  5
99
330
1F
100
AcDbEntity
  8
0
  6
Continuous
 62
     7
370
    15
100
AcDbCircle
 10
143.2442679488
 20
68.0158685397
 30
0.0
 40
0.5
100
AcDbArc
 50
180.0
 51
270.0
  0
ARC
  5
9A
330
1F
100
AcDbEntity
  8
0
  6
Continuous
 62
     7
370
    15
100
AcDbCircle
 10
143.2442679488
 20
167.0158685397
 30
0.0
 40
0.5
100
AcDbArc
 50
90.0
 51
180.0
  0
LINE
  5
9B
330
1F
100
AcDbEntity
  8
0
  6
Continuous
 62
     7
370
    15
100
AcDbLine
 10
143.2442679488
 20
67.5158685397
 30
0.0
 11
147.6942679488
 21
67.5158685397
 31
0.0
  0
LINE
  5
9C
330
1F
100
AcDbEntity
  8
0
  6
Continuous
 62
     7
370
    15
100
AcDbLine
 10
147.7283407813
 20
167.5158685397
 30
0.0
 11
143.2442679488
 21
167.5158685397
 31
0.0
  0
ARC
  5
9D
330
1F
100
AcDbEntity
  8
0
  6
Continuous
 62
     7
370
    15
100
AcDbCircle
 10
141.8473310304
 20
78.8873832152
 30
0.0
 40
0.9962338214386921
100
AcDbArc
 50
25.7988228126
 51
90.0
  0
ARC
  5
9E
330
1F
100
AcDbEntity
  8
0
  6
Continuous
 62
     7
370
    15
100
AcDbCircle
 10
141.8473310304
 20
156.1443538641
 30
0.0
 40
0.9962338214386921
100
AcDbArc
 50
270.0
 51
334.2011771874
  0
LINE
  5
9F
330
1F
100
AcDbEntity
  8
0
  6
Continuous
 62
     7
370
    15
100
AcDbLine
 10
140.2442679488
 20
79.6336170367
 30
0.0
 11
141.0501141032
 21
79.849542863
 31
0.0
  0
LINE
  5
A0
330
1F
100
AcDbEntity
  8
0
  6
Continuous
 62
     7
370
    15
100
AcDbLine
 10
141.0501141032
 20
155.1821942164
 30
0.0
 11
140.2442679488
 21
155.3981200427
 31
0.0
  0
LINE
  5
A1
330
1F
100
AcDbEntity
  8
0
  6
Continuous
 62
     7
370
    15
100
AcDbLine
 10
121.2635725255
 20
154.4471833982
 30
0.0
 11
102.9442679488
 21
153.5293825677
 31
0.0
  0
LINE
  5
A2
330
1F
100
AcDbEntity
  8
0
  6
Continuous
 62
     7
370
    15
100
AcDbLine
 10
140.2442679488
 20
155.3981200427
 30
0.0
 11
134.1762287945
 21
155.094110065
 31
0.0
  0
LINE
  5
A3
330
1F
100
AcDbEntity
  8
0
  6
Continuous
 62
     7
370
    15
100
AcDbLine
 10
134.1763520749
 20
79.937620838
 30
0.0
 11
140.2442679488
 21
79.6336170367
 31
0.0
  0
LINE
  5
A4
330
1F
100
AcDbEntity
  8
0
  6
Continuous
 62
     7
370
    15
100
AcDbLine
 10
107.9442679488
 20
81.2518535096
 30
0.0
 11
121.2642191265
 21
80.5845212863
 31
0.0
  0
ARC
  5
A5
330
1F
100
AcDbEntity
  8
0
  6
Continuous
 62
     7
370
    15
100
AcDbCircle
 10
141.3089331483
 20
78.8836170367
 30
0.0
 40
1.000000000000003
100
AcDbArc
 50
90.0
 51
105.0
  0
ARC
  5
A6
330
1F
100
AcDbEntity
  8
0
  6
Continuous
 62
     7
370
    15
100
AcDbCircle
 10
141.3089331483
 20
156.1481200427
 30
0.0
 40
1.00000000000003
100
AcDbArc
 50
255.0
 51
270.0
  0
LINE
  5
A7
330
1F
100
AcDbEntity
  8
0
  6
Continuous
 62
     7
370
    15
100
AcDbLine
 10
141.3089331483
 20
79.8836170367
 30
0.0
 11
141.8473310304
 21
79.8836170367
 31
0.0
  0
LINE
  5
A8
330
1F
100
AcDbEntity
  8
0
  6
Continuous
 62
     7
370
    15
100
AcDbLine
 10
141.8473310304
 20
155.1481200427
 30
0.0
 11
141.3089331483
 21
155.1481200427
 31
0.0
  0
ARC
  5
A9
330
1F
100
AcDbEntity
  8
0
  6
Continuous
 62
     7
370
    15
100
AcDbCircle
 10
175.6942679488
 20
92.5158685397
 30
0.0
 40
4.0
100
AcDbArc
 50
90.0
 51
180.0
  0
ARC
  5
AA
330
1F
100
AcDbEntity
  8
0
  6
Continuous
 62
     7
370
    15
100
AcDbCircle
 10
175.6942679488
 20
142.5158685397
 30
0.0
 40
4.0
100
AcDbArc
 50
180.0
 51
270.0
  0
LINE
  5
AB
330
1F
100
AcDbEntity
  8
0
  6
Continuous
 62
     7
370
    15
100
AcDbLine
 10
175.6942679488
 20
96.5158685397
 30
0.0
 11
198.3442679488
 21
96.5158685397
 31
0.0
  0
LINE
  5
AC
330
1F
100
AcDbEntity
  8
0
  6
Continuous
 62
     7
370
    15
100
AcDbLine
 10
198.3442679488
 20
138.5158685397
 30
0.0
 11
175.6942679488
 21
138.5158685397
 31
0.0
  0
LINE
  5
AD
330
1F
100
AcDbEntity
  8
0
  6
Continuous
 62
     7
370
    15
100
AcDbLine
 10
198.3442679488
 20
96.5158685397
 30
0.0
 11
198.7442679488
 21
96.9158685397
 31
0.0
  0
LINE
  5
AE
330
1F
100
AcDbEntity
  8
0
  6
Continuous
 62
     7
370
    15
100
AcDbLine
 10
198.7442679488
 20
138.1158685397
 30
0.0
 11
198.3442679488
 21
138.5158685397
 31
0.0
  0
LINE
  5
AF
330
1F
100
AcDbEntity
  8
0
  6
Continuous
 62
     7
370
    15
100
AcDbLine
 10
94.4942679488
 20
85.2658685397
 30
0.0
 11
106.0442679488
 21
85.2658685397
 31
0.0
  0
ARC
  5
B0
330
1F
100
AcDbEntity
  8
0
  6
Continuous
 62
     7
370
    15
100
AcDbCircle
 10
106.0442679488
 20
83.3658685397
 30
0.0
 40
1.900000000000007
100
AcDbArc
 50
35.6630613694
 51
90.0
  0
ARC
  5
B1
330
1F
100
AcDbEntity
  8
0
  6
Continuous
 62
     7
370
    15
100
AcDbCircle
 10
101.0442679488
 20
151.6658685397
 30
0.0
 40
1.900000000000006
100
AcDbArc
 50
270.0
 51
310.9212832533
  0
LINE
  5
B2
330
1F
100
AcDbEntity
  8
0
  6
Continuous
 62
     7
370
    15
100
AcDbLine
 10
94.4942679488
 20
149.7658685397
 30
0.0
 11
92.89495183
 21
148.1665524208
 31
0.0
  0
LINE
  5
B3
330
1F
100
AcDbEntity
  8
0
  6
Continuous
 62
     7
370
    15
100
AcDbLine
 10
92.8957891999
 20
86.8643472886
 30
0.0
 11
94.4942679488
 21
85.2658685397
 31
0.0
  0
LINE
  5
B4
330
1F
100
AcDbEntity
  8
0
  6
Continuous
 62
     7
370
    15
100
AcDbLine
 10
101.0442679488
 20
149.7658685397
 30
0.0
 11
94.4942679488
 21
149.7658685397
 31
0.0
  0
SPLINE
  5
B5
330
1F
100
AcDbEntity
  8
0
  6
Continuous
 62
     7
370
    15
100
AcDbSpline
210
0.0
220
0.0
230
1.0
 70
    24
 71
     3
 72
    11
 73
     7
 74
     0
 42
0.000000001
 43
0.00000001
 40
0.0
 40
0.0
 40
0.0
 40
0.0
 40
0.1336647920874023
 40
0.4825473608259723
 40
0.815635656150377
 40
1.0
 40
1.0
 40
1.0
 40
1.0
 10
187.9263187564155
 20
114.5158685396824
 30
0.0
 10
187.7811970781875
 20
114.5158685396824
 30
0.0
 10
187.2572888617163
 20
114.5158685396824
 30
0.0
 10
186.2785649073466
 20
114.5158685396824
 30
0.0
 10
185.2274257586301
 20
114.5158685396824
 30
0.0
 10
184.6632341985145
 20
114.5158685396824
 30
0.0
 10
184.4622171412777
 20
114.5158685396824
 30
0.0
  0
SPLINE
  5
B6
330
1F
100
AcDbEntity
  8
0
  6
Continuous
 62
     7
370
    15
100
AcDbSpline
210
0.0
220
0.0
230
1.0
 70
    24
 71
     3
 72
    11
 73
     7
 74
     0
 42
0.000000001
 43
0.00000001
 40
0.0
 40
0.0
 40
0.0
 40
0.0
 40
0.216455377944342
 40
0.4403112895790516
 40
0.7519005688038628
 40
1.0
 40
1.0
 40
1.0
 40
1.0
 10
189.6583695639844
 20
117.5158685396824
 30
0.0
 10
189.5397224054643
 20
117.310365632952
 30
0.0
 10
189.2983715835581
 20
116.892333746962
 30
0.0
 10
188.8504889189057
 20
116.1165782159547
 30
0.0
 10
188.3700544203228
 20
115.2844412547003
 30
0.0
 10
188.0626051911191
 20
114.7519235689715
 30
0.0
 10
187.9263187564155
 20
114.5158685396824
 30
0.0
  0
SPLINE
  5
B7
330
1F
100
AcDbEntity
  8
0
  6
Continuous
 62
     7
370
    15
100
AcDbSpline
210
0.0
220
0.0
230
1.0
 70
    24
 71
     3
 72
    11
 73
     7
 74
     0
 42
0.000000001
 43
0.00000001
 40
0.0
 40
0.0
 40
0.0
 40
0.0
 40
0.2164553779443418
 40
0.4403112895790513
 40
0.7519005688038626
 40
1.0
 40
1.0
 40
1.0
 40
1.0
 10
187.9263187564155
 20
120.5158685396824
 30
0.0
 10
188.0449659149355
 20
120.310365632952
 30
0.0
 10
188.2863167368417
 20
119.892333746962
 30
0.0
 10
188.7341994014941
 20
119.1165782159547
 30
0.0
 10
189.214633900077
 20
118.2844412547003
 30
0.0
 10
189.5220831292807
 20
117.7519235689715
 30
0.0
 10
189.6583695639844
 20
117.5158685396824
 30
0.0
  0
SPLINE
  5
B8
330
1F
100
AcDbEntity
  8
0
  6
Continuous
 62
     7
370
    15
100
AcDbSpline
210
0.0
220
0.0
230
1.0
 70
    24
 71
     3
 72
    11
 73
     7
 74
     0
 42
0.000000001
 43
0.00000001
 40
0.0
 40
0.0
 40
0.0
 40
0.0
 40
0.1843643438496198
 40
0.5174526391740258
 40
0.8663352079125972
 40
1.0
 40
1.0
 40
1.0
 40
1.0
 10
184.4622171412777
 20
120.5158685396824
 30
0.0
 10
184.6632341985145
 20
120.5158685396824
 30
0.0
 10
185.2274257586301
 20
120.5158685396824
 30
0.0
 10
186.2785649073466
 20
120.5158685396824
 30
0.0
 10
187.2572888617163
 20
120.5158685396824
 30
0.0
 10
187.7811970781875
 20
120.5158685396824
 30
0.0
 10
187.9263187564155
 20
120.5158685396824
 30
0.0
  0
SPLINE
  5
B9
330
1F
100
AcDbEntity
  8
0
  6
Continuous
 62
     7
370
    15
100
AcDbSpline
210
0.0
220
0.0
230
1.0
 70
    24
 71
     3
 72
    11
 73
     7
 74
     0
 42
0.000000001
 43
0.00000001
 40
0.0
 40
0.0
 40
0.0
 40
0.0
 40
0.216455377944342
 40
0.4403112895790501
 40
0.7519005688038638
 40
1.0
 40
1.0
 40
1.0
 40
1.0
 10
184.4622171412777
 20
114.5158685396824
 30
0.0
 10
184.3435699827576
 20
114.7213714464129
 30
0.0
 10
184.1022191608515
 20
115.1394033324029
 30
0.0
 10
183.6543364961991
 20
115.9151588634102
 30
0.0
 10
183.1739019976162
 20
116.7472958246646
 30
0.0
 10
182.8664527684124
 20
117.2798135103934
 30
0.0
 10
182.7301663337088
 20
117.5158685396824
 30
0.0
  0
CIRCLE
  5
BA
330
1F
100
AcDbEntity
  8
0
  6
Continuous
 62
     7
370
    15
100
AcDbCircle
 10
186.1942679488
 20
117.5158685397
 30
0.0
 40
3.5
  0
SPLINE
  5
BB
330
1F
100
AcDbEntity
  8
0
  6
Continuous
 62
     7
370
    15
100
AcDbSpline
210
0.0
220
0.0
230
1.0
 70
    24
 71
     3
 72
    11
 73
     7
 74
     0
 42
0.000000001
 43
0.00000001
 40
0.0
 40
0.0
 40
0.0
 40
0.0
 40
0.2164553779443425
 40
0.4403112895790518
 40
0.7519005688038635
 40
1.0
 40
1.0
 40
1.0
 40
1.0
 10
182.7301663337088
 20
117.5158685396824
 30
0.0
 10
182.8488134922289
 20
117.7213714464129
 30
0.0
 10
183.0901643141351
 20
118.1394033324029
 30
0.0
 10
183.5380469787875
 20
118.9151588634102
 30
0.0
 10
184.0184814773704
 20
119.7472958246646
 30
0.0
 10
184.3259307065741
 20
120.2798135103934
 30
0.0
 10
184.4622171412777
 20
120.5158685396824
 30
0.0
  0
CIRCLE
  5
BC
330
1F
100
AcDbEntity
  8
0
  6
Continuous
 62
     7
370
    15
100
AcDbCircle
 10
186.1942679488
 20
117.5158685397
 30
0.0
 40
5.5
  0
CIRCLE
  5
BD
330
1F
100
AcDbEntity
  8
0
  6
Continuous
 62
     7
370
    15
100
AcDbCircle
 10
186.1942679488
 20
117.5158685397
 30
0.0
 40
6.0
  0
ARC
  5
BE
330
1F
100
AcDbEntity
  8
0
  6
Continuous
 62
     7
370
    15
100
AcDbCircle
 10
186.1942679488
 20
117.5158685397
 30
0.0
 40
3.0
100
AcDbArc
 50
210.0
 51
270.0
  0
ARC
  5
BF
330
1F
100
AcDbEntity
  8
0
  6
Continuous
 62
     7
370
    15
100
AcDbCircle
 10
186.1942679488
 20
117.5158685397
 30
0.0
 40
3.000000000000025
100
AcDbArc
 50
330.0
 51
30.0
  0
ARC
  5
C0
330
1F
100
AcDbEntity
  8
0
  6
Continuous
 62
     7
370
    15
100
AcDbCircle
 10
186.1942679488
 20
117.5158685397
 30
0.0
 40
3.0
100
AcDbArc
 50
150.0
 51
210.0
  0
ARC
  5
C1
330
1F
100
AcDbEntity
  8
0
  6
Continuous
 62
     7
370
    15
100
AcDbCircle
 10
186.1942679488
 20
117.5158685397
 30
0.0
 40
3.0
100
AcDbArc
 50
90.0
 51
150.0
  0
ARC
  5
C2
330
1F
100
AcDbEntity
  8
0
  6
Continuous
 62
     7
370
    15
100
AcDbCircle
 10
186.1942679488
 20
117.5158685397
 30
0.0
 40
3.000000000000025
100
AcDbArc
 50
270.0
 51
330.0
  0
ARC
  5
C3
330
1F
100
AcDbEntity
  8
0
  6
Continuous
 62
     7
370
    15
100
AcDbCircle
 10
186.1942679488
 20
117.5158685397
 30
0.0
 40
3.000000000000025
100
AcDbArc
 50
30.0
 51
90.0
  0
LINE
  5
C4
330
1F
100
AcDbEntity
  8
0
  6
Continuous
 62
     7
370
    15
100
AcDbLine
 10
142.7442679488
 20
68.0158685397
 30
0.0
 11
142.7442679488
 21
167.0158685357
 31
0.0
  0
LINE
  5
C5
330
1F
100
AcDbEntity
  8
0
  6
Continuous
 62
     7
370
    15
100
AcDbLine
 10
170.6942679488
 20
68.7408749467
 30
0.0
 11
166.0062969698
 21
68.7408749467
 31
0.0
  0
LINE
  5
C6
330
1F
100
AcDbEntity
  8
0
  6
Continuous
 62
     7
370
    15
100
AcDbLine
 10
166.0062969698
 20
68.7408749467
 30
0.0
 11
166.0062969698
 21
148.8658685397
 31
0.0
  0
LINE
  5
C7
330
1F
100
AcDbEntity
  8
0
  6
Continuous
 62
     7
370
    15
100
AcDbLine
 10
166.0062969698
 20
148.8658685397
 30
0.0
 11
170.6942679488
 21
148.8658685397
 31
0.0
  0
LINE
  5
C8
330
1F
100
AcDbEntity
  8
0
  6
Continuous
 62
     7
370
    15
100
AcDbLine
 10
171.6942679488
 20
69.7665229944
 30
0.0
 11
171.6942679488
 21
148.8658685397
 31
0.0
  0
SPLINE
  5
C9
330
1F
100
AcDbEntity
  8
0
  6
Continuous
 62
     7
370
    15
100
AcDbSpline
210
0.0
220
0.0
230
1.0
 70
     8
 71
     3
 72
    14
 73
    10
 74
     0
 42
0.000000001
 43
0.00000001
 40
0.0
 40
0.0
 40
0.0
 40
0.0
 40
0.25
 40
0.25
 40
0.5
 40
0.5
 40
0.75
 40
0.75
 40
1.0
 40
1.0
 40
1.0
 40
1.0
 10
171.6942679488466
 20
69.76652299442915
 30
0.0
 10
171.6942679488466
 20
69.63309729837461
 30
0.0
 10
171.6689568489357
 20
69.50124949053027
 30
0.0
 10
171.570622085091
 20
69.25472694183615
 30
0.0
 10
171.4974780808349
 20
69.14092175359562
 30
0.0
 10
171.3140400197392
 20
68.95046457664834
 30
0.0
 10
171.2023536854006
 20
68.87282971279843
 30
0.0
 10
170.9598502550943
 20
68.76853830268595
 30
0.0
 10
170.8264758264001
 20
68.74087494665359
 30
0.0
 10
170.6942679488466
 20
68.7408749466536
 30
0.0
  0
SPLINE
  5
CA
330
1F
100
AcDbEntity
  8
0
  6
Continuous
 62
     7
370
    15
100
AcDbSpline
210
0.0
220
0.0
230
1.0
 70
    24
 71
     3
 72
    12
 73
     8
 74
     0
 42
0.000000001
 43
0.00000001
 40
0.0
 40
0.0
 40
0.0
 40
0.0
 40
0.2500000000000016
 40
0.2500000000000016
 40
0.5000000000000032
 40
0.5000000000000032
 40
1.0
 40
1.0
 40
1.0
 40
1.0
 10
170.6942679488466
 20
148.8658685396825
 30
0.0
 10
170.8463581857916
 20
148.8658685396825
 30
0.0
 10
170.994817446867
 20
148.8658685396825
 30
0.0
 10
171.2522210791327
 20
148.8658685396825
 30
0.0
 10
171.3613258269746
 20
148.8658685396825
 30
0.0
 10
171.6153853033822
 20
148.8658685396825
 30
0.0
 10
171.6942679488466
 20
148.8658685396825
 30
0.0
 10
171.6942679488466
 20
148.8658685396825
 30
0.0
  0
SPLINE
  5
CB
330
1F
100
AcDbEntity
  8
0
  6
Continuous
 62
     7
370
    15
100
AcDbSpline
210
0.0
220
0.0
230
1.0
 70
     8
 71
     3
 72
     8
 73
     4
 74
     0
 42
0.000000001
 43
0.00000001
 40
0.0
 40
0.0
 40
0.0
 40
0.0
 40
1.0
 40
1.0
 40
1.0
 40
1.0
 10
166.006296969768
 20
68.74087494665365
 30
0.0
 10
165.5551922403678
 20
69.54183487847357
 30
0.0
 10
165.1044944131244
 20
70.34302489003421
 30
0.0
 10
164.6542679488466
 20
71.144480252659
 30
0.0
  0
LINE
  5
CC
330
1F
100
AcDbEntity
  8
0
  6
Continuous
 62
     7
370
    15
100
AcDbLine
 10
164.6542679488
 20
71.1444802527
 30
0.0
 11
164.6542679488
 21
148.8658685397
 31
0.0
  0
SPLINE
  5
CD
330
1F
100
AcDbEntity
  8
0
  6
Continuous
 62
     7
370
    15
100
AcDbSpline
210
0.0
220
0.0
230
1.0
 70
    24
 71
     3
 72
     8
 73
     4
 74
     0
 42
0.000000001
 43
0.00000001
 40
0.0
 40
0.0
 40
0.0
 40
0.0
 40
1.0
 40
1.0
 40
1.0
 40
1.0
 10
164.6542679488466
 20
148.8658685396825
 30
0.0
 10
165.0984808312005
 20
148.8658685396825
 30
0.0
 10
165.5494953974397
 20
148.8658685396825
 30
0.0
 10
166.006296969768
 20
148.8658685396825
 30
0.0
  0
LINE
  5
CE
330
1F
100
AcDbEntity
  8
0
  6
Continuous
 62
     7
370
    15
100
AcDbLine
 10
160.8342679488
 20
71.1444802527
 30
0.0
 11
160.8342679488
 21
148.8658685397
 31
0.0
  0
SPLINE
  5
CF
330
1F
100
AcDbEntity
  8
0
  6
Continuous
 62
     7
370
    15
100
AcDbSpline
210
0.0
220
0.0
230
1.0
 70
     8
 71
     3
 72
     8
 73
     4
 74
     0
 42
0.000000001
 43
0.00000001
 40
0.0
 40
0.0
 40
0.0
 40
0.0
 40
1.0
 40
1.0
 40
1.0
 40
1.0
 10
160.8342679488466
 20
71.144480252659
 30
0.0
 10
160.3840414845688
 20
70.34302489003423
 30
0.0
 10
159.9333436573254
 20
69.54183487847355
 30
0.0
 10
159.4822389279252
 20
68.74087494665365
 30
0.0
  0
LINE
  5
D0
330
1F
100
AcDbEntity
  8
0
  6
Continuous
 62
     7
370
    15
100
AcDbLine
 10
159.4822389279
 20
68.7408749467
 30
0.0
 11
159.4822389279
 21
148.8658685397
 31
0.0
  0
SPLINE
  5
D1
330
1F
100
AcDbEntity
  8
0
  6
Continuous
 62
     7
370
    15
100
AcDbSpline
210
0.0
220
0.0
230
1.0
 70
    24
 71
     3
 72
     8
 73
     4
 74
     0
 42
0.000000001
 43
0.00000001
 40
0.0
 40
0.0
 40
0.0
 40
0.0
 40
1.0
 40
1.0
 40
1.0
 40
1.0
 10
159.4822389279252
 20
148.8658685396825
 30
0.0
 10
159.9390405002534
 20
148.8658685396825
 30
0.0
 10
160.3900550664926
 20
148.8658685396825
 30
0.0
 10
160.8342679488466
 20
148.8658685396825
 30
0.0
  0
LINE
  5
D2
330
1F
100
AcDbEntity
  8
0
  6
Continuous
 62
     7
370
    15
100
AcDbLine
 10
147.6942679488
 20
148.8658685397
 30
0.0
 11
159.4822389279
 21
148.8658685397
 31
0.0
  0
LINE
  5
D3
330
1F
100
AcDbEntity
  8
0
  6
Continuous
 62
     7
370
    15
100
AcDbLine
 10
159.4822389279
 20
68.7408749467
 30
0.0
 11
157.6942679488
 21
68.7408749467
 31
0.0
  0
SPLINE
  5
D4
330
1F
100
AcDbEntity
  8
0
  6
Continuous
 62
     7
370
    15
100
AcDbSpline
210
0.0
220
0.0
230
1.0
 70
     8
 71
     3
 72
    30
 73
    26
 74
     0
 42
0.000000001
 43
0.00000001
 40
0.0
 40
0.0
 40
0.0
 40
0.0
 40
0.1250000000000006
 40
0.1250000000000006
 40
0.187500000000001
 40
0.187500000000001
 40
0.2500000000000013
 40
0.2500000000000013
 40
0.3750000000000014
 40
0.3750000000000014
 40
0.4375000000000014
 40
0.4375000000000014
 40
0.5000000000000013
 40
0.5000000000000013
 40
0.625000000000001
 40
0.625000000000001
 40
0.6875000000000009
 40
0.6875000000000009
 40
0.7500000000000007
 40
0.7500000000000007
 40
0.8125000000000006
 40
0.8125000000000006
 40
0.8750000000000004
 40
0.8750000000000004
 40
1.0
 40
1.0
 40
1.0
 40
1.0
 10
157.6942679488466
 20
68.74087494665365
 30
0.0
 10
157.0315232550016
 20
68.74087494665365
 30
0.0
 10
156.3802673958859
 20
68.72603487006485
 30
0.0
 10
155.4198168576276
 20
68.68366530583522
 30
0.0
 10
155.1024254143946
 20
68.66618720305604
 30
0.0
 10
154.4732619128397
 20
68.62485891650374
 30
0.0
 10
154.161113726398
 20
68.60093364304603
 30
0.0
 10
153.2538064245498
 20
68.52212712657912
 30
0.0
 10
152.6803814669085
 20
68.45982110660267
 30
0.0
 10
151.8665045973338
 20
68.3566917863633
 30
0.0
 10
151.601698400764
 20
68.32050786731678
 30
0.0
 10
151.0947909899496
 20
68.24671308311628
 30
0.0
 10
150.8533968385962
 20
68.20923922434463
 30
0.0
 10
150.1642553664638
 20
68.09652728100491
 30
0.0
 10
149.7512005515996
 20
68.02099118353114
 30
0.0
 10
149.2030457322245
 20
67.91259792651366
 30
0.0
 10
149.0335831248789
 20
67.87752569485036
 30
0.0
 10
148.7255658768636
 20
67.81129023425054
 30
0.0
 10
148.5861858562552
 20
67.7799635374958
 30
0.0
 10
148.3364003436285
 20
67.72155476591487
 30
0.0
 10
148.2259942309745
 20
67.69447153073205
 30
0.0
 10
148.0347363773368
 20
67.64521177611843
 30
0.0
 10
147.9536168590525
 20
67.62294979631079
 30
0.0
 10
147.7594699389441
 20
67.56538288914248
 30
0.0
 10
147.6942679488466
 20
67.53912328435652
 30
0.0
 10
147.6942679488466
 20
67.52586953988249
 30
0.0
  0
LINE
  5
D5
330
1F
100
AcDbEntity
  8
0
  6
Continuous
 62
     7
370
    15
100
AcDbLine
 10
147.6942679488
 20
67.5258695399
 30
0.0
 11
147.6942679488
 21
67.5158685397
 31
0.0
  0
SPLINE
  5
D6
330
1F
100
AcDbEntity
  8
0
  6
Continuous
 62
     7
370
    15
100
AcDbSpline
210
0.0
220
0.0
230
1.0
 70
     8
 71
     3
 72
    17
 73
    13
 74
     0
 42
0.000000001
 43
0.00000001
 40
0.0
 40
0.0
 40
0.0
 40
0.0
 40
0.1043843840547469
 40
0.2118345768143993
 40
0.3162082005190449
 40
0.4235375806108391
 40
0.5292276236193851
 40
0.637927586480349
 40
0.7444714844189682
 40
0.8541836219421858
 40
0.9593080534965216
 40
1.0
 40
1.0
 40
1.0
 40
1.0
 10
157.6942679488466
 20
166.505663395346
 30
0.0
 10
157.1463295009872
 20
166.5110315990947
 30
0.0
 10
156.0343594465225
 20
166.5219256727597
 30
0.0
 10
154.4215035333075
 20
166.6071030470187
 30
0.0
 10
152.8879903163306
 20
166.7334777533112
 30
0.0
 10
151.496969466994
 20
166.890380573888
 30
0.0
 10
150.2614529497637
 20
167.0620794034086
 30
0.0
 10
149.2380971826084
 20
167.2274156795096
 30
0.0
 10
148.4377551843432
 20
167.3711291590962
 30
0.0
 10
147.9274230824297
 20
167.4692839662754
 30
0.0
 10
147.6875146536051
 20
167.5172123631453
 30
0.0
 10
147.719433433025
 20
167.5108449639057
 30
0.0
 10
147.7283407813071
 20
167.5090680587824
 30
0.0
  0
LINE
  5
D7
330
1F
100
AcDbEntity
  8
0
  6
Continuous
 62
     7
370
    15
100
AcDbLine
 10
159.4822389279
 20
166.5056633953
 30
0.0
 11
157.6942679488
 21
166.5056633953
 31
0.0
  0
LINE
  5
D8
330
1F
100
AcDbEntity
  8
0
  6
Continuous
 62
     7
370
    15
100
AcDbLine
 10
159.4822389279
 20
156.4668313006
 30
0.0
 11
159.4822389279
 21
166.5056633953
 31
0.0
  0
LINE
  5
D9
330
1F
100
AcDbEntity
  8
0
  6
Continuous
 62
     7
370
    15
100
AcDbLine
 10
157.402234797
 20
156.4668313006
 30
0.0
 11
159.4822389279
 21
156.4668313006
 31
0.0
  0
SPLINE
  5
DA
330
1F
100
AcDbEntity
  8
0
  6
Continuous
 62
     7
370
    15
100
AcDbSpline
210
0.0
220
0.0
230
1.0
 70
     8
 71
     3
 72
    22
 73
    18
 74
     0
 42
0.000000001
 43
0.00000001
 40
0.0
 40
0.0
 40
0.0
 40
0.0
 40
0.2500000000000001
 40
0.2500000000000001
 40
0.3750000000000002
 40
0.3750000000000002
 40
0.5000000000000002
 40
0.5000000000000002
 40
0.6250000000000001
 40
0.6250000000000001
 40
0.7500000000000001
 40
0.7500000000000001
 40
0.875
 40
0.875
 40
0.9375
 40
0.9375
 40
1.0
 40
1.0
 40
1.0
 40
1.0
 10
147.6942679488466
 20
148.8658685396825
 30
0.0
 10
147.8969929047657
 20
149.8851148815471
 30
0.0
 10
148.211736626561
 20
150.8442230314864
 30
0.0
 10
148.919792096232
 20
152.1867021089957
 30
0.0
 10
149.1982547264497
 20
152.6209106917357
 30
0.0
 10
149.8370221330869
 20
153.4325384072378
 30
0.0
 10
150.1974358128771
 20
153.8118187001746
 30
0.0
 10
151.0149680448664
 20
154.5147772791956
 30
0.0
 10
151.4761360281535
 20
154.8398060968962
 30
0.0
 10
152.4741262746373
 20
155.4048214202871
 30
0.0
 10
153.0138854686296
 20
155.6485250144936
 30
0.0
 10
154.1884784326609
 20
156.0527249421386
 30
0.0
 10
154.8002146186527
 20
156.2051621351841
 30
0.0
 10
155.7521238435145
 20
156.3604896827928
 30
0.0
 10
156.0753570077751
 20
156.3999944628428
 30
0.0
 10
156.7344201790504
 20
156.4533035835115
 30
0.0
 10
157.0684841896243
 20
156.4668313005694
 30
0.0
 10
157.4022347970259
 20
156.4668313005694
 30
0.0
  0
SPLINE
  5
DB
330
1F
100
AcDbEntity
  8
0
  6
Continuous
 62
     7
370
    15
100
AcDbSpline
210
0.0
220
0.0
230
1.0
 70
     8
 71
     3
 72
    12
 73
     8
 74
     0
 42
0.000000001
 43
0.00000001
 40
0.0
 40
0.0
 40
0.0
 40
0.0
 40
0.25
 40
0.25
 40
0.5
 40
0.5
 40
1.0
 40
1.0
 40
1.0
 40
1.0
 10
161.6342679488466
 20
72.87619308163282
 30
0.0
 10
161.5285072954976
 20
72.87619308163282
 30
0.0
 10
161.4205196673147
 20
72.8536535756324
 30
0.0
 10
161.2259250020491
 20
72.76908294363713
 30
0.0
 10
161.1370530892103
 20
72.7066012908783
 30
0.0
 10
160.9178607968844
 20
72.47721233940614
 30
0.0
 10
160.8342679488466
 20
72.26462900188375
 30
0.0
 10
160.8342679488466
 20
72.05268975728757
 30
0.0
  0
SPLINE
  5
DC
330
1F
100
AcDbEntity
  8
0
  6
Continuous
 62
     7
370
    15
100
AcDbSpline
210
0.0
220
0.0
230
1.0
 70
    24
 71
     3
 72
    14
 73
    10
 74
     0
 42
0.000000001
 43
0.00000001
 40
0.0
 40
0.0
 40
0.0
 40
0.0
 40
0.25
 40
0.25
 40
0.5
 40
0.5
 40
0.75
 40
0.75
 40
1.0
 40
1.0
 40
1.0
 40
1.0
 10
160.8342679488466
 20
148.8658685396825
 30
0.0
 10
160.8342679488466
 20
148.8658685396825
 30
0.0
 10
160.8499822693125
 20
148.8658685396825
 30
0.0
 10
160.9136662477809
 20
148.8658685396825
 30
0.0
 10
160.9622694421914
 20
148.8658685396825
 30
0.0
 10
161.094952964617
 20
148.8658685396825
 30
0.0
 10
161.1800550689276
 20
148.8658685396825
 30
0.0
 10
161.3864973038377
 20
148.8658685396825
 30
0.0
 10
161.5105782454607
 20
148.8658685396825
 30
0.0
 10
161.6342679488466
 20
148.8658685396825
 30
0.0
  0
SPLINE
  5
DD
330
1F
100
AcDbEntity
  8
0
  6
Continuous
 62
     7
370
    15
100
AcDbSpline
210
0.0
220
0.0
230
1.0
 70
     8
 71
     3
 72
    14
 73
    10
 74
     0
 42
0.000000001
 43
0.00000001
 40
0.0
 40
0.0
 40
0.0
 40
0.0
 40
0.25
 40
0.25
 40
0.5
 40
0.5
 40
0.75
 40
0.75
 40
1.0
 40
1.0
 40
1.0
 40
1.0
 10
164.6542679488466
 20
72.05268975728757
 30
0.0
 10
164.6542679488466
 20
72.15973383828195
 30
0.0
 10
164.6341502616884
 20
72.26496897852438
 30
0.0
 10
164.5556590724228
 20
72.46281946537209
 30
0.0
 10
164.4975024476216
 20
72.553871228937
 30
0.0
 10
164.3509871920035
 20
72.70703732286178
 30
0.0
 10
164.2623446433624
 20
72.76933176907119
 30
0.0
 10
164.0666213205621
 20
72.85412555460718
 30
0.0
 10
163.9613901294912
 20
72.8761930816328
 30
0.0
 10
163.8542679488466
 20
72.87619308163282
 30
0.0
  0
SPLINE
  5
DE
330
1F
100
AcDbEntity
  8
0
  6
Continuous
 62
     7
370
    15
100
AcDbSpline
210
0.0
220
0.0
230
1.0
 70
    24
 71
     3
 72
    14
 73
    10
 74
     0
 42
0.000000001
 43
0.00000001
 40
0.0
 40
0.0
 40
0.0
 40
0.0
 40
0.25
 40
0.25
 40
0.5
 40
0.5
 40
0.75
 40
0.75
 40
1.0
 40
1.0
 40
1.0
 40
1.0
 10
163.8542679488466
 20
148.8658685396825
 30
0.0
 10
163.9780377136117
 20
148.8658685396825
 30
0.0
 10
164.1024048176186
 20
148.8658685396825
 30
0.0
 10
164.3087612863447
 20
148.8658685396825
 30
0.0
 10
164.394089429763
 20
148.8658685396825
 30
0.0
 10
164.5262814884782
 20
148.8658685396825
 30
0.0
 10
164.5749267322288
 20
148.8658685396825
 30
0.0
 10
164.6384625239576
 20
148.8658685396825
 30
0.0
 10
164.6542679488466
 20
148.8658685396825
 30
0.0
 10
164.6542679488466
 20
148.8658685396825
 30
0.0
  0
LINE
  5
DF
330
1F
100
AcDbEntity
  8
0
  6
Continuous
 62
     7
370
    15
100
AcDbLine
 10
163.8542679488
 20
72.8761930816
 30
0.0
 11
161.6342679488
 21
72.8761930816
 31
0.0
  0
LINE
  5
E0
330
1F
100
AcDbEntity
  8
0
  6
Continuous
 62
     7
370
    15
100
AcDbLine
 10
161.6342679488
 20
148.8658685397
 30
0.0
 11
163.8542679488
 21
148.8658685397
 31
0.0
  0
LINE
  5
E1
330
1F
100
AcDbEntity
  8
0
  6
Continuous
 62
     7
370
    15
100
AcDbLine
 10
140.2442679488
 20
79.6336170367
 30
0.0
 11
140.2442679488
 21
155.3981200427
 31
0.0
  0
LINE
  5
E2
330
1F
100
AcDbEntity
  8
0
  6
Continuous
 62
     7
370
    15
100
AcDbLine
 10
107.9442679488
 20
81.2518535096
 30
0.0
 11
107.9442679488
 21
83.6465352743
 31
0.0
  0
SPLINE
  5
E3
330
1F
100
AcDbEntity
  8
0
  6
Continuous
 62
     7
370
    15
100
AcDbSpline
210
0.0
220
0.0
230
1.0
 70
     8
 71
     3
 72
    14
 73
    10
 74
     0
 42
0.000000001
 43
0.00000001
 40
0.0
 40
0.0
 40
0.0
 40
0.0
 40
0.25
 40
0.25
 40
0.5
 40
0.5
 40
0.75
 40
0.75
 40
1.0
 40
1.0
 40
1.0
 40
1.0
 10
106.9398454775096
 20
85.34938719593893
 30
0.0
 10
107.028614055455
 20
85.19085306463097
 30
0.0
 10
107.1503318941339
 20
85.03841038774242
 30
0.0
 10
107.3853815039907
 20
84.74127576391349
 30
0.0
 10
107.5010116902076
 20
84.59659312029613
 30
0.0
 10
107.7014166236354
 20
84.31330391779272
 30
0.0
 10
107.7868169156197
 20
84.17474992475587
 30
0.0
 10
107.908522549337
 20
83.90336589472233
 30
0.0
 10
107.9442679488496
 20
83.77123002608772
 30
0.0
 10
107.9442679488496
 20
83.64653527431695
 30
0.0
  0
SPLINE
  5
E4
330
1F
100
AcDbEntity
  8
0
  6
Continuous
 62
     7
370
    15
100
AcDbSpline
210
0.0
220
0.0
230
1.0
 70
     8
 71
     3
 72
    14
 73
    10
 74
     0
 42
0.000000001
 43
0.00000001
 40
0.0
 40
0.0
 40
0.0
 40
0.0
 40
0.1249999999999983
 40
0.1249999999999983
 40
0.2499999999999966
 40
0.2499999999999966
 40
0.4999999999999978
 40
0.4999999999999978
 40
1.0
 40
1.0
 40
1.0
 40
1.0
 10
106.0442679488466
 20
85.97821713503903
 30
0.0
 10
106.1118502486311
 20
85.98537302014041
 30
0.0
 10
106.184337826379
 20
85.98094855010144
 30
0.0
 10
106.3166289356449
 20
85.95124239233108
 30
0.0
 10
106.3739063150351
 20
85.92795811075284
 30
0.0
 10
106.5235567422354
 20
85.85047287090251
 30
0.0
 10
106.5972700377569
 20
85.78862104400116
 30
0.0
 10
106.7850780210831
 20
85.60394359135282
 30
0.0
 10
106.8691183274446
 20
85.47570066806162
 30
0.0
 10
106.9398454775108
 20
85.34938719593903
 30
0.0
  0
SPLINE
  5
E5
330
1F
100
AcDbEntity
  8
0
  6
Continuous
 62
     7
370
    15
100
AcDbSpline
210
0.0
220
0.0
230
1.0
 70
     8
 71
     3
 72
     8
 73
     4
 74
     0
 42
0.000000001
 43
0.00000001
 40
0.0
 40
0.0
 40
0.0
 40
0.0
 40
1.0
 40
1.0
 40
1.0
 40
1.0
 10
102.4996275607658
 20
85.56016855024724
 30
0.0
 10
103.6649258714747
 20
85.71535602213386
 30
0.0
 10
104.8495410855145
 20
85.85171466044419
 30
0.0
 10
106.0442679488466
 20
85.97821713503903
 30
0.0
  0
SPLINE
  5
E6
330
1F
100
AcDbEntity
  8
0
  6
Continuous
 62
     7
370
    15
100
AcDbSpline
210
0.0
220
0.0
230
1.0
 70
     8
 71
     3
 72
    14
 73
    10
 74
     0
 42
0.000000001
 43
0.00000001
 40
0.0
 40
0.0
 40
0.0
 40
0.0
 40
0.4999999999999972
 40
0.4999999999999972
 40
0.7499999999999971
 40
0.7499999999999971
 40
0.8749999999999986
 40
0.8749999999999986
 40
1.0
 40
1.0
 40
1.0
 40
1.0
 10
94.74419306481789
 20
85.27003637111733
 30
0.0
 10
96.05249462735163
 20
85.27705109485845
 30
0.0
 10
97.35755400200844
 20
85.29245967130295
 30
0.0
 10
99.30343005349677
 20
85.34635622676961
 30
0.0
 10
99.95012755723577
 20
85.3693877913723
 30
0.0
 10
100.9139699210901
 20
85.42033031624307
 30
0.0
 10
101.2342086130242
 20
85.44006523847625
 30
0.0
 10
101.8709038393666
 20
85.48955236694783
 30
0.0
 10
102.1876192476495
 20
85.51861714587704
 30
0.0
 10
102.4996275607658
 20
85.5601685502472
 30
0.0
  0
SPLINE
  5
E7
330
1F
100
AcDbEntity
  8
0
  6
Continuous
 62
     7
370
    15
100
AcDbSpline
210
0.0
220
0.0
230
1.0
 70
     8
 71
     3
 72
    12
 73
     8
 74
     0
 42
0.000000001
 43
0.00000001
 40
0.0
 40
0.0
 40
0.0
 40
0.0
 40
0.2500000000000009
 40
0.2500000000000009
 40
0.5000000000000018
 40
0.5000000000000018
 40
1.0
 40
1.0
 40
1.0
 40
1.0
 10
101.0442679488466
 20
149.6023914311789
 30
0.0
 10
100.5255691270184
 20
149.6349142060271
 30
0.0
 10
100.0038575538134
 20
149.6582109471976
 30
0.0
 10
98.95756553731783
 20
149.6960564616197
 30
0.0
 10
98.43289391164757
 20
149.7103249361159
 30
0.0
 10
96.85604788910834
 20
149.7445344235741
 30
0.0
 10
95.80109257456144
 20
149.756033927518
 30
0.0
 10
94.7441930648162
 20
149.7617007082476
 30
0.0
  0
SPLINE
  5
E8
330
1F
100
AcDbEntity
  8
0
  6
Continuous
 62
     7
370
    15
100
AcDbSpline
210
0.0
220
0.0
230
1.0
 70
     8
 71
     3
 72
    20
 73
    16
 74
     0
 42
0.000000001
 43
0.00000001
 40
0.0
 40
0.0
 40
0.0
 40
0.0
 40
0.2500000000000003
 40
0.2500000000000003
 40
0.5000000000000007
 40
0.5000000000000007
 40
0.750000000000001
 40
0.750000000000001
 40
0.8750000000000007
 40
0.8750000000000007
 40
0.9375000000000012
 40
0.9375000000000012
 40
0.9687500000000007
 40
0.9687500000000007
 40
1.0
 40
1.0
 40
1.0
 40
1.0
 10
102.9442679488466
 20
151.260477276667
 30
0.0
 10
102.9442679488466
 20
151.1247949569202
 30
0.0
 10
102.89555615963
 20
150.9837079707802
 30
0.0
 10
102.7263947364048
 20
150.6916362520496
 30
0.0
 10
102.6046143224864
 20
150.5399875099592
 30
0.0
 10
102.307067227737
 20
150.2375790698061
 30
0.0
 10
102.1331546220342
 20
150.0849904336828
 30
0.0
 10
101.8137397881524
 20
149.8597196698405
 30
0.0
 10
101.6986990127051
 20
149.7849965753298
 30
0.0
 10
101.4916146886887
 20
149.6855861660728
 30
0.0
 10
101.4155068538823
 20
149.6540210737282
 30
0.0
 10
101.2841123143289
 20
149.6195776895353
 30
0.0
 10
101.2375590953275
 20
149.6105261177676
 30
0.0
 10
101.1412257442468
 20
149.6003504689292
 30
0.0
 10
101.0919663208913
 20
149.5994007102541
 30
0.0
 10
101.0442679488446
 20
149.6023914311687
 30
0.0
  0
LINE
  5
E9
330
1F
100
AcDbEntity
  8
0
  6
Continuous
 62
     7
370
    15
100
AcDbLine
 10
102.9442679488
 20
151.2604772767
 30
0.0
 11
102.9442679488
 21
153.5293825677
 31
0.0
  0
SPLINE
  5
EA
330
1F
100
AcDbEntity
  8
0
  6
Continuous
 62
     7
370
    15
100
AcDbSpline
210
0.0
220
0.0
230
1.0
 70
     8
 71
     3
 72
    24
 73
    20
 74
     0
 42
0.000000001
 43
0.00000001
 40
0.0
 40
0.0
 40
0.0
 40
0.0
 40
0.0002934414420271
 40
0.0628080152160965
 40
0.1260453991880177
 40
0.1890746779682012
 40
0.2513200535609202
 40
0.3133304621144936
 40
0.3759158442080228
 40
0.438374056044848
 40
0.5000631095091941
 40
0.5616593973351518
 40
0.6245050394001391
 40
0.6872231506794613
 40
0.7494953245671641
 40
0.8117583759415791
 40
0.874736544690748
 40
0.9378980274086923
 40
1.0
 40
1.0
 40
1.0
 40
1.0
 10
121.2642242366451
 20
80.58462328435434
 30
0.0
 10
121.2640293756949
 20
80.5845989759707
 30
0.0
 10
121.2223214647859
 20
80.57939602536432
 30
0.0
 10
121.367439803073
 20
80.5980306547946
 30
0.0
 10
121.722518746461
 20
80.640550437383
 30
0.0
 10
122.3270943937043
 20
80.70868671561065
 30
0.0
 10
123.1335297218813
 20
80.78194224248101
 30
0.0
 10
124.1190071606097
 20
80.84646157478238
 30
0.0
 10
125.250676762936
 20
80.88502579970498
 30
0.0
 10
126.4729692345662
 20
80.88872030822262
 30
0.0
 10
127.740297908152
 20
80.8462943411955
 30
0.0
 10
129.0067834614654
 20
80.75804720597638
 30
0.0
 10
130.2229208206862
 20
80.62965393058293
 30
0.0
 10
131.3483313071923
 20
80.47701294062729
 30
0.0
 10
132.3257483431561
 20
80.31523832968304
 30
0.0
 10
133.129013806549
 20
80.16270944088048
 30
0.0
 10
133.7175073529565
 20
80.03869569552889
 30
0.0
 10
134.106413504298
 20
79.9537717628945
 30
0.0
 10
134.1531746249712
 20
79.94304545059804
 30
0.0
 10
134.1763574265889
 20
79.93772765738694
 30
0.0
  0
SPLINE
  5
EB
330
1F
100
AcDbEntity
  8
0
  6
Continuous
 62
     7
370
    15
100
AcDbSpline
210
0.0
220
0.0
230
1.0
 70
     8
 71
     3
 72
    28
 73
    24
 74
     0
 42
0.000000001
 43
0.00000001
 40
0.0
 40
0.0
 40
0.0
 40
0.0
 40
0.0619954223130618
 40
0.1254396649066195
 40
0.1886582406793474
 40
0.2510344227881972
 40
0.3131780225777139
 40
0.3756728044549342
 40
0.4382397903046337
 40
0.4998239655034524
 40
0.5615382949216514
 40
0.624092618383252
 40
0.6867524729566483
 40
0.7488656977075954
 40
0.8111001876309571
 40
0.8742083428035755
 40
0.9448182192551254
 40
0.9756075192185976
 40
0.9836978729380198
 40
0.9918081150293072
 40
0.9999434159885753
 40
0.9999502135795771
 40
1.0
 40
1.0
 40
1.0
 40
1.0
 10
134.1762360921931
 20
155.0939644031628
 30
0.0
 10
134.1526644318964
 20
155.0886549226724
 30
0.0
 10
134.1049702464456
 20
155.0779118802236
 30
0.0
 10
133.7129282673071
 20
154.9926827441518
 30
0.0
 10
133.1224142255673
 20
154.8681139648039
 30
0.0
 10
132.3183767738022
 20
154.7151670150759
 30
0.0
 10
131.3423013487544
 20
154.5534104575377
 30
0.0
 10
130.2204925953133
 20
154.4011776918913
 30
0.0
 10
129.0069616867045
 20
154.2733977557015
 30
0.0
 10
127.7421310135368
 20
154.1855492064281
 30
0.0
 10
126.4740880704614
 20
154.1431637189553
 30
0.0
 10
125.2505805703189
 20
154.1468995219448
 30
0.0
 10
124.1170826962934
 20
154.1854949841027
 30
0.0
 10
123.1309745142948
 20
154.2499343755577
 30
0.0
 10
122.3223557037754
 20
154.3234441369488
 30
0.0
 10
121.7020878137855
 20
154.3934222788123
 30
0.0
 10
121.3840605682317
 20
154.4319499230291
 30
0.0
 10
121.2916179540403
 20
154.4436225417752
 30
0.0
 10
121.2713770019898
 20
154.4461947469652
 30
0.0
 10
121.2649526760137
 20
154.4470115778871
 30
0.0
 10
121.2637234886662
 20
154.4471605655496
 30
0.0
 10
121.2635227462456
 20
154.4471811231473
 30
0.0
 10
121.2635494599955
 20
154.4471776713474
 30
0.0
 10
121.26357296455
 20
154.4471746342215
 30
0.0
  0
SPLINE
  5
EC
330
1F
100
AcDbEntity
  8
0
  6
Continuous
 62
     7
370
    15
100
AcDbSpline
210
0.0
220
0.0
230
1.0
 70
     8
 71
     3
 72
    20
 73
    16
 74
     0
 42
0.000000001
 43
0.00000001
 40
0.0
 40
0.0
 40
0.0
 40
0.0
 40
0.2499999999999887
 40
0.2499999999999887
 40
0.374999999999986
 40
0.374999999999986
 40
0.4374999999999881
 40
0.4374999999999881
 40
0.4999999999999901
 40
0.4999999999999901
 40
0.6249999999999891
 40
0.6249999999999891
 40
0.7499999999999881
 40
0.7499999999999881
 40
1.0
 40
1.0
 40
1.0
 40
1.0
 10
93.1350821805626
 20
86.83738538698174
 30
0.0
 10
93.16135439777604
 20
86.85670332806421
 30
0.0
 10
93.19203454003083
 20
86.87109203916596
 30
0.0
 10
93.26350541041279
 20
86.86418767732995
 30
0.0
 10
93.29153244745712
 20
86.85702167398154
 30
0.0
 10
93.34661603695466
 20
86.82732264727794
 30
0.0
 10
93.36750736550705
 20
86.81384900471662
 30
0.0
 10
93.4127160129525
 20
86.77865073920061
 30
0.0
 10
93.43712022534808
 20
86.75674251047336
 30
0.0
 10
93.50845254339954
 20
86.6846176504778
 30
0.0
 10
93.5503493282198
 20
86.63227710952773
 30
0.0
 10
93.62192528707565
 20
86.53479371762698
 30
0.0
 10
93.65275327689298
 20
86.48803994774858
 30
0.0
 10
93.73585320972857
 20
86.35474673190947
 30
0.0
 10
93.78070811509886
 20
86.27210933399427
 30
0.0
 10
93.8208201905514
 20
86.19300243920348
 30
0.0
  0
SPLINE
  5
ED
330
1F
100
AcDbEntity
  8
0
  6
Continuous
 62
     7
370
    15
100
AcDbSpline
210
0.0
220
0.0
230
1.0
 70
     8
 71
     3
 72
    14
 73
    10
 74
     0
 42
0.000000001
 43
0.00000001
 40
0.0
 40
0.0
 40
0.0
 40
0.0
 40
0.25
 40
0.25
 40
0.5
 40
0.5
 40
0.75
 40
0.75
 40
1.0
 40
1.0
 40
1.0
 40
1.0
 10
92.84426794884659
 20
87.01319879711453
 30
0.0
 10
92.8442679488466
 20
86.97195186609018
 30
0.0
 10
92.85287766522785
 20
86.9350448938077
 30
0.0
 10
92.88396384479819
 20
86.87414483390829
 30
0.0
 10
92.90635339828225
 20
86.8499639143686
 30
0.0
 10
92.96109732945837
 20
86.81599632348534
 30
0.0
 10
92.99354756904356
 20
86.80607623951715
 30
0.0
 10
93.06354908377162
 20
86.8047250306123
 30
0.0
 10
93.10175958389416
 20
86.81288330730847
 30
0.0
 10
93.13508218056725
 20
86.83738538697655
 30
0.0
  0
LINE
  5
EE
330
1F
100
AcDbEntity
  8
0
  6
Continuous
 62
     7
370
    15
100
AcDbLine
 10
92.8442679488
 20
87.0131987971
 30
0.0
 11
92.8442679488
 21
148.0185382823
 31
0.0
  0
SPLINE
  5
EF
330
1F
100
AcDbEntity
  8
0
  6
Continuous
 62
     7
370
    15
100
AcDbSpline
210
0.0
220
0.0
230
1.0
 70
     8
 71
     3
 72
     9
 73
     5
 74
     0
 42
0.000000001
 43
0.00000001
 40
0.0
 40
0.0
 40
0.0
 40
0.0
 40
0.0592950272321235
 40
0.9999999999999999
 40
0.9999999999999999
 40
0.9999999999999999
 40
0.9999999999999999
 10
93.13508218056724
 20
148.1943516923883
 30
0.0
 10
93.13019933910505
 20
148.1976445377818
 30
0.0
 10
93.04785109355868
 20
148.2531777847875
 30
0.0
 10
92.98171904307718
 20
148.1958883822749
 30
0.0
 10
92.91950829432986
 20
148.1419959564445
 30
0.0
  0
SPLINE
  5
F0
330
1F
100
AcDbEntity
  8
0
  6
Continuous
 62
     7
370
    15
100
AcDbSpline
210
0.0
220
0.0
230
1.0
 70
     8
 71
     3
 72
     8
 73
     4
 74
     0
 42
0.000000001
 43
0.00000001
 40
0.0
 40
0.0
 40
0.0
 40
0.0
 40
1.0
 40
1.0
 40
1.0
 40
1.0
 10
92.8679016177828
 20
148.12611778332
 30
0.0
 10
92.85255257914676
 20
148.0956077283241
 30
0.0
 10
92.84426794884659
 20
148.0592961728118
 30
0.0
 10
92.84426794884659
 20
148.0185382822504
 30
0.0
  0
SPLINE
  5
F1
330
1F
100
AcDbEntity
  8
0
  6
Continuous
 62
     7
370
    15
100
AcDbSpline
210
0.0
220
0.0
230
1.0
 70
     8
 71
     3
 72
    20
 73
    16
 74
     0
 42
0.000000001
 43
0.00000001
 40
0.0
 40
0.0
 40
0.0
 40
0.0
 40
0.2499999999999868
 40
0.2499999999999868
 40
0.3749999999999822
 40
0.3749999999999822
 40
0.4999999999999776
 40
0.4999999999999776
 40
0.5624999999999778
 40
0.5624999999999778
 40
0.624999999999978
 40
0.624999999999978
 40
0.7499999999999855
 40
0.7499999999999855
 40
1.0
 40
1.0
 40
1.0
 40
1.0
 10
93.82082019054899
 20
148.8387346401606
 30
0.0
 10
93.78082397272516
 20
148.7598562336032
 30
0.0
 10
93.73571034488751
 20
148.6767265869117
 30
0.0
 10
93.652456130521
 20
148.5432379225607
 30
0.0
 10
93.62223680190047
 20
148.4973728666787
 30
0.0
 10
93.55014856675903
 20
148.3991813142738
 30
0.0
 10
93.50823124934799
 20
148.3468714947502
 30
0.0
 10
93.43698064479652
 20
148.2748655920157
 30
0.0
 10
93.4127448324172
 20
148.2530953797142
 30
0.0
 10
93.36714664223256
 20
148.2176207213852
 30
0.0
 10
93.34634415263284
 20
148.2042505372076
 30
0.0
 10
93.29140315421375
 20
148.1746806250724
 30
0.0
 10
93.26333416612694
 20
148.1675541027704
 30
0.0
 10
93.19283133606407
 20
148.1606797312877
 30
0.0
 10
93.16140724827324
 20
148.1749948903749
 30
0.0
 10
93.13508218056462
 20
148.1943516923855
 30
0.0
  0
SPLINE
  5
F2
330
1F
100
AcDbEntity
  8
0
  6
Continuous
 62
     7
370
    15
100
AcDbSpline
210
0.0
220
0.0
230
1.0
 70
     8
 71
     3
 72
    10
 73
     6
 74
     0
 42
0.000000001
 43
0.00000001
 40
0.0
 40
0.0
 40
0.0
 40
0.0
 40
0.4999999999999989
 40
0.4999999999999989
 40
1.0
 40
1.0
 40
1.0
 40
1.0
 10
94.4942679488466
 20
149.7641537415024
 30
0.0
 10
94.36937967809641
 20
149.633157463431
 30
0.0
 10
94.24792956003596
 20
149.489444626766
 30
0.0
 10
94.01834558507852
 20
149.1788743340768
 30
0.0
 10
93.90807060968254
 20
149.0108052610137
 30
0.0
 10
93.82082019054901
 20
148.8387346401606
 30
0.0
  0
SPLINE
  5
F3
330
1F
100
AcDbEntity
  8
0
  6
Continuous
 62
     7
370
    15
100
AcDbSpline
210
0.0
220
0.0
230
1.0
 70
     8
 71
     3
 72
     8
 73
     4
 74
     0
 42
0.000000001
 43
0.00000001
 40
0.0
 40
0.0
 40
0.0
 40
0.0
 40
1.0
 40
1.0
 40
1.0
 40
1.0
 10
94.74419306481232
 20
149.7617007082471
 30
0.0
 10
94.65717503496397
 20
149.7621672730341
 30
0.0
 10
94.57422100858403
 20
149.7632072926102
 30
0.0
 10
94.49426794884428
 20
149.7641537415025
 30
0.0
  0
SPLINE
  5
F4
330
1F
100
AcDbEntity
  8
0
  6
Continuous
 62
     7
370
    15
100
AcDbSpline
210
0.0
220
0.0
230
1.0
 70
     8
 71
     3
 72
     8
 73
     4
 74
     0
 42
0.000000001
 43
0.00000001
 40
0.0
 40
0.0
 40
0.0
 40
0.0
 40
1.0
 40
1.0
 40
1.0
 40
1.0
 10
94.49426794884428
 20
85.26758333786238
 30
0.0
 10
94.57422100858456
 20
85.26852978675464
 30
0.0
 10
94.65717503496504
 20
85.26956980633076
 30
0.0
 10
94.74419306481401
 20
85.27003637111784
 30
0.0
  0
SPLINE
  5
F5
330
1F
100
AcDbEntity
  8
0
  6
Continuous
 62
     7
370
    15
100
AcDbSpline
210
0.0
220
0.0
230
1.0
 70
     8
 71
     3
 72
    10
 73
     6
 74
     0
 42
0.000000001
 43
0.00000001
 40
0.0
 40
0.0
 40
0.0
 40
0.0
 40
0.4999999999999989
 40
0.4999999999999989
 40
1.0
 40
1.0
 40
1.0
 40
1.0
 10
93.82082019054809
 20
86.19300243920605
 30
0.0
 10
93.90807060968156
 20
86.0209318183527
 30
0.0
 10
94.01834558507772
 20
85.85286274528924
 30
0.0
 10
94.24792956003556
 20
85.54229245259943
 30
0.0
 10
94.3693796780962
 20
85.39857961593415
 30
0.0
 10
94.4942679488466
 20
85.26758333786245
 30
0.0
  0
SPLINE
  5
F6
330
1F
100
AcDbEntity
  8
0
  6
Continuous
 62
     7
370
    15
100
AcDbSpline
210
0.0
220
0.0
230
1.0
 70
     8
 71
     3
 72
     8
 73
     4
 74
     0
 42
0.000000001
 43
0.00000001
 40
0.0
 40
0.0
 40
0.0
 40
0.0
 40
1.0
 40
1.0
 40
1.0
 40
1.0
 10
160.8342679488466
 20
164.1131394003873
 30
0.0
 10
160.3839597131621
 20
164.910854525501
 30
0.0
 10
159.9332658966385
 20
165.7083528251581
 30
0.0
 10
159.4822389279252
 20
166.505663395346
 30
0.0
  0
LINE
  5
F7
330
1F
100
AcDbEntity
  8
0
  6
Continuous
 62
     7
370
    15
100
AcDbLine
 10
160.8342679488
 20
153.4113160458
 30
0.0
 11
160.8342679488
 21
164.1131394004
 31
0.0
  0
SPLINE
  5
F8
330
1F
100
AcDbEntity
  8
0
  6
Continuous
 62
     7
370
    15
100
AcDbSpline
210
0.0
220
0.0
230
1.0
 70
     8
 71
     3
 72
     8
 73
     4
 74
     0
 42
0.000000001
 43
0.00000001
 40
0.0
 40
0.0
 40
0.0
 40
0.0
 40
1.0
 40
1.0
 40
1.0
 40
1.0
 10
159.4822389279252
 20
156.4668313005694
 30
0.0
 10
159.9391652817247
 20
155.4509133308951
 30
0.0
 10
160.3903709235278
 20
154.4321175018039
 30
0.0
 10
160.8342679488466
 20
153.4113160458203
 30
0.0
  0
SPLINE
  5
F9
330
1F
100
AcDbEntity
  8
0
  6
Continuous
 62
     7
370
    15
100
AcDbSpline
210
0.0
220
0.0
230
1.0
 70
     8
 71
     3
 72
    12
 73
     8
 74
     0
 42
0.000000001
 43
0.00000001
 40
0.0
 40
0.0
 40
0.0
 40
0.0
 40
0.4999999999999953
 40
0.4999999999999953
 40
0.7499999999999977
 40
0.7499999999999977
 40
1.0
 40
1.0
 40
1.0
 40
1.0
 10
171.6942679488466
 20
165.4846083605283
 30
0.0
 10
171.6942679488466
 20
165.7498777932947
 30
0.0
 10
171.5896612053601
 20
166.0123928989471
 30
0.0
 10
171.3129928536148
 20
166.2979305049844
 30
0.0
 10
171.2026275942628
 20
166.3742521218458
 30
0.0
 10
170.9585555456471
 20
166.4785942866859
 30
0.0
 10
170.8268030843154
 20
166.505663395346
 30
0.0
 10
170.6942679488466
 20
166.505663395346
 30
0.0
  0
SPLINE
  5
FA
330
1F
100
AcDbEntity
  8
0
  6
Continuous
 62
     7
370
    15
100
AcDbSpline
210
0.0
220
0.0
230
1.0
 70
     8
 71
     3
 72
    16
 73
    12
 74
     0
 42
0.000000001
 43
0.00000001
 40
0.0
 40
0.0
 40
0.0
 40
0.0
 40
0.1249999999999996
 40
0.1249999999999996
 40
0.2499999999999992
 40
0.2499999999999992
 40
0.4999999999999994
 40
0.4999999999999994
 40
0.7499999999999997
 40
0.7499999999999997
 40
1.0
 40
1.0
 40
1.0
 40
1.0
 10
170.6942679488466
 20
156.4668313005694
 30
0.0
 10
170.7699056552578
 20
156.4668313005694
 30
0.0
 10
170.846221319676
 20
156.4554863004344
 30
0.0
 10
170.990632057568
 20
156.4128337497959
 30
0.0
 10
171.0590785066764
 20
156.3818994251131
 30
0.0
 10
171.2540097592895
 20
156.2626430533455
 30
0.0
 10
171.3618509330704
 20
156.1524910397249
 30
0.0
 10
171.5305636812824
 20
155.9043549540669
 30
0.0
 10
171.592928094006
 20
155.7640126300631
 30
0.0
 10
171.6742320185144
 20
155.4757409385745
 30
0.0
 10
171.6942679488466
 20
155.3249359655947
 30
0.0
 10
171.6942679488466
 20
155.1745660742494
 30
0.0
  0
LINE
  5
FB
330
1F
100
AcDbEntity
  8
0
  6
Continuous
 62
     7
370
    15
100
AcDbLine
 10
171.6942679488
 20
155.1745660742
 30
0.0
 11
171.6942679488
 21
165.4846083605
 31
0.0
  0
SPLINE
  5
FC
330
1F
100
AcDbEntity
  8
0
  6
Continuous
 62
     7
370
    15
100
AcDbSpline
210
0.0
220
0.0
230
1.0
 70
     8
 71
     3
 72
    10
 73
     6
 74
     0
 42
0.000000001
 43
0.00000001
 40
0.0
 40
0.0
 40
0.0
 40
0.0
 40
0.5
 40
0.5
 40
1.0
 40
1.0
 40
1.0
 40
1.0
 10
161.6342679488466
 20
162.3901442998549
 30
0.0
 10
161.4217316349902
 20
162.3901442998549
 30
0.0
 10
161.2117954633362
 20
162.4815568864851
 30
0.0
 10
160.918088322325
 20
162.7863017523893
 30
0.0
 10
160.8342679488466
 20
162.9984567222979
 30
0.0
 10
160.8342679488466
 20
163.2094197805305
 30
0.0
  0
SPLINE
  5
FD
330
1F
100
AcDbEntity
  8
0
  6
Continuous
 62
     7
370
    15
100
AcDbSpline
210
0.0
220
0.0
230
1.0
 70
     8
 71
     3
 72
    14
 73
    10
 74
     0
 42
0.000000001
 43
0.00000001
 40
0.0
 40
0.0
 40
0.0
 40
0.0
 40
0.25
 40
0.25
 40
0.5
 40
0.5
 40
0.75
 40
0.75
 40
1.0
 40
1.0
 40
1.0
 40
1.0
 10
160.8342679488466
 20
152.2301037321795
 30
0.0
 10
160.8342679488466
 20
152.1062368553903
 30
0.0
 10
160.8501270764742
 20
151.9819771785528
 30
0.0
 10
160.9134887219941
 20
151.7443688161469
 30
0.0
 10
160.9620784300434
 20
151.6275884313945
 30
0.0
 10
161.0943640348183
 20
151.4187859027855
 30
0.0
 10
161.1796888260789
 20
151.3242751991928
 30
0.0
 10
161.3865800743851
 20
151.1863183983906
 30
0.0
 10
161.510548020275
 20
151.1443999527549
 30
0.0
 10
161.6342679488466
 20
151.1443999527549
 30
0.0
  0
LINE
  5
FE
330
1F
100
AcDbEntity
  8
0
  6
Continuous
 62
     7
370
    15
100
AcDbLine
 10
170.6942679488
 20
166.5056633953
 30
0.0
 11
166.0062969698
 21
166.5056633953
 31
0.0
  0
LINE
  5
FF
330
1F
100
AcDbEntity
  8
0
  6
Continuous
 62
     7
370
    15
100
AcDbLine
 10
166.0062969698
 20
156.4668313006
 30
0.0
 11
170.6942679488
 21
156.4668313006
 31
0.0
  0
LINE
  5
100
330
1F
100
AcDbEntity
  8
0
  6
Continuous
 62
     7
370
    15
100
AcDbLine
 10
166.0062969698
 20
156.4668313006
 30
0.0
 11
166.0062969698
 21
166.5056633953
 31
0.0
  0
SPLINE
  5
101
330
1F
100
AcDbEntity
  8
0
  6
Continuous
 62
     7
370
    15
100
AcDbSpline
210
0.0
220
0.0
230
1.0
 70
     8
 71
     3
 72
     8
 73
     4
 74
     0
 42
0.000000001
 43
0.00000001
 40
0.0
 40
0.0
 40
0.0
 40
0.0
 40
1.0
 40
1.0
 40
1.0
 40
1.0
 10
166.006296969768
 20
166.505663395346
 30
0.0
 10
165.5552700010547
 20
165.7083528251582
 30
0.0
 10
165.1045761845311
 20
164.910854525501
 30
0.0
 10
164.6542679488466
 20
164.1131394003873
 30
0.0
  0
SPLINE
  5
102
330
1F
100
AcDbEntity
  8
0
  6
Continuous
 62
     7
370
    15
100
AcDbSpline
210
0.0
220
0.0
230
1.0
 70
     8
 71
     3
 72
     8
 73
     4
 74
     0
 42
0.000000001
 43
0.00000001
 40
0.0
 40
0.0
 40
0.0
 40
0.0
 40
1.0
 40
1.0
 40
1.0
 40
1.0
 10
164.6542679488466
 20
153.4113160458203
 30
0.0
 10
165.0984179598721
 20
154.432699276772
 30
0.0
 10
165.54949227013
 20
155.4511838135403
 30
0.0
 10
166.006296969768
 20
156.4668313005694
 30
0.0
  0
LINE
  5
103
330
1F
100
AcDbEntity
  8
0
  6
Continuous
 62
     7
370
    15
100
AcDbLine
 10
164.6542679488
 20
153.4113160458
 30
0.0
 11
164.6542679488
 21
164.1131394004
 31
0.0
  0
LINE
  5
104
330
1F
100
AcDbEntity
  8
0
  6
Continuous
 62
     7
370
    15
100
AcDbLine
 10
160.8342679488
 20
153.4113160458
 30
0.0
 11
160.8342679488
 21
152.2301037322
 31
0.0
  0
LINE
  5
105
330
1F
100
AcDbEntity
  8
0
  6
Continuous
 62
     7
370
    15
100
AcDbLine
 10
161.6342679488
 20
151.1443999528
 30
0.0
 11
163.8542679488
 21
151.1443999528
 31
0.0
  0
SPLINE
  5
106
330
1F
100
AcDbEntity
  8
0
  6
Continuous
 62
     7
370
    15
100
AcDbSpline
210
0.0
220
0.0
230
1.0
 70
     8
 71
     3
 72
    12
 73
     8
 74
     0
 42
0.000000001
 43
0.00000001
 40
0.0
 40
0.0
 40
0.0
 40
0.0
 40
0.2500000000000039
 40
0.2500000000000039
 40
0.5000000000000078
 40
0.5000000000000078
 40
1.0
 40
1.0
 40
1.0
 40
1.0
 10
163.8542679488466
 20
151.144399952755
 30
0.0
 10
163.9779688988266
 20
151.144399952755
 30
0.0
 10
164.1020655110968
 20
151.1863935644874
 30
0.0
 10
164.3087206741838
 20
151.3241888911318
 30
0.0
 10
164.3937614409107
 20
151.4181624895967
 30
0.0
 10
164.5932400093842
 20
151.7329506958177
 30
0.0
 10
164.6542679488466
 20
151.9831896880453
 30
0.0
 10
164.6542679488466
 20
152.2301037321795
 30
0.0
  0
LINE
  5
107
330
1F
100
AcDbEntity
  8
0
  6
Continuous
 62
     7
370
    15
100
AcDbLine
 10
164.6542679488
 20
152.2301037322
 30
0.0
 11
164.6542679488
 21
153.4113160458
 31
0.0
  0
LINE
  5
108
330
1F
100
AcDbEntity
  8
0
  6
Continuous
 62
     7
370
    15
100
AcDbLine
 10
171.6942679488
 20
155.1745660742
 30
0.0
 11
171.6942679488
 21
148.8658685397
 31
0.0
  0
SPLINE
  5
109
330
1F
100
AcDbEntity
  8
0
  6
Continuous
 62
     7
370
    15
100
AcDbSpline
210
0.0
220
0.0
230
1.0
 70
     8
 71
     3
 72
    14
 73
    10
 74
     0
 42
0.000000001
 43
0.00000001
 40
0.0
 40
0.0
 40
0.0
 40
0.0
 40
0.25
 40
0.25
 40
0.5
 40
0.5
 40
0.75
 40
0.75
 40
1.0
 40
1.0
 40
1.0
 40
1.0
 10
164.6542679488466
 20
163.2094197805305
 30
0.0
 10
164.6542679488466
 20
163.1030630867781
 30
0.0
 10
164.6338803927054
 20
162.997222599018
 30
0.0
 10
164.5552460472438
 20
162.8006576854815
 30
0.0
 10
164.4965146876052
 20
162.7094869431944
 30
0.0
 10
164.3499057820027
 20
162.5575758541628
 30
0.0
 10
164.2605004619761
 20
162.4955070173432
 30
0.0
 10
164.0666097293758
 20
162.4122389695845
 30
0.0
 10
163.9601047394859
 20
162.3901442998549
 30
0.0
 10
163.8542679488466
 20
162.3901442998549
 30
0.0
  0
LINE
  5
10A
330
1F
100
AcDbEntity
  8
0
  6
Continuous
 62
     7
370
    15
100
AcDbLine
 10
163.8542679488
 20
162.3901442999
 30
0.0
 11
161.6342679488
 21
162.3901442999
 31
0.0
  0
SPLINE
  5
10B
330
1F
100
AcDbEntity
  8
0
  6
Continuous
 62
     7
370
    15
100
AcDbSpline
210
0.0
220
0.0
230
1.0
 70
     8
 71
     3
 72
    54
 73
    50
 74
     0
 42
0.000000001
 43
0.00000001
 40
0.0
 40
0.0
 40
0.0
 40
0.0
 40
0.0312500000000003
 40
0.0312500000000003
 40
0.0625000000000005
 40
0.0625000000000005
 40
0.125000000000001
 40
0.125000000000001
 40
0.1875000000000015
 40
0.1875000000000015
 40
0.2187500000000018
 40
0.2187500000000018
 40
0.2500000000000021
 40
0.2500000000000021
 40
0.3125000000000019
 40
0.3125000000000019
 40
0.3750000000000017
 40
0.3750000000000017
 40
0.4062500000000021
 40
0.4062500000000021
 40
0.4375000000000024
 40
0.4375000000000024
 40
0.5000000000000032
 40
0.5000000000000032
 40
0.5312500000000031
 40
0.5312500000000031
 40
0.5625000000000031
 40
0.5625000000000031
 40
0.6250000000000021
 40
0.6250000000000021
 40
0.6562500000000016
 40
0.6562500000000016
 40
0.6875000000000011
 40
0.6875000000000011
 40
0.75
 40
0.75
 40
0.7812499999999999
 40
0.7812499999999999
 40
0.8124999999999997
 40
0.8124999999999997
 40
0.8749999999999998
 40
0.8749999999999998
 40
0.9062499999999999
 40
0.9062499999999999
 40
0.9374999999999999
 40
0.9374999999999999
 40
0.96875
 40
0.96875
 40
1.0
 40
1.0
 40
1.0
 40
1.0
 10
193.9442679488466
 20
117.5158685396824
 30
0.0
 10
193.9442679488466
 20
117.2797396009804
 30
0.0
 10
193.9295349115233
 20
117.0435005333245
 30
0.0
 10
193.8700283367728
 20
116.5707980678419
 30
0.0
 10
193.8249804740529
 20
116.3344423825224
 30
0.0
 10
193.6493661289865
 20
115.6453865988318
 30
0.0
 10
193.4775796209701
 20
115.2043263347299
 30
0.0
 10
193.0336168570204
 20
114.3629059944941
 30
0.0
 10
192.7683838698155
 20
113.9749220001317
 30
0.0
 10
192.3129252077582
 20
113.4356885988551
 30
0.0
 10
192.1505580632365
 20
113.2623807963708
 30
0.0
 10
191.8115076316298
 20
112.9344990578608
 30
0.0
 10
191.6349363463084
 20
112.7798213388099
 30
0.0
 10
191.0852265402632
 20
112.3417353027272
 30
0.0
 10
190.6906428460957
 20
112.0831634334745
 30
0.0
 10
189.8562772435675
 20
111.6357381572043
 30
0.0
 10
189.4241547555637
 20
111.4506273480748
 30
0.0
 10
188.7546606941085
 20
111.2267496992783
 30
0.0
 10
188.5279185074932
 20
111.1611597233238
 30
0.0
 10
188.0671787346327
 20
111.048142009979
 30
0.0
 10
187.8324135416518
 20
111.0006633304735
 30
0.0
 10
187.1293010529912
 20
110.8879109113706
 30
0.0
 10
186.658761181058
 20
110.851011280162
 30
0.0
 10
185.9503068236656
 20
110.8516333114416
 30
0.0
 10
185.7137122455999
 20
110.861226002382
 30
0.0
 10
185.2396168602513
 20
110.8996326748309
 30
0.0
 10
185.0015603868262
 20
110.9286266891887
 30
0.0
 10
184.299240790428
 20
111.0431620473514
 30
0.0
 10
183.8425350142534
 20
111.1561593937846
 30
0.0
 10
183.1745189693469
 20
111.3807838697821
 30
0.0
 10
182.9547036286147
 20
111.4649037254988
 30
0.0
 10
182.5209665092158
 20
111.6524265015456
 30
0.0
 10
182.3065318385065
 20
111.7562160668181
 30
0.0
 10
181.6849361360281
 20
112.0913130904219
 30
0.0
 10
181.2951519958125
 20
112.3476186906055
 30
0.0
 10
180.7484751314061
 20
112.7842218284515
 30
0.0
 10
180.5726274391196
 20
112.9385089854898
 30
0.0
 10
180.2345210815286
 20
113.2659753914455
 30
0.0
 10
180.0719131854158
 20
113.4397737776929
 30
0.0
 10
179.6167703469148
 20
113.9795210463189
 30
0.0
 10
179.3526954210991
 20
114.3668406547305
 30
0.0
 10
179.0218481260088
 20
114.9942991752302
 30
0.0
 10
178.9221988538707
 20
115.212555411355
 30
0.0
 10
178.7515041644932
 20
115.6540447048374
 30
0.0
 10
178.6797331138478
 20
115.8783442918802
 30
0.0
 10
178.5636875653441
 20
116.334178733928
 30
0.0
 10
178.5194091077695
 20
116.5657125140855
 30
0.0
 10
178.459642897462
 20
117.0363784711916
 30
0.0
 10
178.4442679488466
 20
117.2774335408257
 30
0.0
 10
178.4442679488466
 20
117.5158685396824
 30
0.0
  0
SPLINE
  5
10C
330
1F
100
AcDbEntity
  8
0
  6
Continuous
 62
     7
370
    15
100
AcDbSpline
210
0.0
220
0.0
230
1.0
 70
     8
 71
     3
 72
    42
 73
    38
 74
     0
 42
0.000000001
 43
0.00000001
 40
0.0
 40
0.0
 40
0.0
 40
0.0
 40
0.0624999999999998
 40
0.0624999999999998
 40
0.0937499999999997
 40
0.0937499999999997
 40
0.1249999999999998
 40
0.1249999999999998
 40
0.1874999999999998
 40
0.1874999999999998
 40
0.2499999999999998
 40
0.2499999999999998
 40
0.3124999999999998
 40
0.3124999999999998
 40
0.3749999999999998
 40
0.3749999999999998
 40
0.4999999999999999
 40
0.4999999999999999
 40
0.5625
 40
0.5625
 40
0.6249999999999999
 40
0.6249999999999999
 40
0.6874999999999999
 40
0.6874999999999999
 40
0.7499999999999999
 40
0.7499999999999999
 40
0.8124999999999999
 40
0.8124999999999999
 40
0.8437499999999999
 40
0.8437499999999999
 40
0.8749999999999998
 40
0.8749999999999998
 40
0.9374999999999999
 40
0.9374999999999999
 40
0.9687499999999999
 40
0.9687499999999999
 40
1.0
 40
1.0
 40
1.0
 40
1.0
 10
178.4442679488466
 20
117.5158685396824
 30
0.0
 10
178.4442679488466
 20
117.9932678840048
 30
0.0
 10
178.5039878824749
 20
118.4630535282718
 30
0.0
 10
178.680570910774
 20
119.1566840033124
 30
0.0
 10
178.754185608011
 20
119.3855667270642
 30
0.0
 10
178.9258358831354
 20
119.8276142991379
 30
0.0
 10
179.0242381518109
 20
120.0423947883246
 30
0.0
 10
179.3553370951644
 20
120.6690436721306
 30
0.0
 10
179.6262024310219
 20
121.0650453201012
 30
0.0
 10
180.2345019811712
 20
121.7830751761154
 30
0.0
 10
180.5748714657875
 20
122.1104642151827
 30
0.0
 10
181.3181410291677
 20
122.7008116379973
 30
0.0
 10
181.7119828959194
 20
122.9568159566232
 30
0.0
 10
182.5368670650325
 20
123.3977677263945
 30
0.0
 10
182.9685088743416
 20
123.583038347881
 30
0.0
 10
184.321958802841
 20
124.0339682372937
 30
0.0
 10
185.256376029808
 20
124.1821627201905
 30
0.0
 10
186.6892641641883
 20
124.1793650187501
 30
0.0
 10
187.1602507380726
 20
124.1402908657884
 30
0.0
 10
188.0894436472761
 20
123.9883432813818
 30
0.0
 10
188.5486868617975
 20
123.875149398653
 30
0.0
 10
189.4494559528707
 20
123.5713022938827
 30
0.0
 10
189.8799853918251
 20
123.3845625410007
 30
0.0
 10
190.7020521010732
 20
122.9411227609357
 30
0.0
 10
191.0945626434748
 20
122.6837743678834
 30
0.0
 10
191.8327879708146
 20
122.0929868857987
 30
0.0
 10
192.1678448232221
 20
121.7683072588246
 30
0.0
 10
192.6177599728173
 20
121.2348936721291
 30
0.0
 10
192.7588865249569
 20
121.0492992853007
 30
0.0
 10
193.0222291027825
 20
120.6612803127743
 30
0.0
 10
193.1450869717991
 20
120.4576226563421
 30
0.0
 10
193.4775734865538
 20
119.8273115642014
 30
0.0
 10
193.6488756918524
 20
119.3879692942769
 30
0.0
 10
193.8248832751201
 20
118.6978283837064
 30
0.0
 10
193.870030861495
 20
118.4608780502524
 30
0.0
 10
193.9295018240258
 20
117.9885402678558
 30
0.0
 10
193.9442679488466
 20
117.752259591861
 30
0.0
 10
193.9442679488466
 20
117.5158685396824
 30
0.0
  0
LINE
  5
10D
330
1F
100
AcDbEntity
  8
0
  6
Continuous
 62
     7
370
    15
100
AcDbLine
 10
198.3442679488
 20
96.5158685397
 30
0.0
 11
198.3442679488
 21
138.5158685397
 31
0.0
  0
LINE
  5
10E
330
1F
100
AcDbEntity
  8
0
  6
Continuous
 62
     7
370
    15
100
AcDbLine
 10
198.7442679488
 20
96.9158685397
 30
0.0
 11
198.7442679488
 21
138.1158685397
 31
0.0
  0
LINE
  5
10F
330
1F
100
AcDbEntity
  8
0
  6
Continuous
 62
     7
370
    15
100
AcDbLine
 10
94.4942679488
 20
85.2658685397
 30
0.0
 11
94.4942679488
 21
85.2675833379
 31
0.0
  0
LINE
  5
110
330
1F
100
AcDbEntity
  8
0
  6
Continuous
 62
     7
370
    15
100
AcDbLine
 10
94.4942679488
 20
149.7658685397
 30
0.0
 11
94.4942679488
 21
149.7641537415
 31
0.0
  0
CIRCLE
  5
111
330
1F
100
AcDbEntity
  8
0
  6
HIDDEN
 62
     7
370
     0
100
AcDbCircle
 10
186.1942679488
 20
117.5158685397
 30
0.0
 40
5.18125784838206
  0
CIRCLE
  5
112
330
1F
100
AcDbEntity
  8
0
  6
HIDDEN
 62
     7
370
     0
100
AcDbCircle
 10
186.1942679488
 20
117.5158685397
 30
0.0
 40
4.172547133356716
  0
CIRCLE
  5
113
330
1F
100
AcDbEntity
  8
0
  6
HIDDEN
 62
     7
370
     0
100
AcDbCircle
 10
186.1942679488
 20
117.5158685397
 30
0.0
 40
3.872547133356719
  0
LINE
  5
114
330
1F
100
AcDbEntity
  8
0
  6
HIDDEN
 62
     7
370
     0
100
AcDbLine
 10
159.4822389279
 20
156.4668313006
 30
0.0
 11
159.4822389279
 21
148.8658685397
 31
0.0
  0
LINE
  5
115
330
1F
100
AcDbEntity
  8
0
  6
HIDDEN
 62
     7
370
     0
100
AcDbLine
 10
123.1576926983
 20
80.7800621774
 30
0.0
 11
122.8820993379
 21
80.7556380799
 31
0.0
  0
SPLINE
  5
116
330
1F
100
AcDbEntity
  8
0
  6
HIDDEN
 62
     7
370
     0
100
AcDbSpline
210
0.0
220
0.0
230
1.0
 70
     8
 71
     3
 72
    13
 73
     9
 74
     0
 42
0.000000001
 43
0.00000001
 40
0.0
 40
0.0
 40
0.0
 40
0.0
 40
0.1247123590120598
 40
0.2490591728627705
 40
0.3740782949693034
 40
0.5009716072298039
 40
0.7521524367485372
 40
1.0
 40
1.0
 40
1.0
 40
1.0
 10
121.26357296455
 20
154.4471746342215
 30
0.0
 10
121.2693595704397
 20
154.4463983890092
 30
0.0
 10
121.280915821063
 20
154.4448481738416
 30
0.0
 10
121.3779259366825
 20
154.4326318666257
 30
0.0
 10
121.5332214837828
 20
154.4137051544762
 30
0.0
 10
121.8233897816919
 20
154.3797330759495
 30
0.0
 10
122.310945712655
 20
154.3232117540635
 30
0.0
 10
122.8766424211497
 20
154.2754033618263
 30
0.0
 10
123.1576014863473
 20
154.2516588340787
 30
0.0
  0
SPLINE
  5
117
330
1F
100
AcDbEntity
  8
0
  6
HIDDEN
 62
     7
370
     0
100
AcDbSpline
210
0.0
220
0.0
230
1.0
 70
     8
 71
     3
 72
     9
 73
     5
 74
     0
 42
0.000000001
 43
0.00000001
 40
0.0
 40
0.0
 40
0.0
 40
0.0
 40
0.6612166071363113
 40
1.0
 40
1.0
 40
1.0
 40
1.0
 10
132.9974736040376
 20
148.8821907604295
 30
0.0
 10
133.2889756063662
 20
148.9259762401894
 30
0.0
 10
133.7298326556032
 20
148.9921958107315
 30
0.0
 10
133.6784201367105
 20
148.9843905534259
 30
0.0
 10
133.6610024291244
 20
148.9817462618737
 30
0.0
  0
SPLINE
  5
118
330
1F
100
AcDbEntity
  8
0
  6
HIDDEN
 62
     7
370
     0
100
AcDbSpline
210
0.0
220
0.0
230
1.0
 70
     8
 71
     3
 72
    10
 73
     6
 74
     0
 42
0.000000001
 43
0.00000001
 40
0.0
 40
0.0
 40
0.0
 40
0.0
 40
0.3216489167562893
 40
0.65572526959703
 40
1.0
 40
1.0
 40
1.0
 40
1.0
 10
133.6610023886285
 20
86.04999082286238
 30
0.0
 10
133.6800522784422
 20
86.04750382027086
 30
0.0
 10
133.7188880819633
 20
86.04243372564332
 30
0.0
 10
133.4415146887371
 20
86.07859202304871
 30
0.0
 10
133.1469634004839
 20
86.12565901747932
 30
0.0
 10
132.9974736040376
 20
86.14954631893538
 30
0.0
  0
SPLINE
  5
119
330
1F
100
AcDbEntity
  8
0
  6
HIDDEN
 62
     7
370
     0
100
AcDbSpline
210
0.0
220
0.0
230
1.0
 70
     8
 71
     3
 72
    19
 73
    15
 74
     0
 42
0.000000001
 43
0.00000001
 40
0.0
 40
0.0
 40
0.0
 40
0.0
 40
0.1283266268572519
 40
0.1917951916070969
 40
0.2571134151656362
 40
0.3203550217403746
 40
0.3854909945509973
 40
0.5112947380987563
 40
0.6365935270982372
 40
0.7637328518356175
 40
0.8272719441238566
 40
0.8926863835125941
 40
0.9556096049240548
 40
1.0
 40
1.0
 40
1.0
 40
1.0
 10
132.9974736040376
 20
86.14954631893538
 30
0.0
 10
132.6139624706296
 20
86.21107509878235
 30
0.0
 10
132.0407720648905
 20
86.30303515733843
 30
0.0
 10
130.9429047190552
 20
86.43156713948682
 30
0.0
 10
130.0441342028387
 20
86.51191936226373
 30
0.0
 10
129.0664571202417
 20
86.56961386659025
 30
0.0
 10
127.7340286552749
 20
86.6055377586125
 30
0.0
 10
126.0434239544038
 20
86.56632128404335
 30
0.0
 10
124.219678421215
 20
86.40677430680721
 30
0.0
 10
123.019368728576
 20
86.2376028812705
 30
0.0
 10
122.3248853150494
 20
86.12228889968146
 30
0.0
 10
121.963471024462
 20
86.05730179452948
 30
0.0
 10
121.7646667547791
 20
86.0197697511517
 30
0.0
 10
121.7636186237481
 20
86.0195526453623
 30
0.0
 10
121.7631850631984
 20
86.01946283931456
 30
0.0
  0
SPLINE
  5
11A
330
1F
100
AcDbEntity
  8
0
  6
HIDDEN
 62
     7
370
     0
100
AcDbSpline
210
0.0
220
0.0
230
1.0
 70
     8
 71
     3
 72
    17
 73
    13
 74
     0
 42
0.000000001
 43
0.00000001
 40
0.0
 40
0.0
 40
0.0
 40
0.0
 40
0.0204308575560861
 40
0.1459593494150681
 40
0.271829163445818
 40
0.3996939336442655
 40
0.4632358459688543
 40
0.5286707473783593
 40
0.6553673996640772
 40
0.7806370508924303
 40
0.9070707239757035
 40
1.0
 40
1.0
 40
1.0
 40
1.0
 10
121.7631850631984
 20
149.0122742400503
 30
0.0
 10
121.7582160504366
 20
149.0132210834419
 30
0.0
 10
121.7227171063538
 20
149.019985393019
 30
0.0
 10
122.1008185339227
 20
148.9471248778148
 30
0.0
 10
123.140228516152
 20
148.7710014061952
 30
0.0
 10
124.4605705139863
 20
148.6030377538373
 30
0.0
 10
125.6897493233874
 20
148.5024762441881
 30
0.0
 10
126.9938983318681
 20
148.4355731186955
 30
0.0
 10
128.7029582371018
 20
148.4322849150906
 30
0.0
 10
130.6155433399917
 20
148.5550999731453
 30
0.0
 10
132.1003955709591
 20
148.7369051939944
 30
0.0
 10
132.7305287189509
 20
148.8389579117734
 30
0.0
 10
132.9974736040376
 20
148.8821907604295
 30
0.0
  0
LINE
  5
11B
330
1F
100
AcDbEntity
  8
0
  6
HIDDEN
 62
     7
370
     0
100
AcDbLine
 10
112.7408922759
 20
91.0158685397
 30
0.0
 11
112.7408922759
 21
144.0158685397
 31
0.0
  0
LINE
  5
11C
330
1F
100
AcDbEntity
  8
0
  6
HIDDEN
 62
     7
370
     0
100
AcDbLine
 10
152.0283455672
 20
91.0158685397
 30
0.0
 11
152.0283455672
 21
144.0158685397
 31
0.0
  0
LINE
  5
11D
330
1F
100
AcDbEntity
  8
0
  6
HIDDEN
 62
     7
370
     0
100
AcDbLine
 10
155.1942679488
 20
92.6408685397
 30
0.0
 11
155.1942679488
 21
142.3908685397
 31
0.0
  0
SPLINE
  5
11E
330
1F
100
AcDbEntity
  8
0
  6
HIDDEN
 62
     7
370
     0
100
AcDbSpline
210
0.0
220
0.0
230
1.0
 70
     8
 71
     3
 72
    20
 73
    16
 74
     0
 42
0.000000001
 43
0.00000001
 40
0.0
 40
0.0
 40
0.0
 40
0.0
 40
0.2499999999999978
 40
0.2499999999999978
 40
0.3749999999999982
 40
0.3749999999999982
 40
0.4999999999999986
 40
0.4999999999999986
 40
0.6249999999999989
 40
0.6249999999999989
 40
0.7499999999999992
 40
0.7499999999999992
 40
0.8749999999999997
 40
0.8749999999999997
 40
1.0
 40
1.0
 40
1.0
 40
1.0
 10
102.9442679488466
 20
142.7443821700967
 30
0.0
 10
102.9442679488466
 20
142.6651791835645
 30
0.0
 10
102.8972854536339
 20
142.5840829651615
 30
0.0
 10
102.7594638628563
 20
142.4638862734107
 30
0.0
 10
102.7031815789463
 20
142.4249595694085
 30
0.0
 10
102.5700967274791
 20
142.3497708369842
 30
0.0
 10
102.492256785246
 20
142.3131286316422
 30
0.0
 10
102.3196244291317
 20
142.2455380988104
 30
0.0
 10
102.2252314320406
 20
142.2145799170347
 30
0.0
 10
102.0197941257255
 20
142.159055495665
 30
0.0
 10
101.9074478857383
 20
142.1343469818318
 30
0.0
 10
101.6752070218386
 20
142.0945507547236
 30
0.0
 10
101.5544963794159
 20
142.0791309173266
 30
0.0
 10
101.3034255201469
 20
142.0580509424869
 30
0.0
 10
101.1739035237311
 20
142.052573697466
 30
0.0
 10
101.0442679488466
 20
142.052573697466
 30
0.0
  0
LINE
  5
11F
330
1F
100
AcDbEntity
  8
0
  6
HIDDEN
 62
     7
370
     0
100
AcDbLine
 10
101.0442679488
 20
142.0525736975
 30
0.0
 11
94.4942679488
 21
142.0525736975
 31
0.0
  0
LINE
  5
120
330
1F
100
AcDbEntity
  8
0
  6
HIDDEN
 62
     7
370
     0
100
AcDbLine
 10
94.4942679488
 20
92.9791633819
 30
0.0
 11
106.0442679488
 21
92.9791633819
 31
0.0
  0
SPLINE
  5
121
330
1F
100
AcDbEntity
  8
0
  6
HIDDEN
 62
     7
370
     0
100
AcDbSpline
210
0.0
220
0.0
230
1.0
 70
     8
 71
     3
 72
    18
 73
    14
 74
     0
 42
0.000000001
 43
0.00000001
 40
0.0
 40
0.0
 40
0.0
 40
0.0
 40
0.1249999999999982
 40
0.1249999999999982
 40
0.2499999999999964
 40
0.2499999999999964
 40
0.4999999999999988
 40
0.4999999999999988
 40
0.7500000000000011
 40
0.7500000000000011
 40
0.8750000000000006
 40
0.8750000000000006
 40
1.0
 40
1.0
 40
1.0
 40
1.0
 10
106.0442679488466
 20
92.97916338189893
 30
0.0
 10
106.1737352618038
 20
92.97916338189893
 30
0.0
 10
106.3007460107004
 20
92.97381038330629
 30
0.0
 10
106.5501093318977
 20
92.95307241061751
 30
0.0
 10
106.6737329865261
 20
92.93740050636322
 30
0.0
 10
107.0227653234602
 20
92.87770577796113
 30
0.0
 10
107.233277088267
 20
92.81994059828014
 30
0.0
 10
107.5771937659665
 20
92.68541875700265
 30
0.0
 10
107.7135441674843
 20
92.60774964349724
 30
0.0
 10
107.8505822240468
 20
92.4884585094099
 30
0.0
 10
107.8858012427597
 20
92.44753950027486
 30
0.0
 10
107.9324248196983
 20
92.36688350698482
 30
0.0
 10
107.9442679488466
 20
92.32691498679196
 30
0.0
 10
107.9442679488466
 20
92.28735490926815
 30
0.0
  0
LINE
  5
122
330
1F
100
AcDbEntity
  8
0
  6
HIDDEN
 62
     7
370
     0
100
AcDbLine
 10
94.4942679488
 20
92.9791633819
 30
0.0
 11
94.4942679488
 21
142.0525736975
 31
0.0
  0
LINE
  5
123
330
1F
100
AcDbEntity
  8
0
  6
HIDDEN
 62
     7
370
     0
100
AcDbLine
 10
94.4942679488
 20
90.1458685397
 30
0.0
 11
94.4942679488
 21
85.2675833379
 31
0.0
  0
LINE
  5
124
330
1F
100
AcDbEntity
  8
0
  6
HIDDEN
 62
     7
370
     0
100
AcDbLine
 10
198.1942679488
 20
106.2975746677
 30
0.0
 11
198.1942679488
 21
128.7341624117
 31
0.0
  0
LINE
  5
125
330
1F
100
AcDbEntity
  8
0
  6
HIDDEN
 62
     7
370
     0
100
AcDbLine
 10
107.9442679488
 20
90.1458685397
 30
0.0
 11
107.9442679488
 21
83.6465352743
 31
0.0
  0
LINE
  5
126
330
1F
100
AcDbEntity
  8
0
  6
HIDDEN
 62
     7
370
     0
100
AcDbLine
 10
102.9442679488
 20
144.8858685397
 30
0.0
 11
102.9442679488
 21
151.2604772767
 31
0.0
  0
LINE
  5
127
330
1F
100
AcDbEntity
  8
0
  6
HIDDEN
 62
     7
370
     0
100
AcDbLine
 10
94.4942679488
 20
144.8858685397
 30
0.0
 11
94.4942679488
 21
149.7641537415
 31
0.0
  0
LINE
  5
128
330
1F
100
AcDbEntity
  8
0
  6
HIDDEN
 62
     7
370
     0
100
AcDbLine
 10
194.8942679488
 20
109.4842124215
 30
0.0
 11
194.8942679488
 21
125.5475246578
 31
0.0
  0
LINE
  5
129
330
1F
100
AcDbEntity
  8
0
  6
HIDDEN
 62
     7
370
     0
100
AcDbLine
 10
167.0442679488
 20
104.5158685397
 30
0.0
 11
167.0442679488
 21
130.5158685397
 31
0.0
  0
LINE
  5
12A
330
1F
100
AcDbEntity
  8
0
  6
HIDDEN
 62
     7
370
     0
100
AcDbLine
 10
171.0442679488
 20
104.5158685397
 30
0.0
 11
171.0442679488
 21
130.5158685397
 31
0.0
  0
LINE
  5
12B
330
1F
100
AcDbEntity
  8
0
  6
HIDDEN
 62
     7
370
     0
100
AcDbLine
 10
193.8942679488
 20
105.5158685397
 30
0.0
 11
193.8942679488
 21
129.5158685397
 31
0.0
  0
SPLINE
  5
12C
330
1F
100
AcDbEntity
  8
0
  6
HIDDEN
 62
     7
370
     0
100
AcDbSpline
210
0.0
220
0.0
230
1.0
 70
     8
 71
     3
 72
    12
 73
     8
 74
     0
 42
0.000000001
 43
0.00000001
 40
0.0
 40
0.0
 40
0.0
 40
0.0
 40
0.5000000000000004
 40
0.5000000000000004
 40
0.7500000000000002
 40
0.7500000000000002
 40
1.0
 40
1.0
 40
1.0
 40
1.0
 10
198.7442679488466
 20
133.3904621662832
 30
0.0
 10
198.6873600373449
 20
133.4900482146549
 30
0.0
 10
198.6129876510362
 20
133.5291948971843
 30
0.0
 10
198.4749153173334
 20
133.5033912347854
 30
0.0
 10
198.424093344297
 20
133.4802303617778
 30
0.0
 10
198.3150002821576
 20
133.4061358572975
 30
0.0
 10
198.2566367681198
 20
133.3553297972751
 30
0.0
 10
198.1942679488466
 20
133.2910048521831
 30
0.0
  0
LINE
  5
12D
330
1F
100
AcDbEntity
  8
0
  6
HIDDEN
 62
     7
370
     0
100
AcDbLine
 10
198.1942679488
 20
133.2910048522
 30
0.0
 11
198.1942679488
 21
133.1349242951
 31
0.0
  0
LINE
  5
12E
330
1F
100
AcDbEntity
  8
0
  6
HIDDEN
 62
     7
370
     0
100
AcDbLine
 10
194.8942679488
 20
133.1349242951
 30
0.0
 11
198.1942679488
 21
133.1349242951
 31
0.0
  0
LINE
  5
12F
330
1F
100
AcDbEntity
  8
0
  6
HIDDEN
 62
     7
370
     0
100
AcDbLine
 10
194.8942679488
 20
133.5158685397
 30
0.0
 11
194.8942679488
 21
128.3158685397
 31
0.0
  0
SPLINE
  5
130
330
1F
100
AcDbEntity
  8
0
  6
HIDDEN
 62
     7
370
     0
100
AcDbSpline
210
0.0
220
0.0
230
1.0
 70
     8
 71
     3
 72
    12
 73
     8
 74
     0
 42
0.000000001
 43
0.00000001
 40
0.0
 40
0.0
 40
0.0
 40
0.0
 40
0.5
 40
0.5
 40
0.75
 40
0.75
 40
1.0
 40
1.0
 40
1.0
 40
1.0
 10
198.1942679488466
 20
128.7341624117066
 30
0.0
 10
198.3186257841671
 20
129.1736523535298
 30
0.0
 10
198.4267917395751
 20
129.6060188838911
 30
0.0
 10
198.5662813955385
 20
130.2425291318651
 30
0.0
 10
198.6086318018826
 20
130.4515432251155
 30
0.0
 10
198.6833697213318
 20
130.8529203178895
 30
0.0
 10
198.716095955846
 20
131.0467977506258
 30
0.0
 10
198.7442679488466
 20
131.2337337133454
 30
0.0
  0
LINE
  5
131
330
1F
100
AcDbEntity
  8
0
  6
HIDDEN
 62
     7
370
     0
100
AcDbLine
 10
194.8942679488
 20
128.3158685397
 30
0.0
 11
194.8942679488
 21
125.5475246578
 31
0.0
  0
LINE
  5
132
330
1F
100
AcDbEntity
  8
0
  6
HIDDEN
 62
     7
370
     0
100
AcDbLine
 10
194.8942679488
 20
125.5475246578
 30
0.0
 11
198.1942679488
 21
125.5475246578
 31
0.0
  0
LINE
  5
133
330
1F
100
AcDbEntity
  8
0
  6
HIDDEN
 62
     7
370
     0
100
AcDbLine
 10
194.8942679488
 20
101.8968127842
 30
0.0
 11
198.1942679488
 21
101.8968127842
 31
0.0
  0
LINE
  5
134
330
1F
100
AcDbEntity
  8
0
  6
HIDDEN
 62
     7
370
     0
100
AcDbLine
 10
198.1942679488
 20
101.8968127842
 30
0.0
 11
198.1942679488
 21
101.7407322272
 31
0.0
  0
SPLINE
  5
135
330
1F
100
AcDbEntity
  8
0
  6
HIDDEN
 62
     7
370
     0
100
AcDbSpline
210
0.0
220
0.0
230
1.0
 70
     8
 71
     3
 72
    12
 73
     8
 74
     0
 42
0.000000001
 43
0.00000001
 40
0.0
 40
0.0
 40
0.0
 40
0.0
 40
0.2499999999999998
 40
0.2499999999999998
 40
0.4999999999999997
 40
0.4999999999999997
 40
1.0
 40
1.0
 40
1.0
 40
1.0
 10
198.1942679488466
 20
101.7407322271818
 30
0.0
 10
198.2561522462636
 20
101.676907000413
 30
0.0
 10
198.3141768109532
 20
101.6263049199064
 30
0.0
 10
198.4228168754063
 20
101.5522320361033
 30
0.0
 10
198.4736808502231
 20
101.5287176814784
 30
0.0
 10
198.6133270454738
 20
101.5021996931124
 30
0.0
 10
198.6876608838435
 20
101.5422153312973
 30
0.0
 10
198.7442679488466
 20
101.6412749130817
 30
0.0
  0
LINE
  5
136
330
1F
100
AcDbEntity
  8
0
  6
HIDDEN
 62
     7
370
     0
100
AcDbLine
 10
194.8942679488
 20
106.7158685397
 30
0.0
 11
194.8942679488
 21
101.5158685397
 31
0.0
  0
SPLINE
  5
137
330
1F
100
AcDbEntity
  8
0
  6
HIDDEN
 62
     7
370
     0
100
AcDbSpline
210
0.0
220
0.0
230
1.0
 70
     8
 71
     3
 72
    12
 73
     8
 74
     0
 42
0.000000001
 43
0.00000001
 40
0.0
 40
0.0
 40
0.0
 40
0.0
 40
0.5
 40
0.5
 40
0.75
 40
0.75
 40
1.0
 40
1.0
 40
1.0
 40
1.0
 10
198.7442679488466
 20
103.7980033660195
 30
0.0
 10
198.6873600373449
 20
104.1756172331932
 30
0.0
 10
198.6129876510362
 20
104.575565803499
 30
0.0
 10
198.4749153173334
 20
105.2063765383623
 30
0.0
 10
198.424093344297
 20
105.4230400379895
 30
0.0
 10
198.3150002821576
 20
105.8581333118045
 30
0.0
 10
198.2566367681198
 20
106.0771585701658
 30
0.0
 10
198.1942679488466
 20
106.2975746676583
 30
0.0
  0
LINE
  5
138
330
1F
100
AcDbEntity
  8
0
  6
HIDDEN
 62
     7
370
     0
100
AcDbLine
 10
194.8942679488
 20
109.4842124215
 30
0.0
 11
194.8942679488
 21
106.7158685397
 31
0.0
  0
LINE
  5
139
330
1F
100
AcDbEntity
  8
0
  6
HIDDEN
 62
     7
370
     0
100
AcDbLine
 10
198.1942679488
 20
109.4842124215
 30
0.0
 11
194.8942679488
 21
109.4842124215
 31
0.0
  0
LINE
  5
13A
330
1F
100
AcDbEntity
  8
0
  6
HIDDEN
 62
     7
370
     0
100
AcDbLine
 10
173.7442679488
 20
105.8158685397
 30
0.0
 11
173.7442679488
 21
129.2158684571
 31
0.0
  0
LINE
  5
13B
330
1F
100
AcDbEntity
  8
0
  6
HIDDEN
 62
     7
370
     0
100
AcDbLine
 10
176.2442679488
 20
105.5158685397
 30
0.0
 11
176.2442679488
 21
129.5158685397
 31
0.0
  0
LINE
  5
13C
330
1F
100
AcDbEntity
  8
0
  6
HIDDEN
 62
     7
370
     0
100
AcDbLine
 10
155.9442679488
 20
106.2658685397
 30
0.0
 11
155.9442679488
 21
128.7658685397
 31
0.0
  0
ELLIPSE
  5
13D
330
1F
100
AcDbEntity
  8
0
  6
HIDDEN
 62
     7
370
     0
100
AcDbEllipse
 10
86.5595947486
 20
117.5158685397
 30
0.0
 11
31.08108570811662
 21
1.421085471520200E-14
 31
0.0
210
0.0
220
0.0
230
1.0
 40
0.8164965809
 41
1.312649268214811
 42
1.367189972061495
  0
ELLIPSE
  5
13E
330
1F
100
AcDbEntity
  8
0
  6
HIDDEN
 62
     7
370
     0
100
AcDbEllipse
 10
86.5595947486
 20
117.5158685397
 30
0.0
 11
31.08108570811662
 21
-1.421085471520200E-14
 31
0.0
210
0.0
220
0.0
230
1.0
 40
0.8164965809
 41
4.915995335118103
 42
4.970536038964788
  0
LINE
  5
13F
330
1F
100
AcDbEntity
  8
0
  6
HIDDEN
 62
     7
370
     0
100
AcDbLine
 10
171.6942679488
 20
73.6158685397
 30
0.0
 11
157.6942679488
 21
73.6158685397
 31
0.0
  0
LINE
  5
140
330
1F
100
AcDbEntity
  8
0
  6
HIDDEN
 62
     7
370
     0
100
AcDbLine
 10
147.6942679488
 20
67.5258695399
 30
0.0
 11
147.6942679488
 21
73.6158685397
 31
0.0
  0
LINE
  5
141
330
1F
100
AcDbEntity
  8
0
  6
HIDDEN
 62
     7
370
     0
100
AcDbLine
 10
157.6942679488
 20
73.6158685397
 30
0.0
 11
147.6942679488
 21
73.6158685397
 31
0.0
  0
LINE
  5
142
330
1F
100
AcDbEntity
  8
0
  6
HIDDEN
 62
     7
370
     0
100
AcDbLine
 10
107.9442679488
 20
90.1458685397
 30
0.0
 11
107.9442679488
 21
92.2873549093
 31
0.0
  0
LINE
  5
143
330
1F
100
AcDbEntity
  8
0
  6
HIDDEN
 62
     7
370
     0
100
AcDbLine
 10
94.4942679488
 20
90.1458685397
 30
0.0
 11
94.4942679488
 21
92.9791633819
 31
0.0
  0
LINE
  5
144
330
1F
100
AcDbEntity
  8
0
  6
HIDDEN
 62
     7
370
     0
100
AcDbLine
 10
94.4942679488
 20
144.8858685397
 30
0.0
 11
94.4942679488
 21
142.0525736975
 31
0.0
  0
LINE
  5
145
330
1F
100
AcDbEntity
  8
0
  6
HIDDEN
 62
     7
370
     0
100
AcDbLine
 10
102.9442679488
 20
144.8858685397
 30
0.0
 11
102.9442679488
 21
142.7443821701
 31
0.0
  0
LINE
  5
146
330
1F
100
AcDbEntity
  8
0
  6
HIDDEN
 62
     7
370
     0
100
AcDbLine
 10
157.6942679488
 20
161.4158685397
 30
0.0
 11
147.6942679488
 21
161.4158685397
 31
0.0
  0
LINE
  5
147
330
1F
100
AcDbEntity
  8
0
  6
HIDDEN
 62
     7
370
     0
100
AcDbLine
 10
171.6942679488
 20
161.4158685397
 30
0.0
 11
157.6942679488
 21
161.4158685397
 31
0.0
  0
LINE
  5
148
330
1F
100
AcDbEntity
  8
0
  6
HIDDEN
 62
     7
370
     0
100
AcDbLine
 10
198.1942679488
 20
133.2910048522
 30
0.0
 11
198.1942679488
 21
134.3363897334
 31
0.0
  0
LINE
  5
149
330
1F
100
AcDbEntity
  8
0
  6
HIDDEN
 62
     7
370
     0
100
AcDbLine
 10
198.1942679488
 20
100.695347346
 30
0.0
 11
198.1942679488
 21
101.7407322272
 31
0.0
  0
SPLINE
  5
14A
330
1F
100
AcDbEntity
  8
0
  6
HIDDEN
 62
     7
370
     0
100
AcDbSpline
210
0.0
220
0.0
230
1.0
 70
     8
 71
     3
 72
    32
 73
    28
 74
     0
 42
0.000000001
 43
0.00000001
 40
0.0
 40
0.0
 40
0.0
 40
0.0
 40
0.0530950513505035
 40
0.1124761776168217
 40
0.1778737943701342
 40
0.2010600205846916
 40
0.2249255760152977
 40
0.2494720479154501
 40
0.2912380979082468
 40
0.3260806164549112
 40
0.3539958911563378
 40
0.3749812747598881
 40
0.4414392655928557
 40
0.5001571504642859
 40
0.5546721229764059
 40
0.6144166183073235
 40
0.6794422726768022
 40
0.7023379400017077
 40
0.7258290280273377
 40
0.7499167699119912
 40
0.7913814811317302
 40
0.8260485879063779
 40
0.8539143064003145
 40
0.87497578449636
 40
0.9411625696303919
 40
0.9999133577085608
 40
0.9999999999999999
 40
0.9999999999999999
 40
0.9999999999999999
 40
0.9999999999999999
 10
133.7437294814601
 20
80.41596341765508
 30
0.0
 10
133.7275423673878
 20
80.42085802890901
 30
0.0
 10
133.6932517005331
 20
80.43122673843578
 30
0.0
 10
133.3919920441714
 20
80.50691379543404
 30
0.0
 10
132.982581835174
 20
80.59590718575288
 30
0.0
 10
132.5875649599079
 20
80.67633090234244
 30
0.0
 10
132.3098906397084
 20
80.73111516236958
 30
0.0
 10
131.9282330677671
 20
80.8053902829037
 30
0.0
 10
131.4535866537346
 20
80.8906961648095
 30
0.0
 10
130.9154506919486
 20
80.97639174641392
 30
0.0
 10
130.4574005881785
 20
81.04367492725648
 30
0.0
 10
129.8018371059578
 20
81.13202533739491
 30
0.0
 10
128.9185290606544
 20
81.22868273165109
 30
0.0
 10
127.7898717975267
 20
81.31545564931547
 30
0.0
 10
126.7000949306415
 20
81.35354351007221
 30
0.0
 10
125.6041290108954
 20
81.35535555499058
 30
0.0
 10
124.7648048869831
 20
81.33123231781653
 30
0.0
 10
124.1854410085441
 20
81.30230911307822
 30
0.0
 10
123.838033122963
 20
81.28082926342292
 30
0.0
 10
123.4265951520736
 20
81.24902623712165
 30
0.0
 10
123.0090366483323
 20
81.21142594331613
 30
0.0
 10
122.6378476698116
 20
81.17438132169883
 30
0.0
 10
122.3837961980609
 20
81.1456883087853
 30
0.0
 10
122.0827424554935
 20
81.10930628597932
 30
0.0
 10
121.827257492712
 20
81.07652735712897
 30
0.0
 10
121.7280372099819
 20
81.06018917469673
 30
0.0
 10
121.7443182591525
 20
81.06278284329292
 30
0.0
 10
121.7443422341527
 20
81.06278666265399
 30
0.0
  0
SPLINE
  5
14B
330
1F
100
AcDbEntity
  8
0
  6
HIDDEN
 62
     7
370
     0
100
AcDbSpline
210
0.0
220
0.0
230
1.0
 70
     8
 71
     3
 72
    32
 73
    28
 74
     0
 42
0.000000001
 43
0.00000001
 40
0.0
 40
0.0
 40
0.0
 40
0.0
 40
0.0001350567865115
 40
0.022731516094251
 40
0.0465263428228567
 40
0.0715218519503411
 40
0.0977200243784322
 40
0.1251225643608349
 40
0.1547094708592102
 40
0.196386025762939
 40
0.2501377628100742
 40
0.3205491301371256
 40
0.3856305962138261
 40
0.4454207418268515
 40
0.4999710535512809
 40
0.5225352794355201
 40
0.5463098739942656
 40
0.5712990392249953
 40
0.5975063776259885
 40
0.6249349963966904
 40
0.6542083788908197
 40
0.6958846414487118
 40
0.7499493917933938
 40
0.8216052546696518
 40
0.8871534175161921
 40
0.9466457359475134
 40
1.0
 40
1.0
 40
1.0
 40
1.0
 10
121.7443825572942
 20
153.9688760442304
 30
0.0
 10
121.7443441949347
 20
153.9688844088175
 30
0.0
 10
121.7378873954284
 20
153.970292259172
 30
0.0
 10
121.7578454649926
 20
153.9664345016095
 30
0.0
 10
121.8026866991016
 20
153.9598459328026
 30
0.0
 10
121.8910248459196
 20
153.9472783194524
 30
0.0
 10
122.0209215038875
 20
153.9301001750149
 30
0.0
 10
122.200926895353
 20
153.9079688682682
 30
0.0
 10
122.465571633086
 20
153.8759215111225
 30
0.0
 10
122.8790302018052
 20
153.8322419964294
 30
0.0
 10
123.5552983962546
 20
153.7691986516016
 30
0.0
 10
124.4937339193725
 20
153.7079022006749
 30
0.0
 10
125.6032341718226
 20
153.6766113928197
 30
0.0
 10
126.7006858359566
 20
153.6782742731221
 30
0.0
 10
127.5640566314031
 20
153.7082815494228
 30
0.0
 10
128.1979266018936
 20
153.7486723033108
 30
0.0
 10
128.6433342914073
 20
153.7834430015265
 30
0.0
 10
129.1056221786682
 20
153.8259713781237
 30
0.0
 10
129.5809953778501
 20
153.8763419148761
 30
0.0
 10
130.068486685329
 20
153.9345355222922
 30
0.0
 10
130.6250351469368
 20
154.0113022002653
 30
0.0
 10
131.2916313749978
 20
154.1129333251685
 30
0.0
 10
132.0929689062286
 20
154.2550790505117
 30
0.0
 10
132.8454773368666
 20
154.4063211664475
 30
0.0
 10
133.3907635145639
 20
154.524172506891
 30
0.0
 10
133.6934791574686
 20
154.6004001001096
 30
0.0
 10
133.7277692543042
 20
154.6108522469547
 30
0.0
 10
133.7439817335896
 20
154.6157940590186
 30
0.0
  0
LINE
  5
14C
330
1F
100
AcDbEntity
  8
0
  6
HIDDEN
 62
     7
370
     0
100
AcDbLine
 10
194.8942679488
 20
134.0408685397
 30
0.0
 11
194.8942679488
 21
133.5158685397
 31
0.0
  0
LINE
  5
14D
330
1F
100
AcDbEntity
  8
0
  6
HIDDEN
 62
     7
370
     0
100
AcDbLine
 10
194.8942679488
 20
101.5158685397
 30
0.0
 11
194.8942679488
 21
100.9908685397
 31
0.0
  0
LINE
  5
14E
330
1F
100
AcDbEntity
  8
0
  6
HIDDEN
 62
     7
370
     0
100
AcDbLine
 10
166.0062969698
 20
156.4668313006
 30
0.0
 11
166.0062969698
 21
148.8658685397
 31
0.0
  0
LINE
  5
14F
330
1F
100
AcDbEntity
  8
0
  6
HIDDEN
 62
     7
370
     0
100
AcDbLine
 10
160.8342679488
 20
152.2301037322
 30
0.0
 11
160.8342679488
 21
148.8658685397
 31
0.0
  0
LINE
  5
150
330
1F
100
AcDbEntity
  8
0
  6
HIDDEN
 62
     7
370
     0
100
AcDbLine
 10
164.6542679488
 20
152.2301037322
 30
0.0
 11
164.6542679488
 21
148.8658685397
 31
0.0
  0
CIRCLE
  5
151
330
1F
100
AcDbEntity
  8
0
  6
HIDDEN
 62
     7
370
     0
100
AcDbCircle
 10
149.7442679488
 20
117.5158685397
 30
0.0
 40
5.0
  0
LINE
  5
152
330
1F
100
AcDbEntity
  8
0
  6
HIDDEN
 62
     7
370
     0
100
AcDbLine
 10
142.7442679488
 20
78.1111855831
 30
0.0
 11
142.8338695728
 21
78.748734265
 31
0.0
  0
LINE
  5
153
330
1F
100
AcDbEntity
  8
0
  6
HIDDEN
 62
     7
370
     0
100
AcDbLine
 10
142.8338695728
 20
156.2830028143
 30
0.0
 11
142.7442679488
 21
156.9205514963
 31
0.0
  0
ARC
  5
154
330
1F
100
AcDbEntity
  8
0
  6
HIDDEN
 62
     7
370
     0
100
AcDbCircle
 10
141.8473310304
 20
78.8873832152
 30
0.0
 40
0.9962338214386983
100
AcDbArc
 50
352.0
 51
0.0
  0
ARC
  5
155
330
1F
100
AcDbEntity
  8
0
  6
HIDDEN
 62
     7
370
     0
100
AcDbCircle
 10
141.8473310304
 20
78.8873832152
 30
0.0
 40
0.9962338214386932
100
AcDbArc
 50
0.0
 51
25.7988228126
  0
ARC
  5
156
330
1F
100
AcDbEntity
  8
0
  6
HIDDEN
 62
     7
370
     0
100
AcDbCircle
 10
141.8473310304
 20
156.1443538641
 30
0.0
 40
0.9962338214387022
100
AcDbArc
 50
348.75
 51
8.0
  0
LWPOLYLINE
  5
157
330
1F
100
AcDbEntity
  8
0
  6
HIDDEN
 62
     7
370
     0
100
AcDbPolyline
 90
        3
 70
   128
 43
0.0
 10
142.8244224983
 20
155.9499982871
 10
142.7677310676
 20
155.7631116859
 10
142.7442679488
 20
155.710780351
  0
LINE
  5
158
330
1F
100
AcDbEntity
  8
0
  6
HIDDEN
 62
     7
370
     0
100
AcDbLine
 10
142.8435648518
 20
78.8873832152
 30
0.0
 11
142.8435648518
 21
156.1443538641
 31
0.0
  0
ARC
  5
159
330
1F
100
AcDbEntity
  8
0
  6
HIDDEN
 62
     7
370
     0
100
AcDbCircle
 10
116.204993891
 20
87.0158685397
 30
0.0
 40
1.000000000000008
100
AcDbArc
 50
210.0
 51
270.0
  0
ARC
  5
15A
330
1F
100
AcDbEntity
  8
0
  6
HIDDEN
 62
     7
370
     0
100
AcDbCircle
 10
116.204993891
 20
148.0158685397
 30
0.0
 40
1.0
100
AcDbArc
 50
90.0
 51
150.0
  0
ARC
  5
15B
330
1F
100
AcDbEntity
  8
0
  6
HIDDEN
 62
     7
370
     0
100
AcDbCircle
 10
132.997473604
 20
98.0158685397
 30
0.0
 40
12.0
100
AcDbArc
 50
273.1760006433
 51
324.3146652873
  0
ARC
  5
15C
330
1F
100
AcDbEntity
  8
0
  6
HIDDEN
 62
     7
370
     0
100
AcDbCircle
 10
132.997473604
 20
137.0158685397
 30
0.0
 40
12.0
100
AcDbArc
 50
35.6853347127
 51
86.8243759918
  0
LINE
  5
15D
330
1F
100
AcDbEntity
  8
0
  6
HIDDEN
 62
     7
370
     0
100
AcDbLine
 10
116.204993891
 20
86.0158685397
 30
0.0
 11
121.7631850632
 21
86.0158685397
 31
0.0
  0
LINE
  5
15E
330
1F
100
AcDbEntity
  8
0
  6
HIDDEN
 62
     7
370
     0
100
AcDbLine
 10
121.7631850632
 20
149.0158685397
 30
0.0
 11
116.204993891
 21
149.0158685397
 31
0.0
  0
LINE
  5
15F
330
1F
100
AcDbEntity
  8
0
  6
HIDDEN
 62
     7
370
     0
100
AcDbLine
 10
115.3389684872
 20
148.5158685397
 30
0.0
 11
112.7408922759
 21
144.0158685397
 31
0.0
  0
LINE
  5
160
330
1F
100
AcDbEntity
  8
0
  6
HIDDEN
 62
     7
370
     0
100
AcDbLine
 10
112.7408922759
 20
91.0158685397
 30
0.0
 11
115.3389684872
 21
86.5158685397
 31
0.0
  0
ARC
  5
161
330
1F
100
AcDbEntity
  8
0
  6
HIDDEN
 62
     7
370
     0
100
AcDbCircle
 10
153.1942679488
 20
92.6408685397
 30
0.0
 40
2.000000000000015
100
AcDbArc
 50
234.3409123039
 51
0.0
  0
ARC
  5
162
330
1F
100
AcDbEntity
  8
0
  6
HIDDEN
 62
     7
370
     0
100
AcDbCircle
 10
153.1942679488
 20
142.3908685397
 30
0.0
 40
2.000000000000026
100
AcDbArc
 50
0.0
 51
125.6590876961
  0
LINE
  5
163
330
1F
100
AcDbEntity
  8
0
  6
HIDDEN
 62
     7
370
     0
100
AcDbLine
 10
107.9442679488
 20
91.0158685397
 30
0.0
 11
112.7408922759
 21
91.0158685397
 31
0.0
  0
LINE
  5
164
330
1F
100
AcDbEntity
  8
0
  6
HIDDEN
 62
     7
370
     0
100
AcDbLine
 10
112.7408922759
 20
144.0158685397
 30
0.0
 11
102.9442679488
 21
144.0158685397
 31
0.0
  0
LINE
  5
165
330
1F
100
AcDbEntity
  8
0
  6
HIDDEN
 62
     7
370
     0
100
AcDbLine
 10
142.7442679488
 20
91.0158685397
 30
0.0
 11
152.0283455672
 21
91.0158685397
 31
0.0
  0
LINE
  5
166
330
1F
100
AcDbEntity
  8
0
  6
HIDDEN
 62
     7
370
     0
100
AcDbLine
 10
152.0283455672
 20
144.0158685397
 30
0.0
 11
142.7442679488
 21
144.0158685397
 31
0.0
  0
LINE
  5
167
330
1F
100
AcDbEntity
  8
0
  6
HIDDEN
 62
     7
370
     0
100
AcDbLine
 10
167.0442679488
 20
104.5158685397
 30
0.0
 11
171.0442679488
 21
104.5158685397
 31
0.0
  0
LINE
  5
168
330
1F
100
AcDbEntity
  8
0
  6
HIDDEN
 62
     7
370
     0
100
AcDbLine
 10
171.0442679488
 20
130.5158685397
 30
0.0
 11
167.0442679488
 21
130.5158685397
 31
0.0
  0
LINE
  5
169
330
1F
100
AcDbEntity
  8
0
  6
HIDDEN
 62
     7
370
     0
100
AcDbLine
 10
194.8942679488
 20
130.0932188089
 30
0.0
 11
193.8942679488
 21
129.5158685397
 31
0.0
  0
LINE
  5
16A
330
1F
100
AcDbEntity
  8
0
  6
HIDDEN
 62
     7
370
     0
100
AcDbLine
 10
193.8942679488
 20
105.5158685397
 30
0.0
 11
194.8942679488
 21
104.9385182705
 31
0.0
  0
LINE
  5
16B
330
1F
100
AcDbEntity
  8
0
  6
HIDDEN
 62
     7
370
     0
100
AcDbLine
 10
198.541045283
 20
133.5158685397
 30
0.0
 11
194.8942679488
 21
133.5158685397
 31
0.0
  0
LINE
  5
16C
330
1F
100
AcDbEntity
  8
0
  6
HIDDEN
 62
     7
370
     0
100
AcDbLine
 10
194.8942679488
 20
101.5158685397
 30
0.0
 11
198.550471048
 21
101.5158685397
 31
0.0
  0
LINE
  5
16D
330
1F
100
AcDbEntity
  8
0
  6
HIDDEN
 62
     7
370
     0
100
AcDbLine
 10
174.3442679488
 20
105.2158685397
 30
0.0
 11
175.045661208
 21
105.2158685397
 31
0.0
  0
LINE
  5
16E
330
1F
100
AcDbEntity
  8
0
  6
HIDDEN
 62
     7
370
     0
100
AcDbLine
 10
175.045661208
 20
129.8158685397
 30
0.0
 11
174.3442679488
 21
129.8158685397
 31
0.0
  0
ARC
  5
16F
330
1F
100
AcDbEntity
  8
0
  6
HIDDEN
 62
     7
370
     0
100
AcDbCircle
 10
174.3442679488
 20
105.8158685397
 30
0.0
 40
0.6000000000000227
100
AcDbArc
 50
180.0
 51
270.0
  0
ARC
  5
170
330
1F
100
AcDbEntity
  8
0
  6
HIDDEN
 62
     7
370
     0
100
AcDbCircle
 10
174.3442679488
 20
129.2158685397
 30
0.0
 40
0.6000000000000227
100
AcDbArc
 50
90.0
 51
180.0
  0
ARC
  5
171
330
1F
100
AcDbEntity
  8
0
  6
HIDDEN
 62
     7
370
     0
100
AcDbCircle
 10
175.045661208
 20
105.8158685397
 30
0.0
 40
0.5999999999999934
100
AcDbArc
 50
270.0
 51
285.0
  0
ARC
  5
172
330
1F
100
AcDbEntity
  8
0
  6
HIDDEN
 62
     7
370
     0
100
AcDbCircle
 10
175.045661208
 20
129.2158685397
 30
0.0
 40
0.5999999999999943
100
AcDbArc
 50
75.0
 51
90.0
  0
LINE
  5
173
330
1F
100
AcDbEntity
  8
0
  6
HIDDEN
 62
     7
370
     0
100
AcDbLine
 10
175.2009526351
 20
105.2363130439
 30
0.0
 11
176.2442679488
 21
105.5158685397
 31
0.0
  0
LINE
  5
174
330
1F
100
AcDbEntity
  8
0
  6
HIDDEN
 62
     7
370
     0
100
AcDbLine
 10
176.2442679488
 20
129.5158685397
 30
0.0
 11
175.2009526351
 21
129.7954240355
 31
0.0
  0
LINE
  5
175
330
1F
100
AcDbEntity
  8
0
  6
HIDDEN
 62
     7
370
     0
100
AcDbLine
 10
155.1942679488
 20
105.5158685397
 30
0.0
 11
155.9442679488
 21
106.2658685397
 31
0.0
  0
LINE
  5
176
330
1F
100
AcDbEntity
  8
0
  6
HIDDEN
 62
     7
370
     0
100
AcDbLine
 10
155.9442679488
 20
128.7658685397
 30
0.0
 11
155.1942679488
 21
129.5158685397
 31
0.0
  0
LINE
  5
177
330
1F
100
AcDbEntity
  8
0
  6
HIDDEN
 62
     7
370
     0
100
AcDbLine
 10
176.2442679488
 20
105.5158685397
 30
0.0
 11
193.8942679488
 21
105.5158685397
 31
0.0
  0
LINE
  5
178
330
1F
100
AcDbEntity
  8
0
  6
HIDDEN
 62
     7
370
     0
100
AcDbLine
 10
193.8942679488
 20
129.5158685397
 30
0.0
 11
176.2442679488
 21
129.5158685397
 31
0.0
  0
LINE
  5
179
330
1F
100
AcDbEntity
  8
0
  6
HIDDEN
 62
     7
370
     0
100
AcDbLine
 10
155.9442679488
 20
106.2658685397
 30
0.0
 11
167.0442679488
 21
106.2658685397
 31
0.0
  0
LINE
  5
17A
330
1F
100
AcDbEntity
  8
0
  6
HIDDEN
 62
     7
370
     0
100
AcDbLine
 10
167.0442679488
 20
128.7658685397
 30
0.0
 11
155.9442679488
 21
128.7658685397
 31
0.0
  0
LINE
  5
17B
330
1F
100
AcDbEntity
  8
0
  6
HIDDEN
 62
     7
370
     0
100
AcDbLine
 10
147.6942679488
 20
167.5158685397
 30
0.0
 11
147.6942679488
 21
161.4158685397
 31
0.0
  0
LINE
  5
17C
330
1F
100
AcDbEntity
  8
0
  6
HIDDEN
 62
     7
370
     0
100
AcDbLine
 10
198.7442679488
 20
135.5158685397
 30
0.0
 11
198.1942679488
 21
134.3363897334
 31
0.0
  0
LINE
  5
17D
330
1F
100
AcDbEntity
  8
0
  6
HIDDEN
 62
     7
370
     0
100
AcDbLine
 10
198.1942679488
 20
100.695347346
 30
0.0
 11
198.7442679488
 21
99.5158685397
 31
0.0
  0
LINE
  5
17E
330
1F
100
AcDbEntity
  8
0
  6
HIDDEN
 62
     7
370
     0
100
AcDbLine
 10
134.1769805651
 20
79.937588969
 30
0.0
 11
133.7442712786
 21
80.4158136864
 31
0.0
  0
LINE
  5
17F
330
1F
100
AcDbEntity
  8
0
  6
HIDDEN
 62
     7
370
     0
100
AcDbLine
 10
121.744268407
 20
81.0627750432
 30
0.0
 11
121.2636411018
 21
80.5845503323
 31
0.0
  0
LINE
  5
180
330
1F
100
AcDbEntity
  8
0
  6
HIDDEN
 62
     7
370
     0
100
AcDbLine
 10
121.2635227601
 20
154.4471808309
 30
0.0
 11
121.7442682242
 21
153.9689011591
 31
0.0
  0
LINE
  5
181
330
1F
100
AcDbEntity
  8
0
  6
HIDDEN
 62
     7
370
     0
100
AcDbLine
 10
133.7442679507
 20
154.6158735464
 30
0.0
 11
134.1770896205
 21
155.0941532192
 31
0.0
  0
LINE
  5
182
330
1F
100
AcDbEntity
  8
0
  6
HIDDEN
 62
     7
370
     0
100
AcDbLine
 10
133.7442679488
 20
80.3156848392
 30
0.0
 11
133.7442679488
 21
86.0499906126
 31
0.0
  0
LINE
  5
183
330
1F
100
AcDbEntity
  8
0
  6
HIDDEN
 62
     7
370
     0
100
AcDbLine
 10
121.7442679488
 20
86.019459363
 30
0.0
 11
121.7442679488
 21
81.0628134592
 31
0.0
  0
LINE
  5
184
330
1F
100
AcDbEntity
  8
0
  6
HIDDEN
 62
     7
370
     0
100
AcDbLine
 10
133.7442679488
 20
148.9817464668
 30
0.0
 11
133.7442679488
 21
154.7158773797
 31
0.0
  0
LINE
  5
185
330
1F
100
AcDbEntity
  8
0
  6
HIDDEN
 62
     7
370
     0
100
AcDbLine
 10
121.7442679488
 20
153.9688906602
 30
0.0
 11
121.7442679488
 21
149.0122777164
 31
0.0
  0
LINE
  5
186
330
1F
100
AcDbEntity
  8
0
  6
HIDDEN
 62
     7
370
     0
100
AcDbLine
 10
171.0442679488
 20
111.5158685397
 30
0.0
 11
173.7442679488
 21
111.5158685397
 31
0.0
  0
LINE
  5
187
330
1F
100
AcDbEntity
  8
0
  6
HIDDEN
 62
     7
370
     0
100
AcDbLine
 10
173.7442679488
 20
123.5158685397
 30
0.0
 11
171.0442679488
 21
123.5158685397
 31
0.0
  0
LINE
  5
188
330
1F
100
AcDbEntity
  8
0
  6
HIDDEN
 62
     7
370
     0
100
AcDbLine
 10
198.1942679488
 20
134.0408685397
 30
0.0
 11
194.8942679488
 21
134.0408685397
 31
0.0
  0
LINE
  5
189
330
1F
100
AcDbEntity
  8
0
  6
HIDDEN
 62
     7
370
     0
100
AcDbLine
 10
194.8942679488
 20
100.9908685397
 30
0.0
 11
198.1942679488
 21
100.9908685397
 31
0.0
  0
LINE
  5
18A
330
1F
100
AcDbEntity
  8
0
  6
HIDDEN
 62
     7
370
     0
100
AcDbLine
 10
198.550471048
 20
133.5158685397
 30
0.0
 11
198.541045283
 21
133.5158685397
 31
0.0
  0
DIMENSION
  5
18B
330
1F
100
AcDbEntity
  8
VERMASSUNG
100
AcDbDimension
  2
_D
 10
86.2511482581
 20
67.5158685397
 30
0.0
 11
86.2511482581
 21
117.2048418456
 31
0.0
 70
   160
  1
HSK A %%c<>
 71
     2
 42
-1.0
  3
SLDDIMSTYLE0
100
AcDbAlignedDimension
 13
143.2442679488
 23
167.5158685397
 33
0.0
 14
143.2442679488
 24
67.5158685397
 34
0.0
 50
90.0
100
AcDbRotatedDimension
  0
DIMENSION
  5
198
330
1F
100
AcDbEntity
  8
VERMASSUNG
100
AcDbDimension
  2
_D_1
 10
198.7442679488
 20
183.5158685397
 30
0.0
 11
147.0801298216
 21
183.5158685397
 31
0.0
 70
   160
  1
<>
 71
     2
 42
-1.0
  3
SLDDIMSTYLE0
100
AcDbAlignedDimension
 13
92.8442679488
 23
148.0185382823
 33
0.0
 14
198.7442679488
 24
138.1158685397
 34
0.0
100
AcDbRotatedDimension
  0
DIMENSION
  5
1A2
330
1F
100
AcDbEntity
  8
VERMASSUNG
100
AcDbDimension
  2
_D_2
 10
198.7442679488
 20
177.5158685397
 30
0.0
 11
169.5228666675
 21
177.5158685397
 31
0.0
 70
   160
  1
<>
 71
     2
 42
-1.0
  3
SLDDIMSTYLE0
100
AcDbAlignedDimension
 13
142.7442679488
 23
167.0158685397
 33
0.0
 14
198.7442679488
 24
138.1158685397
 34
0.0
100
AcDbRotatedDimension
  0
DIMENSION
  5
1AC
330
1F
100
AcDbEntity
  8
VERMASSUNG
100
AcDbDimension
  2
_D_3
 10
198.7442679488
 20
171.5158685397
 30
0.0
 11
184.6891750704
 21
171.5158685397
 31
0.0
 70
   160
  1
<>
 71
     2
 42
-1.0
  3
SLDDIMSTYLE0
100
AcDbAlignedDimension
 13
171.6942679488
 23
165.4846083605
 33
0.0
 14
198.7442679488
 24
138.1158685397
 34
0.0
100
AcDbRotatedDimension
  0
DIMENSION
  5
1B6
330
1F
100
AcDbEntity
  8
VERMASSUNG
100
AcDbDimension
  2
_D_4
 10
207.2721774761
 20
96.5158685397
 30
0.0
 11
207.2721774761
 21
117.0821391069
 31
0.0
 70
   160
  1
MBM %%c<>
 71
     2
 42
-1.0
  3
SLDDIMSTYLE0
100
AcDbAlignedDimension
 13
198.3442679488
 23
138.5158685397
 33
0.0
 14
198.3442679488
 24
96.5158685397
 34
0.0
 50
90.0
100
AcDbRotatedDimension
  0
INSERT
  5
1C7
330
1F
100
AcDbEntity
  8
VERMASSUNG
100
AcDbBlockReference
  2
SW_NOTE_0
 10
148.8246816846
 20
58.591269802
 30
0.0
  0
LEADER
  5
1D1
330
1F
100
AcDbEntity
  8
VERMASSUNG
100
AcDbLeader
  3
SLDDIMSTYLE1
 76
     2
 10
153.1857924282
 20
78.4534271831
 30
0.0
 10
148.8246816846
 20
58.591269802
 30
0.0
  0
INSERT
  5
1D7
330
1F
100
AcDbEntity
  8
VERMASSUNG
100
AcDbBlockReference
  2
SW_NOTE_1
 10
182.3212536729
 20
92.3816713691
 30
0.0
  0
LEADER
  5
1D8
330
1F
100
AcDbEntity
  8
VERMASSUNG
100
AcDbLeader
  3
SLDDIMSTYLE1
 76
     2
 10
186.0483597481
 20
114.5158685397
 30
0.0
 10
182.3212536729
 20
92.3816713691
 30
0.0
  0
LINE
  5
1D9
330
1F
100
AcDbEntity
  8
VERMASSUNG
  6
CENTERX2
 62
     7
370
     0
100
AcDbLine
 10
157.6942679488
 20
174.2026237436
 30
0.0
 11
157.6942679488
 21
156.1423581319
 31
0.0
  0
LINE
  5
1DA
330
1F
100
AcDbEntity
  8
VERMASSUNG
  6
CENTERX2
 62
     7
370
     0
100
AcDbLine
 10
157.6942679488
 20
62.2841450417
 30
0.0
 11
157.6942679488
 21
75.9793155356
 31
0.0
  0
LINE
  5
1DB
330
1F
100
AcDbEntity
  8
VERMASSUNG
  6
CENTERX2
 62
     7
370
     0
100
AcDbLine
 10
157.402234797
 20
157.9704501435
 30
0.0
 11
157.402234797
 21
144.0581494734
 31
0.0
  0
LINE
  5
1DC
330
1F
100
AcDbEntity
  8
VERMASSUNG
  6
CENTERX2
 62
     7
370
     0
100
AcDbLine
 10
90.5937985879
 20
117.5158685397
 30
0.0
 11
201.9258555981
 21
117.5158685397
 31
0.0
  0
OLE2FRAME
  5
1DD
330
1F
100
AcDbEntity
  8
0
100
AcDbOle2Frame
 70
     2
  3
Paintbrush-Bild
 10
13.8511154363
 20
38.264191557
 30
0.0
 11
51.6290888628
 21
31.9806341108
 31
0.0
 71
     2
 72
     0
 73
     1
 90
    12928
310
80552BED0767C5B32B40DDAF6807D121434000000000000000006FFBDDFB85D0
310
4940DDAF6807D121434000000000000000006FFBDDFB85D04940416F4BD60AFB
310
3F4000000000000000002BED0767C5B32B40416F4BD60AFB3F40000000000000
310
0000000000000100000000010000010000000100000000000100000000320000
310
D0CF11E0A1B11AE1000000000000000000000000000000003E000300FEFF0900
310
0600000000000000000000000100000001000000000000000010000002000000
310
01000000FEFFFFFF0000000000000000FFFFFFFFFFFFFFFFFFFFFFFFFFFFFFFF
310
FFFFFFFFFFFFFFFFFFFFFFFFFFFFFFFFFFFFFFFFFFFFFFFFFFFFFFFFFFFFFFFF
310
FFFFFFFFFFFFFFFFFFFFFFFFFFFFFFFFFFFFFFFFFFFFFFFFFFFFFFFFFFFFFFFF
310
FFFFFFFFFFFFFFFFFFFFFFFFFFFFFFFFFFFFFFFFFFFFFFFFFFFFFFFFFFFFFFFF
310
FFFFFFFFFFFFFFFFFFFFFFFFFFFFFFFFFFFFFFFFFFFFFFFFFFFFFFFFFFFFFFFF
310
FFFFFFFFFFFFFFFFFFFFFFFFFFFFFFFFFFFFFFFFFFFFFFFFFFFFFFFFFFFFFFFF
310
FFFFFFFFFFFFFFFFFFFFFFFFFFFFFFFFFFFFFFFFFFFFFFFFFFFFFFFFFFFFFFFF
310
FFFFFFFFFFFFFFFFFFFFFFFFFFFFFFFFFFFFFFFFFFFFFFFFFFFFFFFFFFFFFFFF
310
FFFFFFFFFFFFFFFFFFFFFFFFFFFFFFFFFFFFFFFFFFFFFFFFFFFFFFFFFFFFFFFF
310
FFFFFFFFFFFFFFFFFFFFFFFFFFFFFFFFFFFFFFFFFFFFFFFFFFFFFFFFFFFFFFFF
310
FFFFFFFFFFFFFFFFFFFFFFFFFFFFFFFFFFFFFFFFFFFFFFFFFFFFFFFFFFFFFFFF
310
FFFFFFFFFFFFFFFFFFFFFFFFFFFFFFFFFFFFFFFFFFFFFFFFFFFFFFFFFFFFFFFF
310
FFFFFFFFFFFFFFFFFFFFFFFFFFFFFFFFFFFFFFFFFFFFFFFFFFFFFFFFFFFFFFFF
310
FFFFFFFFFFFFFFFFFFFFFFFFFFFFFFFFFFFFFFFFFFFFFFFFFFFFFFFFFFFFFFFF
310
FDFFFFFFFEFFFFFFFEFFFFFFFEFFFFFF05000000060000000700000008000000
310
090000000A0000000B0000000C0000000D0000000E0000000F00000010000000
310
11000000120000001300000014000000150000001600000017000000FEFFFFFF
310
FFFFFFFFFFFFFFFFFFFFFFFFFFFFFFFFFFFFFFFFFFFFFFFFFFFFFFFFFFFFFFFF
310
FFFFFFFFFFFFFFFFFFFFFFFFFFFFFFFFFFFFFFFFFFFFFFFFFFFFFFFFFFFFFFFF
310
FFFFFFFFFFFFFFFFFFFFFFFFFFFFFFFFFFFFFFFFFFFFFFFFFFFFFFFFFFFFFFFF
310
FFFFFFFFFFFFFFFFFFFFFFFFFFFFFFFFFFFFFFFFFFFFFFFFFFFFFFFFFFFFFFFF
310
FFFFFFFFFFFFFFFFFFFFFFFFFFFFFFFFFFFFFFFFFFFFFFFFFFFFFFFFFFFFFFFF
310
FFFFFFFFFFFFFFFFFFFFFFFFFFFFFFFFFFFFFFFFFFFFFFFFFFFFFFFFFFFFFFFF
310
FFFFFFFFFFFFFFFFFFFFFFFFFFFFFFFFFFFFFFFFFFFFFFFFFFFFFFFFFFFFFFFF
310
FFFFFFFFFFFFFFFFFFFFFFFFFFFFFFFFFFFFFFFFFFFFFFFFFFFFFFFFFFFFFFFF
310
FFFFFFFFFFFFFFFFFFFFFFFFFFFFFFFFFFFFFFFFFFFFFFFFFFFFFFFFFFFFFFFF
310
FFFFFFFFFFFFFFFFFFFFFFFFFFFFFFFFFFFFFFFFFFFFFFFFFFFFFFFFFFFFFFFF
310
FFFFFFFFFFFFFFFFFFFFFFFFFFFFFFFFFFFFFFFFFFFFFFFFFFFFFFFFFFFFFFFF
310
FFFFFFFFFFFFFFFFFFFFFFFFFFFFFFFFFFFFFFFFFFFFFFFFFFFFFFFFFFFFFFFF
310
FFFFFFFFFFFFFFFFFFFFFFFFFFFFFFFFFFFFFFFFFFFFFFFFFFFFFFFFFFFFFFFF
310
52006F006F007400200045006E00740072007900000000000000000000000000
310
0000000000000000000000000000000000000000000000000000000000000000
310
16000500FFFFFFFFFFFFFFFF020000000A00030000000000C000000000000046
310
000000000000000000000000A0913837C614D20103000000C000000000000000
310
01004F006C006500000000000000000000000000000000000000000000000000
310
0000000000000000000000000000000000000000000000000000000000000000
310
0A000200FFFFFFFFFFFFFFFFFFFFFFFF00000000000000000000000000000000
310
0000000000000000000000000000000000000000000000001400000000000000
310
010043006F006D0070004F0062006A0000000000000000000000000000000000
310
0000000000000000000000000000000000000000000000000000000000000000
310
120002010100000003000000FFFFFFFF00000000000000000000000000000000
310
0000000000000000000000000000000000000000010000004D00000000000000
310
01004F006C006500310030004E00610074006900760065000000000000000000
310
0000000000000000000000000000000000000000000000000000000000000000
310
1A000200FFFFFFFFFFFFFFFFFFFFFFFF00000000000000000000000000000000
310
0000000000000000000000000000000000000000040000002426000000000000
310
FEFFFFFF02000000FEFFFFFFFFFFFFFFFFFFFFFFFFFFFFFFFFFFFFFFFFFFFFFF
310
FFFFFFFFFFFFFFFFFFFFFFFFFFFFFFFFFFFFFFFFFFFFFFFFFFFFFFFFFFFFFFFF
310
FFFFFFFFFFFFFFFFFFFFFFFFFFFFFFFFFFFFFFFFFFFFFFFFFFFFFFFFFFFFFFFF
310
FFFFFFFFFFFFFFFFFFFFFFFFFFFFFFFFFFFFFFFFFFFFFFFFFFFFFFFFFFFFFFFF
310
FFFFFFFFFFFFFFFFFFFFFFFFFFFFFFFFFFFFFFFFFFFFFFFFFFFFFFFFFFFFFFFF
310
FFFFFFFFFFFFFFFFFFFFFFFFFFFFFFFFFFFFFFFFFFFFFFFFFFFFFFFFFFFFFFFF
310
FFFFFFFFFFFFFFFFFFFFFFFFFFFFFFFFFFFFFFFFFFFFFFFFFFFFFFFFFFFFFFFF
310
FFFFFFFFFFFFFFFFFFFFFFFFFFFFFFFFFFFFFFFFFFFFFFFFFFFFFFFFFFFFFFFF
310
FFFFFFFFFFFFFFFFFFFFFFFFFFFFFFFFFFFFFFFFFFFFFFFFFFFFFFFFFFFFFFFF
310
FFFFFFFFFFFFFFFFFFFFFFFFFFFFFFFFFFFFFFFFFFFFFFFFFFFFFFFFFFFFFFFF
310
FFFFFFFFFFFFFFFFFFFFFFFFFFFFFFFFFFFFFFFFFFFFFFFFFFFFFFFFFFFFFFFF
310
FFFFFFFFFFFFFFFFFFFFFFFFFFFFFFFFFFFFFFFFFFFFFFFFFFFFFFFFFFFFFFFF
310
FFFFFFFFFFFFFFFFFFFFFFFFFFFFFFFFFFFFFFFFFFFFFFFFFFFFFFFFFFFFFFFF
310
FFFFFFFFFFFFFFFFFFFFFFFFFFFFFFFFFFFFFFFFFFFFFFFFFFFFFFFFFFFFFFFF
310
FFFFFFFFFFFFFFFFFFFFFFFFFFFFFFFFFFFFFFFFFFFFFFFFFFFFFFFFFFFFFFFF
310
FFFFFFFFFFFFFFFFFFFFFFFFFFFFFFFFFFFFFFFFFFFFFFFFFFFFFFFFFFFFFFFF
310
0100000200000000000000000000000000000000000000000000000000000000
310
0000000000000000000000000000000000000000000000000000000000000000
310
0100FEFF030A0000FFFFFFFF0A00030000000000C00000000000004607000000
310
5042727573680007000000504272757368000700000050427275736800F439B2
310
7100000000000000000000000000000000000000000000000000000000000000
310
0000000000000000000000000000000000000000000000000000000000000000
310
0000000000000000000000000000000000000000000000000000000000000000
310
0000000000000000000000000000000000000000000000000000000000000000
310
0000000000000000000000000000000000000000000000000000000000000000
310
0000000000000000000000000000000000000000000000000000000000000000
310
0000000000000000000000000000000000000000000000000000000000000000
310
0000000000000000000000000000000000000000000000000000000000000000
310
0000000000000000000000000000000000000000000000000000000000000000
310
0000000000000000000000000000000000000000000000000000000000000000
310
0000000000000000000000000000000000000000000000000000000000000000
310
0000000000000000000000000000000000000000000000000000000000000000
310
20260000424D0E260000000000003E00000028000000B40200006E0000000100
310
01000000000000000000130B0000130B00000200000002000000000000FFFFFF
310
FFFFFFFFFFFFFFFFFFFFFFFFFFFFFFFFFFFFFFFFFFFFFFFFFFFFFFFFFFFFFFFF
310
FFFFFFFFFFFFFFFFFFFFFFFFFFFFFFFFFFFFFFFFFFFFFFFFFFFFFFFFFFFFFFFF
310
FFFFFFFFFFFFFFFFFFFFFFFFFFFFFFFFFFFFFFFFFFFFFFFFF000FFFFFFFFFFFF
310
FFFFFFFFFFFFFFFFFFFFFFFFFFFFFFFFFFFFFFFFFFFFFFFFFFFFFFFFFFFFFFFF
310
FFFFFFFFFFFFFFFFFFFFFFFFFFFFFFFFFFFFFFFFFFFFFFFFFFFFFFFFFFFFFFFF
310
FFFFFFFFFFFFFFFFFFFFFFFFFFFFFFFFF000FFFFFFFFFFFFFFFFFFFFFFFFFFFF
310
FFFFFFFFFFFFFFFFFFFFFFFFFFFFFFFFFFFFFFFFFFFFFFFFFFFFFFFFFFFFFFFF
310
FFFFFFFFFFFFFFFFFFFFFFFFFFFFFFFFFFFFFFFFFFFFFFFFFFFFFFFFFFFFFFFF
310
FFFFFFFFFFFFFFFFF000FFFFFFFFFFFFFFFFFFFFFFFFFFFFFFFFFFFFFFFFFFFF
310
FFFFFFFFFFFFFFFFFFFFFFFFFFFFFFFFFFFFFFFFFFFFFFFFFFFFFFFFFFFFFFFF
310
FFFFFFFFFFFFFFFFFFFFFFFFFFFFFFFFFFFFFFFFFFFFFFFFFFFFFFFFFFFFFFFF
310
F000FFFFFFFFFFFFFFFFFFFFFFFFFFFFFFFFFFFFFFFFFFFFFFFFFFFFFFFFFFFF
310
FFFFFFFFFFFFFFFFFFFFFFFFFFFFFFFFFFFFFFFFFFFFFFFFFFFFFFFFFFFFFFFF
310
FFFFFFFFFFFFFFFFFFFFFFFFFFFFFFFFFFFFFFFFFFFFFFFFF000FFFFFFFFFFFF
310
FFFFFFFFFFFFFFFFFFFFFFFFFFFFFFFFFFFFFFFFFFFFFFFFFFFFFFFFFFFFFFFF
310
FFFFFFFFFFFFFFFFFFFFFFFFFFFFFFFFFFFFFFFFFFFFFFFFFFFFFFFFFFFFFFFF
310
FFFFFFFFFFFFFFFFFFFFFFFFFFFFFFFFF000FFFFFFFFFFFFFFFFFFFFFFFFFFFF
310
FFFFFFFFFFFFFFFFFFFFFFFFFFFFFFFFFFFFFFFFFFFFFFFFFFFFFFFFFFFFFFFF
310
FFFFFFFFFFFFFFFFFFFFFFFFFFFFFFFFFFFFFFFFFFFFFFFFFFFFFFFFFFFFFFFF
310
FFFFFFFFFFFFFFFFF000FFFFFFFFFFFFFFFFFFFFFFFFFFFFFFFFFFFFFFFFFFFF
310
FFFFFFFFFFFFFFFFFFFFFFFFFFFFFFFFFFFFFFFFFFFFFFFFFFFFFFFFFFFFFFFF
310
FFFFFFFFFFFFFFFFFFFFFFFFFFFFFFFFFFFFFFFFFFFFFFFFFFFFFFFFFFFFFFFF
310
F000FFFFFFFFFFFFFFFFFFFFFFFFFFFFFFFFFFFFFFFFFFFFFFFFFFFFFFFFFFFF
310
FFFFFFFFFFFFFFFFFFFFFFFFFFFFFFFFFFFFFFFFFFFFFFFFFFFFFFFFFFFFFFFF
310
FFFFFFFFFFFFFFFFFFFFFFFFFFFFFFFFFFFFFFFFFFFFFFFFF000FFFFFFFFFFFF
310
FFFFFFFFFFFFFFFFFFFFFFFFFFFFFFFFFFFFFFFFFFFFFFFFFFFFFFFFFFFFFFFF
310
FFFFFFFFFFFFFFFFFFFFFFFFFFFFFFFFFFFFFFFFFFFFFFFFFFFFFFFFFFFFFFFF
310
FFFFFFFFFFFFFFFFFFFFFFFFFFFFFFFFF000FFFFFFFFFFFFFFFFFFFFFFFFFFFF
310
FFFFFFFFFFFFFFFFFFFFFFFFFFFFFFFFFFFFFFFFFFFFFFFFFFFFFFFFFFFFFFFF
310
FFFFFFFFFFFFFFFFFFFFFFFFFFFFFFFFFFFFFFFFFFFFFFFFFFFFFFFFFFFFFFFF
310
FFFFFFFFFFFFFFFFF000FFFFFFFFFFFFFFFFFFFFFFFFFFFFFFFFFFFFFFFFFFFF
310
FFFFFFFFFFFFFFFFFFFFFFFFFFFFFFFFFFFFFFFFFFFFFFFFFFFFFFFFFFFFFFFF
310
FFFFFFFFFFFFFFFFFFFFFFFFFFFFFFFFFFFFFFFFFFFFFFFFFFFFFFFFFFFFFFFF
310
F000FFFFFFFFFFFFFFFFFFFFFFFFFFFFFFFFFFFFFFFFFFFFFFFFFFFFFFFFFFFF
310
FFFFFFFFFFFFFFFFFFFFFFFFFFFFFFFFFFFFFFFFFFFFFFFFFFFFFFFFFFFFFFFF
310
FFFFFFFFFFFFFFFFFFFFFFFFFFFFFFFFFFFFFFFFFFFFFFFFF000FFFFFFFFFFFF
310
FFFFFFFFFFFFFFFFFFFFFFFFFFFFFFFFFFFFFFFFFFFFFFFFFFFFFFFFFFFFFFFF
310
FFFFFFFFFFFFFFFFFFFFFFFFFFFFFFFFFFFFFFFFFFFFFFFFFFFFFFFFFFFFFFFF
310
FFFFFFFFFFFFFFFFFFFFFFFFFFFFFFFFF000FFFFFFFFFFFFFFFFFFFFFFFFFFFF
310
FFFFFFFFFFFFFFFFFFFFFFFFFFFFFFFFFFFFFFFFFFFFFFFFFFFFFFFFFFFFFFFF
310
FFFFFFFFFFFFFFFFFFFFFFFFFFFFFFFFFFFFFFFFFFFFFFFFFFFFFFFFFFFFFFFF
310
FFFFFFFFFFFFFFFFF000FFFFFFFFFFFFFFFFFFFFFFFFFFFFFFFFFFFFFFFFFFFF
310
FFFFFFFFFFFFFFFFFFFFFFFFFFFFFFFFFFFFFFFFFFFFFFFFFFFFFFFFFFFFFFFF
310
FFFFFFFFFFFFFFFFFFFFFFFFFFFFFFFFFFFFFFFFFFFFFFFFFFFFFFFFFFFFFFFF
310
F000FFFFFFFFFFFFFFFFFFFFFFFFFFFFFFFFFFFFFFFFFFFFFFFFFFFFFFFFFFFF
310
FFFFFFFFFFFFFFFFFFFFFFFFFFFFFFFFFFFFFFFFFFFFFFFFFFFFFFFFFFFFFFFF
310
FFFFFFFFFFFFFFFFFFFFFFFFFFFFFFFFFFFFFFFFFFFFFFFFF000FFFFFFFFFFFF
310
FFFFFFFFFFFFFFFFFFFFFFFFFFFFFFFFFFFFFFFFFFFFFFFFFFFFFFFFFFFFFFFF
310
FFFFFFFFFFFFFFFFFFFFFFFFFFFFFFFFFFFFFFFFFFFFFFFFFFFFFFFFFFFFFFFF
310
FFFFFFFFFFFFFFFFFFFFFFFFFFFFFFFFF000FFFFFFFFFFFFFFFFFFFFFFFFFFFF
310
FFFFFFFFFFFFFFFFFFFFFFFFFFFFFFFFFFFFFFFFFFFFFFFFFFFFFFFFFFFFFFFF
310
FFFFFFFFFFFFFFFFFFFFFFFFFFFFFFFFFFFFFFFFFFFFFFFFFFFFFFFFFFFFFFFF
310
FFFFFFFFFFFFFFFFF000FFFFF80003FFFFFFFFFFFFFFFFFFFFFFFFFFFFFFFFFF
310
FFFFF00007FFFFFFFFFF00007FFFFFF800000000000000007FFFFFFFFFFFFFFF
310
FFFFFFFC001FFFFFFFFFFFFFFC001FFFFFFFFFFFFFFFFFFFFFFFFFFE0007FFFF
310
F000FFFF8000007FFFFFFFF8000FFFFFC0007FFFFF80007FFFFF0000007FFFFF
310
FFF8000007FFFFF800000000000000007FFFFFF0001FFFFFFFFFFFC00001FFFF
310
FFFFFFFFC00001FFFFFFFF000000000003FFFFE000007FFFF000FFFE0000000F
310
FFFFFFF0000FFFFF80007FFFFF80007FFFFC0000001FFFFFFFC0000001FFFFF8
310
00000000000000007FFFFFF0001FFFFFFFFFFE0000003FFFFFFFFFFE0000003F
310
FFFFFF000000000003FFFF0000000FFFF000FFF800000003FFFFFFF00007FFFF
310
80007FFFFF80007FFFF000000007FFFFFF000000003FFFF80000000000000000
310
7FFFFFF0001FFFFFFFFFF80000000FFFFFFFFFF80000000FFFFFFF0000000000
310
03FFFC00000003FFF000FFE000000000FFFFFFF00007FFFF80003FFFFF80007F
310
FFC000000001FFFFFC000000001FFFF800000000000000007FFFFFF0001FFFFF
310
FFFFE000000003FFFFFFFFE000000003FFFFFF000000000003FFF000000000FF
310
F000FF80000000007FFFFFF00007FFFF80003FFFFF80007FFF8000000000FFFF
310
F80000000007FFF800000000000000007FFFFFF0001FFFFFFFFFC000000001FF
310
FFFFFFC000000001FFFFFF000000000003FFC0000000007FF000FF0000000000
310
3FFFFFE00007FFFF00003FFFFF80007FFE00000000003FFFF00000000003FFF8
310
00000000000000007FFFFFF0001FFFFFFFFF8000000000FFFFFFFF8000000000
310
FFFFFF000000000003FF80000000003FF000FE00000000001FFFFFE00003FFFF
310
00003FFFFF80007FFC00000000001FFFE00000000001FFF8000001FFFE000000
310
7FFFFFF0001FFFFFFFFE00000000003FFFFFFE00000000003FFFFF0000000000
310
03FF00000000001FF000FC00000000000FFFFFE00003FFFF00001FFFFF80007F
310
F800000000001FFFC00000000000FFF8000001FFFE0000007FFFFFF0001FFFFF
310
FFFC00000000001FFFFFFC00000000001FFFFF000000000003FE00000000000F
310
F000F8000000000007FFFFE00003FFFF00001FFFFF80007FF800000000000FFF
310
800000000000FFF8000001FFFE0000007FFFFFF0001FFFFFFFF800000000000F
310
FFFFF800000000000FFFFF000000000003FC000000000007F000F80000000000
310
03FFFFC00003FFFE00001FFFFF80007FF0000000000007FF0000000000007FF8
310
000001FFFE0000007FFFFFF0001FFFFFFFF0000000000007FFFFF00000000000
310
07FFFF000000000003F8000000000003F000F0000000000003FFFFC00001FFFE
310
00001FFFFF80007FE0000000000007FE0000000000003FF8000001FFFE000000
310
7FFFFFF0001FFFFFFFF0000000000007FFFFF0000000000007FFFF0000000000
310
03F800001F800003F000E00001FFF00001FFFFC00001FFFE00000FFFFF80007F
310
E00001FFE00003FE00001FFF00003FF8000001FFFE0000007FFFFFF0001FFFFF
310
FFE000003E000003FFFFE000003E000003FFFF000000000003F00001FFF80001
310
F000E00007FFFC0001FFFFC00001FFFE00000FFFFF80007FC0000FFFFC0003FC
310
0000FFFFC0001FF8000001FFFE0000007FFFFFF0001FFFFFFFC00003FFE00001
310
FFFFC00003FFE00001FFFF0001FFFFFFFFF00007FFFE0001F000E0000FFFFF00
310
00FFFF800001FFFC00000FFFFF80007FC0001FFFFE0001FC0001FFFFE0001FF8
310
000001FFFE0000007FFFFFF0001FFFFFFF80000FFFF80000FFFF80000FFFF800
310
00FFFF0003FFFFFFFFE0000FFFFF8000F000C0003FFFFF8000FFFF800000FFFC
310
000007FFFF80007F80003FFFFF0001FC0003FFFFF0001FF8000001FFFE000000
310
7FFFFFF0001FFFFFFF80003FFFFE0000FFFF80003FFFFE0000FFFF0003FFFFFF
310
FFE0003FFFFF8000F000C0003FFFFF8000FFFF800000FFFC000007FFFF80007F
310
80007FFFFF8001F80007FFFFF8000FF8000001FFFE0000007FFFFFF0001FFFFF
310
FF00007FFFFF00007FFF00007FFFFF00007FFF0003FFFFFFFFE0003FFFFFC000
310
F000C0007FFFFFC000FFFF000000FFFC000007FFFF80007F8000FFFFFF8000F8
310
000FFFFFF8000FF8000001FFFE0000007FFFFFF0001FFFFFFF0000FFFFFF8000
310
7FFF0000FFFFFF80007FFF0003FFFFFFFFC0007FFFFFC00070008000FFFFFFC0
310
00FFFF000000FFF8000007FFFF80007F8000FFFFFF8000F8000FFFFFF8000FF8
310
000001FFFE0000007FFFFFF0001FFFFFFE0001FFFFFFC0003FFE0001FFFFFFC0
310
003FFF0003FFFFFFFFC0007FFFFFE00070008000FFFFFFC0007FFF0000007FF8
310
000003FFFF80007F0001FFFFFF8000F8000FFFFFF8000FF8000001FFFE000000
310
7FFFFFF0001FFFFFFE0001FFFFFFC0003FFE0001FFFFFFC0003FFF0003FFFFFF
310
FFC000FFFFFFE00070008000FFFFFFC0007FFF0000007FF8000003FFFF80007F
310
0001FFFFFF8000F8001FFFFFF8000FF8000001FFFE0000007FFFFFF0001FFFFF
310
FE0003FFFFFFE0003FFE0003FFFFFFE0003FFF0003FFFFFFFFC000FFFFFFE000
310
70008000FFFFFFC0007FFE0000007FF8000003FFFF80007F0001FFFFFF8000F0
310
001FFFFFF8000FF8000001FFFE0000007FFFFFF0001FFFFFFC0003FFFFFFE000
310
1FFC0003FFFFFFE0001FFF0003FFFFFFFFC000FFFFFFC00070008000FFFFFF80
310
007FFE0000007FF0000003FFFF80007F0001FFFFFF0000F0001FFFFFF8000FF8
310
000001FFFE0000007FFFFFF0001FFFFFFC0007FFFFFFF0001FFC0007FFFFFFF0
310
001FFF0003FFFFFFFFC000FFFFFFC00070008001FFFFFF0000FFFE0000003FF0
310
000001FFFF80007F0001FFFFFF0000F8001FFFFFF0000FF8000001FFFE000000
310
7FFFFFF0001FFFFFFC0007FFFFFFF0001FFC0007FFFFFFF0001FFF0003FFFFFF
310
FFC001FFFFFF80007000FFFFFFFFFE0000FFFE0008003FF0008001FFFF80007F
310
FFFFFFFFFC0000FFFFFFFFFFE0000FF8000001FFFE0000007FFFFFF0001FFFFF
310
F8000FFFFFFFF8000FF8000FFFFFFFF8000FFF0003FFFFFFFFFFFFFFFFFF0000
310
7000FFFFFFFFFC0000FFFC0008003FF0008001FFFF80007FFFFFFFFFF80001FF
310
FFFFFFFF80000FF8000001FFFE0000007FFFFFF0001FFFFFF8000FFFFFFFF800
310
0FF8000FFFFFFFF8000FFF0003FFFFFFFFFFFFFFFFFE0000F000FFFFFFFFE000
310
00FFFC000C003FE000C001FFFF80007FFFFFFFFFC00001FFFFFFFFFE00001FF8
310
000001FFFE0000007FFFFFF0001FFFFFF8000FFFFFFFF8000FF8000FFFFFFFF8
310
000FFF0003FFFFFFFFFFFFFFFFF00000F000FFFFFFFE000001FFFC000C001FE0
310
00C000FFFF80007FFFFFFFFE000001FFFFFFFFE000001FF80FFFFFFFFFFFFFC0
310
7FFFFFF0001FFFFFF8000FFFFFFFF8000FF8000FFFFFFFF8000FFF0003FFFFFF
310
FFFFFFFFFF800000F000FFFFFFC0000001FFFC001C001FE001C000FFFF80007F
310
FFFFFF80000003FFFFFFF80000001FF80FFFFFFFFFFFFFC07FFFFFF0001FFFFF
310
F8001FFFFFFFFC000FF8001FFFFFFFFC000FFF0003FFFFFFFFFFFFFFF0000001
310
F000FFFFF800000001FFF8001C001FE001C000FFFF80007FFFFFF800000003FF
310
FFFF800000003FF80FFFFFFFFFFFFFC07FFFFFF0001FFFFFF8001FFFFFFFFC00
310
0FF8001FFFFFFFFC000FFF0003FFFFFFFFFFFFFE00000001F000FFFFC0000000
310
03FFF8001E001FC001E000FFFF80007FFFFF8000000007FFFFFC000000003FF8
310
0FFFFFFFFFFFFFC07FFFFFF0001FFFFFF8001FFFFFFFFC000FF8001FFFFFFFFC
310
000FFF0003FFFFFFFFFFFFE000000003F000FFFE0000000007FFF8001E000FC0
310
01E0007FFF80007FFFFE0000000007FFFFE0000000007FF80FFFFFFFFFFFFFC0
310
7FFFFFF0001FFFFFF0001FFFFFFFFC0007F0001FFFFFFFFC0007FF0003FFFFFF
310
FFFFFF0000000003F000FFF80000000007FFF8001E000FC003E0007FFF80007F
310
FFF0000000000FFFFF8000000000FFF80FFFFFFFFFFFFFC07FFFFFF0001FFFFF
310
F0001FFFFFFFFC0007F0001FFFFFFFFC0007FF0003FFFFFFFFFFFC0000000007
310
F000FFE0000000000FFFF0003E000FC003E0007FFF80007FFFC0000000001FFF
310
FE0000000001FFF80FFFFFFFFFFFFFC07FFFFFF0001FFFFFF0001FFFFFFFFC00
310
07F0001FFFFFFFFC0007FF0003FFFFFFFFFFF0000000000FF000FFC000000000
310
1FFFF0003F000F8003F0003FFF80007FFF80000000003FFFF80000000003FFF8
310
0FFFFFFFFFFFFFC07FFFFFF0001FFFFFF0001FFFFFFFFC0007F0001FFFFFFFFC
310
0007FF0003FFFFFFFFFFE0000000001FF000FF00000000007FFFF0003F000780
310
03F0003FFF80007FFF00000000007FFFF00000000007FFF80FFFFFFFFFFFFFC0
310
7FFFFFF0001FFFFFF0001FFFFFFFFC0007F0001FFFFFFFFC0007FF0003FFFFFF
310
FFFF80000000007FF000FE0000000000FFFFE0003F00078007F0003FFF80007F
310
FE0000000001FFFFE0000000001FFFF80FFFFFFFFFFFFFC07FFFFFF0001FFFFF
310
F0001FFFFFFFFC0007F0001FFFFFFFFC0007FF0003FFFFFFFFFF0000000000FF
310
F000FC0000000003FFFFE0007F00078007F0003FFF80007FFC0000000007FFFF
310
C0000000007FFFF80FFFFFFFFFFFFFC07FFFFFF0001FFFFFF8001FFFFFFFFC00
310
0FF8001FFFFFFFFC000FFF0003FFFFFFFFFE0000000003FFF000FC000000000F
310
FFFFE0007F80070007F8001FFF80007FF8000000001FFFFF8000000001FFFFF8
310
0FFFFFFFFFFFFFC07FFFFFF0001FFFFFF8001FFFFFFFFC000FF8001FFFFFFFFC
310
000FFF0003FFFFFFFFFC000000000FFFF000F8000000007FFFFFE0007F800700
310
07F8001FFF80007FF000000000FFFFFF800000000FFFFFF80FFFFFFFFFFFFFC0
310
7FFFFFF0001FFFFFF8000FFFFFFFF8000FF8000FFFFFFFF8000FFF0003FFFFFF
310
FFFC000000007FFFF000F800000007FFFFFFC0007F8003000FF8001FFF80007F
310
F000000007FFFFFF000000007FFFFFF80FFFFFFFFFFFFFC07FFFFFF0001FFFFF
310
F8000FFFFFFFF8000FF8000FFFFFFFF8000FFF0003FFFFFFFFF80000000FFFFF
310
F000F0000000FFFFFFFFC000FF8003000FF8001FFF80007FE0000000FFFFFFFF
310
0000000FFFFFFFF8000001FFFE0000007FFFFFF0001FFFFFF8000FFFFFFFF800
310
0FF8000FFFFFFFF8000FFF0003FFFFFFFFF8000000FFFFFFF000F000000FFFFF
310
FFFFC000FFC002000FF8000FFF80007FE000001FFFFFFFFE000001FFFFFFFFF8
310
000001FFFE0000007FFFFFF0001FFFFFF8000FFFFFFFF8000FF8000FFFFFFFF8
310
000FFF0003FFFFFFFFF000001FFFFFFFF000E00000FFFFFFFFFFC000FFC00200
310
0FFC000FFF80007FE00001FFFFFFFFFE00001FFFFFFFFFF8000001FFFE000000
310
7FFFFFF0001FFFFFFC000FFFFFFFF8001FFC000FFFFFFFF8001FFF0003FFFFFF
310
FFF00001FFFFFFFFF000E00007FFFFFFFFFF8000FFC000001FFC000FFF80007F
310
C0000FFFFFFFFFFE0000FFFFFFFFFFF8000001FFFE0000007FFFFFF0001FFFFF
310
FC0007FFFFFFF0001FFC0007FFFFFFF0001FFF0003FFFFFFFFF00007FFFFFFFF
310
F000E0001FFFFFFFFFFF8000FFC000001FFC000FFF80007FC0003FFFFFFFFFFE
310
0001FFFFFFFFFFF8000001FFFE0000007FFFFFF0001FFFFFFC0007FFFFFFF000
310
1FFC0007FFFFFFF0001FFF0003FFFFFFFFF0001FFFFFFFFFF000E0003FFFFF00
310
03FF8001FFE000001FFC0007FF80007FC0007FFFFF0007FC0003FFFFF0003FF8
310
000001FFFE0000007FFFFFF0001FFFFFFC0003FFFFFFE0001FFC0003FFFFFFE0
310
001FFF0003FFFFFFFFF0003FFFFFFFFFF000E0003FFFFF0001FF8001FFE00000
310
1FFE0007FF80007FC0007FFFFE0003FC0007FFFFE0003FF8000001FFFE000000
310
7FFFFFF0001FFFFFFE0003FFFFFFE0003FFE0003FFFFFFE0003FFF0003FFFFFF
310
FFF0003FFFFF8001F000E0003FFFFF0001FF0001FFE000001FFE0007FF80007F
310
C0007FFFFE0003FC0007FFFFE0003FF8000001FFFE0000007FFFFFF0001FFFFF
310
FE0001FFFFFFC0003FFE0001FFFFFFC0003FFF0003FFFFFFFFF0003FFFFF0001
310
F000E0003FFFFF0003FF0001FFE000003FFE0007FF80007FC0007FFFFE0003FC
310
0007FFFFE0003FF8000001FFFE0000007FFFFFF0001FFFFFFF0001FFFFFFC000
310
7FFF0001FFFFFFC0007FFF0003FFFFFFFFF0003FFFFF0001F000E0003FFFFE00
310
03FF0003FFF000003FFE0003FF80007FC0007FFFFC0003FE0007FFFFE0003FF8
310
000001FFFE0000007FFFFFF0001FFFFFFF0000FFFFFF80007FFF0000FFFFFF80
310
007FFF0003FFFFFFFFF0003FFFFF0001F000E0003FFFFE0003FF0003FFF00000
310
3FFF0003FF80007FC0007FFFFC0007FE0007FFFFC0003FF8000001FFFE000000
310
7FFFFFF0001FFFFFFF80007FFFFF0000FFFF80007FFFFF0000FFFF0003FFFFFF
310
FFF0003FFFFF0003F000E0003FFFFC0003FE0003FFF000003FFF0003FF80007F
310
E0003FFFF80007FE0003FFFFC0007FF8000001FFFE0000007FFFFFF0001FFFFF
310
FF80003FFFFE0000FFFF80003FFFFE0000FFFF0003FFFFFFFFF0001FFFFE0003
310
F000F0001FFFF80003FE0003FFF000007FFF0001FF80007FE0003FFFF00007FE
310
0001FFFF80007FF8000001FFFE0000007FFFFFF0001FFFFFFFC0000FFFF80001
310
FFFFC0000FFFF80001FFFF0003FFFFFFFFF0001FFFFC0003F000F0000FFFF000
310
07FE0007FFF800007FFF0001FF80007FE0001FFFE00007FF0000FFFE00007FF8
310
000001FFFE0000007FFFFFF0001FFFFFFFC00003FFE00001FFFFC00003FFE000
310
01FFFF0003FFFFFFFFF8000FFFF80003F000F00003FFC00007FC0007FFF80000
310
7FFF8001FF80007FF00007FF80000FFF00007FF80000FFF8000001FFFE000000
310
7F80000000000001FFE000003E000003FFFFE000003E000003FFFF0003FFFFFF
310
FFF80003FFE00007F000F800000000000FFC0007FFF800007FFF8001FF80007F
310
F000000000000FFF000000000000FFF8000001FFFE0000007F80000000000001
310
FFF0000000000007FFFFF0000000000007FFFF0003FFFFFFFFFC00007E000007
310
F000F800000000000FFC0007FFF80000FFFF8000FF80007FF800000000001FFF
310
800000000001FFF8000001FFFE0000007F80000000000001FFF800000000000F
310
FFFFF800000000000FFFFF0003FFFFFFFFFC00000000000FF000FC0000000000
310
1FFC0007FFFC0000FFFF8000FF80007FF800000000003FFFC00000000001FFF8
310
000001FFFE0000007F80000000000001FFF800000000000FFFFFF80000000000
310
0FFFFF0003FFFFFFFFFE00000000001FF000FE00000000003FF8000FFFFC0000
310
FFFF8000FF80007FFC00000000003FFFC00000000003FFF8000001FFFE000000
310
7F80000000000001FFFC00000000001FFFFFFC00000000001FFFFF0003FFFFFF
310
FFFF00000000001FF000FF00000000003FF8000FFFFC0000FFFFC000FF80007F
310
FE00000000007FFFE00000000007FFF8000001FFFE0000007F80000000000001
310
FFFE00000000003FFFFFFE00000000003FFFFF0003FFFFFFFFFF80000000003F
310
F000FF80000000007FF8000FFFFC0001FFFFC0007F80007FFF0000000000FFFF
310
F0000000000FFFF800000000000000007F80000000000001FFFF8000000000FF
310
FFFFFF8000000000FFFFFF0003FFFFFFFFFFC0000000007FF000FFC000000000
310
FFF8000FFFFE0001FFFFC0007F80007FFF8000000001FFFFF8000000001FFFF8
310
00000000000000007F80000000000001FFFFC000000001FFFFFFFFC000000001
310
FFFFFF0003FFFFFFFFFFE000000000FFF000FFE000000003FFF0001FFFFE0001
310
FFFFC0007F80007FFFC000000007FFFFFE000000003FFFF80000000000000000
310
7F80000000000001FFFFE000000003FFFFFFFFE000000003FFFFFF0003FFFFFF
310
FFFFF000000003FFF000FFF80000000FFFF0001FFFFE0001FFFFE0007F80007F
310
FFF00000000FFFFFFF00000000FFFFF800000000000000007F80000000000001
310
FFFFF80000000FFFFFFFFFF80000000FFFFFFF0003FFFFFFFFFFFC0000000FFF
310
F000FFFE0000003FFFF0001FFFFE0003FFFFE0003F80007FFFFC0000003FFFFF
310
FFC0000003FFFFF800000000000000007F80000000000001FFFFFE0000003FFF
310
FFFFFFFE0000003FFFFFFF0003FFFFFFFFFFFF0000003FFFF000FFFF800000FF
310
FFF0001FFFFF0003FFFFE0003F80007FFFFF000001FFFFFFFFF800001FFFFFF8
310
00000000000000007F80000000000001FFFFFFC00001FFFFFFFFFFFFC00001FF
310
FFFFFF0003FFFFFFFFFFFFC00000FFFFF000FFFFF8000FFFFFFFFFFFFFFFFFFF
310
FFFFFFFFFFFFFFFFFFFFF0001FFFFFFFFFFF0000FFFFFFF80000000000000000
310
7FFFFFFFFFFFFFFFFFFFFFFC001FFFFFFFFFFFFFFC001FFFFFFFFFFFFFFFFFFF
310
FFFFFFFC001FFFFFF000FFFFFFFFFFFFFFFFFFFFFFFFFFFFFFFFFFFFFFFFFFFF
310
FFFFFFFFFFFFFFFFFFFFFFFFFFFFFFFFFFFFFFFFFFFFFFFFFFFFFFFFFFFFFFFF
310
FFFFFFFFFFFFFFFFFFFFFFFFFFFFFFFFFFFFFFFFFFFFFFFFFFFFFFFFFFFFFFFF
310
F000FFFFFFFFFFFFFFFFFFFFFFFFFFFFFFFFFFFFFFFFFFFFFFFFFFFFFFFFFFFF
310
FFFFFFFFFFFFFFFFFFFFFFFFFFFFFFFFFFFFFFFFFFFFFFFFFFFFFFFFFFFFFFFF
310
FFFFFFFFFFFFFFFFFFFFFFFFFFFFFFFFFFFFFFFFFFFFFFFFF000FFFFFFFFFFFF
310
FFFFFFFFFFFFFFFFFFFFFFFFFFFFFFFFFFFFFFFFFFFFFFFFFFFFFFFFFFFFFFFF
310
FFFFFFFFFFFFFFFFFFFFFFFFFFFFFFFFFFFFFFFFFFFFFFFFFFFFFFFFFFFFFFFF
310
FFFFFFFFFFFFFFFFFFFFFFFFFFFFFFFFF000FFFFFFFFFFFFFFFFFFFFFFFFFFFF
310
FFFFFFFFFFFFFFFFFFFFFFFFFFFFFFFFFFFFFFFFFFFFFFFFFFFFFFFFFFFFFFFF
310
FFFFFFFFFFFFFFFFFFFFFFFFFFFFFFFFFFFFFFFFFFFFFFFFFFFFFFFFFFFFFFFF
310
FFFFFFFFFFFFFFFFF000FFFFFFFFFFFFFFFFFFFFFFFFFFFFFFFFFFFFFFFFFFFF
310
FFFFFFFFFFFFFFFFFFFFFFFFFFFFFFFFFFFFFFFFFFFFFFFFFFFFFFFFFFFFFFFF
310
FFFFFFFFFFFFFFFFFFFFFFFFFFFFFFFFFFFFFFFFFFFFFFFFFFFFFFFFFFFFFFFF
310
F000FFFFFFFFFFFFFFFFFFFFFFFFFFFFFFFFFFFFFFFFFFFFFFFFFFFFFFFFFFFF
310
FFFFFFFFFFFFFFFFFFFFFFFFFFFFFFFFFFFFFFFFFFFFFFFFFFFFFFFFFFFFFFFF
310
FFFFFFFFFFFFFFFFFFFFFFFFFFFFFFFFFFFFFFFFFFFFFFFFF000FFFFFFFFFFFF
310
FFFFFFFFFFFFFFFFFFFFFFFFFFFFFFFFFFFFFFFFFFFFFFFFFFFFFFFFFFFFFFFF
310
FFFFFFFFFFFFFFFFFFFFFFFFFFFFFFFFFFFFFFFFFFFFFFFFFFFFFFFFFFFFFFFF
310
FFFFFFFFFFFFFFFFFFFFFFFFFFFFFFFFF000FFFFFFFFFFFFFFFFFFFFFFFFFFFF
310
FFFFFFFFFFFFFFFFFFFFFFFFFFFFFFFFFFFFFFFFFFFFFFFFFFFFFFFFFFFFFFFF
310
FFFFFFFFFFFFFFFFFFFFFFFFFFFFFFFFFFFFFFFFFFFFFFFFFFFFFFFFFFFFFFFF
310
FFFFFFFFFFFFFFFFF000FFFFFFFFFFFFFFFFFFFFFFFFFFFFFFFFFFFFFFFFFFFF
310
FFFFFFFFFFFFFFFFFFFFFFFFFFFFFFFFFFFFFFFFFFFFFFFFFFFFFFFFFFFFFFFF
310
FFFFFFFFFFFFFFFFFFFFFFFFFFFFFFFFFFFFFFFFFFFFFFFFFFFFFFFFFFFFFFFF
310
F000FFFFFFFFFFFFFFFFFFFFFFFFFFFFFFFFFFFFFFFFFFFFFFFFFFFFFFFFFFFF
310
FFFFFFFFFFFFFFFFFFFFFFFFFFFFFFFFFFFFFFFFFFFFFFFFFFFFFFFFFFFFFFFF
310
FFFFFFFFFFFFFFFFFFFFFFFFFFFFFFFFFFFFFFFFFFFFFFFFF000FFFFFFFFFFFF
310
FFFFFFFFFFFFFFFFFFFFFFFFFFFFFFFFFFFFFFFFFFFFFFFFFFFFFFFFFFFFFFFF
310
FFFFFFFFFFFFFFFFFFFFFFFFFFFFFFFFFFFFFFFFFFFFFFFFFFFFFFFFFFFFFFFF
310
FFFFFFFFFFFFFFFFFFFFFFFFFFFFFFFFF000FFFFFFFFFFFFFFFFFFFFFFFFFFFF
310
FFFFFFFFFFFFFFFFFFFFFFFFFFFFFFFFFFFFFFFFFFFFFFFFFFFFFFFFFFFFFFFF
310
FFFFFFFFFFFFFFFFFFFFFFFFFFFFFFFFFFFFFFFFFFFFFFFFFFFFFFFFFFFFFFFF
310
FFFFFFFFFFFFFFFFF000FFFFFFFFFFFFFFFFFFFFFFFFFFFFFFFFFFFFFFFFFFFF
310
FFFFFFFFFFFFFFFFFFFFFFFFFFFFFFFFFFFFFFFFFFFFFFFFFFFFFFFFFFFFFFFF
310
FFFFFFFFFFFFFFFFFFFFFFFFFFFFFFFFFFFFFFFFFFFFFFFFFFFFFFFFFFFFFFFF
310
F000FFFFFFFFFFFFFFFFFFFFFFFFFFFFFFFFFFFFFFFFFFFFFFFFFFFFFFFFFFFF
310
FFFFFFFFFFFFFFFFFFFFFFFFFFFFFFFFFFFFFFFFFFFFFFFFFFFFFFFFFFFFFFFF
310
FFFFFFFFFFFFFFFFFFFFFFFFFFFFFFFFFFFFFFFFFFFFFFFFF000FFFFFFFFFFFF
310
FFFFFFFFFFFFFFFFFFFFFFFFFFFFFFFFFFFFFFFFFFFFFFFFFFFFFFFFFFFFFFFF
310
FFFFFFFFFFFFFFFFFFFFFFFFFFFFFFFFFFFFFFFFFFFFFFFFFFFFFFFFFFFFFFFF
310
FFFFFFFFFFFFFFFFFFFFFFFFFFFFFFFFF000FFFFFFFFFFFFFFFFFFFFFFFFFFFF
310
FFFFFFFFFFFFFFFFFFFFFFFFFFFFFFFFFFFFFFFFFFFFFFFFFFFFFFFFFFFFFFFF
310
FFFFFFFFFFFFFFFFFFFFFFFFFFFFFFFFFFFFFFFFFFFFFFFFFFFFFFFFFFFFFFFF
310
FFFFFFFFFFFFFFFFF000FFFFFFFFFFFFFFFFFFFFFFFFFFFFFFFFFFFFFFFFFFFF
310
FFFFFFFFFFFFFFFFFFFFFFFFFFFFFFFFFFFFFFFFFFFFFFFFFFFFFFFFFFFFFFFF
310
FFFFFFFFFFFFFFFFFFFFFFFFFFFFFFFFFFFFFFFFFFFFFFFFFFFFFFFFFFFFFFFF
310
F000FFFFFFFFFFFFFFFFFFFFFFFFFFFFFFFFFFFFFFFFFFFFFFFFFFFFFFFFFFFF
310
FFFFFFFFFFFFFFFFFFFFFFFFFFFFFFFFFFFFFFFFFFFFFFFFFFFFFFFFFFFFFFFF
310
FFFFFFFFFFFFFFFFFFFFFFFFFFFFFFFFFFFFFFFFFFFFFFFFF000FFFFFFFFFFFF
310
FFFFFFFFFFFFFFFFFFFFFFFFFFFFFFFFFFFFFFFFFFFFFFFFFFFFFFFFFFFFFFFF
310
FFFFFFFFFFFFFFFFFFFFFFFFFFFFFFFFFFFFFFFFFFFFFFFFFFFFFFFFFFFFFFFF
310
FFFFFFFFFFFFFFFFFFFFFFFFFFFFFFFFF000FFFFFFFFFFFFFFFFFFFFFFFFFFFF
310
FFFFFFFFFFFFFFFFFFFFFFFFFFFFFFFFFFFFFFFFFFFFFFFFFFFFFFFFFFFFFFFF
310
FFFFFFFFFFFFFFFFFFFFFFFFFFFFFFFFFFFFFFFFFFFFFFFFFFFFFFFFFFFFFFFF
310
FFFFFFFFFFFFFFFFF000FFFFFFFFFFFFFFFFFFFFFFFFFFFFFFFFFFFFFFFFFFFF
310
FFFFFFFFFFFFFFFFFFFFFFFFFFFFFFFFFFFFFFFFFFFFFFFFFFFFFFFFFFFFFFFF
310
FFFFFFFFFFFFFFFFFFFFFFFFFFFFFFFFFFFFFFFFFFFFFFFFFFFFFFFFFFFFFFFF
310
F000FFFFFFFFFFFFFFFFFFFFFFFFFFFFFFFFFFFFFFFFFFFFFFFFFFFFFFFFFFFF
310
FFFFFFFFFFFFFFFFFFFFFFFFFFFFFFFFFFFFFFFFFFFFFFFFFFFFFFFFFFFFFFFF
310
FFFFFFFFFFFFFFFFFFFFFFFFFFFFFFFFFFFFFFFFFFFFFFFFF000FFFFFFFFFFFF
310
FFFFFFFFFFFFFFFFFFFFFFFFFFFFFFFFFFFFFFFFFFFFFFFFFFFFFFFFFFFFFFFF
310
FFFFFFFFFFFFFFFFFFFFFFFFFFFFFFFFFFFFFFFFFFFFFFFFFFFFFFFFFFFFFFFF
310
FFFFFFFFFFFFFFFFFFFFFFFFFFFFFFFFF0000000000000000000000000000000
310
0000000000000000000000000000000000000000000000000000000000000000
310
0000000000000000000000000000000000000000000000000000000000000000
310
0000000000000000000000000000000000000000000000000000000000000000
310
0000000000000000000000000000000000000000000000000000000000000000
310
0000000000000000000000000000000000000000000000000000000000000000
310
0000000000000000000000000000000000000000000000000000000000000000
310
0000000000000000000000000000000000000000000000000000000000000000
310
0000000000000000000000000000000000000000000000000000000000000000
310
0000000000000000000000000000000000000000000000000000000000000000
310
0000000000000000000000000000000000000000000000000000000000000000
310
0000000000000000000000000000000000000000000000000000000000000000
310
0000000000000000000000000000000000000000000000000000000000000000
310
0000000000000000000000000000000000000000000000000000000000000000
310
0000000000000000000000000000000000000000000000000000000000000000
310
0000000000000000000000000000000000000000000000000000000000000000
  1
OLE
  0
ENDSEC
  0
SECTION
  2
OBJECTS
  0
DICTIONARY
  5
C
330
0
100
AcDbDictionary
281
     1
  3
ACAD_GROUP
350
D
  3
ACAD_LAYOUT
350
1A
  3
ACAD_MLINESTYLE
350
17
  3
ACAD_PLOTSETTINGS
350
19
  3
ACAD_PLOTSTYLENAME
350
E
  3
ACAD_SCALELIST
350
47
  0
DICTIONARY
  5
D
102
{ACAD_REACTORS
330
C
102
}
330
C
100
AcDbDictionary
281
     1
  0
DICTIONARY
  5
1A
102
{ACAD_REACTORS
330
C
102
}
330
C
100
AcDbDictionary
281
     1
  3
Layout1
350
1E
  3
Layout2
350
26
  3
Model
350
22
  0
DICTIONARY
  5
17
102
{ACAD_REACTORS
330
C
102
}
330
C
100
AcDbDictionary
281
     1
  3
Standard
350
18
  0
DICTIONARY
  5
19
102
{ACAD_REACTORS
330
C
102
}
330
C
100
AcDbDictionary
281
     1
  0
ACDBDICTIONARYWDFLT
  5
E
102
{ACAD_REACTORS
330
C
102
}
330
C
100
AcDbDictionary
281
     1
  3
Normal
350
F
100
AcDbDictionaryWithDefault
340
F
  0
DICTIONARY
  5
47
102
{ACAD_REACTORS
330
C
102
}
330
C
100
AcDbDictionary
281
     1
  3
A0
350
48
  3
A1
350
49
  3
A2
350
4A
  3
A3
350
4B
  3
A4
350
4C
  3
A5
350
4D
  3
A6
350
4E
  3
A7
350
4F
  3
A8
350
50
  3
A9
350
51
  3
B0
350
52
  3
B1
350
53
  3
B2
350
54
  3
B3
350
55
  3
B4
350
56
  3
B5
350
57
  3
B6
350
58
  3
B7
350
59
  3
B8
350
5A
  3
B9
350
5B
  3
C0
350
5C
  3
C1
350
5D
  3
C2
350
5E
  3
C3
350
5F
  3
C4
350
60
  3
C5
350
61
  3
C6
350
62
  3
C7
350
63
  3
C8
350
64
  3
C9
350
65
  3
D0
350
66
  3
D1
350
67
  3
D2
350
68
  0
LAYOUT
  5
1E
102
{ACAD_REACTORS
330
1A
102
}
330
1A
100
AcDbPlotSettings
  1

  2
none_device
  4

  6

 40
0.0
 41
0.0
 42
0.0
 43
0.0
 44
0.0
 45
0.0
 46
0.0
 47
0.0
 48
0.0
 49
0.0
140
0.0
141
0.0
142
1.0
143
1.0
 70
   688
 72
     1
 73
     0
 74
     5
  7

 75
    16
147
1.0
148
0.0
149
0.0
100
AcDbLayout
  1
Layout1
 70
     1
 71
     1
 10
0.0
 20
0.0
 11
420.0
 21
297.0
 12
0.0
 22
0.0
 32
0.0
 14
1.0000000000E+20
 24
1.0000000000E+20
 34
1.0000000000E+20
 15
-1.0000000000E+20
 25
-1.0000000000E+20
 35
-1.0000000000E+20
146
0.0
 13
0.0
 23
0.0
 33
0.0
 16
1.0
 26
0.0
 36
0.0
 17
0.0
 27
1.0
 37
0.0
 76
     0
330
1B
  0
LAYOUT
  5
26
102
{ACAD_REACTORS
330
1A
102
}
330
1A
100
AcDbPlotSettings
  1

  2
none_device
  4

  6

 40
0.0
 41
0.0
 42
0.0
 43
0.0
 44
0.0
 45
0.0
 46
0.0
 47
0.0
 48
0.0
 49
0.0
140
0.0
141
0.0
142
1.0
143
1.0
 70
   688
 72
     1
 73
     0
 74
     5
  7

 75
    16
147
1.0
148
0.0
149
0.0
100
AcDbLayout
  1
Layout2
 70
     1
 71
     2
 10
0.0
 20
0.0
 11
0.0
 21
0.0
 12
0.0
 22
0.0
 32
0.0
 14
0.0
 24
0.0
 34
0.0
 15
0.0
 25
0.0
 35
0.0
146
0.0
 13
0.0
 23
0.0
 33
0.0
 16
1.0
 26
0.0
 36
0.0
 17
0.0
 27
1.0
 37
0.0
 76
     0
330
23
  0
LAYOUT
  5
22
102
{ACAD_REACTORS
330
1A
102
}
330
1A
100
AcDbPlotSettings
  1

  2
none_device
  4
Letter_(8.50_x_11.00_Inches)
  6

 40
6.35
 41
6.35
 42
6.35000508
 43
6.35000508
 44
215.9
 45
279.4
 46
0.0
 47
0.0
 48
0.0
 49
0.0
140
0.0
141
0.0
142
1.0
143
1.0
 70
  1712
 72
     1
 73
     0
 74
     0
  7

 75
     0
147
1.0
148
0.0
149
0.0
100
AcDbLayout
  1
Model
 70
     1
 71
     0
 10
0.0
 20
0.0
 11
297.0
 21
210.0
 12
0.0
 22
0.0
 32
0.0
 14
0.0
 24
0.0
 34
0.0
 15
297.0
 25
210.0
 35
0.0
146
0.0
 13
0.0
 23
0.0
 33
0.0
 16
1.0
 26
0.0
 36
0.0
 17
0.0
 27
1.0
 37
0.0
 76
     0
330
1F
331
29
  0
MLINESTYLE
  5
18
102
{ACAD_REACTORS
330
17
102
}
330
17
100
AcDbMlineStyle
  2
Standard
 70
     0
  3

 62
   256
 51
90.0
 52
90.0
 71
     2
 49
0.5
 62
   256
  6
BYLAYER
 49
-0.5
 62
   256
  6
BYLAYER
  0
ACDBPLACEHOLDER
  5
F
102
{ACAD_REACTORS
330
E
102
}
330
E
  0
SCALE
  5
48
102
{ACAD_REACTORS
330
47
102
}
330
47
100
AcDbScale
 70
     0
300
1:1
140
1.0
141
1.0
290
     1
  0
SCALE
  5
49
102
{ACAD_REACTORS
330
47
102
}
330
47
100
AcDbScale
 70
     0
300
1:2
140
1.0
141
2.0
290
     0
  0
SCALE
  5
4A
102
{ACAD_REACTORS
330
47
102
}
330
47
100
AcDbScale
 70
     0
300
1:4
140
1.0
141
4.0
290
     0
  0
SCALE
  5
4B
102
{ACAD_REACTORS
330
47
102
}
330
47
100
AcDbScale
 70
     0
300
1:5
140
1.0
141
5.0
290
     0
  0
SCALE
  5
4C
102
{ACAD_REACTORS
330
47
102
}
330
47
100
AcDbScale
 70
     0
300
1:8
140
1.0
141
8.0
290
     0
  0
SCALE
  5
4D
102
{ACAD_REACTORS
330
47
102
}
330
47
100
AcDbScale
 70
     0
300
1:10
140
1.0
141
10.0
290
     0
  0
SCALE
  5
4E
102
{ACAD_REACTORS
330
47
102
}
330
47
100
AcDbScale
 70
     0
300
1:16
140
1.0
141
16.0
290
     0
  0
SCALE
  5
4F
102
{ACAD_REACTORS
330
47
102
}
330
47
100
AcDbScale
 70
     0
300
1:20
140
1.0
141
20.0
290
     0
  0
SCALE
  5
50
102
{ACAD_REACTORS
330
47
102
}
330
47
100
AcDbScale
 70
     0
300
1:30
140
1.0
141
30.0
290
     0
  0
SCALE
  5
51
102
{ACAD_REACTORS
330
47
102
}
330
47
100
AcDbScale
 70
     0
300
1:40
140
1.0
141
40.0
290
     0
  0
SCALE
  5
52
102
{ACAD_REACTORS
330
47
102
}
330
47
100
AcDbScale
 70
     0
300
1:50
140
1.0
141
50.0
290
     0
  0
SCALE
  5
53
102
{ACAD_REACTORS
330
47
102
}
330
47
100
AcDbScale
 70
     0
300
1:100
140
1.0
141
100.0
290
     0
  0
SCALE
  5
54
102
{ACAD_REACTORS
330
47
102
}
330
47
100
AcDbScale
 70
     0
300
2:1
140
2.0
141
1.0
290
     0
  0
SCALE
  5
55
102
{ACAD_REACTORS
330
47
102
}
330
47
100
AcDbScale
 70
     0
300
4:1
140
4.0
141
1.0
290
     0
  0
SCALE
  5
56
102
{ACAD_REACTORS
330
47
102
}
330
47
100
AcDbScale
 70
     0
300
8:1
140
8.0
141
1.0
290
     0
  0
SCALE
  5
57
102
{ACAD_REACTORS
330
47
102
}
330
47
100
AcDbScale
 70
     0
300
10:1
140
10.0
141
1.0
290
     0
  0
SCALE
  5
58
102
{ACAD_REACTORS
330
47
102
}
330
47
100
AcDbScale
 70
     0
300
100:1
140
100.0
141
1.0
290
     0
  0
SCALE
  5
59
102
{ACAD_REACTORS
330
47
102
}
330
47
100
AcDbScale
 70
     0
300
1/128" = 1'-0"
140
0.0078125
141
12.0
290
     0
  0
SCALE
  5
5A
102
{ACAD_REACTORS
330
47
102
}
330
47
100
AcDbScale
 70
     0
300
1/64" = 1'-0"
140
0.015625
141
12.0
290
     0
  0
SCALE
  5
5B
102
{ACAD_REACTORS
330
47
102
}
330
47
100
AcDbScale
 70
     0
300
1/32" = 1'-0"
140
0.03125
141
12.0
290
     0
  0
SCALE
  5
5C
102
{ACAD_REACTORS
330
47
102
}
330
47
100
AcDbScale
 70
     0
300
1/16" = 1'-0"
140
0.0625
141
12.0
290
     0
  0
SCALE
  5
5D
102
{ACAD_REACTORS
330
47
102
}
330
47
100
AcDbScale
 70
     0
300
3/32" = 1'-0"
140
0.09375
141
12.0
290
     0
  0
SCALE
  5
5E
102
{ACAD_REACTORS
330
47
102
}
330
47
100
AcDbScale
 70
     0
300
1/8" = 1'-0"
140
0.125
141
12.0
290
     0
  0
SCALE
  5
5F
102
{ACAD_REACTORS
330
47
102
}
330
47
100
AcDbScale
 70
     0
300
3/16" = 1'-0"
140
0.1875
141
12.0
290
     0
  0
SCALE
  5
60
102
{ACAD_REACTORS
330
47
102
}
330
47
100
AcDbScale
 70
     0
300
1/4" = 1'-0"
140
0.25
141
12.0
290
     0
  0
SCALE
  5
61
102
{ACAD_REACTORS
330
47
102
}
330
47
100
AcDbScale
 70
     0
300
3/8" = 1'-0"
140
0.375
141
12.0
290
     0
  0
SCALE
  5
62
102
{ACAD_REACTORS
330
47
102
}
330
47
100
AcDbScale
 70
     0
300
1/2" = 1'-0"
140
0.5
141
12.0
290
     0
  0
SCALE
  5
63
102
{ACAD_REACTORS
330
47
102
}
330
47
100
AcDbScale
 70
     0
300
3/4" = 1'-0"
140
0.75
141
12.0
290
     0
  0
SCALE
  5
64
102
{ACAD_REACTORS
330
47
102
}
330
47
100
AcDbScale
 70
     0
300
1" = 1'-0"
140
1.0
141
12.0
290
     0
  0
SCALE
  5
65
102
{ACAD_REACTORS
330
47
102
}
330
47
100
AcDbScale
 70
     0
300
1-1/2" = 1'-0"
140
1.5
141
12.0
290
     0
  0
SCALE
  5
66
102
{ACAD_REACTORS
330
47
102
}
330
47
100
AcDbScale
 70
     0
300
3" = 1'-0"
140
3.0
141
12.0
290
     0
  0
SCALE
  5
67
102
{ACAD_REACTORS
330
47
102
}
330
47
100
AcDbScale
 70
     0
300
6" = 1'-0"
140
6.0
141
12.0
290
     0
  0
SCALE
  5
68
102
{ACAD_REACTORS
330
47
102
}
330
47
100
AcDbScale
 70
     0
300
1'-0" = 1'-0"
140
12.0
141
12.0
290
     0
  0
ENDSEC
  0
EOF
