  0
SECTION
  2
HEADER
  9
$ACADVER
  1
AC1015
  9
$ACADMAINTVER
 70
     6
  9
$DWGCODEPAGE
  3
ANSI_1252
  9
$INSBASE
 10
0.0
 20
0.0
 30
0.0
  9
$EXTMIN
 10
0.0
 20
0.0
 30
0.0
  9
$EXTMAX
 10
297.0
 20
210.0
 30
0.0
  9
$LIMMIN
 10
0.0
 20
0.0
  9
$LIMMAX
 10
297.0
 20
210.0
  9
$ORTHOMODE
 70
     0
  9
$REGENMODE
 70
     1
  9
$FILLMODE
 70
     1
  9
$QTEXTMODE
 70
     0
  9
$MIRRTEXT
 70
     1
  9
$LTSCALE
 40
1.0
  9
$ATTMODE
 70
     1
  9
$TEXTSIZE
 40
2.0
  9
$TRACEWID
 40
1.0
  9
$TEXTSTYLE
  7
Standard
  9
$CLAYER
  8
0
  9
$CELTYPE
  6
ByLayer
  9
$CECOLOR
 62
   256
  9
$CELTSCALE
 40
1.0
  9
$DISPSILH
 70
     0
  9
$DIMSCALE
 40
1.0
  9
$DIMASZ
 40
3.0
  9
$DIMEXO
 40
0.0
  9
$DIMDLI
 40
3.75
  9
$DIMRND
 40
0.0
  9
$DIMDLE
 40
0.0
  9
$DIMEXE
 40
1.0
  9
$DIMTP
 40
0.0
  9
$DIMTM
 40
0.0
  9
$DIMTXT
 40
2.0
  9
$DIMCEN
 40
2.5
  9
$DIMTSZ
 40
0.0
  9
$DIMTOL
 70
     0
  9
$DIMLIM
 70
     0
  9
$DIMTIH
 70
     1
  9
$DIMTOH
 70
     1
  9
$DIMSE1
 70
     0
  9
$DIMSE2
 70
     0
  9
$DIMTAD
 70
     1
  9
$DIMZIN
 70
     0
  9
$DIMBLK
  1

  9
$DIMASO
 70
     1
  9
$DIMSHO
 70
     1
  9
$DIMPOST
  1

  9
$DIMAPOST
  1

  9
$DIMALT
 70
     0
  9
$DIMALTD
 70
     3
  9
$DIMALTF
 40
0.0393700787
  9
$DIMLFAC
 40
1.0
  9
$DIMTOFL
 70
     1
  9
$DIMTVP
 40
0.0
  9
$DIMTIX
 70
     0
  9
$DIMSOXD
 70
     0
  9
$DIMSAH
 70
     0
  9
$DIMBLK1
  1

  9
$DIMBLK2
  1

  9
$DIMSTYLE
  2
ISO-25
  9
$DIMCLRD
 70
     0
  9
$DIMCLRE
 70
     0
  9
$DIMCLRT
 70
     0
  9
$DIMTFAC
 40
1.0
  9
$DIMGAP
 40
1.524
  9
$DIMJUST
 70
     0
  9
$DIMSD1
 70
     0
  9
$DIMSD2
 70
     0
  9
$DIMTOLJ
 70
     0
  9
$DIMTZIN
 70
     0
  9
$DIMALTZ
 70
     0
  9
$DIMALTTZ
 70
     0
  9
$DIMUPT
 70
     0
  9
$DIMDEC
 70
     2
  9
$DIMTDEC
 70
     3
  9
$DIMALTU
 70
     2
  9
$DIMALTTD
 70
     3
  9
$DIMTXSTY
  7
Standard
  9
$DIMAUNIT
 70
     0
  9
$DIMADEC
 70
     2
  9
$DIMALTRND
 40
0.0
  9
$DIMAZIN
 70
     0
  9
$DIMDSEP
 70
    44
  9
$DIMATFIT
 70
     3
  9
$DIMFRAC
 70
     0
  9
$DIMLDRBLK
  1

  9
$DIMLUNIT
 70
     2
  9
$DIMLWD
 70
    -2
  9
$DIMLWE
 70
    -2
  9
$DIMTMOVE
 70
     0
  9
$LUNITS
 70
     2
  9
$LUPREC
 70
     2
  9
$SKETCHINC
 40
1.0
  9
$FILLETRAD
 40
10.0
  9
$AUNITS
 70
     0
  9
$AUPREC
 70
     2
  9
$MENU
  1
.
  9
$ELEVATION
 40
0.0
  9
$PELEVATION
 40
0.0
  9
$THICKNESS
 40
0.0
  9
$LIMCHECK
 70
     0
  9
$CHAMFERA
 40
0.0
  9
$CHAMFERB
 40
0.0
  9
$CHAMFERC
 40
0.0
  9
$CHAMFERD
 40
0.0
  9
$SKPOLY
 70
     0
  9
$TDCREATE
 40
2457627.463304618
  9
$TDUCREATE
 40
2457627.379971285
  9
$TDUPDATE
 40
2457627.463305949
  9
$TDUUPDATE
 40
2457627.379972616
  9
$TDINDWG
 40
0.0000000116
  9
$TDUSRTIMER
 40
0.0000000116
  9
$USRTIMER
 70
     1
  9
$ANGBASE
 50
0.0
  9
$ANGDIR
 70
     0
  9
$PDMODE
 70
     0
  9
$PDSIZE
 40
-1.0
  9
$PLINEWID
 40
0.0
  9
$SPLFRAME
 70
     0
  9
$SPLINETYPE
 70
     6
  9
$SPLINESEGS
 70
     8
  9
$HANDSEED
  5
23E
  9
$SURFTAB1
 70
     6
  9
$SURFTAB2
 70
     6
  9
$SURFTYPE
 70
     6
  9
$SURFU
 70
     6
  9
$SURFV
 70
     6
  9
$UCSBASE
  2

  9
$UCSNAME
  2

  9
$UCSORG
 10
0.0
 20
0.0
 30
0.0
  9
$UCSXDIR
 10
1.0
 20
0.0
 30
0.0
  9
$UCSYDIR
 10
0.0
 20
1.0
 30
0.0
  9
$UCSORTHOREF
  2

  9
$UCSORTHOVIEW
 70
     0
  9
$UCSORGTOP
 10
0.0
 20
0.0
 30
0.0
  9
$UCSORGBOTTOM
 10
0.0
 20
0.0
 30
0.0
  9
$UCSORGLEFT
 10
0.0
 20
0.0
 30
0.0
  9
$UCSORGRIGHT
 10
0.0
 20
0.0
 30
0.0
  9
$UCSORGFRONT
 10
0.0
 20
0.0
 30
0.0
  9
$UCSORGBACK
 10
0.0
 20
0.0
 30
0.0
  9
$PUCSBASE
  2

  9
$PUCSNAME
  2

  9
$PUCSORG
 10
0.0
 20
0.0
 30
0.0
  9
$PUCSXDIR
 10
1.0
 20
0.0
 30
0.0
  9
$PUCSYDIR
 10
0.0
 20
1.0
 30
0.0
  9
$PUCSORTHOREF
  2

  9
$PUCSORTHOVIEW
 70
     0
  9
$PUCSORGTOP
 10
0.0
 20
0.0
 30
0.0
  9
$PUCSORGBOTTOM
 10
0.0
 20
0.0
 30
0.0
  9
$PUCSORGLEFT
 10
0.0
 20
0.0
 30
0.0
  9
$PUCSORGRIGHT
 10
0.0
 20
0.0
 30
0.0
  9
$PUCSORGFRONT
 10
0.0
 20
0.0
 30
0.0
  9
$PUCSORGBACK
 10
0.0
 20
0.0
 30
0.0
  9
$USERI1
 70
     0
  9
$USERI2
 70
     0
  9
$USERI3
 70
     0
  9
$USERI4
 70
     0
  9
$USERI5
 70
     0
  9
$USERR1
 40
0.0
  9
$USERR2
 40
0.0
  9
$USERR3
 40
0.0
  9
$USERR4
 40
0.0
  9
$USERR5
 40
0.0
  9
$WORLDVIEW
 70
     1
  9
$SHADEDGE
 70
     3
  9
$SHADEDIF
 70
    70
  9
$TILEMODE
 70
     1
  9
$MAXACTVP
 70
    64
  9
$PINSBASE
 10
0.0
 20
0.0
 30
0.0
  9
$PLIMCHECK
 70
     0
  9
$PEXTMIN
 10
1.0000000000E+20
 20
1.0000000000E+20
 30
1.0000000000E+20
  9
$PEXTMAX
 10
-1.0000000000E+20
 20
-1.0000000000E+20
 30
-1.0000000000E+20
  9
$PLIMMIN
 10
0.0
 20
0.0
  9
$PLIMMAX
 10
420.0
 20
297.0
  9
$UNITMODE
 70
     0
  9
$VISRETAIN
 70
     1
  9
$PLINEGEN
 70
     0
  9
$PSLTSCALE
 70
     1
  9
$TREEDEPTH
 70
  3020
  9
$CMLSTYLE
  2
Standard
  9
$CMLJUST
 70
     0
  9
$CMLSCALE
 40
20.0
  9
$PROXYGRAPHICS
 70
     1
  9
$MEASUREMENT
 70
     1
  9
$CELWEIGHT
370
    -1
  9
$ENDCAPS
280
     0
  9
$JOINSTYLE
280
     0
  9
$LWDISPLAY
290
     1
  9
$INSUNITS
 70
     4
  9
$HYPERLINKBASE
  1

  9
$STYLESHEET
  1

  9
$XEDIT
290
     1
  9
$CEPSNTYPE
380
     0
  9
$PSTYLEMODE
290
     1
  9
$FINGERPRINTGUID
  2
{E0B466E3-0B44-475F-BE08-81A068F58360}
  9
$VERSIONGUID
  2
{FAEB1C32-E019-11D5-929B-00C0DF256EC4}
  9
$EXTNAMES
290
     1
  9
$PSVPSCALE
 40
0.0
  9
$OLESTARTUP
290
     0
  0
ENDSEC
  0
SECTION
  2
CLASSES
  0
CLASS
  1
ACDBDICTIONARYWDFLT
  2
AcDbDictionaryWithDefault
  3
ObjectDBX Classes
 90
        0
280
     0
281
     0
  0
CLASS
  1
VISUALSTYLE
  2
AcDbVisualStyle
  3
ObjectDBX Classes
 90
     4095
280
     0
281
     0
  0
CLASS
  1
MATERIAL
  2
AcDbMaterial
  3
ObjectDBX Classes
 90
     1153
280
     0
281
     0
  0
CLASS
  1
SCALE
  2
AcDbScale
  3
ObjectDBX Classes
 90
     1153
280
     0
281
     0
  0
CLASS
  1
TABLESTYLE
  2
AcDbTableStyle
  3
ObjectDBX Classes
 90
     4095
280
     0
281
     0
  0
CLASS
  1
MLEADERSTYLE
  2
AcDbMLeaderStyle
  3
ACDB_MLEADERSTYLE_CLASS
 90
     4095
280
     0
281
     0
  0
CLASS
  1
SUN
  2
AcDbSun
  3
SCENEOE
 90
     1153
280
     0
281
     0
  0
CLASS
  1
ACDBPLACEHOLDER
  2
AcDbPlaceHolder
  3
ObjectDBX Classes
 90
        0
280
     0
281
     0
  0
CLASS
  1
LAYOUT
  2
AcDbLayout
  3
ObjectDBX Classes
 90
        0
280
     0
281
     0
  0
ENDSEC
  0
SECTION
  2
TABLES
  0
TABLE
  2
VPORT
  5
8
330
0
100
AcDbSymbolTable
 70
     1
  0
VPORT
  5
29
330
8
100
AcDbSymbolTableRecord
100
AcDbViewportTableRecord
  2
*Active
 70
     0
 10
0.0
 20
0.0
 11
1.0
 21
1.0
 12
148.5
 22
105.0
 13
0.0
 23
0.0
 14
10.0
 24
10.0
 15
10.0
 25
10.0
 16
0.0
 26
0.0
 36
1.0
 17
0.0
 27
0.0
 37
0.0
 40
210.0
 41
1.4142857143
 42
50.0
 43
0.0
 44
0.0
 50
0.0
 51
0.0
 71
     0
 72
  2000
 73
     1
 74
     3
 75
     0
 76
     0
 77
     0
 78
     0
281
     0
 65
     1
110
0.0
120
0.0
130
0.0
111
1.0
121
0.0
131
0.0
112
0.0
122
1.0
132
0.0
 79
     0
146
0.0
  0
ENDTAB
  0
TABLE
  2
LTYPE
  5
5
330
0
100
AcDbSymbolTable
 70
     6
  0
LTYPE
  5
14
330
5
100
AcDbSymbolTableRecord
100
AcDbLinetypeTableRecord
  2
ByBlock
 70
     0
  3

 72
    65
 73
     0
 40
0.0
  0
LTYPE
  5
15
330
5
100
AcDbSymbolTableRecord
100
AcDbLinetypeTableRecord
  2
ByLayer
 70
     0
  3

 72
    65
 73
     0
 40
0.0
  0
LTYPE
  5
16
330
5
100
AcDbSymbolTableRecord
100
AcDbLinetypeTableRecord
  2
Continuous
 70
     0
  3
Solid line
 72
    65
 73
     0
 40
0.0
  0
LTYPE
  5
6E
330
5
100
AcDbSymbolTableRecord
100
AcDbLinetypeTableRecord
  2
HIDDEN
 70
     0
  3
Hidden __ __ __ __ __ __ __ __ __ __ __ __ __ __
 72
    65
 73
     2
 40
1.905
 49
1.27
 74
     0
 49
-0.635
 74
     0
  0
LTYPE
  5
6F
330
5
100
AcDbSymbolTableRecord
100
AcDbLinetypeTableRecord
  2
PHANTOM
 70
     0
  3
Phantom ______  __  __  ______  __  __  ______
 72
    65
 73
     6
 40
12.7
 49
6.35
 74
     0
 49
-1.27
 74
     0
 49
1.27
 74
     0
 49
-1.27
 74
     0
 49
1.27
 74
     0
 49
-1.27
 74
     0
  0
LTYPE
  5
70
330
5
100
AcDbSymbolTableRecord
100
AcDbLinetypeTableRecord
  2
CENTER
 70
     0
  3
Center ____ _ ____ _ ____ _ ____ _ ____ _ ____
 72
    65
 73
     4
 40
10.16
 49
6.35
 74
     0
 49
-1.27
 74
     0
 49
1.27
 74
     0
 49
-1.27
 74
     0
  0
LTYPE
  5
71
330
5
100
AcDbSymbolTableRecord
100
AcDbLinetypeTableRecord
  2
CENTERX2
 70
     0
  3
Center (2x) ________  __  ________  __  _____
 72
    65
 73
     4
 40
20.32
 49
12.7
 74
     0
 49
-2.54
 74
     0
 49
2.54
 74
     0
 49
-2.54
 74
     0
  0
LTYPE
  5
72
330
5
100
AcDbSymbolTableRecord
100
AcDbLinetypeTableRecord
  2
DOT2
 70
     0
  3
Dot (.5x) ........................................
 72
    65
 73
     2
 40
0.635
 49
0.0
 74
     0
 49
-0.635
 74
     0
  0
ENDTAB
  0
TABLE
  2
LAYER
  5
2
330
0
100
AcDbSymbolTable
 70
     5
  0
LAYER
  5
10
330
2
100
AcDbSymbolTableRecord
100
AcDbLayerTableRecord
  2
0
 70
     0
 62
     7
  6
Continuous
370
    -3
390
F
  0
LAYER
  5
73
330
2
100
AcDbSymbolTableRecord
100
AcDbLayerTableRecord
  2
FORMAT
 70
     0
 62
     7
  6
Continuous
370
    -3
390
F
  0
LAYER
  5
74
330
2
100
AcDbSymbolTableRecord
100
AcDbLayerTableRecord
  2
VERMASSUNG
 70
     0
 62
     7
  6
Continuous
370
    -3
390
F
  0
LAYER
  5
75
330
2
100
AcDbSymbolTableRecord
100
AcDbLayerTableRecord
  2
KOPF_DÜNN
 70
     0
 62
     7
  6
Continuous
370
    -3
390
F
  0
LAYER
  5
76
330
2
100
AcDbSymbolTableRecord
100
AcDbLayerTableRecord
  2
KOPF_DICK
 70
     0
 62
     7
  6
Continuous
370
    15
390
F
  0
ENDTAB
  0
TABLE
  2
STYLE
  5
3
330
0
100
AcDbSymbolTable
 70
     3
  0
STYLE
  5
11
330
3
100
AcDbSymbolTableRecord
100
AcDbTextStyleTableRecord
  2
Standard
 70
     0
 40
0.0
 41
1.0
 50
0.0
 71
     0
 42
2.0
  3
txt
  4

  0
STYLE
  5
77
330
3
100
AcDbSymbolTableRecord
100
AcDbTextStyleTableRecord
  2
SLDTEXTSTYLE0
 70
     0
 40
0.0
 41
0.7
 50
0.0
 71
     0
 42
2.0
  3
TXT
  4

  0
STYLE
  5
7B
330
3
100
AcDbSymbolTableRecord
100
AcDbTextStyleTableRecord
  2
SLDTEXTSTYLE1
 70
     0
 40
0.0
 41
0.6466666667
 50
0.0
 71
     0
 42
2.0
  3
TXT
  4

  0
ENDTAB
  0
TABLE
  2
VIEW
  5
6
330
0
100
AcDbSymbolTable
 70
     0
  0
ENDTAB
  0
TABLE
  2
UCS
  5
7
330
0
100
AcDbSymbolTable
 70
     0
  0
ENDTAB
  0
TABLE
  2
APPID
  5
9
330
0
100
AcDbSymbolTable
 70
     1
  0
APPID
  5
12
330
9
100
AcDbSymbolTableRecord
100
AcDbRegAppTableRecord
  2
ACAD
 70
     0
  0
ENDTAB
  0
TABLE
  2
DIMSTYLE
  5
A
330
0
100
AcDbSymbolTable
 70
     3
100
AcDbDimStyleTable
  0
DIMSTYLE
105
27
330
A
100
AcDbSymbolTableRecord
100
AcDbDimStyleTableRecord
  2
ISO-25
 70
     0
 41
2.5
 42
0.625
 43
3.75
 44
1.25
 73
     0
 74
     0
 77
     1
 78
     8
140
2.5
141
2.5
143
0.0393700787
147
0.625
171
     3
172
     1
178
     0
271
     2
272
     2
274
     3
278
    44
283
     0
284
     8
340
11
  0
DIMSTYLE
105
158
102
{ACAD_REACTORS
330
157
330
164
330
17B
330
185
330
18F
102
}
330
A
100
AcDbSymbolTableRecord
100
AcDbDimStyleTableRecord
  2
SLDDIMSTYLE0
 70
     0
 41
3.0
 44
0.0
 45
0.000000001
 73
     0
 74
     0
 77
     1
 78
    12
 79
     3
140
2.0
147
0.5
173
     1
178
     0
271
     2
272
     3
276
     2
284
    12
340
77
  0
DIMSTYLE
105
16F
102
{ACAD_REACTORS
330
16E
102
}
330
A
100
AcDbSymbolTableRecord
100
AcDbDimStyleTableRecord
  2
SLDDIMSTYLE1
 70
     0
 41
3.0
 44
0.0
 45
0.000000001
 73
     0
 74
     0
 77
     1
 78
    12
 79
     3
140
2.0
147
0.5
172
     1
173
     1
178
     0
271
     2
272
     3
276
     2
284
    12
289
     0
340
77
  0
ENDTAB
  0
TABLE
  2
BLOCK_RECORD
  5
1
330
0
100
AcDbSymbolTable
 70
     7
  0
BLOCK_RECORD
  5
1F
330
1
100
AcDbSymbolTableRecord
100
AcDbBlockTableRecord
  2
*Model_Space
340
22
  0
BLOCK_RECORD
  5
1B
330
1
100
AcDbSymbolTableRecord
100
AcDbBlockTableRecord
  2
*Paper_Space
340
1E
  0
BLOCK_RECORD
  5
23
330
1
100
AcDbSymbolTableRecord
100
AcDbBlockTableRecord
  2
*Paper_Space0
340
26
  0
BLOCK_RECORD
  5
159
330
1
100
AcDbSymbolTableRecord
100
AcDbBlockTableRecord
  2
_D
340
0
  0
BLOCK_RECORD
  5
165
330
1
100
AcDbSymbolTableRecord
100
AcDbBlockTableRecord
  2
_D_1
340
0
  0
BLOCK_RECORD
  5
170
330
1
100
AcDbSymbolTableRecord
100
AcDbBlockTableRecord
  2
_D_2
340
0
  0
BLOCK_RECORD
  5
17C
330
1
100
AcDbSymbolTableRecord
100
AcDbBlockTableRecord
  2
_D_3
340
0
  0
BLOCK_RECORD
  5
186
330
1
100
AcDbSymbolTableRecord
100
AcDbBlockTableRecord
  2
_D_4
340
0
  0
BLOCK_RECORD
  5
190
330
1
100
AcDbSymbolTableRecord
100
AcDbBlockTableRecord
  2
_D_5
340
0
  0
ENDTAB
  0
ENDSEC
  0
SECTION
  2
BLOCKS
  0
BLOCK
  5
20
330
1F
100
AcDbEntity
  8
0
100
AcDbBlockBegin
  2
*Model_Space
 70
     0
 10
0.0
 20
0.0
 30
0.0
  3
*Model_Space
  1

  0
ENDBLK
  5
21
330
1F
100
AcDbEntity
  8
0
100
AcDbBlockEnd
  0
BLOCK
  5
1C
330
1B
100
AcDbEntity
 67
     1
  8
0
100
AcDbBlockBegin
  2
*Paper_Space
 70
     0
 10
0.0
 20
0.0
 30
0.0
  3
*Paper_Space
  1

  0
ENDBLK
  5
1D
330
1B
100
AcDbEntity
 67
     1
  8
0
100
AcDbBlockEnd
  0
BLOCK
  5
24
330
23
100
AcDbEntity
  8
0
100
AcDbBlockBegin
  2
*Paper_Space0
 70
     0
 10
0.0
 20
0.0
 30
0.0
  3
*Paper_Space0
  1

  0
ENDBLK
  5
25
330
23
100
AcDbEntity
  8
0
100
AcDbBlockEnd
  0
BLOCK
  5
15A
330
159
100
AcDbEntity
  8
0
100
AcDbBlockBegin
  2
_D
 70
     0
 10
0.0
 20
0.0
 30
0.0
  3
_D
  1

  0
SOLID
  5
15C
330
159
100
AcDbEntity
  8
VERMASSUNG
100
AcDbTrace
 10
101.2929770397
 20
92.0115541396
 30
0.0
 11
101.7429770397
 21
95.0115541396
 31
0.0
 12
100.8429770397
 22
95.0115541396
 32
0.0
 13
100.8429770397
 23
95.0115541396
 33
0.0
  0
SOLID
  5
15D
330
159
100
AcDbEntity
  8
VERMASSUNG
100
AcDbTrace
 10
101.2929770397
 20
141.9615541396
 30
0.0
 11
100.8429770397
 21
138.9615541396
 31
0.0
 12
101.7429770397
 22
138.9615541396
 32
0.0
 13
101.7429770397
 23
138.9615541396
 33
0.0
  0
LINE
  5
15E
330
159
100
AcDbEntity
  8
VERMASSUNG
100
AcDbLine
 10
158.9439978155
 20
92.0115541396
 30
0.0
 11
100.2929770397
 21
92.0115541396
 31
0.0
  0
LINE
  5
15F
330
159
100
AcDbEntity
  8
VERMASSUNG
100
AcDbLine
 10
158.9439978155
 20
141.9615541396
 30
0.0
 11
100.2929770397
 21
141.9615541396
 31
0.0
  0
LINE
  5
160
330
159
100
AcDbEntity
  8
VERMASSUNG
100
AcDbLine
 10
101.2929770397
 20
92.0115541396
 30
0.0
 11
101.2929770397
 21
141.9615541396
 31
0.0
  0
MTEXT
  5
161
330
159
100
AcDbEntity
  8
VERMASSUNG
100
AcDbMText
 10
98.5148417835
 20
107.4821185063
 30
0.0
 40
2.0
 41
0.0
 71
     1
 72
     1
  1
ISO 30
  7
SLDTEXTSTYLE0
 11
3.391901413832837E-15
 21
1.0
 31
0.0
 73
     1
 44
1.0
  0
MTEXT
  5
162
330
159
100
AcDbEntity
  8
VERMASSUNG
100
AcDbMText
 10
98.7148417348
 20
116.4821181188
 30
0.0
 40
2.0
 41
0.0
 71
     1
 72
     1
  1
%%c
  7
SLDTEXTSTYLE0
 11
3.391901413832837E-15
 21
1.0
 31
0.0
 73
     1
 44
1.0
  0
MTEXT
  5
163
330
159
100
AcDbEntity
  8
VERMASSUNG
100
AcDbMText
 10
98.7148414437
 20
120.0914614517
 30
0.0
 40
2.0
 41
0.0
 71
     1
 72
     1
  1
49.95
  7
SLDTEXTSTYLE0
 11
3.391901413832837E-15
 21
1.0
 31
0.0
 73
     1
 44
1.0
  0
ENDBLK
  5
15B
330
159
100
AcDbEntity
  8
0
100
AcDbBlockEnd
  0
BLOCK
  5
166
330
165
100
AcDbEntity
  8
0
100
AcDbBlockBegin
  2
_D_1
 70
     0
 10
0.0
 20
0.0
 30
0.0
  3
_D_1
  1

  0
SOLID
  5
168
330
165
100
AcDbEntity
  8
VERMASSUNG
100
AcDbTrace
 10
155.1439978155
 20
151.1208643488
 30
0.0
 11
158.1439978155
 21
150.6708643488
 31
0.0
 12
158.1439978155
 22
151.5708643488
 32
0.0
 13
158.1439978155
 23
151.5708643488
 33
0.0
  0
SOLID
  5
169
330
165
100
AcDbEntity
  8
VERMASSUNG
100
AcDbTrace
 10
194.2439978155
 20
151.1208643488
 30
0.0
 11
191.2439978155
 21
151.5708643488
 31
0.0
 12
191.2439978155
 22
150.6708643488
 32
0.0
 13
191.2439978155
 23
150.6708643488
 33
0.0
  0
LINE
  5
16A
330
165
100
AcDbEntity
  8
VERMASSUNG
100
AcDbLine
 10
155.1439978155
 20
132.8615541396
 30
0.0
 11
155.1439978155
 21
152.1208643488
 31
0.0
  0
LINE
  5
16B
330
165
100
AcDbEntity
  8
VERMASSUNG
100
AcDbLine
 10
194.2439978155
 20
129.0865541396
 30
0.0
 11
194.2439978155
 21
152.1208643488
 31
0.0
  0
LINE
  5
16C
330
165
100
AcDbEntity
  8
VERMASSUNG
100
AcDbLine
 10
155.1439978155
 20
151.1208643488
 30
0.0
 11
194.2439978155
 21
151.1208643488
 31
0.0
  0
MTEXT
  5
16D
330
165
100
AcDbEntity
  8
VERMASSUNG
100
AcDbMText
 10
172.4946425117
 20
153.6989999448
 30
0.0
 40
2.0
 41
0.0
 71
     1
 72
     1
  1
39.1
  7
SLDTEXTSTYLE0
 73
     1
 44
1.0
  0
ENDBLK
  5
167
330
165
100
AcDbEntity
  8
0
100
AcDbBlockEnd
  0
BLOCK
  5
171
330
170
100
AcDbEntity
  8
0
100
AcDbBlockBegin
  2
_D_2
 70
     0
 10
0.0
 20
0.0
 30
0.0
  3
_D_2
  1

  0
SOLID
  5
173
330
170
100
AcDbEntity
  8
VERMASSUNG
100
AcDbTrace
 10
202.2068359771
 20
129.4865541396
 30
0.0
 11
201.7568359771
 21
126.4865541396
 31
0.0
 12
202.6568359771
 22
126.4865541396
 32
0.0
 13
202.6568359771
 23
126.4865541396
 33
0.0
  0
SOLID
  5
174
330
170
100
AcDbEntity
  8
VERMASSUNG
100
AcDbTrace
 10
202.2068359771
 20
104.4865541396
 30
0.0
 11
202.6568359771
 21
107.4865541396
 31
0.0
 12
201.7568359771
 22
107.4865541396
 32
0.0
 13
201.7568359771
 23
107.4865541396
 33
0.0
  0
LINE
  5
175
330
170
100
AcDbEntity
  8
VERMASSUNG
100
AcDbLine
 10
194.0439978155
 20
129.4865541396
 30
0.0
 11
203.2068359771
 21
129.4865541396
 31
0.0
  0
LINE
  5
176
330
170
100
AcDbEntity
  8
VERMASSUNG
100
AcDbLine
 10
194.0439978155
 20
104.4865541396
 30
0.0
 11
203.2068359771
 21
104.4865541396
 31
0.0
  0
LINE
  5
177
330
170
100
AcDbEntity
  8
VERMASSUNG
100
AcDbLine
 10
202.2068359771
 20
129.4865541396
 30
0.0
 11
202.2068359771
 21
104.4865541396
 31
0.0
  0
MTEXT
  5
178
330
170
100
AcDbEntity
  8
VERMASSUNG
100
AcDbMText
 10
199.4287007209
 20
110.5815544961
 30
0.0
 40
2.0
 41
0.0
 71
     1
 72
     1
  1
MBM
  7
SLDTEXTSTYLE0
 11
-7.044195017643634E-15
 21
1.0
 31
0.0
 73
     1
 44
1.0
  0
MTEXT
  5
179
330
170
100
AcDbEntity
  8
VERMASSUNG
100
AcDbMText
 10
199.6287006722
 20
116.9815543344
 30
0.0
 40
2.0
 41
0.0
 71
     1
 72
     1
  1
%%c
  7
SLDTEXTSTYLE0
 11
-7.044195017643634E-15
 21
1.0
 31
0.0
 73
     1
 44
1.0
  0
MTEXT
  5
17A
330
170
100
AcDbEntity
  8
VERMASSUNG
100
AcDbMText
 10
199.4287007209
 20
120.5915548144
 30
0.0
 40
2.0
 41
0.0
 71
     1
 72
     1
  1
25
  7
SLDTEXTSTYLE0
 11
-7.044195017643634E-15
 21
1.0
 31
0.0
 73
     1
 44
1.0
  0
ENDBLK
  5
172
330
170
100
AcDbEntity
  8
0
100
AcDbBlockEnd
  0
BLOCK
  5
17D
330
17C
100
AcDbEntity
  8
0
100
AcDbBlockBegin
  2
_D_3
 70
     0
 10
0.0
 20
0.0
 30
0.0
  3
_D_3
  1

  0
SOLID
  5
17F
330
17C
100
AcDbEntity
  8
VERMASSUNG
100
AcDbTrace
 10
194.2439978155
 20
145.1208643488
 30
0.0
 11
191.2439978155
 21
145.5708643488
 31
0.0
 12
191.2439978155
 22
144.6708643488
 32
0.0
 13
191.2439978155
 23
144.6708643488
 33
0.0
  0
SOLID
  5
180
330
17C
100
AcDbEntity
  8
VERMASSUNG
100
AcDbTrace
 10
174.1939978155
 20
145.1208643488
 30
0.0
 11
177.1939978155
 21
144.6708643488
 31
0.0
 12
177.1939978155
 22
145.5708643488
 32
0.0
 13
177.1939978155
 23
145.5708643488
 33
0.0
  0
LINE
  5
181
330
17C
100
AcDbEntity
  8
VERMASSUNG
100
AcDbLine
 10
194.2439978155
 20
129.2865541396
 30
0.0
 11
194.2439978155
 21
146.1208643488
 31
0.0
  0
LINE
  5
182
330
17C
100
AcDbEntity
  8
VERMASSUNG
100
AcDbLine
 10
174.1939978155
 20
139.8979117536
 30
0.0
 11
174.1939978155
 21
146.1208643488
 31
0.0
  0
LINE
  5
183
330
17C
100
AcDbEntity
  8
VERMASSUNG
100
AcDbLine
 10
194.2439978155
 20
145.1208643488
 30
0.0
 11
174.1939978155
 21
145.1208643488
 31
0.0
  0
MTEXT
  5
184
330
17C
100
AcDbEntity
  8
VERMASSUNG
100
AcDbMText
 10
181.1189979593
 20
147.6989999448
 30
0.0
 40
2.0
 41
0.0
 71
     1
 72
     1
  1
20.05
  7
SLDTEXTSTYLE0
 73
     1
 44
1.0
  0
ENDBLK
  5
17E
330
17C
100
AcDbEntity
  8
0
100
AcDbBlockEnd
  0
BLOCK
  5
187
330
186
100
AcDbEntity
  8
0
100
AcDbBlockBegin
  2
_D_4
 70
     0
 10
0.0
 20
0.0
 30
0.0
  3
_D_4
  1

  0
SOLID
  5
189
330
186
100
AcDbEntity
  8
VERMASSUNG
100
AcDbTrace
 10
194.2439978155
 20
151.1208643488
 30
0.0
 11
191.2439978155
 21
151.5708643488
 31
0.0
 12
191.2439978155
 22
150.6708643488
 32
0.0
 13
191.2439978155
 23
150.6708643488
 33
0.0
  0
SOLID
  5
18A
330
186
100
AcDbEntity
  8
VERMASSUNG
100
AcDbTrace
 10
155.1439978155
 20
151.1208643488
 30
0.0
 11
158.1439978155
 21
150.6708643488
 31
0.0
 12
158.1439978155
 22
151.5708643488
 32
0.0
 13
158.1439978155
 23
151.5708643488
 33
0.0
  0
LINE
  5
18B
330
186
100
AcDbEntity
  8
VERMASSUNG
100
AcDbLine
 10
194.2439978155
 20
129.2865541396
 30
0.0
 11
194.2439978155
 21
152.1208643488
 31
0.0
  0
LINE
  5
18C
330
186
100
AcDbEntity
  8
VERMASSUNG
100
AcDbLine
 10
155.1439978155
 20
132.8615541396
 30
0.0
 11
155.1439978155
 21
152.1208643488
 31
0.0
  0
LINE
  5
18D
330
186
100
AcDbEntity
  8
VERMASSUNG
100
AcDbLine
 10
194.2439978155
 20
151.1208643488
 30
0.0
 11
155.1439978155
 21
151.1208643488
 31
0.0
  0
MTEXT
  5
18E
330
186
100
AcDbEntity
  8
VERMASSUNG
100
AcDbMText
 10
172.4939978274
 20
153.6989999448
 30
0.0
 40
2.0
 41
0.0
 71
     1
 72
     1
  1
39.1
  7
SLDTEXTSTYLE0
 73
     1
 44
1.0
  0
ENDBLK
  5
188
330
186
100
AcDbEntity
  8
0
100
AcDbBlockEnd
  0
BLOCK
  5
191
330
190
100
AcDbEntity
  8
0
100
AcDbBlockBegin
  2
_D_5
 70
     0
 10
0.0
 20
0.0
 30
0.0
  3
_D_5
  1

  0
SOLID
  5
193
330
190
100
AcDbEntity
  8
VERMASSUNG
100
AcDbTrace
 10
194.2439978155
 20
157.1208643488
 30
0.0
 11
191.2439978155
 21
157.5708643488
 31
0.0
 12
191.2439978155
 22
156.6708643488
 32
0.0
 13
191.2439978155
 23
156.6708643488
 33
0.0
  0
SOLID
  5
194
330
190
100
AcDbEntity
  8
VERMASSUNG
100
AcDbTrace
 10
107.4939978155
 20
157.1208643488
 30
0.0
 11
110.4939978155
 21
156.6708643488
 31
0.0
 12
110.4939978155
 22
157.5708643488
 32
0.0
 13
110.4939978155
 23
157.5708643488
 33
0.0
  0
LINE
  5
195
330
190
100
AcDbEntity
  8
VERMASSUNG
100
AcDbLine
 10
194.2439978155
 20
129.2865541396
 30
0.0
 11
194.2439978155
 21
158.1208643488
 31
0.0
  0
LINE
  5
196
330
190
100
AcDbEntity
  8
VERMASSUNG
100
AcDbLine
 10
107.4939978155
 20
125.0478514033
 30
0.0
 11
107.4939978155
 21
158.1208643488
 31
0.0
  0
LINE
  5
197
330
190
100
AcDbEntity
  8
VERMASSUNG
100
AcDbLine
 10
194.2439978155
 20
157.1208643488
 30
0.0
 11
107.4939978155
 21
157.1208643488
 31
0.0
  0
MTEXT
  5
198
330
190
100
AcDbEntity
  8
VERMASSUNG
100
AcDbMText
 10
147.7689979593
 20
159.6989999448
 30
0.0
 40
2.0
 41
0.0
 71
     1
 72
     1
  1
86.75
  7
SLDTEXTSTYLE0
 73
     1
 44
1.0
  0
ENDBLK
  5
192
330
190
100
AcDbEntity
  8
0
100
AcDbBlockEnd
  0
ENDSEC
  0
SECTION
  2
ENTITIES
  0
MTEXT
  5
78
330
1F
100
AcDbEntity
  8
KOPF_DÜNN
100
AcDbMText
 10
13.8892156294
 20
23.8442973028
 30
0.0
 40
3.0
 41
0.0
 71
     1
 72
     1
  1
102.325.251
  7
SLDTEXTSTYLE0
 73
     1
 44
1.0
  0
MTEXT
  5
79
330
1F
100
AcDbEntity
  8
VERMASSUNG
100
AcDbMText
 10
13.9329988022
 20
28.8834360957
 30
0.0
 40
3.0
 41
0.0
 71
     1
 72
     1
  1
Aufnahme_Master shank MBM 25
  7
SLDTEXTSTYLE0
 73
     1
 44
1.0
  0
MTEXT
  5
7A
330
1F
100
AcDbEntity
  8
VERMASSUNG
100
AcDbMText
 10
98.8601118557
 20
13.8365368761
 30
0.0
 40
2.0
 41
0.0
 71
     1
 72
     1
  1
Datum: 05.11.2007
  7
SLDTEXTSTYLE0
 73
     1
 44
1.0
  0
MTEXT
  5
7C
330
1F
100
AcDbEntity
  8
VERMASSUNG
100
AcDbMText
 10
13.933048693
 20
18.0482802738
 30
0.0
 40
2.0
 41
0.0
 71
     1
 72
     1
  1
DIN 69 871 B 30
  7
SLDTEXTSTYLE1
 73
     1
 44
1.0
  0
MTEXT
  5
7D
330
1F
100
AcDbEntity
  8
VERMASSUNG
100
AcDbMText
 10
13.9808475933
 20
13.9090974274
 30
0.0
 40
2.0
 41
0.0
 71
     1
 72
     1
  1
Gewicht: 417g
  7
SLDTEXTSTYLE0
 73
     1
 44
1.0
  0
ARC
  5
7E
330
1F
100
AcDbEntity
  8
0
  6
Continuous
 62
     7
370
    15
100
AcDbCircle
 10
157.7439978155
 20
100.5115541396
 30
0.0
 40
0.6000000000000085
100
AcDbArc
 50
0.0
 51
90.0
  0
ARC
  5
7F
330
1F
100
AcDbEntity
  8
0
  6
Continuous
 62
     7
370
    15
100
AcDbCircle
 10
157.7439978155
 20
133.4615541396
 30
0.0
 40
0.5999999999999943
100
AcDbArc
 50
270.0
 51
0.0
  0
LINE
  5
80
330
1F
100
AcDbEntity
  8
0
  6
Continuous
 62
     7
370
    15
100
AcDbLine
 10
155.1439978155
 20
132.8615541396
 30
0.0
 11
108.3496909224
 21
126.0373843844
 31
0.0
  0
LINE
  5
81
330
1F
100
AcDbEntity
  8
0
  6
Continuous
 62
     7
370
    15
100
AcDbLine
 10
108.3496909224
 20
107.9357238949
 30
0.0
 11
155.1439978155
 21
101.1115541396
 31
0.0
  0
LINE
  5
82
330
1F
100
AcDbEntity
  8
0
  6
Continuous
 62
     7
370
    15
100
AcDbLine
 10
155.1439978155
 20
101.1115541396
 30
0.0
 11
157.7439978155
 21
101.1115541396
 31
0.0
  0
LINE
  5
83
330
1F
100
AcDbEntity
  8
0
  6
Continuous
 62
     7
370
    15
100
AcDbLine
 10
157.7439978155
 20
132.8615541396
 30
0.0
 11
155.1439978155
 21
132.8615541396
 31
0.0
  0
ARC
  5
84
330
1F
100
AcDbEntity
  8
0
  6
Continuous
 62
     7
370
    15
100
AcDbCircle
 10
177.1939978155
 20
101.4865541396
 30
0.0
 40
3.0
100
AcDbArc
 50
90.0
 51
180.0
  0
ARC
  5
85
330
1F
100
AcDbEntity
  8
0
  6
Continuous
 62
     7
370
    15
100
AcDbCircle
 10
177.1939978155
 20
132.4865541396
 30
0.0
 40
3.0
100
AcDbArc
 50
180.0
 51
270.0
  0
LINE
  5
86
330
1F
100
AcDbEntity
  8
0
  6
Continuous
 62
     7
370
    15
100
AcDbLine
 10
194.0439978155
 20
104.4865541396
 30
0.0
 11
194.2439978155
 21
104.6865541396
 31
0.0
  0
LINE
  5
87
330
1F
100
AcDbEntity
  8
0
  6
Continuous
 62
     7
370
    15
100
AcDbLine
 10
194.2439978155
 20
129.2865541396
 30
0.0
 11
194.0439978155
 21
129.4865541396
 31
0.0
  0
LINE
  5
88
330
1F
100
AcDbEntity
  8
0
  6
Continuous
 62
     7
370
    15
100
AcDbLine
 10
177.1939978155
 20
104.4865541396
 30
0.0
 11
194.0439978155
 21
104.4865541396
 31
0.0
  0
LINE
  5
89
330
1F
100
AcDbEntity
  8
0
  6
Continuous
 62
     7
370
    15
100
AcDbLine
 10
194.0439978155
 20
129.4865541396
 30
0.0
 11
177.1939978155
 21
129.4865541396
 31
0.0
  0
ARC
  5
8A
330
1F
100
AcDbEntity
  8
0
  6
Continuous
 62
     7
370
    15
100
AcDbCircle
 10
108.4939978155
 20
108.9252568759
 30
0.0
 40
1.000000000000012
100
AcDbArc
 50
180.0
 51
261.7028550302
  0
ARC
  5
8B
330
1F
100
AcDbEntity
  8
0
  6
Continuous
 62
     7
370
    15
100
AcDbCircle
 10
108.4939978155
 20
125.0478514033
 30
0.0
 40
1.0
100
AcDbArc
 50
98.2971449698
 51
180.0
  0
SPLINE
  5
8C
330
1F
100
AcDbEntity
  8
0
  6
Continuous
 62
     7
370
    15
100
AcDbSpline
210
0.0
220
0.0
230
1.0
 70
    24
 71
     3
 72
    11
 73
     7
 74
     0
 42
0.000000001
 43
0.00000001
 40
0.0
 40
0.0
 40
0.0
 40
0.0
 40
0.1336647920874121
 40
0.4825473608259734
 40
0.8156356561503733
 40
1.0
 40
1.0
 40
1.0
 40
1.0
 10
187.860023219284
 20
115.4865541396398
 30
0.0
 10
187.7874623801701
 20
115.4865541396398
 30
0.0
 10
187.5255082719345
 20
115.4865541396398
 30
0.0
 10
187.0361462947496
 20
115.4865541396398
 30
0.0
 10
186.5105767203914
 20
115.4865541396398
 30
0.0
 10
186.2284809403336
 20
115.4865541396398
 30
0.0
 10
186.1279724117152
 20
115.4865541396398
 30
0.0
  0
SPLINE
  5
8D
330
1F
100
AcDbEntity
  8
0
  6
Continuous
 62
     7
370
    15
100
AcDbSpline
210
0.0
220
0.0
230
1.0
 70
    24
 71
     3
 72
    10
 73
     6
 74
     0
 42
0.000000001
 43
0.00000001
 40
0.0
 40
0.0
 40
0.0
 40
0.0
 40
0.4391165375904074
 40
0.7513669429073321
 40
0.9999999999999999
 40
0.9999999999999999
 40
0.9999999999999999
 40
0.9999999999999999
 10
188.7260486230685
 20
116.9865541396398
 30
0.0
 10
188.6020704101396
 20
116.7718175758155
 30
0.0
 10
188.3899328046042
 20
116.404384464832
 30
0.0
 10
188.0815533271799
 20
115.8702555419216
 30
0.0
 10
187.9280634712583
 20
115.6044033130189
 30
0.0
 10
187.860023219284
 20
115.4865541396398
 30
0.0
  0
SPLINE
  5
8E
330
1F
100
AcDbEntity
  8
0
  6
Continuous
 62
     7
370
    15
100
AcDbSpline
210
0.0
220
0.0
230
1.0
 70
    24
 71
     3
 72
    10
 73
     6
 74
     0
 42
0.000000001
 43
0.00000001
 40
0.0
 40
0.0
 40
0.0
 40
0.0
 40
0.4391165375904043
 40
0.751366942907332
 40
1.0
 40
1.0
 40
1.0
 40
1.0
 10
187.860023219284
 20
118.4865541396398
 30
0.0
 10
187.9840014322129
 20
118.2718175758154
 30
0.0
 10
188.1961390377483
 20
117.904384464832
 30
0.0
 10
188.5045185151726
 20
117.3702555419216
 30
0.0
 10
188.6580083710943
 20
117.1044033130189
 30
0.0
 10
188.7260486230685
 20
116.9865541396398
 30
0.0
  0
SPLINE
  5
8F
330
1F
100
AcDbEntity
  8
0
  6
Continuous
 62
     7
370
    15
100
AcDbSpline
210
0.0
220
0.0
230
1.0
 70
    24
 71
     3
 72
    11
 73
     7
 74
     0
 42
0.000000001
 43
0.00000001
 40
0.0
 40
0.0
 40
0.0
 40
0.0
 40
0.1843643438496321
 40
0.5174526391740295
 40
0.8663352079125959
 40
0.9999999999999999
 40
0.9999999999999999
 40
0.9999999999999999
 40
0.9999999999999999
 10
186.1279724117152
 20
118.4865541396398
 30
0.0
 10
186.2284809403336
 20
118.4865541396398
 30
0.0
 10
186.5105767203914
 20
118.4865541396398
 30
0.0
 10
187.0361462947496
 20
118.4865541396398
 30
0.0
 10
187.5255082719345
 20
118.4865541396398
 30
0.0
 10
187.7874623801701
 20
118.4865541396398
 30
0.0
 10
187.860023219284
 20
118.4865541396398
 30
0.0
  0
SPLINE
  5
90
330
1F
100
AcDbEntity
  8
0
  6
Continuous
 62
     7
370
    15
100
AcDbSpline
210
0.0
220
0.0
230
1.0
 70
    24
 71
     3
 72
    10
 73
     6
 74
     0
 42
0.000000001
 43
0.00000001
 40
0.0
 40
0.0
 40
0.0
 40
0.0
 40
0.4391165375904083
 40
0.7513669429073347
 40
0.9999999999999999
 40
0.9999999999999999
 40
0.9999999999999999
 40
0.9999999999999999
 10
185.2619470079308
 20
116.9865541396398
 30
0.0
 10
185.3859252208595
 20
117.2012907034641
 30
0.0
 10
185.598062826395
 20
117.5687238144475
 30
0.0
 10
185.9064423038193
 20
118.1028527373579
 30
0.0
 10
186.059932159741
 20
118.3687049662607
 30
0.0
 10
186.1279724117152
 20
118.4865541396398
 30
0.0
  0
CIRCLE
  5
91
330
1F
100
AcDbEntity
  8
0
  6
Continuous
 62
     7
370
    15
100
AcDbCircle
 10
186.9939978155
 20
116.9865541396
 30
0.0
 40
1.75
  0
SPLINE
  5
92
330
1F
100
AcDbEntity
  8
0
  6
Continuous
 62
     7
370
    15
100
AcDbSpline
210
0.0
220
0.0
230
1.0
 70
    24
 71
     3
 72
    10
 73
     6
 74
     0
 42
0.000000001
 43
0.00000001
 40
0.0
 40
0.0
 40
0.0
 40
0.0
 40
0.4391165375904061
 40
0.7513669429073399
 40
0.9999999999999999
 40
0.9999999999999999
 40
0.9999999999999999
 40
0.9999999999999999
 10
186.1279724117152
 20
115.4865541396398
 30
0.0
 10
186.0039941987863
 20
115.7012907034641
 30
0.0
 10
185.7918565932509
 20
116.0687238144476
 30
0.0
 10
185.4834771158266
 20
116.6028527373579
 30
0.0
 10
185.3299872599049
 20
116.8687049662607
 30
0.0
 10
185.2619470079308
 20
116.9865541396398
 30
0.0
  0
CIRCLE
  5
93
330
1F
100
AcDbEntity
  8
0
  6
Continuous
 62
     7
370
    15
100
AcDbCircle
 10
186.9939978155
 20
116.9865541396
 30
0.0
 40
2.600000000000009
  0
CIRCLE
  5
94
330
1F
100
AcDbEntity
  8
0
  6
Continuous
 62
     7
370
    15
100
AcDbCircle
 10
186.9939978155
 20
116.9865541396
 30
0.0
 40
3.0
  0
ARC
  5
95
330
1F
100
AcDbEntity
  8
0
  6
Continuous
 62
     7
370
    15
100
AcDbCircle
 10
186.9939978155
 20
116.9865541396
 30
0.0
 40
1.5
100
AcDbArc
 50
90.0
 51
150.0
  0
ARC
  5
96
330
1F
100
AcDbEntity
  8
0
  6
Continuous
 62
     7
370
    15
100
AcDbCircle
 10
186.9939978155
 20
116.9865541396
 30
0.0
 40
1.5
100
AcDbArc
 50
210.0
 51
270.0
  0
ARC
  5
97
330
1F
100
AcDbEntity
  8
0
  6
Continuous
 62
     7
370
    15
100
AcDbCircle
 10
186.9939978155
 20
116.9865541396
 30
0.0
 40
1.500000000000025
100
AcDbArc
 50
30.0
 51
90.0
  0
ARC
  5
98
330
1F
100
AcDbEntity
  8
0
  6
Continuous
 62
     7
370
    15
100
AcDbCircle
 10
186.9939978155
 20
116.9865541396
 30
0.0
 40
1.500000000000025
100
AcDbArc
 50
330.0
 51
30.0
  0
ARC
  5
99
330
1F
100
AcDbEntity
  8
0
  6
Continuous
 62
     7
370
    15
100
AcDbCircle
 10
186.9939978155
 20
116.9865541396
 30
0.0
 40
1.500000000000025
100
AcDbArc
 50
270.0
 51
330.0
  0
ARC
  5
9A
330
1F
100
AcDbEntity
  8
0
  6
Continuous
 62
     7
370
    15
100
AcDbCircle
 10
186.9939978155
 20
116.9865541396
 30
0.0
 40
1.5
100
AcDbArc
 50
150.0
 51
210.0
  0
LINE
  5
9B
330
1F
100
AcDbEntity
  8
0
  6
Continuous
 62
     7
370
    15
100
AcDbLine
 10
169.6070631335
 20
93.6788190825
 30
0.0
 11
173.5939978155
 21
93.6788190825
 31
0.0
  0
LINE
  5
9C
330
1F
100
AcDbEntity
  8
0
  6
Continuous
 62
     7
370
    15
100
AcDbLine
 10
169.6070631335
 20
93.6788190825
 30
0.0
 11
169.6070631335
 21
131.8365541396
 31
0.0
  0
LINE
  5
9D
330
1F
100
AcDbEntity
  8
0
  6
Continuous
 62
     7
370
    15
100
AcDbLine
 10
173.5939978155
 20
131.8365541396
 30
0.0
 11
169.6070631335
 21
131.8365541396
 31
0.0
  0
SPLINE
  5
9E
330
1F
100
AcDbEntity
  8
0
  6
Continuous
 62
     7
370
    15
100
AcDbSpline
210
0.0
220
0.0
230
1.0
 70
     8
 71
     3
 72
    12
 73
     8
 74
     0
 42
0.000000001
 43
0.00000001
 40
0.0
 40
0.0
 40
0.0
 40
0.0
 40
0.25
 40
0.25
 40
0.5
 40
0.5
 40
1.0
 40
1.0
 40
1.0
 40
1.0
 10
173.5939978154996
 20
93.67881908247719
 30
0.0
 10
173.6892118532814
 20
93.67881908247719
 30
0.0
 10
173.7811372521665
 20
93.69282613617017
 30
0.0
 10
173.9373780704293
 20
93.7392195171031
 30
0.0
 10
174.0011842401184
 20
93.77080815879992
 30
0.0
 10
174.15051046117
 20
93.8770890226123
 30
0.0
 10
174.1939978154996
 20
93.9600298515836
 30
0.0
 10
174.1939978154996
 20
94.04339347745652
 30
0.0
  0
SPLINE
  5
9F
330
1F
100
AcDbEntity
  8
0
  6
Continuous
 62
     7
370
    15
100
AcDbSpline
210
0.0
220
0.0
230
1.0
 70
    24
 71
     3
 72
    14
 73
    10
 74
     0
 42
0.000000001
 43
0.00000001
 40
0.0
 40
0.0
 40
0.0
 40
0.0
 40
0.25
 40
0.25
 40
0.5
 40
0.5
 40
0.75
 40
0.75
 40
1.0
 40
1.0
 40
1.0
 40
1.0
 10
174.1939978154996
 20
131.8365541396398
 30
0.0
 10
174.1939978154996
 20
131.8365541396398
 30
0.0
 10
174.1816912376227
 20
131.8365541396398
 30
0.0
 10
174.131723393249
 20
131.8365541396398
 30
0.0
 10
174.093520528677
 20
131.8365541396398
 30
0.0
 10
173.9906324612084
 20
131.8365541396398
 30
0.0
 10
173.9256046194434
 20
131.8365541396398
 30
0.0
 10
173.7703412755235
 20
131.8365541396398
 30
0.0
 10
173.6826542880546
 20
131.8365541396398
 30
0.0
 10
173.5939978154996
 20
131.8365541396398
 30
0.0
  0
LINE
  5
A0
330
1F
100
AcDbEntity
  8
0
  6
Continuous
 62
     7
370
    15
100
AcDbLine
 10
174.1939978155
 20
94.0433934775
 30
0.0
 11
174.1939978155
 21
131.8365541396
 31
0.0
  0
LINE
  5
A1
330
1F
100
AcDbEntity
  8
0
  6
Continuous
 62
     7
370
    15
100
AcDbLine
 10
158.9439978155
 20
93.6788190825
 30
0.0
 11
162.8809324975
 21
93.6788190825
 31
0.0
  0
LINE
  5
A2
330
1F
100
AcDbEntity
  8
0
  6
Continuous
 62
     7
370
    15
100
AcDbLine
 10
162.8809324975
 20
131.8365541396
 30
0.0
 11
158.9439978155
 21
131.8365541396
 31
0.0
  0
LINE
  5
A3
330
1F
100
AcDbEntity
  8
0
  6
Continuous
 62
     7
370
    15
100
AcDbLine
 10
162.8809324975
 20
93.6788190825
 30
0.0
 11
162.8809324975
 21
131.8365541396
 31
0.0
  0
SPLINE
  5
A4
330
1F
100
AcDbEntity
  8
0
  6
Continuous
 62
     7
370
    15
100
AcDbSpline
210
0.0
220
0.0
230
1.0
 70
     8
 71
     3
 72
     8
 73
     4
 74
     0
 42
0.000000001
 43
0.00000001
 40
0.0
 40
0.0
 40
0.0
 40
0.0
 40
0.0011140524372172
 40
0.0011140524372172
 40
0.0011140524372172
 40
0.0011140524372172
 10
169.1771323629173
 20
94.13252205386483
 30
0.0
 10
169.3187415318429
 20
93.98097577782664
 30
0.0
 10
169.4621125766294
 20
93.82974845254336
 30
0.0
 10
169.6070631335292
 20
93.6788190824772
 30
0.0
  0
SPLINE
  5
A5
330
1F
100
AcDbEntity
  8
0
  6
Continuous
 62
     7
370
    15
100
AcDbSpline
210
0.0
220
0.0
230
1.0
 70
     8
 71
     3
 72
     8
 73
     4
 74
     0
 42
0.000000001
 43
0.00000001
 40
0.0
 40
0.0
 40
0.0
 40
0.0
 40
1.0
 40
1.0
 40
1.0
 40
1.0
 10
169.1771323629173
 20
94.13252205386485
 30
0.0
 10
168.8347846408417
 20
94.76119491155644
 30
0.0
 10
168.4936147152557
 20
95.39054978511025
 30
0.0
 10
168.1539978154996
 20
96.02065294922853
 30
0.0
  0
LINE
  5
A6
330
1F
100
AcDbEntity
  8
0
  6
Continuous
 62
     7
370
    15
100
AcDbLine
 10
168.1539978155
 20
96.0206529492
 30
0.0
 11
168.1539978155
 21
131.8365541396
 31
0.0
  0
SPLINE
  5
A7
330
1F
100
AcDbEntity
  8
0
  6
Continuous
 62
     7
370
    15
100
AcDbSpline
210
0.0
220
0.0
230
1.0
 70
    24
 71
     3
 72
     8
 73
     4
 74
     0
 42
0.000000001
 43
0.00000001
 40
0.0
 40
0.0
 40
0.0
 40
0.0
 40
1.0
 40
1.0
 40
1.0
 40
1.0
 10
169.6070631335292
 20
131.8365541396398
 30
0.0
 10
169.1097075879325
 20
131.8365541396398
 30
0.0
 10
168.6236256499137
 20
131.8365541396398
 30
0.0
 10
168.1539978154996
 20
131.8365541396398
 30
0.0
  0
SPLINE
  5
A8
330
1F
100
AcDbEntity
  8
0
  6
Continuous
 62
     7
370
    15
100
AcDbSpline
210
0.0
220
0.0
230
1.0
 70
     8
 71
     3
 72
    10
 73
     6
 74
     0
 42
0.000000001
 43
0.00000001
 40
0.0
 40
0.0
 40
0.0
 40
0.0
 40
0.5
 40
0.5
 40
1.0
 40
1.0
 40
1.0
 40
1.0
 10
158.5761206754046
 20
93.75473671225016
 30
0.0
 10
158.6241935098007
 20
93.73220876974779
 30
0.0
 10
158.6798833838048
 20
93.71321547906105
 30
0.0
 10
158.8051600191684
 20
93.68633519989412
 30
0.0
 10
158.8736057066666
 20
93.6788190824772
 30
0.0
 10
158.9439978154996
 20
93.6788190824772
 30
0.0
  0
SPLINE
  5
A9
330
1F
100
AcDbEntity
  8
0
  6
Continuous
 62
     7
370
    15
100
AcDbSpline
210
0.0
220
0.0
230
1.0
 70
     8
 71
     3
 72
    10
 73
     6
 74
     0
 42
0.000000001
 43
0.00000001
 40
0.0
 40
0.0
 40
0.0
 40
0.0
 40
0.5
 40
0.5
 40
1.0
 40
1.0
 40
1.0
 40
1.0
 10
158.5761206754046
 20
93.75473671225016
 30
0.0
 10
158.5136616001029
 20
93.83029442667508
 30
0.0
 10
158.4579324473547
 20
93.91886294329845
 30
0.0
 10
158.3732570649653
 20
94.12098037213649
 30
0.0
 10
158.3439978154996
 20
94.23489420017272
 30
0.0
 10
158.3439978154996
 20
94.35387588451496
 30
0.0
  0
LINE
  5
AA
330
1F
100
AcDbEntity
  8
0
  6
Continuous
 62
     7
370
    15
100
AcDbLine
 10
158.3439978155
 20
94.3538758845
 30
0.0
 11
158.3439978155
 21
131.8365541396
 31
0.0
  0
SPLINE
  5
AB
330
1F
100
AcDbEntity
  8
0
  6
Continuous
 62
     7
370
    15
100
AcDbSpline
210
0.0
220
0.0
230
1.0
 70
    24
 71
     3
 72
    14
 73
    10
 74
     0
 42
0.000000001
 43
0.00000001
 40
0.0
 40
0.0
 40
0.0
 40
0.0
 40
0.25
 40
0.25
 40
0.5
 40
0.5
 40
0.75
 40
0.75
 40
1.0
 40
1.0
 40
1.0
 40
1.0
 10
158.9439978154996
 20
131.8365541396398
 30
0.0
 10
158.8554926641298
 20
131.8365541396398
 30
0.0
 10
158.7665521131371
 20
131.8365541396398
 30
0.0
 10
158.6133254820987
 20
131.8365541396398
 30
0.0
 10
158.5478411577725
 20
131.8365541396398
 30
0.0
 10
158.4445525811075
 20
131.8365541396398
 30
0.0
 10
158.4066280675898
 20
131.8365541396398
 30
0.0
 10
158.3561075337789
 20
131.8365541396398
 30
0.0
 10
158.3439978154996
 20
131.8365541396398
 30
0.0
 10
158.3439978154996
 20
131.8365541396398
 30
0.0
  0
SPLINE
  5
AC
330
1F
100
AcDbEntity
  8
0
  6
Continuous
 62
     7
370
    15
100
AcDbSpline
210
0.0
220
0.0
230
1.0
 70
     8
 71
     3
 72
     8
 73
     4
 74
     0
 42
0.000000001
 43
0.00000001
 40
0.0
 40
0.0
 40
0.0
 40
0.0
 40
1.0
 40
1.0
 40
1.0
 40
1.0
 10
164.3339978154996
 20
96.02065294922853
 30
0.0
 10
163.9943623003425
 20
95.3905152473028
 30
0.0
 10
163.6532055891151
 20
94.76118499331105
 30
0.0
 10
163.3108632680819
 20
94.13252205386483
 30
0.0
  0
SPLINE
  5
AD
330
1F
100
AcDbEntity
  8
0
  6
Continuous
 62
     7
370
    15
100
AcDbSpline
210
0.0
220
0.0
230
1.0
 70
     8
 71
     3
 72
     8
 73
     4
 74
     0
 42
0.000000001
 43
0.00000001
 40
0.0
 40
0.0
 40
0.0
 40
0.0
 40
0.0011140524372172
 40
0.0011140524372172
 40
0.0011140524372172
 40
0.0011140524372172
 10
162.88093249747
 20
93.6788190824772
 30
0.0
 10
163.0258830543698
 20
93.82974845254336
 30
0.0
 10
163.1692540991563
 20
93.98097577782664
 30
0.0
 10
163.3108632680819
 20
94.13252205386483
 30
0.0
  0
SPLINE
  5
AE
330
1F
100
AcDbEntity
  8
0
  6
Continuous
 62
     7
370
    15
100
AcDbSpline
210
0.0
220
0.0
230
1.0
 70
    24
 71
     3
 72
     8
 73
     4
 74
     0
 42
0.000000001
 43
0.00000001
 40
0.0
 40
0.0
 40
0.0
 40
0.0
 40
1.0
 40
1.0
 40
1.0
 40
1.0
 10
164.3339978154996
 20
131.8365541396398
 30
0.0
 10
163.8643699810855
 20
131.8365541396398
 30
0.0
 10
163.3782880430667
 20
131.8365541396398
 30
0.0
 10
162.88093249747
 20
131.8365541396398
 30
0.0
  0
LINE
  5
AF
330
1F
100
AcDbEntity
  8
0
  6
Continuous
 62
     7
370
    15
100
AcDbLine
 10
164.3339978155
 20
96.0206529492
 30
0.0
 11
164.3339978155
 21
131.8365541396
 31
0.0
  0
SPLINE
  5
B0
330
1F
100
AcDbEntity
  8
0
  6
Continuous
 62
     7
370
    15
100
AcDbSpline
210
0.0
220
0.0
230
1.0
 70
     8
 71
     3
 72
    10
 73
     6
 74
     0
 42
0.000000001
 43
0.00000001
 40
0.0
 40
0.0
 40
0.0
 40
0.0
 40
0.5
 40
0.5
 40
1.0
 40
1.0
 40
1.0
 40
1.0
 10
168.1539978154996
 20
96.02065294922853
 30
0.0
 10
168.1191163670609
 20
96.14977296549094
 30
0.0
 10
168.0464117402934
 20
96.26632070853647
 30
0.0
 10
167.8429502193543
 20
96.43520383245591
 30
0.0
 10
167.7111264570364
 20
96.48538039275397
 30
0.0
 10
167.5776442390615
 20
96.48538039275397
 30
0.0
  0
SPLINE
  5
B1
330
1F
100
AcDbEntity
  8
0
  6
Continuous
 62
     7
370
    15
100
AcDbSpline
210
0.0
220
0.0
230
1.0
 70
    24
 71
     3
 72
    14
 73
    10
 74
     0
 42
0.000000001
 43
0.00000001
 40
0.0
 40
0.0
 40
0.0
 40
0.0
 40
0.25
 40
0.25
 40
0.5
 40
0.5
 40
0.75
 40
0.75
 40
1.0
 40
1.0
 40
1.0
 40
1.0
 10
168.1539978154997
 20
131.8365541396398
 30
0.0
 10
168.1384571763439
 20
131.8365541396398
 30
0.0
 10
168.1155310148539
 20
131.8365541396398
 30
0.0
 10
168.0524630372188
 20
131.8365541396398
 30
0.0
 10
168.0124365345487
 20
131.8365541396398
 30
0.0
 10
167.9149522178735
 20
131.8365541396398
 30
0.0
 10
167.8570171959065
 20
131.8365541396398
 30
0.0
 10
167.7252677714444
 20
131.8365541396398
 30
0.0
 10
167.6521231769453
 20
131.8365541396398
 30
0.0
 10
167.5776442390615
 20
131.8365541396398
 30
0.0
  0
SPLINE
  5
B2
330
1F
100
AcDbEntity
  8
0
  6
Continuous
 62
     7
370
    15
100
AcDbSpline
210
0.0
220
0.0
230
1.0
 70
     8
 71
     3
 72
    12
 73
     8
 74
     0
 42
0.000000001
 43
0.00000001
 40
0.0
 40
0.0
 40
0.0
 40
0.0
 40
0.2499999999999988
 40
0.2499999999999988
 40
0.4999999999999976
 40
0.4999999999999976
 40
1.0
 40
1.0
 40
1.0
 40
1.0
 10
164.9103513919378
 20
96.48538039275398
 30
0.0
 10
164.8443546320224
 20
96.48538039275397
 30
0.0
 10
164.7776938200701
 20
96.47346427375511
 30
0.0
 10
164.6520884086034
 20
96.42697904675637
 30
0.0
 10
164.5951624700651
 20
96.39371964438261
 30
0.0
 10
164.4408900141307
 20
96.26590154505577
 30
0.0
 10
164.3686904252352
 20
96.14907394473636
 30
0.0
 10
164.3339978154996
 20
96.02065294922853
 30
0.0
  0
SPLINE
  5
B3
330
1F
100
AcDbEntity
  8
0
  6
Continuous
 62
     7
370
    15
100
AcDbSpline
210
0.0
220
0.0
230
1.0
 70
    24
 71
     3
 72
    12
 73
     8
 74
     0
 42
0.000000001
 43
0.00000001
 40
0.0
 40
0.0
 40
0.0
 40
0.0
 40
0.2500000000000022
 40
0.2500000000000022
 40
0.5000000000000044
 40
0.5000000000000044
 40
1.0
 40
1.0
 40
1.0
 40
1.0
 10
164.9103513919378
 20
131.8365541396398
 30
0.0
 10
164.8358553853262
 20
131.8365541396398
 30
0.0
 10
164.7625095199002
 20
131.8365541396398
 30
0.0
 10
164.6321162844577
 20
131.8365541396398
 30
0.0
 10
164.5737991690154
 20
131.8365541396398
 30
0.0
 10
164.4274464411679
 20
131.8365541396398
 30
0.0
 10
164.365219269001
 20
131.8365541396398
 30
0.0
 10
164.3339978154996
 20
131.8365541396398
 30
0.0
  0
LINE
  5
B4
330
1F
100
AcDbEntity
  8
0
  6
Continuous
 62
     7
370
    15
100
AcDbLine
 10
167.5776442391
 20
96.4853803928
 30
0.0
 11
164.9103513919
 21
96.4853803928
 31
0.0
  0
LINE
  5
B5
330
1F
100
AcDbEntity
  8
0
  6
Continuous
 62
     7
370
    15
100
AcDbLine
 10
167.5776442391
 20
131.8365541396
 30
0.0
 11
164.9103513919
 21
131.8365541396
 31
0.0
  0
LINE
  5
B6
330
1F
100
AcDbEntity
  8
0
  6
Continuous
 62
     7
370
    15
100
AcDbLine
 10
155.1439978155
 20
101.1115541396
 30
0.0
 11
155.1439978155
 21
132.8615541396
 31
0.0
  0
LINE
  5
B7
330
1F
100
AcDbEntity
  8
0
  6
Continuous
 62
     7
370
    15
100
AcDbLine
 10
173.5939978155
 20
140.3649803415
 30
0.0
 11
169.6070631335
 21
140.3649803415
 31
0.0
  0
LINE
  5
B8
330
1F
100
AcDbEntity
  8
0
  6
Continuous
 62
     7
370
    15
100
AcDbLine
 10
169.6070631335
 20
137.0670950935
 30
0.0
 11
173.5939978155
 21
137.0670950935
 31
0.0
  0
LINE
  5
B9
330
1F
100
AcDbEntity
  8
0
  6
Continuous
 62
     7
370
    15
100
AcDbLine
 10
169.6070631335
 20
137.0670950935
 30
0.0
 11
169.6070631335
 21
140.3649803415
 31
0.0
  0
SPLINE
  5
BA
330
1F
100
AcDbEntity
  8
0
  6
Continuous
 62
     7
370
    15
100
AcDbSpline
210
0.0
220
0.0
230
1.0
 70
     8
 71
     3
 72
    12
 73
     8
 74
     0
 42
0.000000001
 43
0.00000001
 40
0.0
 40
0.0
 40
0.0
 40
0.0
 40
0.5
 40
0.5
 40
0.75
 40
0.75
 40
1.0
 40
1.0
 40
1.0
 40
1.0
 10
174.1939978154996
 20
139.8979117535801
 30
0.0
 10
174.1939978154996
 20
140.015679864102
 30
0.0
 10
174.137477753601
 20
140.1311688200463
 30
0.0
 10
173.9743727788271
 20
140.2645225898036
 30
0.0
 10
173.9086242332719
 20
140.3007806006019
 30
0.0
 10
173.7593350669122
 20
140.3513880478525
 30
0.0
 10
173.6775411398801
 20
140.364980341482
 30
0.0
 10
173.5939978154996
 20
140.364980341482
 30
0.0
  0
SPLINE
  5
BB
330
1F
100
AcDbEntity
  8
0
  6
Continuous
 62
     7
370
    15
100
AcDbSpline
210
0.0
220
0.0
230
1.0
 70
     8
 71
     3
 72
    12
 73
     8
 74
     0
 42
0.000000001
 43
0.00000001
 40
0.0
 40
0.0
 40
0.0
 40
0.0
 40
0.25
 40
0.25
 40
0.5
 40
0.5
 40
1.0
 40
1.0
 40
1.0
 40
1.0
 10
173.5939978154996
 20
137.0670950935085
 30
0.0
 10
173.6825390895436
 20
137.0670950935085
 30
0.0
 10
173.7718557380013
 20
137.0412241305539
 30
0.0
 10
173.9244508179713
 20
136.9523652477419
 30
0.0
 10
173.9900609197623
 20
136.8894838221208
 30
0.0
 10
174.1455204728113
 20
136.6716086422302
 30
0.0
 10
174.1939978154996
 20
136.4926701091511
 30
0.0
 10
174.1939978154996
 20
136.3157580808268
 30
0.0
  0
LINE
  5
BC
330
1F
100
AcDbEntity
  8
0
  6
Continuous
 62
     7
370
    15
100
AcDbLine
 10
174.1939978155
 20
136.3157580808
 30
0.0
 11
174.1939978155
 21
139.8979117536
 31
0.0
  0
SPLINE
  5
BD
330
1F
100
AcDbEntity
  8
0
  6
Continuous
 62
     7
370
    15
100
AcDbSpline
210
0.0
220
0.0
230
1.0
 70
     8
 71
     3
 72
    10
 73
     6
 74
     0
 42
0.000000001
 43
0.00000001
 40
0.0
 40
0.0
 40
0.0
 40
0.0
 40
0.5
 40
0.5
 40
1.0
 40
1.0
 40
1.0
 40
1.0
 10
168.1539978154996
 20
137.952455330051
 30
0.0
 10
168.1192776668411
 20
137.8239323942187
 30
0.0
 10
168.0467636560475
 20
137.7069321187116
 30
0.0
 10
167.8417981334772
 20
137.5370962954591
 30
0.0
 10
167.7105545347395
 20
137.4877278865256
 30
0.0
 10
167.5776442390615
 20
137.4877278865256
 30
0.0
  0
LINE
  5
BE
330
1F
100
AcDbEntity
  8
0
  6
Continuous
 62
     7
370
    15
100
AcDbLine
 10
168.1539978155
 20
133.8343733672
 30
0.0
 11
168.1539978155
 21
137.9524553301
 31
0.0
  0
SPLINE
  5
BF
330
1F
100
AcDbEntity
  8
0
  6
Continuous
 62
     7
370
    15
100
AcDbSpline
210
0.0
220
0.0
230
1.0
 70
     8
 71
     3
 72
    14
 73
    10
 74
     0
 42
0.000000001
 43
0.00000001
 40
0.0
 40
0.0
 40
0.0
 40
0.0
 40
0.25
 40
0.25
 40
0.5
 40
0.5
 40
0.75
 40
0.75
 40
1.0
 40
1.0
 40
1.0
 40
1.0
 10
167.5776442390618
 20
133.2524117868714
 30
0.0
 10
167.6511028290965
 20
133.2524117868714
 30
0.0
 10
167.7249520795556
 20
133.2715221786456
 30
0.0
 10
167.856773954803
 20
133.3392823521511
 30
0.0
 10
167.9148931497866
 20
133.387215849552
 30
0.0
 10
168.0120716297485
 20
133.4971328637821
 30
0.0
 10
168.0522366960861
 20
133.5602203417574
 30
0.0
 10
168.1152363274827
 20
133.6928151874959
 30
0.0
 10
168.1383342782131
 20
133.762219643806
 30
0.0
 10
168.1539978154996
 20
133.8343733672457
 30
0.0
  0
SPLINE
  5
C0
330
1F
100
AcDbEntity
  8
0
  6
Continuous
 62
     7
370
    15
100
AcDbSpline
210
0.0
220
0.0
230
1.0
 70
     8
 71
     3
 72
     8
 73
     4
 74
     0
 42
0.000000001
 43
0.00000001
 40
0.0
 40
0.0
 40
0.0
 40
0.0
 40
0.0011754745544621
 40
0.0011754745544621
 40
0.0011754745544621
 40
0.0011754745544621
 10
163.4262214805716
 20
139.6286379099
 30
0.0
 10
163.2450638855152
 20
139.8743090722253
 30
0.0
 10
163.0632764355299
 20
140.1197484079008
 30
0.0
 10
162.88093249747
 20
140.364980341482
 30
0.0
  0
SPLINE
  5
C1
330
1F
100
AcDbEntity
  8
0
  6
Continuous
 62
     7
370
    15
100
AcDbSpline
210
0.0
220
0.0
230
1.0
 70
     8
 71
     3
 72
     8
 73
     4
 74
     0
 42
0.000000001
 43
0.00000001
 40
0.0
 40
0.0
 40
0.0
 40
0.0
 40
1.0
 40
1.0
 40
1.0
 40
1.0
 10
164.3339978154995
 20
137.9524553300512
 30
0.0
 10
164.0325319326993
 20
138.5117755722493
 30
0.0
 10
163.7298639763889
 20
139.0704631830734
 30
0.0
 10
163.4262214805716
 20
139.6286379099
 30
0.0
  0
LINE
  5
C2
330
1F
100
AcDbEntity
  8
0
  6
Continuous
 62
     7
370
    15
100
AcDbLine
 10
164.3339978155
 20
133.8343733672
 30
0.0
 11
164.3339978155
 21
137.9524553301
 31
0.0
  0
SPLINE
  5
C3
330
1F
100
AcDbEntity
  8
0
  6
Continuous
 62
     7
370
    15
100
AcDbSpline
210
0.0
220
0.0
230
1.0
 70
     8
 71
     3
 72
     8
 73
     4
 74
     0
 42
0.000000001
 43
0.00000001
 40
0.0
 40
0.0
 40
0.0
 40
0.0
 40
1.0
 40
1.0
 40
1.0
 40
1.0
 10
162.88093249747
 20
137.0670950935085
 30
0.0
 10
163.3788369067617
 20
135.9944978207923
 30
0.0
 10
163.8649430663959
 20
134.9173416699692
 30
0.0
 10
164.3339978154996
 20
133.8343733672457
 30
0.0
  0
LINE
  5
C4
330
1F
100
AcDbEntity
  8
0
  6
Continuous
 62
     7
370
    15
100
AcDbLine
 10
162.8809324975
 20
137.0670950935
 30
0.0
 11
162.8809324975
 21
140.3649803415
 31
0.0
  0
SPLINE
  5
C5
330
1F
100
AcDbEntity
  8
0
  6
Continuous
 62
     7
370
    15
100
AcDbSpline
210
0.0
220
0.0
230
1.0
 70
     8
 71
     3
 72
    10
 73
     6
 74
     0
 42
0.000000001
 43
0.00000001
 40
0.0
 40
0.0
 40
0.0
 40
0.0
 40
0.5
 40
0.5
 40
1.0
 40
1.0
 40
1.0
 40
1.0
 10
164.9103513919378
 20
137.4877278865256
 30
0.0
 10
164.7780901992211
 20
137.4877278865256
 30
0.0
 10
164.646251267344
 20
137.537147893472
 30
0.0
 10
164.441699817866
 20
137.7064485537753
 30
0.0
 10
164.3685352652373
 20
137.8246086874543
 30
0.0
 10
164.3339978154995
 20
137.9524553300512
 30
0.0
  0
SPLINE
  5
C6
330
1F
100
AcDbEntity
  8
0
  6
Continuous
 62
     7
370
    15
100
AcDbSpline
210
0.0
220
0.0
230
1.0
 70
     8
 71
     3
 72
    12
 73
     8
 74
     0
 42
0.000000001
 43
0.00000001
 40
0.0
 40
0.0
 40
0.0
 40
0.0
 40
0.4999999999999976
 40
0.4999999999999976
 40
0.7499999999999988
 40
0.7499999999999988
 40
1.0
 40
1.0
 40
1.0
 40
1.0
 10
164.3339978154995
 20
133.8343733672457
 30
0.0
 10
164.3649888413618
 20
133.6916139210055
 30
0.0
 10
164.4268616141936
 20
133.5524048538554
 30
0.0
 10
164.5740243409352
 20
133.3862847682666
 30
0.0
 10
164.6319849758701
 20
133.3388034299311
 30
0.0
 10
164.7632428468657
 20
133.2715069370218
 30
0.0
 10
164.8369288049528
 20
133.2524117868715
 30
0.0
 10
164.9103513919378
 20
133.2524117868715
 30
0.0
  0
LINE
  5
C7
330
1F
100
AcDbEntity
  8
0
  6
Continuous
 62
     7
370
    15
100
AcDbLine
 10
167.5776442391
 20
137.4877278865
 30
0.0
 11
164.9103513919
 21
137.4877278865
 31
0.0
  0
LINE
  5
C8
330
1F
100
AcDbEntity
  8
0
  6
Continuous
 62
     7
370
    15
100
AcDbLine
 10
164.9103513919
 20
133.2524117869
 30
0.0
 11
167.5776442391
 21
133.2524117869
 31
0.0
  0
SPLINE
  5
C9
330
1F
100
AcDbEntity
  8
0
  6
Continuous
 62
     7
370
    15
100
AcDbSpline
210
0.0
220
0.0
230
1.0
 70
     8
 71
     3
 72
    12
 73
     8
 74
     0
 42
0.000000001
 43
0.00000001
 40
0.0
 40
0.0
 40
0.0
 40
0.0
 40
0.500000000000004
 40
0.500000000000004
 40
0.750000000000002
 40
0.750000000000002
 40
1.0
 40
1.0
 40
1.0
 40
1.0
 10
158.3439978154996
 20
136.3157580808266
 30
0.0
 10
158.3439978154996
 20
136.4923542145443
 30
0.0
 10
158.3928343251011
 20
136.67188535702
 30
0.0
 10
158.5472915743561
 20
136.8886952895422
 30
0.0
 10
158.613009226758
 20
136.9520001453087
 30
0.0
 10
158.7661797513837
 20
137.0413003896993
 30
0.0
 10
158.8549590490706
 20
137.0670950935085
 30
0.0
 10
158.9439978154996
 20
137.0670950935085
 30
0.0
  0
LINE
  5
CA
330
1F
100
AcDbEntity
  8
0
  6
Continuous
 62
     7
370
    15
100
AcDbLine
 10
158.9439978155
 20
137.0670950935
 30
0.0
 11
162.8809324975
 21
137.0670950935
 31
0.0
  0
SPLINE
  5
CB
330
1F
100
AcDbEntity
  8
0
  6
Continuous
 62
     7
370
    15
100
AcDbSpline
210
0.0
220
0.0
230
1.0
 70
     8
 71
     3
 72
     8
 73
     4
 74
     0
 42
0.000000001
 43
0.00000001
 40
0.0
 40
0.0
 40
0.0
 40
0.0
 40
1.0
 40
1.0
 40
1.0
 40
1.0
 10
168.1539978154996
 20
133.8343733672457
 30
0.0
 10
168.6230525646033
 20
134.9173416699692
 30
0.0
 10
169.1091587242375
 20
135.9944978207923
 30
0.0
 10
169.6070631335292
 20
137.0670950935085
 30
0.0
  0
LINE
  5
CC
330
1F
100
AcDbEntity
  8
0
  6
Continuous
 62
     7
370
    15
100
AcDbLine
 10
158.3439978155
 20
136.3157580808
 30
0.0
 11
158.3439978155
 21
131.8365541396
 31
0.0
  0
LINE
  5
CD
330
1F
100
AcDbEntity
  8
0
  6
Continuous
 62
     7
370
    15
100
AcDbLine
 10
174.1939978155
 20
136.3157580808
 30
0.0
 11
174.1939978155
 21
131.8365541396
 31
0.0
  0
SPLINE
  5
CE
330
1F
100
AcDbEntity
  8
0
  6
Continuous
 62
     7
370
    15
100
AcDbSpline
210
0.0
220
0.0
230
1.0
 70
     8
 71
     3
 72
     8
 73
     4
 74
     0
 42
0.000000001
 43
0.00000001
 40
0.0
 40
0.0
 40
0.0
 40
0.0
 40
1.0
 40
1.0
 40
1.0
 40
1.0
 10
169.0617741504277
 20
139.6286379099
 30
0.0
 10
168.7581316546103
 20
139.0704631830733
 30
0.0
 10
168.4554636982998
 20
138.5117755722491
 30
0.0
 10
168.1539978154996
 20
137.952455330051
 30
0.0
  0
SPLINE
  5
CF
330
1F
100
AcDbEntity
  8
0
  6
Continuous
 62
     7
370
    15
100
AcDbSpline
210
0.0
220
0.0
230
1.0
 70
     8
 71
     3
 72
     8
 73
     4
 74
     0
 42
0.000000001
 43
0.00000001
 40
0.0
 40
0.0
 40
0.0
 40
0.0
 40
0.0011754745544621
 40
0.0011754745544621
 40
0.0011754745544621
 40
0.0011754745544621
 10
169.6070631335292
 20
140.364980341482
 30
0.0
 10
169.4247191954694
 20
140.1197484079008
 30
0.0
 10
169.242931745484
 20
139.8743090722253
 30
0.0
 10
169.0617741504277
 20
139.6286379099
 30
0.0
  0
LINE
  5
D0
330
1F
100
AcDbEntity
  8
0
  6
Continuous
 62
     7
370
    15
100
AcDbLine
 10
162.8809324975
 20
140.3649803415
 30
0.0
 11
158.9439978155
 21
140.3649803415
 31
0.0
  0
SPLINE
  5
D1
330
1F
100
AcDbEntity
  8
0
  6
Continuous
 62
     7
370
    15
100
AcDbSpline
210
0.0
220
0.0
230
1.0
 70
     8
 71
     3
 72
    10
 73
     6
 74
     0
 42
0.000000001
 43
0.00000001
 40
0.0
 40
0.0
 40
0.0
 40
0.0
 40
0.5
 40
0.5
 40
1.0
 40
1.0
 40
1.0
 40
1.0
 10
158.6622363298599
 20
140.3103993955398
 30
0.0
 10
158.5777903376798
 20
140.2308240641085
 30
0.0
 10
158.5042098183077
 20
140.1351371209618
 30
0.0
 10
158.3863517431549
 20
139.9003120218369
 30
0.0
 10
158.3439978155006
 20
139.7641227514524
 30
0.0
 10
158.3439978154996
 20
139.6192323947695
 30
0.0
  0
SPLINE
  5
D2
330
1F
100
AcDbEntity
  8
0
  6
Continuous
 62
     7
370
    15
100
AcDbSpline
210
0.0
220
0.0
230
1.0
 70
     8
 71
     3
 72
     8
 73
     4
 74
     0
 42
0.000000001
 43
0.00000001
 40
0.0
 40
0.0
 40
0.0
 40
0.0
 40
1.0
 40
1.0
 40
1.0
 40
1.0
 10
158.9439978154996
 20
140.364980341482
 30
0.0
 10
158.8447242143694
 20
140.364980341482
 30
0.0
 10
158.7479128693751
 20
140.3458047864491
 30
0.0
 10
158.6622363298599
 20
140.3103993955398
 30
0.0
  0
LINE
  5
D3
330
1F
100
AcDbEntity
  8
0
  6
Continuous
 62
     7
370
    15
100
AcDbLine
 10
158.3439978155
 20
136.3157580808
 30
0.0
 11
158.3439978155
 21
139.6192323948
 31
0.0
  0
LINE
  5
D4
330
1F
100
AcDbEntity
  8
0
  6
Continuous
 62
     7
370
    15
100
AcDbLine
 10
194.2439978155
 20
104.6865541396
 30
0.0
 11
194.2439978155
 21
129.2865541396
 31
0.0
  0
LINE
  5
D5
330
1F
100
AcDbEntity
  8
0
  6
Continuous
 62
     7
370
    15
100
AcDbLine
 10
194.0439978155
 20
104.4865541396
 30
0.0
 11
194.0439978155
 21
129.4865541396
 31
0.0
  0
SPLINE
  5
D6
330
1F
100
AcDbEntity
  8
0
  6
Continuous
 62
     7
370
    15
100
AcDbSpline
210
0.0
220
0.0
230
1.0
 70
     8
 71
     3
 72
    38
 73
    34
 74
     0
 42
0.000000001
 43
0.00000001
 40
0.0
 40
0.0
 40
0.0
 40
0.0
 40
0.0625
 40
0.0625
 40
0.1250000000000001
 40
0.1250000000000001
 40
0.1875000000000001
 40
0.1875000000000001
 40
0.2500000000000001
 40
0.2500000000000001
 40
0.3125000000000001
 40
0.3125000000000001
 40
0.3750000000000001
 40
0.3750000000000001
 40
0.4375000000000001
 40
0.4375000000000001
 40
0.5
 40
0.5
 40
0.5625
 40
0.5625
 40
0.6250000000000001
 40
0.6250000000000001
 40
0.6875000000000001
 40
0.6875000000000001
 40
0.7500000000000001
 40
0.7500000000000001
 40
0.8125000000000002
 40
0.8125000000000002
 40
0.8750000000000001
 40
0.8750000000000001
 40
0.9375000000000001
 40
0.9375000000000001
 40
1.0
 40
1.0
 40
1.0
 40
1.0
 10
190.7439978154996
 20
116.9865541396398
 30
0.0
 10
190.7439978154996
 20
116.7556049490138
 30
0.0
 10
190.7160446620396
 20
116.5236904336812
 30
0.0
 10
190.60544500028
 20
116.0707679060395
 30
0.0
 10
190.524535659433
 20
115.8546196430552
 30
0.0
 10
190.315230857376
 20
115.4412766658604
 30
0.0
 10
190.1871320831413
 20
115.2459872655359
 30
0.0
 10
189.8969659836145
 20
114.8891513756823
 30
0.0
 10
189.7320030184672
 20
114.7240754844083
 30
0.0
 10
189.3764431890822
 20
114.4304140934596
 30
0.0
 10
189.1863323939606
 20
114.3015298497839
 30
0.0
 10
188.7825826648031
 20
114.0773784379704
 30
0.0
 10
188.5688257375776
 20
113.9826174390679
 30
0.0
 10
188.1332739640266
 20
113.8323812656228
 30
0.0
 10
187.9096287260544
 20
113.7757877831606
 30
0.0
 10
187.4504432032176
 20
113.6997420766702
 30
0.0
 10
187.2176700072488
 20
113.6810464544191
 30
0.0
 10
186.7562708751717
 20
113.6818163921394
 30
0.0
 10
186.5260526244753
 20
113.7009964662796
 30
0.0
 10
186.0666125614898
 20
113.7784182606222
 30
0.0
 10
185.8414611452883
 20
113.8361913462812
 30
0.0
 10
185.4076008733155
 20
113.9874168609256
 30
0.0
 10
185.197645252806
 20
114.0810442739544
 30
0.0
 10
184.792573496588
 20
114.3072502938961
 30
0.0
 10
184.6020504886085
 20
114.4374896921159
 30
0.0
 10
184.2505791276066
 20
114.7293521724457
 30
0.0
 10
184.0886693666854
 20
114.8914340822028
 30
0.0
 10
183.7959866331236
 20
115.2526201046567
 30
0.0
 10
183.6705178602625
 20
115.4453915137197
 30
0.0
 10
183.4639044523558
 20
115.854067129986
 30
0.0
 10
183.3817788343429
 20
116.0732009954143
 30
0.0
 10
183.2716822468495
 20
116.5255253244116
 30
0.0
 10
183.2439978154996
 20
116.7545748132064
 30
0.0
 10
183.2439978154996
 20
116.9865541396398
 30
0.0
  0
SPLINE
  5
D7
330
1F
100
AcDbEntity
  8
0
  6
Continuous
 62
     7
370
    15
100
AcDbSpline
210
0.0
220
0.0
230
1.0
 70
     8
 71
     3
 72
    34
 73
    30
 74
     0
 42
0.000000001
 43
0.00000001
 40
0.0
 40
0.0
 40
0.0
 40
0.0
 40
0.0625000000000005
 40
0.0625000000000005
 40
0.1250000000000009
 40
0.1250000000000009
 40
0.2500000000000014
 40
0.2500000000000014
 40
0.3750000000000019
 40
0.3750000000000019
 40
0.4375000000000018
 40
0.4375000000000018
 40
0.5000000000000017
 40
0.5000000000000017
 40
0.5625000000000014
 40
0.5625000000000014
 40
0.6250000000000012
 40
0.6250000000000012
 40
0.6875000000000011
 40
0.6875000000000011
 40
0.7500000000000009
 40
0.7500000000000009
 40
0.8125000000000007
 40
0.8125000000000007
 40
0.8750000000000004
 40
0.8750000000000004
 40
0.9375000000000003
 40
0.9375000000000003
 40
1.0
 40
1.0
 40
1.0
 40
1.0
 10
183.2439978154996
 20
116.9865541396398
 30
0.0
 10
183.2439978154996
 20
117.2186072063231
 30
0.0
 10
183.2728004459796
 20
117.4538015709876
 30
0.0
 10
183.3830093509015
 20
117.9033030879267
 30
0.0
 10
183.4655693184694
 20
118.123588353665
 30
0.0
 10
183.7810166368126
 20
118.7437080244941
 30
0.0
 10
184.0814664534827
 20
119.1063026395215
 30
0.0
 10
184.7993771641732
 20
119.6963813406904
 30
0.0
 10
185.2023824956621
 20
119.9164438230606
 30
0.0
 10
185.8628269082249
 20
120.1431505462919
 30
0.0
 10
186.0866423731554
 20
120.1990262915503
 30
0.0
 10
186.5412645056538
 20
120.273636703915
 30
0.0
 10
186.7734307212917
 20
120.2923416357006
 30
0.0
 10
187.2390468220175
 20
120.2909882219948
 30
0.0
 10
187.4688581425221
 20
120.2711767701301
 30
0.0
 10
187.922659885091
 20
120.1942404142837
 30
0.0
 10
188.1482433463099
 20
120.1365483986873
 30
0.0
 10
188.5858349895263
 20
119.9835643384665
 30
0.0
 10
188.7950638371146
 20
119.8895774419273
 30
0.0
 10
189.194484598631
 20
119.6662345605943
 30
0.0
 10
189.3863356387569
 20
119.5355036547746
 30
0.0
 10
189.7409516045568
 20
119.2406088861725
 30
0.0
 10
189.9018090213301
 20
119.0785953018698
 30
0.0
 10
190.1893503505718
 20
118.7237841185788
 30
0.0
 10
190.3174752392688
 20
118.5279880146704
 30
0.0
 10
190.525564861723
 20
118.1158581149917
 30
0.0
 10
190.6056636864043
 20
117.9010685605923
 30
0.0
 10
190.7152855958503
 20
117.4529007455607
 30
0.0
 10
190.7439978154996
 20
117.217576743062
 30
0.0
 10
190.7439978154996
 20
116.9865541396398
 30
0.0
  0
LINE
  5
D8
330
1F
100
AcDbEntity
  8
0
  6
Continuous
 62
     7
370
    15
100
AcDbLine
 10
107.4939978155
 20
108.9252568759
 30
0.0
 11
107.4939978155
 21
125.0478513943
 31
0.0
  0
CIRCLE
  5
D9
330
1F
100
AcDbEntity
  8
0
  6
HIDDEN
 62
     7
370
     0
100
AcDbCircle
 10
186.9939978155
 20
116.9865541396
 30
0.0
 40
2.477364010367793
  0
CIRCLE
  5
DA
330
1F
100
AcDbEntity
  8
0
  6
HIDDEN
 62
     7
370
     0
100
AcDbCircle
 10
186.9939978155
 20
116.9865541396
 30
0.0
 40
1.84553422183545
  0
ARC
  5
DB
330
1F
100
AcDbEntity
  8
0
  6
HIDDEN
 62
     7
370
     0
100
AcDbCircle
 10
186.9939978155
 20
116.9865541396
 30
0.0
 40
1.545534221835439
100
AcDbArc
 50
223.3142371015
 51
270.0
  0
ARC
  5
DC
330
1F
100
AcDbEntity
  8
0
  6
HIDDEN
 62
     7
370
     0
100
AcDbCircle
 10
186.9939978155
 20
116.9865541396
 30
0.0
 40
1.545534221835438
100
AcDbArc
 50
160.3004640295
 51
198.2266647022
  0
ARC
  5
DD
330
1F
100
AcDbEntity
  8
0
  6
HIDDEN
 62
     7
370
     0
100
AcDbCircle
 10
186.9939978155
 20
116.9865541396
 30
0.0
 40
1.545534221835436
100
AcDbArc
 50
97.9675884445
 51
141.8264383524
  0
ARC
  5
DE
330
1F
100
AcDbEntity
  8
0
  6
HIDDEN
 62
     7
370
     0
100
AcDbCircle
 10
186.9939978155
 20
116.9865541396
 30
0.0
 40
1.545534221835444
100
AcDbArc
 50
42.4315240859
 51
80.2855745786
  0
ARC
  5
DF
330
1F
100
AcDbEntity
  8
0
  6
HIDDEN
 62
     7
370
     0
100
AcDbCircle
 10
186.9939978155
 20
116.9865541396
 30
0.0
 40
1.54553422183547
100
AcDbArc
 50
338.9988521981
 51
16.672622324
  0
ARC
  5
E0
330
1F
100
AcDbEntity
  8
0
  6
HIDDEN
 62
     7
370
     0
100
AcDbCircle
 10
186.9939978155
 20
116.9865541396
 30
0.0
 40
1.545534221835467
100
AcDbArc
 50
270.0
 51
321.8186002493
  0
SPLINE
  5
E1
330
1F
100
AcDbEntity
  8
0
  6
HIDDEN
 62
     7
370
     0
100
AcDbSpline
210
0.0
220
0.0
230
1.0
 70
     8
 71
     3
 72
    16
 73
    12
 74
     0
 42
0.000000001
 43
0.00000001
 40
0.0
 40
0.0
 40
0.0
 40
0.0
 40
0.2500000000000004
 40
0.2500000000000004
 40
0.5000000000000008
 40
0.5000000000000008
 40
0.7500000000000011
 40
0.7500000000000011
 40
0.8750000000000006
 40
0.8750000000000006
 40
1.0
 40
1.0
 40
1.0
 40
1.0
 10
164.8166983259134
 20
109.3741434212534
 30
0.0
 10
164.9086476520069
 20
109.3590604317885
 30
0.0
 10
165.0010893594235
 20
109.3590061327772
 30
0.0
 10
165.1831177617511
 20
109.381816492052
 30
0.0
 10
165.2730555214859
 20
109.4047016291084
 30
0.0
 10
165.4404923297046
 20
109.4724555998474
 30
0.0
 10
165.521271845886
 20
109.5168836706794
 30
0.0
 10
165.5937616279917
 20
109.6075656535852
 30
0.0
 10
165.6090118519806
 20
109.641793976643
 30
0.0
 10
165.595019227104
 20
109.7237190927314
 30
0.0
 10
165.5623898969226
 20
109.7712008067358
 30
0.0
 10
165.5066359351021
 20
109.8244388043344
 30
0.0
  0
SPLINE
  5
E2
330
1F
100
AcDbEntity
  8
0
  6
HIDDEN
 62
     7
370
     0
100
AcDbSpline
210
0.0
220
0.0
230
1.0
 70
     8
 71
     3
 72
    22
 73
    18
 74
     0
 42
0.000000001
 43
0.00000001
 40
0.0
 40
0.0
 40
0.0
 40
0.0
 40
0.125
 40
0.125
 40
0.25
 40
0.25
 40
0.375
 40
0.375
 40
0.5
 40
0.5
 40
0.625
 40
0.625
 40
0.75
 40
0.75
 40
0.875
 40
0.875
 40
1.0
 40
1.0
 40
1.0
 40
1.0
 10
164.8166983259134
 20
112.2691386911358
 30
0.0
 10
164.902340120222
 20
112.1569977398891
 30
0.0
 10
164.9741224253493
 20
112.0302952639245
 30
0.0
 10
165.0816714515633
 20
111.7624574271594
 30
0.0
 10
165.1181050710135
 20
111.6210496126177
 30
0.0
 10
165.1649191431483
 20
111.3293891724935
 30
0.0
 10
165.1751351518157
 20
111.1827447873805
 30
0.0
 10
165.1853513052472
 20
110.8894223506596
 30
0.0
 10
165.1857158646438
 20
110.7443515238751
 30
0.0
 10
165.185714747183
 20
110.4705512569399
 30
0.0
 10
165.1853454515356
 20
110.3386662410616
 30
0.0
 10
165.1751196993915
 20
110.0940123054817
 30
0.0
 10
165.1648978283685
 20
109.9818299107078
 30
0.0
 10
165.1181205614358
 20
109.7725155406145
 30
0.0
 10
165.0816149148488
 20
109.6777400160171
 30
0.0
 10
164.9742502097057
 20
109.5090918870352
 30
0.0
 10
164.9023514061442
 20
109.4346704463358
 30
0.0
 10
164.8166983259134
 20
109.3741434212534
 30
0.0
  0
SPLINE
  5
E3
330
1F
100
AcDbEntity
  8
0
  6
HIDDEN
 62
     7
370
     0
100
AcDbSpline
210
0.0
220
0.0
230
1.0
 70
     8
 71
     3
 72
    18
 73
    14
 74
     0
 42
0.000000001
 43
0.00000001
 40
0.0
 40
0.0
 40
0.0
 40
0.0
 40
0.0625000000000015
 40
0.0625000000000015
 40
0.125000000000003
 40
0.125000000000003
 40
0.2500000000000042
 40
0.2500000000000042
 40
0.5000000000000028
 40
0.5000000000000028
 40
0.7500000000000013
 40
0.7500000000000013
 40
1.0
 40
1.0
 40
1.0
 40
1.0
 10
165.5066359351098
 20
113.5198557334504
 30
0.0
 10
165.5345776093572
 20
113.5128674803238
 30
0.0
 10
165.5569753162787
 20
113.5024975896234
 30
0.0
 10
165.5890251178347
 20
113.4755657298467
 30
0.0
 10
165.5985525138942
 20
113.4588156328092
 30
0.0
 10
165.6089955930884
 20
113.4036467842735
 30
0.0
 10
165.5933707958705
 20
113.3597480817912
 30
0.0
 10
165.5210859199775
 20
113.2236600398278
 30
0.0
 10
165.4408725556445
 20
113.123459455954
 30
0.0
 10
165.2731027878845
 20
112.9085924469195
 30
0.0
 10
165.1830469245342
 20
112.7939268859054
 30
0.0
 10
165.0009365405099
 20
112.5465686858389
 30
0.0
 10
164.9085270595847
 20
112.4139861637272
 30
0.0
 10
164.8166983259134
 20
112.2691386911358
 30
0.0
  0
SPLINE
  5
E4
330
1F
100
AcDbEntity
  8
0
  6
HIDDEN
 62
     7
370
     0
100
AcDbSpline
210
0.0
220
0.0
230
1.0
 70
     8
 71
     3
 72
     8
 73
     4
 74
     0
 42
0.000000001
 43
0.00000001
 40
0.0
 40
0.0
 40
0.0
 40
0.0
 40
1.0
 40
1.0
 40
1.0
 40
1.0
 10
165.4087108678574
 20
113.5305150198411
 30
0.0
 10
165.4410001836225
 20
113.5294698228767
 30
0.0
 10
165.4736836761465
 20
113.5259121770477
 30
0.0
 10
165.5066359351101
 20
113.5198557334504
 30
0.0
  0
SPLINE
  5
E5
330
1F
100
AcDbEntity
  8
0
  6
HIDDEN
 62
     7
370
     0
100
AcDbSpline
210
0.0
220
0.0
230
1.0
 70
     8
 71
     3
 72
    26
 73
    22
 74
     0
 42
0.000000001
 43
0.00000001
 40
0.0
 40
0.0
 40
0.0
 40
0.0
 40
0.0625000000000002
 40
0.0625000000000002
 40
0.1250000000000003
 40
0.1250000000000003
 40
0.2500000000000003
 40
0.2500000000000003
 40
0.3750000000000002
 40
0.3750000000000002
 40
0.5000000000000002
 40
0.5000000000000002
 40
0.6250000000000002
 40
0.6250000000000002
 40
0.7500000000000001
 40
0.7500000000000001
 40
0.8750000000000001
 40
0.8750000000000001
 40
0.9375000000000001
 40
0.9375000000000001
 40
1.0
 40
1.0
 40
1.0
 40
1.0
 10
165.4087108678576
 20
109.9094435709837
 30
0.0
 10
165.3392576859789
 20
109.9662631842046
 30
0.0
 10
165.2627576495456
 20
110.0257727335106
 30
0.0
 10
165.1082707251306
 20
110.1545017362324
 30
0.0
 10
165.0297504009436
 20
110.2237873609863
 30
0.0
 10
164.799131993565
 20
110.4483851075622
 30
0.0
 10
164.656685046781
 20
110.6157737995636
 30
0.0
 10
164.4131513752911
 20
110.9876398308287
 30
0.0
 10
164.3160988825894
 20
111.1845460849802
 30
0.0
 10
164.179667250461
 20
111.60431986165
 30
0.0
 10
164.1443418002277
 20
111.8153637316043
 30
0.0
 10
164.1436587469379
 20
112.2350038744786
 30
0.0
 10
164.1785961378676
 20
112.4335723928713
 30
0.0
 10
164.3141855356521
 20
112.7992134004022
 30
0.0
 10
164.4123011484589
 20
112.9592520502523
 30
0.0
 10
164.655580069779
 20
113.2286947528469
 30
0.0
 10
164.7981517226729
 20
113.3350663696969
 30
0.0
 10
165.0281004470465
 20
113.4483593032581
 30
0.0
 10
165.1063610539407
 20
113.4778554413443
 30
0.0
 10
165.2616044774109
 20
113.5190001069874
 30
0.0
 10
165.3395751133389
 20
113.5307458303683
 30
0.0
 10
165.4087108678576
 20
113.5305150198411
 30
0.0
  0
SPLINE
  5
E6
330
1F
100
AcDbEntity
  8
0
  6
HIDDEN
 62
     7
370
     0
100
AcDbSpline
210
0.0
220
0.0
230
1.0
 70
     8
 71
     3
 72
     8
 73
     4
 74
     0
 42
0.000000001
 43
0.00000001
 40
0.0
 40
0.0
 40
0.0
 40
0.0
 40
1.0
 40
1.0
 40
1.0
 40
1.0
 10
165.5066359351101
 20
109.8244388043352
 30
0.0
 10
165.4736836761465
 20
109.8505737774783
 30
0.0
 10
165.4410001836225
 20
109.8789449875597
 30
0.0
 10
165.4087108678573
 20
109.909443570984
 30
0.0
  0
SPLINE
  5
E7
330
1F
100
AcDbEntity
  8
0
  6
HIDDEN
 62
     7
370
     0
100
AcDbSpline
210
0.0
220
0.0
230
1.0
 70
    11
 71
     3
 72
    62
 73
    58
 74
     0
 42
0.000000001
 43
0.00000001
 40
0.0
 40
0.0
 40
0.0
 40
0.0
 40
0.0312499999999999
 40
0.0312499999999999
 40
0.0624999999999999
 40
0.0624999999999999
 40
0.1250000000000001
 40
0.1250000000000001
 40
0.1875000000000004
 40
0.1875000000000004
 40
0.2187500000000005
 40
0.2187500000000005
 40
0.2500000000000006
 40
0.2500000000000006
 40
0.2812500000000007
 40
0.2812500000000007
 40
0.3125000000000008
 40
0.3125000000000008
 40
0.3437500000000009
 40
0.3437500000000009
 40
0.375000000000001
 40
0.375000000000001
 40
0.4375000000000012
 40
0.4375000000000012
 40
0.4687500000000012
 40
0.4687500000000012
 40
0.5000000000000011
 40
0.5000000000000011
 40
0.531250000000001
 40
0.531250000000001
 40
0.562500000000001
 40
0.562500000000001
 40
0.5937500000000009
 40
0.5937500000000009
 40
0.6250000000000009
 40
0.6250000000000009
 40
0.6562500000000008
 40
0.6562500000000008
 40
0.6875000000000008
 40
0.6875000000000008
 40
0.7187500000000007
 40
0.7187500000000007
 40
0.7500000000000007
 40
0.7500000000000007
 40
0.7812500000000006
 40
0.7812500000000006
 40
0.8125000000000006
 40
0.8125000000000006
 40
0.8750000000000003
 40
0.8750000000000003
 40
0.9062500000000002
 40
0.9062500000000002
 40
0.9375000000000002
 40
0.9375000000000002
 40
0.9687500000000001
 40
0.9687500000000001
 40
1.0
 40
1.0
 40
1.0
 40
1.0
 10
166.2439978154996
 20
113.749459504412
 30
0.0
 10
166.1027995915197
 20
113.749459504412
 30
0.0
 10
165.964521714506
 20
113.7599274407956
 30
0.0
 10
165.6933556432981
 20
113.800950921731
 30
0.0
 10
165.5591523158386
 20
113.8320773751466
 30
0.0
 10
165.1800891360484
 20
113.9534513630584
 30
0.0
 10
164.9510822143546
 20
114.0736061370665
 30
0.0
 10
164.5700515953519
 20
114.3823850360894
 30
0.0
 10
164.4144285184302
 20
114.5745542042532
 30
0.0
 10
164.2553580418616
 20
114.9045385160915
 30
0.0
 10
164.2136308967182
 20
115.0240378794036
 30
0.0
 10
164.1583601955762
 20
115.2706222785593
 30
0.0
 10
164.1442802640864
 20
115.3977942089964
 30
0.0
 10
164.1437236977652
 20
115.6602834016926
 30
0.0
 10
164.1577129751858
 20
115.7954257703896
 30
0.0
 10
164.2121944944214
 20
116.0599108637494
 30
0.0
 10
164.2530449525764
 20
116.1920607679954
 30
0.0
 10
164.3596589194357
 20
116.4487565189172
 30
0.0
 10
164.4244110617088
 20
116.5714944033711
 30
0.0
 10
164.5759696036614
 20
116.8058651521295
 30
0.0
 10
164.6633077268344
 20
116.917682653143
 30
0.0
 10
164.949084147796
 20
117.2228661182713
 30
0.0
 10
165.1786204962617
 20
117.3936804374511
 30
0.0
 10
165.554938632256
 20
117.5701908004251
 30
0.0
 10
165.6872715406167
 20
117.6166756076189
 30
0.0
 10
165.9613041996076
 20
117.679779320359
 30
0.0
 10
166.0993293592297
 20
117.6957370101033
 30
0.0
 10
166.3774007404484
 20
117.696582878965
 30
0.0
 10
166.5191136791188
 20
117.6808582039919
 30
0.0
 10
166.7915359347991
 20
117.6194177614927
 30
0.0
 10
166.9233640792962
 20
117.5740961178063
 30
0.0
 10
167.1787629749008
 20
117.4555483148053
 30
0.0
 10
167.2989289780901
 20
117.383861231589
 30
0.0
 10
167.5241003906464
 20
117.2191326655906
 30
0.0
 10
167.6302514519807
 20
117.1248733925557
 30
0.0
 10
167.821698740683
 20
116.921308718412
 30
0.0
 10
167.9076327546025
 20
116.8118414281728
 30
0.0
 10
168.0600450726425
 20
116.5777438256888
 30
0.0
 10
168.12622856293
 20
116.4528496027909
 30
0.0
 10
168.232410261481
 20
116.1991178512562
 30
0.0
 10
168.2733903246968
 20
116.0689481664725
 30
0.0
 10
168.3294704654942
 20
115.8018844713437
 30
0.0
 10
168.3436946409355
 20
115.6679312413284
 30
0.0
 10
168.344291324807
 20
115.4064744988603
 30
0.0
 10
168.3305227573086
 20
115.2763571294729
 30
0.0
 10
168.2756726903665
 20
115.0281662739891
 30
0.0
 10
168.23517617709
 20
114.9108107829083
 30
0.0
 10
168.0757137059139
 20
114.5770616611686
 30
0.0
 10
167.9210452815997
 20
114.3852220892427
 30
0.0
 10
167.6327372502551
 20
114.1510995212729
 30
0.0
 10
167.5287124349072
 20
114.0829431119097
 30
0.0
 10
167.3042931767285
 20
113.9642321726856
 30
0.0
 10
167.182362388868
 20
113.9133102363173
 30
0.0
 10
166.9299052374419
 20
113.8323604014956
 30
0.0
 10
166.7990187075248
 20
113.8018250824966
 30
0.0
 10
166.527077789812
 20
113.7602670537522
 30
0.0
 10
166.3851960394795
 20
113.749459504412
 30
0.0
 10
166.2439978154996
 20
113.749459504412
 30
0.0
  0
LWPOLYLINE
  5
E8
330
1F
100
AcDbEntity
  8
0
  6
HIDDEN
 62
     7
370
     0
100
AcDbPolyline
 90
       21
 70
   128
 43
0.0
 10
164.8166983259
 20
109.3741434213
 10
165.2087657635
 20
109.1047286203
 10
165.6562138369
 20
108.927161538
 10
166.1351059236
 20
108.8509412794
 10
166.6198232764
 20
108.8801453131
 10
167.0844355205
 20
109.0132113443
 10
167.5040878212
 20
109.2430208901
 10
167.856330515
 20
109.5572800897
 10
168.1223200738
 20
109.939177375
 10
168.2878271555
 20
110.3682828197
 10
168.3439978155
 20
110.8216410562
 10
168.2878271555
 20
111.2749992926
 10
168.1223200738
 20
111.7041047373
 10
167.856330515
 20
112.0860020226
 10
167.5040878212
 20
112.4002612223
 10
167.0844355205
 20
112.6300707681
 10
166.6198232764
 20
112.7631367992
 10
166.1351059236
 20
112.792340833
 10
165.6562138369
 20
112.7161205744
 10
165.2087657635
 20
112.5385534921
 10
164.8166983259
 20
112.2691386911
  0
CIRCLE
  5
E9
330
1F
100
AcDbEntity
  8
0
  6
HIDDEN
 62
     7
370
     0
100
AcDbCircle
 10
186.9939978155
 20
116.9865541396
 30
0.0
 40
2.625
  0
LINE
  5
EA
330
1F
100
AcDbEntity
  8
0
  6
HIDDEN
 62
     7
370
     0
100
AcDbLine
 10
193.9059247633
 20
107.4615541396
 30
0.0
 11
193.9059247633
 21
108.793405754
 31
0.0
  0
LINE
  5
EB
330
1F
100
AcDbEntity
  8
0
  6
HIDDEN
 62
     7
370
     0
100
AcDbLine
 10
193.9059247633
 20
125.1797025253
 30
0.0
 11
193.9059247633
 21
126.5115541396
 31
0.0
  0
SPLINE
  5
EC
330
1F
100
AcDbEntity
  8
0
  6
HIDDEN
 62
     7
370
     0
100
AcDbSpline
210
0.0
220
0.0
230
1.0
 70
     8
 71
     3
 72
    10
 73
     6
 74
     0
 42
0.000000001
 43
0.00000001
 40
0.0
 40
0.0
 40
0.0
 40
0.0
 40
0.3412343932791461
 40
0.6871127250224256
 40
1.0
 40
1.0
 40
1.0
 40
1.0
 10
193.89580071318
 20
122.4865541396398
 30
0.0
 10
193.9145971698186
 20
122.558056219828
 30
0.0
 10
193.9524458884592
 20
122.7020334686943
 30
0.0
 10
194.0019621967849
 20
122.9119938313173
 30
0.0
 10
194.0304616953075
 20
123.0486077724714
 30
0.0
 10
194.0439978154996
 20
123.1134939221665
 30
0.0
  0
SPLINE
  5
ED
330
1F
100
AcDbEntity
  8
0
  6
HIDDEN
 62
     7
370
     0
100
AcDbSpline
210
0.0
220
0.0
230
1.0
 70
     8
 71
     3
 72
    10
 73
     6
 74
     0
 42
0.000000001
 43
0.00000001
 40
0.0
 40
0.0
 40
0.0
 40
0.0
 40
0.2349041170553676
 40
0.8072830718939941
 40
1.0
 40
1.0
 40
1.0
 40
1.0
 10
194.0439978154996
 20
125.1465575185361
 30
0.0
 10
194.0353208784922
 20
125.1562982347629
 30
0.0
 10
194.0055012889091
 20
125.1897736604665
 30
0.0
 10
193.9560663777739
 20
125.1901818902121
 30
0.0
 10
193.9160135174163
 20
125.1818110280851
 30
0.0
 10
193.9059247633372
 20
125.1797025252547
 30
0.0
  0
SPLINE
  5
EE
330
1F
100
AcDbEntity
  8
0
  6
HIDDEN
 62
     7
370
     0
100
AcDbSpline
210
0.0
220
0.0
230
1.0
 70
     8
 71
     3
 72
     8
 73
     4
 74
     0
 42
0.000000001
 43
0.00000001
 40
0.0
 40
0.0
 40
0.0
 40
0.0
 40
1.0
 40
1.0
 40
1.0
 40
1.0
 10
193.7939978154996
 20
122.100085494736
 30
0.0
 10
193.8271477614348
 20
122.2291687610701
 30
0.0
 10
193.8611031295934
 20
122.3579846483725
 30
0.0
 10
193.89580071318
 20
122.4865541396398
 30
0.0
  0
LINE
  5
EF
330
1F
100
AcDbEntity
  8
0
  6
HIDDEN
 62
     7
370
     0
100
AcDbLine
 10
193.7939978155
 20
111.8730227845
 30
0.0
 11
193.7939978155
 21
122.1000854947
 31
0.0
  0
SPLINE
  5
F0
330
1F
100
AcDbEntity
  8
0
  6
HIDDEN
 62
     7
370
     0
100
AcDbSpline
210
0.0
220
0.0
230
1.0
 70
     8
 71
     3
 72
     8
 73
     4
 74
     0
 42
0.000000001
 43
0.00000001
 40
0.0
 40
0.0
 40
0.0
 40
0.0
 40
1.0
 40
1.0
 40
1.0
 40
1.0
 10
193.89580071318
 20
111.4865541396398
 30
0.0
 10
193.8610984545947
 20
111.6151409537907
 30
0.0
 10
193.8271431729233
 20
111.7439573855099
 30
0.0
 10
193.7939978154996
 20
111.8730227845436
 30
0.0
  0
LINE
  5
F1
330
1F
100
AcDbEntity
  8
0
  6
HIDDEN
 62
     7
370
     0
100
AcDbLine
 10
193.9059247633
 20
108.793405754
 30
0.0
 11
194.0439978155
 21
108.8517525475
 31
0.0
  0
LINE
  5
F2
330
1F
100
AcDbEntity
  8
0
  6
HIDDEN
 62
     7
370
     0
100
AcDbLine
 10
194.0439978155
 20
110.8191182337
 30
0.0
 11
193.8958007132
 21
111.4865541396
 31
0.0
  0
LINE
  5
F3
330
1F
100
AcDbEntity
  8
0
  6
HIDDEN
 62
     7
370
     0
100
AcDbLine
 10
158.3439978155
 20
135.7865541396
 30
0.0
 11
158.6812561157
 21
135.7865541396
 31
0.0
  0
ELLIPSE
  5
F4
330
1F
100
AcDbEntity
  8
0
  6
HIDDEN
 62
     7
370
     0
100
AcDbEllipse
 10
158.6812561157
 20
137.3865541396
 30
0.0
 11
0.0
 21
1.599999999999994
 31
0.0
210
0.0
220
0.0
230
1.0
 40
0.4142135624
 41
3.141592653589793
 42
4.712388980384695
  0
LINE
  5
F5
330
1F
100
AcDbEntity
  8
0
  6
HIDDEN
 62
     7
370
     0
100
AcDbLine
 10
158.6812561157
 20
100.7865541396
 30
0.0
 11
158.3439978155
 21
100.7865541396
 31
0.0
  0
ELLIPSE
  5
F6
330
1F
100
AcDbEntity
  8
0
  6
HIDDEN
 62
     7
370
     0
100
AcDbEllipse
 10
158.6812561157
 20
99.1865541396
 30
0.0
 11
0.0
 21
1.600000000000009
 31
0.0
210
0.0
220
0.0
230
1.0
 40
0.4142135624
 41
4.712388980384704
 42
6.283185307179586
  0
LINE
  5
F7
330
1F
100
AcDbEntity
  8
0
  6
HIDDEN
 62
     7
370
     0
100
AcDbLine
 10
159.3439978155
 20
94.1325220539
 30
0.0
 11
158.5761206754
 21
93.7547367123
 31
0.0
  0
LINE
  5
F8
330
1F
100
AcDbEntity
  8
0
  6
HIDDEN
 62
     7
370
     0
100
AcDbLine
 10
158.6622363299
 20
140.3103993955
 30
0.0
 11
159.3439978155
 21
139.6286379099
 31
0.0
  0
LINE
  5
F9
330
1F
100
AcDbEntity
  8
0
  6
HIDDEN
 62
     7
370
     0
100
AcDbLine
 10
163.3108632681
 20
94.1325220539
 30
0.0
 11
159.3439978155
 21
94.1325220539
 31
0.0
  0
LINE
  5
FA
330
1F
100
AcDbEntity
  8
0
  6
HIDDEN
 62
     7
370
     0
100
AcDbLine
 10
174.1939978155
 20
94.1325220539
 30
0.0
 11
169.1771323629
 21
94.1325220539
 31
0.0
  0
LINE
  5
FB
330
1F
100
AcDbEntity
  8
0
  6
HIDDEN
 62
     7
370
     0
100
AcDbLine
 10
159.3439978155
 20
94.1325220539
 30
0.0
 11
159.3439978155
 21
99.1865541396
 31
0.0
  0
LINE
  5
FC
330
1F
100
AcDbEntity
  8
0
  6
HIDDEN
 62
     7
370
     0
100
AcDbLine
 10
174.1939978155
 20
100.7865541396
 30
0.0
 11
158.6812561157
 21
100.7865541396
 31
0.0
  0
LINE
  5
FD
330
1F
100
AcDbEntity
  8
0
  6
HIDDEN
 62
     7
370
     0
100
AcDbLine
 10
158.6812561157
 20
135.7865541396
 30
0.0
 11
174.1939978155
 21
135.7865541396
 31
0.0
  0
LINE
  5
FE
330
1F
100
AcDbEntity
  8
0
  6
HIDDEN
 62
     7
370
     0
100
AcDbLine
 10
159.3439978155
 20
139.6286379099
 30
0.0
 11
163.4262214806
 21
139.6286379099
 31
0.0
  0
LINE
  5
FF
330
1F
100
AcDbEntity
  8
0
  6
HIDDEN
 62
     7
370
     0
100
AcDbLine
 10
169.0617741504
 20
139.6286379099
 30
0.0
 11
174.1939978155
 21
139.6286379099
 31
0.0
  0
LINE
  5
100
330
1F
100
AcDbEntity
  8
0
  6
HIDDEN
 62
     7
370
     0
100
AcDbLine
 10
159.3439978155
 20
139.6286379099
 30
0.0
 11
159.3439978155
 21
137.3865541396
 31
0.0
  0
LINE
  5
101
330
1F
100
AcDbEntity
  8
0
  6
HIDDEN
 62
     7
370
     0
100
AcDbLine
 10
191.3939978155
 20
115.0022406563
 30
0.0
 11
191.3939978155
 21
118.9708676229
 31
0.0
  0
LINE
  5
102
330
1F
100
AcDbEntity
  8
0
  6
HIDDEN
 62
     7
370
     0
100
AcDbLine
 10
192.0619470079
 20
115.0022406563
 30
0.0
 11
192.0619470079
 21
118.9708676229
 31
0.0
  0
LINE
  5
103
330
1F
100
AcDbEntity
  8
0
  6
HIDDEN
 62
     7
370
     0
100
AcDbLine
 10
191.3939978155
 20
118.9708676229
 30
0.0
 11
192.0619470079
 21
118.9708676229
 31
0.0
  0
LINE
  5
104
330
1F
100
AcDbEntity
  8
0
  6
HIDDEN
 62
     7
370
     0
100
AcDbLine
 10
191.3939978155
 20
122.4865541396
 30
0.0
 11
191.3939978155
 21
118.9708676229
 31
0.0
  0
SPLINE
  5
105
330
1F
100
AcDbEntity
  8
0
  6
HIDDEN
 62
     7
370
     0
100
AcDbSpline
210
0.0
220
0.0
230
1.0
 70
     8
 71
     3
 72
    10
 73
     6
 74
     0
 42
0.000000001
 43
0.00000001
 40
0.0
 40
0.0
 40
0.0
 40
0.0
 40
0.5
 40
0.5
 40
1.0
 40
1.0
 40
1.0
 40
1.0
 10
192.0619470079307
 20
118.9708676229382
 30
0.0
 10
192.2679133081838
 20
119.4502866256148
 30
0.0
 10
192.5303620366652
 20
119.9013312153656
 30
0.0
 10
193.1257084098531
 20
120.7680298016892
 30
0.0
 10
193.4516030026044
 20
121.1734871892793
 30
0.0
 10
193.7939978154996
 20
121.5623054440706
 30
0.0
  0
LINE
  5
106
330
1F
100
AcDbEntity
  8
0
  6
HIDDEN
 62
     7
370
     0
100
AcDbLine
 10
191.3939978155
 20
125.1797025253
 30
0.0
 11
193.9059247633
 21
125.1797025253
 31
0.0
  0
LINE
  5
107
330
1F
100
AcDbEntity
  8
0
  6
HIDDEN
 62
     7
370
     0
100
AcDbLine
 10
191.3939978155
 20
125.1865541396
 30
0.0
 11
191.3939978155
 21
122.4865541396
 31
0.0
  0
LINE
  5
108
330
1F
100
AcDbEntity
  8
0
  6
HIDDEN
 62
     7
370
     0
100
AcDbLine
 10
192.0619470079
 20
115.0022406563
 30
0.0
 11
191.3939978155
 21
115.0022406563
 31
0.0
  0
LINE
  5
109
330
1F
100
AcDbEntity
  8
0
  6
HIDDEN
 62
     7
370
     0
100
AcDbLine
 10
191.3939978155
 20
115.0022406563
 30
0.0
 11
191.3939978155
 21
111.4865541396
 31
0.0
  0
SPLINE
  5
10A
330
1F
100
AcDbEntity
  8
0
  6
HIDDEN
 62
     7
370
     0
100
AcDbSpline
210
0.0
220
0.0
230
1.0
 70
     8
 71
     3
 72
    10
 73
     6
 74
     0
 42
0.000000001
 43
0.00000001
 40
0.0
 40
0.0
 40
0.0
 40
0.0
 40
0.5
 40
0.5
 40
1.0
 40
1.0
 40
1.0
 40
1.0
 10
193.7939978154996
 20
112.410802835209
 30
0.0
 10
193.4507497365749
 20
112.8005900457087
 30
0.0
 10
193.122798052105
 20
113.2091759655679
 30
0.0
 10
192.5315032074493
 20
114.0702555560873
 30
0.0
 10
192.2690660888245
 20
114.5201383751654
 30
0.0
 10
192.0619470079307
 20
115.0022406563413
 30
0.0
  0
LINE
  5
10B
330
1F
100
AcDbEntity
  8
0
  6
HIDDEN
 62
     7
370
     0
100
AcDbLine
 10
191.3939978155
 20
108.793405754
 30
0.0
 11
193.9059247633
 21
108.793405754
 31
0.0
  0
LINE
  5
10C
330
1F
100
AcDbEntity
  8
0
  6
HIDDEN
 62
     7
370
     0
100
AcDbLine
 10
191.3939978155
 20
111.4865541396
 30
0.0
 11
191.3939978155
 21
108.7865541396
 31
0.0
  0
LINE
  5
10D
330
1F
100
AcDbEntity
  8
0
  6
HIDDEN
 62
     7
370
     0
100
AcDbLine
 10
190.7939978155
 20
109.9865541396
 30
0.0
 11
190.7939978155
 21
123.9865541396
 31
0.0
  0
LINE
  5
10E
330
1F
100
AcDbEntity
  8
0
  6
HIDDEN
 62
     7
370
     0
100
AcDbLine
 10
179.2439978155
 20
110.3865541396
 30
0.0
 11
179.2439978155
 21
123.5865540906
 31
0.0
  0
LINE
  5
10F
330
1F
100
AcDbEntity
  8
0
  6
HIDDEN
 62
     7
370
     0
100
AcDbLine
 10
181.2439978155
 20
109.9865541396
 30
0.0
 11
181.2439978155
 21
123.9865541396
 31
0.0
  0
LINE
  5
110
330
1F
100
AcDbEntity
  8
0
  6
HIDDEN
 62
     7
370
     0
100
AcDbLine
 10
111.4939978155
 20
110.4865541396
 30
0.0
 11
111.4939978155
 21
123.4865541396
 31
0.0
  0
LINE
  5
111
330
1F
100
AcDbEntity
  8
0
  6
HIDDEN
 62
     7
370
     0
100
AcDbLine
 10
114.4321920029
 20
111.8865541396
 30
0.0
 11
114.4321920029
 21
122.0865541396
 31
0.0
  0
LINE
  5
112
330
1F
100
AcDbEntity
  8
0
  6
HIDDEN
 62
     7
370
     0
100
AcDbLine
 10
141.4939978155
 20
111.8865541396
 30
0.0
 11
141.4939978155
 21
122.0865541396
 31
0.0
  0
LINE
  5
113
330
1F
100
AcDbEntity
  8
0
  6
HIDDEN
 62
     7
370
     0
100
AcDbLine
 10
142.0047293417
 20
112.7365541396
 30
0.0
 11
142.0047293417
 21
121.2365541396
 31
0.0
  0
LINE
  5
114
330
1F
100
AcDbEntity
  8
0
  6
HIDDEN
 62
     7
370
     0
100
AcDbLine
 10
191.3939978155
 20
126.5115541396
 30
0.0
 11
191.3939978155
 21
125.1797025253
 31
0.0
  0
LINE
  5
115
330
1F
100
AcDbEntity
  8
0
  6
HIDDEN
 62
     7
370
     0
100
AcDbLine
 10
191.3939978155
 20
108.793405754
 30
0.0
 11
191.3939978155
 21
107.4615541396
 31
0.0
  0
SPLINE
  5
116
330
1F
100
AcDbEntity
  8
0
  6
HIDDEN
 62
     7
370
     0
100
AcDbSpline
210
0.0
220
0.0
230
1.0
 70
    11
 71
     3
 72
    62
 73
    58
 74
     0
 42
0.000000001
 43
0.00000001
 40
0.0
 40
0.0
 40
0.0
 40
0.0
 40
0.0312499999999997
 40
0.0312499999999997
 40
0.0624999999999994
 40
0.0624999999999994
 40
0.1249999999999991
 40
0.1249999999999991
 40
0.1874999999999988
 40
0.1874999999999988
 40
0.2187499999999987
 40
0.2187499999999987
 40
0.2499999999999986
 40
0.2499999999999986
 40
0.2812499999999984
 40
0.2812499999999984
 40
0.3124999999999984
 40
0.3124999999999984
 40
0.3437499999999983
 40
0.3437499999999983
 40
0.3749999999999982
 40
0.3749999999999982
 40
0.4374999999999981
 40
0.4374999999999981
 40
0.4687499999999982
 40
0.4687499999999982
 40
0.4999999999999982
 40
0.4999999999999982
 40
0.5312499999999983
 40
0.5312499999999983
 40
0.5624999999999984
 40
0.5624999999999984
 40
0.5937499999999987
 40
0.5937499999999987
 40
0.6249999999999988
 40
0.6249999999999988
 40
0.6562499999999989
 40
0.6562499999999989
 40
0.687499999999999
 40
0.687499999999999
 40
0.7187499999999991
 40
0.7187499999999991
 40
0.7499999999999991
 40
0.7499999999999991
 40
0.7812499999999992
 40
0.7812499999999992
 40
0.8124999999999992
 40
0.8124999999999992
 40
0.8749999999999994
 40
0.8749999999999994
 40
0.9062499999999996
 40
0.9062499999999996
 40
0.9374999999999998
 40
0.9374999999999998
 40
0.9687499999999999
 40
0.9687499999999999
 40
1.0
 40
1.0
 40
1.0
 40
1.0
 10
166.2439978154996
 20
116.2769397675667
 30
0.0
 10
166.3851960394795
 20
116.2769397675667
 30
0.0
 10
166.5234739164933
 20
116.2929511775582
 30
0.0
 10
166.7946399877011
 20
116.3546807431811
 30
0.0
 10
166.9288433151606
 20
116.4012185066358
 30
0.0
 10
167.3079064949508
 20
116.5781948353708
 30
0.0
 10
167.5369134166446
 20
116.74862112908
 30
0.0
 10
167.9179440356473
 20
117.1545074065033
 30
0.0
 10
168.073567112569
 20
117.3941778478393
 30
0.0
 10
168.2326375891376
 20
117.7746546751559
 30
0.0
 10
168.274364734281
 20
117.907923410461
 30
0.0
 10
168.329635435423
 20
118.1729046460898
 30
0.0
 10
168.3437153669128
 20
118.3048699608077
 30
0.0
 10
168.344271933234
 20
118.5675472706219
 30
0.0
 10
168.3302826558134
 20
118.6979271345795
 30
0.0
 10
168.2758011365777
 20
118.9442710653026
 30
0.0
 10
168.2349506784228
 20
119.0629253352855
 30
0.0
 10
168.1283367115635
 20
119.2857516020408
 30
0.0
 10
168.0635845692904
 20
119.3884367130253
 30
0.0
 10
167.9120260273378
 20
119.5785599659386
 30
0.0
 10
167.8246879041648
 20
119.6660667571579
 30
0.0
 10
167.5389114832032
 20
119.8983342526066
 30
0.0
 10
167.3093751347375
 20
120.0187829952492
 30
0.0
 10
166.9330569987432
 20
120.1398795875508
 30
0.0
 10
166.8007240903825
 20
120.1709877209871
 30
0.0
 10
166.5266914313916
 20
120.2129349605427
 30
0.0
 10
166.3886662717695
 20
120.2233651951523
 30
0.0
 10
166.1105948905508
 20
120.2239210940191
 30
0.0
 10
165.9688819518805
 20
120.2136426351891
 30
0.0
 10
165.6964596962001
 20
120.1728194504959
 30
0.0
 10
165.564631551703
 20
120.1425261146212
 30
0.0
 10
165.3092326560984
 20
120.0612589243303
 30
0.0
 10
165.1890666529091
 20
120.011311073472
 30
0.0
 10
164.9638952403528
 20
119.892989862274
 30
0.0
 10
164.8577441790184
 20
119.8236967531914
 30
0.0
 10
164.6662968903163
 20
119.6688821045977
 30
0.0
 10
164.5803628763967
 20
119.583296116727
 30
0.0
 10
164.4279505583567
 20
119.39361244465
 30
0.0
 10
164.3617670680692
 20
119.2891911835794
 30
0.0
 10
164.2555853695181
 20
119.0691598437721
 30
0.0
 10
164.2146053063023
 20
118.9525113576626
 30
0.0
 10
164.158525165505
 20
118.7041099766734
 30
0.0
 10
164.1443009900637
 20
118.5749999878692
 30
0.0
 10
164.1437043061922
 20
118.313744922037
 30
0.0
 10
164.1574728736906
 20
118.1789386313644
 30
0.0
 10
164.2123229406327
 20
117.9124835170099
 30
0.0
 10
164.2528194539092
 20
117.7817495823113
 30
0.0
 10
164.4122819250853
 20
117.3973341283078
 30
0.0
 10
164.5669503493995
 20
117.158175096431
 30
0.0
 10
164.8552583807441
 20
116.8505157369871
 30
0.0
 10
164.959283196092
 20
116.7578426202228
 30
0.0
 10
165.1837024542708
 20
116.5926997775832
 30
0.0
 10
165.3056332421313
 20
116.519658908904
 30
0.0
 10
165.5580903935572
 20
116.4016369926317
 30
0.0
 10
165.6889769234744
 20
116.355989287014
 30
0.0
 10
165.9609178411872
 20
116.2934688475467
 30
0.0
 10
166.1027995915197
 20
116.2769397675667
 30
0.0
 10
166.2439978154996
 20
116.2769397675667
 30
0.0
  0
SPLINE
  5
117
330
1F
100
AcDbEntity
  8
0
  6
HIDDEN
 62
     7
370
     0
100
AcDbSpline
210
0.0
220
0.0
230
1.0
 70
     8
 71
     3
 72
    12
 73
     8
 74
     0
 42
0.000000001
 43
0.00000001
 40
0.0
 40
0.0
 40
0.0
 40
0.0
 40
0.5
 40
0.5
 40
0.75
 40
0.75
 40
1.0
 40
1.0
 40
1.0
 40
1.0
 10
164.9103513919378
 20
122.9747617803447
 30
0.0
 10
164.7680181879212
 20
123.0876789306596
 30
0.0
 10
164.6471166334906
 20
123.2306423041771
 30
0.0
 10
164.5025198797643
 20
123.4567528574932
 30
0.0
 10
164.4595311354632
 20
123.5355733415419
 30
0.0
 10
164.3862688968477
 20
123.6924620341651
 30
0.0
 10
164.3557642869916
 20
123.7705485332286
 30
0.0
 10
164.3339978154993
 20
123.8416846025964
 30
0.0
  0
SPLINE
  5
118
330
1F
100
AcDbEntity
  8
0
  6
HIDDEN
 62
     7
370
     0
100
AcDbSpline
210
0.0
220
0.0
230
1.0
 70
     8
 71
     3
 72
    14
 73
    10
 74
     0
 42
0.000000001
 43
0.00000001
 40
0.0
 40
0.0
 40
0.0
 40
0.0
 40
0.25
 40
0.25
 40
0.5
 40
0.5
 40
0.75
 40
0.75
 40
1.0
 40
1.0
 40
1.0
 40
1.0
 10
167.5776442390616
 20
122.9747617803447
 30
0.0
 10
167.3898581660177
 20
122.8257855215479
 30
0.0
 10
167.1808467735911
 20
122.7108664662018
 30
0.0
 10
166.7233654784193
 20
122.5518409627763
 30
0.0
 10
166.4859023573974
 20
122.5117728138158
 30
0.0
 10
166.0002850539971
 20
122.5119761264338
 30
0.0
 10
165.7622097084851
 20
122.5524659727896
 30
0.0
 10
165.3061193728593
 20
122.7114423316902
 30
0.0
 10
165.0981360258158
 20
122.8257866632807
 30
0.0
 10
164.9103513919378
 20
122.9747617803447
 30
0.0
  0
SPLINE
  5
119
330
1F
100
AcDbEntity
  8
0
  6
HIDDEN
 62
     7
370
     0
100
AcDbSpline
210
0.0
220
0.0
230
1.0
 70
     8
 71
     3
 72
    12
 73
     8
 74
     0
 42
0.000000001
 43
0.00000001
 40
0.0
 40
0.0
 40
0.0
 40
0.0
 40
0.249999999999999
 40
0.249999999999999
 40
0.499999999999998
 40
0.499999999999998
 40
1.0
 40
1.0
 40
1.0
 40
1.0
 10
168.1539978154996
 20
123.8416846025956
 30
0.0
 10
168.1322676023189
 20
123.7706670307881
 30
0.0
 10
168.1017283015217
 20
123.6924315564588
 30
0.0
 10
168.0281797391238
 20
123.5349975097116
 30
0.0
 10
167.9854080969936
 20
123.4566390791517
 30
0.0
 10
167.840863055484
 20
123.2306333581524
 30
0.0
 10
167.7200218055616
 20
123.087714124733
 30
0.0
 10
167.5776442390615
 20
122.9747617803447
 30
0.0
  0
SPLINE
  5
11A
330
1F
100
AcDbEntity
  8
0
  6
HIDDEN
 62
     7
370
     0
100
AcDbSpline
210
0.0
220
0.0
230
1.0
 70
     8
 71
     3
 72
    16
 73
    12
 74
     0
 42
0.000000001
 43
0.00000001
 40
0.0
 40
0.0
 40
0.0
 40
0.0
 40
0.2499999999999988
 40
0.2499999999999988
 40
0.374999999999999
 40
0.374999999999999
 40
0.4999999999999992
 40
0.4999999999999992
 40
0.7499999999999996
 40
0.7499999999999996
 40
1.0
 40
1.0
 40
1.0
 40
1.0
 10
168.1539978154998
 20
125.4821414055703
 30
0.0
 10
168.2083941616978
 20
125.4041224127034
 30
0.0
 10
168.2559888938905
 20
125.3081808434437
 30
0.0
 10
168.3069663796827
 20
125.1328689247109
 30
0.0
 10
168.3204451925918
 20
125.0697144451414
 30
0.0
 10
168.3390362789548
 20
124.9321519210974
 30
0.0
 10
168.3439643100164
 20
124.8573797465726
 30
0.0
 10
168.3440642960036
 20
124.6284856979165
 30
0.0
 10
168.3242418716089
 20
124.4626008868887
 30
0.0
 10
168.2559675785442
 20
124.1423353051944
 30
0.0
 10
168.2084482921166
 20
123.9875126087808
 30
0.0
 10
168.1539978154998
 20
123.8416846025955
 30
0.0
  0
SPLINE
  5
11B
330
1F
100
AcDbEntity
  8
0
  6
HIDDEN
 62
     7
370
     0
100
AcDbSpline
210
0.0
220
0.0
230
1.0
 70
     8
 71
     3
 72
    12
 73
     8
 74
     0
 42
0.000000001
 43
0.00000001
 40
0.0
 40
0.0
 40
0.0
 40
0.0
 40
0.4999999999999969
 40
0.4999999999999969
 40
0.7499999999999984
 40
0.7499999999999984
 40
1.0
 40
1.0
 40
1.0
 40
1.0
 10
167.5776442390615
 20
126.0234161629001
 30
0.0
 10
167.7199774430779
 20
125.9164104595377
 30
0.0
 10
167.8408789975084
 20
125.8119986653552
 30
0.0
 10
167.9854757512347
 20
125.6676442060508
 30
0.0
 10
168.0284644955357
 20
125.6208354866392
 30
0.0
 10
168.1017267341513
 20
125.5379516310631
 30
0.0
 10
168.1322313440074
 20
125.5005187715759
 30
0.0
 10
168.1539978154996
 20
125.48214140557
 30
0.0
  0
SPLINE
  5
11C
330
1F
100
AcDbEntity
  8
0
  6
HIDDEN
 62
     7
370
     0
100
AcDbSpline
210
0.0
220
0.0
230
1.0
 70
     8
 71
     3
 72
    14
 73
    10
 74
     0
 42
0.000000001
 43
0.00000001
 40
0.0
 40
0.0
 40
0.0
 40
0.0
 40
0.25
 40
0.25
 40
0.5
 40
0.5
 40
0.75
 40
0.75
 40
1.0
 40
1.0
 40
1.0
 40
1.0
 10
164.9103513919378
 20
126.0234161629001
 30
0.0
 10
165.0981374649816
 20
126.1645932056469
 30
0.0
 10
165.3071488574081
 20
126.2724619337722
 30
0.0
 10
165.7646301525799
 20
126.4213857132719
 30
0.0
 10
166.0020932736018
 20
126.4586779188532
 30
0.0
 10
166.4877105770022
 20
126.4584883044567
 30
0.0
 10
166.7257859225141
 20
126.4208019420996
 30
0.0
 10
167.1818762581399
 20
126.2719211006055
 30
0.0
 10
167.3898596051835
 20
126.1645921236861
 30
0.0
 10
167.5776442390616
 20
126.0234161629
 30
0.0
  0
SPLINE
  5
11D
330
1F
100
AcDbEntity
  8
0
  6
HIDDEN
 62
     7
370
     0
100
AcDbSpline
210
0.0
220
0.0
230
1.0
 70
     8
 71
     3
 72
    12
 73
     8
 74
     0
 42
0.000000001
 43
0.00000001
 40
0.0
 40
0.0
 40
0.0
 40
0.0
 40
0.2500000000000006
 40
0.2500000000000006
 40
0.5000000000000012
 40
0.5000000000000012
 40
1.0
 40
1.0
 40
1.0
 40
1.0
 10
164.3339978154993
 20
125.4821414055698
 30
0.0
 10
164.35572802868
 20
125.5004881587929
 30
0.0
 10
164.3862673294771
 20
125.5379536736732
 30
0.0
 10
164.4598158918751
 20
125.6211538099093
 30
0.0
 10
164.5025875340053
 20
125.6677142614953
 30
0.0
 10
164.6471325755149
 20
125.8120095475819
 30
0.0
 10
164.7679738254375
 20
125.9163771079468
 30
0.0
 10
164.9103513919378
 20
126.0234161629001
 30
0.0
  0
SPLINE
  5
11E
330
1F
100
AcDbEntity
  8
0
  6
HIDDEN
 62
     7
370
     0
100
AcDbSpline
210
0.0
220
0.0
230
1.0
 70
     8
 71
     3
 72
    16
 73
    12
 74
     0
 42
0.000000001
 43
0.00000001
 40
0.0
 40
0.0
 40
0.0
 40
0.0
 40
0.2500000000000013
 40
0.2500000000000013
 40
0.3750000000000017
 40
0.3750000000000017
 40
0.5000000000000021
 40
0.5000000000000021
 40
0.750000000000001
 40
0.750000000000001
 40
1.0
 40
1.0
 40
1.0
 40
1.0
 10
164.3339978154991
 20
123.8416846025964
 30
0.0
 10
164.2796014693012
 20
123.9873676379467
 30
0.0
 10
164.2320067371085
 20
124.1426098199137
 30
0.0
 10
164.1810292513165
 20
124.3814771033278
 30
0.0
 10
164.1675504384074
 20
124.4614446698549
 30
0.0
 10
164.1489593520444
 20
124.6222003759556
 30
0.0
 10
164.1440313209828
 20
124.703122527787
 30
0.0
 10
164.1439313349957
 20
124.9321413420906
 30
0.0
 10
164.1637537593902
 20
125.0732831757592
 30
0.0
 10
164.2320280524548
 20
125.3084286924558
 30
0.0
 10
164.2795473388824
 20
125.4040447751215
 30
0.0
 10
164.3339978154991
 20
125.4821414055699
 30
0.0
  0
SPLINE
  5
11F
330
1F
100
AcDbEntity
  8
0
  6
HIDDEN
 62
     7
370
     0
100
AcDbSpline
210
0.0
220
0.0
230
1.0
 70
     8
 71
     3
 72
     8
 73
     4
 74
     0
 42
0.000000001
 43
0.00000001
 40
0.0
 40
0.0
 40
0.0
 40
0.0
 40
1.0
 40
1.0
 40
1.0
 40
1.0
 10
165.4087108678595
 20
120.4425932594387
 30
0.0
 10
165.4410001836233
 20
120.4436384564032
 30
0.0
 10
165.4736836761458
 20
120.447196102232
 30
0.0
 10
165.5066359351079
 20
120.4532525458289
 30
0.0
  0
SPLINE
  5
120
330
1F
100
AcDbEntity
  8
0
  6
HIDDEN
 62
     7
370
     0
100
AcDbSpline
210
0.0
220
0.0
230
1.0
 70
     8
 71
     3
 72
    48
 73
    44
 74
     0
 42
0.000000001
 43
0.00000001
 40
0.0
 40
0.0
 40
0.0
 40
0.0
 40
0.0312499999999996
 40
0.0312499999999996
 40
0.0624999999999993
 40
0.0624999999999993
 40
0.1249999999999995
 40
0.1249999999999995
 40
0.1874999999999996
 40
0.1874999999999996
 40
0.2499999999999997
 40
0.2499999999999997
 40
0.3124999999999998
 40
0.3124999999999998
 40
0.3749999999999999
 40
0.3749999999999999
 40
0.4062499999999999
 40
0.4062499999999999
 40
0.4374999999999998
 40
0.4374999999999998
 40
0.4999999999999998
 40
0.4999999999999998
 40
0.5624999999999998
 40
0.5624999999999998
 40
0.5937499999999997
 40
0.5937499999999997
 40
0.6249999999999997
 40
0.6249999999999997
 40
0.6874999999999993
 40
0.6874999999999993
 40
0.7499999999999989
 40
0.7499999999999989
 40
0.8124999999999996
 40
0.8124999999999996
 40
0.8749999999999997
 40
0.8749999999999997
 40
0.9062499999999998
 40
0.9062499999999998
 40
0.9374999999999998
 40
0.9374999999999998
 40
0.9687499999999999
 40
0.9687499999999999
 40
1.0
 40
1.0
 40
1.0
 40
1.0
 10
165.5066359351079
 20
120.4532525458289
 30
0.0
 10
165.5578654215862
 20
120.4660651144631
 30
0.0
 10
165.5898470992365
 20
120.4910640804562
 30
0.0
 10
165.6097741614581
 20
120.556228698293
 30
0.0
 10
165.5995257932117
 20
120.5954406160281
 30
0.0
 10
165.5424546109501
 20
120.717905778683
 30
0.0
 10
165.4727857816256
 20
120.8077388289838
 30
0.0
 10
165.3237854977536
 20
121.0002573719068
 30
0.0
 10
165.242779388565
 20
121.1022003875395
 30
0.0
 10
165.078327790258
 20
121.3197746632842
 30
0.0
 10
164.9945261194092
 20
121.4353566241438
 30
0.0
 10
164.8274590719078
 20
121.6838644602584
 30
0.0
 10
164.7441017233051
 20
121.8166569797268
 30
0.0
 10
164.5802654129612
 20
122.1070133574604
 30
0.0
 10
164.5002244375622
 20
122.263879346814
 30
0.0
 10
164.3905523345892
 20
122.5168866458625
 30
0.0
 10
164.3555653822847
 20
122.6045162338379
 30
0.0
 10
164.2900170074417
 20
122.7888043666404
 30
0.0
 10
164.2592415716051
 20
122.886379554457
 30
0.0
 10
164.1805823536259
 20
123.1855692797335
 30
0.0
 10
164.1456582291214
 20
123.4004215549861
 30
0.0
 10
164.1424578666196
 20
123.7996503057823
 30
0.0
 10
164.1744066342864
 20
123.9711199688162
 30
0.0
 10
164.2504072235125
 20
124.1689673880861
 30
0.0
 10
164.2803944729835
 20
124.2261958709061
 30
0.0
 10
164.3449022190892
 20
124.3241827275304
 30
0.0
 10
164.3797397786511
 20
124.3656755242589
 30
0.0
 10
164.4899647735598
 20
124.4731189336666
 30
0.0
 10
164.5697391669821
 20
124.5210448040047
 30
0.0
 10
164.7327891367123
 20
124.5859482257825
 30
0.0
 10
164.8168198032607
 20
124.6030573235584
 30
0.0
 10
164.9868983932102
 20
124.6143326483789
 30
0.0
 10
165.0721774523793
 20
124.6083448822814
 30
0.0
 10
165.238911516838
 20
124.5772850851603
 30
0.0
 10
165.3208246654083
 20
124.5522687342937
 30
0.0
 10
165.4335881193192
 20
124.5002225922318
 30
0.0
 10
165.4692785725067
 20
124.4805006356803
 30
0.0
 10
165.5329073619188
 20
124.4354842098274
 30
0.0
 10
165.5611195164595
 20
124.4100899381371
 30
0.0
 10
165.5993295990181
 20
124.3523591966828
 30
0.0
 10
165.6097988874523
 20
124.3202108027878
 30
0.0
 10
165.5903822207657
 20
124.2421540226986
 30
0.0
 10
165.5582877329327
 20
124.1979904236022
 30
0.0
 10
165.5066359351121
 20
124.148669474946
 30
0.0
  0
SPLINE
  5
121
330
1F
100
AcDbEntity
  8
0
  6
HIDDEN
 62
     7
370
     0
100
AcDbSpline
210
0.0
220
0.0
230
1.0
 70
     8
 71
     3
 72
     8
 73
     4
 74
     0
 42
0.000000001
 43
0.00000001
 40
0.0
 40
0.0
 40
0.0
 40
0.0
 40
1.0
 40
1.0
 40
1.0
 40
1.0
 10
165.5066359351121
 20
124.148669474946
 30
0.0
 10
165.4736836761472
 20
124.122534501802
 30
0.0
 10
165.4410001836219
 20
124.0941632917194
 30
0.0
 10
165.4087108678554
 20
124.0636647082939
 30
0.0
  0
SPLINE
  5
122
330
1F
100
AcDbEntity
  8
0
  6
HIDDEN
 62
     7
370
     0
100
AcDbSpline
210
0.0
220
0.0
230
1.0
 70
     8
 71
     3
 72
    26
 73
    22
 74
     0
 42
0.000000001
 43
0.00000001
 40
0.0
 40
0.0
 40
0.0
 40
0.0
 40
0.0625000000000003
 40
0.0625000000000003
 40
0.1250000000000005
 40
0.1250000000000005
 40
0.2500000000000004
 40
0.2500000000000004
 40
0.3750000000000003
 40
0.3750000000000003
 40
0.5000000000000002
 40
0.5000000000000002
 40
0.6250000000000002
 40
0.6250000000000002
 40
0.75
 40
0.75
 40
0.8749999999999999
 40
0.8749999999999999
 40
0.9375
 40
0.9375
 40
1.0
 40
1.0
 40
1.0
 40
1.0
 10
165.4087108678554
 20
124.0636647082939
 30
0.0
 10
165.3392576859765
 20
124.0068450950729
 30
0.0
 10
165.262757649543
 20
123.9473355457668
 30
0.0
 10
165.108270725128
 20
123.8186065430448
 30
0.0
 10
165.029750400941
 20
123.7493209182908
 30
0.0
 10
164.7991319935626
 20
123.5247231717146
 30
0.0
 10
164.6566850467788
 20
123.3573344797132
 30
0.0
 10
164.4131513752893
 20
122.9854684484476
 30
0.0
 10
164.316098882588
 20
122.788562194296
 30
0.0
 10
164.1796672504603
 20
122.3687884176262
 30
0.0
 10
164.1443418002273
 20
122.1577445476719
 30
0.0
 10
164.1436587469382
 20
121.7381044047979
 30
0.0
 10
164.1785961378683
 20
121.5395358864053
 30
0.0
 10
164.3141855356535
 20
121.1738948788748
 30
0.0
 10
164.4123011484606
 20
121.013856229025
 30
0.0
 10
164.6555800697811
 20
120.7444135264309
 30
0.0
 10
164.798151722675
 20
120.6380419095813
 30
0.0
 10
165.0281004470488
 20
120.5247489760206
 30
0.0
 10
165.1063610539429
 20
120.4952528379345
 30
0.0
 10
165.2616044774131
 20
120.4541081722919
 30
0.0
 10
165.339575113341
 20
120.4423624489111
 30
0.0
 10
165.4087108678595
 20
120.4425932594386
 30
0.0
  0
LINE
  5
123
330
1F
100
AcDbEntity
  8
0
  6
HIDDEN
 62
     7
370
     0
100
AcDbLine
 10
168.1539978155
 20
133.8343733672
 30
0.0
 11
168.1539978155
 21
131.8365541396
 31
0.0
  0
LINE
  5
124
330
1F
100
AcDbEntity
  8
0
  6
HIDDEN
 62
     7
370
     0
100
AcDbLine
 10
164.3339978155
 20
133.8343733672
 30
0.0
 11
164.3339978155
 21
131.8365541396
 31
0.0
  0
LINE
  5
125
330
1F
100
AcDbEntity
  8
0
  6
HIDDEN
 62
     7
370
     0
100
AcDbLine
 10
162.8809324975
 20
137.0670950935
 30
0.0
 11
162.8809324975
 21
131.8365541396
 31
0.0
  0
LINE
  5
126
330
1F
100
AcDbEntity
  8
0
  6
HIDDEN
 62
     7
370
     0
100
AcDbLine
 10
169.6070631335
 20
137.0670950935
 30
0.0
 11
169.6070631335
 21
131.8365541396
 31
0.0
  0
LINE
  5
127
330
1F
100
AcDbEntity
  8
0
  6
HIDDEN
 62
     7
370
     0
100
AcDbLine
 10
158.3439978155
 20
107.7475776004
 30
0.0
 11
165.2066708079
 21
109.3910854087
 31
0.0
  0
LINE
  5
128
330
1F
100
AcDbEntity
  8
0
  6
HIDDEN
 62
     7
370
     0
100
AcDbLine
 10
165.2030967789
 20
113.5033365408
 30
0.0
 11
158.3439978155
 21
111.8606846592
 31
0.0
  0
LINE
  5
129
330
1F
100
AcDbEntity
  8
0
  6
HIDDEN
 62
     7
370
     0
100
AcDbLine
 10
168.3439978155
 20
110.8216410562
 30
0.0
 11
168.3439978155
 21
115.5375529222
 31
0.0
  0
LINE
  5
12A
330
1F
100
AcDbEntity
  8
0
  6
HIDDEN
 62
     7
370
     0
100
AcDbLine
 10
164.1439978155
 20
115.5358358984
 30
0.0
 11
164.1439978155
 21
112.0274889132
 31
0.0
  0
LINE
  5
12B
330
1F
100
AcDbEntity
  8
0
  6
HIDDEN
 62
     7
370
     0
100
AcDbLine
 10
194.2439978155
 20
127.2365541396
 30
0.0
 11
193.9059247633
 21
126.5115541396
 31
0.0
  0
LINE
  5
12C
330
1F
100
AcDbEntity
  8
0
  6
HIDDEN
 62
     7
370
     0
100
AcDbLine
 10
193.9059247633
 20
107.4615541396
 30
0.0
 11
194.2439978155
 21
106.7365541396
 31
0.0
  0
LINE
  5
12D
330
1F
100
AcDbEntity
  8
0
  6
HIDDEN
 62
     7
370
     0
100
AcDbLine
 10
193.9538455616
 20
125.1865541396
 30
0.0
 11
191.3939978155
 21
125.1865541396
 31
0.0
  0
LINE
  5
12E
330
1F
100
AcDbEntity
  8
0
  6
HIDDEN
 62
     7
370
     0
100
AcDbLine
 10
191.3939978155
 20
108.7865541396
 30
0.0
 11
193.9473019982
 21
108.7865541396
 31
0.0
  0
LINE
  5
12F
330
1F
100
AcDbEntity
  8
0
  6
HIDDEN
 62
     7
370
     0
100
AcDbLine
 10
191.3939978155
 20
124.3329643012
 30
0.0
 11
190.7939978155
 21
123.9865541396
 31
0.0
  0
LINE
  5
130
330
1F
100
AcDbEntity
  8
0
  6
HIDDEN
 62
     7
370
     0
100
AcDbLine
 10
190.7939978155
 20
109.9865541396
 30
0.0
 11
191.3939978155
 21
109.6401439781
 31
0.0
  0
ARC
  5
131
330
1F
100
AcDbEntity
  8
0
  6
HIDDEN
 62
     7
370
     0
100
AcDbCircle
 10
108.2939978155
 20
109.6865541396
 30
0.0
 40
0.7999999999999972
100
AcDbArc
 50
90.0
 51
180.0
  0
ARC
  5
132
330
1F
100
AcDbEntity
  8
0
  6
HIDDEN
 62
     7
370
     0
100
AcDbCircle
 10
108.2939978155
 20
124.2865541396
 30
0.0
 40
0.8000000000000114
100
AcDbArc
 50
180.0
 51
270.0
  0
ARC
  5
133
330
1F
100
AcDbEntity
  8
0
  6
HIDDEN
 62
     7
370
     0
100
AcDbCircle
 10
179.8439978155
 20
110.3865541396
 30
0.0
 40
0.6000000000000227
100
AcDbArc
 50
180.0
 51
270.0
  0
ARC
  5
134
330
1F
100
AcDbEntity
  8
0
  6
HIDDEN
 62
     7
370
     0
100
AcDbCircle
 10
179.8439978155
 20
123.5865541396
 30
0.0
 40
0.6000000000000227
100
AcDbArc
 50
90.0
 51
180.0
  0
LINE
  5
135
330
1F
100
AcDbEntity
  8
0
  6
HIDDEN
 62
     7
370
     0
100
AcDbLine
 10
179.8439978155
 20
109.7865541396
 30
0.0
 11
180.4185961554
 21
109.7865541396
 31
0.0
  0
LINE
  5
136
330
1F
100
AcDbEntity
  8
0
  6
HIDDEN
 62
     7
370
     0
100
AcDbLine
 10
180.4185961554
 20
124.1865541396
 30
0.0
 11
179.8439978155
 21
124.1865541396
 31
0.0
  0
ARC
  5
137
330
1F
100
AcDbEntity
  8
0
  6
HIDDEN
 62
     7
370
     0
100
AcDbCircle
 10
180.4185961554
 20
110.3865541396
 30
0.0
 40
0.6000000000000008
100
AcDbArc
 50
270.0
 51
285.0
  0
ARC
  5
138
330
1F
100
AcDbEntity
  8
0
  6
HIDDEN
 62
     7
370
     0
100
AcDbCircle
 10
180.4185961554
 20
123.5865541396
 30
0.0
 40
0.6000000000000145
100
AcDbArc
 50
75.0
 51
90.0
  0
LINE
  5
139
330
1F
100
AcDbEntity
  8
0
  6
HIDDEN
 62
     7
370
     0
100
AcDbLine
 10
180.5738875825
 20
109.8069986439
 30
0.0
 11
181.2439978155
 21
109.9865541396
 31
0.0
  0
LINE
  5
13A
330
1F
100
AcDbEntity
  8
0
  6
HIDDEN
 62
     7
370
     0
100
AcDbLine
 10
181.2439978155
 20
123.9865541396
 30
0.0
 11
180.5738875825
 21
124.1661096354
 31
0.0
  0
LINE
  5
13B
330
1F
100
AcDbEntity
  8
0
  6
HIDDEN
 62
     7
370
     0
100
AcDbLine
 10
181.2439978155
 20
109.9865541396
 30
0.0
 11
190.7939978155
 21
109.9865541396
 31
0.0
  0
LINE
  5
13C
330
1F
100
AcDbEntity
  8
0
  6
HIDDEN
 62
     7
370
     0
100
AcDbLine
 10
190.7939978155
 20
123.9865541396
 30
0.0
 11
181.2439978155
 21
123.9865541396
 31
0.0
  0
LINE
  5
13D
330
1F
100
AcDbEntity
  8
0
  6
HIDDEN
 62
     7
370
     0
100
AcDbLine
 10
112.3863702462
 20
110.2615541396
 30
0.0
 11
113.2630577078
 21
110.2615541396
 31
0.0
  0
LINE
  5
13E
330
1F
100
AcDbEntity
  8
0
  6
HIDDEN
 62
     7
370
     0
100
AcDbLine
 10
113.2630577078
 20
123.7115541396
 30
0.0
 11
112.3863702462
 21
123.7115541396
 31
0.0
  0
ARC
  5
13F
330
1F
100
AcDbEntity
  8
0
  6
HIDDEN
 62
     7
370
     0
100
AcDbCircle
 10
112.3863702462
 20
110.6615541396
 30
0.0
 40
0.400000000000006
100
AcDbArc
 50
255.0
 51
270.0
  0
ARC
  5
140
330
1F
100
AcDbEntity
  8
0
  6
HIDDEN
 62
     7
370
     0
100
AcDbCircle
 10
112.3863702462
 20
123.3115541396
 30
0.0
 40
0.3999999999999923
100
AcDbArc
 50
90.0
 51
105.0
  0
ARC
  5
141
330
1F
100
AcDbEntity
  8
0
  6
HIDDEN
 62
     7
370
     0
100
AcDbCircle
 10
113.2630577078
 20
110.6615541396
 30
0.0
 40
0.4000000000000121
100
AcDbArc
 50
270.0
 51
330.0
  0
ARC
  5
142
330
1F
100
AcDbEntity
  8
0
  6
HIDDEN
 62
     7
370
     0
100
AcDbCircle
 10
113.2630577078
 20
123.3115541396
 30
0.0
 40
0.4000000000000121
100
AcDbArc
 50
30.0
 51
90.0
  0
LINE
  5
143
330
1F
100
AcDbEntity
  8
0
  6
HIDDEN
 62
     7
370
     0
100
AcDbLine
 10
112.2828426282
 20
123.6979244702
 30
0.0
 11
111.4939978155
 21
123.4865541396
 31
0.0
  0
LINE
  5
144
330
1F
100
AcDbEntity
  8
0
  6
HIDDEN
 62
     7
370
     0
100
AcDbLine
 10
111.4939978155
 20
110.4865541396
 30
0.0
 11
112.2828426282
 21
110.2751838091
 31
0.0
  0
LINE
  5
145
330
1F
100
AcDbEntity
  8
0
  6
HIDDEN
 62
     7
370
     0
100
AcDbLine
 10
113.6094678693
 20
110.4615541396
 30
0.0
 11
114.4321920029
 21
111.8865541396
 31
0.0
  0
LINE
  5
146
330
1F
100
AcDbEntity
  8
0
  6
HIDDEN
 62
     7
370
     0
100
AcDbLine
 10
114.4321920029
 20
122.0865541396
 30
0.0
 11
113.6094678693
 21
123.5115541396
 31
0.0
  0
LINE
  5
147
330
1F
100
AcDbEntity
  8
0
  6
HIDDEN
 62
     7
370
     0
100
AcDbLine
 10
108.2939978155
 20
110.4865541396
 30
0.0
 11
111.4939978155
 21
110.4865541396
 31
0.0
  0
LINE
  5
148
330
1F
100
AcDbEntity
  8
0
  6
HIDDEN
 62
     7
370
     0
100
AcDbLine
 10
111.4939978155
 20
123.4865541396
 30
0.0
 11
108.2939978155
 21
123.4865541396
 31
0.0
  0
LINE
  5
149
330
1F
100
AcDbEntity
  8
0
  6
HIDDEN
 62
     7
370
     0
100
AcDbLine
 10
141.4939978155
 20
111.8865541396
 30
0.0
 11
142.0047293417
 21
112.7365541396
 31
0.0
  0
LINE
  5
14A
330
1F
100
AcDbEntity
  8
0
  6
HIDDEN
 62
     7
370
     0
100
AcDbLine
 10
142.0047293417
 20
121.2365541396
 30
0.0
 11
141.4939978155
 21
122.0865541396
 31
0.0
  0
LINE
  5
14B
330
1F
100
AcDbEntity
  8
0
  6
HIDDEN
 62
     7
370
     0
100
AcDbLine
 10
114.4321920029
 20
111.8865541396
 30
0.0
 11
141.4939978155
 21
111.8865541396
 31
0.0
  0
LINE
  5
14C
330
1F
100
AcDbEntity
  8
0
  6
HIDDEN
 62
     7
370
     0
100
AcDbLine
 10
141.4939978155
 20
122.0865541396
 30
0.0
 11
114.4321920029
 21
122.0865541396
 31
0.0
  0
LINE
  5
14D
330
1F
100
AcDbEntity
  8
0
  6
HIDDEN
 62
     7
370
     0
100
AcDbLine
 10
193.9059247633
 20
126.5115541396
 30
0.0
 11
191.3939978155
 21
126.5115541396
 31
0.0
  0
LINE
  5
14E
330
1F
100
AcDbEntity
  8
0
  6
HIDDEN
 62
     7
370
     0
100
AcDbLine
 10
191.3939978155
 20
107.4615541396
 30
0.0
 11
193.9059247633
 21
107.4615541396
 31
0.0
  0
LINE
  5
14F
330
1F
100
AcDbEntity
  8
0
  6
HIDDEN
 62
     7
370
     0
100
AcDbLine
 10
142.0047293417
 20
112.7365541396
 30
0.0
 11
179.2439978155
 21
112.7365541396
 31
0.0
  0
LINE
  5
150
330
1F
100
AcDbEntity
  8
0
  6
HIDDEN
 62
     7
370
     0
100
AcDbLine
 10
179.2439978155
 20
121.2365541396
 30
0.0
 11
142.0047293417
 21
121.2365541396
 31
0.0
  0
LINE
  5
151
330
1F
100
AcDbEntity
  8
0
  6
HIDDEN
 62
     7
370
     0
100
AcDbLine
 10
168.3439978155
 20
118.4389679636
 30
0.0
 11
168.3439978155
 21
124.779396335
 31
0.0
  0
LINE
  5
152
330
1F
100
AcDbEntity
  8
0
  6
HIDDEN
 62
     7
370
     0
100
AcDbLine
 10
164.1439978155
 20
121.9450698734
 30
0.0
 11
164.1439978155
 21
118.4396928466
 31
0.0
  0
LINE
  5
153
330
1F
100
AcDbEntity
  8
0
  6
HIDDEN
 62
     7
370
     0
100
AcDbLine
 10
164.1439978155
 20
124.779396335
 30
0.0
 11
164.1439978155
 21
123.6140839394
 31
0.0
  0
LINE
  5
154
330
1F
100
AcDbEntity
  8
0
  6
HIDDEN
 62
     7
370
     0
100
AcDbLine
 10
193.9473019982
 20
108.7865541396
 30
0.0
 11
193.9520726562
 21
108.7865541396
 31
0.0
  0
LINE
  5
155
330
1F
100
AcDbEntity
  8
0
  6
HIDDEN
 62
     7
370
     0
100
AcDbLine
 10
158.3439978155
 20
122.1124236201
 30
0.0
 11
165.2097172397
 21
120.4681862369
 31
0.0
  0
LINE
  5
156
330
1F
100
AcDbEntity
  8
0
  6
HIDDEN
 62
     7
370
     0
100
AcDbLine
 10
165.2096607345
 20
124.5813068277
 30
0.0
 11
158.3439978155
 21
126.2255306788
 31
0.0
  0
DIMENSION
  5
157
330
1F
100
AcDbEntity
  8
VERMASSUNG
100
AcDbDimension
  2
_D
 10
99.3936340943
 20
141.9615541396
 30
0.0
 11
99.3936340943
 21
116.9865541396
 31
0.0
 70
   160
  1
ISO 30 %%c<>
 71
     2
 42
-1.0
  3
SLDDIMSTYLE0
100
AcDbAlignedDimension
 13
158.9439978155
 23
92.0115541396
 33
0.0
 14
158.9439978155
 24
141.9615541396
 34
0.0
 50
90.0
100
AcDbRotatedDimension
  0
DIMENSION
  5
164
330
1F
100
AcDbEntity
  8
VERMASSUNG
100
AcDbDimension
  2
_D_1
 10
194.2439978155
 20
151.1208643488
 30
0.0
 11
174.6939978155
 21
151.1208643488
 31
0.0
 70
   160
  1
<>
 71
     2
 42
-1.0
  3
SLDDIMSTYLE0
100
AcDbAlignedDimension
 13
155.1439978155
 23
132.8615541396
 33
0.0
 14
194.2439978155
 24
129.0865541396
 34
0.0
100
AcDbRotatedDimension
  0
DIMENSION
  5
16E
330
1F
100
AcDbEntity
  8
VERMASSUNG
100
AcDbDimension
  2
_D_2
 10
202.2068359771
 20
104.4865541396
 30
0.0
 11
202.2068359771
 21
116.9865541396
 31
0.0
 70
   160
  1
MBM %%c<>
 71
     2
 42
-1.0
  3
SLDDIMSTYLE1
100
AcDbAlignedDimension
 13
194.0439978155
 23
129.4865541396
 33
0.0
 14
194.0439978155
 24
104.4865541396
 34
0.0
 50
90.0
100
AcDbRotatedDimension
  0
DIMENSION
  5
17B
330
1F
100
AcDbEntity
  8
VERMASSUNG
100
AcDbDimension
  2
_D_3
 10
174.1939978155
 20
145.1208643488
 30
0.0
 11
184.2189978155
 21
145.1208643488
 31
0.0
 70
   160
  1
<>
 71
     2
 42
-1.0
  3
SLDDIMSTYLE0
100
AcDbAlignedDimension
 13
194.2439978155
 23
129.2865541396
 33
0.0
 14
174.1939978155
 24
139.8979117536
 34
0.0
100
AcDbRotatedDimension
  0
DIMENSION
  5
185
330
1F
100
AcDbEntity
  8
VERMASSUNG
100
AcDbDimension
  2
_D_4
 10
155.1439978155
 20
151.1208643488
 30
0.0
 11
174.6939978155
 21
151.1208643488
 31
0.0
 70
   160
  1
<>
 71
     2
 42
-1.0
  3
SLDDIMSTYLE0
100
AcDbAlignedDimension
 13
194.2439978155
 23
129.2865541396
 33
0.0
 14
155.1439978155
 24
132.8615541396
 34
0.0
100
AcDbRotatedDimension
  0
DIMENSION
  5
18F
330
1F
100
AcDbEntity
  8
VERMASSUNG
100
AcDbDimension
  2
_D_5
 10
107.4939978155
 20
157.1208643488
 30
0.0
 11
150.8689978155
 21
157.1208643488
 31
0.0
 70
   160
  1
<>
 71
     2
 42
-1.0
  3
SLDDIMSTYLE0
100
AcDbAlignedDimension
 13
194.2439978155
 23
129.2865541396
 33
0.0
 14
107.4939978155
 24
125.0478514033
 34
0.0
100
AcDbRotatedDimension
  0
LINE
  5
199
330
1F
100
AcDbEntity
  8
VERMASSUNG
  6
CENTERX2
 62
     7
370
     0
100
AcDbLine
 10
105.4939978155
 20
116.9865541396
 30
0.0
 11
196.2439978155
 21
116.9865541396
 31
0.0
  0
LINE
  5
19A
330
1F
100
AcDbEntity
  8
VERMASSUNG
  6
CENTERX2
370
     0
100
AcDbLine
 10
156.3989961693
 20
124.6347760293
 30
0.0
 11
167.1548335147
 21
122.0589134345
 31
0.0
  0
LINE
  5
19B
330
1F
100
AcDbEntity
  8
VERMASSUNG
  6
CENTERX2
370
     0
100
AcDbLine
 10
156.3989961693
 20
109.33833225
 30
0.0
 11
167.1548335147
 21
111.9141948448
 31
0.0
  0
LINE
  5
19C
330
1F
100
AcDbEntity
  8
0
  6
Continuous
 62
     7
370
    15
100
AcDbLine
 10
254.3134510092
 20
55.1942213169
 30
0.0
 11
254.1720066737
 21
55.275901936
 31
0.0
  0
LINE
  5
19D
330
1F
100
AcDbEntity
  8
0
  6
Continuous
 62
     7
370
    15
100
AcDbLine
 10
252.3332303111
 20
55.275901936
 30
0.0
 11
252.1917859755
 21
55.1942213169
 31
0.0
  0
LINE
  5
19E
330
1F
100
AcDbEntity
  8
0
  6
Continuous
 62
     7
370
    15
100
AcDbLine
 10
254.7526184924
 20
54.4391200999
 30
0.0
 11
254.7526184924
 21
54.5820147419
 31
0.0
  0
LINE
  5
19F
330
1F
100
AcDbEntity
  8
0
  6
Continuous
 62
     7
370
    15
100
AcDbLine
 10
251.7526184924
 20
54.5820147419
 30
0.0
 11
251.7526184924
 21
54.4391200999
 31
0.0
  0
LINE
  5
1A0
330
1F
100
AcDbEntity
  8
0
  6
Continuous
 62
     7
370
    15
100
AcDbLine
 10
255.7458881757
 20
43.1000581801
 30
0.0
 11
255.8165873613
 21
43.1408852201
 31
0.0
  0
LINE
  5
1A1
330
1F
100
AcDbEntity
  8
0
  6
Continuous
 62
     7
370
    15
100
AcDbLine
 10
260.1645872785
 20
50.6726580712
 30
0.0
 11
260.1645872785
 21
50.7542988824
 31
0.0
  0
LINE
  5
1A2
330
1F
100
AcDbEntity
  8
0
  6
Continuous
 62
     7
370
    15
100
AcDbLine
 10
246.6630492251
 20
46.2293373141
 30
0.0
 11
252.6204238566
 21
42.7902181431
 31
0.0
  0
LINE
  5
1A3
330
1F
100
AcDbEntity
  8
0
  6
Continuous
 62
     7
370
    15
100
AcDbLine
 10
258.8699159355
 20
53.6158289228
 30
0.0
 11
252.912541304
 21
57.0549480939
 31
0.0
  0
SPLINE
  5
1A4
330
1F
100
AcDbEntity
  8
0
  6
Continuous
 62
     7
370
    15
100
AcDbSpline
210
0.0
220
0.0
230
1.0
 70
     8
 71
     3
 72
    32
 73
    28
 74
     0
 42
0.000000001
 43
0.00000001
 40
0.0
 40
0.0
 40
0.0
 40
0.0
 40
0.0070488500623448
 40
0.0492628301747413
 40
0.0916005520062301
 40
0.1341419329600056
 40
0.1768830373138424
 40
0.2197906855883389
 40
0.2628191022430462
 40
0.305923448267968
 40
0.349067200586911
 40
0.3922232689977453
 40
0.435372033673901
 40
0.4785059503352988
 40
0.5216219204244399
 40
0.564719713649065
 40
0.6078008636977303
 40
0.6508679429311902
 40
0.6939241097964355
 40
0.736972840304872
 40
0.7800177779652655
 40
0.8230626559600888
 40
0.8661104588457862
 40
0.909164544251676
 40
0.9522287389534525
 40
0.995306832236808
 40
1.0
 40
1.0
 40
1.0
 40
1.0
 10
248.5426039714776
 20
66.61227046419734
 30
0.0
 10
248.5110997047256
 20
66.62167331886172
 30
0.0
 10
248.2909234590888
 20
66.68738775857786
 30
0.0
 10
247.8607023289062
 20
66.76139460138072
 30
0.0
 10
247.2435123653431
 20
66.8049737724429
 30
0.0
 10
246.6007885241778
 20
66.77451372222461
 30
0.0
 10
245.9378453240907
 20
66.67393709108762
 30
0.0
 10
245.2583264908718
 20
66.50254520157533
 30
0.0
 10
244.5667734154915
 20
66.26160518274804
 30
0.0
 10
243.8676872393152
 20
65.9526010743043
 30
0.0
 10
243.1656186745795
 20
65.57764592181833
 30
0.0
 10
242.4650496316561
 20
65.13928700193635
 30
0.0
 10
241.770352505858
 20
64.64046352580786
 30
0.0
 10
241.0857771170461
 20
64.08444393101108
 30
0.0
 10
240.4154452450972
 20
63.47478472713244
 30
0.0
 10
239.7633756596619
 20
62.81533001986701
 30
0.0
 10
239.1334737980148
 20
62.1101944860902
 30
0.0
 10
238.5295163241658
 20
61.36374480687774
 30
0.0
 10
237.9551340721986
 20
60.58057888358886
 30
0.0
 10
237.413788236142
 20
59.76550143268797
 30
0.0
 10
236.9087656793273
 20
58.92349985642866
 30
0.0
 10
236.4431051940576
 20
58.05971220409516
 30
0.0
 10
236.0197902929384
 20
57.17942711497901
 30
0.0
 10
235.6409335523658
 20
56.28792805436834
 30
0.0
 10
235.3107352551559
 20
55.39090397413595
 30
0.0
 10
235.1094608418071
 20
54.75962551323099
 30
0.0
 10
235.0182649452267
 20
54.4293799529792
 30
0.0
 10
235.0093056330254
 20
54.39693580594692
 30
0.0
  0
SPLINE
  5
1A5
330
1F
100
AcDbEntity
  8
0
  6
Continuous
 62
     7
370
    15
100
AcDbSpline
210
0.0
220
0.0
230
1.0
 70
     8
 71
     3
 72
    18
 73
    14
 74
     0
 42
0.000000001
 43
0.00000001
 40
0.0
 40
0.0
 40
0.0
 40
0.0
 40
0.0901107958397026
 40
0.1837221852136451
 40
0.2777872595912592
 40
0.3722550752411381
 40
0.4670318410393995
 40
0.5620150743405025
 40
0.6571155884763213
 40
0.7522663320270089
 40
0.8474146857701881
 40
0.9425357188657233
 40
1.0
 40
1.0
 40
1.0
 40
1.0
 10
243.7666189108311
 20
41.02744661187737
 30
0.0
 10
243.9603998656489
 20
41.00012274328738
 30
0.0
 10
244.3554897118781
 20
40.94441353775806
 30
0.0
 10
244.9830601394818
 20
40.94934291795596
 30
0.0
 10
245.6376413576481
 20
41.01975307485248
 30
0.0
 10
246.3110079761864
 20
41.16246949350326
 30
0.0
 10
246.9981170011255
 20
41.3748782662085
 30
0.0
 10
247.6946767313942
 20
41.6561090595671
 30
0.0
 10
248.3960286214246
 20
42.00435398832932
 30
0.0
 10
249.0978854642203
 20
42.41648422192966
 30
0.0
 10
249.7950156372847
 20
42.89266088301603
 30
0.0
 10
250.3950212720337
 20
43.34935995195526
 30
0.0
 10
250.7554916452816
 20
43.66832680364853
 30
0.0
 10
250.8912463276601
 20
43.78845108251989
 30
0.0
  0
LINE
  5
1A6
330
1F
100
AcDbEntity
  8
0
  6
Continuous
 62
     7
370
    15
100
AcDbLine
 10
240.8621661966
 20
42.3758662896
 30
0.0
 11
242.2717604715
 21
41.5621248357
 31
0.0
  0
LINE
  5
1A7
330
1F
100
AcDbEntity
  8
0
  6
Continuous
 62
     7
370
    15
100
AcDbLine
 10
241.7206494402
 20
64.5891980196
 30
0.0
 11
227.4647494876
 21
69.7264592782
 31
0.0
  0
LINE
  5
1A8
330
1F
100
AcDbEntity
  8
0
  6
Continuous
 62
     7
370
    15
100
AcDbLine
 10
222.9638293201
 20
61.9297920823
 30
0.0
 11
237.3957489243
 21
49.7435984755
 31
0.0
  0
LINE
  5
1A9
330
1F
100
AcDbEntity
  8
0
  6
Continuous
 62
     7
370
    15
100
AcDbLine
 10
237.0922032993
 20
44.5522195452
 30
0.0
 11
238.4841199047
 21
43.7486831927
 31
0.0
  0
SPLINE
  5
1AA
330
1F
100
AcDbEntity
  8
0
  6
Continuous
 62
     7
370
    15
100
AcDbSpline
210
0.0
220
0.0
230
1.0
 70
     8
 71
     3
 72
    11
 73
     7
 74
     0
 42
0.000000001
 43
0.00000001
 40
0.0
 40
0.0
 40
0.0
 40
0.0
 40
0.1206489226261349
 40
0.490254301064143
 40
0.8587458241517469
 40
1.0
 40
1.0
 40
1.0
 40
1.0
 10
235.0075157982536
 20
47.0602977224674
 30
0.0
 10
235.0349379718449
 20
46.9927047146221
 30
0.0
 10
235.1463673841847
 20
46.71804198165506
 30
0.0
 10
235.3821397524133
 20
46.27624382025781
 30
0.0
 10
235.6504883101687
 20
45.85152274606381
 30
0.0
 10
235.8364394188974
 20
45.64195113301921
 30
0.0
 10
235.8879677999437
 20
45.58387734143332
 30
0.0
  0
SPLINE
  5
1AB
330
1F
100
AcDbEntity
  8
0
  6
Continuous
 62
     7
370
    15
100
AcDbSpline
210
0.0
220
0.0
230
1.0
 70
     8
 71
     3
 72
    12
 73
     8
 74
     0
 42
0.000000001
 43
0.00000001
 40
0.0
 40
0.0
 40
0.0
 40
0.0
 40
0.1087733311250557
 40
0.3899898404620201
 40
0.67036495297842
 40
0.9493730563035919
 40
1.0
 40
1.0
 40
1.0
 40
1.0
 10
256.8640472829792
 20
60.63225627326412
 30
0.0
 10
256.8317368421899
 20
60.71251867648563
 30
0.0
 10
256.7158927881523
 20
61.00028702469837
 30
0.0
 10
256.4780157027576
 20
61.45827745328947
 30
0.0
 10
256.1312665501513
 20
61.97980774265504
 30
0.0
 10
255.8466368625991
 20
62.32040934401923
 30
0.0
 10
255.677234855681
 20
62.48350914048868
 30
0.0
 10
255.6512172767136
 20
62.50855879551584
 30
0.0
  0
SPLINE
  5
1AC
330
1F
100
AcDbEntity
  8
0
  6
Continuous
 62
     7
370
    15
100
AcDbSpline
210
0.0
220
0.0
230
1.0
 70
     8
 71
     3
 72
    25
 73
    21
 74
     0
 42
0.000000001
 43
0.00000001
 40
0.0
 40
0.0
 40
0.0
 40
0.0
 40
0.037150240990965
 40
0.0925891135035229
 40
0.1491830290001336
 40
0.2073143263058482
 40
0.2668201733164141
 40
0.3271914346649963
 40
0.3879070356665111
 40
0.448572831046338
 40
0.5090936051075863
 40
0.5694716790982597
 40
0.6297531997515482
 40
0.6900022719999598
 40
0.7502871760363533
 40
0.810661408297458
 40
0.8712010674923516
 40
0.9319787072603971
 40
0.9897463989178037
 40
1.0
 40
1.0
 40
1.0
 40
1.0
 10
227.4135932262226
 20
69.73539706271771
 30
0.0
 10
227.3328139976128
 20
69.76201816356097
 30
0.0
 10
227.1314888657437
 20
69.82836562354551
 30
0.0
 10
226.7813303788471
 20
69.85339393877902
 30
0.0
 10
226.3742319676126
 20
69.8216070452827
 30
0.0
 10
225.9508024680848
 20
69.71656240109834
 30
0.0
 10
225.5178927337319
 20
69.5419125647051
 30
0.0
 10
225.0828376936487
 20
69.29878630518581
 30
0.0
 10
224.6545255172356
 20
68.99225214231666
 30
0.0
 10
224.2411268196971
 20
68.62880418151128
 30
0.0
 10
223.8497533569006
 20
68.21580473843454
 30
0.0
 10
223.4864659007901
 20
67.76070198701625
 30
0.0
 10
223.1567995725715
 20
67.27122657115953
 30
0.0
 10
222.8658577111364
 20
66.75538508213158
 30
0.0
 10
222.6183188765191
 20
66.22145288706966
 30
0.0
 10
222.4184087011453
 20
65.6778404471631
 30
0.0
 10
222.2696981420297
 20
65.13283972165546
 30
0.0
 10
222.1775619835142
 20
64.60461047263894
 30
0.0
 10
222.1499487388515
 20
64.2360350162251
 30
0.0
 10
222.1487578643186
 20
64.04710449083315
 30
0.0
 10
222.1485783506413
 20
64.01862490507997
 30
0.0
  0
SPLINE
  5
1AD
330
1F
100
AcDbEntity
  8
0
  6
Continuous
 62
     7
370
    15
100
AcDbSpline
210
0.0
220
0.0
230
1.0
 70
     8
 71
     3
 72
    13
 73
     9
 74
     0
 42
0.000000001
 43
0.00000001
 40
0.0
 40
0.0
 40
0.0
 40
0.0
 40
0.1049210407738919
 40
0.3025199255982369
 40
0.5000225820926473
 40
0.6950324818161032
 40
0.8852445286567592
 40
1.0
 40
1.0
 40
1.0
 40
1.0
 10
222.1485783506413
 20
64.01862490507997
 30
0.0
 10
222.1502901976556
 20
63.92905986443617
 30
0.0
 10
222.1552259839152
 20
63.67081605335768
 30
0.0
 10
222.2106671884341
 20
63.26629440352723
 30
0.0
 10
222.3353683738846
 20
62.82368311634501
 30
0.0
 10
222.5251837570029
 20
62.43353989661904
 30
0.0
 10
222.7346537668078
 20
62.13438638288032
 30
0.0
 10
222.9006598461137
 20
61.99526671467362
 30
0.0
 10
222.9631258621341
 20
61.94291771962901
 30
0.0
  0
LWPOLYLINE
  5
1AE
330
1F
100
AcDbEntity
  8
0
  6
Continuous
 62
     7
370
    15
100
AcDbPolyline
 90
       25
 70
   128
 43
0.0
 10
252.3333796768
 20
54.2146576316
 10
252.1267854675
 20
54.3700858915
 10
251.9969149182
 20
54.5510859336
 10
251.9526184924
 20
54.7453229043
 10
251.9969149182
 20
54.939559875
 10
252.1267854675
 20
55.1205599172
 10
252.3333796768
 20
55.275988177
 10
252.6026184924
 20
55.3952524755
 10
252.9161537337
 20
55.4702251477
 10
253.2526184924
 20
55.49579693
 10
253.589083251
 20
55.4702251477
 10
253.9026184924
 20
55.3952524755
 10
254.1718573079
 20
55.275988177
 10
254.3784515173
 20
55.1205599172
 10
254.5083220665
 20
54.939559875
 10
254.5526184924
 20
54.7453229043
 10
254.5083220665
 20
54.5510859336
 10
254.3784515173
 20
54.3700858915
 10
254.1718573079
 20
54.2146576316
 10
253.9026184924
 20
54.0953933332
 10
253.589083251
 20
54.0204206609
 10
253.2526184924
 20
53.9948488786
 10
252.9161537337
 20
54.0204206609
 10
252.6026184924
 20
54.0953933332
 10
252.3333796768
 20
54.2146576316
  0
LWPOLYLINE
  5
1AF
330
1F
100
AcDbEntity
  8
0
  6
Continuous
 62
     7
370
    15
100
AcDbPolyline
 90
        8
 70
   128
 43
0.0
 10
252.1919583206
 20
53.9697086581
 10
251.9689465839
 20
54.1340355973
 10
251.8205371926
 20
54.324397456
 10
251.755355161
 20
54.529731095
 10
251.777188632
 20
54.7381032695
 10
251.8847687234
 20
54.9374041461
 10
252.0718432715
 20
55.1160510824
 10
252.1917859755
 20
55.1942213169
  0
LWPOLYLINE
  5
1B0
330
1F
100
AcDbEntity
  8
0
  6
Continuous
 62
     7
370
    15
100
AcDbPolyline
 90
       14
 70
   128
 43
0.0
 10
254.3134510092
 20
55.1942213169
 10
254.5362904008
 20
55.0299938866
 10
254.6846997921
 20
54.8396320279
 10
254.7498818237
 20
54.6342983889
 10
254.7280483528
 20
54.4259262144
 10
254.6204682614
 20
54.2266253377
 10
254.4333937133
 20
54.0479784015
 10
254.1776968013
 20
53.9003677162
 10
253.8682377006
 20
53.7923718783
 10
253.5230010491
 20
53.7302672135
 10
253.1620507462
 20
53.717663019
 10
252.8063639116
 20
53.7552918049
 10
252.4766117711
 20
53.8409667228
 10
252.1919583206
 20
53.9697086581
  0
LWPOLYLINE
  5
1B1
330
1F
100
AcDbEntity
  8
0
  6
Continuous
 62
     7
370
    15
100
AcDbPolyline
 90
       21
 70
   128
 43
0.0
 10
252.6339000588
 20
54.3881443554
 10
252.4729877837
 20
54.5160001595
 10
252.3883911944
 20
54.6663036717
 10
252.3883911944
 20
54.8243421369
 10
252.4729877837
 20
54.9746456491
 10
252.6339000588
 20
55.1025014532
 10
252.8553768051
 20
55.1953941324
 10
253.1157383355
 20
55.2442307039
 10
253.3894986493
 20
55.2442307039
 10
253.6498601796
 20
55.1953941324
 10
253.8713369259
 20
55.1025014532
 10
254.032249201
 20
54.9746456491
 10
254.1168457904
 20
54.8243421369
 10
254.1168457904
 20
54.6663036717
 10
254.032249201
 20
54.5160001595
 10
253.8713369259
 20
54.3881443554
 10
253.6498601796
 20
54.2952516762
 10
253.3894986493
 20
54.2464151047
 10
253.1157383355
 20
54.2464151047
 10
252.8553768051
 20
54.2952516762
 10
252.6339000588
 20
54.3881443554
  0
SPLINE
  5
1B2
330
1F
100
AcDbEntity
  8
0
  6
Continuous
 62
     7
370
    15
100
AcDbSpline
210
0.0
220
0.0
230
1.0
 70
     8
 71
     3
 72
     9
 73
     5
 74
     0
 42
0.000000001
 43
0.00000001
 40
0.0
 40
0.0
 40
0.0
 40
0.0
 40
0.6311775999676632
 40
1.0
 40
1.0
 40
1.0
 40
1.0
 10
252.7223726655714
 20
54.33936381425996
 30
0.0
 10
252.6548887434952
 20
54.38583127984785
 30
0.0
 10
252.5479712577039
 20
54.45945155026028
 30
0.0
 10
252.451633654619
 20
54.56841216430004
 30
0.0
 10
252.4161021886358
 20
54.60859927947918
 30
0.0
  0
SPLINE
  5
1B3
330
1F
100
AcDbEntity
  8
0
  6
Continuous
 62
     7
370
    15
100
AcDbSpline
210
0.0
220
0.0
230
1.0
 70
     8
 71
     3
 72
    10
 73
     6
 74
     0
 42
0.000000001
 43
0.00000001
 40
0.0
 40
0.0
 40
0.0
 40
0.0
 40
0.4391165375904043
 40
0.751366942907332
 40
1.0
 40
1.0
 40
1.0
 40
1.0
 10
254.0891347961114
 20
54.86739028099913
 30
0.0
 10
254.0570468734277
 20
54.7563144359534
 30
0.0
 10
254.0021416209327
 20
54.56625391447811
 30
0.0
 10
253.9223271390565
 20
54.42619703288547
 30
0.0
 10
253.8826010411139
 20
54.3972926649944
 30
0.0
 10
253.8649909280694
 20
54.38447969789207
 30
0.0
  0
SPLINE
  5
1B4
330
1F
100
AcDbEntity
  8
0
  6
Continuous
 62
     7
370
    15
100
AcDbSpline
210
0.0
220
0.0
230
1.0
 70
     8
 71
     3
 72
    11
 73
     7
 74
     0
 42
0.000000001
 43
0.00000001
 40
0.0
 40
0.0
 40
0.0
 40
0.0
 40
0.1843643438496321
 40
0.5174526391740295
 40
0.8663352079125959
 40
0.9999999999999999
 40
0.9999999999999999
 40
0.9999999999999999
 40
0.9999999999999999
 10
253.4767623604157
 20
55.2209053633462
 30
0.0
 10
253.5122974914922
 20
55.18133840706463
 30
0.0
 10
253.6120334110037
 20
55.07028642421113
 30
0.0
 10
253.7978503160107
 20
54.92322519533639
 30
0.0
 10
253.9708659022719
 20
54.87106229994618
 30
0.0
 10
254.0634806654184
 20
54.86818679182219
 30
0.0
 10
254.0891347961114
 20
54.86739028099913
 30
0.0
  0
SPLINE
  5
1B5
330
1F
100
AcDbEntity
  8
0
  6
Continuous
 62
     7
370
    15
100
AcDbSpline
210
0.0
220
0.0
230
1.0
 70
     8
 71
     3
 72
    10
 73
     6
 74
     0
 42
0.000000001
 43
0.00000001
 40
0.0
 40
0.0
 40
0.0
 40
0.0
 40
0.4391165375904083
 40
0.7513669429073349
 40
0.9999999999999999
 40
0.9999999999999999
 40
0.9999999999999999
 40
0.9999999999999999
 10
252.6402460566779
 20
55.09150986258623
 30
0.0
 10
252.759999814443
 20
55.06809035384607
 30
0.0
 10
252.9649090063568
 20
55.02801751855034
 30
0.0
 10
253.2627807078984
 20
55.10599422966929
 30
0.0
 10
253.4110405238065
 20
55.18561181988937
 30
0.0
 10
253.4767623604157
 20
55.2209053633462
 30
0.0
  0
SPLINE
  5
1B6
330
1F
100
AcDbEntity
  8
0
  6
Continuous
 62
     7
370
    15
100
AcDbSpline
210
0.0
220
0.0
230
1.0
 70
     8
 71
     3
 72
    10
 73
     6
 74
     0
 42
0.000000001
 43
0.00000001
 40
0.0
 40
0.0
 40
0.0
 40
0.0
 40
0.4391165375904061
 40
0.7513669429073399
 40
1.0
 40
1.0
 40
1.0
 40
1.0
 10
252.4161021886358
 20
54.60859927947918
 30
0.0
 10
252.4481901113196
 20
54.6357881801012
 30
0.0
 10
252.5030953638146
 20
54.68231077579637
 30
0.0
 10
252.5829098456908
 20
54.88616924035973
 30
0.0
 10
252.6226359436333
 20
55.0284420123083
 30
0.0
 10
252.6402460566779
 20
55.09150986258623
 30
0.0
  0
LINE
  5
1B7
330
1F
100
AcDbEntity
  8
0
  6
Continuous
 62
     7
370
    15
100
AcDbLine
 10
252.6402460567
 20
54.3845180843
 30
0.0
 11
252.6402460567
 21
55.0915098626
 31
0.0
  0
LINE
  5
1B8
330
1F
100
AcDbEntity
  8
0
  6
Continuous
 62
     7
370
    15
100
AcDbLine
 10
253.4767623604
 20
54.2570506073
 30
0.0
 11
253.4767623604
 21
55.2209053633
 31
0.0
  0
SPLINE
  5
1B9
330
1F
100
AcDbEntity
  8
0
  6
Continuous
 62
     7
370
    15
100
AcDbSpline
210
0.0
220
0.0
230
1.0
 70
     8
 71
     3
 72
    12
 73
     8
 74
     0
 42
0.000000001
 43
0.00000001
 40
0.0
 40
0.0
 40
0.0
 40
0.0
 40
0.25
 40
0.25
 40
0.5
 40
0.5
 40
1.0
 40
1.0
 40
1.0
 40
1.0
 10
240.2744743019142
 20
51.28283180273199
 30
0.0
 10
240.3081375478041
 20
51.26339842453087
 30
0.0
 10
240.3455903255869
 20
51.23587151423497
 30
0.0
 10
240.4172323337627
 20
51.17495233107187
 30
0.0
 10
240.4509594927732
 20
51.14216313949437
 30
0.0
 10
240.5413302442865
 20
51.04518134792924
 30
0.0
 10
240.5860293571591
 20
50.98440623741695
 30
0.0
 10
240.6155028497386
 20
50.93224242389938
 30
0.0
  0
SPLINE
  5
1BA
330
1F
100
AcDbEntity
  8
0
  6
Continuous
 62
     7
370
    15
100
AcDbSpline
210
0.0
220
0.0
230
1.0
 70
     8
 71
     3
 72
    14
 73
    10
 74
     0
 42
0.000000001
 43
0.00000001
 40
0.0
 40
0.0
 40
0.0
 40
0.0
 40
0.25
 40
0.25
 40
0.5
 40
0.5
 40
0.75
 40
0.75
 40
1.0
 40
1.0
 40
1.0
 40
1.0
 10
253.9774029430899
 20
63.17690584262893
 30
0.0
 10
253.9774029430899
 20
63.21322697787085
 30
0.0
 10
253.9730519107549
 20
63.25176660141864
 30
0.0
 10
253.955385609956
 20
63.33114303835829
 30
0.0
 10
253.9418788576561
 20
63.37242114616558
 30
0.0
 10
253.905502432551
 20
63.45235050256908
 30
0.0
 10
253.882511618612
 20
63.49133496708713
 30
0.0
 10
253.8276177369343
 20
63.55990536540281
 30
0.0
 10
253.7966157052038
 20
63.58802076073
 30
0.0
 10
253.7652709087339
 20
63.60611572656988
 30
0.0
  0
LINE
  5
1BB
330
1F
100
AcDbEntity
  8
0
  6
Continuous
 62
     7
370
    15
100
AcDbLine
 10
238.864880027
 20
52.0965732566
 30
0.0
 11
240.2744743019
 21
51.2828318027
 31
0.0
  0
LWPOLYLINE
  5
1BC
330
1F
100
AcDbEntity
  8
0
  6
Continuous
 62
     7
370
    15
100
AcDbPolyline
 90
       23
 70
   128
 43
0.0
 10
238.864880027
 20
52.0965732566
 10
239.1586992512
 20
53.0483720332
 10
239.5080795026
 20
54.0011655851
 10
239.9105780187
 20
54.9482922635
 10
240.3633806496
 20
55.8831300407
 10
240.8633215341
 20
56.7991428091
 10
241.4069052344
 20
57.6899260803
 10
241.990331175
 20
58.5492517628
 10
242.6095202155
 20
59.3711117072
 10
243.2601431705
 20
60.1497597135
 10
243.9376510779
 20
60.8797517065
 10
244.6373070041
 20
61.5559837997
 10
245.3542191632
 20
62.1737279795
 10
246.0833751188
 20
62.7286651626
 10
246.8196768295
 20
63.2169153933
 10
247.557976293
 20
63.6350649714
 10
248.2931115392
 20
63.9801903195
 10
249.0199427214
 20
64.2498784239
 10
249.7333880521
 20
64.4422437057
 10
250.4284593342
 20
64.5559412041
 10
251.1002968361
 20
64.5901759801
 10
251.74420327
 20
64.5447086743
 10
252.3556766338
 20
64.4198571805
  0
LINE
  5
1BD
330
1F
100
AcDbEntity
  8
0
  6
Continuous
 62
     7
370
    15
100
AcDbLine
 10
253.7652709087
 20
63.6061157266
 30
0.0
 11
252.3556766338
 21
64.4198571805
 31
0.0
  0
LINE
  5
1BE
330
1F
100
AcDbEntity
  8
0
  6
Continuous
 62
     7
370
    15
100
AcDbLine
 10
256.7323205799
 20
60.1623207704
 30
0.0
 11
256.8275232603
 21
60.3272166494
 31
0.0
  0
LINE
  5
1BF
330
1F
100
AcDbEntity
  8
0
  6
Continuous
 62
     7
370
    15
100
AcDbLine
 10
255.9396242609
 20
59.704706926
 30
0.0
 11
256.7323205799
 21
60.1623207704
 31
0.0
  0
ARC
  5
1C0
330
1F
100
AcDbEntity
  8
0
  6
Continuous
 62
     7
370
    15
100
AcDbCircle
 10
256.602111717
 20
58.66902235
 30
0.0
 40
1.229443846057876
100
AcDbArc
 50
122.60547834
 51
177.3945215143
  0
LINE
  5
1C1
330
1F
100
AcDbEntity
  8
0
  6
Continuous
 62
     7
370
    15
100
AcDbLine
 10
255.3739388359
 20
55.6340135442
 30
0.0
 11
255.3739388359
 21
58.7249110318
 31
0.0
  0
LINE
  5
1C2
330
1F
100
AcDbEntity
  8
0
  6
Continuous
 62
     7
370
    15
100
AcDbLine
 10
240.6470145601
 20
44.3033177244
 30
0.0
 11
240.6155028497
 21
44.2111639141
 31
0.0
  0
LINE
  5
1C3
330
1F
100
AcDbEntity
  8
0
  6
Continuous
 62
     7
370
    15
100
AcDbLine
 10
240.6470145601
 20
44.3033177244
 30
0.0
 11
242.4338847402
 21
45.3348559224
 31
0.0
  0
ARC
  5
1C4
330
1F
100
AcDbEntity
  8
0
  6
Continuous
 62
     7
370
    15
100
AcDbCircle
 10
241.7713972841
 20
46.3705404985
 30
0.0
 40
1.229443846057594
100
AcDbArc
 50
302.60547834
 51
357.3945215144
  0
LINE
  5
1C5
330
1F
100
AcDbEntity
  8
0
  6
Continuous
 62
     7
370
    15
100
AcDbLine
 10
242.9995701652
 20
51.5813400533
 30
0.0
 11
242.9995701652
 21
46.3146518167
 31
0.0
  0
ARC
  5
1C6
330
1F
100
AcDbEntity
  8
0
  6
Continuous
 62
     7
370
    15
100
AcDbCircle
 10
242.6547106712
 20
51.6372818108
 30
0.0
 40
0.3493673579427521
100
AcDbArc
 50
350.7859630095
 51
129.2032852357
  0
LINE
  5
1C7
330
1F
100
AcDbEntity
  8
0
  6
Continuous
 62
     7
370
    15
100
AcDbLine
 10
242.4338847402
 20
51.9080094581
 30
0.0
 11
240.6470145601
 21
50.87647126
 31
0.0
  0
LINE
  5
1C8
330
1F
100
AcDbEntity
  8
0
  6
Continuous
 62
     7
370
    15
100
AcDbLine
 10
240.6155028497
 20
50.9322424239
 30
0.0
 11
240.6470145601
 21
50.87647126
 31
0.0
  0
LINE
  5
1C9
330
1F
100
AcDbEntity
  8
0
  6
Continuous
 62
     7
370
    15
100
AcDbLine
 10
253.9774029431
 20
61.3481794313
 30
0.0
 11
253.9774029431
 21
63.1769058426
 31
0.0
  0
LINE
  5
1CA
330
1F
100
AcDbEntity
  8
0
  6
Continuous
 62
     7
370
    15
100
AcDbLine
 10
255.5610406837
 20
62.2623940393
 30
0.0
 11
253.9774029431
 21
61.3481794313
 31
0.0
  0
LWPOLYLINE
  5
1CB
330
1F
100
AcDbEntity
  8
0
  6
Continuous
 62
     7
370
    15
100
AcDbPolyline
 90
       54
 70
   128
 43
0.0
 10
251.4671738699
 20
45.6517481835
 10
251.4976970247
 20
46.2633042824
 10
251.588838011
 20
46.9015167587
 10
251.7393174091
 20
47.5574265081
 10
251.947022818
 20
48.2218259956
 10
252.2090385093
 20
48.8853885087
 10
252.5216863568
 20
49.5387990842
 10
252.8805774702
 20
50.1728852701
 10
253.2806738049
 20
50.7787458862
 10
253.7163588854
 20
51.3478759774
 10
254.1815166482
 20
51.872286205
 10
254.6696172979
 20
52.3446149987
 10
255.1738089714
 20
52.7582318977
 10
255.6870139228
 20
53.1073306274
 10
256.2020278795
 20
53.3870106068
 10
256.7116211744
 20
53.5933457422
 10
257.2086402349
 20
53.7234395404
 10
257.6861080026
 20
53.7754657698
 10
258.1373218768
 20
53.7486940962
 10
258.5559478039
 20
53.643500335
 10
258.9361091933
 20
53.4613611762
 10
259.2724694125
 20
53.2048334543
 10
259.5603067014
 20
52.8775182562
 10
259.7955804553
 20
52.4840103698
 10
259.9749879465
 20
52.0298337832
 10
260.0960106871
 20
51.5213641402
 10
260.156949783
 20
50.9657392399
 10
260.156949783
 20
50.370758838
 10
260.0960106871
 20
49.7447751551
 10
259.9749879465
 20
49.0965756301
 10
259.7955804553
 20
48.4352595632
 10
259.5603067014
 20
47.7701103826
 10
259.2724694125
 20
47.1104653246
 10
258.9361091933
 20
46.4655843599
 10
258.5559478039
 20
45.8445202037
 10
258.1373218768
 20
45.2559912353
 10
257.6861080026
 20
44.7082591113
 10
257.2086402349
 20
44.2090127903
 10
256.7116211744
 20
43.765260596
 10
256.2020278795
 20
43.3832318367
 10
255.6870139228
 20
43.0682893586
 10
255.1738089714
 20
42.8248542639
 10
254.6696172979
 20
42.6563438476
 10
254.1815166482
 20
42.5651236266
 10
253.7163588854
 20
42.5524741329
 10
253.2806738049
 20
42.6185729375
 10
252.8805774702
 20
42.7624921582
 10
252.5216863568
 20
42.9822114847
 10
252.2090385093
 20
43.2746465391
 10
251.947022818
 20
43.6356921743
 10
251.7393174091
 20
44.0602801011
 10
251.588838011
 20
44.5424500356
 10
251.4976970247
 20
45.075433369
 10
251.4671738699
 20
45.6517481835
  0
LWPOLYLINE
  5
1CC
330
1F
100
AcDbEntity
  8
0
  6
Continuous
 62
     7
370
    15
100
AcDbPolyline
 90
       28
 70
   128
 43
0.0
 10
251.3257525136
 20
45.6517481835
 10
251.3567719799
 20
46.273248284
 10
251.4493949335
 20
46.9218381989
 10
251.602321151
 20
47.5884131475
 10
251.8134038837
 20
48.2636158787
 10
252.0796799927
 20
48.9379680261
 10
252.3974115451
 20
49.6020031639
 10
252.7621382863
 20
50.2463996943
 10
253.1687402525
 20
50.8621117025
 10
253.6115096432
 20
51.4404959416
 10
254.0842309469
 20
51.9734331647
 10
254.5802681925
 20
52.4534421014
 10
255.0926581046
 20
52.8737844784
 10
255.614207852
 20
53.2285596102
 10
256.1375960193
 20
53.5127872316
 10
256.6554753841
 20
53.7224774098
 10
257.1605760553
 20
53.8546865544
 10
257.6458075266
 20
53.9075587387
 10
258.1043582118
 20
53.8803517533
 10
258.5297910644
 20
53.7734475245
 10
258.9161339398
 20
53.5883467533
 10
259.2579634309
 20
53.327647849
 10
259.5504810009
 20
52.9950104525
 10
259.7895803443
 20
52.5951040639
 10
259.9719050305
 20
52.1335424921
 10
260.0948956205
 20
51.61680505
 10
260.1568255961
 20
51.0521455985
 10
260.1645872785
 20
50.7542988824
  0
LWPOLYLINE
  5
1CD
330
1F
100
AcDbEntity
  8
0
  6
Continuous
 62
     7
370
    15
100
AcDbPolyline
 90
       15
 70
   128
 43
0.0
 10
255.7458881757
 20
43.1000581801
 10
255.614207852
 20
43.0262818981
 10
255.0926581046
 20
42.7788885091
 10
254.5802681925
 20
42.6076380861
 10
254.0842309469
 20
42.5149346094
 10
253.6115096432
 20
42.5020794329
 10
253.1687402525
 20
42.5692530148
 10
252.7621382863
 20
42.7155123855
 10
252.3974115451
 20
42.9388043839
 10
252.0796799927
 20
43.2359944798
 10
251.8134038837
 20
43.6029107758
 10
251.602321151
 20
44.0344025713
 10
251.4493949335
 20
44.5244126674
 10
251.3567719799
 20
45.0660623964
 10
251.3257525136
 20
45.6517481835
  0
SPLINE
  5
1CE
330
1F
100
AcDbEntity
  8
0
  6
Continuous
 62
     7
370
    15
100
AcDbSpline
210
0.0
220
0.0
230
1.0
 70
     8
 71
     3
 72
    38
 73
    34
 74
     0
 42
0.000000001
 43
0.00000001
 40
0.0
 40
0.0
 40
0.0
 40
0.0
 40
0.0625
 40
0.0625
 40
0.1250000000000001
 40
0.1250000000000001
 40
0.1875000000000001
 40
0.1875000000000001
 40
0.2500000000000001
 40
0.2500000000000001
 40
0.3125000000000001
 40
0.3125000000000001
 40
0.3750000000000001
 40
0.3750000000000001
 40
0.4375000000000001
 40
0.4375000000000001
 40
0.5
 40
0.5
 40
0.5625
 40
0.5625
 40
0.6250000000000001
 40
0.6250000000000001
 40
0.6875000000000001
 40
0.6875000000000001
 40
0.7500000000000001
 40
0.7500000000000001
 40
0.8125000000000002
 40
0.8125000000000002
 40
0.8750000000000001
 40
0.8750000000000001
 40
0.9375000000000001
 40
0.9375000000000001
 40
1.0
 40
1.0
 40
1.0
 40
1.0
 10
254.5784437070984
 20
53.97994029948556
 30
0.0
 10
254.4967908376978
 20
53.93280310132408
 30
0.0
 10
254.4049137422906
 20
53.88851479668961
 30
0.0
 10
254.2056785615532
 20
53.8084331500072
 30
0.0
 10
254.1006528385172
 20
53.77344398752386
 30
0.0
 10
253.8805136050173
 20
53.71362306745385
 30
0.0
 10
253.7661786194241
 20
53.68916453401314
 30
0.0
 10
253.5374288723581
 20
53.65292332154574
 30
0.0
 10
253.4207425156428
 20
53.64079536486912
 30
0.0
 10
253.1912081519487
 20
53.62987857137269
 30
0.0
 10
253.0784263743995
 20
53.63094017932586
 30
0.0
 10
252.8564297970519
 20
53.64658578660619
 30
0.0
 10
252.7473522382105
 20
53.66133413427726
 30
0.0
 10
252.5402449233814
 20
53.70397849110172
 30
0.0
 10
252.4411655735962
 20
53.73191584840242
 30
0.0
 10
252.2519327577162
 20
53.80175902265903
 30
0.0
 10
252.1630251044061
 20
53.84333986407737
 30
0.0
 10
252.000168090935
 20
53.93775569099998
 30
0.0
 10
251.9255548280689
 20
53.99082553803616
 30
0.0
 10
251.7904909739216
 20
54.10890233052915
 30
0.0
 10
251.7313137976465
 20
54.17292647399086
 30
0.0
 10
251.6313873208935
 20
54.30801211126787
 30
0.0
 10
251.5902590887171
 20
54.37938893802892
 30
0.0
 10
251.5270205011956
 20
54.52939992743609
 30
0.0
 10
251.5057070265679
 20
54.60638387450018
 30
0.0
 10
251.4846321046968
 20
54.76103343527969
 30
0.0
 10
251.4846929685015
 20
54.83904604813661
 30
0.0
 10
251.5089125385561
 20
54.9953571863929
 30
0.0
 10
251.5327076137811
 20
55.07085530215669
 30
0.0
 10
251.6041473926574
 20
55.2143839229114
 30
0.0
 10
251.6525871230704
 20
55.28336528610997
 30
0.0
 10
251.7735829014341
 20
55.40832423187613
 30
0.0
 10
251.8447762002408
 20
55.4633580581843
 30
0.0
 10
251.9267932776488
 20
55.51070550915314
 30
0.0
  0
SPLINE
  5
1CF
330
1F
100
AcDbEntity
  8
0
  6
Continuous
 62
     7
370
    15
100
AcDbSpline
210
0.0
220
0.0
230
1.0
 70
     8
 71
     3
 72
    34
 73
    30
 74
     0
 42
0.000000001
 43
0.00000001
 40
0.0
 40
0.0
 40
0.0
 40
0.0
 40
0.0625000000000005
 40
0.0625000000000005
 40
0.1250000000000009
 40
0.1250000000000009
 40
0.2500000000000014
 40
0.2500000000000014
 40
0.3750000000000019
 40
0.3750000000000019
 40
0.4375000000000018
 40
0.4375000000000018
 40
0.5000000000000017
 40
0.5000000000000017
 40
0.5625000000000014
 40
0.5625000000000014
 40
0.6250000000000012
 40
0.6250000000000012
 40
0.6875000000000011
 40
0.6875000000000011
 40
0.7500000000000009
 40
0.7500000000000009
 40
0.8125000000000007
 40
0.8125000000000007
 40
0.8750000000000004
 40
0.8750000000000004
 40
0.9375000000000003
 40
0.9375000000000003
 40
1.0
 40
1.0
 40
1.0
 40
1.0
 10
251.9267932776488
 20
55.51070550915314
 30
0.0
 10
252.0088364261723
 20
55.55806801065655
 30
0.0
 10
252.1021734589121
 20
55.5974543537427
 30
0.0
 10
252.3000609763114
 20
55.65652952087421
 30
0.0
 10
252.4071329353719
 20
55.67710502967874
 30
0.0
 10
252.7379058165208
 20
55.71191435364225
 30
0.0
 10
252.9723274234615
 20
55.70000450213301
 30
0.0
 10
253.4347715148845
 20
55.62648016518308
 30
0.0
 10
253.6550592530439
 20
55.56723208225757
 30
0.0
 10
253.9687145450726
 20
55.45516525327389
 30
0.0
 10
254.067600320754
 20
55.41480094023917
 30
0.0
 10
254.2547122814027
 20
55.32903838406219
 30
0.0
 10
254.3434086261763
 20
55.28335743698407
 30
0.0
 10
254.5075502732981
 20
55.18819950506165
 30
0.0
 10
254.5817964388799
 20
55.13948778435307
 30
0.0
 10
254.7150384741529
 20
55.03961001977446
 30
0.0
 10
254.7743970640043
 20
54.98806477907565
 30
0.0
 10
254.875021039961
 20
54.8833708779779
 30
0.0
 10
254.915765222493
 20
54.83091870965688
 30
0.0
 10
254.9780181540403
 20
54.72470109082595
 30
0.0
 10
254.9996273847578
 20
54.67043401918721
 30
0.0
 10
255.0207420165173
 20
54.56143728699061
 30
0.0
 10
255.0203332495672
 20
54.50737472724932
 30
0.0
 10
254.9965497645834
 20
54.39872239085645
 30
0.0
 10
254.9726243769998
 20
54.34336004065054
 30
0.0
 10
254.9004852451695
 20
54.23485061725903
 30
0.0
 10
254.8528648809962
 20
54.18197712035003
 30
0.0
 10
254.7331708282049
 20
54.07825300597942
 30
0.0
 10
254.660122531842
 20
54.02709248134764
 30
0.0
 10
254.5784437070984
 20
53.97994029948556
 30
0.0
  0
LWPOLYLINE
  5
1D0
330
1F
100
AcDbEntity
  8
0
  6
Continuous
 62
     7
370
    15
100
AcDbPolyline
 90
       49
 70
   128
 43
0.0
 10
252.1919583206
 20
46.0701573408
 10
252.2229614778
 20
46.6342773927
 10
252.315440477
 20
47.2245406776
 10
252.4678129767
 20
47.830847627
 10
252.6774718412
 20
48.4428241608
 10
252.9408297493
 20
49.0499991909
 10
253.2533805742
 20
49.6419837843
 10
253.6097764845
 20
50.2086489203
 10
254.0039194474
 20
50.7402988015
 10
254.4290655676
 20
51.2278367508
 10
254.877940477
 20
51.662920859
 10
255.3428638015
 20
52.0381067161
 10
255.8158805742
 20
52.3469747883
 10
256.2888973468
 20
52.5842402571
 10
256.7538206714
 20
52.7458434445
 10
257.2026955808
 20
52.8290192754
 10
257.627841701
 20
52.832344588
 10
258.0219846639
 20
52.7557624855
 10
258.3783805742
 20
52.6005833087
 10
258.690931399
 20
52.3694622165
 10
258.9542893071
 20
52.0663537548
 10
259.1639481717
 20
51.6964441935
 10
259.3163206714
 20
51.2660627876
 10
259.4087996705
 20
50.7825734824
 10
259.4398028278
 20
50.2542489139
 10
259.4087996705
 20
49.690128862
 10
259.3163206714
 20
49.0998655771
 10
259.1639481717
 20
48.4935586278
 10
258.9542893071
 20
47.8815820939
 10
258.690931399
 20
47.2744070638
 10
258.3783805742
 20
46.6824224704
 10
258.0219846639
 20
46.1157573344
 10
257.627841701
 20
45.5841074532
 10
257.2026955808
 20
45.0965695039
 10
256.7538206714
 20
44.6614853957
 10
256.2888973468
 20
44.2862995386
 10
255.8158805742
 20
43.9774314664
 10
255.3428638015
 20
43.7401659977
 10
254.877940477
 20
43.5785628102
 10
254.4290655676
 20
43.4953869793
 10
254.0039194474
 20
43.4920616667
 10
253.6097764845
 20
43.5686437692
 10
253.2533805742
 20
43.723822946
 10
252.9408297493
 20
43.9549440382
 10
252.6774718412
 20
44.2580524999
 10
252.4678129767
 20
44.6279620612
 10
252.315440477
 20
45.0583434671
 10
252.2229614778
 20
45.5418327723
 10
252.1919583206
 20
46.0701573408
  0
ARC
  5
1D1
330
1F
100
AcDbEntity
  8
0
  6
Continuous
 62
     7
370
    15
100
AcDbCircle
 10
256.6623863227
 20
46.5589663221
 30
0.0
 40
4.342146830487409
100
AcDbArc
 50
152.8222804837
 51
207.1777195163
  0
SPLINE
  5
1D2
330
1F
100
AcDbEntity
  8
0
  6
Continuous
 62
     7
370
    15
100
AcDbSpline
210
0.0
220
0.0
230
1.0
 70
     8
 71
     3
 72
    22
 73
    18
 74
     0
 42
0.000000001
 43
0.00000001
 40
0.0
 40
0.0
 40
0.0
 40
0.0
 40
0.1250000000000001
 40
0.1250000000000001
 40
0.2500000000000003
 40
0.2500000000000003
 40
0.3750000000000004
 40
0.3750000000000004
 40
0.5000000000000006
 40
0.5000000000000006
 40
0.6250000000000007
 40
0.6250000000000007
 40
0.7500000000000004
 40
0.7500000000000004
 40
0.8750000000000003
 40
0.8750000000000003
 40
1.0
 40
1.0
 40
1.0
 40
1.0
 10
253.748230659792
 20
43.94661406225299
 30
0.0
 10
253.7011929860081
 20
43.89938589230693
 30
0.0
 10
253.652712220827
 20
43.86114597410665
 30
0.0
 10
253.5532556366615
 20
43.80253994910921
 30
0.0
 10
253.5016549034243
 20
43.78214005159347
 30
0.0
 10
253.4002155737059
 20
43.76184618275455
 30
0.0
 10
253.3501834524889
 20
43.76157360866048
 30
0.0
 10
253.2517343634891
 20
43.78135707294649
 30
0.0
 10
253.2038435633571
 20
43.8015790235029
 30
0.0
 10
253.1144595590164
 20
43.86079840933935
 30
0.0
 10
253.0719744267492
 20
43.90043898414714
 30
0.0
 10
252.9946211872981
 20
43.99718017278785
 30
0.0
 10
252.960065802005
 20
44.05355937747497
 30
0.0
 10
252.8988072558607
 20
44.18196005645622
 30
0.0
 10
252.8722685457411
 20
44.25414425983868
 30
0.0
 10
252.8291618540549
 20
44.40720745711915
 30
0.0
 10
252.8121865782376
 20
44.48885465811571
 30
0.0
 10
252.7996383089467
 20
44.57568195518315
 30
0.0
  0
SPLINE
  5
1D3
330
1F
100
AcDbEntity
  8
0
  6
Continuous
 62
     7
370
    15
100
AcDbSpline
210
0.0
220
0.0
230
1.0
 70
     8
 71
     3
 72
     8
 73
     4
 74
     0
 42
0.000000001
 43
0.00000001
 40
0.0
 40
0.0
 40
0.0
 40
0.0
 40
1.0
 40
1.0
 40
1.0
 40
1.0
 10
253.8488751999086
 20
44.04627127428745
 30
0.0
 10
253.8149576492107
 20
44.01315914666153
 30
0.0
 10
253.781419391034
 20
43.97993720332904
 30
0.0
 10
253.748230659792
 20
43.94661406225299
 30
0.0
  0
LWPOLYLINE
  5
1D4
330
1F
100
AcDbEntity
  8
0
  6
Continuous
 62
     7
370
    15
100
AcDbPolyline
 90
        9
 70
   128
 43
0.0
 10
257.4646878969
 20
46.1336355135
 10
257.0473917663
 20
45.6229803038
 10
256.6005827326
 20
45.1681642326
 10
256.1337434184
 20
44.7788398555
 10
255.6567815484
 20
44.463269799
 10
255.1798196784
 20
44.2281514022
 10
254.7129803642
 20
44.07847458
 10
254.2661713305
 20
44.0174159216
 10
253.8488751999
 20
44.0462712743
  0
SPLINE
  5
1D5
330
1F
100
AcDbEntity
  8
0
  6
Continuous
 62
     7
370
    15
100
AcDbSpline
210
0.0
220
0.0
230
1.0
 70
     8
 71
     3
 72
     8
 73
     4
 74
     0
 42
0.000000001
 43
0.00000001
 40
0.0
 40
0.0
 40
0.0
 40
0.0
 40
1.0
 40
1.0
 40
1.0
 40
1.0
 10
257.637317956318
 20
46.19173636976543
 30
0.0
 10
257.5795865510053
 20
46.17257434158075
 30
0.0
 10
257.5220380598433
 20
46.1532129884818
 30
0.0
 10
257.4646878969072
 20
46.13363551346761
 30
0.0
  0
SPLINE
  5
1D6
330
1F
100
AcDbEntity
  8
0
  6
Continuous
 62
     7
370
    15
100
AcDbSpline
210
0.0
220
0.0
230
1.0
 70
     8
 71
     3
 72
    22
 73
    18
 74
     0
 42
0.000000001
 43
0.00000001
 40
0.0
 40
0.0
 40
0.0
 40
0.0
 40
0.1250000000000002
 40
0.1250000000000002
 40
0.2500000000000004
 40
0.2500000000000004
 40
0.3750000000000006
 40
0.3750000000000006
 40
0.5000000000000004
 40
0.5000000000000004
 40
0.6250000000000004
 40
0.6250000000000004
 40
0.7500000000000002
 40
0.7500000000000002
 40
0.8750000000000001
 40
0.8750000000000001
 40
1.0
 40
1.0
 40
1.0
 40
1.0
 10
258.5930690916826
 20
47.92015835687472
 30
0.0
 10
258.6148007456459
 20
47.83863034245639
 30
0.0
 10
258.6279720852327
 20
47.75471287878212
 30
0.0
 10
258.6374765024652
 20
47.58198225869701
 30
0.0
 10
258.6335725519077
 20
47.49207525396076
 30
0.0
 10
258.6084375169319
 20
47.31416125351573
 30
0.0
 10
258.5874569703968
 20
47.22581362955383
 30
0.0
 10
258.5282675228466
 20
47.05030585970984
 30
0.0
 10
258.4901606909291
 20
46.96411855130199
 30
0.0
 10
258.4001183824199
 20
46.80131568817974
 30
0.0
 10
258.3471857158066
 20
46.72289775008326
 30
0.0
 10
258.2292659888388
 20
46.57818262258808
 30
0.0
 10
258.164997774822
 20
46.51243111080598
 30
0.0
 10
258.0259891431952
 20
46.39388757115488
 30
0.0
 10
257.9512240747051
 20
46.34141917533413
 30
0.0
 10
257.7982163461735
 20
46.25431153202329
 30
0.0
 10
257.7191265717574
 20
46.21889003052093
 30
0.0
 10
257.637317956318
 20
46.19173636976543
 30
0.0
  0
ARC
  5
1D7
330
1F
100
AcDbEntity
  8
0
  6
Continuous
 62
     7
370
    15
100
AcDbCircle
 10
254.7303210779
 20
49.9034427237
 30
0.0
 40
4.342146830487589
100
AcDbArc
 50
332.8222804837
 51
27.1777195163
  0
SPLINE
  5
1D8
330
1F
100
AcDbEntity
  8
0
  6
Continuous
 62
     7
370
    15
100
AcDbSpline
210
0.0
220
0.0
230
1.0
 70
     8
 71
     3
 72
    22
 73
    18
 74
     0
 42
0.000000001
 43
0.00000001
 40
0.0
 40
0.0
 40
0.0
 40
0.0
 40
0.1250000000000001
 40
0.1250000000000001
 40
0.2500000000000003
 40
0.2500000000000003
 40
0.3750000000000004
 40
0.3750000000000004
 40
0.5000000000000006
 40
0.5000000000000006
 40
0.6250000000000007
 40
0.6250000000000007
 40
0.7500000000000004
 40
0.7500000000000004
 40
0.8750000000000003
 40
0.8750000000000003
 40
1.0
 40
1.0
 40
1.0
 40
1.0
 10
257.637317956318
 20
52.51992766188
 30
0.0
 10
257.7191284105461
 20
52.54708193296052
 30
0.0
 10
257.7982871880158
 20
52.56761181163544
 30
0.0
 10
257.9515409748891
 20
52.59516137256508
 30
0.0
 10
258.026445708106
 20
52.60210815725013
 30
0.0
 10
258.1651227205832
 20
52.6009051694058
 30
0.0
 10
258.2293096814712
 20
52.59300632849126
 30
0.0
 10
258.34718226589
 20
52.56200991897416
 30
0.0
 10
258.4001268931893
 20
52.53887045609499
 30
0.0
 10
258.490164369241
 20
52.47927382906964
 30
0.0
 10
258.5282622147603
 20
52.44216598099079
 30
0.0
 10
258.5874731659969
 20
52.35589811240541
 30
0.0
 10
258.6084820635127
 20
52.30733912865408
 30
0.0
 10
258.6336245204819
 20
52.19978782416215
 30
0.0
 10
258.6374712566155
 20
52.14070341852482
 30
0.0
 10
258.6279547846021
 20
52.01801892701922
 30
0.0
 10
258.6148002437876
 20
51.95376529893153
 30
0.0
 10
258.5930690916826
 20
51.88672709061338
 30
0.0
  0
SPLINE
  5
1D9
330
1F
100
AcDbEntity
  8
0
  6
Continuous
 62
     7
370
    15
100
AcDbSpline
210
0.0
220
0.0
230
1.0
 70
     8
 71
     3
 72
     8
 73
     4
 74
     0
 42
0.000000001
 43
0.00000001
 40
0.0
 40
0.0
 40
0.0
 40
0.0
 40
1.0
 40
1.0
 40
1.0
 40
1.0
 10
257.4646878969072
 20
52.46182680558217
 30
0.0
 10
257.5220459991718
 20
52.48140699082413
 30
0.0
 10
257.5795943284312
 20
52.50076821515429
 30
0.0
 10
257.637317956318
 20
52.51992766188
 30
0.0
  0
LWPOLYLINE
  5
1DA
330
1F
100
AcDbEntity
  8
0
  6
Continuous
 62
     7
370
    15
100
AcDbPolyline
 90
        9
 70
   128
 43
0.0
 10
253.8488751999
 20
50.3744625664
 10
254.2661713305
 20
50.8851177761
 10
254.7129803642
 20
51.3399338473
 10
255.1798196784
 20
51.7292582243
 10
255.6567815484
 20
52.0448282809
 10
256.1337434184
 20
52.2799466777
 10
256.6005827326
 20
52.4296234999
 10
257.0473917663
 20
52.4906821582
 10
257.4646878969
 20
52.4618268056
  0
SPLINE
  5
1DB
330
1F
100
AcDbEntity
  8
0
  6
Continuous
 62
     7
370
    15
100
AcDbSpline
210
0.0
220
0.0
230
1.0
 70
     8
 71
     3
 72
     8
 73
     4
 74
     0
 42
0.000000001
 43
0.00000001
 40
0.0
 40
0.0
 40
0.0
 40
0.0
 40
1.0
 40
1.0
 40
1.0
 40
1.0
 10
253.748230659792
 20
50.27480535436755
 30
0.0
 10
253.7814238627365
 20
50.308132985256
 30
0.0
 10
253.8149623439716
 20
50.34135502205284
 30
0.0
 10
253.8488751999086
 20
50.37446256640201
 30
0.0
  0
SPLINE
  5
1DC
330
1F
100
AcDbEntity
  8
0
  6
Continuous
 62
     7
370
    15
100
AcDbSpline
210
0.0
220
0.0
230
1.0
 70
     8
 71
     3
 72
    22
 73
    18
 74
     0
 42
0.000000001
 43
0.00000001
 40
0.0
 40
0.0
 40
0.0
 40
0.0
 40
0.1250000000000002
 40
0.1250000000000002
 40
0.2500000000000004
 40
0.2500000000000004
 40
0.3750000000000007
 40
0.3750000000000007
 40
0.5000000000000006
 40
0.5000000000000006
 40
0.6250000000000004
 40
0.6250000000000004
 40
0.7500000000000003
 40
0.7500000000000003
 40
0.8750000000000002
 40
0.8750000000000002
 40
1.0
 40
1.0
 40
1.0
 40
1.0
 10
252.7996383089467
 20
48.5422506889218
 30
0.0
 10
252.8121868680268
 20
48.6039891575825
 30
0.0
 10
252.8291721093812
 20
48.67049759764088
 30
0.0
 10
252.8723605805733
 20
48.81280926072419
 30
0.0
 10
252.8989767216845
 20
48.88960479693922
 30
0.0
 10
252.9601313263381
 20
49.04672514241471
 30
0.0
 10
252.994643226905
 20
49.12726128196613
 30
0.0
 10
253.0719666104378
 20
49.29230055339558
 30
0.0
 10
253.1144636264386
 20
49.37595346247832
 30
0.0
 10
253.2038515964943
 20
49.53913406714943
 30
0.0
 10
253.2517323071079
 20
49.62046843736648
 30
0.0
 10
253.3502191199556
 20
49.77640194739326
 30
0.0
 10
253.4003156921215
 20
49.85033457387588
 30
0.0
 10
253.501980111313
 20
49.99043646848344
 30
0.0
 10
253.553466213056
 20
50.05634352575733
 30
0.0
 10
253.6527532635637
 20
50.17446345637624
 30
0.0
 10
253.7011940432366
 20
50.22757824593162
 30
0.0
 10
253.748230659792
 20
50.27480535436755
 30
0.0
  0
SPLINE
  5
1DD
330
1F
100
AcDbEntity
  8
0
  6
Continuous
 62
     7
370
    15
100
AcDbSpline
210
0.0
220
0.0
230
1.0
 70
     8
 71
     3
 72
     8
 73
     4
 74
     0
 42
0.000000001
 43
0.00000001
 40
0.0
 40
0.0
 40
0.0
 40
0.0
 40
1.0
 40
1.0
 40
1.0
 40
1.0
 10
237.8285332088166
 20
53.27428860046794
 30
0.0
 10
237.4856665998104
 20
53.2149965150229
 30
0.0
 10
237.1425476427306
 20
53.15617971054153
 30
0.0
 10
236.7992454406042
 20
53.09774109167792
 30
0.0
  0
SPLINE
  5
1DE
330
1F
100
AcDbEntity
  8
0
  6
Continuous
 62
     7
370
    15
100
AcDbSpline
210
0.0
220
0.0
230
1.0
 70
     8
 71
     3
 72
     8
 73
     4
 74
     0
 42
0.000000001
 43
0.00000001
 40
0.0
 40
0.0
 40
0.0
 40
0.0
 40
0.0011140524372172
 40
0.0011140524372172
 40
0.0011140524372172
 40
0.0011140524372172
 10
236.4868337350777
 20
53.46939015976346
 30
0.0
 10
236.5914430864649
 20
53.34536316973421
 30
0.0
 10
236.6955993390664
 20
53.2214721193395
 30
0.0
 10
236.7992454406042
 20
53.09774109167792
 30
0.0
  0
LWPOLYLINE
  5
1DF
330
1F
100
AcDbEntity
  8
0
  6
Continuous
 62
     7
370
    15
100
AcDbPolyline
 90
       23
 70
   128
 43
0.0
 10
236.4868337351
 20
53.4693901598
 10
236.7806529592
 20
54.4211889363
 10
237.1300332107
 20
55.3739824882
 10
237.5325317268
 20
56.3211091666
 10
237.9853343576
 20
57.2559469438
 10
238.4852752421
 20
58.1719597122
 10
239.0288589424
 20
59.0627429834
 10
239.612284883
 20
59.9220686659
 10
240.2314739236
 20
60.7439286103
 10
240.8820968785
 20
61.5225766166
 10
241.5596047859
 20
62.2525686097
 10
242.2592607121
 20
62.9288007028
 10
242.9761728712
 20
63.5465448827
 10
243.7053288269
 20
64.1014820657
 10
244.4416305376
 20
64.5897322964
 10
245.1799300011
 20
65.0078818745
 10
245.9150652473
 20
65.3530072226
 10
246.6418964294
 20
65.622695327
 10
247.3553417602
 20
65.8150606088
 10
248.0504130423
 20
65.9287581073
 10
248.7222505441
 20
65.9629928832
 10
249.3661569781
 20
65.9175255774
 10
249.9776303419
 20
65.7926740836
  0
LINE
  5
1E0
330
1F
100
AcDbEntity
  8
0
  6
Continuous
 62
     7
370
    15
100
AcDbLine
 10
250.3847808886
 20
64.5143607808
 30
0.0
 11
249.9776303419
 21
65.7926740836
 31
0.0
  0
LWPOLYLINE
  5
1E1
330
1F
100
AcDbEntity
  8
0
  6
Continuous
 62
     7
370
    15
100
AcDbPolyline
 90
       22
 70
   128
 43
0.0
 10
237.8285332088
 20
53.2742886005
 10
238.1058692114
 20
54.1704594927
 10
238.4378930815
 20
55.0673695119
 10
238.8220600268
 20
55.9581443037
 10
239.2554256052
 20
56.8359565368
 10
239.734668292
 20
57.6940782316
 10
240.2561149383
 20
58.5259323261
 10
240.8157689235
 20
59.3251430863
 10
241.4093407874
 20
60.0855849722
 10
242.0322811066
 20
60.8014295875
 10
242.6798153636
 20
61.467190351
 10
243.3469805411
 20
62.0777645486
 10
244.0286631608
 20
62.6284724428
 10
244.7196384756
 20
63.1150931404
 10
245.4146105148
 20
63.533896944
 10
246.1082526748
 20
63.8816739374
 10
246.7952485449
 20
64.1557585889
 10
247.4703326546
 20
64.3540501802
 10
248.1283308312
 20
64.4750289083
 10
248.7641998567
 20
64.5177675334
 10
249.3730661217
 20
64.4819384859
 10
249.6832393375
 20
64.4311580271
  0
LINE
  5
1E2
330
1F
100
AcDbEntity
  8
0
  6
Continuous
 62
     7
370
    15
100
AcDbLine
 10
235.0949171297
 20
54.2729265123
 30
0.0
 11
236.4868337351
 21
53.4693901598
 31
0.0
  0
LINE
  5
1E3
330
1F
100
AcDbEntity
  8
0
  6
Continuous
 62
     7
370
    15
100
AcDbLine
 10
249.9776303419
 20
65.7926740836
 30
0.0
 11
248.5857137365
 21
66.5962104361
 31
0.0
  0
LINE
  5
1E4
330
1F
100
AcDbEntity
  8
0
  6
Continuous
 62
     7
370
    15
100
AcDbLine
 10
239.0613746887
 20
52.7522879905
 30
0.0
 11
238.1966109333
 21
53.2515054804
 31
0.0
  0
LWPOLYLINE
  5
1E5
330
1F
100
AcDbEntity
  8
0
  6
Continuous
 62
     7
370
    15
100
AcDbPolyline
 90
       27
 70
   128
 43
0.0
 10
255.9822063631
 20
52.0970797635
 10
256.2200876201
 20
52.0764555176
 10
256.5363359349
 20
51.9806481099
 10
256.8120794599
 20
51.8089739271
 10
257.0408550008
 20
51.5654568663
 10
257.2173002526
 20
51.2558047613
 10
257.3372794883
 20
50.8872755949
 10
257.3979804962
 20
50.4685073783
 10
257.3979804962
 20
50.0093156837
 10
257.3372794883
 20
49.5204635751
 10
257.2173002526
 20
49.0134093317
 10
257.0408550008
 20
48.5000378752
 10
256.8120794599
 20
47.9923821974
 10
256.5363359349
 20
47.5023413172
 10
256.2200876201
 20
47.0414013773
 10
255.8707471081
 20
46.6203664194
 10
255.4965026444
 20
46.2491051459
 10
255.106126202
 20
45.9363196066
 10
254.7087678738
 20
45.6893412292
 10
254.3137414022
 20
45.5139589777
 10
253.9303058731
 20
45.4142836634
 10
253.5674486901
 20
45.3926515911
 10
253.2336749181
 20
45.4495697984
 10
252.9368079314
 20
45.5837041706
 10
252.6838060407
 20
45.7919107118
 10
252.4805993956
 20
46.0693092371
 10
252.3359284148
 20
46.3973066851
  0
LINE
  5
1E6
330
1F
100
AcDbEntity
  8
0
  6
Continuous
 62
     7
370
    15
100
AcDbLine
 10
252.8637097627
 20
44.4572371072
 30
0.0
 11
254.106692651
 21
45.1747958549
 31
0.0
  0
LINE
  5
1E7
330
1F
100
AcDbEntity
  8
0
  6
Continuous
 62
     7
370
    15
100
AcDbLine
 10
257.7049688024
 20
52.3994164747
 30
0.0
 11
257.7067280747
 21
52.5199945637
 31
0.0
  0
ARC
  5
1E8
330
1F
100
AcDbEntity
  8
0
  6
Continuous
 62
     7
370
    15
100
AcDbCircle
 10
253.8422207886
 20
50.4161321079
 30
0.0
 40
4.342146830487636
100
AcDbArc
 50
332.8222804837
 51
27.1777195163
  0
ARC
  5
1E9
330
1F
100
AcDbEntity
  8
0
  6
Continuous
 62
     7
370
    15
100
AcDbCircle
 10
255.6554993628
 20
48.4333311021
 30
0.0
 40
2.049469496522434
100
AcDbArc
 50
302.3714306933
 51
359.986486965
  0
LINE
  5
1EA
330
1F
100
AcDbEntity
  8
0
  6
Continuous
 62
     7
370
    15
100
AcDbLine
 10
255.509814171
 20
45.984800667
 30
0.0
 11
256.7527970592
 21
46.7023594147
 31
0.0
  0
ARC
  5
1EB
330
1F
100
AcDbEntity
  8
0
  6
Continuous
 62
     7
370
    15
100
AcDbCircle
 10
252.9819606857
 20
48.7433728306
 30
0.0
 40
3.741625799718114
100
AcDbArc
 50
287.4936320258
 51
312.5009914415
  0
SPLINE
  5
1EC
330
1F
100
AcDbEntity
  8
0
  6
Continuous
 62
     7
370
    15
100
AcDbSpline
210
0.0
220
0.0
230
1.0
 70
     8
 71
     3
 72
    12
 73
     8
 74
     0
 42
0.000000001
 43
0.00000001
 40
0.0
 40
0.0
 40
0.0
 40
0.0
 40
0.2499999999999988
 40
0.2499999999999988
 40
0.4999999999999976
 40
0.4999999999999976
 40
1.0
 40
1.0
 40
1.0
 40
1.0
 10
238.196610933307
 20
53.25150548036761
 30
0.0
 10
238.1732775550708
 20
53.26497555290484
 30
0.0
 10
238.1454964147106
 20
53.27614905575643
 30
0.0
 10
238.0846531859918
 20
53.29229764585858
 30
0.0
 10
238.0527678529305
 20
53.29712803388444
 30
0.0
 10
237.9530337806635
 20
53.30252742171631
 30
0.0
 10
237.8862025770023
 20
53.29341875408106
 30
0.0
 10
237.8285332088166
 20
53.27428860046794
 30
0.0
  0
LINE
  5
1ED
330
1F
100
AcDbEntity
  8
0
  6
Continuous
 62
     7
370
    15
100
AcDbLine
 10
257.2745539366
 20
52.3520648066
 30
0.0
 11
257.4646878969
 21
52.4618268056
 31
0.0
  0
ARC
  5
1EE
330
1F
100
AcDbEntity
  8
0
  6
Continuous
 62
     7
370
    15
100
AcDbCircle
 10
257.4830583841
 20
48.2545976411
 30
0.0
 40
4.102768733146712
100
AcDbArc
 50
92.9130506693
 51
147.081572798
  0
LINE
  5
1EF
330
1F
100
AcDbEntity
  8
0
  6
Continuous
 62
     7
370
    15
100
AcDbLine
 10
253.8488751999
 20
50.3744625664
 30
0.0
 11
254.0390091602
 21
50.4842245653
 31
0.0
  0
SPLINE
  5
1F0
330
1F
100
AcDbEntity
  8
0
  6
Continuous
 62
     7
370
    15
100
AcDbSpline
210
0.0
220
0.0
230
1.0
 70
     8
 71
     3
 72
    10
 73
     6
 74
     0
 42
0.000000001
 43
0.00000001
 40
0.0
 40
0.0
 40
0.0
 40
0.0
 40
0.2304256992970091
 40
0.6144761126724106
 40
1.0
 40
1.0
 40
1.0
 40
1.0
 10
256.2752031170609
 20
52.26907981343566
 30
0.0
 10
256.3507122158773
 20
52.27960645622065
 30
0.0
 10
256.5520722970386
 20
52.30767784998337
 30
0.0
 10
256.8865489373771
 20
52.33430714404468
 30
0.0
 10
257.1450539536962
 20
52.34613803506425
 30
0.0
 10
257.274553936601
 20
52.35206480664725
 30
0.0
  0
SPLINE
  5
1F1
330
1F
100
AcDbEntity
  8
0
  6
Continuous
 62
     7
370
    15
100
AcDbSpline
210
0.0
220
0.0
230
1.0
 70
     8
 71
     3
 72
    10
 73
     6
 74
     0
 42
0.000000001
 43
0.00000001
 40
0.0
 40
0.0
 40
0.0
 40
0.0
 40
0.5
 40
0.5
 40
1.0
 40
1.0
 40
1.0
 40
1.0
 10
234.9916938549325
 20
54.3005064140368
 30
0.0
 10
235.0007253380738
 20
54.30479124748607
 30
0.0
 10
235.0136995395289
 20
54.30530966068686
 30
0.0
 10
235.0484879048842
 20
54.29656046553733
 30
0.0
 10
235.0700297609738
 20
54.28729368444757
 30
0.0
 10
235.0949171297227
 20
54.27292651228267
 30
0.0
  0
LINE
  5
1F2
330
1F
100
AcDbEntity
  8
0
  6
Continuous
 62
     7
370
    15
100
AcDbLine
 10
234.9916938549
 20
54.300506414
 30
0.0
 11
235.0114874188
 21
54.396396859
 31
0.0
  0
LINE
  5
1F3
330
1F
100
AcDbEntity
  8
0
  6
Continuous
 62
     7
370
    15
100
AcDbLine
 10
240.6470145601
 20
50.87647126
 30
0.0
 11
238.8732847692
 21
51.9004236729
 31
0.0
  0
SPLINE
  5
1F4
330
1F
100
AcDbEntity
  8
0
  6
Continuous
 62
     7
370
    15
100
AcDbSpline
210
0.0
220
0.0
230
1.0
 70
     8
 71
     3
 72
     8
 73
     4
 74
     0
 42
0.000000001
 43
0.00000001
 40
0.0
 40
0.0
 40
0.0
 40
0.0
 40
0.0011140524372172
 40
0.0011140524372172
 40
0.0011140524372172
 40
0.0011140524372172
 10
238.8732847692158
 20
51.90042367288829
 30
0.0
 10
238.8697714713034
 20
51.96634926344022
 30
0.0
 10
238.8669938566963
 20
52.03171567185284
 30
0.0
 10
238.8648800270297
 20
52.09657325664898
 30
0.0
  0
LWPOLYLINE
  5
1F5
330
1F
100
AcDbEntity
  8
0
  6
Continuous
 62
     7
370
    15
100
AcDbPolyline
 90
       26
 70
   128
 43
0.0
 10
255.8840162449
 20
52.0502810529
 10
256.0508156588
 20
52.0182161347
 10
256.3461213766
 20
51.8974440282
 10
256.5983362865
 20
51.7020364531
 10
256.8012500203
 20
51.4368049927
 10
256.9498661685
 20
51.1082805257
 10
257.0405253083
 20
50.7245524147
 10
257.0709951108
 20
50.2950693195
 10
257.0405253083
 20
49.8304065391
 10
256.9498661685
 20
49.3420056134
 10
256.8012500203
 20
48.841892594
 10
256.5983362865
 20
48.3423819233
 10
256.3461213766
 20
47.8557732118
 10
256.0508156588
 20
47.3940483808
 10
255.71969054
 20
46.9685766282
 10
255.3608994194
 20
46.5898344805
 10
254.9832769253
 20
46.2671478264
 10
254.5961213766
 20
46.0084622822
 10
254.208965828
 20
45.8201475446
 10
253.8313433338
 20
45.7068405474
 10
253.4725522133
 20
45.6713312848
 10
253.1414270944
 20
45.7144941129
 10
252.8461213766
 20
45.8352662195
 10
252.5939064668
 20
46.0306737945
 10
252.390992733
 20
46.2959052549
 10
252.3303752466
 20
46.4085840413
  0
LINE
  5
1F6
330
1F
100
AcDbEntity
  8
0
  6
Continuous
 62
     7
370
    15
100
AcDbLine
 10
237.3957489243
 20
53.1997360826
 30
0.0
 11
237.3957489243
 21
50.959180399
 31
0.0
  0
LINE
  5
1F7
330
1F
100
AcDbEntity
  8
0
  6
Continuous
 62
     7
370
    15
100
AcDbLine
 10
237.3957489243
 20
50.959180399
 30
0.0
 11
237.3957489243
 21
49.4119763766
 31
0.0
  0
LINE
  5
1F8
330
1F
100
AcDbEntity
  8
0
  6
Continuous
 62
     7
370
    15
100
AcDbLine
 10
257.7049688024
 20
52.3994164747
 30
0.0
 11
258.5930690917
 21
51.8867270906
 31
0.0
  0
LINE
  5
1F9
330
1F
100
AcDbEntity
  8
0
  6
Continuous
 62
     7
370
    15
100
AcDbLine
 10
235.3967467098
 20
53.9073863752
 30
0.0
 11
234.9916938549
 21
54.300506414
 31
0.0
  0
LINE
  5
1FA
330
1F
100
AcDbEntity
  8
0
  6
Continuous
 62
     7
370
    15
100
AcDbLine
 10
236.7992454406
 20
53.0977410917
 30
0.0
 11
235.3967467098
 21
53.9073863752
 31
0.0
  0
LINE
  5
1FB
330
1F
100
AcDbEntity
  8
0
  6
Continuous
 62
     7
370
    15
100
AcDbLine
 10
254.106692651
 20
45.1747958549
 30
0.0
 11
254.3428483527
 21
45.0384660702
 31
0.0
  0
SPLINE
  5
1FC
330
1F
100
AcDbEntity
  8
0
  6
Continuous
 62
     7
370
    15
100
AcDbSpline
210
0.0
220
0.0
230
1.0
 70
     8
 71
     3
 72
    10
 73
     6
 74
     0
 42
0.000000001
 43
0.00000001
 40
0.0
 40
0.0
 40
0.0
 40
0.0
 40
0.5
 40
0.5
 40
1.0
 40
1.0
 40
1.0
 40
1.0
 10
254.342848352692
 20
45.0384660701836
 30
0.0
 10
254.2461682225832
 20
44.89857753992466
 30
0.0
 10
254.1794895163796
 20
44.75295210674062
 30
0.0
 10
254.0835520213805
 20
44.45454576554194
 30
0.0
 10
254.0554223255002
 20
44.30527534320488
 30
0.0
 10
254.0390091602148
 20
44.15603327322237
 30
0.0
  0
LINE
  5
1FD
330
1F
100
AcDbEntity
  8
0
  6
Continuous
 62
     7
370
    15
100
AcDbLine
 10
254.0390091602
 20
44.1560332732
 30
0.0
 11
253.8488751999
 21
44.0462712743
 31
0.0
  0
ARC
  5
1FE
330
1F
100
AcDbEntity
  8
0
  6
Continuous
 62
     7
370
    15
100
AcDbCircle
 10
244.9228195929
 20
52.1737995403
 30
0.0
 40
7.624440471878231
100
AcDbArc
 50
172.3376412124
 51
189.1666164959
  0
ARC
  5
1FF
330
1F
100
AcDbEntity
  8
0
  6
Continuous
 62
     7
370
    15
100
AcDbCircle
 10
253.8305047128
 20
48.2535004388
 30
0.0
 40
4.102768733146389
100
AcDbArc
 50
272.9130506693
 51
327.081572798
  0
LINE
  5
200
330
1F
100
AcDbEntity
  8
0
  6
Continuous
 62
     7
370
    15
100
AcDbLine
 10
257.4646878969
 20
46.1336355135
 30
0.0
 11
257.2745539366
 21
46.0238735145
 31
0.0
  0
ARC
  5
201
330
1F
100
AcDbEntity
  8
0
  6
Continuous
 62
     7
370
    15
100
AcDbCircle
 10
253.2181163874
 20
48.6070430459
 30
0.0
 40
3.74162579971839
100
AcDbArc
 50
287.4936320258
 51
312.5009914415
  0
SPLINE
  5
202
330
1F
100
AcDbEntity
  8
0
  6
Continuous
 62
     7
370
    15
100
AcDbSpline
210
0.0
220
0.0
230
1.0
 70
     8
 71
     3
 72
    10
 73
     6
 74
     0
 42
0.000000001
 43
0.00000001
 40
0.0
 40
0.0
 40
0.0
 40
0.0
 40
0.5
 40
0.5
 40
1.0
 40
1.0
 40
1.0
 40
1.0
 10
257.274553936601
 20
46.02387351453268
 30
0.0
 10
257.0153868246005
 20
46.01437478339895
 30
0.0
 10
256.7549814572905
 20
45.99791717243333
 30
0.0
 10
256.2414895513233
 20
45.94285355869102
 30
0.0
 10
255.9896464221613
 20
45.90459551109696
 30
0.0
 10
255.7459698727322
 20
45.84847088226561
 30
0.0
  0
LINE
  5
203
330
1F
100
AcDbEntity
  8
0
  6
Continuous
 62
     7
370
    15
100
AcDbLine
 10
257.7049688024
 20
48.432847741
 30
0.0
 11
258.5930690917
 21
47.9201583569
 31
0.0
  0
LINE
  5
204
330
1F
100
AcDbEntity
  8
0
  6
Continuous
 62
     7
370
    15
100
AcDbLine
 10
238.8732847692
 20
45.3272701372
 30
0.0
 11
240.6470145601
 21
44.3033177244
 31
0.0
  0
SPLINE
  5
205
330
1F
100
AcDbEntity
  8
0
  6
Continuous
 62
     7
370
    15
100
AcDbSpline
210
0.0
220
0.0
230
1.0
 70
     8
 71
     3
 72
    14
 73
    10
 74
     0
 42
0.000000001
 43
0.00000001
 40
0.0
 40
0.0
 40
0.0
 40
0.0
 40
0.25
 40
0.25
 40
0.5
 40
0.5
 40
0.75
 40
0.75
 40
1.0
 40
1.0
 40
1.0
 40
1.0
 10
240.6155028497386
 20
44.21116391410377
 30
0.0
 10
240.6007631868674
 20
44.16805879290649
 30
0.0
 10
240.5823653322971
 20
44.1280961030468
 30
0.0
 10
240.537707835928
 20
44.05492409455283
 30
0.0
 10
240.5112716419031
 20
44.02174871389754
 30
0.0
 10
240.4515366743212
 20
43.9691167619192
 30
0.0
 10
240.4178880410858
 20
43.94926740726839
 30
0.0
 10
240.3456129593666
 20
43.9328909188841
 30
0.0
 10
240.3081509502773
 20
43.93723510682175
 30
0.0
 10
240.2744743019142
 20
43.95667622210598
 30
0.0
  0
LINE
  5
206
330
1F
100
AcDbEntity
  8
0
  6
Continuous
 62
     7
370
    15
100
AcDbLine
 10
240.2744743019
 20
43.9566762221
 30
0.0
 11
238.864880027
 21
44.770417676
 31
0.0
  0
SPLINE
  5
207
330
1F
100
AcDbEntity
  8
0
  6
Continuous
 62
     7
370
    15
100
AcDbSpline
210
0.0
220
0.0
230
1.0
 70
     8
 71
     3
 72
     8
 73
     4
 74
     0
 42
0.000000001
 43
0.00000001
 40
0.0
 40
0.0
 40
0.0
 40
0.0
 40
0.0011140524372172
 40
0.0011140524372172
 40
0.0011140524372172
 40
0.0011140524372172
 10
238.8648800270297
 20
44.77041767602298
 30
0.0
 10
238.8669938566963
 20
44.95605464706938
 30
0.0
 10
238.8697714713034
 20
45.14167730500936
 30
0.0
 10
238.8732847692158
 20
45.327270137208
 30
0.0
  0
LINE
  5
208
330
1F
100
AcDbEntity
  8
0
  6
Continuous
 62
     7
370
    15
100
AcDbLine
 10
236.3792829263
 20
52.9024727266
 30
0.0
 11
236.3912966561
 21
53.3332449121
 31
0.0
  0
ARC
  5
209
330
1F
100
AcDbEntity
  8
0
  6
Continuous
 62
     7
370
    15
100
AcDbCircle
 10
240.900073442
 20
52.6377304419
 30
0.0
 40
4.528535675526109
100
AcDbArc
 50
176.6485260986
 51
219.3007686373
  0
ARC
  5
20A
330
1F
100
AcDbEntity
  8
0
  6
Continuous
 62
     7
370
    15
100
AcDbCircle
 10
244.417425678
 20
45.2789043286
 30
0.0
 40
4.289233493072791
100
AcDbArc
 50
219.6343129376
 51
260.3979677243
  0
SPLINE
  5
20B
330
1F
100
AcDbEntity
  8
0
  6
Continuous
 62
     7
370
    15
100
AcDbSpline
210
0.0
220
0.0
230
1.0
 70
     8
 71
     3
 72
     8
 73
     4
 74
     0
 42
0.000000001
 43
0.00000001
 40
0.0
 40
0.0
 40
0.0
 40
0.0
 40
1.0
 40
1.0
 40
1.0
 40
1.0
 10
239.1791071608829
 20
45.92146531799696
 30
0.0
 10
239.0763991277761
 20
45.72353263773325
 30
0.0
 10
238.9745143946525
 20
45.52545428002749
 30
0.0
 10
238.8732847692158
 20
45.327270137208
 30
0.0
  0
SPLINE
  5
20C
330
1F
100
AcDbEntity
  8
0
  6
Continuous
 62
     7
370
    15
100
AcDbSpline
210
0.0
220
0.0
230
1.0
 70
     8
 71
     3
 72
    12
 73
     8
 74
     0
 42
0.000000001
 43
0.00000001
 40
0.0
 40
0.0
 40
0.0
 40
0.0
 40
0.2500000000000013
 40
0.2500000000000013
 40
0.5000000000000026
 40
0.5000000000000026
 40
1.0
 40
1.0
 40
1.0
 40
1.0
 10
239.1396413631128
 20
46.1339520654377
 30
0.0
 10
239.162974741349
 20
46.12048199290047
 30
0.0
 10
239.1823299131597
 20
46.10444428194281
 30
0.0
 10
239.2103031226427
 20
46.06932023363983
 30
0.0
 10
239.2186705067473
 20
46.05091322266781
 30
0.0
 10
239.2280235342218
 20
45.99333796827184
 30
0.0
 10
239.2122451494675
 20
45.95475713561432
 30
0.0
 10
239.1791071608829
 20
45.92146531799696
 30
0.0
  0
LINE
  5
20D
330
1F
100
AcDbEntity
  8
0
  6
Continuous
 62
     7
370
    15
100
AcDbLine
 10
238.1966109333
 20
46.6783519447
 30
0.0
 11
239.1396413631
 21
46.1339520654
 31
0.0
  0
SPLINE
  5
20E
330
1F
100
AcDbEntity
  8
0
  6
Continuous
 62
     7
370
    15
100
AcDbSpline
210
0.0
220
0.0
230
1.0
 70
     8
 71
     3
 72
    10
 73
     6
 74
     0
 42
0.000000001
 43
0.00000001
 40
0.0
 40
0.0
 40
0.0
 40
0.0
 40
0.5
 40
0.5
 40
1.0
 40
1.0
 40
1.0
 40
1.0
 10
237.8285332088166
 20
46.70113506478765
 30
0.0
 10
237.8865164827239
 20
46.72036934759211
 30
0.0
 10
237.9534272997491
 20
46.72931781653636
 30
0.0
 10
238.0850710114081
 20
46.72226029558119
 30
0.0
 10
238.1494178425581
 20
46.70559593607204
 30
0.0
 10
238.196610933307
 20
46.67835194468732
 30
0.0
  0
SPLINE
  5
20F
330
1F
100
AcDbEntity
  8
0
  6
Continuous
 62
     7
370
    15
100
AcDbSpline
210
0.0
220
0.0
230
1.0
 70
     8
 71
     3
 72
     8
 73
     4
 74
     0
 42
0.000000001
 43
0.00000001
 40
0.0
 40
0.0
 40
0.0
 40
0.0
 40
1.0
 40
1.0
 40
1.0
 40
1.0
 10
236.7992454406042
 20
46.52458755599763
 30
0.0
 10
237.1425530589167
 20
46.58302709683154
 30
0.0
 10
237.4856853923075
 20
46.64184622913805
 30
0.0
 10
237.8285332088166
 20
46.70113506478765
 30
0.0
  0
LINE
  5
210
330
1F
100
AcDbEntity
  8
0
  6
Continuous
 62
     7
370
    15
100
AcDbLine
 10
235.3967467098
 20
47.3342328395
 30
0.0
 11
236.7992454406
 21
46.524587556
 31
0.0
  0
LINE
  5
211
330
1F
100
AcDbEntity
  8
0
  6
Continuous
 62
     7
370
    15
100
AcDbLine
 10
235.3967467098
 20
47.3342328395
 30
0.0
 11
237.1836168899
 21
48.3657710376
 31
0.0
  0
ARC
  5
212
330
1F
100
AcDbEntity
  8
0
  6
Continuous
 62
     7
370
    15
100
AcDbCircle
 10
243.3129448809
 20
46.4502915113
 30
0.0
 40
4.754708933920326
100
AcDbArc
 50
200.6897442399
 51
238.9729683908
  0
LINE
  5
213
330
1F
100
AcDbEntity
  8
0
  6
Continuous
 62
     7
370
    15
100
AcDbLine
 10
227.4251464574
 20
69.7401334278
 30
0.0
 11
227.4647494876
 21
69.7264592782
 31
0.0
  0
LINE
  5
214
330
1F
100
AcDbEntity
  8
0
  6
Continuous
 62
     7
370
    15
100
AcDbLine
 10
255.7459698727
 20
45.8484708823
 30
0.0
 11
255.509814171
 21
45.984800667
 31
0.0
  0
ELLIPSE
  5
215
330
1F
100
AcDbEntity
  8
0
  6
Continuous
 62
     7
370
    15
100
AcDbEllipse
 10
236.9493023149
 20
49.154270612
 30
0.0
 11
-6.005970385558612E-5
 21
0.8534489614827264
 31
0.0
210
0.0
220
0.0
230
1.0
 40
0.7174342186
 41
3.534193645557474
 42
5.104989972352359
  0
ARC
  5
216
330
1F
100
AcDbEntity
  8
0
  6
Continuous
 62
     7
370
    15
100
AcDbCircle
 10
240.7342160249
 20
47.6748581958
 30
0.0
 40
4.515099912429364
100
AcDbArc
 50
199.8295135001
 51
257.8949195563
  0
SPLINE
  5
217
330
1F
100
AcDbEntity
  8
0
  6
Continuous
 62
     7
370
    15
100
AcDbSpline
210
0.0
220
0.0
230
1.0
 70
     8
 71
     3
 72
     8
 73
     4
 74
     0
 42
0.000000001
 43
0.00000001
 40
0.0
 40
0.0
 40
0.0
 40
0.0
 40
0.0011140524372172
 40
0.0011140524372172
 40
0.0011140524372172
 40
0.0011140524372172
 10
236.7992454406042
 20
46.52458755599763
 30
0.0
 10
236.6955993390664
 20
46.39680016090863
 30
0.0
 10
236.5914430864649
 20
46.26970214495076
 30
0.0
 10
236.4868337350777
 20
46.14323457913746
 30
0.0
  0
ARC
  5
218
330
1F
100
AcDbEntity
  8
0
  6
Continuous
 62
     7
370
    15
100
AcDbCircle
 10
242.1099665396
 20
48.38076895
 30
0.0
 40
4.599113105213419
100
AcDbArc
 50
201.420397136
 51
225.0283369008
  0
LINE
  5
219
330
1F
100
AcDbEntity
  8
0
  6
Continuous
 62
     7
370
    15
100
AcDbLine
 10
234.9916938549
 20
47.100349855
 30
0.0
 11
235.3967467098
 21
47.3342328395
 31
0.0
  0
LINE
  5
21A
330
1F
100
AcDbEntity
  8
0
  6
Continuous
 62
     7
370
    15
100
AcDbLine
 10
236.4868337351
 20
46.1432345791
 30
0.0
 11
235.0949171297
 21
46.9467709317
 31
0.0
  0
SPLINE
  5
21B
330
1F
100
AcDbEntity
  8
0
  6
Continuous
 62
     7
370
    15
100
AcDbSpline
210
0.0
220
0.0
230
1.0
 70
     8
 71
     3
 72
     8
 73
     4
 74
     0
 42
0.000000001
 43
0.00000001
 40
0.0
 40
0.0
 40
0.0
 40
0.0
 40
1.0
 40
1.0
 40
1.0
 40
1.0
 10
235.0949171297227
 20
46.94677093165667
 30
0.0
 10
235.0452258885107
 20
46.97545707460669
 30
0.0
 10
235.0097485472029
 20
47.034171468987
 30
0.0
 10
234.9916938549318
 20
47.10034985495706
 30
0.0
  0
ARC
  5
21C
330
1F
100
AcDbEntity
  8
0
  6
Continuous
 62
     7
370
    15
100
AcDbCircle
 10
239.2585543649
 20
48.2828083392
 30
0.0
 40
4.313973770109905
100
AcDbArc
 50
219.6004829423
 51
239.8562859228
  0
SPLINE
  5
21D
330
1F
100
AcDbEntity
  8
0
  6
Continuous
 62
     7
370
    15
100
AcDbSpline
210
0.0
220
0.0
230
1.0
 70
     8
 71
     3
 72
    16
 73
    12
 74
     0
 42
0.000000001
 43
0.00000001
 40
0.0
 40
0.0
 40
0.0
 40
0.0
 40
0.0649514640428787
 40
0.2655332020117724
 40
0.4008910691260038
 40
0.5397633631345532
 40
0.6524958963407975
 40
0.7682788755872781
 40
0.8250912293454027
 40
0.9116252498531563
 40
0.9999999999999999
 40
0.9999999999999999
 40
0.9999999999999999
 40
0.9999999999999999
 10
250.0579150856014
 20
65.54060747892096
 30
0.0
 10
250.0653623798679
 20
65.54331612355325
 30
0.0
 10
250.095808250828
 20
65.55438954726928
 30
0.0
 10
250.1480597011109
 20
65.56442392694805
 30
0.0
 10
250.2112585211306
 20
65.57134440762322
 30
0.0
 10
250.2639757028804
 20
65.57183728957976
 30
0.0
 10
250.3133301495564
 20
65.56758968231583
 30
0.0
 10
250.3503001008126
 20
65.56067299784124
 30
0.0
 10
250.3818923754639
 20
65.55184937105818
 30
0.0
 10
250.4086808207691
 20
65.5422348625451
 30
0.0
 10
250.4261584460353
 20
65.53297701291943
 30
0.0
 10
250.4349892254197
 20
65.5282993735735
 30
0.0
  0
LINE
  5
21E
330
1F
100
AcDbEntity
  8
0
  6
Continuous
 62
     7
370
    15
100
AcDbLine
 10
250.4349892254
 20
65.5282993736
 30
0.0
 11
251.8269058308
 21
64.7247630211
 31
0.0
  0
SPLINE
  5
21F
330
1F
100
AcDbEntity
  8
0
  6
Continuous
 62
     7
370
    15
100
AcDbSpline
210
0.0
220
0.0
230
1.0
 70
     8
 71
     3
 72
     9
 73
     5
 74
     0
 42
0.000000001
 43
0.00000001
 40
0.0
 40
0.0
 40
0.0
 40
0.0
 40
0.2743209788080404
 40
1.0
 40
1.0
 40
1.0
 40
1.0
 10
251.8269058307746
 20
64.72476302105429
 30
0.0
 10
251.8145733509859
 20
64.70524581387373
 30
0.0
 10
251.7696169650677
 20
64.63409847667273
 30
0.0
 10
251.722400639912
 20
64.56343861846187
 30
0.0
 10
251.6881367432887
 20
64.51216224171786
 30
0.0
  0
SPLINE
  5
220
330
1F
100
AcDbEntity
  8
0
  6
Continuous
 62
     7
370
    15
100
AcDbSpline
210
0.0
220
0.0
230
1.0
 70
     8
 71
     3
 72
     9
 73
     5
 74
     0
 42
0.000000001
 43
0.00000001
 40
0.0
 40
0.0
 40
0.0
 40
0.0
 40
0.5884299960984193
 40
0.9999999999999999
 40
0.9999999999999999
 40
0.9999999999999999
 40
0.9999999999999999
 10
253.9593336046154
 20
63.29878984240506
 30
0.0
 10
254.0073542078049
 20
63.30945684919925
 30
0.0
 10
254.0889622215159
 20
63.32758476053096
 30
0.0
 10
254.1711330673755
 20
63.34484310219417
 30
0.0
 10
254.2049521227266
 20
63.35194611793982
 30
0.0
  0
LINE
  5
221
330
1F
100
AcDbEntity
  8
0
  6
Continuous
 62
     7
370
    15
100
AcDbLine
 10
254.2049521227
 20
63.3519461179
 30
0.0
 11
255.6145463976
 21
62.538204664
 31
0.0
  0
SPLINE
  5
222
330
1F
100
AcDbEntity
  8
0
  6
Continuous
 62
     7
370
    15
100
AcDbSpline
210
0.0
220
0.0
230
1.0
 70
     8
 71
     3
 72
    12
 73
     8
 74
     0
 42
0.000000001
 43
0.00000001
 40
0.0
 40
0.0
 40
0.0
 40
0.0
 40
0.25
 40
0.25
 40
0.5
 40
0.5
 40
1.0
 40
1.0
 40
1.0
 40
1.0
 10
255.6145463976112
 20
62.53820466402282
 30
0.0
 10
255.6458504652569
 20
62.52013321043266
 30
0.0
 10
255.668281902485
 20
62.49662318534804
 30
0.0
 10
255.6908160510937
 20
62.4473419418863
 30
0.0
 10
255.6917807838055
 20
62.42111656056637
 30
0.0
 10
255.6697135273096
 20
62.34491818446709
 30
0.0
 10
255.6235885311061
 20
62.29850214303367
 30
0.0
 10
255.5610406836553
 20
62.26239403928292
 30
0.0
  0
ELLIPSE
  5
223
330
1F
100
AcDbEntity
  8
0
  6
Continuous
 62
     7
370
    15
100
AcDbEllipse
 10
236.8300634993
 20
49.0854131319
 30
0.0
 11
0.2600075789209484
 21
0.9705436209909378
 31
0.0
210
0.0
220
0.0
230
1.0
 40
0.5176380889
 41
3.619174351347763
 42
5.189970678142599
  0
SPLINE
  5
224
330
1F
100
AcDbEntity
  8
0
  6
Continuous
 62
     7
370
    15
100
AcDbSpline
210
0.0
220
0.0
230
1.0
 70
     8
 71
     3
 72
    10
 73
     6
 74
     0
 42
0.000000001
 43
0.00000001
 40
0.0
 40
0.0
 40
0.0
 40
0.0
 40
0.3618490153695252
 40
0.7243688513309934
 40
1.0
 40
1.0
 40
1.0
 40
1.0
 10
256.8275232602833
 20
60.32721664939825
 30
0.0
 10
256.8446863185779
 20
60.36345679814528
 30
0.0
 10
256.8790442532249
 20
60.43600428011963
 30
0.0
 10
256.8913298239696
 20
60.54656842189608
 30
0.0
 10
256.8714681433835
 20
60.60616173216199
 30
0.0
 10
256.862889455947
 20
60.63190136581795
 30
0.0
  0
LWPOLYLINE
  5
225
330
1F
100
AcDbEntity
  8
0
  6
Continuous
 62
     7
370
    15
100
AcDbPolyline
 90
        3
 70
   128
 43
0.0
 10
251.8269058308
 20
64.7247630211
 10
252.0045685375
 20
64.5396071206
 10
252.0453954629
 20
64.4939666917
  0
LWPOLYLINE
  5
226
330
1F
100
AcDbEntity
  8
0
  6
Continuous
 62
     7
370
     0
100
AcDbPolyline
 90
       23
 70
   128
 43
0.0
 10
240.2744743019
 20
51.2828318027
 10
240.5682935261
 20
52.2346305793
 10
240.9176737775
 20
53.1874241312
 10
241.3201722936
 20
54.1345508096
 10
241.7729749245
 20
55.0693885867
 10
242.272915809
 20
55.9854013552
 10
242.8164995092
 20
56.8761846264
 10
243.3999254499
 20
57.7355103089
 10
244.0191144904
 20
58.5573702533
 10
244.6697374454
 20
59.3360182595
 10
245.3472453527
 20
60.0660102526
 10
246.046901279
 20
60.7422423458
 10
246.7638134381
 20
61.3599865256
 10
247.4929693937
 20
61.9149237087
 10
248.2292711044
 20
62.4031739394
 10
248.9675705679
 20
62.8213235174
 10
249.7027058141
 20
63.1664488655
 10
250.4295369962
 20
63.43613697
 10
251.142982327
 20
63.6285022518
 10
251.8380536091
 20
63.7421997502
 10
252.509891111
 20
63.7764345262
 10
253.1537975449
 20
63.7309672204
 10
253.7652709087
 20
63.6061157266
  0
LWPOLYLINE
  5
227
330
1F
100
AcDbEntity
  8
0
  6
Continuous
 62
     7
370
     0
100
AcDbPolyline
 90
       23
 70
   128
 43
0.0
 10
240.6155028497
 20
50.9322424239
 10
240.8937186194
 20
51.8806567898
 10
241.2291896743
 20
52.8318032417
 10
241.6194640203
 20
53.7787297477
 10
242.0616891001
 20
54.7145151199
 10
242.5526326431
 20
55.6323196021
 10
243.0887062899
 20
56.5254348625
 10
243.6659918205
 20
57.3873330254
 10
244.2802697927
 20
58.2117143842
 10
244.9270503826
 20
58.9925534468
 10
245.6016062012
 20
59.7241429763
 10
246.2990068473
 20
60.4011357059
 10
247.0141549445
 20
61.0185834228
 10
247.7418233981
 20
61.5719731352
 10
248.4766936011
 20
62.057260058
 10
249.213394308
 20
62.4708971767
 10
249.9465408939
 20
62.8098611732
 10
250.6707747113
 20
63.0716745229
 10
251.3808022573
 20
63.254423604
 10
252.071433864
 20
63.3567726836
 10
252.7376216306
 20
63.3779736814
 10
253.3744963189
 20
63.317871637
 10
253.9774029431
 20
63.1769058426
  0
LWPOLYLINE
  5
228
330
1F
100
AcDbEntity
  8
0
  6
Continuous
 62
     7
370
     0
100
AcDbPolyline
 90
       19
 70
   128
 43
0.0
 10
250.8342732415
 20
43.8213409451
 10
250.5167390078
 20
43.5529125627
 10
249.7993588101
 20
42.9991650602
 10
249.0743376461
 20
42.5113733003
 10
248.3468422194
 20
42.0930134234
 10
247.6220568663
 20
41.7470667793
 10
246.9051466099
 20
41.4759986805
 10
246.2012203534
 20
41.2817408341
 10
245.5152944724
 20
41.1656775761
 10
244.8522570666
 20
41.1286360055
 10
244.2168331263
 20
41.1708800911
 10
243.6135508603
 20
41.2921087896
 10
243.0467094269
 20
41.4914581914
 10
242.5203482968
 20
41.7675076769
 10
242.0382184668
 20
42.1182900401
 10
241.6037557289
 20
42.5413055078
 10
241.2200561863
 20
43.0335395533
 10
240.8898541893
 20
43.5914843791
 10
240.6155028497
 20
44.2111639141
  0
ARC
  5
229
330
1F
100
AcDbEntity
  8
0
  6
Continuous
 62
     7
370
     0
100
AcDbCircle
 10
252.0445347911
 20
58.5789910064
 30
0.0
 40
5.092472051468015
100
AcDbArc
 50
20.0778162143
 51
46.3279042356
  0
LWPOLYLINE
  5
22A
330
1F
100
AcDbEntity
  8
0
  6
Continuous
 62
     7
370
     0
100
AcDbPolyline
 90
       30
 70
   128
 43
0.0
 10
243.2470575386
 20
49.0908673546
 10
243.2781032728
 20
49.7814351857
 10
243.3708887148
 20
50.5000232491
 10
243.5243625686
 20
51.238489655
 10
243.736785914
 20
51.9884672837
 10
244.0057519096
 20
52.7414585892
 10
244.3282130633
 20
53.488931879
 10
244.7005157612
 20
54.2224179821
 10
245.1184416652
 20
54.9336062079
 10
245.5772555076
 20
55.6144385096
 10
246.0717587444
 20
56.2572007852
 10
246.5963484562
 20
56.8546102812
 10
247.1450808321
 20
57.3998981094
 10
247.7117385149
 20
57.8868859407
 10
248.2899010466
 20
58.3100560085
 10
248.8730176148
 20
58.6646136267
 10
249.4544812757
 20
58.946541516
 10
250.0277038138
 20
59.1526453207
 10
250.5861903885
 20
59.2805898022
 10
251.1236131239
 20
59.3289252986
 10
251.6338828056
 20
59.2971041492
 10
252.1112178743
 20
59.1854869006
 10
252.5502099329
 20
58.9953382206
 10
252.9458850258
 20
58.7288125698
 10
253.2937599963
 20
58.3889297903
 10
253.589893282
 20
57.9795408899
 10
253.8309295742
 20
57.5052844083
 10
254.0141378357
 20
56.971533861
 10
254.1374422435
 20
56.384336855
 10
254.1433551715
 20
56.3444143723
  0
LWPOLYLINE
  5
22B
330
1F
100
AcDbEntity
  8
0
  6
Continuous
 62
     7
370
     0
100
AcDbPolyline
 90
       15
 70
   128
 43
0.0
 10
247.8938630926
 20
45.5188035926
 10
247.7117385149
 20
45.4496597004
 10
247.1450808321
 20
45.2823984973
 10
246.5963484562
 20
45.1941334098
 10
246.0717587444
 20
45.1858645168
 10
245.5772555076
 20
45.257685508
 10
245.1184416652
 20
45.4087826229
 10
244.7005157612
 20
45.6374438709
 10
244.3282130633
 20
45.9410784286
 10
244.0057519096
 20
46.3162459952
 10
243.736785914
 20
46.7586957722
 10
243.5243625686
 20
47.2634146268
 10
243.3708887148
 20
47.8246838928
 10
243.2781032728
 20
48.4361441651
 10
243.2470575386
 20
49.0908673546
  0
ARC
  5
22C
330
1F
100
AcDbEntity
  8
0
  6
Continuous
 62
     7
370
     0
100
AcDbCircle
 10
248.3893296556
 20
48.7340217771
 30
0.0
 40
3.041954697852962
100
AcDbArc
 50
173.2632359045
 51
235.4245837021
  0
LWPOLYLINE
  5
22D
330
1F
100
AcDbEntity
  8
0
  6
Continuous
 62
     7
370
     0
100
AcDbPolyline
 90
       21
 70
   128
 43
0.0
 10
252.912541304
 20
57.0549480939
 10
252.5724164329
 20
57.2125666955
 10
252.1469835803
 20
57.3194709243
 10
251.6884328951
 20
57.3466779098
 10
251.2032014238
 20
57.2938057254
 10
250.6981007526
 20
57.1615965809
 10
250.1802213878
 20
56.9519064027
 10
249.6568332205
 20
56.6676787813
 10
249.1352834732
 20
56.3129036495
 10
248.6228935611
 20
55.8925612724
 10
248.1268563154
 20
55.4125523357
 10
247.6541350117
 20
54.8796151126
 10
247.211365621
 20
54.3012308735
 10
246.8047636548
 20
53.6855188653
 10
246.4400369136
 20
53.041122335
 10
246.1223053612
 20
52.3770871972
 10
245.8560292522
 20
51.7027350497
 10
245.6449465195
 20
51.0275323186
 10
245.492020302
 20
50.36095737
 10
245.3993973484
 20
49.7123674551
 10
245.3683778821
 20
49.0908673546
  0
LWPOLYLINE
  5
22E
330
1F
100
AcDbEntity
  8
0
  6
Continuous
 62
     7
370
     0
100
AcDbPolyline
 90
       23
 70
   128
 43
0.0
 10
235.0949171297
 20
54.2729265123
 10
235.3887363539
 20
55.2247252888
 10
235.7381166053
 20
56.1775188407
 10
236.1406151214
 20
57.1246455191
 10
236.5934177523
 20
58.0594832963
 10
237.0933586368
 20
58.9754960648
 10
237.636942337
 20
59.866279336
 10
238.2203682777
 20
60.7256050184
 10
238.8395573182
 20
61.5474649628
 10
239.4901802732
 20
62.3261129691
 10
240.1676881806
 20
63.0561049622
 10
240.8673441068
 20
63.7323370554
 10
241.5842562659
 20
64.3500812352
 10
242.3134122215
 20
64.9050184182
 10
243.0497139322
 20
65.3932686489
 10
243.7880133957
 20
65.811418227
 10
244.5231486419
 20
66.1565435751
 10
245.249979824
 20
66.4262316795
 10
245.9634251548
 20
66.6185969613
 10
246.6584964369
 20
66.7322944598
 10
247.3303339388
 20
66.7665292357
 10
247.9742403727
 20
66.7210619299
 10
248.5857137365
 20
66.5962104361
  0
LWPOLYLINE
  5
22F
330
1F
100
AcDbEntity
  8
0
  6
Continuous
 62
     7
370
     0
100
AcDbPolyline
 90
       19
 70
   128
 43
0.0
 10
238.1966109333
 20
53.2515054804
 10
238.4894965013
 20
54.1773860944
 10
238.8414886673
 20
55.1030276923
 10
239.2495962103
 20
56.0205641943
 10
239.7103510426
 20
56.9221983976
 10
240.2198376806
 20
57.8002682368
 10
240.7737265195
 20
58.6473118958
 10
241.3673106254
 20
59.4561312181
 10
241.995545735
 20
60.219852877
 10
242.6530931216
 20
60.9319867844
 10
243.3343649636
 20
61.5864812438
 10
244.0335718296
 20
62.1777743771
 10
244.7447718766
 20
62.7008413897
 10
245.461921344
 20
63.151237271
 10
246.1789259131
 20
63.5251345677
 10
246.8896924965
 20
63.8193559097
 10
247.5881810171
 20
64.0314010112
 10
248.2684557366
 20
64.1594679182
 10
248.8758555583
 20
64.2022000624
  0
LINE
  5
230
330
1F
100
AcDbEntity
  8
0
  6
Continuous
 62
     7
370
     0
100
AcDbLine
 10
242.9995701652
 20
51.5813400533
 30
0.0
 11
242.433792793
 21
51.9079563781
 31
0.0
  0
LINE
  5
231
330
1F
100
AcDbEntity
  8
0
  6
Continuous
 62
     7
370
     0
100
AcDbLine
 10
252.8637097627
 20
44.4572371072
 30
0.0
 11
253.7482306598
 21
43.9466140623
 31
0.0
  0
LINE
  5
232
330
1F
100
AcDbEntity
  8
0
  6
Continuous
 62
     7
370
     0
100
AcDbLine
 10
237.5149877398
 20
49.4808338567
 30
0.0
 11
242.9995701652
 21
46.3146518167
 31
0.0
  0
LINE
  5
233
330
1F
100
AcDbEntity
  8
0
  6
Continuous
 62
     7
370
     0
100
AcDbLine
 10
237.3957489243
 20
49.4119763766
 30
0.0
 11
237.5149877398
 21
49.4808338567
 31
0.0
  0
ARC
  5
234
330
1F
100
AcDbEntity
  8
0
  6
Continuous
 62
     7
370
     0
100
AcDbCircle
 10
245.3643561716
 20
52.3668152733
 30
0.0
 40
8.06568179391148
100
AcDbArc
 50
174.1990918408
 51
180.8223854522
  0
ARC
  5
235
330
1F
100
AcDbEntity
  8
0
  6
Continuous
 62
     7
370
     0
100
AcDbCircle
 10
245.2547952548
 20
45.9582918831
 30
0.0
 40
5.367500540098473
100
AcDbArc
 50
201.8954388387
 51
219.5176601571
  0
LINE
  5
236
330
1F
100
AcDbEntity
  8
0
  6
Continuous
 62
     7
370
     0
100
AcDbLine
 10
242.4338847402
 20
45.3348559224
 30
0.0
 11
237.1836168899
 21
48.3657710376
 31
0.0
  0
LWPOLYLINE
  5
237
330
1F
100
AcDbEntity
  8
0
  6
Continuous
 62
     7
370
     0
100
AcDbPolyline
 90
       18
 70
   128
 43
0.0
 10
222.2477054188
 20
63.8461125464
 10
222.2788471289
 20
64.3783607865
 10
222.3716661215
 20
64.9362048733
 10
222.5243557803
 20
65.5087870061
 10
222.7339441749
 20
66.084962525
 10
222.9963519056
 20
66.6535168291
 10
223.3064715043
 20
67.2033836553
 10
223.6582668458
 20
67.7238604715
 10
224.044890634
 20
68.2048167885
 10
224.4588176766
 20
68.6368913385
 10
224.8919913545
 20
69.0116742821
 10
225.3359804349
 20
69.3218708954
 10
225.7821431754
 20
69.5614435543
 10
226.2217955256
 20
69.7257292495
 10
226.6463801527
 20
69.8115303467
 10
227.0476329998
 20
69.8171768252
 10
227.4177441368
 20
69.7425587828
 10
227.4251464574
 20
69.7401334278
  0
ARC
  5
238
330
1F
100
AcDbEntity
  8
0
  6
Continuous
 62
     7
370
     0
100
AcDbCircle
 10
224.7159475792
 20
63.6765210912
 30
0.0
 40
2.474061564348055
100
AcDbArc
 50
176.0694185984
 51
224.9117477784
  0
LINE
  5
239
330
1F
100
AcDbEntity
  8
0
  6
Continuous
 62
     7
370
     0
100
AcDbLine
 10
256.7527970592
 20
46.7023594147
 30
0.0
 11
257.6373179563
 21
46.1917363698
 31
0.0
  0
LINE
  5
23A
330
1F
100
AcDbEntity
  8
0
  6
Continuous
 62
     7
370
     0
100
AcDbLine
 10
239.2113448675
 20
45.9718198039
 30
0.0
 11
239.1396413631
 21
46.1339520654
 31
0.0
  0
ARC
  5
23B
330
1F
100
AcDbEntity
  8
0
  6
Continuous
 62
     7
370
     0
100
AcDbCircle
 10
242.4972936803
 20
48.4450301609
 30
0.0
 40
4.649411146616835
100
AcDbArc
 50
202.3323767889
 51
220.6392878947
  0
ARC
  5
23C
330
1F
100
AcDbEntity
  8
0
  6
Continuous
 62
     7
370
     0
100
AcDbCircle
 10
240.0752342456
 20
48.9483846207
 30
0.0
 40
5.367496244542423
100
AcDbArc
 50
201.8954345813
 51
219.5178094597
  0
OLE2FRAME
  5
23D
330
1F
100
AcDbEntity
  8
0
100
AcDbOle2Frame
 70
     2
  3
Paintbrush-Bild
 10
13.8511154363
 20
38.264191557
 30
0.0
 11
51.6290888628
 21
31.9806341108
 31
0.0
 71
     2
 72
     0
 73
     1
 90
    12928
310
80552BED0767C5B32B40DDAF6807D121434000000000000000006FFBDDFB85D0
310
4940DDAF6807D121434000000000000000006FFBDDFB85D04940416F4BD60AFB
310
3F4000000000000000002BED0767C5B32B40416F4BD60AFB3F40000000000000
310
0000000000000100000000010000010000000100000000000100000000320000
310
D0CF11E0A1B11AE1000000000000000000000000000000003E000300FEFF0900
310
0600000000000000000000000100000001000000000000000010000002000000
310
01000000FEFFFFFF0000000000000000FFFFFFFFFFFFFFFFFFFFFFFFFFFFFFFF
310
FFFFFFFFFFFFFFFFFFFFFFFFFFFFFFFFFFFFFFFFFFFFFFFFFFFFFFFFFFFFFFFF
310
FFFFFFFFFFFFFFFFFFFFFFFFFFFFFFFFFFFFFFFFFFFFFFFFFFFFFFFFFFFFFFFF
310
FFFFFFFFFFFFFFFFFFFFFFFFFFFFFFFFFFFFFFFFFFFFFFFFFFFFFFFFFFFFFFFF
310
FFFFFFFFFFFFFFFFFFFFFFFFFFFFFFFFFFFFFFFFFFFFFFFFFFFFFFFFFFFFFFFF
310
FFFFFFFFFFFFFFFFFFFFFFFFFFFFFFFFFFFFFFFFFFFFFFFFFFFFFFFFFFFFFFFF
310
FFFFFFFFFFFFFFFFFFFFFFFFFFFFFFFFFFFFFFFFFFFFFFFFFFFFFFFFFFFFFFFF
310
FFFFFFFFFFFFFFFFFFFFFFFFFFFFFFFFFFFFFFFFFFFFFFFFFFFFFFFFFFFFFFFF
310
FFFFFFFFFFFFFFFFFFFFFFFFFFFFFFFFFFFFFFFFFFFFFFFFFFFFFFFFFFFFFFFF
310
FFFFFFFFFFFFFFFFFFFFFFFFFFFFFFFFFFFFFFFFFFFFFFFFFFFFFFFFFFFFFFFF
310
FFFFFFFFFFFFFFFFFFFFFFFFFFFFFFFFFFFFFFFFFFFFFFFFFFFFFFFFFFFFFFFF
310
FFFFFFFFFFFFFFFFFFFFFFFFFFFFFFFFFFFFFFFFFFFFFFFFFFFFFFFFFFFFFFFF
310
FFFFFFFFFFFFFFFFFFFFFFFFFFFFFFFFFFFFFFFFFFFFFFFFFFFFFFFFFFFFFFFF
310
FFFFFFFFFFFFFFFFFFFFFFFFFFFFFFFFFFFFFFFFFFFFFFFFFFFFFFFFFFFFFFFF
310
FDFFFFFFFEFFFFFFFEFFFFFFFEFFFFFF05000000060000000700000008000000
310
090000000A0000000B0000000C0000000D0000000E0000000F00000010000000
310
11000000120000001300000014000000150000001600000017000000FEFFFFFF
310
FFFFFFFFFFFFFFFFFFFFFFFFFFFFFFFFFFFFFFFFFFFFFFFFFFFFFFFFFFFFFFFF
310
FFFFFFFFFFFFFFFFFFFFFFFFFFFFFFFFFFFFFFFFFFFFFFFFFFFFFFFFFFFFFFFF
310
FFFFFFFFFFFFFFFFFFFFFFFFFFFFFFFFFFFFFFFFFFFFFFFFFFFFFFFFFFFFFFFF
310
FFFFFFFFFFFFFFFFFFFFFFFFFFFFFFFFFFFFFFFFFFFFFFFFFFFFFFFFFFFFFFFF
310
FFFFFFFFFFFFFFFFFFFFFFFFFFFFFFFFFFFFFFFFFFFFFFFFFFFFFFFFFFFFFFFF
310
FFFFFFFFFFFFFFFFFFFFFFFFFFFFFFFFFFFFFFFFFFFFFFFFFFFFFFFFFFFFFFFF
310
FFFFFFFFFFFFFFFFFFFFFFFFFFFFFFFFFFFFFFFFFFFFFFFFFFFFFFFFFFFFFFFF
310
FFFFFFFFFFFFFFFFFFFFFFFFFFFFFFFFFFFFFFFFFFFFFFFFFFFFFFFFFFFFFFFF
310
FFFFFFFFFFFFFFFFFFFFFFFFFFFFFFFFFFFFFFFFFFFFFFFFFFFFFFFFFFFFFFFF
310
FFFFFFFFFFFFFFFFFFFFFFFFFFFFFFFFFFFFFFFFFFFFFFFFFFFFFFFFFFFFFFFF
310
FFFFFFFFFFFFFFFFFFFFFFFFFFFFFFFFFFFFFFFFFFFFFFFFFFFFFFFFFFFFFFFF
310
FFFFFFFFFFFFFFFFFFFFFFFFFFFFFFFFFFFFFFFFFFFFFFFFFFFFFFFFFFFFFFFF
310
FFFFFFFFFFFFFFFFFFFFFFFFFFFFFFFFFFFFFFFFFFFFFFFFFFFFFFFFFFFFFFFF
310
52006F006F007400200045006E00740072007900000000000000000000000000
310
0000000000000000000000000000000000000000000000000000000000000000
310
16000500FFFFFFFFFFFFFFFF020000000A00030000000000C000000000000046
310
000000000000000000000000000CCD3979FFD10103000000C000000000000000
310
01004F006C006500000000000000000000000000000000000000000000000000
310
0000000000000000000000000000000000000000000000000000000000000000
310
0A000200FFFFFFFFFFFFFFFFFFFFFFFF00000000000000000000000000000000
310
0000000000000000000000000000000000000000000000001400000000000000
310
010043006F006D0070004F0062006A0000000000000000000000000000000000
310
0000000000000000000000000000000000000000000000000000000000000000
310
120002010100000003000000FFFFFFFF00000000000000000000000000000000
310
0000000000000000000000000000000000000000010000004D00000000000000
310
01004F006C006500310030004E00610074006900760065000000000000000000
310
0000000000000000000000000000000000000000000000000000000000000000
310
1A000200FFFFFFFFFFFFFFFFFFFFFFFF00000000000000000000000000000000
310
0000000000000000000000000000000000000000040000002426000000000000
310
FEFFFFFF02000000FEFFFFFFFFFFFFFFFFFFFFFFFFFFFFFFFFFFFFFFFFFFFFFF
310
FFFFFFFFFFFFFFFFFFFFFFFFFFFFFFFFFFFFFFFFFFFFFFFFFFFFFFFFFFFFFFFF
310
FFFFFFFFFFFFFFFFFFFFFFFFFFFFFFFFFFFFFFFFFFFFFFFFFFFFFFFFFFFFFFFF
310
FFFFFFFFFFFFFFFFFFFFFFFFFFFFFFFFFFFFFFFFFFFFFFFFFFFFFFFFFFFFFFFF
310
FFFFFFFFFFFFFFFFFFFFFFFFFFFFFFFFFFFFFFFFFFFFFFFFFFFFFFFFFFFFFFFF
310
FFFFFFFFFFFFFFFFFFFFFFFFFFFFFFFFFFFFFFFFFFFFFFFFFFFFFFFFFFFFFFFF
310
FFFFFFFFFFFFFFFFFFFFFFFFFFFFFFFFFFFFFFFFFFFFFFFFFFFFFFFFFFFFFFFF
310
FFFFFFFFFFFFFFFFFFFFFFFFFFFFFFFFFFFFFFFFFFFFFFFFFFFFFFFFFFFFFFFF
310
FFFFFFFFFFFFFFFFFFFFFFFFFFFFFFFFFFFFFFFFFFFFFFFFFFFFFFFFFFFFFFFF
310
FFFFFFFFFFFFFFFFFFFFFFFFFFFFFFFFFFFFFFFFFFFFFFFFFFFFFFFFFFFFFFFF
310
FFFFFFFFFFFFFFFFFFFFFFFFFFFFFFFFFFFFFFFFFFFFFFFFFFFFFFFFFFFFFFFF
310
FFFFFFFFFFFFFFFFFFFFFFFFFFFFFFFFFFFFFFFFFFFFFFFFFFFFFFFFFFFFFFFF
310
FFFFFFFFFFFFFFFFFFFFFFFFFFFFFFFFFFFFFFFFFFFFFFFFFFFFFFFFFFFFFFFF
310
FFFFFFFFFFFFFFFFFFFFFFFFFFFFFFFFFFFFFFFFFFFFFFFFFFFFFFFFFFFFFFFF
310
FFFFFFFFFFFFFFFFFFFFFFFFFFFFFFFFFFFFFFFFFFFFFFFFFFFFFFFFFFFFFFFF
310
FFFFFFFFFFFFFFFFFFFFFFFFFFFFFFFFFFFFFFFFFFFFFFFFFFFFFFFFFFFFFFFF
310
0100000200000000000000000000000000000000000000000000000000000000
310
0000000000000000000000000000000000000000000000000000000000000000
310
0100FEFF030A0000FFFFFFFF0A00030000000000C00000000000004607000000
310
5042727573680007000000504272757368000700000050427275736800F439B2
310
7100000000000000000000000000000000000000000000000000000000000000
310
0000000000000000000000000000000000000000000000000000000000000000
310
0000000000000000000000000000000000000000000000000000000000000000
310
0000000000000000000000000000000000000000000000000000000000000000
310
0000000000000000000000000000000000000000000000000000000000000000
310
0000000000000000000000000000000000000000000000000000000000000000
310
0000000000000000000000000000000000000000000000000000000000000000
310
0000000000000000000000000000000000000000000000000000000000000000
310
0000000000000000000000000000000000000000000000000000000000000000
310
0000000000000000000000000000000000000000000000000000000000000000
310
0000000000000000000000000000000000000000000000000000000000000000
310
0000000000000000000000000000000000000000000000000000000000000000
310
20260000424D0E260000000000003E00000028000000B40200006E0000000100
310
01000000000000000000130B0000130B00000200000002000000000000FFFFFF
310
FFFFFFFFFFFFFFFFFFFFFFFFFFFFFFFFFFFFFFFFFFFFFFFFFFFFFFFFFFFFFFFF
310
FFFFFFFFFFFFFFFFFFFFFFFFFFFFFFFFFFFFFFFFFFFFFFFFFFFFFFFFFFFFFFFF
310
FFFFFFFFFFFFFFFFFFFFFFFFFFFFFFFFFFFFFFFFFFFFFFFFF000FFFFFFFFFFFF
310
FFFFFFFFFFFFFFFFFFFFFFFFFFFFFFFFFFFFFFFFFFFFFFFFFFFFFFFFFFFFFFFF
310
FFFFFFFFFFFFFFFFFFFFFFFFFFFFFFFFFFFFFFFFFFFFFFFFFFFFFFFFFFFFFFFF
310
FFFFFFFFFFFFFFFFFFFFFFFFFFFFFFFFF000FFFFFFFFFFFFFFFFFFFFFFFFFFFF
310
FFFFFFFFFFFFFFFFFFFFFFFFFFFFFFFFFFFFFFFFFFFFFFFFFFFFFFFFFFFFFFFF
310
FFFFFFFFFFFFFFFFFFFFFFFFFFFFFFFFFFFFFFFFFFFFFFFFFFFFFFFFFFFFFFFF
310
FFFFFFFFFFFFFFFFF000FFFFFFFFFFFFFFFFFFFFFFFFFFFFFFFFFFFFFFFFFFFF
310
FFFFFFFFFFFFFFFFFFFFFFFFFFFFFFFFFFFFFFFFFFFFFFFFFFFFFFFFFFFFFFFF
310
FFFFFFFFFFFFFFFFFFFFFFFFFFFFFFFFFFFFFFFFFFFFFFFFFFFFFFFFFFFFFFFF
310
F000FFFFFFFFFFFFFFFFFFFFFFFFFFFFFFFFFFFFFFFFFFFFFFFFFFFFFFFFFFFF
310
FFFFFFFFFFFFFFFFFFFFFFFFFFFFFFFFFFFFFFFFFFFFFFFFFFFFFFFFFFFFFFFF
310
FFFFFFFFFFFFFFFFFFFFFFFFFFFFFFFFFFFFFFFFFFFFFFFFF000FFFFFFFFFFFF
310
FFFFFFFFFFFFFFFFFFFFFFFFFFFFFFFFFFFFFFFFFFFFFFFFFFFFFFFFFFFFFFFF
310
FFFFFFFFFFFFFFFFFFFFFFFFFFFFFFFFFFFFFFFFFFFFFFFFFFFFFFFFFFFFFFFF
310
FFFFFFFFFFFFFFFFFFFFFFFFFFFFFFFFF000FFFFFFFFFFFFFFFFFFFFFFFFFFFF
310
FFFFFFFFFFFFFFFFFFFFFFFFFFFFFFFFFFFFFFFFFFFFFFFFFFFFFFFFFFFFFFFF
310
FFFFFFFFFFFFFFFFFFFFFFFFFFFFFFFFFFFFFFFFFFFFFFFFFFFFFFFFFFFFFFFF
310
FFFFFFFFFFFFFFFFF000FFFFFFFFFFFFFFFFFFFFFFFFFFFFFFFFFFFFFFFFFFFF
310
FFFFFFFFFFFFFFFFFFFFFFFFFFFFFFFFFFFFFFFFFFFFFFFFFFFFFFFFFFFFFFFF
310
FFFFFFFFFFFFFFFFFFFFFFFFFFFFFFFFFFFFFFFFFFFFFFFFFFFFFFFFFFFFFFFF
310
F000FFFFFFFFFFFFFFFFFFFFFFFFFFFFFFFFFFFFFFFFFFFFFFFFFFFFFFFFFFFF
310
FFFFFFFFFFFFFFFFFFFFFFFFFFFFFFFFFFFFFFFFFFFFFFFFFFFFFFFFFFFFFFFF
310
FFFFFFFFFFFFFFFFFFFFFFFFFFFFFFFFFFFFFFFFFFFFFFFFF000FFFFFFFFFFFF
310
FFFFFFFFFFFFFFFFFFFFFFFFFFFFFFFFFFFFFFFFFFFFFFFFFFFFFFFFFFFFFFFF
310
FFFFFFFFFFFFFFFFFFFFFFFFFFFFFFFFFFFFFFFFFFFFFFFFFFFFFFFFFFFFFFFF
310
FFFFFFFFFFFFFFFFFFFFFFFFFFFFFFFFF000FFFFFFFFFFFFFFFFFFFFFFFFFFFF
310
FFFFFFFFFFFFFFFFFFFFFFFFFFFFFFFFFFFFFFFFFFFFFFFFFFFFFFFFFFFFFFFF
310
FFFFFFFFFFFFFFFFFFFFFFFFFFFFFFFFFFFFFFFFFFFFFFFFFFFFFFFFFFFFFFFF
310
FFFFFFFFFFFFFFFFF000FFFFFFFFFFFFFFFFFFFFFFFFFFFFFFFFFFFFFFFFFFFF
310
FFFFFFFFFFFFFFFFFFFFFFFFFFFFFFFFFFFFFFFFFFFFFFFFFFFFFFFFFFFFFFFF
310
FFFFFFFFFFFFFFFFFFFFFFFFFFFFFFFFFFFFFFFFFFFFFFFFFFFFFFFFFFFFFFFF
310
F000FFFFFFFFFFFFFFFFFFFFFFFFFFFFFFFFFFFFFFFFFFFFFFFFFFFFFFFFFFFF
310
FFFFFFFFFFFFFFFFFFFFFFFFFFFFFFFFFFFFFFFFFFFFFFFFFFFFFFFFFFFFFFFF
310
FFFFFFFFFFFFFFFFFFFFFFFFFFFFFFFFFFFFFFFFFFFFFFFFF000FFFFFFFFFFFF
310
FFFFFFFFFFFFFFFFFFFFFFFFFFFFFFFFFFFFFFFFFFFFFFFFFFFFFFFFFFFFFFFF
310
FFFFFFFFFFFFFFFFFFFFFFFFFFFFFFFFFFFFFFFFFFFFFFFFFFFFFFFFFFFFFFFF
310
FFFFFFFFFFFFFFFFFFFFFFFFFFFFFFFFF000FFFFFFFFFFFFFFFFFFFFFFFFFFFF
310
FFFFFFFFFFFFFFFFFFFFFFFFFFFFFFFFFFFFFFFFFFFFFFFFFFFFFFFFFFFFFFFF
310
FFFFFFFFFFFFFFFFFFFFFFFFFFFFFFFFFFFFFFFFFFFFFFFFFFFFFFFFFFFFFFFF
310
FFFFFFFFFFFFFFFFF000FFFFFFFFFFFFFFFFFFFFFFFFFFFFFFFFFFFFFFFFFFFF
310
FFFFFFFFFFFFFFFFFFFFFFFFFFFFFFFFFFFFFFFFFFFFFFFFFFFFFFFFFFFFFFFF
310
FFFFFFFFFFFFFFFFFFFFFFFFFFFFFFFFFFFFFFFFFFFFFFFFFFFFFFFFFFFFFFFF
310
F000FFFFFFFFFFFFFFFFFFFFFFFFFFFFFFFFFFFFFFFFFFFFFFFFFFFFFFFFFFFF
310
FFFFFFFFFFFFFFFFFFFFFFFFFFFFFFFFFFFFFFFFFFFFFFFFFFFFFFFFFFFFFFFF
310
FFFFFFFFFFFFFFFFFFFFFFFFFFFFFFFFFFFFFFFFFFFFFFFFF000FFFFFFFFFFFF
310
FFFFFFFFFFFFFFFFFFFFFFFFFFFFFFFFFFFFFFFFFFFFFFFFFFFFFFFFFFFFFFFF
310
FFFFFFFFFFFFFFFFFFFFFFFFFFFFFFFFFFFFFFFFFFFFFFFFFFFFFFFFFFFFFFFF
310
FFFFFFFFFFFFFFFFFFFFFFFFFFFFFFFFF000FFFFFFFFFFFFFFFFFFFFFFFFFFFF
310
FFFFFFFFFFFFFFFFFFFFFFFFFFFFFFFFFFFFFFFFFFFFFFFFFFFFFFFFFFFFFFFF
310
FFFFFFFFFFFFFFFFFFFFFFFFFFFFFFFFFFFFFFFFFFFFFFFFFFFFFFFFFFFFFFFF
310
FFFFFFFFFFFFFFFFF000FFFFF80003FFFFFFFFFFFFFFFFFFFFFFFFFFFFFFFFFF
310
FFFFF00007FFFFFFFFFF00007FFFFFF800000000000000007FFFFFFFFFFFFFFF
310
FFFFFFFC001FFFFFFFFFFFFFFC001FFFFFFFFFFFFFFFFFFFFFFFFFFE0007FFFF
310
F000FFFF8000007FFFFFFFF8000FFFFFC0007FFFFF80007FFFFF0000007FFFFF
310
FFF8000007FFFFF800000000000000007FFFFFF0001FFFFFFFFFFFC00001FFFF
310
FFFFFFFFC00001FFFFFFFF000000000003FFFFE000007FFFF000FFFE0000000F
310
FFFFFFF0000FFFFF80007FFFFF80007FFFFC0000001FFFFFFFC0000001FFFFF8
310
00000000000000007FFFFFF0001FFFFFFFFFFE0000003FFFFFFFFFFE0000003F
310
FFFFFF000000000003FFFF0000000FFFF000FFF800000003FFFFFFF00007FFFF
310
80007FFFFF80007FFFF000000007FFFFFF000000003FFFF80000000000000000
310
7FFFFFF0001FFFFFFFFFF80000000FFFFFFFFFF80000000FFFFFFF0000000000
310
03FFFC00000003FFF000FFE000000000FFFFFFF00007FFFF80003FFFFF80007F
310
FFC000000001FFFFFC000000001FFFF800000000000000007FFFFFF0001FFFFF
310
FFFFE000000003FFFFFFFFE000000003FFFFFF000000000003FFF000000000FF
310
F000FF80000000007FFFFFF00007FFFF80003FFFFF80007FFF8000000000FFFF
310
F80000000007FFF800000000000000007FFFFFF0001FFFFFFFFFC000000001FF
310
FFFFFFC000000001FFFFFF000000000003FFC0000000007FF000FF0000000000
310
3FFFFFE00007FFFF00003FFFFF80007FFE00000000003FFFF00000000003FFF8
310
00000000000000007FFFFFF0001FFFFFFFFF8000000000FFFFFFFF8000000000
310
FFFFFF000000000003FF80000000003FF000FE00000000001FFFFFE00003FFFF
310
00003FFFFF80007FFC00000000001FFFE00000000001FFF8000001FFFE000000
310
7FFFFFF0001FFFFFFFFE00000000003FFFFFFE00000000003FFFFF0000000000
310
03FF00000000001FF000FC00000000000FFFFFE00003FFFF00001FFFFF80007F
310
F800000000001FFFC00000000000FFF8000001FFFE0000007FFFFFF0001FFFFF
310
FFFC00000000001FFFFFFC00000000001FFFFF000000000003FE00000000000F
310
F000F8000000000007FFFFE00003FFFF00001FFFFF80007FF800000000000FFF
310
800000000000FFF8000001FFFE0000007FFFFFF0001FFFFFFFF800000000000F
310
FFFFF800000000000FFFFF000000000003FC000000000007F000F80000000000
310
03FFFFC00003FFFE00001FFFFF80007FF0000000000007FF0000000000007FF8
310
000001FFFE0000007FFFFFF0001FFFFFFFF0000000000007FFFFF00000000000
310
07FFFF000000000003F8000000000003F000F0000000000003FFFFC00001FFFE
310
00001FFFFF80007FE0000000000007FE0000000000003FF8000001FFFE000000
310
7FFFFFF0001FFFFFFFF0000000000007FFFFF0000000000007FFFF0000000000
310
03F800001F800003F000E00001FFF00001FFFFC00001FFFE00000FFFFF80007F
310
E00001FFE00003FE00001FFF00003FF8000001FFFE0000007FFFFFF0001FFFFF
310
FFE000003E000003FFFFE000003E000003FFFF000000000003F00001FFF80001
310
F000E00007FFFC0001FFFFC00001FFFE00000FFFFF80007FC0000FFFFC0003FC
310
0000FFFFC0001FF8000001FFFE0000007FFFFFF0001FFFFFFFC00003FFE00001
310
FFFFC00003FFE00001FFFF0001FFFFFFFFF00007FFFE0001F000E0000FFFFF00
310
00FFFF800001FFFC00000FFFFF80007FC0001FFFFE0001FC0001FFFFE0001FF8
310
000001FFFE0000007FFFFFF0001FFFFFFF80000FFFF80000FFFF80000FFFF800
310
00FFFF0003FFFFFFFFE0000FFFFF8000F000C0003FFFFF8000FFFF800000FFFC
310
000007FFFF80007F80003FFFFF0001FC0003FFFFF0001FF8000001FFFE000000
310
7FFFFFF0001FFFFFFF80003FFFFE0000FFFF80003FFFFE0000FFFF0003FFFFFF
310
FFE0003FFFFF8000F000C0003FFFFF8000FFFF800000FFFC000007FFFF80007F
310
80007FFFFF8001F80007FFFFF8000FF8000001FFFE0000007FFFFFF0001FFFFF
310
FF00007FFFFF00007FFF00007FFFFF00007FFF0003FFFFFFFFE0003FFFFFC000
310
F000C0007FFFFFC000FFFF000000FFFC000007FFFF80007F8000FFFFFF8000F8
310
000FFFFFF8000FF8000001FFFE0000007FFFFFF0001FFFFFFF0000FFFFFF8000
310
7FFF0000FFFFFF80007FFF0003FFFFFFFFC0007FFFFFC00070008000FFFFFFC0
310
00FFFF000000FFF8000007FFFF80007F8000FFFFFF8000F8000FFFFFF8000FF8
310
000001FFFE0000007FFFFFF0001FFFFFFE0001FFFFFFC0003FFE0001FFFFFFC0
310
003FFF0003FFFFFFFFC0007FFFFFE00070008000FFFFFFC0007FFF0000007FF8
310
000003FFFF80007F0001FFFFFF8000F8000FFFFFF8000FF8000001FFFE000000
310
7FFFFFF0001FFFFFFE0001FFFFFFC0003FFE0001FFFFFFC0003FFF0003FFFFFF
310
FFC000FFFFFFE00070008000FFFFFFC0007FFF0000007FF8000003FFFF80007F
310
0001FFFFFF8000F8001FFFFFF8000FF8000001FFFE0000007FFFFFF0001FFFFF
310
FE0003FFFFFFE0003FFE0003FFFFFFE0003FFF0003FFFFFFFFC000FFFFFFE000
310
70008000FFFFFFC0007FFE0000007FF8000003FFFF80007F0001FFFFFF8000F0
310
001FFFFFF8000FF8000001FFFE0000007FFFFFF0001FFFFFFC0003FFFFFFE000
310
1FFC0003FFFFFFE0001FFF0003FFFFFFFFC000FFFFFFC00070008000FFFFFF80
310
007FFE0000007FF0000003FFFF80007F0001FFFFFF0000F0001FFFFFF8000FF8
310
000001FFFE0000007FFFFFF0001FFFFFFC0007FFFFFFF0001FFC0007FFFFFFF0
310
001FFF0003FFFFFFFFC000FFFFFFC00070008001FFFFFF0000FFFE0000003FF0
310
000001FFFF80007F0001FFFFFF0000F8001FFFFFF0000FF8000001FFFE000000
310
7FFFFFF0001FFFFFFC0007FFFFFFF0001FFC0007FFFFFFF0001FFF0003FFFFFF
310
FFC001FFFFFF80007000FFFFFFFFFE0000FFFE0008003FF0008001FFFF80007F
310
FFFFFFFFFC0000FFFFFFFFFFE0000FF8000001FFFE0000007FFFFFF0001FFFFF
310
F8000FFFFFFFF8000FF8000FFFFFFFF8000FFF0003FFFFFFFFFFFFFFFFFF0000
310
7000FFFFFFFFFC0000FFFC0008003FF0008001FFFF80007FFFFFFFFFF80001FF
310
FFFFFFFF80000FF8000001FFFE0000007FFFFFF0001FFFFFF8000FFFFFFFF800
310
0FF8000FFFFFFFF8000FFF0003FFFFFFFFFFFFFFFFFE0000F000FFFFFFFFE000
310
00FFFC000C003FE000C001FFFF80007FFFFFFFFFC00001FFFFFFFFFE00001FF8
310
000001FFFE0000007FFFFFF0001FFFFFF8000FFFFFFFF8000FF8000FFFFFFFF8
310
000FFF0003FFFFFFFFFFFFFFFFF00000F000FFFFFFFE000001FFFC000C001FE0
310
00C000FFFF80007FFFFFFFFE000001FFFFFFFFE000001FF80FFFFFFFFFFFFFC0
310
7FFFFFF0001FFFFFF8000FFFFFFFF8000FF8000FFFFFFFF8000FFF0003FFFFFF
310
FFFFFFFFFF800000F000FFFFFFC0000001FFFC001C001FE001C000FFFF80007F
310
FFFFFF80000003FFFFFFF80000001FF80FFFFFFFFFFFFFC07FFFFFF0001FFFFF
310
F8001FFFFFFFFC000FF8001FFFFFFFFC000FFF0003FFFFFFFFFFFFFFF0000001
310
F000FFFFF800000001FFF8001C001FE001C000FFFF80007FFFFFF800000003FF
310
FFFF800000003FF80FFFFFFFFFFFFFC07FFFFFF0001FFFFFF8001FFFFFFFFC00
310
0FF8001FFFFFFFFC000FFF0003FFFFFFFFFFFFFE00000001F000FFFFC0000000
310
03FFF8001E001FC001E000FFFF80007FFFFF8000000007FFFFFC000000003FF8
310
0FFFFFFFFFFFFFC07FFFFFF0001FFFFFF8001FFFFFFFFC000FF8001FFFFFFFFC
310
000FFF0003FFFFFFFFFFFFE000000003F000FFFE0000000007FFF8001E000FC0
310
01E0007FFF80007FFFFE0000000007FFFFE0000000007FF80FFFFFFFFFFFFFC0
310
7FFFFFF0001FFFFFF0001FFFFFFFFC0007F0001FFFFFFFFC0007FF0003FFFFFF
310
FFFFFF0000000003F000FFF80000000007FFF8001E000FC003E0007FFF80007F
310
FFF0000000000FFFFF8000000000FFF80FFFFFFFFFFFFFC07FFFFFF0001FFFFF
310
F0001FFFFFFFFC0007F0001FFFFFFFFC0007FF0003FFFFFFFFFFFC0000000007
310
F000FFE0000000000FFFF0003E000FC003E0007FFF80007FFFC0000000001FFF
310
FE0000000001FFF80FFFFFFFFFFFFFC07FFFFFF0001FFFFFF0001FFFFFFFFC00
310
07F0001FFFFFFFFC0007FF0003FFFFFFFFFFF0000000000FF000FFC000000000
310
1FFFF0003F000F8003F0003FFF80007FFF80000000003FFFF80000000003FFF8
310
0FFFFFFFFFFFFFC07FFFFFF0001FFFFFF0001FFFFFFFFC0007F0001FFFFFFFFC
310
0007FF0003FFFFFFFFFFE0000000001FF000FF00000000007FFFF0003F000780
310
03F0003FFF80007FFF00000000007FFFF00000000007FFF80FFFFFFFFFFFFFC0
310
7FFFFFF0001FFFFFF0001FFFFFFFFC0007F0001FFFFFFFFC0007FF0003FFFFFF
310
FFFF80000000007FF000FE0000000000FFFFE0003F00078007F0003FFF80007F
310
FE0000000001FFFFE0000000001FFFF80FFFFFFFFFFFFFC07FFFFFF0001FFFFF
310
F0001FFFFFFFFC0007F0001FFFFFFFFC0007FF0003FFFFFFFFFF0000000000FF
310
F000FC0000000003FFFFE0007F00078007F0003FFF80007FFC0000000007FFFF
310
C0000000007FFFF80FFFFFFFFFFFFFC07FFFFFF0001FFFFFF8001FFFFFFFFC00
310
0FF8001FFFFFFFFC000FFF0003FFFFFFFFFE0000000003FFF000FC000000000F
310
FFFFE0007F80070007F8001FFF80007FF8000000001FFFFF8000000001FFFFF8
310
0FFFFFFFFFFFFFC07FFFFFF0001FFFFFF8001FFFFFFFFC000FF8001FFFFFFFFC
310
000FFF0003FFFFFFFFFC000000000FFFF000F8000000007FFFFFE0007F800700
310
07F8001FFF80007FF000000000FFFFFF800000000FFFFFF80FFFFFFFFFFFFFC0
310
7FFFFFF0001FFFFFF8000FFFFFFFF8000FF8000FFFFFFFF8000FFF0003FFFFFF
310
FFFC000000007FFFF000F800000007FFFFFFC0007F8003000FF8001FFF80007F
310
F000000007FFFFFF000000007FFFFFF80FFFFFFFFFFFFFC07FFFFFF0001FFFFF
310
F8000FFFFFFFF8000FF8000FFFFFFFF8000FFF0003FFFFFFFFF80000000FFFFF
310
F000F0000000FFFFFFFFC000FF8003000FF8001FFF80007FE0000000FFFFFFFF
310
0000000FFFFFFFF8000001FFFE0000007FFFFFF0001FFFFFF8000FFFFFFFF800
310
0FF8000FFFFFFFF8000FFF0003FFFFFFFFF8000000FFFFFFF000F000000FFFFF
310
FFFFC000FFC002000FF8000FFF80007FE000001FFFFFFFFE000001FFFFFFFFF8
310
000001FFFE0000007FFFFFF0001FFFFFF8000FFFFFFFF8000FF8000FFFFFFFF8
310
000FFF0003FFFFFFFFF000001FFFFFFFF000E00000FFFFFFFFFFC000FFC00200
310
0FFC000FFF80007FE00001FFFFFFFFFE00001FFFFFFFFFF8000001FFFE000000
310
7FFFFFF0001FFFFFFC000FFFFFFFF8001FFC000FFFFFFFF8001FFF0003FFFFFF
310
FFF00001FFFFFFFFF000E00007FFFFFFFFFF8000FFC000001FFC000FFF80007F
310
C0000FFFFFFFFFFE0000FFFFFFFFFFF8000001FFFE0000007FFFFFF0001FFFFF
310
FC0007FFFFFFF0001FFC0007FFFFFFF0001FFF0003FFFFFFFFF00007FFFFFFFF
310
F000E0001FFFFFFFFFFF8000FFC000001FFC000FFF80007FC0003FFFFFFFFFFE
310
0001FFFFFFFFFFF8000001FFFE0000007FFFFFF0001FFFFFFC0007FFFFFFF000
310
1FFC0007FFFFFFF0001FFF0003FFFFFFFFF0001FFFFFFFFFF000E0003FFFFF00
310
03FF8001FFE000001FFC0007FF80007FC0007FFFFF0007FC0003FFFFF0003FF8
310
000001FFFE0000007FFFFFF0001FFFFFFC0003FFFFFFE0001FFC0003FFFFFFE0
310
001FFF0003FFFFFFFFF0003FFFFFFFFFF000E0003FFFFF0001FF8001FFE00000
310
1FFE0007FF80007FC0007FFFFE0003FC0007FFFFE0003FF8000001FFFE000000
310
7FFFFFF0001FFFFFFE0003FFFFFFE0003FFE0003FFFFFFE0003FFF0003FFFFFF
310
FFF0003FFFFF8001F000E0003FFFFF0001FF0001FFE000001FFE0007FF80007F
310
C0007FFFFE0003FC0007FFFFE0003FF8000001FFFE0000007FFFFFF0001FFFFF
310
FE0001FFFFFFC0003FFE0001FFFFFFC0003FFF0003FFFFFFFFF0003FFFFF0001
310
F000E0003FFFFF0003FF0001FFE000003FFE0007FF80007FC0007FFFFE0003FC
310
0007FFFFE0003FF8000001FFFE0000007FFFFFF0001FFFFFFF0001FFFFFFC000
310
7FFF0001FFFFFFC0007FFF0003FFFFFFFFF0003FFFFF0001F000E0003FFFFE00
310
03FF0003FFF000003FFE0003FF80007FC0007FFFFC0003FE0007FFFFE0003FF8
310
000001FFFE0000007FFFFFF0001FFFFFFF0000FFFFFF80007FFF0000FFFFFF80
310
007FFF0003FFFFFFFFF0003FFFFF0001F000E0003FFFFE0003FF0003FFF00000
310
3FFF0003FF80007FC0007FFFFC0007FE0007FFFFC0003FF8000001FFFE000000
310
7FFFFFF0001FFFFFFF80007FFFFF0000FFFF80007FFFFF0000FFFF0003FFFFFF
310
FFF0003FFFFF0003F000E0003FFFFC0003FE0003FFF000003FFF0003FF80007F
310
E0003FFFF80007FE0003FFFFC0007FF8000001FFFE0000007FFFFFF0001FFFFF
310
FF80003FFFFE0000FFFF80003FFFFE0000FFFF0003FFFFFFFFF0001FFFFE0003
310
F000F0001FFFF80003FE0003FFF000007FFF0001FF80007FE0003FFFF00007FE
310
0001FFFF80007FF8000001FFFE0000007FFFFFF0001FFFFFFFC0000FFFF80001
310
FFFFC0000FFFF80001FFFF0003FFFFFFFFF0001FFFFC0003F000F0000FFFF000
310
07FE0007FFF800007FFF0001FF80007FE0001FFFE00007FF0000FFFE00007FF8
310
000001FFFE0000007FFFFFF0001FFFFFFFC00003FFE00001FFFFC00003FFE000
310
01FFFF0003FFFFFFFFF8000FFFF80003F000F00003FFC00007FC0007FFF80000
310
7FFF8001FF80007FF00007FF80000FFF00007FF80000FFF8000001FFFE000000
310
7F80000000000001FFE000003E000003FFFFE000003E000003FFFF0003FFFFFF
310
FFF80003FFE00007F000F800000000000FFC0007FFF800007FFF8001FF80007F
310
F000000000000FFF000000000000FFF8000001FFFE0000007F80000000000001
310
FFF0000000000007FFFFF0000000000007FFFF0003FFFFFFFFFC00007E000007
310
F000F800000000000FFC0007FFF80000FFFF8000FF80007FF800000000001FFF
310
800000000001FFF8000001FFFE0000007F80000000000001FFF800000000000F
310
FFFFF800000000000FFFFF0003FFFFFFFFFC00000000000FF000FC0000000000
310
1FFC0007FFFC0000FFFF8000FF80007FF800000000003FFFC00000000001FFF8
310
000001FFFE0000007F80000000000001FFF800000000000FFFFFF80000000000
310
0FFFFF0003FFFFFFFFFE00000000001FF000FE00000000003FF8000FFFFC0000
310
FFFF8000FF80007FFC00000000003FFFC00000000003FFF8000001FFFE000000
310
7F80000000000001FFFC00000000001FFFFFFC00000000001FFFFF0003FFFFFF
310
FFFF00000000001FF000FF00000000003FF8000FFFFC0000FFFFC000FF80007F
310
FE00000000007FFFE00000000007FFF8000001FFFE0000007F80000000000001
310
FFFE00000000003FFFFFFE00000000003FFFFF0003FFFFFFFFFF80000000003F
310
F000FF80000000007FF8000FFFFC0001FFFFC0007F80007FFF0000000000FFFF
310
F0000000000FFFF800000000000000007F80000000000001FFFF8000000000FF
310
FFFFFF8000000000FFFFFF0003FFFFFFFFFFC0000000007FF000FFC000000000
310
FFF8000FFFFE0001FFFFC0007F80007FFF8000000001FFFFF8000000001FFFF8
310
00000000000000007F80000000000001FFFFC000000001FFFFFFFFC000000001
310
FFFFFF0003FFFFFFFFFFE000000000FFF000FFE000000003FFF0001FFFFE0001
310
FFFFC0007F80007FFFC000000007FFFFFE000000003FFFF80000000000000000
310
7F80000000000001FFFFE000000003FFFFFFFFE000000003FFFFFF0003FFFFFF
310
FFFFF000000003FFF000FFF80000000FFFF0001FFFFE0001FFFFE0007F80007F
310
FFF00000000FFFFFFF00000000FFFFF800000000000000007F80000000000001
310
FFFFF80000000FFFFFFFFFF80000000FFFFFFF0003FFFFFFFFFFFC0000000FFF
310
F000FFFE0000003FFFF0001FFFFE0003FFFFE0003F80007FFFFC0000003FFFFF
310
FFC0000003FFFFF800000000000000007F80000000000001FFFFFE0000003FFF
310
FFFFFFFE0000003FFFFFFF0003FFFFFFFFFFFF0000003FFFF000FFFF800000FF
310
FFF0001FFFFF0003FFFFE0003F80007FFFFF000001FFFFFFFFF800001FFFFFF8
310
00000000000000007F80000000000001FFFFFFC00001FFFFFFFFFFFFC00001FF
310
FFFFFF0003FFFFFFFFFFFFC00000FFFFF000FFFFF8000FFFFFFFFFFFFFFFFFFF
310
FFFFFFFFFFFFFFFFFFFFF0001FFFFFFFFFFF0000FFFFFFF80000000000000000
310
7FFFFFFFFFFFFFFFFFFFFFFC001FFFFFFFFFFFFFFC001FFFFFFFFFFFFFFFFFFF
310
FFFFFFFC001FFFFFF000FFFFFFFFFFFFFFFFFFFFFFFFFFFFFFFFFFFFFFFFFFFF
310
FFFFFFFFFFFFFFFFFFFFFFFFFFFFFFFFFFFFFFFFFFFFFFFFFFFFFFFFFFFFFFFF
310
FFFFFFFFFFFFFFFFFFFFFFFFFFFFFFFFFFFFFFFFFFFFFFFFFFFFFFFFFFFFFFFF
310
F000FFFFFFFFFFFFFFFFFFFFFFFFFFFFFFFFFFFFFFFFFFFFFFFFFFFFFFFFFFFF
310
FFFFFFFFFFFFFFFFFFFFFFFFFFFFFFFFFFFFFFFFFFFFFFFFFFFFFFFFFFFFFFFF
310
FFFFFFFFFFFFFFFFFFFFFFFFFFFFFFFFFFFFFFFFFFFFFFFFF000FFFFFFFFFFFF
310
FFFFFFFFFFFFFFFFFFFFFFFFFFFFFFFFFFFFFFFFFFFFFFFFFFFFFFFFFFFFFFFF
310
FFFFFFFFFFFFFFFFFFFFFFFFFFFFFFFFFFFFFFFFFFFFFFFFFFFFFFFFFFFFFFFF
310
FFFFFFFFFFFFFFFFFFFFFFFFFFFFFFFFF000FFFFFFFFFFFFFFFFFFFFFFFFFFFF
310
FFFFFFFFFFFFFFFFFFFFFFFFFFFFFFFFFFFFFFFFFFFFFFFFFFFFFFFFFFFFFFFF
310
FFFFFFFFFFFFFFFFFFFFFFFFFFFFFFFFFFFFFFFFFFFFFFFFFFFFFFFFFFFFFFFF
310
FFFFFFFFFFFFFFFFF000FFFFFFFFFFFFFFFFFFFFFFFFFFFFFFFFFFFFFFFFFFFF
310
FFFFFFFFFFFFFFFFFFFFFFFFFFFFFFFFFFFFFFFFFFFFFFFFFFFFFFFFFFFFFFFF
310
FFFFFFFFFFFFFFFFFFFFFFFFFFFFFFFFFFFFFFFFFFFFFFFFFFFFFFFFFFFFFFFF
310
F000FFFFFFFFFFFFFFFFFFFFFFFFFFFFFFFFFFFFFFFFFFFFFFFFFFFFFFFFFFFF
310
FFFFFFFFFFFFFFFFFFFFFFFFFFFFFFFFFFFFFFFFFFFFFFFFFFFFFFFFFFFFFFFF
310
FFFFFFFFFFFFFFFFFFFFFFFFFFFFFFFFFFFFFFFFFFFFFFFFF000FFFFFFFFFFFF
310
FFFFFFFFFFFFFFFFFFFFFFFFFFFFFFFFFFFFFFFFFFFFFFFFFFFFFFFFFFFFFFFF
310
FFFFFFFFFFFFFFFFFFFFFFFFFFFFFFFFFFFFFFFFFFFFFFFFFFFFFFFFFFFFFFFF
310
FFFFFFFFFFFFFFFFFFFFFFFFFFFFFFFFF000FFFFFFFFFFFFFFFFFFFFFFFFFFFF
310
FFFFFFFFFFFFFFFFFFFFFFFFFFFFFFFFFFFFFFFFFFFFFFFFFFFFFFFFFFFFFFFF
310
FFFFFFFFFFFFFFFFFFFFFFFFFFFFFFFFFFFFFFFFFFFFFFFFFFFFFFFFFFFFFFFF
310
FFFFFFFFFFFFFFFFF000FFFFFFFFFFFFFFFFFFFFFFFFFFFFFFFFFFFFFFFFFFFF
310
FFFFFFFFFFFFFFFFFFFFFFFFFFFFFFFFFFFFFFFFFFFFFFFFFFFFFFFFFFFFFFFF
310
FFFFFFFFFFFFFFFFFFFFFFFFFFFFFFFFFFFFFFFFFFFFFFFFFFFFFFFFFFFFFFFF
310
F000FFFFFFFFFFFFFFFFFFFFFFFFFFFFFFFFFFFFFFFFFFFFFFFFFFFFFFFFFFFF
310
FFFFFFFFFFFFFFFFFFFFFFFFFFFFFFFFFFFFFFFFFFFFFFFFFFFFFFFFFFFFFFFF
310
FFFFFFFFFFFFFFFFFFFFFFFFFFFFFFFFFFFFFFFFFFFFFFFFF000FFFFFFFFFFFF
310
FFFFFFFFFFFFFFFFFFFFFFFFFFFFFFFFFFFFFFFFFFFFFFFFFFFFFFFFFFFFFFFF
310
FFFFFFFFFFFFFFFFFFFFFFFFFFFFFFFFFFFFFFFFFFFFFFFFFFFFFFFFFFFFFFFF
310
FFFFFFFFFFFFFFFFFFFFFFFFFFFFFFFFF000FFFFFFFFFFFFFFFFFFFFFFFFFFFF
310
FFFFFFFFFFFFFFFFFFFFFFFFFFFFFFFFFFFFFFFFFFFFFFFFFFFFFFFFFFFFFFFF
310
FFFFFFFFFFFFFFFFFFFFFFFFFFFFFFFFFFFFFFFFFFFFFFFFFFFFFFFFFFFFFFFF
310
FFFFFFFFFFFFFFFFF000FFFFFFFFFFFFFFFFFFFFFFFFFFFFFFFFFFFFFFFFFFFF
310
FFFFFFFFFFFFFFFFFFFFFFFFFFFFFFFFFFFFFFFFFFFFFFFFFFFFFFFFFFFFFFFF
310
FFFFFFFFFFFFFFFFFFFFFFFFFFFFFFFFFFFFFFFFFFFFFFFFFFFFFFFFFFFFFFFF
310
F000FFFFFFFFFFFFFFFFFFFFFFFFFFFFFFFFFFFFFFFFFFFFFFFFFFFFFFFFFFFF
310
FFFFFFFFFFFFFFFFFFFFFFFFFFFFFFFFFFFFFFFFFFFFFFFFFFFFFFFFFFFFFFFF
310
FFFFFFFFFFFFFFFFFFFFFFFFFFFFFFFFFFFFFFFFFFFFFFFFF000FFFFFFFFFFFF
310
FFFFFFFFFFFFFFFFFFFFFFFFFFFFFFFFFFFFFFFFFFFFFFFFFFFFFFFFFFFFFFFF
310
FFFFFFFFFFFFFFFFFFFFFFFFFFFFFFFFFFFFFFFFFFFFFFFFFFFFFFFFFFFFFFFF
310
FFFFFFFFFFFFFFFFFFFFFFFFFFFFFFFFF000FFFFFFFFFFFFFFFFFFFFFFFFFFFF
310
FFFFFFFFFFFFFFFFFFFFFFFFFFFFFFFFFFFFFFFFFFFFFFFFFFFFFFFFFFFFFFFF
310
FFFFFFFFFFFFFFFFFFFFFFFFFFFFFFFFFFFFFFFFFFFFFFFFFFFFFFFFFFFFFFFF
310
FFFFFFFFFFFFFFFFF000FFFFFFFFFFFFFFFFFFFFFFFFFFFFFFFFFFFFFFFFFFFF
310
FFFFFFFFFFFFFFFFFFFFFFFFFFFFFFFFFFFFFFFFFFFFFFFFFFFFFFFFFFFFFFFF
310
FFFFFFFFFFFFFFFFFFFFFFFFFFFFFFFFFFFFFFFFFFFFFFFFFFFFFFFFFFFFFFFF
310
F000FFFFFFFFFFFFFFFFFFFFFFFFFFFFFFFFFFFFFFFFFFFFFFFFFFFFFFFFFFFF
310
FFFFFFFFFFFFFFFFFFFFFFFFFFFFFFFFFFFFFFFFFFFFFFFFFFFFFFFFFFFFFFFF
310
FFFFFFFFFFFFFFFFFFFFFFFFFFFFFFFFFFFFFFFFFFFFFFFFF000FFFFFFFFFFFF
310
FFFFFFFFFFFFFFFFFFFFFFFFFFFFFFFFFFFFFFFFFFFFFFFFFFFFFFFFFFFFFFFF
310
FFFFFFFFFFFFFFFFFFFFFFFFFFFFFFFFFFFFFFFFFFFFFFFFFFFFFFFFFFFFFFFF
310
FFFFFFFFFFFFFFFFFFFFFFFFFFFFFFFFF000FFFFFFFFFFFFFFFFFFFFFFFFFFFF
310
FFFFFFFFFFFFFFFFFFFFFFFFFFFFFFFFFFFFFFFFFFFFFFFFFFFFFFFFFFFFFFFF
310
FFFFFFFFFFFFFFFFFFFFFFFFFFFFFFFFFFFFFFFFFFFFFFFFFFFFFFFFFFFFFFFF
310
FFFFFFFFFFFFFFFFF000FFFFFFFFFFFFFFFFFFFFFFFFFFFFFFFFFFFFFFFFFFFF
310
FFFFFFFFFFFFFFFFFFFFFFFFFFFFFFFFFFFFFFFFFFFFFFFFFFFFFFFFFFFFFFFF
310
FFFFFFFFFFFFFFFFFFFFFFFFFFFFFFFFFFFFFFFFFFFFFFFFFFFFFFFFFFFFFFFF
310
F000FFFFFFFFFFFFFFFFFFFFFFFFFFFFFFFFFFFFFFFFFFFFFFFFFFFFFFFFFFFF
310
FFFFFFFFFFFFFFFFFFFFFFFFFFFFFFFFFFFFFFFFFFFFFFFFFFFFFFFFFFFFFFFF
310
FFFFFFFFFFFFFFFFFFFFFFFFFFFFFFFFFFFFFFFFFFFFFFFFF000FFFFFFFFFFFF
310
FFFFFFFFFFFFFFFFFFFFFFFFFFFFFFFFFFFFFFFFFFFFFFFFFFFFFFFFFFFFFFFF
310
FFFFFFFFFFFFFFFFFFFFFFFFFFFFFFFFFFFFFFFFFFFFFFFFFFFFFFFFFFFFFFFF
310
FFFFFFFFFFFFFFFFFFFFFFFFFFFFFFFFF0000000000000000000000000000000
310
0000000000000000000000000000000000000000000000000000000000000000
310
0000000000000000000000000000000000000000000000000000000000000000
310
0000000000000000000000000000000000000000000000000000000000000000
310
0000000000000000000000000000000000000000000000000000000000000000
310
0000000000000000000000000000000000000000000000000000000000000000
310
0000000000000000000000000000000000000000000000000000000000000000
310
0000000000000000000000000000000000000000000000000000000000000000
310
0000000000000000000000000000000000000000000000000000000000000000
310
0000000000000000000000000000000000000000000000000000000000000000
310
0000000000000000000000000000000000000000000000000000000000000000
310
0000000000000000000000000000000000000000000000000000000000000000
310
0000000000000000000000000000000000000000000000000000000000000000
310
0000000000000000000000000000000000000000000000000000000000000000
310
0000000000000000000000000000000000000000000000000000000000000000
310
0000000000000000000000000000000000000000000000000000000000000000
  1
OLE
  0
ENDSEC
  0
SECTION
  2
OBJECTS
  0
DICTIONARY
  5
C
330
0
100
AcDbDictionary
281
     1
  3
ACAD_GROUP
350
D
  3
ACAD_LAYOUT
350
1A
  3
ACAD_MLINESTYLE
350
17
  3
ACAD_PLOTSETTINGS
350
19
  3
ACAD_PLOTSTYLENAME
350
E
  3
ACAD_SCALELIST
350
47
  0
DICTIONARY
  5
D
102
{ACAD_REACTORS
330
C
102
}
330
C
100
AcDbDictionary
281
     1
  0
DICTIONARY
  5
1A
102
{ACAD_REACTORS
330
C
102
}
330
C
100
AcDbDictionary
281
     1
  3
Layout1
350
1E
  3
Layout2
350
26
  3
Model
350
22
  0
DICTIONARY
  5
17
102
{ACAD_REACTORS
330
C
102
}
330
C
100
AcDbDictionary
281
     1
  3
Standard
350
18
  0
DICTIONARY
  5
19
102
{ACAD_REACTORS
330
C
102
}
330
C
100
AcDbDictionary
281
     1
  0
ACDBDICTIONARYWDFLT
  5
E
102
{ACAD_REACTORS
330
C
102
}
330
C
100
AcDbDictionary
281
     1
  3
Normal
350
F
100
AcDbDictionaryWithDefault
340
F
  0
DICTIONARY
  5
47
102
{ACAD_REACTORS
330
C
102
}
330
C
100
AcDbDictionary
281
     1
  3
A0
350
48
  3
A1
350
49
  3
A2
350
4A
  3
A3
350
4B
  3
A4
350
4C
  3
A5
350
4D
  3
A6
350
4E
  3
A7
350
4F
  3
A8
350
50
  3
A9
350
51
  3
B0
350
52
  3
B1
350
53
  3
B2
350
54
  3
B3
350
55
  3
B4
350
56
  3
B5
350
57
  3
B6
350
58
  3
B7
350
59
  3
B8
350
5A
  3
B9
350
5B
  3
C0
350
5C
  3
C1
350
5D
  3
C2
350
5E
  3
C3
350
5F
  3
C4
350
60
  3
C5
350
61
  3
C6
350
62
  3
C7
350
63
  3
C8
350
64
  3
C9
350
65
  3
D0
350
66
  3
D1
350
67
  3
D2
350
68
  0
LAYOUT
  5
1E
102
{ACAD_REACTORS
330
1A
102
}
330
1A
100
AcDbPlotSettings
  1

  2
none_device
  4

  6

 40
0.0
 41
0.0
 42
0.0
 43
0.0
 44
0.0
 45
0.0
 46
0.0
 47
0.0
 48
0.0
 49
0.0
140
0.0
141
0.0
142
1.0
143
1.0
 70
   688
 72
     1
 73
     0
 74
     5
  7

 75
    16
147
1.0
148
0.0
149
0.0
100
AcDbLayout
  1
Layout1
 70
     1
 71
     1
 10
0.0
 20
0.0
 11
420.0
 21
297.0
 12
0.0
 22
0.0
 32
0.0
 14
1.0000000000E+20
 24
1.0000000000E+20
 34
1.0000000000E+20
 15
-1.0000000000E+20
 25
-1.0000000000E+20
 35
-1.0000000000E+20
146
0.0
 13
0.0
 23
0.0
 33
0.0
 16
1.0
 26
0.0
 36
0.0
 17
0.0
 27
1.0
 37
0.0
 76
     0
330
1B
  0
LAYOUT
  5
26
102
{ACAD_REACTORS
330
1A
102
}
330
1A
100
AcDbPlotSettings
  1

  2
none_device
  4

  6

 40
0.0
 41
0.0
 42
0.0
 43
0.0
 44
0.0
 45
0.0
 46
0.0
 47
0.0
 48
0.0
 49
0.0
140
0.0
141
0.0
142
1.0
143
1.0
 70
   688
 72
     1
 73
     0
 74
     5
  7

 75
    16
147
1.0
148
0.0
149
0.0
100
AcDbLayout
  1
Layout2
 70
     1
 71
     2
 10
0.0
 20
0.0
 11
0.0
 21
0.0
 12
0.0
 22
0.0
 32
0.0
 14
0.0
 24
0.0
 34
0.0
 15
0.0
 25
0.0
 35
0.0
146
0.0
 13
0.0
 23
0.0
 33
0.0
 16
1.0
 26
0.0
 36
0.0
 17
0.0
 27
1.0
 37
0.0
 76
     0
330
23
  0
LAYOUT
  5
22
102
{ACAD_REACTORS
330
1A
102
}
330
1A
100
AcDbPlotSettings
  1

  2
none_device
  4
Letter_(8.50_x_11.00_Inches)
  6

 40
6.35
 41
6.35
 42
6.35000508
 43
6.35000508
 44
215.9
 45
279.4
 46
0.0
 47
0.0
 48
0.0
 49
0.0
140
0.0
141
0.0
142
1.0
143
1.0
 70
  1712
 72
     1
 73
     0
 74
     0
  7

 75
     0
147
1.0
148
0.0
149
0.0
100
AcDbLayout
  1
Model
 70
     1
 71
     0
 10
0.0
 20
0.0
 11
297.0
 21
210.0
 12
0.0
 22
0.0
 32
0.0
 14
0.0
 24
0.0
 34
0.0
 15
297.0
 25
210.0
 35
0.0
146
0.0
 13
0.0
 23
0.0
 33
0.0
 16
1.0
 26
0.0
 36
0.0
 17
0.0
 27
1.0
 37
0.0
 76
     0
330
1F
331
29
  0
MLINESTYLE
  5
18
102
{ACAD_REACTORS
330
17
102
}
330
17
100
AcDbMlineStyle
  2
Standard
 70
     0
  3

 62
   256
 51
90.0
 52
90.0
 71
     2
 49
0.5
 62
   256
  6
BYLAYER
 49
-0.5
 62
   256
  6
BYLAYER
  0
ACDBPLACEHOLDER
  5
F
102
{ACAD_REACTORS
330
E
102
}
330
E
  0
SCALE
  5
48
102
{ACAD_REACTORS
330
47
102
}
330
47
100
AcDbScale
 70
     0
300
1:1
140
1.0
141
1.0
290
     1
  0
SCALE
  5
49
102
{ACAD_REACTORS
330
47
102
}
330
47
100
AcDbScale
 70
     0
300
1:2
140
1.0
141
2.0
290
     0
  0
SCALE
  5
4A
102
{ACAD_REACTORS
330
47
102
}
330
47
100
AcDbScale
 70
     0
300
1:4
140
1.0
141
4.0
290
     0
  0
SCALE
  5
4B
102
{ACAD_REACTORS
330
47
102
}
330
47
100
AcDbScale
 70
     0
300
1:5
140
1.0
141
5.0
290
     0
  0
SCALE
  5
4C
102
{ACAD_REACTORS
330
47
102
}
330
47
100
AcDbScale
 70
     0
300
1:8
140
1.0
141
8.0
290
     0
  0
SCALE
  5
4D
102
{ACAD_REACTORS
330
47
102
}
330
47
100
AcDbScale
 70
     0
300
1:10
140
1.0
141
10.0
290
     0
  0
SCALE
  5
4E
102
{ACAD_REACTORS
330
47
102
}
330
47
100
AcDbScale
 70
     0
300
1:16
140
1.0
141
16.0
290
     0
  0
SCALE
  5
4F
102
{ACAD_REACTORS
330
47
102
}
330
47
100
AcDbScale
 70
     0
300
1:20
140
1.0
141
20.0
290
     0
  0
SCALE
  5
50
102
{ACAD_REACTORS
330
47
102
}
330
47
100
AcDbScale
 70
     0
300
1:30
140
1.0
141
30.0
290
     0
  0
SCALE
  5
51
102
{ACAD_REACTORS
330
47
102
}
330
47
100
AcDbScale
 70
     0
300
1:40
140
1.0
141
40.0
290
     0
  0
SCALE
  5
52
102
{ACAD_REACTORS
330
47
102
}
330
47
100
AcDbScale
 70
     0
300
1:50
140
1.0
141
50.0
290
     0
  0
SCALE
  5
53
102
{ACAD_REACTORS
330
47
102
}
330
47
100
AcDbScale
 70
     0
300
1:100
140
1.0
141
100.0
290
     0
  0
SCALE
  5
54
102
{ACAD_REACTORS
330
47
102
}
330
47
100
AcDbScale
 70
     0
300
2:1
140
2.0
141
1.0
290
     0
  0
SCALE
  5
55
102
{ACAD_REACTORS
330
47
102
}
330
47
100
AcDbScale
 70
     0
300
4:1
140
4.0
141
1.0
290
     0
  0
SCALE
  5
56
102
{ACAD_REACTORS
330
47
102
}
330
47
100
AcDbScale
 70
     0
300
8:1
140
8.0
141
1.0
290
     0
  0
SCALE
  5
57
102
{ACAD_REACTORS
330
47
102
}
330
47
100
AcDbScale
 70
     0
300
10:1
140
10.0
141
1.0
290
     0
  0
SCALE
  5
58
102
{ACAD_REACTORS
330
47
102
}
330
47
100
AcDbScale
 70
     0
300
100:1
140
100.0
141
1.0
290
     0
  0
SCALE
  5
59
102
{ACAD_REACTORS
330
47
102
}
330
47
100
AcDbScale
 70
     0
300
1/128" = 1'-0"
140
0.0078125
141
12.0
290
     0
  0
SCALE
  5
5A
102
{ACAD_REACTORS
330
47
102
}
330
47
100
AcDbScale
 70
     0
300
1/64" = 1'-0"
140
0.015625
141
12.0
290
     0
  0
SCALE
  5
5B
102
{ACAD_REACTORS
330
47
102
}
330
47
100
AcDbScale
 70
     0
300
1/32" = 1'-0"
140
0.03125
141
12.0
290
     0
  0
SCALE
  5
5C
102
{ACAD_REACTORS
330
47
102
}
330
47
100
AcDbScale
 70
     0
300
1/16" = 1'-0"
140
0.0625
141
12.0
290
     0
  0
SCALE
  5
5D
102
{ACAD_REACTORS
330
47
102
}
330
47
100
AcDbScale
 70
     0
300
3/32" = 1'-0"
140
0.09375
141
12.0
290
     0
  0
SCALE
  5
5E
102
{ACAD_REACTORS
330
47
102
}
330
47
100
AcDbScale
 70
     0
300
1/8" = 1'-0"
140
0.125
141
12.0
290
     0
  0
SCALE
  5
5F
102
{ACAD_REACTORS
330
47
102
}
330
47
100
AcDbScale
 70
     0
300
3/16" = 1'-0"
140
0.1875
141
12.0
290
     0
  0
SCALE
  5
60
102
{ACAD_REACTORS
330
47
102
}
330
47
100
AcDbScale
 70
     0
300
1/4" = 1'-0"
140
0.25
141
12.0
290
     0
  0
SCALE
  5
61
102
{ACAD_REACTORS
330
47
102
}
330
47
100
AcDbScale
 70
     0
300
3/8" = 1'-0"
140
0.375
141
12.0
290
     0
  0
SCALE
  5
62
102
{ACAD_REACTORS
330
47
102
}
330
47
100
AcDbScale
 70
     0
300
1/2" = 1'-0"
140
0.5
141
12.0
290
     0
  0
SCALE
  5
63
102
{ACAD_REACTORS
330
47
102
}
330
47
100
AcDbScale
 70
     0
300
3/4" = 1'-0"
140
0.75
141
12.0
290
     0
  0
SCALE
  5
64
102
{ACAD_REACTORS
330
47
102
}
330
47
100
AcDbScale
 70
     0
300
1" = 1'-0"
140
1.0
141
12.0
290
     0
  0
SCALE
  5
65
102
{ACAD_REACTORS
330
47
102
}
330
47
100
AcDbScale
 70
     0
300
1-1/2" = 1'-0"
140
1.5
141
12.0
290
     0
  0
SCALE
  5
66
102
{ACAD_REACTORS
330
47
102
}
330
47
100
AcDbScale
 70
     0
300
3" = 1'-0"
140
3.0
141
12.0
290
     0
  0
SCALE
  5
67
102
{ACAD_REACTORS
330
47
102
}
330
47
100
AcDbScale
 70
     0
300
6" = 1'-0"
140
6.0
141
12.0
290
     0
  0
SCALE
  5
68
102
{ACAD_REACTORS
330
47
102
}
330
47
100
AcDbScale
 70
     0
300
1'-0" = 1'-0"
140
12.0
141
12.0
290
     0
  0
ENDSEC
  0
EOF
