  0
SECTION
  2
HEADER
  9
$ACADVER
  1
AC1015
  9
$ACADMAINTVER
 70
     6
  9
$DWGCODEPAGE
  3
ANSI_1252
  9
$INSBASE
 10
0.0
 20
0.0
 30
0.0
  9
$EXTMIN
 10
0.0
 20
0.0
 30
0.0
  9
$EXTMAX
 10
297.0
 20
210.0
 30
0.0
  9
$LIMMIN
 10
0.0
 20
0.0
  9
$LIMMAX
 10
297.0
 20
210.0
  9
$ORTHOMODE
 70
     0
  9
$REGENMODE
 70
     1
  9
$FILLMODE
 70
     1
  9
$QTEXTMODE
 70
     0
  9
$MIRRTEXT
 70
     1
  9
$LTSCALE
 40
1.0
  9
$ATTMODE
 70
     1
  9
$TEXTSIZE
 40
2.0
  9
$TRACEWID
 40
1.0
  9
$TEXTSTYLE
  7
Standard
  9
$CLAYER
  8
0
  9
$CELTYPE
  6
ByLayer
  9
$CECOLOR
 62
   256
  9
$CELTSCALE
 40
1.0
  9
$DISPSILH
 70
     0
  9
$DIMSCALE
 40
1.0
  9
$DIMASZ
 40
3.0
  9
$DIMEXO
 40
0.0
  9
$DIMDLI
 40
3.75
  9
$DIMRND
 40
0.0
  9
$DIMDLE
 40
0.0
  9
$DIMEXE
 40
1.0
  9
$DIMTP
 40
0.0
  9
$DIMTM
 40
0.0
  9
$DIMTXT
 40
2.0
  9
$DIMCEN
 40
2.5
  9
$DIMTSZ
 40
0.0
  9
$DIMTOL
 70
     0
  9
$DIMLIM
 70
     0
  9
$DIMTIH
 70
     1
  9
$DIMTOH
 70
     1
  9
$DIMSE1
 70
     0
  9
$DIMSE2
 70
     0
  9
$DIMTAD
 70
     1
  9
$DIMZIN
 70
     0
  9
$DIMBLK
  1

  9
$DIMASO
 70
     1
  9
$DIMSHO
 70
     1
  9
$DIMPOST
  1

  9
$DIMAPOST
  1

  9
$DIMALT
 70
     0
  9
$DIMALTD
 70
     3
  9
$DIMALTF
 40
0.0393700787
  9
$DIMLFAC
 40
1.0
  9
$DIMTOFL
 70
     1
  9
$DIMTVP
 40
0.0
  9
$DIMTIX
 70
     0
  9
$DIMSOXD
 70
     0
  9
$DIMSAH
 70
     0
  9
$DIMBLK1
  1

  9
$DIMBLK2
  1

  9
$DIMSTYLE
  2
ISO-25
  9
$DIMCLRD
 70
     0
  9
$DIMCLRE
 70
     0
  9
$DIMCLRT
 70
     0
  9
$DIMTFAC
 40
1.0
  9
$DIMGAP
 40
1.524
  9
$DIMJUST
 70
     0
  9
$DIMSD1
 70
     0
  9
$DIMSD2
 70
     0
  9
$DIMTOLJ
 70
     0
  9
$DIMTZIN
 70
     0
  9
$DIMALTZ
 70
     0
  9
$DIMALTTZ
 70
     0
  9
$DIMUPT
 70
     0
  9
$DIMDEC
 70
     2
  9
$DIMTDEC
 70
     3
  9
$DIMALTU
 70
     2
  9
$DIMALTTD
 70
     3
  9
$DIMTXSTY
  7
Standard
  9
$DIMAUNIT
 70
     0
  9
$DIMADEC
 70
     2
  9
$DIMALTRND
 40
0.0
  9
$DIMAZIN
 70
     0
  9
$DIMDSEP
 70
    44
  9
$DIMATFIT
 70
     3
  9
$DIMFRAC
 70
     0
  9
$DIMLDRBLK
  1

  9
$DIMLUNIT
 70
     2
  9
$DIMLWD
 70
    -2
  9
$DIMLWE
 70
    -2
  9
$DIMTMOVE
 70
     0
  9
$LUNITS
 70
     2
  9
$LUPREC
 70
     2
  9
$SKETCHINC
 40
1.0
  9
$FILLETRAD
 40
10.0
  9
$AUNITS
 70
     0
  9
$AUPREC
 70
     2
  9
$MENU
  1
.
  9
$ELEVATION
 40
0.0
  9
$PELEVATION
 40
0.0
  9
$THICKNESS
 40
0.0
  9
$LIMCHECK
 70
     0
  9
$CHAMFERA
 40
0.0
  9
$CHAMFERB
 40
0.0
  9
$CHAMFERC
 40
0.0
  9
$CHAMFERD
 40
0.0
  9
$SKPOLY
 70
     0
  9
$TDCREATE
 40
2457627.461759907
  9
$TDUCREATE
 40
2457627.378426574
  9
$TDUPDATE
 40
2457627.461761192
  9
$TDUUPDATE
 40
2457627.378427859
  9
$TDINDWG
 40
0.0000000116
  9
$TDUSRTIMER
 40
0.0000000116
  9
$USRTIMER
 70
     1
  9
$ANGBASE
 50
0.0
  9
$ANGDIR
 70
     0
  9
$PDMODE
 70
     0
  9
$PDSIZE
 40
-1.0
  9
$PLINEWID
 40
0.0
  9
$SPLFRAME
 70
     0
  9
$SPLINETYPE
 70
     6
  9
$SPLINESEGS
 70
     8
  9
$HANDSEED
  5
241
  9
$SURFTAB1
 70
     6
  9
$SURFTAB2
 70
     6
  9
$SURFTYPE
 70
     6
  9
$SURFU
 70
     6
  9
$SURFV
 70
     6
  9
$UCSBASE
  2

  9
$UCSNAME
  2

  9
$UCSORG
 10
0.0
 20
0.0
 30
0.0
  9
$UCSXDIR
 10
1.0
 20
0.0
 30
0.0
  9
$UCSYDIR
 10
0.0
 20
1.0
 30
0.0
  9
$UCSORTHOREF
  2

  9
$UCSORTHOVIEW
 70
     0
  9
$UCSORGTOP
 10
0.0
 20
0.0
 30
0.0
  9
$UCSORGBOTTOM
 10
0.0
 20
0.0
 30
0.0
  9
$UCSORGLEFT
 10
0.0
 20
0.0
 30
0.0
  9
$UCSORGRIGHT
 10
0.0
 20
0.0
 30
0.0
  9
$UCSORGFRONT
 10
0.0
 20
0.0
 30
0.0
  9
$UCSORGBACK
 10
0.0
 20
0.0
 30
0.0
  9
$PUCSBASE
  2

  9
$PUCSNAME
  2

  9
$PUCSORG
 10
0.0
 20
0.0
 30
0.0
  9
$PUCSXDIR
 10
1.0
 20
0.0
 30
0.0
  9
$PUCSYDIR
 10
0.0
 20
1.0
 30
0.0
  9
$PUCSORTHOREF
  2

  9
$PUCSORTHOVIEW
 70
     0
  9
$PUCSORGTOP
 10
0.0
 20
0.0
 30
0.0
  9
$PUCSORGBOTTOM
 10
0.0
 20
0.0
 30
0.0
  9
$PUCSORGLEFT
 10
0.0
 20
0.0
 30
0.0
  9
$PUCSORGRIGHT
 10
0.0
 20
0.0
 30
0.0
  9
$PUCSORGFRONT
 10
0.0
 20
0.0
 30
0.0
  9
$PUCSORGBACK
 10
0.0
 20
0.0
 30
0.0
  9
$USERI1
 70
     0
  9
$USERI2
 70
     0
  9
$USERI3
 70
     0
  9
$USERI4
 70
     0
  9
$USERI5
 70
     0
  9
$USERR1
 40
0.0
  9
$USERR2
 40
0.0
  9
$USERR3
 40
0.0
  9
$USERR4
 40
0.0
  9
$USERR5
 40
0.0
  9
$WORLDVIEW
 70
     1
  9
$SHADEDGE
 70
     3
  9
$SHADEDIF
 70
    70
  9
$TILEMODE
 70
     1
  9
$MAXACTVP
 70
    64
  9
$PINSBASE
 10
0.0
 20
0.0
 30
0.0
  9
$PLIMCHECK
 70
     0
  9
$PEXTMIN
 10
1.0000000000E+20
 20
1.0000000000E+20
 30
1.0000000000E+20
  9
$PEXTMAX
 10
-1.0000000000E+20
 20
-1.0000000000E+20
 30
-1.0000000000E+20
  9
$PLIMMIN
 10
0.0
 20
0.0
  9
$PLIMMAX
 10
420.0
 20
297.0
  9
$UNITMODE
 70
     0
  9
$VISRETAIN
 70
     1
  9
$PLINEGEN
 70
     0
  9
$PSLTSCALE
 70
     1
  9
$TREEDEPTH
 70
  3020
  9
$CMLSTYLE
  2
Standard
  9
$CMLJUST
 70
     0
  9
$CMLSCALE
 40
20.0
  9
$PROXYGRAPHICS
 70
     1
  9
$MEASUREMENT
 70
     1
  9
$CELWEIGHT
370
    -1
  9
$ENDCAPS
280
     0
  9
$JOINSTYLE
280
     0
  9
$LWDISPLAY
290
     1
  9
$INSUNITS
 70
     4
  9
$HYPERLINKBASE
  1

  9
$STYLESHEET
  1

  9
$XEDIT
290
     1
  9
$CEPSNTYPE
380
     0
  9
$PSTYLEMODE
290
     1
  9
$FINGERPRINTGUID
  2
{9278C1EF-8E0B-43A5-A98F-D15BCCADD238}
  9
$VERSIONGUID
  2
{FAEB1C32-E019-11D5-929B-00C0DF256EC4}
  9
$EXTNAMES
290
     1
  9
$PSVPSCALE
 40
0.0
  9
$OLESTARTUP
290
     0
  0
ENDSEC
  0
SECTION
  2
CLASSES
  0
CLASS
  1
ACDBDICTIONARYWDFLT
  2
AcDbDictionaryWithDefault
  3
ObjectDBX Classes
 90
        0
280
     0
281
     0
  0
CLASS
  1
VISUALSTYLE
  2
AcDbVisualStyle
  3
ObjectDBX Classes
 90
     4095
280
     0
281
     0
  0
CLASS
  1
MATERIAL
  2
AcDbMaterial
  3
ObjectDBX Classes
 90
     1153
280
     0
281
     0
  0
CLASS
  1
SCALE
  2
AcDbScale
  3
ObjectDBX Classes
 90
     1153
280
     0
281
     0
  0
CLASS
  1
TABLESTYLE
  2
AcDbTableStyle
  3
ObjectDBX Classes
 90
     4095
280
     0
281
     0
  0
CLASS
  1
MLEADERSTYLE
  2
AcDbMLeaderStyle
  3
ACDB_MLEADERSTYLE_CLASS
 90
     4095
280
     0
281
     0
  0
CLASS
  1
SUN
  2
AcDbSun
  3
SCENEOE
 90
     1153
280
     0
281
     0
  0
CLASS
  1
ACDBPLACEHOLDER
  2
AcDbPlaceHolder
  3
ObjectDBX Classes
 90
        0
280
     0
281
     0
  0
CLASS
  1
LAYOUT
  2
AcDbLayout
  3
ObjectDBX Classes
 90
        0
280
     0
281
     0
  0
ENDSEC
  0
SECTION
  2
TABLES
  0
TABLE
  2
VPORT
  5
8
330
0
100
AcDbSymbolTable
 70
     1
  0
VPORT
  5
29
330
8
100
AcDbSymbolTableRecord
100
AcDbViewportTableRecord
  2
*Active
 70
     0
 10
0.0
 20
0.0
 11
1.0
 21
1.0
 12
148.5
 22
105.0
 13
0.0
 23
0.0
 14
10.0
 24
10.0
 15
10.0
 25
10.0
 16
0.0
 26
0.0
 36
1.0
 17
0.0
 27
0.0
 37
0.0
 40
210.0
 41
1.4142857143
 42
50.0
 43
0.0
 44
0.0
 50
0.0
 51
0.0
 71
     0
 72
  2000
 73
     1
 74
     3
 75
     0
 76
     0
 77
     0
 78
     0
281
     0
 65
     1
110
0.0
120
0.0
130
0.0
111
1.0
121
0.0
131
0.0
112
0.0
122
1.0
132
0.0
 79
     0
146
0.0
  0
ENDTAB
  0
TABLE
  2
LTYPE
  5
5
330
0
100
AcDbSymbolTable
 70
     6
  0
LTYPE
  5
14
330
5
100
AcDbSymbolTableRecord
100
AcDbLinetypeTableRecord
  2
ByBlock
 70
     0
  3

 72
    65
 73
     0
 40
0.0
  0
LTYPE
  5
15
330
5
100
AcDbSymbolTableRecord
100
AcDbLinetypeTableRecord
  2
ByLayer
 70
     0
  3

 72
    65
 73
     0
 40
0.0
  0
LTYPE
  5
16
330
5
100
AcDbSymbolTableRecord
100
AcDbLinetypeTableRecord
  2
Continuous
 70
     0
  3
Solid line
 72
    65
 73
     0
 40
0.0
  0
LTYPE
  5
6E
330
5
100
AcDbSymbolTableRecord
100
AcDbLinetypeTableRecord
  2
HIDDEN
 70
     0
  3
Hidden __ __ __ __ __ __ __ __ __ __ __ __ __ __
 72
    65
 73
     2
 40
1.905
 49
1.27
 74
     0
 49
-0.635
 74
     0
  0
LTYPE
  5
6F
330
5
100
AcDbSymbolTableRecord
100
AcDbLinetypeTableRecord
  2
PHANTOM
 70
     0
  3
Phantom ______  __  __  ______  __  __  ______
 72
    65
 73
     6
 40
12.7
 49
6.35
 74
     0
 49
-1.27
 74
     0
 49
1.27
 74
     0
 49
-1.27
 74
     0
 49
1.27
 74
     0
 49
-1.27
 74
     0
  0
LTYPE
  5
70
330
5
100
AcDbSymbolTableRecord
100
AcDbLinetypeTableRecord
  2
CENTER
 70
     0
  3
Center ____ _ ____ _ ____ _ ____ _ ____ _ ____
 72
    65
 73
     4
 40
10.16
 49
6.35
 74
     0
 49
-1.27
 74
     0
 49
1.27
 74
     0
 49
-1.27
 74
     0
  0
LTYPE
  5
71
330
5
100
AcDbSymbolTableRecord
100
AcDbLinetypeTableRecord
  2
CENTERX2
 70
     0
  3
Center (2x) ________  __  ________  __  _____
 72
    65
 73
     4
 40
20.32
 49
12.7
 74
     0
 49
-2.54
 74
     0
 49
2.54
 74
     0
 49
-2.54
 74
     0
  0
LTYPE
  5
72
330
5
100
AcDbSymbolTableRecord
100
AcDbLinetypeTableRecord
  2
DOT2
 70
     0
  3
Dot (.5x) ........................................
 72
    65
 73
     2
 40
0.635
 49
0.0
 74
     0
 49
-0.635
 74
     0
  0
ENDTAB
  0
TABLE
  2
LAYER
  5
2
330
0
100
AcDbSymbolTable
 70
     5
  0
LAYER
  5
10
330
2
100
AcDbSymbolTableRecord
100
AcDbLayerTableRecord
  2
0
 70
     0
 62
     7
  6
Continuous
370
    -3
390
F
  0
LAYER
  5
73
330
2
100
AcDbSymbolTableRecord
100
AcDbLayerTableRecord
  2
FORMAT
 70
     0
 62
     7
  6
Continuous
370
    -3
390
F
  0
LAYER
  5
74
330
2
100
AcDbSymbolTableRecord
100
AcDbLayerTableRecord
  2
VERMASSUNG
 70
     0
 62
     7
  6
Continuous
370
    -3
390
F
  0
LAYER
  5
75
330
2
100
AcDbSymbolTableRecord
100
AcDbLayerTableRecord
  2
KOPF_DÜNN
 70
     0
 62
     7
  6
Continuous
370
    -3
390
F
  0
LAYER
  5
76
330
2
100
AcDbSymbolTableRecord
100
AcDbLayerTableRecord
  2
KOPF_DICK
 70
     0
 62
     7
  6
Continuous
370
    15
390
F
  0
ENDTAB
  0
TABLE
  2
STYLE
  5
3
330
0
100
AcDbSymbolTable
 70
     3
  0
STYLE
  5
11
330
3
100
AcDbSymbolTableRecord
100
AcDbTextStyleTableRecord
  2
Standard
 70
     0
 40
0.0
 41
1.0
 50
0.0
 71
     0
 42
2.0
  3
txt
  4

  0
STYLE
  5
77
330
3
100
AcDbSymbolTableRecord
100
AcDbTextStyleTableRecord
  2
SLDTEXTSTYLE0
 70
     0
 40
0.0
 41
0.7
 50
0.0
 71
     0
 42
2.0
  3
TXT
  4

  0
STYLE
  5
7B
330
3
100
AcDbSymbolTableRecord
100
AcDbTextStyleTableRecord
  2
SLDTEXTSTYLE1
 70
     0
 40
0.0
 41
0.6466666667
 50
0.0
 71
     0
 42
2.0
  3
TXT
  4

  0
ENDTAB
  0
TABLE
  2
VIEW
  5
6
330
0
100
AcDbSymbolTable
 70
     0
  0
ENDTAB
  0
TABLE
  2
UCS
  5
7
330
0
100
AcDbSymbolTable
 70
     0
  0
ENDTAB
  0
TABLE
  2
APPID
  5
9
330
0
100
AcDbSymbolTable
 70
     1
  0
APPID
  5
12
330
9
100
AcDbSymbolTableRecord
100
AcDbRegAppTableRecord
  2
ACAD
 70
     0
  0
ENDTAB
  0
TABLE
  2
DIMSTYLE
  5
A
330
0
100
AcDbSymbolTable
 70
     2
100
AcDbDimStyleTable
  0
DIMSTYLE
105
27
330
A
100
AcDbSymbolTableRecord
100
AcDbDimStyleTableRecord
  2
ISO-25
 70
     0
 41
2.5
 42
0.625
 43
3.75
 44
1.25
 73
     0
 74
     0
 77
     1
 78
     8
140
2.5
141
2.5
143
0.0393700787
147
0.625
171
     3
172
     1
178
     0
271
     2
272
     2
274
     3
278
    44
283
     0
284
     8
340
11
  0
DIMSTYLE
105
155
102
{ACAD_REACTORS
330
154
330
161
330
16B
330
177
330
181
102
}
330
A
100
AcDbSymbolTableRecord
100
AcDbDimStyleTableRecord
  2
SLDDIMSTYLE0
 70
     0
 41
3.0
 44
0.0
 45
0.000000001
 73
     0
 74
     0
 77
     1
 78
    12
 79
     3
140
2.0
147
0.5
173
     1
178
     0
271
     2
272
     3
276
     2
284
    12
340
77
  0
ENDTAB
  0
TABLE
  2
BLOCK_RECORD
  5
1
330
0
100
AcDbSymbolTable
 70
     6
  0
BLOCK_RECORD
  5
1F
330
1
100
AcDbSymbolTableRecord
100
AcDbBlockTableRecord
  2
*Model_Space
340
22
  0
BLOCK_RECORD
  5
1B
330
1
100
AcDbSymbolTableRecord
100
AcDbBlockTableRecord
  2
*Paper_Space
340
1E
  0
BLOCK_RECORD
  5
23
330
1
100
AcDbSymbolTableRecord
100
AcDbBlockTableRecord
  2
*Paper_Space0
340
26
  0
BLOCK_RECORD
  5
156
330
1
100
AcDbSymbolTableRecord
100
AcDbBlockTableRecord
  2
_D
340
0
  0
BLOCK_RECORD
  5
162
330
1
100
AcDbSymbolTableRecord
100
AcDbBlockTableRecord
  2
_D_1
340
0
  0
BLOCK_RECORD
  5
16C
330
1
100
AcDbSymbolTableRecord
100
AcDbBlockTableRecord
  2
_D_2
340
0
  0
BLOCK_RECORD
  5
178
330
1
100
AcDbSymbolTableRecord
100
AcDbBlockTableRecord
  2
_D_3
340
0
  0
BLOCK_RECORD
  5
182
330
1
100
AcDbSymbolTableRecord
100
AcDbBlockTableRecord
  2
_D_4
340
0
  0
ENDTAB
  0
ENDSEC
  0
SECTION
  2
BLOCKS
  0
BLOCK
  5
20
330
1F
100
AcDbEntity
  8
0
100
AcDbBlockBegin
  2
*Model_Space
 70
     0
 10
0.0
 20
0.0
 30
0.0
  3
*Model_Space
  1

  0
ENDBLK
  5
21
330
1F
100
AcDbEntity
  8
0
100
AcDbBlockEnd
  0
BLOCK
  5
1C
330
1B
100
AcDbEntity
 67
     1
  8
0
100
AcDbBlockBegin
  2
*Paper_Space
 70
     0
 10
0.0
 20
0.0
 30
0.0
  3
*Paper_Space
  1

  0
ENDBLK
  5
1D
330
1B
100
AcDbEntity
 67
     1
  8
0
100
AcDbBlockEnd
  0
BLOCK
  5
24
330
23
100
AcDbEntity
  8
0
100
AcDbBlockBegin
  2
*Paper_Space0
 70
     0
 10
0.0
 20
0.0
 30
0.0
  3
*Paper_Space0
  1

  0
ENDBLK
  5
25
330
23
100
AcDbEntity
  8
0
100
AcDbBlockEnd
  0
BLOCK
  5
157
330
156
100
AcDbEntity
  8
0
100
AcDbBlockBegin
  2
_D
 70
     0
 10
0.0
 20
0.0
 30
0.0
  3
_D
  1

  0
SOLID
  5
159
330
156
100
AcDbEntity
  8
VERMASSUNG
100
AcDbTrace
 10
98.6823865919
 20
82.6588488907
 30
0.0
 11
99.1323865919
 21
85.6588488907
 31
0.0
 12
98.2323865919
 22
85.6588488907
 32
0.0
 13
98.2323865919
 23
85.6588488907
 33
0.0
  0
SOLID
  5
15A
330
156
100
AcDbEntity
  8
VERMASSUNG
100
AcDbTrace
 10
98.6823865919
 20
132.6088488907
 30
0.0
 11
98.2323865919
 21
129.6088488907
 31
0.0
 12
99.1323865919
 22
129.6088488907
 32
0.0
 13
99.1323865919
 23
129.6088488907
 33
0.0
  0
LINE
  5
15B
330
156
100
AcDbEntity
  8
VERMASSUNG
100
AcDbLine
 10
154.9582235232
 20
82.6588488907
 30
0.0
 11
97.6823865919
 21
82.6588488907
 31
0.0
  0
LINE
  5
15C
330
156
100
AcDbEntity
  8
VERMASSUNG
100
AcDbLine
 10
154.9582235232
 20
132.6088488907
 30
0.0
 11
97.6823865919
 21
132.6088488907
 31
0.0
  0
LINE
  5
15D
330
156
100
AcDbEntity
  8
VERMASSUNG
100
AcDbLine
 10
98.6823865919
 20
82.6588488907
 30
0.0
 11
98.6823865919
 21
132.6088488907
 31
0.0
  0
MTEXT
  5
15E
330
156
100
AcDbEntity
  8
VERMASSUNG
100
AcDbMText
 10
95.9042513356
 20
98.1294132573
 30
0.0
 40
2.0
 41
0.0
 71
     1
 72
     1
  1
ISO 30
  7
SLDTEXTSTYLE0
 11
3.391901413832837E-15
 21
1.0
 31
0.0
 73
     1
 44
1.0
  0
MTEXT
  5
15F
330
156
100
AcDbEntity
  8
VERMASSUNG
100
AcDbMText
 10
96.1042512869
 20
107.1294128699
 30
0.0
 40
2.0
 41
0.0
 71
     1
 72
     1
  1
%%c
  7
SLDTEXTSTYLE0
 11
3.391901413832837E-15
 21
1.0
 31
0.0
 73
     1
 44
1.0
  0
MTEXT
  5
160
330
156
100
AcDbEntity
  8
VERMASSUNG
100
AcDbMText
 10
96.1042509959
 20
110.7387562028
 30
0.0
 40
2.0
 41
0.0
 71
     1
 72
     1
  1
49.95
  7
SLDTEXTSTYLE0
 11
3.391901413832837E-15
 21
1.0
 31
0.0
 73
     1
 44
1.0
  0
ENDBLK
  5
158
330
156
100
AcDbEntity
  8
0
100
AcDbBlockEnd
  0
BLOCK
  5
163
330
162
100
AcDbEntity
  8
0
100
AcDbBlockBegin
  2
_D_1
 70
     0
 10
0.0
 20
0.0
 30
0.0
  3
_D_1
  1

  0
SOLID
  5
165
330
162
100
AcDbEntity
  8
VERMASSUNG
100
AcDbTrace
 10
151.1582235232
 20
141.7194624082
 30
0.0
 11
154.1582235232
 21
141.2694624082
 31
0.0
 12
154.1582235232
 22
142.1694624082
 32
0.0
 13
154.1582235232
 23
142.1694624082
 33
0.0
  0
SOLID
  5
166
330
162
100
AcDbEntity
  8
VERMASSUNG
100
AcDbTrace
 10
190.2582235232
 20
141.7194624082
 30
0.0
 11
187.2582235232
 21
142.1694624082
 31
0.0
 12
187.2582235232
 22
141.2694624082
 32
0.0
 13
187.2582235232
 23
141.2694624082
 33
0.0
  0
LINE
  5
167
330
162
100
AcDbEntity
  8
VERMASSUNG
100
AcDbLine
 10
151.1582235232
 20
123.5088488907
 30
0.0
 11
151.1582235232
 21
142.7194624082
 31
0.0
  0
LINE
  5
168
330
162
100
AcDbEntity
  8
VERMASSUNG
100
AcDbLine
 10
190.2582235232
 20
123.3338488907
 30
0.0
 11
190.2582235232
 21
142.7194624082
 31
0.0
  0
LINE
  5
169
330
162
100
AcDbEntity
  8
VERMASSUNG
100
AcDbLine
 10
151.1582235232
 20
141.7194624082
 30
0.0
 11
190.2582235232
 21
141.7194624082
 31
0.0
  0
MTEXT
  5
16A
330
162
100
AcDbEntity
  8
VERMASSUNG
100
AcDbMText
 10
168.5088682194
 20
144.2975980042
 30
0.0
 40
2.0
 41
0.0
 71
     1
 72
     1
  1
39.1
  7
SLDTEXTSTYLE0
 73
     1
 44
1.0
  0
ENDBLK
  5
164
330
162
100
AcDbEntity
  8
0
100
AcDbBlockEnd
  0
BLOCK
  5
16D
330
16C
100
AcDbEntity
  8
0
100
AcDbBlockBegin
  2
_D_2
 70
     0
 10
0.0
 20
0.0
 30
0.0
  3
_D_2
  1

  0
ARC
  5
16F
330
16C
100
AcDbEntity
  8
VERMASSUNG
100
AcDbCircle
 10
145.9950170351
 20
149.6188053536
 30
0.0
 40
4.247059938537233
100
AcDbArc
 50
153.4349488229
 51
206.5650511771
  0
ARC
  5
170
330
16C
100
AcDbEntity
  8
VERMASSUNG
100
AcDbCircle
 10
147.7714300114
 20
149.6188053536
 30
0.0
 40
4.247059938537233
100
AcDbArc
 50
333.4349488229
 51
26.5650511771
  0
SOLID
  5
171
330
16C
100
AcDbEntity
  8
VERMASSUNG
100
AcDbTrace
 10
103.5082235232
 20
147.7194624082
 30
0.0
 11
106.5082235232
 21
147.2694624082
 31
0.0
 12
106.5082235232
 22
148.1694624082
 32
0.0
 13
106.5082235232
 23
148.1694624082
 33
0.0
  0
SOLID
  5
172
330
16C
100
AcDbEntity
  8
VERMASSUNG
100
AcDbTrace
 10
190.2582235232
 20
147.7194624082
 30
0.0
 11
187.2582235232
 21
148.1694624082
 31
0.0
 12
187.2582235232
 22
147.2694624082
 32
0.0
 13
187.2582235232
 23
147.2694624082
 33
0.0
  0
LINE
  5
173
330
16C
100
AcDbEntity
  8
VERMASSUNG
100
AcDbLine
 10
103.5082235232
 20
115.6951461544
 30
0.0
 11
103.5082235232
 21
148.7194624082
 31
0.0
  0
LINE
  5
174
330
16C
100
AcDbEntity
  8
VERMASSUNG
100
AcDbLine
 10
190.2582235232
 20
123.3338488907
 30
0.0
 11
190.2582235232
 21
148.7194624082
 31
0.0
  0
LINE
  5
175
330
16C
100
AcDbEntity
  8
VERMASSUNG
100
AcDbLine
 10
103.5082235232
 20
147.7194624082
 30
0.0
 11
190.2582235232
 21
147.7194624082
 31
0.0
  0
MTEXT
  5
176
330
16C
100
AcDbEntity
  8
VERMASSUNG
100
AcDbMText
 10
143.7838311443
 20
150.2975980042
 30
0.0
 40
2.0
 41
0.0
 71
     1
 72
     1
  1
86.75
  7
SLDTEXTSTYLE0
 73
     1
 44
1.0
  0
ENDBLK
  5
16E
330
16C
100
AcDbEntity
  8
0
100
AcDbBlockEnd
  0
BLOCK
  5
179
330
178
100
AcDbEntity
  8
0
100
AcDbBlockBegin
  2
_D_3
 70
     0
 10
0.0
 20
0.0
 30
0.0
  3
_D_3
  1

  0
SOLID
  5
17B
330
178
100
AcDbEntity
  8
VERMASSUNG
100
AcDbTrace
 10
170.2082235232
 20
135.7194624082
 30
0.0
 11
173.2082235232
 21
135.2694624082
 31
0.0
 12
173.2082235232
 22
136.1694624082
 32
0.0
 13
173.2082235232
 23
136.1694624082
 33
0.0
  0
SOLID
  5
17C
330
178
100
AcDbEntity
  8
VERMASSUNG
100
AcDbTrace
 10
190.2582235232
 20
135.7194624082
 30
0.0
 11
187.2582235232
 21
136.1694624082
 31
0.0
 12
187.2582235232
 22
135.2694624082
 32
0.0
 13
187.2582235232
 23
135.2694624082
 33
0.0
  0
LINE
  5
17D
330
178
100
AcDbEntity
  8
VERMASSUNG
100
AcDbLine
 10
170.2082235232
 20
130.5452065046
 30
0.0
 11
170.2082235232
 21
136.7194624082
 31
0.0
  0
LINE
  5
17E
330
178
100
AcDbEntity
  8
VERMASSUNG
100
AcDbLine
 10
190.2582235232
 20
123.3338488907
 30
0.0
 11
190.2582235232
 21
136.7194624082
 31
0.0
  0
LINE
  5
17F
330
178
100
AcDbEntity
  8
VERMASSUNG
100
AcDbLine
 10
170.2082235232
 20
135.7194624082
 30
0.0
 11
190.2582235232
 21
135.7194624082
 31
0.0
  0
MTEXT
  5
180
330
178
100
AcDbEntity
  8
VERMASSUNG
100
AcDbMText
 10
177.1338311443
 20
138.2975980042
 30
0.0
 40
2.0
 41
0.0
 71
     1
 72
     1
  1
20.05
  7
SLDTEXTSTYLE0
 73
     1
 44
1.0
  0
ENDBLK
  5
17A
330
178
100
AcDbEntity
  8
0
100
AcDbBlockEnd
  0
BLOCK
  5
183
330
182
100
AcDbEntity
  8
0
100
AcDbBlockBegin
  2
_D_4
 70
     0
 10
0.0
 20
0.0
 30
0.0
  3
_D_4
  1

  0
SOLID
  5
185
330
182
100
AcDbEntity
  8
VERMASSUNG
100
AcDbTrace
 10
197.6303154667
 20
123.6338488907
 30
0.0
 11
197.1803154667
 21
120.6338488907
 31
0.0
 12
198.0803154667
 22
120.6338488907
 32
0.0
 13
198.0803154667
 23
120.6338488907
 33
0.0
  0
SOLID
  5
186
330
182
100
AcDbEntity
  8
VERMASSUNG
100
AcDbTrace
 10
197.6303154667
 20
91.6338488907
 30
0.0
 11
198.0803154667
 21
94.6338488907
 31
0.0
 12
197.1803154667
 22
94.6338488907
 32
0.0
 13
197.1803154667
 23
94.6338488907
 33
0.0
  0
LINE
  5
187
330
182
100
AcDbEntity
  8
VERMASSUNG
100
AcDbLine
 10
189.9582235232
 20
123.6338488907
 30
0.0
 11
198.6303154667
 21
123.6338488907
 31
0.0
  0
LINE
  5
188
330
182
100
AcDbEntity
  8
VERMASSUNG
100
AcDbLine
 10
189.9582235232
 20
91.6338488907
 30
0.0
 11
198.6303154667
 21
91.6338488907
 31
0.0
  0
LINE
  5
189
330
182
100
AcDbEntity
  8
VERMASSUNG
100
AcDbLine
 10
197.6303154667
 20
123.6338488907
 30
0.0
 11
197.6303154667
 21
91.6338488907
 31
0.0
  0
MTEXT
  5
18A
330
182
100
AcDbEntity
  8
VERMASSUNG
100
AcDbMText
 10
194.8521802104
 20
101.2288492471
 30
0.0
 40
2.0
 41
0.0
 71
     1
 72
     1
  1
MBM
  7
SLDTEXTSTYLE0
 11
-7.044195017643634E-15
 21
1.0
 31
0.0
 73
     1
 44
1.0
  0
MTEXT
  5
18B
330
182
100
AcDbEntity
  8
VERMASSUNG
100
AcDbMText
 10
195.0521801617
 20
107.6288490855
 30
0.0
 40
2.0
 41
0.0
 71
     1
 72
     1
  1
%%c
  7
SLDTEXTSTYLE0
 11
-7.044195017643634E-15
 21
1.0
 31
0.0
 73
     1
 44
1.0
  0
MTEXT
  5
18C
330
182
100
AcDbEntity
  8
VERMASSUNG
100
AcDbMText
 10
194.8521802104
 20
111.2388495654
 30
0.0
 40
2.0
 41
0.0
 71
     1
 72
     1
  1
32
  7
SLDTEXTSTYLE0
 11
-7.044195017643634E-15
 21
1.0
 31
0.0
 73
     1
 44
1.0
  0
ENDBLK
  5
184
330
182
100
AcDbEntity
  8
0
100
AcDbBlockEnd
  0
ENDSEC
  0
SECTION
  2
ENTITIES
  0
MTEXT
  5
78
330
1F
100
AcDbEntity
  8
KOPF_DÜNN
100
AcDbMText
 10
13.8892156294
 20
23.8442973028
 30
0.0
 40
3.0
 41
0.0
 71
     1
 72
     1
  1
102.325.321
  7
SLDTEXTSTYLE0
 73
     1
 44
1.0
  0
MTEXT
  5
79
330
1F
100
AcDbEntity
  8
VERMASSUNG
100
AcDbMText
 10
13.9329988022
 20
28.8834360957
 30
0.0
 40
3.0
 41
0.0
 71
     1
 72
     1
  1
Aufnahme_Master shank MBM 32
  7
SLDTEXTSTYLE0
 73
     1
 44
1.0
  0
MTEXT
  5
7A
330
1F
100
AcDbEntity
  8
VERMASSUNG
100
AcDbMText
 10
98.8601118557
 20
13.8365368761
 30
0.0
 40
2.0
 41
0.0
 71
     1
 72
     1
  1
Datum: 05.11.2007
  7
SLDTEXTSTYLE0
 73
     1
 44
1.0
  0
MTEXT
  5
7C
330
1F
100
AcDbEntity
  8
VERMASSUNG
100
AcDbMText
 10
13.933048693
 20
18.0482802738
 30
0.0
 40
2.0
 41
0.0
 71
     1
 72
     1
  1
DIN 69 871 B 30
  7
SLDTEXTSTYLE1
 73
     1
 44
1.0
  0
MTEXT
  5
7D
330
1F
100
AcDbEntity
  8
VERMASSUNG
100
AcDbMText
 10
13.9808475933
 20
13.9090974274
 30
0.0
 40
2.0
 41
0.0
 71
     1
 72
     1
  1
Gewicht: 446g
  7
SLDTEXTSTYLE0
 73
     1
 44
1.0
  0
ARC
  5
7E
330
1F
100
AcDbEntity
  8
0
  6
Continuous
 62
     7
370
    15
100
AcDbCircle
 10
173.2082235232
 20
88.6338488907
 30
0.0
 40
2.999999999999999
100
AcDbArc
 50
90.0
 51
111.0619119023
  0
ARC
  5
7F
330
1F
100
AcDbEntity
  8
0
  6
Continuous
 62
     7
370
    15
100
AcDbCircle
 10
173.2082235232
 20
126.6338488907
 30
0.0
 40
3.000000000000014
100
AcDbArc
 50
182.9358475849
 51
270.0
  0
ARC
  5
80
330
1F
100
AcDbEntity
  8
0
  6
Continuous
 62
     7
370
    15
100
AcDbCircle
 10
153.7582235232
 20
91.1588488907
 30
0.0
 40
0.5999999999999943
100
AcDbArc
 50
0.0
 51
90.0
  0
ARC
  5
81
330
1F
100
AcDbEntity
  8
0
  6
Continuous
 62
     7
370
    15
100
AcDbCircle
 10
153.7582235232
 20
124.1088488907
 30
0.0
 40
0.6000000000000085
100
AcDbArc
 50
270.0
 51
0.0
  0
LINE
  5
82
330
1F
100
AcDbEntity
  8
0
  6
Continuous
 62
     7
370
    15
100
AcDbLine
 10
173.2082235232
 20
91.6338488907
 30
0.0
 11
189.9582235232
 21
91.6338488907
 31
0.0
  0
LINE
  5
83
330
1F
100
AcDbEntity
  8
0
  6
Continuous
 62
     7
370
    15
100
AcDbLine
 10
189.9582235232
 20
123.6338488907
 30
0.0
 11
173.2082235232
 21
123.6338488907
 31
0.0
  0
LINE
  5
84
330
1F
100
AcDbEntity
  8
0
  6
Continuous
 62
     7
370
    15
100
AcDbLine
 10
189.9582235232
 20
91.6338488907
 30
0.0
 11
190.2582235232
 21
91.9338488907
 31
0.0
  0
LINE
  5
85
330
1F
100
AcDbEntity
  8
0
  6
Continuous
 62
     7
370
    15
100
AcDbLine
 10
190.2582235232
 20
123.3338488907
 30
0.0
 11
189.9582235232
 21
123.6338488907
 31
0.0
  0
LINE
  5
86
330
1F
100
AcDbEntity
  8
0
  6
Continuous
 62
     7
370
    15
100
AcDbLine
 10
151.1582235232
 20
123.5088488907
 30
0.0
 11
104.3639166302
 21
116.6846791355
 31
0.0
  0
LINE
  5
87
330
1F
100
AcDbEntity
  8
0
  6
Continuous
 62
     7
370
    15
100
AcDbLine
 10
104.3639166302
 20
98.5830186459
 30
0.0
 11
151.1582235232
 21
91.7588488907
 31
0.0
  0
LINE
  5
88
330
1F
100
AcDbEntity
  8
0
  6
Continuous
 62
     7
370
    15
100
AcDbLine
 10
151.1582235232
 20
91.7588488907
 30
0.0
 11
153.7582235232
 21
91.7588488907
 31
0.0
  0
LINE
  5
89
330
1F
100
AcDbEntity
  8
0
  6
Continuous
 62
     7
370
    15
100
AcDbLine
 10
153.7582235232
 20
123.5088488907
 30
0.0
 11
151.1582235232
 21
123.5088488907
 31
0.0
  0
ARC
  5
8A
330
1F
100
AcDbEntity
  8
0
  6
Continuous
 62
     7
370
    15
100
AcDbCircle
 10
104.5082235232
 20
99.572551627
 30
0.0
 40
1.00000000000001
100
AcDbArc
 50
180.0
 51
261.7028550302
  0
ARC
  5
8B
330
1F
100
AcDbEntity
  8
0
  6
Continuous
 62
     7
370
    15
100
AcDbCircle
 10
104.5082235232
 20
115.6951461544
 30
0.0
 40
1.00000000000001
100
AcDbArc
 50
98.2971449698
 51
180.0
  0
SPLINE
  5
8C
330
1F
100
AcDbEntity
  8
0
  6
Continuous
 62
     7
370
    15
100
AcDbSpline
210
0.0
220
0.0
230
1.0
 70
    24
 71
     3
 72
    11
 73
     7
 74
     0
 42
0.000000001
 43
0.00000001
 40
0.0
 40
0.0
 40
0.0
 40
0.0
 40
0.1323877169514958
 40
0.4819434960836145
 40
0.8154866441480849
 40
1.0
 40
1.0
 40
1.0
 40
1.0
 10
182.112924061621
 20
105.6338488907061
 30
0.0
 10
182.0171119179372
 20
105.6338488907061
 30
0.0
 10
181.6683179319274
 20
105.6338488907061
 30
0.0
 10
181.0161098240097
 20
105.6338488907061
 30
0.0
 10
180.3142052625492
 20
105.6338488907061
 30
0.0
 10
179.9376416059789
 20
105.6338488907061
 30
0.0
 10
179.8035229848625
 20
105.6338488907061
 30
0.0
  0
SPLINE
  5
8D
330
1F
100
AcDbEntity
  8
0
  6
Continuous
 62
     7
370
    15
100
AcDbSpline
210
0.0
220
0.0
230
1.0
 70
    24
 71
     3
 72
    11
 73
     7
 74
     0
 42
0.000000001
 43
0.00000001
 40
0.0
 40
0.0
 40
0.0
 40
0.0
 40
0.2164526859271179
 40
0.4403055508634027
 40
0.7518960204221908
 40
1.0
 40
1.0
 40
1.0
 40
1.0
 10
183.2676246000003
 20
107.6338488907061
 30
0.0
 10
183.1885274971116
 20
107.4968486897714
 30
0.0
 10
183.0276290850178
 20
107.2181644651679
 30
0.0
 10
182.7290428854916
 20
106.7009979971495
 30
0.0
 10
182.4087517414683
 20
106.1462374624869
 30
0.0
 10
182.2037833924026
 20
105.7912218679615
 30
0.0
 10
182.112924061621
 20
105.6338488907061
 30
0.0
  0
SPLINE
  5
8E
330
1F
100
AcDbEntity
  8
0
  6
Continuous
 62
     7
370
    15
100
AcDbSpline
210
0.0
220
0.0
230
1.0
 70
    24
 71
     3
 72
    11
 73
     7
 74
     0
 42
0.000000001
 43
0.00000001
 40
0.0
 40
0.0
 40
0.0
 40
0.0
 40
0.2164526859271181
 40
0.4403055508633988
 40
0.7518960204221907
 40
1.0
 40
1.0
 40
1.0
 40
1.0
 10
182.112924061621
 20
109.6338488907061
 30
0.0
 10
182.1920211645097
 20
109.4968486897714
 30
0.0
 10
182.3529195766035
 20
109.2181644651679
 30
0.0
 10
182.6515057761297
 20
108.7009979971495
 30
0.0
 10
182.971796920153
 20
108.1462374624869
 30
0.0
 10
183.1767652692187
 20
107.7912218679615
 30
0.0
 10
183.2676246000003
 20
107.6338488907061
 30
0.0
  0
SPLINE
  5
8F
330
1F
100
AcDbEntity
  8
0
  6
Continuous
 62
     7
370
    15
100
AcDbSpline
210
0.0
220
0.0
230
1.0
 70
    24
 71
     3
 72
    11
 73
     7
 74
     0
 42
0.000000001
 43
0.00000001
 40
0.0
 40
0.0
 40
0.0
 40
0.0
 40
0.1845133558519151
 40
0.5180565039163911
 40
0.8676122830485041
 40
1.0
 40
1.0
 40
1.0
 40
1.0
 10
179.8035229848625
 20
109.6338488907061
 30
0.0
 10
179.9376416059789
 20
109.6338488907061
 30
0.0
 10
180.3142052625492
 20
109.6338488907061
 30
0.0
 10
181.0161098240097
 20
109.6338488907061
 30
0.0
 10
181.6683179319274
 20
109.6338488907061
 30
0.0
 10
182.0171119179372
 20
109.6338488907061
 30
0.0
 10
182.112924061621
 20
109.6338488907061
 30
0.0
  0
SPLINE
  5
90
330
1F
100
AcDbEntity
  8
0
  6
Continuous
 62
     7
370
    15
100
AcDbSpline
210
0.0
220
0.0
230
1.0
 70
    24
 71
     3
 72
    11
 73
     7
 74
     0
 42
0.000000001
 43
0.00000001
 40
0.0
 40
0.0
 40
0.0
 40
0.0
 40
0.2164526859271193
 40
0.4403055508634033
 40
0.7518960204221925
 40
1.0
 40
1.0
 40
1.0
 40
1.0
 10
178.6488224464833
 20
107.6338488907061
 30
0.0
 10
178.727919549372
 20
107.7708490916409
 30
0.0
 10
178.8888179614657
 20
108.0495333162444
 30
0.0
 10
179.187404160992
 20
108.5666997842628
 30
0.0
 10
179.5076953050153
 20
109.1214603189255
 30
0.0
 10
179.712663654081
 20
109.4764759134508
 30
0.0
 10
179.8035229848625
 20
109.6338488907061
 30
0.0
  0
SPLINE
  5
91
330
1F
100
AcDbEntity
  8
0
  6
Continuous
 62
     7
370
    15
100
AcDbSpline
210
0.0
220
0.0
230
1.0
 70
    24
 71
     3
 72
    11
 73
     7
 74
     0
 42
0.000000001
 43
0.00000001
 40
0.0
 40
0.0
 40
0.0
 40
0.0
 40
0.2164526859271173
 40
0.4403055508633989
 40
0.7518960204221937
 40
1.0
 40
1.0
 40
1.0
 40
1.0
 10
179.8035229848625
 20
105.6338488907061
 30
0.0
 10
179.7244258819738
 20
105.7708490916409
 30
0.0
 10
179.5635274698801
 20
106.0495333162444
 30
0.0
 10
179.2649412703538
 20
106.5666997842628
 30
0.0
 10
178.9446501263305
 20
107.1214603189254
 30
0.0
 10
178.7396817772648
 20
107.4764759134508
 30
0.0
 10
178.6488224464833
 20
107.6338488907061
 30
0.0
  0
CIRCLE
  5
92
330
1F
100
AcDbEntity
  8
0
  6
Continuous
 62
     7
370
    15
100
AcDbCircle
 10
180.9582235232
 20
107.6338488907
 30
0.0
 40
2.34999999999998
  0
CIRCLE
  5
93
330
1F
100
AcDbEntity
  8
0
  6
Continuous
 62
     7
370
    15
100
AcDbCircle
 10
180.9582235232
 20
107.6338488907
 30
0.0
 40
3.5
  0
CIRCLE
  5
94
330
1F
100
AcDbEntity
  8
0
  6
Continuous
 62
     7
370
    15
100
AcDbCircle
 10
180.9582235232
 20
107.6338488907
 30
0.0
 40
4.0
  0
ARC
  5
95
330
1F
100
AcDbEntity
  8
0
  6
Continuous
 62
     7
370
    15
100
AcDbCircle
 10
180.9582235232
 20
107.6338488907
 30
0.0
 40
2.0
100
AcDbArc
 50
270.0
 51
330.0
  0
ARC
  5
96
330
1F
100
AcDbEntity
  8
0
  6
Continuous
 62
     7
370
    15
100
AcDbCircle
 10
180.9582235232
 20
107.6338488907
 30
0.0
 40
2.0
100
AcDbArc
 50
30.0
 51
90.0
  0
ARC
  5
97
330
1F
100
AcDbEntity
  8
0
  6
Continuous
 62
     7
370
    15
100
AcDbCircle
 10
180.9582235232
 20
107.6338488907
 30
0.0
 40
2.000000000000016
100
AcDbArc
 50
90.0
 51
150.0
  0
ARC
  5
98
330
1F
100
AcDbEntity
  8
0
  6
Continuous
 62
     7
370
    15
100
AcDbCircle
 10
180.9582235232
 20
107.6338488907
 30
0.0
 40
1.999999999999967
100
AcDbArc
 50
330.0
 51
30.0
  0
ARC
  5
99
330
1F
100
AcDbEntity
  8
0
  6
Continuous
 62
     7
370
    15
100
AcDbCircle
 10
180.9582235232
 20
107.6338488907
 30
0.0
 40
2.000000000000016
100
AcDbArc
 50
210.0
 51
270.0
  0
ARC
  5
9A
330
1F
100
AcDbEntity
  8
0
  6
Continuous
 62
     7
370
    15
100
AcDbCircle
 10
180.9582235232
 20
107.6338488907
 30
0.0
 40
2.000000000000016
100
AcDbArc
 50
150.0
 51
210.0
  0
LINE
  5
9B
330
1F
100
AcDbEntity
  8
0
  6
Continuous
 62
     7
370
    15
100
AcDbLine
 10
165.6212888413
 20
84.3261138335
 30
0.0
 11
169.6082235232
 21
84.3261138335
 31
0.0
  0
LINE
  5
9C
330
1F
100
AcDbEntity
  8
0
  6
Continuous
 62
     7
370
    15
100
AcDbLine
 10
165.6212888413
 20
84.3261138335
 30
0.0
 11
165.6212888413
 21
122.4838488907
 31
0.0
  0
LINE
  5
9D
330
1F
100
AcDbEntity
  8
0
  6
Continuous
 62
     7
370
    15
100
AcDbLine
 10
169.6082235232
 20
122.4838488907
 30
0.0
 11
165.6212888413
 21
122.4838488907
 31
0.0
  0
SPLINE
  5
9E
330
1F
100
AcDbEntity
  8
0
  6
Continuous
 62
     7
370
    15
100
AcDbSpline
210
0.0
220
0.0
230
1.0
 70
     8
 71
     3
 72
    12
 73
     8
 74
     0
 42
0.000000001
 43
0.00000001
 40
0.0
 40
0.0
 40
0.0
 40
0.0
 40
0.25
 40
0.25
 40
0.5
 40
0.5
 40
1.0
 40
1.0
 40
1.0
 40
1.0
 10
169.6082235232417
 20
84.32611383354356
 30
0.0
 10
169.7034375610236
 20
84.32611383354356
 30
0.0
 10
169.7953629599086
 20
84.34012088723654
 30
0.0
 10
169.9516037781715
 20
84.38651426816945
 30
0.0
 10
170.0154099478605
 20
84.4181029098663
 30
0.0
 10
170.1647361689122
 20
84.52438377367866
 30
0.0
 10
170.2082235232417
 20
84.60732460264997
 30
0.0
 10
170.2082235232417
 20
84.69068822852289
 30
0.0
  0
SPLINE
  5
9F
330
1F
100
AcDbEntity
  8
0
  6
Continuous
 62
     7
370
    15
100
AcDbSpline
210
0.0
220
0.0
230
1.0
 70
    24
 71
     3
 72
    14
 73
    10
 74
     0
 42
0.000000001
 43
0.00000001
 40
0.0
 40
0.0
 40
0.0
 40
0.0
 40
0.25
 40
0.25
 40
0.5
 40
0.5
 40
0.75
 40
0.75
 40
1.0
 40
1.0
 40
1.0
 40
1.0
 10
170.2082235232417
 20
122.4838488907062
 30
0.0
 10
170.2082235232417
 20
122.4838488907062
 30
0.0
 10
170.1959003314022
 20
122.4838488907062
 30
0.0
 10
170.1459562159442
 20
122.4838488907062
 30
0.0
 10
170.1077256641053
 20
122.4838488907062
 30
0.0
 10
170.0048809526665
 20
122.4838488907062
 30
0.0
 10
169.9397854398344
 20
122.4838488907062
 30
0.0
 10
169.7846974327585
 20
122.4838488907062
 30
0.0
 10
169.6969080298242
 20
122.4838488907062
 30
0.0
 10
169.6082235232417
 20
122.4838488907062
 30
0.0
  0
LINE
  5
A0
330
1F
100
AcDbEntity
  8
0
  6
Continuous
 62
     7
370
    15
100
AcDbLine
 10
170.2082235232
 20
84.6906882285
 30
0.0
 11
170.2082235232
 21
122.4838488907
 31
0.0
  0
LINE
  5
A1
330
1F
100
AcDbEntity
  8
0
  6
Continuous
 62
     7
370
    15
100
AcDbLine
 10
154.9582235232
 20
84.3261138335
 30
0.0
 11
158.8951582052
 21
84.3261138335
 31
0.0
  0
LINE
  5
A2
330
1F
100
AcDbEntity
  8
0
  6
Continuous
 62
     7
370
    15
100
AcDbLine
 10
158.8951582052
 20
122.4838488907
 30
0.0
 11
154.9582235232
 21
122.4838488907
 31
0.0
  0
LINE
  5
A3
330
1F
100
AcDbEntity
  8
0
  6
Continuous
 62
     7
370
    15
100
AcDbLine
 10
158.8951582052
 20
84.3261138335
 30
0.0
 11
158.8951582052
 21
122.4838488907
 31
0.0
  0
SPLINE
  5
A4
330
1F
100
AcDbEntity
  8
0
  6
Continuous
 62
     7
370
    15
100
AcDbSpline
210
0.0
220
0.0
230
1.0
 70
     8
 71
     3
 72
     8
 73
     4
 74
     0
 42
0.000000001
 43
0.00000001
 40
0.0
 40
0.0
 40
0.0
 40
0.0
 40
0.0011140524372172
 40
0.0011140524372172
 40
0.0011140524372172
 40
0.0011140524372172
 10
165.1913580706594
 20
84.77981680493122
 30
0.0
 10
165.332967239585
 20
84.62827052889301
 30
0.0
 10
165.4763382843715
 20
84.47704320360972
 30
0.0
 10
165.6212888412713
 20
84.32611383354356
 30
0.0
  0
SPLINE
  5
A5
330
1F
100
AcDbEntity
  8
0
  6
Continuous
 62
     7
370
    15
100
AcDbSpline
210
0.0
220
0.0
230
1.0
 70
     8
 71
     3
 72
     8
 73
     4
 74
     0
 42
0.000000001
 43
0.00000001
 40
0.0
 40
0.0
 40
0.0
 40
0.0
 40
1.0
 40
1.0
 40
1.0
 40
1.0
 10
165.1913580706594
 20
84.77981680493122
 30
0.0
 10
164.8490103485839
 20
85.40848966262281
 30
0.0
 10
164.5078404229978
 20
86.0378445361766
 30
0.0
 10
164.1682235232417
 20
86.6679477002949
 30
0.0
  0
LINE
  5
A6
330
1F
100
AcDbEntity
  8
0
  6
Continuous
 62
     7
370
    15
100
AcDbLine
 10
164.1682235232
 20
86.6679477003
 30
0.0
 11
164.1682235232
 21
122.4838488907
 31
0.0
  0
SPLINE
  5
A7
330
1F
100
AcDbEntity
  8
0
  6
Continuous
 62
     7
370
    15
100
AcDbSpline
210
0.0
220
0.0
230
1.0
 70
    24
 71
     3
 72
     8
 73
     4
 74
     0
 42
0.000000001
 43
0.00000001
 40
0.0
 40
0.0
 40
0.0
 40
0.0
 40
1.0
 40
1.0
 40
1.0
 40
1.0
 10
165.6212888412713
 20
122.4838488907062
 30
0.0
 10
165.1239332956746
 20
122.4838488907062
 30
0.0
 10
164.6378513576558
 20
122.4838488907062
 30
0.0
 10
164.1682235232417
 20
122.4838488907062
 30
0.0
  0
SPLINE
  5
A8
330
1F
100
AcDbEntity
  8
0
  6
Continuous
 62
     7
370
    15
100
AcDbSpline
210
0.0
220
0.0
230
1.0
 70
     8
 71
     3
 72
    10
 73
     6
 74
     0
 42
0.000000001
 43
0.00000001
 40
0.0
 40
0.0
 40
0.0
 40
0.0
 40
0.5
 40
0.5
 40
1.0
 40
1.0
 40
1.0
 40
1.0
 10
154.5903463831468
 20
84.40203146331655
 30
0.0
 10
154.6384192175428
 20
84.37950352081415
 30
0.0
 10
154.6941090915469
 20
84.36051023012742
 30
0.0
 10
154.8193857269105
 20
84.33362995096047
 30
0.0
 10
154.8878314144087
 20
84.32611383354356
 30
0.0
 10
154.9582235232417
 20
84.32611383354356
 30
0.0
  0
SPLINE
  5
A9
330
1F
100
AcDbEntity
  8
0
  6
Continuous
 62
     7
370
    15
100
AcDbSpline
210
0.0
220
0.0
230
1.0
 70
     8
 71
     3
 72
    10
 73
     6
 74
     0
 42
0.000000001
 43
0.00000001
 40
0.0
 40
0.0
 40
0.0
 40
0.0
 40
0.5
 40
0.5
 40
1.0
 40
1.0
 40
1.0
 40
1.0
 10
154.5903463831468
 20
84.40203146331655
 30
0.0
 10
154.527887307845
 20
84.47758917774145
 30
0.0
 10
154.4721581550968
 20
84.56615769436482
 30
0.0
 10
154.3874827727074
 20
84.76827512320286
 30
0.0
 10
154.3582235232417
 20
84.88218895123907
 30
0.0
 10
154.3582235232417
 20
85.00117063558133
 30
0.0
  0
LINE
  5
AA
330
1F
100
AcDbEntity
  8
0
  6
Continuous
 62
     7
370
    15
100
AcDbLine
 10
154.3582235232
 20
85.0011706356
 30
0.0
 11
154.3582235232
 21
122.4838488907
 31
0.0
  0
SPLINE
  5
AB
330
1F
100
AcDbEntity
  8
0
  6
Continuous
 62
     7
370
    15
100
AcDbSpline
210
0.0
220
0.0
230
1.0
 70
    24
 71
     3
 72
    12
 73
     8
 74
     0
 42
0.000000001
 43
0.00000001
 40
0.0
 40
0.0
 40
0.0
 40
0.0
 40
0.2500000000000018
 40
0.2500000000000018
 40
0.5000000000000037
 40
0.5000000000000037
 40
1.0
 40
1.0
 40
1.0
 40
1.0
 10
154.9582235232417
 20
122.4838488907062
 30
0.0
 10
154.8700380001437
 20
122.4838488907062
 30
0.0
 10
154.7813385467469
 20
122.4838488907062
 30
0.0
 10
154.6271606423911
 20
122.4838488907062
 30
0.0
 10
154.5618447701146
 20
122.4838488907062
 30
0.0
 10
154.407458467007
 20
122.4838488907062
 30
0.0
 10
154.3582235232418
 20
122.4838488907062
 30
0.0
 10
154.3582235232417
 20
122.4838488907062
 30
0.0
  0
SPLINE
  5
AC
330
1F
100
AcDbEntity
  8
0
  6
Continuous
 62
     7
370
    15
100
AcDbSpline
210
0.0
220
0.0
230
1.0
 70
     8
 71
     3
 72
     8
 73
     4
 74
     0
 42
0.000000001
 43
0.00000001
 40
0.0
 40
0.0
 40
0.0
 40
0.0
 40
1.0
 40
1.0
 40
1.0
 40
1.0
 10
160.3482235232417
 20
86.6679477002949
 30
0.0
 10
160.0085880080846
 20
86.03780999836916
 30
0.0
 10
159.6674312968573
 20
85.40847974437742
 30
0.0
 10
159.325088975824
 20
84.77981680493122
 30
0.0
  0
SPLINE
  5
AD
330
1F
100
AcDbEntity
  8
0
  6
Continuous
 62
     7
370
    15
100
AcDbSpline
210
0.0
220
0.0
230
1.0
 70
     8
 71
     3
 72
     8
 73
     4
 74
     0
 42
0.000000001
 43
0.00000001
 40
0.0
 40
0.0
 40
0.0
 40
0.0
 40
0.0011140524372172
 40
0.0011140524372172
 40
0.0011140524372172
 40
0.0011140524372172
 10
158.8951582052122
 20
84.32611383354357
 30
0.0
 10
159.040108762112
 20
84.47704320360972
 30
0.0
 10
159.1834798068984
 20
84.62827052889301
 30
0.0
 10
159.325088975824
 20
84.77981680493122
 30
0.0
  0
SPLINE
  5
AE
330
1F
100
AcDbEntity
  8
0
  6
Continuous
 62
     7
370
    15
100
AcDbSpline
210
0.0
220
0.0
230
1.0
 70
    24
 71
     3
 72
     8
 73
     4
 74
     0
 42
0.000000001
 43
0.00000001
 40
0.0
 40
0.0
 40
0.0
 40
0.0
 40
1.0
 40
1.0
 40
1.0
 40
1.0
 10
160.3482235232417
 20
122.4838488907062
 30
0.0
 10
159.8785956888277
 20
122.4838488907062
 30
0.0
 10
159.3925137508089
 20
122.4838488907062
 30
0.0
 10
158.8951582052122
 20
122.4838488907062
 30
0.0
  0
LINE
  5
AF
330
1F
100
AcDbEntity
  8
0
  6
Continuous
 62
     7
370
    15
100
AcDbLine
 10
160.3482235232
 20
86.6679477003
 30
0.0
 11
160.3482235232
 21
122.4838488907
 31
0.0
  0
SPLINE
  5
B0
330
1F
100
AcDbEntity
  8
0
  6
Continuous
 62
     7
370
    15
100
AcDbSpline
210
0.0
220
0.0
230
1.0
 70
     8
 71
     3
 72
    10
 73
     6
 74
     0
 42
0.000000001
 43
0.00000001
 40
0.0
 40
0.0
 40
0.0
 40
0.0
 40
0.5
 40
0.5
 40
1.0
 40
1.0
 40
1.0
 40
1.0
 10
164.1682235232417
 20
86.6679477002949
 30
0.0
 10
164.1333420748031
 20
86.79706771655732
 30
0.0
 10
164.0606374480355
 20
86.91361545960282
 30
0.0
 10
163.8571759270965
 20
87.08249858352227
 30
0.0
 10
163.7253521647786
 20
87.13267514382034
 30
0.0
 10
163.5918699468036
 20
87.13267514382034
 30
0.0
  0
SPLINE
  5
B1
330
1F
100
AcDbEntity
  8
0
  6
Continuous
 62
     7
370
    15
100
AcDbSpline
210
0.0
220
0.0
230
1.0
 70
    24
 71
     3
 72
    14
 73
    10
 74
     0
 42
0.000000001
 43
0.00000001
 40
0.0
 40
0.0
 40
0.0
 40
0.0
 40
0.25
 40
0.25
 40
0.5
 40
0.5
 40
0.75
 40
0.75
 40
1.0
 40
1.0
 40
1.0
 40
1.0
 10
164.1682235232418
 20
122.4838488907062
 30
0.0
 10
164.152682884086
 20
122.4838488907062
 30
0.0
 10
164.129756722596
 20
122.4838488907062
 30
0.0
 10
164.066688744961
 20
122.4838488907062
 30
0.0
 10
164.0266622422908
 20
122.4838488907062
 30
0.0
 10
163.9291779256157
 20
122.4838488907062
 30
0.0
 10
163.8712429036487
 20
122.4838488907062
 30
0.0
 10
163.7394934791865
 20
122.4838488907062
 30
0.0
 10
163.6663488846874
 20
122.4838488907062
 30
0.0
 10
163.5918699468036
 20
122.4838488907062
 30
0.0
  0
SPLINE
  5
B2
330
1F
100
AcDbEntity
  8
0
  6
Continuous
 62
     7
370
    15
100
AcDbSpline
210
0.0
220
0.0
230
1.0
 70
     8
 71
     3
 72
    12
 73
     8
 74
     0
 42
0.000000001
 43
0.00000001
 40
0.0
 40
0.0
 40
0.0
 40
0.0
 40
0.2499999999999988
 40
0.2499999999999988
 40
0.4999999999999976
 40
0.4999999999999976
 40
1.0
 40
1.0
 40
1.0
 40
1.0
 10
160.9245770996799
 20
87.13267514382034
 30
0.0
 10
160.8585803397645
 20
87.13267514382034
 30
0.0
 10
160.7919195278123
 20
87.12075902482148
 30
0.0
 10
160.6663141163456
 20
87.07427379782273
 30
0.0
 10
160.6093881778073
 20
87.041014395449
 30
0.0
 10
160.4551157218729
 20
86.91319629612212
 30
0.0
 10
160.3829161329774
 20
86.79636869580273
 30
0.0
 10
160.3482235232417
 20
86.6679477002949
 30
0.0
  0
SPLINE
  5
B3
330
1F
100
AcDbEntity
  8
0
  6
Continuous
 62
     7
370
    15
100
AcDbSpline
210
0.0
220
0.0
230
1.0
 70
    24
 71
     3
 72
    12
 73
     8
 74
     0
 42
0.000000001
 43
0.00000001
 40
0.0
 40
0.0
 40
0.0
 40
0.0
 40
0.2499999999999988
 40
0.2499999999999988
 40
0.4999999999999976
 40
0.4999999999999976
 40
1.0
 40
1.0
 40
1.0
 40
1.0
 10
160.9245770996799
 20
122.4838488907062
 30
0.0
 10
160.8500810930683
 20
122.4838488907062
 30
0.0
 10
160.7767352276423
 20
122.4838488907062
 30
0.0
 10
160.6463419921998
 20
122.4838488907062
 30
0.0
 10
160.5880248767575
 20
122.4838488907062
 30
0.0
 10
160.44167214891
 20
122.4838488907062
 30
0.0
 10
160.3794449767431
 20
122.4838488907062
 30
0.0
 10
160.3482235232417
 20
122.4838488907062
 30
0.0
  0
LINE
  5
B4
330
1F
100
AcDbEntity
  8
0
  6
Continuous
 62
     7
370
    15
100
AcDbLine
 10
163.5918699468
 20
87.1326751438
 30
0.0
 11
160.9245770997
 21
87.1326751438
 31
0.0
  0
LINE
  5
B5
330
1F
100
AcDbEntity
  8
0
  6
Continuous
 62
     7
370
    15
100
AcDbLine
 10
163.5918699468
 20
122.4838488907
 30
0.0
 11
160.9245770997
 21
122.4838488907
 31
0.0
  0
SPLINE
  5
B6
330
1F
100
AcDbEntity
  8
0
  6
Continuous
 62
     7
370
    15
100
AcDbSpline
210
0.0
220
0.0
230
1.0
 70
    24
 71
     3
 72
    14
 73
    10
 74
     0
 42
0.000000001
 43
0.00000001
 40
0.0
 40
0.0
 40
0.0
 40
0.0
 40
0.25
 40
0.25
 40
0.5
 40
0.5
 40
0.75
 40
0.75
 40
1.0
 40
1.0
 40
1.0
 40
1.0
 10
170.5217446361352
 20
91.43384889070616
 30
0.0
 10
170.6387653962924
 20
91.43384889070616
 30
0.0
 10
170.7809472604019
 20
91.43384889070616
 30
0.0
 10
171.0925491283159
 20
91.43384889070616
 30
0.0
 10
171.2625117840286
 20
91.43384889070616
 30
0.0
 10
171.5993786433333
 20
91.43384889070616
 30
0.0
 10
171.7678370075539
 20
91.43384889070616
 30
0.0
 10
172.0354922998522
 20
91.43384889070616
 30
0.0
 10
172.1311874304927
 20
91.43384889070616
 30
0.0
 10
172.1311905617344
 20
91.43384889070616
 30
0.0
  0
SPLINE
  5
B7
330
1F
100
AcDbEntity
  8
0
  6
Continuous
 62
     7
370
    15
100
AcDbSpline
210
0.0
220
0.0
230
1.0
 70
     8
 71
     3
 72
    14
 73
    10
 74
     0
 42
0.000000001
 43
0.00000001
 40
0.0
 40
0.0
 40
0.0
 40
0.0
 40
0.25
 40
0.25
 40
0.5
 40
0.5
 40
0.75
 40
0.75
 40
1.0
 40
1.0
 40
1.0
 40
1.0
 10
170.2082382820007
 20
90.43384889070616
 30
0.0
 10
170.2086237993415
 20
90.56954676036209
 30
0.0
 10
170.2169145920246
 20
90.70298606868737
 30
0.0
 10
170.2524904395637
 20
90.9478848334768
 30
0.0
 10
170.2798849022103
 20
91.05874879873633
 30
0.0
 10
170.3457827926816
 20
91.23970420798972
 30
0.0
 10
170.3846377333596
 20
91.31137342764397
 30
0.0
 10
170.4592417873367
 20
91.40792499357255
 30
0.0
 10
170.4953775829791
 20
91.43384889070616
 30
0.0
 10
170.5217446361352
 20
91.43384889070616
 30
0.0
  0
LINE
  5
B8
330
1F
100
AcDbEntity
  8
0
  6
Continuous
 62
     7
370
    15
100
AcDbLine
 10
189.9582235232
 20
91.6338488907
 30
0.0
 11
189.9582235232
 21
123.6338488907
 31
0.0
  0
SPLINE
  5
B9
330
1F
100
AcDbEntity
  8
0
  6
Continuous
 62
     7
370
    15
100
AcDbSpline
210
0.0
220
0.0
230
1.0
 70
     8
 71
     3
 72
    42
 73
    38
 74
     0
 42
0.000000001
 43
0.00000001
 40
0.0
 40
0.0
 40
0.0
 40
0.0
 40
0.0312499999999999
 40
0.0312499999999999
 40
0.0624999999999997
 40
0.0624999999999997
 40
0.1249999999999998
 40
0.1249999999999998
 40
0.1874999999999998
 40
0.1874999999999998
 40
0.2499999999999999
 40
0.2499999999999999
 40
0.3124999999999999
 40
0.3124999999999999
 40
0.375
 40
0.375
 40
0.4375000000000001
 40
0.4375000000000001
 40
0.5000000000000001
 40
0.5000000000000001
 40
0.5625000000000001
 40
0.5625000000000001
 40
0.6250000000000002
 40
0.6250000000000002
 40
0.6875000000000002
 40
0.6875000000000002
 40
0.7500000000000002
 40
0.7500000000000002
 40
0.7812500000000002
 40
0.7812500000000002
 40
0.8125000000000001
 40
0.8125000000000001
 40
0.8750000000000001
 40
0.8750000000000001
 40
0.9375
 40
0.9375
 40
1.0
 40
1.0
 40
1.0
 40
1.0
 10
186.2082235232418
 20
107.6338488907061
 30
0.0
 10
186.2082235232418
 20
107.4729161196989
 30
0.0
 10
186.1984228694865
 20
107.3118447398189
 30
0.0
 10
186.1587943264877
 20
106.989418977726
 30
0.0
 10
186.1288067237638
 20
106.8282493776472
 30
0.0
 10
186.0117474712073
 20
106.3578563666635
 30
0.0
 10
185.8973803571041
 20
106.0567865395578
 30
0.0
 10
185.5995992505933
 20
105.4791600212079
 30
0.0
 10
185.4213318133535
 20
105.2123858131605
 30
0.0
 10
185.012390934709
 20
104.7175134462514
 30
0.0
 10
184.780371142689
 20
104.4892576751555
 30
0.0
 10
184.2838069731935
 20
104.0853553881527
 30
0.0
 10
184.0172740756163
 20
103.9070781226145
 30
0.0
 10
183.4490623515427
 20
103.5964223057874
 30
0.0
 10
183.1548151434881
 20
103.4680849173845
 30
0.0
 10
182.5472109787205
 20
103.2613150748554
 30
0.0
 10
182.2313733270803
 20
103.182566127447
 30
0.0
 10
181.5915739749961
 20
103.0783752887357
 30
0.0
 10
181.2707037320696
 20
103.0529820378782
 30
0.0
 10
180.6270722572716
 20
103.0539920849509
 30
0.0
 10
180.3014482726307
 20
103.0809487891542
 30
0.0
 10
179.6628594402295
 20
103.18751687314
 30
0.0
 10
179.3517662182606
 20
103.2662471816279
 30
0.0
 10
178.7457602918709
 20
103.4745562964264
 30
0.0
 10
178.4480784789338
 20
103.605727722759
 30
0.0
 10
177.8848941601371
 20
103.9162112232259
 30
0.0
 10
177.6205973598119
 20
104.0940997392738
 30
0.0
 10
177.2507660998834
 20
104.3965285667424
 30
0.0
 10
177.1319557862091
 20
104.5033127955856
 30
0.0
 10
176.9038285499303
 20
104.7297147377203
 30
0.0
 10
176.7942369368892
 20
104.8498204667992
 30
0.0
 10
176.4886007121265
 20
105.2215113896635
 30
0.0
 10
176.3126167754068
 20
105.4868008474909
 30
0.0
 10
176.0200711192675
 20
106.0554108293419
 30
0.0
 10
175.9028446798409
 20
106.3636780903616
 30
0.0
 10
175.7480690285798
 20
106.9889209092962
 30
0.0
 10
175.7082235232418
 20
107.3079650138324
 30
0.0
 10
175.7082235232418
 20
107.6338488907061
 30
0.0
  0
SPLINE
  5
BA
330
1F
100
AcDbEntity
  8
0
  6
Continuous
 62
     7
370
    15
100
AcDbSpline
210
0.0
220
0.0
230
1.0
 70
     8
 71
     3
 72
    42
 73
    38
 74
     0
 42
0.000000001
 43
0.00000001
 40
0.0
 40
0.0
 40
0.0
 40
0.0
 40
0.0312500000000001
 40
0.0312500000000001
 40
0.0625000000000002
 40
0.0625000000000002
 40
0.1250000000000002
 40
0.1250000000000002
 40
0.1875000000000002
 40
0.1875000000000002
 40
0.2500000000000002
 40
0.2500000000000002
 40
0.3125000000000002
 40
0.3125000000000002
 40
0.3750000000000001
 40
0.3750000000000001
 40
0.5000000000000001
 40
0.5000000000000001
 40
0.5625000000000001
 40
0.5625000000000001
 40
0.6250000000000002
 40
0.6250000000000002
 40
0.6875000000000002
 40
0.6875000000000002
 40
0.7500000000000001
 40
0.7500000000000001
 40
0.8125000000000001
 40
0.8125000000000001
 40
0.8437500000000001
 40
0.8437500000000001
 40
0.875
 40
0.875
 40
0.9374999999999999
 40
0.9374999999999999
 40
0.9687499999999999
 40
0.9687499999999999
 40
1.0
 40
1.0
 40
1.0
 40
1.0
 10
175.7082235232418
 20
107.6338488907061
 30
0.0
 10
175.7082235232418
 20
107.796793321059
 30
0.0
 10
175.7184404285798
 20
107.9606293488695
 30
0.0
 10
175.7582707730734
 20
108.2818810868806
 30
0.0
 10
175.7878612054739
 20
108.4404847506679
 30
0.0
 10
175.9049129354726
 20
108.9104000370231
 30
0.0
 10
176.0223484684286
 20
109.2180771210578
 30
0.0
 10
176.3181112232515
 20
109.7901761269929
 30
0.0
 10
176.4983255138509
 20
110.0600361343578
 30
0.0
 10
176.9108683183174
 20
110.5575680350616
 30
0.0
 10
177.1403348514861
 20
110.7826341085199
 30
0.0
 10
177.642437264644
 20
111.1895608311893
 30
0.0
 10
177.9101941506113
 20
111.3671727868618
 30
0.0
 10
178.4704358645725
 20
111.6724026325005
 30
0.0
 10
178.7639070324614
 20
111.800730848891
 30
0.0
 10
179.6849666261448
 20
112.1131301194381
 30
0.0
 10
180.322092368766
 20
112.2157230884634
 30
0.0
 10
181.2971724777452
 20
112.2134410865214
 30
0.0
 10
181.6177846498293
 20
112.186275150235
 30
0.0
 10
182.2504824975167
 20
112.080708019542
 30
0.0
 10
182.5639840112471
 20
112.0018311801012
 30
0.0
 10
183.1758620671094
 20
111.7912204257811
 30
0.0
 10
183.4682846905999
 20
111.6618168002725
 30
0.0
 10
184.0264281039479
 20
111.3545094968901
 30
0.0
 10
184.2936920937015
 20
111.1754102237441
 30
0.0
 10
184.7920220939099
 20
110.7678060745803
 30
0.0
 10
185.0180292388405
 20
110.5439000627273
 30
0.0
 10
185.3211553355098
 20
110.1762627507497
 30
0.0
 10
185.4161719302057
 20
110.0483817412549
 30
0.0
 10
185.59332222611
 20
109.7811122021093
 30
0.0
 10
185.6759322531954
 20
109.6407078223275
 30
0.0
 10
185.8976539589982
 20
109.2098970426995
 30
0.0
 10
186.0118436296854
 20
108.9097156864538
 30
0.0
 10
186.1290441175298
 20
108.4383636414406
 30
0.0
 10
186.1589986844889
 20
108.2768938792352
 30
0.0
 10
186.1984220211216
 20
107.9555807345047
 30
0.0
 10
186.2082235232418
 20
107.7947841229026
 30
0.0
 10
186.2082235232418
 20
107.6338488907061
 30
0.0
  0
LINE
  5
BB
330
1F
100
AcDbEntity
  8
0
  6
Continuous
 62
     7
370
    15
100
AcDbLine
 10
190.2582235232
 20
91.9338488907
 30
0.0
 11
190.2582235232
 21
123.3338488907
 31
0.0
  0
LINE
  5
BC
330
1F
100
AcDbEntity
  8
0
  6
Continuous
 62
     7
370
    15
100
AcDbLine
 10
151.1582235232
 20
91.7588488907
 30
0.0
 11
151.1582235232
 21
123.5088488907
 31
0.0
  0
SPLINE
  5
BD
330
1F
100
AcDbEntity
  8
0
  6
Continuous
 62
     7
370
    15
100
AcDbSpline
210
0.0
220
0.0
230
1.0
 70
     8
 71
     3
 72
     8
 73
     4
 74
     0
 42
0.000000001
 43
0.00000001
 40
0.0
 40
0.0
 40
0.0
 40
0.0
 40
0.0011754745544621
 40
0.0011754745544621
 40
0.0011754745544621
 40
0.0011754745544621
 10
159.4404471883137
 20
130.2759326609664
 30
0.0
 10
159.2592895932574
 20
130.5216038232917
 30
0.0
 10
159.077502143272
 20
130.7670431589672
 30
0.0
 10
158.8951582052122
 20
131.0122750925484
 30
0.0
  0
SPLINE
  5
BE
330
1F
100
AcDbEntity
  8
0
  6
Continuous
 62
     7
370
    15
100
AcDbSpline
210
0.0
220
0.0
230
1.0
 70
     8
 71
     3
 72
     8
 73
     4
 74
     0
 42
0.000000001
 43
0.00000001
 40
0.0
 40
0.0
 40
0.0
 40
0.0
 40
1.0
 40
1.0
 40
1.0
 40
1.0
 10
160.3482235232416
 20
128.5997500811176
 30
0.0
 10
160.0467576404415
 20
129.1590703233156
 30
0.0
 10
159.744089684131
 20
129.7177579341397
 30
0.0
 10
159.4404471883137
 20
130.2759326609664
 30
0.0
  0
LINE
  5
BF
330
1F
100
AcDbEntity
  8
0
  6
Continuous
 62
     7
370
    15
100
AcDbLine
 10
160.3482235232
 20
124.4816681183
 30
0.0
 11
160.3482235232
 21
128.5997500811
 31
0.0
  0
SPLINE
  5
C0
330
1F
100
AcDbEntity
  8
0
  6
Continuous
 62
     7
370
    15
100
AcDbSpline
210
0.0
220
0.0
230
1.0
 70
     8
 71
     3
 72
     8
 73
     4
 74
     0
 42
0.000000001
 43
0.00000001
 40
0.0
 40
0.0
 40
0.0
 40
0.0
 40
1.0
 40
1.0
 40
1.0
 40
1.0
 10
158.8951582052122
 20
127.7143898445749
 30
0.0
 10
159.3930626145038
 20
126.6417925718587
 30
0.0
 10
159.8791687741381
 20
125.5646364210355
 30
0.0
 10
160.3482235232417
 20
124.4816681183121
 30
0.0
  0
LINE
  5
C1
330
1F
100
AcDbEntity
  8
0
  6
Continuous
 62
     7
370
    15
100
AcDbLine
 10
158.8951582052
 20
127.7143898446
 30
0.0
 11
158.8951582052
 21
131.0122750925
 31
0.0
  0
SPLINE
  5
C2
330
1F
100
AcDbEntity
  8
0
  6
Continuous
 62
     7
370
    15
100
AcDbSpline
210
0.0
220
0.0
230
1.0
 70
     8
 71
     3
 72
    12
 73
     8
 74
     0
 42
0.000000001
 43
0.00000001
 40
0.0
 40
0.0
 40
0.0
 40
0.0
 40
0.5
 40
0.5
 40
0.75
 40
0.75
 40
1.0
 40
1.0
 40
1.0
 40
1.0
 10
170.2082235232417
 20
130.5452065046465
 30
0.0
 10
170.2082235232417
 20
130.6629746151684
 30
0.0
 10
170.1517034613432
 20
130.7784635711126
 30
0.0
 10
169.9885984865693
 20
130.91181734087
 30
0.0
 10
169.922849941014
 20
130.9480753516683
 30
0.0
 10
169.7735607746543
 20
130.9986827989189
 30
0.0
 10
169.6917668476222
 20
131.0122750925484
 30
0.0
 10
169.6082235232417
 20
131.0122750925484
 30
0.0
  0
SPLINE
  5
C3
330
1F
100
AcDbEntity
  8
0
  6
Continuous
 62
     7
370
    15
100
AcDbSpline
210
0.0
220
0.0
230
1.0
 70
     8
 71
     3
 72
    12
 73
     8
 74
     0
 42
0.000000001
 43
0.00000001
 40
0.0
 40
0.0
 40
0.0
 40
0.0
 40
0.25
 40
0.25
 40
0.5
 40
0.5
 40
1.0
 40
1.0
 40
1.0
 40
1.0
 10
169.6082235232417
 20
127.7143898445749
 30
0.0
 10
169.6967647972857
 20
127.7143898445749
 30
0.0
 10
169.7860814457434
 20
127.6885188816202
 30
0.0
 10
169.9386765257134
 20
127.5996599988083
 30
0.0
 10
170.0042866275045
 20
127.5367785731872
 30
0.0
 10
170.1597461805535
 20
127.3189033932966
 30
0.0
 10
170.2082235232418
 20
127.1399648602175
 30
0.0
 10
170.2082235232417
 20
126.9630528318932
 30
0.0
  0
LINE
  5
C4
330
1F
100
AcDbEntity
  8
0
  6
Continuous
 62
     7
370
    15
100
AcDbLine
 10
170.2082235232
 20
126.9630528319
 30
0.0
 11
170.2082235232
 21
130.5452065046
 31
0.0
  0
SPLINE
  5
C5
330
1F
100
AcDbEntity
  8
0
  6
Continuous
 62
     7
370
    15
100
AcDbSpline
210
0.0
220
0.0
230
1.0
 70
     8
 71
     3
 72
    10
 73
     6
 74
     0
 42
0.000000001
 43
0.00000001
 40
0.0
 40
0.0
 40
0.0
 40
0.0
 40
0.5
 40
0.5
 40
1.0
 40
1.0
 40
1.0
 40
1.0
 10
164.1682235232417
 20
128.5997500811174
 30
0.0
 10
164.1335033745832
 20
128.4712271452851
 30
0.0
 10
164.0609893637896
 20
128.354226869778
 30
0.0
 10
163.8560238412193
 20
128.1843910465255
 30
0.0
 10
163.7247802424817
 20
128.135022637592
 30
0.0
 10
163.5918699468036
 20
128.135022637592
 30
0.0
  0
LINE
  5
C6
330
1F
100
AcDbEntity
  8
0
  6
Continuous
 62
     7
370
    15
100
AcDbLine
 10
164.1682235232
 20
124.4816681183
 30
0.0
 11
164.1682235232
 21
128.5997500811
 31
0.0
  0
SPLINE
  5
C7
330
1F
100
AcDbEntity
  8
0
  6
Continuous
 62
     7
370
    15
100
AcDbSpline
210
0.0
220
0.0
230
1.0
 70
     8
 71
     3
 72
    14
 73
    10
 74
     0
 42
0.000000001
 43
0.00000001
 40
0.0
 40
0.0
 40
0.0
 40
0.0
 40
0.25
 40
0.25
 40
0.5
 40
0.5
 40
0.75
 40
0.75
 40
1.0
 40
1.0
 40
1.0
 40
1.0
 10
163.591869946804
 20
123.8997065379377
 30
0.0
 10
163.6653285368386
 20
123.8997065379378
 30
0.0
 10
163.7391777872977
 20
123.918816929712
 30
0.0
 10
163.8709996625452
 20
123.9865771032175
 30
0.0
 10
163.9291188575287
 20
124.0345106006184
 30
0.0
 10
164.0262973374906
 20
124.1444276148485
 30
0.0
 10
164.0664624038282
 20
124.2075150928238
 30
0.0
 10
164.1294620352248
 20
124.3401099385622
 30
0.0
 10
164.1525599859552
 20
124.4095143948723
 30
0.0
 10
164.1682235232417
 20
124.4816681183121
 30
0.0
  0
SPLINE
  5
C8
330
1F
100
AcDbEntity
  8
0
  6
Continuous
 62
     7
370
    15
100
AcDbSpline
210
0.0
220
0.0
230
1.0
 70
     8
 71
     3
 72
    10
 73
     6
 74
     0
 42
0.000000001
 43
0.00000001
 40
0.0
 40
0.0
 40
0.0
 40
0.0
 40
0.5
 40
0.5
 40
1.0
 40
1.0
 40
1.0
 40
1.0
 10
160.9245770996799
 20
128.135022637592
 30
0.0
 10
160.7923159069632
 20
128.135022637592
 30
0.0
 10
160.6604769750861
 20
128.1844426445383
 30
0.0
 10
160.4559255256081
 20
128.3537433048417
 30
0.0
 10
160.3827609729794
 20
128.4719034385207
 30
0.0
 10
160.3482235232417
 20
128.5997500811176
 30
0.0
  0
SPLINE
  5
C9
330
1F
100
AcDbEntity
  8
0
  6
Continuous
 62
     7
370
    15
100
AcDbSpline
210
0.0
220
0.0
230
1.0
 70
     8
 71
     3
 72
    12
 73
     8
 74
     0
 42
0.000000001
 43
0.00000001
 40
0.0
 40
0.0
 40
0.0
 40
0.0
 40
0.5000000000000063
 40
0.5000000000000063
 40
0.7500000000000031
 40
0.7500000000000031
 40
1.0
 40
1.0
 40
1.0
 40
1.0
 10
160.3482235232416
 20
124.4816681183121
 30
0.0
 10
160.3792145491039
 20
124.3389086720719
 30
0.0
 10
160.4410873219357
 20
124.1996996049217
 30
0.0
 10
160.5882500486774
 20
124.033579519333
 30
0.0
 10
160.6462106836122
 20
123.9860981809975
 30
0.0
 10
160.7774685546079
 20
123.9188016880882
 30
0.0
 10
160.8511545126949
 20
123.8997065379379
 30
0.0
 10
160.9245770996799
 20
123.8997065379379
 30
0.0
  0
LINE
  5
CA
330
1F
100
AcDbEntity
  8
0
  6
Continuous
 62
     7
370
    15
100
AcDbLine
 10
163.5918699468
 20
128.1350226376
 30
0.0
 11
160.9245770997
 21
128.1350226376
 31
0.0
  0
LINE
  5
CB
330
1F
100
AcDbEntity
  8
0
  6
Continuous
 62
     7
370
    15
100
AcDbLine
 10
160.9245770997
 20
123.8997065379
 30
0.0
 11
163.5918699468
 21
123.8997065379
 31
0.0
  0
SPLINE
  5
CC
330
1F
100
AcDbEntity
  8
0
  6
Continuous
 62
     7
370
    15
100
AcDbSpline
210
0.0
220
0.0
230
1.0
 70
     8
 71
     3
 72
    10
 73
     6
 74
     0
 42
0.000000001
 43
0.00000001
 40
0.0
 40
0.0
 40
0.0
 40
0.0
 40
0.5
 40
0.5
 40
1.0
 40
1.0
 40
1.0
 40
1.0
 10
154.6764620375925
 20
130.9576941465971
 30
0.0
 10
154.5920160454149
 20
130.8781188151661
 30
0.0
 10
154.5184355260448
 20
130.7824318720202
 30
0.0
 10
154.4005774508954
 20
130.547606772898
 30
0.0
 10
154.3582235232428
 20
130.4114175025161
 30
0.0
 10
154.3582235232417
 20
130.2665271458359
 30
0.0
  0
SPLINE
  5
CD
330
1F
100
AcDbEntity
  8
0
  6
Continuous
 62
     7
370
    15
100
AcDbSpline
210
0.0
220
0.0
230
1.0
 70
     8
 71
     3
 72
     8
 73
     4
 74
     0
 42
0.000000001
 43
0.00000001
 40
0.0
 40
0.0
 40
0.0
 40
0.0
 40
1.0
 40
1.0
 40
1.0
 40
1.0
 10
154.9582235232417
 20
131.0122750925484
 30
0.0
 10
154.8589499221087
 20
131.0122750925484
 30
0.0
 10
154.7621385771111
 20
130.9930995375142
 30
0.0
 10
154.6764620375942
 20
130.9576941466029
 30
0.0
  0
SPLINE
  5
CE
330
1F
100
AcDbEntity
  8
0
  6
Continuous
 62
     7
370
    15
100
AcDbSpline
210
0.0
220
0.0
230
1.0
 70
     8
 71
     3
 72
    12
 73
     8
 74
     0
 42
0.000000001
 43
0.00000001
 40
0.0
 40
0.0
 40
0.0
 40
0.0
 40
0.4999999999999997
 40
0.4999999999999997
 40
0.7499999999999998
 40
0.7499999999999998
 40
1.0
 40
1.0
 40
1.0
 40
1.0
 10
154.3582235232417
 20
126.9630528318932
 30
0.0
 10
154.3582235232417
 20
127.1404773514774
 30
0.0
 10
154.4063768509671
 20
127.3181812704035
 30
0.0
 10
154.5617778650778
 20
127.5363757338947
 30
0.0
 10
154.6268989181272
 20
127.5992252772898
 30
0.0
 10
154.7819105696373
 20
127.6893453994219
 30
0.0
 10
154.8697470619103
 20
127.7143898445751
 30
0.0
 10
154.9582235232418
 20
127.7143898445751
 30
0.0
  0
LINE
  5
CF
330
1F
100
AcDbEntity
  8
0
  6
Continuous
 62
     7
370
    15
100
AcDbLine
 10
154.3582235232
 20
126.9630528319
 30
0.0
 11
154.3582235232
 21
130.2665271458
 31
0.0
  0
SPLINE
  5
D0
330
1F
100
AcDbEntity
  8
0
  6
Continuous
 62
     7
370
    15
100
AcDbSpline
210
0.0
220
0.0
230
1.0
 70
     8
 71
     3
 72
     8
 73
     4
 74
     0
 42
0.000000001
 43
0.00000001
 40
0.0
 40
0.0
 40
0.0
 40
0.0
 40
1.0
 40
1.0
 40
1.0
 40
1.0
 10
165.0759998581698
 20
130.2759326609664
 30
0.0
 10
164.7723573623524
 20
129.7177579341397
 30
0.0
 10
164.469689406042
 20
129.1590703233155
 30
0.0
 10
164.1682235232417
 20
128.5997500811174
 30
0.0
  0
SPLINE
  5
D1
330
1F
100
AcDbEntity
  8
0
  6
Continuous
 62
     7
370
    15
100
AcDbSpline
210
0.0
220
0.0
230
1.0
 70
     8
 71
     3
 72
     8
 73
     4
 74
     0
 42
0.000000001
 43
0.00000001
 40
0.0
 40
0.0
 40
0.0
 40
0.0
 40
0.0011754745544621
 40
0.0011754745544621
 40
0.0011754745544621
 40
0.0011754745544621
 10
165.6212888412713
 20
131.0122750925484
 30
0.0
 10
165.4389449032115
 20
130.7670431589672
 30
0.0
 10
165.2571574532261
 20
130.5216038232917
 30
0.0
 10
165.0759998581698
 20
130.2759326609664
 30
0.0
  0
LINE
  5
D2
330
1F
100
AcDbEntity
  8
0
  6
Continuous
 62
     7
370
    15
100
AcDbLine
 10
165.6212888413
 20
127.7143898446
 30
0.0
 11
165.6212888413
 21
131.0122750925
 31
0.0
  0
SPLINE
  5
D3
330
1F
100
AcDbEntity
  8
0
  6
Continuous
 62
     7
370
    15
100
AcDbSpline
210
0.0
220
0.0
230
1.0
 70
     8
 71
     3
 72
     8
 73
     4
 74
     0
 42
0.000000001
 43
0.00000001
 40
0.0
 40
0.0
 40
0.0
 40
0.0
 40
1.0
 40
1.0
 40
1.0
 40
1.0
 10
164.1682235232417
 20
124.4816681183121
 30
0.0
 10
164.6372782723454
 20
125.5646364210355
 30
0.0
 10
165.1233844319797
 20
126.6417925718587
 30
0.0
 10
165.6212888412713
 20
127.7143898445749
 30
0.0
  0
LINE
  5
D4
330
1F
100
AcDbEntity
  8
0
  6
Continuous
 62
     7
370
    15
100
AcDbLine
 10
158.8951582052
 20
131.0122750925
 30
0.0
 11
154.9582235232
 21
131.0122750925
 31
0.0
  0
LINE
  5
D5
330
1F
100
AcDbEntity
  8
0
  6
Continuous
 62
     7
370
    15
100
AcDbLine
 10
154.9582235232
 20
127.7143898446
 30
0.0
 11
158.8951582052
 21
127.7143898446
 31
0.0
  0
LINE
  5
D6
330
1F
100
AcDbEntity
  8
0
  6
Continuous
 62
     7
370
    15
100
AcDbLine
 10
169.6082235232
 20
131.0122750925
 30
0.0
 11
165.6212888413
 21
131.0122750925
 31
0.0
  0
LINE
  5
D7
330
1F
100
AcDbEntity
  8
0
  6
Continuous
 62
     7
370
    15
100
AcDbLine
 10
165.6212888413
 20
127.7143898446
 30
0.0
 11
169.6082235232
 21
127.7143898446
 31
0.0
  0
LINE
  5
D8
330
1F
100
AcDbEntity
  8
0
  6
Continuous
 62
     7
370
    15
100
AcDbLine
 10
170.2082235232
 20
126.9630528319
 30
0.0
 11
170.2082235232
 21
122.4838488907
 31
0.0
  0
LINE
  5
D9
330
1F
100
AcDbEntity
  8
0
  6
Continuous
 62
     7
370
    15
100
AcDbLine
 10
154.3582235232
 20
126.9630528319
 30
0.0
 11
154.3582235232
 21
122.4838488907
 31
0.0
  0
LINE
  5
DA
330
1F
100
AcDbEntity
  8
0
  6
Continuous
 62
     7
370
    15
100
AcDbLine
 10
103.5082235232
 20
99.572551627
 30
0.0
 11
103.5082235232
 21
115.6951461454
 31
0.0
  0
CIRCLE
  5
DB
330
1F
100
AcDbEntity
  8
0
  6
HIDDEN
 62
     7
370
     0
100
AcDbCircle
 10
180.9582235232
 20
107.6338488907
 30
0.0
 40
3.50827075990334
  0
CIRCLE
  5
DC
330
1F
100
AcDbEntity
  8
0
  6
HIDDEN
 62
     7
370
     0
100
AcDbCircle
 10
180.9582235232
 20
107.6338488907
 30
0.0
 40
2.499560044877981
  0
CIRCLE
  5
DD
330
1F
100
AcDbEntity
  8
0
  6
HIDDEN
 62
     7
370
     0
100
AcDbCircle
 10
180.9582235232
 20
107.6338488907
 30
0.0
 40
2.199560044877984
  0
SPLINE
  5
DE
330
1F
100
AcDbEntity
  8
0
  6
HIDDEN
 62
     7
370
     0
100
AcDbSpline
210
0.0
220
0.0
230
1.0
 70
     8
 71
     3
 72
    16
 73
    12
 74
     0
 42
0.000000001
 43
0.00000001
 40
0.0
 40
0.0
 40
0.0
 40
0.0
 40
0.2500000000000004
 40
0.2500000000000004
 40
0.5000000000000008
 40
0.5000000000000008
 40
0.7500000000000011
 40
0.7500000000000011
 40
0.8750000000000006
 40
0.8750000000000006
 40
1.0
 40
1.0
 40
1.0
 40
1.0
 10
160.8309240336555
 20
100.0214381723198
 30
0.0
 10
160.922873359749
 20
100.0063551828549
 30
0.0
 10
161.0153150671657
 20
100.0063008838436
 30
0.0
 10
161.1973434694933
 20
100.0291112431183
 30
0.0
 10
161.287281229228
 20
100.0519963801748
 30
0.0
 10
161.4547180374467
 20
100.1197503509137
 30
0.0
 10
161.5354975536282
 20
100.1641784217458
 30
0.0
 10
161.6079873357338
 20
100.2548604046515
 30
0.0
 10
161.6232375597228
 20
100.2890887277094
 30
0.0
 10
161.6092449348461
 20
100.3710138437978
 30
0.0
 10
161.5766156046647
 20
100.4184955578022
 30
0.0
 10
161.5208616428443
 20
100.4717335554007
 30
0.0
  0
SPLINE
  5
DF
330
1F
100
AcDbEntity
  8
0
  6
HIDDEN
 62
     7
370
     0
100
AcDbSpline
210
0.0
220
0.0
230
1.0
 70
     8
 71
     3
 72
    22
 73
    18
 74
     0
 42
0.000000001
 43
0.00000001
 40
0.0
 40
0.0
 40
0.0
 40
0.0
 40
0.125
 40
0.125
 40
0.25
 40
0.25
 40
0.375
 40
0.375
 40
0.5
 40
0.5
 40
0.625
 40
0.625
 40
0.75
 40
0.75
 40
0.875
 40
0.875
 40
1.0
 40
1.0
 40
1.0
 40
1.0
 10
160.8309240336555
 20
102.9164334422022
 30
0.0
 10
160.9165658279641
 20
102.8042924909555
 30
0.0
 10
160.9883481330914
 20
102.6775900149909
 30
0.0
 10
161.0958971593055
 20
102.4097521782258
 30
0.0
 10
161.1323307787556
 20
102.2683443636841
 30
0.0
 10
161.1791448508904
 20
101.9766839235599
 30
0.0
 10
161.1893608595579
 20
101.8300395384469
 30
0.0
 10
161.1995770129894
 20
101.5367171017259
 30
0.0
 10
161.199941572386
 20
101.3916462749415
 30
0.0
 10
161.1999404549252
 20
101.1178460080063
 30
0.0
 10
161.1995711592778
 20
100.985960992128
 30
0.0
 10
161.1893454071337
 20
100.7413070565481
 30
0.0
 10
161.1791235361107
 20
100.6291246617741
 30
0.0
 10
161.1323462691779
 20
100.4198102916808
 30
0.0
 10
161.0958406225909
 20
100.3250347670835
 30
0.0
 10
160.9884759174479
 20
100.1563866381016
 30
0.0
 10
160.9165771138864
 20
100.0819651974021
 30
0.0
 10
160.8309240336555
 20
100.0214381723198
 30
0.0
  0
SPLINE
  5
E0
330
1F
100
AcDbEntity
  8
0
  6
HIDDEN
 62
     7
370
     0
100
AcDbSpline
210
0.0
220
0.0
230
1.0
 70
     8
 71
     3
 72
    18
 73
    14
 74
     0
 42
0.000000001
 43
0.00000001
 40
0.0
 40
0.0
 40
0.0
 40
0.0
 40
0.0625000000000015
 40
0.0625000000000015
 40
0.125000000000003
 40
0.125000000000003
 40
0.2500000000000042
 40
0.2500000000000042
 40
0.5000000000000028
 40
0.5000000000000028
 40
0.7500000000000013
 40
0.7500000000000013
 40
1.0
 40
1.0
 40
1.0
 40
1.0
 10
161.5208616428519
 20
104.1671504845168
 30
0.0
 10
161.5488033170993
 20
104.1601622313901
 30
0.0
 10
161.5712010240208
 20
104.1497923406897
 30
0.0
 10
161.6032508255769
 20
104.1228604809131
 30
0.0
 10
161.6127782216363
 20
104.1061103838755
 30
0.0
 10
161.6232213008306
 20
104.0509415353399
 30
0.0
 10
161.6075965036126
 20
104.0070428328575
 30
0.0
 10
161.5353116277197
 20
103.8709547908942
 30
0.0
 10
161.4550982633867
 20
103.7707542070204
 30
0.0
 10
161.2873284956266
 20
103.5558871979859
 30
0.0
 10
161.1972726322763
 20
103.4412216369718
 30
0.0
 10
161.0151622482521
 20
103.1938634369053
 30
0.0
 10
160.9227527673269
 20
103.0612809147935
 30
0.0
 10
160.8309240336555
 20
102.9164334422022
 30
0.0
  0
SPLINE
  5
E1
330
1F
100
AcDbEntity
  8
0
  6
HIDDEN
 62
     7
370
     0
100
AcDbSpline
210
0.0
220
0.0
230
1.0
 70
     8
 71
     3
 72
     8
 73
     4
 74
     0
 42
0.000000001
 43
0.00000001
 40
0.0
 40
0.0
 40
0.0
 40
0.0
 40
1.0
 40
1.0
 40
1.0
 40
1.0
 10
161.4229365755995
 20
104.1778097709075
 30
0.0
 10
161.4552258913647
 20
104.176764573943
 30
0.0
 10
161.4879093838887
 20
104.1732069281141
 30
0.0
 10
161.5208616428522
 20
104.1671504845168
 30
0.0
  0
SPLINE
  5
E2
330
1F
100
AcDbEntity
  8
0
  6
HIDDEN
 62
     7
370
     0
100
AcDbSpline
210
0.0
220
0.0
230
1.0
 70
     8
 71
     3
 72
    26
 73
    22
 74
     0
 42
0.000000001
 43
0.00000001
 40
0.0
 40
0.0
 40
0.0
 40
0.0
 40
0.0625000000000002
 40
0.0625000000000002
 40
0.1250000000000003
 40
0.1250000000000003
 40
0.2500000000000003
 40
0.2500000000000003
 40
0.3750000000000002
 40
0.3750000000000002
 40
0.5000000000000002
 40
0.5000000000000002
 40
0.6250000000000002
 40
0.6250000000000002
 40
0.7500000000000001
 40
0.7500000000000001
 40
0.8750000000000001
 40
0.8750000000000001
 40
0.9375000000000001
 40
0.9375000000000001
 40
1.0
 40
1.0
 40
1.0
 40
1.0
 10
161.4229365755997
 20
100.5567383220501
 30
0.0
 10
161.3534833937211
 20
100.6135579352709
 30
0.0
 10
161.2769833572877
 20
100.673067484577
 30
0.0
 10
161.1224964328728
 20
100.8017964872988
 30
0.0
 10
161.0439761086858
 20
100.8710821120527
 30
0.0
 10
160.8133577013072
 20
101.0956798586286
 30
0.0
 10
160.6709107545231
 20
101.2630685506299
 30
0.0
 10
160.4273770830333
 20
101.6349345818951
 30
0.0
 10
160.3303245903316
 20
101.8318408360465
 30
0.0
 10
160.1938929582032
 20
102.2516146127164
 30
0.0
 10
160.1585675079698
 20
102.4626584826706
 30
0.0
 10
160.15788445468
 20
102.8822986255449
 30
0.0
 10
160.1928218456097
 20
103.0808671439377
 30
0.0
 10
160.3284112433943
 20
103.4465081514685
 30
0.0
 10
160.4265268562011
 20
103.6065468013187
 30
0.0
 10
160.6698057775212
 20
103.8759895039133
 30
0.0
 10
160.812377430415
 20
103.9823611207633
 30
0.0
 10
161.0423261547887
 20
104.0956540543245
 30
0.0
 10
161.1205867616828
 20
104.1251501924107
 30
0.0
 10
161.275830185153
 20
104.1662948580538
 30
0.0
 10
161.353800821081
 20
104.1780405814347
 30
0.0
 10
161.4229365755998
 20
104.1778097709075
 30
0.0
  0
SPLINE
  5
E3
330
1F
100
AcDbEntity
  8
0
  6
HIDDEN
 62
     7
370
     0
100
AcDbSpline
210
0.0
220
0.0
230
1.0
 70
     8
 71
     3
 72
     8
 73
     4
 74
     0
 42
0.000000001
 43
0.00000001
 40
0.0
 40
0.0
 40
0.0
 40
0.0
 40
1.0
 40
1.0
 40
1.0
 40
1.0
 10
161.5208616428522
 20
100.4717335554016
 30
0.0
 10
161.4879093838887
 20
100.4978685285446
 30
0.0
 10
161.4552258913646
 20
100.5262397386261
 30
0.0
 10
161.4229365755995
 20
100.5567383220504
 30
0.0
  0
SPLINE
  5
E4
330
1F
100
AcDbEntity
  8
0
  6
HIDDEN
 62
     7
370
     0
100
AcDbSpline
210
0.0
220
0.0
230
1.0
 70
    11
 71
     3
 72
    62
 73
    58
 74
     0
 42
0.000000001
 43
0.00000001
 40
0.0
 40
0.0
 40
0.0
 40
0.0
 40
0.0312499999999999
 40
0.0312499999999999
 40
0.0624999999999999
 40
0.0624999999999999
 40
0.1250000000000001
 40
0.1250000000000001
 40
0.1875000000000004
 40
0.1875000000000004
 40
0.2187500000000005
 40
0.2187500000000005
 40
0.2500000000000006
 40
0.2500000000000006
 40
0.2812500000000007
 40
0.2812500000000007
 40
0.3125000000000008
 40
0.3125000000000008
 40
0.3437500000000009
 40
0.3437500000000009
 40
0.375000000000001
 40
0.375000000000001
 40
0.4375000000000012
 40
0.4375000000000012
 40
0.4687500000000012
 40
0.4687500000000012
 40
0.5000000000000011
 40
0.5000000000000011
 40
0.531250000000001
 40
0.531250000000001
 40
0.562500000000001
 40
0.562500000000001
 40
0.5937500000000009
 40
0.5937500000000009
 40
0.6250000000000009
 40
0.6250000000000009
 40
0.6562500000000008
 40
0.6562500000000008
 40
0.6875000000000008
 40
0.6875000000000008
 40
0.7187500000000007
 40
0.7187500000000007
 40
0.7500000000000007
 40
0.7500000000000007
 40
0.7812500000000006
 40
0.7812500000000006
 40
0.8125000000000006
 40
0.8125000000000006
 40
0.8750000000000003
 40
0.8750000000000003
 40
0.9062500000000002
 40
0.9062500000000002
 40
0.9375000000000002
 40
0.9375000000000002
 40
0.9687500000000001
 40
0.9687500000000001
 40
1.0
 40
1.0
 40
1.0
 40
1.0
 10
162.2582235232417
 20
104.3967542554784
 30
0.0
 10
162.1170252992619
 20
104.3967542554784
 30
0.0
 10
161.9787474222481
 20
104.407222191862
 30
0.0
 10
161.7075813510402
 20
104.4482456727974
 30
0.0
 10
161.5733780235807
 20
104.479372126213
 30
0.0
 10
161.1943148437906
 20
104.6007461141248
 30
0.0
 10
160.9653079220968
 20
104.7209008881329
 30
0.0
 10
160.584277303094
 20
105.0296797871558
 30
0.0
 10
160.4286542261724
 20
105.2218489553196
 30
0.0
 10
160.2695837496037
 20
105.5518332671578
 30
0.0
 10
160.2278566044604
 20
105.6713326304699
 30
0.0
 10
160.1725859033183
 20
105.9179170296256
 30
0.0
 10
160.1585059718285
 20
106.0450889600628
 30
0.0
 10
160.1579494055073
 20
106.307578152759
 30
0.0
 10
160.1719386829279
 20
106.442720521456
 30
0.0
 10
160.2264202021636
 20
106.7072056148157
 30
0.0
 10
160.2672706603185
 20
106.8393555190617
 30
0.0
 10
160.3738846271779
 20
107.0960512699836
 30
0.0
 10
160.4386367694509
 20
107.2187891544375
 30
0.0
 10
160.5901953114035
 20
107.4531599031958
 30
0.0
 10
160.6775334345766
 20
107.5649774042093
 30
0.0
 10
160.9633098555381
 20
107.8701608693377
 30
0.0
 10
161.1928462040039
 20
108.0409751885175
 30
0.0
 10
161.5691643399982
 20
108.2174855514915
 30
0.0
 10
161.7014972483589
 20
108.2639703586853
 30
0.0
 10
161.9755299073497
 20
108.3270740714253
 30
0.0
 10
162.1135550669718
 20
108.3430317611697
 30
0.0
 10
162.3916264481906
 20
108.3438776300314
 30
0.0
 10
162.5333393868609
 20
108.3281529550583
 30
0.0
 10
162.8057616425412
 20
108.2667125125591
 30
0.0
 10
162.9375897870383
 20
108.2213908688727
 30
0.0
 10
163.1929886826429
 20
108.1028430658716
 30
0.0
 10
163.3131546858322
 20
108.0311559826553
 30
0.0
 10
163.5383260983885
 20
107.8664274166569
 30
0.0
 10
163.6444771597229
 20
107.7721681436221
 30
0.0
 10
163.8359244484251
 20
107.5686034694783
 30
0.0
 10
163.9218584623446
 20
107.4591361792392
 30
0.0
 10
164.0742707803846
 20
107.2250385767552
 30
0.0
 10
164.1404542706721
 20
107.1001443538573
 30
0.0
 10
164.2466359692232
 20
106.8464126023226
 30
0.0
 10
164.287616032439
 20
106.7162429175389
 30
0.0
 10
164.3436961732364
 20
106.44917922241
 30
0.0
 10
164.3579203486776
 20
106.3152259923948
 30
0.0
 10
164.3585170325491
 20
106.0537692499267
 30
0.0
 10
164.3447484650507
 20
105.9236518805393
 30
0.0
 10
164.2898983981086
 20
105.6754610250555
 30
0.0
 10
164.2494018848322
 20
105.5581055339747
 30
0.0
 10
164.089939413656
 20
105.224356412235
 30
0.0
 10
163.9352709893418
 20
105.032516840309
 30
0.0
 10
163.6469629579972
 20
104.7983942723393
 30
0.0
 10
163.5429381426494
 20
104.7302378629761
 30
0.0
 10
163.3185188844706
 20
104.611526923752
 30
0.0
 10
163.1965880966101
 20
104.5606049873837
 30
0.0
 10
162.9441309451841
 20
104.479655152562
 30
0.0
 10
162.8132444152669
 20
104.449119833563
 30
0.0
 10
162.5413034975541
 20
104.4075618048186
 30
0.0
 10
162.3994217472216
 20
104.3967542554784
 30
0.0
 10
162.2582235232417
 20
104.3967542554784
 30
0.0
  0
LWPOLYLINE
  5
E5
330
1F
100
AcDbEntity
  8
0
  6
HIDDEN
 62
     7
370
     0
100
AcDbPolyline
 90
       21
 70
   128
 43
0.0
 10
160.8309240337
 20
100.0214381723
 10
161.2229914712
 20
99.7520233713
 10
161.6704395446
 20
99.5744562891
 10
162.1493316313
 20
99.4982360304
 10
162.6340489841
 20
99.5274400642
 10
163.0986612282
 20
99.6605060953
 10
163.5183135289
 20
99.8903156411
 10
163.8705562228
 20
100.2045748408
 10
164.1365457815
 20
100.5864721261
 10
164.3020528633
 20
101.0155775708
 10
164.3582235232
 20
101.4689358073
 10
164.3020528633
 20
101.9222940437
 10
164.1365457815
 20
102.3513994884
 10
163.8705562228
 20
102.7332967737
 10
163.5183135289
 20
103.0475559734
 10
163.0986612282
 20
103.2773655192
 10
162.6340489841
 20
103.4104315503
 10
162.1493316313
 20
103.4396355841
 10
161.6704395446
 20
103.3634153255
 10
161.2229914712
 20
103.1858482432
 10
160.8309240337
 20
102.9164334422
  0
LINE
  5
E6
330
1F
100
AcDbEntity
  8
0
  6
HIDDEN
 62
     7
370
     0
100
AcDbLine
 10
189.8082235232
 20
118.4338230211
 30
0.0
 11
189.8082235232
 21
120.1688207765
 31
0.0
  0
SPLINE
  5
E7
330
1F
100
AcDbEntity
  8
0
  6
HIDDEN
 62
     7
370
     0
100
AcDbSpline
210
0.0
220
0.0
230
1.0
 70
     8
 71
     3
 72
    10
 73
     6
 74
     0
 42
0.000000001
 43
0.00000001
 40
0.0
 40
0.0
 40
0.0
 40
0.0
 40
0.2189401613292873
 40
0.8837202803173543
 40
0.9999999999999999
 40
0.9999999999999999
 40
0.9999999999999999
 40
0.9999999999999999
 10
189.8082235232417
 20
115.8154153342645
 30
0.0
 10
189.8210050987517
 20
115.8700569840294
 30
0.0
 10
189.872596078789
 20
116.0906100965972
 30
0.0
 10
189.9245965063582
 20
116.3391511031288
 30
0.0
 10
189.9538660422185
 20
116.5204431552419
 30
0.0
 10
189.9582235232418
 20
116.5474328786366
 30
0.0
  0
SPLINE
  5
E8
330
1F
100
AcDbEntity
  8
0
  6
HIDDEN
 62
     7
370
     0
100
AcDbSpline
210
0.0
220
0.0
230
1.0
 70
     8
 71
     3
 72
    10
 73
     6
 74
     0
 42
0.000000001
 43
0.00000001
 40
0.0
 40
0.0
 40
0.0
 40
0.0
 40
0.150498175766723
 40
0.5902594888189941
 40
1.0
 40
1.0
 40
1.0
 40
1.0
 10
189.9582235232418
 20
118.3343782797395
 30
0.0
 10
189.9524775404009
 20
118.3448677837634
 30
0.0
 10
189.9299415802329
 20
118.3860080118864
 30
0.0
 10
189.880575285354
 20
118.4221504274551
 30
0.0
 10
189.8317658130449
 20
118.430024916205
 30
0.0
 10
189.8082235232417
 20
118.4338230211103
 30
0.0
  0
LINE
  5
E9
330
1F
100
AcDbEntity
  8
0
  6
HIDDEN
 62
     7
370
     0
100
AcDbLine
 10
189.8082235232
 20
99.4522824471
 30
0.0
 11
189.8082235232
 21
115.8154153343
 31
0.0
  0
LINE
  5
EA
330
1F
100
AcDbEntity
  8
0
  6
HIDDEN
 62
     7
370
     0
100
AcDbLine
 10
189.8082235232
 20
96.8338747603
 30
0.0
 11
189.9582235232
 21
96.9683018459
 31
0.0
  0
SPLINE
  5
EB
330
1F
100
AcDbEntity
  8
0
  6
HIDDEN
 62
     7
370
     0
100
AcDbSpline
210
0.0
220
0.0
230
1.0
 70
     8
 71
     3
 72
     9
 73
     5
 74
     0
 42
0.000000001
 43
0.00000001
 40
0.0
 40
0.0
 40
0.0
 40
0.0
 40
0.6262737817586358
 40
1.0
 40
1.0
 40
1.0
 40
1.0
 10
189.9582235232418
 20
98.6635542602584
 30
0.0
 10
189.9348550108089
 20
98.82134948457117
 30
0.0
 10
189.897541437874
 20
99.07330833852426
 30
0.0
 10
189.8325227220293
 20
99.34918143724745
 30
0.0
 10
189.8082235232418
 20
99.4522824471478
 30
0.0
  0
LINE
  5
EC
330
1F
100
AcDbEntity
  8
0
  6
HIDDEN
 62
     7
370
     0
100
AcDbLine
 10
189.8082235232
 20
95.0988770049
 30
0.0
 11
189.8082235232
 21
96.8338747603
 31
0.0
  0
LINE
  5
ED
330
1F
100
AcDbEntity
  8
0
  6
HIDDEN
 62
     7
370
     0
100
AcDbLine
 10
188.0761727157
 20
103.2695047246
 30
0.0
 11
188.0761727157
 21
111.9981930568
 31
0.0
  0
LINE
  5
EE
330
1F
100
AcDbEntity
  8
0
  6
HIDDEN
 62
     7
370
     0
100
AcDbLine
 10
186.9082235232
 20
103.2695047246
 30
0.0
 11
186.9082235232
 21
111.9981930568
 31
0.0
  0
LINE
  5
EF
330
1F
100
AcDbEntity
  8
0
  6
HIDDEN
 62
     7
370
     0
100
AcDbLine
 10
189.8082235232
 20
118.4338230211
 30
0.0
 11
189.8082235232
 21
118.3740122174
 31
0.0
  0
LINE
  5
F0
330
1F
100
AcDbEntity
  8
0
  6
HIDDEN
 62
     7
370
     0
100
AcDbLine
 10
186.9082235232
 20
118.3740122174
 30
0.0
 11
189.8082235232
 21
118.3740122174
 31
0.0
  0
LINE
  5
F1
330
1F
100
AcDbEntity
  8
0
  6
HIDDEN
 62
     7
370
     0
100
AcDbLine
 10
186.9082235232
 20
118.4338488907
 30
0.0
 11
186.9082235232
 21
115.2338488907
 31
0.0
  0
LINE
  5
F2
330
1F
100
AcDbEntity
  8
0
  6
HIDDEN
 62
     7
370
     0
100
AcDbLine
 10
186.9082235232
 20
115.2338488907
 30
0.0
 11
186.9082235232
 21
111.9981930568
 31
0.0
  0
LINE
  5
F3
330
1F
100
AcDbEntity
  8
0
  6
HIDDEN
 62
     7
370
     0
100
AcDbLine
 10
186.9082235232
 20
111.9981930568
 30
0.0
 11
188.0761727157
 21
111.9981930568
 31
0.0
  0
SPLINE
  5
F4
330
1F
100
AcDbEntity
  8
0
  6
HIDDEN
 62
     7
370
     0
100
AcDbSpline
210
0.0
220
0.0
230
1.0
 70
     8
 71
     3
 72
     8
 73
     4
 74
     0
 42
0.000000001
 43
0.00000001
 40
0.0
 40
0.0
 40
0.0
 40
0.0
 40
1.0
 40
1.0
 40
1.0
 40
1.0
 10
188.0761727156728
 20
111.9981930567866
 30
0.0
 10
188.6029196091299
 20
112.7298570173208
 30
0.0
 10
189.190444904193
 20
113.4004648759669
 30
0.0
 10
189.8082235232417
 20
114.0406811813159
 30
0.0
  0
LINE
  5
F5
330
1F
100
AcDbEntity
  8
0
  6
HIDDEN
 62
     7
370
     0
100
AcDbLine
 10
186.9082235232
 20
96.893685564
 30
0.0
 11
189.8082235232
 21
96.893685564
 31
0.0
  0
LINE
  5
F6
330
1F
100
AcDbEntity
  8
0
  6
HIDDEN
 62
     7
370
     0
100
AcDbLine
 10
189.8082235232
 20
96.893685564
 30
0.0
 11
189.8082235232
 21
96.8338747603
 31
0.0
  0
LINE
  5
F7
330
1F
100
AcDbEntity
  8
0
  6
HIDDEN
 62
     7
370
     0
100
AcDbLine
 10
186.9082235232
 20
100.0338488907
 30
0.0
 11
186.9082235232
 21
96.8338488907
 31
0.0
  0
LINE
  5
F8
330
1F
100
AcDbEntity
  8
0
  6
HIDDEN
 62
     7
370
     0
100
AcDbLine
 10
186.9082235232
 20
103.2695047246
 30
0.0
 11
186.9082235232
 21
100.0338488907
 31
0.0
  0
LINE
  5
F9
330
1F
100
AcDbEntity
  8
0
  6
HIDDEN
 62
     7
370
     0
100
AcDbLine
 10
188.0761727157
 20
103.2695047246
 30
0.0
 11
186.9082235232
 21
103.2695047246
 31
0.0
  0
SPLINE
  5
FA
330
1F
100
AcDbEntity
  8
0
  6
HIDDEN
 62
     7
370
     0
100
AcDbSpline
210
0.0
220
0.0
230
1.0
 70
     8
 71
     3
 72
     8
 73
     4
 74
     0
 42
0.000000001
 43
0.00000001
 40
0.0
 40
0.0
 40
0.0
 40
0.0
 40
1.0
 40
1.0
 40
1.0
 40
1.0
 10
189.8082235232417
 20
101.2270166000964
 30
0.0
 10
189.1850814344073
 20
101.8727911761659
 30
0.0
 10
188.5973052471302
 20
102.5456392464132
 30
0.0
 10
188.0761727156728
 20
103.2695047246258
 30
0.0
  0
LINE
  5
FB
330
1F
100
AcDbEntity
  8
0
  6
HIDDEN
 62
     7
370
     0
100
AcDbLine
 10
186.1082235232
 20
98.6338488907
 30
0.0
 11
186.1082235232
 21
116.6338488907
 31
0.0
  0
LINE
  5
FC
330
1F
100
AcDbEntity
  8
0
  6
HIDDEN
 62
     7
370
     0
100
AcDbLine
 10
171.2582235232
 20
99.0338488907
 30
0.0
 11
171.2582235232
 21
116.2338488583
 31
0.0
  0
LINE
  5
FD
330
1F
100
AcDbEntity
  8
0
  6
HIDDEN
 62
     7
370
     0
100
AcDbLine
 10
173.2582235232
 20
98.6338488907
 30
0.0
 11
173.2582235232
 21
116.6338488907
 31
0.0
  0
LINE
  5
FE
330
1F
100
AcDbEntity
  8
0
  6
HIDDEN
 62
     7
370
     0
100
AcDbLine
 10
154.3582235232
 20
126.4338488907
 30
0.0
 11
154.6954818234
 21
126.4338488907
 31
0.0
  0
ELLIPSE
  5
FF
330
1F
100
AcDbEntity
  8
0
  6
HIDDEN
 62
     7
370
     0
100
AcDbEllipse
 10
154.6954818234
 20
128.0338488907
 30
0.0
 11
0.0
 21
1.599999999999994
 31
0.0
210
0.0
220
0.0
230
1.0
 40
0.4142135624
 41
3.141592653589793
 42
4.712388980384695
  0
ELLIPSE
  5
100
330
1F
100
AcDbEntity
  8
0
  6
HIDDEN
 62
     7
370
     0
100
AcDbEllipse
 10
154.9440099609
 20
90.4338488907
 30
0.0
 11
0.0
 21
1.0
 31
0.0
210
0.0
220
0.0
230
1.0
 40
0.4142135624
 41
4.712388980384695
 42
6.283185307179586
  0
LINE
  5
101
330
1F
100
AcDbEntity
  8
0
  6
HIDDEN
 62
     7
370
     0
100
AcDbLine
 10
154.9440099609
 20
91.4338488907
 30
0.0
 11
154.3582235232
 21
91.4338488907
 31
0.0
  0
LINE
  5
102
330
1F
100
AcDbEntity
  8
0
  6
HIDDEN
 62
     7
370
     0
100
AcDbLine
 10
155.3582235232
 20
84.7798168049
 30
0.0
 11
154.5903463831
 21
84.4020314633
 31
0.0
  0
LINE
  5
103
330
1F
100
AcDbEntity
  8
0
  6
HIDDEN
 62
     7
370
     0
100
AcDbLine
 10
154.6764620376
 20
130.9576941466
 30
0.0
 11
155.3582235232
 21
130.275932661
 31
0.0
  0
LINE
  5
104
330
1F
100
AcDbEntity
  8
0
  6
HIDDEN
 62
     7
370
     0
100
AcDbLine
 10
170.5217446361
 20
91.4338488907
 30
0.0
 11
170.2082235232
 21
91.4338488907
 31
0.0
  0
LINE
  5
105
330
1F
100
AcDbEntity
  8
0
  6
HIDDEN
 62
     7
370
     0
100
AcDbLine
 10
159.3250889758
 20
84.7798168049
 30
0.0
 11
155.3582235232
 21
84.7798168049
 31
0.0
  0
LINE
  5
106
330
1F
100
AcDbEntity
  8
0
  6
HIDDEN
 62
     7
370
     0
100
AcDbLine
 10
170.2082235232
 20
84.7798168049
 30
0.0
 11
165.1913580707
 21
84.7798168049
 31
0.0
  0
LINE
  5
107
330
1F
100
AcDbEntity
  8
0
  6
HIDDEN
 62
     7
370
     0
100
AcDbLine
 10
155.3582235232
 20
84.7798168049
 30
0.0
 11
155.3582235232
 21
90.4338488907
 31
0.0
  0
LINE
  5
108
330
1F
100
AcDbEntity
  8
0
  6
HIDDEN
 62
     7
370
     0
100
AcDbLine
 10
170.2082235232
 20
91.4338488907
 30
0.0
 11
154.9440099609
 21
91.4338488907
 31
0.0
  0
LINE
  5
109
330
1F
100
AcDbEntity
  8
0
  6
HIDDEN
 62
     7
370
     0
100
AcDbLine
 10
155.3582235232
 20
130.275932661
 30
0.0
 11
159.4404471883
 21
130.275932661
 31
0.0
  0
LINE
  5
10A
330
1F
100
AcDbEntity
  8
0
  6
HIDDEN
 62
     7
370
     0
100
AcDbLine
 10
165.0759998582
 20
130.275932661
 30
0.0
 11
170.2082235232
 21
130.275932661
 31
0.0
  0
LINE
  5
10B
330
1F
100
AcDbEntity
  8
0
  6
HIDDEN
 62
     7
370
     0
100
AcDbLine
 10
155.3582235232
 20
130.275932661
 30
0.0
 11
155.3582235232
 21
128.0338488907
 31
0.0
  0
LINE
  5
10C
330
1F
100
AcDbEntity
  8
0
  6
HIDDEN
 62
     7
370
     0
100
AcDbLine
 10
154.6954818234
 20
126.4338488907
 30
0.0
 11
170.2082235232
 21
126.4338488907
 31
0.0
  0
LINE
  5
10D
330
1F
100
AcDbEntity
  8
0
  6
HIDDEN
 62
     7
370
     0
100
AcDbLine
 10
107.5082235232
 20
101.1338488907
 30
0.0
 11
107.5082235232
 21
114.1338488907
 31
0.0
  0
LINE
  5
10E
330
1F
100
AcDbEntity
  8
0
  6
HIDDEN
 62
     7
370
     0
100
AcDbLine
 10
110.4464177107
 20
102.5338488907
 30
0.0
 11
110.4464177107
 21
112.7338488907
 31
0.0
  0
LINE
  5
10F
330
1F
100
AcDbEntity
  8
0
  6
HIDDEN
 62
     7
370
     0
100
AcDbLine
 10
186.9082235232
 20
119.8088488907
 30
0.0
 11
186.9082235232
 21
118.4338488907
 31
0.0
  0
LINE
  5
110
330
1F
100
AcDbEntity
  8
0
  6
HIDDEN
 62
     7
370
     0
100
AcDbLine
 10
186.9082235232
 20
96.8338488907
 30
0.0
 11
186.9082235232
 21
95.4588488907
 31
0.0
  0
LINE
  5
111
330
1F
100
AcDbEntity
  8
0
  6
HIDDEN
 62
     7
370
     0
100
AcDbLine
 10
137.5082235232
 20
102.5338488907
 30
0.0
 11
137.5082235232
 21
112.7338488907
 31
0.0
  0
LINE
  5
112
330
1F
100
AcDbEntity
  8
0
  6
HIDDEN
 62
     7
370
     0
100
AcDbLine
 10
138.0189550494
 20
103.3838488907
 30
0.0
 11
138.0189550494
 21
111.8838488907
 31
0.0
  0
SPLINE
  5
113
330
1F
100
AcDbEntity
  8
0
  6
HIDDEN
 62
     7
370
     0
100
AcDbSpline
210
0.0
220
0.0
230
1.0
 70
    11
 71
     3
 72
    62
 73
    58
 74
     0
 42
0.000000001
 43
0.00000001
 40
0.0
 40
0.0
 40
0.0
 40
0.0
 40
0.0312499999999997
 40
0.0312499999999997
 40
0.0624999999999994
 40
0.0624999999999994
 40
0.1249999999999991
 40
0.1249999999999991
 40
0.1874999999999988
 40
0.1874999999999988
 40
0.2187499999999987
 40
0.2187499999999987
 40
0.2499999999999986
 40
0.2499999999999986
 40
0.2812499999999984
 40
0.2812499999999984
 40
0.3124999999999984
 40
0.3124999999999984
 40
0.3437499999999983
 40
0.3437499999999983
 40
0.3749999999999982
 40
0.3749999999999982
 40
0.4374999999999981
 40
0.4374999999999981
 40
0.4687499999999982
 40
0.4687499999999982
 40
0.4999999999999982
 40
0.4999999999999982
 40
0.5312499999999983
 40
0.5312499999999983
 40
0.5624999999999984
 40
0.5624999999999984
 40
0.5937499999999987
 40
0.5937499999999987
 40
0.6249999999999988
 40
0.6249999999999988
 40
0.6562499999999989
 40
0.6562499999999989
 40
0.687499999999999
 40
0.687499999999999
 40
0.7187499999999991
 40
0.7187499999999991
 40
0.7499999999999991
 40
0.7499999999999991
 40
0.7812499999999992
 40
0.7812499999999992
 40
0.8124999999999992
 40
0.8124999999999992
 40
0.8749999999999994
 40
0.8749999999999994
 40
0.9062499999999996
 40
0.9062499999999996
 40
0.9374999999999998
 40
0.9374999999999998
 40
0.9687499999999999
 40
0.9687499999999999
 40
1.0
 40
1.0
 40
1.0
 40
1.0
 10
162.2582235232417
 20
106.9242345186331
 30
0.0
 10
162.3994217472216
 20
106.9242345186331
 30
0.0
 10
162.5376996242354
 20
106.9402459286246
 30
0.0
 10
162.8088656954432
 20
107.0019754942475
 30
0.0
 10
162.9430690229028
 20
107.0485132577022
 30
0.0
 10
163.3221322026929
 20
107.2254895864372
 30
0.0
 10
163.5511391243867
 20
107.3959158801463
 30
0.0
 10
163.9321697433895
 20
107.8018021575697
 30
0.0
 10
164.0877928203111
 20
108.0414725989057
 30
0.0
 10
164.2468632968798
 20
108.4219494262223
 30
0.0
 10
164.2885904420231
 20
108.5552181615274
 30
0.0
 10
164.3438611431652
 20
108.8201993971562
 30
0.0
 10
164.357941074655
 20
108.9521647118741
 30
0.0
 10
164.3584976409761
 20
109.2148420216883
 30
0.0
 10
164.3445083635555
 20
109.3452218856458
 30
0.0
 10
164.2900268443199
 20
109.591565816369
 30
0.0
 10
164.249176386165
 20
109.7102200863518
 30
0.0
 10
164.1425624193056
 20
109.9330463531072
 30
0.0
 10
164.0778102770325
 20
110.0357314640916
 30
0.0
 10
163.92625173508
 20
110.225854717005
 30
0.0
 10
163.8389136119069
 20
110.3133615082243
 30
0.0
 10
163.5531371909454
 20
110.545629003673
 30
0.0
 10
163.3236008424796
 20
110.6660777463155
 30
0.0
 10
162.9472827064853
 20
110.7871743386172
 30
0.0
 10
162.8149497981246
 20
110.8182824720534
 30
0.0
 10
162.5409171391338
 20
110.8602297116091
 30
0.0
 10
162.4028919795117
 20
110.8706599462187
 30
0.0
 10
162.1248205982929
 20
110.8712158450855
 30
0.0
 10
161.9831076596226
 20
110.8609373862554
 30
0.0
 10
161.7106854039423
 20
110.8201142015623
 30
0.0
 10
161.5788572594452
 20
110.7898208656875
 30
0.0
 10
161.3234583638406
 20
110.7085536753966
 30
0.0
 10
161.2032923606513
 20
110.6586058245383
 30
0.0
 10
160.9781209480949
 20
110.5402846133403
 30
0.0
 10
160.8719698867606
 20
110.4709915042578
 30
0.0
 10
160.6805225980584
 20
110.316176855664
 30
0.0
 10
160.5945885841389
 20
110.2305908677934
 30
0.0
 10
160.4421762660989
 20
110.0409071957163
 30
0.0
 10
160.3759927758113
 20
109.9364859346458
 30
0.0
 10
160.2698110772603
 20
109.7164545948385
 30
0.0
 10
160.2288310140445
 20
109.599806108729
 30
0.0
 10
160.1727508732471
 20
109.3514047277397
 30
0.0
 10
160.1585266978059
 20
109.2222947389355
 30
0.0
 10
160.1579300139344
 20
108.9610396731034
 30
0.0
 10
160.1716985814328
 20
108.8262333824307
 30
0.0
 10
160.2265486483749
 20
108.5597782680763
 30
0.0
 10
160.2670451616513
 20
108.4290443333777
 30
0.0
 10
160.4265076328275
 20
108.0446288793741
 30
0.0
 10
160.5811760571417
 20
107.8054698474973
 30
0.0
 10
160.8694840884862
 20
107.4978104880535
 30
0.0
 10
160.9735089038341
 20
107.4051373712892
 30
0.0
 10
161.1979281620129
 20
107.2399945286496
 30
0.0
 10
161.3198589498734
 20
107.1669536599704
 30
0.0
 10
161.5723161012994
 20
107.048931743698
 30
0.0
 10
161.7032026312166
 20
107.0032840380803
 30
0.0
 10
161.9751435489294
 20
106.9407635986131
 30
0.0
 10
162.1170252992619
 20
106.9242345186331
 30
0.0
 10
162.2582235232417
 20
106.9242345186331
 30
0.0
  0
SPLINE
  5
114
330
1F
100
AcDbEntity
  8
0
  6
HIDDEN
 62
     7
370
     0
100
AcDbSpline
210
0.0
220
0.0
230
1.0
 70
     8
 71
     3
 72
    12
 73
     8
 74
     0
 42
0.000000001
 43
0.00000001
 40
0.0
 40
0.0
 40
0.0
 40
0.0
 40
0.5
 40
0.5
 40
0.75
 40
0.75
 40
1.0
 40
1.0
 40
1.0
 40
1.0
 10
160.9245770996799
 20
113.622056531411
 30
0.0
 10
160.7822438956634
 20
113.734973681726
 30
0.0
 10
160.6613423412327
 20
113.8779370552434
 30
0.0
 10
160.5167455875064
 20
114.1040476085596
 30
0.0
 10
160.4737568432054
 20
114.1828680926083
 30
0.0
 10
160.4004946045898
 20
114.3397567852315
 30
0.0
 10
160.3699899947337
 20
114.417843284295
 30
0.0
 10
160.3482235232415
 20
114.4889793536628
 30
0.0
  0
SPLINE
  5
115
330
1F
100
AcDbEntity
  8
0
  6
HIDDEN
 62
     7
370
     0
100
AcDbSpline
210
0.0
220
0.0
230
1.0
 70
     8
 71
     3
 72
    14
 73
    10
 74
     0
 42
0.000000001
 43
0.00000001
 40
0.0
 40
0.0
 40
0.0
 40
0.0
 40
0.25
 40
0.25
 40
0.5
 40
0.5
 40
0.75
 40
0.75
 40
1.0
 40
1.0
 40
1.0
 40
1.0
 10
163.5918699468037
 20
113.6220565314111
 30
0.0
 10
163.4040838737598
 20
113.4730802726143
 30
0.0
 10
163.1950724813333
 20
113.3581612172682
 30
0.0
 10
162.7375911861614
 20
113.1991357138427
 30
0.0
 10
162.5001280651395
 20
113.1590675648821
 30
0.0
 10
162.0145107617392
 20
113.1592708775002
 30
0.0
 10
161.7764354162272
 20
113.199760723856
 30
0.0
 10
161.3203450806014
 20
113.3587370827566
 30
0.0
 10
161.112361733558
 20
113.4730814143471
 30
0.0
 10
160.9245770996799
 20
113.622056531411
 30
0.0
  0
SPLINE
  5
116
330
1F
100
AcDbEntity
  8
0
  6
HIDDEN
 62
     7
370
     0
100
AcDbSpline
210
0.0
220
0.0
230
1.0
 70
     8
 71
     3
 72
    12
 73
     8
 74
     0
 42
0.000000001
 43
0.00000001
 40
0.0
 40
0.0
 40
0.0
 40
0.0
 40
0.2500000000000011
 40
0.2500000000000011
 40
0.5000000000000021
 40
0.5000000000000021
 40
1.0
 40
1.0
 40
1.0
 40
1.0
 10
164.1682235232417
 20
114.488979353662
 30
0.0
 10
164.146493310061
 20
114.4179617818545
 30
0.0
 10
164.1159540092639
 20
114.3397263075251
 30
0.0
 10
164.0424054468659
 20
114.182292260778
 30
0.0
 10
163.9996338047357
 20
114.1039338302181
 30
0.0
 10
163.8550887632262
 20
113.8779281092188
 30
0.0
 10
163.7342475133037
 20
113.7350088757994
 30
0.0
 10
163.5918699468036
 20
113.622056531411
 30
0.0
  0
SPLINE
  5
117
330
1F
100
AcDbEntity
  8
0
  6
HIDDEN
 62
     7
370
     0
100
AcDbSpline
210
0.0
220
0.0
230
1.0
 70
     8
 71
     3
 72
    16
 73
    12
 74
     0
 42
0.000000001
 43
0.00000001
 40
0.0
 40
0.0
 40
0.0
 40
0.0
 40
0.2500000000000042
 40
0.2500000000000042
 40
0.3750000000000034
 40
0.3750000000000034
 40
0.5000000000000028
 40
0.5000000000000028
 40
0.7500000000000013
 40
0.7500000000000013
 40
1.0
 40
1.0
 40
1.0
 40
1.0
 10
164.1682235232419
 20
116.1294361566367
 30
0.0
 10
164.2226198694399
 20
116.0514171637698
 30
0.0
 10
164.2702146016326
 20
115.9554755945101
 30
0.0
 10
164.3211920874248
 20
115.7801636757773
 30
0.0
 10
164.3346709003339
 20
115.7170091962078
 30
0.0
 10
164.3532619866969
 20
115.5794466721638
 30
0.0
 10
164.3581900177585
 20
115.504674497639
 30
0.0
 10
164.3582900037457
 20
115.2757804489828
 30
0.0
 10
164.3384675793511
 20
115.1098956379551
 30
0.0
 10
164.2701932862863
 20
114.7896300562608
 30
0.0
 10
164.2226739998587
 20
114.6348073598471
 30
0.0
 10
164.1682235232419
 20
114.4889793536618
 30
0.0
  0
SPLINE
  5
118
330
1F
100
AcDbEntity
  8
0
  6
HIDDEN
 62
     7
370
     0
100
AcDbSpline
210
0.0
220
0.0
230
1.0
 70
     8
 71
     3
 72
    12
 73
     8
 74
     0
 42
0.000000001
 43
0.00000001
 40
0.0
 40
0.0
 40
0.0
 40
0.0
 40
0.4999999999999969
 40
0.4999999999999969
 40
0.7499999999999984
 40
0.7499999999999984
 40
1.0
 40
1.0
 40
1.0
 40
1.0
 10
163.5918699468036
 20
116.6707109139664
 30
0.0
 10
163.73420315082
 20
116.563705210604
 30
0.0
 10
163.8551047052505
 20
116.4592934164215
 30
0.0
 10
163.9997014589768
 20
116.3149389571171
 30
0.0
 10
164.0426902032779
 20
116.2681302377056
 30
0.0
 10
164.1159524418934
 20
116.1852463821295
 30
0.0
 10
164.1464570517495
 20
116.1478135226423
 30
0.0
 10
164.1682235232417
 20
116.1294361566363
 30
0.0
  0
SPLINE
  5
119
330
1F
100
AcDbEntity
  8
0
  6
HIDDEN
 62
     7
370
     0
100
AcDbSpline
210
0.0
220
0.0
230
1.0
 70
     8
 71
     3
 72
    14
 73
    10
 74
     0
 42
0.000000001
 43
0.00000001
 40
0.0
 40
0.0
 40
0.0
 40
0.0
 40
0.25
 40
0.25
 40
0.5
 40
0.5
 40
0.75
 40
0.75
 40
1.0
 40
1.0
 40
1.0
 40
1.0
 10
160.9245770996799
 20
116.6707109139664
 30
0.0
 10
161.1123631727237
 20
116.8118879567133
 30
0.0
 10
161.3213745651502
 20
116.9197566848386
 30
0.0
 10
161.7788558603221
 20
117.0686804643382
 30
0.0
 10
162.016318981344
 20
117.1059726699196
 30
0.0
 10
162.5019362847443
 20
117.105783055523
 30
0.0
 10
162.7400116302562
 20
117.0680966931659
 30
0.0
 10
163.1961019658821
 20
116.9192158516718
 30
0.0
 10
163.4040853129256
 20
116.8118868747525
 30
0.0
 10
163.5918699468037
 20
116.6707109139664
 30
0.0
  0
SPLINE
  5
11A
330
1F
100
AcDbEntity
  8
0
  6
HIDDEN
 62
     7
370
     0
100
AcDbSpline
210
0.0
220
0.0
230
1.0
 70
     8
 71
     3
 72
    12
 73
     8
 74
     0
 42
0.000000001
 43
0.00000001
 40
0.0
 40
0.0
 40
0.0
 40
0.0
 40
0.2500000000000013
 40
0.2500000000000013
 40
0.5000000000000026
 40
0.5000000000000026
 40
1.0
 40
1.0
 40
1.0
 40
1.0
 10
160.3482235232415
 20
116.1294361566361
 30
0.0
 10
160.3699537364221
 20
116.1477829098592
 30
0.0
 10
160.4004930372193
 20
116.1852484247396
 30
0.0
 10
160.4740415996172
 20
116.2684485609757
 30
0.0
 10
160.5168132417474
 20
116.3150090125617
 30
0.0
 10
160.6613582832571
 20
116.4593042986483
 30
0.0
 10
160.7821995331796
 20
116.5636718590131
 30
0.0
 10
160.9245770996799
 20
116.6707109139664
 30
0.0
  0
SPLINE
  5
11B
330
1F
100
AcDbEntity
  8
0
  6
HIDDEN
 62
     7
370
     0
100
AcDbSpline
210
0.0
220
0.0
230
1.0
 70
     8
 71
     3
 72
    16
 73
    12
 74
     0
 42
0.000000001
 43
0.00000001
 40
0.0
 40
0.0
 40
0.0
 40
0.0
 40
0.2499999999999993
 40
0.2499999999999993
 40
0.374999999999999
 40
0.374999999999999
 40
0.4999999999999987
 40
0.4999999999999987
 40
0.7499999999999993
 40
0.7499999999999993
 40
1.0
 40
1.0
 40
1.0
 40
1.0
 10
160.3482235232413
 20
114.4889793536627
 30
0.0
 10
160.2938271770433
 20
114.6346623890131
 30
0.0
 10
160.2462324448507
 20
114.78990457098
 30
0.0
 10
160.1952549590586
 20
115.0287718543941
 30
0.0
 10
160.1817761461495
 20
115.1087394209213
 30
0.0
 10
160.1631850597865
 20
115.269495127022
 30
0.0
 10
160.158257028725
 20
115.3504172788534
 30
0.0
 10
160.1581570427378
 20
115.5794360931569
 30
0.0
 10
160.1779794671324
 20
115.7205779268256
 30
0.0
 10
160.246253760197
 20
115.9557234435222
 30
0.0
 10
160.2937730466245
 20
116.0513395261879
 30
0.0
 10
160.3482235232412
 20
116.1294361566363
 30
0.0
  0
SPLINE
  5
11C
330
1F
100
AcDbEntity
  8
0
  6
HIDDEN
 62
     7
370
     0
100
AcDbSpline
210
0.0
220
0.0
230
1.0
 70
     8
 71
     3
 72
     8
 73
     4
 74
     0
 42
0.000000001
 43
0.00000001
 40
0.0
 40
0.0
 40
0.0
 40
0.0
 40
1.0
 40
1.0
 40
1.0
 40
1.0
 10
161.4229365756016
 20
111.089888010505
 30
0.0
 10
161.4552258913654
 20
111.0909332074695
 30
0.0
 10
161.487909383888
 20
111.0944908532983
 30
0.0
 10
161.52086164285
 20
111.1005472968953
 30
0.0
  0
SPLINE
  5
11D
330
1F
100
AcDbEntity
  8
0
  6
HIDDEN
 62
     7
370
     0
100
AcDbSpline
210
0.0
220
0.0
230
1.0
 70
     8
 71
     3
 72
    48
 73
    44
 74
     0
 42
0.000000001
 43
0.00000001
 40
0.0
 40
0.0
 40
0.0
 40
0.0
 40
0.0312499999999996
 40
0.0312499999999996
 40
0.0624999999999993
 40
0.0624999999999993
 40
0.1249999999999995
 40
0.1249999999999995
 40
0.1874999999999996
 40
0.1874999999999996
 40
0.2499999999999997
 40
0.2499999999999997
 40
0.3124999999999998
 40
0.3124999999999998
 40
0.3749999999999999
 40
0.3749999999999999
 40
0.4062499999999999
 40
0.4062499999999999
 40
0.4374999999999998
 40
0.4374999999999998
 40
0.4999999999999998
 40
0.4999999999999998
 40
0.5624999999999998
 40
0.5624999999999998
 40
0.5937499999999997
 40
0.5937499999999997
 40
0.6249999999999997
 40
0.6249999999999997
 40
0.6874999999999993
 40
0.6874999999999993
 40
0.7499999999999989
 40
0.7499999999999989
 40
0.8124999999999996
 40
0.8124999999999996
 40
0.8749999999999997
 40
0.8749999999999997
 40
0.9062499999999998
 40
0.9062499999999998
 40
0.9374999999999998
 40
0.9374999999999998
 40
0.9687499999999999
 40
0.9687499999999999
 40
1.0
 40
1.0
 40
1.0
 40
1.0
 10
161.52086164285
 20
111.1005472968953
 30
0.0
 10
161.5720911293283
 20
111.1133598655295
 30
0.0
 10
161.6040728069786
 20
111.1383588315226
 30
0.0
 10
161.6239998692002
 20
111.2035234493594
 30
0.0
 10
161.6137515009538
 20
111.2427353670945
 30
0.0
 10
161.5566803186922
 20
111.3652005297493
 30
0.0
 10
161.4870114893677
 20
111.4550335800501
 30
0.0
 10
161.3380112054957
 20
111.6475521229732
 30
0.0
 10
161.2570050963071
 20
111.7494951386059
 30
0.0
 10
161.0925534980001
 20
111.9670694143506
 30
0.0
 10
161.0087518271513
 20
112.0826513752101
 30
0.0
 10
160.8416847796499
 20
112.3311592113247
 30
0.0
 10
160.7583274310473
 20
112.4639517307932
 30
0.0
 10
160.5944911207033
 20
112.7543081085267
 30
0.0
 10
160.5144501453044
 20
112.9111740978804
 30
0.0
 10
160.4047780423314
 20
113.1641813969288
 30
0.0
 10
160.3697910900269
 20
113.2518109849043
 30
0.0
 10
160.3042427151838
 20
113.4360991177068
 30
0.0
 10
160.2734672793473
 20
113.5336743055233
 30
0.0
 10
160.194808061368
 20
113.8328640307999
 30
0.0
 10
160.1598839368635
 20
114.0477163060525
 30
0.0
 10
160.1566835743618
 20
114.4469450568486
 30
0.0
 10
160.1886323420285
 20
114.6184147198825
 30
0.0
 10
160.2646329312547
 20
114.8162621391525
 30
0.0
 10
160.2946201807257
 20
114.8734906219725
 30
0.0
 10
160.3591279268314
 20
114.9714774785968
 30
0.0
 10
160.3939654863932
 20
115.0129702753253
 30
0.0
 10
160.5041904813019
 20
115.120413684733
 30
0.0
 10
160.5839648747243
 20
115.1683395550711
 30
0.0
 10
160.7470148444544
 20
115.2332429768488
 30
0.0
 10
160.8310455110029
 20
115.2503520746248
 30
0.0
 10
161.0011241009523
 20
115.2616273994453
 30
0.0
 10
161.0864031601214
 20
115.2556396333478
 30
0.0
 10
161.2531372245801
 20
115.2245798362267
 30
0.0
 10
161.3350503731504
 20
115.1995634853601
 30
0.0
 10
161.4478138270614
 20
115.1475173432982
 30
0.0
 10
161.4835042802488
 20
115.1277953867467
 30
0.0
 10
161.547133069661
 20
115.0827789608938
 30
0.0
 10
161.5753452242016
 20
115.0573846892034
 30
0.0
 10
161.6135553067603
 20
114.9996539477492
 30
0.0
 10
161.6240245951944
 20
114.9675055538542
 30
0.0
 10
161.6046079285079
 20
114.8894487737649
 30
0.0
 10
161.5725134406749
 20
114.8452851746686
 30
0.0
 10
161.5208616428542
 20
114.7959642260124
 30
0.0
  0
SPLINE
  5
11E
330
1F
100
AcDbEntity
  8
0
  6
HIDDEN
 62
     7
370
     0
100
AcDbSpline
210
0.0
220
0.0
230
1.0
 70
     8
 71
     3
 72
     8
 73
     4
 74
     0
 42
0.000000001
 43
0.00000001
 40
0.0
 40
0.0
 40
0.0
 40
0.0
 40
1.0
 40
1.0
 40
1.0
 40
1.0
 10
161.5208616428542
 20
114.7959642260123
 30
0.0
 10
161.4879093838893
 20
114.7698292528684
 30
0.0
 10
161.455225891364
 20
114.7414580427858
 30
0.0
 10
161.4229365755976
 20
114.7109594593602
 30
0.0
  0
SPLINE
  5
11F
330
1F
100
AcDbEntity
  8
0
  6
HIDDEN
 62
     7
370
     0
100
AcDbSpline
210
0.0
220
0.0
230
1.0
 70
     8
 71
     3
 72
    26
 73
    22
 74
     0
 42
0.000000001
 43
0.00000001
 40
0.0
 40
0.0
 40
0.0
 40
0.0
 40
0.0625000000000003
 40
0.0625000000000003
 40
0.1250000000000005
 40
0.1250000000000005
 40
0.2500000000000004
 40
0.2500000000000004
 40
0.3750000000000003
 40
0.3750000000000003
 40
0.5000000000000002
 40
0.5000000000000002
 40
0.6250000000000002
 40
0.6250000000000002
 40
0.75
 40
0.75
 40
0.8749999999999999
 40
0.8749999999999999
 40
0.9375
 40
0.9375
 40
1.0
 40
1.0
 40
1.0
 40
1.0
 10
161.4229365755975
 20
114.7109594593602
 30
0.0
 10
161.3534833937186
 20
114.6541398461393
 30
0.0
 10
161.2769833572851
 20
114.5946302968331
 30
0.0
 10
161.1224964328701
 20
114.4659012941111
 30
0.0
 10
161.0439761086832
 20
114.3966156693572
 30
0.0
 10
160.8133577013047
 20
114.172017922781
 30
0.0
 10
160.6709107545209
 20
114.0046292307795
 30
0.0
 10
160.4273770830315
 20
113.6327631995139
 30
0.0
 10
160.3303245903301
 20
113.4358569453624
 30
0.0
 10
160.1938929582024
 20
113.0160831686926
 30
0.0
 10
160.1585675079694
 20
112.8050392987382
 30
0.0
 10
160.1578844546804
 20
112.3853991558643
 30
0.0
 10
160.1928218456104
 20
112.1868306374717
 30
0.0
 10
160.3284112433956
 20
111.8211896299412
 30
0.0
 10
160.4265268562027
 20
111.6611509800913
 30
0.0
 10
160.6698057775232
 20
111.3917082774973
 30
0.0
 10
160.8123774304171
 20
111.2853366606476
 30
0.0
 10
161.0423261547909
 20
111.172043727087
 30
0.0
 10
161.1205867616851
 20
111.1425475890009
 30
0.0
 10
161.2758301851552
 20
111.1014029233582
 30
0.0
 10
161.3538008210831
 20
111.0896571999775
 30
0.0
 10
161.4229365756016
 20
111.089888010505
 30
0.0
  0
LINE
  5
120
330
1F
100
AcDbEntity
  8
0
  6
HIDDEN
 62
     7
370
     0
100
AcDbLine
 10
160.3482235232
 20
124.4816681183
 30
0.0
 11
160.3482235232
 21
122.4838488907
 31
0.0
  0
LINE
  5
121
330
1F
100
AcDbEntity
  8
0
  6
HIDDEN
 62
     7
370
     0
100
AcDbLine
 10
164.1682235232
 20
124.4816681183
 30
0.0
 11
164.1682235232
 21
122.4838488907
 31
0.0
  0
LINE
  5
122
330
1F
100
AcDbEntity
  8
0
  6
HIDDEN
 62
     7
370
     0
100
AcDbLine
 10
165.6212888413
 20
127.7143898446
 30
0.0
 11
165.6212888413
 21
122.4838488907
 31
0.0
  0
LINE
  5
123
330
1F
100
AcDbEntity
  8
0
  6
HIDDEN
 62
     7
370
     0
100
AcDbLine
 10
158.8951582052
 20
127.7143898446
 30
0.0
 11
158.8951582052
 21
122.4838488907
 31
0.0
  0
LINE
  5
124
330
1F
100
AcDbEntity
  8
0
  6
HIDDEN
 62
     7
370
     0
100
AcDbLine
 10
154.3582235232
 20
98.3948723515
 30
0.0
 11
161.2235808673
 21
100.039023022
 31
0.0
  0
LINE
  5
125
330
1F
100
AcDbEntity
  8
0
  6
HIDDEN
 62
     7
370
     0
100
AcDbLine
 10
161.2210718932
 20
104.1515292188
 30
0.0
 11
154.3582235232
 21
102.5079794102
 31
0.0
  0
LINE
  5
126
330
1F
100
AcDbEntity
  8
0
  6
HIDDEN
 62
     7
370
     0
100
AcDbLine
 10
164.3582235232
 20
101.4689358073
 30
0.0
 11
164.3582235232
 21
106.1848476732
 31
0.0
  0
LINE
  5
127
330
1F
100
AcDbEntity
  8
0
  6
HIDDEN
 62
     7
370
     0
100
AcDbLine
 10
160.1582235232
 20
106.1831306494
 30
0.0
 11
160.1582235232
 21
102.6751439955
 31
0.0
  0
LINE
  5
128
330
1F
100
AcDbEntity
  8
0
  6
HIDDEN
 62
     7
370
     0
100
AcDbLine
 10
190.2582235232
 20
121.1338488907
 30
0.0
 11
189.8082235232
 21
120.1688207765
 31
0.0
  0
LINE
  5
129
330
1F
100
AcDbEntity
  8
0
  6
HIDDEN
 62
     7
370
     0
100
AcDbLine
 10
189.8082235232
 20
95.0988770049
 30
0.0
 11
190.2582235232
 21
94.1338488907
 31
0.0
  0
LINE
  5
12A
330
1F
100
AcDbEntity
  8
0
  6
HIDDEN
 62
     7
370
     0
100
AcDbLine
 10
189.805401963
 20
118.4338488907
 30
0.0
 11
186.9082235232
 21
118.4338488907
 31
0.0
  0
LINE
  5
12B
330
1F
100
AcDbEntity
  8
0
  6
HIDDEN
 62
     7
370
     0
100
AcDbLine
 10
186.9082235232
 20
96.8338488907
 30
0.0
 11
189.8082235232
 21
96.8338488907
 31
0.0
  0
LINE
  5
12C
330
1F
100
AcDbEntity
  8
0
  6
HIDDEN
 62
     7
370
     0
100
AcDbLine
 10
186.9082235232
 20
117.0957291061
 30
0.0
 11
186.1082235232
 21
116.6338488907
 31
0.0
  0
LINE
  5
12D
330
1F
100
AcDbEntity
  8
0
  6
HIDDEN
 62
     7
370
     0
100
AcDbLine
 10
186.1082235232
 20
98.6338488907
 30
0.0
 11
186.9082235232
 21
98.1719686754
 31
0.0
  0
ARC
  5
12E
330
1F
100
AcDbEntity
  8
0
  6
HIDDEN
 62
     7
370
     0
100
AcDbCircle
 10
172.4328218632
 20
99.0338488907
 30
0.0
 40
0.6000000000000071
100
AcDbArc
 50
270.0
 51
285.0
  0
ARC
  5
12F
330
1F
100
AcDbEntity
  8
0
  6
HIDDEN
 62
     7
370
     0
100
AcDbCircle
 10
172.4328218632
 20
116.2338488907
 30
0.0
 40
0.6000000000000085
100
AcDbArc
 50
75.0
 51
90.0
  0
LINE
  5
130
330
1F
100
AcDbEntity
  8
0
  6
HIDDEN
 62
     7
370
     0
100
AcDbLine
 10
171.8582235232
 20
98.4338488907
 30
0.0
 11
172.4328218632
 21
98.4338488907
 31
0.0
  0
LINE
  5
131
330
1F
100
AcDbEntity
  8
0
  6
HIDDEN
 62
     7
370
     0
100
AcDbLine
 10
172.4328218632
 20
116.8338488907
 30
0.0
 11
171.8582235232
 21
116.8338488907
 31
0.0
  0
ARC
  5
132
330
1F
100
AcDbEntity
  8
0
  6
HIDDEN
 62
     7
370
     0
100
AcDbCircle
 10
171.8582235232
 20
99.0338488907
 30
0.0
 40
0.5999999999999943
100
AcDbArc
 50
180.0
 51
270.0
  0
ARC
  5
133
330
1F
100
AcDbEntity
  8
0
  6
HIDDEN
 62
     7
370
     0
100
AcDbCircle
 10
171.8582235232
 20
116.2338488907
 30
0.0
 40
0.6000000000000085
100
AcDbArc
 50
90.0
 51
180.0
  0
LINE
  5
134
330
1F
100
AcDbEntity
  8
0
  6
HIDDEN
 62
     7
370
     0
100
AcDbLine
 10
172.5881132902
 20
98.4542933949
 30
0.0
 11
173.2582235232
 21
98.6338488907
 31
0.0
  0
LINE
  5
135
330
1F
100
AcDbEntity
  8
0
  6
HIDDEN
 62
     7
370
     0
100
AcDbLine
 10
173.2582235232
 20
116.6338488907
 30
0.0
 11
172.5881132902
 21
116.8134043865
 31
0.0
  0
LINE
  5
136
330
1F
100
AcDbEntity
  8
0
  6
HIDDEN
 62
     7
370
     0
100
AcDbLine
 10
173.2582235232
 20
98.6338488907
 30
0.0
 11
186.1082235232
 21
98.6338488907
 31
0.0
  0
LINE
  5
137
330
1F
100
AcDbEntity
  8
0
  6
HIDDEN
 62
     7
370
     0
100
AcDbLine
 10
186.1082235232
 20
116.6338488907
 30
0.0
 11
173.2582235232
 21
116.6338488907
 31
0.0
  0
ARC
  5
138
330
1F
100
AcDbEntity
  8
0
  6
HIDDEN
 62
     7
370
     0
100
AcDbCircle
 10
104.3082235232
 20
100.3338488907
 30
0.0
 40
0.8000000000000114
100
AcDbArc
 50
90.0
 51
180.0
  0
ARC
  5
139
330
1F
100
AcDbEntity
  8
0
  6
HIDDEN
 62
     7
370
     0
100
AcDbCircle
 10
104.3082235232
 20
114.9338488907
 30
0.0
 40
0.8000000000000114
100
AcDbArc
 50
180.0
 51
270.0
  0
LINE
  5
13A
330
1F
100
AcDbEntity
  8
0
  6
HIDDEN
 62
     7
370
     0
100
AcDbLine
 10
108.400595954
 20
100.9088488907
 30
0.0
 11
109.2772834156
 21
100.9088488907
 31
0.0
  0
LINE
  5
13B
330
1F
100
AcDbEntity
  8
0
  6
HIDDEN
 62
     7
370
     0
100
AcDbLine
 10
109.2772834156
 20
114.3588488907
 30
0.0
 11
108.400595954
 21
114.3588488907
 31
0.0
  0
ARC
  5
13C
330
1F
100
AcDbEntity
  8
0
  6
HIDDEN
 62
     7
370
     0
100
AcDbCircle
 10
109.2772834156
 20
101.3088488907
 30
0.0
 40
0.4000000000000057
100
AcDbArc
 50
270.0
 51
330.0
  0
ARC
  5
13D
330
1F
100
AcDbEntity
  8
0
  6
HIDDEN
 62
     7
370
     0
100
AcDbCircle
 10
109.2772834156
 20
113.9588488907
 30
0.0
 40
0.4000000000000057
100
AcDbArc
 50
30.0
 51
90.0
  0
ARC
  5
13E
330
1F
100
AcDbEntity
  8
0
  6
HIDDEN
 62
     7
370
     0
100
AcDbCircle
 10
108.400595954
 20
101.3088488907
 30
0.0
 40
0.4000000000000057
100
AcDbArc
 50
255.0
 51
270.0
  0
ARC
  5
13F
330
1F
100
AcDbEntity
  8
0
  6
HIDDEN
 62
     7
370
     0
100
AcDbCircle
 10
108.400595954
 20
113.9588488907
 30
0.0
 40
0.4000000000000057
100
AcDbArc
 50
90.0
 51
105.0
  0
LINE
  5
140
330
1F
100
AcDbEntity
  8
0
  6
HIDDEN
 62
     7
370
     0
100
AcDbLine
 10
108.2970683359
 20
114.3452192212
 30
0.0
 11
107.5082235232
 21
114.1338488907
 31
0.0
  0
LINE
  5
141
330
1F
100
AcDbEntity
  8
0
  6
HIDDEN
 62
     7
370
     0
100
AcDbLine
 10
107.5082235232
 20
101.1338488907
 30
0.0
 11
108.2970683359
 21
100.9224785602
 31
0.0
  0
LINE
  5
142
330
1F
100
AcDbEntity
  8
0
  6
HIDDEN
 62
     7
370
     0
100
AcDbLine
 10
109.6236935771
 20
101.1088488907
 30
0.0
 11
110.4464177107
 21
102.5338488907
 31
0.0
  0
LINE
  5
143
330
1F
100
AcDbEntity
  8
0
  6
HIDDEN
 62
     7
370
     0
100
AcDbLine
 10
110.4464177107
 20
112.7338488907
 30
0.0
 11
109.6236935771
 21
114.1588488907
 31
0.0
  0
LINE
  5
144
330
1F
100
AcDbEntity
  8
0
  6
HIDDEN
 62
     7
370
     0
100
AcDbLine
 10
104.3082235232
 20
101.1338488907
 30
0.0
 11
107.5082235232
 21
101.1338488907
 31
0.0
  0
LINE
  5
145
330
1F
100
AcDbEntity
  8
0
  6
HIDDEN
 62
     7
370
     0
100
AcDbLine
 10
107.5082235232
 20
114.1338488907
 30
0.0
 11
104.3082235232
 21
114.1338488907
 31
0.0
  0
LINE
  5
146
330
1F
100
AcDbEntity
  8
0
  6
HIDDEN
 62
     7
370
     0
100
AcDbLine
 10
189.8082235232
 20
119.8088488907
 30
0.0
 11
186.9082235232
 21
119.8088488907
 31
0.0
  0
LINE
  5
147
330
1F
100
AcDbEntity
  8
0
  6
HIDDEN
 62
     7
370
     0
100
AcDbLine
 10
186.9082235232
 20
95.4588488907
 30
0.0
 11
189.8082235232
 21
95.4588488907
 31
0.0
  0
LINE
  5
148
330
1F
100
AcDbEntity
  8
0
  6
HIDDEN
 62
     7
370
     0
100
AcDbLine
 10
110.4464177107
 20
102.5338488907
 30
0.0
 11
137.5082235232
 21
102.5338488907
 31
0.0
  0
LINE
  5
149
330
1F
100
AcDbEntity
  8
0
  6
HIDDEN
 62
     7
370
     0
100
AcDbLine
 10
137.5082235232
 20
112.7338488907
 30
0.0
 11
110.4464177107
 21
112.7338488907
 31
0.0
  0
LINE
  5
14A
330
1F
100
AcDbEntity
  8
0
  6
HIDDEN
 62
     7
370
     0
100
AcDbLine
 10
137.5082235232
 20
102.5338488907
 30
0.0
 11
138.0189550494
 21
103.3838488907
 31
0.0
  0
LINE
  5
14B
330
1F
100
AcDbEntity
  8
0
  6
HIDDEN
 62
     7
370
     0
100
AcDbLine
 10
138.0189550494
 20
111.8838488907
 30
0.0
 11
137.5082235232
 21
112.7338488907
 31
0.0
  0
LINE
  5
14C
330
1F
100
AcDbEntity
  8
0
  6
HIDDEN
 62
     7
370
     0
100
AcDbLine
 10
138.0189550494
 20
103.3838488907
 30
0.0
 11
171.2582235232
 21
103.3838488907
 31
0.0
  0
LINE
  5
14D
330
1F
100
AcDbEntity
  8
0
  6
HIDDEN
 62
     7
370
     0
100
AcDbLine
 10
171.2582235232
 20
111.8838488907
 30
0.0
 11
138.0189550494
 21
111.8838488907
 31
0.0
  0
LINE
  5
14E
330
1F
100
AcDbEntity
  8
0
  6
HIDDEN
 62
     7
370
     0
100
AcDbLine
 10
164.3582235232
 20
109.084567132
 30
0.0
 11
164.3582235232
 21
115.4218872636
 31
0.0
  0
LINE
  5
14F
330
1F
100
AcDbEntity
  8
0
  6
HIDDEN
 62
     7
370
     0
100
AcDbLine
 10
160.1582235232
 20
112.5929141171
 30
0.0
 11
160.1582235232
 21
109.0828501082
 31
0.0
  0
LINE
  5
150
330
1F
100
AcDbEntity
  8
0
  6
HIDDEN
 62
     7
370
     0
100
AcDbLine
 10
160.1582235232
 20
115.4218872636
 30
0.0
 11
160.1582235232
 21
114.2600699013
 31
0.0
  0
LINE
  5
151
330
1F
100
AcDbEntity
  8
0
  6
HIDDEN
 62
     7
370
     0
100
AcDbLine
 10
189.8055299927
 20
118.4338488907
 30
0.0
 11
189.805401963
 21
118.4338488907
 31
0.0
  0
LINE
  5
152
330
1F
100
AcDbEntity
  8
0
  6
HIDDEN
 62
     7
370
     0
100
AcDbLine
 10
154.3582235232
 20
112.7597183712
 30
0.0
 11
161.2173224866
 21
111.1170664895
 31
0.0
  0
LINE
  5
153
330
1F
100
AcDbEntity
  8
0
  6
HIDDEN
 62
     7
370
     0
100
AcDbLine
 10
161.2242603337
 20
115.2285120374
 30
0.0
 11
154.3582235232
 21
116.8728254299
 31
0.0
  0
DIMENSION
  5
154
330
1F
100
AcDbEntity
  8
VERMASSUNG
100
AcDbDimension
  2
_D
 10
96.7830436464
 20
132.6088488907
 30
0.0
 11
96.7830436464
 21
107.6338488907
 31
0.0
 70
   160
  1
ISO 30 %%c<>
 71
     2
 42
-1.0
  3
SLDDIMSTYLE0
100
AcDbAlignedDimension
 13
154.9582235232
 23
82.6588488907
 33
0.0
 14
154.9582235232
 24
132.6088488907
 34
0.0
 50
90.0
100
AcDbRotatedDimension
  0
DIMENSION
  5
161
330
1F
100
AcDbEntity
  8
VERMASSUNG
100
AcDbDimension
  2
_D_1
 10
190.2582235232
 20
141.7194624082
 30
0.0
 11
170.7082235232
 21
141.7194624082
 31
0.0
 70
   160
  1
<>
 71
     2
 42
-1.0
  3
SLDDIMSTYLE0
100
AcDbAlignedDimension
 13
151.1582235232
 23
123.5088488907
 33
0.0
 14
190.2582235232
 24
123.3338488907
 34
0.0
100
AcDbRotatedDimension
  0
DIMENSION
  5
16B
330
1F
100
AcDbEntity
  8
VERMASSUNG
100
AcDbDimension
  2
_D_2
 10
190.2582235232
 20
147.7194624082
 30
0.0
 11
146.8832235232
 21
147.7194624082
 31
0.0
 70
   160
  1
(<>)
 71
     2
 42
-1.0
  3
SLDDIMSTYLE0
100
AcDbAlignedDimension
 13
103.5082235232
 23
115.6951461544
 33
0.0
 14
190.2582235232
 24
123.3338488907
 34
0.0
100
AcDbRotatedDimension
  0
DIMENSION
  5
177
330
1F
100
AcDbEntity
  8
VERMASSUNG
100
AcDbDimension
  2
_D_3
 10
190.2582235232
 20
135.7194624082
 30
0.0
 11
180.2332235232
 21
135.7194624082
 31
0.0
 70
   160
  1
<>
 71
     2
 42
-1.0
  3
SLDDIMSTYLE0
100
AcDbAlignedDimension
 13
170.2082235232
 23
130.5452065046
 33
0.0
 14
190.2582235232
 24
123.3338488907
 34
0.0
100
AcDbRotatedDimension
  0
DIMENSION
  5
181
330
1F
100
AcDbEntity
  8
VERMASSUNG
100
AcDbDimension
  2
_D_4
 10
197.6303154667
 20
91.6338488907
 30
0.0
 11
197.6303154667
 21
107.6338488907
 31
0.0
 70
   160
  1
MBM %%c<>
 71
     2
 42
-1.0
  3
SLDDIMSTYLE0
100
AcDbAlignedDimension
 13
189.9582235232
 23
123.6338488907
 33
0.0
 14
189.9582235232
 24
91.6338488907
 34
0.0
 50
90.0
100
AcDbRotatedDimension
  0
LINE
  5
18D
330
1F
100
AcDbEntity
  8
VERMASSUNG
  6
CENTERX2
 62
     7
370
     0
100
AcDbLine
 10
101.5082235232
 20
107.6338488907
 30
0.0
 11
192.2582235232
 21
107.6338488907
 31
0.0
  0
LINE
  5
18E
330
1F
100
AcDbEntity
  8
VERMASSUNG
  6
CENTERX2
370
     0
100
AcDbLine
 10
152.4132218771
 20
115.2820707804
 30
0.0
 11
163.1690592225
 21
112.7062081856
 31
0.0
  0
LINE
  5
18F
330
1F
100
AcDbEntity
  8
VERMASSUNG
  6
CENTERX2
370
     0
100
AcDbLine
 10
152.4132218771
 20
99.985627001
 30
0.0
 11
163.1690592225
 21
102.5614895959
 31
0.0
  0
LINE
  5
190
330
1F
100
AcDbEntity
  8
0
  6
Continuous
 62
     7
370
    15
100
AcDbLine
 10
260.1190024232
 20
47.2779392071
 30
0.0
 11
259.9421970038
 21
47.3800399809
 31
0.0
  0
LINE
  5
191
330
1F
100
AcDbEntity
  8
0
  6
Continuous
 62
     7
370
    15
100
AcDbLine
 10
257.4669211311
 20
47.3800399809
 30
0.0
 11
257.2901157116
 21
47.2779392071
 31
0.0
  0
LINE
  5
192
330
1F
100
AcDbEntity
  8
0
  6
Continuous
 62
     7
370
    15
100
AcDbLine
 10
260.7045590674
 20
46.1554609693
 30
0.0
 11
260.7045590674
 21
46.4616637738
 31
0.0
  0
LINE
  5
193
330
1F
100
AcDbEntity
  8
0
  6
Continuous
 62
     7
370
    15
100
AcDbLine
 10
256.7045590674
 20
46.4616637738
 30
0.0
 11
256.7045590674
 21
46.1554609693
 31
0.0
  0
LINE
  5
194
330
1F
100
AcDbEntity
  8
0
  6
Continuous
 62
     7
370
    15
100
AcDbLine
 10
261.8874589806
 20
31.7647585784
 30
0.0
 11
261.9935077591
 21
31.8259991385
 31
0.0
  0
LINE
  5
195
330
1F
100
AcDbEntity
  8
0
  6
Continuous
 62
     7
370
    15
100
AcDbLine
 10
267.5433938322
 20
41.4397254606
 30
0.0
 11
267.5433938322
 21
41.5621866774
 31
0.0
  0
LINE
  5
196
330
1F
100
AcDbEntity
  8
0
  6
Continuous
 62
     7
370
    15
100
AcDbLine
 10
251.9648453598
 20
34.7868722993
 30
0.0
 11
257.8868646522
 21
31.368163331
 31
0.0
  0
LINE
  5
197
330
1F
100
AcDbEntity
  8
0
  6
Continuous
 62
     7
370
    15
100
AcDbLine
 10
265.8862145133
 20
45.2249451291
 30
0.0
 11
259.9641952209
 21
48.6436540974
 31
0.0
  0
SPLINE
  5
198
330
1F
100
AcDbEntity
  8
0
  6
Continuous
 62
     7
370
    15
100
AcDbSpline
210
0.0
220
0.0
230
1.0
 70
     8
 71
     3
 72
    32
 73
    28
 74
     0
 42
0.000000001
 43
0.00000001
 40
0.0
 40
0.0
 40
0.0
 40
0.0
 40
0.0070262225576946
 40
0.0492411646479604
 40
0.0915798512771624
 40
0.1341222016696609
 40
0.1768642800135456
 40
0.2197729060733143
 40
0.2628023032653811
 40
0.3059076315579501
 40
0.3490523670425363
 40
0.3922094188996737
 40
0.4353591668556965
 40
0.4784940664586013
 40
0.5216110190802832
 40
0.564709794423229
 40
0.6077919262109491
 40
0.6508599868628168
 40
0.693917134897797
 40
0.7369668464065062
 40
0.7800127649807417
 40
0.8230586238880484
 40
0.8661074077528816
 40
0.9091624742810729
 40
0.9522276503355229
 40
0.9953067252882758
 40
1.0
 40
1.0
 40
1.0
 40
1.0
 10
254.7190227138951
 20
56.68548043639045
 30
0.0
 10
254.687620088004
 20
56.69485241535865
 30
0.0
 10
254.4675442422443
 20
56.76053310731809
 30
0.0
 10
254.0374261994795
 20
56.83451242225139
 30
0.0
 10
253.4202377026083
 20
56.87809498773969
 30
0.0
 10
252.7775134658579
 20
56.84763402200247
 30
0.0
 10
252.1145703725028
 20
56.74705763787961
 30
0.0
 10
251.4350515105163
 20
56.5756656817891
 30
0.0
 10
250.743498442878
 20
56.33472568087954
 30
0.0
 10
250.0444122646214
 20
56.02572156762114
 30
0.0
 10
249.3423437004439
 20
55.65076641642725
 30
0.0
 10
248.6417746573708
 20
55.21240749619885
 30
0.0
 10
247.9470775316128
 20
54.71358402016318
 30
0.0
 10
247.2625021427902
 20
54.1575644253415
 30
0.0
 10
246.5921702708442
 20
53.54790522146951
 30
0.0
 10
245.9401006854081
 20
52.88845051420228
 30
0.0
 10
245.3101988237612
 20
52.18331498042595
 30
0.0
 10
244.7062413499122
 20
51.43686530121334
 30
0.0
 10
244.131859097945
 20
50.6536993779245
 30
0.0
 10
243.5905132618884
 20
49.83862192702359
 30
0.0
 10
243.0854907050737
 20
48.99662035076429
 30
0.0
 10
242.619830219804
 20
48.13283269843076
 30
0.0
 10
242.1965153186848
 20
47.2525476093146
 30
0.0
 10
241.8176585781122
 20
46.36104854870394
 30
0.0
 10
241.4874602809024
 20
45.46402446847154
 30
0.0
 10
241.2861858675535
 20
44.83274600756664
 30
0.0
 10
241.1949899709732
 20
44.50250044731488
 30
0.0
 10
241.1860306587719
 20
44.47005630028266
 30
0.0
  0
SPLINE
  5
199
330
1F
100
AcDbEntity
  8
0
  6
Continuous
 62
     7
370
    15
100
AcDbSpline
210
0.0
220
0.0
230
1.0
 70
     8
 71
     3
 72
    16
 73
    12
 74
     0
 42
0.000000001
 43
0.00000001
 40
0.0
 40
0.0
 40
0.0
 40
0.0
 40
0.113613644406834
 40
0.2316409130115901
 40
0.3502401975018961
 40
0.4693472669170679
 40
0.588843867375337
 40
0.7086007865360524
 40
0.8285055759150584
 40
0.9484736956289758
 40
1.0
 40
1.0
 40
1.0
 40
1.0
 10
249.9433439365776
 20
31.10056710621311
 30
0.0
 10
250.1371248708146
 20
31.0732434617242
 30
0.0
 10
250.532214675083
 20
31.01753471310284
 30
0.0
 10
251.1597854273042
 20
31.02246055857219
 30
0.0
 10
251.8143653947635
 20
31.09288433429413
 30
0.0
 10
252.4877367146122
 20
31.23554956083987
 30
0.0
 10
253.1748281095936
 20
31.44815030441733
 30
0.0
 10
253.8714538441038
 20
31.72866238409106
 30
0.0
 10
254.5725589610787
 20
32.07959440035244
 30
0.0
 10
255.1416736490016
 20
32.40521317829251
 30
0.0
 10
255.4734966005052
 20
32.63482792936917
 30
0.0
 10
255.5731943632034
 20
32.7038167586864
 30
0.0
  0
LINE
  5
19A
330
1F
100
AcDbEntity
  8
0
  6
Continuous
 62
     7
370
    15
100
AcDbLine
 10
247.0388912224
 20
32.4489867839
 30
0.0
 11
248.4484854973
 21
31.63524533
 31
0.0
  0
LINE
  5
19B
330
1F
100
AcDbEntity
  8
0
  6
Continuous
 62
     7
370
    15
100
AcDbLine
 10
247.897374466
 20
54.662318514
 30
0.0
 11
233.6414745133
 21
59.7995797726
 31
0.0
  0
LINE
  5
19C
330
1F
100
AcDbEntity
  8
0
  6
Continuous
 62
     7
370
    15
100
AcDbLine
 10
229.1405543459
 20
52.0029125766
 30
0.0
 11
243.57247395
 21
39.8167189698
 31
0.0
  0
LINE
  5
19D
330
1F
100
AcDbEntity
  8
0
  6
Continuous
 62
     7
370
    15
100
AcDbLine
 10
243.2689283251
 20
34.6253400395
 30
0.0
 11
244.6608449304
 21
33.821803687
 31
0.0
  0
SPLINE
  5
19E
330
1F
100
AcDbEntity
  8
0
  6
Continuous
 62
     7
370
    15
100
AcDbSpline
210
0.0
220
0.0
230
1.0
 70
     8
 71
     3
 72
    11
 73
     7
 74
     0
 42
0.000000001
 43
0.00000001
 40
0.0
 40
0.0
 40
0.0
 40
0.0
 40
0.1206489226261361
 40
0.4902543010641514
 40
0.8587458241517503
 40
1.0
 40
1.0
 40
1.0
 40
1.0
 10
241.1842408240001
 20
37.13341821680314
 30
0.0
 10
241.2116629975914
 20
37.06582520895783
 30
0.0
 10
241.3230924099312
 20
36.7911624759908
 30
0.0
 10
241.5588647781597
 20
36.34936431459355
 30
0.0
 10
241.8272133359151
 20
35.92464324039954
 30
0.0
 10
242.0131644446438
 20
35.71507162735495
 30
0.0
 10
242.0646928256902
 20
35.65699783576908
 30
0.0
  0
SPLINE
  5
19F
330
1F
100
AcDbEntity
  8
0
  6
Continuous
 62
     7
370
    15
100
AcDbSpline
210
0.0
220
0.0
230
1.0
 70
     8
 71
     3
 72
    12
 73
     8
 74
     0
 42
0.000000001
 43
0.00000001
 40
0.0
 40
0.0
 40
0.0
 40
0.0
 40
0.1085981014081887
 40
0.3898699025031653
 40
0.6703001413452225
 40
0.9493631022197213
 40
1.0
 40
1.0
 40
1.0
 40
1.0
 10
263.0405939629484
 20
50.70580892520287
 30
0.0
 10
263.0083411851518
 20
50.78592558643052
 30
0.0
 10
262.8925529055044
 20
51.07354640573292
 30
0.0
 10
262.6547389743075
 20
51.53139628787803
 30
0.0
 10
262.307992063119
 20
52.05292869797904
 30
0.0
 10
262.0233618713873
 20
52.39352982230979
 30
0.0
 10
261.8539598791697
 20
52.55662963268821
 30
0.0
 10
261.82794230246
 20
52.58167928985158
 30
0.0
  0
SPLINE
  5
1A0
330
1F
100
AcDbEntity
  8
0
  6
Continuous
 62
     7
370
    15
100
AcDbSpline
210
0.0
220
0.0
230
1.0
 70
     8
 71
     3
 72
    25
 73
    21
 74
     0
 42
0.000000001
 43
0.00000001
 40
0.0
 40
0.0
 40
0.0
 40
0.0
 40
0.037150240990965
 40
0.0925891135035229
 40
0.1491830290001336
 40
0.2073143263058482
 40
0.2668201733164141
 40
0.3271914346649963
 40
0.3879070356665111
 40
0.448572831046338
 40
0.5090936051075863
 40
0.5694716790982597
 40
0.6297531997515482
 40
0.6900022719999598
 40
0.7502871760363533
 40
0.810661408297458
 40
0.8712010674923516
 40
0.9319787072603971
 40
0.9897463989178037
 40
1.0
 40
1.0
 40
1.0
 40
1.0
 10
233.5903182519691
 20
59.80851755705345
 30
0.0
 10
233.5095390233593
 20
59.83513865789671
 30
0.0
 10
233.3082138914901
 20
59.90148611788126
 30
0.0
 10
232.9580554045936
 20
59.92651443311477
 30
0.0
 10
232.5509569933591
 20
59.89472753961844
 30
0.0
 10
232.1275274938313
 20
59.78968289543409
 30
0.0
 10
231.6946177594783
 20
59.61503305904084
 30
0.0
 10
231.2595627193951
 20
59.37190679952155
 30
0.0
 10
230.831250542982
 20
59.0653726366524
 30
0.0
 10
230.4178518454436
 20
58.70192467584702
 30
0.0
 10
230.0264783826471
 20
58.28892523277029
 30
0.0
 10
229.6631909265365
 20
57.833822481352
 30
0.0
 10
229.333524598318
 20
57.34434706549527
 30
0.0
 10
229.0425827368829
 20
56.82850557646732
 30
0.0
 10
228.7950439022656
 20
56.29457338140539
 30
0.0
 10
228.5951337268918
 20
55.75096094149884
 30
0.0
 10
228.4464231677762
 20
55.2059602159912
 30
0.0
 10
228.3542870092607
 20
54.67773096697467
 30
0.0
 10
228.3266737645979
 20
54.30915551056084
 30
0.0
 10
228.3254828900651
 20
54.12022498516889
 30
0.0
 10
228.3253033763878
 20
54.09174539941572
 30
0.0
  0
SPLINE
  5
1A1
330
1F
100
AcDbEntity
  8
0
  6
Continuous
 62
     7
370
    15
100
AcDbSpline
210
0.0
220
0.0
230
1.0
 70
     8
 71
     3
 72
    13
 73
     9
 74
     0
 42
0.000000001
 43
0.00000001
 40
0.0
 40
0.0
 40
0.0
 40
0.0
 40
0.1049210407738919
 40
0.3025199255982369
 40
0.5000225820926473
 40
0.6950324818161032
 40
0.8852445286567592
 40
1.0
 40
1.0
 40
1.0
 40
1.0
 10
228.3253033763878
 20
54.09174539941572
 30
0.0
 10
228.327015223402
 20
54.00218035877191
 30
0.0
 10
228.3319510096617
 20
53.74393654769343
 30
0.0
 10
228.3873922141805
 20
53.33941489786297
 30
0.0
 10
228.5120933996311
 20
52.89680361068075
 30
0.0
 10
228.7019087827493
 20
52.50666039095479
 30
0.0
 10
228.9113787925542
 20
52.20750687721606
 30
0.0
 10
229.0773848718601
 20
52.06838720900936
 30
0.0
 10
229.1398508878805
 20
52.01603821396476
 30
0.0
  0
LWPOLYLINE
  5
1A2
330
1F
100
AcDbEntity
  8
0
  6
Continuous
 62
     7
370
    15
100
AcDbPolyline
 90
       29
 70
   128
 43
0.0
 10
257.4671222003
 20
45.9514418789
 10
257.2227917188
 20
46.1283117114
 10
257.0527632394
 20
46.3321333997
 10
256.9655627001
 20
46.5526864733
 10
256.9655627001
 20
46.7789114802
 10
257.0527632394
 20
46.9994645538
 10
257.2227917188
 20
47.2032862421
 10
257.4671222003
 20
47.3801560746
 10
257.7735029335
 20
47.5212050593
 10
258.126570709
 20
47.6193604112
 10
258.5086212342
 20
47.669700211
 10
258.9004969006
 20
47.669700211
 10
259.2825474258
 20
47.6193604112
 10
259.6356152013
 20
47.5212050593
 10
259.9419959345
 20
47.3801560746
 10
260.1863264161
 20
47.2032862421
 10
260.3563548954
 20
46.9994645538
 10
260.4435554347
 20
46.7789114802
 10
260.4435554347
 20
46.5526864733
 10
260.3563548954
 20
46.3321333997
 10
260.1863264161
 20
46.1283117114
 10
259.9419959345
 20
45.9514418789
 10
259.6356152013
 20
45.8103928942
 10
259.2825474258
 20
45.7122375424
 10
258.9004969006
 20
45.6618977426
 10
258.5086212342
 20
45.6618977426
 10
258.126570709
 20
45.7122375424
 10
257.7735029335
 20
45.8103928942
 10
257.4671222003
 20
45.9514418789
  0
ARC
  5
1A3
330
1F
100
AcDbEntity
  8
0
  6
Continuous
 62
     7
370
    15
100
AcDbCircle
 10
257.6056130854
 20
46.4616418233
 30
0.0
 40
0.8751457088282613
100
AcDbArc
 50
111.1314215039
 51
248.884706784
  0
LWPOLYLINE
  5
1A4
330
1F
100
AcDbEntity
  8
0
  6
Continuous
 62
     7
370
    15
100
AcDbPolyline
 90
       16
 70
   128
 43
0.0
 10
260.1190024232
 20
47.2779392071
 10
260.3819002033
 20
47.0904906187
 10
260.5717199204
 20
46.8754266011
 10
260.6799357486
 20
46.6422791626
 10
260.7018181369
 20
46.4012379649
 10
260.63641072
 20
46.162837665
 10
260.4865721158
 20
45.9374975
 10
260.2588509903
 20
45.7350659164
 10
259.9631998495
 20
45.5643901457
 10
259.6125400669
 20
45.4329295382
 10
259.2221971576
 20
45.3464295532
 10
258.8092309799
 20
45.3086706551
 10
258.3916901373
 20
45.321303089
 10
257.9878231683
 20
45.3837747569
 10
257.6152809974
 20
45.4933553471
 10
257.290345505
 20
45.645255662
  0
LWPOLYLINE
  5
1A5
330
1F
100
AcDbEntity
  8
0
  6
Continuous
 62
     7
370
    15
100
AcDbPolyline
 90
       24
 70
   128
 43
0.0
 10
257.8737085995
 20
46.1861592111
 10
257.6803580151
 20
46.3333508148
 10
257.5629677374
 20
46.5051985778
 10
257.5302440661
 20
46.6889573377
 10
257.5846139664
 20
46.870998548
 10
257.7220450714
 20
47.0378210447
 10
257.9323447448
 20
47.1770523666
 10
258.1999160218
 20
47.2783663634
 10
258.504914365
 20
47.3342490394
 10
258.8247194424
 20
47.3405558322
 10
259.1356127745
 20
47.2968189959
 10
259.4145368251
 20
47.2062822915
 10
259.6408050733
 20
47.0756604121
 10
259.7976362383
 20
46.9146409851
 10
259.8733988701
 20
46.7351660847
 10
259.8624740007
 20
46.5505465433
 10
259.7656718779
 20
46.3744747476
 10
259.5901718722
 20
46.2200091372
 10
259.3489900161
 20
46.0986057199
 10
259.0600136647
 20
46.0192684317
 10
258.7446748719
 20
45.9878813564
 10
258.4263608734
 20
46.0067723297
 10
258.1286795622
 20
46.0745402946
 10
257.8737085995
 20
46.1861592111
  0
SPLINE
  5
1A6
330
1F
100
AcDbEntity
  8
0
  6
Continuous
 62
     7
370
    15
100
AcDbSpline
210
0.0
220
0.0
230
1.0
 70
     8
 71
     3
 72
     9
 73
     5
 74
     0
 42
0.000000001
 43
0.00000001
 40
0.0
 40
0.0
 40
0.0
 40
0.0
 40
0.6308787452298976
 40
1.0
 40
1.0
 40
1.0
 40
1.0
 10
257.9975717946432
 20
46.11781665963686
 30
0.0
 10
257.9076305208991
 20
46.17969615537199
 30
0.0
 10
257.7650654488877
 20
46.27778076545437
 30
0.0
 10
257.6366170353367
 20
46.42306777885629
 30
0.0
 10
257.5892039957535
 20
46.476696303545
 30
0.0
  0
SPLINE
  5
1A7
330
1F
100
AcDbEntity
  8
0
  6
Continuous
 62
     7
370
    15
100
AcDbSpline
210
0.0
220
0.0
230
1.0
 70
     8
 71
     3
 72
    11
 73
     7
 74
     0
 42
0.000000001
 43
0.00000001
 40
0.0
 40
0.0
 40
0.0
 40
0.0
 40
0.216452685927118
 40
0.4403055508633987
 40
0.7518960204221907
 40
1.0
 40
1.0
 40
1.0
 40
1.0
 10
259.8199141390543
 20
46.82175097223828
 30
0.0
 10
259.7994423024143
 20
46.74807081093481
 30
0.0
 10
259.7577987290376
 20
46.59819147877744
 30
0.0
 10
259.6805189339955
 20
46.38155016395728
 30
0.0
 10
259.5976214859446
 20
46.23318143834009
 30
0.0
 10
259.5445717735632
 20
46.19485826896398
 30
0.0
 10
259.5210556483316
 20
46.17787019476221
 30
0.0
  0
SPLINE
  5
1A8
330
1F
100
AcDbEntity
  8
0
  6
Continuous
 62
     7
370
    15
100
AcDbSpline
210
0.0
220
0.0
230
1.0
 70
     8
 71
     3
 72
    11
 73
     7
 74
     0
 42
0.000000001
 43
0.00000001
 40
0.0
 40
0.0
 40
0.0
 40
0.0
 40
0.1845133558519151
 40
0.5180565039163911
 40
0.8676122830485041
 40
1.0
 40
1.0
 40
1.0
 40
1.0
 10
259.0034175581266
 20
47.29310441536771
 30
0.0
 10
259.050835651364
 20
47.24030719497781
 30
0.0
 10
259.1839710089186
 20
47.09206891008287
 30
0.0
 10
259.4321317464958
 20
46.89579061119559
 30
0.0
 10
259.6627221344226
 20
46.82658995541469
 30
0.0
 10
259.7860394307949
 20
46.82279376791836
 30
0.0
 10
259.8199141390543
 20
46.82175097223828
 30
0.0
  0
SPLINE
  5
1A9
330
1F
100
AcDbEntity
  8
0
  6
Continuous
 62
     7
370
    15
100
AcDbSpline
210
0.0
220
0.0
230
1.0
 70
     8
 71
     3
 72
    11
 73
     7
 74
     0
 42
0.000000001
 43
0.00000001
 40
0.0
 40
0.0
 40
0.0
 40
0.0
 40
0.2164526859271193
 40
0.4403055508634033
 40
0.7518960204221925
 40
1.0
 40
1.0
 40
1.0
 40
1.0
 10
257.8880624864761
 20
47.12057708102108
 30
0.0
 10
257.964464420941
 20
47.10282095739984
 30
0.0
 10
258.1198803525913
 20
47.06670165604415
 30
0.0
 10
258.4082924740871
 20
47.06116979105042
 30
0.0
 10
258.7176699620309
 20
47.13925656574209
 30
0.0
 10
258.9156541839653
 20
47.245852201963
 30
0.0
 10
259.0034175581266
 20
47.29310441536771
 30
0.0
  0
SPLINE
  5
1AA
330
1F
100
AcDbEntity
  8
0
  6
Continuous
 62
     7
370
    15
100
AcDbSpline
210
0.0
220
0.0
230
1.0
 70
     8
 71
     3
 72
    11
 73
     7
 74
     0
 42
0.000000001
 43
0.00000001
 40
0.0
 40
0.0
 40
0.0
 40
0.0
 40
0.2164526859271173
 40
0.4403055508633989
 40
0.7518960204221936
 40
1.0
 40
1.0
 40
1.0
 40
1.0
 10
257.5892039957535
 20
46.476696303545
 30
0.0
 10
257.6096758323935
 20
46.49122793813377
 30
0.0
 10
257.6513194057702
 20
46.52078802118445
 30
0.0
 10
257.7285992008123
 20
46.6371402538765
 30
0.0
 10
257.8114966488632
 20
46.84597117263095
 30
0.0
 10
257.8645463612446
 20
47.03623572027395
 30
0.0
 10
257.8880624864761
 20
47.12057708102108
 30
0.0
  0
LINE
  5
1AB
330
1F
100
AcDbEntity
  8
0
  6
Continuous
 62
     7
370
    15
100
AcDbLine
 10
257.8880624865
 20
46.2025480721
 30
0.0
 11
257.8880624865
 21
47.120577081
 31
0.0
  0
LINE
  5
1AC
330
1F
100
AcDbEntity
  8
0
  6
Continuous
 62
     7
370
    15
100
AcDbLine
 10
259.0034175581
 20
46.0097936959
 30
0.0
 11
259.0034175581
 21
47.2931044154
 31
0.0
  0
LWPOLYLINE
  5
1AD
330
1F
100
AcDbEntity
  8
0
  6
Continuous
 62
     7
370
    15
100
AcDbPolyline
 90
       61
 70
   128
 43
0.0
 10
256.4418173676
 20
35.0309217828
 10
256.4722251663
 20
35.718487118
 10
256.5631154083
 20
36.4336274406
 10
256.713492281
 20
37.1685075236
 10
256.921708224
 20
37.9150758671
 10
257.1854819797
 20
38.6651529119
 10
257.5019235878
 20
39.4105206571
 10
257.8675660478
 20
40.1430126977
 10
258.2784033043
 20
40.8546036975
 10
258.7299341384
 20
41.5374973167
 10
259.2172114838
 20
42.1842116298
 10
259.7348966279
 20
42.7876610996
 10
260.277317704
 20
43.3412342074
 10
260.8385318332
 20
43.8388658903
 10
261.4123902361
 20
44.2751039915
 10
261.9926055999
 20
44.645168995
 10
262.5728209638
 20
44.9450063913
 10
263.1466793667
 20
45.171331099
 10
263.7078934959
 20
45.3216634574
 10
264.250314572
 20
45.3943563937
 10
264.7679997161
 20
45.3886134688
 10
265.2552770615
 20
45.3044976033
 10
265.7068078956
 20
45.1429303885
 10
266.1176451521
 20
44.9056819883
 10
266.483287612
 20
44.5953517461
 10
266.7997292201
 20
44.2153397048
 10
267.0635029759
 20
43.7698093559
 10
267.2717189188
 20
43.2636420231
 10
267.4220957915
 20
42.7023833816
 10
267.5129860335
 20
42.0921826987
 10
267.5433938322
 20
41.4397254606
 10
267.5129860335
 20
40.7521601254
 10
267.4220957915
 20
40.0370198028
 10
267.2717189188
 20
39.3021397197
 10
267.0635029759
 20
38.5555713763
 10
266.7997292201
 20
37.8054943315
 10
266.483287612
 20
37.0601265863
 10
266.1176451521
 20
36.3276345457
 10
265.7068078956
 20
35.6160435459
 10
265.2552770615
 20
34.9331499267
 10
264.7679997161
 20
34.2864356135
 10
264.250314572
 20
33.6829861437
 10
263.7078934959
 20
33.129413036
 10
263.1466793667
 20
32.6317813531
 10
262.5728209638
 20
32.1955432519
 10
261.9926055999
 20
31.8254782484
 10
261.4123902361
 20
31.5256408521
 10
260.8385318332
 20
31.2993161443
 10
260.277317704
 20
31.1489837859
 10
259.7348966279
 20
31.0762908497
 10
259.2172114838
 20
31.0820337746
 10
258.7299341384
 20
31.16614964
 10
258.2784033043
 20
31.3277168549
 10
257.8675660478
 20
31.5649652551
 10
257.5019235878
 20
31.8752954973
 10
257.1854819797
 20
32.2553075386
 10
256.921708224
 20
32.7008378875
 10
256.713492281
 20
33.2070052203
 10
256.5631154083
 20
33.7682638617
 10
256.4722251663
 20
34.3784645447
 10
256.4418173676
 20
35.0309217828
  0
LWPOLYLINE
  5
1AE
330
1F
100
AcDbEntity
  8
0
  6
Continuous
 62
     7
370
    15
100
AcDbPolyline
 90
       32
 70
   128
 43
0.0
 10
256.2296853333
 20
35.0309217828
 10
256.2606741727
 20
35.7316253091
 10
256.3533011709
 20
36.4604307334
 10
256.506551487
 20
37.209353111
 10
256.7187460786
 20
37.9701870916
 10
256.9875600972
 20
38.7345968188
 10
257.3100483602
 20
39.4942072598
 10
257.6826776188
 20
40.2406959636
 10
258.1013652687
 20
40.9658842436
 10
258.5615240805
 20
41.6618267855
 10
259.058112458
 20
42.320898697
 10
259.5856896749
 20
42.9358790484
 10
260.1384754849
 20
43.5000299862
 10
260.710413451
 20
44.0071705547
 10
261.2952373011
 20
44.4517444158
 10
261.8865395827
 20
44.8288807252
 10
262.4778418644
 20
45.1344474984
 10
263.0626657145
 20
45.3650968822
 10
263.6346036805
 20
45.5183018334
 10
264.1873894906
 20
45.5923838066
 10
264.7149667075
 20
45.5865311443
 10
265.211555085
 20
45.5008079693
 10
265.6717138968
 20
45.3361534828
 10
266.0904015467
 20
45.0943716738
 10
266.4630308053
 20
44.7781115543
 10
266.7855190683
 20
44.3908381364
 10
267.0543330869
 20
43.9367944687
 10
267.2665276785
 20
43.4209551487
 10
267.4197779946
 20
42.8489718198
 10
267.5124049928
 20
42.2271112512
 10
267.5433938322
 20
41.5621866774
 10
267.5433938322
 20
41.5621866774
  0
LWPOLYLINE
  5
1AF
330
1F
100
AcDbEntity
  8
0
  6
Continuous
 62
     7
370
    15
100
AcDbPolyline
 90
       17
 70
   128
 43
0.0
 10
261.8874589806
 20
31.7647585784
 10
261.8865395827
 20
31.764227735
 10
261.2952373011
 20
31.4586609617
 10
260.710413451
 20
31.228011578
 10
260.1384754849
 20
31.0748066268
 10
259.5856896749
 20
31.0007246535
 10
259.058112458
 20
31.0065773159
 10
258.5615240805
 20
31.0923004908
 10
258.1013652687
 20
31.2569549773
 10
257.6826776188
 20
31.4987367864
 10
257.3100483602
 20
31.8149969059
 10
256.9875600972
 20
32.2022703238
 10
256.7187460786
 20
32.6563139914
 10
256.506551487
 20
33.1721533115
 10
256.3533011709
 20
33.7441366403
 10
256.2606741727
 20
34.3659972089
 10
256.2296853333
 20
35.0309217828
  0
SPLINE
  5
1B0
330
1F
100
AcDbEntity
  8
0
  6
Continuous
 62
     7
370
    15
100
AcDbSpline
210
0.0
220
0.0
230
1.0
 70
     8
 71
     3
 72
    42
 73
    38
 74
     0
 42
0.000000001
 43
0.00000001
 40
0.0
 40
0.0
 40
0.0
 40
0.0
 40
0.0312499999999999
 40
0.0312499999999999
 40
0.0624999999999997
 40
0.0624999999999997
 40
0.1249999999999998
 40
0.1249999999999998
 40
0.1874999999999998
 40
0.1874999999999998
 40
0.2499999999999999
 40
0.2499999999999999
 40
0.3124999999999999
 40
0.3124999999999999
 40
0.375
 40
0.375
 40
0.4375000000000001
 40
0.4375000000000001
 40
0.5000000000000001
 40
0.5000000000000001
 40
0.5625000000000001
 40
0.5625000000000001
 40
0.6250000000000002
 40
0.6250000000000002
 40
0.6875000000000002
 40
0.6875000000000002
 40
0.7500000000000002
 40
0.7500000000000002
 40
0.7812500000000002
 40
0.7812500000000002
 40
0.8125000000000001
 40
0.8125000000000001
 40
0.8750000000000001
 40
0.8750000000000001
 40
0.9375
 40
0.9375
 40
1.0
 40
1.0
 40
1.0
 40
1.0
 10
260.5607143680186
 20
45.59426332999698
 30
0.0
 10
260.5038160411714
 20
45.56141662506989
 30
0.0
 10
260.4434036543221
 20
45.52955089630753
 30
0.0
 10
260.315398127178
 20
45.46785402167014
 30
0.0
 10
260.2478138499907
 20
45.43807780130543
 30
0.0
 10
260.0401181104045
 20
45.35438908483388
 30
0.0
 10
259.8932389712623
 20
45.30510019294733
 30
0.0
 10
259.5837356373416
 20
45.22029265734365
 30
0.0
 10
259.4263896546951
 20
45.18621450020609
 30
0.0
 10
259.1068434172666
 20
45.13449501137173
 30
0.0
 10
258.9441114313198
 20
45.11702463988708
 30
0.0
 10
258.6257484625092
 20
45.10066640394254
 30
0.0
 10
258.4684843211694
 20
45.10146466858892
 30
0.0
 10
258.1577577222016
 20
45.12231118558376
 30
0.0
 10
258.0083515053116
 20
45.1420915042646
 30
0.0
 10
257.7204268138208
 20
45.2005307097166
 30
0.0
 10
257.5809193838445
 20
45.23958450133603
 30
0.0
 10
257.3178791293206
 20
45.33642605971736
 30
0.0
 10
257.1954564970546
 20
45.3936057506685
 30
0.0
 10
256.9682555124144
 20
45.52530159993966
 30
0.0
 10
256.8626606827564
 20
45.60058235871106
 30
0.0
 10
256.6745629432882
 20
45.76542072818746
 30
0.0
 10
256.5924102473789
 20
45.85430807408597
 30
0.0
 10
256.4518031912127
 20
46.04402345470619
 30
0.0
 10
256.3929328794596
 20
46.14591037273065
 30
0.0
 10
256.3035896483335
 20
46.35585133529271
 30
0.0
 10
256.2730397064519
 20
46.46323464747874
 30
0.0
 10
256.2492093479215
 20
46.62678443955597
 30
0.0
 10
256.2449574848539
 20
46.6817158605557
 30
0.0
 10
256.2443475012594
 20
46.79223604402925
 30
0.0
 10
256.2480648026337
 20
46.84800733942787
 30
0.0
 10
256.2714186651121
 20
47.01183703264909
 30
0.0
 10
256.3029929348984
 20
47.11773348001387
 30
0.0
 10
256.4005964132756
 20
47.32070898049705
 30
0.0
 10
256.4681395434916
 20
47.41900667601842
 30
0.0
 10
256.6344748057854
 20
47.59351445042748
 30
0.0
 10
256.7331864171808
 20
47.67082106338361
 30
0.0
 10
256.8484037667892
 20
47.7373346235316
 30
0.0
  0
SPLINE
  5
1B1
330
1F
100
AcDbEntity
  8
0
  6
Continuous
 62
     7
370
    15
100
AcDbSpline
210
0.0
220
0.0
230
1.0
 70
     8
 71
     3
 72
    42
 73
    38
 74
     0
 42
0.000000001
 43
0.00000001
 40
0.0
 40
0.0
 40
0.0
 40
0.0
 40
0.0312500000000001
 40
0.0312500000000001
 40
0.0625000000000002
 40
0.0625000000000002
 40
0.1250000000000002
 40
0.1250000000000002
 40
0.1875000000000002
 40
0.1875000000000002
 40
0.2500000000000002
 40
0.2500000000000002
 40
0.3125000000000002
 40
0.3125000000000002
 40
0.3750000000000001
 40
0.3750000000000001
 40
0.5000000000000001
 40
0.5000000000000001
 40
0.5625000000000001
 40
0.5625000000000001
 40
0.6250000000000002
 40
0.6250000000000002
 40
0.6875000000000002
 40
0.6875000000000002
 40
0.7500000000000001
 40
0.7500000000000001
 40
0.8125000000000001
 40
0.8125000000000001
 40
0.8437500000000001
 40
0.8437500000000001
 40
0.875
 40
0.875
 40
0.9374999999999999
 40
0.9374999999999999
 40
0.9687499999999999
 40
0.9687499999999999
 40
1.0
 40
1.0
 40
1.0
 40
1.0
 10
256.8484037667892
 20
47.7373346235316
 30
0.0
 10
256.9060133226188
 20
47.7705919122107
 30
0.0
 10
256.9675503272761
 20
47.80091287020394
 30
0.0
 10
257.0952121218281
 20
47.85435425260949
 30
0.0
 10
257.161748782625
 20
47.87772428058739
 30
0.0
 10
257.3692729614232
 20
47.93817304658464
 30
0.0
 10
257.5195729685443
 20
47.96552907258453
 30
0.0
 10
257.8264084366266
 20
47.99443872285907
 30
0.0
 10
257.9855337306907
 20
47.99654675228486
 30
0.0
 10
258.3072937283968
 20
47.97944861968238
 30
0.0
 10
258.467995272605
 20
47.96052743338934
 30
0.0
 10
258.7893856057248
 20
47.90550368929846
 30
0.0
 10
258.9468472697512
 20
47.86989954868434
 30
0.0
 10
259.2528376741099
 20
47.78665122907102
 30
0.0
 10
259.4019662765719
 20
47.73887380776551
 30
0.0
 10
259.838059840178
 20
47.57931683886067
 30
0.0
 10
260.0995898987659
 20
47.4572304063717
 30
0.0
 10
260.4435259678716
 20
47.25802717958057
 30
0.0
 10
260.5472748794947
 20
47.19038766234407
 30
0.0
 10
260.733643731774
 20
47.05233693697604
 30
0.0
 10
260.8165960808859
 20
46.98159766428203
 30
0.0
 10
260.9584654958803
 20
46.83749322471644
 30
0.0
 10
261.0161014153479
 20
46.76554964415058
 30
0.0
 10
261.1047853725095
 20
46.62022180067221
 30
0.0
 10
261.1359563069968
 20
46.54639653626176
 30
0.0
 10
261.1680327392481
 20
46.3969898442549
 30
0.0
 10
261.1687756019718
 20
46.32298109453935
 30
0.0
 10
261.1459674430682
 20
46.21143097722576
 30
0.0
 10
261.1343481177863
 20
46.1741592407602
 30
0.0
 10
261.1024861537805
 20
46.09916823741705
 30
0.0
 10
261.0820527644276
 20
46.0611897313908
 30
0.0
 10
261.0081286134407
 20
45.94862952707773
 30
0.0
 10
260.9423706223893
 20
45.8752183746606
 30
0.0
 10
260.8171591385684
 20
45.76668053093911
 30
0.0
 10
260.7706614953746
 20
45.73060902706559
 30
0.0
 10
260.6709983979478
 20
45.66093884028523
 30
0.0
 10
260.6176135650276
 20
45.6271105372578
 30
0.0
 10
260.5607143680186
 20
45.59426332999698
 30
0.0
  0
LWPOLYLINE
  5
1B2
330
1F
100
AcDbEntity
  8
0
  6
Continuous
 62
     7
370
    15
100
AcDbPolyline
 90
       56
 70
   128
 43
0.0
 10
257.2196348269
 20
35.4799462443
 10
257.2507463136
 20
36.1261873323
 10
257.3436751878
 20
36.7999242374
 10
257.4972099795
 20
37.4923737686
 10
257.709349128
 20
38.1945087873
 10
257.977327075
 20
38.8971758898
 10
258.2976503182
 20
39.5912147359
 10
258.6661429541
 20
40.2675774676
 10
259.0780011178
 20
40.9174466626
 10
259.5278556083
 20
41.532350282
 10
260.0098418842
 20
42.1042721167
 10
260.5176765174
 20
42.6257562909
 10
261.0447391068
 20
43.090004461
 10
261.5841585856
 20
43.4909644421
 10
262.1289027958
 20
43.8234091077
 10
262.6718701636
 20
44.083004533
 10
263.205982279
 20
44.2663664948
 10
263.7242761738
 20
44.3711045895
 10
264.2199950944
 20
44.3958533957
 10
264.6866765866
 20
44.3402902751
 10
265.1182367434
 20
44.2051395778
 10
265.5090495183
 20
43.9921631998
 10
265.8540200689
 20
43.704137614
 10
266.1486511767
 20
43.3448176743
 10
266.3891018746
 20
42.9188876657
 10
266.5722375199
 20
42.4319002372
 10
266.6956706595
 20
41.8902040146
 10
266.7577921536
 20
41.3008608368
 10
266.7577921536
 20
40.6715536931
 10
266.6956706595
 20
40.0104865648
 10
266.5722375199
 20
39.3262774728
 10
266.3891018746
 20
38.6278461288
 10
266.1486511767
 20
37.9242976538
 10
265.8540200689
 20
37.2248038779
 10
265.5090495183
 20
36.5384837722
 10
265.1182367434
 20
35.8742845689
 10
264.6866765866
 20
35.2408651205
 10
264.2199950944
 20
34.646483018
 10
263.7242761738
 20
34.0988869412
 10
263.205982279
 20
33.6052156425
 10
262.6718701636
 20
33.1719048821
 10
262.1289027958
 20
32.8046035284
 10
261.5841585856
 20
32.5080999164
 10
261.0447391068
 20
32.286259424
 10
260.5176765174
 20
32.1419740814
 10
260.0098418842
 20
32.0771248686
 10
259.5278556083
 20
32.0925571943
 10
259.0780011178
 20
32.1880698746
 10
258.6661429541
 20
32.3624177555
 10
258.2976503182
 20
32.6133279458
 10
257.977327075
 20
32.9375294475
 10
257.709349128
 20
33.3307957982
 10
257.4972099795
 20
33.7880001696
 10
257.3436751878
 20
34.3031822035
 10
257.2507463136
 20
34.8696257142
 10
257.2196348269
 20
35.4799462443
  0
SPLINE
  5
1B3
330
1F
100
AcDbEntity
  8
0
  6
Continuous
 62
     7
370
    15
100
AcDbSpline
210
0.0
220
0.0
230
1.0
 70
     8
 71
     3
 72
    12
 73
     8
 74
     0
 42
0.000000001
 43
0.00000001
 40
0.0
 40
0.0
 40
0.0
 40
0.0
 40
0.25
 40
0.25
 40
0.5
 40
0.5
 40
1.0
 40
1.0
 40
1.0
 40
1.0
 10
246.4511993276606
 20
41.35595229706773
 30
0.0
 10
246.4848625735505
 20
41.33651891886662
 30
0.0
 10
246.5223153513333
 20
41.30899200857072
 30
0.0
 10
246.5939573595091
 20
41.24807282540761
 30
0.0
 10
246.6276845185196
 20
41.21528363383011
 30
0.0
 10
246.7180552700329
 20
41.11830184226498
 30
0.0
 10
246.7627543829055
 20
41.05752673175269
 30
0.0
 10
246.7922278754851
 20
41.00536291823512
 30
0.0
  0
SPLINE
  5
1B4
330
1F
100
AcDbEntity
  8
0
  6
Continuous
 62
     7
370
    15
100
AcDbSpline
210
0.0
220
0.0
230
1.0
 70
     8
 71
     3
 72
    14
 73
    10
 74
     0
 42
0.000000001
 43
0.00000001
 40
0.0
 40
0.0
 40
0.0
 40
0.0
 40
0.25
 40
0.25
 40
0.5
 40
0.5
 40
0.75
 40
0.75
 40
1.0
 40
1.0
 40
1.0
 40
1.0
 10
260.1541279688363
 20
53.25002633696468
 30
0.0
 10
260.1541279688363
 20
53.28632456599433
 30
0.0
 10
260.1497710625785
 20
53.32491592064498
 30
0.0
 10
260.1321131512182
 20
53.40424979699604
 30
0.0
 10
260.1185966099912
 20
53.4455574571037
 30
0.0
 10
260.0822355135575
 20
53.52545346235483
 30
0.0
 10
260.0592207742833
 20
53.564471496061
 30
0.0
 10
260.0043888835413
 20
53.63297203540397
 30
0.0
 10
259.9733506424757
 20
53.66113553326388
 30
0.0
 10
259.9419959344804
 20
53.67923622090561
 30
0.0
  0
LINE
  5
1B5
330
1F
100
AcDbEntity
  8
0
  6
Continuous
 62
     7
370
    15
100
AcDbLine
 10
245.0416050528
 20
42.169693751
 30
0.0
 11
246.4511993277
 21
41.3559522971
 31
0.0
  0
LWPOLYLINE
  5
1B6
330
1F
100
AcDbEntity
  8
0
  6
Continuous
 62
     7
370
    15
100
AcDbPolyline
 90
       23
 70
   128
 43
0.0
 10
245.0416050528
 20
42.169693751
 10
245.3354242769
 20
43.1214925275
 10
245.6848045284
 20
44.0742860794
 10
246.0873030445
 20
45.0214127578
 10
246.5401056753
 20
45.956250535
 10
247.0400465598
 20
46.8722633035
 10
247.5836302601
 20
47.7630465747
 10
248.1670562007
 20
48.6223722571
 10
248.7862452413
 20
49.4442322015
 10
249.4368681962
 20
50.2228802078
 10
250.1143761036
 20
50.9528722009
 10
250.8140320298
 20
51.6291042941
 10
251.5309441889
 20
52.2468484739
 10
252.2601001446
 20
52.8017856569
 10
252.9964018553
 20
53.2900358876
 10
253.7347013188
 20
53.7081854657
 10
254.469836565
 20
54.0533108138
 10
255.1966677471
 20
54.3229989182
 10
255.9101130779
 20
54.5153642
 10
256.6051843599
 20
54.6290616985
 10
257.2770218618
 20
54.6632964745
 10
257.9209282958
 20
54.6178291686
 10
258.5324016596
 20
54.4929776748
  0
LINE
  5
1B7
330
1F
100
AcDbEntity
  8
0
  6
Continuous
 62
     7
370
    15
100
AcDbLine
 10
259.9419959345
 20
53.6792362209
 30
0.0
 11
258.5324016596
 21
54.4929776748
 31
0.0
  0
LINE
  5
1B8
330
1F
100
AcDbEntity
  8
0
  6
Continuous
 62
     7
370
    15
100
AcDbLine
 10
262.9090456056
 20
50.2354412647
 30
0.0
 11
263.004248286
 21
50.4003371437
 31
0.0
  0
LINE
  5
1B9
330
1F
100
AcDbEntity
  8
0
  6
Continuous
 62
     7
370
    15
100
AcDbLine
 10
262.1163492866
 20
49.7778274203
 30
0.0
 11
262.9090456056
 21
50.2354412647
 31
0.0
  0
ARC
  5
1BA
330
1F
100
AcDbEntity
  8
0
  6
Continuous
 62
     7
370
    15
100
AcDbCircle
 10
262.7788367428
 20
48.7421428443
 30
0.0
 40
1.22944384605776
100
AcDbArc
 50
122.60547834
 51
177.3945215143
  0
LINE
  5
1BB
330
1F
100
AcDbEntity
  8
0
  6
Continuous
 62
     7
370
    15
100
AcDbLine
 10
261.5506638617
 20
47.7278052454
 30
0.0
 11
261.5506638617
 21
48.7980315261
 31
0.0
  0
LINE
  5
1BC
330
1F
100
AcDbEntity
  8
0
  6
Continuous
 62
     7
370
    15
100
AcDbLine
 10
246.8237395859
 20
40.9495917544
 30
0.0
 11
248.8190686266
 21
42.1014706912
 31
0.0
  0
LINE
  5
1BD
330
1F
100
AcDbEntity
  8
0
  6
Continuous
 62
     7
370
    15
100
AcDbLine
 10
246.7922278755
 20
41.0053629182
 30
0.0
 11
246.8237395859
 21
40.9495917544
 31
0.0
  0
LINE
  5
1BE
330
1F
100
AcDbEntity
  8
0
  6
Continuous
 62
     7
370
    15
100
AcDbLine
 10
260.1541279688
 20
51.4212999256
 30
0.0
 11
260.1541279688
 21
53.250026337
 31
0.0
  0
LINE
  5
1BF
330
1F
100
AcDbEntity
  8
0
  6
Continuous
 62
     7
370
    15
100
AcDbLine
 10
261.7377657094
 20
52.3355145336
 30
0.0
 11
260.1541279688
 21
51.4212999256
 31
0.0
  0
SPLINE
  5
1C0
330
1F
100
AcDbEntity
  8
0
  6
Continuous
 62
     7
370
    15
100
AcDbSpline
210
0.0
220
0.0
230
1.0
 70
     8
 71
     3
 72
    22
 73
    18
 74
     0
 42
0.000000001
 43
0.00000001
 40
0.0
 40
0.0
 40
0.0
 40
0.0
 40
0.1249999999999998
 40
0.1249999999999998
 40
0.2499999999999997
 40
0.2499999999999997
 40
0.3749999999999995
 40
0.3749999999999995
 40
0.4999999999999993
 40
0.4999999999999993
 40
0.6249999999999991
 40
0.6249999999999991
 40
0.7499999999999994
 40
0.7499999999999994
 40
0.8749999999999997
 40
0.8749999999999997
 40
1.0
 40
1.0
 40
1.0
 40
1.0
 10
258.9408860176702
 20
32.78006980194154
 30
0.0
 10
258.8925087156712
 20
32.74816234989708
 30
0.0
 10
258.8438169111465
 20
32.72434773406185
 30
0.0
 10
258.7460414297582
 20
32.69266929867129
 30
0.0
 10
258.6966513971814
 20
32.68480950283112
 30
0.0
 10
258.5989889474579
 20
32.68621293649761
 30
0.0
 10
258.5515636707087
 20
32.69535491562981
 30
0.0
 10
258.4595839507622
 20
32.73019379680705
 30
0.0
 10
258.4146132003387
 20
32.75625326018972
 30
0.0
 10
258.3299274048206
 20
32.82433907682314
 30
0.0
 10
258.2904589348657
 20
32.86594017475567
 30
0.0
 10
258.2171010832786
 20
32.96391567682518
 30
0.0
 10
258.1829381600348
 20
33.02098645768839
 30
0.0
 10
258.1224766977061
 20
33.14629094362613
 30
0.0
 10
258.0959630216057
 20
33.21457403351128
 30
0.0
 10
258.0500265633012
 20
33.3621669448758
 30
0.0
 10
258.0306010086092
 20
33.44180395776996
 30
0.0
 10
258.0151391020303
 20
33.52510253913083
 30
0.0
  0
LWPOLYLINE
  5
1C1
330
1F
100
AcDbEntity
  8
0
  6
Continuous
 62
     7
370
    15
100
AcDbPolyline
 90
       13
 70
   128
 43
0.0
 10
264.7261271306
 20
36.1198184079
 10
264.3088102258
 20
35.5111307778
 10
263.8567613124
 20
34.9419561512
 10
263.3763232758
 20
34.4202808525
 10
262.8742373404
 20
33.9534247235
 10
262.3575484816
 20
33.5479384153
 10
261.8335065742
 20
33.209511474
 10
261.3094646668
 20
32.9428925078
 10
260.7927758079
 20
32.7518225576
 10
260.2906898725
 20
32.6389826048
 10
259.8102518359
 20
32.6059559535
 10
259.3582029225
 20
32.6532060143
 10
258.9408860177
 20
32.7800698019
  0
SPLINE
  5
1C2
330
1F
100
AcDbEntity
  8
0
  6
Continuous
 62
     7
370
    15
100
AcDbSpline
210
0.0
220
0.0
230
1.0
 70
     8
 71
     3
 72
    22
 73
    18
 74
     0
 42
0.000000001
 43
0.00000001
 40
0.0
 40
0.0
 40
0.0
 40
0.0
 40
0.125
 40
0.125
 40
0.25
 40
0.25
 40
0.375
 40
0.375
 40
0.5
 40
0.5
 40
0.625
 40
0.625
 40
0.75
 40
0.75
 40
0.875
 40
0.875
 40
1.0
 40
1.0
 40
1.0
 40
1.0
 10
265.6518740462784
 20
37.93369578289948
 30
0.0
 10
265.6668129785838
 20
37.85011340294127
 30
0.0
 10
265.6743969694207
 20
37.76508608376442
 30
0.0
 10
265.675173719933
 20
37.59209464382652
 30
0.0
 10
265.6682763265053
 20
37.50357556546651
 30
0.0
 10
265.6394989643039
 20
37.32577893638808
 30
0.0
 10
265.6179662916341
 20
37.23805859116593
 30
0.0
 10
265.5609403737764
 20
37.0648891892766
 30
0.0
 10
265.5250062142437
 20
36.97862019610927
 30
0.0
 10
265.440381553248
 20
36.81270213213811
 30
0.0
 10
265.3921399244402
 20
36.73357728551754
 30
0.0
 10
265.2840493834487
 20
36.58283347969548
 30
0.0
 10
265.2235020103764
 20
36.51059426871105
 30
0.0
 10
265.0946452677315
 20
36.37866333125679
 30
0.0
 10
265.0262313005339
 20
36.31857051847832
 30
0.0
 10
264.881514190957
 20
36.20992780025672
 30
0.0
 10
264.8049177059232
 20
36.16132262721203
 30
0.0
 10
264.7261271306385
 20
36.11981840791029
 30
0.0
  0
LWPOLYLINE
  5
1C3
330
1F
100
AcDbEntity
  8
0
  6
Continuous
 62
     7
370
    15
100
AcDbPolyline
 90
       10
 70
   128
 43
0.0
 10
265.6518740463
 20
43.1292365294
 10
265.8907181635
 20
42.7284961853
 10
266.0728359694
 20
42.2662182507
 10
266.1956811657
 20
41.7488661109
 10
266.2575361799
 20
41.1836731769
 10
266.2575361799
 20
40.5785417502
 10
266.1956811657
 20
39.9419325369
 10
266.0728359694
 20
39.2827463525
 10
265.8907181635
 20
38.6101996749
 10
265.6518740463
 20
37.9336957829
  0
SPLINE
  5
1C4
330
1F
100
AcDbEntity
  8
0
  6
Continuous
 62
     7
370
    15
100
AcDbSpline
210
0.0
220
0.0
230
1.0
 70
     8
 71
     3
 72
    22
 73
    18
 74
     0
 42
0.000000001
 43
0.00000001
 40
0.0
 40
0.0
 40
0.0
 40
0.0
 40
0.1249999999999998
 40
0.1249999999999998
 40
0.2499999999999997
 40
0.2499999999999997
 40
0.3749999999999995
 40
0.3749999999999995
 40
0.4999999999999993
 40
0.4999999999999993
 40
0.6249999999999991
 40
0.6249999999999991
 40
0.7499999999999994
 40
0.7499999999999994
 40
0.8749999999999997
 40
0.8749999999999997
 40
1.0
 40
1.0
 40
1.0
 40
1.0
 10
264.7261271306385
 20
43.87426926659957
 30
0.0
 10
264.804902235621
 20
43.88862844050723
 30
0.0
 10
264.8802826777352
 20
43.89703603380974
 30
0.0
 10
265.0244709451516
 20
43.90192093814263
 30
0.0
 10
265.0936833738685
 20
43.8983375082671
 30
0.0
 10
265.2233388011699
 20
43.87846492177182
 30
0.0
 10
265.2827058701788
 20
43.86242909270776
 30
0.0
 10
265.3907839295478
 20
43.81829683799702
 30
0.0
 10
265.4398993210178
 20
43.78984472426711
 30
0.0
 10
265.524613193126
 20
43.72174269936321
 30
0.0
 10
265.5600580513112
 20
43.68246438306355
 30
0.0
 10
265.6174201432357
 20
43.59372303649279
 30
0.0
 10
265.6394140730029
 20
43.54367726603201
 30
0.0
 10
265.6681110752361
 20
43.43671001258847
 30
0.0
 10
265.6750816592531
 20
43.37970890961923
 30
0.0
 10
265.6745030703481
 20
43.25896856343586
 30
0.0
 10
265.6668159123761
 20
43.19498338640387
 30
0.0
 10
265.6518740462784
 20
43.12923652941027
 30
0.0
  0
LWPOLYLINE
  5
1C5
330
1F
100
AcDbEntity
  8
0
  6
Continuous
 62
     7
370
    15
100
AcDbPolyline
 90
       13
 70
   128
 43
0.0
 10
258.9408860177
 20
40.5345206606
 10
259.3582029225
 20
41.1432082907
 10
259.8102518359
 20
41.7123829173
 10
260.2906898725
 20
42.234058216
 10
260.7927758079
 20
42.7009143451
 10
261.3094646668
 20
43.1064006532
 10
261.8335065742
 20
43.4448275946
 10
262.3575484816
 20
43.7114465608
 10
262.8742373404
 20
43.902516511
 10
263.3763232758
 20
44.0153564637
 10
263.8567613124
 20
44.048383115
 10
264.3088102258
 20
44.0011330543
 10
264.7261271306
 20
43.8742692666
  0
SPLINE
  5
1C6
330
1F
100
AcDbEntity
  8
0
  6
Continuous
 62
     7
370
    15
100
AcDbSpline
210
0.0
220
0.0
230
1.0
 70
     8
 71
     3
 72
    22
 73
    18
 74
     0
 42
0.000000001
 43
0.00000001
 40
0.0
 40
0.0
 40
0.0
 40
0.0
 40
0.125
 40
0.125
 40
0.25
 40
0.25
 40
0.375
 40
0.375
 40
0.5
 40
0.5
 40
0.625
 40
0.625
 40
0.75
 40
0.75
 40
0.875
 40
0.875
 40
1.0
 40
1.0
 40
1.0
 40
1.0
 10
258.0151391020303
 20
38.72064328564163
 30
0.0
 10
258.0305979727084
 20
38.78667738746304
 30
0.0
 10
258.049702619461
 20
38.85629768410717
 30
0.0
 10
258.0953386549768
 20
39.00249559298739
 30
0.0
 10
258.1220584445445
 20
39.0795714456317
 30
0.0
 10
258.1828287843239
 20
39.23889892188134
 30
0.0
 10
258.2163032492534
 20
39.31972541717163
 30
0.0
 10
258.2894275065336
 20
39.48360144552746
 30
0.0
 10
258.3295063071128
 20
39.56747778834755
 30
0.0
 10
258.4141590446987
 20
39.73337964404823
 30
0.0
 10
258.4583770617368
 20
39.81482727230168
 30
0.0
 10
258.5504718430656
 20
39.97480523362248
 30
0.0
 10
258.5988502226613
 20
40.05406945500935
 30
0.0
 10
258.6959425052107
 20
40.20433762495781
 30
0.0
 10
258.7448133803248
 20
40.27571242465219
 30
0.0
 10
258.8430154426923
 20
40.41120770805492
 30
0.0
 10
258.8924992150621
 20
40.47546471696181
 30
0.0
 10
258.9408860176702
 20
40.53452066063082
 30
0.0
  0
LWPOLYLINE
  5
1C7
330
1F
100
AcDbEntity
  8
0
  6
Continuous
 62
     7
370
    15
100
AcDbPolyline
 90
       10
 70
   128
 43
0.0
 10
258.015139102
 20
33.5251025391
 10
257.7762949848
 20
33.9258428832
 10
257.5941771789
 20
34.3881208178
 10
257.4713319826
 20
34.9054729576
 10
257.4094769684
 20
35.4706658917
 10
257.4094769684
 20
36.0757973183
 10
257.4713319826
 20
36.7124065316
 10
257.5941771789
 20
37.371592716
 10
257.7762949848
 20
38.0441393937
 10
258.015139102
 20
38.7206432856
  0
ARC
  5
1C8
330
1F
100
AcDbEntity
  8
0
  6
Continuous
 62
     7
370
    15
100
AcDbCircle
 10
265.1783649677
 20
42.6485420544
 30
0.0
 40
1.306493880557516
100
AcDbArc
 50
110.2517772116
 51
120.2335023561
  0
LINE
  5
1C9
330
1F
100
AcDbEntity
  8
0
  6
Continuous
 62
     7
370
    15
100
AcDbLine
 10
264.0986638535
 20
43.5337993743
 30
0.0
 11
264.5205123427
 21
43.7773273235
 31
0.0
  0
LWPOLYLINE
  5
1CA
330
1F
100
AcDbEntity
  8
0
  6
Continuous
 62
     7
370
    15
100
AcDbPolyline
 90
       10
 70
   128
 43
0.0
 10
259.5683492948
 20
40.9185044477
 10
260.029947278
 20
41.4939041589
 10
260.5225995792
 20
42.0147779199
 10
261.0378235379
 20
42.4721571434
 10
261.5667478469
 20
42.858166513
 10
262.1002653014
 20
43.1661595836
 10
262.6291896104
 20
43.3908332224
 10
263.1444135691
 20
43.5283189196
 10
263.6370658703
 20
43.5762493982
 10
264.0986638535
 20
43.5337993743
  0
LINE
  5
1CB
330
1F
100
AcDbEntity
  8
0
  6
Continuous
 62
     7
370
    15
100
AcDbLine
 10
259.1465008056
 20
40.6749764986
 30
0.0
 11
259.5683492948
 21
40.9185044477
 31
0.0
  0
ARC
  5
1CC
330
1F
100
AcDbEntity
  8
0
  6
Continuous
 62
     7
370
    15
100
AcDbCircle
 10
260.0092572494
 20
39.1912494564
 30
0.0
 40
1.716331732794858
100
AcDbArc
 50
120.1771113865
 51
128.4969973883
  0
LWPOLYLINE
  5
1CD
330
1F
100
AcDbEntity
  8
0
  6
Continuous
 62
     7
370
    15
100
AcDbPolyline
 90
       32
 70
   128
 43
0.0
 10
262.2481056439
 20
43.2371484259
 10
262.3472480333
 20
43.2374435668
 10
262.7373587922
 20
43.1887034097
 10
263.0915330054
 20
43.0604279752
 10
263.4031730773
 20
42.8550067921
 10
263.6664737431
 20
42.5762664681
 10
263.8765302096
 20
42.2293994083
 10
264.0294295222
 20
41.8208670895
 10
264.1223234561
 20
41.358279696
 10
264.153481573
 20
40.8502543556
 10
264.1223234561
 20
40.3062546192
 10
264.0294295222
 20
39.7364141725
 10
263.8765302096
 20
39.1513480651
 10
263.6664737431
 20
38.5619549713
 10
263.4031730773
 20
37.9792141695
 10
263.0915330054
 20
37.413981018
 10
262.7373587922
 20
36.8767847412
 10
262.3472480333
 20
36.3776322892
 10
261.928467754
 20
35.9258219278
 10
261.4888190385
 20
35.5297700291
 10
261.0364917105
 20
35.1968542906
 10
260.5799117724
 20
34.9332763027
 10
260.1275844444
 20
34.7439460246
 10
259.6879357288
 20
34.6323903211
 10
259.2691554495
 20
34.6006872639
 10
258.8790446906
 20
34.649427421
 10
258.5248704775
 20
34.7777028554
 10
258.2132304056
 20
34.9831240386
 10
257.9499297397
 20
35.2618643626
 10
257.7398732733
 20
35.6087314224
 10
257.5869739606
 20
36.0172637412
 10
257.5401920989
 20
36.2070015295
  0
LINE
  5
1CE
330
1F
100
AcDbEntity
  8
0
  6
Continuous
 62
     7
370
    15
100
AcDbLine
 10
258.1211959729
 20
33.4689076261
 30
0.0
 11
259.2651730638
 21
34.1293115436
 31
0.0
  0
LINE
  5
1CF
330
1F
100
AcDbEntity
  8
0
  6
Continuous
 62
     7
370
    15
100
AcDbLine
 10
258.0354304644
 20
33.4231555653
 30
0.0
 11
258.1211959729
 21
33.4689076261
 31
0.0
  0
LWPOLYLINE
  5
1D0
330
1F
100
AcDbEntity
  8
0
  6
Continuous
 62
     7
370
    15
100
AcDbPolyline
 90
        3
 70
   128
 43
0.0
 10
264.6054229011
 20
43.4522041205
 10
264.6261698851
 20
43.7507523615
 10
264.6220007057
 20
43.8306482671
  0
ARC
  5
1D1
330
1F
100
AcDbEntity
  8
0
  6
Continuous
 62
     7
370
    15
100
AcDbCircle
 10
259.5418671387
 20
41.1111545309
 30
0.0
 40
5.578540144217076
100
AcDbArc
 50
335.1873353003
 51
24.8126646997
  0
ARC
  5
1D2
330
1F
100
AcDbEntity
  8
0
  6
Continuous
 62
     7
370
    15
100
AcDbCircle
 10
262.2505247975
 20
38.5794104413
 30
0.0
 40
2.362606499360569
100
AcDbArc
 50
301.7912553701
 51
4.6295852366
  0
LINE
  5
1D3
330
1F
100
AcDbEntity
  8
0
  6
Continuous
 62
     7
370
    15
100
AcDbLine
 10
262.3512304191
 20
35.9108545336
 30
0.0
 11
263.4952075099
 21
36.5712584511
 31
0.0
  0
ARC
  5
1D4
330
1F
100
AcDbEntity
  8
0
  6
Continuous
 62
     7
370
    15
100
AcDbCircle
 10
258.5577480155
 20
38.9184056234
 30
0.0
 40
4.841061072136452
100
AcDbArc
 50
278.4027299562
 51
321.5918935111
  0
SPLINE
  5
1D5
330
1F
100
AcDbEntity
  8
0
  6
Continuous
 62
     7
370
    15
100
AcDbSpline
210
0.0
220
0.0
230
1.0
 70
     8
 71
     3
 72
     8
 73
     4
 74
     0
 42
0.000000001
 43
0.00000001
 40
0.0
 40
0.0
 40
0.0
 40
0.0
 40
1.0
 40
1.0
 40
1.0
 40
1.0
 10
248.8190686266179
 20
35.52831715548037
 30
0.0
 10
248.820292967602
 20
35.52902395248593
 30
0.0
 10
248.8215190982114
 20
35.52972977438006
 30
0.0
 10
248.8227470183306
 20
35.53043462123664
 30
0.0
  0
SPLINE
  5
1D6
330
1F
100
AcDbEntity
  8
0
  6
Continuous
 62
     7
370
    15
100
AcDbSpline
210
0.0
220
0.0
230
1.0
 70
     8
 71
     3
 72
    14
 73
    10
 74
     0
 42
0.000000001
 43
0.00000001
 40
0.0
 40
0.0
 40
0.0
 40
0.0
 40
0.25
 40
0.25
 40
0.5
 40
0.5
 40
0.75
 40
0.75
 40
1.0
 40
1.0
 40
1.0
 40
1.0
 10
249.2871416434012
 20
36.08166736113608
 30
0.0
 10
249.2778098559156
 20
36.03267502994621
 30
0.0
 10
249.2561847900567
 20
35.98250352287058
 30
0.0
 10
249.1953666915467
 20
35.87995523854017
 30
0.0
 10
249.1564901888984
 20
35.82837314898868
 30
0.0
 10
249.0691158341646
 20
35.72873500565997
 30
0.0
 10
249.0202521393098
 20
35.68036891893885
 30
0.0
 10
248.9214389923944
 20
35.59529683369189
 30
0.0
 10
248.8709098181054
 20
35.5580808805442
 30
0.0
 10
248.8227470183311
 20
35.53043462123694
 30
0.0
  0
SPLINE
  5
1D7
330
1F
100
AcDbEntity
  8
0
  6
Continuous
 62
     7
370
    15
100
AcDbSpline
210
0.0
220
0.0
230
1.0
 70
     8
 71
     3
 72
    26
 73
    22
 74
     0
 42
0.000000001
 43
0.00000001
 40
0.0
 40
0.0
 40
0.0
 40
0.0
 40
0.1250000000000001
 40
0.1250000000000001
 40
0.2500000000000001
 40
0.2500000000000001
 40
0.3750000000000002
 40
0.3750000000000002
 40
0.4375000000000002
 40
0.4375000000000002
 40
0.4687500000000002
 40
0.4687500000000002
 40
0.4843750000000002
 40
0.4843750000000002
 40
0.5000000000000002
 40
0.5000000000000002
 40
0.6250000000000001
 40
0.6250000000000001
 40
0.7500000000000001
 40
0.7500000000000001
 40
1.0
 40
1.0
 40
1.0
 40
1.0
 10
249.2871416434012
 20
41.83258490760672
 30
0.0
 10
249.3295251262775
 20
41.56113466508123
 30
0.0
 10
249.3812460237577
 20
41.28659309752151
 30
0.0
 10
249.4945774991924
 20
40.73423579946427
 30
0.0
 10
249.5564104785909
 20
40.45634690326031
 30
0.0
 10
249.6782125356561
 20
39.90118716065131
 30
0.0
 10
249.7388219390382
 20
39.62370336411808
 30
0.0
 10
249.8083822506691
 20
39.21451259349194
 30
0.0
 10
249.8277559814569
 20
39.079371861063
 30
0.0
 10
249.8466279839595
 20
38.88001735496901
 30
0.0
 10
249.8512093432514
 20
38.81412897787714
 30
0.0
 10
249.8550503293326
 20
38.7162949808108
 30
0.0
 10
249.8558272747834
 20
38.68384948610635
 30
0.0
 10
249.8563278012389
 20
38.61930552351618
 30
0.0
 10
249.8560601226772
 20
38.58941001208467
 30
0.0
 10
249.8495988667241
 20
38.31989868106646
 30
0.0
 10
249.8131609004354
 20
38.10469848537617
 30
0.0
 10
249.7173597362637
 20
37.69249617005285
 30
0.0
 10
249.658787463516
 20
37.49487424445591
 30
0.0
 10
249.4838021277352
 20
36.90135857607245
 30
0.0
 10
249.3678079136139
 20
36.50516914278532
 30
0.0
 10
249.2871416434013
 20
36.08166736113745
 30
0.0
  0
SPLINE
  5
1D8
330
1F
100
AcDbEntity
  8
0
  6
Continuous
 62
     7
370
    15
100
AcDbSpline
210
0.0
220
0.0
230
1.0
 70
     8
 71
     3
 72
    14
 73
    10
 74
     0
 42
0.000000001
 43
0.00000001
 40
0.0
 40
0.0
 40
0.0
 40
0.0
 40
0.25
 40
0.25
 40
0.5
 40
0.5
 40
0.75
 40
0.75
 40
1.0
 40
1.0
 40
1.0
 40
1.0
 10
248.8227470183311
 20
42.10358815690618
 30
0.0
 10
248.8708597612073
 20
42.13120568213257
 30
0.0
 10
248.9209689189679
 20
42.14542648259301
 30
0.0
 10
249.020131669132
 20
42.14555042176023
 30
0.0
 10
249.0690134050963
 20
42.13122773526742
 30
0.0
 10
249.1562892261931
 20
42.07870300057091
 30
0.0
 10
249.195365417821
 20
42.04022433538755
 30
0.0
 10
249.2558780675578
 20
41.9472448161521
 30
0.0
 10
249.2778194823579
 20
41.89228983755412
 30
0.0
 10
249.2871416434012
 20
41.83258490760672
 30
0.0
  0
SPLINE
  5
1D9
330
1F
100
AcDbEntity
  8
0
  6
Continuous
 62
     7
370
    15
100
AcDbSpline
210
0.0
220
0.0
230
1.0
 70
     8
 71
     3
 72
     8
 73
     4
 74
     0
 42
0.000000001
 43
0.00000001
 40
0.0
 40
0.0
 40
0.0
 40
0.0
 40
1.0
 40
1.0
 40
1.0
 40
1.0
 10
248.8227470183311
 20
42.10358815690662
 30
0.0
 10
248.8215193424089
 20
42.102883450238
 30
0.0
 10
248.8202932111897
 20
42.10217762878641
 30
0.0
 10
248.8190686266178
 20
42.10147069116064
 30
0.0
  0
ARC
  5
1DA
330
1F
100
AcDbEntity
  8
0
  6
Continuous
 62
     7
370
    15
100
AcDbCircle
 10
259.7394887446
 20
33.5248093737
 30
0.0
 40
1.724349667480487
100
AcDbArc
 50
171.0177039064
 51
179.9902588546
  0
ARC
  5
1DB
330
1F
100
AcDbEntity
  8
0
  6
Continuous
 62
     7
370
    15
100
AcDbCircle
 10
263.0998411769
 20
36.1350804187
 30
0.0
 40
5.578540144217588
100
AcDbArc
 50
155.1873353003
 51
204.8126646997
  0
ARC
  5
1DC
330
1F
100
AcDbEntity
  8
0
  6
Continuous
 62
     7
370
    15
100
AcDbCircle
 10
259.3144768848
 20
38.7098432508
 30
0.0
 40
1.299382666684566
100
AcDbArc
 50
179.5237711273
 51
190.3618866346
  0
SPLINE
  5
1DD
330
1F
100
AcDbEntity
  8
0
  6
Continuous
 62
     7
370
    15
100
AcDbSpline
210
0.0
220
0.0
230
1.0
 70
     8
 71
     3
 72
     8
 73
     4
 74
     0
 42
0.000000001
 43
0.00000001
 40
0.0
 40
0.0
 40
0.0
 40
0.0
 40
1.0
 40
1.0
 40
1.0
 40
1.0
 10
244.005258234563
 20
43.34740909480368
 30
0.0
 10
243.6623916255569
 20
43.28811700935864
 30
0.0
 10
243.3192726684771
 20
43.22930020487726
 30
0.0
 10
242.9759704663506
 20
43.17086158601365
 30
0.0
  0
SPLINE
  5
1DE
330
1F
100
AcDbEntity
  8
0
  6
Continuous
 62
     7
370
    15
100
AcDbSpline
210
0.0
220
0.0
230
1.0
 70
     8
 71
     3
 72
     8
 73
     4
 74
     0
 42
0.000000001
 43
0.00000001
 40
0.0
 40
0.0
 40
0.0
 40
0.0
 40
0.0011140524372172
 40
0.0011140524372172
 40
0.0011140524372172
 40
0.0011140524372172
 10
242.6635587608241
 20
43.5425106540992
 30
0.0
 10
242.7681681122114
 20
43.41848366406995
 30
0.0
 10
242.8723243648128
 20
43.29459261367524
 30
0.0
 10
242.9759704663506
 20
43.17086158601365
 30
0.0
  0
LWPOLYLINE
  5
1DF
330
1F
100
AcDbEntity
  8
0
  6
Continuous
 62
     7
370
    15
100
AcDbPolyline
 90
       23
 70
   128
 43
0.0
 10
242.6635587608
 20
43.5425106541
 10
242.957377985
 20
44.4943094306
 10
243.3067582364
 20
45.4471029825
 10
243.7092567525
 20
46.3942296609
 10
244.1620593834
 20
47.3290674381
 10
244.6620002679
 20
48.2450802066
 10
245.2055839681
 20
49.1358634778
 10
245.7890099088
 20
49.9951891602
 10
246.4081989493
 20
50.8170491046
 10
247.0588219043
 20
51.5956971109
 10
247.7363298117
 20
52.325689104
 10
248.4359857379
 20
53.0019211972
 10
249.152897897
 20
53.619665377
 10
249.8820538526
 20
54.17460256
 10
250.6183555633
 20
54.6628527907
 10
251.3566550268
 20
55.0810023688
 10
252.091790273
 20
55.4261277169
 10
252.8186214551
 20
55.6958158213
 10
253.5320667859
 20
55.8881811032
 10
254.227138068
 20
56.0018786016
 10
254.8989755699
 20
56.0361133776
 10
255.5428820038
 20
55.9906460717
 10
256.1543553676
 20
55.8657945779
  0
LINE
  5
1E0
330
1F
100
AcDbEntity
  8
0
  6
Continuous
 62
     7
370
    15
100
AcDbLine
 10
256.5615059143
 20
54.5874812751
 30
0.0
 11
256.1543553676
 21
55.8657945779
 31
0.0
  0
LWPOLYLINE
  5
1E1
330
1F
100
AcDbEntity
  8
0
  6
Continuous
 62
     7
370
    15
100
AcDbPolyline
 90
       22
 70
   128
 43
0.0
 10
244.0052582346
 20
43.3474090948
 10
244.2825942371
 20
44.2435799871
 10
244.6146181072
 20
45.1404900063
 10
244.9987850526
 20
46.031264798
 10
245.4321506309
 20
46.9090770311
 10
245.9113933177
 20
47.7671987259
 10
246.432839964
 20
48.5990528205
 10
246.9924939492
 20
49.3982635806
 10
247.5860658131
 20
50.1587054665
 10
248.2090061323
 20
50.8745500818
 10
248.8565403894
 20
51.5403108454
 10
249.5237055668
 20
52.150885043
 10
250.2053881865
 20
52.7015929371
 10
250.8963635013
 20
53.1882136348
 10
251.5913355406
 20
53.6070174383
 10
252.2849777006
 20
53.9547944318
 10
252.9719735706
 20
54.2288790832
 10
253.6470576804
 20
54.4271706745
 10
254.3050558569
 20
54.5481494026
 10
254.9409248824
 20
54.5908880277
 10
255.5497911475
 20
54.5550589802
 10
255.8599643632
 20
54.5042785214
  0
SPLINE
  5
1E2
330
1F
100
AcDbEntity
  8
0
  6
Continuous
 62
     7
370
    15
100
AcDbSpline
210
0.0
220
0.0
230
1.0
 70
     8
 71
     3
 72
     9
 73
     5
 74
     0
 42
0.000000001
 43
0.00000001
 40
0.0
 40
0.0
 40
0.0
 40
0.0
 40
0.3200696448578911
 40
1.0
 40
1.0
 40
1.0
 40
1.0
 10
263.1135134330867
 20
43.49428432087661
 30
0.0
 10
263.2181027217767
 20
43.50211965045831
 30
0.0
 10
263.5448731305624
 20
43.52659972755271
 30
0.0
 10
263.8745241313937
 20
43.53088540923924
 30
0.0
 10
264.0986638534619
 20
43.53379937431038
 30
0.0
  0
LINE
  5
1E3
330
1F
100
AcDbEntity
  8
0
  6
Continuous
 62
     7
370
    15
100
AcDbLine
 10
241.2716421555
 20
44.3460470066
 30
0.0
 11
242.6635587608
 21
43.5425106541
 31
0.0
  0
LINE
  5
1E4
330
1F
100
AcDbEntity
  8
0
  6
Continuous
 62
     7
370
    15
100
AcDbLine
 10
256.1543553676
 20
55.8657945779
 30
0.0
 11
254.7624387623
 21
56.6693309305
 31
0.0
  0
LINE
  5
1E5
330
1F
100
AcDbEntity
  8
0
  6
Continuous
 62
     7
370
    15
100
AcDbLine
 10
245.2380997144
 20
42.8254084849
 30
0.0
 11
244.3733359591
 21
43.3246259747
 31
0.0
  0
LWPOLYLINE
  5
1E6
330
1F
100
AcDbEntity
  8
0
  6
Continuous
 62
     7
370
    15
100
AcDbPolyline
 90
       28
 70
   128
 43
0.0
 10
262.1312629979
 20
43.1815632098
 10
262.4843818475
 20
43.1087600709
 10
262.8142842575
 20
42.9561915401
 10
263.0996353416
 20
42.7282230326
 10
263.3348810655
 20
42.4292916959
 10
263.5154426387
 20
42.0652158885
 10
263.6378056356
 20
41.6430819319
 10
263.6995883997
 20
41.1711061834
 10
263.6995883997
 20
40.6584751141
 10
263.6378056356
 20
40.1151665046
 10
263.5154426387
 20
39.5517552389
 10
263.3348810655
 20
38.9792074766
 10
263.0996353416
 20
38.4086672085
 10
262.8142842575
 20
37.851239352
 10
262.4843818475
 20
37.3177736062
 10
262.1163492866
 20
36.8186532751
 10
261.7173499101
 20
36.3635931681
 10
261.295149787
 20
35.9614505127
 10
260.8579665624
 20
35.6200525582
 10
260.4143095105
 20
35.3460442275
 10
259.9728139111
 20
35.1447587809
 10
259.5420729739
 20
35.0201140108
 10
259.1304705814
 20
34.9745359859
 10
258.7460181058
 20
35.0089118306
 10
258.3961984773
 20
35.122572458
 10
258.0878205371
 20
35.3133055935
 10
257.8268865109
 20
35.5773988335
 10
257.6219979962
 20
35.9026419326
  0
SPLINE
  5
1E7
330
1F
100
AcDbEntity
  8
0
  6
Continuous
 62
     7
370
    15
100
AcDbSpline
210
0.0
220
0.0
230
1.0
 70
     8
 71
     3
 72
    12
 73
     8
 74
     0
 42
0.000000001
 43
0.00000001
 40
0.0
 40
0.0
 40
0.0
 40
0.0
 40
0.2499999999999988
 40
0.2499999999999988
 40
0.4999999999999976
 40
0.4999999999999976
 40
1.0
 40
1.0
 40
1.0
 40
1.0
 10
244.3733359590535
 20
43.32462597470335
 30
0.0
 10
244.3500025808172
 20
43.33809604724057
 30
0.0
 10
244.322221440457
 20
43.34926955009218
 30
0.0
 10
244.2613782117382
 20
43.36541814019431
 30
0.0
 10
244.229492878677
 20
43.37024852822018
 30
0.0
 10
244.12975880641
 20
43.37564791605205
 30
0.0
 10
244.0629276027487
 20
43.36653924841681
 30
0.0
 10
244.005258234563
 20
43.34740909480368
 30
0.0
  0
SPLINE
  5
1E8
330
1F
100
AcDbEntity
  8
0
  6
Continuous
 62
     7
370
    15
100
AcDbSpline
210
0.0
220
0.0
230
1.0
 70
     8
 71
     3
 72
    10
 73
     6
 74
     0
 42
0.000000001
 43
0.00000001
 40
0.0
 40
0.0
 40
0.0
 40
0.0
 40
0.5
 40
0.5
 40
1.0
 40
1.0
 40
1.0
 40
1.0
 10
241.1684188806789
 20
44.37362690837255
 30
0.0
 10
241.1774503638203
 20
44.37791174182182
 30
0.0
 10
241.1904245652753
 20
44.37843015502261
 30
0.0
 10
241.2252129306306
 20
44.36968095987307
 30
0.0
 10
241.2467547867203
 20
44.36041417878331
 30
0.0
 10
241.2716421554692
 20
44.34604700661841
 30
0.0
  0
LINE
  5
1E9
330
1F
100
AcDbEntity
  8
0
  6
Continuous
 62
     7
370
    15
100
AcDbLine
 10
241.1684188807
 20
44.3736269084
 30
0.0
 11
241.1882124445
 21
44.4695173533
 31
0.0
  0
LINE
  5
1EA
330
1F
100
AcDbEntity
  8
0
  6
Continuous
 62
     7
370
    15
100
AcDbLine
 10
246.8237395859
 20
40.9495917544
 30
0.0
 11
245.050009795
 21
41.9735441672
 31
0.0
  0
SPLINE
  5
1EB
330
1F
100
AcDbEntity
  8
0
  6
Continuous
 62
     7
370
    15
100
AcDbSpline
210
0.0
220
0.0
230
1.0
 70
     8
 71
     3
 72
     8
 73
     4
 74
     0
 42
0.000000001
 43
0.00000001
 40
0.0
 40
0.0
 40
0.0
 40
0.0
 40
0.0011140524372172
 40
0.0011140524372172
 40
0.0011140524372172
 40
0.0011140524372172
 10
245.0500097949622
 20
41.97354416722403
 30
0.0
 10
245.0464964970499
 20
42.03946975777596
 30
0.0
 10
245.0437188824428
 20
42.10483616618858
 30
0.0
 10
245.0416050527761
 20
42.16969375098473
 30
0.0
  0
LINE
  5
1EC
330
1F
100
AcDbEntity
  8
0
  6
Continuous
 62
     7
370
    15
100
AcDbLine
 10
243.57247395
 20
43.272856577
 30
0.0
 11
243.57247395
 21
41.0323008933
 31
0.0
  0
LINE
  5
1ED
330
1F
100
AcDbEntity
  8
0
  6
Continuous
 62
     7
370
    15
100
AcDbLine
 10
243.57247395
 20
41.0323008933
 30
0.0
 11
243.57247395
 21
39.1386679438
 31
0.0
  0
ARC
  5
1EE
330
1F
100
AcDbEntity
  8
0
  6
Continuous
 62
     7
370
    15
100
AcDbCircle
 10
258.4886481806
 20
34.0057970141
 30
0.0
 40
1.306493880558373
100
AcDbArc
 50
290.2517772116
 51
300.2335023561
  0
ARC
  5
1EF
330
1F
100
AcDbEntity
  8
0
  6
Continuous
 62
     7
370
    15
100
AcDbCircle
 10
263.9275244037
 20
43.1295296948
 30
0.0
 40
1.724349667514593
100
AcDbArc
 50
351.0177039065
 51
359.9902588545
  0
LINE
  5
1F0
330
1F
100
AcDbEntity
  8
0
  6
Continuous
 62
     7
370
    15
100
AcDbLine
 10
264.6054229011
 20
43.4522041205
 30
0.0
 11
265.6307277338
 21
42.8603082395
 31
0.0
  0
LINE
  5
1F1
330
1F
100
AcDbEntity
  8
0
  6
Continuous
 62
     7
370
    15
100
AcDbLine
 10
241.5734717356
 20
43.9805068695
 30
0.0
 11
241.1684188807
 21
44.3736269084
 31
0.0
  0
LINE
  5
1F2
330
1F
100
AcDbEntity
  8
0
  6
Continuous
 62
     7
370
    15
100
AcDbLine
 10
242.9759704664
 20
43.170861586
 30
0.0
 11
241.5734717356
 21
43.9805068695
 31
0.0
  0
LINE
  5
1F3
330
1F
100
AcDbEntity
  8
0
  6
Continuous
 62
     7
370
    15
100
AcDbLine
 10
246.8237395859
 20
34.3764382187
 30
0.0
 11
246.7922278755
 21
34.2842844084
 31
0.0
  0
LINE
  5
1F4
330
1F
100
AcDbEntity
  8
0
  6
Continuous
 62
     7
370
    15
100
AcDbLine
 10
246.8237395859
 20
34.3764382187
 30
0.0
 11
248.8190686266
 21
35.5283171555
 31
0.0
  0
LWPOLYLINE
  5
1F5
330
1F
100
AcDbEntity
  8
0
  6
Continuous
 62
     7
370
    15
100
AcDbPolyline
 90
       10
 70
   128
 43
0.0
 10
264.0986638535
 20
35.7358346208
 10
263.6370658703
 20
35.1604349097
 10
263.1444135691
 20
34.6395611486
 10
262.6291896104
 20
34.1821819252
 10
262.1002653014
 20
33.7961725556
 10
261.5667478469
 20
33.4881794849
 10
261.0378235379
 20
33.2635058461
 10
260.5225995792
 20
33.1260201489
 10
260.029947278
 20
33.0780896703
 10
259.5683492948
 20
33.1205396942
  0
LINE
  5
1F6
330
1F
100
AcDbEntity
  8
0
  6
Continuous
 62
     7
370
    15
100
AcDbLine
 10
264.5205123427
 20
35.97936257
 30
0.0
 11
264.0986638535
 21
35.7358346208
 31
0.0
  0
ARC
  5
1F7
330
1F
100
AcDbEntity
  8
0
  6
Continuous
 62
     7
370
    15
100
AcDbCircle
 10
263.6577558989
 20
37.4630896122
 30
0.0
 40
1.716331732797939
100
AcDbArc
 50
300.1771113865
 51
308.4969973883
  0
LINE
  5
1F8
330
1F
100
AcDbEntity
  8
0
  6
Continuous
 62
     7
370
    15
100
AcDbLine
 10
259.5683492948
 20
33.1205396942
 30
0.0
 11
259.1465008056
 21
32.8770117451
 31
0.0
  0
LINE
  5
1F9
330
1F
100
AcDbEntity
  8
0
  6
Continuous
 62
     7
370
    15
100
AcDbLine
 10
259.2651730638
 20
34.1293115436
 30
0.0
 11
259.6781054608
 21
33.8909307449
 31
0.0
  0
SPLINE
  5
1FA
330
1F
100
AcDbEntity
  8
0
  6
Continuous
 62
     7
370
    15
100
AcDbSpline
210
0.0
220
0.0
230
1.0
 70
     8
 71
     3
 72
     8
 73
     4
 74
     0
 42
0.000000001
 43
0.00000001
 40
0.0
 40
0.0
 40
0.0
 40
0.0
 40
1.0
 40
1.0
 40
1.0
 40
1.0
 10
259.6781054608248
 20
33.89093074486964
 30
0.0
 10
259.6056563369693
 20
33.63408653756859
 30
0.0
 10
259.5762822149153
 20
33.37729900945827
 30
0.0
 10
259.5683492948468
 20
33.12053969423074
 30
0.0
  0
ARC
  5
1FB
330
1F
100
AcDbEntity
  8
0
  6
Continuous
 62
     7
370
    15
100
AcDbCircle
 10
251.0995446187
 20
42.2469200346
 30
0.0
 40
7.624440471878259
100
AcDbArc
 50
172.3376412124
 51
189.1666164959
  0
ARC
  5
1FC
330
1F
100
AcDbEntity
  8
0
  6
Continuous
 62
     7
370
    15
100
AcDbCircle
 10
258.9706804125
 20
38.6800248247
 30
0.0
 40
4.841061072136296
100
AcDbArc
 50
278.4027299562
 51
321.5918935111
  0
SPLINE
  5
1FD
330
1F
100
AcDbEntity
  8
0
  6
Continuous
 62
     7
370
    15
100
AcDbSpline
210
0.0
220
0.0
230
1.0
 70
     8
 71
     3
 72
     8
 73
     4
 74
     0
 42
0.000000001
 43
0.00000001
 40
0.0
 40
0.0
 40
0.0
 40
0.0
 40
1.0
 40
1.0
 40
1.0
 40
1.0
 10
264.0986638534619
 20
35.73583462080147
 30
0.0
 10
263.6500340642048
 20
35.7312152842591
 30
0.0
 10
263.2043360836929
 20
35.71385194042288
 30
0.0
 10
262.7641628160922
 20
35.67247373485673
 30
0.0
  0
LINE
  5
1FE
330
1F
100
AcDbEntity
  8
0
  6
Continuous
 62
     7
370
    15
100
AcDbLine
 10
245.050009795
 20
35.4003906315
 30
0.0
 11
246.8237395859
 21
34.3764382187
 31
0.0
  0
SPLINE
  5
1FF
330
1F
100
AcDbEntity
  8
0
  6
Continuous
 62
     7
370
    15
100
AcDbSpline
210
0.0
220
0.0
230
1.0
 70
     8
 71
     3
 72
    14
 73
    10
 74
     0
 42
0.000000001
 43
0.00000001
 40
0.0
 40
0.0
 40
0.0
 40
0.0
 40
0.25
 40
0.25
 40
0.5
 40
0.5
 40
0.75
 40
0.75
 40
1.0
 40
1.0
 40
1.0
 40
1.0
 10
246.7922278754851
 20
34.28428440843952
 30
0.0
 10
246.7774882126138
 20
34.24117928724223
 30
0.0
 10
246.7590903580436
 20
34.20121659738255
 30
0.0
 10
246.7144328616744
 20
34.12804458888858
 30
0.0
 10
246.6879966676496
 20
34.09486920823328
 30
0.0
 10
246.6282617000677
 20
34.04223725625495
 30
0.0
 10
246.5946130668322
 20
34.02238790160413
 30
0.0
 10
246.5223379851131
 20
34.00601141321984
 30
0.0
 10
246.4848759760237
 20
34.01035560115749
 30
0.0
 10
246.4511993276606
 20
34.02979671644172
 30
0.0
  0
LINE
  5
200
330
1F
100
AcDbEntity
  8
0
  6
Continuous
 62
     7
370
    15
100
AcDbLine
 10
246.4511993277
 20
34.0297967164
 30
0.0
 11
245.0416050528
 21
34.8435381704
 31
0.0
  0
SPLINE
  5
201
330
1F
100
AcDbEntity
  8
0
  6
Continuous
 62
     7
370
    15
100
AcDbSpline
210
0.0
220
0.0
230
1.0
 70
     8
 71
     3
 72
     8
 73
     4
 74
     0
 42
0.000000001
 43
0.00000001
 40
0.0
 40
0.0
 40
0.0
 40
0.0
 40
0.0011140524372172
 40
0.0011140524372172
 40
0.0011140524372172
 40
0.0011140524372172
 10
245.0416050527761
 20
34.84353817035872
 30
0.0
 10
245.0437188824428
 20
35.02917514140512
 30
0.0
 10
245.0464964970499
 20
35.2147977993451
 30
0.0
 10
245.0500097949622
 20
35.40039063154374
 30
0.0
  0
LINE
  5
202
330
1F
100
AcDbEntity
  8
0
  6
Continuous
 62
     7
370
    15
100
AcDbLine
 10
242.5560079521
 20
42.975593221
 30
0.0
 11
242.5680216819
 21
43.4063654065
 31
0.0
  0
ARC
  5
203
330
1F
100
AcDbEntity
  8
0
  6
Continuous
 62
     7
370
    15
100
AcDbCircle
 10
247.0767984678
 20
42.7108509362
 30
0.0
 40
4.528535675525942
100
AcDbArc
 50
176.6485260986
 51
219.3007686373
  0
ARC
  5
204
330
1F
100
AcDbEntity
  8
0
  6
Continuous
 62
     7
370
    15
100
AcDbCircle
 10
250.5941507038
 20
35.3520248229
 30
0.0
 40
4.289233493073169
100
AcDbArc
 50
219.6343129376
 51
260.3979677243
  0
ARC
  5
205
330
1F
100
AcDbEntity
  8
0
  6
Continuous
 62
     7
370
    15
100
AcDbCircle
 10
264.3525362635
 20
37.9444958178
 30
0.0
 40
1.299382666707794
100
AcDbArc
 50
359.5237711274
 51
10.3618866345
  0
ARC
  5
206
330
1F
100
AcDbEntity
  8
0
  6
Continuous
 62
     7
370
    15
100
AcDbCircle
 10
260.5671719714
 20
40.5192586498
 30
0.0
 40
5.578540144217586
100
AcDbArc
 50
335.1873353003
 51
24.8126646997
  0
SPLINE
  5
207
330
1F
100
AcDbEntity
  8
0
  6
Continuous
 62
     7
370
    15
100
AcDbSpline
210
0.0
220
0.0
230
1.0
 70
     8
 71
     3
 72
     8
 73
     4
 74
     0
 42
0.000000001
 43
0.00000001
 40
0.0
 40
0.0
 40
0.0
 40
0.0
 40
1.0
 40
1.0
 40
1.0
 40
1.0
 10
245.3558321866294
 20
35.9945858123327
 30
0.0
 10
245.2531241535225
 20
35.79665313206899
 30
0.0
 10
245.1512394203989
 20
35.59857477436323
 30
0.0
 10
245.0500097949622
 20
35.40039063154374
 30
0.0
  0
SPLINE
  5
208
330
1F
100
AcDbEntity
  8
0
  6
Continuous
 62
     7
370
    15
100
AcDbSpline
210
0.0
220
0.0
230
1.0
 70
     8
 71
     3
 72
    12
 73
     8
 74
     0
 42
0.000000001
 43
0.00000001
 40
0.0
 40
0.0
 40
0.0
 40
0.0
 40
0.2500000000000013
 40
0.2500000000000013
 40
0.5000000000000026
 40
0.5000000000000026
 40
1.0
 40
1.0
 40
1.0
 40
1.0
 10
245.3163663888592
 20
36.20707255977344
 30
0.0
 10
245.3396997670955
 20
36.19360248723621
 30
0.0
 10
245.3590549389062
 20
36.17756477627856
 30
0.0
 10
245.3870281483892
 20
36.14244072797558
 30
0.0
 10
245.3953955324937
 20
36.12403371700356
 30
0.0
 10
245.4047485599683
 20
36.06645846260759
 30
0.0
 10
245.3889701752139
 20
36.02787762995006
 30
0.0
 10
245.3558321866294
 20
35.9945858123327
 30
0.0
  0
LINE
  5
209
330
1F
100
AcDbEntity
  8
0
  6
Continuous
 62
     7
370
    15
100
AcDbLine
 10
244.3733359591
 20
36.751472439
 30
0.0
 11
245.3163663889
 21
36.2070725598
 31
0.0
  0
SPLINE
  5
20A
330
1F
100
AcDbEntity
  8
0
  6
Continuous
 62
     7
370
    15
100
AcDbSpline
210
0.0
220
0.0
230
1.0
 70
     8
 71
     3
 72
    10
 73
     6
 74
     0
 42
0.000000001
 43
0.00000001
 40
0.0
 40
0.0
 40
0.0
 40
0.0
 40
0.5
 40
0.5
 40
1.0
 40
1.0
 40
1.0
 40
1.0
 10
244.005258234563
 20
36.77425555912339
 30
0.0
 10
244.0632415084704
 20
36.79348984192786
 30
0.0
 10
244.1301523254956
 20
36.8024383108721
 30
0.0
 10
244.2617960371546
 20
36.79538078991693
 30
0.0
 10
244.3261428683045
 20
36.77871643040778
 30
0.0
 10
244.3733359590535
 20
36.75147243902306
 30
0.0
  0
SPLINE
  5
20B
330
1F
100
AcDbEntity
  8
0
  6
Continuous
 62
     7
370
    15
100
AcDbSpline
210
0.0
220
0.0
230
1.0
 70
     8
 71
     3
 72
     8
 73
     4
 74
     0
 42
0.000000001
 43
0.00000001
 40
0.0
 40
0.0
 40
0.0
 40
0.0
 40
1.0
 40
1.0
 40
1.0
 40
1.0
 10
242.9759704663506
 20
36.59770805033337
 30
0.0
 10
243.3192780846632
 20
36.65614759116728
 30
0.0
 10
243.6624104180539
 20
36.71496672347379
 30
0.0
 10
244.005258234563
 20
36.7742555591234
 30
0.0
  0
LINE
  5
20C
330
1F
100
AcDbEntity
  8
0
  6
Continuous
 62
     7
370
    15
100
AcDbLine
 10
241.5734717356
 20
37.4073533338
 30
0.0
 11
242.9759704664
 21
36.5977080503
 31
0.0
  0
LINE
  5
20D
330
1F
100
AcDbEntity
  8
0
  6
Continuous
 62
     7
370
    15
100
AcDbLine
 10
241.5734717356
 20
37.4073533338
 30
0.0
 11
243.57247395
 21
38.5613527487
 31
0.0
  0
LINE
  5
20E
330
1F
100
AcDbEntity
  8
0
  6
Continuous
 62
     7
370
    15
100
AcDbLine
 10
264.6054229011
 20
38.7701049413
 30
0.0
 11
265.6307277338
 21
38.1782090602
 31
0.0
  0
ARC
  5
20F
330
1F
100
AcDbEntity
  8
0
  6
Continuous
 62
     7
370
    15
100
AcDbCircle
 10
249.4896699066
 20
36.5234120056
 30
0.0
 40
4.754708933913533
100
AcDbArc
 50
200.6897442399
 51
238.9729683908
  0
LINE
  5
210
330
1F
100
AcDbEntity
  8
0
  6
Continuous
 62
     7
370
    15
100
AcDbLine
 10
233.6018714832
 20
59.8132539222
 30
0.0
 11
233.6414745133
 21
59.7995797726
 31
0.0
  0
LINE
  5
211
330
1F
100
AcDbEntity
  8
0
  6
Continuous
 62
     7
370
    15
100
AcDbLine
 10
262.7641628161
 20
35.6724737349
 30
0.0
 11
262.3512304191
 21
35.9108545336
 31
0.0
  0
ELLIPSE
  5
212
330
1F
100
AcDbEntity
  8
0
  6
Continuous
 62
     7
370
    15
100
AcDbEllipse
 10
243.4260273406
 20
39.0541649827
 30
0.0
 11
-3.753731488131962E-5
 21
0.5334056009266988
 31
0.0
210
0.0
220
0.0
230
1.0
 40
0.7174342186
 41
3.534193645557512
 42
5.104989972352399
  0
ARC
  5
213
330
1F
100
AcDbEntity
  8
0
  6
Continuous
 62
     7
370
    15
100
AcDbCircle
 10
246.9109410507
 20
37.7479786901
 30
0.0
 40
4.51509991242944
100
AcDbArc
 50
199.8295135001
 51
257.8949195563
  0
SPLINE
  5
214
330
1F
100
AcDbEntity
  8
0
  6
Continuous
 62
     7
370
    15
100
AcDbSpline
210
0.0
220
0.0
230
1.0
 70
     8
 71
     3
 72
     8
 73
     4
 74
     0
 42
0.000000001
 43
0.00000001
 40
0.0
 40
0.0
 40
0.0
 40
0.0
 40
0.0011140524372172
 40
0.0011140524372172
 40
0.0011140524372172
 40
0.0011140524372172
 10
242.9759704663506
 20
36.59770805033337
 30
0.0
 10
242.8723243648128
 20
36.46992065524437
 30
0.0
 10
242.7681681122114
 20
36.3428226392865
 30
0.0
 10
242.6635587608241
 20
36.2163550734732
 30
0.0
  0
ARC
  5
215
330
1F
100
AcDbEntity
  8
0
  6
Continuous
 62
     7
370
    15
100
AcDbCircle
 10
248.2866915654
 20
38.4538894444
 30
0.0
 40
4.599113105215123
100
AcDbArc
 50
201.420397136
 51
225.0283369008
  0
LINE
  5
216
330
1F
100
AcDbEntity
  8
0
  6
Continuous
 62
     7
370
    15
100
AcDbLine
 10
241.1684188807
 20
37.1734703493
 30
0.0
 11
241.5734717356
 21
37.4073533338
 31
0.0
  0
LINE
  5
217
330
1F
100
AcDbEntity
  8
0
  6
Continuous
 62
     7
370
    15
100
AcDbLine
 10
242.6635587608
 20
36.2163550735
 30
0.0
 11
241.2716421555
 21
37.019891426
 31
0.0
  0
SPLINE
  5
218
330
1F
100
AcDbEntity
  8
0
  6
Continuous
 62
     7
370
    15
100
AcDbSpline
210
0.0
220
0.0
230
1.0
 70
     8
 71
     3
 72
     8
 73
     4
 74
     0
 42
0.000000001
 43
0.00000001
 40
0.0
 40
0.0
 40
0.0
 40
0.0
 40
1.0
 40
1.0
 40
1.0
 40
1.0
 10
241.2716421554692
 20
37.01989142599241
 30
0.0
 10
241.2219509142571
 20
37.04857756894243
 30
0.0
 10
241.1864735729494
 20
37.10729196332274
 30
0.0
 10
241.1684188806783
 20
37.17347034929279
 30
0.0
  0
ARC
  5
219
330
1F
100
AcDbEntity
  8
0
  6
Continuous
 62
     7
370
    15
100
AcDbCircle
 10
245.4352793907
 20
38.3559288335
 30
0.0
 40
4.313973770113529
100
AcDbArc
 50
219.6004829423
 51
239.8562859228
  0
SPLINE
  5
21A
330
1F
100
AcDbEntity
  8
0
  6
Continuous
 62
     7
370
    15
100
AcDbSpline
210
0.0
220
0.0
230
1.0
 70
     8
 71
     3
 72
    12
 73
     8
 74
     0
 42
0.000000001
 43
0.00000001
 40
0.0
 40
0.0
 40
0.0
 40
0.0
 40
0.3738169866901017
 40
0.4376299331424092
 40
0.6753607317573067
 40
0.9143549487324089
 40
1.0
 40
1.0
 40
1.0
 40
1.0
 10
256.2345765949327
 20
55.61392739305141
 30
0.0
 10
256.2810063405548
 20
55.62635782066302
 30
0.0
 10
256.335361940209
 20
55.64091020163634
 30
0.0
 10
256.4262420822333
 20
55.64560132706477
 30
0.0
 10
256.4998278646228
 20
55.6418612468586
 30
0.0
 10
256.5708869399169
 20
55.6230021557602
 30
0.0
 10
256.6031917291033
 20
55.60592507578966
 30
0.0
 10
256.6117142511662
 20
55.60141986790924
 30
0.0
  0
LINE
  5
21B
330
1F
100
AcDbEntity
  8
0
  6
Continuous
 62
     7
370
    15
100
AcDbLine
 10
256.6117142512
 20
55.6014198679
 30
0.0
 11
258.0036308565
 21
54.7978835154
 31
0.0
  0
SPLINE
  5
21C
330
1F
100
AcDbEntity
  8
0
  6
Continuous
 62
     7
370
    15
100
AcDbSpline
210
0.0
220
0.0
230
1.0
 70
     8
 71
     3
 72
     9
 73
     5
 74
     0
 42
0.000000001
 43
0.00000001
 40
0.0
 40
0.0
 40
0.0
 40
0.0
 40
0.2743209788080325
 40
1.0
 40
1.0
 40
1.0
 40
1.0
 10
258.0036308565211
 20
54.79788351539003
 30
0.0
 10
257.9912983767323
 20
54.77836630820947
 30
0.0
 10
257.9463419908142
 20
54.70721897100848
 30
0.0
 10
257.8991256656585
 20
54.63655911279762
 30
0.0
 10
257.8648617690351
 20
54.5852827360536
 30
0.0
  0
SPLINE
  5
21D
330
1F
100
AcDbEntity
  8
0
  6
Continuous
 62
     7
370
    15
100
AcDbSpline
210
0.0
220
0.0
230
1.0
 70
     8
 71
     3
 72
     9
 73
     5
 74
     0
 42
0.000000001
 43
0.00000001
 40
0.0
 40
0.0
 40
0.0
 40
0.0
 40
0.5887067638841071
 40
1.0
 40
1.0
 40
1.0
 40
1.0
 10
260.1358936603021
 20
53.37187408511412
 30
0.0
 10
260.183969148635
 20
53.38255333781703
 30
0.0
 10
260.2656320261187
 20
53.40069352807482
 30
0.0
 10
260.3478581144926
 20
53.41796356351254
 30
0.0
 10
260.381677148473
 20
53.42506661227556
 30
0.0
  0
LINE
  5
21E
330
1F
100
AcDbEntity
  8
0
  6
Continuous
 62
     7
370
    15
100
AcDbLine
 10
260.3816771485
 20
53.4250666123
 30
0.0
 11
261.7912714234
 21
52.6113251584
 31
0.0
  0
SPLINE
  5
21F
330
1F
100
AcDbEntity
  8
0
  6
Continuous
 62
     7
370
    15
100
AcDbSpline
210
0.0
220
0.0
230
1.0
 70
     8
 71
     3
 72
    12
 73
     8
 74
     0
 42
0.000000001
 43
0.00000001
 40
0.0
 40
0.0
 40
0.0
 40
0.0
 40
0.25
 40
0.25
 40
0.5
 40
0.5
 40
1.0
 40
1.0
 40
1.0
 40
1.0
 10
261.7912714233576
 20
52.61132515835856
 30
0.0
 10
261.8225754910033
 20
52.59325370476841
 30
0.0
 10
261.8450069282314
 20
52.56974367968377
 30
0.0
 10
261.8675410768402
 20
52.52046243622204
 30
0.0
 10
261.8685058095519
 20
52.49423705490211
 30
0.0
 10
261.846438553056
 20
52.41803867880283
 30
0.0
 10
261.8003135568526
 20
52.37162263736941
 30
0.0
 10
261.7377657094017
 20
52.33551453361866
 30
0.0
  0
SPLINE
  5
220
330
1F
100
AcDbEntity
  8
0
  6
Continuous
 62
     7
370
    15
100
AcDbSpline
210
0.0
220
0.0
230
1.0
 70
     8
 71
     3
 72
    13
 73
     9
 74
     0
 42
0.000000001
 43
0.00000001
 40
0.0
 40
0.0
 40
0.0
 40
0.0
 40
0.1781852705045038
 40
0.3614116563416148
 40
0.5396598827056804
 40
0.7236884618233723
 40
0.8914699225727354
 40
0.9999999999999999
 40
0.9999999999999999
 40
0.9999999999999999
 40
0.9999999999999999
 10
263.0042482860298
 20
50.40033714373399
 30
0.0
 10
263.0134969031186
 20
50.41787711503602
 30
0.0
 10
263.0322557938589
 20
50.45345328843412
 30
0.0
 10
263.0505866545791
 20
50.510273266333
 30
0.0
 10
263.0610624000979
 20
50.56854325156558
 30
0.0
 10
263.0615957446862
 20
50.62436170575302
 30
0.0
 10
263.0552230652629
 20
50.67133232289365
 30
0.0
 10
263.0451737915539
 20
50.69625886487622
 30
0.0
 10
263.0412266221344
 20
50.70604955095909
 30
0.0
  0
ELLIPSE
  5
221
330
1F
100
AcDbEntity
  8
0
  6
Continuous
 62
     7
370
    15
100
AcDbEllipse
 10
243.2189205594
 20
38.9345659159
 30
0.0
 11
0.1625047368255821
 21
0.6065897631193238
 31
0.0
210
0.0
220
0.0
230
1.0
 40
0.5176380889
 41
3.619174351347739
 42
5.189970678142574
  0
LWPOLYLINE
  5
222
330
1F
100
AcDbEntity
  8
0
  6
Continuous
 62
     7
370
    15
100
AcDbPolyline
 90
        3
 70
   128
 43
0.0
 10
258.0036308565
 20
54.7978835154
 10
258.1812935633
 20
54.6127276149
 10
258.2221204887
 20
54.567087186
  0
ARC
  5
223
330
1F
100
AcDbEntity
  8
0
  6
Continuous
 62
     7
370
     0
100
AcDbCircle
 10
254.2664928036
 20
38.0344967565
 30
0.0
 40
3.980533327433076
100
AcDbArc
 50
174.0136776181
 51
234.6741419885
  0
LWPOLYLINE
  5
224
330
1F
100
AcDbEntity
  8
0
  6
Continuous
 62
     7
370
     0
100
AcDbPolyline
 90
       24
 70
   128
 43
0.0
 10
259.9641952209
 20
48.6436540974
 10
259.7496946044
 20
48.7548624511
 10
259.2895357925
 20
48.9195169376
 10
258.7929474151
 20
49.0052401125
 10
258.2653701981
 20
49.0110927749
 10
257.7125843881
 20
48.9370108016
 10
257.140646422
 20
48.7838058504
 10
256.5558225719
 20
48.5531564667
 10
255.9645202903
 20
48.2475896934
 10
255.3732180087
 20
47.8704533841
 10
254.7883941586
 20
47.425879523
 10
254.2164561925
 20
46.9187389545
 10
253.6636703825
 20
46.3545880166
 10
253.1360931656
 20
45.7396076652
 10
252.6395047881
 20
45.0805357537
 10
252.1793459763
 20
44.3845932119
 10
251.7606583263
 20
43.6594049318
 10
251.3880290678
 20
42.9129162281
 10
251.0655408047
 20
42.1533057871
 10
250.7967267861
 20
41.3888960599
 10
250.5845321946
 20
40.6280620793
 10
250.4312818785
 20
39.8791397017
 10
250.3386548803
 20
39.1503342774
 10
250.3076660408
 20
38.449630751
  0
LWPOLYLINE
  5
225
330
1F
100
AcDbEntity
  8
0
  6
Continuous
 62
     7
370
     0
100
AcDbPolyline
 90
       23
 70
   128
 43
0.0
 10
246.4511993277
 20
41.3559522971
 10
246.7450185518
 20
42.3077510736
 10
247.0943988033
 20
43.2605446255
 10
247.4968973193
 20
44.2076713039
 10
247.9496999502
 20
45.1425090811
 10
248.4496408347
 20
46.0585218495
 10
248.993224535
 20
46.9493051207
 10
249.5766504756
 20
47.8086308032
 10
250.1958395161
 20
48.6304907476
 10
250.8464624711
 20
49.4091387539
 10
251.5239703785
 20
50.139130747
 10
252.2236263047
 20
50.8153628401
 10
252.9405384638
 20
51.43310702
 10
253.6696944194
 20
51.988044203
 10
254.4059961302
 20
52.4762944337
 10
255.1442955937
 20
52.8944440118
 10
255.8794308399
 20
53.2395693599
 10
256.606262022
 20
53.5092574643
 10
257.3197073528
 20
53.7016227461
 10
258.0147786348
 20
53.8153202446
 10
258.6866161367
 20
53.8495550205
 10
259.3305225706
 20
53.8040877147
 10
259.9419959345
 20
53.6792362209
  0
LWPOLYLINE
  5
226
330
1F
100
AcDbEntity
  8
0
  6
Continuous
 62
     7
370
     0
100
AcDbPolyline
 90
       23
 70
   128
 43
0.0
 10
246.7922278755
 20
41.0053629182
 10
247.0704436451
 20
41.9537772841
 10
247.4059147
 20
42.904923736
 10
247.796189046
 20
43.851850242
 10
248.2384141259
 20
44.7876356142
 10
248.7293576688
 20
45.7054400964
 10
249.2654313156
 20
46.5985553568
 10
249.8427168462
 20
47.4604535197
 10
250.4569948184
 20
48.2848348786
 10
251.1037754083
 20
49.0656739412
 10
251.7783312269
 20
49.7972634706
 10
252.4757318731
 20
50.4742562002
 10
253.1908799702
 20
51.0917039172
 10
253.9185484239
 20
51.6450936296
 10
254.6534186269
 20
52.1303805523
 10
255.3901193338
 20
52.5440176711
 10
256.1232659196
 20
52.8829816675
 10
256.8474997371
 20
53.1447950172
 10
257.5575272831
 20
53.3275440983
 10
258.2481588898
 20
53.429893178
 10
258.9143466564
 20
53.4510941758
 10
259.5512213446
 20
53.3909921313
 10
260.1541279688
 20
53.250026337
  0
LWPOLYLINE
  5
227
330
1F
100
AcDbEntity
  8
0
  6
Continuous
 62
     7
370
     0
100
AcDbPolyline
 90
       27
 70
   128
 43
0.0
 10
248.8190686266
 20
42.1014706912
 10
249.1281688559
 20
42.9544219695
 10
249.4931675785
 20
43.8013064206
 10
249.9105322511
 20
44.6339276985
 10
250.3762235208
 20
45.4442274992
 10
250.8857343182
 20
46.2243635515
 10
251.4341334785
 20
46.9667855158
 10
252.0161134662
 20
47.6643080585
 10
252.6260417426
 20
48.310180393
 10
253.2580152789
 20
48.8981516155
 10
253.9059176871
 20
49.4225312027
 10
254.563478416
 20
49.8782440862
 10
255.2243334388
 20
50.2608797698
 10
255.8820868457
 20
50.5667350159
 10
256.5303727451
 20
50.7928496856
 10
257.1629168743
 20
50.9370353882
 10
257.7735973229
 20
50.9978966607
 10
258.3565037825
 20
50.9748444735
 10
258.9059947477
 20
50.8681019309
 10
259.4167521164
 20
50.6787021124
 10
259.883832659
 20
50.4084780738
 10
260.3027158605
 20
50.0600451066
 10
260.6693476713
 20
49.6367754267
 10
260.9801797427
 20
49.1427655373
 10
261.2322037692
 20
48.5827965817
 10
261.4229806032
 20
47.9622880708
 10
261.4654809093
 20
47.7769803171
  0
ARC
  5
228
330
1F
100
AcDbEntity
  8
0
  6
Continuous
 62
     7
370
     0
100
AcDbCircle
 10
258.2212598169
 20
48.6521115007
 30
0.0
 40
5.092472051468111
100
AcDbArc
 50
20.0778162143
 51
46.3279042356
  0
ARC
  5
229
330
1F
100
AcDbEntity
  8
0
  6
Continuous
 62
     7
370
     0
100
AcDbCircle
 10
252.0372171151
 20
37.309479001
 30
0.0
 40
3.678181237254649
100
AcDbArc
 50
208.9633920902
 51
292.8601916994
  0
LWPOLYLINE
  5
22A
330
1F
100
AcDbEntity
  8
0
  6
Continuous
 62
     7
370
     0
100
AcDbPolyline
 90
       23
 70
   128
 43
0.0
 10
241.2716421555
 20
44.3460470066
 10
241.5654613796
 20
45.2978457831
 10
241.9148416311
 20
46.250639335
 10
242.3173401472
 20
47.1977660135
 10
242.770142778
 20
48.1326037906
 10
243.2700836625
 20
49.0486165591
 10
243.8136673628
 20
49.9393998303
 10
244.3970933034
 20
50.7987255128
 10
245.0162823439
 20
51.6205854572
 10
245.6669052989
 20
52.3992334634
 10
246.3444132063
 20
53.1292254565
 10
247.0440691325
 20
53.8054575497
 10
247.7609812916
 20
54.4232017295
 10
248.4901372473
 20
54.9781389126
 10
249.226438958
 20
55.4663891432
 10
249.9647384215
 20
55.8845387213
 10
250.6998736677
 20
56.2296640694
 10
251.4267048498
 20
56.4993521739
 10
252.1401501806
 20
56.6917174557
 10
252.8352214626
 20
56.8054149541
 10
253.5070589645
 20
56.8396497301
 10
254.1509653985
 20
56.7941824242
 10
254.7624387623
 20
56.6693309305
  0
LWPOLYLINE
  5
22B
330
1F
100
AcDbEntity
  8
0
  6
Continuous
 62
     7
370
     0
100
AcDbPolyline
 90
       19
 70
   128
 43
0.0
 10
244.3733359591
 20
43.3246259747
 10
244.6662215271
 20
44.2505065887
 10
245.018213693
 20
45.1761481866
 10
245.4263212361
 20
46.0936846886
 10
245.8870760683
 20
46.995318892
 10
246.3965627064
 20
47.8733887311
 10
246.9504515453
 20
48.7204323901
 10
247.5440356511
 20
49.5292517125
 10
248.1722707607
 20
50.2929733714
 10
248.8298181473
 20
51.0051072788
 10
249.5110899894
 20
51.6596017381
 10
250.2102968554
 20
52.2508948714
 10
250.9214969024
 20
52.7739618841
 10
251.6386463697
 20
53.2243577653
 10
252.3556509388
 20
53.598255062
 10
253.0664175222
 20
53.8924764041
 10
253.7649060429
 20
54.1045215056
 10
254.4451807624
 20
54.2325884125
 10
255.052580584
 20
54.2753205567
  0
LINE
  5
22C
330
1F
100
AcDbEntity
  8
0
  6
Continuous
 62
     7
370
     0
100
AcDbLine
 10
243.57247395
 20
39.1386679438
 30
0.0
 11
243.7795807312
 21
39.2582670107
 31
0.0
  0
LINE
  5
22D
330
1F
100
AcDbEntity
  8
0
  6
Continuous
 62
     7
370
     0
100
AcDbLine
 10
249.1762951909
 20
41.8994227912
 30
0.0
 11
248.8266633026
 21
42.1012609841
 31
0.0
  0
ARC
  5
22E
330
1F
100
AcDbEntity
  8
0
  6
Continuous
 62
     7
370
     0
100
AcDbCircle
 10
247.4587320466
 20
38.9256167684
 30
0.0
 40
3.434173177926923
100
AcDbArc
 50
57.8311432241
 51
59.9908187187
  0
ARC
  5
22F
330
1F
100
AcDbEntity
  8
0
  6
Continuous
 62
     7
370
     0
100
AcDbCircle
 10
250.7830572118
 20
38.9246821346
 30
0.0
 40
3.212552939654544
100
AcDbArc
 50
239.9900000341
 51
242.2478985999
  0
LINE
  5
230
330
1F
100
AcDbEntity
  8
0
  6
Continuous
 62
     7
370
     0
100
AcDbLine
 10
243.7795807312
 20
39.2582670107
 30
0.0
 11
249.1762951909
 21
36.1428100674
 31
0.0
  0
ARC
  5
231
330
1F
100
AcDbEntity
  8
0
  6
Continuous
 62
     7
370
     0
100
AcDbCircle
 10
248.925952029
 20
41.9240553216
 30
0.0
 40
0.2515521025368007
100
AcDbArc
 50
354.3804670974
 51
54.2922518671
  0
LINE
  5
232
330
1F
100
AcDbEntity
  8
0
  6
Continuous
 62
     7
370
     0
100
AcDbLine
 10
258.1211959729
 20
33.4689076261
 30
0.0
 11
259.1465008056
 21
32.8770117451
 31
0.0
  0
LWPOLYLINE
  5
233
330
1F
100
AcDbEntity
  8
0
  6
Continuous
 62
     7
370
     0
100
AcDbPolyline
 90
       17
 70
   128
 43
0.0
 10
255.5017088581
 20
32.7450844624
 10
255.2510626718
 20
32.5844937946
 10
254.5235672452
 20
32.1661339178
 10
253.798781892
 20
31.8201872736
 10
253.0818716356
 20
31.5491191748
 10
252.3779453791
 20
31.3548613285
 10
251.6920194981
 20
31.2387980704
 10
251.0289820924
 20
31.2017564998
 10
250.3935581521
 20
31.2440005854
 10
249.7902758861
 20
31.3652292839
 10
249.2234344527
 20
31.5645786857
 10
248.6970733226
 20
31.8406281712
 10
248.2149434925
 20
32.1914105344
 10
247.7804807547
 20
32.6144260021
 10
247.396781212
 20
33.1066600477
 10
247.066579215
 20
33.6646048734
 10
246.7922278755
 20
34.2842844084
  0
ARC
  5
234
330
1F
100
AcDbEntity
  8
0
  6
Continuous
 62
     7
370
     0
100
AcDbCircle
 10
251.5410811973
 20
42.4399357676
 30
0.0
 40
8.065681793893502
100
AcDbArc
 50
174.1990918408
 51
180.8223854522
  0
ARC
  5
235
330
1F
100
AcDbEntity
  8
0
  6
Continuous
 62
     7
370
     0
100
AcDbCircle
 10
251.4315202805
 20
36.0314123774
 30
0.0
 40
5.367500540098151
100
AcDbArc
 50
201.8954388387
 51
219.5176601571
  0
LINE
  5
236
330
1F
100
AcDbEntity
  8
0
  6
Continuous
 62
     7
370
     0
100
AcDbLine
 10
248.8227418003
 20
35.5304376335
 30
0.0
 11
243.57247395
 21
38.5613527487
 31
0.0
  0
LINE
  5
237
330
1F
100
AcDbEntity
  8
0
  6
Continuous
 62
     7
370
     0
100
AcDbLine
 10
248.8190686266
 20
35.5283171555
 30
0.0
 11
248.8227418003
 21
35.5304376335
 31
0.0
  0
LWPOLYLINE
  5
238
330
1F
100
AcDbEntity
  8
0
  6
Continuous
 62
     7
370
     0
100
AcDbPolyline
 90
       18
 70
   128
 43
0.0
 10
228.4244304445
 20
53.9192330408
 10
228.4555721547
 20
54.4514812809
 10
228.5483911472
 20
55.0093253676
 10
228.7010808061
 20
55.5819075004
 10
228.9106692007
 20
56.1580830194
 10
229.1730769313
 20
56.7266373234
 10
229.48319653
 20
57.2765041497
 10
229.8349918715
 20
57.7969809659
 10
230.2216156597
 20
58.2779372828
 10
230.6355427023
 20
58.7100118329
 10
231.0687163803
 20
59.0847947764
 10
231.5127054607
 20
59.3949913898
 10
231.9588682011
 20
59.6345640487
 10
232.3985205513
 20
59.7988497438
 10
232.8231051784
 20
59.884650841
 10
233.2243580256
 20
59.8902973196
 10
233.5944691626
 20
59.8156792772
 10
233.6018714832
 20
59.8132539222
  0
ARC
  5
239
330
1F
100
AcDbEntity
  8
0
  6
Continuous
 62
     7
370
     0
100
AcDbCircle
 10
230.8926726049
 20
53.7496415855
 30
0.0
 40
2.474061564347949
100
AcDbArc
 50
176.0694185984
 51
224.9117477784
  0
LINE
  5
23A
330
1F
100
AcDbEntity
  8
0
  6
Continuous
 62
     7
370
     0
100
AcDbLine
 10
248.8227470183
 20
35.5304346212
 30
0.0
 11
248.8227418003
 21
35.5304376335
 31
0.0
  0
ARC
  5
23B
330
1F
100
AcDbEntity
  8
0
  6
Continuous
 62
     7
370
     0
100
AcDbCircle
 10
248.4086871402
 20
36.1777404936
 30
0.0
 40
0.7684024037860863
100
AcDbArc
 50
302.60547834
 51
357.3945215143
  0
LINE
  5
23C
330
1F
100
AcDbEntity
  8
0
  6
Continuous
 62
     7
370
     0
100
AcDbLine
 10
245.3880698932
 20
36.0449402983
 30
0.0
 11
245.3163663889
 21
36.2070725598
 31
0.0
  0
LINE
  5
23D
330
1F
100
AcDbEntity
  8
0
  6
Continuous
 62
     7
370
     0
100
AcDbLine
 10
263.4952075099
 20
36.5712584511
 30
0.0
 11
264.5205123427
 21
35.97936257
 31
0.0
  0
ARC
  5
23E
330
1F
100
AcDbEntity
  8
0
  6
Continuous
 62
     7
370
     0
100
AcDbCircle
 10
248.6740187061
 20
38.5181506553
 30
0.0
 40
4.649411146616788
100
AcDbArc
 50
202.3323767889
 51
220.6392878947
  0
ARC
  5
23F
330
1F
100
AcDbEntity
  8
0
  6
Continuous
 62
     7
370
     0
100
AcDbCircle
 10
246.2519592714
 20
39.021505115
 30
0.0
 40
5.367496244542401
100
AcDbArc
 50
201.8954345813
 51
219.5178094597
  0
OLE2FRAME
  5
240
330
1F
100
AcDbEntity
  8
0
100
AcDbOle2Frame
 70
     2
  3
Paintbrush-Bild
 10
13.8511154363
 20
38.264191557
 30
0.0
 11
51.6290888628
 21
31.9806341108
 31
0.0
 71
     2
 72
     0
 73
     1
 90
    12928
310
80552BED0767C5B32B40DDAF6807D121434000000000000000006FFBDDFB85D0
310
4940DDAF6807D121434000000000000000006FFBDDFB85D04940416F4BD60AFB
310
3F4000000000000000002BED0767C5B32B40416F4BD60AFB3F40000000000000
310
0000000000000100000000010000010000000100000000000100000000320000
310
D0CF11E0A1B11AE1000000000000000000000000000000003E000300FEFF0900
310
0600000000000000000000000100000001000000000000000010000002000000
310
01000000FEFFFFFF0000000000000000FFFFFFFFFFFFFFFFFFFFFFFFFFFFFFFF
310
FFFFFFFFFFFFFFFFFFFFFFFFFFFFFFFFFFFFFFFFFFFFFFFFFFFFFFFFFFFFFFFF
310
FFFFFFFFFFFFFFFFFFFFFFFFFFFFFFFFFFFFFFFFFFFFFFFFFFFFFFFFFFFFFFFF
310
FFFFFFFFFFFFFFFFFFFFFFFFFFFFFFFFFFFFFFFFFFFFFFFFFFFFFFFFFFFFFFFF
310
FFFFFFFFFFFFFFFFFFFFFFFFFFFFFFFFFFFFFFFFFFFFFFFFFFFFFFFFFFFFFFFF
310
FFFFFFFFFFFFFFFFFFFFFFFFFFFFFFFFFFFFFFFFFFFFFFFFFFFFFFFFFFFFFFFF
310
FFFFFFFFFFFFFFFFFFFFFFFFFFFFFFFFFFFFFFFFFFFFFFFFFFFFFFFFFFFFFFFF
310
FFFFFFFFFFFFFFFFFFFFFFFFFFFFFFFFFFFFFFFFFFFFFFFFFFFFFFFFFFFFFFFF
310
FFFFFFFFFFFFFFFFFFFFFFFFFFFFFFFFFFFFFFFFFFFFFFFFFFFFFFFFFFFFFFFF
310
FFFFFFFFFFFFFFFFFFFFFFFFFFFFFFFFFFFFFFFFFFFFFFFFFFFFFFFFFFFFFFFF
310
FFFFFFFFFFFFFFFFFFFFFFFFFFFFFFFFFFFFFFFFFFFFFFFFFFFFFFFFFFFFFFFF
310
FFFFFFFFFFFFFFFFFFFFFFFFFFFFFFFFFFFFFFFFFFFFFFFFFFFFFFFFFFFFFFFF
310
FFFFFFFFFFFFFFFFFFFFFFFFFFFFFFFFFFFFFFFFFFFFFFFFFFFFFFFFFFFFFFFF
310
FFFFFFFFFFFFFFFFFFFFFFFFFFFFFFFFFFFFFFFFFFFFFFFFFFFFFFFFFFFFFFFF
310
FDFFFFFFFEFFFFFFFEFFFFFFFEFFFFFF05000000060000000700000008000000
310
090000000A0000000B0000000C0000000D0000000E0000000F00000010000000
310
11000000120000001300000014000000150000001600000017000000FEFFFFFF
310
FFFFFFFFFFFFFFFFFFFFFFFFFFFFFFFFFFFFFFFFFFFFFFFFFFFFFFFFFFFFFFFF
310
FFFFFFFFFFFFFFFFFFFFFFFFFFFFFFFFFFFFFFFFFFFFFFFFFFFFFFFFFFFFFFFF
310
FFFFFFFFFFFFFFFFFFFFFFFFFFFFFFFFFFFFFFFFFFFFFFFFFFFFFFFFFFFFFFFF
310
FFFFFFFFFFFFFFFFFFFFFFFFFFFFFFFFFFFFFFFFFFFFFFFFFFFFFFFFFFFFFFFF
310
FFFFFFFFFFFFFFFFFFFFFFFFFFFFFFFFFFFFFFFFFFFFFFFFFFFFFFFFFFFFFFFF
310
FFFFFFFFFFFFFFFFFFFFFFFFFFFFFFFFFFFFFFFFFFFFFFFFFFFFFFFFFFFFFFFF
310
FFFFFFFFFFFFFFFFFFFFFFFFFFFFFFFFFFFFFFFFFFFFFFFFFFFFFFFFFFFFFFFF
310
FFFFFFFFFFFFFFFFFFFFFFFFFFFFFFFFFFFFFFFFFFFFFFFFFFFFFFFFFFFFFFFF
310
FFFFFFFFFFFFFFFFFFFFFFFFFFFFFFFFFFFFFFFFFFFFFFFFFFFFFFFFFFFFFFFF
310
FFFFFFFFFFFFFFFFFFFFFFFFFFFFFFFFFFFFFFFFFFFFFFFFFFFFFFFFFFFFFFFF
310
FFFFFFFFFFFFFFFFFFFFFFFFFFFFFFFFFFFFFFFFFFFFFFFFFFFFFFFFFFFFFFFF
310
FFFFFFFFFFFFFFFFFFFFFFFFFFFFFFFFFFFFFFFFFFFFFFFFFFFFFFFFFFFFFFFF
310
FFFFFFFFFFFFFFFFFFFFFFFFFFFFFFFFFFFFFFFFFFFFFFFFFFFFFFFFFFFFFFFF
310
52006F006F007400200045006E00740072007900000000000000000000000000
310
0000000000000000000000000000000000000000000000000000000000000000
310
16000500FFFFFFFFFFFFFFFF020000000A00030000000000C000000000000046
310
00000000000000000000000050993FEA78FFD10103000000C000000000000000
310
01004F006C006500000000000000000000000000000000000000000000000000
310
0000000000000000000000000000000000000000000000000000000000000000
310
0A000200FFFFFFFFFFFFFFFFFFFFFFFF00000000000000000000000000000000
310
0000000000000000000000000000000000000000000000001400000000000000
310
010043006F006D0070004F0062006A0000000000000000000000000000000000
310
0000000000000000000000000000000000000000000000000000000000000000
310
120002010100000003000000FFFFFFFF00000000000000000000000000000000
310
0000000000000000000000000000000000000000010000004D00000000000000
310
01004F006C006500310030004E00610074006900760065000000000000000000
310
0000000000000000000000000000000000000000000000000000000000000000
310
1A000200FFFFFFFFFFFFFFFFFFFFFFFF00000000000000000000000000000000
310
0000000000000000000000000000000000000000040000002426000000000000
310
FEFFFFFF02000000FEFFFFFFFFFFFFFFFFFFFFFFFFFFFFFFFFFFFFFFFFFFFFFF
310
FFFFFFFFFFFFFFFFFFFFFFFFFFFFFFFFFFFFFFFFFFFFFFFFFFFFFFFFFFFFFFFF
310
FFFFFFFFFFFFFFFFFFFFFFFFFFFFFFFFFFFFFFFFFFFFFFFFFFFFFFFFFFFFFFFF
310
FFFFFFFFFFFFFFFFFFFFFFFFFFFFFFFFFFFFFFFFFFFFFFFFFFFFFFFFFFFFFFFF
310
FFFFFFFFFFFFFFFFFFFFFFFFFFFFFFFFFFFFFFFFFFFFFFFFFFFFFFFFFFFFFFFF
310
FFFFFFFFFFFFFFFFFFFFFFFFFFFFFFFFFFFFFFFFFFFFFFFFFFFFFFFFFFFFFFFF
310
FFFFFFFFFFFFFFFFFFFFFFFFFFFFFFFFFFFFFFFFFFFFFFFFFFFFFFFFFFFFFFFF
310
FFFFFFFFFFFFFFFFFFFFFFFFFFFFFFFFFFFFFFFFFFFFFFFFFFFFFFFFFFFFFFFF
310
FFFFFFFFFFFFFFFFFFFFFFFFFFFFFFFFFFFFFFFFFFFFFFFFFFFFFFFFFFFFFFFF
310
FFFFFFFFFFFFFFFFFFFFFFFFFFFFFFFFFFFFFFFFFFFFFFFFFFFFFFFFFFFFFFFF
310
FFFFFFFFFFFFFFFFFFFFFFFFFFFFFFFFFFFFFFFFFFFFFFFFFFFFFFFFFFFFFFFF
310
FFFFFFFFFFFFFFFFFFFFFFFFFFFFFFFFFFFFFFFFFFFFFFFFFFFFFFFFFFFFFFFF
310
FFFFFFFFFFFFFFFFFFFFFFFFFFFFFFFFFFFFFFFFFFFFFFFFFFFFFFFFFFFFFFFF
310
FFFFFFFFFFFFFFFFFFFFFFFFFFFFFFFFFFFFFFFFFFFFFFFFFFFFFFFFFFFFFFFF
310
FFFFFFFFFFFFFFFFFFFFFFFFFFFFFFFFFFFFFFFFFFFFFFFFFFFFFFFFFFFFFFFF
310
FFFFFFFFFFFFFFFFFFFFFFFFFFFFFFFFFFFFFFFFFFFFFFFFFFFFFFFFFFFFFFFF
310
0100000200000000000000000000000000000000000000000000000000000000
310
0000000000000000000000000000000000000000000000000000000000000000
310
0100FEFF030A0000FFFFFFFF0A00030000000000C00000000000004607000000
310
5042727573680007000000504272757368000700000050427275736800F439B2
310
7100000000000000000000000000000000000000000000000000000000000000
310
0000000000000000000000000000000000000000000000000000000000000000
310
0000000000000000000000000000000000000000000000000000000000000000
310
0000000000000000000000000000000000000000000000000000000000000000
310
0000000000000000000000000000000000000000000000000000000000000000
310
0000000000000000000000000000000000000000000000000000000000000000
310
0000000000000000000000000000000000000000000000000000000000000000
310
0000000000000000000000000000000000000000000000000000000000000000
310
0000000000000000000000000000000000000000000000000000000000000000
310
0000000000000000000000000000000000000000000000000000000000000000
310
0000000000000000000000000000000000000000000000000000000000000000
310
0000000000000000000000000000000000000000000000000000000000000000
310
20260000424D0E260000000000003E00000028000000B40200006E0000000100
310
01000000000000000000130B0000130B00000200000002000000000000FFFFFF
310
FFFFFFFFFFFFFFFFFFFFFFFFFFFFFFFFFFFFFFFFFFFFFFFFFFFFFFFFFFFFFFFF
310
FFFFFFFFFFFFFFFFFFFFFFFFFFFFFFFFFFFFFFFFFFFFFFFFFFFFFFFFFFFFFFFF
310
FFFFFFFFFFFFFFFFFFFFFFFFFFFFFFFFFFFFFFFFFFFFFFFFF000FFFFFFFFFFFF
310
FFFFFFFFFFFFFFFFFFFFFFFFFFFFFFFFFFFFFFFFFFFFFFFFFFFFFFFFFFFFFFFF
310
FFFFFFFFFFFFFFFFFFFFFFFFFFFFFFFFFFFFFFFFFFFFFFFFFFFFFFFFFFFFFFFF
310
FFFFFFFFFFFFFFFFFFFFFFFFFFFFFFFFF000FFFFFFFFFFFFFFFFFFFFFFFFFFFF
310
FFFFFFFFFFFFFFFFFFFFFFFFFFFFFFFFFFFFFFFFFFFFFFFFFFFFFFFFFFFFFFFF
310
FFFFFFFFFFFFFFFFFFFFFFFFFFFFFFFFFFFFFFFFFFFFFFFFFFFFFFFFFFFFFFFF
310
FFFFFFFFFFFFFFFFF000FFFFFFFFFFFFFFFFFFFFFFFFFFFFFFFFFFFFFFFFFFFF
310
FFFFFFFFFFFFFFFFFFFFFFFFFFFFFFFFFFFFFFFFFFFFFFFFFFFFFFFFFFFFFFFF
310
FFFFFFFFFFFFFFFFFFFFFFFFFFFFFFFFFFFFFFFFFFFFFFFFFFFFFFFFFFFFFFFF
310
F000FFFFFFFFFFFFFFFFFFFFFFFFFFFFFFFFFFFFFFFFFFFFFFFFFFFFFFFFFFFF
310
FFFFFFFFFFFFFFFFFFFFFFFFFFFFFFFFFFFFFFFFFFFFFFFFFFFFFFFFFFFFFFFF
310
FFFFFFFFFFFFFFFFFFFFFFFFFFFFFFFFFFFFFFFFFFFFFFFFF000FFFFFFFFFFFF
310
FFFFFFFFFFFFFFFFFFFFFFFFFFFFFFFFFFFFFFFFFFFFFFFFFFFFFFFFFFFFFFFF
310
FFFFFFFFFFFFFFFFFFFFFFFFFFFFFFFFFFFFFFFFFFFFFFFFFFFFFFFFFFFFFFFF
310
FFFFFFFFFFFFFFFFFFFFFFFFFFFFFFFFF000FFFFFFFFFFFFFFFFFFFFFFFFFFFF
310
FFFFFFFFFFFFFFFFFFFFFFFFFFFFFFFFFFFFFFFFFFFFFFFFFFFFFFFFFFFFFFFF
310
FFFFFFFFFFFFFFFFFFFFFFFFFFFFFFFFFFFFFFFFFFFFFFFFFFFFFFFFFFFFFFFF
310
FFFFFFFFFFFFFFFFF000FFFFFFFFFFFFFFFFFFFFFFFFFFFFFFFFFFFFFFFFFFFF
310
FFFFFFFFFFFFFFFFFFFFFFFFFFFFFFFFFFFFFFFFFFFFFFFFFFFFFFFFFFFFFFFF
310
FFFFFFFFFFFFFFFFFFFFFFFFFFFFFFFFFFFFFFFFFFFFFFFFFFFFFFFFFFFFFFFF
310
F000FFFFFFFFFFFFFFFFFFFFFFFFFFFFFFFFFFFFFFFFFFFFFFFFFFFFFFFFFFFF
310
FFFFFFFFFFFFFFFFFFFFFFFFFFFFFFFFFFFFFFFFFFFFFFFFFFFFFFFFFFFFFFFF
310
FFFFFFFFFFFFFFFFFFFFFFFFFFFFFFFFFFFFFFFFFFFFFFFFF000FFFFFFFFFFFF
310
FFFFFFFFFFFFFFFFFFFFFFFFFFFFFFFFFFFFFFFFFFFFFFFFFFFFFFFFFFFFFFFF
310
FFFFFFFFFFFFFFFFFFFFFFFFFFFFFFFFFFFFFFFFFFFFFFFFFFFFFFFFFFFFFFFF
310
FFFFFFFFFFFFFFFFFFFFFFFFFFFFFFFFF000FFFFFFFFFFFFFFFFFFFFFFFFFFFF
310
FFFFFFFFFFFFFFFFFFFFFFFFFFFFFFFFFFFFFFFFFFFFFFFFFFFFFFFFFFFFFFFF
310
FFFFFFFFFFFFFFFFFFFFFFFFFFFFFFFFFFFFFFFFFFFFFFFFFFFFFFFFFFFFFFFF
310
FFFFFFFFFFFFFFFFF000FFFFFFFFFFFFFFFFFFFFFFFFFFFFFFFFFFFFFFFFFFFF
310
FFFFFFFFFFFFFFFFFFFFFFFFFFFFFFFFFFFFFFFFFFFFFFFFFFFFFFFFFFFFFFFF
310
FFFFFFFFFFFFFFFFFFFFFFFFFFFFFFFFFFFFFFFFFFFFFFFFFFFFFFFFFFFFFFFF
310
F000FFFFFFFFFFFFFFFFFFFFFFFFFFFFFFFFFFFFFFFFFFFFFFFFFFFFFFFFFFFF
310
FFFFFFFFFFFFFFFFFFFFFFFFFFFFFFFFFFFFFFFFFFFFFFFFFFFFFFFFFFFFFFFF
310
FFFFFFFFFFFFFFFFFFFFFFFFFFFFFFFFFFFFFFFFFFFFFFFFF000FFFFFFFFFFFF
310
FFFFFFFFFFFFFFFFFFFFFFFFFFFFFFFFFFFFFFFFFFFFFFFFFFFFFFFFFFFFFFFF
310
FFFFFFFFFFFFFFFFFFFFFFFFFFFFFFFFFFFFFFFFFFFFFFFFFFFFFFFFFFFFFFFF
310
FFFFFFFFFFFFFFFFFFFFFFFFFFFFFFFFF000FFFFFFFFFFFFFFFFFFFFFFFFFFFF
310
FFFFFFFFFFFFFFFFFFFFFFFFFFFFFFFFFFFFFFFFFFFFFFFFFFFFFFFFFFFFFFFF
310
FFFFFFFFFFFFFFFFFFFFFFFFFFFFFFFFFFFFFFFFFFFFFFFFFFFFFFFFFFFFFFFF
310
FFFFFFFFFFFFFFFFF000FFFFFFFFFFFFFFFFFFFFFFFFFFFFFFFFFFFFFFFFFFFF
310
FFFFFFFFFFFFFFFFFFFFFFFFFFFFFFFFFFFFFFFFFFFFFFFFFFFFFFFFFFFFFFFF
310
FFFFFFFFFFFFFFFFFFFFFFFFFFFFFFFFFFFFFFFFFFFFFFFFFFFFFFFFFFFFFFFF
310
F000FFFFFFFFFFFFFFFFFFFFFFFFFFFFFFFFFFFFFFFFFFFFFFFFFFFFFFFFFFFF
310
FFFFFFFFFFFFFFFFFFFFFFFFFFFFFFFFFFFFFFFFFFFFFFFFFFFFFFFFFFFFFFFF
310
FFFFFFFFFFFFFFFFFFFFFFFFFFFFFFFFFFFFFFFFFFFFFFFFF000FFFFFFFFFFFF
310
FFFFFFFFFFFFFFFFFFFFFFFFFFFFFFFFFFFFFFFFFFFFFFFFFFFFFFFFFFFFFFFF
310
FFFFFFFFFFFFFFFFFFFFFFFFFFFFFFFFFFFFFFFFFFFFFFFFFFFFFFFFFFFFFFFF
310
FFFFFFFFFFFFFFFFFFFFFFFFFFFFFFFFF000FFFFFFFFFFFFFFFFFFFFFFFFFFFF
310
FFFFFFFFFFFFFFFFFFFFFFFFFFFFFFFFFFFFFFFFFFFFFFFFFFFFFFFFFFFFFFFF
310
FFFFFFFFFFFFFFFFFFFFFFFFFFFFFFFFFFFFFFFFFFFFFFFFFFFFFFFFFFFFFFFF
310
FFFFFFFFFFFFFFFFF000FFFFF80003FFFFFFFFFFFFFFFFFFFFFFFFFFFFFFFFFF
310
FFFFF00007FFFFFFFFFF00007FFFFFF800000000000000007FFFFFFFFFFFFFFF
310
FFFFFFFC001FFFFFFFFFFFFFFC001FFFFFFFFFFFFFFFFFFFFFFFFFFE0007FFFF
310
F000FFFF8000007FFFFFFFF8000FFFFFC0007FFFFF80007FFFFF0000007FFFFF
310
FFF8000007FFFFF800000000000000007FFFFFF0001FFFFFFFFFFFC00001FFFF
310
FFFFFFFFC00001FFFFFFFF000000000003FFFFE000007FFFF000FFFE0000000F
310
FFFFFFF0000FFFFF80007FFFFF80007FFFFC0000001FFFFFFFC0000001FFFFF8
310
00000000000000007FFFFFF0001FFFFFFFFFFE0000003FFFFFFFFFFE0000003F
310
FFFFFF000000000003FFFF0000000FFFF000FFF800000003FFFFFFF00007FFFF
310
80007FFFFF80007FFFF000000007FFFFFF000000003FFFF80000000000000000
310
7FFFFFF0001FFFFFFFFFF80000000FFFFFFFFFF80000000FFFFFFF0000000000
310
03FFFC00000003FFF000FFE000000000FFFFFFF00007FFFF80003FFFFF80007F
310
FFC000000001FFFFFC000000001FFFF800000000000000007FFFFFF0001FFFFF
310
FFFFE000000003FFFFFFFFE000000003FFFFFF000000000003FFF000000000FF
310
F000FF80000000007FFFFFF00007FFFF80003FFFFF80007FFF8000000000FFFF
310
F80000000007FFF800000000000000007FFFFFF0001FFFFFFFFFC000000001FF
310
FFFFFFC000000001FFFFFF000000000003FFC0000000007FF000FF0000000000
310
3FFFFFE00007FFFF00003FFFFF80007FFE00000000003FFFF00000000003FFF8
310
00000000000000007FFFFFF0001FFFFFFFFF8000000000FFFFFFFF8000000000
310
FFFFFF000000000003FF80000000003FF000FE00000000001FFFFFE00003FFFF
310
00003FFFFF80007FFC00000000001FFFE00000000001FFF8000001FFFE000000
310
7FFFFFF0001FFFFFFFFE00000000003FFFFFFE00000000003FFFFF0000000000
310
03FF00000000001FF000FC00000000000FFFFFE00003FFFF00001FFFFF80007F
310
F800000000001FFFC00000000000FFF8000001FFFE0000007FFFFFF0001FFFFF
310
FFFC00000000001FFFFFFC00000000001FFFFF000000000003FE00000000000F
310
F000F8000000000007FFFFE00003FFFF00001FFFFF80007FF800000000000FFF
310
800000000000FFF8000001FFFE0000007FFFFFF0001FFFFFFFF800000000000F
310
FFFFF800000000000FFFFF000000000003FC000000000007F000F80000000000
310
03FFFFC00003FFFE00001FFFFF80007FF0000000000007FF0000000000007FF8
310
000001FFFE0000007FFFFFF0001FFFFFFFF0000000000007FFFFF00000000000
310
07FFFF000000000003F8000000000003F000F0000000000003FFFFC00001FFFE
310
00001FFFFF80007FE0000000000007FE0000000000003FF8000001FFFE000000
310
7FFFFFF0001FFFFFFFF0000000000007FFFFF0000000000007FFFF0000000000
310
03F800001F800003F000E00001FFF00001FFFFC00001FFFE00000FFFFF80007F
310
E00001FFE00003FE00001FFF00003FF8000001FFFE0000007FFFFFF0001FFFFF
310
FFE000003E000003FFFFE000003E000003FFFF000000000003F00001FFF80001
310
F000E00007FFFC0001FFFFC00001FFFE00000FFFFF80007FC0000FFFFC0003FC
310
0000FFFFC0001FF8000001FFFE0000007FFFFFF0001FFFFFFFC00003FFE00001
310
FFFFC00003FFE00001FFFF0001FFFFFFFFF00007FFFE0001F000E0000FFFFF00
310
00FFFF800001FFFC00000FFFFF80007FC0001FFFFE0001FC0001FFFFE0001FF8
310
000001FFFE0000007FFFFFF0001FFFFFFF80000FFFF80000FFFF80000FFFF800
310
00FFFF0003FFFFFFFFE0000FFFFF8000F000C0003FFFFF8000FFFF800000FFFC
310
000007FFFF80007F80003FFFFF0001FC0003FFFFF0001FF8000001FFFE000000
310
7FFFFFF0001FFFFFFF80003FFFFE0000FFFF80003FFFFE0000FFFF0003FFFFFF
310
FFE0003FFFFF8000F000C0003FFFFF8000FFFF800000FFFC000007FFFF80007F
310
80007FFFFF8001F80007FFFFF8000FF8000001FFFE0000007FFFFFF0001FFFFF
310
FF00007FFFFF00007FFF00007FFFFF00007FFF0003FFFFFFFFE0003FFFFFC000
310
F000C0007FFFFFC000FFFF000000FFFC000007FFFF80007F8000FFFFFF8000F8
310
000FFFFFF8000FF8000001FFFE0000007FFFFFF0001FFFFFFF0000FFFFFF8000
310
7FFF0000FFFFFF80007FFF0003FFFFFFFFC0007FFFFFC00070008000FFFFFFC0
310
00FFFF000000FFF8000007FFFF80007F8000FFFFFF8000F8000FFFFFF8000FF8
310
000001FFFE0000007FFFFFF0001FFFFFFE0001FFFFFFC0003FFE0001FFFFFFC0
310
003FFF0003FFFFFFFFC0007FFFFFE00070008000FFFFFFC0007FFF0000007FF8
310
000003FFFF80007F0001FFFFFF8000F8000FFFFFF8000FF8000001FFFE000000
310
7FFFFFF0001FFFFFFE0001FFFFFFC0003FFE0001FFFFFFC0003FFF0003FFFFFF
310
FFC000FFFFFFE00070008000FFFFFFC0007FFF0000007FF8000003FFFF80007F
310
0001FFFFFF8000F8001FFFFFF8000FF8000001FFFE0000007FFFFFF0001FFFFF
310
FE0003FFFFFFE0003FFE0003FFFFFFE0003FFF0003FFFFFFFFC000FFFFFFE000
310
70008000FFFFFFC0007FFE0000007FF8000003FFFF80007F0001FFFFFF8000F0
310
001FFFFFF8000FF8000001FFFE0000007FFFFFF0001FFFFFFC0003FFFFFFE000
310
1FFC0003FFFFFFE0001FFF0003FFFFFFFFC000FFFFFFC00070008000FFFFFF80
310
007FFE0000007FF0000003FFFF80007F0001FFFFFF0000F0001FFFFFF8000FF8
310
000001FFFE0000007FFFFFF0001FFFFFFC0007FFFFFFF0001FFC0007FFFFFFF0
310
001FFF0003FFFFFFFFC000FFFFFFC00070008001FFFFFF0000FFFE0000003FF0
310
000001FFFF80007F0001FFFFFF0000F8001FFFFFF0000FF8000001FFFE000000
310
7FFFFFF0001FFFFFFC0007FFFFFFF0001FFC0007FFFFFFF0001FFF0003FFFFFF
310
FFC001FFFFFF80007000FFFFFFFFFE0000FFFE0008003FF0008001FFFF80007F
310
FFFFFFFFFC0000FFFFFFFFFFE0000FF8000001FFFE0000007FFFFFF0001FFFFF
310
F8000FFFFFFFF8000FF8000FFFFFFFF8000FFF0003FFFFFFFFFFFFFFFFFF0000
310
7000FFFFFFFFFC0000FFFC0008003FF0008001FFFF80007FFFFFFFFFF80001FF
310
FFFFFFFF80000FF8000001FFFE0000007FFFFFF0001FFFFFF8000FFFFFFFF800
310
0FF8000FFFFFFFF8000FFF0003FFFFFFFFFFFFFFFFFE0000F000FFFFFFFFE000
310
00FFFC000C003FE000C001FFFF80007FFFFFFFFFC00001FFFFFFFFFE00001FF8
310
000001FFFE0000007FFFFFF0001FFFFFF8000FFFFFFFF8000FF8000FFFFFFFF8
310
000FFF0003FFFFFFFFFFFFFFFFF00000F000FFFFFFFE000001FFFC000C001FE0
310
00C000FFFF80007FFFFFFFFE000001FFFFFFFFE000001FF80FFFFFFFFFFFFFC0
310
7FFFFFF0001FFFFFF8000FFFFFFFF8000FF8000FFFFFFFF8000FFF0003FFFFFF
310
FFFFFFFFFF800000F000FFFFFFC0000001FFFC001C001FE001C000FFFF80007F
310
FFFFFF80000003FFFFFFF80000001FF80FFFFFFFFFFFFFC07FFFFFF0001FFFFF
310
F8001FFFFFFFFC000FF8001FFFFFFFFC000FFF0003FFFFFFFFFFFFFFF0000001
310
F000FFFFF800000001FFF8001C001FE001C000FFFF80007FFFFFF800000003FF
310
FFFF800000003FF80FFFFFFFFFFFFFC07FFFFFF0001FFFFFF8001FFFFFFFFC00
310
0FF8001FFFFFFFFC000FFF0003FFFFFFFFFFFFFE00000001F000FFFFC0000000
310
03FFF8001E001FC001E000FFFF80007FFFFF8000000007FFFFFC000000003FF8
310
0FFFFFFFFFFFFFC07FFFFFF0001FFFFFF8001FFFFFFFFC000FF8001FFFFFFFFC
310
000FFF0003FFFFFFFFFFFFE000000003F000FFFE0000000007FFF8001E000FC0
310
01E0007FFF80007FFFFE0000000007FFFFE0000000007FF80FFFFFFFFFFFFFC0
310
7FFFFFF0001FFFFFF0001FFFFFFFFC0007F0001FFFFFFFFC0007FF0003FFFFFF
310
FFFFFF0000000003F000FFF80000000007FFF8001E000FC003E0007FFF80007F
310
FFF0000000000FFFFF8000000000FFF80FFFFFFFFFFFFFC07FFFFFF0001FFFFF
310
F0001FFFFFFFFC0007F0001FFFFFFFFC0007FF0003FFFFFFFFFFFC0000000007
310
F000FFE0000000000FFFF0003E000FC003E0007FFF80007FFFC0000000001FFF
310
FE0000000001FFF80FFFFFFFFFFFFFC07FFFFFF0001FFFFFF0001FFFFFFFFC00
310
07F0001FFFFFFFFC0007FF0003FFFFFFFFFFF0000000000FF000FFC000000000
310
1FFFF0003F000F8003F0003FFF80007FFF80000000003FFFF80000000003FFF8
310
0FFFFFFFFFFFFFC07FFFFFF0001FFFFFF0001FFFFFFFFC0007F0001FFFFFFFFC
310
0007FF0003FFFFFFFFFFE0000000001FF000FF00000000007FFFF0003F000780
310
03F0003FFF80007FFF00000000007FFFF00000000007FFF80FFFFFFFFFFFFFC0
310
7FFFFFF0001FFFFFF0001FFFFFFFFC0007F0001FFFFFFFFC0007FF0003FFFFFF
310
FFFF80000000007FF000FE0000000000FFFFE0003F00078007F0003FFF80007F
310
FE0000000001FFFFE0000000001FFFF80FFFFFFFFFFFFFC07FFFFFF0001FFFFF
310
F0001FFFFFFFFC0007F0001FFFFFFFFC0007FF0003FFFFFFFFFF0000000000FF
310
F000FC0000000003FFFFE0007F00078007F0003FFF80007FFC0000000007FFFF
310
C0000000007FFFF80FFFFFFFFFFFFFC07FFFFFF0001FFFFFF8001FFFFFFFFC00
310
0FF8001FFFFFFFFC000FFF0003FFFFFFFFFE0000000003FFF000FC000000000F
310
FFFFE0007F80070007F8001FFF80007FF8000000001FFFFF8000000001FFFFF8
310
0FFFFFFFFFFFFFC07FFFFFF0001FFFFFF8001FFFFFFFFC000FF8001FFFFFFFFC
310
000FFF0003FFFFFFFFFC000000000FFFF000F8000000007FFFFFE0007F800700
310
07F8001FFF80007FF000000000FFFFFF800000000FFFFFF80FFFFFFFFFFFFFC0
310
7FFFFFF0001FFFFFF8000FFFFFFFF8000FF8000FFFFFFFF8000FFF0003FFFFFF
310
FFFC000000007FFFF000F800000007FFFFFFC0007F8003000FF8001FFF80007F
310
F000000007FFFFFF000000007FFFFFF80FFFFFFFFFFFFFC07FFFFFF0001FFFFF
310
F8000FFFFFFFF8000FF8000FFFFFFFF8000FFF0003FFFFFFFFF80000000FFFFF
310
F000F0000000FFFFFFFFC000FF8003000FF8001FFF80007FE0000000FFFFFFFF
310
0000000FFFFFFFF8000001FFFE0000007FFFFFF0001FFFFFF8000FFFFFFFF800
310
0FF8000FFFFFFFF8000FFF0003FFFFFFFFF8000000FFFFFFF000F000000FFFFF
310
FFFFC000FFC002000FF8000FFF80007FE000001FFFFFFFFE000001FFFFFFFFF8
310
000001FFFE0000007FFFFFF0001FFFFFF8000FFFFFFFF8000FF8000FFFFFFFF8
310
000FFF0003FFFFFFFFF000001FFFFFFFF000E00000FFFFFFFFFFC000FFC00200
310
0FFC000FFF80007FE00001FFFFFFFFFE00001FFFFFFFFFF8000001FFFE000000
310
7FFFFFF0001FFFFFFC000FFFFFFFF8001FFC000FFFFFFFF8001FFF0003FFFFFF
310
FFF00001FFFFFFFFF000E00007FFFFFFFFFF8000FFC000001FFC000FFF80007F
310
C0000FFFFFFFFFFE0000FFFFFFFFFFF8000001FFFE0000007FFFFFF0001FFFFF
310
FC0007FFFFFFF0001FFC0007FFFFFFF0001FFF0003FFFFFFFFF00007FFFFFFFF
310
F000E0001FFFFFFFFFFF8000FFC000001FFC000FFF80007FC0003FFFFFFFFFFE
310
0001FFFFFFFFFFF8000001FFFE0000007FFFFFF0001FFFFFFC0007FFFFFFF000
310
1FFC0007FFFFFFF0001FFF0003FFFFFFFFF0001FFFFFFFFFF000E0003FFFFF00
310
03FF8001FFE000001FFC0007FF80007FC0007FFFFF0007FC0003FFFFF0003FF8
310
000001FFFE0000007FFFFFF0001FFFFFFC0003FFFFFFE0001FFC0003FFFFFFE0
310
001FFF0003FFFFFFFFF0003FFFFFFFFFF000E0003FFFFF0001FF8001FFE00000
310
1FFE0007FF80007FC0007FFFFE0003FC0007FFFFE0003FF8000001FFFE000000
310
7FFFFFF0001FFFFFFE0003FFFFFFE0003FFE0003FFFFFFE0003FFF0003FFFFFF
310
FFF0003FFFFF8001F000E0003FFFFF0001FF0001FFE000001FFE0007FF80007F
310
C0007FFFFE0003FC0007FFFFE0003FF8000001FFFE0000007FFFFFF0001FFFFF
310
FE0001FFFFFFC0003FFE0001FFFFFFC0003FFF0003FFFFFFFFF0003FFFFF0001
310
F000E0003FFFFF0003FF0001FFE000003FFE0007FF80007FC0007FFFFE0003FC
310
0007FFFFE0003FF8000001FFFE0000007FFFFFF0001FFFFFFF0001FFFFFFC000
310
7FFF0001FFFFFFC0007FFF0003FFFFFFFFF0003FFFFF0001F000E0003FFFFE00
310
03FF0003FFF000003FFE0003FF80007FC0007FFFFC0003FE0007FFFFE0003FF8
310
000001FFFE0000007FFFFFF0001FFFFFFF0000FFFFFF80007FFF0000FFFFFF80
310
007FFF0003FFFFFFFFF0003FFFFF0001F000E0003FFFFE0003FF0003FFF00000
310
3FFF0003FF80007FC0007FFFFC0007FE0007FFFFC0003FF8000001FFFE000000
310
7FFFFFF0001FFFFFFF80007FFFFF0000FFFF80007FFFFF0000FFFF0003FFFFFF
310
FFF0003FFFFF0003F000E0003FFFFC0003FE0003FFF000003FFF0003FF80007F
310
E0003FFFF80007FE0003FFFFC0007FF8000001FFFE0000007FFFFFF0001FFFFF
310
FF80003FFFFE0000FFFF80003FFFFE0000FFFF0003FFFFFFFFF0001FFFFE0003
310
F000F0001FFFF80003FE0003FFF000007FFF0001FF80007FE0003FFFF00007FE
310
0001FFFF80007FF8000001FFFE0000007FFFFFF0001FFFFFFFC0000FFFF80001
310
FFFFC0000FFFF80001FFFF0003FFFFFFFFF0001FFFFC0003F000F0000FFFF000
310
07FE0007FFF800007FFF0001FF80007FE0001FFFE00007FF0000FFFE00007FF8
310
000001FFFE0000007FFFFFF0001FFFFFFFC00003FFE00001FFFFC00003FFE000
310
01FFFF0003FFFFFFFFF8000FFFF80003F000F00003FFC00007FC0007FFF80000
310
7FFF8001FF80007FF00007FF80000FFF00007FF80000FFF8000001FFFE000000
310
7F80000000000001FFE000003E000003FFFFE000003E000003FFFF0003FFFFFF
310
FFF80003FFE00007F000F800000000000FFC0007FFF800007FFF8001FF80007F
310
F000000000000FFF000000000000FFF8000001FFFE0000007F80000000000001
310
FFF0000000000007FFFFF0000000000007FFFF0003FFFFFFFFFC00007E000007
310
F000F800000000000FFC0007FFF80000FFFF8000FF80007FF800000000001FFF
310
800000000001FFF8000001FFFE0000007F80000000000001FFF800000000000F
310
FFFFF800000000000FFFFF0003FFFFFFFFFC00000000000FF000FC0000000000
310
1FFC0007FFFC0000FFFF8000FF80007FF800000000003FFFC00000000001FFF8
310
000001FFFE0000007F80000000000001FFF800000000000FFFFFF80000000000
310
0FFFFF0003FFFFFFFFFE00000000001FF000FE00000000003FF8000FFFFC0000
310
FFFF8000FF80007FFC00000000003FFFC00000000003FFF8000001FFFE000000
310
7F80000000000001FFFC00000000001FFFFFFC00000000001FFFFF0003FFFFFF
310
FFFF00000000001FF000FF00000000003FF8000FFFFC0000FFFFC000FF80007F
310
FE00000000007FFFE00000000007FFF8000001FFFE0000007F80000000000001
310
FFFE00000000003FFFFFFE00000000003FFFFF0003FFFFFFFFFF80000000003F
310
F000FF80000000007FF8000FFFFC0001FFFFC0007F80007FFF0000000000FFFF
310
F0000000000FFFF800000000000000007F80000000000001FFFF8000000000FF
310
FFFFFF8000000000FFFFFF0003FFFFFFFFFFC0000000007FF000FFC000000000
310
FFF8000FFFFE0001FFFFC0007F80007FFF8000000001FFFFF8000000001FFFF8
310
00000000000000007F80000000000001FFFFC000000001FFFFFFFFC000000001
310
FFFFFF0003FFFFFFFFFFE000000000FFF000FFE000000003FFF0001FFFFE0001
310
FFFFC0007F80007FFFC000000007FFFFFE000000003FFFF80000000000000000
310
7F80000000000001FFFFE000000003FFFFFFFFE000000003FFFFFF0003FFFFFF
310
FFFFF000000003FFF000FFF80000000FFFF0001FFFFE0001FFFFE0007F80007F
310
FFF00000000FFFFFFF00000000FFFFF800000000000000007F80000000000001
310
FFFFF80000000FFFFFFFFFF80000000FFFFFFF0003FFFFFFFFFFFC0000000FFF
310
F000FFFE0000003FFFF0001FFFFE0003FFFFE0003F80007FFFFC0000003FFFFF
310
FFC0000003FFFFF800000000000000007F80000000000001FFFFFE0000003FFF
310
FFFFFFFE0000003FFFFFFF0003FFFFFFFFFFFF0000003FFFF000FFFF800000FF
310
FFF0001FFFFF0003FFFFE0003F80007FFFFF000001FFFFFFFFF800001FFFFFF8
310
00000000000000007F80000000000001FFFFFFC00001FFFFFFFFFFFFC00001FF
310
FFFFFF0003FFFFFFFFFFFFC00000FFFFF000FFFFF8000FFFFFFFFFFFFFFFFFFF
310
FFFFFFFFFFFFFFFFFFFFF0001FFFFFFFFFFF0000FFFFFFF80000000000000000
310
7FFFFFFFFFFFFFFFFFFFFFFC001FFFFFFFFFFFFFFC001FFFFFFFFFFFFFFFFFFF
310
FFFFFFFC001FFFFFF000FFFFFFFFFFFFFFFFFFFFFFFFFFFFFFFFFFFFFFFFFFFF
310
FFFFFFFFFFFFFFFFFFFFFFFFFFFFFFFFFFFFFFFFFFFFFFFFFFFFFFFFFFFFFFFF
310
FFFFFFFFFFFFFFFFFFFFFFFFFFFFFFFFFFFFFFFFFFFFFFFFFFFFFFFFFFFFFFFF
310
F000FFFFFFFFFFFFFFFFFFFFFFFFFFFFFFFFFFFFFFFFFFFFFFFFFFFFFFFFFFFF
310
FFFFFFFFFFFFFFFFFFFFFFFFFFFFFFFFFFFFFFFFFFFFFFFFFFFFFFFFFFFFFFFF
310
FFFFFFFFFFFFFFFFFFFFFFFFFFFFFFFFFFFFFFFFFFFFFFFFF000FFFFFFFFFFFF
310
FFFFFFFFFFFFFFFFFFFFFFFFFFFFFFFFFFFFFFFFFFFFFFFFFFFFFFFFFFFFFFFF
310
FFFFFFFFFFFFFFFFFFFFFFFFFFFFFFFFFFFFFFFFFFFFFFFFFFFFFFFFFFFFFFFF
310
FFFFFFFFFFFFFFFFFFFFFFFFFFFFFFFFF000FFFFFFFFFFFFFFFFFFFFFFFFFFFF
310
FFFFFFFFFFFFFFFFFFFFFFFFFFFFFFFFFFFFFFFFFFFFFFFFFFFFFFFFFFFFFFFF
310
FFFFFFFFFFFFFFFFFFFFFFFFFFFFFFFFFFFFFFFFFFFFFFFFFFFFFFFFFFFFFFFF
310
FFFFFFFFFFFFFFFFF000FFFFFFFFFFFFFFFFFFFFFFFFFFFFFFFFFFFFFFFFFFFF
310
FFFFFFFFFFFFFFFFFFFFFFFFFFFFFFFFFFFFFFFFFFFFFFFFFFFFFFFFFFFFFFFF
310
FFFFFFFFFFFFFFFFFFFFFFFFFFFFFFFFFFFFFFFFFFFFFFFFFFFFFFFFFFFFFFFF
310
F000FFFFFFFFFFFFFFFFFFFFFFFFFFFFFFFFFFFFFFFFFFFFFFFFFFFFFFFFFFFF
310
FFFFFFFFFFFFFFFFFFFFFFFFFFFFFFFFFFFFFFFFFFFFFFFFFFFFFFFFFFFFFFFF
310
FFFFFFFFFFFFFFFFFFFFFFFFFFFFFFFFFFFFFFFFFFFFFFFFF000FFFFFFFFFFFF
310
FFFFFFFFFFFFFFFFFFFFFFFFFFFFFFFFFFFFFFFFFFFFFFFFFFFFFFFFFFFFFFFF
310
FFFFFFFFFFFFFFFFFFFFFFFFFFFFFFFFFFFFFFFFFFFFFFFFFFFFFFFFFFFFFFFF
310
FFFFFFFFFFFFFFFFFFFFFFFFFFFFFFFFF000FFFFFFFFFFFFFFFFFFFFFFFFFFFF
310
FFFFFFFFFFFFFFFFFFFFFFFFFFFFFFFFFFFFFFFFFFFFFFFFFFFFFFFFFFFFFFFF
310
FFFFFFFFFFFFFFFFFFFFFFFFFFFFFFFFFFFFFFFFFFFFFFFFFFFFFFFFFFFFFFFF
310
FFFFFFFFFFFFFFFFF000FFFFFFFFFFFFFFFFFFFFFFFFFFFFFFFFFFFFFFFFFFFF
310
FFFFFFFFFFFFFFFFFFFFFFFFFFFFFFFFFFFFFFFFFFFFFFFFFFFFFFFFFFFFFFFF
310
FFFFFFFFFFFFFFFFFFFFFFFFFFFFFFFFFFFFFFFFFFFFFFFFFFFFFFFFFFFFFFFF
310
F000FFFFFFFFFFFFFFFFFFFFFFFFFFFFFFFFFFFFFFFFFFFFFFFFFFFFFFFFFFFF
310
FFFFFFFFFFFFFFFFFFFFFFFFFFFFFFFFFFFFFFFFFFFFFFFFFFFFFFFFFFFFFFFF
310
FFFFFFFFFFFFFFFFFFFFFFFFFFFFFFFFFFFFFFFFFFFFFFFFF000FFFFFFFFFFFF
310
FFFFFFFFFFFFFFFFFFFFFFFFFFFFFFFFFFFFFFFFFFFFFFFFFFFFFFFFFFFFFFFF
310
FFFFFFFFFFFFFFFFFFFFFFFFFFFFFFFFFFFFFFFFFFFFFFFFFFFFFFFFFFFFFFFF
310
FFFFFFFFFFFFFFFFFFFFFFFFFFFFFFFFF000FFFFFFFFFFFFFFFFFFFFFFFFFFFF
310
FFFFFFFFFFFFFFFFFFFFFFFFFFFFFFFFFFFFFFFFFFFFFFFFFFFFFFFFFFFFFFFF
310
FFFFFFFFFFFFFFFFFFFFFFFFFFFFFFFFFFFFFFFFFFFFFFFFFFFFFFFFFFFFFFFF
310
FFFFFFFFFFFFFFFFF000FFFFFFFFFFFFFFFFFFFFFFFFFFFFFFFFFFFFFFFFFFFF
310
FFFFFFFFFFFFFFFFFFFFFFFFFFFFFFFFFFFFFFFFFFFFFFFFFFFFFFFFFFFFFFFF
310
FFFFFFFFFFFFFFFFFFFFFFFFFFFFFFFFFFFFFFFFFFFFFFFFFFFFFFFFFFFFFFFF
310
F000FFFFFFFFFFFFFFFFFFFFFFFFFFFFFFFFFFFFFFFFFFFFFFFFFFFFFFFFFFFF
310
FFFFFFFFFFFFFFFFFFFFFFFFFFFFFFFFFFFFFFFFFFFFFFFFFFFFFFFFFFFFFFFF
310
FFFFFFFFFFFFFFFFFFFFFFFFFFFFFFFFFFFFFFFFFFFFFFFFF000FFFFFFFFFFFF
310
FFFFFFFFFFFFFFFFFFFFFFFFFFFFFFFFFFFFFFFFFFFFFFFFFFFFFFFFFFFFFFFF
310
FFFFFFFFFFFFFFFFFFFFFFFFFFFFFFFFFFFFFFFFFFFFFFFFFFFFFFFFFFFFFFFF
310
FFFFFFFFFFFFFFFFFFFFFFFFFFFFFFFFF000FFFFFFFFFFFFFFFFFFFFFFFFFFFF
310
FFFFFFFFFFFFFFFFFFFFFFFFFFFFFFFFFFFFFFFFFFFFFFFFFFFFFFFFFFFFFFFF
310
FFFFFFFFFFFFFFFFFFFFFFFFFFFFFFFFFFFFFFFFFFFFFFFFFFFFFFFFFFFFFFFF
310
FFFFFFFFFFFFFFFFF000FFFFFFFFFFFFFFFFFFFFFFFFFFFFFFFFFFFFFFFFFFFF
310
FFFFFFFFFFFFFFFFFFFFFFFFFFFFFFFFFFFFFFFFFFFFFFFFFFFFFFFFFFFFFFFF
310
FFFFFFFFFFFFFFFFFFFFFFFFFFFFFFFFFFFFFFFFFFFFFFFFFFFFFFFFFFFFFFFF
310
F000FFFFFFFFFFFFFFFFFFFFFFFFFFFFFFFFFFFFFFFFFFFFFFFFFFFFFFFFFFFF
310
FFFFFFFFFFFFFFFFFFFFFFFFFFFFFFFFFFFFFFFFFFFFFFFFFFFFFFFFFFFFFFFF
310
FFFFFFFFFFFFFFFFFFFFFFFFFFFFFFFFFFFFFFFFFFFFFFFFF000FFFFFFFFFFFF
310
FFFFFFFFFFFFFFFFFFFFFFFFFFFFFFFFFFFFFFFFFFFFFFFFFFFFFFFFFFFFFFFF
310
FFFFFFFFFFFFFFFFFFFFFFFFFFFFFFFFFFFFFFFFFFFFFFFFFFFFFFFFFFFFFFFF
310
FFFFFFFFFFFFFFFFFFFFFFFFFFFFFFFFF000FFFFFFFFFFFFFFFFFFFFFFFFFFFF
310
FFFFFFFFFFFFFFFFFFFFFFFFFFFFFFFFFFFFFFFFFFFFFFFFFFFFFFFFFFFFFFFF
310
FFFFFFFFFFFFFFFFFFFFFFFFFFFFFFFFFFFFFFFFFFFFFFFFFFFFFFFFFFFFFFFF
310
FFFFFFFFFFFFFFFFF000FFFFFFFFFFFFFFFFFFFFFFFFFFFFFFFFFFFFFFFFFFFF
310
FFFFFFFFFFFFFFFFFFFFFFFFFFFFFFFFFFFFFFFFFFFFFFFFFFFFFFFFFFFFFFFF
310
FFFFFFFFFFFFFFFFFFFFFFFFFFFFFFFFFFFFFFFFFFFFFFFFFFFFFFFFFFFFFFFF
310
F000FFFFFFFFFFFFFFFFFFFFFFFFFFFFFFFFFFFFFFFFFFFFFFFFFFFFFFFFFFFF
310
FFFFFFFFFFFFFFFFFFFFFFFFFFFFFFFFFFFFFFFFFFFFFFFFFFFFFFFFFFFFFFFF
310
FFFFFFFFFFFFFFFFFFFFFFFFFFFFFFFFFFFFFFFFFFFFFFFFF000FFFFFFFFFFFF
310
FFFFFFFFFFFFFFFFFFFFFFFFFFFFFFFFFFFFFFFFFFFFFFFFFFFFFFFFFFFFFFFF
310
FFFFFFFFFFFFFFFFFFFFFFFFFFFFFFFFFFFFFFFFFFFFFFFFFFFFFFFFFFFFFFFF
310
FFFFFFFFFFFFFFFFFFFFFFFFFFFFFFFFF0000000000000000000000000000000
310
0000000000000000000000000000000000000000000000000000000000000000
310
0000000000000000000000000000000000000000000000000000000000000000
310
0000000000000000000000000000000000000000000000000000000000000000
310
0000000000000000000000000000000000000000000000000000000000000000
310
0000000000000000000000000000000000000000000000000000000000000000
310
0000000000000000000000000000000000000000000000000000000000000000
310
0000000000000000000000000000000000000000000000000000000000000000
310
0000000000000000000000000000000000000000000000000000000000000000
310
0000000000000000000000000000000000000000000000000000000000000000
310
0000000000000000000000000000000000000000000000000000000000000000
310
0000000000000000000000000000000000000000000000000000000000000000
310
0000000000000000000000000000000000000000000000000000000000000000
310
0000000000000000000000000000000000000000000000000000000000000000
310
0000000000000000000000000000000000000000000000000000000000000000
310
0000000000000000000000000000000000000000000000000000000000000000
  1
OLE
  0
ENDSEC
  0
SECTION
  2
OBJECTS
  0
DICTIONARY
  5
C
330
0
100
AcDbDictionary
281
     1
  3
ACAD_GROUP
350
D
  3
ACAD_LAYOUT
350
1A
  3
ACAD_MLINESTYLE
350
17
  3
ACAD_PLOTSETTINGS
350
19
  3
ACAD_PLOTSTYLENAME
350
E
  3
ACAD_SCALELIST
350
47
  0
DICTIONARY
  5
D
102
{ACAD_REACTORS
330
C
102
}
330
C
100
AcDbDictionary
281
     1
  0
DICTIONARY
  5
1A
102
{ACAD_REACTORS
330
C
102
}
330
C
100
AcDbDictionary
281
     1
  3
Layout1
350
1E
  3
Layout2
350
26
  3
Model
350
22
  0
DICTIONARY
  5
17
102
{ACAD_REACTORS
330
C
102
}
330
C
100
AcDbDictionary
281
     1
  3
Standard
350
18
  0
DICTIONARY
  5
19
102
{ACAD_REACTORS
330
C
102
}
330
C
100
AcDbDictionary
281
     1
  0
ACDBDICTIONARYWDFLT
  5
E
102
{ACAD_REACTORS
330
C
102
}
330
C
100
AcDbDictionary
281
     1
  3
Normal
350
F
100
AcDbDictionaryWithDefault
340
F
  0
DICTIONARY
  5
47
102
{ACAD_REACTORS
330
C
102
}
330
C
100
AcDbDictionary
281
     1
  3
A0
350
48
  3
A1
350
49
  3
A2
350
4A
  3
A3
350
4B
  3
A4
350
4C
  3
A5
350
4D
  3
A6
350
4E
  3
A7
350
4F
  3
A8
350
50
  3
A9
350
51
  3
B0
350
52
  3
B1
350
53
  3
B2
350
54
  3
B3
350
55
  3
B4
350
56
  3
B5
350
57
  3
B6
350
58
  3
B7
350
59
  3
B8
350
5A
  3
B9
350
5B
  3
C0
350
5C
  3
C1
350
5D
  3
C2
350
5E
  3
C3
350
5F
  3
C4
350
60
  3
C5
350
61
  3
C6
350
62
  3
C7
350
63
  3
C8
350
64
  3
C9
350
65
  3
D0
350
66
  3
D1
350
67
  3
D2
350
68
  0
LAYOUT
  5
1E
102
{ACAD_REACTORS
330
1A
102
}
330
1A
100
AcDbPlotSettings
  1

  2
none_device
  4

  6

 40
0.0
 41
0.0
 42
0.0
 43
0.0
 44
0.0
 45
0.0
 46
0.0
 47
0.0
 48
0.0
 49
0.0
140
0.0
141
0.0
142
1.0
143
1.0
 70
   688
 72
     1
 73
     0
 74
     5
  7

 75
    16
147
1.0
148
0.0
149
0.0
100
AcDbLayout
  1
Layout1
 70
     1
 71
     1
 10
0.0
 20
0.0
 11
420.0
 21
297.0
 12
0.0
 22
0.0
 32
0.0
 14
1.0000000000E+20
 24
1.0000000000E+20
 34
1.0000000000E+20
 15
-1.0000000000E+20
 25
-1.0000000000E+20
 35
-1.0000000000E+20
146
0.0
 13
0.0
 23
0.0
 33
0.0
 16
1.0
 26
0.0
 36
0.0
 17
0.0
 27
1.0
 37
0.0
 76
     0
330
1B
  0
LAYOUT
  5
26
102
{ACAD_REACTORS
330
1A
102
}
330
1A
100
AcDbPlotSettings
  1

  2
none_device
  4

  6

 40
0.0
 41
0.0
 42
0.0
 43
0.0
 44
0.0
 45
0.0
 46
0.0
 47
0.0
 48
0.0
 49
0.0
140
0.0
141
0.0
142
1.0
143
1.0
 70
   688
 72
     1
 73
     0
 74
     5
  7

 75
    16
147
1.0
148
0.0
149
0.0
100
AcDbLayout
  1
Layout2
 70
     1
 71
     2
 10
0.0
 20
0.0
 11
0.0
 21
0.0
 12
0.0
 22
0.0
 32
0.0
 14
0.0
 24
0.0
 34
0.0
 15
0.0
 25
0.0
 35
0.0
146
0.0
 13
0.0
 23
0.0
 33
0.0
 16
1.0
 26
0.0
 36
0.0
 17
0.0
 27
1.0
 37
0.0
 76
     0
330
23
  0
LAYOUT
  5
22
102
{ACAD_REACTORS
330
1A
102
}
330
1A
100
AcDbPlotSettings
  1

  2
none_device
  4
Letter_(8.50_x_11.00_Inches)
  6

 40
6.35
 41
6.35
 42
6.35000508
 43
6.35000508
 44
215.9
 45
279.4
 46
0.0
 47
0.0
 48
0.0
 49
0.0
140
0.0
141
0.0
142
1.0
143
1.0
 70
  1712
 72
     1
 73
     0
 74
     0
  7

 75
     0
147
1.0
148
0.0
149
0.0
100
AcDbLayout
  1
Model
 70
     1
 71
     0
 10
0.0
 20
0.0
 11
297.0
 21
210.0
 12
0.0
 22
0.0
 32
0.0
 14
0.0
 24
0.0
 34
0.0
 15
297.0
 25
210.0
 35
0.0
146
0.0
 13
0.0
 23
0.0
 33
0.0
 16
1.0
 26
0.0
 36
0.0
 17
0.0
 27
1.0
 37
0.0
 76
     0
330
1F
331
29
  0
MLINESTYLE
  5
18
102
{ACAD_REACTORS
330
17
102
}
330
17
100
AcDbMlineStyle
  2
Standard
 70
     0
  3

 62
   256
 51
90.0
 52
90.0
 71
     2
 49
0.5
 62
   256
  6
BYLAYER
 49
-0.5
 62
   256
  6
BYLAYER
  0
ACDBPLACEHOLDER
  5
F
102
{ACAD_REACTORS
330
E
102
}
330
E
  0
SCALE
  5
48
102
{ACAD_REACTORS
330
47
102
}
330
47
100
AcDbScale
 70
     0
300
1:1
140
1.0
141
1.0
290
     1
  0
SCALE
  5
49
102
{ACAD_REACTORS
330
47
102
}
330
47
100
AcDbScale
 70
     0
300
1:2
140
1.0
141
2.0
290
     0
  0
SCALE
  5
4A
102
{ACAD_REACTORS
330
47
102
}
330
47
100
AcDbScale
 70
     0
300
1:4
140
1.0
141
4.0
290
     0
  0
SCALE
  5
4B
102
{ACAD_REACTORS
330
47
102
}
330
47
100
AcDbScale
 70
     0
300
1:5
140
1.0
141
5.0
290
     0
  0
SCALE
  5
4C
102
{ACAD_REACTORS
330
47
102
}
330
47
100
AcDbScale
 70
     0
300
1:8
140
1.0
141
8.0
290
     0
  0
SCALE
  5
4D
102
{ACAD_REACTORS
330
47
102
}
330
47
100
AcDbScale
 70
     0
300
1:10
140
1.0
141
10.0
290
     0
  0
SCALE
  5
4E
102
{ACAD_REACTORS
330
47
102
}
330
47
100
AcDbScale
 70
     0
300
1:16
140
1.0
141
16.0
290
     0
  0
SCALE
  5
4F
102
{ACAD_REACTORS
330
47
102
}
330
47
100
AcDbScale
 70
     0
300
1:20
140
1.0
141
20.0
290
     0
  0
SCALE
  5
50
102
{ACAD_REACTORS
330
47
102
}
330
47
100
AcDbScale
 70
     0
300
1:30
140
1.0
141
30.0
290
     0
  0
SCALE
  5
51
102
{ACAD_REACTORS
330
47
102
}
330
47
100
AcDbScale
 70
     0
300
1:40
140
1.0
141
40.0
290
     0
  0
SCALE
  5
52
102
{ACAD_REACTORS
330
47
102
}
330
47
100
AcDbScale
 70
     0
300
1:50
140
1.0
141
50.0
290
     0
  0
SCALE
  5
53
102
{ACAD_REACTORS
330
47
102
}
330
47
100
AcDbScale
 70
     0
300
1:100
140
1.0
141
100.0
290
     0
  0
SCALE
  5
54
102
{ACAD_REACTORS
330
47
102
}
330
47
100
AcDbScale
 70
     0
300
2:1
140
2.0
141
1.0
290
     0
  0
SCALE
  5
55
102
{ACAD_REACTORS
330
47
102
}
330
47
100
AcDbScale
 70
     0
300
4:1
140
4.0
141
1.0
290
     0
  0
SCALE
  5
56
102
{ACAD_REACTORS
330
47
102
}
330
47
100
AcDbScale
 70
     0
300
8:1
140
8.0
141
1.0
290
     0
  0
SCALE
  5
57
102
{ACAD_REACTORS
330
47
102
}
330
47
100
AcDbScale
 70
     0
300
10:1
140
10.0
141
1.0
290
     0
  0
SCALE
  5
58
102
{ACAD_REACTORS
330
47
102
}
330
47
100
AcDbScale
 70
     0
300
100:1
140
100.0
141
1.0
290
     0
  0
SCALE
  5
59
102
{ACAD_REACTORS
330
47
102
}
330
47
100
AcDbScale
 70
     0
300
1/128" = 1'-0"
140
0.0078125
141
12.0
290
     0
  0
SCALE
  5
5A
102
{ACAD_REACTORS
330
47
102
}
330
47
100
AcDbScale
 70
     0
300
1/64" = 1'-0"
140
0.015625
141
12.0
290
     0
  0
SCALE
  5
5B
102
{ACAD_REACTORS
330
47
102
}
330
47
100
AcDbScale
 70
     0
300
1/32" = 1'-0"
140
0.03125
141
12.0
290
     0
  0
SCALE
  5
5C
102
{ACAD_REACTORS
330
47
102
}
330
47
100
AcDbScale
 70
     0
300
1/16" = 1'-0"
140
0.0625
141
12.0
290
     0
  0
SCALE
  5
5D
102
{ACAD_REACTORS
330
47
102
}
330
47
100
AcDbScale
 70
     0
300
3/32" = 1'-0"
140
0.09375
141
12.0
290
     0
  0
SCALE
  5
5E
102
{ACAD_REACTORS
330
47
102
}
330
47
100
AcDbScale
 70
     0
300
1/8" = 1'-0"
140
0.125
141
12.0
290
     0
  0
SCALE
  5
5F
102
{ACAD_REACTORS
330
47
102
}
330
47
100
AcDbScale
 70
     0
300
3/16" = 1'-0"
140
0.1875
141
12.0
290
     0
  0
SCALE
  5
60
102
{ACAD_REACTORS
330
47
102
}
330
47
100
AcDbScale
 70
     0
300
1/4" = 1'-0"
140
0.25
141
12.0
290
     0
  0
SCALE
  5
61
102
{ACAD_REACTORS
330
47
102
}
330
47
100
AcDbScale
 70
     0
300
3/8" = 1'-0"
140
0.375
141
12.0
290
     0
  0
SCALE
  5
62
102
{ACAD_REACTORS
330
47
102
}
330
47
100
AcDbScale
 70
     0
300
1/2" = 1'-0"
140
0.5
141
12.0
290
     0
  0
SCALE
  5
63
102
{ACAD_REACTORS
330
47
102
}
330
47
100
AcDbScale
 70
     0
300
3/4" = 1'-0"
140
0.75
141
12.0
290
     0
  0
SCALE
  5
64
102
{ACAD_REACTORS
330
47
102
}
330
47
100
AcDbScale
 70
     0
300
1" = 1'-0"
140
1.0
141
12.0
290
     0
  0
SCALE
  5
65
102
{ACAD_REACTORS
330
47
102
}
330
47
100
AcDbScale
 70
     0
300
1-1/2" = 1'-0"
140
1.5
141
12.0
290
     0
  0
SCALE
  5
66
102
{ACAD_REACTORS
330
47
102
}
330
47
100
AcDbScale
 70
     0
300
3" = 1'-0"
140
3.0
141
12.0
290
     0
  0
SCALE
  5
67
102
{ACAD_REACTORS
330
47
102
}
330
47
100
AcDbScale
 70
     0
300
6" = 1'-0"
140
6.0
141
12.0
290
     0
  0
SCALE
  5
68
102
{ACAD_REACTORS
330
47
102
}
330
47
100
AcDbScale
 70
     0
300
1'-0" = 1'-0"
140
12.0
141
12.0
290
     0
  0
ENDSEC
  0
EOF
