  0
SECTION
  2
HEADER
  9
$ACADVER
  1
AC1015
  9
$ACADMAINTVER
 70
     6
  9
$DWGCODEPAGE
  3
ANSI_1252
  9
$INSBASE
 10
0.0
 20
0.0
 30
0.0
  9
$EXTMIN
 10
0.0
 20
0.0
 30
0.0
  9
$EXTMAX
 10
297.0
 20
210.0
 30
0.0
  9
$LIMMIN
 10
0.0
 20
0.0
  9
$LIMMAX
 10
297.0
 20
210.0
  9
$ORTHOMODE
 70
     0
  9
$REGENMODE
 70
     1
  9
$FILLMODE
 70
     1
  9
$QTEXTMODE
 70
     0
  9
$MIRRTEXT
 70
     1
  9
$LTSCALE
 40
1.0
  9
$ATTMODE
 70
     1
  9
$TEXTSIZE
 40
2.0
  9
$TRACEWID
 40
1.0
  9
$TEXTSTYLE
  7
Standard
  9
$CLAYER
  8
0
  9
$CELTYPE
  6
ByLayer
  9
$CECOLOR
 62
   256
  9
$CELTSCALE
 40
1.0
  9
$DISPSILH
 70
     0
  9
$DIMSCALE
 40
1.0
  9
$DIMASZ
 40
3.0
  9
$DIMEXO
 40
0.0
  9
$DIMDLI
 40
3.75
  9
$DIMRND
 40
0.0
  9
$DIMDLE
 40
0.0
  9
$DIMEXE
 40
1.0
  9
$DIMTP
 40
0.0
  9
$DIMTM
 40
0.0
  9
$DIMTXT
 40
2.0
  9
$DIMCEN
 40
2.5
  9
$DIMTSZ
 40
0.0
  9
$DIMTOL
 70
     0
  9
$DIMLIM
 70
     0
  9
$DIMTIH
 70
     1
  9
$DIMTOH
 70
     1
  9
$DIMSE1
 70
     0
  9
$DIMSE2
 70
     0
  9
$DIMTAD
 70
     1
  9
$DIMZIN
 70
     0
  9
$DIMBLK
  1

  9
$DIMASO
 70
     1
  9
$DIMSHO
 70
     1
  9
$DIMPOST
  1

  9
$DIMAPOST
  1

  9
$DIMALT
 70
     0
  9
$DIMALTD
 70
     3
  9
$DIMALTF
 40
0.0393700787
  9
$DIMLFAC
 40
1.0
  9
$DIMTOFL
 70
     1
  9
$DIMTVP
 40
0.0
  9
$DIMTIX
 70
     0
  9
$DIMSOXD
 70
     0
  9
$DIMSAH
 70
     0
  9
$DIMBLK1
  1

  9
$DIMBLK2
  1

  9
$DIMSTYLE
  2
ISO-25
  9
$DIMCLRD
 70
     0
  9
$DIMCLRE
 70
     0
  9
$DIMCLRT
 70
     0
  9
$DIMTFAC
 40
1.0
  9
$DIMGAP
 40
1.524
  9
$DIMJUST
 70
     0
  9
$DIMSD1
 70
     0
  9
$DIMSD2
 70
     0
  9
$DIMTOLJ
 70
     0
  9
$DIMTZIN
 70
     0
  9
$DIMALTZ
 70
     0
  9
$DIMALTTZ
 70
     0
  9
$DIMUPT
 70
     0
  9
$DIMDEC
 70
     2
  9
$DIMTDEC
 70
     3
  9
$DIMALTU
 70
     2
  9
$DIMALTTD
 70
     3
  9
$DIMTXSTY
  7
Standard
  9
$DIMAUNIT
 70
     0
  9
$DIMADEC
 70
     2
  9
$DIMALTRND
 40
0.0
  9
$DIMAZIN
 70
     0
  9
$DIMDSEP
 70
    44
  9
$DIMATFIT
 70
     3
  9
$DIMFRAC
 70
     0
  9
$DIMLDRBLK
  1

  9
$DIMLUNIT
 70
     2
  9
$DIMLWD
 70
    -2
  9
$DIMLWE
 70
    -2
  9
$DIMTMOVE
 70
     0
  9
$LUNITS
 70
     2
  9
$LUPREC
 70
     2
  9
$SKETCHINC
 40
1.0
  9
$FILLETRAD
 40
10.0
  9
$AUNITS
 70
     0
  9
$AUPREC
 70
     2
  9
$MENU
  1
.
  9
$ELEVATION
 40
0.0
  9
$PELEVATION
 40
0.0
  9
$THICKNESS
 40
0.0
  9
$LIMCHECK
 70
     0
  9
$CHAMFERA
 40
0.0
  9
$CHAMFERB
 40
0.0
  9
$CHAMFERC
 40
0.0
  9
$CHAMFERD
 40
0.0
  9
$SKPOLY
 70
     0
  9
$TDCREATE
 40
2457626.635422511
  9
$TDUCREATE
 40
2457626.552089178
  9
$TDUPDATE
 40
2457626.635423901
  9
$TDUUPDATE
 40
2457626.552090567
  9
$TDINDWG
 40
0.0000000116
  9
$TDUSRTIMER
 40
0.0000000116
  9
$USRTIMER
 70
     1
  9
$ANGBASE
 50
0.0
  9
$ANGDIR
 70
     0
  9
$PDMODE
 70
     0
  9
$PDSIZE
 40
-1.0
  9
$PLINEWID
 40
0.0
  9
$SPLFRAME
 70
     0
  9
$SPLINETYPE
 70
     6
  9
$SPLINESEGS
 70
     8
  9
$HANDSEED
  5
299
  9
$SURFTAB1
 70
     6
  9
$SURFTAB2
 70
     6
  9
$SURFTYPE
 70
     6
  9
$SURFU
 70
     6
  9
$SURFV
 70
     6
  9
$UCSBASE
  2

  9
$UCSNAME
  2

  9
$UCSORG
 10
0.0
 20
0.0
 30
0.0
  9
$UCSXDIR
 10
1.0
 20
0.0
 30
0.0
  9
$UCSYDIR
 10
0.0
 20
1.0
 30
0.0
  9
$UCSORTHOREF
  2

  9
$UCSORTHOVIEW
 70
     0
  9
$UCSORGTOP
 10
0.0
 20
0.0
 30
0.0
  9
$UCSORGBOTTOM
 10
0.0
 20
0.0
 30
0.0
  9
$UCSORGLEFT
 10
0.0
 20
0.0
 30
0.0
  9
$UCSORGRIGHT
 10
0.0
 20
0.0
 30
0.0
  9
$UCSORGFRONT
 10
0.0
 20
0.0
 30
0.0
  9
$UCSORGBACK
 10
0.0
 20
0.0
 30
0.0
  9
$PUCSBASE
  2

  9
$PUCSNAME
  2

  9
$PUCSORG
 10
0.0
 20
0.0
 30
0.0
  9
$PUCSXDIR
 10
1.0
 20
0.0
 30
0.0
  9
$PUCSYDIR
 10
0.0
 20
1.0
 30
0.0
  9
$PUCSORTHOREF
  2

  9
$PUCSORTHOVIEW
 70
     0
  9
$PUCSORGTOP
 10
0.0
 20
0.0
 30
0.0
  9
$PUCSORGBOTTOM
 10
0.0
 20
0.0
 30
0.0
  9
$PUCSORGLEFT
 10
0.0
 20
0.0
 30
0.0
  9
$PUCSORGRIGHT
 10
0.0
 20
0.0
 30
0.0
  9
$PUCSORGFRONT
 10
0.0
 20
0.0
 30
0.0
  9
$PUCSORGBACK
 10
0.0
 20
0.0
 30
0.0
  9
$USERI1
 70
     0
  9
$USERI2
 70
     0
  9
$USERI3
 70
     0
  9
$USERI4
 70
     0
  9
$USERI5
 70
     0
  9
$USERR1
 40
0.0
  9
$USERR2
 40
0.0
  9
$USERR3
 40
0.0
  9
$USERR4
 40
0.0
  9
$USERR5
 40
0.0
  9
$WORLDVIEW
 70
     1
  9
$SHADEDGE
 70
     3
  9
$SHADEDIF
 70
    70
  9
$TILEMODE
 70
     1
  9
$MAXACTVP
 70
    64
  9
$PINSBASE
 10
0.0
 20
0.0
 30
0.0
  9
$PLIMCHECK
 70
     0
  9
$PEXTMIN
 10
1.0000000000E+20
 20
1.0000000000E+20
 30
1.0000000000E+20
  9
$PEXTMAX
 10
-1.0000000000E+20
 20
-1.0000000000E+20
 30
-1.0000000000E+20
  9
$PLIMMIN
 10
0.0
 20
0.0
  9
$PLIMMAX
 10
420.0
 20
297.0
  9
$UNITMODE
 70
     0
  9
$VISRETAIN
 70
     1
  9
$PLINEGEN
 70
     0
  9
$PSLTSCALE
 70
     1
  9
$TREEDEPTH
 70
  3020
  9
$CMLSTYLE
  2
Standard
  9
$CMLJUST
 70
     0
  9
$CMLSCALE
 40
20.0
  9
$PROXYGRAPHICS
 70
     1
  9
$MEASUREMENT
 70
     1
  9
$CELWEIGHT
370
    -1
  9
$ENDCAPS
280
     0
  9
$JOINSTYLE
280
     0
  9
$LWDISPLAY
290
     1
  9
$INSUNITS
 70
     4
  9
$HYPERLINKBASE
  1

  9
$STYLESHEET
  1

  9
$XEDIT
290
     1
  9
$CEPSNTYPE
380
     0
  9
$PSTYLEMODE
290
     1
  9
$FINGERPRINTGUID
  2
{7EB75583-0649-407A-8C7F-33B2E75BE8F1}
  9
$VERSIONGUID
  2
{FAEB1C32-E019-11D5-929B-00C0DF256EC4}
  9
$EXTNAMES
290
     1
  9
$PSVPSCALE
 40
0.0
  9
$OLESTARTUP
290
     0
  0
ENDSEC
  0
SECTION
  2
CLASSES
  0
CLASS
  1
ACDBDICTIONARYWDFLT
  2
AcDbDictionaryWithDefault
  3
ObjectDBX Classes
 90
        0
280
     0
281
     0
  0
CLASS
  1
VISUALSTYLE
  2
AcDbVisualStyle
  3
ObjectDBX Classes
 90
     4095
280
     0
281
     0
  0
CLASS
  1
MATERIAL
  2
AcDbMaterial
  3
ObjectDBX Classes
 90
     1153
280
     0
281
     0
  0
CLASS
  1
SCALE
  2
AcDbScale
  3
ObjectDBX Classes
 90
     1153
280
     0
281
     0
  0
CLASS
  1
TABLESTYLE
  2
AcDbTableStyle
  3
ObjectDBX Classes
 90
     4095
280
     0
281
     0
  0
CLASS
  1
MLEADERSTYLE
  2
AcDbMLeaderStyle
  3
ACDB_MLEADERSTYLE_CLASS
 90
     4095
280
     0
281
     0
  0
CLASS
  1
SUN
  2
AcDbSun
  3
SCENEOE
 90
     1153
280
     0
281
     0
  0
CLASS
  1
ACDBPLACEHOLDER
  2
AcDbPlaceHolder
  3
ObjectDBX Classes
 90
        0
280
     0
281
     0
  0
CLASS
  1
LAYOUT
  2
AcDbLayout
  3
ObjectDBX Classes
 90
        0
280
     0
281
     0
  0
ENDSEC
  0
SECTION
  2
TABLES
  0
TABLE
  2
VPORT
  5
8
330
0
100
AcDbSymbolTable
 70
     1
  0
VPORT
  5
29
330
8
100
AcDbSymbolTableRecord
100
AcDbViewportTableRecord
  2
*Active
 70
     0
 10
0.0
 20
0.0
 11
1.0
 21
1.0
 12
148.5
 22
105.0
 13
0.0
 23
0.0
 14
10.0
 24
10.0
 15
10.0
 25
10.0
 16
0.0
 26
0.0
 36
1.0
 17
0.0
 27
0.0
 37
0.0
 40
210.0
 41
1.4142857143
 42
50.0
 43
0.0
 44
0.0
 50
0.0
 51
0.0
 71
     0
 72
  2000
 73
     1
 74
     3
 75
     0
 76
     0
 77
     0
 78
     0
281
     0
 65
     1
110
0.0
120
0.0
130
0.0
111
1.0
121
0.0
131
0.0
112
0.0
122
1.0
132
0.0
 79
     0
146
0.0
  0
ENDTAB
  0
TABLE
  2
LTYPE
  5
5
330
0
100
AcDbSymbolTable
 70
     6
  0
LTYPE
  5
14
330
5
100
AcDbSymbolTableRecord
100
AcDbLinetypeTableRecord
  2
ByBlock
 70
     0
  3

 72
    65
 73
     0
 40
0.0
  0
LTYPE
  5
15
330
5
100
AcDbSymbolTableRecord
100
AcDbLinetypeTableRecord
  2
ByLayer
 70
     0
  3

 72
    65
 73
     0
 40
0.0
  0
LTYPE
  5
16
330
5
100
AcDbSymbolTableRecord
100
AcDbLinetypeTableRecord
  2
Continuous
 70
     0
  3
Solid line
 72
    65
 73
     0
 40
0.0
  0
LTYPE
  5
6E
330
5
100
AcDbSymbolTableRecord
100
AcDbLinetypeTableRecord
  2
HIDDEN
 70
     0
  3
Hidden __ __ __ __ __ __ __ __ __ __ __ __ __ __
 72
    65
 73
     2
 40
1.905
 49
1.27
 74
     0
 49
-0.635
 74
     0
  0
LTYPE
  5
6F
330
5
100
AcDbSymbolTableRecord
100
AcDbLinetypeTableRecord
  2
PHANTOM
 70
     0
  3
Phantom ______  __  __  ______  __  __  ______
 72
    65
 73
     6
 40
12.7
 49
6.35
 74
     0
 49
-1.27
 74
     0
 49
1.27
 74
     0
 49
-1.27
 74
     0
 49
1.27
 74
     0
 49
-1.27
 74
     0
  0
LTYPE
  5
70
330
5
100
AcDbSymbolTableRecord
100
AcDbLinetypeTableRecord
  2
CENTER
 70
     0
  3
Center ____ _ ____ _ ____ _ ____ _ ____ _ ____
 72
    65
 73
     4
 40
10.16
 49
6.35
 74
     0
 49
-1.27
 74
     0
 49
1.27
 74
     0
 49
-1.27
 74
     0
  0
LTYPE
  5
71
330
5
100
AcDbSymbolTableRecord
100
AcDbLinetypeTableRecord
  2
CENTERX2
 70
     0
  3
Center (2x) ________  __  ________  __  _____
 72
    65
 73
     4
 40
20.32
 49
12.7
 74
     0
 49
-2.54
 74
     0
 49
2.54
 74
     0
 49
-2.54
 74
     0
  0
LTYPE
  5
72
330
5
100
AcDbSymbolTableRecord
100
AcDbLinetypeTableRecord
  2
DOT2
 70
     0
  3
Dot (.5x) ........................................
 72
    65
 73
     2
 40
0.635
 49
0.0
 74
     0
 49
-0.635
 74
     0
  0
ENDTAB
  0
TABLE
  2
LAYER
  5
2
330
0
100
AcDbSymbolTable
 70
     5
  0
LAYER
  5
10
330
2
100
AcDbSymbolTableRecord
100
AcDbLayerTableRecord
  2
0
 70
     0
 62
     7
  6
Continuous
370
    -3
390
F
  0
LAYER
  5
73
330
2
100
AcDbSymbolTableRecord
100
AcDbLayerTableRecord
  2
FORMAT
 70
     0
 62
     7
  6
Continuous
370
    -3
390
F
  0
LAYER
  5
74
330
2
100
AcDbSymbolTableRecord
100
AcDbLayerTableRecord
  2
VERMASSUNG
 70
     0
 62
     7
  6
Continuous
370
    -3
390
F
  0
LAYER
  5
75
330
2
100
AcDbSymbolTableRecord
100
AcDbLayerTableRecord
  2
KOPF_DÜNN
 70
     0
 62
     7
  6
Continuous
370
    -3
390
F
  0
LAYER
  5
76
330
2
100
AcDbSymbolTableRecord
100
AcDbLayerTableRecord
  2
KOPF_DICK
 70
     0
 62
     7
  6
Continuous
370
    15
390
F
  0
ENDTAB
  0
TABLE
  2
STYLE
  5
3
330
0
100
AcDbSymbolTable
 70
     3
  0
STYLE
  5
11
330
3
100
AcDbSymbolTableRecord
100
AcDbTextStyleTableRecord
  2
Standard
 70
     0
 40
0.0
 41
1.0
 50
0.0
 71
     0
 42
2.0
  3
txt
  4

  0
STYLE
  5
77
330
3
100
AcDbSymbolTableRecord
100
AcDbTextStyleTableRecord
  2
SLDTEXTSTYLE0
 70
     0
 40
0.0
 41
0.7
 50
0.0
 71
     0
 42
2.0
  3
TXT
  4

  0
STYLE
  5
7B
330
3
100
AcDbSymbolTableRecord
100
AcDbTextStyleTableRecord
  2
SLDTEXTSTYLE1
 70
     0
 40
0.0
 41
0.65
 50
0.0
 71
     0
 42
2.0
  3
TXT
  4

  0
ENDTAB
  0
TABLE
  2
VIEW
  5
6
330
0
100
AcDbSymbolTable
 70
     0
  0
ENDTAB
  0
TABLE
  2
UCS
  5
7
330
0
100
AcDbSymbolTable
 70
     0
  0
ENDTAB
  0
TABLE
  2
APPID
  5
9
330
0
100
AcDbSymbolTable
 70
     1
  0
APPID
  5
12
330
9
100
AcDbSymbolTableRecord
100
AcDbRegAppTableRecord
  2
ACAD
 70
     0
  0
ENDTAB
  0
TABLE
  2
DIMSTYLE
  5
A
330
0
100
AcDbSymbolTable
 70
     3
100
AcDbDimStyleTable
  0
DIMSTYLE
105
27
330
A
100
AcDbSymbolTableRecord
100
AcDbDimStyleTableRecord
  2
ISO-25
 70
     0
 41
2.5
 42
0.625
 43
3.75
 44
1.25
 73
     0
 74
     0
 77
     1
 78
     8
140
2.5
141
2.5
143
0.0393700787
147
0.625
171
     3
172
     1
178
     0
271
     2
272
     2
274
     3
278
    44
283
     0
284
     8
340
11
  0
DIMSTYLE
105
191
102
{ACAD_REACTORS
330
190
330
19C
330
1A6
330
1B0
330
1BA
102
}
330
A
100
AcDbSymbolTableRecord
100
AcDbDimStyleTableRecord
  2
SLDDIMSTYLE0
 70
     0
 41
3.0
 44
0.0
 45
0.000000001
 73
     0
 74
     0
 77
     1
 78
    12
 79
     3
140
2.0
147
0.5
173
     1
178
     0
271
     2
272
     3
276
     2
284
    12
340
77
  0
DIMSTYLE
105
1CC
330
A
100
AcDbSymbolTableRecord
100
AcDbDimStyleTableRecord
  2
SLDDIMSTYLE1
 70
     0
 41
0.9
 44
0.0
 45
0.000000001
146
0.9
147
0.0
173
     1
178
     0
271
     0
272
     0
276
     2
340
11
341
1CD
343
1CD
344
1CD
  0
ENDTAB
  0
TABLE
  2
BLOCK_RECORD
  5
1
330
0
100
AcDbSymbolTable
 70
    10
  0
BLOCK_RECORD
  5
1F
330
1
100
AcDbSymbolTableRecord
100
AcDbBlockTableRecord
  2
*Model_Space
340
22
  0
BLOCK_RECORD
  5
1B
330
1
100
AcDbSymbolTableRecord
100
AcDbBlockTableRecord
  2
*Paper_Space
340
1E
  0
BLOCK_RECORD
  5
23
330
1
100
AcDbSymbolTableRecord
100
AcDbBlockTableRecord
  2
*Paper_Space0
340
26
  0
BLOCK_RECORD
  5
7E
330
1
100
AcDbSymbolTableRecord
100
AcDbBlockTableRecord
  2
SW_TABLEANNOTATION_0
340
0
102
{BLKREFS
331
99
102
}
  0
BLOCK_RECORD
  5
192
330
1
100
AcDbSymbolTableRecord
100
AcDbBlockTableRecord
  2
_D
340
0
  0
BLOCK_RECORD
  5
19D
330
1
100
AcDbSymbolTableRecord
100
AcDbBlockTableRecord
  2
_D_1
340
0
  0
BLOCK_RECORD
  5
1A7
330
1
100
AcDbSymbolTableRecord
100
AcDbBlockTableRecord
  2
_D_2
340
0
  0
BLOCK_RECORD
  5
1B1
330
1
100
AcDbSymbolTableRecord
100
AcDbBlockTableRecord
  2
_D_3
340
0
  0
BLOCK_RECORD
  5
1BB
330
1
100
AcDbSymbolTableRecord
100
AcDbBlockTableRecord
  2
_D_4
340
0
  0
BLOCK_RECORD
  5
1C6
330
1
100
AcDbSymbolTableRecord
100
AcDbBlockTableRecord
  2
SW_NOTE_0
340
0
102
{BLKREFS
331
1CB
102
}
  0
BLOCK_RECORD
  5
1CD
330
1
100
AcDbSymbolTableRecord
100
AcDbBlockTableRecord
  2
_DOT
340
0
  0
BLOCK_RECORD
  5
1D6
330
1
100
AcDbSymbolTableRecord
100
AcDbBlockTableRecord
  2
SW_NOTE_1
340
0
102
{BLKREFS
331
1DB
102
}
  0
ENDTAB
  0
ENDSEC
  0
SECTION
  2
BLOCKS
  0
BLOCK
  5
20
330
1F
100
AcDbEntity
  8
0
100
AcDbBlockBegin
  2
*Model_Space
 70
     0
 10
0.0
 20
0.0
 30
0.0
  3
*Model_Space
  1

  0
ENDBLK
  5
21
330
1F
100
AcDbEntity
  8
0
100
AcDbBlockEnd
  0
BLOCK
  5
1C
330
1B
100
AcDbEntity
 67
     1
  8
0
100
AcDbBlockBegin
  2
*Paper_Space
 70
     0
 10
0.0
 20
0.0
 30
0.0
  3
*Paper_Space
  1

  0
ENDBLK
  5
1D
330
1B
100
AcDbEntity
 67
     1
  8
0
100
AcDbBlockEnd
  0
BLOCK
  5
24
330
23
100
AcDbEntity
  8
0
100
AcDbBlockBegin
  2
*Paper_Space0
 70
     0
 10
0.0
 20
0.0
 30
0.0
  3
*Paper_Space0
  1

  0
ENDBLK
  5
25
330
23
100
AcDbEntity
  8
0
100
AcDbBlockEnd
  0
BLOCK
  5
7F
330
7E
100
AcDbEntity
  8
0
100
AcDbBlockBegin
  2
SW_TABLEANNOTATION_0
 70
     0
 10
0.0
 20
0.0
 30
0.0
  3
SW_TABLEANNOTATION_0
  1

  0
LINE
  5
81
330
7E
100
AcDbEntity
  8
0
  6
Continuous
 62
     0
370
     0
100
AcDbLine
 10
0.0
 20
0.0
 30
0.0
 11
0.0
 21
-10.9613963039
 31
0.0
  0
LINE
  5
82
330
7E
100
AcDbEntity
  8
0
  6
Continuous
 62
     0
370
     0
100
AcDbLine
 10
0.0
 20
-10.9613963039
 30
0.0
 11
125.0044361962
 21
-10.9613963039
 31
0.0
  0
LINE
  5
83
330
7E
100
AcDbEntity
  8
0
  6
Continuous
 62
     0
370
     0
100
AcDbLine
 10
125.0044361962
 20
-10.9613963039
 30
0.0
 11
125.0044361962
 21
0.0
 31
0.0
  0
LINE
  5
84
330
7E
100
AcDbEntity
  8
0
  6
Continuous
 62
     0
370
     0
100
AcDbLine
 10
125.0044361962
 20
0.0
 30
0.0
 11
0.0
 21
0.0
 31
0.0
  0
LINE
  5
85
330
7E
100
AcDbEntity
  8
0
  6
Continuous
 62
     0
370
     0
100
AcDbLine
 10
15.9651052694
 20
-7.3075975359
 30
0.0
 11
15.9651052694
 21
-10.9613963039
 31
0.0
  0
LINE
  5
86
330
7E
100
AcDbEntity
  8
0
  6
Continuous
 62
     0
370
     0
100
AcDbLine
 10
34.1012448998
 20
-7.3075975359
 30
0.0
 11
34.1012448998
 21
-10.9613963039
 31
0.0
  0
LINE
  5
87
330
7E
100
AcDbEntity
  8
0
  6
Continuous
 62
     0
370
     0
100
AcDbLine
 10
92.6586456418
 20
-7.3075975359
 30
0.0
 11
92.6586456418
 21
-10.9613963039
 31
0.0
  0
LINE
  5
88
330
7E
100
AcDbEntity
  8
0
  6
Continuous
 62
     0
370
     0
100
AcDbLine
 10
15.9651052694
 20
0.0
 30
0.0
 11
15.9651052694
 21
-7.3075975359
 31
0.0
  0
LINE
  5
89
330
7E
100
AcDbEntity
  8
0
  6
Continuous
 62
     0
370
     0
100
AcDbLine
 10
34.1012448998
 20
0.0
 30
0.0
 11
34.1012448998
 21
-7.3075975359
 31
0.0
  0
LINE
  5
8A
330
7E
100
AcDbEntity
  8
0
  6
Continuous
 62
     0
370
     0
100
AcDbLine
 10
92.6586456418
 20
0.0
 30
0.0
 11
92.6586456418
 21
-7.3075975359
 31
0.0
  0
LINE
  5
8B
330
7E
100
AcDbEntity
  8
0
  6
Continuous
 62
     0
370
     0
100
AcDbLine
 10
0.0
 20
-3.653798768
 30
0.0
 11
125.0044361962
 21
-3.653798768
 31
0.0
  0
LINE
  5
8C
330
7E
100
AcDbEntity
  8
0
  6
Continuous
 62
     0
370
     0
100
AcDbLine
 10
0.0
 20
-7.3075975359
 30
0.0
 11
125.0044361962
 21
-7.3075975359
 31
0.0
  0
MTEXT
  5
8D
330
7E
100
AcDbEntity
  8
0
  6
Continuous
 62
     0
370
     0
100
AcDbMText
 10
5.2825527975
 20
-7.9563615651
 30
0.0
 40
2.0
 41
0.0
 71
     1
 72
     1
  1
POS.
  7
SLDTEXTSTYLE0
 73
     1
 44
1.0
  0
MTEXT
  5
8E
330
7E
100
AcDbEntity
  8
0
  6
Continuous
 62
     0
370
     0
100
AcDbMText
 10
21.1331751904
 20
-7.9563615651
 30
0.0
 40
2.0
 41
0.0
 71
     1
 72
     1
  1
MENGE
  7
SLDTEXTSTYLE0
 73
     1
 44
1.0
  0
MTEXT
  5
8F
330
7E
100
AcDbEntity
  8
0
  6
Continuous
 62
     0
370
     0
100
AcDbMText
 10
56.0799464956
 20
-7.9563615651
 30
0.0
 40
2.0
 41
0.0
 71
     1
 72
     1
  1
Bezeichnung
  7
SLDTEXTSTYLE0
 73
     1
 44
1.0
  0
MTEXT
  5
90
330
7E
100
AcDbEntity
  8
0
  6
Continuous
 62
     0
370
     0
100
AcDbMText
 10
97.7315420798
 20
-7.9563615651
 30
0.0
 40
2.0
 41
0.0
 71
     1
 72
     1
  1
Zeichnungsnummer
  7
SLDTEXTSTYLE0
 73
     1
 44
1.0
  0
MTEXT
  5
91
330
7E
100
AcDbEntity
  8
0
  6
Continuous
 62
     0
370
     0
100
AcDbMText
 10
7.2825526596
 20
-0.9171773494
 30
0.0
 40
2.0
 41
0.0
 71
     1
 72
     1
  1
2
  7
SLDTEXTSTYLE0
 73
     1
 44
1.0
  0
MTEXT
  5
92
330
7E
100
AcDbEntity
  8
0
  6
Continuous
 62
     0
370
     0
100
AcDbMText
 10
24.5331750608
 20
-0.9171773494
 30
0.0
 40
2.0
 41
0.0
 71
     1
 72
     1
  1
1
  7
SLDTEXTSTYLE0
 73
     1
 44
1.0
  0
MTEXT
  5
93
330
7E
100
AcDbEntity
  8
0
  6
Continuous
 62
     0
370
     0
100
AcDbMText
 10
54.2799467594
 20
-0.9171773494
 30
0.0
 40
2.0
 41
0.0
 71
     1
 72
     1
  1
Klemmschraube
  7
SLDTEXTSTYLE0
 73
     1
 44
1.0
  0
MTEXT
  5
94
330
7E
100
AcDbEntity
  8
0
  6
Continuous
 62
     0
370
     0
100
AcDbMText
 10
99.2315413943
 20
-0.9171773494
 30
0.0
 40
2.0
 41
0.0
 71
     1
 72
     1
  1
MB4-ER1.001.013
  7
SLDTEXTSTYLE0
 73
     1
 44
1.0
  0
MTEXT
  5
95
330
7E
100
AcDbEntity
  8
0
  6
Continuous
 62
     0
370
     0
100
AcDbMText
 10
7.4825526109
 20
-4.5709761174
 30
0.0
 40
2.0
 41
0.0
 71
     1
 72
     1
  1
1
  7
SLDTEXTSTYLE0
 73
     1
 44
1.0
  0
MTEXT
  5
96
330
7E
100
AcDbEntity
  8
0
  6
Continuous
 62
     0
370
     0
100
AcDbMText
 10
24.5331750608
 20
-4.5709761174
 30
0.0
 40
2.0
 41
0.0
 71
     1
 72
     1
  1
1
  7
SLDTEXTSTYLE0
 73
     1
 44
1.0
  0
MTEXT
  5
97
330
7E
100
AcDbEntity
  8
0
  6
Continuous
 62
     0
370
     0
100
AcDbMText
 10
54.2799448967
 20
-4.5709761174
 30
0.0
 40
2.0
 41
0.0
 71
     1
 72
     1
  1
Aufnahme MBM
  7
SLDTEXTSTYLE0
 73
     1
 44
1.0
  0
MTEXT
  5
98
330
7E
100
AcDbEntity
  8
0
  6
Continuous
 62
     0
370
     0
100
AcDbMText
 10
98.5315416521
 20
-4.5709761174
 30
0.0
 40
2.0
 41
0.0
 71
     1
 72
     1
  1
SK4-MB4.K01.099
  7
SLDTEXTSTYLE0
 73
     1
 44
1.0
  0
ENDBLK
  5
80
330
7E
100
AcDbEntity
  8
0
100
AcDbBlockEnd
  0
BLOCK
  5
193
330
192
100
AcDbEntity
  8
0
100
AcDbBlockBegin
  2
_D
 70
     0
 10
0.0
 20
0.0
 30
0.0
  3
_D
  1

  0
SOLID
  5
195
330
192
100
AcDbEntity
  8
VERMASSUNG
100
AcDbTrace
 10
50.6997044749
 20
168.3960124848
 30
0.0
 11
50.2497044749
 21
165.3960124848
 31
0.0
 12
51.1497044749
 22
165.3960124848
 32
0.0
 13
51.1497044749
 23
165.3960124848
 33
0.0
  0
SOLID
  5
196
330
192
100
AcDbEntity
  8
VERMASSUNG
100
AcDbTrace
 10
50.6997044749
 20
104.8960124848
 30
0.0
 11
51.1497044749
 21
107.8960124848
 31
0.0
 12
50.2497044749
 22
107.8960124848
 32
0.0
 13
50.2497044749
 23
107.8960124848
 33
0.0
  0
LINE
  5
197
330
192
100
AcDbEntity
  8
VERMASSUNG
100
AcDbLine
 10
127.9997384414
 20
168.3960124848
 30
0.0
 11
49.6997044749
 21
168.3960124848
 31
0.0
  0
LINE
  5
198
330
192
100
AcDbEntity
  8
VERMASSUNG
100
AcDbLine
 10
127.9997384414
 20
104.8960124848
 30
0.0
 11
49.6997044749
 21
104.8960124848
 31
0.0
  0
LINE
  5
199
330
192
100
AcDbEntity
  8
VERMASSUNG
100
AcDbLine
 10
50.6997044749
 20
168.3960124848
 30
0.0
 11
50.6997044749
 21
104.8960124848
 31
0.0
  0
MTEXT
  5
19A
330
192
100
AcDbEntity
  8
VERMASSUNG
100
AcDbMText
 10
48.1215689372
 20
132.8671532656
 30
0.0
 40
2.0
 41
0.0
 71
     1
 72
     1
  1
%%c
  7
SLDTEXTSTYLE0
 11
-7.044195017643634E-15
 21
1.0
 31
0.0
 73
     1
 44
1.0
  0
MTEXT
  5
19B
330
192
100
AcDbEntity
  8
VERMASSUNG
100
AcDbMText
 10
48.121568879
 20
136.4761254593
 30
0.0
 40
2.0
 41
0.0
 71
     1
 72
     1
  1
63.5
  7
SLDTEXTSTYLE0
 11
-7.044195017643634E-15
 21
1.0
 31
0.0
 73
     1
 44
1.0
  0
ENDBLK
  5
194
330
192
100
AcDbEntity
  8
0
100
AcDbBlockEnd
  0
BLOCK
  5
19E
330
19D
100
AcDbEntity
  8
0
100
AcDbBlockBegin
  2
_D_1
 70
     0
 10
0.0
 20
0.0
 30
0.0
  3
_D_1
  1

  0
SOLID
  5
1A0
330
19D
100
AcDbEntity
  8
VERMASSUNG
100
AcDbTrace
 10
223.2997384414
 20
181.3798859957
 30
0.0
 11
220.2997384414
 21
181.8298859957
 31
0.0
 12
220.2997384414
 22
180.9298859957
 32
0.0
 13
220.2997384414
 23
180.9298859957
 33
0.0
  0
SOLID
  5
1A1
330
19D
100
AcDbEntity
  8
VERMASSUNG
100
AcDbTrace
 10
124.1997384414
 20
181.3798859957
 30
0.0
 11
127.1997384414
 21
180.9298859957
 31
0.0
 12
127.1997384414
 22
181.8298859957
 32
0.0
 13
127.1997384414
 23
181.8298859957
 33
0.0
  0
LINE
  5
1A2
330
19D
100
AcDbEntity
  8
VERMASSUNG
100
AcDbLine
 10
223.2997384414
 20
157.2460124848
 30
0.0
 11
223.2997384414
 21
182.3798859957
 31
0.0
  0
LINE
  5
1A3
330
19D
100
AcDbEntity
  8
VERMASSUNG
100
AcDbLine
 10
124.1997384414
 20
158.8710124848
 30
0.0
 11
124.1997384414
 21
182.3798859957
 31
0.0
  0
LINE
  5
1A4
330
19D
100
AcDbEntity
  8
VERMASSUNG
100
AcDbLine
 10
223.2997384414
 20
181.3798859957
 30
0.0
 11
124.1997384414
 21
181.3798859957
 31
0.0
  0
MTEXT
  5
1A5
330
19D
100
AcDbEntity
  8
VERMASSUNG
100
AcDbMText
 10
171.8974698402
 20
183.9580215917
 30
0.0
 40
2.0
 41
0.0
 71
     1
 72
     1
  1
99.1
  7
SLDTEXTSTYLE0
 73
     1
 44
1.0
  0
ENDBLK
  5
19F
330
19D
100
AcDbEntity
  8
0
100
AcDbBlockEnd
  0
BLOCK
  5
1A8
330
1A7
100
AcDbEntity
  8
0
100
AcDbBlockBegin
  2
_D_2
 70
     0
 10
0.0
 20
0.0
 30
0.0
  3
_D_2
  1

  0
SOLID
  5
1AA
330
1A7
100
AcDbEntity
  8
VERMASSUNG
100
AcDbTrace
 10
223.2997384414
 20
175.3798859957
 30
0.0
 11
220.2997384414
 21
175.8298859957
 31
0.0
 12
220.2997384414
 22
174.9298859957
 32
0.0
 13
220.2997384414
 23
174.9298859957
 33
0.0
  0
SOLID
  5
1AB
330
1A7
100
AcDbEntity
  8
VERMASSUNG
100
AcDbTrace
 10
143.2497384414
 20
175.3798859957
 30
0.0
 11
146.2497384414
 21
174.9298859957
 31
0.0
 12
146.2497384414
 22
175.8298859957
 32
0.0
 13
146.2497384414
 23
175.8298859957
 33
0.0
  0
LINE
  5
1AC
330
1A7
100
AcDbEntity
  8
VERMASSUNG
100
AcDbLine
 10
223.2997384414
 20
154.6460124848
 30
0.0
 11
223.2997384414
 21
176.3798859957
 31
0.0
  0
LINE
  5
1AD
330
1A7
100
AcDbEntity
  8
VERMASSUNG
100
AcDbLine
 10
143.2497384414
 20
167.7960124848
 30
0.0
 11
143.2497384414
 21
176.3798859957
 31
0.0
  0
LINE
  5
1AE
330
1A7
100
AcDbEntity
  8
VERMASSUNG
100
AcDbLine
 10
223.2997384414
 20
175.3798859957
 30
0.0
 11
143.2497384414
 21
175.3798859957
 31
0.0
  0
MTEXT
  5
1AF
330
1A7
100
AcDbEntity
  8
VERMASSUNG
100
AcDbMText
 10
178.4004534243
 20
177.9580215917
 30
0.0
 40
2.0
 41
0.0
 71
     1
 72
     1
  1
80.05
  7
SLDTEXTSTYLE0
 73
     1
 44
1.0
  0
ENDBLK
  5
1A9
330
1A7
100
AcDbEntity
  8
0
100
AcDbBlockEnd
  0
BLOCK
  5
1B2
330
1B1
100
AcDbEntity
  8
0
100
AcDbBlockBegin
  2
_D_3
 70
     0
 10
0.0
 20
0.0
 30
0.0
  3
_D_3
  1

  0
SOLID
  5
1B4
330
1B1
100
AcDbEntity
  8
VERMASSUNG
100
AcDbTrace
 10
223.2997384414
 20
187.3798859957
 30
0.0
 11
220.2997384414
 21
187.8298859957
 31
0.0
 12
220.2997384414
 22
186.9298859957
 32
0.0
 13
220.2997384414
 23
186.9298859957
 33
0.0
  0
SOLID
  5
1B5
330
1B1
100
AcDbEntity
  8
VERMASSUNG
100
AcDbTrace
 10
55.9497384414
 20
187.3798859957
 30
0.0
 11
58.9497384414
 21
186.9298859957
 31
0.0
 12
58.9497384414
 22
187.8298859957
 32
0.0
 13
58.9497384414
 23
187.8298859957
 33
0.0
  0
LINE
  5
1B6
330
1B1
100
AcDbEntity
  8
VERMASSUNG
100
AcDbLine
 10
223.2997384414
 20
157.2460124848
 30
0.0
 11
223.2997384414
 21
188.3798859957
 31
0.0
  0
LINE
  5
1B7
330
1B1
100
AcDbEntity
  8
VERMASSUNG
100
AcDbLine
 10
55.9497384414
 20
148.0531430819
 30
0.0
 11
55.9497384414
 21
188.3798859957
 31
0.0
  0
LINE
  5
1B8
330
1B1
100
AcDbEntity
  8
VERMASSUNG
100
AcDbLine
 10
223.2997384414
 20
187.3798859957
 30
0.0
 11
55.9497384414
 21
187.3798859957
 31
0.0
  0
MTEXT
  5
1B9
330
1B1
100
AcDbEntity
  8
VERMASSUNG
100
AcDbMText
 10
142.6633430709
 20
189.9580215917
 30
0.0
 40
2.0
 41
0.0
 71
     1
 72
     1
  1
167.35
  7
SLDTEXTSTYLE0
 73
     1
 44
1.0
  0
ENDBLK
  5
1B3
330
1B1
100
AcDbEntity
  8
0
100
AcDbBlockEnd
  0
BLOCK
  5
1BC
330
1BB
100
AcDbEntity
  8
0
100
AcDbBlockBegin
  2
_D_4
 70
     0
 10
0.0
 20
0.0
 30
0.0
  3
_D_4
  1

  0
SOLID
  5
1BE
330
1BB
100
AcDbEntity
  8
VERMASSUNG
100
AcDbTrace
 10
232.5548640842
 20
157.6460124848
 30
0.0
 11
232.1048640842
 21
154.6460124848
 31
0.0
 12
233.0048640842
 22
154.6460124848
 32
0.0
 13
233.0048640842
 23
154.6460124848
 33
0.0
  0
SOLID
  5
1BF
330
1BB
100
AcDbEntity
  8
VERMASSUNG
100
AcDbTrace
 10
232.5548640842
 20
115.6460124848
 30
0.0
 11
233.0048640842
 21
118.6460124848
 31
0.0
 12
232.1048640842
 22
118.6460124848
 32
0.0
 13
232.1048640842
 23
118.6460124848
 33
0.0
  0
LINE
  5
1C0
330
1BB
100
AcDbEntity
  8
VERMASSUNG
100
AcDbLine
 10
222.8997384414
 20
157.6460124848
 30
0.0
 11
233.5548640842
 21
157.6460124848
 31
0.0
  0
LINE
  5
1C1
330
1BB
100
AcDbEntity
  8
VERMASSUNG
100
AcDbLine
 10
222.8997384414
 20
115.6460124848
 30
0.0
 11
233.5548640842
 21
115.6460124848
 31
0.0
  0
LINE
  5
1C2
330
1BB
100
AcDbEntity
  8
VERMASSUNG
100
AcDbLine
 10
232.5548640842
 20
157.6460124848
 30
0.0
 11
232.5548640842
 21
115.6460124848
 31
0.0
  0
MTEXT
  5
1C3
330
1BB
100
AcDbEntity
  8
VERMASSUNG
100
AcDbMText
 10
229.776728828
 20
130.4977843246
 30
0.0
 40
2.0
 41
0.0
 71
     1
 72
     1
  1
MBM
  7
SLDTEXTSTYLE0
 11
-7.044195017643634E-15
 21
1.0
 31
0.0
 73
     1
 44
1.0
  0
MTEXT
  5
1C4
330
1BB
100
AcDbEntity
  8
VERMASSUNG
100
AcDbMText
 10
229.9767287793
 20
136.8977841629
 30
0.0
 40
2.0
 41
0.0
 71
     1
 72
     1
  1
%%c
  7
SLDTEXTSTYLE0
 11
-7.044195017643634E-15
 21
1.0
 31
0.0
 73
     1
 44
1.0
  0
MTEXT
  5
1C5
330
1BB
100
AcDbEntity
  8
VERMASSUNG
100
AcDbMText
 10
229.776728828
 20
140.5077846429
 30
0.0
 40
2.0
 41
0.0
 71
     1
 72
     1
  1
42
  7
SLDTEXTSTYLE0
 11
-7.044195017643634E-15
 21
1.0
 31
0.0
 73
     1
 44
1.0
  0
ENDBLK
  5
1BD
330
1BB
100
AcDbEntity
  8
0
100
AcDbBlockEnd
  0
BLOCK
  5
1C7
330
1C6
100
AcDbEntity
  8
0
100
AcDbBlockBegin
  2
SW_NOTE_0
 70
     0
 10
0.0
 20
0.0
 30
0.0
  3
SW_NOTE_0
  1

  0
CIRCLE
  5
1C9
330
1C6
100
AcDbEntity
  8
VERMASSUNG
 62
     0
100
AcDbCircle
 10
0.0
 20
-2.5028270988
 30
0.0
 40
2.50282709876212
  0
MTEXT
  5
1CA
330
1C6
100
AcDbEntity
  8
VERMASSUNG
 62
     0
100
AcDbMText
 10
-0.0000000237
 20
-1.8101961014
 30
0.0
 40
2.0
 41
0.0
 71
     2
 72
     1
  1
1
  7
SLDTEXTSTYLE0
 73
     1
 44
1.0
  0
ENDBLK
  5
1C8
330
1C6
100
AcDbEntity
  8
0
100
AcDbBlockEnd
  0
BLOCK
  5
1CE
330
1CD
100
AcDbEntity
  8
0
100
AcDbBlockBegin
  2
_DOT
 70
     0
 10
0.0
 20
0.0
 30
0.0
  3
_DOT
  1

  0
POLYLINE
  5
1D0
330
1CD
100
AcDbEntity
  8
0
  6
ByBlock
 62
     0
100
AcDb2dPolyline
 66
     1
 10
0.0
 20
0.0
 30
0.0
 70
     1
 40
0.5
 41
0.5
  0
VERTEX
  5
1D2
330
1D0
100
AcDbEntity
  8
0
  6
ByBlock
 62
     0
100
AcDbVertex
100
AcDb2dVertex
 10
-0.25
 20
0.0
 30
0.0
 42
1.0
  0
VERTEX
  5
1D3
330
1D0
100
AcDbEntity
  8
0
  6
ByBlock
 62
     0
100
AcDbVertex
100
AcDb2dVertex
 10
0.25
 20
0.0
 30
0.0
 42
1.0
  0
SEQEND
  5
1D4
330
1D0
100
AcDbEntity
  8
0
  6
ByBlock
 62
     0
  0
LINE
  5
1D1
330
1CD
100
AcDbEntity
  8
0
  6
ByBlock
 62
     0
370
    -2
100
AcDbLine
 10
-0.5
 20
0.0
 30
0.0
 11
-1.0
 21
0.0
 31
0.0
  0
ENDBLK
  5
1CF
330
1CD
100
AcDbEntity
  8
0
100
AcDbBlockEnd
  0
BLOCK
  5
1D7
330
1D6
100
AcDbEntity
  8
0
100
AcDbBlockBegin
  2
SW_NOTE_1
 70
     0
 10
0.0
 20
0.0
 30
0.0
  3
SW_NOTE_1
  1

  0
CIRCLE
  5
1D9
330
1D6
100
AcDbEntity
  8
VERMASSUNG
 62
     0
100
AcDbCircle
 10
0.0
 20
2.5028270988
 30
0.0
 40
2.50282709876215
  0
MTEXT
  5
1DA
330
1D6
100
AcDbEntity
  8
VERMASSUNG
 62
     0
100
AcDbMText
 10
-0.012499975
 20
3.1954580961
 30
0.0
 40
2.0
 41
0.0
 71
     2
 72
     1
  1
2
  7
SLDTEXTSTYLE0
 73
     1
 44
1.0
  0
ENDBLK
  5
1D8
330
1D6
100
AcDbEntity
  8
0
100
AcDbBlockEnd
  0
ENDSEC
  0
SECTION
  2
ENTITIES
  0
MTEXT
  5
78
330
1F
100
AcDbEntity
  8
KOPF_DÜNN
100
AcDbMText
 10
13.8892156294
 20
23.8442973028
 30
0.0
 40
3.0
 41
0.0
 71
     1
 72
     1
  1
102.415.422
  7
SLDTEXTSTYLE0
 73
     1
 44
1.0
  0
MTEXT
  5
79
330
1F
100
AcDbEntity
  8
VERMASSUNG
100
AcDbMText
 10
13.9329988022
 20
28.8834360957
 30
0.0
 40
3.0
 41
0.0
 71
     1
 72
     1
  1
Aufnahme_Master shank MBM 42
  7
SLDTEXTSTYLE0
 73
     1
 44
1.0
  0
MTEXT
  5
7A
330
1F
100
AcDbEntity
  8
VERMASSUNG
100
AcDbMText
 10
98.8601118557
 20
13.8365368761
 30
0.0
 40
2.0
 41
0.0
 71
     1
 72
     1
  1
Datum: 04.08.2006
  7
SLDTEXTSTYLE0
 73
     1
 44
1.0
  0
MTEXT
  5
7C
330
1F
100
AcDbEntity
  8
VERMASSUNG
100
AcDbMText
 10
13.933048693
 20
18.0482802738
 30
0.0
 40
2.0
 41
0.0
 71
     1
 72
     1
  1
DIN 69 871 AD 40
  7
SLDTEXTSTYLE1
 73
     1
 44
1.0
  0
MTEXT
  5
7D
330
1F
100
AcDbEntity
  8
VERMASSUNG
100
AcDbMText
 10
13.9808475933
 20
13.9090974274
 30
0.0
 40
2.0
 41
0.0
 71
     1
 72
     1
  1
Gewicht: 1562g
  7
SLDTEXTSTYLE0
 73
     1
 44
1.0
  0
INSERT
  5
99
330
1F
100
AcDbEntity
  8
0
  6
Continuous
 62
     7
370
     0
100
AcDbBlockReference
  2
SW_TABLEANNOTATION_0
 10
155.4069348624
 20
22.9491325334
 30
0.0
  0
ARC
  5
9A
330
1F
100
AcDbEntity
  8
0
  6
Continuous
 62
     7
370
    15
100
AcDbCircle
 10
142.6497384414
 20
105.4960124848
 30
0.0
 40
0.6000000000000085
100
AcDbArc
 50
270.0
 51
0.0
  0
ARC
  5
9B
330
1F
100
AcDbEntity
  8
0
  6
Continuous
 62
     7
370
    15
100
AcDbCircle
 10
142.6497384414
 20
167.7960124848
 30
0.0
 40
0.5999999999999943
100
AcDbArc
 50
0.0
 51
90.0
  0
ARC
  5
9C
330
1F
100
AcDbEntity
  8
0
  6
Continuous
 62
     7
370
    15
100
AcDbCircle
 10
127.9997384414
 20
167.7960124848
 30
0.0
 40
0.6000000000000227
100
AcDbArc
 50
90.0
 51
180.0
  0
ARC
  5
9D
330
1F
100
AcDbEntity
  8
0
  6
Continuous
 62
     7
370
    15
100
AcDbCircle
 10
127.9997384414
 20
105.4960124848
 30
0.0
 40
0.6000000000000085
100
AcDbArc
 50
180.0
 51
270.0
  0
LINE
  5
9E
330
1F
100
AcDbEntity
  8
0
  6
Continuous
 62
     7
370
    15
100
AcDbLine
 10
131.7779017994
 20
104.8960124848
 30
0.0
 11
133.3897384414
 21
107.6877954424
 31
0.0
  0
LINE
  5
9F
330
1F
100
AcDbEntity
  8
0
  6
Continuous
 62
     7
370
    15
100
AcDbLine
 10
127.9997384414
 20
104.8960124848
 30
0.0
 11
131.7779017994
 21
104.8960124848
 31
0.0
  0
LINE
  5
A0
330
1F
100
AcDbEntity
  8
0
  6
Continuous
 62
     7
370
    15
100
AcDbLine
 10
138.8215750835
 20
104.8960124848
 30
0.0
 11
142.6497384414
 21
104.8960124848
 31
0.0
  0
LINE
  5
A1
330
1F
100
AcDbEntity
  8
0
  6
Continuous
 62
     7
370
    15
100
AcDbLine
 10
131.7779017994
 20
168.3960124848
 30
0.0
 11
127.9997384414
 21
168.3960124848
 31
0.0
  0
LINE
  5
A2
330
1F
100
AcDbEntity
  8
0
  6
Continuous
 62
     7
370
    15
100
AcDbLine
 10
133.3897384414
 20
165.6042295273
 30
0.0
 11
131.7779017994
 21
168.3960124848
 31
0.0
  0
LINE
  5
A3
330
1F
100
AcDbEntity
  8
0
  6
Continuous
 62
     7
370
    15
100
AcDbLine
 10
142.6497384414
 20
168.3960124848
 30
0.0
 11
138.8215750835
 21
168.3960124848
 31
0.0
  0
LINE
  5
A4
330
1F
100
AcDbEntity
  8
0
  6
Continuous
 62
     7
370
    15
100
AcDbLine
 10
137.2097384414
 20
107.6877954424
 30
0.0
 11
138.8215750835
 21
104.8960124848
 31
0.0
  0
LINE
  5
A5
330
1F
100
AcDbEntity
  8
0
  6
Continuous
 62
     7
370
    15
100
AcDbLine
 10
138.8215750835
 20
168.3960124848
 30
0.0
 11
137.2097384414
 21
165.6042295273
 31
0.0
  0
ARC
  5
A6
330
1F
100
AcDbEntity
  8
0
  6
Continuous
 62
     7
370
    15
100
AcDbCircle
 10
136.4097384414
 20
165.4460124848
 30
0.0
 40
0.8000000000000114
100
AcDbArc
 50
270.0
 51
0.0
  0
ARC
  5
A7
330
1F
100
AcDbEntity
  8
0
  6
Continuous
 62
     7
370
    15
100
AcDbCircle
 10
134.1897384414
 20
107.8460124848
 30
0.0
 40
0.7999999999999972
100
AcDbArc
 50
90.0
 51
180.0
  0
ARC
  5
A8
330
1F
100
AcDbEntity
  8
0
  6
Continuous
 62
     7
370
    15
100
AcDbCircle
 10
136.4097384414
 20
107.8460124848
 30
0.0
 40
0.8000000000000114
100
AcDbArc
 50
0.0
 51
90.0
  0
ARC
  5
A9
330
1F
100
AcDbEntity
  8
0
  6
Continuous
 62
     7
370
    15
100
AcDbCircle
 10
134.1897384414
 20
165.4460124848
 30
0.0
 40
0.8000000000000114
100
AcDbArc
 50
180.0
 51
270.0
  0
LINE
  5
AA
330
1F
100
AcDbEntity
  8
0
  6
Continuous
 62
     7
370
    15
100
AcDbLine
 10
134.1897384414
 20
108.6460124848
 30
0.0
 11
136.4097384414
 21
108.6460124848
 31
0.0
  0
LINE
  5
AB
330
1F
100
AcDbEntity
  8
0
  6
Continuous
 62
     7
370
    15
100
AcDbLine
 10
136.4097384414
 20
164.6460124848
 30
0.0
 11
134.1897384414
 21
164.6460124848
 31
0.0
  0
ARC
  5
AC
330
1F
100
AcDbEntity
  8
0
  6
Continuous
 62
     7
370
    15
100
AcDbCircle
 10
147.2497384414
 20
111.6460124848
 30
0.0
 40
4.0
100
AcDbArc
 50
90.0
 51
180.0
  0
ARC
  5
AD
330
1F
100
AcDbEntity
  8
0
  6
Continuous
 62
     7
370
    15
100
AcDbCircle
 10
147.2497384414
 20
161.6460124848
 30
0.0
 40
4.0
100
AcDbArc
 50
180.0
 51
270.0
  0
ARC
  5
AE
330
1F
100
AcDbEntity
  8
0
  6
Continuous
 62
     7
370
    15
100
AcDbCircle
 10
126.7997384414
 20
113.8210124848
 30
0.0
 40
0.6000000000000227
100
AcDbArc
 50
0.0
 51
90.0
  0
ARC
  5
AF
330
1F
100
AcDbEntity
  8
0
  6
Continuous
 62
     7
370
    15
100
AcDbCircle
 10
126.7997384414
 20
159.4710124848
 30
0.0
 40
0.6000000000000227
100
AcDbArc
 50
270.0
 51
0.0
  0
LINE
  5
B0
330
1F
100
AcDbEntity
  8
0
  6
Continuous
 62
     7
370
    15
100
AcDbLine
 10
124.1997384414
 20
114.4210124848
 30
0.0
 11
126.7997384414
 21
114.4210124848
 31
0.0
  0
LINE
  5
B1
330
1F
100
AcDbEntity
  8
0
  6
Continuous
 62
     7
370
    15
100
AcDbLine
 10
126.7997384414
 20
158.8710124848
 30
0.0
 11
124.1997384414
 21
158.8710124848
 31
0.0
  0
LINE
  5
B2
330
1F
100
AcDbEntity
  8
0
  6
Continuous
 62
     7
370
    15
100
AcDbLine
 10
124.1997384414
 20
158.8710124848
 30
0.0
 11
56.8054315484
 21
149.0426760629
 31
0.0
  0
LINE
  5
B3
330
1F
100
AcDbEntity
  8
0
  6
Continuous
 62
     7
370
    15
100
AcDbLine
 10
56.8054315484
 20
124.2493489068
 30
0.0
 11
124.1997384414
 21
114.4210124848
 31
0.0
  0
LINE
  5
B4
330
1F
100
AcDbEntity
  8
0
  6
Continuous
 62
     7
370
    15
100
AcDbLine
 10
147.2497384414
 20
115.6460124848
 30
0.0
 11
222.8997384414
 21
115.6460124848
 31
0.0
  0
LINE
  5
B5
330
1F
100
AcDbEntity
  8
0
  6
Continuous
 62
     7
370
    15
100
AcDbLine
 10
203.2497384414
 20
157.6460124848
 30
0.0
 11
147.2497384414
 21
157.6460124848
 31
0.0
  0
LINE
  5
B6
330
1F
100
AcDbEntity
  8
0
  6
Continuous
 62
     7
370
    15
100
AcDbLine
 10
222.8997384414
 20
157.6460124848
 30
0.0
 11
218.2497384414
 21
157.6460124848
 31
0.0
  0
LINE
  5
B7
330
1F
100
AcDbEntity
  8
0
  6
Continuous
 62
     7
370
    15
100
AcDbLine
 10
222.8997384414
 20
115.6460124848
 30
0.0
 11
223.2997384414
 21
116.0460124848
 31
0.0
  0
LINE
  5
B8
330
1F
100
AcDbEntity
  8
0
  6
Continuous
 62
     7
370
    15
100
AcDbLine
 10
223.2997384414
 20
157.2460124848
 30
0.0
 11
222.8997384414
 21
157.6460124848
 31
0.0
  0
ARC
  5
B9
330
1F
100
AcDbEntity
  8
0
  6
Continuous
 62
     7
370
    15
100
AcDbCircle
 10
56.9497384414
 20
125.2388818878
 30
0.0
 40
1.000000000000009
100
AcDbArc
 50
180.0
 51
261.7028550302
  0
ARC
  5
BA
330
1F
100
AcDbEntity
  8
0
  6
Continuous
 62
     7
370
    15
100
AcDbCircle
 10
56.9497384414
 20
148.0531430819
 30
0.0
 40
1.000000000000009
100
AcDbArc
 50
98.2971449698
 51
180.0
  0
LINE
  5
BB
330
1F
100
AcDbEntity
  8
0
  6
Continuous
 62
     7
370
    15
100
AcDbLine
 10
216.6326625686
 20
157.2630883577
 30
0.0
 11
216.2497384414
 21
157.6460124848
 31
0.0
  0
LINE
  5
BC
330
1F
100
AcDbEntity
  8
0
  6
Continuous
 62
     7
370
    15
100
AcDbLine
 10
205.2497384414
 20
157.6460124848
 30
0.0
 11
204.8658578542
 21
157.2621318976
 31
0.0
  0
LINE
  5
BD
330
1F
100
AcDbEntity
  8
0
  6
Continuous
 62
     7
370
    15
100
AcDbLine
 10
138.3645280451
 20
128.5960124848
 30
0.0
 11
143.2497384414
 21
128.5960124848
 31
0.0
  0
LINE
  5
BE
330
1F
100
AcDbEntity
  8
0
  6
Continuous
 62
     7
370
    15
100
AcDbLine
 10
143.2497384414
 20
128.5960124848
 30
0.0
 11
143.2497384414
 21
128.364304805
 31
0.0
  0
SPLINE
  5
BF
330
1F
100
AcDbEntity
  8
0
  6
Continuous
 62
     7
370
    15
100
AcDbSpline
210
0.0
220
0.0
230
1.0
 70
     8
 71
     3
 72
    14
 73
    10
 74
     0
 42
0.000000001
 43
0.00000001
 40
0.0
 40
0.0
 40
0.0
 40
0.0
 40
0.25
 40
0.25
 40
0.5
 40
0.5
 40
0.75
 40
0.75
 40
1.0
 40
1.0
 40
1.0
 40
1.0
 10
143.2497384414218
 20
128.3643048050362
 30
0.0
 10
143.2497384414218
 20
128.2825061872799
 30
0.0
 10
143.2385611725756
 20
128.2023367883198
 30
0.0
 10
143.1922842864309
 20
128.0454849549061
 30
0.0
 10
143.1567249905663
 20
127.9686370055882
 30
0.0
 10
143.0583938744672
 20
127.8302886400379
 30
0.0
 10
142.9950552003422
 20
127.7677577537443
 30
0.0
 10
142.8376171146294
 20
127.6750880462401
 30
0.0
 10
142.7453169019488
 20
127.6473363417204
 30
0.0
 10
142.6497384414218
 20
127.6473363417204
 30
0.0
  0
LINE
  5
C0
330
1F
100
AcDbEntity
  8
0
  6
Continuous
 62
     7
370
    15
100
AcDbLine
 10
142.6497384414
 20
127.6473363417
 30
0.0
 11
138.8215750835
 21
127.6473363417
 31
0.0
  0
SPLINE
  5
C1
330
1F
100
AcDbEntity
  8
0
  6
Continuous
 62
     7
370
    15
100
AcDbSpline
210
0.0
220
0.0
230
1.0
 70
     8
 71
     3
 72
     8
 73
     4
 74
     0
 42
0.000000001
 43
0.00000001
 40
0.0
 40
0.0
 40
0.0
 40
0.0
 40
0.0011901715795577
 40
0.0011901715795577
 40
0.0011901715795577
 40
0.0011901715795577
 10
138.8215750834785
 20
127.6473363417204
 30
0.0
 10
138.6677288939826
 20
127.9630210641773
 30
0.0
 10
138.51533362631
 20
128.2792362280407
 30
0.0
 10
138.3645280451255
 20
128.5960124848479
 30
0.0
  0
LINE
  5
C2
330
1F
100
AcDbEntity
  8
0
  6
Continuous
 62
     7
370
    15
100
AcDbLine
 10
143.2497384414
 20
105.4960124848
 30
0.0
 11
143.2497384414
 21
128.364304805
 31
0.0
  0
SPLINE
  5
C3
330
1F
100
AcDbEntity
  8
0
  6
Continuous
 62
     7
370
    15
100
AcDbSpline
210
0.0
220
0.0
230
1.0
 70
     8
 71
     3
 72
    12
 73
     8
 74
     0
 42
0.000000001
 43
0.00000001
 40
0.0
 40
0.0
 40
0.0
 40
0.0
 40
0.2499999999999999
 40
0.2499999999999999
 40
0.4999999999999998
 40
0.4999999999999998
 40
1.0
 40
1.0
 40
1.0
 40
1.0
 10
142.6497384414218
 20
145.6446886279754
 30
0.0
 10
142.7452803515578
 20
145.6446886279754
 30
0.0
 10
142.8374252934206
 20
145.6168879699885
 30
0.0
 10
142.9937515700305
 20
145.5251948662934
 30
0.0
 10
143.0574197126505
 20
145.4629164214294
 30
0.0
 10
143.2062875580808
 20
145.2540332764574
 30
0.0
 10
143.2497384414218
 20
145.091281902941
 30
0.0
 10
143.2497384414218
 20
144.9277201646597
 30
0.0
  0
LINE
  5
C4
330
1F
100
AcDbEntity
  8
0
  6
Continuous
 62
     7
370
    15
100
AcDbLine
 10
143.2497384414
 20
144.9277201647
 30
0.0
 11
143.2497384414
 21
167.7960124848
 31
0.0
  0
LINE
  5
C5
330
1F
100
AcDbEntity
  8
0
  6
Continuous
 62
     7
370
    15
100
AcDbLine
 10
143.2497384414
 20
144.9277201647
 30
0.0
 11
143.2497384414
 21
144.6960124848
 31
0.0
  0
LINE
  5
C6
330
1F
100
AcDbEntity
  8
0
  6
Continuous
 62
     7
370
    15
100
AcDbLine
 10
143.2497384414
 20
144.6960124848
 30
0.0
 11
138.3645280451
 21
144.6960124848
 31
0.0
  0
SPLINE
  5
C7
330
1F
100
AcDbEntity
  8
0
  6
Continuous
 62
     7
370
    15
100
AcDbSpline
210
0.0
220
0.0
230
1.0
 70
     8
 71
     3
 72
     8
 73
     4
 74
     0
 42
0.000000001
 43
0.00000001
 40
0.0
 40
0.0
 40
0.0
 40
0.0
 40
0.0011901715795577
 40
0.0011901715795577
 40
0.0011901715795577
 40
0.0011901715795577
 10
138.3645280451255
 20
144.6960124848479
 30
0.0
 10
138.51533362631
 20
145.0127887416551
 30
0.0
 10
138.6677288939826
 20
145.3290039055185
 30
0.0
 10
138.8215750834785
 20
145.6446886279754
 30
0.0
  0
LINE
  5
C8
330
1F
100
AcDbEntity
  8
0
  6
Continuous
 62
     7
370
    15
100
AcDbLine
 10
138.8215750835
 20
145.644688628
 30
0.0
 11
142.6497384414
 21
145.644688628
 31
0.0
  0
LINE
  5
C9
330
1F
100
AcDbEntity
  8
0
  6
Continuous
 62
     7
370
    15
100
AcDbLine
 10
132.2349488377
 20
144.6960124848
 30
0.0
 11
128.3997384414
 21
144.6960124848
 31
0.0
  0
LINE
  5
CA
330
1F
100
AcDbEntity
  8
0
  6
Continuous
 62
     7
370
    15
100
AcDbLine
 10
128.3997384414
 20
144.6960124848
 30
0.0
 11
127.6158829828
 21
145.4798679435
 31
0.0
  0
SPLINE
  5
CB
330
1F
100
AcDbEntity
  8
0
  6
Continuous
 62
     7
370
    15
100
AcDbSpline
210
0.0
220
0.0
230
1.0
 70
     8
 71
     3
 72
    10
 73
     6
 74
     0
 42
0.000000001
 43
0.00000001
 40
0.0
 40
0.0
 40
0.0
 40
0.0
 40
0.5
 40
0.5
 40
1.0
 40
1.0
 40
1.0
 40
1.0
 10
127.6158829827691
 20
145.4798679435007
 30
0.0
 10
127.6646529557504
 20
145.5281497907912
 30
0.0
 10
127.7221050790527
 20
145.5693617684538
 30
0.0
 10
127.8527019820414
 20
145.627966818513
 30
0.0
 10
127.9251916618836
 20
145.6446886279755
 30
0.0
 10
127.9997384414218
 20
145.6446886279755
 30
0.0
  0
LINE
  5
CC
330
1F
100
AcDbEntity
  8
0
  6
Continuous
 62
     7
370
    15
100
AcDbLine
 10
127.9997384414
 20
145.644688628
 30
0.0
 11
131.7779017994
 21
145.644688628
 31
0.0
  0
SPLINE
  5
CD
330
1F
100
AcDbEntity
  8
0
  6
Continuous
 62
     7
370
    15
100
AcDbSpline
210
0.0
220
0.0
230
1.0
 70
     8
 71
     3
 72
     8
 73
     4
 74
     0
 42
0.000000001
 43
0.00000001
 40
0.0
 40
0.0
 40
0.0
 40
0.0
 40
0.0011901715795577
 40
0.0011901715795577
 40
0.0011901715795577
 40
0.0011901715795577
 10
131.7779017993651
 20
145.6446886279754
 30
0.0
 10
131.931747988861
 20
145.3290039055185
 30
0.0
 10
132.0841432565337
 20
145.0127887416551
 30
0.0
 10
132.2349488377182
 20
144.6960124848479
 30
0.0
  0
SPLINE
  5
CE
330
1F
100
AcDbEntity
  8
0
  6
Continuous
 62
     7
370
    15
100
AcDbSpline
210
0.0
220
0.0
230
1.0
 70
    24
 71
     3
 72
    10
 73
     6
 74
     0
 42
0.000000001
 43
0.00000001
 40
0.0
 40
0.0
 40
0.0
 40
0.0
 40
0.5
 40
0.5
 40
1.0
 40
1.0
 40
1.0
 40
1.0
 10
127.6158829827691
 20
145.4798679435007
 30
0.0
 10
127.5577603226929
 20
145.5379906035768
 30
0.0
 10
127.5053571566894
 20
145.5903937695803
 30
0.0
 10
127.4264541351431
 20
145.6692967911267
 30
0.0
 10
127.3997384414218
 20
145.6960124848479
 30
0.0
 10
127.3997384414218
 20
145.6960124848479
 30
0.0
  0
LINE
  5
CF
330
1F
100
AcDbEntity
  8
0
  6
Continuous
 62
     7
370
    15
100
AcDbLine
 10
127.3997384414
 20
145.6960124848
 30
0.0
 11
127.3997384414
 21
167.7960124848
 31
0.0
  0
LINE
  5
D0
330
1F
100
AcDbEntity
  8
0
  6
Continuous
 62
     7
370
    15
100
AcDbLine
 10
127.6158829828
 20
127.8121570262
 30
0.0
 11
128.3997384414
 21
128.5960124848
 31
0.0
  0
LINE
  5
D1
330
1F
100
AcDbEntity
  8
0
  6
Continuous
 62
     7
370
    15
100
AcDbLine
 10
128.3997384414
 20
128.5960124848
 30
0.0
 11
132.2349488377
 21
128.5960124848
 31
0.0
  0
SPLINE
  5
D2
330
1F
100
AcDbEntity
  8
0
  6
Continuous
 62
     7
370
    15
100
AcDbSpline
210
0.0
220
0.0
230
1.0
 70
     8
 71
     3
 72
     8
 73
     4
 74
     0
 42
0.000000001
 43
0.00000001
 40
0.0
 40
0.0
 40
0.0
 40
0.0
 40
0.0011901715795577
 40
0.0011901715795577
 40
0.0011901715795577
 40
0.0011901715795577
 10
132.2349488377182
 20
128.5960124848479
 30
0.0
 10
132.0841432565337
 20
128.2792362280407
 30
0.0
 10
131.931747988861
 20
127.9630210641773
 30
0.0
 10
131.7779017993651
 20
127.6473363417204
 30
0.0
  0
LINE
  5
D3
330
1F
100
AcDbEntity
  8
0
  6
Continuous
 62
     7
370
    15
100
AcDbLine
 10
131.7779017994
 20
127.6473363417
 30
0.0
 11
127.9997384414
 21
127.6473363417
 31
0.0
  0
SPLINE
  5
D4
330
1F
100
AcDbEntity
  8
0
  6
Continuous
 62
     7
370
    15
100
AcDbSpline
210
0.0
220
0.0
230
1.0
 70
     8
 71
     3
 72
    10
 73
     6
 74
     0
 42
0.000000001
 43
0.00000001
 40
0.0
 40
0.0
 40
0.0
 40
0.0
 40
0.5
 40
0.5
 40
1.0
 40
1.0
 40
1.0
 40
1.0
 10
127.9997384414218
 20
127.6473363417204
 30
0.0
 10
127.9253387805029
 20
127.6473363417204
 30
0.0
 10
127.8527791840472
 20
127.6640537617884
 30
0.0
 10
127.7224108654283
 20
127.7224958142661
 30
0.0
 10
127.664628080265
 20
127.7638998054179
 30
0.0
 10
127.6158829827691
 20
127.8121570261951
 30
0.0
  0
LINE
  5
D5
330
1F
100
AcDbEntity
  8
0
  6
Continuous
 62
     7
370
    15
100
AcDbLine
 10
127.3997384414
 20
105.4960124848
 30
0.0
 11
127.3997384414
 21
127.5960124848
 31
0.0
  0
SPLINE
  5
D6
330
1F
100
AcDbEntity
  8
0
  6
Continuous
 62
     7
370
    15
100
AcDbSpline
210
0.0
220
0.0
230
1.0
 70
    24
 71
     3
 72
    10
 73
     6
 74
     0
 42
0.000000001
 43
0.00000001
 40
0.0
 40
0.0
 40
0.0
 40
0.0
 40
0.5
 40
0.5
 40
1.0
 40
1.0
 40
1.0
 40
1.0
 10
127.3997384414218
 20
127.5960124848479
 30
0.0
 10
127.3997384414219
 20
127.596012484848
 30
0.0
 10
127.4262652041074
 20
127.6225392475335
 30
0.0
 10
127.5051337157311
 20
127.7014077591572
 30
0.0
 10
127.557270722315
 20
127.7535447657411
 30
0.0
 10
127.6158829827691
 20
127.8121570261953
 30
0.0
  0
LINE
  5
D7
330
1F
100
AcDbEntity
  8
0
  6
Continuous
 62
     7
370
    15
100
AcDbLine
 10
133.3897384414
 20
107.6877954424
 30
0.0
 11
133.3897384414
 21
128.5960124848
 31
0.0
  0
LINE
  5
D8
330
1F
100
AcDbEntity
  8
0
  6
Continuous
 62
     7
370
    15
100
AcDbLine
 10
131.7779017994
 20
104.8960124848
 30
0.0
 11
131.7779017994
 21
127.6473363417
 31
0.0
  0
SPLINE
  5
D9
330
1F
100
AcDbEntity
  8
0
  6
Continuous
 62
     7
370
    15
100
AcDbSpline
210
0.0
220
0.0
230
1.0
 70
    24
 71
     3
 72
     8
 73
     4
 74
     0
 42
0.000000001
 43
0.00000001
 40
0.0
 40
0.0
 40
0.0
 40
0.0
 40
1.0
 40
1.0
 40
1.0
 40
1.0
 10
132.2349488377182
 20
128.5960124848479
 30
0.0
 10
132.6206174163445
 20
128.5960124848479
 30
0.0
 10
133.0056036928375
 20
128.5960124848479
 30
0.0
 10
133.3897384414218
 20
128.5960124848479
 30
0.0
  0
LINE
  5
DA
330
1F
100
AcDbEntity
  8
0
  6
Continuous
 62
     7
370
    15
100
AcDbLine
 10
138.8215750835
 20
104.8960124848
 30
0.0
 11
138.8215750835
 21
127.6473363417
 31
0.0
  0
LINE
  5
DB
330
1F
100
AcDbEntity
  8
0
  6
Continuous
 62
     7
370
    15
100
AcDbLine
 10
131.7779017994
 20
145.644688628
 30
0.0
 11
131.7779017994
 21
168.3960124848
 31
0.0
  0
SPLINE
  5
DC
330
1F
100
AcDbEntity
  8
0
  6
Continuous
 62
     7
370
    15
100
AcDbSpline
210
0.0
220
0.0
230
1.0
 70
    24
 71
     3
 72
     8
 73
     4
 74
     0
 42
0.000000001
 43
0.00000001
 40
0.0
 40
0.0
 40
0.0
 40
0.0
 40
1.0
 40
1.0
 40
1.0
 40
1.0
 10
133.3897384414218
 20
144.6960124848479
 30
0.0
 10
133.0056036928375
 20
144.6960124848479
 30
0.0
 10
132.6206174163445
 20
144.6960124848479
 30
0.0
 10
132.2349488377182
 20
144.6960124848479
 30
0.0
  0
LINE
  5
DD
330
1F
100
AcDbEntity
  8
0
  6
Continuous
 62
     7
370
    15
100
AcDbLine
 10
133.3897384414
 20
144.6960124848
 30
0.0
 11
133.3897384414
 21
165.6042295273
 31
0.0
  0
LINE
  5
DE
330
1F
100
AcDbEntity
  8
0
  6
Continuous
 62
     7
370
    15
100
AcDbLine
 10
138.8215750835
 20
145.644688628
 30
0.0
 11
138.8215750835
 21
168.3960124848
 31
0.0
  0
LINE
  5
DF
330
1F
100
AcDbEntity
  8
0
  6
Continuous
 62
     7
370
    15
100
AcDbLine
 10
137.2097384414
 20
107.6877954424
 30
0.0
 11
137.2097384414
 21
128.5960124848
 31
0.0
  0
SPLINE
  5
E0
330
1F
100
AcDbEntity
  8
0
  6
Continuous
 62
     7
370
    15
100
AcDbSpline
210
0.0
220
0.0
230
1.0
 70
    24
 71
     3
 72
     8
 73
     4
 74
     0
 42
0.000000001
 43
0.00000001
 40
0.0
 40
0.0
 40
0.0
 40
0.0
 40
1.0
 40
1.0
 40
1.0
 40
1.0
 10
137.2097384414218
 20
128.5960124848479
 30
0.0
 10
137.5938731900062
 20
128.5960124848479
 30
0.0
 10
137.9788594664991
 20
128.5960124848479
 30
0.0
 10
138.3645280451255
 20
128.5960124848479
 30
0.0
  0
SPLINE
  5
E1
330
1F
100
AcDbEntity
  8
0
  6
Continuous
 62
     7
370
    15
100
AcDbSpline
210
0.0
220
0.0
230
1.0
 70
    24
 71
     3
 72
     8
 73
     4
 74
     0
 42
0.000000001
 43
0.00000001
 40
0.0
 40
0.0
 40
0.0
 40
0.0
 40
1.0
 40
1.0
 40
1.0
 40
1.0
 10
138.3645280451255
 20
144.6960124848479
 30
0.0
 10
137.9788594664991
 20
144.6960124848479
 30
0.0
 10
137.5938731900062
 20
144.6960124848479
 30
0.0
 10
137.2097384414218
 20
144.6960124848479
 30
0.0
  0
LINE
  5
E2
330
1F
100
AcDbEntity
  8
0
  6
Continuous
 62
     7
370
    15
100
AcDbLine
 10
137.2097384414
 20
144.6960124848
 30
0.0
 11
137.2097384414
 21
165.6042295273
 31
0.0
  0
SPLINE
  5
E3
330
1F
100
AcDbEntity
  8
0
  6
Continuous
 62
     7
370
    15
100
AcDbSpline
210
0.0
220
0.0
230
1.0
 70
    24
 71
     3
 72
    12
 73
     8
 74
     0
 42
0.000000001
 43
0.00000001
 40
0.0
 40
0.0
 40
0.0
 40
0.0
 40
0.4999999999999987
 40
0.4999999999999987
 40
0.7499999999999993
 40
0.7499999999999993
 40
1.0
 40
1.0
 40
1.0
 40
1.0
 10
137.2097384414218
 20
144.6960124848479
 30
0.0
 10
137.2097384414218
 20
144.6960124848479
 30
0.0
 10
137.1278130836021
 20
144.6960124848479
 30
0.0
 10
136.9088912801337
 20
144.6960124848479
 30
0.0
 10
136.8188439886427
 20
144.6960124848479
 30
0.0
 10
136.6234305206228
 20
144.6960124848479
 30
0.0
 10
136.516147553639
 20
144.6960124848479
 30
0.0
 10
136.4097384414218
 20
144.6960124848479
 30
0.0
  0
SPLINE
  5
E4
330
1F
100
AcDbEntity
  8
0
  6
Continuous
 62
     7
370
    15
100
AcDbSpline
210
0.0
220
0.0
230
1.0
 70
    24
 71
     3
 72
    12
 73
     8
 74
     0
 42
0.000000001
 43
0.00000001
 40
0.0
 40
0.0
 40
0.0
 40
0.0
 40
0.5
 40
0.5
 40
0.75
 40
0.75
 40
1.0
 40
1.0
 40
1.0
 40
1.0
 10
133.3897384414218
 20
128.5960124848479
 30
0.0
 10
133.3897384414218
 20
128.5960124848479
 30
0.0
 10
133.4716637992416
 20
128.5960124848479
 30
0.0
 10
133.6905856027099
 20
128.5960124848479
 30
0.0
 10
133.780632894201
 20
128.5960124848479
 30
0.0
 10
133.9760463622208
 20
128.5960124848479
 30
0.0
 10
134.0833293292046
 20
128.5960124848479
 30
0.0
 10
134.1897384414218
 20
128.5960124848479
 30
0.0
  0
SPLINE
  5
E5
330
1F
100
AcDbEntity
  8
0
  6
Continuous
 62
     7
370
    15
100
AcDbSpline
210
0.0
220
0.0
230
1.0
 70
    24
 71
     3
 72
    12
 73
     8
 74
     0
 42
0.000000001
 43
0.00000001
 40
0.0
 40
0.0
 40
0.0
 40
0.0
 40
0.2500000000000015
 40
0.2500000000000015
 40
0.500000000000003
 40
0.500000000000003
 40
1.0
 40
1.0
 40
1.0
 40
1.0
 10
136.4097384414218
 20
128.5960124848479
 30
0.0
 10
136.517325042384
 20
128.5960124848479
 30
0.0
 10
136.6233297963534
 20
128.5960124848479
 30
0.0
 10
136.8199548427021
 20
128.5960124848479
 30
0.0
 10
136.9078400159242
 20
128.5960124848479
 30
0.0
 10
137.1283926090286
 20
128.5960124848479
 30
0.0
 10
137.2097384414218
 20
128.5960124848479
 30
0.0
 10
137.2097384414218
 20
128.5960124848479
 30
0.0
  0
SPLINE
  5
E6
330
1F
100
AcDbEntity
  8
0
  6
Continuous
 62
     7
370
    15
100
AcDbSpline
210
0.0
220
0.0
230
1.0
 70
    24
 71
     3
 72
    12
 73
     8
 74
     0
 42
0.000000001
 43
0.00000001
 40
0.0
 40
0.0
 40
0.0
 40
0.0
 40
0.2499999999999978
 40
0.2499999999999978
 40
0.4999999999999957
 40
0.4999999999999957
 40
1.0
 40
1.0
 40
1.0
 40
1.0
 10
134.1897384414218
 20
144.6960124848479
 30
0.0
 10
134.0821518404596
 20
144.6960124848479
 30
0.0
 10
133.9761470864902
 20
144.6960124848479
 30
0.0
 10
133.7795220401415
 20
144.6960124848479
 30
0.0
 10
133.6916368669195
 20
144.6960124848479
 30
0.0
 10
133.4710842738151
 20
144.6960124848479
 30
0.0
 10
133.3897384414218
 20
144.6960124848479
 30
0.0
 10
133.3897384414218
 20
144.6960124848479
 30
0.0
  0
LINE
  5
E7
330
1F
100
AcDbEntity
  8
0
  6
Continuous
 62
     7
370
    15
100
AcDbLine
 10
134.1897384414
 20
128.5960124848
 30
0.0
 11
136.4097384414
 21
128.5960124848
 31
0.0
  0
LINE
  5
E8
330
1F
100
AcDbEntity
  8
0
  6
Continuous
 62
     7
370
    15
100
AcDbLine
 10
136.4097384414
 20
144.6960124848
 30
0.0
 11
134.1897384414
 21
144.6960124848
 31
0.0
  0
LINE
  5
E9
330
1F
100
AcDbEntity
  8
0
  6
Continuous
 62
     7
370
    15
100
AcDbLine
 10
128.3997384414
 20
128.5960124848
 30
0.0
 11
127.7369967416
 21
130.1960124848
 31
0.0
  0
LINE
  5
EA
330
1F
100
AcDbEntity
  8
0
  6
Continuous
 62
     7
370
    15
100
AcDbLine
 10
127.3997384414
 20
127.5960124848
 30
0.0
 11
127.3997384414
 21
129.8587541846
 31
0.0
  0
SPLINE
  5
EB
330
1F
100
AcDbEntity
  8
0
  6
Continuous
 62
     7
370
    15
100
AcDbSpline
210
0.0
220
0.0
230
1.0
 70
     8
 71
     3
 72
    14
 73
    10
 74
     0
 42
0.000000001
 43
0.00000001
 40
0.0
 40
0.0
 40
0.0
 40
0.0
 40
0.2499999999999994
 40
0.2499999999999994
 40
0.4999999999999997
 40
0.4999999999999997
 40
0.7499999999999999
 40
0.7499999999999999
 40
1.0
 40
1.0
 40
1.0
 40
1.0
 10
143.2497384414218
 20
144.6145708000088
 30
0.0
 10
143.2497384414218
 20
144.5609722202813
 30
0.0
 10
143.2605823904951
 20
144.4836271721237
 30
0.0
 10
143.3007697670321
 20
144.2830083497943
 30
0.0
 10
143.3290825845604
 20
144.1647429108574
 30
0.0
 10
143.3939133574321
 20
143.8936126500419
 30
0.0
 10
143.4289444661568
 20
143.7467995734065
 30
0.0
 10
143.4935303490479
 20
143.4301383127624
 30
0.0
 10
143.5219240537102
 20
143.2652007395235
 30
0.0
 10
143.540671880065
 20
143.0960124848479
 30
0.0
  0
LINE
  5
EC
330
1F
100
AcDbEntity
  8
0
  6
Continuous
 62
     7
370
    15
100
AcDbLine
 10
127.7369967416
 20
143.0960124848
 30
0.0
 11
128.3997384414
 21
144.6960124848
 31
0.0
  0
LINE
  5
ED
330
1F
100
AcDbEntity
  8
0
  6
Continuous
 62
     7
370
    15
100
AcDbLine
 10
143.2497384414
 20
144.6960124848
 30
0.0
 11
143.2497384414
 21
144.6145708
 31
0.0
  0
LINE
  5
EE
330
1F
100
AcDbEntity
  8
0
  6
Continuous
 62
     7
370
    15
100
AcDbLine
 10
127.3997384414
 20
143.4332707851
 30
0.0
 11
127.3997384414
 21
145.6960124848
 31
0.0
  0
SPLINE
  5
EF
330
1F
100
AcDbEntity
  8
0
  6
Continuous
 62
     7
370
    15
100
AcDbSpline
210
0.0
220
0.0
230
1.0
 70
     8
 71
     3
 72
    14
 73
    10
 74
     0
 42
0.000000001
 43
0.00000001
 40
0.0
 40
0.0
 40
0.0
 40
0.0
 40
0.25
 40
0.25
 40
0.5
 40
0.5
 40
0.75
 40
0.75
 40
1.0
 40
1.0
 40
1.0
 40
1.0
 10
143.540671880065
 20
130.1960124848479
 30
0.0
 10
143.5218889960393
 20
130.0265078550338
 30
0.0
 10
143.4937374356092
 20
129.8629956443175
 30
0.0
 10
143.4290895476262
 20
129.5458435791562
 30
0.0
 10
143.3938013956928
 20
129.3979444999509
 30
0.0
 10
143.3292489147788
 20
129.1279772545554
 30
0.0
 10
143.3006429014119
 20
129.0083483048996
 30
0.0
 10
143.2608032382487
 20
128.8095351969467
 30
0.0
 10
143.2497384414218
 20
128.7304639796971
 30
0.0
 10
143.2497384414218
 20
128.677454169687
 30
0.0
  0
LINE
  5
F0
330
1F
100
AcDbEntity
  8
0
  6
Continuous
 62
     7
370
    15
100
AcDbLine
 10
143.2497384414
 20
128.6774541697
 30
0.0
 11
143.2497384414
 21
128.5960124848
 31
0.0
  0
SPLINE
  5
F1
330
1F
100
AcDbEntity
  8
0
  6
Continuous
 62
     7
370
    15
100
AcDbSpline
210
0.0
220
0.0
230
1.0
 70
     8
 71
     3
 72
    16
 73
    12
 74
     0
 42
0.000000001
 43
0.00000001
 40
0.0
 40
0.0
 40
0.0
 40
0.0
 40
0.25
 40
0.25
 40
0.375
 40
0.375
 40
0.5
 40
0.5
 40
0.75
 40
0.75
 40
1.0
 40
1.0
 40
1.0
 40
1.0
 10
143.540671880065
 20
143.0960124848479
 30
0.0
 10
143.6596551717606
 20
142.0222573157613
 30
0.0
 10
143.7916709658378
 20
140.9495509266817
 30
0.0
 10
143.9390353133447
 20
139.3364145736752
 30
0.0
 10
143.9797019538262
 20
138.7980220621684
 30
0.0
 10
144.0351787100139
 20
137.7191562563978
 30
0.0
 10
144.0498983145717
 20
137.1772908523071
 30
0.0
 10
144.0494146704853
 20
135.5564806726888
 30
0.0
 10
143.9872287213576
 20
134.4810923725347
 30
0.0
 10
143.7909167200593
 20
132.3363067412797
 30
0.0
 10
143.6593151525895
 20
131.266699178207
 30
0.0
 10
143.540671880065
 20
130.1960124848479
 30
0.0
  0
LINE
  5
F2
330
1F
100
AcDbEntity
  8
0
  6
Continuous
 62
     7
370
    15
100
AcDbLine
 10
127.3997384414
 20
139.8429837077
 30
0.0
 11
127.3997384414
 21
133.449041262
 31
0.0
  0
LINE
  5
F3
330
1F
100
AcDbEntity
  8
0
  6
Continuous
 62
     7
370
    15
100
AcDbLine
 10
127.3997384414
 20
143.4332707851
 30
0.0
 11
127.3997384414
 21
139.8429837077
 31
0.0
  0
LINE
  5
F4
330
1F
100
AcDbEntity
  8
0
  6
Continuous
 62
     7
370
    15
100
AcDbLine
 10
127.3997384414
 20
133.449041262
 30
0.0
 11
127.3997384414
 21
129.8587541846
 31
0.0
  0
LINE
  5
F5
330
1F
100
AcDbEntity
  8
0
  6
Continuous
 62
     7
370
    15
100
AcDbLine
 10
124.1997384414
 20
136.6460124848
 30
0.0
 11
124.1997384414
 21
158.8710124848
 31
0.0
  0
LINE
  5
F6
330
1F
100
AcDbEntity
  8
0
  6
Continuous
 62
     7
370
    15
100
AcDbLine
 10
124.1997384414
 20
114.4210124848
 30
0.0
 11
124.1997384414
 21
136.6460124848
 31
0.0
  0
LINE
  5
F7
330
1F
100
AcDbEntity
  8
0
  6
Continuous
 62
     7
370
    15
100
AcDbLine
 10
222.8997384414
 20
136.6460124848
 30
0.0
 11
222.8997384414
 21
157.6460124848
 31
0.0
  0
LINE
  5
F8
330
1F
100
AcDbEntity
  8
0
  6
Continuous
 62
     7
370
    15
100
AcDbLine
 10
222.8997384414
 20
115.6460124848
 30
0.0
 11
222.8997384414
 21
136.6460124848
 31
0.0
  0
SPLINE
  5
F9
330
1F
100
AcDbEntity
  8
0
  6
Continuous
 62
     7
370
    15
100
AcDbSpline
210
0.0
220
0.0
230
1.0
 70
     8
 71
     3
 72
    54
 73
    50
 74
     0
 42
0.000000001
 43
0.00000001
 40
0.0
 40
0.0
 40
0.0
 40
0.0
 40
0.0312499999999986
 40
0.0312499999999986
 40
0.0624999999999971
 40
0.0624999999999971
 40
0.1249999999999947
 40
0.1249999999999947
 40
0.1874999999999922
 40
0.1874999999999922
 40
0.218749999999991
 40
0.218749999999991
 40
0.2499999999999897
 40
0.2499999999999897
 40
0.3124999999999871
 40
0.3124999999999871
 40
0.3749999999999845
 40
0.3749999999999845
 40
0.406249999999984
 40
0.406249999999984
 40
0.4374999999999836
 40
0.4374999999999836
 40
0.4999999999999827
 40
0.4999999999999827
 40
0.5312499999999822
 40
0.5312499999999822
 40
0.5624999999999818
 40
0.5624999999999818
 40
0.6249999999999809
 40
0.6249999999999809
 40
0.6562499999999813
 40
0.6562499999999813
 40
0.6874999999999818
 40
0.6874999999999818
 40
0.7499999999999843
 40
0.7499999999999843
 40
0.7812499999999863
 40
0.7812499999999863
 40
0.8124999999999883
 40
0.8124999999999883
 40
0.8749999999999922
 40
0.8749999999999922
 40
0.9062499999999941
 40
0.9062499999999941
 40
0.9374999999999961
 40
0.9374999999999961
 40
0.9687499999999981
 40
0.9687499999999981
 40
1.0
 40
1.0
 40
1.0
 40
1.0
 10
218.2497384414218
 20
157.6460124848479
 30
0.0
 10
218.2497384414218
 20
157.6460124848479
 30
0.0
 10
218.2355603085003
 20
157.6422719973876
 30
0.0
 10
218.1782370226931
 20
157.6272612414324
 30
0.0
 10
218.1348825412812
 20
157.615938641954
 30
0.0
 10
217.9658075896095
 20
157.5723244127977
 30
0.0
 10
217.8002721879688
 20
157.5300953610877
 30
0.0
 10
217.3721172825126
 20
157.426167026202
 30
0.0
 10
217.1161231230313
 20
157.3661237400289
 30
0.0
 10
216.6761290765434
 20
157.2700466264119
 30
0.0
 10
216.5192145554532
 20
157.2368433290984
 30
0.0
 10
216.1913596224514
 20
157.1702925634176
 30
0.0
 10
216.0205718037089
 20
157.1369627069291
 30
0.0
 10
215.4887342016992
 20
157.0381539503517
 30
0.0
 10
215.10690582757
 20
156.9736337950435
 30
0.0
 10
214.2987275453849
 20
156.8554704404138
 30
0.0
 10
213.8800819161199
 20
156.8029291908935
 30
0.0
 10
213.2313762447832
 20
156.737446467016
 30
0.0
 10
213.0116596379443
 20
156.7178373262944
 30
0.0
 10
212.5651694514424
 20
156.6836295862176
 30
0.0
 10
212.3376353045943
 20
156.6690129676533
 30
0.0
 10
211.6561367503815
 20
156.6340490959658
 30
0.0
 10
211.2000451112163
 20
156.6222776560754
 30
0.0
 10
210.5133213052836
 20
156.6224725975889
 30
0.0
 10
210.2839799666708
 20
156.6255098844548
 30
0.0
 10
209.8244107218408
 20
156.6375853393889
 30
0.0
 10
209.5936854121689
 20
156.6466778594595
 30
0.0
 10
208.9130575542467
 20
156.6821636433847
 30
0.0
 10
208.4704692888669
 20
156.7168169321978
 30
0.0
 10
207.8231419456643
 20
156.7824676848589
 30
0.0
 10
207.6101412098065
 20
156.8066292847119
 30
0.0
 10
207.1898698268734
 20
156.859015115793
 30
0.0
 10
206.9821846732319
 20
156.8873235075757
 30
0.0
 10
206.3803232206479
 20
156.9756429783947
 30
0.0
 10
206.0030083974368
 20
157.0395214347585
 30
0.0
 10
205.4739997669505
 20
157.1379096476643
 30
0.0
 10
205.3038675057911
 20
157.1711345730294
 30
0.0
 10
204.976823176692
 20
157.2375625695533
 30
0.0
 10
204.8197050469645
 20
157.2708255623976
 30
0.0
 10
204.3801285375703
 20
157.3668615926381
 30
0.0
 10
204.1252334280335
 20
157.4266776741041
 30
0.0
 10
203.8060776053541
 20
157.5041562671593
 30
0.0
 10
203.7100326212665
 20
157.5280072660019
 30
0.0
 10
203.545580699882
 20
157.5693851201769
 30
0.0
 10
203.4764492758233
 20
157.5870841214818
 30
0.0
 10
203.3646908428257
 20
157.6159144032732
 30
0.0
 10
203.3220601218959
 20
157.6270470785571
 30
0.0
 10
203.2645287105013
 20
157.6421110860827
 30
0.0
 10
203.2497384414218
 20
157.6460124848479
 30
0.0
 10
203.2497384414218
 20
157.6460124848479
 30
0.0
  0
LINE
  5
FA
330
1F
100
AcDbEntity
  8
0
  6
Continuous
 62
     7
370
    15
100
AcDbLine
 10
223.2997384414
 20
136.6460124848
 30
0.0
 11
223.2997384414
 21
157.2460124848
 31
0.0
  0
LINE
  5
FB
330
1F
100
AcDbEntity
  8
0
  6
Continuous
 62
     7
370
    15
100
AcDbLine
 10
223.2997384414
 20
116.0460124848
 30
0.0
 11
223.2997384414
 21
136.6460124848
 31
0.0
  0
LINE
  5
FC
330
1F
100
AcDbEntity
  8
0
  6
Continuous
 62
     7
370
    15
100
AcDbLine
 10
55.9497384414
 20
136.6460124848
 30
0.0
 11
55.9497384414
 21
148.0531430819
 31
0.0
  0
LINE
  5
FD
330
1F
100
AcDbEntity
  8
0
  6
Continuous
 62
     7
370
    15
100
AcDbLine
 10
55.9497384414
 20
125.2388818878
 30
0.0
 11
55.9497384414
 21
136.6460124848
 31
0.0
  0
LINE
  5
FE
330
1F
100
AcDbEntity
  8
0
  6
Continuous
 62
     7
370
    15
100
AcDbLine
 10
216.0284727134
 20
157.1460124848
 30
0.0
 11
205.4087829112
 21
157.1460124848
 31
0.0
  0
LINE
  5
FF
330
1F
100
AcDbEntity
  8
0
  6
Continuous
 62
     7
370
    15
100
AcDbLine
 10
216.2497384414
 20
157.6460124848
 30
0.0
 11
205.2497384414
 21
157.6460124848
 31
0.0
  0
SPLINE
  5
100
330
1F
100
AcDbEntity
  8
0
  6
HIDDEN
 62
     7
370
     0
100
AcDbSpline
210
0.0
220
0.0
230
1.0
 70
     8
 71
     3
 72
    12
 73
     8
 74
     0
 42
0.000000001
 43
0.00000001
 40
0.0
 40
0.0
 40
0.0
 40
0.0
 40
0.4999999999999968
 40
0.4999999999999968
 40
0.7499999999999983
 40
0.7499999999999983
 40
1.0
 40
1.0
 40
1.0
 40
1.0
 10
142.6497384414218
 20
127.8122145618968
 30
0.0
 10
142.8201386877697
 20
127.8122145618968
 30
0.0
 10
142.9816689859604
 20
127.8738121562545
 30
0.0
 10
143.1415770851148
 20
128.0123104518783
 30
0.0
 10
143.1821464436983
 20
128.0655184705449
 30
0.0
 10
143.2363750360414
 20
128.1790045767563
 30
0.0
 10
143.2497384414218
 20
128.2379545947141
 30
0.0
 10
143.2497384414218
 20
128.2979995076712
 30
0.0
  0
SPLINE
  5
101
330
1F
100
AcDbEntity
  8
0
  6
HIDDEN
 62
     7
370
     0
100
AcDbSpline
210
0.0
220
0.0
230
1.0
 70
     8
 71
     3
 72
    12
 73
     8
 74
     0
 42
0.000000001
 43
0.00000001
 40
0.0
 40
0.0
 40
0.0
 40
0.0
 40
0.500000000000004
 40
0.500000000000004
 40
0.750000000000002
 40
0.750000000000002
 40
1.0
 40
1.0
 40
1.0
 40
1.0
 10
143.2497384414218
 20
161.8174248409316
 30
0.0
 10
143.2497384414218
 20
161.9930073106129
 30
0.0
 10
143.1994527742502
 20
162.1705465815825
 30
0.0
 10
143.0443306398749
 20
162.3827682091226
 30
0.0
 10
142.9788733645328
 20
162.4444074908745
 30
0.0
 10
142.8249021408906
 20
162.5318651839191
 30
0.0
 10
142.7376798521747
 20
162.5562421248956
 30
0.0
 10
142.6497384414217
 20
162.5562421248955
 30
0.0
  0
SPLINE
  5
102
330
1F
100
AcDbEntity
  8
0
  6
HIDDEN
 62
     7
370
     0
100
AcDbSpline
210
0.0
220
0.0
230
1.0
 70
     8
 71
     3
 72
    12
 73
     8
 74
     0
 42
0.000000001
 43
0.00000001
 40
0.0
 40
0.0
 40
0.0
 40
0.0
 40
0.2499999999999998
 40
0.2499999999999998
 40
0.4999999999999997
 40
0.4999999999999997
 40
1.0
 40
1.0
 40
1.0
 40
1.0
 10
127.9997384414218
 20
162.5562421248956
 30
0.0
 10
127.9122540717691
 20
162.5562421248956
 30
0.0
 10
127.8249211943484
 20
162.5319745607478
 30
0.0
 10
127.6710847809096
 20
162.4447677979743
 30
0.0
 10
127.6054626119361
 20
162.3831232757225
 30
0.0
 10
127.4500444065936
 20
162.1707293735929
 30
0.0
 10
127.3997384414218
 20
161.9921466913894
 30
0.0
 10
127.3997384414218
 20
161.8174248409314
 30
0.0
  0
SPLINE
  5
103
330
1F
100
AcDbEntity
  8
0
  6
HIDDEN
 62
     7
370
     0
100
AcDbSpline
210
0.0
220
0.0
230
1.0
 70
     8
 71
     3
 72
     8
 73
     4
 74
     0
 42
0.000000001
 43
0.00000001
 40
0.0
 40
0.0
 40
0.0
 40
0.0
 40
1.0
 40
1.0
 40
1.0
 40
1.0
 10
127.6869800427295
 20
127.8832540861556
 30
0.0
 10
127.7788563287256
 20
127.8379125770145
 30
0.0
 10
127.8875853275107
 20
127.8122145618968
 30
0.0
 10
127.9997384414218
 20
127.8122145618968
 30
0.0
  0
SPLINE
  5
104
330
1F
100
AcDbEntity
  8
0
  6
HIDDEN
 62
     7
370
     0
100
AcDbSpline
210
0.0
220
0.0
230
1.0
 70
     8
 71
     3
 72
     8
 73
     4
 74
     0
 42
0.000000001
 43
0.00000001
 40
0.0
 40
0.0
 40
0.0
 40
0.0
 40
0.0012409313617635
 40
0.0012409313617635
 40
0.0012409313617635
 40
0.0012409313617635
 10
131.7779017993651
 20
127.8122145618968
 30
0.0
 10
131.9645747275973
 20
128.0732264395954
 30
0.0
 10
132.1505599155698
 20
128.3344849413708
 30
0.0
 10
132.3357837551258
 20
128.5960124848479
 30
0.0
  0
LINE
  5
105
330
1F
100
AcDbEntity
  8
0
  6
HIDDEN
 62
     7
370
     0
100
AcDbLine
 10
131.7779017994
 20
127.8122145619
 30
0.0
 11
131.7779017994
 21
127.6473363417
 31
0.0
  0
LINE
  5
106
330
1F
100
AcDbEntity
  8
0
  6
HIDDEN
 62
     7
370
     0
100
AcDbLine
 10
127.9997384414
 20
127.8122145619
 30
0.0
 11
131.7779017994
 21
127.8122145619
 31
0.0
  0
LINE
  5
107
330
1F
100
AcDbEntity
  8
0
  6
HIDDEN
 62
     7
370
     0
100
AcDbLine
 10
138.8215750835
 20
127.8122145619
 30
0.0
 11
142.6497384414
 21
127.8122145619
 31
0.0
  0
LINE
  5
108
330
1F
100
AcDbEntity
  8
0
  6
HIDDEN
 62
     7
370
     0
100
AcDbLine
 10
138.8215750835
 20
127.8122145619
 30
0.0
 11
138.8215750835
 21
127.6473363417
 31
0.0
  0
LINE
  5
109
330
1F
100
AcDbEntity
  8
0
  6
HIDDEN
 62
     7
370
     0
100
AcDbLine
 10
131.7779017994
 20
162.5562421249
 30
0.0
 11
127.9997384414
 21
162.5562421249
 31
0.0
  0
SPLINE
  5
10A
330
1F
100
AcDbEntity
  8
0
  6
HIDDEN
 62
     7
370
     0
100
AcDbSpline
210
0.0
220
0.0
230
1.0
 70
     8
 71
     3
 72
     8
 73
     4
 74
     0
 42
0.000000001
 43
0.00000001
 40
0.0
 40
0.0
 40
0.0
 40
0.0
 40
1.0
 40
1.0
 40
1.0
 40
1.0
 10
133.3897384414218
 20
159.0481515407064
 30
0.0
 10
132.8650059530599
 20
160.2229974566681
 30
0.0
 10
132.3263304688411
 20
161.392241416506
 30
0.0
 10
131.7779017993651
 20
162.5562421248955
 30
0.0
  0
LINE
  5
10B
330
1F
100
AcDbEntity
  8
0
  6
HIDDEN
 62
     7
370
     0
100
AcDbLine
 10
142.6497384414
 20
162.5562421249
 30
0.0
 11
138.8215750835
 21
162.5562421249
 31
0.0
  0
SPLINE
  5
10C
330
1F
100
AcDbEntity
  8
0
  6
HIDDEN
 62
     7
370
     0
100
AcDbSpline
210
0.0
220
0.0
230
1.0
 70
     8
 71
     3
 72
     8
 73
     4
 74
     0
 42
0.000000001
 43
0.00000001
 40
0.0
 40
0.0
 40
0.0
 40
0.0
 40
0.0012409313617635
 40
0.0012409313617635
 40
0.0012409313617635
 40
0.0012409313617635
 10
138.2636931277178
 20
128.5960124848479
 30
0.0
 10
138.4489169672738
 20
128.3344849413708
 30
0.0
 10
138.6349021552464
 20
128.0732264395954
 30
0.0
 10
138.8215750834785
 20
127.8122145618968
 30
0.0
  0
SPLINE
  5
10D
330
1F
100
AcDbEntity
  8
0
  6
HIDDEN
 62
     7
370
     0
100
AcDbSpline
210
0.0
220
0.0
230
1.0
 70
     8
 71
     3
 72
     8
 73
     4
 74
     0
 42
0.000000001
 43
0.00000001
 40
0.0
 40
0.0
 40
0.0
 40
0.0
 40
1.0
 40
1.0
 40
1.0
 40
1.0
 10
138.8215750834785
 20
162.5562421248955
 30
0.0
 10
138.2731464140026
 20
161.392241416506
 30
0.0
 10
137.7344709297837
 20
160.2229974566681
 30
0.0
 10
137.2097384414218
 20
159.0481515407064
 30
0.0
  0
SPLINE
  5
10E
330
1F
100
AcDbEntity
  8
0
  6
HIDDEN
 62
     7
370
     0
100
AcDbSpline
210
0.0
220
0.0
230
1.0
 70
     8
 71
     3
 72
    14
 73
    10
 74
     0
 42
0.000000001
 43
0.00000001
 40
0.0
 40
0.0
 40
0.0
 40
0.0
 40
0.25
 40
0.25
 40
0.5
 40
0.5
 40
0.75
 40
0.75
 40
1.0
 40
1.0
 40
1.0
 40
1.0
 10
137.2097384414218
 20
158.8432533043732
 30
0.0
 10
137.2097384414218
 20
158.7211881401412
 30
0.0
 10
137.193656839962
 20
158.6017377326608
 30
0.0
 10
137.1281653266951
 20
158.3682558695818
 30
0.0
 10
137.0788573535678
 20
158.2559886933599
 30
0.0
 10
136.9442878318708
 20
158.0540070924112
 30
0.0
 10
136.8587647557856
 20
157.9642066874318
 30
0.0
 10
136.6517692602305
 20
157.8332439894926
 30
0.0
 10
136.5310756262869
 20
157.7949486283044
 30
0.0
 10
136.4097384414218
 20
157.7949486283044
 30
0.0
  0
SPLINE
  5
10F
330
1F
100
AcDbEntity
  8
0
  6
HIDDEN
 62
     7
370
     0
100
AcDbSpline
210
0.0
220
0.0
230
1.0
 70
     8
 71
     3
 72
    12
 73
     8
 74
     0
 42
0.000000001
 43
0.00000001
 40
0.0
 40
0.0
 40
0.0
 40
0.0
 40
0.2500000000000005
 40
0.2500000000000005
 40
0.500000000000001
 40
0.500000000000001
 40
1.0
 40
1.0
 40
1.0
 40
1.0
 10
134.1897384414218
 20
157.7949486283045
 30
0.0
 10
134.0682606696173
 20
157.7949486283045
 30
0.0
 10
133.9457071979554
 20
157.8343887636137
 30
0.0
 10
133.741654044417
 20
157.9637322422198
 30
0.0
 10
133.6554949811913
 20
158.053641632116
 30
0.0
 10
133.4534544144955
 20
158.356612970797
 30
0.0
 10
133.3897384414218
 20
158.6018820269612
 30
0.0
 10
133.3897384414218
 20
158.8432533043732
 30
0.0
  0
LINE
  5
110
330
1F
100
AcDbEntity
  8
0
  6
HIDDEN
 62
     7
370
     0
100
AcDbLine
 10
136.4097384414
 20
157.7949486283
 30
0.0
 11
134.1897384414
 21
157.7949486283
 31
0.0
  0
SPLINE
  5
111
330
1F
100
AcDbEntity
  8
0
  6
HIDDEN
 62
     7
370
     0
100
AcDbSpline
210
0.0
220
0.0
230
1.0
 70
     8
 71
     3
 72
    16
 73
    12
 74
     0
 42
0.000000001
 43
0.00000001
 40
0.0
 40
0.0
 40
0.0
 40
0.0
 40
0.5
 40
0.5
 40
0.5625
 40
0.5625
 40
0.625
 40
0.625
 40
0.75
 40
0.75
 40
1.0
 40
1.0
 40
1.0
 40
1.0
 10
143.2497384414218
 20
133.490065717236
 30
0.0
 10
143.2497384414218
 20
134.5330384085846
 30
0.0
 10
143.2546845298373
 20
135.5762853970101
 30
0.0
 10
143.2547478878325
 20
136.7496331884453
 30
0.0
 10
143.2547017138725
 20
136.8840551624718
 30
0.0
 10
143.254506008418
 20
137.1493147772227
 30
0.0
 10
143.2543566989857
 20
137.2819454694139
 30
0.0
 10
143.2537764919246
 20
137.6798398205663
 30
0.0
 10
143.2532082757245
 20
137.9451058407676
 30
0.0
 10
143.2513193389794
 20
138.7409070702694
 30
0.0
 10
143.2497384414218
 20
139.2714467534032
 30
0.0
 10
143.2497384414218
 20
139.8019592524598
 30
0.0
  0
LINE
  5
112
330
1F
100
AcDbEntity
  8
0
  6
HIDDEN
 62
     7
370
     0
100
AcDbLine
 10
143.2497384414
 20
133.4900657172
 30
0.0
 11
143.2497384414
 21
128.6774541697
 31
0.0
  0
LINE
  5
113
330
1F
100
AcDbEntity
  8
0
  6
HIDDEN
 62
     7
370
     0
100
AcDbLine
 10
143.2497384414
 20
144.6960124848
 30
0.0
 11
143.2497384414
 21
139.8019592525
 31
0.0
  0
SPLINE
  5
114
330
1F
100
AcDbEntity
  8
0
  6
HIDDEN
 62
     7
370
     0
100
AcDbSpline
210
0.0
220
0.0
230
1.0
 70
     8
 71
     3
 72
    24
 73
    20
 74
     0
 42
0.000000001
 43
0.00000001
 40
0.0
 40
0.0
 40
0.0
 40
0.0
 40
0.1249999999999998
 40
0.1249999999999998
 40
0.2499999999999997
 40
0.2499999999999997
 40
0.3749999999999995
 40
0.3749999999999995
 40
0.4374999999999994
 40
0.4374999999999994
 40
0.4999999999999992
 40
0.4999999999999992
 40
0.6249999999999993
 40
0.6249999999999993
 40
0.7499999999999996
 40
0.7499999999999996
 40
0.8749999999999997
 40
0.8749999999999997
 40
1.0
 40
1.0
 40
1.0
 40
1.0
 10
222.7497384414218
 20
124.1174048184405
 30
0.0
 10
222.8266146206104
 20
124.1456304992521
 30
0.0
 10
222.8944706227795
 20
124.2011975885874
 30
0.0
 10
223.013346870517
 20
124.3671992180815
 30
0.0
 10
223.0647838754145
 20
124.4795423060824
 30
0.0
 10
223.1467732593837
 20
124.7539469679643
 30
0.0
 10
223.1777755796857
 20
124.9155259395473
 30
0.0
 10
223.2093238260002
 20
125.1956057908189
 30
0.0
 10
223.2173257982195
 20
125.2958580032645
 30
0.0
 10
223.2278607734512
 20
125.5045550529579
 30
0.0
 10
223.2304695766661
 20
125.6134046076217
 30
0.0
 10
223.2304872887221
 20
125.9532105940003
 30
0.0
 10
223.219959969862
 20
126.1998438363194
 30
0.0
 10
223.1778637005052
 20
126.7181927974342
 30
0.0
 10
223.146813756019
 20
126.9859339852152
 30
0.0
 10
223.0647556656301
 20
127.5378651005342
 30
0.0
 10
223.0133303455459
 20
127.8228744590529
 30
0.0
 10
222.8944681164651
 20
128.3830587774661
 30
0.0
 10
222.8266166611468
 20
128.6615371255424
 30
0.0
 10
222.7497384414218
 20
128.9382645676109
 30
0.0
  0
LINE
  5
115
330
1F
100
AcDbEntity
  8
0
  6
HIDDEN
 62
     7
370
     0
100
AcDbLine
 10
222.7497384414
 20
119.8254912911
 30
0.0
 11
222.7497384414
 21
124.1174048184
 31
0.0
  0
LINE
  5
116
330
1F
100
AcDbEntity
  8
0
  6
HIDDEN
 62
     7
370
     0
100
AcDbLine
 10
222.7497384414
 20
149.1746201513
 30
0.0
 11
222.7497384414
 21
153.4665336786
 31
0.0
  0
SPLINE
  5
117
330
1F
100
AcDbEntity
  8
0
  6
HIDDEN
 62
     7
370
     0
100
AcDbSpline
210
0.0
220
0.0
230
1.0
 70
     8
 71
     3
 72
    24
 73
    20
 74
     0
 42
0.000000001
 43
0.00000001
 40
0.0
 40
0.0
 40
0.0
 40
0.0
 40
0.1249999999999997
 40
0.1249999999999997
 40
0.2499999999999994
 40
0.2499999999999994
 40
0.3749999999999992
 40
0.3749999999999992
 40
0.4374999999999992
 40
0.4374999999999992
 40
0.4999999999999993
 40
0.4999999999999993
 40
0.6249999999999994
 40
0.6249999999999994
 40
0.7499999999999997
 40
0.7499999999999997
 40
0.8749999999999998
 40
0.8749999999999998
 40
1.0
 40
1.0
 40
1.0
 40
1.0
 10
222.7497384414218
 20
144.353760402085
 30
0.0
 10
222.8266146206104
 20
144.6304804991289
 30
0.0
 10
222.8944706227795
 20
144.908973546664
 30
0.0
 10
223.013346870517
 20
145.469232849231
 30
0.0
 10
223.0647838754145
 20
145.7543555576831
 30
0.0
 10
223.1467732593838
 20
146.3058126542333
 30
0.0
 10
223.1777755796857
 20
146.5731293141293
 30
0.0
 10
223.2093238260002
 20
146.9610241592054
 30
0.0
 10
223.2173257982195
 20
147.0886877657739
 30
0.0
 10
223.2278607734512
 20
147.3334909798054
 30
0.0
 10
223.2304695766662
 20
147.451294380306
 30
0.0
 10
223.2304872887221
 20
147.7911611281497
 30
0.0
 10
223.219959969862
 20
148.0016117478328
 30
0.0
 10
223.1778637005052
 20
148.3760964210685
 30
0.0
 10
223.146813756019
 20
148.537936618589
 30
0.0
 10
223.0647556656301
 20
148.8125829238593
 30
0.0
 10
223.0133303455459
 20
148.9248530514568
 30
0.0
 10
222.8944681164651
 20
149.090826656331
 30
0.0
 10
222.8266166611468
 20
149.1463937212451
 30
0.0
 10
222.7497384414218
 20
149.1746201512554
 30
0.0
  0
LINE
  5
118
330
1F
100
AcDbEntity
  8
0
  6
HIDDEN
 62
     7
370
     0
100
AcDbLine
 10
222.7497384414
 20
128.9382645676
 30
0.0
 11
222.7497384414
 21
144.3537604021
 31
0.0
  0
LINE
  5
119
330
1F
100
AcDbEntity
  8
0
  6
HIDDEN
 62
     7
370
     0
100
AcDbLine
 10
219.4497384414
 20
143.8911321258
 30
0.0
 11
219.4497384414
 21
129.4008928439
 31
0.0
  0
LINE
  5
11A
330
1F
100
AcDbEntity
  8
0
  6
HIDDEN
 62
     7
370
     0
100
AcDbLine
 10
219.4497384414
 20
124.0960124848
 30
0.0
 11
222.7497384414
 21
124.0960124848
 31
0.0
  0
LINE
  5
11B
330
1F
100
AcDbEntity
  8
0
  6
HIDDEN
 62
     7
370
     0
100
AcDbLine
 10
219.4497384414
 20
129.4008928439
 30
0.0
 11
219.4497384414
 21
124.0960124848
 31
0.0
  0
LINE
  5
11C
330
1F
100
AcDbEntity
  8
0
  6
HIDDEN
 62
     7
370
     0
100
AcDbLine
 10
219.4497384414
 20
129.4008928439
 30
0.0
 11
222.7497384414
 21
129.4008928439
 31
0.0
  0
LINE
  5
11D
330
1F
100
AcDbEntity
  8
0
  6
HIDDEN
 62
     7
370
     0
100
AcDbLine
 10
219.4497384414
 20
149.1960124848
 30
0.0
 11
222.7497384414
 21
149.1960124848
 31
0.0
  0
LINE
  5
11E
330
1F
100
AcDbEntity
  8
0
  6
HIDDEN
 62
     7
370
     0
100
AcDbLine
 10
219.4497384414
 20
149.1960124848
 30
0.0
 11
219.4497384414
 21
143.8911321258
 31
0.0
  0
LINE
  5
11F
330
1F
100
AcDbEntity
  8
0
  6
HIDDEN
 62
     7
370
     0
100
AcDbLine
 10
219.4497384414
 20
143.8911321258
 30
0.0
 11
222.7497384414
 21
143.8911321258
 31
0.0
  0
LINE
  5
120
330
1F
100
AcDbEntity
  8
0
  6
HIDDEN
 62
     7
370
     0
100
AcDbLine
 10
218.4497384414
 20
136.6460124848
 30
0.0
 11
218.4497384414
 21
148.6460124848
 31
0.0
  0
LINE
  5
121
330
1F
100
AcDbEntity
  8
0
  6
HIDDEN
 62
     7
370
     0
100
AcDbLine
 10
218.4497384414
 20
124.6460124848
 30
0.0
 11
218.4497384414
 21
136.6460124848
 31
0.0
  0
LINE
  5
122
330
1F
100
AcDbEntity
  8
0
  6
HIDDEN
 62
     7
370
     0
100
AcDbLine
 10
198.2997384414
 20
136.6460124848
 30
0.0
 11
198.2997384414
 21
148.3460124848
 31
0.0
  0
LINE
  5
123
330
1F
100
AcDbEntity
  8
0
  6
HIDDEN
 62
     7
370
     0
100
AcDbLine
 10
198.2997384414
 20
124.9460124848
 30
0.0
 11
198.2997384414
 21
136.6460124848
 31
0.0
  0
LINE
  5
124
330
1F
100
AcDbEntity
  8
0
  6
HIDDEN
 62
     7
370
     0
100
AcDbLine
 10
200.7997384414
 20
136.6460124848
 30
0.0
 11
200.7997384414
 21
148.6460124848
 31
0.0
  0
LINE
  5
125
330
1F
100
AcDbEntity
  8
0
  6
HIDDEN
 62
     7
370
     0
100
AcDbLine
 10
200.7997384414
 20
124.6460124848
 30
0.0
 11
200.7997384414
 21
136.6460124848
 31
0.0
  0
SPLINE
  5
126
330
1F
100
AcDbEntity
  8
0
  6
HIDDEN
 62
     7
370
     0
100
AcDbSpline
210
0.0
220
0.0
230
1.0
 70
     8
 71
     3
 72
    13
 73
     9
 74
     0
 42
0.000000001
 43
0.00000001
 40
0.0
 40
0.0
 40
0.0
 40
0.0
 40
0.1988625399288376
 40
0.3971800512765135
 40
0.609141888420053
 40
0.7194423774128819
 40
0.8333478114546615
 40
1.0
 40
1.0
 40
1.0
 40
1.0
 10
210.7497384414218
 20
147.3113769886987
 30
0.0
 10
211.3309827770555
 20
147.3402335690811
 30
0.0
 10
212.4918784143827
 20
147.3978676417429
 30
0.0
 10
214.0580477176967
 20
147.7887288877917
 30
0.0
 10
215.1140272318757
 20
148.1620385230823
 30
0.0
 10
215.7394037511274
 20
148.4187972925498
 30
0.0
 10
216.1583167375802
 20
148.6033599923898
 30
0.0
 10
216.1846058824282
 20
148.6160414996762
 30
0.0
 10
216.2002217244912
 20
148.6235743584304
 30
0.0
  0
LINE
  5
127
330
1F
100
AcDbEntity
  8
0
  6
HIDDEN
 62
     7
370
     0
100
AcDbLine
 10
211.3540532834
 20
147.359479293
 30
0.0
 11
210.1277161945
 21
147.3344700313
 31
0.0
  0
SPLINE
  5
128
330
1F
100
AcDbEntity
  8
0
  6
HIDDEN
 62
     7
370
     0
100
AcDbSpline
210
0.0
220
0.0
230
1.0
 70
     8
 71
     3
 72
    15
 73
    11
 74
     0
 42
0.000000001
 43
0.00000001
 40
0.0
 40
0.0
 40
0.0
 40
0.0
 40
0.014086493041119
 40
0.1967709032471407
 40
0.370567469050113
 40
0.5523939166614278
 40
0.7495288127025953
 40
0.8475211052218602
 40
0.9489858035405319
 40
1.0
 40
1.0
 40
1.0
 40
1.0
 10
205.3440357364538
 20
148.6033023088297
 30
0.0
 10
205.3329641727184
 20
148.6082449126766
 30
0.0
 10
205.1783081067825
 20
148.6772869815931
 30
0.0
 10
205.2553351166592
 20
148.6434157116887
 30
0.0
 10
205.7964379278023
 20
148.3987551922527
 30
0.0
 10
206.8514653111487
 20
147.9804169082524
 30
0.0
 10
208.1024044253303
 20
147.6093821204085
 30
0.0
 10
209.2933391913402
 20
147.3978850538093
 30
0.0
 10
210.0920619714619
 20
147.3206001702987
 30
0.0
 10
210.5848638678368
 20
147.3136891713643
 30
0.0
 10
210.7497384414218
 20
147.3113769886987
 30
0.0
  0
LINE
  5
129
330
1F
100
AcDbEntity
  8
0
  6
HIDDEN
 62
     7
370
     0
100
AcDbLine
 10
62.9497384414
 20
136.6460124848
 30
0.0
 11
62.9497384414
 21
145.1460124848
 31
0.0
  0
LINE
  5
12A
330
1F
100
AcDbEntity
  8
0
  6
HIDDEN
 62
     7
370
     0
100
AcDbLine
 10
62.9497384414
 20
128.1460124848
 30
0.0
 11
62.9497384414
 21
136.6460124848
 31
0.0
  0
LINE
  5
12B
330
1F
100
AcDbEntity
  8
0
  6
HIDDEN
 62
     7
370
     0
100
AcDbLine
 10
65.9456676558
 20
136.6460124848
 30
0.0
 11
65.9456676558
 21
143.6460124848
 31
0.0
  0
LINE
  5
12C
330
1F
100
AcDbEntity
  8
0
  6
HIDDEN
 62
     7
370
     0
100
AcDbLine
 10
65.9456676558
 20
129.6460124848
 30
0.0
 11
65.9456676558
 21
136.6460124848
 31
0.0
  0
LINE
  5
12D
330
1F
100
AcDbEntity
  8
0
  6
HIDDEN
 62
     7
370
     0
100
AcDbLine
 10
219.4497384414
 20
121.7460124848
 30
0.0
 11
219.4497384414
 21
124.0960124848
 31
0.0
  0
LINE
  5
12E
330
1F
100
AcDbEntity
  8
0
  6
HIDDEN
 62
     7
370
     0
100
AcDbLine
 10
219.4497384414
 20
149.1960124848
 30
0.0
 11
219.4497384414
 21
151.5460124848
 31
0.0
  0
LINE
  5
12F
330
1F
100
AcDbEntity
  8
0
  6
HIDDEN
 62
     7
370
     0
100
AcDbLine
 10
98.9497384414
 20
136.6460124848
 30
0.0
 11
98.9497384414
 21
143.6460124848
 31
0.0
  0
LINE
  5
130
330
1F
100
AcDbEntity
  8
0
  6
HIDDEN
 62
     7
370
     0
100
AcDbLine
 10
98.9497384414
 20
129.6460124848
 30
0.0
 11
98.9497384414
 21
136.6460124848
 31
0.0
  0
LINE
  5
131
330
1F
100
AcDbEntity
  8
0
  6
HIDDEN
 62
     7
370
     0
100
AcDbLine
 10
100.6021051437
 20
136.6460124848
 30
0.0
 11
100.6021051437
 21
140.8960124848
 31
0.0
  0
LINE
  5
132
330
1F
100
AcDbEntity
  8
0
  6
HIDDEN
 62
     7
370
     0
100
AcDbLine
 10
100.6021051437
 20
132.3960124848
 30
0.0
 11
100.6021051437
 21
136.6460124848
 31
0.0
  0
LINE
  5
133
330
1F
100
AcDbEntity
  8
0
  6
HIDDEN
 62
     7
370
     0
100
AcDbLine
 10
210.7497384414
 20
155.6460124848
 30
0.0
 11
216.2497384414
 21
155.6460124848
 31
0.0
  0
LINE
  5
134
330
1F
100
AcDbEntity
  8
0
  6
HIDDEN
 62
     7
370
     0
100
AcDbLine
 10
205.2497384414
 20
155.6460124848
 30
0.0
 11
210.7497384414
 21
155.6460124848
 31
0.0
  0
LINE
  5
135
330
1F
100
AcDbEntity
  8
0
  6
HIDDEN
 62
     7
370
     0
100
AcDbLine
 10
127.3997384414
 20
154.9960124848
 30
0.0
 11
143.2497384414
 21
154.9960124848
 31
0.0
  0
SPLINE
  5
136
330
1F
100
AcDbEntity
  8
0
  6
HIDDEN
 62
     7
370
     0
100
AcDbSpline
210
0.0
220
0.0
230
1.0
 70
     8
 71
     3
 72
     8
 73
     4
 74
     0
 42
0.000000001
 43
0.00000001
 40
0.0
 40
0.0
 40
0.0
 40
0.0
 40
1.0
 40
1.0
 40
1.0
 40
1.0
 10
127.9997384414218
 20
145.479810407799
 30
0.0
 10
127.8875601872421
 20
145.479810407799
 30
0.0
 10
127.7788906745137
 20
145.454129342538
 30
0.0
 10
127.6869800427294
 20
145.4087708835404
 30
0.0
  0
SPLINE
  5
137
330
1F
100
AcDbEntity
  8
0
  6
HIDDEN
 62
     7
370
     0
100
AcDbSpline
210
0.0
220
0.0
230
1.0
 70
     8
 71
     3
 72
    12
 73
     8
 74
     0
 42
0.000000001
 43
0.00000001
 40
0.0
 40
0.0
 40
0.0
 40
0.0
 40
0.5000000000000029
 40
0.5000000000000029
 40
0.7500000000000014
 40
0.7500000000000014
 40
1.0
 40
1.0
 40
1.0
 40
1.0
 10
143.2497384414218
 20
144.9940254620246
 30
0.0
 10
143.2497384414218
 20
145.1143524950778
 30
0.0
 10
143.1959436298289
 20
145.2324500685596
 30
0.0
 10
143.0350200598626
 20
145.3720928109986
 30
0.0
 10
142.97026859876
 20
145.410368764393
 30
0.0
 10
142.8180484154423
 20
145.4652085940274
 30
0.0
 10
142.7352408999174
 20
145.479810407799
 30
0.0
 10
142.6497384414218
 20
145.479810407799
 30
0.0
  0
LINE
  5
138
330
1F
100
AcDbEntity
  8
0
  6
HIDDEN
 62
     7
370
     0
100
AcDbLine
 10
138.8215750835
 20
145.644688628
 30
0.0
 11
138.8215750835
 21
145.4798104078
 31
0.0
  0
LINE
  5
139
330
1F
100
AcDbEntity
  8
0
  6
HIDDEN
 62
     7
370
     0
100
AcDbLine
 10
131.7779017994
 20
145.644688628
 30
0.0
 11
131.7779017994
 21
145.4798104078
 31
0.0
  0
LINE
  5
13A
330
1F
100
AcDbEntity
  8
0
  6
HIDDEN
 62
     7
370
     0
100
AcDbLine
 10
142.6497384414
 20
145.4798104078
 30
0.0
 11
138.8215750835
 21
145.4798104078
 31
0.0
  0
SPLINE
  5
13B
330
1F
100
AcDbEntity
  8
0
  6
HIDDEN
 62
     7
370
     0
100
AcDbSpline
210
0.0
220
0.0
230
1.0
 70
     8
 71
     3
 72
     8
 73
     4
 74
     0
 42
0.000000001
 43
0.00000001
 40
0.0
 40
0.0
 40
0.0
 40
0.0
 40
0.0012409313617635
 40
0.0012409313617635
 40
0.0012409313617635
 40
0.0012409313617635
 10
138.8215750834785
 20
145.479810407799
 30
0.0
 10
138.6349021552464
 20
145.2187985301005
 30
0.0
 10
138.4489169672738
 20
144.9575400283251
 30
0.0
 10
138.2636931277178
 20
144.6960124848479
 30
0.0
  0
LINE
  5
13C
330
1F
100
AcDbEntity
  8
0
  6
HIDDEN
 62
     7
370
     0
100
AcDbLine
 10
131.7779017994
 20
145.4798104078
 30
0.0
 11
127.9997384414
 21
145.4798104078
 31
0.0
  0
SPLINE
  5
13D
330
1F
100
AcDbEntity
  8
0
  6
HIDDEN
 62
     7
370
     0
100
AcDbSpline
210
0.0
220
0.0
230
1.0
 70
     8
 71
     3
 72
     8
 73
     4
 74
     0
 42
0.000000001
 43
0.00000001
 40
0.0
 40
0.0
 40
0.0
 40
0.0
 40
0.0012409313617635
 40
0.0012409313617635
 40
0.0012409313617635
 40
0.0012409313617635
 10
132.3357837551258
 20
144.6960124848479
 30
0.0
 10
132.1505599155698
 20
144.9575400283251
 30
0.0
 10
131.9645747275973
 20
145.2187985301005
 30
0.0
 10
131.7779017993651
 20
145.479810407799
 30
0.0
  0
LINE
  5
13E
330
1F
100
AcDbEntity
  8
0
  6
HIDDEN
 62
     7
370
     0
100
AcDbLine
 10
216.7497384414
 20
157.1460124848
 30
0.0
 11
216.0284727134
 21
157.1460124848
 31
0.0
  0
LINE
  5
13F
330
1F
100
AcDbEntity
  8
0
  6
HIDDEN
 62
     7
370
     0
100
AcDbLine
 10
205.4087829112
 20
157.1460124848
 30
0.0
 11
204.7497384414
 21
157.1460124848
 31
0.0
  0
LINE
  5
140
330
1F
100
AcDbEntity
  8
0
  6
HIDDEN
 62
     7
370
     0
100
AcDbLine
 10
216.7497384414
 20
150.6147546365
 30
0.0
 11
204.7497384414
 21
150.6147546365
 31
0.0
  0
LINE
  5
141
330
1F
100
AcDbEntity
  8
0
  6
HIDDEN
 62
     7
370
     0
100
AcDbLine
 10
215.9309962898
 20
149.7960124848
 30
0.0
 11
205.568480593
 21
149.7960124848
 31
0.0
  0
LINE
  5
142
330
1F
100
AcDbEntity
  8
0
  6
HIDDEN
 62
     7
370
     0
100
AcDbLine
 10
214.9222855748
 20
145.2460124848
 30
0.0
 11
206.5771913081
 21
145.2460124848
 31
0.0
  0
LINE
  5
143
330
1F
100
AcDbEntity
  8
0
  6
HIDDEN
 62
     7
370
     0
100
AcDbLine
 10
214.6222855748
 20
144.9460124848
 30
0.0
 11
206.8771913081
 21
144.9460124848
 31
0.0
  0
SPLINE
  5
144
330
1F
100
AcDbEntity
  8
0
  6
HIDDEN
 62
     7
370
     0
100
AcDbSpline
210
0.0
220
0.0
230
1.0
 70
     8
 71
     3
 72
    11
 73
     7
 74
     0
 42
0.000000001
 43
0.00000001
 40
0.0
 40
0.0
 40
0.0
 40
0.0
 40
0.1336647920874021
 40
0.4825473608259724
 40
0.8156356561503771
 40
1.0
 40
1.0
 40
1.0
 40
1.0
 10
213.2600381926493
 20
157.6101140999857
 30
0.0
 10
213.2940622937138
 20
157.5414669319016
 30
0.0
 10
213.4168937433178
 20
157.2936416873488
 30
0.0
 10
213.6463577568565
 20
157.0598903506708
 30
0.0
 10
213.892799674187
 20
157.2548171067482
 30
0.0
 10
214.0250756435355
 20
157.5167790872766
 30
0.0
 10
214.0722045408486
 20
157.6101140999857
 30
0.0
  0
SPLINE
  5
145
330
1F
100
AcDbEntity
  8
0
  6
HIDDEN
 62
     7
370
     0
100
AcDbSpline
210
0.0
220
0.0
230
1.0
 70
     8
 71
     3
 72
    11
 73
     7
 74
     0
 42
0.000000001
 43
0.00000001
 40
0.0
 40
0.0
 40
0.0
 40
0.0
 40
0.2164553779443446
 40
0.440311289579054
 40
0.7519005688038647
 40
1.0
 40
1.0
 40
1.0
 40
1.0
 10
209.9375720932226
 20
157.6101140999857
 30
0.0
 10
210.1651642402045
 20
157.5014559297207
 30
0.0
 10
210.6281298300982
 20
157.2804246043407
 30
0.0
 10
211.487270314503
 20
157.0961946799233
 30
0.0
 10
212.4088525957857
 20
157.2072705840225
 30
0.0
 10
212.9986099151786
 20
157.4863870457962
 30
0.0
 10
213.2600381926493
 20
157.6101140999857
 30
0.0
  0
SPLINE
  5
146
330
1F
100
AcDbEntity
  8
0
  6
HIDDEN
 62
     7
370
     0
100
AcDbSpline
210
0.0
220
0.0
230
1.0
 70
     8
 71
     3
 72
    11
 73
     7
 74
     0
 42
0.000000001
 43
0.00000001
 40
0.0
 40
0.0
 40
0.0
 40
0.0
 40
0.2164553779443423
 40
0.4403112895790474
 40
0.7519005688038618
 40
0.9999999999999999
 40
0.9999999999999999
 40
0.9999999999999999
 40
0.9999999999999999
 10
207.4272723419951
 20
157.6101140999857
 30
0.0
 10
207.5992303072091
 20
157.5014559297207
 30
0.0
 10
207.9490254203443
 20
157.2804246043407
 30
0.0
 10
208.5981517258446
 20
157.0961946799233
 30
0.0
 10
209.2944561281194
 20
157.2072705840225
 30
0.0
 10
209.7400491327891
 20
157.4863870457962
 30
0.0
 10
209.9375720932226
 20
157.6101140999857
 30
0.0
  0
SPLINE
  5
147
330
1F
100
AcDbEntity
  8
0
  6
HIDDEN
 62
     7
370
     0
100
AcDbSpline
210
0.0
220
0.0
230
1.0
 70
     8
 71
     3
 72
    11
 73
     7
 74
     0
 42
0.000000001
 43
0.00000001
 40
0.0
 40
0.0
 40
0.0
 40
0.0
 40
0.1843643438496191
 40
0.517452639174026
 40
0.8663352079125973
 40
1.0
 40
1.0
 40
1.0
 40
1.0
 10
208.2394386901943
 20
157.6101140999857
 30
0.0
 10
208.1923097928813
 20
157.5167790872766
 30
0.0
 10
208.0600338235328
 20
157.2548171067482
 30
0.0
 10
207.8135919062023
 20
157.0598903506708
 30
0.0
 10
207.5841278926636
 20
157.2936416873488
 30
0.0
 10
207.4612964430595
 20
157.5414669319016
 30
0.0
 10
207.4272723419951
 20
157.6101140999857
 30
0.0
  0
SPLINE
  5
148
330
1F
100
AcDbEntity
  8
0
  6
HIDDEN
 62
     7
370
     0
100
AcDbSpline
210
0.0
220
0.0
230
1.0
 70
     8
 71
     3
 72
    11
 73
     7
 74
     0
 42
0.000000001
 43
0.00000001
 40
0.0
 40
0.0
 40
0.0
 40
0.0
 40
0.2164553779443433
 40
0.4403112895790502
 40
0.7519005688038681
 40
0.9999999999999999
 40
0.9999999999999999
 40
0.9999999999999999
 40
0.9999999999999999
 10
211.561904789621
 20
157.6101140999857
 30
0.0
 10
211.3343126426391
 20
157.5014559297207
 30
0.0
 10
210.8713470527454
 20
157.2804246043407
 30
0.0
 10
210.0122065683406
 20
157.0961946799232
 30
0.0
 10
209.0906242870579
 20
157.2072705840225
 30
0.0
 10
208.500866967665
 20
157.4863870457962
 30
0.0
 10
208.2394386901943
 20
157.6101140999857
 30
0.0
  0
SPLINE
  5
149
330
1F
100
AcDbEntity
  8
0
  6
HIDDEN
 62
     7
370
     0
100
AcDbSpline
210
0.0
220
0.0
230
1.0
 70
     8
 71
     3
 72
    11
 73
     7
 74
     0
 42
0.000000001
 43
0.00000001
 40
0.0
 40
0.0
 40
0.0
 40
0.0
 40
0.2164553779443433
 40
0.4403112895790476
 40
0.751900568803865
 40
1.0
 40
1.0
 40
1.0
 40
1.0
 10
214.0722045408486
 20
157.6101140999857
 30
0.0
 10
213.9002465756345
 20
157.5014559297207
 30
0.0
 10
213.5504514624993
 20
157.2804246043407
 30
0.0
 10
212.901325156999
 20
157.0961946799232
 30
0.0
 10
212.2050207547242
 20
157.2072705840225
 30
0.0
 10
211.7594277500545
 20
157.4863870457962
 30
0.0
 10
211.561904789621
 20
157.6101140999857
 30
0.0
  0
LINE
  5
14A
330
1F
100
AcDbEntity
  8
0
  6
HIDDEN
 62
     7
370
     0
100
AcDbLine
 10
209.9006717399
 20
151.1460124848
 30
0.0
 11
211.5619047896
 21
151.1460124848
 31
0.0
  0
LINE
  5
14B
330
1F
100
AcDbEntity
  8
0
  6
HIDDEN
 62
     7
370
     0
100
AcDbLine
 10
211.5619047896
 20
151.1460124848
 30
0.0
 11
212.8170546652
 21
151.1460124848
 31
0.0
  0
LINE
  5
14C
330
1F
100
AcDbEntity
  8
0
  6
HIDDEN
 62
     7
370
     0
100
AcDbLine
 10
211.5619047896
 20
151.1460124848
 30
0.0
 11
211.5619047896
 21
157.6101141
 31
0.0
  0
LINE
  5
14D
330
1F
100
AcDbEntity
  8
0
  6
HIDDEN
 62
     7
370
     0
100
AcDbLine
 10
213.7497384414
 20
150.6460124848
 30
0.0
 11
207.7497384414
 21
150.6460124848
 31
0.0
  0
LINE
  5
14E
330
1F
100
AcDbEntity
  8
0
  6
HIDDEN
 62
     7
370
     0
100
AcDbLine
 10
208.2394386902
 20
151.1460124848
 30
0.0
 11
209.9006717399
 21
151.1460124848
 31
0.0
  0
LINE
  5
14F
330
1F
100
AcDbEntity
  8
0
  6
HIDDEN
 62
     7
370
     0
100
AcDbLine
 10
207.8333555161
 20
151.1460124848
 30
0.0
 11
208.2394386902
 21
151.1460124848
 31
0.0
  0
LINE
  5
150
330
1F
100
AcDbEntity
  8
0
  6
HIDDEN
 62
     7
370
     0
100
AcDbLine
 10
208.2394386902
 20
151.1460124848
 30
0.0
 11
208.2394386902
 21
157.6101141
 31
0.0
  0
LINE
  5
151
330
1F
100
AcDbEntity
  8
0
  6
HIDDEN
 62
     7
370
     0
100
AcDbLine
 10
212.8170546652
 20
151.1460124848
 30
0.0
 11
214.0722045408
 21
151.1460124848
 31
0.0
  0
LINE
  5
152
330
1F
100
AcDbEntity
  8
0
  6
HIDDEN
 62
     7
370
     0
100
AcDbLine
 10
213.2600381926
 20
151.1460124848
 30
0.0
 11
213.2600381926
 21
157.6101141
 31
0.0
  0
LINE
  5
153
330
1F
100
AcDbEntity
  8
0
  6
HIDDEN
 62
     7
370
     0
100
AcDbLine
 10
214.0722045408
 20
151.1460124848
 30
0.0
 11
214.0722045408
 21
157.6101141
 31
0.0
  0
LINE
  5
154
330
1F
100
AcDbEntity
  8
0
  6
HIDDEN
 62
     7
370
     0
100
AcDbLine
 10
207.427272342
 20
151.1460124848
 30
0.0
 11
207.8333555161
 21
151.1460124848
 31
0.0
  0
LINE
  5
155
330
1F
100
AcDbEntity
  8
0
  6
HIDDEN
 62
     7
370
     0
100
AcDbLine
 10
209.9375720932
 20
151.1460124848
 30
0.0
 11
209.9375720932
 21
157.6101141
 31
0.0
  0
LINE
  5
156
330
1F
100
AcDbEntity
  8
0
  6
HIDDEN
 62
     7
370
     0
100
AcDbLine
 10
207.427272342
 20
151.1460124848
 30
0.0
 11
207.427272342
 21
157.6101141
 31
0.0
  0
LINE
  5
157
330
1F
100
AcDbEntity
  8
0
  6
HIDDEN
 62
     7
370
     0
100
AcDbLine
 10
223.2997384414
 20
154.6460124848
 30
0.0
 11
222.7497384414
 21
153.4665336786
 31
0.0
  0
LINE
  5
158
330
1F
100
AcDbEntity
  8
0
  6
HIDDEN
 62
     7
370
     0
100
AcDbLine
 10
222.7497384414
 20
119.8254912911
 30
0.0
 11
223.2997384414
 21
118.6460124848
 31
0.0
  0
LINE
  5
159
330
1F
100
AcDbEntity
  8
0
  6
HIDDEN
 62
     7
370
     0
100
AcDbLine
 10
219.4497384414
 20
149.223362754
 30
0.0
 11
218.4497384414
 21
148.6460124848
 31
0.0
  0
LINE
  5
15A
330
1F
100
AcDbEntity
  8
0
  6
HIDDEN
 62
     7
370
     0
100
AcDbLine
 10
218.4497384414
 20
124.6460124848
 30
0.0
 11
219.4497384414
 21
124.0686622157
 31
0.0
  0
LINE
  5
15B
330
1F
100
AcDbEntity
  8
0
  6
HIDDEN
 62
     7
370
     0
100
AcDbLine
 10
198.8997384414
 20
124.3460124848
 30
0.0
 11
199.6011317006
 21
124.3460124848
 31
0.0
  0
LINE
  5
15C
330
1F
100
AcDbEntity
  8
0
  6
HIDDEN
 62
     7
370
     0
100
AcDbLine
 10
199.6011317006
 20
148.9460124848
 30
0.0
 11
198.8997384414
 21
148.9460124848
 31
0.0
  0
ARC
  5
15D
330
1F
100
AcDbEntity
  8
0
  6
HIDDEN
 62
     7
370
     0
100
AcDbCircle
 10
199.6011317006
 20
124.9460124848
 30
0.0
 40
0.6000000000000085
100
AcDbArc
 50
270.0
 51
285.0
  0
ARC
  5
15E
330
1F
100
AcDbEntity
  8
0
  6
HIDDEN
 62
     7
370
     0
100
AcDbCircle
 10
199.6011317006
 20
148.3460124848
 30
0.0
 40
0.6000000000000227
100
AcDbArc
 50
75.0
 51
90.0
  0
ARC
  5
15F
330
1F
100
AcDbEntity
  8
0
  6
HIDDEN
 62
     7
370
     0
100
AcDbCircle
 10
198.8997384414
 20
124.9460124848
 30
0.0
 40
0.5999999999999943
100
AcDbArc
 50
180.0
 51
270.0
  0
ARC
  5
160
330
1F
100
AcDbEntity
  8
0
  6
HIDDEN
 62
     7
370
     0
100
AcDbCircle
 10
198.8997384414
 20
148.3460124848
 30
0.0
 40
0.6000000000000227
100
AcDbArc
 50
90.0
 51
180.0
  0
LINE
  5
161
330
1F
100
AcDbEntity
  8
0
  6
HIDDEN
 62
     7
370
     0
100
AcDbLine
 10
199.7564231277
 20
124.3664569891
 30
0.0
 11
200.7997384414
 21
124.6460124848
 31
0.0
  0
LINE
  5
162
330
1F
100
AcDbEntity
  8
0
  6
HIDDEN
 62
     7
370
     0
100
AcDbLine
 10
200.7997384414
 20
148.6460124848
 30
0.0
 11
199.7564231277
 21
148.9255679806
 31
0.0
  0
LINE
  5
163
330
1F
100
AcDbEntity
  8
0
  6
HIDDEN
 62
     7
370
     0
100
AcDbLine
 10
200.7997384414
 20
124.6460124848
 30
0.0
 11
218.4497384414
 21
124.6460124848
 31
0.0
  0
LINE
  5
164
330
1F
100
AcDbEntity
  8
0
  6
HIDDEN
 62
     7
370
     0
100
AcDbLine
 10
205.3211311263
 20
148.6460124848
 30
0.0
 11
200.7997384414
 21
148.6460124848
 31
0.0
  0
LINE
  5
165
330
1F
100
AcDbEntity
  8
0
  6
HIDDEN
 62
     7
370
     0
100
AcDbLine
 10
218.4497384414
 20
148.6460124848
 30
0.0
 11
216.2002217245
 21
148.6460124848
 31
0.0
  0
ARC
  5
166
330
1F
100
AcDbEntity
  8
0
  6
HIDDEN
 62
     7
370
     0
100
AcDbCircle
 10
56.7497384414
 20
127.3460124848
 30
0.0
 40
0.7999999999999972
100
AcDbArc
 50
90.0
 51
180.0
  0
ARC
  5
167
330
1F
100
AcDbEntity
  8
0
  6
HIDDEN
 62
     7
370
     0
100
AcDbCircle
 10
56.7497384414
 20
145.9460124848
 30
0.0
 40
0.7999999999999972
100
AcDbArc
 50
180.0
 51
270.0
  0
LINE
  5
168
330
1F
100
AcDbEntity
  8
0
  6
HIDDEN
 62
     7
370
     0
100
AcDbLine
 10
63.8421108722
 20
127.9210124848
 30
0.0
 11
64.7187983337
 21
127.9210124848
 31
0.0
  0
LINE
  5
169
330
1F
100
AcDbEntity
  8
0
  6
HIDDEN
 62
     7
370
     0
100
AcDbLine
 10
64.7187983337
 20
145.3710124848
 30
0.0
 11
63.8421108722
 21
145.3710124848
 31
0.0
  0
ARC
  5
16A
330
1F
100
AcDbEntity
  8
0
  6
HIDDEN
 62
     7
370
     0
100
AcDbCircle
 10
64.7187983337
 20
128.3210124848
 30
0.0
 40
0.4000000000000315
100
AcDbArc
 50
270.0
 51
330.0
  0
ARC
  5
16B
330
1F
100
AcDbEntity
  8
0
  6
HIDDEN
 62
     7
370
     0
100
AcDbCircle
 10
64.7187983337
 20
144.9710124848
 30
0.0
 40
0.4000000000000173
100
AcDbArc
 50
30.0
 51
90.0
  0
ARC
  5
16C
330
1F
100
AcDbEntity
  8
0
  6
HIDDEN
 62
     7
370
     0
100
AcDbCircle
 10
63.8421108722
 20
128.3210124848
 30
0.0
 40
0.4000000000000199
100
AcDbArc
 50
255.0
 51
270.0
  0
ARC
  5
16D
330
1F
100
AcDbEntity
  8
0
  6
HIDDEN
 62
     7
370
     0
100
AcDbCircle
 10
63.8421108722
 20
144.9710124848
 30
0.0
 40
0.4000000000000057
100
AcDbArc
 50
90.0
 51
105.0
  0
LINE
  5
16E
330
1F
100
AcDbEntity
  8
0
  6
HIDDEN
 62
     7
370
     0
100
AcDbLine
 10
63.7385832541
 20
145.3573828154
 30
0.0
 11
62.9497384414
 21
145.1460124848
 31
0.0
  0
LINE
  5
16F
330
1F
100
AcDbEntity
  8
0
  6
HIDDEN
 62
     7
370
     0
100
AcDbLine
 10
62.9497384414
 20
128.1460124848
 30
0.0
 11
63.7385832541
 21
127.9346421543
 31
0.0
  0
LINE
  5
170
330
1F
100
AcDbEntity
  8
0
  6
HIDDEN
 62
     7
370
     0
100
AcDbLine
 10
65.0652084953
 20
128.1210124848
 30
0.0
 11
65.9456676558
 21
129.6460124848
 31
0.0
  0
LINE
  5
171
330
1F
100
AcDbEntity
  8
0
  6
HIDDEN
 62
     7
370
     0
100
AcDbLine
 10
65.9456676558
 20
143.6460124848
 30
0.0
 11
65.0652084953
 21
145.1710124848
 31
0.0
  0
LINE
  5
172
330
1F
100
AcDbEntity
  8
0
  6
HIDDEN
 62
     7
370
     0
100
AcDbLine
 10
56.7497384414
 20
128.1460124848
 30
0.0
 11
62.9497384414
 21
128.1460124848
 31
0.0
  0
LINE
  5
173
330
1F
100
AcDbEntity
  8
0
  6
HIDDEN
 62
     7
370
     0
100
AcDbLine
 10
62.9497384414
 20
145.1460124848
 30
0.0
 11
56.7497384414
 21
145.1460124848
 31
0.0
  0
LINE
  5
174
330
1F
100
AcDbEntity
  8
0
  6
HIDDEN
 62
     7
370
     0
100
AcDbLine
 10
219.4497384414
 20
121.7460124848
 30
0.0
 11
222.7497384414
 21
121.7460124848
 31
0.0
  0
LINE
  5
175
330
1F
100
AcDbEntity
  8
0
  6
HIDDEN
 62
     7
370
     0
100
AcDbLine
 10
222.7497384414
 20
151.5460124848
 30
0.0
 11
219.4497384414
 21
151.5460124848
 31
0.0
  0
LINE
  5
176
330
1F
100
AcDbEntity
  8
0
  6
HIDDEN
 62
     7
370
     0
100
AcDbLine
 10
98.9497384414
 20
129.6460124848
 30
0.0
 11
100.6021051437
 21
132.3960124848
 31
0.0
  0
LINE
  5
177
330
1F
100
AcDbEntity
  8
0
  6
HIDDEN
 62
     7
370
     0
100
AcDbLine
 10
100.6021051437
 20
140.8960124848
 30
0.0
 11
98.9497384414
 21
143.6460124848
 31
0.0
  0
LINE
  5
178
330
1F
100
AcDbEntity
  8
0
  6
HIDDEN
 62
     7
370
     0
100
AcDbLine
 10
65.9456676558
 20
129.6460124848
 30
0.0
 11
98.9497384414
 21
129.6460124848
 31
0.0
  0
LINE
  5
179
330
1F
100
AcDbEntity
  8
0
  6
HIDDEN
 62
     7
370
     0
100
AcDbLine
 10
98.9497384414
 20
143.6460124848
 30
0.0
 11
65.9456676558
 21
143.6460124848
 31
0.0
  0
LINE
  5
17A
330
1F
100
AcDbEntity
  8
0
  6
HIDDEN
 62
     7
370
     0
100
AcDbLine
 10
203.2497384414
 20
157.6460124848
 30
0.0
 11
205.2497384414
 21
155.6460124848
 31
0.0
  0
LINE
  5
17B
330
1F
100
AcDbEntity
  8
0
  6
HIDDEN
 62
     7
370
     0
100
AcDbLine
 10
216.2497384414
 20
155.6460124848
 30
0.0
 11
218.2497384414
 21
157.6460124848
 31
0.0
  0
LINE
  5
17C
330
1F
100
AcDbEntity
  8
0
  6
HIDDEN
 62
     7
370
     0
100
AcDbLine
 10
205.2497384414
 20
155.6460124848
 30
0.0
 11
205.2497384414
 21
148.6134656358
 31
0.0
  0
LINE
  5
17D
330
1F
100
AcDbEntity
  8
0
  6
HIDDEN
 62
     7
370
     0
100
AcDbLine
 10
216.2497384414
 20
148.6237482134
 30
0.0
 11
216.2497384414
 21
155.6460124848
 31
0.0
  0
LINE
  5
17E
330
1F
100
AcDbEntity
  8
0
  6
HIDDEN
 62
     7
370
     0
100
AcDbLine
 10
100.6021051437
 20
132.3960124848
 30
0.0
 11
198.2997384414
 21
132.3960124848
 31
0.0
  0
LINE
  5
17F
330
1F
100
AcDbEntity
  8
0
  6
HIDDEN
 62
     7
370
     0
100
AcDbLine
 10
198.2997384414
 20
140.8960124848
 30
0.0
 11
100.6021051437
 21
140.8960124848
 31
0.0
  0
LINE
  5
180
330
1F
100
AcDbEntity
  8
0
  6
HIDDEN
 62
     7
370
     0
100
AcDbLine
 10
216.7497384414
 20
150.6147546365
 30
0.0
 11
216.7497384414
 21
157.1460124848
 31
0.0
  0
LINE
  5
181
330
1F
100
AcDbEntity
  8
0
  6
HIDDEN
 62
     7
370
     0
100
AcDbLine
 10
204.7497384414
 20
157.1460124848
 30
0.0
 11
204.7497384414
 21
150.6147546365
 31
0.0
  0
LINE
  5
182
330
1F
100
AcDbEntity
  8
0
  6
HIDDEN
 62
     7
370
     0
100
AcDbLine
 10
216.7497384414
 20
157.1460124848
 30
0.0
 11
216.6326625686
 21
157.2630883577
 31
0.0
  0
LINE
  5
183
330
1F
100
AcDbEntity
  8
0
  6
HIDDEN
 62
     7
370
     0
100
AcDbLine
 10
204.8658578542
 20
157.2621318976
 30
0.0
 11
204.7497384414
 21
157.1460124848
 31
0.0
  0
LINE
  5
184
330
1F
100
AcDbEntity
  8
0
  6
HIDDEN
 62
     7
370
     0
100
AcDbLine
 10
204.7497384414
 20
150.6147546365
 30
0.0
 11
205.568480593
 21
149.7960124848
 31
0.0
  0
LINE
  5
185
330
1F
100
AcDbEntity
  8
0
  6
HIDDEN
 62
     7
370
     0
100
AcDbLine
 10
215.9309962898
 20
149.7960124848
 30
0.0
 11
216.7497384414
 21
150.6147546365
 31
0.0
  0
LINE
  5
186
330
1F
100
AcDbEntity
  8
0
  6
HIDDEN
 62
     7
370
     0
100
AcDbLine
 10
205.568480593
 20
149.7960124848
 30
0.0
 11
206.5771913081
 21
145.2460124848
 31
0.0
  0
LINE
  5
187
330
1F
100
AcDbEntity
  8
0
  6
HIDDEN
 62
     7
370
     0
100
AcDbLine
 10
214.9222855748
 20
145.2460124848
 30
0.0
 11
215.9309962898
 21
149.7960124848
 31
0.0
  0
LINE
  5
188
330
1F
100
AcDbEntity
  8
0
  6
HIDDEN
 62
     7
370
     0
100
AcDbLine
 10
206.5771913081
 20
145.2460124848
 30
0.0
 11
206.8771913081
 21
144.9460124848
 31
0.0
  0
LINE
  5
189
330
1F
100
AcDbEntity
  8
0
  6
HIDDEN
 62
     7
370
     0
100
AcDbLine
 10
214.6222855748
 20
144.9460124848
 30
0.0
 11
214.9222855748
 21
145.2460124848
 31
0.0
  0
LINE
  5
18A
330
1F
100
AcDbEntity
  8
0
  6
HIDDEN
 62
     7
370
     0
100
AcDbLine
 10
207.2497384414
 20
157.6460124848
 30
0.0
 11
207.6348460625
 21
157.2609048637
 31
0.0
  0
LINE
  5
18B
330
1F
100
AcDbEntity
  8
0
  6
HIDDEN
 62
     7
370
     0
100
AcDbLine
 10
213.8604765157
 20
157.2567505591
 30
0.0
 11
214.2497384414
 21
157.6460124848
 31
0.0
  0
LINE
  5
18C
330
1F
100
AcDbEntity
  8
0
  6
HIDDEN
 62
     7
370
     0
100
AcDbLine
 10
207.7497384414
 20
150.6460124848
 30
0.0
 11
210.7497384414
 21
149.554101782
 31
0.0
  0
LINE
  5
18D
330
1F
100
AcDbEntity
  8
0
  6
HIDDEN
 62
     7
370
     0
100
AcDbLine
 10
210.7497384414
 20
149.554101782
 30
0.0
 11
213.7497384414
 21
150.6460124848
 31
0.0
  0
LINE
  5
18E
330
1F
100
AcDbEntity
  8
0
  6
HIDDEN
 62
     7
370
     0
100
AcDbLine
 10
213.7497384414
 20
150.6460124848
 30
0.0
 11
213.7497384414
 21
151.1460124848
 31
0.0
  0
LINE
  5
18F
330
1F
100
AcDbEntity
  8
0
  6
HIDDEN
 62
     7
370
     0
100
AcDbLine
 10
207.7497384414
 20
151.1460124848
 30
0.0
 11
207.7497384414
 21
150.6460124848
 31
0.0
  0
DIMENSION
  5
190
330
1F
100
AcDbEntity
  8
VERMASSUNG
100
AcDbDimension
  2
_D
 10
50.6997044749
 20
104.8960124848
 30
0.0
 11
50.6997044749
 21
137.070635243
 31
0.0
 70
   160
  1
%%c<>
 71
     2
 42
-1.0
  3
SLDDIMSTYLE0
100
AcDbAlignedDimension
 13
127.9997384414
 23
168.3960124848
 33
0.0
 14
127.9997384414
 24
104.8960124848
 34
0.0
 50
90.0
100
AcDbRotatedDimension
  0
DIMENSION
  5
19C
330
1F
100
AcDbEntity
  8
VERMASSUNG
100
AcDbDimension
  2
_D_1
 10
124.1997384414
 20
181.3798859957
 30
0.0
 11
174.096825144
 21
181.3798859957
 31
0.0
 70
   160
  1
<>
 71
     2
 42
-1.0
  3
SLDDIMSTYLE0
100
AcDbAlignedDimension
 13
223.2997384414
 23
157.2460124848
 33
0.0
 14
124.1997384414
 24
158.8710124848
 34
0.0
100
AcDbRotatedDimension
  0
DIMENSION
  5
1A6
330
1F
100
AcDbEntity
  8
VERMASSUNG
100
AcDbDimension
  2
_D_2
 10
143.2497384414
 20
175.3798859957
 30
0.0
 11
181.4998458033
 21
175.3798859957
 31
0.0
 70
   160
  1
<>
 71
     2
 42
-1.0
  3
SLDDIMSTYLE0
100
AcDbAlignedDimension
 13
223.2997384414
 23
154.6460124848
 33
0.0
 14
143.2497384414
 24
167.7960124848
 34
0.0
100
AcDbRotatedDimension
  0
DIMENSION
  5
1B0
330
1F
100
AcDbEntity
  8
VERMASSUNG
100
AcDbDimension
  2
_D_3
 10
55.9497384414
 20
187.3798859957
 30
0.0
 11
146.262388385
 21
187.3798859957
 31
0.0
 70
   160
  1
<>
 71
     2
 42
-1.0
  3
SLDDIMSTYLE0
100
AcDbAlignedDimension
 13
223.2997384414
 23
157.2460124848
 33
0.0
 14
55.9497384414
 24
148.0531430819
 34
0.0
100
AcDbRotatedDimension
  0
DIMENSION
  5
1BA
330
1F
100
AcDbEntity
  8
VERMASSUNG
100
AcDbDimension
  2
_D_4
 10
232.5548640842
 20
115.6460124848
 30
0.0
 11
232.5548640842
 21
137.0027837983
 31
0.0
 70
   160
  1
MBM %%c<>
 71
     2
 42
-1.0
  3
SLDDIMSTYLE0
100
AcDbAlignedDimension
 13
222.8997384414
 23
157.6460124848
 33
0.0
 14
222.8997384414
 24
115.6460124848
 34
0.0
 50
90.0
100
AcDbRotatedDimension
  0
INSERT
  5
1CB
330
1F
100
AcDbEntity
  8
VERMASSUNG
100
AcDbBlockReference
  2
SW_NOTE_0
 10
102.5954946131
 20
112.8517986952
 30
0.0
  0
LEADER
  5
1D5
330
1F
100
AcDbEntity
  8
VERMASSUNG
100
AcDbLeader
  3
SLDDIMSTYLE1
 76
     2
 10
107.0380207146
 20
122.5363998657
 30
0.0
 10
102.5954946131
 20
112.8517986952
 30
0.0
  0
INSERT
  5
1DB
330
1F
100
AcDbEntity
  8
VERMASSUNG
100
AcDbBlockReference
  2
SW_NOTE_1
 10
215.8178256611
 20
165.0449691794
 30
0.0
  0
LEADER
  5
1DC
330
1F
100
AcDbEntity
  8
VERMASSUNG
100
AcDbLeader
  3
SLDDIMSTYLE1
 76
     2
 10
213.2600381926
 20
156.142964537
 30
0.0
 10
215.8178256611
 20
165.0449691794
 30
0.0
  0
LINE
  5
1DD
330
1F
100
AcDbEntity
  8
VERMASSUNG
  6
CENTERX2
 62
     7
370
     0
100
AcDbLine
 10
210.7497384414
 20
142.9460124848
 30
0.0
 11
210.7497384414
 21
159.955903006
 31
0.0
  0
LINE
  5
1DE
330
1F
100
AcDbEntity
  8
VERMASSUNG
  6
CENTERX2
 62
     7
370
     0
100
AcDbLine
 10
53.9497384414
 20
136.6460124848
 30
0.0
 11
224.7286697216
 21
136.6460124848
 31
0.0
  0
ARC
  5
1DF
330
1F
100
AcDbEntity
  8
0
  6
Continuous
 62
     7
370
    15
100
AcDbCircle
 10
147.2497384414
 20
41.4172865347
 30
0.0
 40
4.000000000000002
100
AcDbArc
 50
90.0
 51
143.1132145971
  0
ARC
  5
1E0
330
1F
100
AcDbEntity
  8
0
  6
Continuous
 62
     7
370
    15
100
AcDbCircle
 10
147.2497384414
 20
91.4172865347
 30
0.0
 40
3.999999999999987
100
AcDbArc
 50
182.8497125175
 51
270.0
  0
ARC
  5
1E1
330
1F
100
AcDbEntity
  8
0
  6
Continuous
 62
     7
370
    15
100
AcDbCircle
 10
126.7997384414
 20
43.5922865347
 30
0.0
 40
0.6000000000000227
100
AcDbArc
 50
0.0
 51
90.0
  0
ARC
  5
1E2
330
1F
100
AcDbEntity
  8
0
  6
Continuous
 62
     7
370
    15
100
AcDbCircle
 10
126.7997384414
 20
89.2422865347
 30
0.0
 40
0.6000000000000227
100
AcDbArc
 50
270.0
 51
0.0
  0
LINE
  5
1E3
330
1F
100
AcDbEntity
  8
0
  6
Continuous
 62
     7
370
    15
100
AcDbLine
 10
124.1997384414
 20
44.1922865347
 30
0.0
 11
126.7997384414
 21
44.1922865347
 31
0.0
  0
LINE
  5
1E4
330
1F
100
AcDbEntity
  8
0
  6
Continuous
 62
     7
370
    15
100
AcDbLine
 10
126.7997384414
 20
88.6422865347
 30
0.0
 11
124.1997384414
 21
88.6422865347
 31
0.0
  0
LINE
  5
1E5
330
1F
100
AcDbEntity
  8
0
  6
Continuous
 62
     7
370
    15
100
AcDbLine
 10
124.1997384414
 20
88.6422865347
 30
0.0
 11
56.8054315484
 21
78.8139501128
 31
0.0
  0
LINE
  5
1E6
330
1F
100
AcDbEntity
  8
0
  6
Continuous
 62
     7
370
    15
100
AcDbLine
 10
56.8054315484
 20
54.0206229566
 30
0.0
 11
124.1997384414
 21
44.1922865347
 31
0.0
  0
LINE
  5
1E7
330
1F
100
AcDbEntity
  8
0
  6
Continuous
 62
     7
370
    15
100
AcDbLine
 10
147.2497384414
 20
45.4172865347
 30
0.0
 11
222.8997384414
 21
45.4172865347
 31
0.0
  0
LINE
  5
1E8
330
1F
100
AcDbEntity
  8
0
  6
Continuous
 62
     7
370
    15
100
AcDbLine
 10
222.8997384414
 20
87.4172865347
 30
0.0
 11
147.2497384414
 21
87.4172865347
 31
0.0
  0
LINE
  5
1E9
330
1F
100
AcDbEntity
  8
0
  6
Continuous
 62
     7
370
    15
100
AcDbLine
 10
222.8997384414
 20
45.4172865347
 30
0.0
 11
223.2997384414
 21
45.8172865347
 31
0.0
  0
LINE
  5
1EA
330
1F
100
AcDbEntity
  8
0
  6
Continuous
 62
     7
370
    15
100
AcDbLine
 10
223.2997384414
 20
87.0172865347
 30
0.0
 11
222.8997384414
 21
87.4172865347
 31
0.0
  0
ARC
  5
1EB
330
1F
100
AcDbEntity
  8
0
  6
Continuous
 62
     7
370
    15
100
AcDbCircle
 10
56.9497384414
 20
55.0101559377
 30
0.0
 40
0.9999999999999878
100
AcDbArc
 50
180.0
 51
261.7028550302
  0
ARC
  5
1EC
330
1F
100
AcDbEntity
  8
0
  6
Continuous
 62
     7
370
    15
100
AcDbCircle
 10
56.9497384414
 20
77.8244171317
 30
0.0
 40
0.9999999999999949
100
AcDbArc
 50
98.2971449698
 51
180.0
  0
LINE
  5
1ED
330
1F
100
AcDbEntity
  8
0
  6
Continuous
 62
     7
370
    15
100
AcDbLine
 10
138.8215750835
 20
35.9691941861
 30
0.0
 11
142.6497384414
 21
35.9691941861
 31
0.0
  0
LINE
  5
1EE
330
1F
100
AcDbEntity
  8
0
  6
Continuous
 62
     7
370
    15
100
AcDbLine
 10
138.8215750835
 20
35.9691941861
 30
0.0
 11
138.8215750835
 21
84.7672865347
 31
0.0
  0
LINE
  5
1EF
330
1F
100
AcDbEntity
  8
0
  6
Continuous
 62
     7
370
    15
100
AcDbLine
 10
142.6497384414
 20
84.7672865347
 30
0.0
 11
138.8215750835
 21
84.7672865347
 31
0.0
  0
SPLINE
  5
1F0
330
1F
100
AcDbEntity
  8
0
  6
Continuous
 62
     7
370
    15
100
AcDbSpline
210
0.0
220
0.0
230
1.0
 70
     8
 71
     3
 72
    12
 73
     8
 74
     0
 42
0.000000001
 43
0.00000001
 40
0.0
 40
0.0
 40
0.0
 40
0.0
 40
0.2499999999999999
 40
0.2499999999999999
 40
0.4999999999999998
 40
0.4999999999999998
 40
1.0
 40
1.0
 40
1.0
 40
1.0
 10
142.6497384414218
 20
35.96919418606857
 30
0.0
 10
142.7452803515578
 20
35.96919418606857
 30
0.0
 10
142.8374252934206
 20
35.98544785526478
 30
0.0
 10
142.9937515700305
 20
36.03905627617826
 30
0.0
 10
143.0574197126505
 20
36.07546740145993
 30
0.0
 10
143.2062875580808
 20
36.19759104114643
 30
0.0
 10
143.2497384414218
 20
36.29274371658346
 30
0.0
 10
143.2497384414218
 20
36.38837017220315
 30
0.0
  0
SPLINE
  5
1F1
330
1F
100
AcDbEntity
  8
0
  6
Continuous
 62
     7
370
    15
100
AcDbSpline
210
0.0
220
0.0
230
1.0
 70
    24
 71
     3
 72
    12
 73
     8
 74
     0
 42
0.000000001
 43
0.00000001
 40
0.0
 40
0.0
 40
0.0
 40
0.0
 40
0.500000000000004
 40
0.500000000000004
 40
0.750000000000002
 40
0.750000000000002
 40
1.0
 40
1.0
 40
1.0
 40
1.0
 10
143.2497384414218
 20
84.76728653470526
 30
0.0
 10
143.2497384414218
 20
84.76728653470526
 30
0.0
 10
143.1994527742502
 20
84.76728653470526
 30
0.0
 10
143.0443306398749
 20
84.76728653470526
 30
0.0
 10
142.9788733645328
 20
84.76728653470526
 30
0.0
 10
142.8249021408906
 20
84.76728653470526
 30
0.0
 10
142.7376798521747
 20
84.76728653470526
 30
0.0
 10
142.6497384414217
 20
84.76728653470526
 30
0.0
  0
LINE
  5
1F2
330
1F
100
AcDbEntity
  8
0
  6
Continuous
 62
     7
370
    15
100
AcDbLine
 10
143.2497384414
 20
36.3883701722
 30
0.0
 11
143.2497384414
 21
84.7672865347
 31
0.0
  0
SPLINE
  5
1F3
330
1F
100
AcDbEntity
  8
0
  6
Continuous
 62
     7
370
    15
100
AcDbSpline
210
0.0
220
0.0
230
1.0
 70
     8
 71
     3
 72
     8
 73
     4
 74
     0
 42
0.000000001
 43
0.00000001
 40
0.0
 40
0.0
 40
0.0
 40
0.0
 40
1.0
 40
1.0
 40
1.0
 40
1.0
 10
133.3897384414218
 20
38.6004600752038
 30
0.0
 10
133.0056036928375
 20
37.9078186532596
 30
0.0
 10
132.6206174163445
 20
37.21563247893589
 30
0.0
 10
132.2349488377182
 20
36.52383818809169
 30
0.0
  0
SPLINE
  5
1F4
330
1F
100
AcDbEntity
  8
0
  6
Continuous
 62
     7
370
    15
100
AcDbSpline
210
0.0
220
0.0
230
1.0
 70
     8
 71
     3
 72
     8
 73
     4
 74
     0
 42
0.000000001
 43
0.00000001
 40
0.0
 40
0.0
 40
0.0
 40
0.0
 40
0.0011901715795577
 40
0.0011901715795577
 40
0.0011901715795577
 40
0.0011901715795577
 10
131.7779017993651
 20
35.96919418606857
 30
0.0
 10
131.931747988861
 20
36.15375942375214
 30
0.0
 10
132.0841432565337
 20
36.33863478428077
 30
0.0
 10
132.2349488377182
 20
36.52383818809169
 30
0.0
  0
LINE
  5
1F5
330
1F
100
AcDbEntity
  8
0
  6
Continuous
 62
     7
370
    15
100
AcDbLine
 10
131.7779017994
 20
35.9691941861
 30
0.0
 11
131.7779017994
 21
84.7672865347
 31
0.0
  0
SPLINE
  5
1F6
330
1F
100
AcDbEntity
  8
0
  6
Continuous
 62
     7
370
    15
100
AcDbSpline
210
0.0
220
0.0
230
1.0
 70
    24
 71
     3
 72
     8
 73
     4
 74
     0
 42
0.000000001
 43
0.00000001
 40
0.0
 40
0.0
 40
0.0
 40
0.0
 40
1.0
 40
1.0
 40
1.0
 40
1.0
 10
133.3897384414218
 20
84.76728653470526
 30
0.0
 10
132.8650059530599
 20
84.76728653470526
 30
0.0
 10
132.3263304688411
 20
84.76728653470526
 30
0.0
 10
131.7779017993651
 20
84.76728653470526
 30
0.0
  0
LINE
  5
1F7
330
1F
100
AcDbEntity
  8
0
  6
Continuous
 62
     7
370
    15
100
AcDbLine
 10
133.3897384414
 20
38.6004600752
 30
0.0
 11
133.3897384414
 21
84.7672865347
 31
0.0
  0
LINE
  5
1F8
330
1F
100
AcDbEntity
  8
0
  6
Continuous
 62
     7
370
    15
100
AcDbLine
 10
127.9997384414
 20
35.9691941861
 30
0.0
 11
131.7779017994
 21
35.9691941861
 31
0.0
  0
LINE
  5
1F9
330
1F
100
AcDbEntity
  8
0
  6
Continuous
 62
     7
370
    15
100
AcDbLine
 10
131.7779017994
 20
84.7672865347
 30
0.0
 11
127.9997384414
 21
84.7672865347
 31
0.0
  0
SPLINE
  5
1FA
330
1F
100
AcDbEntity
  8
0
  6
Continuous
 62
     7
370
    15
100
AcDbSpline
210
0.0
220
0.0
230
1.0
 70
     8
 71
     3
 72
    10
 73
     6
 74
     0
 42
0.000000001
 43
0.00000001
 40
0.0
 40
0.0
 40
0.0
 40
0.0
 40
0.5
 40
0.5
 40
1.0
 40
1.0
 40
1.0
 40
1.0
 10
127.6158829827691
 20
36.06555668523703
 30
0.0
 10
127.6646529557504
 20
36.03732867802901
 30
0.0
 10
127.7221050790527
 20
36.01323407378742
 30
0.0
 10
127.8527019820414
 20
35.97897060069488
 30
0.0
 10
127.9251916618836
 20
35.96919418606856
 30
0.0
 10
127.9997384414218
 20
35.96919418606856
 30
0.0
  0
SPLINE
  5
1FB
330
1F
100
AcDbEntity
  8
0
  6
Continuous
 62
     7
370
    15
100
AcDbSpline
210
0.0
220
0.0
230
1.0
 70
     8
 71
     3
 72
    10
 73
     6
 74
     0
 42
0.000000001
 43
0.00000001
 40
0.0
 40
0.0
 40
0.0
 40
0.0
 40
0.5
 40
0.5
 40
1.0
 40
1.0
 40
1.0
 40
1.0
 10
127.6158829827691
 20
36.06555668523702
 30
0.0
 10
127.5577603226929
 20
36.13286184509882
 30
0.0
 10
127.5053571566894
 20
36.21294723213248
 30
0.0
 10
127.4264541351431
 20
36.39696667382125
 30
0.0
 10
127.3997384414218
 20
36.5021780312417
 30
0.0
 10
127.3997384414218
 20
36.61091137770235
 30
0.0
  0
LINE
  5
1FC
330
1F
100
AcDbEntity
  8
0
  6
Continuous
 62
     7
370
    15
100
AcDbLine
 10
127.3997384414
 20
36.6109113777
 30
0.0
 11
127.3997384414
 21
84.7672865347
 31
0.0
  0
SPLINE
  5
1FD
330
1F
100
AcDbEntity
  8
0
  6
Continuous
 62
     7
370
    15
100
AcDbSpline
210
0.0
220
0.0
230
1.0
 70
    24
 71
     3
 72
    12
 73
     8
 74
     0
 42
0.000000001
 43
0.00000001
 40
0.0
 40
0.0
 40
0.0
 40
0.0
 40
0.2499999999999998
 40
0.2499999999999998
 40
0.4999999999999997
 40
0.4999999999999997
 40
1.0
 40
1.0
 40
1.0
 40
1.0
 10
127.9997384414218
 20
84.76728653470526
 30
0.0
 10
127.9122540717691
 20
84.76728653470526
 30
0.0
 10
127.8249211943484
 20
84.76728653470526
 30
0.0
 10
127.6710847809096
 20
84.76728653470526
 30
0.0
 10
127.6054626119361
 20
84.76728653470526
 30
0.0
 10
127.4500444065936
 20
84.76728653470526
 30
0.0
 10
127.3997384414218
 20
84.76728653470526
 30
0.0
 10
127.3997384414218
 20
84.76728653470526
 30
0.0
  0
SPLINE
  5
1FE
330
1F
100
AcDbEntity
  8
0
  6
Continuous
 62
     7
370
    15
100
AcDbSpline
210
0.0
220
0.0
230
1.0
 70
     8
 71
     3
 72
     8
 73
     4
 74
     0
 42
0.000000001
 43
0.00000001
 40
0.0
 40
0.0
 40
0.0
 40
0.0
 40
0.0011901715795577
 40
0.0011901715795577
 40
0.0011901715795577
 40
0.0011901715795577
 10
138.3645280451255
 20
36.5238381880917
 30
0.0
 10
138.51533362631
 20
36.33863478428077
 30
0.0
 10
138.6677288939826
 20
36.15375942375215
 30
0.0
 10
138.8215750834785
 20
35.96919418606857
 30
0.0
  0
SPLINE
  5
1FF
330
1F
100
AcDbEntity
  8
0
  6
Continuous
 62
     7
370
    15
100
AcDbSpline
210
0.0
220
0.0
230
1.0
 70
     8
 71
     3
 72
     8
 73
     4
 74
     0
 42
0.000000001
 43
0.00000001
 40
0.0
 40
0.0
 40
0.0
 40
0.0
 40
1.0
 40
1.0
 40
1.0
 40
1.0
 10
138.3645280451255
 20
36.5238381880917
 30
0.0
 10
137.9788594664991
 20
37.21563247893589
 30
0.0
 10
137.5938731900062
 20
37.9078186532596
 30
0.0
 10
137.2097384414218
 20
38.60046007520379
 30
0.0
  0
LINE
  5
200
330
1F
100
AcDbEntity
  8
0
  6
Continuous
 62
     7
370
    15
100
AcDbLine
 10
137.2097384414
 20
38.6004600752
 30
0.0
 11
137.2097384414
 21
84.7672865347
 31
0.0
  0
SPLINE
  5
201
330
1F
100
AcDbEntity
  8
0
  6
Continuous
 62
     7
370
    15
100
AcDbSpline
210
0.0
220
0.0
230
1.0
 70
    24
 71
     3
 72
     8
 73
     4
 74
     0
 42
0.000000001
 43
0.00000001
 40
0.0
 40
0.0
 40
0.0
 40
0.0
 40
1.0
 40
1.0
 40
1.0
 40
1.0
 10
138.8215750834785
 20
84.76728653470526
 30
0.0
 10
138.2731464140026
 20
84.76728653470526
 30
0.0
 10
137.7344709297837
 20
84.76728653470526
 30
0.0
 10
137.2097384414218
 20
84.76728653470526
 30
0.0
  0
SPLINE
  5
202
330
1F
100
AcDbEntity
  8
0
  6
Continuous
 62
     7
370
    15
100
AcDbSpline
210
0.0
220
0.0
230
1.0
 70
     8
 71
     3
 72
    12
 73
     8
 74
     0
 42
0.000000001
 43
0.00000001
 40
0.0
 40
0.0
 40
0.0
 40
0.0
 40
0.2499999999999978
 40
0.2499999999999978
 40
0.4999999999999957
 40
0.4999999999999957
 40
1.0
 40
1.0
 40
1.0
 40
1.0
 10
134.1897384414218
 20
39.59942867841853
 30
0.0
 10
134.0821518404596
 20
39.59942867841853
 30
0.0
 10
133.9761470864902
 20
39.57678729953144
 30
0.0
 10
133.7795220401415
 20
39.48988743493771
 30
0.0
 10
133.6916368669195
 20
39.42695521982976
 30
0.0
 10
133.4710842738151
 20
39.19195142127038
 30
0.0
 10
133.3897384414218
 20
38.97873373299952
 30
0.0
 10
133.3897384414218
 20
38.76520704689822
 30
0.0
  0
SPLINE
  5
203
330
1F
100
AcDbEntity
  8
0
  6
Continuous
 62
     7
370
    15
100
AcDbSpline
210
0.0
220
0.0
230
1.0
 70
    24
 71
     3
 72
    12
 73
     8
 74
     0
 42
0.000000001
 43
0.00000001
 40
0.0
 40
0.0
 40
0.0
 40
0.0
 40
0.2500000000000005
 40
0.2500000000000005
 40
0.500000000000001
 40
0.500000000000001
 40
1.0
 40
1.0
 40
1.0
 40
1.0
 10
134.1897384414218
 20
84.76728653470526
 30
0.0
 10
134.0682606696173
 20
84.76728653470526
 30
0.0
 10
133.9457071979554
 20
84.76728653470525
 30
0.0
 10
133.741654044417
 20
84.76728653470526
 30
0.0
 10
133.6554949811913
 20
84.76728653470526
 30
0.0
 10
133.4534544144955
 20
84.76728653470526
 30
0.0
 10
133.3897384414218
 20
84.76728653470526
 30
0.0
 10
133.3897384414218
 20
84.76728653470526
 30
0.0
  0
SPLINE
  5
204
330
1F
100
AcDbEntity
  8
0
  6
Continuous
 62
     7
370
    15
100
AcDbSpline
210
0.0
220
0.0
230
1.0
 70
     8
 71
     3
 72
    12
 73
     8
 74
     0
 42
0.000000001
 43
0.00000001
 40
0.0
 40
0.0
 40
0.0
 40
0.0
 40
0.4999999999999987
 40
0.4999999999999987
 40
0.7499999999999993
 40
0.7499999999999993
 40
1.0
 40
1.0
 40
1.0
 40
1.0
 10
137.2097384414218
 20
38.7652070468982
 30
0.0
 10
137.2097384414218
 20
38.97802960583108
 30
0.0
 10
137.1278130836021
 20
39.19228611246906
 30
0.0
 10
136.9088912801337
 20
39.42597574091894
 30
0.0
 10
136.8188439886427
 20
39.49046056576292
 30
0.0
 10
136.6234305206228
 20
39.57666017691849
 30
0.0
 10
136.516147553639
 20
39.59942867841853
 30
0.0
 10
136.4097384414218
 20
39.59942867841853
 30
0.0
  0
SPLINE
  5
205
330
1F
100
AcDbEntity
  8
0
  6
Continuous
 62
     7
370
    15
100
AcDbSpline
210
0.0
220
0.0
230
1.0
 70
    24
 71
     3
 72
    14
 73
    10
 74
     0
 42
0.000000001
 43
0.00000001
 40
0.0
 40
0.0
 40
0.0
 40
0.0
 40
0.25
 40
0.25
 40
0.5
 40
0.5
 40
0.75
 40
0.75
 40
1.0
 40
1.0
 40
1.0
 40
1.0
 10
137.2097384414218
 20
84.76728653470526
 30
0.0
 10
137.2097384414218
 20
84.76728653470526
 30
0.0
 10
137.193656839962
 20
84.76728653470526
 30
0.0
 10
137.1281653266951
 20
84.76728653470526
 30
0.0
 10
137.0788573535678
 20
84.76728653470526
 30
0.0
 10
136.9442878318708
 20
84.76728653470526
 30
0.0
 10
136.8587647557856
 20
84.76728653470526
 30
0.0
 10
136.6517692602305
 20
84.76728653470526
 30
0.0
 10
136.5310756262869
 20
84.76728653470526
 30
0.0
 10
136.4097384414218
 20
84.76728653470526
 30
0.0
  0
LINE
  5
206
330
1F
100
AcDbEntity
  8
0
  6
Continuous
 62
     7
370
    15
100
AcDbLine
 10
136.4097384414
 20
39.5994286784
 30
0.0
 11
134.1897384414
 21
39.5994286784
 31
0.0
  0
LINE
  5
207
330
1F
100
AcDbEntity
  8
0
  6
Continuous
 62
     7
370
    15
100
AcDbLine
 10
136.4097384414
 20
84.7672865347
 30
0.0
 11
134.1897384414
 21
84.7672865347
 31
0.0
  0
SPLINE
  5
208
330
1F
100
AcDbEntity
  8
0
  6
Continuous
 62
     7
370
    15
100
AcDbSpline
210
0.0
220
0.0
230
1.0
 70
    24
 71
     3
 72
    12
 73
     8
 74
     0
 42
0.000000001
 43
0.00000001
 40
0.0
 40
0.0
 40
0.0
 40
0.0
 40
0.5
 40
0.5
 40
0.75
 40
0.75
 40
1.0
 40
1.0
 40
1.0
 40
1.0
 10
143.540671880065
 20
43.81728653470525
 30
0.0
 10
143.6594901543079
 20
43.81728653470526
 30
0.0
 10
143.7913062918927
 20
43.81728653470526
 30
0.0
 10
143.9386042257412
 20
43.81728653470525
 30
0.0
 10
143.9792875774355
 20
43.81728653470525
 30
0.0
 10
144.0348992973961
 20
43.81728653470525
 30
0.0
 10
144.0497384414218
 20
43.81728653470525
 30
0.0
 10
144.0497384414218
 20
43.81728653470525
 30
0.0
  0
SPLINE
  5
209
330
1F
100
AcDbEntity
  8
0
  6
Continuous
 62
     7
370
    15
100
AcDbSpline
210
0.0
220
0.0
230
1.0
 70
     8
 71
     3
 72
    14
 73
    10
 74
     0
 42
0.000000001
 43
0.00000001
 40
0.0
 40
0.0
 40
0.0
 40
0.0
 40
0.2499999999999994
 40
0.2499999999999994
 40
0.4999999999999997
 40
0.4999999999999997
 40
0.7499999999999999
 40
0.7499999999999999
 40
1.0
 40
1.0
 40
1.0
 40
1.0
 10
143.2497384414218
 20
42.72125145754774
 30
0.0
 10
143.2497384414218
 20
42.88275589017193
 30
0.0
 10
143.2605823904951
 20
43.03156905617301
 30
0.0
 10
143.3007697670321
 20
43.30336726914057
 30
0.0
 10
143.3290825845604
 20
43.41964552373025
 30
0.0
 10
143.3939133574321
 20
43.61431403566939
 30
0.0
 10
143.4289444661568
 20
43.68839769842725
 30
0.0
 10
143.4935303490479
 20
43.79083406235814
 30
0.0
 10
143.5219240537102
 20
43.81728653470525
 30
0.0
 10
143.540671880065
 20
43.81728653470525
 30
0.0
  0
LINE
  5
20A
330
1F
100
AcDbEntity
  8
0
  6
Continuous
 62
     7
370
    15
100
AcDbLine
 10
124.1997384414
 20
44.1922865347
 30
0.0
 11
124.1997384414
 21
88.6422865347
 31
0.0
  0
LINE
  5
20B
330
1F
100
AcDbEntity
  8
0
  6
Continuous
 62
     7
370
    15
100
AcDbLine
 10
222.8997384414
 20
45.4172865347
 30
0.0
 11
222.8997384414
 21
87.4172865347
 31
0.0
  0
SPLINE
  5
20C
330
1F
100
AcDbEntity
  8
0
  6
Continuous
 62
     7
370
    15
100
AcDbSpline
210
0.0
220
0.0
230
1.0
 70
     8
 71
     3
 72
    54
 73
    50
 74
     0
 42
0.000000001
 43
0.00000001
 40
0.0
 40
0.0
 40
0.0
 40
0.0
 40
0.0312499999999986
 40
0.0312499999999986
 40
0.0624999999999971
 40
0.0624999999999971
 40
0.1249999999999947
 40
0.1249999999999947
 40
0.1874999999999922
 40
0.1874999999999922
 40
0.218749999999991
 40
0.218749999999991
 40
0.2499999999999897
 40
0.2499999999999897
 40
0.3124999999999871
 40
0.3124999999999871
 40
0.3749999999999845
 40
0.3749999999999845
 40
0.406249999999984
 40
0.406249999999984
 40
0.4374999999999836
 40
0.4374999999999836
 40
0.4999999999999827
 40
0.4999999999999827
 40
0.5312499999999822
 40
0.5312499999999822
 40
0.5624999999999818
 40
0.5624999999999818
 40
0.6249999999999809
 40
0.6249999999999809
 40
0.6562499999999813
 40
0.6562499999999813
 40
0.6874999999999818
 40
0.6874999999999818
 40
0.7499999999999843
 40
0.7499999999999843
 40
0.7812499999999863
 40
0.7812499999999863
 40
0.8124999999999883
 40
0.8124999999999883
 40
0.8749999999999922
 40
0.8749999999999922
 40
0.9062499999999941
 40
0.9062499999999941
 40
0.9374999999999961
 40
0.9374999999999961
 40
0.9687499999999981
 40
0.9687499999999981
 40
1.0
 40
1.0
 40
1.0
 40
1.0
 10
218.2497384414218
 20
66.41728653470526
 30
0.0
 10
218.2497384414218
 20
66.18841637068269
 30
0.0
 10
218.2355603085003
 20
65.95936163188526
 30
0.0
 10
218.1782370226931
 20
65.5008754103407
 30
0.0
 10
218.1348825412812
 20
65.27186295063599
 30
0.0
 10
217.9658075896095
 20
64.60381969469012
 30
0.0
 10
217.8002721879688
 20
64.17571416245245
 30
0.0
 10
217.3721172825126
 20
63.3587343414054
 30
0.0
 10
217.1161231230313
 20
62.98169784179657
 30
0.0
 10
216.6761290765434
 20
62.45738934524648
 30
0.0
 10
216.5192145554532
 20
62.28881927047708
 30
0.0
 10
216.1913596224514
 20
61.96976092322547
 30
0.0
 10
216.0205718037089
 20
61.81921631809691
 30
0.0
 10
215.4887342016992
 20
61.39277368930823
 30
0.0
 10
215.10690582757
 20
61.14103714152731
 30
0.0
 10
214.2987275453849
 20
60.70512364032415
 30
0.0
 10
213.8800819161199
 20
60.52476906327748
 30
0.0
 10
213.2313762447832
 20
60.30663649959711
 30
0.0
 10
213.0116596379443
 20
60.24272809987556
 30
0.0
 10
212.5651694514424
 20
60.13260474246397
 30
0.0
 10
212.3376353045943
 20
60.08633644590902
 30
0.0
 10
211.6561367503815
 20
59.97645569718004
 30
0.0
 10
211.2000451112163
 20
59.94049489173977
 30
0.0
 10
210.5133213052836
 20
59.94109618786832
 30
0.0
 10
210.2839799666708
 20
59.95044261289384
 30
0.0
 10
209.8244107218408
 20
59.98786965200526
 30
0.0
 10
209.5936854121689
 20
60.01612194569565
 30
0.0
 10
208.9130575542467
 20
60.12771255522352
 30
0.0
 10
208.4704692888669
 20
60.23780321586773
 30
0.0
 10
207.8231419456643
 20
60.4566680021334
 30
0.0
 10
207.6101412098065
 20
60.53863330911218
 30
0.0
 10
207.1898698268734
 20
60.72136183900035
 30
0.0
 10
206.9821846732319
 20
60.8224650272558
 30
0.0
 10
206.3803232206479
 20
61.14880264729199
 30
0.0
 10
206.0030083974368
 20
61.39838230201223
 30
0.0
 10
205.4739997669505
 20
61.82345344943587
 30
0.0
 10
205.3038675057911
 20
61.97365418602754
 30
0.0
 10
204.976823176692
 20
62.29241437983296
 30
0.0
 10
204.8197050469645
 20
62.46144297070425
 30
0.0
 10
204.3801285375703
 20
62.98612588573447
 30
0.0
 10
204.1252334280335
 20
63.3625053813416
 30
0.0
 10
203.8060776053541
 20
63.97192943253108
 30
0.0
 10
203.7100326212665
 20
64.1837727211824
 30
0.0
 10
203.545580699882
 20
64.61208085154745
 30
0.0
 10
203.4764492758233
 20
64.82965095504494
 30
0.0
 10
203.3646908428257
 20
65.27173795168389
 30
0.0
 10
203.3220601218959
 20
65.49625384203878
 30
0.0
 10
203.2645287105013
 20
65.95257439734623
 30
0.0
 10
203.2497384414218
 20
66.18620849108267
 30
0.0
 10
203.2497384414218
 20
66.41728653470526
 30
0.0
  0
SPLINE
  5
20D
330
1F
100
AcDbEntity
  8
0
  6
Continuous
 62
     7
370
    15
100
AcDbSpline
210
0.0
220
0.0
230
1.0
 70
     8
 71
     3
 72
    44
 73
    40
 74
     0
 42
0.000000001
 43
0.00000001
 40
0.0
 40
0.0
 40
0.0
 40
0.0
 40
0.062500000000001
 40
0.062500000000001
 40
0.0937500000000013
 40
0.0937500000000013
 40
0.1250000000000016
 40
0.1250000000000016
 40
0.1875000000000014
 40
0.1875000000000014
 40
0.2500000000000011
 40
0.2500000000000011
 40
0.3125000000000009
 40
0.3125000000000009
 40
0.3750000000000006
 40
0.3750000000000006
 40
0.4375000000000003
 40
0.4375000000000003
 40
0.5
 40
0.5
 40
0.5624999999999997
 40
0.5624999999999997
 40
0.6249999999999994
 40
0.6249999999999994
 40
0.6874999999999991
 40
0.6874999999999991
 40
0.7499999999999988
 40
0.7499999999999988
 40
0.8124999999999987
 40
0.8124999999999987
 40
0.8437499999999986
 40
0.8437499999999986
 40
0.8749999999999983
 40
0.8749999999999983
 40
0.937499999999999
 40
0.937499999999999
 40
0.9687499999999994
 40
0.9687499999999994
 40
1.0
 40
1.0
 40
1.0
 40
1.0
 10
203.2497384414218
 20
66.41728653470526
 30
0.0
 10
203.2497384414218
 20
66.87994042648845
 30
0.0
 10
203.3071950373287
 20
67.33530615152613
 30
0.0
 10
203.477157329943
 20
68.00776828361377
 30
0.0
 10
203.5480628902772
 20
68.22984250471386
 30
0.0
 10
203.7134618843415
 20
68.65881390660756
 30
0.0
 10
203.8083039866665
 20
68.86728219230157
 30
0.0
 10
204.1275049161429
 20
69.47561807105512
 30
0.0
 10
204.3889203928867
 20
69.86050267111717
 30
0.0
 10
204.976576193773
 20
70.55875985637363
 30
0.0
 10
205.3052693987535
 20
70.8770139626858
 30
0.0
 10
206.024316568086
 20
71.45177861465307
 30
0.0
 10
206.4054226614661
 20
71.70107398007532
 30
0.0
 10
207.2042766635987
 20
72.13073324873017
 30
0.0
 10
207.6225235115775
 20
72.31135242560163
 30
0.0
 10
208.4972936160238
 20
72.60449893844992
 30
0.0
 10
208.9421654541531
 20
72.7130497544255
 30
0.0
 10
209.8443119515758
 20
72.85803947773964
 30
0.0
 10
210.3034905286734
 20
72.89455088903587
 30
0.0
 10
211.2288325009237
 20
72.89277886311811
 30
0.0
 10
211.6852349654729
 20
72.85477280671587
 30
0.0
 10
212.5859484342216
 20
72.70677576824261
 30
0.0
 10
213.0319238987736
 20
72.59624310059174
 30
0.0
 10
213.9040618406447
 20
72.30044224113601
 30
0.0
 10
214.3210205453619
 20
72.11862213087915
 30
0.0
 10
215.1172862907758
 20
71.68668977443718
 30
0.0
 10
215.4982651372117
 20
71.43534706315236
 30
0.0
 10
216.2116816519668
 20
70.86088996616205
 30
0.0
 10
216.5355420144985
 20
70.5451450001678
 30
0.0
 10
216.9704058599812
 20
70.0262957457776
 30
0.0
 10
217.1068084955907
 20
69.84575151973524
 30
0.0
 10
217.3613105341582
 20
69.46824575330741
 30
0.0
 10
217.4801169394831
 20
69.26987393605526
 30
0.0
 10
217.80030176205
 20
68.65857392425235
 30
0.0
 10
217.9653614447639
 20
68.23236140599202
 30
0.0
 10
218.1349334479482
 20
67.56258624086983
 30
0.0
 10
218.178361958494
 20
67.3328244444011
 30
0.0
 10
218.2355290825835
 20
66.87533492996003
 30
0.0
 10
218.2497384414219
 20
66.64640322281224
 30
0.0
 10
218.2497384414218
 20
66.41728653470527
 30
0.0
  0
LINE
  5
20E
330
1F
100
AcDbEntity
  8
0
  6
Continuous
 62
     7
370
    15
100
AcDbLine
 10
223.2997384414
 20
45.8172865347
 30
0.0
 11
223.2997384414
 21
87.0172865347
 31
0.0
  0
SPLINE
  5
20F
330
1F
100
AcDbEntity
  8
0
  6
Continuous
 62
     7
370
    15
100
AcDbSpline
210
0.0
220
0.0
230
1.0
 70
     8
 71
     3
 72
     8
 73
     4
 74
     0
 42
0.000000001
 43
0.00000001
 40
0.0
 40
0.0
 40
0.0
 40
0.0
 40
0.0012409313617635
 40
0.0012409313617635
 40
0.0012409313617635
 40
0.0012409313617635
 10
132.3357837551258
 20
96.12982469096973
 30
0.0
 10
132.1505599155698
 20
96.3913522344469
 30
0.0
 10
131.9645747275973
 20
96.65261073622224
 30
0.0
 10
131.7779017993651
 20
96.91362261392082
 30
0.0
  0
SPLINE
  5
210
330
1F
100
AcDbEntity
  8
0
  6
Continuous
 62
     7
370
    15
100
AcDbSpline
210
0.0
220
0.0
230
1.0
 70
     8
 71
     3
 72
     8
 73
     4
 74
     0
 42
0.000000001
 43
0.00000001
 40
0.0
 40
0.0
 40
0.0
 40
0.0
 40
1.0
 40
1.0
 40
1.0
 40
1.0
 10
133.3897384414218
 20
94.23411299420673
 30
0.0
 10
133.0390862010943
 20
94.8663814032571
 30
0.0
 10
132.6877277780341
 20
95.49826330295589
 30
0.0
 10
132.3357837551258
 20
96.12982469096973
 30
0.0
  0
LINE
  5
211
330
1F
100
AcDbEntity
  8
0
  6
Continuous
 62
     7
370
    15
100
AcDbLine
 10
133.3897384414
 20
88.8194255906
 30
0.0
 11
133.3897384414
 21
94.2341129942
 31
0.0
  0
SPLINE
  5
212
330
1F
100
AcDbEntity
  8
0
  6
Continuous
 62
     7
370
    15
100
AcDbSpline
210
0.0
220
0.0
230
1.0
 70
     8
 71
     3
 72
     8
 73
     4
 74
     0
 42
0.000000001
 43
0.00000001
 40
0.0
 40
0.0
 40
0.0
 40
0.0
 40
1.0
 40
1.0
 40
1.0
 40
1.0
 10
131.7779017993651
 20
92.32751617475283
 30
0.0
 10
132.326846577562
 20
91.16242006243912
 30
0.0
 10
132.8654569520787
 20
89.99326174561465
 30
0.0
 10
133.3897384414218
 20
88.81942559056374
 30
0.0
  0
LINE
  5
213
330
1F
100
AcDbEntity
  8
0
  6
Continuous
 62
     7
370
    15
100
AcDbLine
 10
131.7779017994
 20
92.3275161748
 30
0.0
 11
131.7779017994
 21
96.9136226139
 31
0.0
  0
LINE
  5
214
330
1F
100
AcDbEntity
  8
0
  6
Continuous
 62
     7
370
    15
100
AcDbLine
 10
142.6497384414
 20
96.9136226139
 30
0.0
 11
138.8215750835
 21
96.9136226139
 31
0.0
  0
LINE
  5
215
330
1F
100
AcDbEntity
  8
0
  6
Continuous
 62
     7
370
    15
100
AcDbLine
 10
138.8215750835
 20
92.3275161748
 30
0.0
 11
142.6497384414
 21
92.3275161748
 31
0.0
  0
LINE
  5
216
330
1F
100
AcDbEntity
  8
0
  6
Continuous
 62
     7
370
    15
100
AcDbLine
 10
138.8215750835
 20
92.3275161748
 30
0.0
 11
138.8215750835
 21
96.9136226139
 31
0.0
  0
SPLINE
  5
217
330
1F
100
AcDbEntity
  8
0
  6
Continuous
 62
     7
370
    15
100
AcDbSpline
210
0.0
220
0.0
230
1.0
 70
     8
 71
     3
 72
    12
 73
     8
 74
     0
 42
0.000000001
 43
0.00000001
 40
0.0
 40
0.0
 40
0.0
 40
0.0
 40
0.5000000000000029
 40
0.5000000000000029
 40
0.7500000000000014
 40
0.7500000000000014
 40
1.0
 40
1.0
 40
1.0
 40
1.0
 10
143.2497384414218
 20
96.42783766814645
 30
0.0
 10
143.2497384414218
 20
96.54816470119957
 30
0.0
 10
143.1959436298289
 20
96.66626227468137
 30
0.0
 10
143.0350200598626
 20
96.80590501712035
 30
0.0
 10
142.97026859876
 20
96.84418097051481
 30
0.0
 10
142.8180484154423
 20
96.89902080014924
 30
0.0
 10
142.7352408999174
 20
96.91362261392082
 30
0.0
 10
142.6497384414218
 20
96.91362261392082
 30
0.0
  0
SPLINE
  5
218
330
1F
100
AcDbEntity
  8
0
  6
Continuous
 62
     7
370
    15
100
AcDbSpline
210
0.0
220
0.0
230
1.0
 70
     8
 71
     3
 72
    14
 73
    10
 74
     0
 42
0.000000001
 43
0.00000001
 40
0.0
 40
0.0
 40
0.0
 40
0.0
 40
0.25
 40
0.25
 40
0.5
 40
0.5
 40
0.75
 40
0.75
 40
1.0
 40
1.0
 40
1.0
 40
1.0
 10
142.6497384414218
 20
92.32751617475283
 30
0.0
 10
142.7381609795443
 20
92.32751617475283
 30
0.0
 10
142.8262149692373
 20
92.30244382429342
 30
0.0
 10
142.9780447331087
 20
92.21610175932211
 30
0.0
 10
143.0438876776725
 20
92.15455850480924
 30
0.0
 10
143.147686738218
 20
92.01273075855833
 30
0.0
 10
143.1861588476927
 20
91.93268216858827
 30
0.0
 10
143.2373815109673
 20
91.76366967191457
 30
0.0
 10
143.2497384414218
 20
91.67689036504493
 30
0.0
 10
143.2497384414218
 20
91.58869889078889
 30
0.0
  0
LINE
  5
219
330
1F
100
AcDbEntity
  8
0
  6
Continuous
 62
     7
370
    15
100
AcDbLine
 10
143.2497384414
 20
91.5886988908
 30
0.0
 11
143.2497384414
 21
96.4278376681
 31
0.0
  0
SPLINE
  5
21A
330
1F
100
AcDbEntity
  8
0
  6
Continuous
 62
     7
370
    15
100
AcDbSpline
210
0.0
220
0.0
230
1.0
 70
     8
 71
     3
 72
     8
 73
     4
 74
     0
 42
0.000000001
 43
0.00000001
 40
0.0
 40
0.0
 40
0.0
 40
0.0
 40
1.0
 40
1.0
 40
1.0
 40
1.0
 10
138.2636931277178
 20
96.12982469096973
 30
0.0
 10
137.9117491048096
 20
95.4982633029559
 30
0.0
 10
137.5603906817494
 20
94.8663814032571
 30
0.0
 10
137.2097384414218
 20
94.23411299420673
 30
0.0
  0
SPLINE
  5
21B
330
1F
100
AcDbEntity
  8
0
  6
Continuous
 62
     7
370
    15
100
AcDbSpline
210
0.0
220
0.0
230
1.0
 70
     8
 71
     3
 72
     8
 73
     4
 74
     0
 42
0.000000001
 43
0.00000001
 40
0.0
 40
0.0
 40
0.0
 40
0.0
 40
0.0012409313617635
 40
0.0012409313617635
 40
0.0012409313617635
 40
0.0012409313617635
 10
138.8215750834785
 20
96.91362261392082
 30
0.0
 10
138.6349021552464
 20
96.65261073622224
 30
0.0
 10
138.4489169672738
 20
96.3913522344469
 30
0.0
 10
138.2636931277178
 20
96.12982469096973
 30
0.0
  0
SPLINE
  5
21C
330
1F
100
AcDbEntity
  8
0
  6
Continuous
 62
     7
370
    15
100
AcDbSpline
210
0.0
220
0.0
230
1.0
 70
     8
 71
     3
 72
     8
 73
     4
 74
     0
 42
0.000000001
 43
0.00000001
 40
0.0
 40
0.0
 40
0.0
 40
0.0
 40
1.0
 40
1.0
 40
1.0
 40
1.0
 10
137.2097384414218
 20
88.81942559056377
 30
0.0
 10
137.7345295609178
 20
89.99440277826848
 30
0.0
 10
138.2730458121006
 20
91.16330194600664
 30
0.0
 10
138.8215750834785
 20
92.32751617475284
 30
0.0
  0
LINE
  5
21D
330
1F
100
AcDbEntity
  8
0
  6
Continuous
 62
     7
370
    15
100
AcDbLine
 10
137.2097384414
 20
88.8194255906
 30
0.0
 11
137.2097384414
 21
94.2341129942
 31
0.0
  0
SPLINE
  5
21E
330
1F
100
AcDbEntity
  8
0
  6
Continuous
 62
     7
370
    15
100
AcDbSpline
210
0.0
220
0.0
230
1.0
 70
     8
 71
     3
 72
    10
 73
     6
 74
     0
 42
0.000000001
 43
0.00000001
 40
0.0
 40
0.0
 40
0.0
 40
0.0
 40
0.5
 40
0.5
 40
1.0
 40
1.0
 40
1.0
 40
1.0
 10
127.6869800427294
 20
96.8425830896622
 30
0.0
 10
127.6111404487258
 20
96.77253390333357
 30
0.0
 10
127.5438169309999
 20
96.6873151297599
 30
0.0
 10
127.4371732926948
 20
96.47708900309809
 30
0.0
 10
127.3997384414218
 20
96.3535798122308
 30
0.0
 10
127.3997384414218
 20
96.22366169170814
 30
0.0
  0
SPLINE
  5
21F
330
1F
100
AcDbEntity
  8
0
  6
Continuous
 62
     7
370
    15
100
AcDbSpline
210
0.0
220
0.0
230
1.0
 70
     8
 71
     3
 72
     8
 73
     4
 74
     0
 42
0.000000001
 43
0.00000001
 40
0.0
 40
0.0
 40
0.0
 40
0.0
 40
1.0
 40
1.0
 40
1.0
 40
1.0
 10
127.9997384414218
 20
96.91362261392082
 30
0.0
 10
127.8875601872421
 20
96.91362261392082
 30
0.0
 10
127.7788906745137
 20
96.88794154865984
 30
0.0
 10
127.6869800427294
 20
96.84258308966218
 30
0.0
  0
SPLINE
  5
220
330
1F
100
AcDbEntity
  8
0
  6
Continuous
 62
     7
370
    15
100
AcDbSpline
210
0.0
220
0.0
230
1.0
 70
     8
 71
     3
 72
    12
 73
     8
 74
     0
 42
0.000000001
 43
0.00000001
 40
0.0
 40
0.0
 40
0.0
 40
0.0
 40
0.5
 40
0.5
 40
0.75
 40
0.75
 40
1.0
 40
1.0
 40
1.0
 40
1.0
 10
127.3997384414218
 20
91.58869889078888
 30
0.0
 10
127.3997384414218
 20
91.7634590661231
 30
0.0
 10
127.44965864274
 20
91.94116416990833
 30
0.0
 10
127.6050005406519
 20
92.15392091175359
 30
0.0
 10
127.6708512391762
 20
92.21571428447866
 30
0.0
 10
127.8232973070146
 20
92.30252087215968
 30
0.0
 10
127.9123074071342
 20
92.32751617475296
 30
0.0
 10
127.9997384414218
 20
92.32751617475296
 30
0.0
  0
LINE
  5
221
330
1F
100
AcDbEntity
  8
0
  6
Continuous
 62
     7
370
    15
100
AcDbLine
 10
127.3997384414
 20
91.5886988908
 30
0.0
 11
127.3997384414
 21
96.2236616917
 31
0.0
  0
LINE
  5
222
330
1F
100
AcDbEntity
  8
0
  6
Continuous
 62
     7
370
    15
100
AcDbLine
 10
131.7779017994
 20
96.9136226139
 30
0.0
 11
127.9997384414
 21
96.9136226139
 31
0.0
  0
LINE
  5
223
330
1F
100
AcDbEntity
  8
0
  6
Continuous
 62
     7
370
    15
100
AcDbLine
 10
127.9997384414
 20
92.3275161748
 30
0.0
 11
131.7779017994
 21
92.3275161748
 31
0.0
  0
SPLINE
  5
224
330
1F
100
AcDbEntity
  8
0
  6
Continuous
 62
     7
370
    15
100
AcDbSpline
210
0.0
220
0.0
230
1.0
 70
     8
 71
     3
 72
    12
 73
     8
 74
     0
 42
0.000000001
 43
0.00000001
 40
0.0
 40
0.0
 40
0.0
 40
0.0
 40
0.5
 40
0.5
 40
0.75
 40
0.75
 40
1.0
 40
1.0
 40
1.0
 40
1.0
 10
137.2097384414218
 20
94.06936602251231
 30
0.0
 10
137.2097384414218
 20
93.85622862086082
 30
0.0
 10
137.1270960262739
 20
93.64124909612313
 30
0.0
 10
136.9085126154635
 20
93.40833002723738
 30
0.0
 10
136.8194226624828
 20
93.34446311741686
 30
0.0
 10
136.6240173445853
 20
93.25807696303511
 30
0.0
 10
136.5174932976419
 20
93.23514439099199
 30
0.0
 10
136.4097384414218
 20
93.23514439099199
 30
0.0
  0
SPLINE
  5
225
330
1F
100
AcDbEntity
  8
0
  6
Continuous
 62
     7
370
    15
100
AcDbSpline
210
0.0
220
0.0
230
1.0
 70
     8
 71
     3
 72
    12
 73
     8
 74
     0
 42
0.000000001
 43
0.00000001
 40
0.0
 40
0.0
 40
0.0
 40
0.0
 40
0.2500000000000015
 40
0.2500000000000015
 40
0.500000000000003
 40
0.500000000000003
 40
1.0
 40
1.0
 40
1.0
 40
1.0
 10
136.4097384414218
 20
87.56622267816174
 30
0.0
 10
136.5318204389101
 20
87.56622267816172
 30
0.0
 10
136.6524109813958
 20
87.60494903433546
 30
0.0
 10
136.8579062650956
 20
87.73491262208174
 30
0.0
 10
136.9434227480481
 20
87.82411885862848
 30
0.0
 10
137.1468170995923
 20
88.12899539617409
 30
0.0
 10
137.2097384414218
 20
88.37176601027619
 30
0.0
 10
137.2097384414218
 20
88.61452735423055
 30
0.0
  0
LINE
  5
226
330
1F
100
AcDbEntity
  8
0
  6
Continuous
 62
     7
370
    15
100
AcDbLine
 10
136.4097384414
 20
93.235144391
 30
0.0
 11
134.1897384414
 21
93.235144391
 31
0.0
  0
LINE
  5
227
330
1F
100
AcDbEntity
  8
0
  6
Continuous
 62
     7
370
    15
100
AcDbLine
 10
134.1897384414
 20
87.5662226782
 30
0.0
 11
136.4097384414
 21
87.5662226782
 31
0.0
  0
SPLINE
  5
228
330
1F
100
AcDbEntity
  8
0
  6
Continuous
 62
     7
370
    15
100
AcDbSpline
210
0.0
220
0.0
230
1.0
 70
     8
 71
     3
 72
    12
 73
     8
 74
     0
 42
0.000000001
 43
0.00000001
 40
0.0
 40
0.0
 40
0.0
 40
0.0
 40
0.25
 40
0.25
 40
0.5
 40
0.5
 40
1.0
 40
1.0
 40
1.0
 40
1.0
 10
134.1897384414218
 20
93.23514439099199
 30
0.0
 10
134.0832602289438
 20
93.23514439099199
 30
0.0
 10
133.9762542804852
 20
93.2577935886015
 30
0.0
 10
133.780087661393
 20
93.34438064917377
 30
0.0
 10
133.6916189758381
 20
93.40762509756051
 30
0.0
 10
133.4709933623552
 20
93.64274215729364
 30
0.0
 10
133.3897384414218
 20
93.85650998938581
 30
0.0
 10
133.3897384414218
 20
94.06936602251231
 30
0.0
  0
SPLINE
  5
229
330
1F
100
AcDbEntity
  8
0
  6
Continuous
 62
     7
370
    15
100
AcDbSpline
210
0.0
220
0.0
230
1.0
 70
     8
 71
     3
 72
    14
 73
    10
 74
     0
 42
0.000000001
 43
0.00000001
 40
0.0
 40
0.0
 40
0.0
 40
0.0
 40
0.25
 40
0.25
 40
0.5
 40
0.5
 40
0.75
 40
0.75
 40
1.0
 40
1.0
 40
1.0
 40
1.0
 10
133.3897384414218
 20
88.61452735423055
 30
0.0
 10
133.3897384414218
 20
88.49363529614212
 30
0.0
 10
133.406233913815
 20
88.37117002105413
 30
0.0
 10
133.4714659805369
 20
88.1393488775024
 30
0.0
 10
133.5210838149556
 20
88.02637500219497
 30
0.0
 10
133.6557246509594
 20
87.82466953231943
 30
0.0
 10
133.7420465161071
 20
87.73453768524143
 30
0.0
 10
133.947234169209
 20
87.6049168068607
 30
0.0
 10
134.067202191824
 20
87.56622267816174
 30
0.0
 10
134.1897384414218
 20
87.56622267816174
 30
0.0
  0
LINE
  5
22A
330
1F
100
AcDbEntity
  8
0
  6
Continuous
 62
     7
370
    15
100
AcDbLine
 10
133.3897384414
 20
88.8194255906
 30
0.0
 11
133.3897384414
 21
88.6145273542
 31
0.0
  0
LINE
  5
22B
330
1F
100
AcDbEntity
  8
0
  6
Continuous
 62
     7
370
    15
100
AcDbLine
 10
137.2097384414
 20
88.6145273542
 30
0.0
 11
137.2097384414
 21
88.8194255906
 31
0.0
  0
LINE
  5
22C
330
1F
100
AcDbEntity
  8
0
  6
Continuous
 62
     7
370
    15
100
AcDbLine
 10
127.3997384414
 20
91.5886988908
 30
0.0
 11
127.3997384414
 21
84.7672865347
 31
0.0
  0
LINE
  5
22D
330
1F
100
AcDbEntity
  8
0
  6
Continuous
 62
     7
370
    15
100
AcDbLine
 10
143.2497384414
 20
91.5886988908
 30
0.0
 11
143.2497384414
 21
84.7672865347
 31
0.0
  0
LINE
  5
22E
330
1F
100
AcDbEntity
  8
0
  6
Continuous
 62
     7
370
    15
100
AcDbLine
 10
55.9497384414
 20
55.0101559377
 30
0.0
 11
55.9497384414
 21
77.8244170256
 31
0.0
  0
SPLINE
  5
22F
330
1F
100
AcDbEntity
  8
0
  6
Continuous
 62
     7
370
    15
100
AcDbSpline
210
0.0
220
0.0
230
1.0
 70
    24
 71
     3
 72
    11
 73
     7
 74
     0
 42
0.000000001
 43
0.00000001
 40
0.0
 40
0.0
 40
0.0
 40
0.0
 40
0.1336647920874024
 40
0.4825473608259721
 40
0.8156356561503774
 40
0.9999999999999999
 40
0.9999999999999999
 40
0.9999999999999999
 40
0.9999999999999999
 10
213.2600381926493
 20
68.80441769134225
 30
0.0
 10
213.2940622937137
 20
68.66334089651603
 30
0.0
 10
213.4168937433178
 20
68.15403523753092
 30
0.0
 10
213.6463577568565
 20
67.2025906278201
 30
0.0
 10
213.892799674187
 20
66.18074920600023
 30
0.0
 10
214.0250756435355
 20
65.63228299515532
 30
0.0
 10
214.0722045408485
 20
65.43686875734697
 30
0.0
  0
SPLINE
  5
230
330
1F
100
AcDbEntity
  8
0
  6
Continuous
 62
     7
370
    15
100
AcDbSpline
210
0.0
220
0.0
230
1.0
 70
    24
 71
     3
 72
    11
 73
     7
 74
     0
 42
0.000000001
 43
0.00000001
 40
0.0
 40
0.0
 40
0.0
 40
0.0
 40
0.2164553779443454
 40
0.440311289579052
 40
0.7519005688038669
 40
1.0
 40
1.0
 40
1.0
 40
1.0
 10
209.9375720932226
 20
69.78483546870054
 30
0.0
 10
210.1651642402045
 20
69.71767590101476
 30
0.0
 10
210.6281298300982
 20
69.58106060350569
 30
0.0
 10
211.487270314503
 20
69.32753909901116
 30
0.0
 10
212.4088525957856
 20
69.05559180900761
 30
0.0
 10
212.9986099151786
 20
68.88156187372554
 30
0.0
 10
213.2600381926493
 20
68.80441769134225
 30
0.0
  0
SPLINE
  5
231
330
1F
100
AcDbEntity
  8
0
  6
Continuous
 62
     7
370
    15
100
AcDbSpline
210
0.0
220
0.0
230
1.0
 70
    24
 71
     3
 72
    11
 73
     7
 74
     0
 42
0.000000001
 43
0.00000001
 40
0.0
 40
0.0
 40
0.0
 40
0.0
 40
0.2164553779443427
 40
0.4403112895790445
 40
0.7519005688038618
 40
1.0
 40
1.0
 40
1.0
 40
1.0
 10
207.4272723419951
 20
67.39770431206352
 30
0.0
 10
207.5992303072091
 20
67.56122510920879
 30
0.0
 10
207.9490254203444
 20
67.89385742238026
 30
0.0
 10
208.5981517258446
 20
68.51113415504724
 30
0.0
 10
209.2944561281194
 20
69.17327417731381
 30
0.0
 10
209.7400491327891
 20
69.59700403033493
 30
0.0
 10
209.9375720932226
 20
69.78483546870054
 30
0.0
  0
SPLINE
  5
232
330
1F
100
AcDbEntity
  8
0
  6
Continuous
 62
     7
370
    15
100
AcDbSpline
210
0.0
220
0.0
230
1.0
 70
    24
 71
     3
 72
    11
 73
     7
 74
     0
 42
0.000000001
 43
0.00000001
 40
0.0
 40
0.0
 40
0.0
 40
0.0
 40
0.1843643438496195
 40
0.517452639174027
 40
0.8663352079125969
 40
0.9999999999999999
 40
0.9999999999999999
 40
0.9999999999999999
 40
0.9999999999999999
 10
208.2394386901943
 20
64.03015537806826
 30
0.0
 10
208.1923097928813
 20
64.22556961587661
 30
0.0
 10
208.0600338235328
 20
64.7740358267215
 30
0.0
 10
207.8135919062022
 20
65.79587724854136
 30
0.0
 10
207.5841278926635
 20
66.74732185825219
 30
0.0
 10
207.4612964430595
 20
67.2566275172373
 30
0.0
 10
207.4272723419951
 20
67.39770431206352
 30
0.0
  0
SPLINE
  5
233
330
1F
100
AcDbEntity
  8
0
  6
Continuous
 62
     7
370
    15
100
AcDbSpline
210
0.0
220
0.0
230
1.0
 70
    24
 71
     3
 72
    11
 73
     7
 74
     0
 42
0.000000001
 43
0.00000001
 40
0.0
 40
0.0
 40
0.0
 40
0.0
 40
0.2164553779443432
 40
0.440311289579054
 40
0.7519005688038685
 40
1.0
 40
1.0
 40
1.0
 40
1.0
 10
211.5619047896211
 20
63.04973760070997
 30
0.0
 10
211.3343126426391
 20
63.11689716839576
 30
0.0
 10
210.8713470527454
 20
63.25351246590481
 30
0.0
 10
210.0122065683406
 20
63.50703397039935
 30
0.0
 10
209.090624287058
 20
63.77898126040291
 30
0.0
 10
208.500866967665
 20
63.95301119568497
 30
0.0
 10
208.2394386901943
 20
64.03015537806826
 30
0.0
  0
SPLINE
  5
234
330
1F
100
AcDbEntity
  8
0
  6
Continuous
 62
     7
370
    15
100
AcDbSpline
210
0.0
220
0.0
230
1.0
 70
    24
 71
     3
 72
    11
 73
     7
 74
     0
 42
0.000000001
 43
0.00000001
 40
0.0
 40
0.0
 40
0.0
 40
0.0
 40
0.2164553779443446
 40
0.4403112895790459
 40
0.7519005688038639
 40
0.9999999999999999
 40
0.9999999999999999
 40
0.9999999999999999
 40
0.9999999999999999
 10
214.0722045408486
 20
65.43686875734697
 30
0.0
 10
213.9002465756345
 20
65.2733479602017
 30
0.0
 10
213.5504514624993
 20
64.94071564703026
 30
0.0
 10
212.901325156999
 20
64.32343891436328
 30
0.0
 10
212.2050207547242
 20
63.6612988920967
 30
0.0
 10
211.7594277500545
 20
63.23756903907558
 30
0.0
 10
211.561904789621
 20
63.04973760070997
 30
0.0
  0
CIRCLE
  5
235
330
1F
100
AcDbEntity
  8
0
  6
Continuous
 62
     7
370
    15
100
AcDbCircle
 10
210.7497384414
 20
66.4172865347
 30
0.0
 40
3.500000000000024
  0
CIRCLE
  5
236
330
1F
100
AcDbEntity
  8
0
  6
Continuous
 62
     7
370
    15
100
AcDbCircle
 10
210.7497384414
 20
66.4172865347
 30
0.0
 40
5.500000000000008
  0
CIRCLE
  5
237
330
1F
100
AcDbEntity
  8
0
  6
Continuous
 62
     7
370
    15
100
AcDbCircle
 10
210.7497384414
 20
66.4172865347
 30
0.0
 40
5.999999999999992
  0
ARC
  5
238
330
1F
100
AcDbEntity
  8
0
  6
Continuous
 62
     7
370
    15
100
AcDbCircle
 10
210.7497384414
 20
66.4172865347
 30
0.0
 40
3.000000000000016
100
AcDbArc
 50
73.5593358096
 51
133.5593358096
  0
ARC
  5
239
330
1F
100
AcDbEntity
  8
0
  6
Continuous
 62
     7
370
    15
100
AcDbCircle
 10
210.7497384414
 20
66.4172865347
 30
0.0
 40
3.000000000000009
100
AcDbArc
 50
13.5593358096
 51
73.5593358096
  0
ARC
  5
23A
330
1F
100
AcDbEntity
  8
0
  6
Continuous
 62
     7
370
    15
100
AcDbCircle
 10
210.7497384414
 20
66.4172865347
 30
0.0
 40
3.000000000000037
100
AcDbArc
 50
133.5593358096
 51
193.5593358096
  0
ARC
  5
23B
330
1F
100
AcDbEntity
  8
0
  6
Continuous
 62
     7
370
    15
100
AcDbCircle
 10
210.7497384414
 20
66.4172865347
 30
0.0
 40
3.000000000000009
100
AcDbArc
 50
313.5593358096
 51
13.5593358096
  0
ARC
  5
23C
330
1F
100
AcDbEntity
  8
0
  6
Continuous
 62
     7
370
    15
100
AcDbCircle
 10
210.7497384414
 20
66.4172865347
 30
0.0
 40
3.000000000000037
100
AcDbArc
 50
193.5593358096
 51
253.5593358096
  0
ARC
  5
23D
330
1F
100
AcDbEntity
  8
0
  6
Continuous
 62
     7
370
    15
100
AcDbCircle
 10
210.7497384414
 20
66.4172865347
 30
0.0
 40
3.000000000000013
100
AcDbArc
 50
253.5593358096
 51
313.5593358096
  0
LINE
  5
23E
330
1F
100
AcDbEntity
  8
0
  6
HIDDEN
 62
     7
370
     0
100
AcDbLine
 10
223.0553083378
 20
51.4801733666
 30
0.0
 11
222.8935716908
 21
51.4730328185
 31
0.0
  0
LINE
  5
23F
330
1F
100
AcDbEntity
  8
0
  6
HIDDEN
 62
     7
370
     0
100
AcDbLine
 10
222.7497384414
 20
81.3678903778
 30
0.0
 11
222.8937366037
 21
81.3620317396
 31
0.0
  0
LINE
  5
240
330
1F
100
AcDbEntity
  8
0
  6
HIDDEN
 62
     7
370
     0
100
AcDbLine
 10
222.7497384414
 20
81.3678903778
 30
0.0
 11
222.7497384414
 21
83.2378077284
 31
0.0
  0
SPLINE
  5
241
330
1F
100
AcDbEntity
  8
0
  6
HIDDEN
 62
     7
370
     0
100
AcDbSpline
210
0.0
220
0.0
230
1.0
 70
     8
 71
     3
 72
    24
 73
    20
 74
     0
 42
0.000000001
 43
0.00000001
 40
0.0
 40
0.0
 40
0.0
 40
0.0
 40
0.1250000000000006
 40
0.1250000000000006
 40
0.2500000000000013
 40
0.2500000000000013
 40
0.3750000000000019
 40
0.3750000000000019
 40
0.4375000000000022
 40
0.4375000000000022
 40
0.5000000000000024
 40
0.5000000000000024
 40
0.6250000000000019
 40
0.6250000000000019
 40
0.7500000000000012
 40
0.7500000000000012
 40
0.8750000000000007
 40
0.8750000000000007
 40
1.0
 40
1.0
 40
1.0
 40
1.0
 10
222.7497384414218
 20
77.64065159023174
 30
0.0
 10
222.8266146206104
 20
77.91923869771605
 30
0.0
 10
222.8944706227795
 20
78.19254537135417
 30
0.0
 10
223.013346870517
 20
78.7282680527849
 30
0.0
 10
223.0647838754145
 20
78.99365574364
 30
0.0
 10
223.1467732593837
 20
79.4920841226153
 30
0.0
 10
223.1777755796857
 20
79.72626531373653
 30
0.0
 10
223.2093238260002
 20
80.05421168013419
 30
0.0
 10
223.2173257982195
 20
80.16004515596973
 30
0.0
 10
223.2278607734512
 20
80.35870669481397
 30
0.0
 10
223.2304695766662
 20
80.45211536217289
 30
0.0
 10
223.2304872887221
 20
80.71489851491798
 30
0.0
 10
223.219959969862
 20
80.86819574525833
 30
0.0
 10
223.1778637005052
 20
81.12030409817906
 30
0.0
 10
223.146813756019
 20
81.2178822564886
 30
0.0
 10
223.0647556656301
 20
81.35809374441806
 30
0.0
 10
223.0133303455459
 20
81.39996009547198
 30
0.0
 10
222.8944681164651
 20
81.42573525725513
 30
0.0
 10
222.8266166611468
 20
81.41071035838172
 30
0.0
 10
222.7497384414218
 20
81.3678903777848
 30
0.0
  0
LINE
  5
242
330
1F
100
AcDbEntity
  8
0
  6
HIDDEN
 62
     7
370
     0
100
AcDbLine
 10
222.7497384414
 20
55.1939214792
 30
0.0
 11
222.7497384414
 21
77.6406515902
 31
0.0
  0
SPLINE
  5
243
330
1F
100
AcDbEntity
  8
0
  6
HIDDEN
 62
     7
370
     0
100
AcDbSpline
210
0.0
220
0.0
230
1.0
 70
     8
 71
     3
 72
    24
 73
    20
 74
     0
 42
0.000000001
 43
0.00000001
 40
0.0
 40
0.0
 40
0.0
 40
0.0
 40
0.1249999999999997
 40
0.1249999999999997
 40
0.2499999999999994
 40
0.2499999999999994
 40
0.3749999999999992
 40
0.3749999999999992
 40
0.4374999999999992
 40
0.4374999999999992
 40
0.4999999999999993
 40
0.4999999999999993
 40
0.6249999999999994
 40
0.6249999999999994
 40
0.7499999999999997
 40
0.7499999999999997
 40
0.8749999999999998
 40
0.8749999999999998
 40
1.0
 40
1.0
 40
1.0
 40
1.0
 10
222.7497384414218
 20
51.46668269162571
 30
0.0
 10
222.8266146206104
 20
51.42386384757603
 30
0.0
 10
222.8944706227795
 20
51.40883515012941
 30
0.0
 10
223.013346870517
 20
51.43461976339395
 30
0.0
 10
223.0647838754145
 20
51.47653201701883
 30
0.0
 10
223.1467732593838
 20
51.61661712720158
 30
0.0
 10
223.1777755796857
 20
51.71403579930726
 30
0.0
 10
223.2093238260002
 20
51.90253283240069
 30
0.0
 10
223.2173257982195
 20
51.97291204996949
 30
0.0
 10
223.2278607734512
 20
52.12487340020884
 30
0.0
 10
223.2304695766662
 20
52.20670104540764
 30
0.0
 10
223.2304872887221
 20
52.46940560847328
 30
0.0
 10
223.219959969862
 20
52.66950191958828
 30
0.0
 10
223.1778637005052
 20
53.10768623767008
 30
0.0
 10
223.146813756019
 20
53.34223813188532
 30
0.0
 10
223.0647556656301
 20
53.84109344598561
 30
0.0
 10
223.0133303455459
 20
54.10638299391964
 30
0.0
 10
222.8944681164651
 20
54.6420354857892
 30
0.0
 10
222.8266166611468
 20
54.91532697711357
 30
0.0
 10
222.7497384414218
 20
55.19392147917878
 30
0.0
  0
LINE
  5
244
330
1F
100
AcDbEntity
  8
0
  6
HIDDEN
 62
     7
370
     0
100
AcDbLine
 10
222.7497384414
 20
49.596765341
 30
0.0
 11
222.7497384414
 21
51.4666826916
 31
0.0
  0
LINE
  5
245
330
1F
100
AcDbEntity
  8
0
  6
HIDDEN
 62
     7
370
     0
100
AcDbLine
 10
219.4497384414
 20
58.3856304166
 30
0.0
 11
219.4497384414
 21
74.4489426528
 31
0.0
  0
LINE
  5
246
330
1F
100
AcDbEntity
  8
0
  6
HIDDEN
 62
     7
370
     0
100
AcDbLine
 10
218.4497384414
 20
54.4172865347
 30
0.0
 11
218.4497384414
 21
78.4172865347
 31
0.0
  0
LINE
  5
247
330
1F
100
AcDbEntity
  8
0
  6
HIDDEN
 62
     7
370
     0
100
AcDbLine
 10
222.7497384414
 20
81.3678903778
 30
0.0
 11
222.7497384414
 21
81.2693525993
 31
0.0
  0
LINE
  5
248
330
1F
100
AcDbEntity
  8
0
  6
HIDDEN
 62
     7
370
     0
100
AcDbLine
 10
219.4497384414
 20
81.2693525993
 30
0.0
 11
222.7497384414
 21
81.2693525993
 31
0.0
  0
LINE
  5
249
330
1F
100
AcDbEntity
  8
0
  6
HIDDEN
 62
     7
370
     0
100
AcDbLine
 10
219.4497384414
 20
81.4172865347
 30
0.0
 11
219.4497384414
 21
77.2172865347
 31
0.0
  0
LINE
  5
24A
330
1F
100
AcDbEntity
  8
0
  6
HIDDEN
 62
     7
370
     0
100
AcDbLine
 10
219.4497384414
 20
74.4489426528
 30
0.0
 11
222.7497384414
 21
74.4489426528
 31
0.0
  0
LINE
  5
24B
330
1F
100
AcDbEntity
  8
0
  6
HIDDEN
 62
     7
370
     0
100
AcDbLine
 10
219.4497384414
 20
77.2172865347
 30
0.0
 11
219.4497384414
 21
74.4489426528
 31
0.0
  0
LINE
  5
24C
330
1F
100
AcDbEntity
  8
0
  6
HIDDEN
 62
     7
370
     0
100
AcDbLine
 10
222.7497384414
 20
58.3856304166
 30
0.0
 11
219.4497384414
 21
58.3856304166
 31
0.0
  0
LINE
  5
24D
330
1F
100
AcDbEntity
  8
0
  6
HIDDEN
 62
     7
370
     0
100
AcDbLine
 10
219.4497384414
 20
58.3856304166
 30
0.0
 11
219.4497384414
 21
55.6172865347
 31
0.0
  0
LINE
  5
24E
330
1F
100
AcDbEntity
  8
0
  6
HIDDEN
 62
     7
370
     0
100
AcDbLine
 10
219.4497384414
 20
51.5652204701
 30
0.0
 11
222.7497384414
 21
51.5652204701
 31
0.0
  0
LINE
  5
24F
330
1F
100
AcDbEntity
  8
0
  6
HIDDEN
 62
     7
370
     0
100
AcDbLine
 10
222.7497384414
 20
51.5652204701
 30
0.0
 11
222.7497384414
 21
51.4666826916
 31
0.0
  0
LINE
  5
250
330
1F
100
AcDbEntity
  8
0
  6
HIDDEN
 62
     7
370
     0
100
AcDbLine
 10
219.4497384414
 20
55.6172865347
 30
0.0
 11
219.4497384414
 21
51.4172865347
 31
0.0
  0
LINE
  5
251
330
1F
100
AcDbEntity
  8
0
  6
HIDDEN
 62
     7
370
     0
100
AcDbLine
 10
198.2997384414
 20
54.7172865347
 30
0.0
 11
198.2997384414
 21
78.1172864813
 31
0.0
  0
LINE
  5
252
330
1F
100
AcDbEntity
  8
0
  6
HIDDEN
 62
     7
370
     0
100
AcDbLine
 10
200.7997384414
 20
54.4172865347
 30
0.0
 11
200.7997384414
 21
78.4172865347
 31
0.0
  0
LINE
  5
253
330
1F
100
AcDbEntity
  8
0
  6
HIDDEN
 62
     7
370
     0
100
AcDbLine
 10
127.3997384414
 20
91.2172865347
 30
0.0
 11
127.7369967416
 21
91.2172865347
 31
0.0
  0
ELLIPSE
  5
254
330
1F
100
AcDbEntity
  8
0
  6
HIDDEN
 62
     7
370
     0
100
AcDbEllipse
 10
127.7369967416
 20
92.8172865347
 30
0.0
 11
0.0
 21
1.600000000000009
 31
0.0
210
0.0
220
0.0
230
1.0
 40
0.4142135624
 41
3.141592653589793
 42
4.712388980384695
  0
LINE
  5
255
330
1F
100
AcDbEntity
  8
0
  6
HIDDEN
 62
     7
370
     0
100
AcDbLine
 10
127.7369967416
 20
43.8172865347
 30
0.0
 11
127.3997384414
 21
43.8172865347
 31
0.0
  0
ELLIPSE
  5
256
330
1F
100
AcDbEntity
  8
0
  6
HIDDEN
 62
     7
370
     0
100
AcDbEllipse
 10
127.7369967416
 20
42.2172865347
 30
0.0
 11
0.0
 21
1.599999999999994
 31
0.0
210
0.0
220
0.0
230
1.0
 40
0.4142135624
 41
4.712388980384695
 42
6.283185307179586
  0
LINE
  5
257
330
1F
100
AcDbEntity
  8
0
  6
HIDDEN
 62
     7
370
     0
100
AcDbLine
 10
128.3997384414
 20
36.5238381881
 30
0.0
 11
127.6158829828
 21
36.0655566852
 31
0.0
  0
LINE
  5
258
330
1F
100
AcDbEntity
  8
0
  6
HIDDEN
 62
     7
370
     0
100
AcDbLine
 10
127.6869800427
 20
96.8425830897
 30
0.0
 11
128.3997384414
 21
96.129824691
 31
0.0
  0
LINE
  5
259
330
1F
100
AcDbEntity
  8
0
  6
HIDDEN
 62
     7
370
     0
100
AcDbLine
 10
62.9497384414
 20
57.9172865347
 30
0.0
 11
62.9497384414
 21
74.9172865347
 31
0.0
  0
LINE
  5
25A
330
1F
100
AcDbEntity
  8
0
  6
HIDDEN
 62
     7
370
     0
100
AcDbLine
 10
65.9456676558
 20
59.4172865347
 30
0.0
 11
65.9456676558
 21
73.4172865347
 31
0.0
  0
LINE
  5
25B
330
1F
100
AcDbEntity
  8
0
  6
HIDDEN
 62
     7
370
     0
100
AcDbLine
 10
128.3997384414
 20
96.129824691
 30
0.0
 11
132.3357837551
 21
96.129824691
 31
0.0
  0
LINE
  5
25C
330
1F
100
AcDbEntity
  8
0
  6
HIDDEN
 62
     7
370
     0
100
AcDbLine
 10
138.2636931277
 20
96.129824691
 30
0.0
 11
143.2497384414
 21
96.129824691
 31
0.0
  0
LINE
  5
25D
330
1F
100
AcDbEntity
  8
0
  6
HIDDEN
 62
     7
370
     0
100
AcDbLine
 10
128.3997384414
 20
96.129824691
 30
0.0
 11
128.3997384414
 21
92.8172865347
 31
0.0
  0
LINE
  5
25E
330
1F
100
AcDbEntity
  8
0
  6
HIDDEN
 62
     7
370
     0
100
AcDbLine
 10
127.7369967416
 20
91.2172865347
 30
0.0
 11
143.2497384414
 21
91.2172865347
 31
0.0
  0
LINE
  5
25F
330
1F
100
AcDbEntity
  8
0
  6
HIDDEN
 62
     7
370
     0
100
AcDbLine
 10
132.2349488377
 20
36.5238381881
 30
0.0
 11
128.3997384414
 21
36.5238381881
 31
0.0
  0
LINE
  5
260
330
1F
100
AcDbEntity
  8
0
  6
HIDDEN
 62
     7
370
     0
100
AcDbLine
 10
143.2497384414
 20
36.5238381881
 30
0.0
 11
138.3645280451
 21
36.5238381881
 31
0.0
  0
LINE
  5
261
330
1F
100
AcDbEntity
  8
0
  6
HIDDEN
 62
     7
370
     0
100
AcDbLine
 10
128.3997384414
 20
36.5238381881
 30
0.0
 11
128.3997384414
 21
42.2172865347
 31
0.0
  0
LINE
  5
262
330
1F
100
AcDbEntity
  8
0
  6
HIDDEN
 62
     7
370
     0
100
AcDbLine
 10
143.5406718801
 20
43.8172865347
 30
0.0
 11
127.7369967416
 21
43.8172865347
 31
0.0
  0
LINE
  5
263
330
1F
100
AcDbEntity
  8
0
  6
HIDDEN
 62
     7
370
     0
100
AcDbLine
 10
219.4497384414
 20
82.9422865347
 30
0.0
 11
219.4497384414
 21
81.4172865347
 31
0.0
  0
LINE
  5
264
330
1F
100
AcDbEntity
  8
0
  6
HIDDEN
 62
     7
370
     0
100
AcDbLine
 10
219.4497384414
 20
51.4172865347
 30
0.0
 11
219.4497384414
 21
49.8922865347
 31
0.0
  0
LINE
  5
265
330
1F
100
AcDbEntity
  8
0
  6
HIDDEN
 62
     7
370
     0
100
AcDbLine
 10
98.9497384414
 20
59.4172865347
 30
0.0
 11
98.9497384414
 21
73.4172865347
 31
0.0
  0
LINE
  5
266
330
1F
100
AcDbEntity
  8
0
  6
HIDDEN
 62
     7
370
     0
100
AcDbLine
 10
100.6021051437
 20
62.1672865347
 30
0.0
 11
100.6021051437
 21
70.6672865347
 31
0.0
  0
LINE
  5
267
330
1F
100
AcDbEntity
  8
0
  6
HIDDEN
 62
     7
370
     0
100
AcDbLine
 10
133.3897384414
 20
88.6145273542
 30
0.0
 11
133.3897384414
 21
84.7672865347
 31
0.0
  0
LINE
  5
268
330
1F
100
AcDbEntity
  8
0
  6
HIDDEN
 62
     7
370
     0
100
AcDbLine
 10
137.2097384414
 20
88.6145273542
 30
0.0
 11
137.2097384414
 21
84.7672865347
 31
0.0
  0
LINE
  5
269
330
1F
100
AcDbEntity
  8
0
  6
HIDDEN
 62
     7
370
     0
100
AcDbLine
 10
138.8215750835
 20
92.3275161748
 30
0.0
 11
138.8215750835
 21
84.7672865347
 31
0.0
  0
LINE
  5
26A
330
1F
100
AcDbEntity
  8
0
  6
HIDDEN
 62
     7
370
     0
100
AcDbLine
 10
131.7779017994
 20
92.3275161748
 30
0.0
 11
131.7779017994
 21
84.7672865347
 31
0.0
  0
CIRCLE
  5
26B
330
1F
100
AcDbEntity
  8
0
  6
HIDDEN
 62
     7
370
     0
100
AcDbCircle
 10
210.7497384414
 20
66.4172865347
 30
0.0
 40
5.181257848382036
  0
CIRCLE
  5
26C
330
1F
100
AcDbEntity
  8
0
  6
HIDDEN
 62
     7
370
     0
100
AcDbCircle
 10
210.7497384414
 20
66.4172865347
 30
0.0
 40
4.172547133356736
  0
CIRCLE
  5
26D
330
1F
100
AcDbEntity
  8
0
  6
HIDDEN
 62
     7
370
     0
100
AcDbCircle
 10
210.7497384414
 20
66.4172865347
 30
0.0
 40
3.872547133356725
  0
LINE
  5
26E
330
1F
100
AcDbEntity
  8
0
  6
HIDDEN
 62
     7
370
     0
100
AcDbLine
 10
223.2997384414
 20
84.4172865347
 30
0.0
 11
222.7497384414
 21
83.2378077284
 31
0.0
  0
LINE
  5
26F
330
1F
100
AcDbEntity
  8
0
  6
HIDDEN
 62
     7
370
     0
100
AcDbLine
 10
222.7497384414
 20
49.596765341
 30
0.0
 11
223.2997384414
 21
48.4172865347
 31
0.0
  0
LINE
  5
270
330
1F
100
AcDbEntity
  8
0
  6
HIDDEN
 62
     7
370
     0
100
AcDbLine
 10
219.4497384414
 20
78.9946368039
 30
0.0
 11
218.4497384414
 21
78.4172865347
 31
0.0
  0
LINE
  5
271
330
1F
100
AcDbEntity
  8
0
  6
HIDDEN
 62
     7
370
     0
100
AcDbLine
 10
218.4497384414
 20
54.4172865347
 30
0.0
 11
219.4497384414
 21
53.8399362655
 31
0.0
  0
LINE
  5
272
330
1F
100
AcDbEntity
  8
0
  6
HIDDEN
 62
     7
370
     0
100
AcDbLine
 10
222.8935716908
 20
81.4172865347
 30
0.0
 11
219.4497384414
 21
81.4172865347
 31
0.0
  0
LINE
  5
273
330
1F
100
AcDbEntity
  8
0
  6
HIDDEN
 62
     7
370
     0
100
AcDbLine
 10
219.4497384414
 20
51.4172865347
 30
0.0
 11
222.8937366037
 21
51.4172865347
 31
0.0
  0
LINE
  5
274
330
1F
100
AcDbEntity
  8
0
  6
HIDDEN
 62
     7
370
     0
100
AcDbLine
 10
198.8997384414
 20
54.1172865347
 30
0.0
 11
199.6011317006
 21
54.1172865347
 31
0.0
  0
LINE
  5
275
330
1F
100
AcDbEntity
  8
0
  6
HIDDEN
 62
     7
370
     0
100
AcDbLine
 10
199.6011317006
 20
78.7172865347
 30
0.0
 11
198.8997384414
 21
78.7172865347
 31
0.0
  0
ARC
  5
276
330
1F
100
AcDbEntity
  8
0
  6
HIDDEN
 62
     7
370
     0
100
AcDbCircle
 10
199.6011317006
 20
54.7172865347
 30
0.0
 40
0.6000000000000014
100
AcDbArc
 50
270.0
 51
285.0
  0
ARC
  5
277
330
1F
100
AcDbEntity
  8
0
  6
HIDDEN
 62
     7
370
     0
100
AcDbCircle
 10
199.6011317006
 20
78.1172865347
 30
0.0
 40
0.5999999999999943
100
AcDbArc
 50
75.0
 51
90.0
  0
ARC
  5
278
330
1F
100
AcDbEntity
  8
0
  6
HIDDEN
 62
     7
370
     0
100
AcDbCircle
 10
198.8997384414
 20
54.7172865347
 30
0.0
 40
0.5999999999999943
100
AcDbArc
 50
180.0
 51
270.0
  0
ARC
  5
279
330
1F
100
AcDbEntity
  8
0
  6
HIDDEN
 62
     7
370
     0
100
AcDbCircle
 10
198.8997384414
 20
78.1172865347
 30
0.0
 40
0.5999999999999943
100
AcDbArc
 50
90.0
 51
180.0
  0
LINE
  5
27A
330
1F
100
AcDbEntity
  8
0
  6
HIDDEN
 62
     7
370
     0
100
AcDbLine
 10
199.7564231277
 20
54.1377310389
 30
0.0
 11
200.7997384414
 21
54.4172865347
 31
0.0
  0
LINE
  5
27B
330
1F
100
AcDbEntity
  8
0
  6
HIDDEN
 62
     7
370
     0
100
AcDbLine
 10
200.7997384414
 20
78.4172865347
 30
0.0
 11
199.7564231277
 21
78.6968420305
 31
0.0
  0
LINE
  5
27C
330
1F
100
AcDbEntity
  8
0
  6
HIDDEN
 62
     7
370
     0
100
AcDbLine
 10
200.7997384414
 20
54.4172865347
 30
0.0
 11
218.4497384414
 21
54.4172865347
 31
0.0
  0
LINE
  5
27D
330
1F
100
AcDbEntity
  8
0
  6
HIDDEN
 62
     7
370
     0
100
AcDbLine
 10
218.4497384414
 20
78.4172865347
 30
0.0
 11
200.7997384414
 21
78.4172865347
 31
0.0
  0
ARC
  5
27E
330
1F
100
AcDbEntity
  8
0
  6
HIDDEN
 62
     7
370
     0
100
AcDbCircle
 10
56.7497384414
 20
57.1172865347
 30
0.0
 40
0.7999999999999972
100
AcDbArc
 50
90.0
 51
180.0
  0
ARC
  5
27F
330
1F
100
AcDbEntity
  8
0
  6
HIDDEN
 62
     7
370
     0
100
AcDbCircle
 10
56.7497384414
 20
75.7172865347
 30
0.0
 40
0.7999999999999972
100
AcDbArc
 50
180.0
 51
270.0
  0
ARC
  5
280
330
1F
100
AcDbEntity
  8
0
  6
HIDDEN
 62
     7
370
     0
100
AcDbCircle
 10
64.7187983337
 20
58.0922865347
 30
0.0
 40
0.4000000000000173
100
AcDbArc
 50
270.0
 51
330.0
  0
ARC
  5
281
330
1F
100
AcDbEntity
  8
0
  6
HIDDEN
 62
     7
370
     0
100
AcDbCircle
 10
64.7187983337
 20
74.7422865347
 30
0.0
 40
0.4000000000000173
100
AcDbArc
 50
30.0
 51
90.0
  0
LINE
  5
282
330
1F
100
AcDbEntity
  8
0
  6
HIDDEN
 62
     7
370
     0
100
AcDbLine
 10
63.8421108722
 20
57.6922865347
 30
0.0
 11
64.7187983337
 21
57.6922865347
 31
0.0
  0
LINE
  5
283
330
1F
100
AcDbEntity
  8
0
  6
HIDDEN
 62
     7
370
     0
100
AcDbLine
 10
64.7187983337
 20
75.1422865347
 30
0.0
 11
63.8421108722
 21
75.1422865347
 31
0.0
  0
ARC
  5
284
330
1F
100
AcDbEntity
  8
0
  6
HIDDEN
 62
     7
370
     0
100
AcDbCircle
 10
63.8421108722
 20
58.0922865347
 30
0.0
 40
0.3999999999999986
100
AcDbArc
 50
255.0
 51
270.0
  0
ARC
  5
285
330
1F
100
AcDbEntity
  8
0
  6
HIDDEN
 62
     7
370
     0
100
AcDbCircle
 10
63.8421108722
 20
74.7422865347
 30
0.0
 40
0.4000000000000023
100
AcDbArc
 50
90.0
 51
105.0
  0
LINE
  5
286
330
1F
100
AcDbEntity
  8
0
  6
HIDDEN
 62
     7
370
     0
100
AcDbLine
 10
63.7385832541
 20
75.1286568652
 30
0.0
 11
62.9497384414
 21
74.9172865347
 31
0.0
  0
LINE
  5
287
330
1F
100
AcDbEntity
  8
0
  6
HIDDEN
 62
     7
370
     0
100
AcDbLine
 10
62.9497384414
 20
57.9172865347
 30
0.0
 11
63.7385832541
 21
57.7059162042
 31
0.0
  0
LINE
  5
288
330
1F
100
AcDbEntity
  8
0
  6
HIDDEN
 62
     7
370
     0
100
AcDbLine
 10
65.0652084953
 20
57.8922865347
 30
0.0
 11
65.9456676558
 21
59.4172865347
 31
0.0
  0
LINE
  5
289
330
1F
100
AcDbEntity
  8
0
  6
HIDDEN
 62
     7
370
     0
100
AcDbLine
 10
65.9456676558
 20
73.4172865347
 30
0.0
 11
65.0652084953
 21
74.9422865347
 31
0.0
  0
LINE
  5
28A
330
1F
100
AcDbEntity
  8
0
  6
HIDDEN
 62
     7
370
     0
100
AcDbLine
 10
56.7497384414
 20
57.9172865347
 30
0.0
 11
62.9497384414
 21
57.9172865347
 31
0.0
  0
LINE
  5
28B
330
1F
100
AcDbEntity
  8
0
  6
HIDDEN
 62
     7
370
     0
100
AcDbLine
 10
62.9497384414
 20
74.9172865347
 30
0.0
 11
56.7497384414
 21
74.9172865347
 31
0.0
  0
LINE
  5
28C
330
1F
100
AcDbEntity
  8
0
  6
HIDDEN
 62
     7
370
     0
100
AcDbLine
 10
222.7497384414
 20
82.9422865347
 30
0.0
 11
219.4497384414
 21
82.9422865347
 31
0.0
  0
LINE
  5
28D
330
1F
100
AcDbEntity
  8
0
  6
HIDDEN
 62
     7
370
     0
100
AcDbLine
 10
219.4497384414
 20
49.8922865347
 30
0.0
 11
222.7497384414
 21
49.8922865347
 31
0.0
  0
LINE
  5
28E
330
1F
100
AcDbEntity
  8
0
  6
HIDDEN
 62
     7
370
     0
100
AcDbLine
 10
65.9456676558
 20
59.4172865347
 30
0.0
 11
98.9497384414
 21
59.4172865347
 31
0.0
  0
LINE
  5
28F
330
1F
100
AcDbEntity
  8
0
  6
HIDDEN
 62
     7
370
     0
100
AcDbLine
 10
98.9497384414
 20
73.4172865347
 30
0.0
 11
65.9456676558
 21
73.4172865347
 31
0.0
  0
LINE
  5
290
330
1F
100
AcDbEntity
  8
0
  6
HIDDEN
 62
     7
370
     0
100
AcDbLine
 10
98.9497384414
 20
59.4172865347
 30
0.0
 11
100.6021051437
 21
62.1672865347
 31
0.0
  0
LINE
  5
291
330
1F
100
AcDbEntity
  8
0
  6
HIDDEN
 62
     7
370
     0
100
AcDbLine
 10
100.6021051437
 20
70.6672865347
 30
0.0
 11
98.9497384414
 21
73.4172865347
 31
0.0
  0
LINE
  5
292
330
1F
100
AcDbEntity
  8
0
  6
HIDDEN
 62
     7
370
     0
100
AcDbLine
 10
100.6021051437
 20
62.1672865347
 30
0.0
 11
198.2997384414
 21
62.1672865347
 31
0.0
  0
LINE
  5
293
330
1F
100
AcDbEntity
  8
0
  6
HIDDEN
 62
     7
370
     0
100
AcDbLine
 10
198.2997384414
 20
70.6672865347
 30
0.0
 11
100.6021051437
 21
70.6672865347
 31
0.0
  0
LINE
  5
294
330
1F
100
AcDbEntity
  8
0
  6
HIDDEN
 62
     7
370
     0
100
AcDbLine
 10
222.8937366037
 20
81.4172865347
 30
0.0
 11
222.8935716908
 21
81.4172865347
 31
0.0
  0
LINE
  5
295
330
1F
100
AcDbEntity
  8
VERMASSUNG
  6
CENTERX2
 62
     7
370
     0
100
AcDbLine
 10
217.4497384414
 20
77.2172865347
 30
0.0
 11
224.7497384414
 21
77.2172865347
 31
0.0
  0
LINE
  5
296
330
1F
100
AcDbEntity
  8
VERMASSUNG
  6
CENTERX2
 62
     7
370
     0
100
AcDbLine
 10
217.4497384414
 20
55.6172865347
 30
0.0
 11
224.7497384414
 21
55.6172865347
 31
0.0
  0
LINE
  5
297
330
1F
100
AcDbEntity
  8
VERMASSUNG
  6
CENTERX2
 62
     7
370
     0
100
AcDbLine
 10
53.9497384414
 20
66.4172865347
 30
0.0
 11
225.2997384414
 21
66.4172865347
 31
0.0
  0
OLE2FRAME
  5
298
330
1F
100
AcDbEntity
  8
0
100
AcDbOle2Frame
 70
     2
  3
Paintbrush-Bild
 10
13.8511154363
 20
38.264191557
 30
0.0
 11
51.6290888628
 21
31.9806341108
 31
0.0
 71
     2
 72
     0
 73
     1
 90
    12928
310
80552BED0767C5B32B40DDAF6807D121434000000000000000006FFBDDFB85D0
310
4940DDAF6807D121434000000000000000006FFBDDFB85D04940416F4BD60AFB
310
3F4000000000000000002BED0767C5B32B40416F4BD60AFB3F40000000000000
310
0000000000000100000000010000010000000100000000000100000000320000
310
D0CF11E0A1B11AE1000000000000000000000000000000003E000300FEFF0900
310
0600000000000000000000000100000001000000000000000010000002000000
310
01000000FEFFFFFF0000000000000000FFFFFFFFFFFFFFFFFFFFFFFFFFFFFFFF
310
FFFFFFFFFFFFFFFFFFFFFFFFFFFFFFFFFFFFFFFFFFFFFFFFFFFFFFFFFFFFFFFF
310
FFFFFFFFFFFFFFFFFFFFFFFFFFFFFFFFFFFFFFFFFFFFFFFFFFFFFFFFFFFFFFFF
310
FFFFFFFFFFFFFFFFFFFFFFFFFFFFFFFFFFFFFFFFFFFFFFFFFFFFFFFFFFFFFFFF
310
FFFFFFFFFFFFFFFFFFFFFFFFFFFFFFFFFFFFFFFFFFFFFFFFFFFFFFFFFFFFFFFF
310
FFFFFFFFFFFFFFFFFFFFFFFFFFFFFFFFFFFFFFFFFFFFFFFFFFFFFFFFFFFFFFFF
310
FFFFFFFFFFFFFFFFFFFFFFFFFFFFFFFFFFFFFFFFFFFFFFFFFFFFFFFFFFFFFFFF
310
FFFFFFFFFFFFFFFFFFFFFFFFFFFFFFFFFFFFFFFFFFFFFFFFFFFFFFFFFFFFFFFF
310
FFFFFFFFFFFFFFFFFFFFFFFFFFFFFFFFFFFFFFFFFFFFFFFFFFFFFFFFFFFFFFFF
310
FFFFFFFFFFFFFFFFFFFFFFFFFFFFFFFFFFFFFFFFFFFFFFFFFFFFFFFFFFFFFFFF
310
FFFFFFFFFFFFFFFFFFFFFFFFFFFFFFFFFFFFFFFFFFFFFFFFFFFFFFFFFFFFFFFF
310
FFFFFFFFFFFFFFFFFFFFFFFFFFFFFFFFFFFFFFFFFFFFFFFFFFFFFFFFFFFFFFFF
310
FFFFFFFFFFFFFFFFFFFFFFFFFFFFFFFFFFFFFFFFFFFFFFFFFFFFFFFFFFFFFFFF
310
FFFFFFFFFFFFFFFFFFFFFFFFFFFFFFFFFFFFFFFFFFFFFFFFFFFFFFFFFFFFFFFF
310
FDFFFFFFFEFFFFFFFEFFFFFFFEFFFFFF05000000060000000700000008000000
310
090000000A0000000B0000000C0000000D0000000E0000000F00000010000000
310
11000000120000001300000014000000150000001600000017000000FEFFFFFF
310
FFFFFFFFFFFFFFFFFFFFFFFFFFFFFFFFFFFFFFFFFFFFFFFFFFFFFFFFFFFFFFFF
310
FFFFFFFFFFFFFFFFFFFFFFFFFFFFFFFFFFFFFFFFFFFFFFFFFFFFFFFFFFFFFFFF
310
FFFFFFFFFFFFFFFFFFFFFFFFFFFFFFFFFFFFFFFFFFFFFFFFFFFFFFFFFFFFFFFF
310
FFFFFFFFFFFFFFFFFFFFFFFFFFFFFFFFFFFFFFFFFFFFFFFFFFFFFFFFFFFFFFFF
310
FFFFFFFFFFFFFFFFFFFFFFFFFFFFFFFFFFFFFFFFFFFFFFFFFFFFFFFFFFFFFFFF
310
FFFFFFFFFFFFFFFFFFFFFFFFFFFFFFFFFFFFFFFFFFFFFFFFFFFFFFFFFFFFFFFF
310
FFFFFFFFFFFFFFFFFFFFFFFFFFFFFFFFFFFFFFFFFFFFFFFFFFFFFFFFFFFFFFFF
310
FFFFFFFFFFFFFFFFFFFFFFFFFFFFFFFFFFFFFFFFFFFFFFFFFFFFFFFFFFFFFFFF
310
FFFFFFFFFFFFFFFFFFFFFFFFFFFFFFFFFFFFFFFFFFFFFFFFFFFFFFFFFFFFFFFF
310
FFFFFFFFFFFFFFFFFFFFFFFFFFFFFFFFFFFFFFFFFFFFFFFFFFFFFFFFFFFFFFFF
310
FFFFFFFFFFFFFFFFFFFFFFFFFFFFFFFFFFFFFFFFFFFFFFFFFFFFFFFFFFFFFFFF
310
FFFFFFFFFFFFFFFFFFFFFFFFFFFFFFFFFFFFFFFFFFFFFFFFFFFFFFFFFFFFFFFF
310
FFFFFFFFFFFFFFFFFFFFFFFFFFFFFFFFFFFFFFFFFFFFFFFFFFFFFFFFFFFFFFFF
310
52006F006F007400200045006E00740072007900000000000000000000000000
310
0000000000000000000000000000000000000000000000000000000000000000
310
16000500FFFFFFFFFFFFFFFF020000000A00030000000000C000000000000046
310
000000000000000000000000F07130AFD2FED10103000000C000000000000000
310
01004F006C006500000000000000000000000000000000000000000000000000
310
0000000000000000000000000000000000000000000000000000000000000000
310
0A000200FFFFFFFFFFFFFFFFFFFFFFFF00000000000000000000000000000000
310
0000000000000000000000000000000000000000000000001400000000000000
310
010043006F006D0070004F0062006A0000000000000000000000000000000000
310
0000000000000000000000000000000000000000000000000000000000000000
310
120002010100000003000000FFFFFFFF00000000000000000000000000000000
310
0000000000000000000000000000000000000000010000004D00000000000000
310
01004F006C006500310030004E00610074006900760065000000000000000000
310
0000000000000000000000000000000000000000000000000000000000000000
310
1A000200FFFFFFFFFFFFFFFFFFFFFFFF00000000000000000000000000000000
310
0000000000000000000000000000000000000000040000002426000000000000
310
FEFFFFFF02000000FEFFFFFFFFFFFFFFFFFFFFFFFFFFFFFFFFFFFFFFFFFFFFFF
310
FFFFFFFFFFFFFFFFFFFFFFFFFFFFFFFFFFFFFFFFFFFFFFFFFFFFFFFFFFFFFFFF
310
FFFFFFFFFFFFFFFFFFFFFFFFFFFFFFFFFFFFFFFFFFFFFFFFFFFFFFFFFFFFFFFF
310
FFFFFFFFFFFFFFFFFFFFFFFFFFFFFFFFFFFFFFFFFFFFFFFFFFFFFFFFFFFFFFFF
310
FFFFFFFFFFFFFFFFFFFFFFFFFFFFFFFFFFFFFFFFFFFFFFFFFFFFFFFFFFFFFFFF
310
FFFFFFFFFFFFFFFFFFFFFFFFFFFFFFFFFFFFFFFFFFFFFFFFFFFFFFFFFFFFFFFF
310
FFFFFFFFFFFFFFFFFFFFFFFFFFFFFFFFFFFFFFFFFFFFFFFFFFFFFFFFFFFFFFFF
310
FFFFFFFFFFFFFFFFFFFFFFFFFFFFFFFFFFFFFFFFFFFFFFFFFFFFFFFFFFFFFFFF
310
FFFFFFFFFFFFFFFFFFFFFFFFFFFFFFFFFFFFFFFFFFFFFFFFFFFFFFFFFFFFFFFF
310
FFFFFFFFFFFFFFFFFFFFFFFFFFFFFFFFFFFFFFFFFFFFFFFFFFFFFFFFFFFFFFFF
310
FFFFFFFFFFFFFFFFFFFFFFFFFFFFFFFFFFFFFFFFFFFFFFFFFFFFFFFFFFFFFFFF
310
FFFFFFFFFFFFFFFFFFFFFFFFFFFFFFFFFFFFFFFFFFFFFFFFFFFFFFFFFFFFFFFF
310
FFFFFFFFFFFFFFFFFFFFFFFFFFFFFFFFFFFFFFFFFFFFFFFFFFFFFFFFFFFFFFFF
310
FFFFFFFFFFFFFFFFFFFFFFFFFFFFFFFFFFFFFFFFFFFFFFFFFFFFFFFFFFFFFFFF
310
FFFFFFFFFFFFFFFFFFFFFFFFFFFFFFFFFFFFFFFFFFFFFFFFFFFFFFFFFFFFFFFF
310
FFFFFFFFFFFFFFFFFFFFFFFFFFFFFFFFFFFFFFFFFFFFFFFFFFFFFFFFFFFFFFFF
310
0100000200000000000000000000000000000000000000000000000000000000
310
0000000000000000000000000000000000000000000000000000000000000000
310
0100FEFF030A0000FFFFFFFF0A00030000000000C00000000000004607000000
310
5042727573680007000000504272757368000700000050427275736800F439B2
310
7100000000000000000000000000000000000000000000000000000000000000
310
0000000000000000000000000000000000000000000000000000000000000000
310
0000000000000000000000000000000000000000000000000000000000000000
310
0000000000000000000000000000000000000000000000000000000000000000
310
0000000000000000000000000000000000000000000000000000000000000000
310
0000000000000000000000000000000000000000000000000000000000000000
310
0000000000000000000000000000000000000000000000000000000000000000
310
0000000000000000000000000000000000000000000000000000000000000000
310
0000000000000000000000000000000000000000000000000000000000000000
310
0000000000000000000000000000000000000000000000000000000000000000
310
0000000000000000000000000000000000000000000000000000000000000000
310
0000000000000000000000000000000000000000000000000000000000000000
310
20260000424D0E260000000000003E00000028000000B40200006E0000000100
310
01000000000000000000130B0000130B00000200000002000000000000FFFFFF
310
FFFFFFFFFFFFFFFFFFFFFFFFFFFFFFFFFFFFFFFFFFFFFFFFFFFFFFFFFFFFFFFF
310
FFFFFFFFFFFFFFFFFFFFFFFFFFFFFFFFFFFFFFFFFFFFFFFFFFFFFFFFFFFFFFFF
310
FFFFFFFFFFFFFFFFFFFFFFFFFFFFFFFFFFFFFFFFFFFFFFFFF000FFFFFFFFFFFF
310
FFFFFFFFFFFFFFFFFFFFFFFFFFFFFFFFFFFFFFFFFFFFFFFFFFFFFFFFFFFFFFFF
310
FFFFFFFFFFFFFFFFFFFFFFFFFFFFFFFFFFFFFFFFFFFFFFFFFFFFFFFFFFFFFFFF
310
FFFFFFFFFFFFFFFFFFFFFFFFFFFFFFFFF000FFFFFFFFFFFFFFFFFFFFFFFFFFFF
310
FFFFFFFFFFFFFFFFFFFFFFFFFFFFFFFFFFFFFFFFFFFFFFFFFFFFFFFFFFFFFFFF
310
FFFFFFFFFFFFFFFFFFFFFFFFFFFFFFFFFFFFFFFFFFFFFFFFFFFFFFFFFFFFFFFF
310
FFFFFFFFFFFFFFFFF000FFFFFFFFFFFFFFFFFFFFFFFFFFFFFFFFFFFFFFFFFFFF
310
FFFFFFFFFFFFFFFFFFFFFFFFFFFFFFFFFFFFFFFFFFFFFFFFFFFFFFFFFFFFFFFF
310
FFFFFFFFFFFFFFFFFFFFFFFFFFFFFFFFFFFFFFFFFFFFFFFFFFFFFFFFFFFFFFFF
310
F000FFFFFFFFFFFFFFFFFFFFFFFFFFFFFFFFFFFFFFFFFFFFFFFFFFFFFFFFFFFF
310
FFFFFFFFFFFFFFFFFFFFFFFFFFFFFFFFFFFFFFFFFFFFFFFFFFFFFFFFFFFFFFFF
310
FFFFFFFFFFFFFFFFFFFFFFFFFFFFFFFFFFFFFFFFFFFFFFFFF000FFFFFFFFFFFF
310
FFFFFFFFFFFFFFFFFFFFFFFFFFFFFFFFFFFFFFFFFFFFFFFFFFFFFFFFFFFFFFFF
310
FFFFFFFFFFFFFFFFFFFFFFFFFFFFFFFFFFFFFFFFFFFFFFFFFFFFFFFFFFFFFFFF
310
FFFFFFFFFFFFFFFFFFFFFFFFFFFFFFFFF000FFFFFFFFFFFFFFFFFFFFFFFFFFFF
310
FFFFFFFFFFFFFFFFFFFFFFFFFFFFFFFFFFFFFFFFFFFFFFFFFFFFFFFFFFFFFFFF
310
FFFFFFFFFFFFFFFFFFFFFFFFFFFFFFFFFFFFFFFFFFFFFFFFFFFFFFFFFFFFFFFF
310
FFFFFFFFFFFFFFFFF000FFFFFFFFFFFFFFFFFFFFFFFFFFFFFFFFFFFFFFFFFFFF
310
FFFFFFFFFFFFFFFFFFFFFFFFFFFFFFFFFFFFFFFFFFFFFFFFFFFFFFFFFFFFFFFF
310
FFFFFFFFFFFFFFFFFFFFFFFFFFFFFFFFFFFFFFFFFFFFFFFFFFFFFFFFFFFFFFFF
310
F000FFFFFFFFFFFFFFFFFFFFFFFFFFFFFFFFFFFFFFFFFFFFFFFFFFFFFFFFFFFF
310
FFFFFFFFFFFFFFFFFFFFFFFFFFFFFFFFFFFFFFFFFFFFFFFFFFFFFFFFFFFFFFFF
310
FFFFFFFFFFFFFFFFFFFFFFFFFFFFFFFFFFFFFFFFFFFFFFFFF000FFFFFFFFFFFF
310
FFFFFFFFFFFFFFFFFFFFFFFFFFFFFFFFFFFFFFFFFFFFFFFFFFFFFFFFFFFFFFFF
310
FFFFFFFFFFFFFFFFFFFFFFFFFFFFFFFFFFFFFFFFFFFFFFFFFFFFFFFFFFFFFFFF
310
FFFFFFFFFFFFFFFFFFFFFFFFFFFFFFFFF000FFFFFFFFFFFFFFFFFFFFFFFFFFFF
310
FFFFFFFFFFFFFFFFFFFFFFFFFFFFFFFFFFFFFFFFFFFFFFFFFFFFFFFFFFFFFFFF
310
FFFFFFFFFFFFFFFFFFFFFFFFFFFFFFFFFFFFFFFFFFFFFFFFFFFFFFFFFFFFFFFF
310
FFFFFFFFFFFFFFFFF000FFFFFFFFFFFFFFFFFFFFFFFFFFFFFFFFFFFFFFFFFFFF
310
FFFFFFFFFFFFFFFFFFFFFFFFFFFFFFFFFFFFFFFFFFFFFFFFFFFFFFFFFFFFFFFF
310
FFFFFFFFFFFFFFFFFFFFFFFFFFFFFFFFFFFFFFFFFFFFFFFFFFFFFFFFFFFFFFFF
310
F000FFFFFFFFFFFFFFFFFFFFFFFFFFFFFFFFFFFFFFFFFFFFFFFFFFFFFFFFFFFF
310
FFFFFFFFFFFFFFFFFFFFFFFFFFFFFFFFFFFFFFFFFFFFFFFFFFFFFFFFFFFFFFFF
310
FFFFFFFFFFFFFFFFFFFFFFFFFFFFFFFFFFFFFFFFFFFFFFFFF000FFFFFFFFFFFF
310
FFFFFFFFFFFFFFFFFFFFFFFFFFFFFFFFFFFFFFFFFFFFFFFFFFFFFFFFFFFFFFFF
310
FFFFFFFFFFFFFFFFFFFFFFFFFFFFFFFFFFFFFFFFFFFFFFFFFFFFFFFFFFFFFFFF
310
FFFFFFFFFFFFFFFFFFFFFFFFFFFFFFFFF000FFFFFFFFFFFFFFFFFFFFFFFFFFFF
310
FFFFFFFFFFFFFFFFFFFFFFFFFFFFFFFFFFFFFFFFFFFFFFFFFFFFFFFFFFFFFFFF
310
FFFFFFFFFFFFFFFFFFFFFFFFFFFFFFFFFFFFFFFFFFFFFFFFFFFFFFFFFFFFFFFF
310
FFFFFFFFFFFFFFFFF000FFFFFFFFFFFFFFFFFFFFFFFFFFFFFFFFFFFFFFFFFFFF
310
FFFFFFFFFFFFFFFFFFFFFFFFFFFFFFFFFFFFFFFFFFFFFFFFFFFFFFFFFFFFFFFF
310
FFFFFFFFFFFFFFFFFFFFFFFFFFFFFFFFFFFFFFFFFFFFFFFFFFFFFFFFFFFFFFFF
310
F000FFFFFFFFFFFFFFFFFFFFFFFFFFFFFFFFFFFFFFFFFFFFFFFFFFFFFFFFFFFF
310
FFFFFFFFFFFFFFFFFFFFFFFFFFFFFFFFFFFFFFFFFFFFFFFFFFFFFFFFFFFFFFFF
310
FFFFFFFFFFFFFFFFFFFFFFFFFFFFFFFFFFFFFFFFFFFFFFFFF000FFFFFFFFFFFF
310
FFFFFFFFFFFFFFFFFFFFFFFFFFFFFFFFFFFFFFFFFFFFFFFFFFFFFFFFFFFFFFFF
310
FFFFFFFFFFFFFFFFFFFFFFFFFFFFFFFFFFFFFFFFFFFFFFFFFFFFFFFFFFFFFFFF
310
FFFFFFFFFFFFFFFFFFFFFFFFFFFFFFFFF000FFFFFFFFFFFFFFFFFFFFFFFFFFFF
310
FFFFFFFFFFFFFFFFFFFFFFFFFFFFFFFFFFFFFFFFFFFFFFFFFFFFFFFFFFFFFFFF
310
FFFFFFFFFFFFFFFFFFFFFFFFFFFFFFFFFFFFFFFFFFFFFFFFFFFFFFFFFFFFFFFF
310
FFFFFFFFFFFFFFFFF000FFFFF80003FFFFFFFFFFFFFFFFFFFFFFFFFFFFFFFFFF
310
FFFFF00007FFFFFFFFFF00007FFFFFF800000000000000007FFFFFFFFFFFFFFF
310
FFFFFFFC001FFFFFFFFFFFFFFC001FFFFFFFFFFFFFFFFFFFFFFFFFFE0007FFFF
310
F000FFFF8000007FFFFFFFF8000FFFFFC0007FFFFF80007FFFFF0000007FFFFF
310
FFF8000007FFFFF800000000000000007FFFFFF0001FFFFFFFFFFFC00001FFFF
310
FFFFFFFFC00001FFFFFFFF000000000003FFFFE000007FFFF000FFFE0000000F
310
FFFFFFF0000FFFFF80007FFFFF80007FFFFC0000001FFFFFFFC0000001FFFFF8
310
00000000000000007FFFFFF0001FFFFFFFFFFE0000003FFFFFFFFFFE0000003F
310
FFFFFF000000000003FFFF0000000FFFF000FFF800000003FFFFFFF00007FFFF
310
80007FFFFF80007FFFF000000007FFFFFF000000003FFFF80000000000000000
310
7FFFFFF0001FFFFFFFFFF80000000FFFFFFFFFF80000000FFFFFFF0000000000
310
03FFFC00000003FFF000FFE000000000FFFFFFF00007FFFF80003FFFFF80007F
310
FFC000000001FFFFFC000000001FFFF800000000000000007FFFFFF0001FFFFF
310
FFFFE000000003FFFFFFFFE000000003FFFFFF000000000003FFF000000000FF
310
F000FF80000000007FFFFFF00007FFFF80003FFFFF80007FFF8000000000FFFF
310
F80000000007FFF800000000000000007FFFFFF0001FFFFFFFFFC000000001FF
310
FFFFFFC000000001FFFFFF000000000003FFC0000000007FF000FF0000000000
310
3FFFFFE00007FFFF00003FFFFF80007FFE00000000003FFFF00000000003FFF8
310
00000000000000007FFFFFF0001FFFFFFFFF8000000000FFFFFFFF8000000000
310
FFFFFF000000000003FF80000000003FF000FE00000000001FFFFFE00003FFFF
310
00003FFFFF80007FFC00000000001FFFE00000000001FFF8000001FFFE000000
310
7FFFFFF0001FFFFFFFFE00000000003FFFFFFE00000000003FFFFF0000000000
310
03FF00000000001FF000FC00000000000FFFFFE00003FFFF00001FFFFF80007F
310
F800000000001FFFC00000000000FFF8000001FFFE0000007FFFFFF0001FFFFF
310
FFFC00000000001FFFFFFC00000000001FFFFF000000000003FE00000000000F
310
F000F8000000000007FFFFE00003FFFF00001FFFFF80007FF800000000000FFF
310
800000000000FFF8000001FFFE0000007FFFFFF0001FFFFFFFF800000000000F
310
FFFFF800000000000FFFFF000000000003FC000000000007F000F80000000000
310
03FFFFC00003FFFE00001FFFFF80007FF0000000000007FF0000000000007FF8
310
000001FFFE0000007FFFFFF0001FFFFFFFF0000000000007FFFFF00000000000
310
07FFFF000000000003F8000000000003F000F0000000000003FFFFC00001FFFE
310
00001FFFFF80007FE0000000000007FE0000000000003FF8000001FFFE000000
310
7FFFFFF0001FFFFFFFF0000000000007FFFFF0000000000007FFFF0000000000
310
03F800001F800003F000E00001FFF00001FFFFC00001FFFE00000FFFFF80007F
310
E00001FFE00003FE00001FFF00003FF8000001FFFE0000007FFFFFF0001FFFFF
310
FFE000003E000003FFFFE000003E000003FFFF000000000003F00001FFF80001
310
F000E00007FFFC0001FFFFC00001FFFE00000FFFFF80007FC0000FFFFC0003FC
310
0000FFFFC0001FF8000001FFFE0000007FFFFFF0001FFFFFFFC00003FFE00001
310
FFFFC00003FFE00001FFFF0001FFFFFFFFF00007FFFE0001F000E0000FFFFF00
310
00FFFF800001FFFC00000FFFFF80007FC0001FFFFE0001FC0001FFFFE0001FF8
310
000001FFFE0000007FFFFFF0001FFFFFFF80000FFFF80000FFFF80000FFFF800
310
00FFFF0003FFFFFFFFE0000FFFFF8000F000C0003FFFFF8000FFFF800000FFFC
310
000007FFFF80007F80003FFFFF0001FC0003FFFFF0001FF8000001FFFE000000
310
7FFFFFF0001FFFFFFF80003FFFFE0000FFFF80003FFFFE0000FFFF0003FFFFFF
310
FFE0003FFFFF8000F000C0003FFFFF8000FFFF800000FFFC000007FFFF80007F
310
80007FFFFF8001F80007FFFFF8000FF8000001FFFE0000007FFFFFF0001FFFFF
310
FF00007FFFFF00007FFF00007FFFFF00007FFF0003FFFFFFFFE0003FFFFFC000
310
F000C0007FFFFFC000FFFF000000FFFC000007FFFF80007F8000FFFFFF8000F8
310
000FFFFFF8000FF8000001FFFE0000007FFFFFF0001FFFFFFF0000FFFFFF8000
310
7FFF0000FFFFFF80007FFF0003FFFFFFFFC0007FFFFFC00070008000FFFFFFC0
310
00FFFF000000FFF8000007FFFF80007F8000FFFFFF8000F8000FFFFFF8000FF8
310
000001FFFE0000007FFFFFF0001FFFFFFE0001FFFFFFC0003FFE0001FFFFFFC0
310
003FFF0003FFFFFFFFC0007FFFFFE00070008000FFFFFFC0007FFF0000007FF8
310
000003FFFF80007F0001FFFFFF8000F8000FFFFFF8000FF8000001FFFE000000
310
7FFFFFF0001FFFFFFE0001FFFFFFC0003FFE0001FFFFFFC0003FFF0003FFFFFF
310
FFC000FFFFFFE00070008000FFFFFFC0007FFF0000007FF8000003FFFF80007F
310
0001FFFFFF8000F8001FFFFFF8000FF8000001FFFE0000007FFFFFF0001FFFFF
310
FE0003FFFFFFE0003FFE0003FFFFFFE0003FFF0003FFFFFFFFC000FFFFFFE000
310
70008000FFFFFFC0007FFE0000007FF8000003FFFF80007F0001FFFFFF8000F0
310
001FFFFFF8000FF8000001FFFE0000007FFFFFF0001FFFFFFC0003FFFFFFE000
310
1FFC0003FFFFFFE0001FFF0003FFFFFFFFC000FFFFFFC00070008000FFFFFF80
310
007FFE0000007FF0000003FFFF80007F0001FFFFFF0000F0001FFFFFF8000FF8
310
000001FFFE0000007FFFFFF0001FFFFFFC0007FFFFFFF0001FFC0007FFFFFFF0
310
001FFF0003FFFFFFFFC000FFFFFFC00070008001FFFFFF0000FFFE0000003FF0
310
000001FFFF80007F0001FFFFFF0000F8001FFFFFF0000FF8000001FFFE000000
310
7FFFFFF0001FFFFFFC0007FFFFFFF0001FFC0007FFFFFFF0001FFF0003FFFFFF
310
FFC001FFFFFF80007000FFFFFFFFFE0000FFFE0008003FF0008001FFFF80007F
310
FFFFFFFFFC0000FFFFFFFFFFE0000FF8000001FFFE0000007FFFFFF0001FFFFF
310
F8000FFFFFFFF8000FF8000FFFFFFFF8000FFF0003FFFFFFFFFFFFFFFFFF0000
310
7000FFFFFFFFFC0000FFFC0008003FF0008001FFFF80007FFFFFFFFFF80001FF
310
FFFFFFFF80000FF8000001FFFE0000007FFFFFF0001FFFFFF8000FFFFFFFF800
310
0FF8000FFFFFFFF8000FFF0003FFFFFFFFFFFFFFFFFE0000F000FFFFFFFFE000
310
00FFFC000C003FE000C001FFFF80007FFFFFFFFFC00001FFFFFFFFFE00001FF8
310
000001FFFE0000007FFFFFF0001FFFFFF8000FFFFFFFF8000FF8000FFFFFFFF8
310
000FFF0003FFFFFFFFFFFFFFFFF00000F000FFFFFFFE000001FFFC000C001FE0
310
00C000FFFF80007FFFFFFFFE000001FFFFFFFFE000001FF80FFFFFFFFFFFFFC0
310
7FFFFFF0001FFFFFF8000FFFFFFFF8000FF8000FFFFFFFF8000FFF0003FFFFFF
310
FFFFFFFFFF800000F000FFFFFFC0000001FFFC001C001FE001C000FFFF80007F
310
FFFFFF80000003FFFFFFF80000001FF80FFFFFFFFFFFFFC07FFFFFF0001FFFFF
310
F8001FFFFFFFFC000FF8001FFFFFFFFC000FFF0003FFFFFFFFFFFFFFF0000001
310
F000FFFFF800000001FFF8001C001FE001C000FFFF80007FFFFFF800000003FF
310
FFFF800000003FF80FFFFFFFFFFFFFC07FFFFFF0001FFFFFF8001FFFFFFFFC00
310
0FF8001FFFFFFFFC000FFF0003FFFFFFFFFFFFFE00000001F000FFFFC0000000
310
03FFF8001E001FC001E000FFFF80007FFFFF8000000007FFFFFC000000003FF8
310
0FFFFFFFFFFFFFC07FFFFFF0001FFFFFF8001FFFFFFFFC000FF8001FFFFFFFFC
310
000FFF0003FFFFFFFFFFFFE000000003F000FFFE0000000007FFF8001E000FC0
310
01E0007FFF80007FFFFE0000000007FFFFE0000000007FF80FFFFFFFFFFFFFC0
310
7FFFFFF0001FFFFFF0001FFFFFFFFC0007F0001FFFFFFFFC0007FF0003FFFFFF
310
FFFFFF0000000003F000FFF80000000007FFF8001E000FC003E0007FFF80007F
310
FFF0000000000FFFFF8000000000FFF80FFFFFFFFFFFFFC07FFFFFF0001FFFFF
310
F0001FFFFFFFFC0007F0001FFFFFFFFC0007FF0003FFFFFFFFFFFC0000000007
310
F000FFE0000000000FFFF0003E000FC003E0007FFF80007FFFC0000000001FFF
310
FE0000000001FFF80FFFFFFFFFFFFFC07FFFFFF0001FFFFFF0001FFFFFFFFC00
310
07F0001FFFFFFFFC0007FF0003FFFFFFFFFFF0000000000FF000FFC000000000
310
1FFFF0003F000F8003F0003FFF80007FFF80000000003FFFF80000000003FFF8
310
0FFFFFFFFFFFFFC07FFFFFF0001FFFFFF0001FFFFFFFFC0007F0001FFFFFFFFC
310
0007FF0003FFFFFFFFFFE0000000001FF000FF00000000007FFFF0003F000780
310
03F0003FFF80007FFF00000000007FFFF00000000007FFF80FFFFFFFFFFFFFC0
310
7FFFFFF0001FFFFFF0001FFFFFFFFC0007F0001FFFFFFFFC0007FF0003FFFFFF
310
FFFF80000000007FF000FE0000000000FFFFE0003F00078007F0003FFF80007F
310
FE0000000001FFFFE0000000001FFFF80FFFFFFFFFFFFFC07FFFFFF0001FFFFF
310
F0001FFFFFFFFC0007F0001FFFFFFFFC0007FF0003FFFFFFFFFF0000000000FF
310
F000FC0000000003FFFFE0007F00078007F0003FFF80007FFC0000000007FFFF
310
C0000000007FFFF80FFFFFFFFFFFFFC07FFFFFF0001FFFFFF8001FFFFFFFFC00
310
0FF8001FFFFFFFFC000FFF0003FFFFFFFFFE0000000003FFF000FC000000000F
310
FFFFE0007F80070007F8001FFF80007FF8000000001FFFFF8000000001FFFFF8
310
0FFFFFFFFFFFFFC07FFFFFF0001FFFFFF8001FFFFFFFFC000FF8001FFFFFFFFC
310
000FFF0003FFFFFFFFFC000000000FFFF000F8000000007FFFFFE0007F800700
310
07F8001FFF80007FF000000000FFFFFF800000000FFFFFF80FFFFFFFFFFFFFC0
310
7FFFFFF0001FFFFFF8000FFFFFFFF8000FF8000FFFFFFFF8000FFF0003FFFFFF
310
FFFC000000007FFFF000F800000007FFFFFFC0007F8003000FF8001FFF80007F
310
F000000007FFFFFF000000007FFFFFF80FFFFFFFFFFFFFC07FFFFFF0001FFFFF
310
F8000FFFFFFFF8000FF8000FFFFFFFF8000FFF0003FFFFFFFFF80000000FFFFF
310
F000F0000000FFFFFFFFC000FF8003000FF8001FFF80007FE0000000FFFFFFFF
310
0000000FFFFFFFF8000001FFFE0000007FFFFFF0001FFFFFF8000FFFFFFFF800
310
0FF8000FFFFFFFF8000FFF0003FFFFFFFFF8000000FFFFFFF000F000000FFFFF
310
FFFFC000FFC002000FF8000FFF80007FE000001FFFFFFFFE000001FFFFFFFFF8
310
000001FFFE0000007FFFFFF0001FFFFFF8000FFFFFFFF8000FF8000FFFFFFFF8
310
000FFF0003FFFFFFFFF000001FFFFFFFF000E00000FFFFFFFFFFC000FFC00200
310
0FFC000FFF80007FE00001FFFFFFFFFE00001FFFFFFFFFF8000001FFFE000000
310
7FFFFFF0001FFFFFFC000FFFFFFFF8001FFC000FFFFFFFF8001FFF0003FFFFFF
310
FFF00001FFFFFFFFF000E00007FFFFFFFFFF8000FFC000001FFC000FFF80007F
310
C0000FFFFFFFFFFE0000FFFFFFFFFFF8000001FFFE0000007FFFFFF0001FFFFF
310
FC0007FFFFFFF0001FFC0007FFFFFFF0001FFF0003FFFFFFFFF00007FFFFFFFF
310
F000E0001FFFFFFFFFFF8000FFC000001FFC000FFF80007FC0003FFFFFFFFFFE
310
0001FFFFFFFFFFF8000001FFFE0000007FFFFFF0001FFFFFFC0007FFFFFFF000
310
1FFC0007FFFFFFF0001FFF0003FFFFFFFFF0001FFFFFFFFFF000E0003FFFFF00
310
03FF8001FFE000001FFC0007FF80007FC0007FFFFF0007FC0003FFFFF0003FF8
310
000001FFFE0000007FFFFFF0001FFFFFFC0003FFFFFFE0001FFC0003FFFFFFE0
310
001FFF0003FFFFFFFFF0003FFFFFFFFFF000E0003FFFFF0001FF8001FFE00000
310
1FFE0007FF80007FC0007FFFFE0003FC0007FFFFE0003FF8000001FFFE000000
310
7FFFFFF0001FFFFFFE0003FFFFFFE0003FFE0003FFFFFFE0003FFF0003FFFFFF
310
FFF0003FFFFF8001F000E0003FFFFF0001FF0001FFE000001FFE0007FF80007F
310
C0007FFFFE0003FC0007FFFFE0003FF8000001FFFE0000007FFFFFF0001FFFFF
310
FE0001FFFFFFC0003FFE0001FFFFFFC0003FFF0003FFFFFFFFF0003FFFFF0001
310
F000E0003FFFFF0003FF0001FFE000003FFE0007FF80007FC0007FFFFE0003FC
310
0007FFFFE0003FF8000001FFFE0000007FFFFFF0001FFFFFFF0001FFFFFFC000
310
7FFF0001FFFFFFC0007FFF0003FFFFFFFFF0003FFFFF0001F000E0003FFFFE00
310
03FF0003FFF000003FFE0003FF80007FC0007FFFFC0003FE0007FFFFE0003FF8
310
000001FFFE0000007FFFFFF0001FFFFFFF0000FFFFFF80007FFF0000FFFFFF80
310
007FFF0003FFFFFFFFF0003FFFFF0001F000E0003FFFFE0003FF0003FFF00000
310
3FFF0003FF80007FC0007FFFFC0007FE0007FFFFC0003FF8000001FFFE000000
310
7FFFFFF0001FFFFFFF80007FFFFF0000FFFF80007FFFFF0000FFFF0003FFFFFF
310
FFF0003FFFFF0003F000E0003FFFFC0003FE0003FFF000003FFF0003FF80007F
310
E0003FFFF80007FE0003FFFFC0007FF8000001FFFE0000007FFFFFF0001FFFFF
310
FF80003FFFFE0000FFFF80003FFFFE0000FFFF0003FFFFFFFFF0001FFFFE0003
310
F000F0001FFFF80003FE0003FFF000007FFF0001FF80007FE0003FFFF00007FE
310
0001FFFF80007FF8000001FFFE0000007FFFFFF0001FFFFFFFC0000FFFF80001
310
FFFFC0000FFFF80001FFFF0003FFFFFFFFF0001FFFFC0003F000F0000FFFF000
310
07FE0007FFF800007FFF0001FF80007FE0001FFFE00007FF0000FFFE00007FF8
310
000001FFFE0000007FFFFFF0001FFFFFFFC00003FFE00001FFFFC00003FFE000
310
01FFFF0003FFFFFFFFF8000FFFF80003F000F00003FFC00007FC0007FFF80000
310
7FFF8001FF80007FF00007FF80000FFF00007FF80000FFF8000001FFFE000000
310
7F80000000000001FFE000003E000003FFFFE000003E000003FFFF0003FFFFFF
310
FFF80003FFE00007F000F800000000000FFC0007FFF800007FFF8001FF80007F
310
F000000000000FFF000000000000FFF8000001FFFE0000007F80000000000001
310
FFF0000000000007FFFFF0000000000007FFFF0003FFFFFFFFFC00007E000007
310
F000F800000000000FFC0007FFF80000FFFF8000FF80007FF800000000001FFF
310
800000000001FFF8000001FFFE0000007F80000000000001FFF800000000000F
310
FFFFF800000000000FFFFF0003FFFFFFFFFC00000000000FF000FC0000000000
310
1FFC0007FFFC0000FFFF8000FF80007FF800000000003FFFC00000000001FFF8
310
000001FFFE0000007F80000000000001FFF800000000000FFFFFF80000000000
310
0FFFFF0003FFFFFFFFFE00000000001FF000FE00000000003FF8000FFFFC0000
310
FFFF8000FF80007FFC00000000003FFFC00000000003FFF8000001FFFE000000
310
7F80000000000001FFFC00000000001FFFFFFC00000000001FFFFF0003FFFFFF
310
FFFF00000000001FF000FF00000000003FF8000FFFFC0000FFFFC000FF80007F
310
FE00000000007FFFE00000000007FFF8000001FFFE0000007F80000000000001
310
FFFE00000000003FFFFFFE00000000003FFFFF0003FFFFFFFFFF80000000003F
310
F000FF80000000007FF8000FFFFC0001FFFFC0007F80007FFF0000000000FFFF
310
F0000000000FFFF800000000000000007F80000000000001FFFF8000000000FF
310
FFFFFF8000000000FFFFFF0003FFFFFFFFFFC0000000007FF000FFC000000000
310
FFF8000FFFFE0001FFFFC0007F80007FFF8000000001FFFFF8000000001FFFF8
310
00000000000000007F80000000000001FFFFC000000001FFFFFFFFC000000001
310
FFFFFF0003FFFFFFFFFFE000000000FFF000FFE000000003FFF0001FFFFE0001
310
FFFFC0007F80007FFFC000000007FFFFFE000000003FFFF80000000000000000
310
7F80000000000001FFFFE000000003FFFFFFFFE000000003FFFFFF0003FFFFFF
310
FFFFF000000003FFF000FFF80000000FFFF0001FFFFE0001FFFFE0007F80007F
310
FFF00000000FFFFFFF00000000FFFFF800000000000000007F80000000000001
310
FFFFF80000000FFFFFFFFFF80000000FFFFFFF0003FFFFFFFFFFFC0000000FFF
310
F000FFFE0000003FFFF0001FFFFE0003FFFFE0003F80007FFFFC0000003FFFFF
310
FFC0000003FFFFF800000000000000007F80000000000001FFFFFE0000003FFF
310
FFFFFFFE0000003FFFFFFF0003FFFFFFFFFFFF0000003FFFF000FFFF800000FF
310
FFF0001FFFFF0003FFFFE0003F80007FFFFF000001FFFFFFFFF800001FFFFFF8
310
00000000000000007F80000000000001FFFFFFC00001FFFFFFFFFFFFC00001FF
310
FFFFFF0003FFFFFFFFFFFFC00000FFFFF000FFFFF8000FFFFFFFFFFFFFFFFFFF
310
FFFFFFFFFFFFFFFFFFFFF0001FFFFFFFFFFF0000FFFFFFF80000000000000000
310
7FFFFFFFFFFFFFFFFFFFFFFC001FFFFFFFFFFFFFFC001FFFFFFFFFFFFFFFFFFF
310
FFFFFFFC001FFFFFF000FFFFFFFFFFFFFFFFFFFFFFFFFFFFFFFFFFFFFFFFFFFF
310
FFFFFFFFFFFFFFFFFFFFFFFFFFFFFFFFFFFFFFFFFFFFFFFFFFFFFFFFFFFFFFFF
310
FFFFFFFFFFFFFFFFFFFFFFFFFFFFFFFFFFFFFFFFFFFFFFFFFFFFFFFFFFFFFFFF
310
F000FFFFFFFFFFFFFFFFFFFFFFFFFFFFFFFFFFFFFFFFFFFFFFFFFFFFFFFFFFFF
310
FFFFFFFFFFFFFFFFFFFFFFFFFFFFFFFFFFFFFFFFFFFFFFFFFFFFFFFFFFFFFFFF
310
FFFFFFFFFFFFFFFFFFFFFFFFFFFFFFFFFFFFFFFFFFFFFFFFF000FFFFFFFFFFFF
310
FFFFFFFFFFFFFFFFFFFFFFFFFFFFFFFFFFFFFFFFFFFFFFFFFFFFFFFFFFFFFFFF
310
FFFFFFFFFFFFFFFFFFFFFFFFFFFFFFFFFFFFFFFFFFFFFFFFFFFFFFFFFFFFFFFF
310
FFFFFFFFFFFFFFFFFFFFFFFFFFFFFFFFF000FFFFFFFFFFFFFFFFFFFFFFFFFFFF
310
FFFFFFFFFFFFFFFFFFFFFFFFFFFFFFFFFFFFFFFFFFFFFFFFFFFFFFFFFFFFFFFF
310
FFFFFFFFFFFFFFFFFFFFFFFFFFFFFFFFFFFFFFFFFFFFFFFFFFFFFFFFFFFFFFFF
310
FFFFFFFFFFFFFFFFF000FFFFFFFFFFFFFFFFFFFFFFFFFFFFFFFFFFFFFFFFFFFF
310
FFFFFFFFFFFFFFFFFFFFFFFFFFFFFFFFFFFFFFFFFFFFFFFFFFFFFFFFFFFFFFFF
310
FFFFFFFFFFFFFFFFFFFFFFFFFFFFFFFFFFFFFFFFFFFFFFFFFFFFFFFFFFFFFFFF
310
F000FFFFFFFFFFFFFFFFFFFFFFFFFFFFFFFFFFFFFFFFFFFFFFFFFFFFFFFFFFFF
310
FFFFFFFFFFFFFFFFFFFFFFFFFFFFFFFFFFFFFFFFFFFFFFFFFFFFFFFFFFFFFFFF
310
FFFFFFFFFFFFFFFFFFFFFFFFFFFFFFFFFFFFFFFFFFFFFFFFF000FFFFFFFFFFFF
310
FFFFFFFFFFFFFFFFFFFFFFFFFFFFFFFFFFFFFFFFFFFFFFFFFFFFFFFFFFFFFFFF
310
FFFFFFFFFFFFFFFFFFFFFFFFFFFFFFFFFFFFFFFFFFFFFFFFFFFFFFFFFFFFFFFF
310
FFFFFFFFFFFFFFFFFFFFFFFFFFFFFFFFF000FFFFFFFFFFFFFFFFFFFFFFFFFFFF
310
FFFFFFFFFFFFFFFFFFFFFFFFFFFFFFFFFFFFFFFFFFFFFFFFFFFFFFFFFFFFFFFF
310
FFFFFFFFFFFFFFFFFFFFFFFFFFFFFFFFFFFFFFFFFFFFFFFFFFFFFFFFFFFFFFFF
310
FFFFFFFFFFFFFFFFF000FFFFFFFFFFFFFFFFFFFFFFFFFFFFFFFFFFFFFFFFFFFF
310
FFFFFFFFFFFFFFFFFFFFFFFFFFFFFFFFFFFFFFFFFFFFFFFFFFFFFFFFFFFFFFFF
310
FFFFFFFFFFFFFFFFFFFFFFFFFFFFFFFFFFFFFFFFFFFFFFFFFFFFFFFFFFFFFFFF
310
F000FFFFFFFFFFFFFFFFFFFFFFFFFFFFFFFFFFFFFFFFFFFFFFFFFFFFFFFFFFFF
310
FFFFFFFFFFFFFFFFFFFFFFFFFFFFFFFFFFFFFFFFFFFFFFFFFFFFFFFFFFFFFFFF
310
FFFFFFFFFFFFFFFFFFFFFFFFFFFFFFFFFFFFFFFFFFFFFFFFF000FFFFFFFFFFFF
310
FFFFFFFFFFFFFFFFFFFFFFFFFFFFFFFFFFFFFFFFFFFFFFFFFFFFFFFFFFFFFFFF
310
FFFFFFFFFFFFFFFFFFFFFFFFFFFFFFFFFFFFFFFFFFFFFFFFFFFFFFFFFFFFFFFF
310
FFFFFFFFFFFFFFFFFFFFFFFFFFFFFFFFF000FFFFFFFFFFFFFFFFFFFFFFFFFFFF
310
FFFFFFFFFFFFFFFFFFFFFFFFFFFFFFFFFFFFFFFFFFFFFFFFFFFFFFFFFFFFFFFF
310
FFFFFFFFFFFFFFFFFFFFFFFFFFFFFFFFFFFFFFFFFFFFFFFFFFFFFFFFFFFFFFFF
310
FFFFFFFFFFFFFFFFF000FFFFFFFFFFFFFFFFFFFFFFFFFFFFFFFFFFFFFFFFFFFF
310
FFFFFFFFFFFFFFFFFFFFFFFFFFFFFFFFFFFFFFFFFFFFFFFFFFFFFFFFFFFFFFFF
310
FFFFFFFFFFFFFFFFFFFFFFFFFFFFFFFFFFFFFFFFFFFFFFFFFFFFFFFFFFFFFFFF
310
F000FFFFFFFFFFFFFFFFFFFFFFFFFFFFFFFFFFFFFFFFFFFFFFFFFFFFFFFFFFFF
310
FFFFFFFFFFFFFFFFFFFFFFFFFFFFFFFFFFFFFFFFFFFFFFFFFFFFFFFFFFFFFFFF
310
FFFFFFFFFFFFFFFFFFFFFFFFFFFFFFFFFFFFFFFFFFFFFFFFF000FFFFFFFFFFFF
310
FFFFFFFFFFFFFFFFFFFFFFFFFFFFFFFFFFFFFFFFFFFFFFFFFFFFFFFFFFFFFFFF
310
FFFFFFFFFFFFFFFFFFFFFFFFFFFFFFFFFFFFFFFFFFFFFFFFFFFFFFFFFFFFFFFF
310
FFFFFFFFFFFFFFFFFFFFFFFFFFFFFFFFF000FFFFFFFFFFFFFFFFFFFFFFFFFFFF
310
FFFFFFFFFFFFFFFFFFFFFFFFFFFFFFFFFFFFFFFFFFFFFFFFFFFFFFFFFFFFFFFF
310
FFFFFFFFFFFFFFFFFFFFFFFFFFFFFFFFFFFFFFFFFFFFFFFFFFFFFFFFFFFFFFFF
310
FFFFFFFFFFFFFFFFF000FFFFFFFFFFFFFFFFFFFFFFFFFFFFFFFFFFFFFFFFFFFF
310
FFFFFFFFFFFFFFFFFFFFFFFFFFFFFFFFFFFFFFFFFFFFFFFFFFFFFFFFFFFFFFFF
310
FFFFFFFFFFFFFFFFFFFFFFFFFFFFFFFFFFFFFFFFFFFFFFFFFFFFFFFFFFFFFFFF
310
F000FFFFFFFFFFFFFFFFFFFFFFFFFFFFFFFFFFFFFFFFFFFFFFFFFFFFFFFFFFFF
310
FFFFFFFFFFFFFFFFFFFFFFFFFFFFFFFFFFFFFFFFFFFFFFFFFFFFFFFFFFFFFFFF
310
FFFFFFFFFFFFFFFFFFFFFFFFFFFFFFFFFFFFFFFFFFFFFFFFF000FFFFFFFFFFFF
310
FFFFFFFFFFFFFFFFFFFFFFFFFFFFFFFFFFFFFFFFFFFFFFFFFFFFFFFFFFFFFFFF
310
FFFFFFFFFFFFFFFFFFFFFFFFFFFFFFFFFFFFFFFFFFFFFFFFFFFFFFFFFFFFFFFF
310
FFFFFFFFFFFFFFFFFFFFFFFFFFFFFFFFF000FFFFFFFFFFFFFFFFFFFFFFFFFFFF
310
FFFFFFFFFFFFFFFFFFFFFFFFFFFFFFFFFFFFFFFFFFFFFFFFFFFFFFFFFFFFFFFF
310
FFFFFFFFFFFFFFFFFFFFFFFFFFFFFFFFFFFFFFFFFFFFFFFFFFFFFFFFFFFFFFFF
310
FFFFFFFFFFFFFFFFF000FFFFFFFFFFFFFFFFFFFFFFFFFFFFFFFFFFFFFFFFFFFF
310
FFFFFFFFFFFFFFFFFFFFFFFFFFFFFFFFFFFFFFFFFFFFFFFFFFFFFFFFFFFFFFFF
310
FFFFFFFFFFFFFFFFFFFFFFFFFFFFFFFFFFFFFFFFFFFFFFFFFFFFFFFFFFFFFFFF
310
F000FFFFFFFFFFFFFFFFFFFFFFFFFFFFFFFFFFFFFFFFFFFFFFFFFFFFFFFFFFFF
310
FFFFFFFFFFFFFFFFFFFFFFFFFFFFFFFFFFFFFFFFFFFFFFFFFFFFFFFFFFFFFFFF
310
FFFFFFFFFFFFFFFFFFFFFFFFFFFFFFFFFFFFFFFFFFFFFFFFF000FFFFFFFFFFFF
310
FFFFFFFFFFFFFFFFFFFFFFFFFFFFFFFFFFFFFFFFFFFFFFFFFFFFFFFFFFFFFFFF
310
FFFFFFFFFFFFFFFFFFFFFFFFFFFFFFFFFFFFFFFFFFFFFFFFFFFFFFFFFFFFFFFF
310
FFFFFFFFFFFFFFFFFFFFFFFFFFFFFFFFF0000000000000000000000000000000
310
0000000000000000000000000000000000000000000000000000000000000000
310
0000000000000000000000000000000000000000000000000000000000000000
310
0000000000000000000000000000000000000000000000000000000000000000
310
0000000000000000000000000000000000000000000000000000000000000000
310
0000000000000000000000000000000000000000000000000000000000000000
310
0000000000000000000000000000000000000000000000000000000000000000
310
0000000000000000000000000000000000000000000000000000000000000000
310
0000000000000000000000000000000000000000000000000000000000000000
310
0000000000000000000000000000000000000000000000000000000000000000
310
0000000000000000000000000000000000000000000000000000000000000000
310
0000000000000000000000000000000000000000000000000000000000000000
310
0000000000000000000000000000000000000000000000000000000000000000
310
0000000000000000000000000000000000000000000000000000000000000000
310
0000000000000000000000000000000000000000000000000000000000000000
310
0000000000000000000000000000000000000000000000000000000000000000
  1
OLE
  0
ENDSEC
  0
SECTION
  2
OBJECTS
  0
DICTIONARY
  5
C
330
0
100
AcDbDictionary
281
     1
  3
ACAD_GROUP
350
D
  3
ACAD_LAYOUT
350
1A
  3
ACAD_MLINESTYLE
350
17
  3
ACAD_PLOTSETTINGS
350
19
  3
ACAD_PLOTSTYLENAME
350
E
  3
ACAD_SCALELIST
350
47
  0
DICTIONARY
  5
D
102
{ACAD_REACTORS
330
C
102
}
330
C
100
AcDbDictionary
281
     1
  0
DICTIONARY
  5
1A
102
{ACAD_REACTORS
330
C
102
}
330
C
100
AcDbDictionary
281
     1
  3
Layout1
350
1E
  3
Layout2
350
26
  3
Model
350
22
  0
DICTIONARY
  5
17
102
{ACAD_REACTORS
330
C
102
}
330
C
100
AcDbDictionary
281
     1
  3
Standard
350
18
  0
DICTIONARY
  5
19
102
{ACAD_REACTORS
330
C
102
}
330
C
100
AcDbDictionary
281
     1
  0
ACDBDICTIONARYWDFLT
  5
E
102
{ACAD_REACTORS
330
C
102
}
330
C
100
AcDbDictionary
281
     1
  3
Normal
350
F
100
AcDbDictionaryWithDefault
340
F
  0
DICTIONARY
  5
47
102
{ACAD_REACTORS
330
C
102
}
330
C
100
AcDbDictionary
281
     1
  3
A0
350
48
  3
A1
350
49
  3
A2
350
4A
  3
A3
350
4B
  3
A4
350
4C
  3
A5
350
4D
  3
A6
350
4E
  3
A7
350
4F
  3
A8
350
50
  3
A9
350
51
  3
B0
350
52
  3
B1
350
53
  3
B2
350
54
  3
B3
350
55
  3
B4
350
56
  3
B5
350
57
  3
B6
350
58
  3
B7
350
59
  3
B8
350
5A
  3
B9
350
5B
  3
C0
350
5C
  3
C1
350
5D
  3
C2
350
5E
  3
C3
350
5F
  3
C4
350
60
  3
C5
350
61
  3
C6
350
62
  3
C7
350
63
  3
C8
350
64
  3
C9
350
65
  3
D0
350
66
  3
D1
350
67
  3
D2
350
68
  0
LAYOUT
  5
1E
102
{ACAD_REACTORS
330
1A
102
}
330
1A
100
AcDbPlotSettings
  1

  2
none_device
  4

  6

 40
0.0
 41
0.0
 42
0.0
 43
0.0
 44
0.0
 45
0.0
 46
0.0
 47
0.0
 48
0.0
 49
0.0
140
0.0
141
0.0
142
1.0
143
1.0
 70
   688
 72
     1
 73
     0
 74
     5
  7

 75
    16
147
1.0
148
0.0
149
0.0
100
AcDbLayout
  1
Layout1
 70
     1
 71
     1
 10
0.0
 20
0.0
 11
420.0
 21
297.0
 12
0.0
 22
0.0
 32
0.0
 14
1.0000000000E+20
 24
1.0000000000E+20
 34
1.0000000000E+20
 15
-1.0000000000E+20
 25
-1.0000000000E+20
 35
-1.0000000000E+20
146
0.0
 13
0.0
 23
0.0
 33
0.0
 16
1.0
 26
0.0
 36
0.0
 17
0.0
 27
1.0
 37
0.0
 76
     0
330
1B
  0
LAYOUT
  5
26
102
{ACAD_REACTORS
330
1A
102
}
330
1A
100
AcDbPlotSettings
  1

  2
none_device
  4

  6

 40
0.0
 41
0.0
 42
0.0
 43
0.0
 44
0.0
 45
0.0
 46
0.0
 47
0.0
 48
0.0
 49
0.0
140
0.0
141
0.0
142
1.0
143
1.0
 70
   688
 72
     1
 73
     0
 74
     5
  7

 75
    16
147
1.0
148
0.0
149
0.0
100
AcDbLayout
  1
Layout2
 70
     1
 71
     2
 10
0.0
 20
0.0
 11
0.0
 21
0.0
 12
0.0
 22
0.0
 32
0.0
 14
0.0
 24
0.0
 34
0.0
 15
0.0
 25
0.0
 35
0.0
146
0.0
 13
0.0
 23
0.0
 33
0.0
 16
1.0
 26
0.0
 36
0.0
 17
0.0
 27
1.0
 37
0.0
 76
     0
330
23
  0
LAYOUT
  5
22
102
{ACAD_REACTORS
330
1A
102
}
330
1A
100
AcDbPlotSettings
  1

  2
none_device
  4
Letter_(8.50_x_11.00_Inches)
  6

 40
6.35
 41
6.35
 42
6.35000508
 43
6.35000508
 44
215.9
 45
279.4
 46
0.0
 47
0.0
 48
0.0
 49
0.0
140
0.0
141
0.0
142
1.0
143
1.0
 70
  1712
 72
     1
 73
     0
 74
     0
  7

 75
     0
147
1.0
148
0.0
149
0.0
100
AcDbLayout
  1
Model
 70
     1
 71
     0
 10
0.0
 20
0.0
 11
297.0
 21
210.0
 12
0.0
 22
0.0
 32
0.0
 14
0.0
 24
0.0
 34
0.0
 15
297.0
 25
210.0
 35
0.0
146
0.0
 13
0.0
 23
0.0
 33
0.0
 16
1.0
 26
0.0
 36
0.0
 17
0.0
 27
1.0
 37
0.0
 76
     0
330
1F
331
29
  0
MLINESTYLE
  5
18
102
{ACAD_REACTORS
330
17
102
}
330
17
100
AcDbMlineStyle
  2
Standard
 70
     0
  3

 62
   256
 51
90.0
 52
90.0
 71
     2
 49
0.5
 62
   256
  6
BYLAYER
 49
-0.5
 62
   256
  6
BYLAYER
  0
ACDBPLACEHOLDER
  5
F
102
{ACAD_REACTORS
330
E
102
}
330
E
  0
SCALE
  5
48
102
{ACAD_REACTORS
330
47
102
}
330
47
100
AcDbScale
 70
     0
300
1:1
140
1.0
141
1.0
290
     1
  0
SCALE
  5
49
102
{ACAD_REACTORS
330
47
102
}
330
47
100
AcDbScale
 70
     0
300
1:2
140
1.0
141
2.0
290
     0
  0
SCALE
  5
4A
102
{ACAD_REACTORS
330
47
102
}
330
47
100
AcDbScale
 70
     0
300
1:4
140
1.0
141
4.0
290
     0
  0
SCALE
  5
4B
102
{ACAD_REACTORS
330
47
102
}
330
47
100
AcDbScale
 70
     0
300
1:5
140
1.0
141
5.0
290
     0
  0
SCALE
  5
4C
102
{ACAD_REACTORS
330
47
102
}
330
47
100
AcDbScale
 70
     0
300
1:8
140
1.0
141
8.0
290
     0
  0
SCALE
  5
4D
102
{ACAD_REACTORS
330
47
102
}
330
47
100
AcDbScale
 70
     0
300
1:10
140
1.0
141
10.0
290
     0
  0
SCALE
  5
4E
102
{ACAD_REACTORS
330
47
102
}
330
47
100
AcDbScale
 70
     0
300
1:16
140
1.0
141
16.0
290
     0
  0
SCALE
  5
4F
102
{ACAD_REACTORS
330
47
102
}
330
47
100
AcDbScale
 70
     0
300
1:20
140
1.0
141
20.0
290
     0
  0
SCALE
  5
50
102
{ACAD_REACTORS
330
47
102
}
330
47
100
AcDbScale
 70
     0
300
1:30
140
1.0
141
30.0
290
     0
  0
SCALE
  5
51
102
{ACAD_REACTORS
330
47
102
}
330
47
100
AcDbScale
 70
     0
300
1:40
140
1.0
141
40.0
290
     0
  0
SCALE
  5
52
102
{ACAD_REACTORS
330
47
102
}
330
47
100
AcDbScale
 70
     0
300
1:50
140
1.0
141
50.0
290
     0
  0
SCALE
  5
53
102
{ACAD_REACTORS
330
47
102
}
330
47
100
AcDbScale
 70
     0
300
1:100
140
1.0
141
100.0
290
     0
  0
SCALE
  5
54
102
{ACAD_REACTORS
330
47
102
}
330
47
100
AcDbScale
 70
     0
300
2:1
140
2.0
141
1.0
290
     0
  0
SCALE
  5
55
102
{ACAD_REACTORS
330
47
102
}
330
47
100
AcDbScale
 70
     0
300
4:1
140
4.0
141
1.0
290
     0
  0
SCALE
  5
56
102
{ACAD_REACTORS
330
47
102
}
330
47
100
AcDbScale
 70
     0
300
8:1
140
8.0
141
1.0
290
     0
  0
SCALE
  5
57
102
{ACAD_REACTORS
330
47
102
}
330
47
100
AcDbScale
 70
     0
300
10:1
140
10.0
141
1.0
290
     0
  0
SCALE
  5
58
102
{ACAD_REACTORS
330
47
102
}
330
47
100
AcDbScale
 70
     0
300
100:1
140
100.0
141
1.0
290
     0
  0
SCALE
  5
59
102
{ACAD_REACTORS
330
47
102
}
330
47
100
AcDbScale
 70
     0
300
1/128" = 1'-0"
140
0.0078125
141
12.0
290
     0
  0
SCALE
  5
5A
102
{ACAD_REACTORS
330
47
102
}
330
47
100
AcDbScale
 70
     0
300
1/64" = 1'-0"
140
0.015625
141
12.0
290
     0
  0
SCALE
  5
5B
102
{ACAD_REACTORS
330
47
102
}
330
47
100
AcDbScale
 70
     0
300
1/32" = 1'-0"
140
0.03125
141
12.0
290
     0
  0
SCALE
  5
5C
102
{ACAD_REACTORS
330
47
102
}
330
47
100
AcDbScale
 70
     0
300
1/16" = 1'-0"
140
0.0625
141
12.0
290
     0
  0
SCALE
  5
5D
102
{ACAD_REACTORS
330
47
102
}
330
47
100
AcDbScale
 70
     0
300
3/32" = 1'-0"
140
0.09375
141
12.0
290
     0
  0
SCALE
  5
5E
102
{ACAD_REACTORS
330
47
102
}
330
47
100
AcDbScale
 70
     0
300
1/8" = 1'-0"
140
0.125
141
12.0
290
     0
  0
SCALE
  5
5F
102
{ACAD_REACTORS
330
47
102
}
330
47
100
AcDbScale
 70
     0
300
3/16" = 1'-0"
140
0.1875
141
12.0
290
     0
  0
SCALE
  5
60
102
{ACAD_REACTORS
330
47
102
}
330
47
100
AcDbScale
 70
     0
300
1/4" = 1'-0"
140
0.25
141
12.0
290
     0
  0
SCALE
  5
61
102
{ACAD_REACTORS
330
47
102
}
330
47
100
AcDbScale
 70
     0
300
3/8" = 1'-0"
140
0.375
141
12.0
290
     0
  0
SCALE
  5
62
102
{ACAD_REACTORS
330
47
102
}
330
47
100
AcDbScale
 70
     0
300
1/2" = 1'-0"
140
0.5
141
12.0
290
     0
  0
SCALE
  5
63
102
{ACAD_REACTORS
330
47
102
}
330
47
100
AcDbScale
 70
     0
300
3/4" = 1'-0"
140
0.75
141
12.0
290
     0
  0
SCALE
  5
64
102
{ACAD_REACTORS
330
47
102
}
330
47
100
AcDbScale
 70
     0
300
1" = 1'-0"
140
1.0
141
12.0
290
     0
  0
SCALE
  5
65
102
{ACAD_REACTORS
330
47
102
}
330
47
100
AcDbScale
 70
     0
300
1-1/2" = 1'-0"
140
1.5
141
12.0
290
     0
  0
SCALE
  5
66
102
{ACAD_REACTORS
330
47
102
}
330
47
100
AcDbScale
 70
     0
300
3" = 1'-0"
140
3.0
141
12.0
290
     0
  0
SCALE
  5
67
102
{ACAD_REACTORS
330
47
102
}
330
47
100
AcDbScale
 70
     0
300
6" = 1'-0"
140
6.0
141
12.0
290
     0
  0
SCALE
  5
68
102
{ACAD_REACTORS
330
47
102
}
330
47
100
AcDbScale
 70
     0
300
1'-0" = 1'-0"
140
12.0
141
12.0
290
     0
  0
ENDSEC
  0
EOF
