  0
SECTION
  2
HEADER
  9
$ACADVER
  1
AC1015
  9
$ACADMAINTVER
 70
     6
  9
$DWGCODEPAGE
  3
ANSI_1252
  9
$INSBASE
 10
0.0
 20
0.0
 30
0.0
  9
$EXTMIN
 10
0.0
 20
0.0
 30
0.0
  9
$EXTMAX
 10
297.0
 20
210.0
 30
0.0
  9
$LIMMIN
 10
0.0
 20
0.0
  9
$LIMMAX
 10
297.0
 20
210.0
  9
$ORTHOMODE
 70
     0
  9
$REGENMODE
 70
     1
  9
$FILLMODE
 70
     1
  9
$QTEXTMODE
 70
     0
  9
$MIRRTEXT
 70
     1
  9
$LTSCALE
 40
1.0
  9
$ATTMODE
 70
     1
  9
$TEXTSIZE
 40
2.0
  9
$TRACEWID
 40
1.0
  9
$TEXTSTYLE
  7
Standard
  9
$CLAYER
  8
0
  9
$CELTYPE
  6
ByLayer
  9
$CECOLOR
 62
   256
  9
$CELTSCALE
 40
1.0
  9
$DISPSILH
 70
     0
  9
$DIMSCALE
 40
1.0
  9
$DIMASZ
 40
3.0
  9
$DIMEXO
 40
0.0
  9
$DIMDLI
 40
3.75
  9
$DIMRND
 40
0.0
  9
$DIMDLE
 40
0.0
  9
$DIMEXE
 40
1.0
  9
$DIMTP
 40
0.0
  9
$DIMTM
 40
0.0
  9
$DIMTXT
 40
2.0
  9
$DIMCEN
 40
2.5
  9
$DIMTSZ
 40
0.0
  9
$DIMTOL
 70
     0
  9
$DIMLIM
 70
     0
  9
$DIMTIH
 70
     1
  9
$DIMTOH
 70
     1
  9
$DIMSE1
 70
     0
  9
$DIMSE2
 70
     0
  9
$DIMTAD
 70
     1
  9
$DIMZIN
 70
     0
  9
$DIMBLK
  1

  9
$DIMASO
 70
     1
  9
$DIMSHO
 70
     1
  9
$DIMPOST
  1

  9
$DIMAPOST
  1

  9
$DIMALT
 70
     0
  9
$DIMALTD
 70
     3
  9
$DIMALTF
 40
0.0393700787
  9
$DIMLFAC
 40
1.0
  9
$DIMTOFL
 70
     1
  9
$DIMTVP
 40
0.0
  9
$DIMTIX
 70
     0
  9
$DIMSOXD
 70
     0
  9
$DIMSAH
 70
     0
  9
$DIMBLK1
  1

  9
$DIMBLK2
  1

  9
$DIMSTYLE
  2
ISO-25
  9
$DIMCLRD
 70
     0
  9
$DIMCLRE
 70
     0
  9
$DIMCLRT
 70
     0
  9
$DIMTFAC
 40
1.0
  9
$DIMGAP
 40
1.524
  9
$DIMJUST
 70
     0
  9
$DIMSD1
 70
     0
  9
$DIMSD2
 70
     0
  9
$DIMTOLJ
 70
     0
  9
$DIMTZIN
 70
     0
  9
$DIMALTZ
 70
     0
  9
$DIMALTTZ
 70
     0
  9
$DIMUPT
 70
     0
  9
$DIMDEC
 70
     2
  9
$DIMTDEC
 70
     3
  9
$DIMALTU
 70
     2
  9
$DIMALTTD
 70
     3
  9
$DIMTXSTY
  7
Standard
  9
$DIMAUNIT
 70
     0
  9
$DIMADEC
 70
     2
  9
$DIMALTRND
 40
0.0
  9
$DIMAZIN
 70
     0
  9
$DIMDSEP
 70
    44
  9
$DIMATFIT
 70
     3
  9
$DIMFRAC
 70
     0
  9
$DIMLDRBLK
  1

  9
$DIMLUNIT
 70
     2
  9
$DIMLWD
 70
    -2
  9
$DIMLWE
 70
    -2
  9
$DIMTMOVE
 70
     0
  9
$LUNITS
 70
     2
  9
$LUPREC
 70
     2
  9
$SKETCHINC
 40
1.0
  9
$FILLETRAD
 40
10.0
  9
$AUNITS
 70
     0
  9
$AUPREC
 70
     2
  9
$MENU
  1
.
  9
$ELEVATION
 40
0.0
  9
$PELEVATION
 40
0.0
  9
$THICKNESS
 40
0.0
  9
$LIMCHECK
 70
     0
  9
$CHAMFERA
 40
0.0
  9
$CHAMFERB
 40
0.0
  9
$CHAMFERC
 40
0.0
  9
$CHAMFERD
 40
0.0
  9
$SKPOLY
 70
     0
  9
$TDCREATE
 40
2457627.625040162
  9
$TDUCREATE
 40
2457627.541706829
  9
$TDUPDATE
 40
2457627.62504125
  9
$TDUUPDATE
 40
2457627.541707917
  9
$TDINDWG
 40
0.0000000116
  9
$TDUSRTIMER
 40
0.0000000116
  9
$USRTIMER
 70
     1
  9
$ANGBASE
 50
0.0
  9
$ANGDIR
 70
     0
  9
$PDMODE
 70
     0
  9
$PDSIZE
 40
-1.0
  9
$PLINEWID
 40
0.0
  9
$SPLFRAME
 70
     0
  9
$SPLINETYPE
 70
     6
  9
$SPLINESEGS
 70
     8
  9
$HANDSEED
  5
21A
  9
$SURFTAB1
 70
     6
  9
$SURFTAB2
 70
     6
  9
$SURFTYPE
 70
     6
  9
$SURFU
 70
     6
  9
$SURFV
 70
     6
  9
$UCSBASE
  2

  9
$UCSNAME
  2

  9
$UCSORG
 10
0.0
 20
0.0
 30
0.0
  9
$UCSXDIR
 10
1.0
 20
0.0
 30
0.0
  9
$UCSYDIR
 10
0.0
 20
1.0
 30
0.0
  9
$UCSORTHOREF
  2

  9
$UCSORTHOVIEW
 70
     0
  9
$UCSORGTOP
 10
0.0
 20
0.0
 30
0.0
  9
$UCSORGBOTTOM
 10
0.0
 20
0.0
 30
0.0
  9
$UCSORGLEFT
 10
0.0
 20
0.0
 30
0.0
  9
$UCSORGRIGHT
 10
0.0
 20
0.0
 30
0.0
  9
$UCSORGFRONT
 10
0.0
 20
0.0
 30
0.0
  9
$UCSORGBACK
 10
0.0
 20
0.0
 30
0.0
  9
$PUCSBASE
  2

  9
$PUCSNAME
  2

  9
$PUCSORG
 10
0.0
 20
0.0
 30
0.0
  9
$PUCSXDIR
 10
1.0
 20
0.0
 30
0.0
  9
$PUCSYDIR
 10
0.0
 20
1.0
 30
0.0
  9
$PUCSORTHOREF
  2

  9
$PUCSORTHOVIEW
 70
     0
  9
$PUCSORGTOP
 10
0.0
 20
0.0
 30
0.0
  9
$PUCSORGBOTTOM
 10
0.0
 20
0.0
 30
0.0
  9
$PUCSORGLEFT
 10
0.0
 20
0.0
 30
0.0
  9
$PUCSORGRIGHT
 10
0.0
 20
0.0
 30
0.0
  9
$PUCSORGFRONT
 10
0.0
 20
0.0
 30
0.0
  9
$PUCSORGBACK
 10
0.0
 20
0.0
 30
0.0
  9
$USERI1
 70
     0
  9
$USERI2
 70
     0
  9
$USERI3
 70
     0
  9
$USERI4
 70
     0
  9
$USERI5
 70
     0
  9
$USERR1
 40
0.0
  9
$USERR2
 40
0.0
  9
$USERR3
 40
0.0
  9
$USERR4
 40
0.0
  9
$USERR5
 40
0.0
  9
$WORLDVIEW
 70
     1
  9
$SHADEDGE
 70
     3
  9
$SHADEDIF
 70
    70
  9
$TILEMODE
 70
     1
  9
$MAXACTVP
 70
    64
  9
$PINSBASE
 10
0.0
 20
0.0
 30
0.0
  9
$PLIMCHECK
 70
     0
  9
$PEXTMIN
 10
1.0000000000E+20
 20
1.0000000000E+20
 30
1.0000000000E+20
  9
$PEXTMAX
 10
-1.0000000000E+20
 20
-1.0000000000E+20
 30
-1.0000000000E+20
  9
$PLIMMIN
 10
0.0
 20
0.0
  9
$PLIMMAX
 10
420.0
 20
297.0
  9
$UNITMODE
 70
     0
  9
$VISRETAIN
 70
     1
  9
$PLINEGEN
 70
     0
  9
$PSLTSCALE
 70
     1
  9
$TREEDEPTH
 70
  3020
  9
$CMLSTYLE
  2
Standard
  9
$CMLJUST
 70
     0
  9
$CMLSCALE
 40
20.0
  9
$PROXYGRAPHICS
 70
     1
  9
$MEASUREMENT
 70
     1
  9
$CELWEIGHT
370
    -1
  9
$ENDCAPS
280
     0
  9
$JOINSTYLE
280
     0
  9
$LWDISPLAY
290
     1
  9
$INSUNITS
 70
     4
  9
$HYPERLINKBASE
  1

  9
$STYLESHEET
  1

  9
$XEDIT
290
     1
  9
$CEPSNTYPE
380
     0
  9
$PSTYLEMODE
290
     1
  9
$FINGERPRINTGUID
  2
{9026A99E-04A3-4186-9D82-E0FF8C3A971D}
  9
$VERSIONGUID
  2
{FAEB1C32-E019-11D5-929B-00C0DF256EC4}
  9
$EXTNAMES
290
     1
  9
$PSVPSCALE
 40
0.0
  9
$OLESTARTUP
290
     0
  0
ENDSEC
  0
SECTION
  2
CLASSES
  0
CLASS
  1
ACDBDICTIONARYWDFLT
  2
AcDbDictionaryWithDefault
  3
ObjectDBX Classes
 90
        0
280
     0
281
     0
  0
CLASS
  1
VISUALSTYLE
  2
AcDbVisualStyle
  3
ObjectDBX Classes
 90
     4095
280
     0
281
     0
  0
CLASS
  1
MATERIAL
  2
AcDbMaterial
  3
ObjectDBX Classes
 90
     1153
280
     0
281
     0
  0
CLASS
  1
SCALE
  2
AcDbScale
  3
ObjectDBX Classes
 90
     1153
280
     0
281
     0
  0
CLASS
  1
TABLESTYLE
  2
AcDbTableStyle
  3
ObjectDBX Classes
 90
     4095
280
     0
281
     0
  0
CLASS
  1
MLEADERSTYLE
  2
AcDbMLeaderStyle
  3
ACDB_MLEADERSTYLE_CLASS
 90
     4095
280
     0
281
     0
  0
CLASS
  1
SUN
  2
AcDbSun
  3
SCENEOE
 90
     1153
280
     0
281
     0
  0
CLASS
  1
ACDBPLACEHOLDER
  2
AcDbPlaceHolder
  3
ObjectDBX Classes
 90
        0
280
     0
281
     0
  0
CLASS
  1
LAYOUT
  2
AcDbLayout
  3
ObjectDBX Classes
 90
        0
280
     0
281
     0
  0
ENDSEC
  0
SECTION
  2
TABLES
  0
TABLE
  2
VPORT
  5
8
330
0
100
AcDbSymbolTable
 70
     1
  0
VPORT
  5
29
330
8
100
AcDbSymbolTableRecord
100
AcDbViewportTableRecord
  2
*Active
 70
     0
 10
0.0
 20
0.0
 11
1.0
 21
1.0
 12
148.5
 22
105.0
 13
0.0
 23
0.0
 14
10.0
 24
10.0
 15
10.0
 25
10.0
 16
0.0
 26
0.0
 36
1.0
 17
0.0
 27
0.0
 37
0.0
 40
210.0
 41
1.4142857143
 42
50.0
 43
0.0
 44
0.0
 50
0.0
 51
0.0
 71
     0
 72
  2000
 73
     1
 74
     3
 75
     0
 76
     0
 77
     0
 78
     0
281
     0
 65
     1
110
0.0
120
0.0
130
0.0
111
1.0
121
0.0
131
0.0
112
0.0
122
1.0
132
0.0
 79
     0
146
0.0
  0
ENDTAB
  0
TABLE
  2
LTYPE
  5
5
330
0
100
AcDbSymbolTable
 70
     6
  0
LTYPE
  5
14
330
5
100
AcDbSymbolTableRecord
100
AcDbLinetypeTableRecord
  2
ByBlock
 70
     0
  3

 72
    65
 73
     0
 40
0.0
  0
LTYPE
  5
15
330
5
100
AcDbSymbolTableRecord
100
AcDbLinetypeTableRecord
  2
ByLayer
 70
     0
  3

 72
    65
 73
     0
 40
0.0
  0
LTYPE
  5
16
330
5
100
AcDbSymbolTableRecord
100
AcDbLinetypeTableRecord
  2
Continuous
 70
     0
  3
Solid line
 72
    65
 73
     0
 40
0.0
  0
LTYPE
  5
6E
330
5
100
AcDbSymbolTableRecord
100
AcDbLinetypeTableRecord
  2
HIDDEN
 70
     0
  3
Hidden __ __ __ __ __ __ __ __ __ __ __ __ __ __
 72
    65
 73
     2
 40
1.905
 49
1.27
 74
     0
 49
-0.635
 74
     0
  0
LTYPE
  5
6F
330
5
100
AcDbSymbolTableRecord
100
AcDbLinetypeTableRecord
  2
PHANTOM
 70
     0
  3
Phantom ______  __  __  ______  __  __  ______
 72
    65
 73
     6
 40
12.7
 49
6.35
 74
     0
 49
-1.27
 74
     0
 49
1.27
 74
     0
 49
-1.27
 74
     0
 49
1.27
 74
     0
 49
-1.27
 74
     0
  0
LTYPE
  5
70
330
5
100
AcDbSymbolTableRecord
100
AcDbLinetypeTableRecord
  2
CENTER
 70
     0
  3
Center ____ _ ____ _ ____ _ ____ _ ____ _ ____
 72
    65
 73
     4
 40
10.16
 49
6.35
 74
     0
 49
-1.27
 74
     0
 49
1.27
 74
     0
 49
-1.27
 74
     0
  0
LTYPE
  5
71
330
5
100
AcDbSymbolTableRecord
100
AcDbLinetypeTableRecord
  2
CENTERX2
 70
     0
  3
Center (2x) ________  __  ________  __  _____
 72
    65
 73
     4
 40
20.32
 49
12.7
 74
     0
 49
-2.54
 74
     0
 49
2.54
 74
     0
 49
-2.54
 74
     0
  0
LTYPE
  5
72
330
5
100
AcDbSymbolTableRecord
100
AcDbLinetypeTableRecord
  2
DOT2
 70
     0
  3
Dot (.5x) ........................................
 72
    65
 73
     2
 40
0.635
 49
0.0
 74
     0
 49
-0.635
 74
     0
  0
ENDTAB
  0
TABLE
  2
LAYER
  5
2
330
0
100
AcDbSymbolTable
 70
     5
  0
LAYER
  5
10
330
2
100
AcDbSymbolTableRecord
100
AcDbLayerTableRecord
  2
0
 70
     0
 62
     7
  6
Continuous
370
    -3
390
F
  0
LAYER
  5
73
330
2
100
AcDbSymbolTableRecord
100
AcDbLayerTableRecord
  2
FORMAT
 70
     0
 62
     7
  6
Continuous
370
    -3
390
F
  0
LAYER
  5
74
330
2
100
AcDbSymbolTableRecord
100
AcDbLayerTableRecord
  2
VERMASSUNG
 70
     0
 62
     7
  6
Continuous
370
    -3
390
F
  0
LAYER
  5
75
330
2
100
AcDbSymbolTableRecord
100
AcDbLayerTableRecord
  2
KOPF_DÜNN
 70
     0
 62
     7
  6
Continuous
370
    -3
390
F
  0
LAYER
  5
76
330
2
100
AcDbSymbolTableRecord
100
AcDbLayerTableRecord
  2
KOPF_DICK
 70
     0
 62
     7
  6
Continuous
370
    15
390
F
  0
ENDTAB
  0
TABLE
  2
STYLE
  5
3
330
0
100
AcDbSymbolTable
 70
     2
  0
STYLE
  5
11
330
3
100
AcDbSymbolTableRecord
100
AcDbTextStyleTableRecord
  2
Standard
 70
     0
 40
0.0
 41
1.0
 50
0.0
 71
     0
 42
2.0
  3
txt
  4

  0
STYLE
  5
77
330
3
100
AcDbSymbolTableRecord
100
AcDbTextStyleTableRecord
  2
SLDTEXTSTYLE0
 70
     0
 40
0.0
 41
0.7
 50
0.0
 71
     0
 42
2.0
  3
TXT
  4

  0
ENDTAB
  0
TABLE
  2
VIEW
  5
6
330
0
100
AcDbSymbolTable
 70
     0
  0
ENDTAB
  0
TABLE
  2
UCS
  5
7
330
0
100
AcDbSymbolTable
 70
     0
  0
ENDTAB
  0
TABLE
  2
APPID
  5
9
330
0
100
AcDbSymbolTable
 70
     1
  0
APPID
  5
12
330
9
100
AcDbSymbolTableRecord
100
AcDbRegAppTableRecord
  2
ACAD
 70
     0
  0
ENDTAB
  0
TABLE
  2
DIMSTYLE
  5
A
330
0
100
AcDbSymbolTable
 70
     2
100
AcDbDimStyleTable
  0
DIMSTYLE
105
27
330
A
100
AcDbSymbolTableRecord
100
AcDbDimStyleTableRecord
  2
ISO-25
 70
     0
 41
2.5
 42
0.625
 43
3.75
 44
1.25
 73
     0
 74
     0
 77
     1
 78
     8
140
2.5
141
2.5
143
0.0393700787
147
0.625
171
     3
172
     1
178
     0
271
     2
272
     2
274
     3
278
    44
283
     0
284
     8
340
11
  0
DIMSTYLE
105
1DE
102
{ACAD_REACTORS
330
1DD
330
1EA
330
1F6
330
200
330
20A
102
}
330
A
100
AcDbSymbolTableRecord
100
AcDbDimStyleTableRecord
  2
SLDDIMSTYLE0
 70
     0
 41
3.0
 44
0.0
 45
0.000000001
 73
     0
 74
     0
 77
     1
 78
    12
 79
     3
140
2.0
147
0.5
173
     1
178
     0
271
     2
272
     3
276
     2
284
    12
340
77
  0
ENDTAB
  0
TABLE
  2
BLOCK_RECORD
  5
1
330
0
100
AcDbSymbolTable
 70
     6
  0
BLOCK_RECORD
  5
1F
330
1
100
AcDbSymbolTableRecord
100
AcDbBlockTableRecord
  2
*Model_Space
340
22
  0
BLOCK_RECORD
  5
1B
330
1
100
AcDbSymbolTableRecord
100
AcDbBlockTableRecord
  2
*Paper_Space
340
1E
  0
BLOCK_RECORD
  5
23
330
1
100
AcDbSymbolTableRecord
100
AcDbBlockTableRecord
  2
*Paper_Space0
340
26
  0
BLOCK_RECORD
  5
1DF
330
1
100
AcDbSymbolTableRecord
100
AcDbBlockTableRecord
  2
_D
340
0
  0
BLOCK_RECORD
  5
1EB
330
1
100
AcDbSymbolTableRecord
100
AcDbBlockTableRecord
  2
_D_1
340
0
  0
BLOCK_RECORD
  5
1F7
330
1
100
AcDbSymbolTableRecord
100
AcDbBlockTableRecord
  2
_D_2
340
0
  0
BLOCK_RECORD
  5
201
330
1
100
AcDbSymbolTableRecord
100
AcDbBlockTableRecord
  2
_D_3
340
0
  0
BLOCK_RECORD
  5
20B
330
1
100
AcDbSymbolTableRecord
100
AcDbBlockTableRecord
  2
_D_4
340
0
  0
ENDTAB
  0
ENDSEC
  0
SECTION
  2
BLOCKS
  0
BLOCK
  5
20
330
1F
100
AcDbEntity
  8
0
100
AcDbBlockBegin
  2
*Model_Space
 70
     0
 10
0.0
 20
0.0
 30
0.0
  3
*Model_Space
  1

  0
ENDBLK
  5
21
330
1F
100
AcDbEntity
  8
0
100
AcDbBlockEnd
  0
BLOCK
  5
1C
330
1B
100
AcDbEntity
 67
     1
  8
0
100
AcDbBlockBegin
  2
*Paper_Space
 70
     0
 10
0.0
 20
0.0
 30
0.0
  3
*Paper_Space
  1

  0
ENDBLK
  5
1D
330
1B
100
AcDbEntity
 67
     1
  8
0
100
AcDbBlockEnd
  0
BLOCK
  5
24
330
23
100
AcDbEntity
  8
0
100
AcDbBlockBegin
  2
*Paper_Space0
 70
     0
 10
0.0
 20
0.0
 30
0.0
  3
*Paper_Space0
  1

  0
ENDBLK
  5
25
330
23
100
AcDbEntity
  8
0
100
AcDbBlockEnd
  0
BLOCK
  5
1E0
330
1DF
100
AcDbEntity
  8
0
100
AcDbBlockBegin
  2
_D
 70
     0
 10
0.0
 20
0.0
 30
0.0
  3
_D
  1

  0
SOLID
  5
1E2
330
1DF
100
AcDbEntity
  8
VERMASSUNG
100
AcDbTrace
 10
86.5264048369
 20
78.395809118
 30
0.0
 11
86.9764048369
 21
81.395809118
 31
0.0
 12
86.0764048369
 22
81.395809118
 32
0.0
 13
86.0764048369
 23
81.395809118
 33
0.0
  0
SOLID
  5
1E3
330
1DF
100
AcDbEntity
  8
VERMASSUNG
100
AcDbTrace
 10
86.5264048369
 20
141.895809118
 30
0.0
 11
86.0764048369
 21
138.895809118
 31
0.0
 12
86.9764048369
 22
138.895809118
 32
0.0
 13
86.9764048369
 23
138.895809118
 33
0.0
  0
LINE
  5
1E4
330
1DF
100
AcDbEntity
  8
VERMASSUNG
100
AcDbLine
 10
180.4316325533
 20
78.395809118
 30
0.0
 11
85.5264048369
 21
78.395809118
 31
0.0
  0
LINE
  5
1E5
330
1DF
100
AcDbEntity
  8
VERMASSUNG
100
AcDbLine
 10
180.4316325533
 20
141.895809118
 30
0.0
 11
85.5264048369
 21
141.895809118
 31
0.0
  0
LINE
  5
1E6
330
1DF
100
AcDbEntity
  8
VERMASSUNG
100
AcDbLine
 10
86.5264048369
 20
78.395809118
 30
0.0
 11
86.5264048369
 21
141.895809118
 31
0.0
  0
MTEXT
  5
1E7
330
1DF
100
AcDbEntity
  8
VERMASSUNG
100
AcDbMText
 10
83.7482695807
 20
101.3428729697
 30
0.0
 40
2.0
 41
0.0
 71
     1
 72
     1
  1
ISO 40
  7
SLDTEXTSTYLE0
 11
3.391901413832837E-15
 21
1.0
 31
0.0
 73
     1
 44
1.0
  0
MTEXT
  5
1E8
330
1DF
100
AcDbEntity
  8
VERMASSUNG
100
AcDbMText
 10
83.9482695319
 20
110.5428731739
 30
0.0
 40
2.0
 41
0.0
 71
     1
 72
     1
  1
%%c
  7
SLDTEXTSTYLE0
 11
3.391901413832837E-15
 21
1.0
 31
0.0
 73
     1
 44
1.0
  0
MTEXT
  5
1E9
330
1DF
100
AcDbEntity
  8
VERMASSUNG
100
AcDbMText
 10
83.9482692409
 20
114.1507535052
 30
0.0
 40
2.0
 41
0.0
 71
     1
 72
     1
  1
63.5
  7
SLDTEXTSTYLE0
 11
3.391901413832837E-15
 21
1.0
 31
0.0
 73
     1
 44
1.0
  0
ENDBLK
  5
1E1
330
1DF
100
AcDbEntity
  8
0
100
AcDbBlockEnd
  0
BLOCK
  5
1EC
330
1EB
100
AcDbEntity
  8
0
100
AcDbBlockBegin
  2
_D_1
 70
     0
 10
0.0
 20
0.0
 30
0.0
  3
_D_1
  1

  0
ARC
  5
1EE
330
1EB
100
AcDbEntity
  8
VERMASSUNG
100
AcDbCircle
 10
156.01877313
 20
161.0957216673
 30
0.0
 40
4.24705993853731
100
AcDbArc
 50
153.4349488229
 51
206.5650511771
  0
ARC
  5
1EF
330
1EB
100
AcDbEntity
  8
VERMASSUNG
100
AcDbCircle
 10
158.7944919766
 20
161.0957216673
 30
0.0
 40
4.247059938537284
100
AcDbArc
 50
333.4349488229
 51
26.5650511771
  0
SOLID
  5
1F0
330
1EB
100
AcDbEntity
  8
VERMASSUNG
100
AcDbTrace
 10
93.7316325533
 20
159.1963787219
 30
0.0
 11
96.7316325533
 21
158.7463787219
 31
0.0
 12
96.7316325533
 22
159.6463787219
 32
0.0
 13
96.7316325533
 23
159.6463787219
 33
0.0
  0
SOLID
  5
1F1
330
1EB
100
AcDbEntity
  8
VERMASSUNG
100
AcDbTrace
 10
221.0816325533
 20
159.1963787219
 30
0.0
 11
218.0816325533
 21
159.6463787219
 31
0.0
 12
218.0816325533
 22
158.7463787219
 32
0.0
 13
218.0816325533
 23
158.7463787219
 33
0.0
  0
LINE
  5
1F2
330
1EB
100
AcDbEntity
  8
VERMASSUNG
100
AcDbLine
 10
93.7316325533
 20
121.552939715
 30
0.0
 11
93.7316325533
 21
160.1963787219
 31
0.0
  0
LINE
  5
1F3
330
1EB
100
AcDbEntity
  8
VERMASSUNG
100
AcDbLine
 10
221.0816325533
 20
119.945809118
 30
0.0
 11
221.0816325533
 21
160.1963787219
 31
0.0
  0
LINE
  5
1F4
330
1EB
100
AcDbEntity
  8
VERMASSUNG
100
AcDbLine
 10
93.7316325533
 20
159.1963787219
 30
0.0
 11
221.0816325533
 21
159.1963787219
 31
0.0
  0
MTEXT
  5
1F5
330
1EB
100
AcDbEntity
  8
VERMASSUNG
100
AcDbMText
 10
153.8075872392
 20
161.7745143178
 30
0.0
 40
2.0
 41
0.0
 71
     1
 72
     1
  1
127.35
  7
SLDTEXTSTYLE0
 73
     1
 44
1.0
  0
ENDBLK
  5
1ED
330
1EB
100
AcDbEntity
  8
0
100
AcDbBlockEnd
  0
BLOCK
  5
1F8
330
1F7
100
AcDbEntity
  8
0
100
AcDbBlockBegin
  2
_D_2
 70
     0
 10
0.0
 20
0.0
 30
0.0
  3
_D_2
  1

  0
SOLID
  5
1FA
330
1F7
100
AcDbEntity
  8
VERMASSUNG
100
AcDbTrace
 10
161.9816325533
 20
153.1963787219
 30
0.0
 11
164.9816325533
 21
152.7463787219
 31
0.0
 12
164.9816325533
 22
153.6463787219
 32
0.0
 13
164.9816325533
 23
153.6463787219
 33
0.0
  0
SOLID
  5
1FB
330
1F7
100
AcDbEntity
  8
VERMASSUNG
100
AcDbTrace
 10
221.0816325533
 20
153.1963787219
 30
0.0
 11
218.0816325533
 21
153.6463787219
 31
0.0
 12
218.0816325533
 22
152.7463787219
 32
0.0
 13
218.0816325533
 23
152.7463787219
 33
0.0
  0
LINE
  5
1FC
330
1F7
100
AcDbEntity
  8
VERMASSUNG
100
AcDbLine
 10
161.9816325533
 20
132.370809118
 30
0.0
 11
161.9816325533
 21
154.1963787219
 31
0.0
  0
LINE
  5
1FD
330
1F7
100
AcDbEntity
  8
VERMASSUNG
100
AcDbLine
 10
221.0816325533
 20
119.945809118
 30
0.0
 11
221.0816325533
 21
154.1963787219
 31
0.0
  0
LINE
  5
1FE
330
1F7
100
AcDbEntity
  8
VERMASSUNG
100
AcDbLine
 10
161.9816325533
 20
153.1963787219
 30
0.0
 11
221.0816325533
 21
153.1963787219
 31
0.0
  0
MTEXT
  5
1FF
330
1F7
100
AcDbEntity
  8
VERMASSUNG
100
AcDbMText
 10
189.3322772495
 20
155.7745143178
 30
0.0
 40
2.0
 41
0.0
 71
     1
 72
     1
  1
59.1
  7
SLDTEXTSTYLE0
 73
     1
 44
1.0
  0
ENDBLK
  5
1F9
330
1F7
100
AcDbEntity
  8
0
100
AcDbBlockEnd
  0
BLOCK
  5
202
330
201
100
AcDbEntity
  8
0
100
AcDbBlockBegin
  2
_D_3
 70
     0
 10
0.0
 20
0.0
 30
0.0
  3
_D_3
  1

  0
SOLID
  5
204
330
201
100
AcDbEntity
  8
VERMASSUNG
100
AcDbTrace
 10
181.0316325533
 20
147.1963787219
 30
0.0
 11
184.0316325533
 21
146.7463787219
 31
0.0
 12
184.0316325533
 22
147.6463787219
 32
0.0
 13
184.0316325533
 23
147.6463787219
 33
0.0
  0
SOLID
  5
205
330
201
100
AcDbEntity
  8
VERMASSUNG
100
AcDbTrace
 10
221.0816325533
 20
147.1963787219
 30
0.0
 11
218.0816325533
 21
147.6463787219
 31
0.0
 12
218.0816325533
 22
146.7463787219
 32
0.0
 13
218.0816325533
 23
146.7463787219
 33
0.0
  0
LINE
  5
206
330
201
100
AcDbEntity
  8
VERMASSUNG
100
AcDbLine
 10
181.0316325533
 20
140.1563602514
 30
0.0
 11
181.0316325533
 21
148.1963787219
 31
0.0
  0
LINE
  5
207
330
201
100
AcDbEntity
  8
VERMASSUNG
100
AcDbLine
 10
221.0816325533
 20
119.945809118
 30
0.0
 11
221.0816325533
 21
148.1963787219
 31
0.0
  0
LINE
  5
208
330
201
100
AcDbEntity
  8
VERMASSUNG
100
AcDbLine
 10
181.0316325533
 20
147.1963787219
 30
0.0
 11
221.0816325533
 21
147.1963787219
 31
0.0
  0
MTEXT
  5
209
330
201
100
AcDbEntity
  8
VERMASSUNG
100
AcDbMText
 10
197.8568683926
 20
149.7745143178
 30
0.0
 40
2.0
 41
0.0
 71
     1
 72
     1
  1
40.05
  7
SLDTEXTSTYLE0
 73
     1
 44
1.0
  0
ENDBLK
  5
203
330
201
100
AcDbEntity
  8
0
100
AcDbBlockEnd
  0
BLOCK
  5
20C
330
20B
100
AcDbEntity
  8
0
100
AcDbBlockBegin
  2
_D_4
 70
     0
 10
0.0
 20
0.0
 30
0.0
  3
_D_4
  1

  0
SOLID
  5
20E
330
20B
100
AcDbEntity
  8
VERMASSUNG
100
AcDbTrace
 10
228.7224129136
 20
120.145809118
 30
0.0
 11
228.2724129136
 21
117.145809118
 31
0.0
 12
229.1724129136
 22
117.145809118
 32
0.0
 13
229.1724129136
 23
117.145809118
 33
0.0
  0
SOLID
  5
20F
330
20B
100
AcDbEntity
  8
VERMASSUNG
100
AcDbTrace
 10
228.7224129136
 20
100.145809118
 30
0.0
 11
229.1724129136
 21
103.145809118
 31
0.0
 12
228.2724129136
 22
103.145809118
 32
0.0
 13
228.2724129136
 23
103.145809118
 33
0.0
  0
LINE
  5
210
330
20B
100
AcDbEntity
  8
VERMASSUNG
100
AcDbLine
 10
220.8816325533
 20
120.145809118
 30
0.0
 11
229.7224129136
 21
120.145809118
 31
0.0
  0
LINE
  5
211
330
20B
100
AcDbEntity
  8
VERMASSUNG
100
AcDbLine
 10
220.8816325533
 20
100.145809118
 30
0.0
 11
229.7224129136
 21
100.145809118
 31
0.0
  0
LINE
  5
212
330
20B
100
AcDbEntity
  8
VERMASSUNG
100
AcDbLine
 10
228.7224129136
 20
120.145809118
 30
0.0
 11
228.7224129136
 21
100.145809118
 31
0.0
  0
MTEXT
  5
213
330
20B
100
AcDbEntity
  8
VERMASSUNG
100
AcDbMText
 10
225.9442776574
 20
103.7408094744
 30
0.0
 40
2.0
 41
0.0
 71
     1
 72
     1
  1
MBM
  7
SLDTEXTSTYLE0
 11
-7.044195017643634E-15
 21
1.0
 31
0.0
 73
     1
 44
1.0
  0
MTEXT
  5
214
330
20B
100
AcDbEntity
  8
VERMASSUNG
100
AcDbMText
 10
226.1442776087
 20
110.1408093128
 30
0.0
 40
2.0
 41
0.0
 71
     1
 72
     1
  1
%%c
  7
SLDTEXTSTYLE0
 11
-7.044195017643634E-15
 21
1.0
 31
0.0
 73
     1
 44
1.0
  0
MTEXT
  5
215
330
20B
100
AcDbEntity
  8
VERMASSUNG
100
AcDbMText
 10
225.9442776574
 20
113.7508097927
 30
0.0
 40
2.0
 41
0.0
 71
     1
 72
     1
  1
20
  7
SLDTEXTSTYLE0
 11
-7.044195017643634E-15
 21
1.0
 31
0.0
 73
     1
 44
1.0
  0
ENDBLK
  5
20D
330
20B
100
AcDbEntity
  8
0
100
AcDbBlockEnd
  0
ENDSEC
  0
SECTION
  2
ENTITIES
  0
MTEXT
  5
78
330
1F
100
AcDbEntity
  8
KOPF_DÜNN
100
AcDbMText
 10
13.8892156294
 20
23.8442973028
 30
0.0
 40
3.0
 41
0.0
 71
     1
 72
     1
  1
102.425.202
  7
SLDTEXTSTYLE0
 73
     1
 44
1.0
  0
MTEXT
  5
79
330
1F
100
AcDbEntity
  8
VERMASSUNG
100
AcDbMText
 10
13.9329988022
 20
28.8834360957
 30
0.0
 40
3.0
 41
0.0
 71
     1
 72
     1
  1
Aufnahme_Master shank MBM 20
  7
SLDTEXTSTYLE0
 73
     1
 44
1.0
  0
MTEXT
  5
7A
330
1F
100
AcDbEntity
  8
VERMASSUNG
100
AcDbMText
 10
98.8601118557
 20
13.8365368761
 30
0.0
 40
2.0
 41
0.0
 71
     1
 72
     1
  1
Datum: 01.11.2007
  7
SLDTEXTSTYLE0
 73
     1
 44
1.0
  0
MTEXT
  5
7B
330
1F
100
AcDbEntity
  8
VERMASSUNG
100
AcDbMText
 10
13.933048693
 20
18.0482802738
 30
0.0
 40
2.0
 41
0.0
 71
     1
 72
     1
  1
DIN 69871 B 40
  7
SLDTEXTSTYLE0
 73
     1
 44
1.0
  0
MTEXT
  5
7C
330
1F
100
AcDbEntity
  8
VERMASSUNG
100
AcDbMText
 10
13.9808475933
 20
13.9090974274
 30
0.0
 40
2.0
 41
0.0
 71
     1
 72
     1
  1
Gewicht: 887g
  7
SLDTEXTSTYLE0
 73
     1
 44
1.0
  0
ARC
  5
7D
330
1F
100
AcDbEntity
  8
0
  6
Continuous
 62
     7
370
    15
100
AcDbCircle
 10
164.5816325533
 20
87.320809118
 30
0.0
 40
0.5999999999999943
100
AcDbArc
 50
0.0
 51
90.0
  0
ARC
  5
7E
330
1F
100
AcDbEntity
  8
0
  6
Continuous
 62
     7
370
    15
100
AcDbCircle
 10
164.5816325533
 20
132.970809118
 30
0.0
 40
0.5999999999999943
100
AcDbArc
 50
270.0
 51
0.0
  0
LINE
  5
7F
330
1F
100
AcDbEntity
  8
0
  6
Continuous
 62
     7
370
    15
100
AcDbLine
 10
161.9816325533
 20
87.9208091538
 30
0.0
 11
164.5816325604
 21
87.9208091538
 31
0.0
  0
LINE
  5
80
330
1F
100
AcDbEntity
  8
0
  6
Continuous
 62
     7
370
    15
100
AcDbLine
 10
164.5816325604
 20
132.3708090822
 30
0.0
 11
161.9816325533
 21
132.3708090822
 31
0.0
  0
LINE
  5
81
330
1F
100
AcDbEntity
  8
0
  6
Continuous
 62
     7
370
    15
100
AcDbLine
 10
161.9816325533
 20
132.3708090822
 30
0.0
 11
94.5873238074
 21
122.5424725454
 31
0.0
  0
LINE
  5
82
330
1F
100
AcDbEntity
  8
0
  6
Continuous
 62
     7
370
    15
100
AcDbLine
 10
94.5873238074
 20
97.7491456907
 30
0.0
 11
161.9816325533
 21
87.9208091538
 31
0.0
  0
ARC
  5
83
330
1F
100
AcDbEntity
  8
0
  6
Continuous
 62
     7
370
    15
100
AcDbCircle
 10
185.0316325533
 20
96.145809118
 30
0.0
 40
4.0
100
AcDbArc
 50
90.0
 51
180.0
  0
ARC
  5
84
330
1F
100
AcDbEntity
  8
0
  6
Continuous
 62
     7
370
    15
100
AcDbCircle
 10
185.0316325533
 20
124.145809118
 30
0.0
 40
4.000000000000014
100
AcDbArc
 50
180.0
 51
270.0
  0
ARC
  5
85
330
1F
100
AcDbEntity
  8
0
  6
Continuous
 62
     7
370
    15
100
AcDbCircle
 10
94.7316325533
 20
98.738678521
 30
0.0
 40
0.9999999999999938
100
AcDbArc
 50
180.0
 51
261.7028550302
  0
ARC
  5
86
330
1F
100
AcDbEntity
  8
0
  6
Continuous
 62
     7
370
    15
100
AcDbCircle
 10
94.7316325533
 20
121.552939715
 30
0.0
 40
0.9999999999999938
100
AcDbArc
 50
98.2971449698
 51
180.0
  0
LINE
  5
87
330
1F
100
AcDbEntity
  8
0
  6
Continuous
 62
     7
370
    15
100
AcDbLine
 10
220.8816312181
 20
100.1458093415
 30
0.0
 11
221.0816308784
 21
100.3458090018
 31
0.0
  0
LINE
  5
88
330
1F
100
AcDbEntity
  8
0
  6
Continuous
 62
     7
370
    15
100
AcDbLine
 10
221.0816308784
 20
119.9458092342
 30
0.0
 11
220.8816312181
 21
120.1458088945
 31
0.0
  0
LINE
  5
89
330
1F
100
AcDbEntity
  8
0
  6
Continuous
 62
     7
370
    15
100
AcDbLine
 10
185.0316334444
 20
100.1458093415
 30
0.0
 11
220.8816312181
 21
100.1458093415
 31
0.0
  0
LINE
  5
8A
330
1F
100
AcDbEntity
  8
0
  6
Continuous
 62
     7
370
    15
100
AcDbLine
 10
220.8816312181
 20
120.1458088945
 30
0.0
 11
185.0316334444
 21
120.1458088945
 31
0.0
  0
ARC
  5
8B
330
1F
100
AcDbEntity
  8
0
  6
Continuous
 62
     7
370
    15
100
AcDbCircle
 10
174.9816325533
 20
101.4242954632
 30
0.0
 40
1.499999999999991
100
AcDbArc
 50
191.5274417166
 51
336.5371809719
  0
SPLINE
  5
8C
330
1F
100
AcDbEntity
  8
0
  6
Continuous
 62
     7
370
    15
100
AcDbSpline
210
0.0
220
0.0
230
1.0
 70
     8
 71
     3
 72
     8
 73
     4
 74
     0
 42
0.000000001
 43
0.00000001
 40
0.0
 40
0.0
 40
0.0
 40
0.0
 40
1.0
 40
1.0
 40
1.0
 40
1.0
 10
171.1716325532867
 20
82.32898265850727
 30
0.0
 10
170.7874978047024
 20
81.63634123656308
 30
0.0
 10
170.4025115282094
 20
80.94415506223937
 30
0.0
 10
170.0168429495831
 20
80.25236077139519
 30
0.0
  0
SPLINE
  5
8D
330
1F
100
AcDbEntity
  8
0
  6
Continuous
 62
     7
370
    15
100
AcDbSpline
210
0.0
220
0.0
230
1.0
 70
     8
 71
     3
 72
     8
 73
     4
 74
     0
 42
0.000000001
 43
0.00000001
 40
0.0
 40
0.0
 40
0.0
 40
0.0
 40
0.0011901715795577
 40
0.0011901715795577
 40
0.0011901715795577
 40
0.0011901715795577
 10
169.55979591123
 20
79.69771676937205
 30
0.0
 10
169.7136421007259
 20
79.88228200705564
 30
0.0
 10
169.8660373683986
 20
80.06715736758427
 30
0.0
 10
170.0168429495831
 20
80.25236077139519
 30
0.0
  0
LINE
  5
8E
330
1F
100
AcDbEntity
  8
0
  6
Continuous
 62
     7
370
    15
100
AcDbLine
 10
169.559795961
 20
79.6977169703
 30
0.0
 11
169.559795961
 21
128.4958086799
 31
0.0
  0
SPLINE
  5
8F
330
1F
100
AcDbEntity
  8
0
  6
Continuous
 62
     7
370
    15
100
AcDbSpline
210
0.0
220
0.0
230
1.0
 70
    24
 71
     3
 72
     8
 73
     4
 74
     0
 42
0.000000001
 43
0.00000001
 40
0.0
 40
0.0
 40
0.0
 40
0.0
 40
1.0
 40
1.0
 40
1.0
 40
1.0
 10
171.1716325532867
 20
128.4958091180087
 30
0.0
 10
170.6469000649248
 20
128.4958091180087
 30
0.0
 10
170.108224580706
 20
128.4958091180087
 30
0.0
 10
169.55979591123
 20
128.4958091180087
 30
0.0
  0
LINE
  5
90
330
1F
100
AcDbEntity
  8
0
  6
Continuous
 62
     7
370
    15
100
AcDbLine
 10
171.1716322156
 20
82.3289826404
 30
0.0
 11
171.1716322156
 21
128.4958086799
 31
0.0
  0
LINE
  5
91
330
1F
100
AcDbEntity
  8
0
  6
Continuous
 62
     7
370
    15
100
AcDbLine
 10
176.6034696179
 20
100.3937888782
 30
0.0
 11
176.6034696179
 21
128.4958086799
 31
0.0
  0
LINE
  5
92
330
1F
100
AcDbEntity
  8
0
  6
Continuous
 62
     7
370
    15
100
AcDbLine
 10
180.4316319453
 20
128.4958086799
 30
0.0
 11
176.6034696179
 21
128.4958086799
 31
0.0
  0
LINE
  5
93
330
1F
100
AcDbEntity
  8
0
  6
Continuous
 62
     7
370
    15
100
AcDbLine
 10
176.6034696179
 20
79.6977169703
 30
0.0
 11
180.4316319453
 21
79.6977169703
 31
0.0
  0
LINE
  5
94
330
1F
100
AcDbEntity
  8
0
  6
Continuous
 62
     7
370
    15
100
AcDbLine
 10
176.6034696179
 20
79.6977169703
 30
0.0
 11
176.6034696179
 21
98.1943094994
 31
0.0
  0
SPLINE
  5
95
330
1F
100
AcDbEntity
  8
0
  6
Continuous
 62
     7
370
    15
100
AcDbSpline
210
0.0
220
0.0
230
1.0
 70
     8
 71
     3
 72
    12
 73
     8
 74
     0
 42
0.000000001
 43
0.00000001
 40
0.0
 40
0.0
 40
0.0
 40
0.0
 40
0.2499999999999997
 40
0.2499999999999997
 40
0.4999999999999993
 40
0.4999999999999993
 40
1.0
 40
1.0
 40
1.0
 40
1.0
 10
176.6034691953434
 20
98.1943093198017
 30
0.0
 10
176.726416689139
 20
98.3522661684968
 30
0.0
 10
176.8199608922478
 20
98.52409953547432
 30
0.0
 10
176.9489002814101
 20
98.89577224512016
 30
0.0
 10
176.9814530387952
 20
99.0889606913114
 30
0.0
 10
176.981989380529
 20
99.67725722958764
 30
0.0
 10
176.849365723561
 20
100.0692754674763
 30
0.0
 10
176.6034691953434
 20
100.393789050185
 30
0.0
  0
SPLINE
  5
96
330
1F
100
AcDbEntity
  8
0
  6
Continuous
 62
     7
370
    15
100
AcDbSpline
210
0.0
220
0.0
230
1.0
 70
     8
 71
     3
 72
    12
 73
     8
 74
     0
 42
0.000000001
 43
0.00000001
 40
0.0
 40
0.0
 40
0.0
 40
0.0
 40
0.250000000000001
 40
0.250000000000001
 40
0.500000000000002
 40
0.500000000000002
 40
1.0
 40
1.0
 40
1.0
 40
1.0
 10
180.4316325532867
 20
79.69771676937205
 30
0.0
 10
180.5271744634227
 20
79.69771676937205
 30
0.0
 10
180.6193194052855
 20
79.71397043856825
 30
0.0
 10
180.7756456818954
 20
79.76757885948174
 30
0.0
 10
180.8393138245154
 20
79.80398998476343
 30
0.0
 10
180.9881816699457
 20
79.92611362444991
 30
0.0
 10
181.0316325532867
 20
80.02126629988696
 30
0.0
 10
181.0316325532867
 20
80.11689275550663
 30
0.0
  0
SPLINE
  5
97
330
1F
100
AcDbEntity
  8
0
  6
Continuous
 62
     7
370
    15
100
AcDbSpline
210
0.0
220
0.0
230
1.0
 70
    24
 71
     3
 72
    12
 73
     8
 74
     0
 42
0.000000001
 43
0.00000001
 40
0.0
 40
0.0
 40
0.0
 40
0.0
 40
0.4999999999999931
 40
0.4999999999999931
 40
0.7499999999999966
 40
0.7499999999999966
 40
1.0
 40
1.0
 40
1.0
 40
1.0
 10
181.0316325532867
 20
128.4958091180087
 30
0.0
 10
181.0316325532867
 20
128.4958091180087
 30
0.0
 10
180.9819525583317
 20
128.4958091180087
 30
0.0
 10
180.8260340013141
 20
128.4958091180087
 30
0.0
 10
180.760152936738
 20
128.4958091180087
 30
0.0
 10
180.6075072812493
 20
128.4958091180087
 30
0.0
 10
180.5202573733883
 20
128.4958091180087
 30
0.0
 10
180.4316325532866
 20
128.4958091180087
 30
0.0
  0
LINE
  5
98
330
1F
100
AcDbEntity
  8
0
  6
Continuous
 62
     7
370
    15
100
AcDbLine
 10
181.0316327887
 20
80.1168922226
 30
0.0
 11
181.0316327887
 21
128.4958086799
 31
0.0
  0
LINE
  5
99
330
1F
100
AcDbEntity
  8
0
  6
Continuous
 62
     7
370
    15
100
AcDbLine
 10
165.7816326174
 20
79.6977169703
 30
0.0
 11
169.559795961
 21
79.6977169703
 31
0.0
  0
LINE
  5
9A
330
1F
100
AcDbEntity
  8
0
  6
Continuous
 62
     7
370
    15
100
AcDbLine
 10
169.559795961
 20
128.4958086799
 30
0.0
 11
165.7816326174
 21
128.4958086799
 31
0.0
  0
LINE
  5
9B
330
1F
100
AcDbEntity
  8
0
  6
Continuous
 62
     7
370
    15
100
AcDbLine
 10
174.991632432
 20
102.1445263068
 30
0.0
 11
174.991632432
 21
128.4958086799
 31
0.0
  0
SPLINE
  5
9C
330
1F
100
AcDbEntity
  8
0
  6
Continuous
 62
     7
370
    15
100
AcDbSpline
210
0.0
220
0.0
230
1.0
 70
    24
 71
     3
 72
     8
 73
     4
 74
     0
 42
0.000000001
 43
0.00000001
 40
0.0
 40
0.0
 40
0.0
 40
0.0
 40
1.0
 40
1.0
 40
1.0
 40
1.0
 10
176.6034691953434
 20
128.4958091180087
 30
0.0
 10
176.0550405258674
 20
128.4958091180087
 30
0.0
 10
175.5163650416486
 20
128.4958091180087
 30
0.0
 10
174.9916325532867
 20
128.4958091180087
 30
0.0
  0
SPLINE
  5
9D
330
1F
100
AcDbEntity
  8
0
  6
Continuous
 62
     7
370
    15
100
AcDbSpline
210
0.0
220
0.0
230
1.0
 70
     8
 71
     3
 72
    12
 73
     8
 74
     0
 42
0.000000001
 43
0.00000001
 40
0.0
 40
0.0
 40
0.0
 40
0.0
 40
0.2499999999999994
 40
0.2499999999999994
 40
0.4999999999999989
 40
0.4999999999999989
 40
1.0
 40
1.0
 40
1.0
 40
1.0
 10
176.6034691953434
 20
100.393789050185
 30
0.0
 10
176.4885731440828
 20
100.6135294852416
 30
0.0
 10
176.3618071276101
 20
100.8104978368633
 30
0.0
 10
176.1015921939916
 20
101.1642154097022
 30
0.0
 10
175.9680847360294
 20
101.3210407035745
 30
0.0
 10
175.5596864674411
 20
101.7475832744822
 30
0.0
 10
175.2760333325036
 20
101.9742754534374
 30
0.0
 10
174.9916325532868
 20
102.1445265978329
 30
0.0
  0
SPLINE
  5
9E
330
1F
100
AcDbEntity
  8
0
  6
Continuous
 62
     7
370
    15
100
AcDbSpline
210
0.0
220
0.0
230
1.0
 70
     8
 71
     3
 72
    10
 73
     6
 74
     0
 42
0.000000001
 43
0.00000001
 40
0.0
 40
0.0
 40
0.0
 40
0.0
 40
0.5
 40
0.5
 40
1.0
 40
1.0
 40
1.0
 40
1.0
 10
165.3977770946339
 20
79.79407926854051
 30
0.0
 10
165.4465470676153
 20
79.76585126133251
 30
0.0
 10
165.5039991909176
 20
79.7417566570909
 30
0.0
 10
165.6345960939063
 20
79.70749318399835
 30
0.0
 10
165.7070857737485
 20
79.69771676937204
 30
0.0
 10
165.7816325532867
 20
79.69771676937204
 30
0.0
  0
SPLINE
  5
9F
330
1F
100
AcDbEntity
  8
0
  6
Continuous
 62
     7
370
    15
100
AcDbSpline
210
0.0
220
0.0
230
1.0
 70
     8
 71
     3
 72
    10
 73
     6
 74
     0
 42
0.000000001
 43
0.00000001
 40
0.0
 40
0.0
 40
0.0
 40
0.0
 40
0.5
 40
0.5
 40
1.0
 40
1.0
 40
1.0
 40
1.0
 10
165.3977770946339
 20
79.79407926854051
 30
0.0
 10
165.3396544345578
 20
79.8613844284023
 30
0.0
 10
165.2872512685543
 20
79.94146981543595
 30
0.0
 10
165.2083482470079
 20
80.12548925712473
 30
0.0
 10
165.1816325532867
 20
80.23070061454519
 30
0.0
 10
165.1816325532867
 20
80.33943396100585
 30
0.0
  0
LINE
  5
A0
330
1F
100
AcDbEntity
  8
0
  6
Continuous
 62
     7
370
    15
100
AcDbLine
 10
165.1816324724
 20
80.3394336145
 30
0.0
 11
165.1816324724
 21
128.4958086799
 31
0.0
  0
SPLINE
  5
A1
330
1F
100
AcDbEntity
  8
0
  6
Continuous
 62
     7
370
    15
100
AcDbSpline
210
0.0
220
0.0
230
1.0
 70
    24
 71
     3
 72
    12
 73
     8
 74
     0
 42
0.000000001
 43
0.00000001
 40
0.0
 40
0.0
 40
0.0
 40
0.0
 40
0.2499999999999998
 40
0.2499999999999998
 40
0.4999999999999997
 40
0.4999999999999997
 40
1.0
 40
1.0
 40
1.0
 40
1.0
 10
165.7816325532867
 20
128.4958091180087
 30
0.0
 10
165.6932171759762
 20
128.4958091180087
 30
0.0
 10
165.6059467388057
 20
128.4958091180087
 30
0.0
 10
165.4534830140338
 20
128.4958091180087
 30
0.0
 10
165.3878444018114
 20
128.4958091180087
 30
0.0
 10
165.2311860005275
 20
128.4958091180087
 30
0.0
 10
165.1816325532867
 20
128.4958091180087
 30
0.0
 10
165.1816325532867
 20
128.4958091180087
 30
0.0
  0
SPLINE
  5
A2
330
1F
100
AcDbEntity
  8
0
  6
Continuous
 62
     7
370
    15
100
AcDbSpline
210
0.0
220
0.0
230
1.0
 70
     8
 71
     3
 72
    14
 73
    10
 74
     0
 42
0.000000001
 43
0.00000001
 40
0.0
 40
0.0
 40
0.0
 40
0.0
 40
0.25
 40
0.25
 40
0.5
 40
0.5
 40
0.75
 40
0.75
 40
1.0
 40
1.0
 40
1.0
 40
1.0
 10
174.9916325532867
 20
102.1987702476791
 30
0.0
 10
174.9916325532867
 20
102.2354211158429
 30
0.0
 10
174.9703047645749
 20
102.2718879130918
 30
0.0
 10
174.8878463619183
 20
102.3370267676327
 30
0.0
 10
174.8267301700631
 20
102.3650978982236
 30
0.0
 10
174.675427077001
 20
102.3989257799505
 30
0.0
 10
174.5840490536104
 20
102.404388921347
 30
0.0
 10
174.3916753405576
 20
102.3834630033344
 30
0.0
 10
174.2894950010785
 20
102.3569275779591
 30
0.0
 10
174.1916325532867
 20
102.3164414046778
 30
0.0
  0
SPLINE
  5
A3
330
1F
100
AcDbEntity
  8
0
  6
Continuous
 62
     7
370
    15
100
AcDbSpline
210
0.0
220
0.0
230
1.0
 70
     8
 71
     3
 72
    12
 73
     8
 74
     0
 42
0.000000001
 43
0.00000001
 40
0.0
 40
0.0
 40
0.0
 40
0.0
 40
0.500000000000001
 40
0.500000000000001
 40
0.7500000000000004
 40
0.7500000000000004
 40
1.0
 40
1.0
 40
1.0
 40
1.0
 10
174.9916325532867
 20
98.38580309961179
 30
0.0
 10
175.275839087852
 20
98.21833893731807
 30
0.0
 10
175.5545348219558
 20
98.10670183780647
 30
0.0
 10
175.9638808651451
 20
98.0393885721671
 30
0.0
 10
176.1000202024646
 20
98.03423753215314
 30
0.0
 10
176.3613402514607
 20
98.07200346977251
 30
0.0
 10
176.4867614338924
 20
98.11355322811679
 30
0.0
 10
176.6034691953438
 20
98.1943093197996
 30
0.0
  0
LINE
  5
A4
330
1F
100
AcDbEntity
  8
0
  6
Continuous
 62
     7
370
    15
100
AcDbLine
 10
174.991632432
 20
98.4400464113
 30
0.0
 11
174.991632432
 21
98.3858033906
 31
0.0
  0
SPLINE
  5
A5
330
1F
100
AcDbEntity
  8
0
  6
Continuous
 62
     7
370
    15
100
AcDbSpline
210
0.0
220
0.0
230
1.0
 70
     8
 71
     3
 72
    14
 73
    10
 74
     0
 42
0.000000001
 43
0.00000001
 40
0.0
 40
0.0
 40
0.0
 40
0.0
 40
0.25
 40
0.25
 40
0.5
 40
0.5
 40
0.75
 40
0.75
 40
1.0
 40
1.0
 40
1.0
 40
1.0
 10
174.1916325532831
 20
98.86332992790196
 30
0.0
 10
174.289041973267
 20
98.82491520850778
 30
0.0
 10
174.3913662162806
 20
98.78721480372505
 30
0.0
 10
174.5833679018181
 20
98.71617001813091
 30
0.0
 10
174.6748025314725
 20
98.68196855677284
 30
0.0
 10
174.8265813987675
 20
98.61497213136745
 30
0.0
 10
174.8875582886821
 20
98.58183066305797
 30
0.0
 10
174.9705762272464
 20
98.51215309540788
 30
0.0
 10
174.9916325532867
 20
98.47641938424069
 30
0.0
 10
174.9916325532867
 20
98.4400467494599
 30
0.0
  0
SPLINE
  5
A6
330
1F
100
AcDbEntity
  8
0
  6
Continuous
 62
     7
370
    15
100
AcDbSpline
210
0.0
220
0.0
230
1.0
 70
     8
 71
     3
 72
    22
 73
    18
 74
     0
 42
0.000000001
 43
0.00000001
 40
0.0
 40
0.0
 40
0.0
 40
0.0
 40
0.125
 40
0.125
 40
0.25
 40
0.25
 40
0.375
 40
0.375
 40
0.5
 40
0.5
 40
0.625
 40
0.625
 40
0.75
 40
0.75
 40
0.875
 40
0.875
 40
1.0
 40
1.0
 40
1.0
 40
1.0
 10
174.1916325532867
 20
102.3164414046778
 30
0.0
 10
174.0116158587174
 20
102.2419676177013
 30
0.0
 10
173.8471840368472
 20
102.1445183557173
 30
0.0
 10
173.5487878030887
 20
101.9051489221532
 30
0.0
 10
173.4184840757239
 20
101.7652523100828
 30
0.0
 10
173.2052652921049
 20
101.4570007200228
 30
0.0
 10
173.1216374349934
 20
101.2868375019037
 30
0.0
 10
173.0105065580751
 20
100.9363427671134
 30
0.0
 10
172.9816705632213
 20
100.7512178059622
 30
0.0
 10
172.9815946205614
 20
100.3880109313451
 30
0.0
 10
173.0102532459885
 20
100.2046409176376
 30
0.0
 10
173.1214043391009
 20
99.85874980514441
 30
0.0
 10
173.2044714597446
 20
99.69323027787696
 30
0.0
 10
173.4181574178629
 20
99.39269054047315
 30
0.0
 10
173.547164407787
 20
99.25881861918913
 30
0.0
 10
173.8467736872761
 20
99.0275718497848
 30
0.0
 10
174.0116163855373
 20
98.93432173312485
 30
0.0
 10
174.1916325532867
 20
98.86332992790057
 30
0.0
  0
SPLINE
  5
A7
330
1F
100
AcDbEntity
  8
0
  6
Continuous
 62
     7
370
    15
100
AcDbSpline
210
0.0
220
0.0
230
1.0
 70
     8
 71
     3
 72
     8
 73
     4
 74
     0
 42
0.000000001
 43
0.00000001
 40
0.0
 40
0.0
 40
0.0
 40
0.0
 40
0.0011901715795577
 40
0.0011901715795577
 40
0.0011901715795577
 40
0.0011901715795577
 10
176.1464221569904
 20
80.25236077139519
 30
0.0
 10
176.2972277381749
 20
80.06715736758427
 30
0.0
 10
176.4496230058475
 20
79.88228200705564
 30
0.0
 10
176.6034691953434
 20
79.69771676937205
 30
0.0
  0
SPLINE
  5
A8
330
1F
100
AcDbEntity
  8
0
  6
Continuous
 62
     7
370
    15
100
AcDbSpline
210
0.0
220
0.0
230
1.0
 70
     8
 71
     3
 72
     8
 73
     4
 74
     0
 42
0.000000001
 43
0.00000001
 40
0.0
 40
0.0
 40
0.0
 40
0.0
 40
1.0
 40
1.0
 40
1.0
 40
1.0
 10
176.1464221569904
 20
80.25236077139519
 30
0.0
 10
175.760753578364
 20
80.94415506223937
 30
0.0
 10
175.3757673018711
 20
81.63634123656307
 30
0.0
 10
174.9916325532867
 20
82.32898265850727
 30
0.0
  0
LINE
  5
A9
330
1F
100
AcDbEntity
  8
0
  6
Continuous
 62
     7
370
    15
100
AcDbLine
 10
174.991632432
 20
82.3289826404
 30
0.0
 11
174.991632432
 21
98.3858033906
 31
0.0
  0
SPLINE
  5
AA
330
1F
100
AcDbEntity
  8
0
  6
Continuous
 62
     7
370
    15
100
AcDbSpline
210
0.0
220
0.0
230
1.0
 70
     8
 71
     3
 72
    12
 73
     8
 74
     0
 42
0.000000001
 43
0.00000001
 40
0.0
 40
0.0
 40
0.0
 40
0.0
 40
0.2500000000000015
 40
0.2500000000000015
 40
0.500000000000003
 40
0.500000000000003
 40
1.0
 40
1.0
 40
1.0
 40
1.0
 10
171.9716325532867
 20
83.327951261722
 30
0.0
 10
171.8652307029292
 20
83.32795126172202
 30
0.0
 10
171.7579152915327
 20
83.30518049770349
 30
0.0
 10
171.5624437005055
 20
83.2189375510514
 30
0.0
 10
171.4722615845679
 20
83.15426123058087
 30
0.0
 10
171.2540400978472
 20
82.92133190652406
 30
0.0
 10
171.1716325532864
 20
82.70674666863304
 30
0.0
 10
171.1716325532867
 20
82.49372963020032
 30
0.0
  0
SPLINE
  5
AB
330
1F
100
AcDbEntity
  8
0
  6
Continuous
 62
     7
370
    15
100
AcDbSpline
210
0.0
220
0.0
230
1.0
 70
    24
 71
     3
 72
    14
 73
    10
 74
     0
 42
0.000000001
 43
0.00000001
 40
0.0
 40
0.0
 40
0.0
 40
0.0
 40
0.1250000000000018
 40
0.1250000000000018
 40
0.2500000000000037
 40
0.2500000000000037
 40
0.5000000000000004
 40
0.5000000000000004
 40
1.0
 40
1.0
 40
1.0
 40
1.0
 10
171.9716325532867
 20
128.4958091180087
 30
0.0
 10
171.9110152298691
 20
128.4958091180087
 30
0.0
 10
171.8488900817341
 20
128.4958091180087
 30
0.0
 10
171.7326724187127
 20
128.4958091180087
 30
0.0
 10
171.6780557790203
 20
128.4958091180087
 30
0.0
 10
171.5233794405121
 20
128.4958091180088
 30
0.0
 10
171.4372626917281
 20
128.4958091180087
 30
0.0
 10
171.2359551111875
 20
128.4958091180088
 30
0.0
 10
171.1716325532867
 20
128.4958091180087
 30
0.0
 10
171.1716325532867
 20
128.4958091180087
 30
0.0
  0
SPLINE
  5
AC
330
1F
100
AcDbEntity
  8
0
  6
Continuous
 62
     7
370
    15
100
AcDbSpline
210
0.0
220
0.0
230
1.0
 70
    24
 71
     3
 72
    14
 73
    10
 74
     0
 42
0.000000001
 43
0.00000001
 40
0.0
 40
0.0
 40
0.0
 40
0.0
 40
0.25
 40
0.25
 40
0.5
 40
0.5
 40
0.75
 40
0.75
 40
1.0
 40
1.0
 40
1.0
 40
1.0
 10
174.9916325532867
 20
128.4958091180087
 30
0.0
 10
174.9916325532867
 20
128.4958091180087
 30
0.0
 10
174.9755509518269
 20
128.4958091180087
 30
0.0
 10
174.91005943856
 20
128.4958091180087
 30
0.0
 10
174.8607514654327
 20
128.4958091180087
 30
0.0
 10
174.7261819437357
 20
128.4958091180087
 30
0.0
 10
174.6406588676504
 20
128.4958091180087
 30
0.0
 10
174.4336633720954
 20
128.4958091180087
 30
0.0
 10
174.3129697381518
 20
128.4958091180087
 30
0.0
 10
174.1916325532868
 20
128.4958091180087
 30
0.0
  0
LINE
  5
AD
330
1F
100
AcDbEntity
  8
0
  6
Continuous
 62
     7
370
    15
100
AcDbLine
 10
174.1916328597
 20
83.3279508989
 30
0.0
 11
171.9716327193
 21
83.3279508989
 31
0.0
  0
LINE
  5
AE
330
1F
100
AcDbEntity
  8
0
  6
Continuous
 62
     7
370
    15
100
AcDbLine
 10
174.1916328597
 20
128.4958086799
 30
0.0
 11
171.9716327193
 21
128.4958086799
 31
0.0
  0
SPLINE
  5
AF
330
1F
100
AcDbEntity
  8
0
  6
Continuous
 62
     7
370
    15
100
AcDbSpline
210
0.0
220
0.0
230
1.0
 70
     8
 71
     3
 72
    12
 73
     8
 74
     0
 42
0.000000001
 43
0.00000001
 40
0.0
 40
0.0
 40
0.0
 40
0.0
 40
0.5
 40
0.5
 40
0.75
 40
0.75
 40
1.0
 40
1.0
 40
1.0
 40
1.0
 10
174.9916325532867
 20
82.49372963020168
 30
0.0
 10
174.9916325532867
 20
82.70655218913456
 30
0.0
 10
174.909707195467
 20
82.92080869577254
 30
0.0
 10
174.6907853919986
 20
83.15449832422242
 30
0.0
 10
174.6007381005076
 20
83.21898314906639
 30
0.0
 10
174.4053246324877
 20
83.30518276022197
 30
0.0
 10
174.2980416655039
 20
83.32795126172202
 30
0.0
 10
174.1916325532867
 20
83.32795126172202
 30
0.0
  0
LINE
  5
B0
330
1F
100
AcDbEntity
  8
0
  6
Continuous
 62
     7
370
    15
100
AcDbLine
 10
161.9816325533
 20
87.9208091538
 30
0.0
 11
161.9816325533
 21
132.3708090822
 31
0.0
  0
SPLINE
  5
B1
330
1F
100
AcDbEntity
  8
0
  6
Continuous
 62
     7
370
    15
100
AcDbSpline
210
0.0
220
0.0
230
1.0
 70
     8
 71
     3
 72
    12
 73
     8
 74
     0
 42
0.000000001
 43
0.00000001
 40
0.0
 40
0.0
 40
0.0
 40
0.0
 40
0.5
 40
0.5
 40
0.75
 40
0.75
 40
1.0
 40
1.0
 40
1.0
 40
1.0
 10
174.9916325532867
 20
137.7978886058158
 30
0.0
 10
174.9916325532867
 20
137.5847512041643
 30
0.0
 10
174.9089901381388
 20
137.3697716794266
 30
0.0
 10
174.6904067273284
 20
137.1368526105408
 30
0.0
 10
174.6013167743477
 20
137.0729857007204
 30
0.0
 10
174.4059114564502
 20
136.9865995463386
 30
0.0
 10
174.2993874095068
 20
136.9636669742955
 30
0.0
 10
174.1916325532867
 20
136.9636669742954
 30
0.0
  0
SPLINE
  5
B2
330
1F
100
AcDbEntity
  8
0
  6
Continuous
 62
     7
370
    15
100
AcDbSpline
210
0.0
220
0.0
230
1.0
 70
     8
 71
     3
 72
    12
 73
     8
 74
     0
 42
0.000000001
 43
0.00000001
 40
0.0
 40
0.0
 40
0.0
 40
0.0
 40
0.2499999999999986
 40
0.2499999999999986
 40
0.4999999999999971
 40
0.4999999999999971
 40
1.0
 40
1.0
 40
1.0
 40
1.0
 10
174.1916325532867
 20
131.2947452614652
 30
0.0
 10
174.313714550775
 20
131.2947452614652
 30
0.0
 10
174.4343050932607
 20
131.3334716176389
 30
0.0
 10
174.6398003769605
 20
131.4634352053852
 30
0.0
 10
174.725316859913
 20
131.552641441932
 30
0.0
 10
174.9287112114572
 20
131.8575179794776
 30
0.0
 10
174.9916325532867
 20
132.1002885935797
 30
0.0
 10
174.9916325532867
 20
132.343049937534
 30
0.0
  0
SPLINE
  5
B3
330
1F
100
AcDbEntity
  8
0
  6
Continuous
 62
     7
370
    15
100
AcDbSpline
210
0.0
220
0.0
230
1.0
 70
     8
 71
     3
 72
     8
 73
     4
 74
     0
 42
0.000000001
 43
0.00000001
 40
0.0
 40
0.0
 40
0.0
 40
0.0
 40
1.0
 40
1.0
 40
1.0
 40
1.0
 10
176.0455872395827
 20
139.8583472742733
 30
0.0
 10
175.6936432166745
 20
139.2267858862594
 30
0.0
 10
175.3422847936143
 20
138.5949039865606
 30
0.0
 10
174.9916325532867
 20
137.9626355775102
 30
0.0
  0
SPLINE
  5
B4
330
1F
100
AcDbEntity
  8
0
  6
Continuous
 62
     7
370
    15
100
AcDbSpline
210
0.0
220
0.0
230
1.0
 70
     8
 71
     3
 72
     8
 73
     4
 74
     0
 42
0.000000001
 43
0.00000001
 40
0.0
 40
0.0
 40
0.0
 40
0.0
 40
0.0012409313617635
 40
0.0012409313617635
 40
0.0012409313617635
 40
0.0012409313617635
 10
176.6034691953434
 20
140.6421451972243
 30
0.0
 10
176.4167962671112
 20
140.3811333195258
 30
0.0
 10
176.2308110791387
 20
140.1198748177504
 30
0.0
 10
176.0455872395827
 20
139.8583472742733
 30
0.0
  0
LINE
  5
B5
330
1F
100
AcDbEntity
  8
0
  6
Continuous
 62
     7
370
    15
100
AcDbLine
 10
176.6034696179
 20
136.0560394715
 30
0.0
 11
176.6034696179
 21
140.6421456377
 31
0.0
  0
SPLINE
  5
B6
330
1F
100
AcDbEntity
  8
0
  6
Continuous
 62
     7
370
    15
100
AcDbSpline
210
0.0
220
0.0
230
1.0
 70
     8
 71
     3
 72
     8
 73
     4
 74
     0
 42
0.000000001
 43
0.00000001
 40
0.0
 40
0.0
 40
0.0
 40
0.0
 40
1.0
 40
1.0
 40
1.0
 40
1.0
 10
174.9916325532867
 20
132.5479481738672
 30
0.0
 10
175.5164236727827
 20
133.722925361572
 30
0.0
 10
176.0549399239655
 20
134.8918245293101
 30
0.0
 10
176.6034691953435
 20
136.0560387580563
 30
0.0
  0
LINE
  5
B7
330
1F
100
AcDbEntity
  8
0
  6
Continuous
 62
     7
370
    15
100
AcDbLine
 10
174.991632432
 20
132.5479484986
 30
0.0
 11
174.991632432
 21
137.9626355957
 31
0.0
  0
SPLINE
  5
B8
330
1F
100
AcDbEntity
  8
0
  6
Continuous
 62
     7
370
    15
100
AcDbSpline
210
0.0
220
0.0
230
1.0
 70
     8
 71
     3
 72
    12
 73
     8
 74
     0
 42
0.000000001
 43
0.00000001
 40
0.0
 40
0.0
 40
0.0
 40
0.0
 40
0.5000000000000042
 40
0.5000000000000042
 40
0.7500000000000021
 40
0.7500000000000021
 40
1.0
 40
1.0
 40
1.0
 40
1.0
 10
181.0316325532867
 20
140.1563602514499
 30
0.0
 10
181.0316325532867
 20
140.2766872845031
 30
0.0
 10
180.9778377416937
 20
140.3947848579849
 30
0.0
 10
180.8169141717275
 20
140.5344276004238
 30
0.0
 10
180.7521627106249
 20
140.5727035538183
 30
0.0
 10
180.5999425273072
 20
140.6275433834527
 30
0.0
 10
180.5171350117822
 20
140.6421451972243
 30
0.0
 10
180.4316325532867
 20
140.6421451972243
 30
0.0
  0
SPLINE
  5
B9
330
1F
100
AcDbEntity
  8
0
  6
Continuous
 62
     7
370
    15
100
AcDbSpline
210
0.0
220
0.0
230
1.0
 70
     8
 71
     3
 72
    14
 73
    10
 74
     0
 42
0.000000001
 43
0.00000001
 40
0.0
 40
0.0
 40
0.0
 40
0.0
 40
0.25
 40
0.25
 40
0.5
 40
0.5
 40
0.75
 40
0.75
 40
1.0
 40
1.0
 40
1.0
 40
1.0
 10
180.4316325532867
 20
136.0560387580563
 30
0.0
 10
180.5200550914092
 20
136.0560387580563
 30
0.0
 10
180.6081090811022
 20
136.0309664075969
 30
0.0
 10
180.7599388449736
 20
135.9446243426256
 30
0.0
 10
180.8257817895374
 20
135.8830810881127
 30
0.0
 10
180.9295808500829
 20
135.7412533418618
 30
0.0
 10
180.9680529595576
 20
135.6612047518917
 30
0.0
 10
181.0192756228321
 20
135.492192255218
 30
0.0
 10
181.0316325532867
 20
135.4054129483484
 30
0.0
 10
181.0316325532867
 20
135.3172214740924
 30
0.0
  0
LINE
  5
BA
330
1F
100
AcDbEntity
  8
0
  6
Continuous
 62
     7
370
    15
100
AcDbLine
 10
181.0316327887
 20
135.317221273
 30
0.0
 11
181.0316327887
 21
140.1563603322
 31
0.0
  0
LINE
  5
BB
330
1F
100
AcDbEntity
  8
0
  6
Continuous
 62
     7
370
    15
100
AcDbLine
 10
174.1916328597
 20
136.9636673372
 30
0.0
 11
171.9716327193
 21
136.9636673372
 31
0.0
  0
LINE
  5
BC
330
1F
100
AcDbEntity
  8
0
  6
Continuous
 62
     7
370
    15
100
AcDbLine
 10
171.9716327193
 20
131.294745941
 30
0.0
 11
174.1916328597
 21
131.294745941
 31
0.0
  0
SPLINE
  5
BD
330
1F
100
AcDbEntity
  8
0
  6
Continuous
 62
     7
370
    15
100
AcDbSpline
210
0.0
220
0.0
230
1.0
 70
     8
 71
     3
 72
    12
 73
     8
 74
     0
 42
0.000000001
 43
0.00000001
 40
0.0
 40
0.0
 40
0.0
 40
0.0
 40
0.5000000000000003
 40
0.5000000000000003
 40
0.7500000000000001
 40
0.7500000000000001
 40
1.0
 40
1.0
 40
1.0
 40
1.0
 10
165.1816325532867
 20
135.3172214740924
 30
0.0
 10
165.1816325532867
 20
135.4938378706141
 30
0.0
 10
165.2309731881085
 20
135.6688950419878
 30
0.0
 10
165.3871887463966
 20
135.8828452544805
 30
0.0
 10
165.4524913262973
 20
135.9441778973274
 30
0.0
 10
165.6062603442577
 20
136.0315659952987
 30
0.0
 10
165.6932734508682
 20
136.0560387580563
 30
0.0
 10
165.7816325532867
 20
136.0560387580563
 30
0.0
  0
LINE
  5
BE
330
1F
100
AcDbEntity
  8
0
  6
Continuous
 62
     7
370
    15
100
AcDbLine
 10
165.7816326174
 20
136.0560394715
 30
0.0
 11
169.559795961
 21
136.0560394715
 31
0.0
  0
SPLINE
  5
BF
330
1F
100
AcDbEntity
  8
0
  6
Continuous
 62
     7
370
    15
100
AcDbSpline
210
0.0
220
0.0
230
1.0
 70
     8
 71
     3
 72
     8
 73
     4
 74
     0
 42
0.000000001
 43
0.00000001
 40
0.0
 40
0.0
 40
0.0
 40
0.0
 40
1.0
 40
1.0
 40
1.0
 40
1.0
 10
169.55979591123
 20
136.0560387580563
 30
0.0
 10
170.1087406894269
 20
134.8909426457426
 30
0.0
 10
170.6473510639436
 20
133.7217843289181
 30
0.0
 10
171.1716325532867
 20
132.5479481738672
 30
0.0
  0
SPLINE
  5
C0
330
1F
100
AcDbEntity
  8
0
  6
Continuous
 62
     7
370
    15
100
AcDbSpline
210
0.0
220
0.0
230
1.0
 70
     8
 71
     3
 72
    14
 73
    10
 74
     0
 42
0.000000001
 43
0.00000001
 40
0.0
 40
0.0
 40
0.0
 40
0.0
 40
0.25
 40
0.25
 40
0.5
 40
0.5
 40
0.75
 40
0.75
 40
1.0
 40
1.0
 40
1.0
 40
1.0
 10
171.1716325532867
 20
132.343049937534
 30
0.0
 10
171.1716325532867
 20
132.2211146023525
 30
0.0
 10
171.1876769208266
 20
132.1015603618511
 30
0.0
 10
171.253406263006
 20
131.8674443787078
 30
0.0
 10
171.3026136332543
 20
131.7555118385731
 30
0.0
 10
171.4376266141532
 20
131.5531120293362
 30
0.0
 10
171.5235466827595
 20
131.4632468357732
 30
0.0
 10
171.7300614847649
 20
131.3329123261631
 30
0.0
 10
171.850200197136
 20
131.2947452614653
 30
0.0
 10
171.9716325532867
 20
131.2947452614653
 30
0.0
  0
LINE
  5
C1
330
1F
100
AcDbEntity
  8
0
  6
Continuous
 62
     7
370
    15
100
AcDbLine
 10
176.6034696179
 20
136.0560394715
 30
0.0
 11
180.4316319453
 21
136.0560394715
 31
0.0
  0
LINE
  5
C2
330
1F
100
AcDbEntity
  8
0
  6
Continuous
 62
     7
370
    15
100
AcDbLine
 10
171.1716322156
 20
132.5479484986
 30
0.0
 11
171.1716322156
 21
132.3430500816
 31
0.0
  0
LINE
  5
C3
330
1F
100
AcDbEntity
  8
0
  6
Continuous
 62
     7
370
    15
100
AcDbLine
 10
174.991632432
 20
132.3430500816
 30
0.0
 11
174.991632432
 21
132.5479484986
 31
0.0
  0
LINE
  5
C4
330
1F
100
AcDbEntity
  8
0
  6
Continuous
 62
     7
370
    15
100
AcDbLine
 10
165.1816324724
 20
135.317221273
 30
0.0
 11
165.1816324724
 21
128.4958086799
 31
0.0
  0
LINE
  5
C5
330
1F
100
AcDbEntity
  8
0
  6
Continuous
 62
     7
370
    15
100
AcDbLine
 10
181.0316327887
 20
135.317221273
 30
0.0
 11
181.0316327887
 21
128.4958086799
 31
0.0
  0
SPLINE
  5
C6
330
1F
100
AcDbEntity
  8
0
  6
Continuous
 62
     7
370
    15
100
AcDbSpline
210
0.0
220
0.0
230
1.0
 70
     8
 71
     3
 72
     8
 73
     4
 74
     0
 42
0.000000001
 43
0.00000001
 40
0.0
 40
0.0
 40
0.0
 40
0.0
 40
0.0012409313617635
 40
0.0012409313617635
 40
0.0012409313617635
 40
0.0012409313617635
 10
170.1176778669907
 20
139.8583472742733
 30
0.0
 10
169.9324540274347
 20
140.1198748177504
 30
0.0
 10
169.7464688394622
 20
140.3811333195258
 30
0.0
 10
169.55979591123
 20
140.6421451972243
 30
0.0
  0
SPLINE
  5
C7
330
1F
100
AcDbEntity
  8
0
  6
Continuous
 62
     7
370
    15
100
AcDbSpline
210
0.0
220
0.0
230
1.0
 70
     8
 71
     3
 72
     8
 73
     4
 74
     0
 42
0.000000001
 43
0.00000001
 40
0.0
 40
0.0
 40
0.0
 40
0.0
 40
1.0
 40
1.0
 40
1.0
 40
1.0
 10
171.1716325532867
 20
137.9626355775102
 30
0.0
 10
170.8209803129592
 20
138.5949039865606
 30
0.0
 10
170.4696218898989
 20
139.2267858862594
 30
0.0
 10
170.1176778669907
 20
139.8583472742733
 30
0.0
  0
LINE
  5
C8
330
1F
100
AcDbEntity
  8
0
  6
Continuous
 62
     7
370
    15
100
AcDbLine
 10
169.559795961
 20
136.0560394715
 30
0.0
 11
169.559795961
 21
140.6421456377
 31
0.0
  0
LINE
  5
C9
330
1F
100
AcDbEntity
  8
0
  6
Continuous
 62
     7
370
    15
100
AcDbLine
 10
171.1716322156
 20
132.5479484986
 30
0.0
 11
171.1716322156
 21
137.9626355957
 31
0.0
  0
LINE
  5
CA
330
1F
100
AcDbEntity
  8
0
  6
Continuous
 62
     7
370
    15
100
AcDbLine
 10
180.4316319453
 20
140.6421456377
 30
0.0
 11
176.6034696179
 21
140.6421456377
 31
0.0
  0
SPLINE
  5
CB
330
1F
100
AcDbEntity
  8
0
  6
Continuous
 62
     7
370
    15
100
AcDbSpline
210
0.0
220
0.0
230
1.0
 70
     8
 71
     3
 72
    14
 73
    10
 74
     0
 42
0.000000001
 43
0.00000001
 40
0.0
 40
0.0
 40
0.0
 40
0.0
 40
0.25
 40
0.25
 40
0.5
 40
0.5
 40
0.75
 40
0.75
 40
1.0
 40
1.0
 40
1.0
 40
1.0
 10
171.9716325532867
 20
136.9636669742954
 30
0.0
 10
171.8642635087724
 20
136.9636669742955
 30
0.0
 10
171.7574580170095
 20
136.9865919697004
 30
0.0
 10
171.5623166484927
 20
137.0727844035746
 30
0.0
 10
171.4731069309028
 20
137.1366284002386
 30
0.0
 10
171.3271801380864
 20
137.29204450818
 30
0.0
 10
171.2691903942883
 20
137.3846990863877
 30
0.0
 10
171.1915965527658
 20
137.5839324264373
 30
0.0
 10
171.1716325532867
 20
137.6905375214925
 30
0.0
 10
171.1716325532867
 20
137.7978886058158
 30
0.0
  0
SPLINE
  5
CC
330
1F
100
AcDbEntity
  8
0
  6
Continuous
 62
     7
370
    15
100
AcDbSpline
210
0.0
220
0.0
230
1.0
 70
     8
 71
     3
 72
    10
 73
     6
 74
     0
 42
0.000000001
 43
0.00000001
 40
0.0
 40
0.0
 40
0.0
 40
0.0
 40
0.5
 40
0.5
 40
1.0
 40
1.0
 40
1.0
 40
1.0
 10
165.4688741545943
 20
140.5711056729657
 30
0.0
 10
165.3930345605908
 20
140.5010564866371
 30
0.0
 10
165.3257110428648
 20
140.4158377130634
 30
0.0
 10
165.2190674045597
 20
140.2056115864016
 30
0.0
 10
165.1816325532867
 20
140.0821023955343
 30
0.0
 10
165.1816325532867
 20
139.9521842750116
 30
0.0
  0
SPLINE
  5
CD
330
1F
100
AcDbEntity
  8
0
  6
Continuous
 62
     7
370
    15
100
AcDbSpline
210
0.0
220
0.0
230
1.0
 70
     8
 71
     3
 72
     8
 73
     4
 74
     0
 42
0.000000001
 43
0.00000001
 40
0.0
 40
0.0
 40
0.0
 40
0.0
 40
1.0
 40
1.0
 40
1.0
 40
1.0
 10
165.7816325532867
 20
140.6421451972243
 30
0.0
 10
165.6694542991071
 20
140.6421451972243
 30
0.0
 10
165.5607847863786
 20
140.6164641319633
 30
0.0
 10
165.4688741545943
 20
140.5711056729657
 30
0.0
  0
LINE
  5
CE
330
1F
100
AcDbEntity
  8
0
  6
Continuous
 62
     7
370
    15
100
AcDbLine
 10
165.1816324724
 20
135.317221273
 30
0.0
 11
165.1816324724
 21
139.9521846215
 31
0.0
  0
LINE
  5
CF
330
1F
100
AcDbEntity
  8
0
  6
Continuous
 62
     7
370
    15
100
AcDbLine
 10
169.559795961
 20
140.6421456377
 30
0.0
 11
165.7816326174
 21
140.6421456377
 31
0.0
  0
LINE
  5
D0
330
1F
100
AcDbEntity
  8
0
  6
Continuous
 62
     7
370
    15
100
AcDbLine
 10
93.7316320764
 20
98.7386787202
 30
0.0
 11
93.7316320764
 21
121.5529395159
 31
0.0
  0
SPLINE
  5
D1
330
1F
100
AcDbEntity
  8
0
  6
Continuous
 62
     7
370
    15
100
AcDbSpline
210
0.0
220
0.0
230
1.0
 70
     8
 71
     3
 72
    36
 73
    32
 74
     0
 42
0.000000001
 43
0.00000001
 40
0.0
 40
0.0
 40
0.0
 40
0.0
 40
0.0624999999999994
 40
0.0624999999999994
 40
0.1249999999999988
 40
0.1249999999999988
 40
0.1874999999999983
 40
0.1874999999999983
 40
0.2499999999999977
 40
0.2499999999999977
 40
0.3749999999999982
 40
0.3749999999999982
 40
0.4374999999999984
 40
0.4374999999999984
 40
0.4999999999999986
 40
0.4999999999999986
 40
0.5624999999999988
 40
0.5624999999999988
 40
0.6249999999999989
 40
0.6249999999999989
 40
0.6874999999999991
 40
0.6874999999999991
 40
0.7499999999999992
 40
0.7499999999999992
 40
0.8124999999999994
 40
0.8124999999999994
 40
0.8749999999999997
 40
0.8749999999999997
 40
0.9374999999999998
 40
0.9374999999999998
 40
1.0
 40
1.0
 40
1.0
 40
1.0
 10
218.7566325532867
 20
110.1458091180087
 30
0.0
 10
218.7566325532867
 20
109.9392477439445
 30
0.0
 10
218.730493354942
 20
109.7291375282887
 30
0.0
 10
218.6299522651108
 20
109.3272729036505
 30
0.0
 10
218.5558396779243
 20
109.1333209291909
 30
0.0
 10
218.3644201466101
 20
108.7639702711502
 30
0.0
 10
218.2497721302666
 20
108.5931427296437
 30
0.0
 10
217.9864398766107
 20
108.2759538334639
 30
0.0
 10
217.8374991101003
 20
108.1301280676782
 30
0.0
 10
217.3591268047393
 20
107.7426200848911
 30
0.0
 10
216.9889375017492
 20
107.5431311495341
 30
0.0
 10
216.4037631030448
 20
107.3445254844357
 30
0.0
 10
216.2004196956877
 20
107.2939789032974
 30
0.0
 10
215.7907467560273
 20
107.2273336975975
 30
0.0
 10
215.5849942568065
 20
107.2109463534438
 30
0.0
 10
215.171688918042
 20
107.2113009724406
 30
0.0
 10
214.9621497282695
 20
107.2284710647442
 30
0.0
 10
214.5531072171075
 20
107.2961401724014
 30
0.0
 10
214.3535105778074
 20
107.3462134891851
 30
0.0
 10
213.9641069149021
 20
107.4790764718583
 30
0.0
 10
213.772454214092
 20
107.5629830711146
 30
0.0
 10
213.4113223307228
 20
107.7606952241355
 30
0.0
 10
213.2414750857861
 20
107.874129136636
 30
0.0
 10
212.9239641351193
 20
108.1318488960302
 30
0.0
 10
212.7748148494235
 20
108.2780968235356
 30
0.0
 10
212.5121609250512
 20
108.5950293299803
 30
0.0
 10
212.3979288440707
 20
108.7655539085278
 30
0.0
 10
212.2073002472844
 20
109.1337475188059
 30
0.0
 10
212.1327795958439
 20
109.3291927187048
 30
0.0
 10
212.0329912233836
 20
109.7284725392649
 30
0.0
 10
212.0066325532867
 20
109.9375067569587
 30
0.0
 10
212.0066325532867
 20
110.1458091180087
 30
0.0
  0
SPLINE
  5
D2
330
1F
100
AcDbEntity
  8
0
  6
Continuous
 62
     7
370
    15
100
AcDbSpline
210
0.0
220
0.0
230
1.0
 70
     8
 71
     3
 72
    36
 73
    32
 74
     0
 42
0.000000001
 43
0.00000001
 40
0.0
 40
0.0
 40
0.0
 40
0.0
 40
0.0624999999999999
 40
0.0624999999999999
 40
0.1249999999999999
 40
0.1249999999999999
 40
0.1874999999999999
 40
0.1874999999999999
 40
0.2499999999999999
 40
0.2499999999999999
 40
0.3749999999999999
 40
0.3749999999999999
 40
0.4375
 40
0.4375
 40
0.5000000000000001
 40
0.5000000000000001
 40
0.5625000000000001
 40
0.5625000000000001
 40
0.6250000000000002
 40
0.6250000000000002
 40
0.6875000000000002
 40
0.6875000000000002
 40
0.7500000000000002
 40
0.7500000000000002
 40
0.8125000000000002
 40
0.8125000000000002
 40
0.8750000000000001
 40
0.8750000000000001
 40
0.9375000000000001
 40
0.9375000000000001
 40
1.0
 40
1.0
 40
1.0
 40
1.0
 10
212.0066325532867
 20
110.1458091180087
 30
0.0
 10
212.0066325532867
 20
110.35436972521
 30
0.0
 10
212.032206660515
 20
110.5598865552851
 30
0.0
 10
212.1333896413869
 20
110.9649861619838
 30
0.0
 10
212.2084238082734
 20
111.1603978428591
 30
0.0
 10
212.3988352058585
 20
111.5274541094407
 30
0.0
 10
212.5160163563678
 20
111.7019319523471
 30
0.0
 10
212.7793309851515
 20
112.0182576011765
 30
0.0
 10
212.926201771884
 20
112.1620867611932
 30
0.0
 10
213.4102821989233
 20
112.5534825293337
 30
0.0
 10
213.7723889569286
 20
112.7481009733336
 30
0.0
 10
214.3637225050703
 20
112.9483881195574
 30
0.0
 10
214.5641462180438
 20
112.9978543645696
 30
0.0
 10
214.9713402279601
 20
113.0640894637505
 30
0.0
 10
215.1794402873839
 20
113.0808295750041
 30
0.0
 10
215.5962891341683
 20
113.0801522686628
 30
0.0
 10
215.8021228523805
 20
113.0629695288046
 30
0.0
 10
216.2087568734555
 20
112.9957208002716
 30
0.0
 10
216.4109628649251
 20
112.9451663774966
 30
0.0
 10
216.8035275944947
 20
112.8108745428606
 30
0.0
 10
216.9914049809878
 20
112.728276159964
 30
0.0
 10
217.350459523011
 20
112.5317687322074
 30
0.0
 10
217.5230362177614
 20
112.4167401786619
 30
0.0
 10
217.8431136515583
 20
112.1564078504571
 30
0.0
 10
217.9885789445938
 20
112.0132131736061
 30
0.0
 10
218.2491450658001
 20
111.6991047681191
 30
0.0
 10
218.3654569727356
 20
111.5258462071641
 30
0.0
 10
218.5559289182911
 20
111.1579251015273
 30
0.0
 10
218.6297350232855
 20
110.965298047701
 30
0.0
 10
218.7308341299416
 20
110.5610341248125
 30
0.0
 10
218.7566325532867
 20
110.352626579808
 30
0.0
 10
218.7566325532867
 20
110.1458091180087
 30
0.0
  0
LINE
  5
D3
330
1F
100
AcDbEntity
  8
0
  6
Continuous
 62
     7
370
    15
100
AcDbLine
 10
221.0816308784
 20
100.3458090018
 30
0.0
 11
221.0816308784
 21
119.9458092342
 31
0.0
  0
LINE
  5
D4
330
1F
100
AcDbEntity
  8
0
  6
Continuous
 62
     7
370
    15
100
AcDbLine
 10
220.8816312181
 20
100.1458093415
 30
0.0
 11
220.8816312181
 21
120.1458088945
 31
0.0
  0
ARC
  5
D5
330
1F
100
AcDbEntity
  8
0
  6
Continuous
 62
     7
370
    15
100
AcDbCircle
 10
174.990917378
 20
100.9999604807
 30
0.0
 40
2.023220054847841
100
AcDbArc
 50
188.8023999566
 51
332.8720061987
  0
LWPOLYLINE
  5
D6
330
1F
100
AcDbEntity
  8
0
  6
Continuous
 62
     7
370
    15
100
AcDbPolyline
 90
        3
 70
   128
 43
0.0
 10
173.0817785415
 20
100.8207267042
 10
173.1592412966
 20
101.3479307185
 10
173.1849001648
 20
101.423460048
  0
ARC
  5
D7
330
1F
100
AcDbEntity
  8
0
  6
Continuous
 62
     7
370
    15
100
AcDbCircle
 10
174.9924335719
 20
100.9499990615
 30
0.0
 40
1.915023234270536
100
AcDbArc
 50
183.8706565787
 51
336.2909366892
  0
ARC
  5
D8
330
1F
100
AcDbEntity
  8
0
  6
Continuous
 62
     7
370
    15
100
AcDbCircle
 10
174.9418367955
 20
100.7920984513
 30
0.0
 40
1.460468160205981
100
AcDbArc
 50
88.9884382794
 51
178.6939386908
  0
ARC
  5
D9
330
1F
100
AcDbEntity
  8
0
  6
Continuous
 62
     7
370
    15
100
AcDbCircle
 10
174.9850330868
 20
100.9148140755
 30
0.0
 40
1.505942584232615
100
AcDbArc
 50
183.4043845787
 51
349.8916613277
  0
SPLINE
  5
DA
330
1F
100
AcDbEntity
  8
0
  6
Continuous
 62
     7
370
    15
100
AcDbSpline
210
0.0
220
0.0
230
1.0
 70
     8
 71
     3
 72
    11
 73
     7
 74
     0
 42
0.000000001
 43
0.00000001
 40
0.0
 40
0.0
 40
0.0
 40
0.0
 40
0.1285561808720128
 40
0.4801537853098821
 40
0.8150695306487243
 40
1.0
 40
1.0
 40
1.0
 40
1.0
 10
216.7801797317936
 20
110.502736457462
 30
0.0
 10
216.7644667655931
 20
110.4467714942456
 30
0.0
 10
216.7057792707687
 20
110.2377439021781
 30
0.0
 10
216.5957247789644
 20
109.8457705633083
 30
0.0
 10
216.4765600319834
 20
109.4213464759211
 30
0.0
 10
216.4127241873362
 20
109.1939787952601
 30
0.0
 10
216.3900151776745
 20
109.1130948516787
 30
0.0
  0
SPLINE
  5
DB
330
1F
100
AcDbEntity
  8
0
  6
Continuous
 62
     7
370
    15
100
AcDbSpline
210
0.0
220
0.0
230
1.0
 70
     8
 71
     3
 72
    10
 73
     6
 74
     0
 42
0.000000001
 43
0.00000001
 40
0.0
 40
0.0
 40
0.0
 40
0.0
 40
0.4391125396393828
 40
0.7513636398627439
 40
1.0
 40
1.0
 40
1.0
 40
1.0
 10
215.7717995273544
 20
111.5354507819997
 30
0.0
 10
215.9161558316918
 20
111.3876115160236
 30
0.0
 10
216.1631633035193
 20
111.1346443630252
 30
0.0
 10
216.5222328741156
 20
110.7669086417668
 30
0.0
 10
216.7009541844064
 20
110.5838740456242
 30
0.0
 10
216.7801797317936
 20
110.502736457462
 30
0.0
  0
SPLINE
  5
DC
330
1F
100
AcDbEntity
  8
0
  6
Continuous
 62
     7
370
    15
100
AcDbSpline
210
0.0
220
0.0
230
1.0
 70
     8
 71
     3
 72
    10
 73
     6
 74
     0
 42
0.000000001
 43
0.00000001
 40
0.0
 40
0.0
 40
0.0
 40
0.0
 40
0.4391111750628946
 40
0.7513639327688627
 40
0.9999999999999999
 40
0.9999999999999999
 40
0.9999999999999999
 40
0.9999999999999999
 10
214.3732510435059
 20
111.1785233843387
 30
0.0
 10
214.5734613460118
 20
111.2296198878992
 30
0.0
 10
214.9160415598955
 20
111.3170512083624
 30
0.0
 10
215.4140456155752
 20
111.4441469643818
 30
0.0
 10
215.661919613195
 20
111.5074078862774
 30
0.0
 10
215.7717995273544
 20
111.5354507819997
 30
0.0
  0
SPLINE
  5
DD
330
1F
100
AcDbEntity
  8
0
  6
Continuous
 62
     7
370
    15
100
AcDbSpline
210
0.0
220
0.0
230
1.0
 70
     8
 71
     3
 72
    11
 73
     7
 74
     0
 42
0.000000001
 43
0.00000001
 40
0.0
 40
0.0
 40
0.0
 40
0.0
 40
0.1849305080851967
 40
0.5198462307004376
 40
0.8714438445261324
 40
1.0
 40
1.0
 40
1.0
 40
1.0
 10
213.9830864893867
 20
109.7888817785555
 30
0.0
 10
214.0057954974489
 20
109.8697657447582
 30
0.0
 10
214.069631326195
 20
110.0971334483888
 30
0.0
 10
214.1887961055473
 20
110.5215575265836
 30
0.0
 10
214.2988505694689
 20
110.9135308656468
 30
0.0
 10
214.3575380765928
 20
111.1225584361
 30
0.0
 10
214.3732510435058
 20
111.1785233843387
 30
0.0
  0
SPLINE
  5
DE
330
1F
100
AcDbEntity
  8
0
  6
Continuous
 62
     7
370
    15
100
AcDbSpline
210
0.0
220
0.0
230
1.0
 70
     8
 71
     3
 72
    10
 73
     6
 74
     0
 42
0.000000001
 43
0.00000001
 40
0.0
 40
0.0
 40
0.0
 40
0.0
 40
0.4391125396393828
 40
0.7513636398627439
 40
1.0
 40
1.0
 40
1.0
 40
1.0
 10
214.9914666938259
 20
108.7561674540178
 30
0.0
 10
214.8471103894885
 20
108.9040067199939
 30
0.0
 10
214.600102917661
 20
109.1569738729923
 30
0.0
 10
214.2410333470646
 20
109.5247095942507
 30
0.0
 10
214.0623120367739
 20
109.7077441903933
 30
0.0
 10
213.9830864893867
 20
109.7888817785555
 30
0.0
  0
SPLINE
  5
DF
330
1F
100
AcDbEntity
  8
0
  6
Continuous
 62
     7
370
    15
100
AcDbSpline
210
0.0
220
0.0
230
1.0
 70
     8
 71
     3
 72
    10
 73
     6
 74
     0
 42
0.000000001
 43
0.00000001
 40
0.0
 40
0.0
 40
0.0
 40
0.0
 40
0.4391111750628946
 40
0.7513639327688627
 40
0.9999999999999999
 40
0.9999999999999999
 40
0.9999999999999999
 40
0.9999999999999999
 10
216.3900151776745
 20
109.1130948516787
 30
0.0
 10
216.1898048751684
 20
109.0619983481183
 30
0.0
 10
215.8472246612847
 20
108.9745670276551
 30
0.0
 10
215.3492206056051
 20
108.8474712716356
 30
0.0
 10
215.1013466079853
 20
108.7842103497401
 30
0.0
 10
214.9914666938259
 20
108.7561674540178
 30
0.0
  0
CIRCLE
  5
E0
330
1F
100
AcDbEntity
  8
0
  6
Continuous
 62
     7
370
    15
100
AcDbCircle
 10
215.3816325533
 20
110.145809118
 30
0.0
 40
1.500000000000008
  0
CIRCLE
  5
E1
330
1F
100
AcDbEntity
  8
0
  6
Continuous
 62
     7
370
    15
100
AcDbCircle
 10
215.3816325533
 20
110.145809118
 30
0.0
 40
2.199999999999992
  0
CIRCLE
  5
E2
330
1F
100
AcDbEntity
  8
0
  6
Continuous
 62
     7
370
    15
100
AcDbCircle
 10
215.3816325533
 20
110.145809118
 30
0.0
 40
2.499999999999986
  0
ARC
  5
E3
330
1F
100
AcDbEntity
  8
0
  6
Continuous
 62
     7
370
    15
100
AcDbCircle
 10
215.3816325533
 20
110.145809118
 30
0.0
 40
1.249999999999991
100
AcDbArc
 50
104.3170005442
 51
164.3170005442
  0
ARC
  5
E4
330
1F
100
AcDbEntity
  8
0
  6
Continuous
 62
     7
370
    15
100
AcDbCircle
 10
215.3816325533
 20
110.145809118
 30
0.0
 40
1.250000000000006
100
AcDbArc
 50
344.3170005442
 51
44.3170005442
  0
ARC
  5
E5
330
1F
100
AcDbEntity
  8
0
  6
Continuous
 62
     7
370
    15
100
AcDbCircle
 10
215.3816325533
 20
110.145809118
 30
0.0
 40
1.250000000000006
100
AcDbArc
 50
44.3170005442
 51
104.3170005442
  0
ARC
  5
E6
330
1F
100
AcDbEntity
  8
0
  6
Continuous
 62
     7
370
    15
100
AcDbCircle
 10
215.3816325533
 20
110.145809118
 30
0.0
 40
1.250000000000016
100
AcDbArc
 50
164.3170005442
 51
224.3170005442
  0
ARC
  5
E7
330
1F
100
AcDbEntity
  8
0
  6
Continuous
 62
     7
370
    15
100
AcDbCircle
 10
215.3816325533
 20
110.145809118
 30
0.0
 40
1.250000000000005
100
AcDbArc
 50
284.3170005442
 51
344.3170005442
  0
ARC
  5
E8
330
1F
100
AcDbEntity
  8
0
  6
Continuous
 62
     7
370
    15
100
AcDbCircle
 10
215.3816325533
 20
110.145809118
 30
0.0
 40
1.250000000000016
100
AcDbArc
 50
224.3170005442
 51
284.3170005442
  0
SPLINE
  5
E9
330
1F
100
AcDbEntity
  8
0
  6
HIDDEN
 62
     7
370
     0
100
AcDbSpline
210
0.0
220
0.0
230
1.0
 70
     8
 71
     3
 72
     9
 73
     5
 74
     0
 42
0.000000001
 43
0.00000001
 40
0.0
 40
0.0
 40
0.0
 40
0.0
 40
0.9333113421934416
 40
1.0
 40
1.0
 40
1.0
 40
1.0
 10
173.0057416411711
 20
102.3992700393559
 30
0.0
 10
172.9911658226223
 20
102.2982999512962
 30
0.0
 10
172.9755485062031
 20
102.1901151650465
 30
0.0
 10
172.9825783610862
 20
102.0976326680716
 30
0.0
 10
172.9830471726729
 20
102.0914651344777
 30
0.0
  0
LWPOLYLINE
  5
EA
330
1F
100
AcDbEntity
  8
0
  6
HIDDEN
 62
     7
370
     0
100
AcDbPolyline
 90
       22
 70
   128
 43
0.0
 10
173.0057416412
 20
101.8174011152
 10
173.1719799268
 20
101.308129717
 10
173.4836013916
 20
100.8631447221
 10
173.9155711534
 20
100.518195879
 10
174.4331862705
 20
100.3009946908
 10
174.9948622587
 20
100.2289913486
 10
175.5554746764
 20
100.3079712282
 10
176.0699866268
 20
100.5315873663
 10
176.4970632198
 20
100.8818764131
 10
176.8023926693
 20
101.3306965943
 10
176.9614458012
 20
101.8419898938
 10
176.9614458012
 20
102.3746812607
 10
176.8023926693
 20
102.8859750259
 10
176.4970632198
 20
103.3347952071
 10
176.0699866268
 20
103.6850842539
 10
175.5554746764
 20
103.9087008576
 10
174.9948622587
 20
103.9876798059
 10
174.4331862705
 20
103.9156769294
 10
173.9155711534
 20
103.6984757412
 10
173.4836013916
 20
103.353526898
 10
173.1719799268
 20
102.9085419032
 10
173.0057416412
 20
102.3992700394
  0
LWPOLYLINE
  5
EB
330
1F
100
AcDbEntity
  8
0
  6
HIDDEN
 62
     7
370
     0
100
AcDbPolyline
 90
       24
 70
   128
 43
0.0
 10
165.4318441565
 20
101.2476244833
 10
165.5674994385
 20
100.6920607652
 10
165.7787029094
 20
100.1776996891
 10
166.0497906546
 20
99.7426910217
 10
166.3606568168
 20
99.4192957769
 10
166.6882462728
 20
99.2314992364
 10
167.0082636105
 20
99.1932302605
 10
167.2969740743
 20
99.3073256578
 10
167.5329651612
 20
99.5653243627
 10
167.6987349915
 20
99.9480914216
 10
167.7819891761
 20
100.4272391911
 10
167.7765525805
 20
100.9672311957
 10
167.6828289332
 20
101.5280177708
 10
167.5077691602
 20
102.0680097754
 10
167.2643563638
 20
102.5471575449
 10
166.9706437665
 20
102.9299246039
 10
166.6484145376
 20
103.1879233088
 10
166.32156688
 20
103.3020187061
 10
166.0143417234
 20
103.2637492645
 10
165.7495241074
 20
103.0759531896
 10
165.5467549267
 20
102.7525584105
 10
165.4210724796
 20
102.3175492774
 10
165.3817979081
 20
101.8031891327
 10
165.4318441565
 20
101.2476244833
  0
LWPOLYLINE
  5
EC
330
1F
100
AcDbEntity
  8
0
  6
HIDDEN
 62
     7
370
     0
100
AcDbPolyline
 90
       21
 70
   128
 43
0.0
 10
165.8133599835
 20
101.2797551121
 10
165.9413088041
 20
100.7797848325
 10
166.1455115231
 20
100.3287546228
 10
166.4059796299
 20
99.9708156924
 10
166.6972163061
 20
99.7410043965
 10
166.9907133023
 20
99.661816832
 10
167.2577416452
 20
99.7410043965
 10
167.4721619042
 20
99.9708156924
 10
167.6129857937
 20
100.3287546228
 10
167.6664283427
 20
100.7797848325
 10
167.6272583122
 20
101.2797551121
 10
167.4993094916
 20
101.779726323
 10
167.2951067726
 20
102.2307556014
 10
167.0346391315
 20
102.5886954631
 10
166.7434024552
 20
102.818506759
 10
166.4499049934
 20
102.8976943235
 10
166.1828771162
 20
102.818506759
 10
165.9684563915
 20
102.5886954631
 10
165.827632502
 20
102.2307556014
 10
165.774189953
 20
101.779726323
 10
165.8133599835
 20
101.2797551121
  0
ELLIPSE
  5
ED
330
1F
100
AcDbEntity
  8
0
  6
HIDDEN
 62
     7
370
     0
100
AcDbEllipse
 10
174.9816325533
 20
103.2582190575
 30
0.0
 11
1.383467579512143
 21
-1.091267719176599
 31
0.0
210
0.0
220
0.0
230
1.0
 40
0.8239737799
 41
2.147131942757423
 42
5.288724596347229
  0
ELLIPSE
  5
EE
330
1F
100
AcDbEntity
  8
0
  6
HIDDEN
 62
     7
370
     0
100
AcDbEllipse
 10
174.9816325533
 20
103.2582190575
 30
0.0
 11
1.383467579512143
 21
1.753907414218489
 31
0.0
210
0.0
220
0.0
230
1.0
 40
0.5126701559
 41
0.9944607108323831
 42
4.136053364422189
  0
SPLINE
  5
EF
330
1F
100
AcDbEntity
  8
0
  6
HIDDEN
 62
     7
370
     0
100
AcDbSpline
210
0.0
220
0.0
230
1.0
 70
     8
 71
     3
 72
    14
 73
    10
 74
     0
 42
0.000000001
 43
0.00000001
 40
0.0
 40
0.0
 40
0.0
 40
0.0
 40
0.25
 40
0.25
 40
0.5
 40
0.5
 40
0.75
 40
0.75
 40
1.0
 40
1.0
 40
1.0
 40
1.0
 10
173.0057417906463
 20
101.8174015511709
 30
0.0
 10
173.0421056186765
 20
101.8628961865728
 30
0.0
 10
173.0745833458867
 20
101.911287992789
 30
0.0
 10
173.1233369753025
 20
102.0167731367186
 30
0.0
 10
173.138240752977
 20
102.0733576449615
 30
0.0
 10
173.1382511866346
 20
102.182245238912
 30
0.0
 10
173.1233608908265
 20
102.2344299046746
 30
0.0
 10
173.0744719599489
 20
102.3257073036181
 30
0.0
 10
173.0420997816785
 20
102.3643740089923
 30
0.0
 10
173.0057417906463
 20
102.3992699485401
 30
0.0
  0
LWPOLYLINE
  5
F0
330
1F
100
AcDbEntity
  8
0
  6
HIDDEN
 62
     7
370
     0
100
AcDbPolyline
 90
       21
 70
   128
 43
0.0
 10
174.9816328215
 20
100.601412345
 10
175.4915105107
 20
100.6772993024
 10
175.9514786231
 20
100.8975300829
 10
176.3165105062
 20
101.2405482943
 10
176.5508759695
 20
101.6727769639
 10
176.6316328126
 20
102.1519051756
 10
176.5508759695
 20
102.6310343187
 10
176.3165105062
 20
103.0632625225
 10
175.9514786231
 20
103.4062807339
 10
175.4915105107
 20
103.6265119802
 10
174.9816328215
 20
103.7023984718
 10
174.471754201
 20
103.6265119802
 10
174.0117870199
 20
103.4062807339
 10
173.6467542055
 20
103.0632625225
 10
173.4123896735
 20
102.6310343187
 10
173.3316328304
 20
102.1519051756
 10
173.4123896735
 20
101.6727769639
 10
173.6467542055
 20
101.2405482943
 10
174.0117870199
 20
100.8975300829
 10
174.471754201
 20
100.6772993024
 10
174.9816328215
 20
100.601412345
  0
SPLINE
  5
F1
330
1F
100
AcDbEntity
  8
0
  6
HIDDEN
 62
     7
370
     0
100
AcDbSpline
210
0.0
220
0.0
230
1.0
 70
    11
 71
     3
 72
    60
 73
    56
 74
     0
 42
0.000000001
 43
0.00000001
 40
0.0
 40
0.0
 40
0.0
 40
0.0
 40
0.0312500000000002
 40
0.0312500000000002
 40
0.0625000000000004
 40
0.0625000000000004
 40
0.1250000000000003
 40
0.1250000000000003
 40
0.1875000000000002
 40
0.1875000000000002
 40
0.2187500000000001
 40
0.2187500000000001
 40
0.2499999999999999
 40
0.2499999999999999
 40
0.2812499999999997
 40
0.2812499999999997
 40
0.3124999999999996
 40
0.3124999999999996
 40
0.3437499999999994
 40
0.3437499999999994
 40
0.3749999999999993
 40
0.3749999999999993
 40
0.4062499999999991
 40
0.4062499999999991
 40
0.4374999999999989
 40
0.4374999999999989
 40
0.4999999999999987
 40
0.4999999999999987
 40
0.5312499999999988
 40
0.5312499999999988
 40
0.5624999999999988
 40
0.5624999999999988
 40
0.5937499999999989
 40
0.5937499999999989
 40
0.6249999999999989
 40
0.6249999999999989
 40
0.656249999999999
 40
0.656249999999999
 40
0.6874999999999991
 40
0.6874999999999991
 40
0.7187499999999991
 40
0.7187499999999991
 40
0.7499999999999992
 40
0.7499999999999992
 40
0.8124999999999994
 40
0.8124999999999994
 40
0.8437499999999997
 40
0.8437499999999997
 40
0.8749999999999998
 40
0.8749999999999998
 40
0.90625
 40
0.90625
 40
0.9375000000000002
 40
0.9375000000000002
 40
1.0
 40
1.0
 40
1.0
 40
1.0
 10
174.9816325532867
 20
107.2557495274486
 30
0.0
 10
174.8714396423164
 20
107.2557495274486
 30
0.0
 10
174.763330439029
 20
107.2644247965392
 30
0.0
 10
174.5510252845426
 20
107.2984410940826
 30
0.0
 10
174.4457166210836
 20
107.3242451391797
 30
0.0
 10
174.1469186604751
 20
107.4250626912922
 30
0.0
 10
173.965496456089
 20
107.524898708098
 30
0.0
 10
173.6642905554321
 20
107.7785346232174
 30
0.0
 10
173.5417360766399
 20
107.9352434256102
 30
0.0
 10
173.4176026260207
 20
108.1992864999368
 30
0.0
 10
173.3852995091847
 20
108.2939092585857
 30
0.0
 10
173.3424498473528
 20
108.4889970548341
 30
0.0
 10
173.3317046798403
 20
108.5888878785538
 30
0.0
 10
173.3315611434872
 20
108.7935154133334
 30
0.0
 10
173.3425442645236
 20
108.8988094516809
 30
0.0
 10
173.3852159240509
 20
109.1042128884099
 30
0.0
 10
173.4167788181583
 20
109.2055538757592
 30
0.0
 10
173.500743913646
 20
109.4051515570772
 30
0.0
 10
173.5517784666467
 20
109.500163107101
 30
0.0
 10
173.6710117974255
 20
109.6806480180464
 30
0.0
 10
173.74007085476
 20
109.7669074262156
 30
0.0
 10
173.8913693786144
 20
109.9236473643554
 30
0.0
 10
173.9736020833694
 20
109.9945377245485
 30
0.0
 10
174.1517146005176
 20
110.1206905892046
 30
0.0
 10
174.2478494847218
 20
110.1757361873223
 30
0.0
 10
174.5450961698407
 20
110.3084009608798
 30
0.0
 10
174.7641539106197
 20
110.3566624766486
 30
0.0
 10
175.0896075855075
 20
110.3567713978446
 30
0.0
 10
175.1994441867006
 20
110.3450076728847
 30
0.0
 10
175.413376483683
 20
110.2986016106563
 30
0.0
 10
175.5166161446265
 20
110.2644625677454
 30
0.0
 10
175.716045201189
 20
110.1754554177119
 30
0.0
 10
175.8121377084625
 20
110.1203035469961
 30
0.0
 10
175.9896817580285
 20
109.9944954971558
 30
0.0
 10
176.0723783251417
 20
109.9232841013192
 30
0.0
 10
176.2248528835068
 20
109.7650505193072
 30
0.0
 10
176.2925298045486
 20
109.6802592366451
 30
0.0
 10
176.4115074688173
 20
109.5001017507497
 30
0.0
 10
176.4632517520175
 20
109.4035552923894
 30
0.0
 10
176.5464284586737
 20
109.205549822129
 30
0.0
 10
176.5779394956227
 20
109.1046165661136
 30
0.0
 10
176.6206751030745
 20
108.8991534772763
 30
0.0
 10
176.6316808074947
 20
108.7937410866796
 30
0.0
 10
176.6315355544911
 20
108.4871179449391
 30
0.0
 10
176.5871826659068
 20
108.2874734722853
 30
0.0
 10
176.4625974576252
 20
108.0226649801138
 30
0.0
 10
176.4108136439591
 20
107.9385648080003
 30
0.0
 10
176.2908559656289
 20
107.7844792353568
 30
0.0
 10
176.2230049036332
 20
107.7144328971803
 30
0.0
 10
176.071479164878
 20
107.5871000452177
 30
0.0
 10
175.9875098916151
 20
107.5299360504625
 30
0.0
 10
175.8100186232761
 20
107.4322554732453
 30
0.0
 10
175.7157370883219
 20
107.3910074647699
 30
0.0
 10
175.4148519810925
 20
107.2898142178375
 30
0.0
 10
175.2020183752273
 20
107.2557495274486
 30
0.0
 10
174.9816325532867
 20
107.2557495274486
 30
0.0
  0
ELLIPSE
  5
F2
330
1F
100
AcDbEntity
  8
0
  6
HIDDEN
 62
     7
370
     0
100
AcDbEllipse
 10
174.9816325533
 20
103.2582190575
 30
0.0
 11
1.383467579512143
 21
1.753907414218489
 31
0.0
210
0.0
220
0.0
230
1.0
 40
0.5126701559
 41
0.9829735846098984
 42
0.994460710832376
  0
SPLINE
  5
F3
330
1F
100
AcDbEntity
  8
0
  6
HIDDEN
 62
     7
370
     0
100
AcDbSpline
210
0.0
220
0.0
230
1.0
 70
     8
 71
     3
 72
     8
 73
     4
 74
     0
 42
0.000000001
 43
0.00000001
 40
0.0
 40
0.0
 40
0.0
 40
0.0
 40
1.0
 40
1.0
 40
1.0
 40
1.0
 10
175.000585894719
 20
104.8210622076716
 30
0.0
 10
175.0175847787984
 20
104.8130789341583
 30
0.0
 10
175.0345889233394
 20
104.8043425317105
 30
0.0
 10
175.0515736494417
 20
104.794865679873
 30
0.0
  0
ELLIPSE
  5
F4
330
1F
100
AcDbEntity
  8
0
  6
HIDDEN
 62
     7
370
     0
100
AcDbEllipse
 10
174.9816325533
 20
103.2582190575
 30
0.0
 11
1.383467579512143
 21
-1.091267719176599
 31
0.0
210
0.0
220
0.0
230
1.0
 40
0.8239737799
 41
2.104730695479081
 42
2.147131942757414
  0
ELLIPSE
  5
F5
330
1F
100
AcDbEntity
  8
0
  6
HIDDEN
 62
     7
370
     0
100
AcDbEllipse
 10
174.9816325533
 20
103.2582190575
 30
0.0
 11
1.383467579512143
 21
-1.091267719176599
 31
0.0
210
0.0
220
0.0
230
1.0
 40
0.8239737799
 41
5.28872459634722
 42
5.331125843625554
  0
SPLINE
  5
F6
330
1F
100
AcDbEntity
  8
0
  6
HIDDEN
 62
     7
370
     0
100
AcDbSpline
210
0.0
220
0.0
230
1.0
 70
     8
 71
     3
 72
     8
 73
     4
 74
     0
 42
0.000000001
 43
0.00000001
 40
0.0
 40
0.0
 40
0.0
 40
0.0
 40
1.0
 40
1.0
 40
1.0
 40
1.0
 10
175.0515736494417
 20
101.6966671916396
 30
0.0
 10
175.0345889233395
 20
101.7037829016894
 30
0.0
 10
175.0175847787984
 20
101.711658031211
 30
0.0
 10
175.000585894719
 20
101.7202811506653
 30
0.0
  0
ELLIPSE
  5
F7
330
1F
100
AcDbEntity
  8
0
  6
HIDDEN
 62
     7
370
     0
100
AcDbEllipse
 10
174.9816325533
 20
103.2582190575
 30
0.0
 11
1.383467579512143
 21
1.753907414218489
 31
0.0
210
0.0
220
0.0
230
1.0
 40
0.5126701559
 41
4.136053364422182
 42
4.147540490644659
  0
CIRCLE
  5
F8
330
1F
100
AcDbEntity
  8
0
  6
HIDDEN
 62
     7
370
     0
100
AcDbCircle
 10
215.3816325533
 20
110.145809118
 30
0.0
 40
2.100000000000009
  0
LINE
  5
F9
330
1F
100
AcDbEntity
  8
0
  6
HIDDEN
 62
     7
370
     0
100
AcDbLine
 10
165.1816324724
 20
134.9458098303
 30
0.0
 11
165.5188909194
 21
134.9458098303
 31
0.0
  0
ELLIPSE
  5
FA
330
1F
100
AcDbEntity
  8
0
  6
HIDDEN
 62
     7
370
     0
100
AcDbEllipse
 10
165.5188908535
 20
136.545809118
 30
0.0
 11
0.0
 21
1.600000000000023
 31
0.0
210
0.0
220
0.0
230
1.0
 40
0.4142135624
 41
3.141592653589793
 42
4.712388980384695
  0
LINE
  5
FB
330
1F
100
AcDbEntity
  8
0
  6
HIDDEN
 62
     7
370
     0
100
AcDbLine
 10
165.5188909194
 20
87.5458083938
 30
0.0
 11
165.1816324724
 21
87.5458083938
 31
0.0
  0
ELLIPSE
  5
FC
330
1F
100
AcDbEntity
  8
0
  6
HIDDEN
 62
     7
370
     0
100
AcDbEllipse
 10
165.5188908535
 20
85.945809118
 30
0.0
 11
0.0
 21
1.600000000000009
 31
0.0
210
0.0
220
0.0
230
1.0
 40
0.4142135624
 41
4.712388980384695
 42
6.283185307179586
  0
LINE
  5
FD
330
1F
100
AcDbEntity
  8
0
  6
HIDDEN
 62
     7
370
     0
100
AcDbLine
 10
166.1816324035
 20
80.2523605417
 30
0.0
 11
165.3977770752
 21
79.7940790545
 31
0.0
  0
LINE
  5
FE
330
1F
100
AcDbEntity
  8
0
  6
HIDDEN
 62
     7
370
     0
100
AcDbLine
 10
165.4688742405
 20
140.5711062144
 30
0.0
 11
166.1816324035
 21
139.8583464216
 31
0.0
  0
LINE
  5
FF
330
1F
100
AcDbEntity
  8
0
  6
HIDDEN
 62
     7
370
     0
100
AcDbLine
 10
100.7316313612
 20
101.6458086561
 30
0.0
 11
100.7316313612
 21
118.6458095799
 31
0.0
  0
LINE
  5
100
330
1F
100
AcDbEntity
  8
0
  6
HIDDEN
 62
     7
370
     0
100
AcDbLine
 10
103.7275619733
 20
103.1458089019
 30
0.0
 11
103.7275619733
 21
117.1458093341
 31
0.0
  0
LINE
  5
101
330
1F
100
AcDbEntity
  8
0
  6
HIDDEN
 62
     7
370
     0
100
AcDbLine
 10
170.0168425145
 20
80.2523605417
 30
0.0
 11
166.1816324035
 21
80.2523605417
 31
0.0
  0
LINE
  5
102
330
1F
100
AcDbEntity
  8
0
  6
HIDDEN
 62
     7
370
     0
100
AcDbLine
 10
181.0316327887
 20
80.2523605417
 30
0.0
 11
176.1464221331
 21
80.2523605417
 31
0.0
  0
LINE
  5
103
330
1F
100
AcDbEntity
  8
0
  6
HIDDEN
 62
     7
370
     0
100
AcDbLine
 10
166.1816324035
 20
80.2523605417
 30
0.0
 11
166.1816324035
 21
85.9458092491
 31
0.0
  0
LINE
  5
104
330
1F
100
AcDbEntity
  8
0
  6
HIDDEN
 62
     7
370
     0
100
AcDbLine
 10
181.0316327887
 20
87.5458083938
 30
0.0
 11
165.5188909194
 21
87.5458083938
 31
0.0
  0
LINE
  5
105
330
1F
100
AcDbEntity
  8
0
  6
HIDDEN
 62
     7
370
     0
100
AcDbLine
 10
166.1816324035
 20
139.8583464216
 30
0.0
 11
170.117677741
 21
139.8583464216
 31
0.0
  0
LINE
  5
106
330
1F
100
AcDbEntity
  8
0
  6
HIDDEN
 62
     7
370
     0
100
AcDbLine
 10
176.0455869066
 20
139.8583464216
 30
0.0
 11
181.0316327887
 21
139.8583464216
 31
0.0
  0
LINE
  5
107
330
1F
100
AcDbEntity
  8
0
  6
HIDDEN
 62
     7
370
     0
100
AcDbLine
 10
166.1816324035
 20
139.8583464216
 30
0.0
 11
166.1816324035
 21
136.545808975
 31
0.0
  0
LINE
  5
108
330
1F
100
AcDbEntity
  8
0
  6
HIDDEN
 62
     7
370
     0
100
AcDbLine
 10
165.5188909194
 20
134.9458098303
 30
0.0
 11
181.0316327887
 21
134.9458098303
 31
0.0
  0
LINE
  5
109
330
1F
100
AcDbEntity
  8
0
  6
HIDDEN
 62
     7
370
     0
100
AcDbLine
 10
220.7316324043
 20
106.039020222
 30
0.0
 11
220.7316324043
 21
114.252598014
 31
0.0
  0
LINE
  5
10A
330
1F
100
AcDbEntity
  8
0
  6
HIDDEN
 62
     7
370
     0
100
AcDbLine
 10
136.7316316741
 20
103.1458089019
 30
0.0
 11
136.7316316741
 21
117.1458093341
 31
0.0
  0
LINE
  5
10B
330
1F
100
AcDbEntity
  8
0
  6
HIDDEN
 62
     7
370
     0
100
AcDbLine
 10
138.3839990872
 20
105.895808887
 30
0.0
 11
138.3839990872
 21
114.395809349
 31
0.0
  0
LINE
  5
10C
330
1F
100
AcDbEntity
  8
0
  6
HIDDEN
 62
     7
370
     0
100
AcDbLine
 10
219.4325938749
 20
108.4504108767
 30
0.0
 11
219.4325938749
 21
111.8412073593
 31
0.0
  0
LINE
  5
10D
330
1F
100
AcDbEntity
  8
0
  6
HIDDEN
 62
     7
370
     0
100
AcDbLine
 10
218.7316320764
 20
108.4504108767
 30
0.0
 11
218.7316320764
 21
111.8412073593
 31
0.0
  0
LINE
  5
10E
330
1F
100
AcDbEntity
  8
0
  6
HIDDEN
 62
     7
370
     0
100
AcDbLine
 10
218.7316320764
 20
115.0458091761
 30
0.0
 11
218.7316320764
 21
111.8412073593
 31
0.0
  0
LINE
  5
10F
330
1F
100
AcDbEntity
  8
0
  6
HIDDEN
 62
     7
370
     0
100
AcDbLine
 10
218.7316320764
 20
111.8412073593
 30
0.0
 11
219.4325938749
 21
111.8412073593
 31
0.0
  0
SPLINE
  5
110
330
1F
100
AcDbEntity
  8
0
  6
HIDDEN
 62
     7
370
     0
100
AcDbSpline
210
0.0
220
0.0
230
1.0
 70
     8
 71
     3
 72
    10
 73
     6
 74
     0
 42
0.000000001
 43
0.00000001
 40
0.0
 40
0.0
 40
0.0
 40
0.0
 40
0.5
 40
0.5
 40
1.0
 40
1.0
 40
1.0
 40
1.0
 10
219.43259444761
 20
111.8412073013273
 30
0.0
 10
219.5932489646225
 20
112.1968172943755
 30
0.0
 10
219.7908512901015
 20
112.5319194883842
 30
0.0
 10
220.2329654857438
 20
113.1760868377966
 30
0.0
 10
220.4772413293923
 20
113.4839527177765
 30
0.0
 10
220.7316325532867
 20
113.7771828250238
 30
0.0
  0
LINE
  5
111
330
1F
100
AcDbEntity
  8
0
  6
HIDDEN
 62
     7
370
     0
100
AcDbLine
 10
221.0491873252
 20
117.2368014123
 30
0.0
 11
220.9767118024
 21
117.225711223
 31
0.0
  0
LINE
  5
112
330
1F
100
AcDbEntity
  8
0
  6
HIDDEN
 62
     7
370
     0
100
AcDbLine
 10
218.7316320764
 20
117.225711223
 30
0.0
 11
220.9767118024
 21
117.225711223
 31
0.0
  0
LINE
  5
113
330
1F
100
AcDbEntity
  8
0
  6
HIDDEN
 62
     7
370
     0
100
AcDbLine
 10
218.7316320764
 20
117.2458091642
 30
0.0
 11
218.7316320764
 21
115.0458091761
 31
0.0
  0
LINE
  5
114
330
1F
100
AcDbEntity
  8
0
  6
HIDDEN
 62
     7
370
     0
100
AcDbLine
 10
218.7316320764
 20
108.4504108767
 30
0.0
 11
218.7316320764
 21
105.2458090599
 31
0.0
  0
LINE
  5
115
330
1F
100
AcDbEntity
  8
0
  6
HIDDEN
 62
     7
370
     0
100
AcDbLine
 10
219.4325938749
 20
108.4504108767
 30
0.0
 11
218.7316320764
 21
108.4504108767
 31
0.0
  0
SPLINE
  5
116
330
1F
100
AcDbEntity
  8
0
  6
HIDDEN
 62
     7
370
     0
100
AcDbSpline
210
0.0
220
0.0
230
1.0
 70
     8
 71
     3
 72
    10
 73
     6
 74
     0
 42
0.000000001
 43
0.00000001
 40
0.0
 40
0.0
 40
0.0
 40
0.0
 40
0.5
 40
0.5
 40
1.0
 40
1.0
 40
1.0
 40
1.0
 10
220.7316325532864
 20
106.5144354109935
 30
0.0
 10
220.4753316881557
 20
106.8098667117251
 30
0.0
 10
220.2309052820206
 20
107.1183452477059
 30
0.0
 10
219.7903249665357
 20
107.760654615134
 30
0.0
 10
219.5931402899758
 20
108.0950414937972
 30
0.0
 10
219.4325944476099
 20
108.4504109346901
 30
0.0
  0
LINE
  5
117
330
1F
100
AcDbEntity
  8
0
  6
HIDDEN
 62
     7
370
     0
100
AcDbLine
 10
220.9767118024
 20
103.065907013
 30
0.0
 11
221.0491873252
 21
103.0548168238
 31
0.0
  0
LINE
  5
118
330
1F
100
AcDbEntity
  8
0
  6
HIDDEN
 62
     7
370
     0
100
AcDbLine
 10
218.7316320764
 20
103.065907013
 30
0.0
 11
220.9767118024
 21
103.065907013
 31
0.0
  0
LINE
  5
119
330
1F
100
AcDbEntity
  8
0
  6
HIDDEN
 62
     7
370
     0
100
AcDbLine
 10
218.7316320764
 20
105.2458090599
 30
0.0
 11
218.7316320764
 21
103.0458090718
 31
0.0
  0
LINE
  5
11A
330
1F
100
AcDbEntity
  8
0
  6
HIDDEN
 62
     7
370
     0
100
AcDbLine
 10
218.2316310632
 20
104.6458091478
 30
0.0
 11
218.2316310632
 21
115.6458090882
 31
0.0
  0
LINE
  5
11B
330
1F
100
AcDbEntity
  8
0
  6
HIDDEN
 62
     7
370
     0
100
AcDbLine
 10
209.0816326367
 20
105.045808934
 30
0.0
 11
209.0816326367
 21
115.2458060424
 31
0.0
  0
LINE
  5
11C
330
1F
100
AcDbEntity
  8
0
  6
HIDDEN
 62
     7
370
     0
100
AcDbLine
 10
211.0816329646
 20
104.6458091478
 30
0.0
 11
211.0816329646
 21
115.6458090882
 31
0.0
  0
SPLINE
  5
11D
330
1F
100
AcDbEntity
  8
0
  6
HIDDEN
 62
     7
370
     0
100
AcDbSpline
210
0.0
220
0.0
230
1.0
 70
    11
 71
     3
 72
    60
 73
    56
 74
     0
 42
0.000000001
 43
0.00000001
 40
0.0
 40
0.0
 40
0.0
 40
0.0
 40
0.0312499999999997
 40
0.0312499999999997
 40
0.0624999999999995
 40
0.0624999999999995
 40
0.1249999999999989
 40
0.1249999999999989
 40
0.1874999999999984
 40
0.1874999999999984
 40
0.2187499999999983
 40
0.2187499999999983
 40
0.2499999999999981
 40
0.2499999999999981
 40
0.2812499999999979
 40
0.2812499999999979
 40
0.3124999999999977
 40
0.3124999999999977
 40
0.3437499999999977
 40
0.3437499999999977
 40
0.3749999999999976
 40
0.3749999999999976
 40
0.4062499999999974
 40
0.4062499999999974
 40
0.4374999999999973
 40
0.4374999999999973
 40
0.4999999999999971
 40
0.4999999999999971
 40
0.5312499999999973
 40
0.5312499999999973
 40
0.5624999999999974
 40
0.5624999999999974
 40
0.5937499999999977
 40
0.5937499999999977
 40
0.6249999999999978
 40
0.6249999999999978
 40
0.656249999999998
 40
0.656249999999998
 40
0.6874999999999982
 40
0.6874999999999982
 40
0.7187499999999983
 40
0.7187499999999983
 40
0.7499999999999986
 40
0.7499999999999986
 40
0.8124999999999989
 40
0.8124999999999989
 40
0.8437499999999991
 40
0.8437499999999991
 40
0.8749999999999992
 40
0.8749999999999992
 40
0.9062499999999994
 40
0.9062499999999994
 40
0.9374999999999997
 40
0.9374999999999997
 40
1.0
 40
1.0
 40
1.0
 40
1.0
 10
174.9816325532867
 20
109.9348830599754
 30
0.0
 10
175.091825464257
 20
109.9348830599754
 30
0.0
 10
175.1999346675444
 20
109.9467406822801
 30
0.0
 10
175.4122398220309
 20
109.9927464091703
 30
0.0
 10
175.5175484854898
 20
110.027506261484
 30
0.0
 10
175.8163464460984
 20
110.1610600996484
 30
0.0
 10
175.9977686504844
 20
110.2909685127919
 30
0.0
 10
176.2989745511414
 20
110.6034269999023
 30
0.0
 10
176.4215290299335
 20
110.7892044827298
 30
0.0
 10
176.5456624805527
 20
111.0840152312335
 30
0.0
 10
176.5779655973887
 20
111.1869943176546
 30
0.0
 10
176.6208152592206
 20
111.3932719573596
 30
0.0
 10
176.6315604267331
 20
111.4960399422789
 30
0.0
 10
176.6317039630862
 20
111.7007055957973
 30
0.0
 10
176.6207208420498
 20
111.8030596819914
 30
0.0
 10
176.5780491825226
 20
111.9973197909987
 30
0.0
 10
176.5464862884151
 20
112.0904880997423
 30
0.0
 10
176.4625211929274
 20
112.2692716203844
 30
0.0
 10
176.4114866399267
 20
112.3519890120961
 30
0.0
 10
176.292253309148
 20
112.5055406275101
 30
0.0
 10
176.2231942518134
 20
112.5769910882633
 30
0.0
 10
176.0718957279591
 20
112.7042031306507
 30
0.0
 10
175.9896630232041
 20
112.7603460144979
 30
0.0
 10
175.8115505060559
 20
112.8586678273419
 30
0.0
 10
175.7154156218516
 20
112.9006621214932
 30
0.0
 10
175.4181689367327
 20
113.0008012317697
 30
0.0
 10
175.1991111959537
 20
113.0358153396705
 30
0.0
 10
174.8736575210659
 20
113.0358952991305
 30
0.0
 10
174.7638209198728
 20
113.0272898947077
 30
0.0
 10
174.5498886228904
 20
112.9929770992335
 30
0.0
 10
174.4466489619469
 20
112.9676352860388
 30
0.0
 10
174.2472199053844
 20
112.9004501968541
 30
0.0
 10
174.151127398111
 20
112.8583682117954
 30
0.0
 10
173.973583348545
 20
112.7603110562315
 30
0.0
 10
173.8908867814317
 20
112.7039215919077
 30
0.0
 10
173.7384122230666
 20
112.5754705222581
 30
0.0
 10
173.6707353020249
 20
112.505213005625
 30
0.0
 10
173.5517576377561
 20
112.3519336612569
 30
0.0
 10
173.500013354556
 20
112.2678544844975
 30
0.0
 10
173.4168366478997
 20
112.0904716966132
 30
0.0
 10
173.3853256109507
 20
111.9976950543382
 30
0.0
 10
173.3425900034989
 20
111.8033915346866
 30
0.0
 10
173.3315842990788
 20
111.7009251197483
 30
0.0
 10
173.3317295520824
 20
111.3942634033769
 30
0.0
 10
173.3760824406667
 20
111.1824915189784
 30
0.0
 10
173.5006676489483
 20
110.886806177904
 30
0.0
 10
173.5524514626143
 20
110.7902296500649
 30
0.0
 10
173.6724091409445
 20
110.6090654017494
 30
0.0
 10
173.7402602029403
 20
110.5244760830499
 30
0.0
 10
173.8917859416954
 20
110.367578050257
 30
0.0
 10
173.9757552149584
 20
110.2953818193039
 30
0.0
 10
174.1532464832973
 20
110.1700199760749
 30
0.0
 10
174.2475280182516
 20
110.1159536229639
 30
0.0
 10
174.548413125481
 20
109.9818816409479
 30
0.0
 10
174.7612467313461
 20
109.9348830599754
 30
0.0
 10
174.9816325532867
 20
109.9348830599754
 30
0.0
  0
LINE
  5
11E
330
1F
100
AcDbEntity
  8
0
  6
HIDDEN
 62
     7
370
     0
100
AcDbLine
 10
220.9767118024
 20
102.1208092462
 30
0.0
 11
220.9767118024
 21
103.065907013
 31
0.0
  0
LINE
  5
11F
330
1F
100
AcDbEntity
  8
0
  6
HIDDEN
 62
     7
370
     0
100
AcDbLine
 10
220.9767118024
 20
117.225711223
 30
0.0
 11
220.9767118024
 21
118.1708089899
 31
0.0
  0
LINE
  5
120
330
1F
100
AcDbEntity
  8
0
  6
HIDDEN
 62
     7
370
     0
100
AcDbLine
 10
218.7316320764
 20
118.1708089899
 30
0.0
 11
218.7316320764
 21
117.225711223
 31
0.0
  0
LINE
  5
121
330
1F
100
AcDbEntity
  8
0
  6
HIDDEN
 62
     7
370
     0
100
AcDbLine
 10
218.7316320764
 20
103.065907013
 30
0.0
 11
218.7316320764
 21
102.1208092462
 31
0.0
  0
ELLIPSE
  5
122
330
1F
100
AcDbEntity
  8
0
  6
HIDDEN
 62
     7
370
     0
100
AcDbEllipse
 10
174.9816325533
 20
117.0333991786
 30
0.0
 11
-1.383467579512114
 21
1.753907414218503
 31
0.0
210
0.0
220
0.0
230
1.0
 40
0.5126701559
 41
5.288724596347235
 42
8.430317249936998
  0
ELLIPSE
  5
123
330
1F
100
AcDbEntity
  8
0
  6
HIDDEN
 62
     7
370
     0
100
AcDbEllipse
 10
174.9816325533
 20
117.0333991786
 30
0.0
 11
1.383467579512143
 21
1.091267719176585
 31
0.0
210
0.0
220
0.0
230
1.0
 40
0.8239737799
 41
0.9520594635583515
 42
0.9944607108323826
  0
SPLINE
  5
124
330
1F
100
AcDbEntity
  8
0
  6
HIDDEN
 62
     7
370
     0
100
AcDbSpline
210
0.0
220
0.0
230
1.0
 70
     8
 71
     3
 72
     8
 73
     4
 74
     0
 42
0.000000001
 43
0.00000001
 40
0.0
 40
0.0
 40
0.0
 40
0.0
 40
1.0
 40
1.0
 40
1.0
 40
1.0
 10
175.0515736494417
 20
118.594951044378
 30
0.0
 10
175.0345889233395
 20
118.5878353343282
 30
0.0
 10
175.0175847787984
 20
118.5799602048066
 30
0.0
 10
175.000585894719
 20
118.5713370853523
 30
0.0
  0
ELLIPSE
  5
125
330
1F
100
AcDbEntity
  8
0
  6
HIDDEN
 62
     7
370
     0
100
AcDbEllipse
 10
174.9816325533
 20
117.0333991786
 30
0.0
 11
-1.383467579512114
 21
1.753907414218503
 31
0.0
210
0.0
220
0.0
230
1.0
 40
0.5126701559
 41
5.277237470124752
 42
5.288724596347247
  0
ELLIPSE
  5
126
330
1F
100
AcDbEntity
  8
0
  6
HIDDEN
 62
     7
370
     0
100
AcDbEllipse
 10
174.9816325533
 20
117.0333991786
 30
0.0
 11
1.383467579512143
 21
1.091267719176585
 31
0.0
210
0.0
220
0.0
230
1.0
 40
0.8239737799
 41
0.9944607108323826
 42
4.136053364422172
  0
ELLIPSE
  5
127
330
1F
100
AcDbEntity
  8
0
  6
HIDDEN
 62
     7
370
     0
100
AcDbEllipse
 10
174.9816325533
 20
117.0333991786
 30
0.0
 11
-1.383467579512114
 21
1.753907414218503
 31
0.0
210
0.0
220
0.0
230
1.0
 40
0.5126701559
 41
2.147131942757424
 42
2.158619068979919
  0
SPLINE
  5
128
330
1F
100
AcDbEntity
  8
0
  6
HIDDEN
 62
     7
370
     0
100
AcDbSpline
210
0.0
220
0.0
230
1.0
 70
     8
 71
     3
 72
     8
 73
     4
 74
     0
 42
0.000000001
 43
0.00000001
 40
0.0
 40
0.0
 40
0.0
 40
0.0
 40
1.0
 40
1.0
 40
1.0
 40
1.0
 10
175.000585894719
 20
115.470556028346
 30
0.0
 10
175.0175847787984
 20
115.4785393018593
 30
0.0
 10
175.0345889233394
 20
115.4872757043071
 30
0.0
 10
175.0515736494417
 20
115.4967525561446
 30
0.0
  0
ELLIPSE
  5
129
330
1F
100
AcDbEntity
  8
0
  6
HIDDEN
 62
     7
370
     0
100
AcDbEllipse
 10
174.9816325533
 20
117.0333991786
 30
0.0
 11
1.383467579512143
 21
1.091267719176585
 31
0.0
210
0.0
220
0.0
230
1.0
 40
0.8239737799
 41
4.136053364422172
 42
4.178454611696221
  0
LWPOLYLINE
  5
12A
330
1F
100
AcDbEntity
  8
0
  6
HIDDEN
 62
     7
370
     0
100
AcDbPolyline
 90
       21
 70
   128
 43
0.0
 10
174.9816328215
 20
116.5892197642
 10
175.4915105107
 20
116.6651062559
 10
175.9514786231
 20
116.8853375021
 10
176.3165105062
 20
117.2283557135
 10
176.5508759695
 20
117.6605839174
 10
176.6316328126
 20
118.1397130604
 10
176.5508759695
 20
118.6188412722
 10
176.3165105062
 20
119.0510699417
 10
175.9514786231
 20
119.3940881531
 10
175.4915105107
 20
119.6143189336
 10
174.9816328215
 20
119.690205891
 10
174.471754201
 20
119.6143189336
 10
174.0117870199
 20
119.3940881531
 10
173.6467542055
 20
119.0510699417
 10
173.4123896735
 20
118.6188412722
 10
173.3316328304
 20
118.1397130604
 10
173.4123896735
 20
117.6605839174
 10
173.6467542055
 20
117.2283557135
 10
174.0117870199
 20
116.8853375021
 10
174.471754201
 20
116.6651062559
 10
174.9816328215
 20
116.5892197642
  0
LINE
  5
12B
330
1F
100
AcDbEntity
  8
0
  6
HIDDEN
 62
     7
370
     0
100
AcDbLine
 10
171.1716322156
 20
132.3430500816
 30
0.0
 11
171.1716322156
 21
128.4958086799
 31
0.0
  0
LINE
  5
12C
330
1F
100
AcDbEntity
  8
0
  6
HIDDEN
 62
     7
370
     0
100
AcDbLine
 10
174.991632432
 20
132.3430500816
 30
0.0
 11
174.991632432
 21
128.4958086799
 31
0.0
  0
SPLINE
  5
12D
330
1F
100
AcDbEntity
  8
0
  6
HIDDEN
 62
     7
370
     0
100
AcDbSpline
210
0.0
220
0.0
230
1.0
 70
     8
 71
     3
 72
    14
 73
    10
 74
     0
 42
0.000000001
 43
0.00000001
 40
0.0
 40
0.0
 40
0.0
 40
0.0
 40
0.25
 40
0.25
 40
0.5
 40
0.5
 40
0.75
 40
0.75
 40
1.0
 40
1.0
 40
1.0
 40
1.0
 10
174.1916325532866
 20
121.4282883081169
 30
0.0
 10
174.2893148044006
 20
121.4668106221493
 30
0.0
 10
174.3914283134379
 20
121.504425981608
 30
0.0
 10
174.5836004846068
 20
121.5755347071949
 30
0.0
 10
174.6750191579337
 20
121.609740757699
 30
0.0
 10
174.8265351469479
 20
121.676630236056
 30
0.0
 10
174.8876823494868
 20
121.7099006986169
 30
0.0
 10
174.9703890511752
 20
121.7792990487107
 30
0.0
 10
174.9916325532867
 20
121.8150761543067
 30
0.0
 10
174.9916325532867
 20
121.8515714865574
 30
0.0
  0
LINE
  5
12E
330
1F
100
AcDbEntity
  8
0
  6
HIDDEN
 62
     7
370
     0
100
AcDbLine
 10
174.991632432
 20
102.1445263068
 30
0.0
 11
174.991632432
 21
98.3858033906
 31
0.0
  0
SPLINE
  5
12F
330
1F
100
AcDbEntity
  8
0
  6
HIDDEN
 62
     7
370
     0
100
AcDbSpline
210
0.0
220
0.0
230
1.0
 70
     8
 71
     3
 72
    14
 73
    10
 74
     0
 42
0.000000001
 43
0.00000001
 40
0.0
 40
0.0
 40
0.0
 40
0.0
 40
0.2500000000000005
 40
0.2500000000000005
 40
0.5000000000000003
 40
0.5000000000000003
 40
0.7500000000000001
 40
0.7500000000000001
 40
1.0
 40
1.0
 40
1.0
 40
1.0
 10
174.9916325532867
 20
118.0928479883384
 30
0.0
 10
174.9916325532867
 20
118.0563590574311
 30
0.0
 10
174.9704631771144
 20
118.0198602656973
 30
0.0
 10
174.8877175592621
 20
117.9544849179604
 30
0.0
 10
174.8268639344343
 20
117.9265480836141
 30
0.0
 10
174.6752590677432
 20
117.8926570543674
 30
0.0
 10
174.584036757276
 20
117.8872316017809
 30
0.0
 10
174.3917062075728
 20
117.9081509255935
 30
0.0
 10
174.2894553230958
 20
117.9347070730339
 30
0.0
 10
174.1916325532866
 20
117.9751768313397
 30
0.0
  0
LINE
  5
130
330
1F
100
AcDbEntity
  8
0
  6
HIDDEN
 62
     7
370
     0
100
AcDbLine
 10
169.559795961
 20
136.0560394715
 30
0.0
 11
169.559795961
 21
128.4958086799
 31
0.0
  0
LINE
  5
131
330
1F
100
AcDbEntity
  8
0
  6
HIDDEN
 62
     7
370
     0
100
AcDbLine
 10
176.6034696179
 20
100.3937888782
 30
0.0
 11
176.6034696179
 21
98.1943094994
 31
0.0
  0
LINE
  5
132
330
1F
100
AcDbEntity
  8
0
  6
HIDDEN
 62
     7
370
     0
100
AcDbLine
 10
176.6034696179
 20
136.0560394715
 30
0.0
 11
176.6034696179
 21
128.4958086799
 31
0.0
  0
SPLINE
  5
133
330
1F
100
AcDbEntity
  8
0
  6
HIDDEN
 62
     7
370
     0
100
AcDbSpline
210
0.0
220
0.0
230
1.0
 70
     8
 71
     3
 72
    10
 73
     6
 74
     0
 42
0.000000001
 43
0.00000001
 40
0.0
 40
0.0
 40
0.0
 40
0.0
 40
0.5
 40
0.5
 40
1.0
 40
1.0
 40
1.0
 40
1.0
 10
173.0057417906463
 20
117.8923482874776
 30
0.0
 10
172.9901357396651
 20
117.9976204880861
 30
0.0
 10
172.9816312766365
 20
118.101558985877
 30
0.0
 10
172.9816338302262
 20
118.301072257833
 30
0.0
 10
172.9901314178267
 20
118.3922847525034
 30
0.0
 10
173.0057417906463
 20
118.4742166848465
 30
0.0
  0
SPLINE
  5
134
330
1F
100
AcDbEntity
  8
0
  6
HIDDEN
 62
     7
370
     0
100
AcDbSpline
210
0.0
220
0.0
230
1.0
 70
     8
 71
     3
 72
    14
 73
    10
 74
     0
 42
0.000000001
 43
0.00000001
 40
0.0
 40
0.0
 40
0.0
 40
0.0
 40
0.25
 40
0.25
 40
0.5
 40
0.5
 40
0.75
 40
0.75
 40
1.0
 40
1.0
 40
1.0
 40
1.0
 10
173.0057417906463
 20
118.4742166848465
 30
0.0
 10
173.0421056186765
 20
118.4287220494447
 30
0.0
 10
173.0745833458867
 20
118.3803302432284
 30
0.0
 10
173.1233369753024
 20
118.2748450992989
 30
0.0
 10
173.1382407529769
 20
118.218260591056
 30
0.0
 10
173.1382511866345
 20
118.1093729971056
 30
0.0
 10
173.1233608908263
 20
118.057188331343
 30
0.0
 10
173.0744719599488
 20
117.9659109323994
 30
0.0
 10
173.0420997816784
 20
117.9272442270253
 30
0.0
 10
173.0057417906463
 20
117.8923482874776
 30
0.0
  0
LWPOLYLINE
  5
135
330
1F
100
AcDbEntity
  8
0
  6
HIDDEN
 62
     7
370
     0
100
AcDbPolyline
 90
       21
 70
   128
 43
0.0
 10
165.8133599835
 20
118.1258549805
 10
165.9413088041
 20
117.7508784349
 10
166.1455115231
 20
117.4993361238
 10
166.4059796299
 20
117.3958508189
 10
166.6972163061
 20
117.4505515847
 10
166.9907133023
 20
117.6580847132
 10
167.2577416452
 20
117.9981352653
 10
167.4721619042
 20
118.4374159093
 10
167.6129857937
 20
118.9329279478
 10
167.6664283427
 20
119.4361662383
 10
167.6272583122
 20
119.8978712674
 10
167.4993094916
 20
120.2728468816
 10
167.2951067726
 20
120.5243896584
 10
167.0346391315
 20
120.627875429
 10
166.7434024552
 20
120.5731741975
 10
166.4499049934
 20
120.365641069
 10
166.1828771162
 20
120.0255909826
 10
165.9684563915
 20
119.5863094072
 10
165.827632502
 20
119.0907983001
 10
165.774189953
 20
118.5875590782
 10
165.8133599835
 20
118.1258549805
  0
LWPOLYLINE
  5
136
330
1F
100
AcDbEntity
  8
0
  6
HIDDEN
 62
     7
370
     0
100
AcDbPolyline
 90
       22
 70
   128
 43
0.0
 10
173.0057416412
 20
117.8923481967
 10
173.1719799268
 20
117.3830763328
 10
173.4836013916
 20
116.938091338
 10
173.9155711534
 20
116.5931424949
 10
174.4331862705
 20
116.3759413067
 10
174.9948622587
 20
116.3039384301
 10
175.5554746764
 20
116.3829173784
 10
176.0699866268
 20
116.6065339822
 10
176.4970632198
 20
116.9568230289
 10
176.8023926693
 20
117.4056432101
 10
176.9614458012
 20
117.9169369753
 10
176.9614458012
 20
118.4496283422
 10
176.8023926693
 20
118.9609216417
 10
176.4970632198
 20
119.4097418229
 10
176.0699866268
 20
119.7600308697
 10
175.5554746764
 20
119.9836470078
 10
174.9948622587
 20
120.0626268874
 10
174.4331862705
 20
119.9906235452
 10
173.9155711534
 20
119.773422357
 10
173.4836013916
 20
119.4284735139
 10
173.1719799268
 20
118.983488519
 10
173.0057416412
 20
118.4742171209
  0
SPLINE
  5
137
330
1F
100
AcDbEntity
  8
0
  6
HIDDEN
 62
     7
370
     0
100
AcDbSpline
210
0.0
220
0.0
230
1.0
 70
     8
 71
     3
 72
    12
 73
     8
 74
     0
 42
0.000000001
 43
0.00000001
 40
0.0
 40
0.0
 40
0.0
 40
0.0
 40
0.2499999999999992
 40
0.2499999999999992
 40
0.4999999999999983
 40
0.4999999999999983
 40
1.0
 40
1.0
 40
1.0
 40
1.0
 10
176.6034691953434
 20
122.0973089162158
 30
0.0
 10
176.726416689139
 20
121.9393520675207
 30
0.0
 10
176.8199608922478
 20
121.7675187005431
 30
0.0
 10
176.9489002814101
 20
121.3958459908973
 30
0.0
 10
176.9814530387952
 20
121.2026575447061
 30
0.0
 10
176.981989380529
 20
120.6143610064298
 30
0.0
 10
176.849365723561
 20
120.2223427685411
 30
0.0
 10
176.6034691953435
 20
119.8978291858324
 30
0.0
  0
SPLINE
  5
138
330
1F
100
AcDbEntity
  8
0
  6
HIDDEN
 62
     7
370
     0
100
AcDbSpline
210
0.0
220
0.0
230
1.0
 70
     8
 71
     3
 72
    12
 73
     8
 74
     0
 42
0.000000001
 43
0.00000001
 40
0.0
 40
0.0
 40
0.0
 40
0.0
 40
0.2499999999999997
 40
0.2499999999999997
 40
0.4999999999999993
 40
0.4999999999999993
 40
1.0
 40
1.0
 40
1.0
 40
1.0
 10
176.6034691953434
 20
119.8978291858324
 30
0.0
 10
176.4885731440828
 20
119.6780887507759
 30
0.0
 10
176.3618071276101
 20
119.4811203991541
 30
0.0
 10
176.1015921939916
 20
119.1274028263152
 30
0.0
 10
175.9680847360294
 20
118.970577532443
 30
0.0
 10
175.5596864674412
 20
118.5440349615353
 30
0.0
 10
175.2760333325036
 20
118.3173427825801
 30
0.0
 10
174.9916325532868
 20
118.1470916381846
 30
0.0
  0
SPLINE
  5
139
330
1F
100
AcDbEntity
  8
0
  6
HIDDEN
 62
     7
370
     0
100
AcDbSpline
210
0.0
220
0.0
230
1.0
 70
     8
 71
     3
 72
    12
 73
     8
 74
     0
 42
0.000000001
 43
0.00000001
 40
0.0
 40
0.0
 40
0.0
 40
0.0
 40
0.5000000000000013
 40
0.5000000000000013
 40
0.7500000000000007
 40
0.7500000000000007
 40
1.0
 40
1.0
 40
1.0
 40
1.0
 10
174.9916325532867
 20
121.9058151364057
 30
0.0
 10
175.275839087852
 20
122.0732792986994
 30
0.0
 10
175.5545348219558
 20
122.184916398211
 30
0.0
 10
175.9638808651451
 20
122.2522296638504
 30
0.0
 10
176.1000202024646
 20
122.2573807038643
 30
0.0
 10
176.3613402514607
 20
122.219614766245
 30
0.0
 10
176.4867614338924
 20
122.1780650079007
 30
0.0
 10
176.6034691953439
 20
122.0973089162179
 30
0.0
  0
SPLINE
  5
13A
330
1F
100
AcDbEntity
  8
0
  6
HIDDEN
 62
     7
370
     0
100
AcDbSpline
210
0.0
220
0.0
230
1.0
 70
     8
 71
     3
 72
    22
 73
    18
 74
     0
 42
0.000000001
 43
0.00000001
 40
0.0
 40
0.0
 40
0.0
 40
0.0
 40
0.125
 40
0.125
 40
0.25
 40
0.25
 40
0.375
 40
0.375
 40
0.5
 40
0.5
 40
0.625
 40
0.625
 40
0.75
 40
0.75
 40
0.875
 40
0.875
 40
1.0
 40
1.0
 40
1.0
 40
1.0
 10
174.1916325532867
 20
117.9751768313397
 30
0.0
 10
174.0116158587173
 20
118.0496506183162
 30
0.0
 10
173.847184036847
 20
118.1470998803003
 30
0.0
 10
173.5487878030884
 20
118.3864693138646
 30
0.0
 10
173.4184840757236
 20
118.5263659259351
 30
0.0
 10
173.2052652921046
 20
118.8346175159953
 30
0.0
 10
173.1216374349931
 20
119.0047807341145
 30
0.0
 10
173.0105065580749
 20
119.355275468905
 30
0.0
 10
172.9816705632212
 20
119.5404004300564
 30
0.0
 10
172.9815946205616
 20
119.9036073046736
 30
0.0
 10
173.0102532459888
 20
120.0869773183812
 30
0.0
 10
173.1214043391014
 20
120.4328684308745
 30
0.0
 10
173.2044714597454
 20
120.5983879581419
 30
0.0
 10
173.4181574178641
 20
120.8989276955457
 30
0.0
 10
173.5471644077884
 20
121.0327996168297
 30
0.0
 10
173.846773687278
 20
121.2640463862338
 30
0.0
 10
174.0116163855372
 20
121.3572965028926
 30
0.0
 10
174.1916325532867
 20
121.4282883081169
 30
0.0
  0
LWPOLYLINE
  5
13B
330
1F
100
AcDbEntity
  8
0
  6
HIDDEN
 62
     7
370
     0
100
AcDbPolyline
 90
       24
 70
   128
 43
0.0
 10
165.4318441565
 20
117.9163465168
 10
165.5674994385
 20
117.4933058101
 10
165.7787029094
 20
117.1852722655
 10
166.0497906546
 20
117.0150912258
 10
166.3606568168
 20
116.9953849058
 10
166.6882462728
 20
117.1276145506
 10
167.0082636105
 20
117.4019733335
 10
167.2969740743
 20
117.7981132533
 10
167.5329651612
 20
118.2866543423
 10
167.6987349915
 20
118.8313634957
 10
167.7819891761
 20
119.3918427344
 10
167.7765525805
 20
119.9265243377
 10
167.6828289332
 20
120.3957516591
 10
167.5077691602
 20
120.7647258307
 10
167.2643563638
 20
121.0060808699
 10
166.9706437665
 20
121.1019167568
 10
166.6484145376
 20
121.0451256375
 10
166.32156688
 20
120.8399208154
 10
166.0143417234
 20
120.50151917
 10
165.7495241074
 20
120.055020776
 10
165.5467549267
 20
119.5335378762
 10
165.4210724796
 20
118.9757482971
 10
165.3817979081
 20
118.4230204563
 10
165.4318441565
 20
117.9163465168
  0
LWPOLYLINE
  5
13C
330
1F
100
AcDbEntity
  8
0
  6
HIDDEN
 62
     7
370
     0
100
AcDbPolyline
 90
       20
 70
   128
 43
0.0
 10
176.46190393
 20
118.0979227538
 10
176.3757388967
 20
118.5486446957
 10
176.1385021659
 20
118.9486551921
 10
175.7759001034
 20
119.2546076964
 10
175.3272261399
 20
119.4333452623
 10
174.8411027643
 20
119.4655010368
 10
174.3702074441
 20
119.3475890796
 10
173.9655701372
 20
119.0923880677
 10
173.6710384416
 20
118.7275517623
 10
173.5185297134
 20
118.2926166694
 10
173.5245712029
 20
117.8347146961
 10
173.6885081905
 20
117.4034662436
 10
173.9925747665
 20
117.0456041473
 10
174.4038216698
 20
116.7999082136
 10
174.8776832523
 20
116.6930035579
 10
175.3628091815
 20
116.7364744361
 10
175.8066281604
 20
116.9256106842
 10
176.1610466915
 20
117.2399162206
 10
176.387657963
 20
117.6453311819
 10
176.46190393
 20
118.0979227538
  0
LWPOLYLINE
  5
13D
330
1F
100
AcDbEntity
  8
0
  6
HIDDEN
 62
     7
370
     0
100
AcDbPolyline
 90
       23
 70
   128
 43
0.0
 10
176.9814785498
 20
118.2065820213
 10
176.8934853303
 20
118.7350815053
 10
176.6506057161
 20
119.2188775058
 10
176.2725148278
 20
119.6187753122
 10
175.7898447963
 20
119.9023788686
 10
175.2416981312
 20
120.0467115159
 10
174.6724821555
 20
120.0400795679
 10
174.1283122378
 20
119.8830213289
 10
173.6532734635
 20
119.588260528
 10
173.285849944
 20
119.179676276
 10
173.0558086115
 20
118.6903705712
 10
172.9817861619
 20
118.1599832963
 10
173.0697793814
 20
117.6314838122
 10
173.312659927
 20
117.1476878117
 10
173.6907498839
 20
116.747789074
 10
174.1734199154
 20
116.4641859832
 10
174.7215665805
 20
116.3198538016
 10
175.2907825562
 20
116.326485284
 10
175.8349524739
 20
116.4835439886
 10
176.3099921795
 20
116.7783047895
 10
176.677415699
 20
117.1868885759
 10
176.9074561002
 20
117.6761947464
 10
176.9814785498
 20
118.2065820213
  0
LWPOLYLINE
  5
13E
330
1F
100
AcDbEntity
  8
0
  6
HIDDEN
 62
     7
370
     0
100
AcDbPolyline
 90
       23
 70
   128
 43
0.0
 10
176.9814785498
 20
118.5315009098
 10
176.8934853303
 20
119.0600003938
 10
176.6506057161
 20
119.5437963943
 10
176.2725148278
 20
119.943695132
 10
175.7898447963
 20
120.2272977571
 10
175.2416981312
 20
120.3716304044
 10
174.6724821555
 20
120.3649984564
 10
174.1283122378
 20
120.2079402174
 10
173.6532734635
 20
119.9131794165
 10
173.285849944
 20
119.5045951645
 10
173.0558086115
 20
119.0152894597
 10
172.9817861619
 20
118.4849021848
 10
173.0697793814
 20
117.9564027007
 10
173.312659927
 20
117.4726067002
 10
173.6907498839
 20
117.0727084282
 10
174.1734199154
 20
116.7891053374
 10
174.7215665805
 20
116.6447731558
 10
175.2907825562
 20
116.6514046381
 10
175.8349524739
 20
116.8084628771
 10
176.3099921795
 20
117.1032241437
 10
176.677415699
 20
117.51180793
 10
176.9074561002
 20
118.0011136349
 10
176.9814785498
 20
118.5315009098
  0
LWPOLYLINE
  5
13F
330
1F
100
AcDbEntity
  8
0
  6
HIDDEN
 62
     7
370
     0
100
AcDbPolyline
 90
       20
 70
   128
 43
0.0
 10
176.4815175834
 20
119.4662311937
 10
176.3942116799
 20
119.9229257073
 10
176.1538308042
 20
120.3282372917
 10
175.7864240485
 20
120.6382429119
 10
175.331805453
 20
120.819348831
 10
174.8392410504
 20
120.85193022
 10
174.362105869
 20
120.7324564348
 10
173.952106938
 20
120.4738737907
 10
173.6536730009
 20
120.1042039211
 10
173.4991433027
 20
119.6635058041
 10
173.505264886
 20
119.1995357986
 10
173.6713737177
 20
118.7625741477
 10
173.9794701266
 20
118.3999702226
 10
174.3961652669
 20
118.1510183851
 10
174.8763058263
 20
118.0426971878
 10
175.3678597438
 20
118.086744089
 10
175.8175600248
 20
118.2783869918
 10
176.1766742843
 20
118.5968564715
 10
176.4062872084
 20
119.0076433013
 10
176.4815175834
 20
119.4662311937
  0
LWPOLYLINE
  5
140
330
1F
100
AcDbEntity
  8
0
  6
HIDDEN
 62
     7
370
     0
100
AcDbPolyline
 90
       20
 70
   128
 43
0.0
 10
176.4815175834
 20
118.4627534713
 10
176.3942116799
 20
118.9194479849
 10
176.1538308042
 20
119.324758638
 10
175.7864240485
 20
119.6347642581
 10
175.331805453
 20
119.8158711086
 10
174.8392410504
 20
119.8484524976
 10
174.362105869
 20
119.7289777811
 10
173.952106938
 20
119.4703951369
 10
173.6536730009
 20
119.1007252674
 10
173.4991433027
 20
118.6600271504
 10
173.505264886
 20
118.1960580762
 10
173.6713737177
 20
117.759095494
 10
173.9794701266
 20
117.3964915688
 10
174.3961652669
 20
117.1475401971
 10
174.8763058263
 20
117.0392189997
 10
175.3678597438
 20
117.0832659009
 10
175.8175600248
 20
117.274908338
 10
176.1766742843
 20
117.5933782834
 10
176.4062872084
 20
118.0041646476
 10
176.4815175834
 20
118.4627534713
  0
LWPOLYLINE
  5
141
330
1F
100
AcDbEntity
  8
0
  6
HIDDEN
 62
     7
370
     0
100
AcDbPolyline
 90
       23
 70
   128
 43
0.0
 10
176.9814785498
 20
118.723887008
 10
176.8934853303
 20
119.252386492
 10
176.6506057161
 20
119.7361824925
 10
176.2725148278
 20
120.1360812302
 10
175.7898447963
 20
120.4196847867
 10
175.2416981312
 20
120.5640165027
 10
174.6724821555
 20
120.5573845546
 10
174.1283122378
 20
120.4003263156
 10
173.6532734635
 20
120.1055655147
 10
173.285849944
 20
119.6969812627
 10
173.0558086115
 20
119.2076755579
 10
172.9817861619
 20
118.677288283
 10
173.0697793814
 20
118.1487887989
 10
173.312659927
 20
117.6649932641
 10
173.6907498839
 20
117.2650945264
 10
174.1734199154
 20
116.9814914356
 10
174.7215665805
 20
116.837159254
 10
175.2907825562
 20
116.8437907364
 10
175.8349524739
 20
117.000849441
 10
176.3099921795
 20
117.2956102419
 10
176.677415699
 20
117.7041940282
 10
176.9074561002
 20
118.1934997331
 10
176.9814785498
 20
118.723887008
  0
LWPOLYLINE
  5
142
330
1F
100
AcDbEntity
  8
0
  6
HIDDEN
 62
     7
370
     0
100
AcDbPolyline
 90
       22
 70
   128
 43
0.0
 10
176.8214913013
 20
118.577733625
 10
176.7330277639
 20
119.0863838311
 10
176.4889448809
 20
119.5479342605
 10
176.1109312924
 20
119.9213722612
 10
175.6325742158
 20
120.1735185351
 10
175.096378282
 20
120.2819673236
 10
174.5499862286
 20
120.2370831634
 10
174.0419479015
 20
120.0428530465
 10
173.6174054372
 20
119.7165371741
 10
173.3140801939
 20
119.2871276181
 10
173.1589237156
 20
118.7927815954
 10
173.1657233017
 20
118.2774230729
 10
173.3338745239
 20
117.7868433188
 10
173.648436174
 20
117.3646333519
 10
174.0814583304
 20
117.0483077768
 10
174.5944643321
 20
116.8659739088
 10
175.1418724584
 20
116.8338330354
 10
175.6750425252
 20
116.954740126
 10
176.1466000157
 20
117.217953306
 10
176.5146447274
 20
117.6000838059
 10
176.7464751306
 20
118.0671788643
 10
176.8214913013
 20
118.577733625
  0
LWPOLYLINE
  5
143
330
1F
100
AcDbEntity
  8
0
  6
HIDDEN
 62
     7
370
     0
100
AcDbPolyline
 90
       23
 70
   128
 43
0.0
 10
176.9814785498
 20
118.9162731062
 10
176.8934853303
 20
119.4447735216
 10
176.6506057161
 20
119.9285695221
 10
176.2725148278
 20
120.3284673284
 10
175.7898447963
 20
120.6120708849
 10
175.2416981312
 20
120.7564026009
 10
174.6724821555
 20
120.7497715841
 10
174.1283122378
 20
120.5927133451
 10
173.6532734635
 20
120.2979516129
 10
173.285849944
 20
119.8893682922
 10
173.0558086115
 20
119.4000625874
 10
172.9817861619
 20
118.8696753125
 10
173.0697793814
 20
118.3411758284
 10
173.312659927
 20
117.8573793623
 10
173.6907498839
 20
117.4574810903
 10
174.1734199154
 20
117.1738779995
 10
174.7215665805
 20
117.0295458178
 10
175.2907825562
 20
117.0361773002
 10
175.8349524739
 20
117.1932355392
 10
176.3099921795
 20
117.4879968058
 10
176.677415699
 20
117.8965805921
 10
176.9074561002
 20
118.3858867626
 10
176.9814785498
 20
118.9162731062
  0
LWPOLYLINE
  5
144
330
1F
100
AcDbEntity
  8
0
  6
HIDDEN
 62
     7
370
     0
100
AcDbPolyline
 90
       22
 70
   128
 43
0.0
 10
176.8214913013
 20
118.7701197232
 10
176.7330277639
 20
119.2787699293
 10
176.4889448809
 20
119.7403203587
 10
176.1109312924
 20
120.1137592907
 10
175.6325742158
 20
120.3659046333
 10
175.096378282
 20
120.4743534218
 10
174.5499862286
 20
120.4294692616
 10
174.0419479015
 20
120.2352391447
 10
173.6174054372
 20
119.9089232723
 10
173.3140801939
 20
119.4795146476
 10
173.1589237156
 20
118.9851676937
 10
173.1657233017
 20
118.4698091711
 10
173.3338745239
 20
117.979229417
 10
173.648436174
 20
117.5570194501
 10
174.0814583304
 20
117.2406943406
 10
174.5944643321
 20
117.0583604726
 10
175.1418724584
 20
117.0262191336
 10
175.6750425252
 20
117.1471266899
 10
176.1466000157
 20
117.4103394042
 10
176.5146447274
 20
117.7924703698
 10
176.7464751306
 20
118.2595649625
 10
176.8214913013
 20
118.7701197232
  0
LWPOLYLINE
  5
145
330
1F
100
AcDbEntity
  8
0
  6
HIDDEN
 62
     7
370
     0
100
AcDbPolyline
 90
       23
 70
   128
 43
0.0
 10
176.9814785498
 20
119.1086601357
 10
176.8934853303
 20
119.6371596198
 10
176.6506057161
 20
120.1209556203
 10
176.2725148278
 20
120.5208534266
 10
175.7898447963
 20
120.8044569831
 10
175.2416981312
 20
120.9487896304
 10
174.6724821555
 20
120.9421576823
 10
174.1283122378
 20
120.7850994434
 10
173.6532734635
 20
120.4903386425
 10
173.285849944
 20
120.0817543905
 10
173.0558086115
 20
119.5924486856
 10
172.9817861619
 20
119.0620614107
 10
173.0697793814
 20
118.5335619266
 10
173.312659927
 20
118.0497659262
 10
173.6907498839
 20
117.6498671885
 10
174.1734199154
 20
117.3662640977
 10
174.7215665805
 20
117.221931916
 10
175.2907825562
 20
117.2285633984
 10
175.8349524739
 20
117.3856221031
 10
176.3099921795
 20
117.680382904
 10
176.677415699
 20
118.088967156
 10
176.9074561002
 20
118.5782728608
 10
176.9814785498
 20
119.1086601357
  0
LWPOLYLINE
  5
146
330
1F
100
AcDbEntity
  8
0
  6
HIDDEN
 62
     7
370
     0
100
AcDbPolyline
 90
       22
 70
   128
 43
0.0
 10
176.8214913013
 20
118.9625058214
 10
176.7330277639
 20
119.4711569588
 10
176.4889448809
 20
119.9327064569
 10
176.1109312924
 20
120.3061453889
 10
175.6325742158
 20
120.5582907315
 10
175.096378282
 20
120.66673952
 10
174.5499862286
 20
120.6218553598
 10
174.0419479015
 20
120.4276261742
 10
173.6174054372
 20
120.1013093706
 10
173.3140801939
 20
119.6719007458
 10
173.1589237156
 20
119.1775547232
 10
173.1657233017
 20
118.6621952693
 10
173.3338745239
 20
118.1716164465
 10
173.648436174
 20
117.7494060139
 10
174.0814583304
 20
117.4330804388
 10
174.5944643321
 20
117.2507465708
 10
175.1418724584
 20
117.2186056975
 10
175.6750425252
 20
117.3395127881
 10
176.1466000157
 20
117.6027259681
 10
176.5146447274
 20
117.984856468
 10
176.7464751306
 20
118.4519510607
 10
176.8214913013
 20
118.9625058214
  0
LWPOLYLINE
  5
147
330
1F
100
AcDbEntity
  8
0
  6
HIDDEN
 62
     7
370
     0
100
AcDbPolyline
 90
       23
 70
   128
 43
0.0
 10
176.9814785498
 20
119.3010462339
 10
176.8934853303
 20
119.829545718
 10
176.6506057161
 20
120.3133417185
 10
176.2725148278
 20
120.7132404561
 10
175.7898447963
 20
120.9968430813
 10
175.2416981312
 20
121.1411757286
 10
174.6724821555
 20
121.1345437805
 10
174.1283122378
 20
120.9774855416
 10
173.6532734635
 20
120.6827247407
 10
173.285849944
 20
120.2741404887
 10
173.0558086115
 20
119.7848347838
 10
172.9817861619
 20
119.2544475089
 10
173.0697793814
 20
118.7259480248
 10
173.312659927
 20
118.2421520244
 10
173.6907498839
 20
117.8422537524
 10
174.1734199154
 20
117.5586506616
 10
174.7215665805
 20
117.4143184799
 10
175.2907825562
 20
117.4209499623
 10
175.8349524739
 20
117.5780082013
 10
176.3099921795
 20
117.8727694678
 10
176.677415699
 20
118.2813532542
 10
176.9074561002
 20
118.770658959
 10
176.9814785498
 20
119.3010462339
  0
LWPOLYLINE
  5
148
330
1F
100
AcDbEntity
  8
0
  6
HIDDEN
 62
     7
370
     0
100
AcDbPolyline
 90
       22
 70
   128
 43
0.0
 10
176.8214913013
 20
119.154892851
 10
176.7330277639
 20
119.663543057
 10
176.4889448809
 20
120.1250925551
 10
176.1109312924
 20
120.4985314871
 10
175.6325742158
 20
120.750677761
 10
175.096378282
 20
120.8591265495
 10
174.5499862286
 20
120.814241458
 10
174.0419479015
 20
120.6200122725
 10
173.6174054372
 20
120.2936954688
 10
173.3140801939
 20
119.864286844
 10
173.1589237156
 20
119.3699408214
 10
173.1657233017
 20
118.8545822989
 10
173.3338745239
 20
118.3640025447
 10
173.648436174
 20
117.9417921121
 10
174.0814583304
 20
117.6254670027
 10
174.5944643321
 20
117.4431331347
 10
175.1418724584
 20
117.4109917957
 10
175.6750425252
 20
117.5318993519
 10
176.1466000157
 20
117.7951120663
 10
176.5146447274
 20
118.1772425662
 10
176.7464751306
 20
118.644337159
 10
176.8214913013
 20
119.154892851
  0
LWPOLYLINE
  5
149
330
1F
100
AcDbEntity
  8
0
  6
HIDDEN
 62
     7
370
     0
100
AcDbPolyline
 90
       23
 70
   128
 43
0.0
 10
176.9814785498
 20
119.4378537948
 10
176.8934853303
 20
119.9663542102
 10
176.6506057161
 20
120.4501502107
 10
176.2725148278
 20
120.8500480171
 10
175.7898447963
 20
121.1336515735
 10
175.2416981312
 20
121.2779832895
 10
174.6724821555
 20
121.2713522728
 10
174.1283122378
 20
121.1142940338
 10
173.6532734635
 20
120.8195323016
 10
173.285849944
 20
120.4109489809
 10
173.0558086115
 20
119.9216432761
 10
172.9817861619
 20
119.3912560012
 10
173.0697793814
 20
118.8627565171
 10
173.312659927
 20
118.3789605166
 10
173.6907498839
 20
117.9790617789
 10
174.1734199154
 20
117.6954586881
 10
174.7215665805
 20
117.5511265065
 10
175.2907825562
 20
117.5577579889
 10
175.8349524739
 20
117.7148162279
 10
176.3099921795
 20
118.0095774944
 10
176.677415699
 20
118.4181617464
 10
176.9074561002
 20
118.9074674513
 10
176.9814785498
 20
119.4378537948
  0
LWPOLYLINE
  5
14A
330
1F
100
AcDbEntity
  8
0
  6
HIDDEN
 62
     7
370
     0
100
AcDbPolyline
 90
       22
 70
   128
 43
0.0
 10
176.8814861702
 20
119.4708915319
 10
176.7901383268
 20
119.9961276616
 10
176.5380963611
 20
120.4727282639
 10
176.147755787
 20
120.8583442386
 10
175.6538009199
 20
121.1187131594
 10
175.1001194047
 20
121.2306981798
 10
174.5359111505
 20
121.1843499805
 10
174.0113064575
 20
120.9837868701
 10
173.5729198831
 20
120.646829706
 10
173.2597030627
 20
120.203417715
 10
173.0994876402
 20
119.6929523613
 10
173.1065088811
 20
119.1607881229
 10
173.2801437306
 20
118.6542110409
 10
173.6049620363
 20
118.218233798
 10
174.0521049055
 20
117.8915928941
 10
174.5818393233
 20
117.7033134627
 10
175.1470981094
 20
117.6701243858
 10
175.697654106
 20
117.7949742305
 10
176.1845877322
 20
118.0667700137
 10
176.5646343979
 20
118.4613620754
 10
176.8040243464
 20
118.9436875175
 10
176.8814861702
 20
119.4708915319
  0
LWPOLYLINE
  5
14B
330
1F
100
AcDbEntity
  8
0
  6
HIDDEN
 62
     7
370
     0
100
AcDbPolyline
 90
       15
 70
   128
 43
0.0
 10
172.9915268647
 20
100.6903527196
 10
172.9817861619
 20
100.8537644412
 10
173.0558086115
 20
101.3841507848
 10
173.285849944
 20
101.8734564896
 10
173.6532734635
 20
102.2820407416
 10
174.1283122378
 20
102.5768020082
 10
174.6724821555
 20
102.7338602471
 10
175.2416981312
 20
102.7404917295
 10
175.7898447963
 20
102.5961595479
 10
176.2725148278
 20
102.3125564571
 10
176.6506057161
 20
101.9126577194
 10
176.8934853303
 20
101.4288617189
 10
176.9814785498
 20
100.9003622349
 10
176.9074561002
 20
100.3699749599
 10
176.7915632504
 20
100.0774130116
  0
ARC
  5
14C
330
1F
100
AcDbEntity
  8
0
  6
HIDDEN
 62
     7
370
     0
100
AcDbCircle
 10
174.9619188248
 20
100.7918566082
 30
0.0
 40
1.885926356680598
100
AcDbArc
 50
341.0682108633
 51
160.4333267683
  0
ARC
  5
14D
330
1F
100
AcDbEntity
  8
0
  6
HIDDEN
 62
     7
370
     0
100
AcDbCircle
 10
175.0252456654
 20
100.8030824413
 30
0.0
 40
1.450401764974085
100
AcDbArc
 50
353.9615451386
 51
92.2770025617
  0
LWPOLYLINE
  5
14E
330
1F
100
AcDbEntity
  8
0
  6
HIDDEN
 62
     7
370
     0
100
AcDbPolyline
 90
       23
 70
   128
 43
0.0
 10
172.9817861619
 20
100.9905720021
 10
173.0558086115
 20
101.520959277
 10
173.285849944
 20
102.0102649818
 10
173.6532734635
 20
102.4188487682
 10
174.1283122378
 20
102.7136100347
 10
174.6724821555
 20
102.8706682737
 10
175.2416981312
 20
102.8772997561
 10
175.7898447963
 20
102.7329675745
 10
176.2725148278
 20
102.4493644837
 10
176.6506057161
 20
102.0494662117
 10
176.8934853303
 20
101.5656702112
 10
176.9814785498
 20
101.0371707271
 10
176.9074561002
 20
100.5067834522
 10
176.677415699
 20
100.0174777474
 10
176.3099921795
 20
99.6088934954
 10
175.8349524739
 20
99.3141326945
 10
175.2907825562
 20
99.1570744555
 10
174.7215665805
 20
99.1504425074
 10
174.1734199154
 20
99.2947751547
 10
173.6907498839
 20
99.5783777799
 10
173.312659927
 20
99.9782765175
 10
173.0697793814
 20
100.462072518
 10
172.9817861619
 20
100.9905720021
  0
LWPOLYLINE
  5
14F
330
1F
100
AcDbEntity
  8
0
  6
HIDDEN
 62
     7
370
     0
100
AcDbPolyline
 90
       20
 70
   128
 43
0.0
 10
173.4817480596
 20
101.8288647647
 10
173.5569775032
 20
102.2874535884
 10
173.7865913587
 20
102.6982399526
 10
174.1457056182
 20
103.016709898
 10
174.5954058992
 20
103.2083523351
 10
175.0869598168
 20
103.2523992363
 10
175.5670994448
 20
103.1440780389
 10
175.9837955164
 20
102.8951266672
 10
176.291890994
 20
102.532522742
 10
176.4579998257
 20
102.0955601598
 10
176.464121409
 20
101.6315910856
 10
176.3095926421
 20
101.1908929686
 10
176.011158705
 20
100.8212230991
 10
175.6011588427
 20
100.5626404549
 10
175.1240245926
 20
100.4431657384
 10
174.6314592587
 20
100.4757471274
 10
174.1768415945
 20
100.6568539779
 10
173.8094348388
 20
100.966859598
 10
173.5690539631
 20
101.3721702512
 10
173.4817480596
 20
101.8288647647
  0
LWPOLYLINE
  5
150
330
1F
100
AcDbEntity
  8
0
  6
HIDDEN
 62
     7
370
     0
100
AcDbPolyline
 90
       23
 70
   128
 43
0.0
 10
172.9817861619
 20
101.1829581003
 10
173.0558086115
 20
101.7133453752
 10
173.285849944
 20
102.20265108
 10
173.6532734635
 20
102.611235332
 10
174.1283122378
 20
102.9059961329
 10
174.6724821555
 20
103.0630548376
 10
175.2416981312
 20
103.06968632
 10
175.7898447963
 20
102.9253541383
 10
176.2725148278
 20
102.6417510475
 10
176.6506057161
 20
102.2418523099
 10
176.8934853303
 20
101.7580563094
 10
176.9814785498
 20
101.2295568253
 10
176.9074561002
 20
100.6991695504
 10
176.677415699
 20
100.2098638456
 10
176.3099921795
 20
99.8012795936
 10
175.8349524739
 20
99.5065187927
 10
175.2907825562
 20
99.3494605537
 10
174.7215665805
 20
99.3428286056
 10
174.1734199154
 20
99.487161253
 10
173.6907498839
 20
99.7707648094
 10
173.312659927
 20
100.1706626158
 10
173.0697793814
 20
100.6544586162
 10
172.9817861619
 20
101.1829581003
  0
LWPOLYLINE
  5
151
330
1F
100
AcDbEntity
  8
0
  6
HIDDEN
 62
     7
370
     0
100
AcDbPolyline
 90
       22
 70
   128
 43
0.0
 10
173.1417743417
 20
101.136725385
 10
173.2167905124
 20
101.6472810771
 10
173.4486199843
 20
102.1143756698
 10
173.816664696
 20
102.4965061697
 10
174.2882221865
 20
102.7597188841
 10
174.8213922533
 20
102.8806264404
 10
175.3688003796
 20
102.8484851013
 10
175.8818073126
 20
102.6661512333
 10
176.3148285377
 20
102.3498261239
 10
176.6293901878
 20
101.9276156913
 10
176.79754141
 20
101.4370359372
 10
176.8043409961
 20
100.9216774146
 10
176.6491854491
 20
100.427331392
 10
176.3458602058
 20
99.9979227673
 10
175.9213168102
 20
99.6716059636
 10
175.4132784831
 20
99.477376778
 10
174.8668873611
 20
99.4324916865
 10
174.3306904959
 20
99.540940475
 10
173.8523334193
 20
99.7930867489
 10
173.4743198308
 20
100.1665256809
 10
173.2302369478
 20
100.628075179
 10
173.1417743417
 20
101.136725385
  0
LWPOLYLINE
  5
152
330
1F
100
AcDbEntity
  8
0
  6
HIDDEN
 62
     7
370
     0
100
AcDbPolyline
 90
       23
 70
   128
 43
0.0
 10
172.9817861619
 20
101.3753451298
 10
173.0558086115
 20
101.9057314734
 10
173.285849944
 20
102.3950376439
 10
173.6532734635
 20
102.8036214303
 10
174.1283122378
 20
103.0983826968
 10
174.6724821555
 20
103.2554409358
 10
175.2416981312
 20
103.2620724182
 10
175.7898447963
 20
103.1177402365
 10
176.2725148278
 20
102.8341371457
 10
176.6506057161
 20
102.4342388737
 10
176.8934853303
 20
101.9504424076
 10
176.9814785498
 20
101.4219429235
 10
176.9074561002
 20
100.8915556486
 10
176.677415699
 20
100.4022499438
 10
176.3099921795
 20
99.9936666231
 10
175.8349524739
 20
99.6989048909
 10
175.2907825562
 20
99.5418466519
 10
174.7215665805
 20
99.5352156352
 10
174.1734199154
 20
99.6795473512
 10
173.6907498839
 20
99.9631509076
 10
173.312659927
 20
100.363048714
 10
173.0697793814
 20
100.8468447144
 10
172.9817861619
 20
101.3753451298
  0
LWPOLYLINE
  5
153
330
1F
100
AcDbEntity
  8
0
  6
HIDDEN
 62
     7
370
     0
100
AcDbPolyline
 90
       22
 70
   128
 43
0.0
 10
173.1417743417
 20
101.3291124146
 10
173.2167905124
 20
101.8396671753
 10
173.4486199843
 20
102.306761768
 10
173.816664696
 20
102.6888922679
 10
174.2882221865
 20
102.952105448
 10
174.8213922533
 20
103.0730125386
 10
175.3688003796
 20
103.0408716652
 10
175.8818073126
 20
102.8585377972
 10
176.3148285377
 20
102.5422122221
 10
176.6293901878
 20
102.1200017895
 10
176.79754141
 20
101.6294229667
 10
176.8043409961
 20
101.1140635128
 10
176.6491854491
 20
100.6197174902
 10
176.3458602058
 20
100.1903088655
 10
175.9213168102
 20
99.8639920618
 10
175.4132784831
 20
99.6697628762
 10
174.8668873611
 20
99.624878716
 10
174.3306904959
 20
99.7333275046
 10
173.8523334193
 20
99.9854728471
 10
173.4743198308
 20
100.3589117791
 10
173.2302369478
 20
100.8204612772
 10
173.1417743417
 20
101.3291124146
  0
LWPOLYLINE
  5
154
330
1F
100
AcDbEntity
  8
0
  6
HIDDEN
 62
     7
370
     0
100
AcDbPolyline
 90
       23
 70
   128
 43
0.0
 10
172.9817861619
 20
101.567731228
 10
173.0558086115
 20
102.098118503
 10
173.285849944
 20
102.5874242078
 10
173.6532734635
 20
102.9960079941
 10
174.1283122378
 20
103.290768795
 10
174.6724821555
 20
103.4478274997
 10
175.2416981312
 20
103.4544589821
 10
175.7898447963
 20
103.3101268004
 10
176.2725148278
 20
103.0265237096
 10
176.6506057161
 20
102.6266249719
 10
176.8934853303
 20
102.1428294371
 10
176.9814785498
 20
101.6143299531
 10
176.9074561002
 20
101.0839426781
 10
176.677415699
 20
100.5946369733
 10
176.3099921795
 20
100.1860527213
 10
175.8349524739
 20
99.8912919204
 10
175.2907825562
 20
99.7342336814
 10
174.7215665805
 20
99.7276017334
 10
174.1734199154
 20
99.8719334494
 10
173.6907498839
 20
100.1555370058
 10
173.312659927
 20
100.5554357435
 10
173.0697793814
 20
101.039231744
 10
172.9817861619
 20
101.567731228
  0
LWPOLYLINE
  5
155
330
1F
100
AcDbEntity
  8
0
  6
HIDDEN
 62
     7
370
     0
100
AcDbPolyline
 90
       22
 70
   128
 43
0.0
 10
173.1417743417
 20
101.5214985128
 10
173.2167905124
 20
102.0320532735
 10
173.4486199843
 20
102.4991478662
 10
173.816664696
 20
102.8812788318
 10
174.2882221865
 20
103.1444915462
 10
174.8213922533
 20
103.2653991024
 10
175.3688003796
 20
103.2332577634
 10
175.8818073126
 20
103.0509238954
 10
176.3148285377
 20
102.7345987859
 10
176.6293901878
 20
102.312388819
 10
176.79754141
 20
101.8218090649
 10
176.8043409961
 20
101.3064505424
 10
176.6491854491
 20
100.8121035884
 10
176.3458602058
 20
100.3826949637
 10
175.9213168102
 20
100.0563790913
 10
175.4132784831
 20
99.8621489744
 10
174.8668873611
 20
99.8172648142
 10
174.3306904959
 20
99.9257136028
 10
173.8523334193
 20
100.1778589453
 10
173.4743198308
 20
100.5512978773
 10
173.2302369478
 20
101.0128483068
 10
173.1417743417
 20
101.5214985128
  0
LWPOLYLINE
  5
156
330
1F
100
AcDbEntity
  8
0
  6
HIDDEN
 62
     7
370
     0
100
AcDbPolyline
 90
       23
 70
   128
 43
0.0
 10
172.9817861619
 20
101.7601173262
 10
173.0558086115
 20
102.2905046012
 10
173.285849944
 20
102.779810306
 10
173.6532734635
 20
103.1883940923
 10
174.1283122378
 20
103.4831553589
 10
174.6724821555
 20
103.6402135979
 10
175.2416981312
 20
103.6468450803
 10
175.7898447963
 20
103.5025128986
 10
176.2725148278
 20
103.2189098078
 10
176.6506057161
 20
102.8190115358
 10
176.8934853303
 20
102.3352155353
 10
176.9814785498
 20
101.8067160513
 10
176.9074561002
 20
101.2763287763
 10
176.677415699
 20
100.7870230715
 10
176.3099921795
 20
100.3784388195
 10
175.8349524739
 20
100.0836780186
 10
175.2907825562
 20
99.9266197796
 10
174.7215665805
 20
99.9199878316
 10
174.1734199154
 20
100.0643204789
 10
173.6907498839
 20
100.347923104
 10
173.312659927
 20
100.7478218417
 10
173.0697793814
 20
101.2316178422
 10
172.9817861619
 20
101.7601173262
  0
LWPOLYLINE
  5
157
330
1F
100
AcDbEntity
  8
0
  6
HIDDEN
 62
     7
370
     0
100
AcDbPolyline
 90
       22
 70
   128
 43
0.0
 10
173.1417743417
 20
101.713884611
 10
173.2167905124
 20
102.2244393717
 10
173.4486199843
 20
102.6915344301
 10
173.816664696
 20
103.07366493
 10
174.2882221865
 20
103.33687811
 10
174.8213922533
 20
103.4577852006
 10
175.3688003796
 20
103.4256443273
 10
175.8818073126
 20
103.2433104593
 10
176.3148285377
 20
102.9269848841
 10
176.6293901878
 20
102.5047749172
 10
176.79754141
 20
102.0141951631
 10
176.8043409961
 20
101.4988366406
 10
176.6491854491
 20
101.004490618
 10
176.3458602058
 20
100.5750810619
 10
175.9213168102
 20
100.2487651895
 10
175.4132784831
 20
100.0545350726
 10
174.8668873611
 20
100.0096509124
 10
174.3306904959
 20
100.118099701
 10
173.8523334193
 20
100.3702459748
 10
173.4743198308
 20
100.7436839755
 10
173.2302369478
 20
101.205234405
 10
173.1417743417
 20
101.713884611
  0
LWPOLYLINE
  5
158
330
1F
100
AcDbEntity
  8
0
  6
HIDDEN
 62
     7
370
     0
100
AcDbPolyline
 90
       23
 70
   128
 43
0.0
 10
172.9817861619
 20
102.0850362147
 10
173.0558086115
 20
102.6154234897
 10
173.285849944
 20
103.1047296602
 10
173.6532734635
 20
103.5133134465
 10
174.1283122378
 20
103.8080742474
 10
174.6724821555
 20
103.965132952
 10
175.2416981312
 20
103.9717644344
 10
175.7898447963
 20
103.8274322528
 10
176.2725148278
 20
103.543829162
 10
176.6506057161
 20
103.1439304243
 10
176.8934853303
 20
102.6601344238
 10
176.9814785498
 20
102.1316349398
 10
176.9074561002
 20
101.6012476648
 10
176.677415699
 20
101.11194196
 10
176.3099921795
 20
100.703357708
 10
175.8349524739
 20
100.4085969071
 10
175.2907825562
 20
100.2515386681
 10
174.7215665805
 20
100.2449067201
 10
174.1734199154
 20
100.3892393674
 10
173.6907498839
 20
100.6728429239
 10
173.312659927
 20
101.0727407302
 10
173.0697793814
 20
101.5565367307
 10
172.9817861619
 20
102.0850362147
  0
LWPOLYLINE
  5
159
330
1F
100
AcDbEntity
  8
0
  6
HIDDEN
 62
     7
370
     0
100
AcDbPolyline
 90
       20
 70
   128
 43
0.0
 10
173.5013617131
 20
102.1936954822
 10
173.57560768
 20
102.6462870541
 10
173.8022180202
 20
103.0517020154
 10
174.1566365513
 20
103.3660075519
 10
174.6004564616
 20
103.5551437999
 10
175.0855823907
 20
103.5986146781
 10
175.5594439733
 20
103.4917100224
 10
175.9706899452
 20
103.2460140887
 10
176.2747574526
 20
102.8881519924
 10
176.4386935088
 20
102.4569035399
 10
176.4447349983
 20
101.9990015666
 10
176.2922272014
 20
101.5640664737
 10
175.9976955059
 20
101.1992301683
 10
175.5930572676
 20
100.9440291564
 10
175.1221619474
 20
100.8261171992
 10
174.6360385718
 20
100.8582729738
 10
174.1873655396
 20
101.0370105396
 10
173.8247634771
 20
101.3429630439
 10
173.587525815
 20
101.7429735403
 10
173.5013617131
 20
102.1936954822
  0
LWPOLYLINE
  5
15A
330
1F
100
AcDbEntity
  8
0
  6
HIDDEN
 62
     7
370
     0
100
AcDbPolyline
 90
       21
 70
   128
 43
0.0
 10
167.1979828666
 20
102.0819572623
 10
166.9542948643
 20
102.4552779163
 10
166.6745698007
 20
102.7103848647
 10
166.3861890251
 20
102.8223070207
 10
166.1173809248
 20
102.7800878401
 10
165.8944590876
 20
102.5878609981
 10
165.7392434704
 20
102.2644424702
 10
165.6669283679
 20
101.8414897735
 10
165.6845925304
 20
101.3604067157
 10
165.7905067245
 20
100.8682828288
 10
165.9743032346
 20
100.4132917042
 10
166.2179912368
 20
100.0399710502
 10
166.4977163004
 20
99.7848641019
 10
166.786097076
 20
99.6729424115
 10
167.0549051764
 20
99.7151611264
 10
167.2778274792
 20
99.9073879685
 10
167.4330426308
 20
100.2308074276
 10
167.5053575004
 20
100.653759193
 10
167.4876935708
 20
101.1348431821
 10
167.3817793767
 20
101.6269661377
 10
167.1979828666
 20
102.0819572623
  0
LWPOLYLINE
  5
15B
330
1F
100
AcDbEntity
  8
0
  6
HIDDEN
 62
     7
370
     0
100
AcDbPolyline
 90
       23
 70
   128
 43
0.0
 10
167.530637786
 20
102.3282343413
 10
167.2577761042
 20
102.7553053464
 10
166.9454454372
 20
103.0638110715
 10
166.6189484226
 20
103.2287590097
 10
166.3047369497
 20
103.2367856133
 10
166.0282659272
 20
103.0872408192
 10
165.8119331973
 20
102.7922397371
 10
165.6732650867
 20
102.3756815012
 10
165.6234959068
 20
101.8713135164
 10
165.6666571202
 20
101.3199966292
 10
165.7992523092
 20
100.7663952078
 10
166.010539599
 20
100.255358022
 10
166.2834012809
 20
99.8282879482
 10
166.5957324135
 20
99.5197817575
 10
166.9222289624
 20
99.3548342849
 10
167.2364404353
 20
99.3468072157
 10
167.5129119235
 20
99.4963524754
 10
167.7292441877
 20
99.7913535576
 10
167.8679125311
 20
100.2079117934
 10
167.9176814782
 20
100.7122797783
 10
167.8745202648
 20
101.2635966654
 10
167.7419250759
 20
101.8171980868
 10
167.530637786
 20
102.3282343413
  0
LWPOLYLINE
  5
15C
330
1F
100
AcDbEntity
  8
0
  6
HIDDEN
 62
     7
370
     0
100
AcDbPolyline
 90
       23
 70
   128
 43
0.0
 10
170.827588618
 20
103.1178049634
 10
170.5547269362
 20
103.5448759686
 10
170.2423958036
 20
103.8533816937
 10
169.9158992546
 20
104.0183291662
 10
169.6016873161
 20
104.0263557698
 10
169.3252162936
 20
103.8768109757
 10
169.1088835637
 20
103.5818098936
 10
168.9702156859
 20
103.1652521233
 10
168.9204462732
 20
102.6608841385
 10
168.9636074866
 20
102.1095672514
 10
169.0962026755
 20
101.5559658299
 10
169.3074899654
 20
101.0449286442
 10
169.5803516472
 20
100.6178585704
 10
169.8926823142
 20
100.3093523796
 10
170.2191797944
 20
100.1444049071
 10
170.5333912673
 20
100.1363778378
 10
170.8098618242
 20
100.2859230976
 10
171.0261950197
 20
100.5809241797
 10
171.1648624318
 20
100.9974824156
 10
171.2146323102
 20
101.5018494691
 10
171.1714710968
 20
102.0531672876
 10
171.0388759079
 20
102.606768709
 10
170.827588618
 20
103.1178049634
  0
LINE
  5
15D
330
1F
100
AcDbEntity
  8
0
  6
HIDDEN
 62
     7
370
     0
100
AcDbLine
 10
165.9371183182
 20
101.7808755751
 30
0.0
 11
166.1473285335
 21
100.6492366906
 31
0.0
  0
LINE
  5
15E
330
1F
100
AcDbEntity
  8
0
  6
HIDDEN
 62
     7
370
     0
100
AcDbLine
 10
166.7963532659
 20
100.1159855987
 30
0.0
 11
166.1473285335
 21
100.6492366906
 31
0.0
  0
LINE
  5
15F
330
1F
100
AcDbEntity
  8
0
  6
HIDDEN
 62
     7
370
     0
100
AcDbLine
 10
167.235167783
 20
100.7143733914
 30
0.0
 11
166.7963532659
 21
100.1159855987
 31
0.0
  0
LINE
  5
160
330
1F
100
AcDbEntity
  8
0
  6
HIDDEN
 62
     7
370
     0
100
AcDbLine
 10
167.235167783
 20
100.7143733914
 30
0.0
 11
167.0249575677
 21
101.846012276
 31
0.0
  0
LINE
  5
161
330
1F
100
AcDbEntity
  8
0
  6
HIDDEN
 62
     7
370
     0
100
AcDbLine
 10
166.3759328353
 20
102.3792633678
 30
0.0
 11
167.0249575677
 21
101.846012276
 31
0.0
  0
LINE
  5
162
330
1F
100
AcDbEntity
  8
0
  6
HIDDEN
 62
     7
370
     0
100
AcDbLine
 10
166.3759328353
 20
102.3792633678
 30
0.0
 11
165.9371183182
 21
101.7808755751
 31
0.0
  0
LINE
  5
163
330
1F
100
AcDbEntity
  8
0
  6
HIDDEN
 62
     7
370
     0
100
AcDbLine
 10
169.0728376547
 20
102.3364490721
 30
0.0
 11
167.0249575677
 21
101.846012276
 31
0.0
  0
LINE
  5
164
330
1F
100
AcDbEntity
  8
0
  6
HIDDEN
 62
     7
370
     0
100
AcDbLine
 10
169.28304787
 20
101.2048106532
 30
0.0
 11
167.235167783
 21
100.7143733914
 31
0.0
  0
LINE
  5
165
330
1F
100
AcDbEntity
  8
0
  6
HIDDEN
 62
     7
370
     0
100
AcDbLine
 10
168.4238129223
 20
102.8697001639
 30
0.0
 11
167.9849984052
 21
102.2713119055
 31
0.0
  0
LINE
  5
166
330
1F
100
AcDbEntity
  8
0
  6
HIDDEN
 62
     7
370
     0
100
AcDbLine
 10
167.9849984052
 20
102.2713119055
 30
0.0
 11
165.9371183182
 21
101.7808755751
 31
0.0
  0
LINE
  5
167
330
1F
100
AcDbEntity
  8
0
  6
HIDDEN
 62
     7
370
     0
100
AcDbLine
 10
168.4238129223
 20
102.8697001639
 30
0.0
 11
166.3759328353
 21
102.3792633678
 31
0.0
  0
LWPOLYLINE
  5
168
330
1F
100
AcDbEntity
  8
0
  6
HIDDEN
 62
     7
370
     0
100
AcDbPolyline
 90
       18
 70
   128
 43
0.0
 10
171.1569340828
 20
102.8762720417
 10
170.930862047
 20
103.208421253
 10
170.6711655411
 20
103.4082267325
 10
170.4129200357
 20
103.4487034085
 10
170.1910026299
 20
103.3243844177
 10
170.0353832843
 20
103.0520596433
 10
169.967081018
 20
102.6685088764
 10
169.9953187185
 20
102.2255318131
 10
170.1162835511
 20
101.7829552184
 10
170.3136382552
 20
101.4005523066
 10
170.5607293102
 20
101.1299677084
 10
170.8241855654
 20
101.0077455904
 10
171.0684267732
 20
101.0503927137
 10
171.2604645568
 20
101.2521497797
 10
171.3743653076
 20
101.5857681523
 10
171.3947445082
 20
102.0061904456
 10
171.3188510316
 20
102.456636716
 10
171.1569340828
 20
102.8762720417
  0
LINE
  5
169
330
1F
100
AcDbEntity
  8
0
  6
HIDDEN
 62
     7
370
     0
100
AcDbLine
 10
168.1952086205
 20
101.139673021
 30
0.0
 11
166.1473285335
 21
100.6492366906
 31
0.0
  0
LINE
  5
16A
330
1F
100
AcDbEntity
  8
0
  6
HIDDEN
 62
     7
370
     0
100
AcDbLine
 10
168.8442333529
 20
100.6064228605
 30
0.0
 11
168.1952086205
 21
101.139673021
 31
0.0
  0
LINE
  5
16B
330
1F
100
AcDbEntity
  8
0
  6
HIDDEN
 62
     7
370
     0
100
AcDbLine
 10
168.8442333529
 20
100.6064228605
 30
0.0
 11
166.7963532659
 21
100.1159855987
 31
0.0
  0
LINE
  5
16C
330
1F
100
AcDbEntity
  8
0
  6
HIDDEN
 62
     7
370
     0
100
AcDbLine
 10
167.9849984052
 20
102.2713119055
 30
0.0
 11
168.1952086205
 21
101.139673021
 31
0.0
  0
LINE
  5
16D
330
1F
100
AcDbEntity
  8
0
  6
HIDDEN
 62
     7
370
     0
100
AcDbLine
 10
169.28304787
 20
101.2048106532
 30
0.0
 11
168.8442333529
 21
100.6064228605
 31
0.0
  0
LINE
  5
16E
330
1F
100
AcDbEntity
  8
0
  6
HIDDEN
 62
     7
370
     0
100
AcDbLine
 10
168.4238129223
 20
102.8697001639
 30
0.0
 11
169.0728376547
 21
102.3364490721
 31
0.0
  0
LINE
  5
16F
330
1F
100
AcDbEntity
  8
0
  6
HIDDEN
 62
     7
370
     0
100
AcDbLine
 10
169.28304787
 20
101.2048106532
 30
0.0
 11
169.0728376547
 21
102.3364490721
 31
0.0
  0
LWPOLYLINE
  5
170
330
1F
100
AcDbEntity
  8
0
  6
HIDDEN
 62
     7
370
     0
100
AcDbPolyline
 90
       23
 70
   128
 43
0.0
 10
169.3074899654
 20
116.4313126247
 10
169.0962026755
 20
116.7359407882
 10
168.9636074866
 20
117.1600087437
 10
168.9204462732
 20
117.6691609326
 10
168.9702156859
 20
118.2221490781
 10
169.1088835637
 20
118.7741737704
 10
169.3252162936
 20
119.2805124338
 10
169.6016873161
 20
119.7001449655
 10
169.9158992546
 20
119.9990743662
 10
170.2423958036
 20
120.1530853178
 10
170.5547269362
 20
120.1496990289
 10
170.827588618
 20
119.9891893084
 10
171.0388759079
 20
119.6845620762
 10
171.1714710968
 20
119.2604936551
 10
171.2146323102
 20
118.7513414662
 10
171.1648624318
 20
118.1983537863
 10
171.0261950197
 20
117.646329094
 10
170.8098618242
 20
117.1399904306
 10
170.5333912673
 20
116.7203578989
 10
170.2191797944
 20
116.4214275669
 10
169.8926823142
 20
116.2674175467
 10
169.5803516472
 20
116.2708038355
 10
169.3074899654
 20
116.4313126247
  0
LWPOLYLINE
  5
171
330
1F
100
AcDbEntity
  8
0
  6
HIDDEN
 62
     7
370
     0
100
AcDbPolyline
 90
       18
 70
   128
 43
0.0
 10
170.2068723666
 20
116.9512835223
 10
170.0449554178
 20
117.2127402279
 10
169.9690619412
 20
117.5890453051
 10
169.9894411417
 20
118.029376481
 10
170.1033418926
 20
118.4742655496
 10
170.2953806075
 20
118.8636273037
 10
170.539620884
 20
119.1448755454
 10
170.8030771392
 20
119.2800262834
 10
171.0501681941
 20
119.2508283894
 10
171.2475228983
 20
119.0612232204
 10
171.3684886622
 20
118.7368184219
 10
171.3967263627
 20
118.3214271332
 10
171.328423165
 20
117.8711503635
 10
171.1728038194
 20
117.4468002173
 10
170.9508864137
 20
117.1056870262
 10
170.6926409083
 20
116.8938809897
 10
170.4329453337
 20
116.8399867493
 10
170.2068723666
 20
116.9512835223
  0
LWPOLYLINE
  5
172
330
1F
100
AcDbEntity
  8
0
  6
HIDDEN
 62
     7
370
     0
100
AcDbPolyline
 90
       23
 70
   128
 43
0.0
 10
166.010539599
 20
117.2208832468
 10
165.7992523092
 20
117.5255114104
 10
165.6666571202
 20
117.9495789002
 10
165.6234959068
 20
118.4587310891
 10
165.6732650867
 20
119.0117197003
 10
165.8119331973
 20
119.5637434612
 10
166.0282659272
 20
120.0700821246
 10
166.3047369497
 20
120.4897146563
 10
166.6189484226
 20
120.7886449884
 10
166.9454454372
 20
120.9426559399
 10
167.2577761042
 20
120.9392687197
 10
167.530637786
 20
120.7787599306
 10
167.7419250759
 20
120.474131767
 10
167.8745202648
 20
120.0500642772
 10
167.9176814782
 20
119.5409120883
 10
167.8679125311
 20
118.9879234771
 10
167.7292441877
 20
118.4358997162
 10
167.5129119235
 20
117.9295610528
 10
167.2364404353
 20
117.5099285211
 10
166.9222289624
 20
117.210998189
 10
166.5957324135
 20
117.0569877032
 10
166.2834012809
 20
117.0603744577
 10
166.010539599
 20
117.2208832468
  0
LINE
  5
173
330
1F
100
AcDbEntity
  8
0
  6
HIDDEN
 62
     7
370
     0
100
AcDbLine
 10
167.9849984052
 20
118.452768762
 30
0.0
 11
168.1952086205
 21
117.5264865051
 31
0.0
  0
LINE
  5
174
330
1F
100
AcDbEntity
  8
0
  6
HIDDEN
 62
     7
370
     0
100
AcDbLine
 10
167.9849984052
 20
118.452768762
 30
0.0
 11
168.4238129223
 21
119.4798387478
 31
0.0
  0
LINE
  5
175
330
1F
100
AcDbEntity
  8
0
  6
HIDDEN
 62
     7
370
     0
100
AcDbLine
 10
167.9849984052
 20
118.452768762
 30
0.0
 11
165.9371183182
 21
118.9432050924
 31
0.0
  0
LINE
  5
176
330
1F
100
AcDbEntity
  8
0
  6
HIDDEN
 62
     7
370
     0
100
AcDbLine
 10
168.4238129223
 20
119.4798387478
 30
0.0
 11
166.3759328353
 21
119.9702760096
 31
0.0
  0
LINE
  5
177
330
1F
100
AcDbEntity
  8
0
  6
HIDDEN
 62
     7
370
     0
100
AcDbLine
 10
168.4238129223
 20
119.4798387478
 30
0.0
 11
169.0728376547
 21
119.5806274082
 31
0.0
  0
LINE
  5
178
330
1F
100
AcDbEntity
  8
0
  6
HIDDEN
 62
     7
370
     0
100
AcDbLine
 10
166.3759328353
 20
119.9702760096
 30
0.0
 11
167.0249575677
 21
120.0710646699
 31
0.0
  0
LWPOLYLINE
  5
179
330
1F
100
AcDbEntity
  8
0
  6
HIDDEN
 62
     7
370
     0
100
AcDbPolyline
 90
       21
 70
   128
 43
0.0
 10
165.9743032346
 20
117.6119483899
 10
165.7905067245
 20
117.88738611
 10
165.6845925304
 20
118.2760409902
 10
165.6669283679
 20
118.7398685034
 10
165.7392434704
 20
119.2334657426
 10
165.8944590876
 20
119.7085166241
 10
166.1173809248
 20
120.1185183491
 10
166.3861890251
 20
120.4233392964
 10
166.6745698007
 20
120.5931389596
 10
166.9542948643
 20
120.6112988184
 10
167.1979828666
 20
120.4760391156
 10
167.3817793767
 20
120.2006013955
 10
167.4876935708
 20
119.8119465153
 10
167.5053575004
 20
119.3481190021
 10
167.4330426308
 20
118.8545217629
 10
167.2778274792
 20
118.3794708814
 10
167.0549051764
 20
117.9694691564
 10
166.786097076
 20
117.6646486747
 10
166.4977163004
 20
117.4948480803
 10
166.2179912368
 20
117.4766886871
 10
165.9743032346
 20
117.6119483899
  0
LINE
  5
17A
330
1F
100
AcDbEntity
  8
0
  6
HIDDEN
 62
     7
370
     0
100
AcDbLine
 10
165.9371183182
 20
118.9432050924
 30
0.0
 11
166.3759328353
 21
119.9702760096
 31
0.0
  0
LINE
  5
17B
330
1F
100
AcDbEntity
  8
0
  6
HIDDEN
 62
     7
370
     0
100
AcDbLine
 10
165.9371183182
 20
118.9432050924
 30
0.0
 11
166.1473285335
 21
118.0169228356
 31
0.0
  0
LINE
  5
17C
330
1F
100
AcDbEntity
  8
0
  6
HIDDEN
 62
     7
370
     0
100
AcDbLine
 10
168.8442333529
 20
117.6272746998
 30
0.0
 11
166.7963532659
 21
118.1177114959
 31
0.0
  0
LINE
  5
17D
330
1F
100
AcDbEntity
  8
0
  6
HIDDEN
 62
     7
370
     0
100
AcDbLine
 10
166.7963532659
 20
118.1177114959
 30
0.0
 11
166.1473285335
 21
118.0169228356
 31
0.0
  0
LINE
  5
17E
330
1F
100
AcDbEntity
  8
0
  6
HIDDEN
 62
     7
370
     0
100
AcDbLine
 10
168.8442333529
 20
117.6272746998
 30
0.0
 11
168.1952086205
 21
117.5264865051
 31
0.0
  0
LINE
  5
17F
330
1F
100
AcDbEntity
  8
0
  6
HIDDEN
 62
     7
370
     0
100
AcDbLine
 10
168.1952086205
 20
117.5264865051
 30
0.0
 11
166.1473285335
 21
118.0169228356
 31
0.0
  0
LINE
  5
180
330
1F
100
AcDbEntity
  8
0
  6
HIDDEN
 62
     7
370
     0
100
AcDbLine
 10
169.28304787
 20
118.6543451513
 30
0.0
 11
167.235167783
 21
119.1447824131
 31
0.0
  0
LINE
  5
181
330
1F
100
AcDbEntity
  8
0
  6
HIDDEN
 62
     7
370
     0
100
AcDbLine
 10
167.235167783
 20
119.1447824131
 30
0.0
 11
167.0249575677
 21
120.0710646699
 31
0.0
  0
LINE
  5
182
330
1F
100
AcDbEntity
  8
0
  6
HIDDEN
 62
     7
370
     0
100
AcDbLine
 10
169.0728376547
 20
119.5806274082
 30
0.0
 11
167.0249575677
 21
120.0710646699
 31
0.0
  0
LINE
  5
183
330
1F
100
AcDbEntity
  8
0
  6
HIDDEN
 62
     7
370
     0
100
AcDbLine
 10
169.28304787
 20
118.6543451513
 30
0.0
 11
169.0728376547
 21
119.5806274082
 31
0.0
  0
LINE
  5
184
330
1F
100
AcDbEntity
  8
0
  6
HIDDEN
 62
     7
370
     0
100
AcDbLine
 10
166.7963532659
 20
118.1177114959
 30
0.0
 11
167.235167783
 21
119.1447824131
 31
0.0
  0
LINE
  5
185
330
1F
100
AcDbEntity
  8
0
  6
HIDDEN
 62
     7
370
     0
100
AcDbLine
 10
168.8442333529
 20
117.6272746998
 30
0.0
 11
169.28304787
 21
118.6543451513
 31
0.0
  0
CIRCLE
  5
186
330
1F
100
AcDbEntity
  8
0
  6
HIDDEN
 62
     7
370
     0
100
AcDbCircle
 10
215.3816325533
 20
110.145809118
 30
0.0
 40
2.10566934772484
  0
CIRCLE
  5
187
330
1F
100
AcDbEntity
  8
0
  6
HIDDEN
 62
     7
370
     0
100
AcDbCircle
 10
215.3816325533
 20
110.145809118
 30
0.0
 40
1.695534221835427
  0
LWPOLYLINE
  5
188
330
1F
100
AcDbEntity
  8
0
  6
HIDDEN
 62
     7
370
     0
100
AcDbPolyline
 90
        3
 70
   128
 43
0.0
 10
216.7252130734
 20
109.7685755704
 10
216.5151663053
 20
109.3317936648
 10
216.2470050084
 20
109.0509813403
  0
LINE
  5
189
330
1F
100
AcDbEntity
  8
0
  6
HIDDEN
 62
     7
370
     0
100
AcDbLine
 10
215.1424638855
 20
108.7709218155
 30
0.0
 11
214.8961253392
 21
108.8374521242
 31
0.0
  0
LINE
  5
18A
330
1F
100
AcDbEntity
  8
0
  6
HIDDEN
 62
     7
370
     0
100
AcDbLine
 10
214.0692040252
 20
109.6714174092
 30
0.0
 11
214.0034228491
 21
109.926586858
 31
0.0
  0
LINE
  5
18B
330
1F
100
AcDbEntity
  8
0
  6
HIDDEN
 62
     7
370
     0
100
AcDbLine
 10
214.3434226441
 20
111.0783523655
 30
0.0
 11
214.516443752
 21
111.2407814835
 31
0.0
  0
LINE
  5
18C
330
1F
100
AcDbEntity
  8
0
  6
HIDDEN
 62
     7
370
     0
100
AcDbLine
 10
215.6148604977
 20
111.5217163352
 30
0.0
 11
215.8538751232
 21
111.4590127145
 31
0.0
  0
LWPOLYLINE
  5
18D
330
1F
100
AcDbEntity
  8
0
  6
HIDDEN
 62
     7
370
     0
100
AcDbPolyline
 90
        3
 70
   128
 43
0.0
 10
216.6998363959
 20
110.6039083862
 10
216.7732059884
 20
110.2508574004
 10
216.7252130734
 20
109.7685755704
  0
LINE
  5
18E
330
1F
100
AcDbEntity
  8
0
  6
HIDDEN
 62
     7
370
     0
100
AcDbLine
 10
176.981632218
 20
99.286966015
 30
0.0
 11
176.981632218
 21
102.1083360429
 31
0.0
  0
LINE
  5
18F
330
1F
100
AcDbEntity
  8
0
  6
HIDDEN
 62
     7
370
     0
100
AcDbLine
 10
172.9816324937
 20
102.0913813154
 30
0.0
 11
172.9816324937
 21
100.5699252601
 31
0.0
  0
LINE
  5
190
330
1F
100
AcDbEntity
  8
0
  6
HIDDEN
 62
     7
370
     0
100
AcDbLine
 10
165.1816324724
 20
98.7518839429
 30
0.0
 11
167.0752317573
 21
99.2053728442
 31
0.0
  0
LINE
  5
191
330
1F
100
AcDbEntity
  8
0
  6
HIDDEN
 62
     7
370
     0
100
AcDbLine
 10
166.0970543439
 20
103.2898761223
 30
0.0
 11
165.1816324724
 21
103.0706465136
 31
0.0
  0
LINE
  5
192
330
1F
100
AcDbEntity
  8
0
  6
HIDDEN
 62
     7
370
     0
100
AcDbLine
 10
167.1045930984
 20
99.6751291569
 30
0.0
 11
174.3116533312
 21
101.4011120315
 31
0.0
  0
LINE
  5
193
330
1F
100
AcDbEntity
  8
0
  6
HIDDEN
 62
     7
370
     0
100
AcDbLine
 10
174.3116533312
 20
104.794425879
 30
0.0
 11
166.3360251973
 21
102.884381533
 31
0.0
  0
LINE
  5
194
330
1F
100
AcDbEntity
  8
0
  6
HIDDEN
 62
     7
370
     0
100
AcDbLine
 10
176.6316328126
 20
102.1519051756
 30
0.0
 11
176.6316328126
 21
108.6947186741
 31
0.0
  0
LINE
  5
195
330
1F
100
AcDbEntity
  8
0
  6
HIDDEN
 62
     7
370
     0
100
AcDbLine
 10
173.3316328304
 20
102.1741451587
 30
0.0
 11
173.3316328304
 21
102.1519051756
 31
0.0
  0
LINE
  5
196
330
1F
100
AcDbEntity
  8
0
  6
HIDDEN
 62
     7
370
     0
100
AcDbLine
 10
173.3316328304
 20
108.6944265881
 30
0.0
 11
173.3316328304
 21
103.5519922043
 31
0.0
  0
ARC
  5
197
330
1F
100
AcDbEntity
  8
0
  6
HIDDEN
 62
     7
370
     0
100
AcDbCircle
 10
94.5316325533
 20
100.845809118
 30
0.0
 40
0.7999999999999972
100
AcDbArc
 50
90.0
 51
180.0
  0
ARC
  5
198
330
1F
100
AcDbEntity
  8
0
  6
HIDDEN
 62
     7
370
     0
100
AcDbCircle
 10
94.5316325533
 20
119.445809118
 30
0.0
 40
0.7999999999999972
100
AcDbArc
 50
180.0
 51
270.0
  0
LINE
  5
199
330
1F
100
AcDbEntity
  8
0
  6
HIDDEN
 62
     7
370
     0
100
AcDbLine
 10
101.6240060257
 20
101.4208095039
 30
0.0
 11
102.5006934928
 21
101.4208095039
 31
0.0
  0
LINE
  5
19A
330
1F
100
AcDbEntity
  8
0
  6
HIDDEN
 62
     7
370
     0
100
AcDbLine
 10
102.5006934928
 20
118.8708087321
 30
0.0
 11
101.6240060257
 21
118.8708087321
 31
0.0
  0
ARC
  5
19B
330
1F
100
AcDbEntity
  8
0
  6
HIDDEN
 62
     7
370
     0
100
AcDbCircle
 10
102.5006924456
 20
101.820809118
 30
0.0
 40
0.4000000000000173
100
AcDbArc
 50
270.0
 51
330.0
  0
ARC
  5
19C
330
1F
100
AcDbEntity
  8
0
  6
HIDDEN
 62
     7
370
     0
100
AcDbCircle
 10
102.5006924456
 20
118.470809118
 30
0.0
 40
0.4000000000000173
100
AcDbArc
 50
30.0
 51
90.0
  0
ARC
  5
19D
330
1F
100
AcDbEntity
  8
0
  6
HIDDEN
 62
     7
370
     0
100
AcDbCircle
 10
101.624004984
 20
101.820809118
 30
0.0
 40
0.3999999999999986
100
AcDbArc
 50
255.0
 51
270.0
  0
ARC
  5
19E
330
1F
100
AcDbEntity
  8
0
  6
HIDDEN
 62
     7
370
     0
100
AcDbCircle
 10
101.624004984
 20
118.470809118
 30
0.0
 40
0.3999999999999915
100
AcDbArc
 50
90.0
 51
105.0
  0
LINE
  5
19F
330
1F
100
AcDbEntity
  8
0
  6
HIDDEN
 62
     7
370
     0
100
AcDbLine
 10
101.5204764831
 20
118.8571797575
 30
0.0
 11
100.7316313612
 21
118.6458095799
 31
0.0
  0
LINE
  5
1A0
330
1F
100
AcDbEntity
  8
0
  6
HIDDEN
 62
     7
370
     0
100
AcDbLine
 10
100.7316313612
 20
101.6458086561
 30
0.0
 11
101.5204764831
 21
101.4344384785
 31
0.0
  0
LINE
  5
1A1
330
1F
100
AcDbEntity
  8
0
  6
HIDDEN
 62
     7
370
     0
100
AcDbLine
 10
102.8471007871
 20
101.6208091642
 30
0.0
 11
103.7275619733
 21
103.1458089019
 31
0.0
  0
LINE
  5
1A2
330
1F
100
AcDbEntity
  8
0
  6
HIDDEN
 62
     7
370
     0
100
AcDbLine
 10
103.7275619733
 20
117.1458093341
 30
0.0
 11
102.8471007871
 21
118.6708090718
 31
0.0
  0
LINE
  5
1A3
330
1F
100
AcDbEntity
  8
0
  6
HIDDEN
 62
     7
370
     0
100
AcDbLine
 10
94.5316307175
 20
101.6458086561
 30
0.0
 11
100.7316313612
 21
101.6458086561
 31
0.0
  0
LINE
  5
1A4
330
1F
100
AcDbEntity
  8
0
  6
HIDDEN
 62
     7
370
     0
100
AcDbLine
 10
100.7316313612
 20
118.6458095799
 30
0.0
 11
94.5316307175
 21
118.6458095799
 31
0.0
  0
LINE
  5
1A5
330
1F
100
AcDbEntity
  8
0
  6
HIDDEN
 62
     7
370
     0
100
AcDbLine
 10
103.7275619733
 20
103.1458089019
 30
0.0
 11
136.7316316741
 21
103.1458089019
 31
0.0
  0
LINE
  5
1A6
330
1F
100
AcDbEntity
  8
0
  6
HIDDEN
 62
     7
370
     0
100
AcDbLine
 10
136.7316316741
 20
117.1458093341
 30
0.0
 11
103.7275619733
 21
117.1458093341
 31
0.0
  0
LINE
  5
1A7
330
1F
100
AcDbEntity
  8
0
  6
HIDDEN
 62
     7
370
     0
100
AcDbLine
 10
136.7316316741
 20
103.1458089019
 30
0.0
 11
138.3839990872
 21
105.895808887
 31
0.0
  0
LINE
  5
1A8
330
1F
100
AcDbEntity
  8
0
  6
HIDDEN
 62
     7
370
     0
100
AcDbLine
 10
138.3839990872
 20
114.395809349
 30
0.0
 11
136.7316316741
 21
117.1458093341
 31
0.0
  0
LINE
  5
1A9
330
1F
100
AcDbEntity
  8
0
  6
HIDDEN
 62
     7
370
     0
100
AcDbLine
 10
221.0816308784
 20
117.2458091642
 30
0.0
 11
218.7316320764
 21
117.2458091642
 31
0.0
  0
LINE
  5
1AA
330
1F
100
AcDbEntity
  8
0
  6
HIDDEN
 62
     7
370
     0
100
AcDbLine
 10
218.7316320764
 20
103.0458090718
 30
0.0
 11
221.0816308784
 21
103.0458090718
 31
0.0
  0
LINE
  5
1AB
330
1F
100
AcDbEntity
  8
0
  6
HIDDEN
 62
     7
370
     0
100
AcDbLine
 10
218.7316320764
 20
115.9344841617
 30
0.0
 11
218.2316310632
 21
115.6458090882
 31
0.0
  0
LINE
  5
1AC
330
1F
100
AcDbEntity
  8
0
  6
HIDDEN
 62
     7
370
     0
100
AcDbLine
 10
218.2316310632
 20
104.6458091478
 30
0.0
 11
218.7316320764
 21
104.3571340743
 31
0.0
  0
LINE
  5
1AD
330
1F
100
AcDbEntity
  8
0
  6
HIDDEN
 62
     7
370
     0
100
AcDbLine
 10
209.6816316175
 20
104.4458090219
 30
0.0
 11
210.256231569
 21
104.4458090219
 31
0.0
  0
LINE
  5
1AE
330
1F
100
AcDbEntity
  8
0
  6
HIDDEN
 62
     7
370
     0
100
AcDbLine
 10
210.256231569
 20
115.8458092141
 30
0.0
 11
209.6816316175
 21
115.8458092141
 31
0.0
  0
ARC
  5
1AF
330
1F
100
AcDbEntity
  8
0
  6
HIDDEN
 62
     7
370
     0
100
AcDbCircle
 10
210.2562308932
 20
105.045809118
 30
0.0
 40
0.5999999999999943
100
AcDbArc
 50
270.0
 51
285.0
  0
ARC
  5
1B0
330
1F
100
AcDbEntity
  8
0
  6
HIDDEN
 62
     7
370
     0
100
AcDbCircle
 10
210.2562308932
 20
115.245809118
 30
0.0
 40
0.5999999999999934
100
AcDbArc
 50
75.0
 51
90.0
  0
ARC
  5
1B1
330
1F
100
AcDbEntity
  8
0
  6
HIDDEN
 62
     7
370
     0
100
AcDbCircle
 10
209.6816325533
 20
105.045809118
 30
0.0
 40
0.6000000000000227
100
AcDbArc
 50
180.0
 51
270.0
  0
ARC
  5
1B2
330
1F
100
AcDbEntity
  8
0
  6
HIDDEN
 62
     7
370
     0
100
AcDbCircle
 10
209.6816325533
 20
115.245809118
 30
0.0
 40
0.6000000000000227
100
AcDbArc
 50
90.0
 51
180.0
  0
LINE
  5
1B3
330
1F
100
AcDbEntity
  8
0
  6
HIDDEN
 62
     7
370
     0
100
AcDbLine
 10
210.4115240204
 20
104.4662534151
 30
0.0
 11
211.0816329646
 21
104.6458091478
 31
0.0
  0
LINE
  5
1B4
330
1F
100
AcDbEntity
  8
0
  6
HIDDEN
 62
     7
370
     0
100
AcDbLine
 10
211.0816329646
 20
115.6458090882
 30
0.0
 11
210.4115240204
 21
115.825364821
 31
0.0
  0
LINE
  5
1B5
330
1F
100
AcDbEntity
  8
0
  6
HIDDEN
 62
     7
370
     0
100
AcDbLine
 10
211.0816329646
 20
104.6458091478
 30
0.0
 11
218.2316310632
 21
104.6458091478
 31
0.0
  0
LINE
  5
1B6
330
1F
100
AcDbEntity
  8
0
  6
HIDDEN
 62
     7
370
     0
100
AcDbLine
 10
218.2316310632
 20
115.6458090882
 30
0.0
 11
211.0816329646
 21
115.6458090882
 31
0.0
  0
LINE
  5
1B7
330
1F
100
AcDbEntity
  8
0
  6
HIDDEN
 62
     7
370
     0
100
AcDbLine
 10
138.3839990872
 20
105.895808887
 30
0.0
 11
209.0816326367
 21
105.895808887
 31
0.0
  0
LINE
  5
1B8
330
1F
100
AcDbEntity
  8
0
  6
HIDDEN
 62
     7
370
     0
100
AcDbLine
 10
209.0816326367
 20
114.395809349
 30
0.0
 11
138.3839990872
 21
114.395809349
 31
0.0
  0
LINE
  5
1B9
330
1F
100
AcDbEntity
  8
0
  6
HIDDEN
 62
     7
370
     0
100
AcDbLine
 10
220.9767118024
 20
102.1208092462
 30
0.0
 11
221.0816308784
 21
101.8958091627
 31
0.0
  0
LINE
  5
1BA
330
1F
100
AcDbEntity
  8
0
  6
HIDDEN
 62
     7
370
     0
100
AcDbLine
 10
221.0816308784
 20
118.3958090733
 30
0.0
 11
220.9767118024
 21
118.1708089899
 31
0.0
  0
LINE
  5
1BB
330
1F
100
AcDbEntity
  8
0
  6
HIDDEN
 62
     7
370
     0
100
AcDbLine
 10
220.9767118024
 20
118.1708089899
 30
0.0
 11
218.7316320764
 21
118.1708089899
 31
0.0
  0
LINE
  5
1BC
330
1F
100
AcDbEntity
  8
0
  6
HIDDEN
 62
     7
370
     0
100
AcDbLine
 10
218.7316320764
 20
102.1208092462
 30
0.0
 11
220.9767118024
 21
102.1208092462
 31
0.0
  0
LINE
  5
1BD
330
1F
100
AcDbEntity
  8
0
  6
HIDDEN
 62
     7
370
     0
100
AcDbLine
 10
176.6316328126
 20
111.5971916479
 30
0.0
 11
176.6316328126
 21
118.1397130604
 31
0.0
  0
LINE
  5
1BE
330
1F
100
AcDbEntity
  8
0
  6
HIDDEN
 62
     7
370
     0
100
AcDbLine
 10
173.3316328304
 20
116.7396260317
 30
0.0
 11
173.3316328304
 21
111.5968995619
 31
0.0
  0
LINE
  5
1BF
330
1F
100
AcDbEntity
  8
0
  6
HIDDEN
 62
     7
370
     0
100
AcDbLine
 10
173.3316328304
 20
118.1397130604
 30
0.0
 11
173.3316328304
 21
118.1174730773
 31
0.0
  0
LINE
  5
1C0
330
1F
100
AcDbEntity
  8
0
  6
HIDDEN
 62
     7
370
     0
100
AcDbLine
 10
166.3360251973
 20
117.407236703
 30
0.0
 11
174.3116533312
 21
115.497192357
 31
0.0
  0
LINE
  5
1C1
330
1F
100
AcDbEntity
  8
0
  6
HIDDEN
 62
     7
370
     0
100
AcDbLine
 10
174.3116533312
 20
118.8905062045
 30
0.0
 11
167.1045930984
 21
120.6164890792
 31
0.0
  0
LINE
  5
1C2
330
1F
100
AcDbEntity
  8
0
  6
HIDDEN
 62
     7
370
     0
100
AcDbLine
 10
176.981632218
 20
118.1832821931
 30
0.0
 11
176.981632218
 21
121.0046522211
 31
0.0
  0
LINE
  5
1C3
330
1F
100
AcDbEntity
  8
0
  6
HIDDEN
 62
     7
370
     0
100
AcDbLine
 10
172.9816324937
 20
119.7216929759
 30
0.0
 11
172.9816324937
 21
118.2002369206
 31
0.0
  0
LINE
  5
1C4
330
1F
100
AcDbEntity
  8
0
  6
HIDDEN
 62
     7
370
     0
100
AcDbLine
 10
165.1816324724
 20
117.2209717225
 30
0.0
 11
166.0970543439
 21
117.0017421137
 31
0.0
  0
LINE
  5
1C5
330
1F
100
AcDbEntity
  8
0
  6
HIDDEN
 62
     7
370
     0
100
AcDbLine
 10
167.0752317573
 20
121.0862453918
 30
0.0
 11
165.1816324724
 21
121.5397342931
 31
0.0
  0
LINE
  5
1C6
330
1F
100
AcDbEntity
  8
0
  6
HIDDEN
 62
     7
370
     0
100
AcDbLine
 10
176.981632218
 20
118.1832821931
 30
0.0
 11
176.981632218
 21
118.5082020129
 31
0.0
  0
LINE
  5
1C7
330
1F
100
AcDbEntity
  8
0
  6
HIDDEN
 62
     7
370
     0
100
AcDbLine
 10
172.9816324937
 20
118.5082020129
 30
0.0
 11
172.9816324937
 21
118.1832821931
 31
0.0
  0
LINE
  5
1C8
330
1F
100
AcDbEntity
  8
0
  6
HIDDEN
 62
     7
370
     0
100
AcDbLine
 10
176.4816321361
 20
118.4452790658
 30
0.0
 11
176.4816321361
 21
119.4487567882
 31
0.0
  0
LINE
  5
1C9
330
1F
100
AcDbEntity
  8
0
  6
HIDDEN
 62
     7
370
     0
100
AcDbLine
 10
173.4816325756
 20
119.4487567882
 30
0.0
 11
173.4816325756
 21
118.4452790658
 31
0.0
  0
LINE
  5
1CA
330
1F
100
AcDbEntity
  8
0
  6
HIDDEN
 62
     7
370
     0
100
AcDbLine
 10
176.981632218
 20
119.2777473371
 30
0.0
 11
176.981632218
 21
119.414554898
 31
0.0
  0
LINE
  5
1CB
330
1F
100
AcDbEntity
  8
0
  6
HIDDEN
 62
     7
370
     0
100
AcDbLine
 10
172.9816324937
 20
119.414554898
 30
0.0
 11
172.9816324937
 21
119.2777473371
 31
0.0
  0
LINE
  5
1CC
330
1F
100
AcDbEntity
  8
0
  6
HIDDEN
 62
     7
370
     0
100
AcDbLine
 10
172.9816324937
 20
101.0138708989
 30
0.0
 11
172.9816324937
 21
100.877063338
 31
0.0
  0
LINE
  5
1CD
330
1F
100
AcDbEntity
  8
0
  6
HIDDEN
 62
     7
370
     0
100
AcDbLine
 10
176.981632218
 20
100.877063338
 30
0.0
 11
176.981632218
 21
101.0138708989
 31
0.0
  0
LINE
  5
1CE
330
1F
100
AcDbEntity
  8
0
  6
HIDDEN
 62
     7
370
     0
100
AcDbLine
 10
173.4816325756
 20
101.8463391702
 30
0.0
 11
173.4816325756
 21
100.8428614478
 31
0.0
  0
LINE
  5
1CF
330
1F
100
AcDbEntity
  8
0
  6
HIDDEN
 62
     7
370
     0
100
AcDbLine
 10
176.4816321361
 20
100.8428614478
 30
0.0
 11
176.4816321361
 21
101.8463391702
 31
0.0
  0
LINE
  5
1D0
330
1F
100
AcDbEntity
  8
0
  6
HIDDEN
 62
     7
370
     0
100
AcDbLine
 10
172.9816324937
 20
102.1083360429
 30
0.0
 11
172.9816324937
 21
101.7834162231
 31
0.0
  0
LINE
  5
1D1
330
1F
100
AcDbEntity
  8
0
  6
HIDDEN
 62
     7
370
     0
100
AcDbLine
 10
176.981632218
 20
101.7834162231
 30
0.0
 11
176.981632218
 21
102.1083360429
 31
0.0
  0
CIRCLE
  5
1D2
330
1F
100
AcDbEntity
  8
0
  6
HIDDEN
 62
     7
370
     0
100
AcDbCircle
 10
174.9816325533
 20
118.8673227728
 30
0.0
 40
1.500000000000008
  0
ARC
  5
1D3
330
1F
100
AcDbEntity
  8
0
  6
HIDDEN
 62
     7
370
     0
100
AcDbCircle
 10
174.9816325533
 20
101.4242954632
 30
0.0
 40
1.500000000000022
100
AcDbArc
 50
90.6674954873
 51
191.5274417166
  0
ARC
  5
1D4
330
1F
100
AcDbEntity
  8
0
  6
HIDDEN
 62
     7
370
     0
100
AcDbCircle
 10
174.9816325533
 20
101.4242954632
 30
0.0
 40
1.500000000000022
100
AcDbArc
 50
336.5371809719
 51
90.6674954873
  0
LINE
  5
1D5
330
1F
100
AcDbEntity
  8
0
  6
HIDDEN
 62
     7
370
     0
100
AcDbLine
 10
167.2363878156
 20
99.3467951085
 30
0.0
 11
170.5333381819
 21
100.1363657306
 31
0.0
  0
LINE
  5
1D6
330
1F
100
AcDbEntity
  8
0
  6
HIDDEN
 62
     7
370
     0
100
AcDbLine
 10
169.6017404015
 20
104.0263688083
 30
0.0
 11
166.3047900351
 21
103.2367981862
 31
0.0
  0
LINE
  5
1D7
330
1F
100
AcDbEntity
  8
0
  6
HIDDEN
 62
     7
370
     0
100
AcDbLine
 10
171.0963021892
 20
100.7473412792
 30
0.0
 11
171.3248794826
 21
101.3947315405
 31
0.0
  0
LINE
  5
1D8
330
1F
100
AcDbEntity
  8
0
  6
HIDDEN
 62
     7
370
     0
100
AcDbLine
 10
170.8774395215
 20
103.2630759183
 30
0.0
 11
170.38039732
 21
103.736691166
 31
0.0
  0
LINE
  5
1D9
330
1F
100
AcDbEntity
  8
0
  6
HIDDEN
 62
     7
370
     0
100
AcDbLine
 10
170.38039732
 20
116.55492707
 30
0.0
 11
170.8774395215
 21
117.0285423178
 31
0.0
  0
LINE
  5
1DA
330
1F
100
AcDbEntity
  8
0
  6
HIDDEN
 62
     7
370
     0
100
AcDbLine
 10
171.3248794826
 20
118.8968866955
 30
0.0
 11
171.0963021892
 21
119.5442769568
 31
0.0
  0
LINE
  5
1DB
330
1F
100
AcDbEntity
  8
0
  6
HIDDEN
 62
     7
370
     0
100
AcDbLine
 10
166.3047900351
 20
117.0548200499
 30
0.0
 11
169.6017404015
 21
116.2652494277
 31
0.0
  0
LINE
  5
1DC
330
1F
100
AcDbEntity
  8
0
  6
HIDDEN
 62
     7
370
     0
100
AcDbLine
 10
170.5333381819
 20
120.1552525054
 30
0.0
 11
167.2363878156
 21
120.9448231275
 31
0.0
  0
DIMENSION
  5
1DD
330
1F
100
AcDbEntity
  8
VERMASSUNG
100
AcDbDimension
  2
_D
 10
86.5264048369
 20
141.895809118
 30
0.0
 11
86.5264048369
 21
110.145809118
 31
0.0
 70
   160
  1
ISO 40 %%c<>
 71
     2
 42
-1.0
  3
SLDDIMSTYLE0
100
AcDbAlignedDimension
 13
180.4316325533
 23
78.395809118
 33
0.0
 14
180.4316325533
 24
141.895809118
 34
0.0
 50
90.0
100
AcDbRotatedDimension
  0
DIMENSION
  5
1EA
330
1F
100
AcDbEntity
  8
VERMASSUNG
100
AcDbDimension
  2
_D_1
 10
221.0816325533
 20
159.1963787219
 30
0.0
 11
157.4066325533
 21
159.1963787219
 31
0.0
 70
   160
  1
(<>)
 71
     2
 42
-1.0
  3
SLDDIMSTYLE0
100
AcDbAlignedDimension
 13
93.7316325533
 23
121.552939715
 33
0.0
 14
221.0816325533
 24
119.945809118
 34
0.0
100
AcDbRotatedDimension
  0
DIMENSION
  5
1F6
330
1F
100
AcDbEntity
  8
VERMASSUNG
100
AcDbDimension
  2
_D_2
 10
221.0816325533
 20
153.1963787219
 30
0.0
 11
191.5316325533
 21
153.1963787219
 31
0.0
 70
   160
  1
<>
 71
     2
 42
-1.0
  3
SLDDIMSTYLE0
100
AcDbAlignedDimension
 13
161.9816325533
 23
132.370809118
 33
0.0
 14
221.0816325533
 24
119.945809118
 34
0.0
100
AcDbRotatedDimension
  0
DIMENSION
  5
200
330
1F
100
AcDbEntity
  8
VERMASSUNG
100
AcDbDimension
  2
_D_3
 10
221.0816325533
 20
147.1963787219
 30
0.0
 11
201.0566325533
 21
147.1963787219
 31
0.0
 70
   160
  1
<>
 71
     2
 42
-1.0
  3
SLDDIMSTYLE0
100
AcDbAlignedDimension
 13
181.0316325533
 23
140.1563602514
 33
0.0
 14
221.0816325533
 24
119.945809118
 34
0.0
100
AcDbRotatedDimension
  0
DIMENSION
  5
20A
330
1F
100
AcDbEntity
  8
VERMASSUNG
100
AcDbDimension
  2
_D_4
 10
228.7224129136
 20
100.145809118
 30
0.0
 11
228.7224129136
 21
110.145809118
 31
0.0
 70
   160
  1
MBM %%c<>
 71
     2
 42
-1.0
  3
SLDDIMSTYLE0
100
AcDbAlignedDimension
 13
220.8816325533
 23
120.145809118
 33
0.0
 14
220.8816325533
 24
100.145809118
 34
0.0
 50
90.0
100
AcDbRotatedDimension
  0
LINE
  5
216
330
1F
100
AcDbEntity
  8
VERMASSUNG
  6
CENTERX2
 62
     7
370
     0
100
AcDbLine
 10
91.7316325533
 20
110.145809118
 30
0.0
 11
223.0816325533
 21
110.145809118
 31
0.0
  0
LINE
  5
217
330
1F
100
AcDbEntity
  8
VERMASSUNG
  6
CENTERX2
370
     0
100
AcDbLine
 10
164.7753075561
 20
119.4776617633
 30
0.0
 11
176.2566553588
 21
116.7280502367
 31
0.0
  0
LINE
  5
218
330
1F
100
AcDbEntity
  8
VERMASSUNG
  6
CENTERX2
370
     0
100
AcDbLine
 10
164.7753075561
 20
100.8139564727
 30
0.0
 11
176.2566553588
 21
103.5635679993
 31
0.0
  0
OLE2FRAME
  5
219
330
1F
100
AcDbEntity
  8
0
100
AcDbOle2Frame
 70
     2
  3
Paintbrush-Bild
 10
13.8511154363
 20
38.264191557
 30
0.0
 11
51.6290888628
 21
31.9806341108
 31
0.0
 71
     2
 72
     0
 73
     1
 90
    12928
310
80552BED0767C5B32B40DDAF6807D121434000000000000000006FFBDDFB85D0
310
4940DDAF6807D121434000000000000000006FFBDDFB85D04940416F4BD60AFB
310
3F4000000000000000002BED0767C5B32B40416F4BD60AFB3F40000000000000
310
0000000000000100000000010000010000000100000000000100000000320000
310
D0CF11E0A1B11AE1000000000000000000000000000000003E000300FEFF0900
310
0600000000000000000000000100000001000000000000000010000002000000
310
01000000FEFFFFFF0000000000000000FFFFFFFFFFFFFFFFFFFFFFFFFFFFFFFF
310
FFFFFFFFFFFFFFFFFFFFFFFFFFFFFFFFFFFFFFFFFFFFFFFFFFFFFFFFFFFFFFFF
310
FFFFFFFFFFFFFFFFFFFFFFFFFFFFFFFFFFFFFFFFFFFFFFFFFFFFFFFFFFFFFFFF
310
FFFFFFFFFFFFFFFFFFFFFFFFFFFFFFFFFFFFFFFFFFFFFFFFFFFFFFFFFFFFFFFF
310
FFFFFFFFFFFFFFFFFFFFFFFFFFFFFFFFFFFFFFFFFFFFFFFFFFFFFFFFFFFFFFFF
310
FFFFFFFFFFFFFFFFFFFFFFFFFFFFFFFFFFFFFFFFFFFFFFFFFFFFFFFFFFFFFFFF
310
FFFFFFFFFFFFFFFFFFFFFFFFFFFFFFFFFFFFFFFFFFFFFFFFFFFFFFFFFFFFFFFF
310
FFFFFFFFFFFFFFFFFFFFFFFFFFFFFFFFFFFFFFFFFFFFFFFFFFFFFFFFFFFFFFFF
310
FFFFFFFFFFFFFFFFFFFFFFFFFFFFFFFFFFFFFFFFFFFFFFFFFFFFFFFFFFFFFFFF
310
FFFFFFFFFFFFFFFFFFFFFFFFFFFFFFFFFFFFFFFFFFFFFFFFFFFFFFFFFFFFFFFF
310
FFFFFFFFFFFFFFFFFFFFFFFFFFFFFFFFFFFFFFFFFFFFFFFFFFFFFFFFFFFFFFFF
310
FFFFFFFFFFFFFFFFFFFFFFFFFFFFFFFFFFFFFFFFFFFFFFFFFFFFFFFFFFFFFFFF
310
FFFFFFFFFFFFFFFFFFFFFFFFFFFFFFFFFFFFFFFFFFFFFFFFFFFFFFFFFFFFFFFF
310
FFFFFFFFFFFFFFFFFFFFFFFFFFFFFFFFFFFFFFFFFFFFFFFFFFFFFFFFFFFFFFFF
310
FDFFFFFFFEFFFFFFFEFFFFFFFEFFFFFF05000000060000000700000008000000
310
090000000A0000000B0000000C0000000D0000000E0000000F00000010000000
310
11000000120000001300000014000000150000001600000017000000FEFFFFFF
310
FFFFFFFFFFFFFFFFFFFFFFFFFFFFFFFFFFFFFFFFFFFFFFFFFFFFFFFFFFFFFFFF
310
FFFFFFFFFFFFFFFFFFFFFFFFFFFFFFFFFFFFFFFFFFFFFFFFFFFFFFFFFFFFFFFF
310
FFFFFFFFFFFFFFFFFFFFFFFFFFFFFFFFFFFFFFFFFFFFFFFFFFFFFFFFFFFFFFFF
310
FFFFFFFFFFFFFFFFFFFFFFFFFFFFFFFFFFFFFFFFFFFFFFFFFFFFFFFFFFFFFFFF
310
FFFFFFFFFFFFFFFFFFFFFFFFFFFFFFFFFFFFFFFFFFFFFFFFFFFFFFFFFFFFFFFF
310
FFFFFFFFFFFFFFFFFFFFFFFFFFFFFFFFFFFFFFFFFFFFFFFFFFFFFFFFFFFFFFFF
310
FFFFFFFFFFFFFFFFFFFFFFFFFFFFFFFFFFFFFFFFFFFFFFFFFFFFFFFFFFFFFFFF
310
FFFFFFFFFFFFFFFFFFFFFFFFFFFFFFFFFFFFFFFFFFFFFFFFFFFFFFFFFFFFFFFF
310
FFFFFFFFFFFFFFFFFFFFFFFFFFFFFFFFFFFFFFFFFFFFFFFFFFFFFFFFFFFFFFFF
310
FFFFFFFFFFFFFFFFFFFFFFFFFFFFFFFFFFFFFFFFFFFFFFFFFFFFFFFFFFFFFFFF
310
FFFFFFFFFFFFFFFFFFFFFFFFFFFFFFFFFFFFFFFFFFFFFFFFFFFFFFFFFFFFFFFF
310
FFFFFFFFFFFFFFFFFFFFFFFFFFFFFFFFFFFFFFFFFFFFFFFFFFFFFFFFFFFFFFFF
310
FFFFFFFFFFFFFFFFFFFFFFFFFFFFFFFFFFFFFFFFFFFFFFFFFFFFFFFFFFFFFFFF
310
52006F006F007400200045006E00740072007900000000000000000000000000
310
0000000000000000000000000000000000000000000000000000000000000000
310
16000500FFFFFFFFFFFFFFFF020000000A00030000000000C000000000000046
310
000000000000000000000000A08CE9C299FFD10103000000C000000000000000
310
01004F006C006500000000000000000000000000000000000000000000000000
310
0000000000000000000000000000000000000000000000000000000000000000
310
0A000200FFFFFFFFFFFFFFFFFFFFFFFF00000000000000000000000000000000
310
0000000000000000000000000000000000000000000000001400000000000000
310
010043006F006D0070004F0062006A0000000000000000000000000000000000
310
0000000000000000000000000000000000000000000000000000000000000000
310
120002010100000003000000FFFFFFFF00000000000000000000000000000000
310
0000000000000000000000000000000000000000010000004D00000000000000
310
01004F006C006500310030004E00610074006900760065000000000000000000
310
0000000000000000000000000000000000000000000000000000000000000000
310
1A000200FFFFFFFFFFFFFFFFFFFFFFFF00000000000000000000000000000000
310
0000000000000000000000000000000000000000040000002426000000000000
310
FEFFFFFF02000000FEFFFFFFFFFFFFFFFFFFFFFFFFFFFFFFFFFFFFFFFFFFFFFF
310
FFFFFFFFFFFFFFFFFFFFFFFFFFFFFFFFFFFFFFFFFFFFFFFFFFFFFFFFFFFFFFFF
310
FFFFFFFFFFFFFFFFFFFFFFFFFFFFFFFFFFFFFFFFFFFFFFFFFFFFFFFFFFFFFFFF
310
FFFFFFFFFFFFFFFFFFFFFFFFFFFFFFFFFFFFFFFFFFFFFFFFFFFFFFFFFFFFFFFF
310
FFFFFFFFFFFFFFFFFFFFFFFFFFFFFFFFFFFFFFFFFFFFFFFFFFFFFFFFFFFFFFFF
310
FFFFFFFFFFFFFFFFFFFFFFFFFFFFFFFFFFFFFFFFFFFFFFFFFFFFFFFFFFFFFFFF
310
FFFFFFFFFFFFFFFFFFFFFFFFFFFFFFFFFFFFFFFFFFFFFFFFFFFFFFFFFFFFFFFF
310
FFFFFFFFFFFFFFFFFFFFFFFFFFFFFFFFFFFFFFFFFFFFFFFFFFFFFFFFFFFFFFFF
310
FFFFFFFFFFFFFFFFFFFFFFFFFFFFFFFFFFFFFFFFFFFFFFFFFFFFFFFFFFFFFFFF
310
FFFFFFFFFFFFFFFFFFFFFFFFFFFFFFFFFFFFFFFFFFFFFFFFFFFFFFFFFFFFFFFF
310
FFFFFFFFFFFFFFFFFFFFFFFFFFFFFFFFFFFFFFFFFFFFFFFFFFFFFFFFFFFFFFFF
310
FFFFFFFFFFFFFFFFFFFFFFFFFFFFFFFFFFFFFFFFFFFFFFFFFFFFFFFFFFFFFFFF
310
FFFFFFFFFFFFFFFFFFFFFFFFFFFFFFFFFFFFFFFFFFFFFFFFFFFFFFFFFFFFFFFF
310
FFFFFFFFFFFFFFFFFFFFFFFFFFFFFFFFFFFFFFFFFFFFFFFFFFFFFFFFFFFFFFFF
310
FFFFFFFFFFFFFFFFFFFFFFFFFFFFFFFFFFFFFFFFFFFFFFFFFFFFFFFFFFFFFFFF
310
FFFFFFFFFFFFFFFFFFFFFFFFFFFFFFFFFFFFFFFFFFFFFFFFFFFFFFFFFFFFFFFF
310
0100000200000000000000000000000000000000000000000000000000000000
310
0000000000000000000000000000000000000000000000000000000000000000
310
0100FEFF030A0000FFFFFFFF0A00030000000000C00000000000004607000000
310
5042727573680007000000504272757368000700000050427275736800F439B2
310
7100000000000000000000000000000000000000000000000000000000000000
310
0000000000000000000000000000000000000000000000000000000000000000
310
0000000000000000000000000000000000000000000000000000000000000000
310
0000000000000000000000000000000000000000000000000000000000000000
310
0000000000000000000000000000000000000000000000000000000000000000
310
0000000000000000000000000000000000000000000000000000000000000000
310
0000000000000000000000000000000000000000000000000000000000000000
310
0000000000000000000000000000000000000000000000000000000000000000
310
0000000000000000000000000000000000000000000000000000000000000000
310
0000000000000000000000000000000000000000000000000000000000000000
310
0000000000000000000000000000000000000000000000000000000000000000
310
0000000000000000000000000000000000000000000000000000000000000000
310
20260000424D0E260000000000003E00000028000000B40200006E0000000100
310
01000000000000000000130B0000130B00000200000002000000000000FFFFFF
310
FFFFFFFFFFFFFFFFFFFFFFFFFFFFFFFFFFFFFFFFFFFFFFFFFFFFFFFFFFFFFFFF
310
FFFFFFFFFFFFFFFFFFFFFFFFFFFFFFFFFFFFFFFFFFFFFFFFFFFFFFFFFFFFFFFF
310
FFFFFFFFFFFFFFFFFFFFFFFFFFFFFFFFFFFFFFFFFFFFFFFFF000FFFFFFFFFFFF
310
FFFFFFFFFFFFFFFFFFFFFFFFFFFFFFFFFFFFFFFFFFFFFFFFFFFFFFFFFFFFFFFF
310
FFFFFFFFFFFFFFFFFFFFFFFFFFFFFFFFFFFFFFFFFFFFFFFFFFFFFFFFFFFFFFFF
310
FFFFFFFFFFFFFFFFFFFFFFFFFFFFFFFFF000FFFFFFFFFFFFFFFFFFFFFFFFFFFF
310
FFFFFFFFFFFFFFFFFFFFFFFFFFFFFFFFFFFFFFFFFFFFFFFFFFFFFFFFFFFFFFFF
310
FFFFFFFFFFFFFFFFFFFFFFFFFFFFFFFFFFFFFFFFFFFFFFFFFFFFFFFFFFFFFFFF
310
FFFFFFFFFFFFFFFFF000FFFFFFFFFFFFFFFFFFFFFFFFFFFFFFFFFFFFFFFFFFFF
310
FFFFFFFFFFFFFFFFFFFFFFFFFFFFFFFFFFFFFFFFFFFFFFFFFFFFFFFFFFFFFFFF
310
FFFFFFFFFFFFFFFFFFFFFFFFFFFFFFFFFFFFFFFFFFFFFFFFFFFFFFFFFFFFFFFF
310
F000FFFFFFFFFFFFFFFFFFFFFFFFFFFFFFFFFFFFFFFFFFFFFFFFFFFFFFFFFFFF
310
FFFFFFFFFFFFFFFFFFFFFFFFFFFFFFFFFFFFFFFFFFFFFFFFFFFFFFFFFFFFFFFF
310
FFFFFFFFFFFFFFFFFFFFFFFFFFFFFFFFFFFFFFFFFFFFFFFFF000FFFFFFFFFFFF
310
FFFFFFFFFFFFFFFFFFFFFFFFFFFFFFFFFFFFFFFFFFFFFFFFFFFFFFFFFFFFFFFF
310
FFFFFFFFFFFFFFFFFFFFFFFFFFFFFFFFFFFFFFFFFFFFFFFFFFFFFFFFFFFFFFFF
310
FFFFFFFFFFFFFFFFFFFFFFFFFFFFFFFFF000FFFFFFFFFFFFFFFFFFFFFFFFFFFF
310
FFFFFFFFFFFFFFFFFFFFFFFFFFFFFFFFFFFFFFFFFFFFFFFFFFFFFFFFFFFFFFFF
310
FFFFFFFFFFFFFFFFFFFFFFFFFFFFFFFFFFFFFFFFFFFFFFFFFFFFFFFFFFFFFFFF
310
FFFFFFFFFFFFFFFFF000FFFFFFFFFFFFFFFFFFFFFFFFFFFFFFFFFFFFFFFFFFFF
310
FFFFFFFFFFFFFFFFFFFFFFFFFFFFFFFFFFFFFFFFFFFFFFFFFFFFFFFFFFFFFFFF
310
FFFFFFFFFFFFFFFFFFFFFFFFFFFFFFFFFFFFFFFFFFFFFFFFFFFFFFFFFFFFFFFF
310
F000FFFFFFFFFFFFFFFFFFFFFFFFFFFFFFFFFFFFFFFFFFFFFFFFFFFFFFFFFFFF
310
FFFFFFFFFFFFFFFFFFFFFFFFFFFFFFFFFFFFFFFFFFFFFFFFFFFFFFFFFFFFFFFF
310
FFFFFFFFFFFFFFFFFFFFFFFFFFFFFFFFFFFFFFFFFFFFFFFFF000FFFFFFFFFFFF
310
FFFFFFFFFFFFFFFFFFFFFFFFFFFFFFFFFFFFFFFFFFFFFFFFFFFFFFFFFFFFFFFF
310
FFFFFFFFFFFFFFFFFFFFFFFFFFFFFFFFFFFFFFFFFFFFFFFFFFFFFFFFFFFFFFFF
310
FFFFFFFFFFFFFFFFFFFFFFFFFFFFFFFFF000FFFFFFFFFFFFFFFFFFFFFFFFFFFF
310
FFFFFFFFFFFFFFFFFFFFFFFFFFFFFFFFFFFFFFFFFFFFFFFFFFFFFFFFFFFFFFFF
310
FFFFFFFFFFFFFFFFFFFFFFFFFFFFFFFFFFFFFFFFFFFFFFFFFFFFFFFFFFFFFFFF
310
FFFFFFFFFFFFFFFFF000FFFFFFFFFFFFFFFFFFFFFFFFFFFFFFFFFFFFFFFFFFFF
310
FFFFFFFFFFFFFFFFFFFFFFFFFFFFFFFFFFFFFFFFFFFFFFFFFFFFFFFFFFFFFFFF
310
FFFFFFFFFFFFFFFFFFFFFFFFFFFFFFFFFFFFFFFFFFFFFFFFFFFFFFFFFFFFFFFF
310
F000FFFFFFFFFFFFFFFFFFFFFFFFFFFFFFFFFFFFFFFFFFFFFFFFFFFFFFFFFFFF
310
FFFFFFFFFFFFFFFFFFFFFFFFFFFFFFFFFFFFFFFFFFFFFFFFFFFFFFFFFFFFFFFF
310
FFFFFFFFFFFFFFFFFFFFFFFFFFFFFFFFFFFFFFFFFFFFFFFFF000FFFFFFFFFFFF
310
FFFFFFFFFFFFFFFFFFFFFFFFFFFFFFFFFFFFFFFFFFFFFFFFFFFFFFFFFFFFFFFF
310
FFFFFFFFFFFFFFFFFFFFFFFFFFFFFFFFFFFFFFFFFFFFFFFFFFFFFFFFFFFFFFFF
310
FFFFFFFFFFFFFFFFFFFFFFFFFFFFFFFFF000FFFFFFFFFFFFFFFFFFFFFFFFFFFF
310
FFFFFFFFFFFFFFFFFFFFFFFFFFFFFFFFFFFFFFFFFFFFFFFFFFFFFFFFFFFFFFFF
310
FFFFFFFFFFFFFFFFFFFFFFFFFFFFFFFFFFFFFFFFFFFFFFFFFFFFFFFFFFFFFFFF
310
FFFFFFFFFFFFFFFFF000FFFFFFFFFFFFFFFFFFFFFFFFFFFFFFFFFFFFFFFFFFFF
310
FFFFFFFFFFFFFFFFFFFFFFFFFFFFFFFFFFFFFFFFFFFFFFFFFFFFFFFFFFFFFFFF
310
FFFFFFFFFFFFFFFFFFFFFFFFFFFFFFFFFFFFFFFFFFFFFFFFFFFFFFFFFFFFFFFF
310
F000FFFFFFFFFFFFFFFFFFFFFFFFFFFFFFFFFFFFFFFFFFFFFFFFFFFFFFFFFFFF
310
FFFFFFFFFFFFFFFFFFFFFFFFFFFFFFFFFFFFFFFFFFFFFFFFFFFFFFFFFFFFFFFF
310
FFFFFFFFFFFFFFFFFFFFFFFFFFFFFFFFFFFFFFFFFFFFFFFFF000FFFFFFFFFFFF
310
FFFFFFFFFFFFFFFFFFFFFFFFFFFFFFFFFFFFFFFFFFFFFFFFFFFFFFFFFFFFFFFF
310
FFFFFFFFFFFFFFFFFFFFFFFFFFFFFFFFFFFFFFFFFFFFFFFFFFFFFFFFFFFFFFFF
310
FFFFFFFFFFFFFFFFFFFFFFFFFFFFFFFFF000FFFFFFFFFFFFFFFFFFFFFFFFFFFF
310
FFFFFFFFFFFFFFFFFFFFFFFFFFFFFFFFFFFFFFFFFFFFFFFFFFFFFFFFFFFFFFFF
310
FFFFFFFFFFFFFFFFFFFFFFFFFFFFFFFFFFFFFFFFFFFFFFFFFFFFFFFFFFFFFFFF
310
FFFFFFFFFFFFFFFFF000FFFFF80003FFFFFFFFFFFFFFFFFFFFFFFFFFFFFFFFFF
310
FFFFF00007FFFFFFFFFF00007FFFFFF800000000000000007FFFFFFFFFFFFFFF
310
FFFFFFFC001FFFFFFFFFFFFFFC001FFFFFFFFFFFFFFFFFFFFFFFFFFE0007FFFF
310
F000FFFF8000007FFFFFFFF8000FFFFFC0007FFFFF80007FFFFF0000007FFFFF
310
FFF8000007FFFFF800000000000000007FFFFFF0001FFFFFFFFFFFC00001FFFF
310
FFFFFFFFC00001FFFFFFFF000000000003FFFFE000007FFFF000FFFE0000000F
310
FFFFFFF0000FFFFF80007FFFFF80007FFFFC0000001FFFFFFFC0000001FFFFF8
310
00000000000000007FFFFFF0001FFFFFFFFFFE0000003FFFFFFFFFFE0000003F
310
FFFFFF000000000003FFFF0000000FFFF000FFF800000003FFFFFFF00007FFFF
310
80007FFFFF80007FFFF000000007FFFFFF000000003FFFF80000000000000000
310
7FFFFFF0001FFFFFFFFFF80000000FFFFFFFFFF80000000FFFFFFF0000000000
310
03FFFC00000003FFF000FFE000000000FFFFFFF00007FFFF80003FFFFF80007F
310
FFC000000001FFFFFC000000001FFFF800000000000000007FFFFFF0001FFFFF
310
FFFFE000000003FFFFFFFFE000000003FFFFFF000000000003FFF000000000FF
310
F000FF80000000007FFFFFF00007FFFF80003FFFFF80007FFF8000000000FFFF
310
F80000000007FFF800000000000000007FFFFFF0001FFFFFFFFFC000000001FF
310
FFFFFFC000000001FFFFFF000000000003FFC0000000007FF000FF0000000000
310
3FFFFFE00007FFFF00003FFFFF80007FFE00000000003FFFF00000000003FFF8
310
00000000000000007FFFFFF0001FFFFFFFFF8000000000FFFFFFFF8000000000
310
FFFFFF000000000003FF80000000003FF000FE00000000001FFFFFE00003FFFF
310
00003FFFFF80007FFC00000000001FFFE00000000001FFF8000001FFFE000000
310
7FFFFFF0001FFFFFFFFE00000000003FFFFFFE00000000003FFFFF0000000000
310
03FF00000000001FF000FC00000000000FFFFFE00003FFFF00001FFFFF80007F
310
F800000000001FFFC00000000000FFF8000001FFFE0000007FFFFFF0001FFFFF
310
FFFC00000000001FFFFFFC00000000001FFFFF000000000003FE00000000000F
310
F000F8000000000007FFFFE00003FFFF00001FFFFF80007FF800000000000FFF
310
800000000000FFF8000001FFFE0000007FFFFFF0001FFFFFFFF800000000000F
310
FFFFF800000000000FFFFF000000000003FC000000000007F000F80000000000
310
03FFFFC00003FFFE00001FFFFF80007FF0000000000007FF0000000000007FF8
310
000001FFFE0000007FFFFFF0001FFFFFFFF0000000000007FFFFF00000000000
310
07FFFF000000000003F8000000000003F000F0000000000003FFFFC00001FFFE
310
00001FFFFF80007FE0000000000007FE0000000000003FF8000001FFFE000000
310
7FFFFFF0001FFFFFFFF0000000000007FFFFF0000000000007FFFF0000000000
310
03F800001F800003F000E00001FFF00001FFFFC00001FFFE00000FFFFF80007F
310
E00001FFE00003FE00001FFF00003FF8000001FFFE0000007FFFFFF0001FFFFF
310
FFE000003E000003FFFFE000003E000003FFFF000000000003F00001FFF80001
310
F000E00007FFFC0001FFFFC00001FFFE00000FFFFF80007FC0000FFFFC0003FC
310
0000FFFFC0001FF8000001FFFE0000007FFFFFF0001FFFFFFFC00003FFE00001
310
FFFFC00003FFE00001FFFF0001FFFFFFFFF00007FFFE0001F000E0000FFFFF00
310
00FFFF800001FFFC00000FFFFF80007FC0001FFFFE0001FC0001FFFFE0001FF8
310
000001FFFE0000007FFFFFF0001FFFFFFF80000FFFF80000FFFF80000FFFF800
310
00FFFF0003FFFFFFFFE0000FFFFF8000F000C0003FFFFF8000FFFF800000FFFC
310
000007FFFF80007F80003FFFFF0001FC0003FFFFF0001FF8000001FFFE000000
310
7FFFFFF0001FFFFFFF80003FFFFE0000FFFF80003FFFFE0000FFFF0003FFFFFF
310
FFE0003FFFFF8000F000C0003FFFFF8000FFFF800000FFFC000007FFFF80007F
310
80007FFFFF8001F80007FFFFF8000FF8000001FFFE0000007FFFFFF0001FFFFF
310
FF00007FFFFF00007FFF00007FFFFF00007FFF0003FFFFFFFFE0003FFFFFC000
310
F000C0007FFFFFC000FFFF000000FFFC000007FFFF80007F8000FFFFFF8000F8
310
000FFFFFF8000FF8000001FFFE0000007FFFFFF0001FFFFFFF0000FFFFFF8000
310
7FFF0000FFFFFF80007FFF0003FFFFFFFFC0007FFFFFC00070008000FFFFFFC0
310
00FFFF000000FFF8000007FFFF80007F8000FFFFFF8000F8000FFFFFF8000FF8
310
000001FFFE0000007FFFFFF0001FFFFFFE0001FFFFFFC0003FFE0001FFFFFFC0
310
003FFF0003FFFFFFFFC0007FFFFFE00070008000FFFFFFC0007FFF0000007FF8
310
000003FFFF80007F0001FFFFFF8000F8000FFFFFF8000FF8000001FFFE000000
310
7FFFFFF0001FFFFFFE0001FFFFFFC0003FFE0001FFFFFFC0003FFF0003FFFFFF
310
FFC000FFFFFFE00070008000FFFFFFC0007FFF0000007FF8000003FFFF80007F
310
0001FFFFFF8000F8001FFFFFF8000FF8000001FFFE0000007FFFFFF0001FFFFF
310
FE0003FFFFFFE0003FFE0003FFFFFFE0003FFF0003FFFFFFFFC000FFFFFFE000
310
70008000FFFFFFC0007FFE0000007FF8000003FFFF80007F0001FFFFFF8000F0
310
001FFFFFF8000FF8000001FFFE0000007FFFFFF0001FFFFFFC0003FFFFFFE000
310
1FFC0003FFFFFFE0001FFF0003FFFFFFFFC000FFFFFFC00070008000FFFFFF80
310
007FFE0000007FF0000003FFFF80007F0001FFFFFF0000F0001FFFFFF8000FF8
310
000001FFFE0000007FFFFFF0001FFFFFFC0007FFFFFFF0001FFC0007FFFFFFF0
310
001FFF0003FFFFFFFFC000FFFFFFC00070008001FFFFFF0000FFFE0000003FF0
310
000001FFFF80007F0001FFFFFF0000F8001FFFFFF0000FF8000001FFFE000000
310
7FFFFFF0001FFFFFFC0007FFFFFFF0001FFC0007FFFFFFF0001FFF0003FFFFFF
310
FFC001FFFFFF80007000FFFFFFFFFE0000FFFE0008003FF0008001FFFF80007F
310
FFFFFFFFFC0000FFFFFFFFFFE0000FF8000001FFFE0000007FFFFFF0001FFFFF
310
F8000FFFFFFFF8000FF8000FFFFFFFF8000FFF0003FFFFFFFFFFFFFFFFFF0000
310
7000FFFFFFFFFC0000FFFC0008003FF0008001FFFF80007FFFFFFFFFF80001FF
310
FFFFFFFF80000FF8000001FFFE0000007FFFFFF0001FFFFFF8000FFFFFFFF800
310
0FF8000FFFFFFFF8000FFF0003FFFFFFFFFFFFFFFFFE0000F000FFFFFFFFE000
310
00FFFC000C003FE000C001FFFF80007FFFFFFFFFC00001FFFFFFFFFE00001FF8
310
000001FFFE0000007FFFFFF0001FFFFFF8000FFFFFFFF8000FF8000FFFFFFFF8
310
000FFF0003FFFFFFFFFFFFFFFFF00000F000FFFFFFFE000001FFFC000C001FE0
310
00C000FFFF80007FFFFFFFFE000001FFFFFFFFE000001FF80FFFFFFFFFFFFFC0
310
7FFFFFF0001FFFFFF8000FFFFFFFF8000FF8000FFFFFFFF8000FFF0003FFFFFF
310
FFFFFFFFFF800000F000FFFFFFC0000001FFFC001C001FE001C000FFFF80007F
310
FFFFFF80000003FFFFFFF80000001FF80FFFFFFFFFFFFFC07FFFFFF0001FFFFF
310
F8001FFFFFFFFC000FF8001FFFFFFFFC000FFF0003FFFFFFFFFFFFFFF0000001
310
F000FFFFF800000001FFF8001C001FE001C000FFFF80007FFFFFF800000003FF
310
FFFF800000003FF80FFFFFFFFFFFFFC07FFFFFF0001FFFFFF8001FFFFFFFFC00
310
0FF8001FFFFFFFFC000FFF0003FFFFFFFFFFFFFE00000001F000FFFFC0000000
310
03FFF8001E001FC001E000FFFF80007FFFFF8000000007FFFFFC000000003FF8
310
0FFFFFFFFFFFFFC07FFFFFF0001FFFFFF8001FFFFFFFFC000FF8001FFFFFFFFC
310
000FFF0003FFFFFFFFFFFFE000000003F000FFFE0000000007FFF8001E000FC0
310
01E0007FFF80007FFFFE0000000007FFFFE0000000007FF80FFFFFFFFFFFFFC0
310
7FFFFFF0001FFFFFF0001FFFFFFFFC0007F0001FFFFFFFFC0007FF0003FFFFFF
310
FFFFFF0000000003F000FFF80000000007FFF8001E000FC003E0007FFF80007F
310
FFF0000000000FFFFF8000000000FFF80FFFFFFFFFFFFFC07FFFFFF0001FFFFF
310
F0001FFFFFFFFC0007F0001FFFFFFFFC0007FF0003FFFFFFFFFFFC0000000007
310
F000FFE0000000000FFFF0003E000FC003E0007FFF80007FFFC0000000001FFF
310
FE0000000001FFF80FFFFFFFFFFFFFC07FFFFFF0001FFFFFF0001FFFFFFFFC00
310
07F0001FFFFFFFFC0007FF0003FFFFFFFFFFF0000000000FF000FFC000000000
310
1FFFF0003F000F8003F0003FFF80007FFF80000000003FFFF80000000003FFF8
310
0FFFFFFFFFFFFFC07FFFFFF0001FFFFFF0001FFFFFFFFC0007F0001FFFFFFFFC
310
0007FF0003FFFFFFFFFFE0000000001FF000FF00000000007FFFF0003F000780
310
03F0003FFF80007FFF00000000007FFFF00000000007FFF80FFFFFFFFFFFFFC0
310
7FFFFFF0001FFFFFF0001FFFFFFFFC0007F0001FFFFFFFFC0007FF0003FFFFFF
310
FFFF80000000007FF000FE0000000000FFFFE0003F00078007F0003FFF80007F
310
FE0000000001FFFFE0000000001FFFF80FFFFFFFFFFFFFC07FFFFFF0001FFFFF
310
F0001FFFFFFFFC0007F0001FFFFFFFFC0007FF0003FFFFFFFFFF0000000000FF
310
F000FC0000000003FFFFE0007F00078007F0003FFF80007FFC0000000007FFFF
310
C0000000007FFFF80FFFFFFFFFFFFFC07FFFFFF0001FFFFFF8001FFFFFFFFC00
310
0FF8001FFFFFFFFC000FFF0003FFFFFFFFFE0000000003FFF000FC000000000F
310
FFFFE0007F80070007F8001FFF80007FF8000000001FFFFF8000000001FFFFF8
310
0FFFFFFFFFFFFFC07FFFFFF0001FFFFFF8001FFFFFFFFC000FF8001FFFFFFFFC
310
000FFF0003FFFFFFFFFC000000000FFFF000F8000000007FFFFFE0007F800700
310
07F8001FFF80007FF000000000FFFFFF800000000FFFFFF80FFFFFFFFFFFFFC0
310
7FFFFFF0001FFFFFF8000FFFFFFFF8000FF8000FFFFFFFF8000FFF0003FFFFFF
310
FFFC000000007FFFF000F800000007FFFFFFC0007F8003000FF8001FFF80007F
310
F000000007FFFFFF000000007FFFFFF80FFFFFFFFFFFFFC07FFFFFF0001FFFFF
310
F8000FFFFFFFF8000FF8000FFFFFFFF8000FFF0003FFFFFFFFF80000000FFFFF
310
F000F0000000FFFFFFFFC000FF8003000FF8001FFF80007FE0000000FFFFFFFF
310
0000000FFFFFFFF8000001FFFE0000007FFFFFF0001FFFFFF8000FFFFFFFF800
310
0FF8000FFFFFFFF8000FFF0003FFFFFFFFF8000000FFFFFFF000F000000FFFFF
310
FFFFC000FFC002000FF8000FFF80007FE000001FFFFFFFFE000001FFFFFFFFF8
310
000001FFFE0000007FFFFFF0001FFFFFF8000FFFFFFFF8000FF8000FFFFFFFF8
310
000FFF0003FFFFFFFFF000001FFFFFFFF000E00000FFFFFFFFFFC000FFC00200
310
0FFC000FFF80007FE00001FFFFFFFFFE00001FFFFFFFFFF8000001FFFE000000
310
7FFFFFF0001FFFFFFC000FFFFFFFF8001FFC000FFFFFFFF8001FFF0003FFFFFF
310
FFF00001FFFFFFFFF000E00007FFFFFFFFFF8000FFC000001FFC000FFF80007F
310
C0000FFFFFFFFFFE0000FFFFFFFFFFF8000001FFFE0000007FFFFFF0001FFFFF
310
FC0007FFFFFFF0001FFC0007FFFFFFF0001FFF0003FFFFFFFFF00007FFFFFFFF
310
F000E0001FFFFFFFFFFF8000FFC000001FFC000FFF80007FC0003FFFFFFFFFFE
310
0001FFFFFFFFFFF8000001FFFE0000007FFFFFF0001FFFFFFC0007FFFFFFF000
310
1FFC0007FFFFFFF0001FFF0003FFFFFFFFF0001FFFFFFFFFF000E0003FFFFF00
310
03FF8001FFE000001FFC0007FF80007FC0007FFFFF0007FC0003FFFFF0003FF8
310
000001FFFE0000007FFFFFF0001FFFFFFC0003FFFFFFE0001FFC0003FFFFFFE0
310
001FFF0003FFFFFFFFF0003FFFFFFFFFF000E0003FFFFF0001FF8001FFE00000
310
1FFE0007FF80007FC0007FFFFE0003FC0007FFFFE0003FF8000001FFFE000000
310
7FFFFFF0001FFFFFFE0003FFFFFFE0003FFE0003FFFFFFE0003FFF0003FFFFFF
310
FFF0003FFFFF8001F000E0003FFFFF0001FF0001FFE000001FFE0007FF80007F
310
C0007FFFFE0003FC0007FFFFE0003FF8000001FFFE0000007FFFFFF0001FFFFF
310
FE0001FFFFFFC0003FFE0001FFFFFFC0003FFF0003FFFFFFFFF0003FFFFF0001
310
F000E0003FFFFF0003FF0001FFE000003FFE0007FF80007FC0007FFFFE0003FC
310
0007FFFFE0003FF8000001FFFE0000007FFFFFF0001FFFFFFF0001FFFFFFC000
310
7FFF0001FFFFFFC0007FFF0003FFFFFFFFF0003FFFFF0001F000E0003FFFFE00
310
03FF0003FFF000003FFE0003FF80007FC0007FFFFC0003FE0007FFFFE0003FF8
310
000001FFFE0000007FFFFFF0001FFFFFFF0000FFFFFF80007FFF0000FFFFFF80
310
007FFF0003FFFFFFFFF0003FFFFF0001F000E0003FFFFE0003FF0003FFF00000
310
3FFF0003FF80007FC0007FFFFC0007FE0007FFFFC0003FF8000001FFFE000000
310
7FFFFFF0001FFFFFFF80007FFFFF0000FFFF80007FFFFF0000FFFF0003FFFFFF
310
FFF0003FFFFF0003F000E0003FFFFC0003FE0003FFF000003FFF0003FF80007F
310
E0003FFFF80007FE0003FFFFC0007FF8000001FFFE0000007FFFFFF0001FFFFF
310
FF80003FFFFE0000FFFF80003FFFFE0000FFFF0003FFFFFFFFF0001FFFFE0003
310
F000F0001FFFF80003FE0003FFF000007FFF0001FF80007FE0003FFFF00007FE
310
0001FFFF80007FF8000001FFFE0000007FFFFFF0001FFFFFFFC0000FFFF80001
310
FFFFC0000FFFF80001FFFF0003FFFFFFFFF0001FFFFC0003F000F0000FFFF000
310
07FE0007FFF800007FFF0001FF80007FE0001FFFE00007FF0000FFFE00007FF8
310
000001FFFE0000007FFFFFF0001FFFFFFFC00003FFE00001FFFFC00003FFE000
310
01FFFF0003FFFFFFFFF8000FFFF80003F000F00003FFC00007FC0007FFF80000
310
7FFF8001FF80007FF00007FF80000FFF00007FF80000FFF8000001FFFE000000
310
7F80000000000001FFE000003E000003FFFFE000003E000003FFFF0003FFFFFF
310
FFF80003FFE00007F000F800000000000FFC0007FFF800007FFF8001FF80007F
310
F000000000000FFF000000000000FFF8000001FFFE0000007F80000000000001
310
FFF0000000000007FFFFF0000000000007FFFF0003FFFFFFFFFC00007E000007
310
F000F800000000000FFC0007FFF80000FFFF8000FF80007FF800000000001FFF
310
800000000001FFF8000001FFFE0000007F80000000000001FFF800000000000F
310
FFFFF800000000000FFFFF0003FFFFFFFFFC00000000000FF000FC0000000000
310
1FFC0007FFFC0000FFFF8000FF80007FF800000000003FFFC00000000001FFF8
310
000001FFFE0000007F80000000000001FFF800000000000FFFFFF80000000000
310
0FFFFF0003FFFFFFFFFE00000000001FF000FE00000000003FF8000FFFFC0000
310
FFFF8000FF80007FFC00000000003FFFC00000000003FFF8000001FFFE000000
310
7F80000000000001FFFC00000000001FFFFFFC00000000001FFFFF0003FFFFFF
310
FFFF00000000001FF000FF00000000003FF8000FFFFC0000FFFFC000FF80007F
310
FE00000000007FFFE00000000007FFF8000001FFFE0000007F80000000000001
310
FFFE00000000003FFFFFFE00000000003FFFFF0003FFFFFFFFFF80000000003F
310
F000FF80000000007FF8000FFFFC0001FFFFC0007F80007FFF0000000000FFFF
310
F0000000000FFFF800000000000000007F80000000000001FFFF8000000000FF
310
FFFFFF8000000000FFFFFF0003FFFFFFFFFFC0000000007FF000FFC000000000
310
FFF8000FFFFE0001FFFFC0007F80007FFF8000000001FFFFF8000000001FFFF8
310
00000000000000007F80000000000001FFFFC000000001FFFFFFFFC000000001
310
FFFFFF0003FFFFFFFFFFE000000000FFF000FFE000000003FFF0001FFFFE0001
310
FFFFC0007F80007FFFC000000007FFFFFE000000003FFFF80000000000000000
310
7F80000000000001FFFFE000000003FFFFFFFFE000000003FFFFFF0003FFFFFF
310
FFFFF000000003FFF000FFF80000000FFFF0001FFFFE0001FFFFE0007F80007F
310
FFF00000000FFFFFFF00000000FFFFF800000000000000007F80000000000001
310
FFFFF80000000FFFFFFFFFF80000000FFFFFFF0003FFFFFFFFFFFC0000000FFF
310
F000FFFE0000003FFFF0001FFFFE0003FFFFE0003F80007FFFFC0000003FFFFF
310
FFC0000003FFFFF800000000000000007F80000000000001FFFFFE0000003FFF
310
FFFFFFFE0000003FFFFFFF0003FFFFFFFFFFFF0000003FFFF000FFFF800000FF
310
FFF0001FFFFF0003FFFFE0003F80007FFFFF000001FFFFFFFFF800001FFFFFF8
310
00000000000000007F80000000000001FFFFFFC00001FFFFFFFFFFFFC00001FF
310
FFFFFF0003FFFFFFFFFFFFC00000FFFFF000FFFFF8000FFFFFFFFFFFFFFFFFFF
310
FFFFFFFFFFFFFFFFFFFFF0001FFFFFFFFFFF0000FFFFFFF80000000000000000
310
7FFFFFFFFFFFFFFFFFFFFFFC001FFFFFFFFFFFFFFC001FFFFFFFFFFFFFFFFFFF
310
FFFFFFFC001FFFFFF000FFFFFFFFFFFFFFFFFFFFFFFFFFFFFFFFFFFFFFFFFFFF
310
FFFFFFFFFFFFFFFFFFFFFFFFFFFFFFFFFFFFFFFFFFFFFFFFFFFFFFFFFFFFFFFF
310
FFFFFFFFFFFFFFFFFFFFFFFFFFFFFFFFFFFFFFFFFFFFFFFFFFFFFFFFFFFFFFFF
310
F000FFFFFFFFFFFFFFFFFFFFFFFFFFFFFFFFFFFFFFFFFFFFFFFFFFFFFFFFFFFF
310
FFFFFFFFFFFFFFFFFFFFFFFFFFFFFFFFFFFFFFFFFFFFFFFFFFFFFFFFFFFFFFFF
310
FFFFFFFFFFFFFFFFFFFFFFFFFFFFFFFFFFFFFFFFFFFFFFFFF000FFFFFFFFFFFF
310
FFFFFFFFFFFFFFFFFFFFFFFFFFFFFFFFFFFFFFFFFFFFFFFFFFFFFFFFFFFFFFFF
310
FFFFFFFFFFFFFFFFFFFFFFFFFFFFFFFFFFFFFFFFFFFFFFFFFFFFFFFFFFFFFFFF
310
FFFFFFFFFFFFFFFFFFFFFFFFFFFFFFFFF000FFFFFFFFFFFFFFFFFFFFFFFFFFFF
310
FFFFFFFFFFFFFFFFFFFFFFFFFFFFFFFFFFFFFFFFFFFFFFFFFFFFFFFFFFFFFFFF
310
FFFFFFFFFFFFFFFFFFFFFFFFFFFFFFFFFFFFFFFFFFFFFFFFFFFFFFFFFFFFFFFF
310
FFFFFFFFFFFFFFFFF000FFFFFFFFFFFFFFFFFFFFFFFFFFFFFFFFFFFFFFFFFFFF
310
FFFFFFFFFFFFFFFFFFFFFFFFFFFFFFFFFFFFFFFFFFFFFFFFFFFFFFFFFFFFFFFF
310
FFFFFFFFFFFFFFFFFFFFFFFFFFFFFFFFFFFFFFFFFFFFFFFFFFFFFFFFFFFFFFFF
310
F000FFFFFFFFFFFFFFFFFFFFFFFFFFFFFFFFFFFFFFFFFFFFFFFFFFFFFFFFFFFF
310
FFFFFFFFFFFFFFFFFFFFFFFFFFFFFFFFFFFFFFFFFFFFFFFFFFFFFFFFFFFFFFFF
310
FFFFFFFFFFFFFFFFFFFFFFFFFFFFFFFFFFFFFFFFFFFFFFFFF000FFFFFFFFFFFF
310
FFFFFFFFFFFFFFFFFFFFFFFFFFFFFFFFFFFFFFFFFFFFFFFFFFFFFFFFFFFFFFFF
310
FFFFFFFFFFFFFFFFFFFFFFFFFFFFFFFFFFFFFFFFFFFFFFFFFFFFFFFFFFFFFFFF
310
FFFFFFFFFFFFFFFFFFFFFFFFFFFFFFFFF000FFFFFFFFFFFFFFFFFFFFFFFFFFFF
310
FFFFFFFFFFFFFFFFFFFFFFFFFFFFFFFFFFFFFFFFFFFFFFFFFFFFFFFFFFFFFFFF
310
FFFFFFFFFFFFFFFFFFFFFFFFFFFFFFFFFFFFFFFFFFFFFFFFFFFFFFFFFFFFFFFF
310
FFFFFFFFFFFFFFFFF000FFFFFFFFFFFFFFFFFFFFFFFFFFFFFFFFFFFFFFFFFFFF
310
FFFFFFFFFFFFFFFFFFFFFFFFFFFFFFFFFFFFFFFFFFFFFFFFFFFFFFFFFFFFFFFF
310
FFFFFFFFFFFFFFFFFFFFFFFFFFFFFFFFFFFFFFFFFFFFFFFFFFFFFFFFFFFFFFFF
310
F000FFFFFFFFFFFFFFFFFFFFFFFFFFFFFFFFFFFFFFFFFFFFFFFFFFFFFFFFFFFF
310
FFFFFFFFFFFFFFFFFFFFFFFFFFFFFFFFFFFFFFFFFFFFFFFFFFFFFFFFFFFFFFFF
310
FFFFFFFFFFFFFFFFFFFFFFFFFFFFFFFFFFFFFFFFFFFFFFFFF000FFFFFFFFFFFF
310
FFFFFFFFFFFFFFFFFFFFFFFFFFFFFFFFFFFFFFFFFFFFFFFFFFFFFFFFFFFFFFFF
310
FFFFFFFFFFFFFFFFFFFFFFFFFFFFFFFFFFFFFFFFFFFFFFFFFFFFFFFFFFFFFFFF
310
FFFFFFFFFFFFFFFFFFFFFFFFFFFFFFFFF000FFFFFFFFFFFFFFFFFFFFFFFFFFFF
310
FFFFFFFFFFFFFFFFFFFFFFFFFFFFFFFFFFFFFFFFFFFFFFFFFFFFFFFFFFFFFFFF
310
FFFFFFFFFFFFFFFFFFFFFFFFFFFFFFFFFFFFFFFFFFFFFFFFFFFFFFFFFFFFFFFF
310
FFFFFFFFFFFFFFFFF000FFFFFFFFFFFFFFFFFFFFFFFFFFFFFFFFFFFFFFFFFFFF
310
FFFFFFFFFFFFFFFFFFFFFFFFFFFFFFFFFFFFFFFFFFFFFFFFFFFFFFFFFFFFFFFF
310
FFFFFFFFFFFFFFFFFFFFFFFFFFFFFFFFFFFFFFFFFFFFFFFFFFFFFFFFFFFFFFFF
310
F000FFFFFFFFFFFFFFFFFFFFFFFFFFFFFFFFFFFFFFFFFFFFFFFFFFFFFFFFFFFF
310
FFFFFFFFFFFFFFFFFFFFFFFFFFFFFFFFFFFFFFFFFFFFFFFFFFFFFFFFFFFFFFFF
310
FFFFFFFFFFFFFFFFFFFFFFFFFFFFFFFFFFFFFFFFFFFFFFFFF000FFFFFFFFFFFF
310
FFFFFFFFFFFFFFFFFFFFFFFFFFFFFFFFFFFFFFFFFFFFFFFFFFFFFFFFFFFFFFFF
310
FFFFFFFFFFFFFFFFFFFFFFFFFFFFFFFFFFFFFFFFFFFFFFFFFFFFFFFFFFFFFFFF
310
FFFFFFFFFFFFFFFFFFFFFFFFFFFFFFFFF000FFFFFFFFFFFFFFFFFFFFFFFFFFFF
310
FFFFFFFFFFFFFFFFFFFFFFFFFFFFFFFFFFFFFFFFFFFFFFFFFFFFFFFFFFFFFFFF
310
FFFFFFFFFFFFFFFFFFFFFFFFFFFFFFFFFFFFFFFFFFFFFFFFFFFFFFFFFFFFFFFF
310
FFFFFFFFFFFFFFFFF000FFFFFFFFFFFFFFFFFFFFFFFFFFFFFFFFFFFFFFFFFFFF
310
FFFFFFFFFFFFFFFFFFFFFFFFFFFFFFFFFFFFFFFFFFFFFFFFFFFFFFFFFFFFFFFF
310
FFFFFFFFFFFFFFFFFFFFFFFFFFFFFFFFFFFFFFFFFFFFFFFFFFFFFFFFFFFFFFFF
310
F000FFFFFFFFFFFFFFFFFFFFFFFFFFFFFFFFFFFFFFFFFFFFFFFFFFFFFFFFFFFF
310
FFFFFFFFFFFFFFFFFFFFFFFFFFFFFFFFFFFFFFFFFFFFFFFFFFFFFFFFFFFFFFFF
310
FFFFFFFFFFFFFFFFFFFFFFFFFFFFFFFFFFFFFFFFFFFFFFFFF000FFFFFFFFFFFF
310
FFFFFFFFFFFFFFFFFFFFFFFFFFFFFFFFFFFFFFFFFFFFFFFFFFFFFFFFFFFFFFFF
310
FFFFFFFFFFFFFFFFFFFFFFFFFFFFFFFFFFFFFFFFFFFFFFFFFFFFFFFFFFFFFFFF
310
FFFFFFFFFFFFFFFFFFFFFFFFFFFFFFFFF000FFFFFFFFFFFFFFFFFFFFFFFFFFFF
310
FFFFFFFFFFFFFFFFFFFFFFFFFFFFFFFFFFFFFFFFFFFFFFFFFFFFFFFFFFFFFFFF
310
FFFFFFFFFFFFFFFFFFFFFFFFFFFFFFFFFFFFFFFFFFFFFFFFFFFFFFFFFFFFFFFF
310
FFFFFFFFFFFFFFFFF000FFFFFFFFFFFFFFFFFFFFFFFFFFFFFFFFFFFFFFFFFFFF
310
FFFFFFFFFFFFFFFFFFFFFFFFFFFFFFFFFFFFFFFFFFFFFFFFFFFFFFFFFFFFFFFF
310
FFFFFFFFFFFFFFFFFFFFFFFFFFFFFFFFFFFFFFFFFFFFFFFFFFFFFFFFFFFFFFFF
310
F000FFFFFFFFFFFFFFFFFFFFFFFFFFFFFFFFFFFFFFFFFFFFFFFFFFFFFFFFFFFF
310
FFFFFFFFFFFFFFFFFFFFFFFFFFFFFFFFFFFFFFFFFFFFFFFFFFFFFFFFFFFFFFFF
310
FFFFFFFFFFFFFFFFFFFFFFFFFFFFFFFFFFFFFFFFFFFFFFFFF000FFFFFFFFFFFF
310
FFFFFFFFFFFFFFFFFFFFFFFFFFFFFFFFFFFFFFFFFFFFFFFFFFFFFFFFFFFFFFFF
310
FFFFFFFFFFFFFFFFFFFFFFFFFFFFFFFFFFFFFFFFFFFFFFFFFFFFFFFFFFFFFFFF
310
FFFFFFFFFFFFFFFFFFFFFFFFFFFFFFFFF0000000000000000000000000000000
310
0000000000000000000000000000000000000000000000000000000000000000
310
0000000000000000000000000000000000000000000000000000000000000000
310
0000000000000000000000000000000000000000000000000000000000000000
310
0000000000000000000000000000000000000000000000000000000000000000
310
0000000000000000000000000000000000000000000000000000000000000000
310
0000000000000000000000000000000000000000000000000000000000000000
310
0000000000000000000000000000000000000000000000000000000000000000
310
0000000000000000000000000000000000000000000000000000000000000000
310
0000000000000000000000000000000000000000000000000000000000000000
310
0000000000000000000000000000000000000000000000000000000000000000
310
0000000000000000000000000000000000000000000000000000000000000000
310
0000000000000000000000000000000000000000000000000000000000000000
310
0000000000000000000000000000000000000000000000000000000000000000
310
0000000000000000000000000000000000000000000000000000000000000000
310
0000000000000000000000000000000000000000000000000000000000000000
  1
OLE
  0
ENDSEC
  0
SECTION
  2
OBJECTS
  0
DICTIONARY
  5
C
330
0
100
AcDbDictionary
281
     1
  3
ACAD_GROUP
350
D
  3
ACAD_LAYOUT
350
1A
  3
ACAD_MLINESTYLE
350
17
  3
ACAD_PLOTSETTINGS
350
19
  3
ACAD_PLOTSTYLENAME
350
E
  3
ACAD_SCALELIST
350
47
  0
DICTIONARY
  5
D
102
{ACAD_REACTORS
330
C
102
}
330
C
100
AcDbDictionary
281
     1
  0
DICTIONARY
  5
1A
102
{ACAD_REACTORS
330
C
102
}
330
C
100
AcDbDictionary
281
     1
  3
Layout1
350
1E
  3
Layout2
350
26
  3
Model
350
22
  0
DICTIONARY
  5
17
102
{ACAD_REACTORS
330
C
102
}
330
C
100
AcDbDictionary
281
     1
  3
Standard
350
18
  0
DICTIONARY
  5
19
102
{ACAD_REACTORS
330
C
102
}
330
C
100
AcDbDictionary
281
     1
  0
ACDBDICTIONARYWDFLT
  5
E
102
{ACAD_REACTORS
330
C
102
}
330
C
100
AcDbDictionary
281
     1
  3
Normal
350
F
100
AcDbDictionaryWithDefault
340
F
  0
DICTIONARY
  5
47
102
{ACAD_REACTORS
330
C
102
}
330
C
100
AcDbDictionary
281
     1
  3
A0
350
48
  3
A1
350
49
  3
A2
350
4A
  3
A3
350
4B
  3
A4
350
4C
  3
A5
350
4D
  3
A6
350
4E
  3
A7
350
4F
  3
A8
350
50
  3
A9
350
51
  3
B0
350
52
  3
B1
350
53
  3
B2
350
54
  3
B3
350
55
  3
B4
350
56
  3
B5
350
57
  3
B6
350
58
  3
B7
350
59
  3
B8
350
5A
  3
B9
350
5B
  3
C0
350
5C
  3
C1
350
5D
  3
C2
350
5E
  3
C3
350
5F
  3
C4
350
60
  3
C5
350
61
  3
C6
350
62
  3
C7
350
63
  3
C8
350
64
  3
C9
350
65
  3
D0
350
66
  3
D1
350
67
  3
D2
350
68
  0
LAYOUT
  5
1E
102
{ACAD_REACTORS
330
1A
102
}
330
1A
100
AcDbPlotSettings
  1

  2
none_device
  4

  6

 40
0.0
 41
0.0
 42
0.0
 43
0.0
 44
0.0
 45
0.0
 46
0.0
 47
0.0
 48
0.0
 49
0.0
140
0.0
141
0.0
142
1.0
143
1.0
 70
   688
 72
     1
 73
     0
 74
     5
  7

 75
    16
147
1.0
148
0.0
149
0.0
100
AcDbLayout
  1
Layout1
 70
     1
 71
     1
 10
0.0
 20
0.0
 11
420.0
 21
297.0
 12
0.0
 22
0.0
 32
0.0
 14
1.0000000000E+20
 24
1.0000000000E+20
 34
1.0000000000E+20
 15
-1.0000000000E+20
 25
-1.0000000000E+20
 35
-1.0000000000E+20
146
0.0
 13
0.0
 23
0.0
 33
0.0
 16
1.0
 26
0.0
 36
0.0
 17
0.0
 27
1.0
 37
0.0
 76
     0
330
1B
  0
LAYOUT
  5
26
102
{ACAD_REACTORS
330
1A
102
}
330
1A
100
AcDbPlotSettings
  1

  2
none_device
  4

  6

 40
0.0
 41
0.0
 42
0.0
 43
0.0
 44
0.0
 45
0.0
 46
0.0
 47
0.0
 48
0.0
 49
0.0
140
0.0
141
0.0
142
1.0
143
1.0
 70
   688
 72
     1
 73
     0
 74
     5
  7

 75
    16
147
1.0
148
0.0
149
0.0
100
AcDbLayout
  1
Layout2
 70
     1
 71
     2
 10
0.0
 20
0.0
 11
0.0
 21
0.0
 12
0.0
 22
0.0
 32
0.0
 14
0.0
 24
0.0
 34
0.0
 15
0.0
 25
0.0
 35
0.0
146
0.0
 13
0.0
 23
0.0
 33
0.0
 16
1.0
 26
0.0
 36
0.0
 17
0.0
 27
1.0
 37
0.0
 76
     0
330
23
  0
LAYOUT
  5
22
102
{ACAD_REACTORS
330
1A
102
}
330
1A
100
AcDbPlotSettings
  1

  2
none_device
  4
Letter_(8.50_x_11.00_Inches)
  6

 40
6.35
 41
6.35
 42
6.35000508
 43
6.35000508
 44
215.9
 45
279.4
 46
0.0
 47
0.0
 48
0.0
 49
0.0
140
0.0
141
0.0
142
1.0
143
1.0
 70
  1712
 72
     1
 73
     0
 74
     0
  7

 75
     0
147
1.0
148
0.0
149
0.0
100
AcDbLayout
  1
Model
 70
     1
 71
     0
 10
0.0
 20
0.0
 11
297.0
 21
210.0
 12
0.0
 22
0.0
 32
0.0
 14
0.0
 24
0.0
 34
0.0
 15
297.0
 25
210.0
 35
0.0
146
0.0
 13
0.0
 23
0.0
 33
0.0
 16
1.0
 26
0.0
 36
0.0
 17
0.0
 27
1.0
 37
0.0
 76
     0
330
1F
331
29
  0
MLINESTYLE
  5
18
102
{ACAD_REACTORS
330
17
102
}
330
17
100
AcDbMlineStyle
  2
Standard
 70
     0
  3

 62
   256
 51
90.0
 52
90.0
 71
     2
 49
0.5
 62
   256
  6
BYLAYER
 49
-0.5
 62
   256
  6
BYLAYER
  0
ACDBPLACEHOLDER
  5
F
102
{ACAD_REACTORS
330
E
102
}
330
E
  0
SCALE
  5
48
102
{ACAD_REACTORS
330
47
102
}
330
47
100
AcDbScale
 70
     0
300
1:1
140
1.0
141
1.0
290
     1
  0
SCALE
  5
49
102
{ACAD_REACTORS
330
47
102
}
330
47
100
AcDbScale
 70
     0
300
1:2
140
1.0
141
2.0
290
     0
  0
SCALE
  5
4A
102
{ACAD_REACTORS
330
47
102
}
330
47
100
AcDbScale
 70
     0
300
1:4
140
1.0
141
4.0
290
     0
  0
SCALE
  5
4B
102
{ACAD_REACTORS
330
47
102
}
330
47
100
AcDbScale
 70
     0
300
1:5
140
1.0
141
5.0
290
     0
  0
SCALE
  5
4C
102
{ACAD_REACTORS
330
47
102
}
330
47
100
AcDbScale
 70
     0
300
1:8
140
1.0
141
8.0
290
     0
  0
SCALE
  5
4D
102
{ACAD_REACTORS
330
47
102
}
330
47
100
AcDbScale
 70
     0
300
1:10
140
1.0
141
10.0
290
     0
  0
SCALE
  5
4E
102
{ACAD_REACTORS
330
47
102
}
330
47
100
AcDbScale
 70
     0
300
1:16
140
1.0
141
16.0
290
     0
  0
SCALE
  5
4F
102
{ACAD_REACTORS
330
47
102
}
330
47
100
AcDbScale
 70
     0
300
1:20
140
1.0
141
20.0
290
     0
  0
SCALE
  5
50
102
{ACAD_REACTORS
330
47
102
}
330
47
100
AcDbScale
 70
     0
300
1:30
140
1.0
141
30.0
290
     0
  0
SCALE
  5
51
102
{ACAD_REACTORS
330
47
102
}
330
47
100
AcDbScale
 70
     0
300
1:40
140
1.0
141
40.0
290
     0
  0
SCALE
  5
52
102
{ACAD_REACTORS
330
47
102
}
330
47
100
AcDbScale
 70
     0
300
1:50
140
1.0
141
50.0
290
     0
  0
SCALE
  5
53
102
{ACAD_REACTORS
330
47
102
}
330
47
100
AcDbScale
 70
     0
300
1:100
140
1.0
141
100.0
290
     0
  0
SCALE
  5
54
102
{ACAD_REACTORS
330
47
102
}
330
47
100
AcDbScale
 70
     0
300
2:1
140
2.0
141
1.0
290
     0
  0
SCALE
  5
55
102
{ACAD_REACTORS
330
47
102
}
330
47
100
AcDbScale
 70
     0
300
4:1
140
4.0
141
1.0
290
     0
  0
SCALE
  5
56
102
{ACAD_REACTORS
330
47
102
}
330
47
100
AcDbScale
 70
     0
300
8:1
140
8.0
141
1.0
290
     0
  0
SCALE
  5
57
102
{ACAD_REACTORS
330
47
102
}
330
47
100
AcDbScale
 70
     0
300
10:1
140
10.0
141
1.0
290
     0
  0
SCALE
  5
58
102
{ACAD_REACTORS
330
47
102
}
330
47
100
AcDbScale
 70
     0
300
100:1
140
100.0
141
1.0
290
     0
  0
SCALE
  5
59
102
{ACAD_REACTORS
330
47
102
}
330
47
100
AcDbScale
 70
     0
300
1/128" = 1'-0"
140
0.0078125
141
12.0
290
     0
  0
SCALE
  5
5A
102
{ACAD_REACTORS
330
47
102
}
330
47
100
AcDbScale
 70
     0
300
1/64" = 1'-0"
140
0.015625
141
12.0
290
     0
  0
SCALE
  5
5B
102
{ACAD_REACTORS
330
47
102
}
330
47
100
AcDbScale
 70
     0
300
1/32" = 1'-0"
140
0.03125
141
12.0
290
     0
  0
SCALE
  5
5C
102
{ACAD_REACTORS
330
47
102
}
330
47
100
AcDbScale
 70
     0
300
1/16" = 1'-0"
140
0.0625
141
12.0
290
     0
  0
SCALE
  5
5D
102
{ACAD_REACTORS
330
47
102
}
330
47
100
AcDbScale
 70
     0
300
3/32" = 1'-0"
140
0.09375
141
12.0
290
     0
  0
SCALE
  5
5E
102
{ACAD_REACTORS
330
47
102
}
330
47
100
AcDbScale
 70
     0
300
1/8" = 1'-0"
140
0.125
141
12.0
290
     0
  0
SCALE
  5
5F
102
{ACAD_REACTORS
330
47
102
}
330
47
100
AcDbScale
 70
     0
300
3/16" = 1'-0"
140
0.1875
141
12.0
290
     0
  0
SCALE
  5
60
102
{ACAD_REACTORS
330
47
102
}
330
47
100
AcDbScale
 70
     0
300
1/4" = 1'-0"
140
0.25
141
12.0
290
     0
  0
SCALE
  5
61
102
{ACAD_REACTORS
330
47
102
}
330
47
100
AcDbScale
 70
     0
300
3/8" = 1'-0"
140
0.375
141
12.0
290
     0
  0
SCALE
  5
62
102
{ACAD_REACTORS
330
47
102
}
330
47
100
AcDbScale
 70
     0
300
1/2" = 1'-0"
140
0.5
141
12.0
290
     0
  0
SCALE
  5
63
102
{ACAD_REACTORS
330
47
102
}
330
47
100
AcDbScale
 70
     0
300
3/4" = 1'-0"
140
0.75
141
12.0
290
     0
  0
SCALE
  5
64
102
{ACAD_REACTORS
330
47
102
}
330
47
100
AcDbScale
 70
     0
300
1" = 1'-0"
140
1.0
141
12.0
290
     0
  0
SCALE
  5
65
102
{ACAD_REACTORS
330
47
102
}
330
47
100
AcDbScale
 70
     0
300
1-1/2" = 1'-0"
140
1.5
141
12.0
290
     0
  0
SCALE
  5
66
102
{ACAD_REACTORS
330
47
102
}
330
47
100
AcDbScale
 70
     0
300
3" = 1'-0"
140
3.0
141
12.0
290
     0
  0
SCALE
  5
67
102
{ACAD_REACTORS
330
47
102
}
330
47
100
AcDbScale
 70
     0
300
6" = 1'-0"
140
6.0
141
12.0
290
     0
  0
SCALE
  5
68
102
{ACAD_REACTORS
330
47
102
}
330
47
100
AcDbScale
 70
     0
300
1'-0" = 1'-0"
140
12.0
141
12.0
290
     0
  0
ENDSEC
  0
EOF
